  0
SECTION
  2
HEADER
  9
$ACADVER
  1
AC1018
  9
$ACADMAINTVER
 70
   104
  9
$DWGCODEPAGE
  3
ANSI_1250
  9
$AUTHOR
  1
pmacoun
  9
$CUSTOMPROPERTYTAG
  1
Vedoucí
  9
$CUSTOMPROPERTY
  1

  9
$CUSTOMPROPERTYTAG
  1
Společnost
  9
$CUSTOMPROPERTY
  1

  9
$CUSTOMPROPERTYTAG
  1
Kategorie
  9
$CUSTOMPROPERTY
  1

  9
$CUSTOMPROPERTYTAG
  1
Číslo součásti
  9
$CUSTOMPROPERTY
  1
baleni 218
  9
$CUSTOMPROPERTYTAG
  1
Popis
  9
$CUSTOMPROPERTY
  1

  9
$CUSTOMPROPERTYTAG
  1
Projekt
  9
$CUSTOMPROPERTY
  1

  9
$CUSTOMPROPERTYTAG
  1
Kreslil
  9
$CUSTOMPROPERTY
  1
pmacoun
  9
$CUSTOMPROPERTYTAG
  1
Schválil
  9
$CUSTOMPROPERTY
  1

  9
$CUSTOMPROPERTYTAG
  1
Zodpovídá
  9
$CUSTOMPROPERTY
  1

  9
$CUSTOMPROPERTYTAG
  1
Nákladové středisko
  9
$CUSTOMPROPERTY
  1

  9
$CUSTOMPROPERTYTAG
  1
Dodavatel
  9
$CUSTOMPROPERTY
  1

  9
$CUSTOMPROPERTYTAG
  1
Uživatelský stav
  9
$CUSTOMPROPERTY
  1

  9
$CUSTOMPROPERTYTAG
  1
Stav návrhu
  9
$CUSTOMPROPERTY
  1
Rozpracováno
  9
$CUSTOMPROPERTYTAG
  1
Zkontroloval
  9
$CUSTOMPROPERTY
  1

  9
$CUSTOMPROPERTYTAG
  1
Techn. kontr. schválil
  9
$CUSTOMPROPERTY
  1

  9
$CUSTOMPROPERTYTAG
  1
Výrobu schválil
  9
$CUSTOMPROPERTY
  1

  9
$CUSTOMPROPERTYTAG
  1
VS_First
  9
$CUSTOMPROPERTY
  1

  9
$CUSTOMPROPERTYTAG
  1
VS_All
  9
$CUSTOMPROPERTY
  1
1:1,
  9
$CUSTOMPROPERTYTAG
  1
Model_Mass_Value
  9
$CUSTOMPROPERTY
  1
,0
  9
$CUSTOMPROPERTYTAG
  1
Model_Mass_Units
  9
$CUSTOMPROPERTY
  1
kg
  9
$CUSTOMPROPERTYTAG
  1
Model_Area_Value
  9
$CUSTOMPROPERTY
  1
2694,0
  9
$CUSTOMPROPERTYTAG
  1
Model_Area_Units
  9
$CUSTOMPROPERTY
  1
mm˛
  9
$CUSTOMPROPERTYTAG
  1
Model_Volume_Value
  9
$CUSTOMPROPERTY
  1
5471,0
  9
$CUSTOMPROPERTYTAG
  1
Model_Volume_Units
  9
$CUSTOMPROPERTY
  1
mmł
  9
$CUSTOMPROPERTYTAG
  1
Model_CogX_Value
  9
$CUSTOMPROPERTY
  1
,0
  9
$CUSTOMPROPERTYTAG
  1
Model_CogY_Value
  9
$CUSTOMPROPERTY
  1
,0
  9
$CUSTOMPROPERTYTAG
  1
Model_CogZ_Value
  9
$CUSTOMPROPERTY
  1
,0
  9
$CUSTOMPROPERTYTAG
  1
Model_Cog_Units
  9
$CUSTOMPROPERTY
  1
mm
  9
$CUSTOMPROPERTYTAG
  1
Model_Ixx_Value
  9
$CUSTOMPROPERTY
  1
,0
  9
$CUSTOMPROPERTYTAG
  1
Model_Iyy_Value
  9
$CUSTOMPROPERTY
  1
,0
  9
$CUSTOMPROPERTYTAG
  1
Model_Izz_Value
  9
$CUSTOMPROPERTY
  1
,0
  9
$CUSTOMPROPERTYTAG
  1
Model_Ixy_Value
  9
$CUSTOMPROPERTY
  1
,0
  9
$CUSTOMPROPERTYTAG
  1
Model_Iyz_Value
  9
$CUSTOMPROPERTY
  1
,0
  9
$CUSTOMPROPERTYTAG
  1
Model_Ixz_Value
  9
$CUSTOMPROPERTY
  1
,0
  9
$CUSTOMPROPERTYTAG
  1
Model_MassMom_Units
  9
$CUSTOMPROPERTY
  1
kg mm˛
  9
$CUSTOMPROPERTYTAG
  1
FirstViewScale
  9
$CUSTOMPROPERTY
  1

  9
$CUSTOMPROPERTYTAG
  1
AllViewScales
  9
$CUSTOMPROPERTY
  1

  9
$CUSTOMPROPERTYTAG
  1
SaveDate
  9
$CUSTOMPROPERTY
  1
09/11/2007
  9
$CUSTOMPROPERTYTAG
  1
SaveTime
  9
$CUSTOMPROPERTY
  1
10:32
  9
$CUSTOMPROPERTYTAG
  1
PaperSize
  9
$CUSTOMPROPERTY
  1
A3
  9
$CUSTOMPROPERTYTAG
  1
DateSaved
  9
$CUSTOMPROPERTY
  1
12.09.2007
  9
$CUSTOMPROPERTYTAG
  1
TimeSaved
  9
$CUSTOMPROPERTY
  1
10:32 dop.
  9
$INSBASE
 10
0.0
 20
0.0
 30
0.0
  9
$EXTMIN
 10
0.0
 20
0.0
 30
0.0
  9
$EXTMAX
 10
420.4999999999999
 20
594.5
 30
0.0
  9
$LIMMIN
 10
0.0
 20
0.0
  9
$LIMMAX
 10
420.4999999999999
 20
594.5
  9
$ORTHOMODE
 70
     0
  9
$REGENMODE
 70
     1
  9
$FILLMODE
 70
     1
  9
$QTEXTMODE
 70
     0
  9
$MIRRTEXT
 70
     0
  9
$LTSCALE
 40
0.5
  9
$ATTMODE
 70
     1
  9
$TEXTSIZE
 40
0.2
  9
$TRACEWID
 40
0.05
  9
$TEXTSTYLE
  7
Standard
  9
$CLAYER
  8
0
  9
$CELTYPE
  6
ByLayer
  9
$CECOLOR
 62
   256
  9
$CELTSCALE
 40
1.0
  9
$DISPSILH
 70
     0
  9
$DIMSCALE
 40
1.0
  9
$DIMASZ
 40
1.799999999999999
  9
$DIMEXO
 40
0.0625
  9
$DIMDLI
 40
0.38
  9
$DIMRND
 40
0.0
  9
$DIMDLE
 40
0.0
  9
$DIMEXE
 40
0.18
  9
$DIMTP
 40
0.0
  9
$DIMTM
 40
0.0
  9
$DIMTXT
 40
0.3499999940395355
  9
$DIMCEN
 40
0.09
  9
$DIMTSZ
 40
0.0
  9
$DIMTOL
 70
     0
  9
$DIMLIM
 70
     0
  9
$DIMTIH
 70
     1
  9
$DIMTOH
 70
     1
  9
$DIMSE1
 70
     0
  9
$DIMSE2
 70
     0
  9
$DIMTAD
 70
     0
  9
$DIMZIN
 70
     0
  9
$DIMBLK
  1

  9
$DIMASO
 70
     1
  9
$DIMSHO
 70
     1
  9
$DIMPOST
  1

  9
$DIMAPOST
  1

  9
$DIMALT
 70
     0
  9
$DIMALTD
 70
     2
  9
$DIMALTF
 40
25.4
  9
$DIMLFAC
 40
1.0
  9
$DIMTOFL
 70
     0
  9
$DIMTVP
 40
0.0
  9
$DIMTIX
 70
     0
  9
$DIMSOXD
 70
     0
  9
$DIMSAH
 70
     0
  9
$DIMBLK1
  1

  9
$DIMBLK2
  1

  9
$DIMSTYLE
  2
Standard
  9
$DIMCLRD
 70
     0
  9
$DIMCLRE
 70
     0
  9
$DIMCLRT
 70
     0
  9
$DIMTFAC
 40
1.0
  9
$DIMGAP
 40
0.09
  9
$DIMJUST
 70
     0
  9
$DIMSD1
 70
     0
  9
$DIMSD2
 70
     0
  9
$DIMTOLJ
 70
     1
  9
$DIMTZIN
 70
     0
  9
$DIMALTZ
 70
     0
  9
$DIMALTTZ
 70
     0
  9
$DIMUPT
 70
     0
  9
$DIMDEC
 70
     4
  9
$DIMTDEC
 70
     4
  9
$DIMALTU
 70
     2
  9
$DIMALTTD
 70
     2
  9
$DIMTXSTY
  7
Standard
  9
$DIMAUNIT
 70
     0
  9
$DIMADEC
 70
     0
  9
$DIMALTRND
 40
0.0
  9
$DIMAZIN
 70
     0
  9
$DIMDSEP
 70
    46
  9
$DIMATFIT
 70
     3
  9
$DIMFRAC
 70
     0
  9
$DIMLDRBLK
  1

  9
$DIMLUNIT
 70
     2
  9
$DIMLWD
 70
    -2
  9
$DIMLWE
 70
    -2
  9
$DIMTMOVE
 70
     0
  9
$LUNITS
 70
     2
  9
$LUPREC
 70
     4
  9
$SKETCHINC
 40
0.1
  9
$FILLETRAD
 40
0.0
  9
$AUNITS
 70
     0
  9
$AUPREC
 70
     0
  9
$MENU
  1
.
  9
$ELEVATION
 40
0.0
  9
$PELEVATION
 40
0.0
  9
$THICKNESS
 40
0.0
  9
$LIMCHECK
 70
     0
  9
$CHAMFERA
 40
0.0
  9
$CHAMFERB
 40
0.0
  9
$CHAMFERC
 40
0.0
  9
$CHAMFERD
 40
0.0
  9
$SKPOLY
 70
     0
  9
$TDCREATE
 40
2456636.507192743
  9
$TDUCREATE
 40
2456636.465526077
  9
$TDUPDATE
 40
2456636.507192743
  9
$TDUUPDATE
 40
2456636.465526077
  9
$TDINDWG
 40
0.0000664120
  9
$TDUSRTIMER
 40
0.0000664120
  9
$USRTIMER
 70
     1
  9
$ANGBASE
 50
0.0
  9
$ANGDIR
 70
     0
  9
$PDMODE
 70
     0
  9
$PDSIZE
 40
0.0
  9
$PLINEWID
 40
0.0
  9
$SPLFRAME
 70
     0
  9
$SPLINETYPE
 70
     6
  9
$SPLINESEGS
 70
     8
  9
$HANDSEED
  5
7B0
  9
$SURFTAB1
 70
     6
  9
$SURFTAB2
 70
     6
  9
$SURFTYPE
 70
     6
  9
$SURFU
 70
     6
  9
$SURFV
 70
     6
  9
$UCSBASE
  2

  9
$UCSNAME
  2

  9
$UCSORG
 10
0.0
 20
0.0
 30
0.0
  9
$UCSXDIR
 10
1.0
 20
0.0
 30
0.0
  9
$UCSYDIR
 10
0.0
 20
1.0
 30
0.0
  9
$UCSORTHOREF
  2

  9
$UCSORTHOVIEW
 70
     0
  9
$UCSORGTOP
 10
0.0
 20
0.0
 30
0.0
  9
$UCSORGBOTTOM
 10
0.0
 20
0.0
 30
0.0
  9
$UCSORGLEFT
 10
0.0
 20
0.0
 30
0.0
  9
$UCSORGRIGHT
 10
0.0
 20
0.0
 30
0.0
  9
$UCSORGFRONT
 10
0.0
 20
0.0
 30
0.0
  9
$UCSORGBACK
 10
0.0
 20
0.0
 30
0.0
  9
$PUCSBASE
  2

  9
$PUCSNAME
  2

  9
$PUCSORG
 10
0.0
 20
0.0
 30
0.0
  9
$PUCSXDIR
 10
1.0
 20
0.0
 30
0.0
  9
$PUCSYDIR
 10
0.0
 20
1.0
 30
0.0
  9
$PUCSORTHOREF
  2

  9
$PUCSORTHOVIEW
 70
     0
  9
$PUCSORGTOP
 10
0.0
 20
0.0
 30
0.0
  9
$PUCSORGBOTTOM
 10
0.0
 20
0.0
 30
0.0
  9
$PUCSORGLEFT
 10
0.0
 20
0.0
 30
0.0
  9
$PUCSORGRIGHT
 10
0.0
 20
0.0
 30
0.0
  9
$PUCSORGFRONT
 10
0.0
 20
0.0
 30
0.0
  9
$PUCSORGBACK
 10
0.0
 20
0.0
 30
0.0
  9
$USERI1
 70
     0
  9
$USERI2
 70
     0
  9
$USERI3
 70
     0
  9
$USERI4
 70
     0
  9
$USERI5
 70
     0
  9
$USERR1
 40
0.0
  9
$USERR2
 40
0.0
  9
$USERR3
 40
0.0
  9
$USERR4
 40
0.0
  9
$USERR5
 40
0.0
  9
$WORLDVIEW
 70
     1
  9
$SHADEDGE
 70
     3
  9
$SHADEDIF
 70
    70
  9
$TILEMODE
 70
     1
  9
$MAXACTVP
 70
    64
  9
$PINSBASE
 10
0.0
 20
0.0
 30
0.0
  9
$PLIMCHECK
 70
     0
  9
$PEXTMIN
 10
0.0
 20
0.0
 30
0.0
  9
$PEXTMAX
 10
420.4999999999999
 20
594.5
 30
0.0
  9
$PLIMMIN
 10
0.0
 20
0.0
  9
$PLIMMAX
 10
420.4999999999999
 20
594.5
  9
$UNITMODE
 70
     0
  9
$VISRETAIN
 70
     1
  9
$PLINEGEN
 70
     0
  9
$PSLTSCALE
 70
     1
  9
$TREEDEPTH
 70
  3020
  9
$CMLSTYLE
  2
Standard
  9
$CMLJUST
 70
     0
  9
$CMLSCALE
 40
1.0
  9
$PROXYGRAPHICS
 70
     1
  9
$MEASUREMENT
 70
     1
  9
$CELWEIGHT
370
    -1
  9
$ENDCAPS
280
     0
  9
$JOINSTYLE
280
     0
  9
$LWDISPLAY
290
     0
  9
$INSUNITS
 70
     4
  9
$HYPERLINKBASE
  1

  9
$STYLESHEET
  1

  9
$XEDIT
290
     1
  9
$CEPSNTYPE
380
     0
  9
$PSTYLEMODE
290
     1
  9
$FINGERPRINTGUID
  2
{CF6C1163-93A1-4303-86FE-70B80EE2DEFC}
  9
$VERSIONGUID
  2
{37A713F5-BC18-4D6F-8D4C-605CD5AD1E2C}
  9
$EXTNAMES
290
     1
  9
$PSVPSCALE
 40
0.0
  9
$OLESTARTUP
290
     0
  9
$SORTENTS
280
   127
  9
$INDEXCTL
280
     0
  9
$HIDETEXT
280
     1
  9
$XCLIPFRAME
290
     0
  9
$HALOGAP
280
     0
  9
$OBSCOLOR
 70
   257
  9
$OBSLTYPE
280
     0
  9
$INTERSECTIONDISPLAY
280
     0
  9
$INTERSECTIONCOLOR
 70
   257
  9
$DIMASSOC
280
     1
  9
$PROJECTNAME
  1

  0
ENDSEC
  0
SECTION
  2
CLASSES
  0
CLASS
  1
ACDBDICTIONARYWDFLT
  2
AcDbDictionaryWithDefault
  3
ObjectDBX Classes
 90
        0
 91
        1
280
     0
281
     0
  0
CLASS
  1
MATERIAL
  2
AcDbMaterial
  3
ObjectDBX Classes
 90
     1153
 91
        3
280
     0
281
     0
  0
CLASS
  1
VISUALSTYLE
  2
AcDbVisualStyle
  3
ObjectDBX Classes
 90
     4095
 91
       24
280
     0
281
     0
  0
CLASS
  1
SCALE
  2
AcDbScale
  3
ObjectDBX Classes
 90
     1153
 91
       17
280
     0
281
     0
  0
CLASS
  1
TABLESTYLE
  2
AcDbTableStyle
  3
ObjectDBX Classes
 90
     4095
 91
        1
280
     0
281
     0
  0
CLASS
  1
MLEADERSTYLE
  2
AcDbMLeaderStyle
  3
ACDB_MLEADERSTYLE_CLASS
 90
     4095
 91
        1
280
     0
281
     0
  0
CLASS
  1
DICTIONARYVAR
  2
AcDbDictionaryVar
  3
ObjectDBX Classes
 90
        0
 91
        8
280
     0
281
     0
  0
CLASS
  1
CELLSTYLEMAP
  2
AcDbCellStyleMap
  3
ObjectDBX Classes
 90
     1152
 91
        1
280
     0
281
     0
  0
ENDSEC
  0
SECTION
  2
TABLES
  0
TABLE
  2
VPORT
  5
8
330
0
100
AcDbSymbolTable
 70
     1
  0
VPORT
  5
57
330
8
100
AcDbSymbolTableRecord
100
AcDbViewportTableRecord
  2
*Active
 70
     0
 10
0.0
 20
0.0
 11
1.0
 21
1.0
 12
210.25
 22
297.25
 13
0.0
 23
0.0
 14
1.0
 24
1.0
 15
0.0
 25
0.0
 16
0.0
 26
0.0
 36
1.0
 17
0.0
 27
0.0
 37
0.0
 40
594.5
 41
0.7073170731707316
 42
50.0
 43
0.0
 44
0.0
 50
0.0
 51
0.0
 71
     0
 72
   100
 73
     1
 74
     1
 75
     0
 76
     0
 77
     0
 78
     0
281
     0
 65
     1
110
0.0
120
0.0
130
0.0
111
1.0
121
0.0
131
0.0
112
0.0
122
1.0
132
0.0
 79
     0
146
0.0
  0
ENDTAB
  0
TABLE
  2
LTYPE
  5
5
330
0
100
AcDbSymbolTable
 70
     1
  0
LTYPE
  5
5B
330
5
100
AcDbSymbolTableRecord
100
AcDbLinetypeTableRecord
  2
ByBlock
 70
     0
  3

 72
    65
 73
     0
 40
0.0
  0
LTYPE
  5
5C
330
5
100
AcDbSymbolTableRecord
100
AcDbLinetypeTableRecord
  2
ByLayer
 70
     0
  3

 72
    65
 73
     0
 40
0.0
  0
LTYPE
  5
5D
330
5
100
AcDbSymbolTableRecord
100
AcDbLinetypeTableRecord
  2
Continuous
 70
     0
  3
Solid line
 72
    65
 73
     0
 40
0.0
  0
ENDTAB
  0
TABLE
  2
LAYER
  5
2
330
0
100
AcDbSymbolTable
 70
    30
  0
LAYER
  5
54
330
2
100
AcDbSymbolTableRecord
100
AcDbLayerTableRecord
  2
0
 70
     0
 62
     7
  6
Continuous
370
    -3
390
F
  0
LAYER
  5
78
330
2
100
AcDbSymbolTableRecord
100
AcDbLayerTableRecord
  2
Geometrie náčrtu (ISO)
 70
     0
 62
     7
  6
Continuous
370
     9
390
F
  0
LAYER
  5
7A
330
2
100
AcDbSymbolTableRecord
100
AcDbLayerTableRecord
  2
Kóta (ISO)
 70
     0
 62
     5
420
      255
  6
Continuous
370
     9
390
F
  0
LAYER
  5
7D
330
2
100
AcDbSymbolTableRecord
100
AcDbLayerTableRecord
  2
Osa (ISO)
 70
     0
 62
     1
420
 16711680
  6
Continuous
370
     9
390
F
  0
LAYER
  5
8D
330
2
100
AcDbSymbolTableRecord
100
AcDbLayerTableRecord
  2
Viditelná (ISO)
 70
     0
 62
     7
  6
Continuous
370
    35
390
F
  0
LAYER
  5
8E
330
2
100
AcDbSymbolTableRecord
100
AcDbLayerTableRecord
  2
Viditelná tenká (ISO)
 70
     0
 62
     7
  6
Continuous
370
     9
390
F
  0
LAYER
  5
8F
330
2
100
AcDbSymbolTableRecord
100
AcDbLayerTableRecord
  2
Značka (ISO)
 70
     0
 62
     5
420
      255
  6
Continuous
370
     9
390
F
  0
LAYER
  5
244
330
2
100
AcDbSymbolTableRecord
100
AcDbLayerTableRecord
  2
Defpoints
 70
     0
 62
     7
  6
Continuous
290
     0
370
    -3
390
F
  0
ENDTAB
  0
TABLE
  2
STYLE
  5
3
330
0
100
AcDbSymbolTable
 70
    10
  0
STYLE
  5
55
330
3
100
AcDbSymbolTableRecord
100
AcDbTextStyleTableRecord
  2
Standard
 70
     0
 40
0.0
 41
1.0
 50
0.0
 71
     0
 42
0.2
  3
tahoma.ttf
  4

1001
ACAD
1000
Tahoma
1071
      256
  0
STYLE
  5
5A
330
3
100
AcDbSymbolTableRecord
100
AcDbTextStyleTableRecord
  2
Annotative
 70
     0
 40
0.0
 41
1.0
 50
0.0
 71
     0
 42
0.2
  3
txt
  4

1001
AcadAnnotative
1000
AnnotativeData
1002
{
1070
     1
1070
     1
1002
}
  0
STYLE
  5
90
330
3
100
AcDbSymbolTableRecord
100
AcDbTextStyleTableRecord
  2
ITALICC8_57
 70
     0
 40
0.0
 41
1.0
 50
0.0
 71
     0
 42
0.2
  3
tahoma.ttf
  4

1001
ACAD
1000
Tahoma
1071
      256
  0
STYLE
  5
91
330
3
100
AcDbSymbolTableRecord
100
AcDbTextStyleTableRecord
  2
kusovnik
 70
     0
 40
0.0
 41
1.0
 50
0.0
 71
     0
 42
0.2
  3
arial.ttf
  4

1001
ACAD
1000
Arial
1071
      256
  0
STYLE
  5
92
330
3
100
AcDbSymbolTableRecord
100
AcDbTextStyleTableRecord
  2
ROMANS8_69
 70
     0
 40
0.0
 41
1.0
 50
0.0
 71
     0
 42
0.2
  3
tahoma.ttf
  4

1001
ACAD
1000
Tahoma
1071
      256
  0
STYLE
  5
93
330
3
100
AcDbSymbolTableRecord
100
AcDbTextStyleTableRecord
  2
Text popisu (ISO)
 70
     0
 40
0.0
 41
1.0
 50
0.0
 71
     0
 42
0.2
  3
tahoma.ttf
  4

1001
ACAD
1000
Tahoma
1071
      256
  0
STYLE
  5
94
330
3
100
AcDbSymbolTableRecord
100
AcDbTextStyleTableRecord
  2
Text poznámky (DIN)
 70
     0
 40
0.0
 41
1.0
 50
0.0
 71
     0
 42
0.2
  3
isocpeur.ttf
  4

1001
ACAD
1000
ISOCPEUR
1071
      256
  0
STYLE
  5
95
330
3
100
AcDbSymbolTableRecord
100
AcDbTextStyleTableRecord
  2
Text poznámky (ISO)
 70
     0
 40
0.0
 41
1.0
 50
0.0
 71
     0
 42
0.2
  3
tahoma.ttf
  4

1001
ACAD
1000
Tahoma
1071
      256
  0
STYLE
  5
96
330
3
100
AcDbSymbolTableRecord
100
AcDbTextStyleTableRecord
  2
TEXT20_41
 70
     0
 40
0.0
 41
1.0
 50
0.0
 71
     0
 42
0.2
  3
tahoma.ttf
  4

1001
ACAD
1000
Tahoma
1071
      256
  0
STYLE
  5
97
330
3
100
AcDbSymbolTableRecord
100
AcDbTextStyleTableRecord
  2
TEXT20_59
 70
     0
 40
0.0
 41
1.0
 50
0.0
 71
     0
 42
0.2
  3
tahoma.ttf
  4

1001
ACAD
1000
Tahoma
1071
      256
  0
ENDTAB
  0
TABLE
  2
VIEW
  5
6
330
0
100
AcDbSymbolTable
 70
     0
  0
ENDTAB
  0
TABLE
  2
UCS
  5
7
330
0
100
AcDbSymbolTable
 70
     0
  0
ENDTAB
  0
TABLE
  2
APPID
  5
9
330
0
100
AcDbSymbolTable
 70
     3
  0
APPID
  5
56
330
9
100
AcDbSymbolTableRecord
100
AcDbRegAppTableRecord
  2
ACAD
 70
     0
  0
APPID
  5
5E
330
9
100
AcDbSymbolTableRecord
100
AcDbRegAppTableRecord
  2
AcadAnnotative
 70
     0
  0
APPID
  5
78D
330
9
100
AcDbSymbolTableRecord
100
AcDbRegAppTableRecord
  2
ACAD_MLEADERVER
 70
     0
  0
ENDTAB
  0
TABLE
  2
DIMSTYLE
  5
A
330
0
100
AcDbSymbolTable
 70
    21
100
AcDbDimStyleTable
 71
     3
340
A7
340
58
340
B5
  0
DIMSTYLE
105
58
330
A
100
AcDbSymbolTableRecord
100
AcDbDimStyleTableRecord
  2
Standard
 70
     0
340
55
  0
DIMSTYLE
105
59
330
A
100
AcDbSymbolTableRecord
100
AcDbDimStyleTableRecord
  2
Annotative
 70
     0
340
55
1001
AcadAnnotative
1000
AnnotativeData
1002
{
1070
     1
1070
     1
1002
}
  0
DIMSTYLE
105
A7
102
{ACAD_REACTORS
330
243
330
3F1
330
4C7
330
59D
330
673
102
}
330
A
100
AcDbSymbolTableRecord
100
AcDbDimStyleTableRecord
  2
Kopie z Různé objekty (ISO)
 70
     0
 40
0.5
 41
2.5
 42
0.0
 43
5.999999999999999
 44
1.0
 45
0.00000001
 46
10.0
 73
     0
 74
     0
 77
     1
 78
     8
 79
     2
140
10.0
143
0.03937
147
0.762
171
     3
172
     1
176
   256
177
   256
178
   256
179
     2
271
     0
272
     2
274
     3
278
    44
284
     8
340
93
341
98
371
    -1
372
    -1
  0
DIMSTYLE
105
A8
330
A
100
AcDbSymbolTableRecord
100
AcDbDimStyleTableRecord
  2
Kopie z Různé objekty (ISO)$7
 70
     0
 40
0.5
 41
5.0
 42
0.0
 43
5.999999999999999
 44
1.0
 45
0.00000001
 46
10.0
 73
     0
 74
     0
 77
     1
 78
     8
 79
     2
140
10.0
143
0.03937
147
0.762
171
     3
172
     1
176
   256
177
   256
178
   256
179
     2
271
     0
272
     2
274
     3
278
    44
284
     8
340
93
341
98
371
    25
372
    -1
  0
DIMSTYLE
105
A9
330
A
100
AcDbSymbolTableRecord
100
AcDbDimStyleTableRecord
  2
Různé objekty (ISO)
 70
     0
 40
0.5
 41
2.5
 42
0.0
 43
5.999999999999999
 44
1.0
 45
0.00000001
 46
10.0
 73
     0
 74
     0
 77
     1
 78
     8
 79
     2
140
10.0
143
0.03937
146
0.3505200147628784
147
0.762
171
     3
172
     1
176
   256
177
   256
178
   256
179
     2
271
     2
272
     2
274
     3
278
    44
284
     8
340
93
341
98
371
    -1
372
    -1
  0
DIMSTYLE
105
AA
330
A
100
AcDbSymbolTableRecord
100
AcDbDimStyleTableRecord
  2
Různé objekty (ISO)$7
 70
     0
 40
0.5
 41
5.0
 42
0.0
 43
5.999999999999999
 44
1.0
 45
0.00000001
 46
10.0
 73
     0
 74
     0
 77
     1
 78
     8
 79
     2
140
10.0
143
0.03937
146
0.3505200147628784
147
0.762
171
     3
172
     1
176
   256
177
   256
178
   256
179
     2
271
     2
272
     2
274
     3
278
    44
284
     8
340
93
341
98
371
    25
372
    -1
  0
DIMSTYLE
105
AB
330
A
100
AcDbSymbolTableRecord
100
AcDbDimStyleTableRecord
  2
Výchozí - Metoda 1b (ISO)
 70
     0
 40
0.5
 41
2.5
 42
0.0
 43
5.999999999999999
 44
1.0
 45
0.00000001
 46
10.0
 73
     0
 77
     1
 78
     8
 79
     2
140
3.5
143
0.03937
147
0.762
171
     3
172
     1
176
   256
177
   256
178
   256
179
     2
271
     2
272
     2
274
     3
278
    44
284
     8
286
     8
340
95
371
    -1
372
    -1
  0
DIMSTYLE
105
AC
330
A
100
AcDbSymbolTableRecord
100
AcDbDimStyleTableRecord
  2
Výchozí - Metoda 1b (ISO)$7
 70
     0
 40
0.5
 41
2.5
 42
0.0
 43
5.999999999999999
 44
1.0
 45
0.00000001
 46
10.0
 73
     0
 77
     1
 78
     8
 79
     2
140
3.5
143
0.03937
147
0.762
171
     3
172
     1
176
   256
177
   256
178
   256
179
     2
271
     2
272
     2
274
     3
278
    44
284
     8
286
     8
340
95
371
    -1
372
    -1
  0
DIMSTYLE
105
AD
330
A
100
AcDbSymbolTableRecord
100
AcDbDimStyleTableRecord
  2
Výchozí - Metoda 2a (ISO)
 70
     0
 40
0.5
 41
2.5
 42
0.0
 43
5.999999999999999
 44
1.0
 45
0.00000001
 46
10.0
 77
     1
 78
     8
 79
     2
140
3.5
143
0.03937
147
0.762
171
     3
172
     1
176
   256
177
   256
178
   256
179
     2
271
     2
272
     2
274
     3
278
    44
284
     8
286
     8
340
95
371
    -1
372
    -1
  0
DIMSTYLE
105
AE
330
A
100
AcDbSymbolTableRecord
100
AcDbDimStyleTableRecord
  2
Výchozí - Metoda 2a (ISO)$7
 70
     0
 40
0.5
 41
2.5
 42
0.0
 43
5.999999999999999
 44
1.0
 45
0.00000001
 46
10.0
 77
     1
 78
     8
 79
     2
140
3.5
143
0.03937
147
0.762
171
     3
172
     1
176
   256
177
   256
178
   256
179
     2
271
     2
272
     2
274
     3
278
    44
284
     8
286
     8
340
95
371
    -1
372
    -1
  0
DIMSTYLE
105
AF
330
A
100
AcDbSymbolTableRecord
100
AcDbDimStyleTableRecord
  2
Výchozí - Metoda 2b (ISO)
 70
     0
 40
0.5
 41
2.5
 42
0.0
 43
5.999999999999999
 44
1.0
 45
0.00000001
 46
10.0
 77
     1
 78
     8
 79
     2
140
3.5
143
0.03937
147
0.762
171
     3
172
     1
176
   256
177
   256
178
   256
179
     2
271
     2
272
     2
274
     3
278
    44
284
     8
286
     8
340
95
371
    -1
372
    -1
  0
DIMSTYLE
105
B0
330
A
100
AcDbSymbolTableRecord
100
AcDbDimStyleTableRecord
  2
Výchozí - Metoda 2b (ISO)$7
 70
     0
 40
0.5
 41
2.5
 42
0.0
 43
5.999999999999999
 44
1.0
 45
0.00000001
 46
10.0
 77
     1
 78
     8
 79
     2
140
3.5
143
0.03937
147
0.762
171
     3
172
     1
176
   256
177
   256
178
   256
179
     2
271
     2
272
     2
274
     3
278
    44
284
     8
286
     8
340
95
371
    -1
372
    -1
  0
DIMSTYLE
105
B1
330
A
100
AcDbSymbolTableRecord
100
AcDbDimStyleTableRecord
  2
Výchozí - mm [palce] (ISO)
 70
     0
  4
 in
 40
0.5
 41
2.5
 42
0.0
 43
5.999999999999999
 44
3.174999999999999
 45
0.00000001
 46
10.0
 73
     0
 74
     0
 77
     1
 78
     8
 79
     2
140
3.5
143
0.03937
147
0.762
170
     1
171
     3
172
     1
176
   256
177
   256
178
   256
179
     3
271
     3
272
     2
274
     3
275
     1
278
    44
284
     8
285
     8
286
     8
340
95
371
    -1
372
    -1
  0
DIMSTYLE
105
B2
330
A
100
AcDbSymbolTableRecord
100
AcDbDimStyleTableRecord
  2
Výchozí - mm [palce] (ISO)$7
 70
     0
  4
 in
 40
0.5
 41
2.5
 42
0.0
 43
5.999999999999999
 44
3.174999999999999
 45
0.00000001
 46
10.0
 73
     0
 74
     0
 77
     1
 78
     8
 79
     2
140
3.5
143
0.03937
147
0.762
170
     1
171
     3
172
     1
176
   256
177
   256
178
   256
179
     3
271
     3
272
     2
274
     3
275
     1
278
    44
284
     8
285
     8
286
     8
340
95
371
    -1
372
    -1
  0
DIMSTYLE
105
B3
330
A
100
AcDbSymbolTableRecord
100
AcDbDimStyleTableRecord
  2
Výchozí (ISO)
 70
     0
 40
0.5
 41
3.5
 42
0.0
 43
5.999999999999999
 44
1.499999999999999
 45
0.00000001
 46
10.0
 73
     0
 74
     0
 77
     1
 78
     8
 79
     2
140
3.5
143
0.03937
146
1.001485705375671
147
1.0
171
     3
172
     1
176
   256
177
   256
178
   256
179
     2
271
     2
272
     2
274
     3
278
    44
284
     8
340
95
371
    -1
372
    -1
  0
DIMSTYLE
105
B4
330
A
100
AcDbSymbolTableRecord
100
AcDbDimStyleTableRecord
  2
Výchozí (ISO)$7
 70
     0
 40
0.5
 41
2.5
 42
0.0
 43
5.999999999999999
 44
1.499999999999999
 45
0.00000001
 46
10.0
 73
     0
 74
     0
 77
     1
 78
     8
 79
     2
140
3.5
143
0.03937
146
1.001485705375671
147
1.0
171
     3
172
     1
176
   256
177
   256
178
   256
179
     2
271
     2
272
     2
274
     3
278
    44
284
     8
340
95
371
    -1
372
    -1
  0
DIMSTYLE
105
B5
102
{ACAD_REACTORS
330
31A
102
}
330
A
100
AcDbSymbolTableRecord
100
AcDbDimStyleTableRecord
  2
Výchozí (ISO)-01
 70
     0
 40
0.5
 41
2.5
 42
0.0
 43
5.999999999999999
 44
1.0
 45
0.00000001
 46
10.0
 73
     0
 74
     0
 77
     1
 78
     8
 79
     2
140
10.0
143
0.03937
147
0.762
171
     3
172
     1
176
   256
177
   256
178
   256
179
     2
271
     0
272
     2
274
     3
278
    44
284
     8
340
93
341
98
371
    -1
372
    -1
  0
DIMSTYLE
105
B6
330
A
100
AcDbSymbolTableRecord
100
AcDbDimStyleTableRecord
  2
Výchozí (ISO)-01$7
 70
     0
 40
0.5
 41
5.0
 42
0.0
 43
5.999999999999999
 44
1.0
 45
0.00000001
 46
10.0
 73
     0
 74
     0
 77
     1
 78
     8
 79
     2
140
10.0
143
0.03937
147
0.762
171
     3
172
     1
176
   256
177
   256
178
   256
179
     2
271
     0
272
     2
274
     3
278
    44
284
     8
340
93
341
98
371
    25
372
    -1
  0
DIMSTYLE
105
B7
330
A
100
AcDbSymbolTableRecord
100
AcDbDimStyleTableRecord
  2
Alternativní (ANSI)
 70
     0
 40
0.5
 41
2.489200115203857
340
55
342
B8
  0
DIMSTYLE
105
BF
330
A
100
AcDbSymbolTableRecord
100
AcDbDimStyleTableRecord
  2
Alternativní (ISO)
 70
     0
 40
0.5
 41
2.5
340
55
342
B8
  0
DIMSTYLE
105
CA
330
A
100
AcDbSymbolTableRecord
100
AcDbDimStyleTableRecord
  2
Základny (ISO)
 70
     0
 40
0.5
 41
2.5
340
55
342
B8
  0
ENDTAB
  0
TABLE
  2
BLOCK_RECORD
  5
1
330
0
100
AcDbSymbolTable
 70
    35
  0
BLOCK_RECORD
  5
6C
330
1
100
AcDbSymbolTableRecord
100
AcDbBlockTableRecord
  2
*Model_Space
340
6F
  0
BLOCK_RECORD
  5
68
330
1
100
AcDbSymbolTableRecord
100
AcDbBlockTableRecord
  2
*Paper_Space
340
6B
  0
BLOCK_RECORD
  5
70
330
1
100
AcDbSymbolTableRecord
100
AcDbBlockTableRecord
  2
*Paper_Space0
340
73
  0
BLOCK_RECORD
  5
98
330
1
100
AcDbSymbolTableRecord
100
AcDbBlockTableRecord
  2
Filled-1
340
0
  0
BLOCK_RECORD
  5
B8
330
1
100
AcDbSymbolTableRecord
100
AcDbBlockTableRecord
  2
_Closed
340
0
  0
BLOCK_RECORD
  5
C0
330
1
100
AcDbSymbolTableRecord
100
AcDbBlockTableRecord
  2
DatumFilled45
340
0
  0
BLOCK_RECORD
  5
CB
330
1
100
AcDbSymbolTableRecord
100
AcDbBlockTableRecord
  2
WIG-svařování DE
340
0
  0
BLOCK_RECORD
  5
D0
330
1
100
AcDbSymbolTableRecord
100
AcDbBlockTableRecord
  2
WIG-svařování EN
340
0
  0
BLOCK_RECORD
  5
D4
330
1
100
AcDbSymbolTableRecord
100
AcDbBlockTableRecord
  2
Popis kotvy_srouby DE
340
0
  0
BLOCK_RECORD
  5
D8
330
1
100
AcDbSymbolTableRecord
100
AcDbBlockTableRecord
  2
Popis kotvy_ šrouby EN
340
0
  0
BLOCK_RECORD
  5
DC
330
1
100
AcDbSymbolTableRecord
100
AcDbBlockTableRecord
  2
Tryskat DE
340
0
  0
BLOCK_RECORD
  5
E0
330
1
100
AcDbSymbolTableRecord
100
AcDbBlockTableRecord
  2
Tryskat EN
340
0
  0
BLOCK_RECORD
  5
E4
330
1
100
AcDbSymbolTableRecord
100
AcDbBlockTableRecord
  2
Mořit a pasivovat DE
340
0
  0
BLOCK_RECORD
  5
E8
330
1
100
AcDbSymbolTableRecord
100
AcDbBlockTableRecord
  2
Mořit a pasivovat EN
340
0
  0
BLOCK_RECORD
  5
EC
330
1
100
AcDbSymbolTableRecord
100
AcDbBlockTableRecord
  2
Žárově zinkovat DE
340
0
  0
BLOCK_RECORD
  5
F0
330
1
100
AcDbSymbolTableRecord
100
AcDbBlockTableRecord
  2
Žárově zinkovat EN
340
0
  0
BLOCK_RECORD
  5
F4
330
1
100
AcDbSymbolTableRecord
100
AcDbBlockTableRecord
  2
Brousit DE
340
0
  0
BLOCK_RECORD
  5
F8
330
1
100
AcDbSymbolTableRecord
100
AcDbBlockTableRecord
  2
Brousit EN
340
0
  0
BLOCK_RECORD
  5
FC
330
1
100
AcDbSymbolTableRecord
100
AcDbBlockTableRecord
  2
Elektrolyticky leštit DE
340
0
  0
BLOCK_RECORD
  5
100
330
1
100
AcDbSymbolTableRecord
100
AcDbBlockTableRecord
  2
Elektrolyticky leštit EN
340
0
  0
BLOCK_RECORD
  5
104
330
1
100
AcDbSymbolTableRecord
100
AcDbBlockTableRecord
  2
Žlab bez spádu DE
340
0
  0
BLOCK_RECORD
  5
108
330
1
100
AcDbSymbolTableRecord
100
AcDbBlockTableRecord
  2
Žlab bez spádu EN
340
0
  0
BLOCK_RECORD
  5
10C
330
1
100
AcDbSymbolTableRecord
100
AcDbBlockTableRecord
  2
Spád žlabu DE
340
0
  0
BLOCK_RECORD
  5
110
330
1
100
AcDbSymbolTableRecord
100
AcDbBlockTableRecord
  2
Spád žlabu EN
340
0
  0
BLOCK_RECORD
  5
114
330
1
100
AcDbSymbolTableRecord
100
AcDbBlockTableRecord
  2
Kartáč + fólie DE
340
0
  0
BLOCK_RECORD
  5
118
330
1
100
AcDbSymbolTableRecord
100
AcDbBlockTableRecord
  2
Kartáč + fólie EN
340
0
  0
BLOCK_RECORD
  5
11C
330
1
100
AcDbSymbolTableRecord
100
AcDbBlockTableRecord
  2
Komplet tryskat DE
340
0
  0
BLOCK_RECORD
  5
120
330
1
100
AcDbSymbolTableRecord
100
AcDbBlockTableRecord
  2
Aschl Nirotec-tryskání
340
0
  0
BLOCK_RECORD
  5
124
330
1
100
AcDbSymbolTableRecord
100
AcDbBlockTableRecord
  2
Mater. provedeni Art.
340
0
  0
BLOCK_RECORD
  5
146
330
1
100
AcDbSymbolTableRecord
100
AcDbBlockTableRecord
  2
Art. s popisy
340
0
  0
BLOCK_RECORD
  5
168
330
1
100
AcDbSymbolTableRecord
100
AcDbBlockTableRecord
  2
Nátěr
340
0
  0
BLOCK_RECORD
  5
245
330
1
100
AcDbSymbolTableRecord
100
AcDbBlockTableRecord
  2
*D29
340
0
  0
BLOCK_RECORD
  5
31B
330
1
100
AcDbSymbolTableRecord
100
AcDbBlockTableRecord
  2
*D30
340
0
  0
BLOCK_RECORD
  5
3F2
330
1
100
AcDbSymbolTableRecord
100
AcDbBlockTableRecord
  2
*D31
340
0
  0
BLOCK_RECORD
  5
4C8
330
1
100
AcDbSymbolTableRecord
100
AcDbBlockTableRecord
  2
*D32
340
0
  0
BLOCK_RECORD
  5
59E
330
1
100
AcDbSymbolTableRecord
100
AcDbBlockTableRecord
  2
*D33
340
0
  0
BLOCK_RECORD
  5
674
330
1
100
AcDbSymbolTableRecord
100
AcDbBlockTableRecord
  2
*D34
340
0
  0
ENDTAB
  0
ENDSEC
  0
SECTION
  2
BLOCKS
  0
BLOCK
  5
6D
330
6C
100
AcDbEntity
  8
0
100
AcDbBlockBegin
  2
*Model_Space
 70
     0
 10
0.0
 20
0.0
 30
0.0
  3
*Model_Space
  1

  0
ENDBLK
  5
6E
330
6C
100
AcDbEntity
  8
0
100
AcDbBlockEnd
  0
BLOCK
  5
69
330
68
100
AcDbEntity
 67
     1
  8
0
100
AcDbBlockBegin
  2
*Paper_Space
 70
     0
 10
0.0
 20
0.0
 30
0.0
  3
*Paper_Space
  1

  0
ENDBLK
  5
6A
330
68
100
AcDbEntity
 67
     1
  8
0
100
AcDbBlockEnd
  0
BLOCK
  5
71
330
70
100
AcDbEntity
 67
     1
  8
0
100
AcDbBlockBegin
  2
*Paper_Space0
 70
     0
 10
0.0
 20
0.0
 30
0.0
  3
*Paper_Space0
  1

  0
ENDBLK
  5
72
330
70
100
AcDbEntity
 67
     1
  8
0
100
AcDbBlockEnd
  0
BLOCK
  5
99
330
98
100
AcDbEntity
  8
0
100
AcDbBlockBegin
  2
Filled-1
 70
     0
 10
0.0
 20
0.0
 30
0.0
  3
Filled-1
  1

  0
LINE
  5
9B
330
98
100
AcDbEntity
  8
0
 62
     0
100
AcDbLine
 10
-1.0
 20
0.0
 30
0.0
 11
0.0
 21
0.0
 31
0.0
  0
POLYLINE
  5
9D
330
98
100
AcDbEntity
  8
0
 62
     0
100
AcDb2dPolyline
 66
     1
 10
0.0
 20
0.0
 30
0.0
 70
   128
  0
VERTEX
  5
9E
330
9D
100
AcDbEntity
  8
0
 62
     0
100
AcDbVertex
100
AcDb2dVertex
 10
-1.0
 20
-0.1
 30
0.0
  0
VERTEX
  5
9F
330
9D
100
AcDbEntity
  8
0
 62
     0
100
AcDbVertex
100
AcDb2dVertex
 10
0.0
 20
0.0
 30
0.0
  0
VERTEX
  5
A1
330
9D
100
AcDbEntity
  8
0
 62
     0
100
AcDbVertex
100
AcDb2dVertex
 10
-1.0
 20
0.1
 30
0.0
  0
VERTEX
  5
A2
330
9D
100
AcDbEntity
  8
0
 62
     0
100
AcDbVertex
100
AcDb2dVertex
 10
-1.0
 20
-0.1
 30
0.0
  0
SEQEND
  5
A0
330
9D
100
AcDbEntity
  8
0
 62
     0
  0
SOLID
  5
A3
330
98
100
AcDbEntity
  8
0
 62
     0
100
AcDbTrace
 10
-1.0
 20
-0.1
 30
0.0
 11
0.0
 21
0.0
 31
0.0
 12
-1.0
 22
0.1
 32
0.0
 13
-1.0
 23
-0.1
 33
0.0
  0
LINE
  5
A4
330
98
100
AcDbEntity
  8
0
 62
     0
100
AcDbLine
 10
-1.0
 20
-0.1
 30
0.0
 11
0.0
 21
0.0
 31
0.0
  0
LINE
  5
A5
330
98
100
AcDbEntity
  8
0
 62
     0
100
AcDbLine
 10
0.0
 20
0.0
 30
0.0
 11
-1.0
 21
0.1
 31
0.0
  0
LINE
  5
A6
330
98
100
AcDbEntity
  8
0
 62
     0
100
AcDbLine
 10
-1.0
 20
0.1
 30
0.0
 11
-1.0
 21
-0.1
 31
0.0
  0
ENDBLK
  5
9A
330
98
100
AcDbEntity
  8
0
100
AcDbBlockEnd
  0
BLOCK
  5
BD
330
B8
100
AcDbEntity
  8
0
100
AcDbBlockBegin
  2
_Closed
 70
     0
 10
0.0
 20
0.0
 30
0.0
  3
_Closed
  1

  0
LINE
  5
B9
330
B8
100
AcDbEntity
  8
0
  6
ByBlock
 62
     0
370
    -2
100
AcDbLine
 10
-1.0
 20
0.1666666666666666
 30
0.0
 11
0.0
 21
0.0
 31
0.0
  0
LINE
  5
BA
330
B8
100
AcDbEntity
  8
0
  6
ByBlock
 62
     0
370
    -2
100
AcDbLine
 10
0.0
 20
0.0
 30
0.0
 11
-1.0
 21
-0.1666666666666666
 31
0.0
  0
LINE
  5
BB
330
B8
100
AcDbEntity
  8
0
  6
ByBlock
 62
     0
370
    -2
100
AcDbLine
 10
-1.0
 20
0.1666666666666666
 30
0.0
 11
-1.0
 21
-0.1666666666666666
 31
0.0
  0
LINE
  5
BC
330
B8
100
AcDbEntity
  8
0
  6
ByBlock
 62
     0
370
    -2
100
AcDbLine
 10
0.0
 20
0.0
 30
0.0
 11
-1.0
 21
0.0
 31
0.0
  0
ENDBLK
  5
BE
330
B8
100
AcDbEntity
  8
0
100
AcDbBlockEnd
  0
BLOCK
  5
C1
330
C0
100
AcDbEntity
  8
0
100
AcDbBlockBegin
  2
DatumFilled45
 70
     0
 10
0.0
 20
0.0
 30
0.0
  3
DatumFilled45
  1

  0
POLYLINE
  5
C3
330
C0
100
AcDbEntity
  8
0
 62
     0
100
AcDb2dPolyline
 66
     1
 10
0.0
 20
0.0
 30
0.0
 70
   128
  0
VERTEX
  5
C4
330
C3
100
AcDbEntity
  8
0
 62
     0
100
AcDbVertex
100
AcDb2dVertex
 10
0.0
 20
1.0
 30
0.0
  0
VERTEX
  5
C5
330
C3
100
AcDbEntity
  8
0
 62
     0
100
AcDbVertex
100
AcDb2dVertex
 10
0.0
 20
-1.0
 30
0.0
  0
VERTEX
  5
C7
330
C3
100
AcDbEntity
  8
0
 62
     0
100
AcDbVertex
100
AcDb2dVertex
 10
-1.0
 20
0.0
 30
0.0
  0
VERTEX
  5
C8
330
C3
100
AcDbEntity
  8
0
 62
     0
100
AcDbVertex
100
AcDb2dVertex
 10
0.0
 20
1.0
 30
0.0
  0
SEQEND
  5
C6
330
C3
100
AcDbEntity
  8
0
 62
     0
  0
SOLID
  5
C9
330
C0
100
AcDbEntity
  8
0
 62
     0
100
AcDbTrace
 10
0.0
 20
1.0
 30
0.0
 11
0.0
 21
-1.0
 31
0.0
 12
-1.0
 22
0.0
 32
0.0
 13
0.0
 23
1.0
 33
0.0
  0
ENDBLK
  5
C2
330
C0
100
AcDbEntity
  8
0
100
AcDbBlockEnd
  0
BLOCK
  5
CC
330
CB
100
AcDbEntity
  8
0
100
AcDbBlockBegin
  2
WIG-svařování DE
 70
     0
 10
0.0
 20
0.0
 30
0.0
  3
WIG-svařování DE
  1

  0
MTEXT
  5
CE
102
{ACAD_XDICTIONARY
360
78E
102
}
330
CB
100
AcDbEntity
  8
Značka (ISO)
100
AcDbMText
 10
-57.87338256835937
 20
16.43318336457014
 30
0.0
 40
3.499999940395355
 41
115.7467651367187
 71
     1
 72
     1
  3
WIG sva\U+0159ov\U+00E1n\U+00ED- svary dle pot\U+0159eby zabrousit.\PPohledov\U+00E9 plochy brousit (vel. brusn\U+00FDch zrn 240)\Pa polepit p\U+00E1skou.\P\PWIG Schweisung, Nahte sauber geschliffen und poliert\PSichtstege geschliffen mit 240 Korn un
  1
d abgeklebt.
  7
Text poznámky (ISO)
 73
     2
 44
0.9878841638565063
  0
ENDBLK
  5
CD
330
CB
100
AcDbEntity
  8
0
100
AcDbBlockEnd
  0
BLOCK
  5
D1
330
D0
100
AcDbEntity
  8
0
100
AcDbBlockBegin
  2
WIG-svařování EN
 70
     0
 10
0.0
 20
0.0
 30
0.0
  3
WIG-svařování EN
  1

  0
MTEXT
  5
D3
102
{ACAD_XDICTIONARY
360
790
102
}
330
D0
100
AcDbEntity
  8
Značka (ISO)
100
AcDbMText
 10
-51.92564964294433
 20
16.42041999846697
 30
0.0
 40
3.499999940395355
 41
0.0
 71
     1
 72
     1
  1
WIG sva\U+0159ov\U+00E1n\U+00ED- svary dle pot\U+0159eby zabrousit.\PPohledov\U+00E9 plochy brousit (vel. brusn\U+00FDch zrn 240)\Pa polepit p\U+00E1skou.\P \PWIG welding - Visible sufaces to be grinded\Pand covered by protectiv foil.
  7
Text poznámky (ISO)
 73
     2
 44
0.9878841638565063
  0
ENDBLK
  5
D2
330
D0
100
AcDbEntity
  8
0
100
AcDbBlockEnd
  0
BLOCK
  5
D5
330
D4
100
AcDbEntity
  8
0
100
AcDbBlockBegin
  2
Popis kotvy_srouby DE
 70
     0
 10
0.0
 20
0.0
 30
0.0
  3
Popis kotvy_srouby DE
  1

  0
MTEXT
  5
D7
102
{ACAD_XDICTIONARY
360
792
102
}
330
D4
100
AcDbEntity
  8
Značka (ISO)
100
AcDbMText
 10
-39.79761123657226
 20
21.64559781551361
 30
0.0
 40
3.499999940395355
 41
0.0
 71
     1
 72
     1
  1
Vzd\U+00E1lenost nivel. \U+0161roub\U+016F ca. 1500\PVzd\U+00E1lenost kotev ca. 400\PVzd\U+00E1lenost dist. kol\U+00EDk\U+016F ca. 250\P \PAbstand der Nivellieschraben ca.1500\PAbstand der Maueranker ca.400\PAbstand der Distanzstege ca.250\P 
  7
Text poznámky (ISO)
 73
     2
 44
0.9878841638565063
  0
ENDBLK
  5
D6
330
D4
100
AcDbEntity
  8
0
100
AcDbBlockEnd
  0
BLOCK
  5
D9
330
D8
100
AcDbEntity
  8
0
100
AcDbBlockBegin
  2
Popis kotvy_ šrouby EN
 70
     0
 10
0.0
 20
0.0
 30
0.0
  3
Popis kotvy_ šrouby EN
  1

  0
MTEXT
  5
DB
102
{ACAD_XDICTIONARY
360
794
102
}
330
D8
100
AcDbEntity
  8
Značka (ISO)
100
AcDbMText
 10
-35.70907592773437
 20
18.764269053936
 30
0.0
 40
3.499999940395355
 41
0.0
 71
     1
 72
     1
  1
Vzd\U+00E1lenost nivel. \U+0161roub\U+016F ca. 1500\PVzd\U+00E1lenost kotev ca. 400\P \PDistance of leveling feets ca.1500\PDistance of fixing tangs ca.400\P\P 
  7
Text poznámky (ISO)
 73
     2
 44
0.9878841638565063
  0
ENDBLK
  5
DA
330
D8
100
AcDbEntity
  8
0
100
AcDbBlockEnd
  0
BLOCK
  5
DD
330
DC
100
AcDbEntity
  8
0
100
AcDbBlockBegin
  2
Tryskat DE
 70
     0
 10
0.0
 20
0.0
 30
0.0
  3
Tryskat DE
  1

  0
MTEXT
  5
DF
330
DC
100
AcDbEntity
  8
Značka (ISO)
100
AcDbMText
 10
-18.86284470558166
 20
5.036920197308063
 30
0.0
 40
3.499999940395355
 41
0.0
 71
     1
 72
     1
  1
Tryskat \P(Glasperlstrahlen)
  7
Text poznámky (ISO)
 73
     2
 44
0.9878841638565063
  0
ENDBLK
  5
DE
330
DC
100
AcDbEntity
  8
0
100
AcDbBlockEnd
  0
BLOCK
  5
E1
330
E0
100
AcDbEntity
  8
0
100
AcDbBlockBegin
  2
Tryskat EN
 70
     0
 10
0.0
 20
0.0
 30
0.0
  3
Tryskat EN
  1

  0
MTEXT
  5
E3
330
E0
100
AcDbEntity
  8
Značka (ISO)
100
AcDbMText
 10
-9.551256299018859
 20
5.036920197308063
 30
0.0
 40
3.499999940395355
 41
0.0
 71
     1
 72
     1
  1
Tryskat\P(Blasted)
  7
Text poznámky (ISO)
 73
     2
 44
0.9878841638565063
  0
ENDBLK
  5
E2
330
E0
100
AcDbEntity
  8
0
100
AcDbBlockEnd
  0
BLOCK
  5
E5
330
E4
100
AcDbEntity
  8
0
100
AcDbBlockBegin
  2
Mořit a pasivovat DE
 70
     0
 10
0.0
 20
0.0
 30
0.0
  3
Mořit a pasivovat DE
  1

  0
MTEXT
  5
E7
102
{ACAD_XDICTIONARY
360
796
102
}
330
E4
100
AcDbEntity
  8
Značka (ISO)
100
AcDbMText
 10
-27.84258604049683
 20
4.895104952156543
 30
0.0
 40
3.499999940395355
 41
0.0
 71
     1
 72
     1
  1
Mo\U+0159it a pasivovat\P(Gebeitzt und passivieren)
  7
Text poznámky (ISO)
 73
     2
 44
0.9878841638565063
  0
ENDBLK
  5
E6
330
E4
100
AcDbEntity
  8
0
100
AcDbBlockEnd
  0
BLOCK
  5
E9
330
E8
100
AcDbEntity
  8
0
100
AcDbBlockBegin
  2
Mořit a pasivovat EN
 70
     0
 10
0.0
 20
0.0
 30
0.0
  3
Mořit a pasivovat EN
  1

  0
MTEXT
  5
EB
102
{ACAD_XDICTIONARY
360
798
102
}
330
E8
100
AcDbEntity
  8
Značka (ISO)
100
AcDbMText
 10
-24.44043874740601
 20
4.895104952156543
 30
0.0
 40
3.499999940395355
 41
0.0
 71
     1
 72
     1
  1
Mo\U+0159it a pasivovat\P(Pickled and passivate)
  7
Text poznámky (ISO)
 73
     2
 44
0.9878841638565063
  0
ENDBLK
  5
EA
330
E8
100
AcDbEntity
  8
0
100
AcDbBlockEnd
  0
BLOCK
  5
ED
330
EC
100
AcDbEntity
  8
0
100
AcDbBlockBegin
  2
Žárově zinkovat DE
 70
     0
 10
0.0
 20
0.0
 30
0.0
  3
Žárově zinkovat DE
  1

  0
MTEXT
  5
EF
102
{ACAD_XDICTIONARY
360
79A
102
}
330
EC
100
AcDbEntity
  8
Značka (ISO)
100
AcDbMText
 10
-16.73277974128723
 20
4.456895925104618
 30
0.0
 40
3.499999940395355
 41
0.0
 71
     1
 72
     1
  1
\U+017D\U+00E1rov\U+011B zinkovat\P(Verzinkt )
  7
Text poznámky (ISO)
 73
     2
 44
0.9878841638565063
  0
ENDBLK
  5
EE
330
EC
100
AcDbEntity
  8
0
100
AcDbBlockEnd
  0
BLOCK
  5
F1
330
F0
100
AcDbEntity
  8
0
100
AcDbBlockBegin
  2
Žárově zinkovat EN
 70
     0
 10
0.0
 20
0.0
 30
0.0
  3
Žárově zinkovat EN
  1

  0
MTEXT
  5
F3
102
{ACAD_XDICTIONARY
360
79C
102
}
330
F0
100
AcDbEntity
  8
Značka (ISO)
100
AcDbMText
 10
-20.24979829788208
 20
4.46965929120779
 30
0.0
 40
3.499999940395355
 41
0.0
 71
     1
 72
     1
  1
\U+017D\U+00E1rov\U+011B zinkovat\P(Hot-dip galvanize)
  7
Text poznámky (ISO)
 73
     2
 44
0.9878841638565063
  0
ENDBLK
  5
F2
330
F0
100
AcDbEntity
  8
0
100
AcDbBlockEnd
  0
BLOCK
  5
F5
330
F4
100
AcDbEntity
  8
0
100
AcDbBlockBegin
  2
Brousit DE
 70
     0
 10
0.0
 20
0.0
 30
0.0
  3
Brousit DE
  1

  0
MTEXT
  5
F7
330
F4
100
AcDbEntity
  8
Značka (ISO)
100
AcDbMText
 10
-12.2074556350708
 20
5.103573389351367
 30
0.0
 40
3.499999940395355
 41
0.0
 71
     1
 72
     1
  1
Brousit\P(Geburstet)
  7
Text poznámky (ISO)
 73
     2
 44
0.9878841638565063
  0
ENDBLK
  5
F6
330
F4
100
AcDbEntity
  8
0
100
AcDbBlockEnd
  0
BLOCK
  5
F9
330
F8
100
AcDbEntity
  8
0
100
AcDbBlockBegin
  2
Brousit EN
 70
     0
 10
0.0
 20
0.0
 30
0.0
  3
Brousit EN
  1

  0
MTEXT
  5
FB
330
F8
100
AcDbEntity
  8
Značka (ISO)
100
AcDbMText
 10
-10.48298239707946
 20
5.103573389351367
 30
0.0
 40
3.499999940395355
 41
0.0
 71
     1
 72
     1
  1
Brousit\P(Brushed)
  7
Text poznámky (ISO)
 73
     2
 44
0.9878841638565063
  0
ENDBLK
  5
FA
330
F8
100
AcDbEntity
  8
0
100
AcDbBlockEnd
  0
BLOCK
  5
FD
330
FC
100
AcDbEntity
  8
0
100
AcDbBlockBegin
  2
Elektrolyticky leštit DE
 70
     0
 10
0.0
 20
0.0
 30
0.0
  3
Elektrolyticky leštit DE
  1

  0
MTEXT
  5
FF
102
{ACAD_XDICTIONARY
360
79E
102
}
330
FC
100
AcDbEntity
  8
Značka (ISO)
100
AcDbMText
 10
-16.43071413040161
 20
4.895104952156543
 30
0.0
 40
3.499999940395355
 41
0.0
 71
     1
 72
     1
  1
Elektrolyt. le\U+0161tit\P(Elektr. poliert)
  7
Text poznámky (ISO)
 73
     2
 44
0.9878841638565063
  0
ENDBLK
  5
FE
330
FC
100
AcDbEntity
  8
0
100
AcDbBlockEnd
  0
BLOCK
  5
101
330
100
100
AcDbEntity
  8
0
100
AcDbBlockBegin
  2
Elektrolyticky leštit EN
 70
     0
 10
0.0
 20
0.0
 30
0.0
  3
Elektrolyticky leštit EN
  1

  0
MTEXT
  5
103
102
{ACAD_XDICTIONARY
360
7A0
102
}
330
100
100
AcDbEntity
  8
Značka (ISO)
100
AcDbMText
 10
-18.02329897880554
 20
4.895104952156543
 30
0.0
 40
3.499999940395355
 41
0.0
 71
     1
 72
     1
  1
Elektrolyt. le\U+0161tit\P(Electr. polished)
  7
Text poznámky (ISO)
 73
     2
 44
0.9878841638565063
  0
ENDBLK
  5
102
330
100
100
AcDbEntity
  8
0
100
AcDbBlockEnd
  0
BLOCK
  5
105
330
104
100
AcDbEntity
  8
0
100
AcDbBlockBegin
  2
Žlab bez spádu DE
 70
     0
 10
0.0
 20
0.0
 30
0.0
  3
Žlab bez spádu DE
  1

  0
MTEXT
  5
107
102
{ACAD_XDICTIONARY
360
7A2
102
}
330
104
100
AcDbEntity
  8
Značka (ISO)
100
AcDbMText
 10
-20.81989526748657
 20
4.010177932213991
 30
0.0
 40
3.499999940395355
 41
0.0
 71
     1
 72
     1
  1
\U+017Dlab bez sp\U+00E1du!\PRinne ohne Gef\U+00E4lle!
  7
Text poznámky (ISO)
 73
     2
 44
0.9878841638565063
  0
ENDBLK
  5
106
330
104
100
AcDbEntity
  8
0
100
AcDbBlockEnd
  0
BLOCK
  5
109
330
108
100
AcDbEntity
  8
0
100
AcDbBlockBegin
  2
Žlab bez spádu EN
 70
     0
 10
0.0
 20
0.0
 30
0.0
  3
Žlab bez spádu EN
  1

  0
MTEXT
  5
10B
102
{ACAD_XDICTIONARY
360
7A4
102
}
330
108
100
AcDbEntity
  8
Značka (ISO)
100
AcDbMText
 10
-24.31422233581541
 20
4.456895925104618
 30
0.0
 40
3.499999940395355
 41
0.0
 71
     1
 72
     1
  1
\U+017Dlab bez sp\U+00E1du!\PChannel without slope!
  7
Text poznámky (ISO)
 73
     2
 44
0.9878841638565063
  0
ENDBLK
  5
10A
330
108
100
AcDbEntity
  8
0
100
AcDbBlockEnd
  0
BLOCK
  5
10D
330
10C
100
AcDbEntity
  8
0
100
AcDbBlockBegin
  2
Spád žlabu DE
 70
     0
 10
0.0
 20
0.0
 30
0.0
  3
Spád žlabu DE
  1

  0
MTEXT
  5
10F
102
{ACAD_XDICTIONARY
360
7A6
102
}
330
10C
100
AcDbEntity
  8
Značka (ISO)
100
AcDbMText
 10
-61.1847686767578
 20
16.61612506955862
 30
0.0
 40
3.499999940395355
 41
0.0
 71
     1
 72
     1
  1
POZOR:\PSp\U+00E1d \U+017Elabu je men\U+0161\U+00ED ne\U+017E 1% - nebezpe\U+010D\U+00ED vzniku prohlubn\U+00ED\Pse stojatou vodou.\PACHTUNG:\PDas Bodengef\U+00E4lle ist kleiner als 1%. Das Gefahr der\PSenkungsentstehung mit dem stehenden Wasser.
  7
Text poznámky (ISO)
 73
     2
 44
0.9878841638565063
  0
ENDBLK
  5
10E
330
10C
100
AcDbEntity
  8
0
100
AcDbBlockEnd
  0
BLOCK
  5
111
330
110
100
AcDbEntity
  8
0
100
AcDbBlockBegin
  2
Spád žlabu EN
 70
     0
 10
0.0
 20
0.0
 30
0.0
  3
Spád žlabu EN
  1

  0
MTEXT
  5
113
102
{ACAD_XDICTIONARY
360
7A8
102
}
330
110
100
AcDbEntity
  8
Značka (ISO)
100
AcDbMText
 10
-61.1847686767578
 20
16.15664371056482
 30
0.0
 40
3.499999940395355
 41
0.0
 71
     1
 72
     1
  1
POZOR:\PSp\U+00E1d \U+017Elabu je men\U+0161\U+00ED ne\U+017E 1% - nebezpe\U+010D\U+00ED vzniku prohlubn\U+00ED\Pse stojatou vodou.\PAUTENTION:\PThe gradient of the bottom is minor then 1%.\PThat can be reason of slack water.
  7
Text poznámky (ISO)
 73
     2
 44
0.9878841638565063
  0
ENDBLK
  5
112
330
110
100
AcDbEntity
  8
0
100
AcDbBlockEnd
  0
BLOCK
  5
115
330
114
100
AcDbEntity
  8
0
100
AcDbBlockBegin
  2
Kartáč + fólie DE
 70
     0
 10
0.0
 20
0.0
 30
0.0
  3
Kartáč + fólie DE
  1

  0
MTEXT
  5
117
102
{ACAD_XDICTIONARY
360
7AA
102
}
330
114
100
AcDbEntity
  8
Značka (ISO)
100
AcDbMText
 10
-39.86001014709473
 20
4.448386959265917
 30
0.0
 40
3.499999940395355
 41
0.0
 71
     1
 72
     1
  1
Kart\U+00E1\U+010Dov\U+00E1no + folie\PGeburstet mit abziehbarer Schutzfolie
  7
Text poznámky (ISO)
 73
     2
 44
0.9878841638565063
  0
ENDBLK
  5
116
330
114
100
AcDbEntity
  8
0
100
AcDbBlockEnd
  0
BLOCK
  5
119
330
118
100
AcDbEntity
  8
0
100
AcDbBlockBegin
  2
Kartáč + fólie EN
 70
     0
 10
0.0
 20
0.0
 30
0.0
  3
Kartáč + fólie EN
  1

  0
MTEXT
  5
11B
102
{ACAD_XDICTIONARY
360
7AC
102
}
330
118
100
AcDbEntity
  8
Značka (ISO)
100
AcDbMText
 10
-21.56442403793335
 20
4.895104952156543
 30
0.0
 40
3.499999940395355
 41
0.0
 71
     1
 72
     1
  1
Kart\U+00E1\U+010Dov\U+00E1no + f\U+00F3lie.\P(Brushed and foils) 
  7
Text poznámky (ISO)
 73
     2
 44
0.9878841638565063
  0
ENDBLK
  5
11A
330
118
100
AcDbEntity
  8
0
100
AcDbBlockEnd
  0
BLOCK
  5
11D
330
11C
100
AcDbEntity
  8
0
100
AcDbBlockBegin
  2
Komplet tryskat DE
 70
     0
 10
0.0
 20
0.0
 30
0.0
  3
Komplet tryskat DE
  1

  0
MTEXT
  5
11F
330
11C
100
AcDbEntity
  8
Značka (ISO)
100
AcDbMText
 10
-37.33711719512938
 20
7.475785464048385
 30
0.0
 40
3.499999940395355
 41
0.0
 71
     1
 72
     1
  1
KOMPLETT GLASPER GESTRAHLT !\PKOMPLET ZHORA TRYSKAT ! \P
  7
Text poznámky (ISO)
 73
     2
 44
0.9878841638565063
  0
ENDBLK
  5
11E
330
11C
100
AcDbEntity
  8
0
100
AcDbBlockEnd
  0
BLOCK
  5
121
330
120
100
AcDbEntity
  8
0
100
AcDbBlockBegin
  2
Aschl Nirotec-tryskání
 70
     0
 10
0.0
 20
0.0
 30
0.0
  3
Aschl Nirotec-tryskání
  1

  0
MTEXT
  5
123
102
{ACAD_XDICTIONARY
360
7AE
102
}
330
120
100
AcDbEntity
  8
Značka (ISO)
100
AcDbMText
 10
-58.85332584381103
 20
10.67052584141493
 30
0.0
 40
3.499999940395355
 41
0.0
 71
     1
 72
     1
  1
Povrchov\U+00E1 \U+00FAprava/Oberfl\U+00E4che:\PTryskat pouze vnit\U+0159ek \U+017Elabu, v\U+010Detn\U+011B pohledov\U+00FDch ploch!\PP\U+0159\U+00EDruby proti trysk\U+00E1n\U+00ED chr\U+00E1nit!\PFlansches per strahlung beh\U+00FCtent!
  7
Text poznámky (ISO)
 73
     2
 44
0.9878841638565063
  0
ENDBLK
  5
122
330
120
100
AcDbEntity
  8
0
100
AcDbBlockEnd
  0
BLOCK
  5
125
330
124
100
AcDbEntity
  8
0
100
AcDbBlockBegin
  2
Mater. provedeni Art.
 70
     0
 10
0.0
 20
0.0
 30
0.0
  3
Mater. provedeni Art.
  1

  0
LINE
  5
127
330
124
100
AcDbEntity
  8
Geometrie náčrtu (ISO)
100
AcDbLine
 10
-35.0
 20
-22.5
 30
0.0
 11
35.0
 21
-22.5
 31
0.0
  0
LINE
  5
128
330
124
100
AcDbEntity
  8
Geometrie náčrtu (ISO)
100
AcDbLine
 10
35.0
 20
-22.5
 30
0.0
 11
34.99999999999996
 21
-13.49999999999998
 31
0.0
  0
LINE
  5
129
330
124
100
AcDbEntity
  8
Geometrie náčrtu (ISO)
100
AcDbLine
 10
34.99999999999996
 20
-13.49999999999998
 30
0.0
 11
-35.00000000000003
 21
-13.49999999999998
 31
0.0
  0
LINE
  5
12A
330
124
100
AcDbEntity
  8
Geometrie náčrtu (ISO)
100
AcDbLine
 10
-35.00000000000003
 20
-13.49999999999998
 30
0.0
 11
-35.0
 21
-22.5
 31
0.0
  0
LINE
  5
12B
330
124
100
AcDbEntity
  8
Geometrie náčrtu (ISO)
100
AcDbLine
 10
-35.00000000000003
 20
-13.49999999999998
 30
0.0
 11
34.99999999999996
 21
-13.49999999999998
 31
0.0
  0
LINE
  5
12C
330
124
100
AcDbEntity
  8
Geometrie náčrtu (ISO)
100
AcDbLine
 10
34.99999999999996
 20
-13.49999999999998
 30
0.0
 11
34.99999999999996
 21
-4.499999999999992
 31
0.0
  0
LINE
  5
12D
330
124
100
AcDbEntity
  8
Geometrie náčrtu (ISO)
100
AcDbLine
 10
34.99999999999996
 20
-4.499999999999992
 30
0.0
 11
-35.00000000000003
 21
-4.499999999999992
 31
0.0
  0
LINE
  5
12E
330
124
100
AcDbEntity
  8
Geometrie náčrtu (ISO)
100
AcDbLine
 10
-35.00000000000003
 20
-4.499999999999992
 30
0.0
 11
-35.00000000000003
 21
-13.49999999999998
 31
0.0
  0
LINE
  5
12F
330
124
100
AcDbEntity
  8
Geometrie náčrtu (ISO)
100
AcDbLine
 10
-35.00000000000003
 20
-4.499999999999992
 30
0.0
 11
34.99999999999996
 21
-4.499999999999992
 31
0.0
  0
LINE
  5
130
330
124
100
AcDbEntity
  8
Geometrie náčrtu (ISO)
100
AcDbLine
 10
34.99999999999996
 20
-4.499999999999992
 30
0.0
 11
34.99999999999996
 21
4.499999999999992
 31
0.0
  0
LINE
  5
131
330
124
100
AcDbEntity
  8
Geometrie náčrtu (ISO)
100
AcDbLine
 10
34.99999999999996
 20
4.499999999999992
 30
0.0
 11
-35.00000000000003
 21
4.499999999999992
 31
0.0
  0
LINE
  5
132
330
124
100
AcDbEntity
  8
Geometrie náčrtu (ISO)
100
AcDbLine
 10
-35.00000000000003
 20
4.499999999999992
 30
0.0
 11
-35.00000000000003
 21
-4.499999999999992
 31
0.0
  0
LINE
  5
133
330
124
100
AcDbEntity
  8
Geometrie náčrtu (ISO)
100
AcDbLine
 10
-35.00000000000003
 20
4.499999999999992
 30
0.0
 11
34.99999999999996
 21
4.499999999999992
 31
0.0
  0
LINE
  5
134
330
124
100
AcDbEntity
  8
Geometrie náčrtu (ISO)
100
AcDbLine
 10
34.99999999999996
 20
4.499999999999992
 30
0.0
 11
34.99999999999996
 21
13.50000000000001
 31
0.0
  0
LINE
  5
135
330
124
100
AcDbEntity
  8
Geometrie náčrtu (ISO)
100
AcDbLine
 10
34.99999999999996
 20
13.50000000000001
 30
0.0
 11
-35.00000000000003
 21
13.50000000000001
 31
0.0
  0
LINE
  5
136
330
124
100
AcDbEntity
  8
Geometrie náčrtu (ISO)
100
AcDbLine
 10
-35.00000000000003
 20
13.50000000000001
 30
0.0
 11
-35.00000000000003
 21
4.499999999999992
 31
0.0
  0
LINE
  5
137
330
124
100
AcDbEntity
  8
Geometrie náčrtu (ISO)
100
AcDbLine
 10
-35.00000000000003
 20
13.50000000000001
 30
0.0
 11
34.99999999999996
 21
13.50000000000001
 31
0.0
  0
LINE
  5
138
330
124
100
AcDbEntity
  8
Geometrie náčrtu (ISO)
100
AcDbLine
 10
34.99999999999996
 20
13.50000000000001
 30
0.0
 11
34.99999999999996
 21
22.5
 31
0.0
  0
LINE
  5
139
330
124
100
AcDbEntity
  8
Geometrie náčrtu (ISO)
100
AcDbLine
 10
34.99999999999996
 20
22.5
 30
0.0
 11
-35.00000000000003
 21
22.5
 31
0.0
  0
LINE
  5
13A
330
124
100
AcDbEntity
  8
Geometrie náčrtu (ISO)
100
AcDbLine
 10
-35.00000000000003
 20
22.5
 30
0.0
 11
-35.00000000000003
 21
13.50000000000001
 31
0.0
  0
LINE
  5
13B
330
124
100
AcDbEntity
  8
Geometrie náčrtu (ISO)
100
AcDbLine
 10
-6.999999999999992
 20
22.5
 30
0.0
 11
-6.999999999999992
 21
-22.5
 31
0.0
  0
MTEXT
  5
13C
330
124
100
AcDbEntity
  8
Značka (ISO)
100
AcDbMText
 10
-5.126613448311374
 20
11.7684641726084
 30
0.0
 40
5.0
 41
0.0
 71
     1
 72
     1
  1
\fTahoma|b0|i0;\H5.0000;xxxxxxxxxxx
  7
Text poznámky (ISO)
 73
     1
 44
1.0
  0
MTEXT
  5
13D
330
124
100
AcDbEntity
  8
Značka (ISO)
100
AcDbMText
 10
-33.0130165251342
 20
11.7684641726084
 30
0.0
 40
5.0
 41
20.42139291763306
 71
     1
 72
     1
  1
\fTahoma|b0|i0;\H5.0000;xxxxxx
  7
Text poznámky (ISO)
 73
     1
 44
1.0
  0
MTEXT
  5
13E
330
124
100
AcDbEntity
  8
Značka (ISO)
100
AcDbMText
 10
-32.07756235018873
 20
20.30710993714994
 30
0.0
 40
5.0
 41
13.92583036716939
 71
     1
 72
     1
  1
\fTahoma|b0|i0;\H5.0000;Art.
  7
Text poznámky (ISO)
 73
     1
 44
1.0
  0
MTEXT
  5
13F
330
124
100
AcDbEntity
  8
Značka (ISO)
100
AcDbMText
 10
4.291672002492319
 20
20.30710993714994
 30
0.0
 40
5.0
 41
0.0
 71
     1
 72
     1
  1
\fTahoma|b0|i0;\H5.0000;Mat.
  7
Text poznámky (ISO)
 73
     1
 44
1.0
  0
MTEXT
  5
140
330
124
100
AcDbEntity
  8
Značka (ISO)
100
AcDbMText
 10
-33.0130165251342
 20
2.473781856899819
 30
0.0
 40
5.0
 41
20.42139291763306
 71
     1
 72
     1
  1
\fTahoma|b0|i0;\H5.0000;xxxxxx
  7
Text poznámky (ISO)
 73
     1
 44
1.0
  0
MTEXT
  5
141
330
124
100
AcDbEntity
  8
Značka (ISO)
100
AcDbMText
 10
-5.126613448311374
 20
2.473781856899819
 30
0.0
 40
5.0
 41
0.0
 71
     1
 72
     1
  1
\fTahoma|b0|i0;\H5.0000;xxxxxxxxxxx
  7
Text poznámky (ISO)
 73
     1
 44
1.0
  0
MTEXT
  5
142
330
124
100
AcDbEntity
  8
Značka (ISO)
100
AcDbMText
 10
-33.0130165251342
 20
-6.862452441171491
 30
0.0
 40
5.0
 41
20.42139291763306
 71
     1
 72
     1
  1
\fTahoma|b0|i0;\H5.0000;xxxxxx
  7
Text poznámky (ISO)
 73
     1
 44
1.0
  0
MTEXT
  5
143
330
124
100
AcDbEntity
  8
Značka (ISO)
100
AcDbMText
 10
-5.126613448311374
 20
-6.862452441171491
 30
0.0
 40
5.0
 41
0.0
 71
     1
 72
     1
  1
\fTahoma|b0|i0;\H5.0000;xxxxxxxxxxx
  7
Text poznámky (ISO)
 73
     1
 44
1.0
  0
MTEXT
  5
144
330
124
100
AcDbEntity
  8
Značka (ISO)
100
AcDbMText
 10
-33.0130165251342
 20
-15.52177565039578
 30
0.0
 40
5.0
 41
20.42139291763306
 71
     1
 72
     1
  1
\fTahoma|b0|i0;\H5.0000;xxxxxx
  7
Text poznámky (ISO)
 73
     1
 44
1.0
  0
MTEXT
  5
145
330
124
100
AcDbEntity
  8
Značka (ISO)
100
AcDbMText
 10
-5.126613448311374
 20
-15.52177565039578
 30
0.0
 40
5.0
 41
0.0
 71
     1
 72
     1
  1
\fTahoma|b0|i0;\H5.0000;xxxxxxxxxxx
  7
Text poznámky (ISO)
 73
     1
 44
1.0
  0
ENDBLK
  5
126
330
124
100
AcDbEntity
  8
0
100
AcDbBlockEnd
  0
BLOCK
  5
147
330
146
100
AcDbEntity
  8
0
100
AcDbBlockBegin
  2
Art. s popisy
 70
     0
 10
0.0
 20
0.0
 30
0.0
  3
Art. s popisy
  1

  0
LINE
  5
149
330
146
100
AcDbEntity
  8
Geometrie náčrtu (ISO)
100
AcDbLine
 10
-60.00000000000081
 20
-22.5
 30
0.0
 11
59.99999999999911
 21
-22.5
 31
0.0
  0
LINE
  5
14A
330
146
100
AcDbEntity
  8
Geometrie náčrtu (ISO)
100
AcDbLine
 10
59.99999999999911
 20
-22.5
 30
0.0
 11
60.00000000000081
 21
-13.50000000000001
 31
0.0
  0
LINE
  5
14B
330
146
100
AcDbEntity
  8
Geometrie náčrtu (ISO)
100
AcDbLine
 10
60.00000000000081
 20
-13.50000000000001
 30
0.0
 11
-60.00000000000081
 21
-13.49999999999998
 31
0.0
  0
LINE
  5
14C
330
146
100
AcDbEntity
  8
Geometrie náčrtu (ISO)
100
AcDbLine
 10
-60.00000000000081
 20
-13.49999999999998
 30
0.0
 11
-60.00000000000081
 21
-22.5
 31
0.0
  0
LINE
  5
14D
330
146
100
AcDbEntity
  8
Geometrie náčrtu (ISO)
100
AcDbLine
 10
-60.00000000000081
 20
-13.49999999999998
 30
0.0
 11
60.00000000000081
 21
-13.50000000000001
 31
0.0
  0
LINE
  5
14E
330
146
100
AcDbEntity
  8
Geometrie náčrtu (ISO)
100
AcDbLine
 10
60.00000000000081
 20
-13.50000000000001
 30
0.0
 11
59.99999999999911
 21
-4.500000000000028
 31
0.0
  0
LINE
  5
14F
330
146
100
AcDbEntity
  8
Geometrie náčrtu (ISO)
100
AcDbLine
 10
59.99999999999911
 20
-4.500000000000028
 30
0.0
 11
-60.00000000000081
 21
-4.499999999999992
 31
0.0
  0
LINE
  5
150
330
146
100
AcDbEntity
  8
Geometrie náčrtu (ISO)
100
AcDbLine
 10
-60.00000000000081
 20
-4.499999999999992
 30
0.0
 11
-60.00000000000081
 21
-13.49999999999998
 31
0.0
  0
LINE
  5
151
330
146
100
AcDbEntity
  8
Geometrie náčrtu (ISO)
100
AcDbLine
 10
-60.00000000000081
 20
-4.499999999999992
 30
0.0
 11
59.99999999999911
 21
-4.500000000000028
 31
0.0
  0
LINE
  5
152
330
146
100
AcDbEntity
  8
Geometrie náčrtu (ISO)
100
AcDbLine
 10
59.99999999999911
 20
-4.500000000000028
 30
0.0
 11
59.99999999999911
 21
4.499999999999957
 31
0.0
  0
LINE
  5
153
330
146
100
AcDbEntity
  8
Geometrie náčrtu (ISO)
100
AcDbLine
 10
59.99999999999911
 20
4.499999999999957
 30
0.0
 11
-60.00000000000081
 21
4.499999999999992
 31
0.0
  0
LINE
  5
154
330
146
100
AcDbEntity
  8
Geometrie náčrtu (ISO)
100
AcDbLine
 10
-60.00000000000081
 20
4.499999999999992
 30
0.0
 11
-60.00000000000081
 21
-4.499999999999992
 31
0.0
  0
LINE
  5
155
330
146
100
AcDbEntity
  8
Geometrie náčrtu (ISO)
100
AcDbLine
 10
-60.00000000000081
 20
4.499999999999992
 30
0.0
 11
59.99999999999911
 21
4.499999999999957
 31
0.0
  0
LINE
  5
156
330
146
100
AcDbEntity
  8
Geometrie náčrtu (ISO)
100
AcDbLine
 10
59.99999999999911
 20
4.499999999999957
 30
0.0
 11
59.99999999999911
 21
13.49999999999998
 31
0.0
  0
LINE
  5
157
330
146
100
AcDbEntity
  8
Geometrie náčrtu (ISO)
100
AcDbLine
 10
59.99999999999911
 20
13.49999999999998
 30
0.0
 11
-60.00000000000081
 21
13.50000000000001
 31
0.0
  0
LINE
  5
158
330
146
100
AcDbEntity
  8
Geometrie náčrtu (ISO)
100
AcDbLine
 10
-60.00000000000081
 20
13.50000000000001
 30
0.0
 11
-60.00000000000081
 21
4.499999999999992
 31
0.0
  0
LINE
  5
159
330
146
100
AcDbEntity
  8
Geometrie náčrtu (ISO)
100
AcDbLine
 10
-60.00000000000081
 20
13.50000000000001
 30
0.0
 11
59.99999999999911
 21
13.49999999999998
 31
0.0
  0
LINE
  5
15A
330
146
100
AcDbEntity
  8
Geometrie náčrtu (ISO)
100
AcDbLine
 10
59.99999999999911
 20
13.49999999999998
 30
0.0
 11
59.99999999999911
 21
22.49999999999996
 31
0.0
  0
LINE
  5
15B
330
146
100
AcDbEntity
  8
Geometrie náčrtu (ISO)
100
AcDbLine
 10
59.99999999999911
 20
22.49999999999996
 30
0.0
 11
-60.00000000000081
 21
22.5
 31
0.0
  0
LINE
  5
15C
330
146
100
AcDbEntity
  8
Geometrie náčrtu (ISO)
100
AcDbLine
 10
-60.00000000000081
 20
22.5
 30
0.0
 11
-60.00000000000081
 21
13.50000000000001
 31
0.0
  0
LINE
  5
15D
330
146
100
AcDbEntity
  8
Geometrie náčrtu (ISO)
100
AcDbLine
 10
-32.00000000000081
 20
22.5
 30
0.0
 11
-32.00000000000081
 21
-22.5
 31
0.0
  0
MTEXT
  5
15E
330
146
100
AcDbEntity
  8
Značka (ISO)
100
AcDbMText
 10
-27.63552601875791
 20
11.7684641726084
 30
0.0
 40
5.0
 41
0.0
 71
     1
 72
     1
  1
\fTahoma|b0|i0;\H5.0000;xxxxxxxxxxx
  7
Text poznámky (ISO)
 73
     1
 44
1.0
  0
MTEXT
  5
15F
330
146
100
AcDbEntity
  8
Značka (ISO)
100
AcDbMText
 10
-55.52192909558073
 20
11.7684641726084
 30
0.0
 40
5.0
 41
20.42139291763306
 71
     1
 72
     1
  1
\fTahoma|b0|i0;\H5.0000;xxxxxx
  7
Text poznámky (ISO)
 73
     1
 44
1.0
  0
MTEXT
  5
160
330
146
100
AcDbEntity
  8
Značka (ISO)
100
AcDbMText
 10
-54.58647492063526
 20
20.30710993714994
 30
0.0
 40
5.0
 41
13.92583036716939
 71
     1
 72
     1
  1
\fTahoma|b0|i0;\H5.0000;Art.
  7
Text poznámky (ISO)
 73
     1
 44
1.0
  0
MTEXT
  5
161
330
146
100
AcDbEntity
  8
Značka (ISO)
100
AcDbMText
 10
-18.21724056795421
 20
20.30710993714994
 30
0.0
 40
5.0
 41
0.0
 71
     1
 72
     1
  1
\fTahoma|b0|i0;\H5.0000;Popis.
  7
Text poznámky (ISO)
 73
     1
 44
1.0
  0
MTEXT
  5
162
330
146
100
AcDbEntity
  8
Značka (ISO)
100
AcDbMText
 10
-55.52192909558073
 20
2.473781856899819
 30
0.0
 40
5.0
 41
20.42139291763306
 71
     1
 72
     1
  1
\fTahoma|b0|i0;\H5.0000;xxxxxx
  7
Text poznámky (ISO)
 73
     1
 44
1.0
  0
MTEXT
  5
163
330
146
100
AcDbEntity
  8
Značka (ISO)
100
AcDbMText
 10
-27.63552601875791
 20
2.473781856899819
 30
0.0
 40
5.0
 41
0.0
 71
     1
 72
     1
  1
\fTahoma|b0|i0;\H5.0000;xxxxxxxxxxx
  7
Text poznámky (ISO)
 73
     1
 44
1.0
  0
MTEXT
  5
164
330
146
100
AcDbEntity
  8
Značka (ISO)
100
AcDbMText
 10
-55.52192909558073
 20
-6.862452441171491
 30
0.0
 40
5.0
 41
20.42139291763306
 71
     1
 72
     1
  1
\fTahoma|b0|i0;\H5.0000;xxxxxx
  7
Text poznámky (ISO)
 73
     1
 44
1.0
  0
MTEXT
  5
165
330
146
100
AcDbEntity
  8
Značka (ISO)
100
AcDbMText
 10
-27.63552601875791
 20
-6.862452441171491
 30
0.0
 40
5.0
 41
0.0
 71
     1
 72
     1
  1
\fTahoma|b0|i0;\H5.0000;xxxxxxxxxxx
  7
Text poznámky (ISO)
 73
     1
 44
1.0
  0
MTEXT
  5
166
330
146
100
AcDbEntity
  8
Značka (ISO)
100
AcDbMText
 10
-55.52192909558073
 20
-15.52177565039578
 30
0.0
 40
5.0
 41
20.42139291763306
 71
     1
 72
     1
  1
\fTahoma|b0|i0;\H5.0000;xxxxxx
  7
Text poznámky (ISO)
 73
     1
 44
1.0
  0
MTEXT
  5
167
330
146
100
AcDbEntity
  8
Značka (ISO)
100
AcDbMText
 10
-27.63552601875791
 20
-15.52177565039578
 30
0.0
 40
5.0
 41
0.0
 71
     1
 72
     1
  1
\fTahoma|b0|i0;\H5.0000;xxxxxxxxxxx
  7
Text poznámky (ISO)
 73
     1
 44
1.0
  0
ENDBLK
  5
148
330
146
100
AcDbEntity
  8
0
100
AcDbBlockEnd
  0
BLOCK
  5
169
330
168
100
AcDbEntity
  8
0
100
AcDbBlockBegin
  2
Nátěr
 70
     0
 10
0.0
 20
0.0
 30
0.0
  3
Nátěr
  1

  0
MTEXT
  5
16B
330
168
100
AcDbEntity
  8
Značka (ISO)
100
AcDbMText
 10
-25.88411808013916
 20
1.864870421122759
 30
0.0
 40
3.499999940395355
 41
0.0
 71
     1
 72
     1
  1
Lackiert Farbe RAL 5002
  7
Text poznámky (ISO)
 73
     1
 44
1.0
  0
ENDBLK
  5
16A
330
168
100
AcDbEntity
  8
0
100
AcDbBlockEnd
  0
BLOCK
  5
246
330
245
100
AcDbEntity
  8
0
100
AcDbBlockBegin
  2
*D29
 70
     1
 10
0.0
 20
0.0
 30
0.0
  3
*D29
  1

  0
LINE
  5
311
330
245
100
AcDbEntity
  8
Kóta (ISO)
440
 16777216
100
AcDbLine
 10
114.8734807554393
 20
488.0889491532051
 30
0.0
 11
55.37348075543941
 21
488.0889491532051
 31
0.0
  0
LINE
  5
312
330
245
100
AcDbEntity
  8
Kóta (ISO)
440
 16777216
100
AcDbLine
 10
114.8734807554393
 20
466.588949153205
 30
0.0
 11
55.37348075543941
 21
466.588949153205
 31
0.0
  0
LINE
  5
313
330
245
100
AcDbEntity
  8
Kóta (ISO)
440
 16777216
100
AcDbLine
 10
55.87348075543941
 20
486.8389491532051
 30
0.0
 11
55.87348075543941
 21
467.838949153205
 31
0.0
  0
SOLID
  5
314
330
245
100
AcDbEntity
  8
Kóta (ISO)
440
 16777216
100
AcDbTrace
 10
55.66514742210607
 20
486.8389491532051
 30
0.0
 11
56.08181408877275
 21
486.8389491532051
 31
0.0
 12
55.87348075543941
 22
488.0889491532051
 32
0.0
 13
55.87348075543941
 23
488.0889491532051
 33
0.0
  0
SOLID
  5
315
330
245
100
AcDbEntity
  8
Kóta (ISO)
440
 16777216
100
AcDbTrace
 10
55.66514742210607
 20
467.838949153205
 30
0.0
 11
56.08181408877275
 21
467.838949153205
 31
0.0
 12
55.87348075543941
 22
466.588949153205
 32
0.0
 13
55.87348075543941
 23
466.588949153205
 33
0.0
  0
MTEXT
  5
316
330
245
100
AcDbEntity
  8
Kóta (ISO)
440
 16777216
100
AcDbMText
 10
50.38838407921635
 20
477.338949153205
 30
0.0
 40
5.0
 41
0.0
 71
     2
 72
     1
  1
\A1;22
  7
Text popisu (ISO)
 11
0.0000000000000001
 21
1.0
 31
0.0
 73
     1
 44
1.0
  0
POINT
  5
317
330
245
100
AcDbEntity
  8
Defpoints
 62
     0
440
 16777216
100
AcDbPoint
 10
114.8734807554393
 20
488.0889491532051
 30
0.0
  0
POINT
  5
318
330
245
100
AcDbEntity
  8
Defpoints
 62
     0
440
 16777216
100
AcDbPoint
 10
114.8734807554393
 20
466.588949153205
 30
0.0
  0
POINT
  5
319
330
245
100
AcDbEntity
  8
Defpoints
 62
     0
440
 16777216
100
AcDbPoint
 10
55.87348075543941
 20
466.588949153205
 30
0.0
  0
ENDBLK
  5
247
330
245
100
AcDbEntity
  8
0
100
AcDbBlockEnd
  0
BLOCK
  5
31C
330
31B
100
AcDbEntity
  8
0
100
AcDbBlockBegin
  2
*D30
 70
     1
 10
0.0
 20
0.0
 30
0.0
  3
*D30
  1

  0
LINE
  5
3E8
330
31B
100
AcDbEntity
  8
Kóta (ISO)
440
 16777216
100
AcDbLine
 10
114.8734807554393
 20
485.138949153205
 30
0.0
 11
114.8734807554393
 21
520.6389491532051
 31
0.0
  0
LINE
  5
3E9
330
31B
100
AcDbEntity
  8
Kóta (ISO)
440
 16777216
100
AcDbLine
 10
332.8734807554393
 20
485.138949153205
 30
0.0
 11
332.8734807554393
 21
520.6389491532051
 31
0.0
  0
LINE
  5
3EA
330
31B
100
AcDbEntity
  8
Kóta (ISO)
440
 16777216
100
AcDbLine
 10
116.1234807554393
 20
520.1389491532051
 30
0.0
 11
331.6234807554394
 21
520.1389491532051
 31
0.0
  0
SOLID
  5
3EB
330
31B
100
AcDbEntity
  8
Kóta (ISO)
440
 16777216
100
AcDbTrace
 10
116.1234807554393
 20
520.3472824865384
 30
0.0
 11
116.1234807554393
 21
519.9306158198717
 31
0.0
 12
114.8734807554393
 22
520.1389491532051
 32
0.0
 13
114.8734807554393
 23
520.1389491532051
 33
0.0
  0
SOLID
  5
3EC
330
31B
100
AcDbEntity
  8
Kóta (ISO)
440
 16777216
100
AcDbTrace
 10
331.6234807554394
 20
520.3472824865384
 30
0.0
 11
331.6234807554394
 21
519.9306158198717
 31
0.0
 12
332.8734807554393
 22
520.1389491532051
 32
0.0
 13
332.8734807554393
 23
520.1389491532051
 33
0.0
  0
MTEXT
  5
3ED
330
31B
100
AcDbEntity
  8
Kóta (ISO)
440
 16777216
100
AcDbMText
 10
223.8734807554394
 20
528.0429450192253
 30
0.0
 40
5.0
 41
0.0
 71
     2
 72
     1
  1
\A1;{\fAIGDT|b0|i0;\H5.0000;\ln\fTahoma|b0|i0;\H5.0000;}218
  7
Text popisu (ISO)
 73
     1
 44
1.0
  0
POINT
  5
3EE
330
31B
100
AcDbEntity
  8
Defpoints
 62
     0
440
 16777216
100
AcDbPoint
 10
114.8734807554393
 20
485.138949153205
 30
0.0
  0
POINT
  5
3EF
330
31B
100
AcDbEntity
  8
Defpoints
 62
     0
440
 16777216
100
AcDbPoint
 10
332.8734807554393
 20
485.138949153205
 30
0.0
  0
POINT
  5
3F0
330
31B
100
AcDbEntity
  8
Defpoints
 62
     0
440
 16777216
100
AcDbPoint
 10
332.8734807554393
 20
520.1389491532051
 30
0.0
  0
ENDBLK
  5
31D
330
31B
100
AcDbEntity
  8
0
100
AcDbBlockEnd
  0
BLOCK
  5
3F3
330
3F2
100
AcDbEntity
  8
0
100
AcDbBlockBegin
  2
*D31
 70
     1
 10
0.0
 20
0.0
 30
0.0
  3
*D31
  1

  0
LINE
  5
4BE
330
3F2
100
AcDbEntity
  8
Kóta (ISO)
440
 16777216
100
AcDbLine
 10
132.7234807554392
 20
434.8889491532049
 30
0.0
 11
132.7234807554392
 21
452.388949153205
 31
0.0
  0
LINE
  5
4BF
330
3F2
100
AcDbEntity
  8
Kóta (ISO)
440
 16777216
100
AcDbLine
 10
315.0234807554392
 20
434.8889491532049
 30
0.0
 11
315.0234807554392
 21
452.388949153205
 31
0.0
  0
LINE
  5
4C0
330
3F2
100
AcDbEntity
  8
Kóta (ISO)
440
 16777216
100
AcDbLine
 10
133.9734807554392
 20
451.888949153205
 30
0.0
 11
313.7734807554392
 21
451.888949153205
 31
0.0
  0
SOLID
  5
4C1
330
3F2
100
AcDbEntity
  8
Kóta (ISO)
440
 16777216
100
AcDbTrace
 10
133.9734807554392
 20
452.0972824865383
 30
0.0
 11
133.9734807554392
 21
451.6806158198717
 31
0.0
 12
132.7234807554392
 22
451.888949153205
 32
0.0
 13
132.7234807554392
 23
451.888949153205
 33
0.0
  0
SOLID
  5
4C2
330
3F2
100
AcDbEntity
  8
Kóta (ISO)
440
 16777216
100
AcDbTrace
 10
313.7734807554392
 20
452.0972824865383
 30
0.0
 11
313.7734807554392
 21
451.6806158198717
 31
0.0
 12
315.0234807554392
 22
451.888949153205
 32
0.0
 13
315.0234807554392
 23
451.888949153205
 33
0.0
  0
MTEXT
  5
4C3
330
3F2
100
AcDbEntity
  8
Kóta (ISO)
440
 16777216
100
AcDbMText
 10
223.8734807554391
 20
459.7929450192252
 30
0.0
 40
5.0
 41
0.0
 71
     2
 72
     1
  1
\A1;{\fAIGDT|b0|i0;\H5.0000;\ln\fTahoma|b0|i0;\H5.0000;}182
  7
Text popisu (ISO)
 73
     1
 44
1.0
  0
POINT
  5
4C4
330
3F2
100
AcDbEntity
  8
Defpoints
 62
     0
440
 16777216
100
AcDbPoint
 10
132.7234807554392
 20
434.8889491532049
 30
0.0
  0
POINT
  5
4C5
330
3F2
100
AcDbEntity
  8
Defpoints
 62
     0
440
 16777216
100
AcDbPoint
 10
315.0234807554392
 20
434.8889491532049
 30
0.0
  0
POINT
  5
4C6
330
3F2
100
AcDbEntity
  8
Defpoints
 62
     0
440
 16777216
100
AcDbPoint
 10
315.0234807554392
 20
451.888949153205
 30
0.0
  0
ENDBLK
  5
3F4
330
3F2
100
AcDbEntity
  8
0
100
AcDbBlockEnd
  0
BLOCK
  5
4C9
330
4C8
100
AcDbEntity
  8
0
100
AcDbBlockBegin
  2
*D32
 70
     1
 10
0.0
 20
0.0
 30
0.0
  3
*D32
  1

  0
LINE
  5
594
330
4C8
100
AcDbEntity
  8
Kóta (ISO)
440
 16777216
100
AcDbLine
 10
74.82155801596393
 20
294.0889491594304
 30
0.0
 11
74.82155801596393
 21
314.5889491594303
 31
0.0
  0
LINE
  5
595
330
4C8
100
AcDbEntity
  8
Kóta (ISO)
440
 16777216
100
AcDbLine
 10
372.9254034949138
 20
294.0889491594303
 30
0.0
 11
372.9254034949138
 21
314.5889491594303
 31
0.0
  0
LINE
  5
596
330
4C8
100
AcDbEntity
  8
Kóta (ISO)
440
 16777216
100
AcDbLine
 10
76.07155801596393
 20
314.0889491594303
 30
0.0
 11
371.6754034949138
 21
314.0889491594303
 31
0.0
  0
SOLID
  5
597
330
4C8
100
AcDbEntity
  8
Kóta (ISO)
440
 16777216
100
AcDbTrace
 10
76.07155801596393
 20
314.2972824927637
 30
0.0
 11
76.07155801596393
 21
313.880615826097
 31
0.0
 12
74.82155801596393
 22
314.0889491594303
 32
0.0
 13
74.82155801596393
 23
314.0889491594303
 33
0.0
  0
SOLID
  5
598
330
4C8
100
AcDbEntity
  8
Kóta (ISO)
440
 16777216
100
AcDbTrace
 10
371.6754034949138
 20
314.2972824927637
 30
0.0
 11
371.6754034949138
 21
313.880615826097
 31
0.0
 12
372.9254034949138
 22
314.0889491594303
 32
0.0
 13
372.9254034949138
 23
314.0889491594303
 33
0.0
  0
MTEXT
  5
599
330
4C8
100
AcDbEntity
  8
Kóta (ISO)
440
 16777216
100
AcDbMText
 10
223.873480755439
 20
321.9929450254506
 30
0.0
 40
5.0
 41
0.0
 71
     2
 72
     1
  1
\A1;{\fAIGDT|b0|i0;\H5.0000;\ln\fTahoma|b0|i0;\H5.0000;}298
  7
Text popisu (ISO)
 73
     1
 44
1.0
  0
POINT
  5
59A
330
4C8
100
AcDbEntity
  8
Defpoints
 62
     0
440
 16777216
100
AcDbPoint
 10
74.82155801596393
 20
294.0889491594304
 30
0.0
  0
POINT
  5
59B
330
4C8
100
AcDbEntity
  8
Defpoints
 62
     0
440
 16777216
100
AcDbPoint
 10
372.9254034949138
 20
294.0889491594303
 30
0.0
  0
POINT
  5
59C
330
4C8
100
AcDbEntity
  8
Defpoints
 62
     0
440
 16777216
100
AcDbPoint
 10
372.9254034949138
 20
314.0889491594303
 30
0.0
  0
ENDBLK
  5
4CA
330
4C8
100
AcDbEntity
  8
0
100
AcDbBlockEnd
  0
BLOCK
  5
59F
330
59E
100
AcDbEntity
  8
0
100
AcDbBlockBegin
  2
*D33
 70
     1
 10
0.0
 20
0.0
 30
0.0
  3
*D33
  1

  0
LINE
  5
66A
330
59E
100
AcDbEntity
  8
Kóta (ISO)
440
 16777216
100
AcDbLine
 10
223.8734807554392
 20
335.668373607894
 30
0.0
 11
58.22348075543924
 21
335.6683736078941
 31
0.0
  0
LINE
  5
66B
330
59E
100
AcDbEntity
  8
Kóta (ISO)
440
 16777216
100
AcDbLine
 10
132.7234807554392
 20
434.8889491532049
 30
0.0
 11
58.22348075543927
 21
434.888949153205
 31
0.0
  0
LINE
  5
66C
330
59E
100
AcDbEntity
  8
Kóta (ISO)
440
 16777216
100
AcDbLine
 10
58.72348075543924
 20
336.9183736078941
 30
0.0
 11
58.72348075543926
 21
433.638949153205
 31
0.0
  0
SOLID
  5
66D
330
59E
100
AcDbEntity
  8
Kóta (ISO)
440
 16777216
100
AcDbTrace
 10
58.5151474221059
 20
336.9183736078941
 30
0.0
 11
58.93181408877257
 21
336.9183736078941
 31
0.0
 12
58.72348075543923
 22
335.6683736078941
 32
0.0
 13
58.72348075543923
 23
335.6683736078941
 33
0.0
  0
SOLID
  5
66E
330
59E
100
AcDbEntity
  8
Kóta (ISO)
440
 16777216
100
AcDbTrace
 10
58.51514742210593
 20
433.638949153205
 30
0.0
 11
58.9318140887726
 21
433.638949153205
 31
0.0
 12
58.72348075543926
 22
434.888949153205
 32
0.0
 13
58.72348075543926
 23
434.888949153205
 33
0.0
  0
MTEXT
  5
66F
330
59E
100
AcDbEntity
  8
Kóta (ISO)
440
 16777216
100
AcDbMText
 10
53.14436124570683
 20
385.2786613805495
 30
0.0
 40
5.0
 41
0.0
 71
     2
 72
     1
  1
\A1;99
  7
Text popisu (ISO)
 11
0.0000000000000001
 21
1.0
 31
0.0
 73
     1
 44
1.0
  0
POINT
  5
670
330
59E
100
AcDbEntity
  8
Defpoints
 62
     0
440
 16777216
100
AcDbPoint
 10
223.8734807554392
 20
335.668373607894
 30
0.0
  0
POINT
  5
671
330
59E
100
AcDbEntity
  8
Defpoints
 62
     0
440
 16777216
100
AcDbPoint
 10
132.7234807554392
 20
434.8889491532049
 30
0.0
  0
POINT
  5
672
330
59E
100
AcDbEntity
  8
Defpoints
 62
     0
440
 16777216
100
AcDbPoint
 10
58.72348075543926
 20
434.888949153205
 30
0.0
  0
ENDBLK
  5
5A0
330
59E
100
AcDbEntity
  8
0
100
AcDbBlockEnd
  0
BLOCK
  5
675
330
674
100
AcDbEntity
  8
0
100
AcDbBlockBegin
  2
*D34
 70
     1
 10
0.0
 20
0.0
 30
0.0
  3
*D34
  1

  0
LINE
  5
740
330
674
100
AcDbEntity
  8
Kóta (ISO)
440
 16777216
100
AcDbLine
 10
74.82155801596393
 20
298.0889491594304
 30
0.0
 11
34.59988729031858
 21
298.0889491594304
 31
0.0
  0
LINE
  5
741
330
674
100
AcDbEntity
  8
Kóta (ISO)
440
 16777216
100
AcDbLine
 10
91.09988729031847
 20
88.08894915943103
 30
0.0
 11
34.59988729031854
 21
88.08894915943103
 31
0.0
  0
LINE
  5
742
330
674
100
AcDbEntity
  8
Kóta (ISO)
440
 16777216
100
AcDbLine
 10
35.09988729031859
 20
296.8389491594304
 30
0.0
 11
35.09988729031854
 21
89.33894915943103
 31
0.0
  0
SOLID
  5
743
330
674
100
AcDbEntity
  8
Kóta (ISO)
440
 16777216
100
AcDbTrace
 10
34.89155395698525
 20
296.8389491594304
 30
0.0
 11
35.30822062365192
 21
296.8389491594304
 31
0.0
 12
35.09988729031859
 22
298.0889491594304
 32
0.0
 13
35.09988729031859
 23
298.0889491594304
 33
0.0
  0
SOLID
  5
744
330
674
100
AcDbEntity
  8
Kóta (ISO)
440
 16777216
100
AcDbTrace
 10
34.89155395698521
 20
89.33894915943103
 30
0.0
 11
35.30822062365188
 21
89.33894915943103
 31
0.0
 12
35.09988729031854
 22
88.08894915943103
 32
0.0
 13
35.09988729031854
 23
88.08894915943103
 33
0.0
  0
MTEXT
  5
745
330
674
100
AcDbEntity
  8
Kóta (ISO)
440
 16777216
100
AcDbMText
 10
29.51069390556732
 20
193.0889491594307
 30
0.0
 40
5.0
 41
0.0
 71
     2
 72
     1
  1
\A1;210
  7
Text popisu (ISO)
 11
0.0000000000000001
 21
1.0
 31
0.0
 73
     1
 44
1.0
  0
POINT
  5
746
330
674
100
AcDbEntity
  8
Defpoints
 62
     0
440
 16777216
100
AcDbPoint
 10
74.82155801596393
 20
298.0889491594304
 30
0.0
  0
POINT
  5
747
330
674
100
AcDbEntity
  8
Defpoints
 62
     0
440
 16777216
100
AcDbPoint
 10
91.09988729031847
 20
88.08894915943103
 30
0.0
  0
POINT
  5
748
330
674
100
AcDbEntity
  8
Defpoints
 62
     0
440
 16777216
100
AcDbPoint
 10
35.09988729031854
 20
88.08894915943103
 30
0.0
  0
ENDBLK
  5
676
330
674
100
AcDbEntity
  8
0
100
AcDbBlockEnd
  0
ENDSEC
  0
SECTION
  2
ENTITIES
  0
LINE
  5
16C
330
6C
100
AcDbEntity
  8
Viditelná tenká (ISO)
100
AcDbLine
 10
360.9186893645924
 20
90.49023715898375
 30
0.0
 11
86.82827214628531
 21
90.49023715898389
 31
0.0
  0
LINE
  5
16D
330
6C
100
AcDbEntity
  8
Viditelná (ISO)
100
AcDbLine
 10
356.6470742205592
 20
88.08894915943097
 30
0.0
 11
91.09988729031847
 21
88.08894915943112
 31
0.0
  0
LINE
  5
16E
330
6C
100
AcDbEntity
  8
Viditelná tenká (ISO)
100
AcDbLine
 10
366.6455212420989
 20
99.90367803703302
 30
0.0
 11
81.10144026877874
 21
99.90367803703321
 31
0.0
  0
LINE
  5
16F
330
6C
100
AcDbEntity
  8
Viditelná tenká (ISO)
100
AcDbLine
 10
367.3734807554386
 20
102.4371731274041
 30
0.0
 11
80.37348075543903
 21
102.4371731274043
 31
0.0
  0
LINE
  5
170
330
6C
100
AcDbEntity
  8
Viditelná (ISO)
100
AcDbLine
 10
372.9254034949138
 20
294.0889491594303
 30
0.0
 11
74.82155801596391
 21
294.0889491594304
 31
0.0
  0
LINE
  5
171
330
6C
100
AcDbEntity
  8
Viditelná (ISO)
100
AcDbLine
 10
347.6653933674145
 20
298.0889491594303
 30
0.0
 11
100.0815681434631
 21
298.0889491594305
 31
0.0
  0
ARC
  5
172
330
6C
100
AcDbEntity
  8
Viditelná (ISO)
100
AcDbCircle
 10
356.6470742205593
 20
93.08894915943112
 30
0.0
 40
5.000000000000129
100
AcDbArc
 50
269.9999999999992
 51
328.6850262081078
  0
ARC
  5
173
330
6C
100
AcDbEntity
  8
Viditelná (ISO)
100
AcDbCircle
 10
91.09988729031838
 20
93.08894915943126
 30
0.0
 40
5.000000000000128
100
AcDbArc
 50
211.3149737918923
 51
270.0000000000008
  0
LINE
  5
174
330
6C
100
AcDbEntity
  8
Viditelná (ISO)
100
AcDbLine
 10
86.82827214628529
 20
90.49023715898389
 30
0.0
 11
81.10144026877874
 21
99.90367803703319
 31
0.0
  0
LINE
  5
175
330
6C
100
AcDbEntity
  8
Viditelná (ISO)
100
AcDbLine
 10
360.9186893645924
 20
90.49023715898375
 30
0.0
 11
366.6455212420989
 21
99.90367803703305
 31
0.0
  0
ARC
  5
176
330
6C
100
AcDbEntity
  8
Viditelná (ISO)
100
AcDbCircle
 10
362.373906098066
 20
102.5023900374803
 30
0.0
 40
5.000000000000039
100
AcDbArc
 50
328.6850262081088
 51
359.2526480677872
  0
ARC
  5
177
330
6C
100
AcDbEntity
  8
Viditelná (ISO)
100
AcDbCircle
 10
85.3730554128117
 20
102.5023900374805
 30
0.0
 40
5.000000000000039
100
AcDbArc
 50
180.7473519322128
 51
211.3149737918916
  0
LINE
  5
178
330
6C
100
AcDbEntity
  8
Viditelná (ISO)
100
AcDbLine
 10
80.37348075543903
 20
102.4371731274042
 30
0.0
 11
77.87348075543903
 21
294.0889491594305
 31
0.0
  0
LINE
  5
179
330
6C
100
AcDbEntity
  8
Viditelná (ISO)
100
AcDbLine
 10
367.3734807554386
 20
102.4371731274041
 30
0.0
 11
369.8734807554387
 21
294.0889491594303
 31
0.0
  0
LINE
  5
17A
330
6C
100
AcDbEntity
  8
Viditelná (ISO)
100
AcDbLine
 10
74.82155801596391
 20
294.0889491594305
 30
0.0
 11
74.82155801596391
 21
298.0889491594305
 31
0.0
  0
LINE
  5
17B
330
6C
100
AcDbEntity
  8
Viditelná (ISO)
100
AcDbLine
 10
372.9254034949138
 20
294.0889491594303
 30
0.0
 11
372.9254034949138
 21
298.0889491594303
 31
0.0
  0
ELLIPSE
  5
17C
330
6C
100
AcDbEntity
  8
Viditelná (ISO)
100
AcDbEllipse
 10
111.9600512445407
 20
296.0889491594308
 30
0.0
 11
0.0000000000000142
 21
3.99999999999996
 31
0.0
210
0.0
220
0.0
230
1.0
 40
0.8660254037844367
 41
5.235987755982862
 42
6.283185307179585
  0
LINE
  5
17D
330
6C
100
AcDbEntity
  8
Viditelná tenká (ISO)
100
AcDbLine
 10
111.9600512445407
 20
300.0889491594308
 30
0.0
 11
111.9600512445407
 21
298.0889491594308
 31
0.0
  0
LINE
  5
17E
330
6C
100
AcDbEntity
  8
Viditelná (ISO)
100
AcDbLine
 10
79.05108590073211
 20
300.0889491594309
 30
0.0
 11
69.05108590073215
 21
300.0889491594309
 31
0.0
  0
LINE
  5
17F
330
6C
100
AcDbEntity
  8
Viditelná (ISO)
100
AcDbLine
 10
111.9600512445407
 20
300.0889491594308
 30
0.0
 11
79.05108590073211
 21
300.0889491594309
 31
0.0
  0
LINE
  5
180
330
6C
100
AcDbEntity
  8
Viditelná (ISO)
100
AcDbLine
 10
69.05108590073215
 20
298.0889491594309
 30
0.0
 11
69.05108590073215
 21
300.0889491594309
 31
0.0
  0
LINE
  5
181
330
6C
100
AcDbEntity
  8
Viditelná (ISO)
100
AcDbLine
 10
79.05108590073211
 20
298.0889491594309
 30
0.0
 11
79.05108590073211
 21
300.0889491594309
 31
0.0
  0
LINE
  5
182
330
6C
100
AcDbEntity
  8
Viditelná (ISO)
100
AcDbLine
 10
79.05108590073211
 20
298.0889491594309
 30
0.0
 11
100.0815681434632
 21
298.0889491594308
 31
0.0
  0
LINE
  5
183
330
6C
100
AcDbEntity
  8
Viditelná (ISO)
100
AcDbLine
 10
69.05108590073215
 20
298.0889491594309
 30
0.0
 11
79.0510859007321
 21
298.0889491594309
 31
0.0
  0
LINE
  5
184
330
6C
100
AcDbEntity
  8
Viditelná (ISO)
100
AcDbLine
 10
368.6958756101453
 20
300.0889491594311
 30
0.0
 11
335.7869102663367
 21
300.0889491594308
 31
0.0
  0
LINE
  5
185
330
6C
100
AcDbEntity
  8
Viditelná (ISO)
100
AcDbLine
 10
378.6958756101453
 20
300.0889491594311
 30
0.0
 11
368.6958756101453
 21
300.0889491594311
 31
0.0
  0
LINE
  5
186
330
6C
100
AcDbEntity
  8
Viditelná tenká (ISO)
100
AcDbLine
 10
335.7869102663367
 20
298.0889491594309
 30
0.0
 11
335.7869102663367
 21
300.0889491594308
 31
0.0
  0
LINE
  5
187
330
6C
100
AcDbEntity
  8
Viditelná (ISO)
100
AcDbLine
 10
368.6958756101453
 20
298.0889491594311
 30
0.0
 11
347.6653933674143
 21
298.0889491594309
 31
0.0
  0
LINE
  5
188
330
6C
100
AcDbEntity
  8
Viditelná (ISO)
100
AcDbLine
 10
368.6958756101453
 20
298.0889491594311
 30
0.0
 11
368.6958756101453
 21
300.0889491594311
 31
0.0
  0
LINE
  5
189
330
6C
100
AcDbEntity
  8
Viditelná (ISO)
100
AcDbLine
 10
378.6958756101453
 20
298.0889491594311
 30
0.0
 11
378.6958756101453
 21
300.0889491594311
 31
0.0
  0
LINE
  5
18A
330
6C
100
AcDbEntity
  8
Viditelná (ISO)
100
AcDbLine
 10
368.6958756101453
 20
298.0889491594311
 30
0.0
 11
378.6958756101453
 21
298.0889491594311
 31
0.0
  0
ELLIPSE
  5
18B
330
6C
100
AcDbEntity
  8
Viditelná (ISO)
100
AcDbEllipse
 10
335.7869102663368
 20
296.0889491594309
 30
0.0
 11
-0.0000000000000083
 21
3.999999999999928
 31
0.0
210
0.0
220
0.0
230
1.0
 40
0.8660254037844367
 41
0.0
 42
1.047197551196748
  0
LINE
  5
18C
330
6C
100
AcDbEntity
  8
Viditelná (ISO)
100
AcDbLine
 10
213.8734807554388
 20
300.0889491594315
 30
0.0
 11
213.8734807554388
 21
298.0889491594302
 31
0.0
  0
LINE
  5
18D
330
6C
100
AcDbEntity
  8
Viditelná (ISO)
100
AcDbLine
 10
233.8734807554387
 20
300.0889491594314
 30
0.0
 11
213.8734807554388
 21
300.0889491594315
 31
0.0
  0
LINE
  5
18E
330
6C
100
AcDbEntity
  8
Viditelná (ISO)
100
AcDbLine
 10
233.8734807554387
 20
298.0889491594302
 30
0.0
 11
233.8734807554387
 21
300.0889491594314
 31
0.0
  0
LINE
  5
18F
330
6C
100
AcDbEntity
  8
Viditelná (ISO)
100
AcDbLine
 10
329.2900071200853
 20
474.588949153205
 30
0.0
 11
118.4569543907933
 21
474.588949153205
 31
0.0
  0
ELLIPSE
  5
190
330
6C
100
AcDbEntity
  8
Viditelná tenká (ISO)
100
AcDbEllipse
 10
317.5815657531217
 20
489.2157346317272
 30
0.0
 11
-1.094134341160278
 21
0.492818469107725
 31
0.0
210
0.0
220
0.0
230
0.9999999999999998
 40
0.1093816549466295
 41
0.0
 42
1.332563564374941
  0
LINE
  5
191
330
6C
100
AcDbEntity
  8
Viditelná tenká (ISO)
100
AcDbLine
 10
317.2709828989987
 20
489.2157346317272
 30
0.0
 11
316.7634577499853
 21
488.0889491532051
 31
0.0
  0
ELLIPSE
  5
192
330
6C
100
AcDbEntity
  8
Viditelná tenká (ISO)
100
AcDbEllipse
 10
292.0584495815621
 20
489.2157346317272
 30
0.0
 11
-1.139646150378016
 21
0.3757747356179983
 31
0.0
210
0.0
220
0.0
230
0.9999999999999998
 40
0.2988362387301153
 41
0.0
 42
0.8345071700793971
  0
LINE
  5
193
330
6C
100
AcDbEntity
  8
Viditelná tenká (ISO)
100
AcDbLine
 10
291.2099214441382
 20
489.2157346317272
 30
0.0
 11
290.8383872489413
 21
488.0889491532051
 31
0.0
  0
ELLIPSE
  5
194
330
6C
100
AcDbEntity
  8
Viditelná tenká (ISO)
100
AcDbEllipse
 10
130.1653957577568
 20
489.2157346317272
 30
0.0
 11
1.094134341160302
 21
0.4928184691077338
 31
0.0
210
0.0
220
0.0
230
1.0
 40
0.1093816549466289
 41
4.95062174280286
 42
6.283185307175916
  0
LINE
  5
195
330
6C
100
AcDbEntity
  8
Viditelná tenká (ISO)
100
AcDbLine
 10
130.9835037608934
 20
488.0889491532051
 30
0.0
 11
130.4759786118798
 21
489.2157346317272
 31
0.0
  0
LINE
  5
196
330
6C
100
AcDbEntity
  8
Viditelná tenká (ISO)
100
AcDbLine
 10
331.8808725745158
 20
482.9095146767729
 30
0.0
 11
115.8660889363627
 21
482.9095146767729
 31
0.0
  0
LINE
  5
197
330
6C
100
AcDbEntity
  8
Viditelná tenká (ISO)
100
AcDbLine
 10
332.8734807554393
 20
485.138949153205
 30
0.0
 11
114.8734807554393
 21
485.138949153205
 31
0.0
  0
LINE
  5
198
330
6C
100
AcDbEntity
  8
Viditelná tenká (ISO)
100
AcDbLine
 10
330.3623930268245
 20
481.542269550848
 30
0.0
 11
117.3845684840541
 21
481.542269550848
 31
0.0
  0
LINE
  5
199
330
6C
100
AcDbEntity
  8
Viditelná tenká (ISO)
100
AcDbLine
 10
328.8734807554392
 20
478.1981178361997
 30
0.0
 11
118.8734807554393
 21
478.1981178361997
 31
0.0
  0
LINE
  5
19A
330
6C
100
AcDbEntity
  8
Viditelná tenká (ISO)
100
AcDbLine
 10
328.8734807554392
 20
476.4797804702104
 30
0.0
 11
118.8734807554393
 21
476.4797804702104
 31
0.0
  0
LINE
  5
19B
330
6C
100
AcDbEntity
  8
Viditelná (ISO)
100
AcDbLine
 10
332.8734807554393
 20
488.0889491532051
 30
0.0
 11
329.8965252044073
 21
488.0889491532051
 31
0.0
  0
LINE
  5
19C
330
6C
100
AcDbEntity
  8
Viditelná (ISO)
100
AcDbLine
 10
117.850436306574
 20
488.0889491532051
 30
0.0
 11
114.8734807554393
 21
488.0889491532051
 31
0.0
  0
LINE
  5
19D
330
6C
100
AcDbEntity
  8
Viditelná (ISO)
100
AcDbLine
 10
144.7050684805835
 20
488.0889491532051
 30
0.0
 11
119.4045932718531
 21
488.0889491532051
 31
0.0
  0
LINE
  5
19E
330
6C
100
AcDbEntity
  8
Viditelná (ISO)
100
AcDbLine
 10
192.7728127896948
 20
488.0889491532051
 30
0.0
 11
148.9511042726415
 21
488.0889491532051
 31
0.0
  0
LINE
  5
19F
330
6C
100
AcDbEntity
  8
Viditelná (ISO)
100
AcDbLine
 10
249.1739559642959
 20
488.0889491532051
 30
0.0
 11
198.5730055470139
 21
488.0889491532051
 31
0.0
  0
LINE
  5
1A0
330
6C
100
AcDbEntity
  8
Viditelná (ISO)
100
AcDbLine
 10
298.7958572385602
 20
488.0889491532051
 30
0.0
 11
254.9741487216084
 21
488.0889491532051
 31
0.0
  0
LINE
  5
1A1
330
6C
100
AcDbEntity
  8
Viditelná (ISO)
100
AcDbLine
 10
328.3423682391514
 20
488.0889491532051
 30
0.0
 11
303.0418930305988
 21
488.0889491532051
 31
0.0
  0
SPLINE
  5
1A2
330
6C
100
AcDbEntity
  8
Viditelná (ISO)
100
AcDbSpline
210
0.0
220
0.0
230
1.0
 70
     8
 71
     3
 72
    16
 73
    12
 74
     0
 42
0.0000000001
 43
0.0000000001
 40
-0.1581423838393711
 40
-0.1581423838393711
 40
-0.1581423838393711
 40
-0.1581423838393711
 40
-0.13864096928437
 40
-0.13864096928437
 40
-0.1178989514985903
 40
-0.1178989514985903
 40
-0.0791506843086262
 40
-0.0791506843086262
 40
-0.0403644184403989
 40
-0.0403644184403989
 40
0.0
 40
0.0
 40
0.0
 40
0.0
 10
329.896525204285
 20
488.0889491530833
 30
0.0
 10
329.8814381640731
 20
488.0889491530914
 30
0.0
 10
329.8663305529903
 20
488.0953005942334
 30
0.0
 10
329.8355601379313
 20
488.1213095522969
 30
0.0
 10
329.820006931833
 20
488.1417169616773
 30
0.0
 10
329.7770203047793
 20
488.2193557759022
 30
0.0
 10
329.7513974565907
 20
488.2924428665416
 30
0.0
 10
329.7079106307713
 20
488.4755522804343
 30
0.0
 10
329.6904629514568
 20
488.5839110227678
 30
0.0
 10
329.6658149875998
 20
488.8270031816452
 30
0.0
 10
329.6593090095012
 20
488.9602273389145
 30
0.0
 10
329.659309009501
 20
489.0947754003825
 30
0.0
  0
LINE
  5
1A3
330
6C
100
AcDbEntity
  8
Viditelná (ISO)
100
AcDbLine
 10
329.659309009501
 20
489.388949153205
 30
0.0
 11
329.659309009501
 21
489.0947754003825
 31
0.0
  0
SPLINE
  5
1A4
330
6C
100
AcDbEntity
  8
Viditelná (ISO)
100
AcDbSpline
210
0.0
220
0.0
230
1.0
 70
     8
 71
     3
 72
    14
 73
    10
 74
     0
 42
0.0000000001
 43
0.0000000001
 40
0.0
 40
0.0
 40
0.0
 40
0.0
 40
0.0452028724070423
 40
0.0452028724070423
 40
0.0904057448140845
 40
0.0904057448140845
 40
0.1356112396625218
 40
0.1356112396625218
 40
0.180816734510959
 40
0.180816734510959
 40
0.180816734510959
 40
0.180816734510959
 10
329.659309009501
 20
489.388949153205
 30
0.0
 10
329.659309009501
 20
489.5396253945619
 30
0.0
 10
329.6520615794457
 20
489.7003428257797
 30
0.0
 10
329.6224376993549
 20
489.995993309695
 30
0.0
 10
329.600044032244
 20
490.1309265638832
 30
0.0
 10
329.5480081913876
 20
490.3440117591731
 30
0.0
 10
329.5148938716064
 20
490.4363657635398
 30
0.0
 10
329.4416714846426
 20
490.5588345266716
 30
0.0
 10
329.4015461055553
 20
490.588949153205
 30
0.0
 10
329.363615273295
 20
490.588949153205
 30
0.0
  0
LINE
  5
1A5
330
6C
100
AcDbEntity
  8
Viditelná (ISO)
100
AcDbLine
 10
329.3636152732952
 20
490.588949153205
 30
0.0
 11
328.949504801131
 21
490.588949153205
 31
0.0
  0
SPLINE
  5
1A6
330
6C
100
AcDbEntity
  8
Viditelná (ISO)
100
AcDbSpline
210
0.0
220
0.0
230
1.0
 70
     8
 71
     3
 72
    14
 73
    10
 74
     0
 42
0.0000000001
 43
0.0000000001
 40
0.5424377310522467
 40
0.5424377310522467
 40
0.5424377310522467
 40
0.5424377310522467
 40
0.5876432259006843
 40
0.5876432259006843
 40
0.632848720749122
 40
0.632848720749122
 40
0.6780515931561649
 40
0.6780515931561649
 40
0.7232544655632078
 40
0.7232544655632078
 40
0.7232544655632078
 40
0.7232544655632078
 10
328.949504801131
 20
490.588949153205
 30
0.0
 10
328.9094374475268
 20
490.588949153205
 30
0.0
 10
328.8663674605564
 20
490.5588345266716
 30
0.0
 10
328.7865461859034
 20
490.4363657635398
 30
0.0
 10
328.7498120751445
 20
490.3440117591731
 30
0.0
 10
328.6915498192809
 20
490.1309265638832
 30
0.0
 10
328.6661401992201
 20
489.995993309695
 30
0.0
 10
328.6323730505234
 20
489.7003428257797
 30
0.0
 10
328.6240328290909
 20
489.5396253945619
 30
0.0
 10
328.6240328290909
 20
489.388949153205
 30
0.0
  0
LINE
  5
1A7
330
6C
100
AcDbEntity
  8
Viditelná (ISO)
100
AcDbLine
 10
328.624032829091
 20
489.388949153205
 30
0.0
 11
328.624032829091
 21
489.0947754003993
 31
0.0
  0
SPLINE
  5
1A8
330
6C
100
AcDbEntity
  8
Viditelná (ISO)
100
AcDbSpline
210
0.0
220
0.0
230
1.0
 70
     8
 71
     3
 72
    16
 73
    12
 74
     0
 42
0.0000000001
 43
0.0000000001
 40
0.0
 40
0.0
 40
0.0
 40
0.0
 40
0.0402950989210961
 40
0.0402950989210961
 40
0.0790789555134006
 40
0.0790789555134006
 40
0.1178300954803855
 40
0.1178300954803855
 40
0.1386080426552353
 40
0.1386080426552353
 40
0.1581418927382338
 40
0.1581418927382338
 40
0.1581418927382338
 40
0.1581418927382338
 10
328.6240328290925
 20
489.0947754003725
 30
0.0
 10
328.6240328290925
 20
488.9604584039688
 30
0.0
 10
328.6166147724385
 20
488.8274584890542
 30
0.0
 10
328.5882595326782
 20
488.584516874468
 30
0.0
 10
328.5680942112724
 20
488.4761145519364
 30
0.0
 10
328.5172307545967
 20
488.2928751607709
 30
0.0
 10
328.4870070478275
 20
488.2197076517005
 30
0.0
 10
328.4355588830241
 20
488.1418938713068
 30
0.0
 10
328.4168017397769
 20
488.121417559522
 30
0.0
 10
328.3794199595664
 20
488.0953217392987
 30
0.0
 10
328.3609448643244
 20
488.088949153052
 30
0.0
 10
328.3423682391898
 20
488.0889491530417
 30
0.0
  0
SPLINE
  5
1A9
330
6C
100
AcDbEntity
  8
Viditelná (ISO)
100
AcDbSpline
210
0.0
220
0.0
230
1.0
 70
     8
 71
     3
 72
    16
 73
    12
 74
     0
 42
0.0000000001
 43
0.0000000001
 40
-0.1581423838391523
 40
-0.1581423838391523
 40
-0.1581423838391523
 40
-0.1581423838391523
 40
-0.1386409692842689
 40
-0.1386409692842689
 40
-0.117898951498585
 40
-0.117898951498585
 40
-0.0791506843085138
 40
-0.0791506843085138
 40
-0.0403644184401731
 40
-0.0403644184401731
 40
0.0
 40
0.0
 40
0.0
 40
0.0
 10
303.0418930302376
 20
488.0889491530833
 30
0.0
 10
302.9972157308022
 20
488.0889491530915
 30
0.0
 10
302.952603918209
 20
488.0953005942337
 30
0.0
 10
302.8619868544713
 20
488.1213095522974
 30
0.0
 10
302.8163201794159
 20
488.1417169616776
 30
0.0
 10
302.6904346070273
 20
488.2193557759026
 30
0.0
 10
302.6158183156478
 20
488.2924428665425
 30
0.0
 10
302.4895968353973
 20
488.4755522804357
 30
0.0
 10
302.4391888418322
 20
488.5839110227697
 30
0.0
 10
302.3680701963435
 20
488.8270031816468
 30
0.0
 10
302.3493579385787
 20
488.9602273389153
 30
0.0
 10
302.3493579385782
 20
489.0947754003825
 30
0.0
  0
LINE
  5
1AA
330
6C
100
AcDbEntity
  8
Viditelná (ISO)
100
AcDbLine
 10
302.3493579385782
 20
489.388949153205
 30
0.0
 11
302.3493579385782
 21
489.0947754003825
 31
0.0
  0
SPLINE
  5
1AB
330
6C
100
AcDbEntity
  8
Viditelná (ISO)
100
AcDbSpline
210
0.0
220
0.0
230
1.0
 70
     8
 71
     3
 72
    14
 73
    10
 74
     0
 42
0.0000000001
 43
0.0000000001
 40
0.0
 40
0.0
 40
0.0
 40
0.0
 40
0.0452028724070428
 40
0.0452028724070428
 40
0.0904057448140856
 40
0.0904057448140856
 40
0.1356112396625239
 40
0.1356112396625239
 40
0.1808167345109622
 40
0.1808167345109622
 40
0.1808167345109622
 40
0.1808167345109622
 10
302.3493579385782
 20
489.388949153205
 30
0.0
 10
302.3493579385782
 20
489.5396253945619
 30
0.0
 10
302.3284648000656
 20
489.7003428257797
 30
0.0
 10
302.2433875859344
 20
489.995993309695
 30
0.0
 10
302.1791909966697
 20
490.1309265638832
 30
0.0
 10
302.0308000206282
 20
490.3440117591731
 30
0.0
 10
301.9367102255502
 20
490.4363657635398
 30
0.0
 10
301.7300640564243
 20
490.5588345266716
 30
0.0
 10
301.6174948742019
 20
490.588949153205
 30
0.0
 10
301.5117293919495
 20
490.588949153205
 30
0.0
  0
LINE
  5
1AC
330
6C
100
AcDbEntity
  8
Viditelná (ISO)
100
AcDbLine
 10
301.5117293919495
 20
490.588949153205
 30
0.0
 11
300.3803585420511
 21
490.588949153205
 31
0.0
  0
SPLINE
  5
1AD
330
6C
100
AcDbEntity
  8
Viditelná (ISO)
100
AcDbSpline
210
0.0
220
0.0
230
1.0
 70
     8
 71
     3
 72
    14
 73
    10
 74
     0
 42
0.0000000001
 43
0.0000000001
 40
0.5424377310522432
 40
0.5424377310522432
 40
0.5424377310522432
 40
0.5424377310522432
 40
0.5876432259006808
 40
0.5876432259006808
 40
0.6328487207491183
 40
0.6328487207491183
 40
0.678051593156162
 40
0.678051593156162
 40
0.7232544655632056
 40
0.7232544655632056
 40
0.7232544655632056
 40
0.7232544655632056
 10
300.380358542051
 20
490.588949153205
 30
0.0
 10
300.2730290176235
 20
490.588949153205
 30
0.0
 10
300.1583042328222
 20
490.5588345266716
 30
0.0
 10
299.9468273426344
 20
490.4363657635398
 30
0.0
 10
299.850087676648
 20
490.3440117591731
 30
0.0
 10
299.6971386484723
 20
490.1309265638832
 30
0.0
 10
299.630734228415
 20
489.995993309695
 30
0.0
 10
299.5426239311549
 20
489.7003428257797
 30
0.0
 10
299.520930813832
 20
489.5396253945619
 30
0.0
 10
299.520930813832
 20
489.388949153205
 30
0.0
  0
LINE
  5
1AE
330
6C
100
AcDbEntity
  8
Viditelná (ISO)
100
AcDbLine
 10
299.520930813832
 20
489.388949153205
 30
0.0
 11
299.520930813832
 21
489.0947754003993
 31
0.0
  0
SPLINE
  5
1AF
330
6C
100
AcDbEntity
  8
Viditelná (ISO)
100
AcDbSpline
210
0.0
220
0.0
230
1.0
 70
     8
 71
     3
 72
    16
 73
    12
 74
     0
 42
0.0000000001
 43
0.0000000001
 40
0.0
 40
0.0
 40
0.0
 40
0.0
 40
0.0402950989209618
 40
0.0402950989209618
 40
0.0790789555133421
 40
0.0790789555133421
 40
0.1178300954804553
 40
0.1178300954804553
 40
0.1386080426554737
 40
0.1386080426554737
 40
0.1581418927386222
 40
0.1581418927386222
 40
0.1581418927386222
 40
0.1581418927386222
 10
299.5209308138332
 20
489.0947754003726
 30
0.0
 10
299.520930813833
 20
488.9604584039694
 30
0.0
 10
299.5015987395856
 20
488.8274584890551
 30
0.0
 10
299.4278999325891
 20
488.584516874469
 30
0.0
 10
299.3755437706919
 20
488.4761145519373
 30
0.0
 10
299.243988649072
 20
488.2928751607713
 30
0.0
 10
299.1660263254226
 20
488.2197076517008
 30
0.0
 10
299.0339122771946
 20
488.1418938713068
 30
0.0
 10
298.9858457772861
 20
488.1214175595218
 30
0.0
 10
298.8902775478217
 20
488.0953217392985
 30
0.0
 10
298.8431450306258
 20
488.0889491530519
 30
0.0
 10
298.795857238641
 20
488.0889491530417
 30
0.0
  0
SPLINE
  5
1B0
330
6C
100
AcDbEntity
  8
Viditelná (ISO)
100
AcDbSpline
210
0.0
220
0.0
230
1.0
 70
     8
 71
     3
 72
    16
 73
    12
 74
     0
 42
0.0000000001
 43
0.0000000001
 40
-0.1581423838392808
 40
-0.1581423838392808
 40
-0.1581423838392808
 40
-0.1581423838392808
 40
-0.138640969284322
 40
-0.138640969284322
 40
-0.1178989514985916
 40
-0.1178989514985916
 40
-0.0791506843085788
 40
-0.0791506843085788
 40
-0.0403644184403325
 40
-0.0403644184403325
 40
0.0
 40
0.0
 40
0.0
 40
0.0
 10
254.9741487211052
 20
488.0889491530833
 30
0.0
 10
254.9118524087498
 20
488.0889491530915
 30
0.0
 10
254.8496900938029
 20
488.0953005942338
 30
0.0
 10
254.723507150435
 20
488.1213095522975
 30
0.0
 10
254.6599633551243
 20
488.1417169616778
 30
0.0
 10
254.4849097748609
 20
488.2193557759026
 30
0.0
 10
254.3812934153081
 20
488.2924428665423
 30
0.0
 10
254.2061582243272
 20
488.4755522804349
 30
0.0
 10
254.1362966976795
 20
488.5839110227685
 30
0.0
 10
254.037763554184
 20
488.8270031816459
 30
0.0
 10
254.0118589511097
 20
488.9602273389149
 30
0.0
 10
254.0118589511092
 20
489.0947754003827
 30
0.0
  0
LINE
  5
1B1
330
6C
100
AcDbEntity
  8
Viditelná (ISO)
100
AcDbLine
 10
254.0118589511091
 20
489.388949153205
 30
0.0
 11
254.0118589511091
 21
489.0947754003827
 31
0.0
  0
SPLINE
  5
1B2
330
6C
100
AcDbEntity
  8
Viditelná (ISO)
100
AcDbSpline
210
0.0
220
0.0
230
1.0
 70
     8
 71
     3
 72
    14
 73
    10
 74
     0
 42
0.0000000001
 43
0.0000000001
 40
0.0
 40
0.0
 40
0.0
 40
0.0
 40
0.0452028724070423
 40
0.0452028724070423
 40
0.0904057448140846
 40
0.0904057448140846
 40
0.135611239662522
 40
0.135611239662522
 40
0.1808167345109595
 40
0.1808167345109595
 40
0.1808167345109595
 40
0.1808167345109595
 10
254.0118589511091
 20
489.388949153205
 30
0.0
 10
254.0118589511091
 20
489.5396253945619
 30
0.0
 10
253.9829184037309
 20
489.7003428257797
 30
0.0
 10
253.8651842263801
 20
489.995993309695
 30
0.0
 10
253.7763861392119
 20
490.1309265638832
 30
0.0
 10
253.5714012701797
 20
490.3440117591731
 30
0.0
 10
253.4415472844121
 20
490.4363657635398
 30
0.0
 10
253.1568480072605
 20
490.5588345266716
 30
0.0
 10
253.0019978433719
 20
490.588949153205
 30
0.0
 10
252.8567374866841
 20
490.588949153205
 30
0.0
  0
LINE
  5
1B3
330
6C
100
AcDbEntity
  8
Viditelná (ISO)
100
AcDbLine
 10
252.8567374866842
 20
490.588949153205
 30
0.0
 11
251.3112561646216
 21
490.588949153205
 31
0.0
  0
SPLINE
  5
1B4
330
6C
100
AcDbEntity
  8
Viditelná (ISO)
100
AcDbSpline
210
0.0
220
0.0
230
1.0
 70
     8
 71
     3
 72
    14
 73
    10
 74
     0
 42
0.0000000001
 43
0.0000000001
 40
0.5424377310522491
 40
0.5424377310522491
 40
0.5424377310522491
 40
0.5424377310522491
 40
0.587643225900686
 40
0.587643225900686
 40
0.6328487207491228
 40
0.6328487207491228
 40
0.6780515931561652
 40
0.6780515931561652
 40
0.7232544655632079
 40
0.7232544655632079
 40
0.7232544655632079
 40
0.7232544655632079
 10
251.3112561646216
 20
490.588949153205
 30
0.0
 10
251.1654233287651
 20
490.588949153205
 30
0.0
 10
251.0097841595722
 20
490.5588345266716
 30
0.0
 10
250.7233167157933
 20
490.4363657635398
 30
0.0
 10
250.5924928099565
 20
490.3440117591731
 30
0.0
 10
250.3858395780514
 20
490.1309265638832
 30
0.0
 10
250.2962333687259
 20
489.995993309695
 30
0.0
 10
250.177389005898
 20
489.7003428257797
 30
0.0
 10
250.1481556459528
 20
489.5396253945619
 30
0.0
 10
250.1481556459528
 20
489.388949153205
 30
0.0
  0
LINE
  5
1B5
330
6C
100
AcDbEntity
  8
Viditelná (ISO)
100
AcDbLine
 10
250.1481556459528
 20
489.388949153205
 30
0.0
 11
250.1481556459528
 21
489.0947754003993
 31
0.0
  0
SPLINE
  5
1B6
330
6C
100
AcDbEntity
  8
Viditelná (ISO)
100
AcDbSpline
210
0.0
220
0.0
230
1.0
 70
     8
 71
     3
 72
    16
 73
    12
 74
     0
 42
0.0000000001
 43
0.0000000001
 40
0.0
 40
0.0
 40
0.0
 40
0.0
 40
0.040295098921139
 40
0.040295098921139
 40
0.0790789555134127
 40
0.0790789555134127
 40
0.1178300954803516
 40
0.1178300954803516
 40
0.1386080426553115
 40
0.1386080426553115
 40
0.158141892738407
 40
0.158141892738407
 40
0.158141892738407
 40
0.158141892738407
 10
250.1481556459532
 20
489.0947754003725
 30
0.0
 10
250.1481556459532
 20
488.9604584039688
 30
0.0
 10
250.1220895677947
 20
488.8274584890539
 30
0.0
 10
250.0227947293801
 20
488.5845168744675
 30
0.0
 10
249.9522765182911
 20
488.4761145519361
 30
0.0
 10
249.7752798203264
 20
488.2928751607707
 30
0.0
 10
249.6704688214596
 20
488.2197076517003
 30
0.0
 10
249.4930887423393
 20
488.1418938713065
 30
0.0
 10
249.4285922656032
 20
488.1214175595216
 30
0.0
 10
249.3004450167927
 20
488.0953217392983
 30
0.0
 10
249.2372841975631
 20
488.0889491530519
 30
0.0
 10
249.1739559644026
 20
488.0889491530417
 30
0.0
  0
SPLINE
  5
1B7
330
6C
100
AcDbEntity
  8
Viditelná (ISO)
100
AcDbSpline
210
0.0
220
0.0
230
1.0
 70
     8
 71
     3
 72
    16
 73
    12
 74
     0
 42
0.0000000001
 43
0.0000000001
 40
-0.1581423838392984
 40
-0.1581423838392984
 40
-0.1581423838392984
 40
-0.1581423838392984
 40
-0.1386409692843846
 40
-0.1386409692843846
 40
-0.1178989514986808
 40
-0.1178989514986808
 40
-0.0791506843085915
 40
-0.0791506843085915
 40
-0.0403644184402784
 40
-0.0403644184402784
 40
0.0
 40
0.0
 40
0.0
 40
0.0
 10
198.5730055465035
 20
488.0889491530833
 30
0.0
 10
198.5097824678153
 20
488.0889491530916
 30
0.0
 10
198.4467259926047
 20
488.0953005942338
 30
0.0
 10
198.318787787381
 20
488.1213095522975
 30
0.0
 10
198.2543933804527
 20
488.1417169616779
 30
0.0
 10
198.0770772577784
 20
488.2193557759026
 30
0.0
 10
197.9722247499169
 20
488.2924428665424
 30
0.0
 10
197.7951031811948
 20
488.4755522804351
 30
0.0
 10
197.7245074611116
 20
488.5839110227688
 30
0.0
 10
197.624961695837
 20
488.827003181646
 30
0.0
 10
197.5988058649271
 20
488.9602273389149
 30
0.0
 10
197.5988058649265
 20
489.0947754003825
 30
0.0
  0
LINE
  5
1B8
330
6C
100
AcDbEntity
  8
Viditelná (ISO)
100
AcDbLine
 10
197.5988058649264
 20
489.388949153205
 30
0.0
 11
197.5988058649264
 21
489.0947754003825
 31
0.0
  0
SPLINE
  5
1B9
330
6C
100
AcDbEntity
  8
Viditelná (ISO)
100
AcDbSpline
210
0.0
220
0.0
230
1.0
 70
     8
 71
     3
 72
    14
 73
    10
 74
     0
 42
0.0000000001
 43
0.0000000001
 40
0.0
 40
0.0
 40
0.0
 40
0.0
 40
0.0452028724070426
 40
0.0452028724070426
 40
0.0904057448140852
 40
0.0904057448140852
 40
0.1356112396625224
 40
0.1356112396625224
 40
0.1808167345109596
 40
0.1808167345109596
 40
0.1808167345109596
 40
0.1808167345109596
 10
197.5988058649265
 20
489.388949153205
 30
0.0
 10
197.5988058649265
 20
489.5396253945619
 30
0.0
 10
197.5695725049813
 20
489.7003428257797
 30
0.0
 10
197.4507281421534
 20
489.995993309695
 30
0.0
 10
197.3611219328279
 20
490.1309265638832
 30
0.0
 10
197.1544687009228
 20
490.3440117591731
 30
0.0
 10
197.023644795086
 20
490.4363657635398
 30
0.0
 10
196.7371773513071
 20
490.5588345266716
 30
0.0
 10
196.5815381821142
 20
490.588949153205
 30
0.0
 10
196.4357053462577
 20
490.588949153205
 30
0.0
  0
LINE
  5
1BA
330
6C
100
AcDbEntity
  8
Viditelná (ISO)
100
AcDbLine
 10
196.435705346256
 20
490.588949153205
 30
0.0
 11
194.8902240241952
 21
490.588949153205
 31
0.0
  0
SPLINE
  5
1BB
330
6C
100
AcDbEntity
  8
Viditelná (ISO)
100
AcDbSpline
210
0.0
220
0.0
230
1.0
 70
     8
 71
     3
 72
    14
 73
    10
 74
     0
 42
0.0000000001
 43
0.0000000001
 40
0.5424377310522485
 40
0.5424377310522485
 40
0.5424377310522485
 40
0.5424377310522485
 40
0.5876432259006857
 40
0.5876432259006857
 40
0.6328487207491229
 40
0.6328487207491229
 40
0.6780515931561654
 40
0.6780515931561654
 40
0.7232544655632079
 40
0.7232544655632079
 40
0.7232544655632079
 40
0.7232544655632079
 10
194.8902240241952
 20
490.588949153205
 30
0.0
 10
194.7449636675074
 20
490.588949153205
 30
0.0
 10
194.5901135036188
 20
490.5588345266716
 30
0.0
 10
194.3054142264672
 20
490.4363657635398
 30
0.0
 10
194.1755602406996
 20
490.3440117591731
 30
0.0
 10
193.9705753716674
 20
490.1309265638832
 30
0.0
 10
193.8817772844993
 20
489.995993309695
 30
0.0
 10
193.7640431071484
 20
489.7003428257797
 30
0.0
 10
193.7351025597702
 20
489.5396253945619
 30
0.0
 10
193.7351025597702
 20
489.388949153205
 30
0.0
  0
LINE
  5
1BC
330
6C
100
AcDbEntity
  8
Viditelná (ISO)
100
AcDbLine
 10
193.7351025597701
 20
489.388949153205
 30
0.0
 11
193.7351025597701
 21
489.0947754003993
 31
0.0
  0
SPLINE
  5
1BD
330
6C
100
AcDbEntity
  8
Viditelná (ISO)
100
AcDbSpline
210
0.0
220
0.0
230
1.0
 70
     8
 71
     3
 72
    16
 73
    12
 74
     0
 42
0.0000000001
 43
0.0000000001
 40
0.0
 40
0.0
 40
0.0
 40
0.0
 40
0.0402950989210241
 40
0.0402950989210241
 40
0.0790789555133701
 40
0.0790789555133701
 40
0.1178300954803786
 40
0.1178300954803786
 40
0.1386080426552221
 40
0.1386080426552221
 40
0.1581418927382121
 40
0.1581418927382121
 40
0.1581418927382121
 40
0.1581418927382121
 10
193.7351025597698
 20
489.0947754003725
 30
0.0
 10
193.7351025597697
 20
488.9604584039691
 30
0.0
 10
193.7092868622927
 20
488.8274584890547
 30
0.0
 10
193.6110019642257
 20
488.5845168744684
 30
0.0
 10
193.5412170016572
 20
488.4761145519368
 30
0.0
 10
193.3662048496292
 20
488.292875160771
 30
0.0
 10
193.2626291980485
 20
488.2197076517005
 30
0.0
 10
193.0875119369893
 20
488.1418938713067
 30
0.0
 10
193.023867262282
 20
488.1214175595219
 30
0.0
 10
192.8974779459568
 20
488.0953217392987
 30
0.0
 10
192.8352127151996
 20
488.088949153052
 30
0.0
 10
192.7728127897972
 20
488.0889491530417
 30
0.0
  0
SPLINE
  5
1BE
330
6C
100
AcDbEntity
  8
Viditelná (ISO)
100
AcDbSpline
210
0.0
220
0.0
230
1.0
 70
     8
 71
     3
 72
    16
 73
    12
 74
     0
 42
0.0000000001
 43
0.0000000001
 40
-0.1581423838394442
 40
-0.1581423838394442
 40
-0.1581423838394442
 40
-0.1581423838394442
 40
-0.138640969284492
 40
-0.138640969284492
 40
-0.1178989514987284
 40
-0.1178989514987284
 40
-0.0791506843086432
 40
-0.0791506843086432
 40
-0.0403644184402794
 40
-0.0403644184402794
 40
0.0
 40
0.0
 40
0.0
 40
0.0
 10
148.9511042722607
 20
488.0889491530833
 30
0.0
 10
148.903895000117
 20
488.0889491530913
 30
0.0
 10
148.8568402962528
 20
488.0953005942333
 30
0.0
 10
148.7614277679438
 20
488.1213095522966
 30
0.0
 10
148.7134371787312
 20
488.141716961677
 30
0.0
 10
148.5813702255214
 20
488.2193557759017
 30
0.0
 10
148.5033767141572
 20
488.2924428665416
 30
0.0
 10
148.3717283489954
 20
488.4755522804346
 30
0.0
 10
148.3193145016621
 20
488.5839110227686
 30
0.0
 10
148.2454293220235
 20
488.827003181646
 30
0.0
 10
148.2260306970477
 20
488.9602273389149
 30
0.0
 10
148.2260306970471
 20
489.0947754003825
 30
0.0
  0
LINE
  5
1BF
330
6C
100
AcDbEntity
  8
Viditelná (ISO)
100
AcDbLine
 10
148.226030697047
 20
489.388949153205
 30
0.0
 11
148.226030697047
 21
489.0947754003825
 31
0.0
  0
SPLINE
  5
1C0
330
6C
100
AcDbEntity
  8
Viditelná (ISO)
100
AcDbSpline
210
0.0
220
0.0
230
1.0
 70
     8
 71
     3
 72
    14
 73
    10
 74
     0
 42
0.0000000001
 43
0.0000000001
 40
0.0
 40
0.0
 40
0.0
 40
0.0
 40
0.0452028724070432
 40
0.0452028724070432
 40
0.0904057448140863
 40
0.0904057448140863
 40
0.1356112396625239
 40
0.1356112396625239
 40
0.1808167345109614
 40
0.1808167345109614
 40
0.1808167345109614
 40
0.1808167345109614
 10
148.2260306970471
 20
489.3889491532051
 30
0.0
 10
148.2260306970471
 20
489.5396253945619
 30
0.0
 10
148.2043375797242
 20
489.7003428257797
 30
0.0
 10
148.1162272824641
 20
489.995993309695
 30
0.0
 10
148.0498228624069
 20
490.1309265638832
 30
0.0
 10
147.8968738342311
 20
490.3440117591731
 30
0.0
 10
147.8001341682447
 20
490.4363657635398
 30
0.0
 10
147.5886572780569
 20
490.5588345266716
 30
0.0
 10
147.4739324932556
 20
490.588949153205
 30
0.0
 10
147.3666029688281
 20
490.588949153205
 30
0.0
  0
LINE
  5
1C1
330
6C
100
AcDbEntity
  8
Viditelná (ISO)
100
AcDbLine
 10
147.3666029688281
 20
490.588949153205
 30
0.0
 11
146.2352321189296
 21
490.588949153205
 31
0.0
  0
SPLINE
  5
1C2
330
6C
100
AcDbEntity
  8
Viditelná (ISO)
100
AcDbSpline
210
0.0
220
0.0
230
1.0
 70
     8
 71
     3
 72
    14
 73
    10
 74
     0
 42
0.0000000001
 43
0.0000000001
 40
0.5424377310522496
 40
0.5424377310522496
 40
0.5424377310522496
 40
0.5424377310522496
 40
0.5876432259006862
 40
0.5876432259006862
 40
0.6328487207491228
 40
0.6328487207491228
 40
0.6780515931561652
 40
0.6780515931561652
 40
0.7232544655632075
 40
0.7232544655632075
 40
0.7232544655632075
 40
0.7232544655632075
 10
146.2352321189296
 20
490.588949153205
 30
0.0
 10
146.1294666366772
 20
490.588949153205
 30
0.0
 10
146.0168974544548
 20
490.5588345266716
 30
0.0
 10
145.8102512853289
 20
490.4363657635398
 30
0.0
 10
145.7161614902509
 20
490.3440117591731
 30
0.0
 10
145.5677705142094
 20
490.1309265638832
 30
0.0
 10
145.5035739249447
 20
489.995993309695
 30
0.0
 10
145.4184967108136
 20
489.7003428257797
 30
0.0
 10
145.3976035723009
 20
489.5396253945619
 30
0.0
 10
145.3976035723009
 20
489.3889491532051
 30
0.0
  0
LINE
  5
1C3
330
6C
100
AcDbEntity
  8
Viditelná (ISO)
100
AcDbLine
 10
145.3976035723008
 20
489.388949153205
 30
0.0
 11
145.3976035723008
 21
489.0947754003993
 31
0.0
  0
SPLINE
  5
1C4
330
6C
100
AcDbEntity
  8
Viditelná (ISO)
100
AcDbSpline
210
0.0
220
0.0
230
1.0
 70
     8
 71
     3
 72
    16
 73
    12
 74
     0
 42
0.0000000001
 43
0.0000000001
 40
0.0
 40
0.0
 40
0.0
 40
0.0
 40
0.0402950989211144
 40
0.0402950989211144
 40
0.079078955513397
 40
0.079078955513397
 40
0.1178300954803843
 40
0.1178300954803843
 40
0.1386080426553625
 40
0.1386080426553625
 40
0.1581418927384844
 40
0.1581418927384844
 40
0.1581418927384844
 40
0.1581418927384844
 10
145.3976035722998
 20
489.0947754003727
 30
0.0
 10
145.3976035722998
 20
488.960458403969
 30
0.0
 10
145.3789555507952
 20
488.8274584890542
 30
0.0
 10
145.3080159521408
 20
488.584516874468
 30
0.0
 10
145.2576630624574
 20
488.4761145519365
 30
0.0
 10
145.1315298211681
 20
488.292875160771
 30
0.0
 10
145.0569425290703
 20
488.2197076517006
 30
0.0
 10
144.9310106147535
 20
488.1418938713067
 30
0.0
 10
144.8852712812646
 20
488.1214175595218
 30
0.0
 10
144.7945058126647
 20
488.0953217392986
 30
0.0
 10
144.7498200886771
 20
488.0889491530519
 30
0.0
 10
144.7050684806514
 20
488.0889491530417
 30
0.0
  0
SPLINE
  5
1C5
330
6C
100
AcDbEntity
  8
Viditelná (ISO)
100
AcDbSpline
210
0.0
220
0.0
230
1.0
 70
     8
 71
     3
 72
    16
 73
    12
 74
     0
 42
0.0000000001
 43
0.0000000001
 40
-0.1581423838392042
 40
-0.1581423838392042
 40
-0.1581423838392042
 40
-0.1581423838392042
 40
-0.1386409692843066
 40
-0.1386409692843066
 40
-0.1178989514986103
 40
-0.1178989514986103
 40
-0.0791506843085492
 40
-0.0791506843085492
 40
-0.0403644184402199
 40
-0.0403644184402199
 40
0.0
 40
0.0
 40
0.0
 40
0.0
 10
119.4045932717038
 20
488.0889491530833
 30
0.0
 10
119.3860474924511
 20
488.0889491530915
 30
0.0
 10
119.3676028298339
 20
488.0953005942337
 30
0.0
 10
119.3302816883481
 20
488.1213095522974
 30
0.0
 10
119.3115539564754
 20
488.1417169616777
 30
0.0
 10
119.2601234061898
 20
488.2193557759026
 30
0.0
 10
119.2298871897078
 20
488.2924428665424
 30
0.0
 10
119.1789871012364
 20
488.4755522804354
 30
0.0
 10
119.1587993747185
 20
488.5839110227693
 30
0.0
 10
119.1303722549329
 20
488.8270031816465
 30
0.0
 10
119.1229286817878
 20
488.9602273389152
 30
0.0
 10
119.1229286817876
 20
489.0947754003826
 30
0.0
  0
LINE
  5
1C6
330
6C
100
AcDbEntity
  8
Viditelná (ISO)
100
AcDbLine
 10
119.1229286817876
 20
489.388949153205
 30
0.0
 11
119.1229286817876
 21
489.0947754003825
 31
0.0
  0
SPLINE
  5
1C7
330
6C
100
AcDbEntity
  8
Viditelná (ISO)
100
AcDbSpline
210
0.0
220
0.0
230
1.0
 70
     8
 71
     3
 72
    14
 73
    10
 74
     0
 42
0.0000000001
 43
0.0000000001
 40
0.0
 40
0.0
 40
0.0
 40
0.0
 40
0.0452028724070428
 40
0.0452028724070428
 40
0.0904057448140856
 40
0.0904057448140856
 40
0.135611239662523
 40
0.135611239662523
 40
0.1808167345109604
 40
0.1808167345109604
 40
0.1808167345109604
 40
0.1808167345109604
 10
119.1229286817877
 20
489.3889491532051
 30
0.0
 10
119.1229286817877
 20
489.5396253945619
 30
0.0
 10
119.1145884603551
 20
489.7003428257797
 30
0.0
 10
119.0808213116584
 20
489.995993309695
 30
0.0
 10
119.0554116915976
 20
490.1309265638832
 30
0.0
 10
118.997149435734
 20
490.3440117591731
 30
0.0
 10
118.9604153249752
 20
490.4363657635398
 30
0.0
 10
118.8805940503222
 20
490.5588345266716
 30
0.0
 10
118.8375240633517
 20
490.588949153205
 30
0.0
 10
118.7974567097476
 20
490.588949153205
 30
0.0
  0
LINE
  5
1C8
330
6C
100
AcDbEntity
  8
Viditelná (ISO)
100
AcDbLine
 10
118.7974567097472
 20
490.588949153205
 30
0.0
 11
118.3833462375835
 21
490.588949153205
 31
0.0
  0
SPLINE
  5
1C9
330
6C
100
AcDbEntity
  8
Viditelná (ISO)
100
AcDbSpline
210
0.0
220
0.0
230
1.0
 70
     8
 71
     3
 72
    14
 73
    10
 74
     0
 42
0.0000000001
 43
0.0000000001
 40
0.5424377310522499
 40
0.5424377310522499
 40
0.5424377310522499
 40
0.5424377310522499
 40
0.5876432259006867
 40
0.5876432259006867
 40
0.6328487207491237
 40
0.6328487207491237
 40
0.6780515931561656
 40
0.6780515931561656
 40
0.7232544655632076
 40
0.7232544655632076
 40
0.7232544655632076
 40
0.7232544655632076
 10
118.3833462375836
 20
490.588949153205
 30
0.0
 10
118.3454154053233
 20
490.588949153205
 30
0.0
 10
118.305290026236
 20
490.5588345266716
 30
0.0
 10
118.2320676392722
 20
490.4363657635398
 30
0.0
 10
118.198953319491
 20
490.3440117591731
 30
0.0
 10
118.1469174786345
 20
490.1309265638832
 30
0.0
 10
118.1245238115237
 20
489.995993309695
 30
0.0
 10
118.0948999314329
 20
489.7003428257797
 30
0.0
 10
118.0876525013776
 20
489.5396253945619
 30
0.0
 10
118.0876525013776
 20
489.3889491532051
 30
0.0
  0
LINE
  5
1CA
330
6C
100
AcDbEntity
  8
Viditelná (ISO)
100
AcDbLine
 10
118.0876525013775
 20
489.388949153205
 30
0.0
 11
118.0876525013775
 21
489.0947754003993
 31
0.0
  0
SPLINE
  5
1CB
330
6C
100
AcDbEntity
  8
Viditelná (ISO)
100
AcDbSpline
210
0.0
220
0.0
230
1.0
 70
     8
 71
     3
 72
    16
 73
    12
 74
     0
 42
0.0000000001
 43
0.0000000001
 40
0.0
 40
0.0
 40
0.0
 40
0.0
 40
0.0402950989209729
 40
0.0402950989209729
 40
0.0790789555133595
 40
0.0790789555133595
 40
0.117830095480423
 40
0.117830095480423
 40
0.1386080426552018
 40
0.1386080426552018
 40
0.1581418927381228
 40
0.1581418927381228
 40
0.1581418927381228
 40
0.1581418927381228
 10
118.0876525013761
 20
489.0947754003725
 30
0.0
 10
118.087652501376
 20
488.9604584039694
 30
0.0
 10
118.0811688781465
 20
488.8274584890551
 30
0.0
 10
118.0565827870758
 20
488.5845168744689
 30
0.0
 10
118.0391539864045
 20
488.4761145519371
 30
0.0
 10
117.9956969559958
 20
488.2928751607713
 30
0.0
 10
117.9700836280642
 20
488.2197076517008
 30
0.0
 10
117.9270804152325
 20
488.141893871307
 30
0.0
 10
117.9115022404332
 20
488.1214175595221
 30
0.0
 10
117.8806811535717
 20
488.0953217392988
 30
0.0
 10
117.86554844001
 20
488.0889491530521
 30
0.0
 10
117.850436306592
 20
488.0889491530417
 30
0.0
  0
LINE
  5
1CC
330
6C
100
AcDbEntity
  8
Viditelná tenká (ISO)
100
AcDbLine
 10
119.1229286817876
 20
489.0947754003825
 30
0.0
 11
130.2323091789662
 21
488.0889491532051
 31
0.0
  0
ELLIPSE
  5
1CD
330
6C
100
AcDbEntity
  8
Viditelná tenká (ISO)
100
AcDbEllipse
 10
130.2133507824602
 20
489.0889491532051
 30
0.0
 11
0.0000000000000165
 21
0.2999999999999733
 31
0.0
210
0.0
220
0.0
230
1.0
 40
0.9659258262890725
 41
5.148721293383258
 42
6.283185307179704
  0
LINE
  5
1CE
330
6C
100
AcDbEntity
  8
Viditelná tenká (ISO)
100
AcDbLine
 10
130.2133507824602
 20
489.388949153205
 30
0.0
 11
119.1229286817876
 21
489.388949153205
 31
0.0
  0
LINE
  5
1CF
330
6C
100
AcDbEntity
  8
Viditelná (ISO)
100
AcDbLine
 10
118.7974567097476
 20
490.588949153205
 30
0.0
 11
129.9027679283372
 21
490.588949153205
 31
0.0
  0
LINE
  5
1D0
330
6C
100
AcDbEntity
  8
Viditelná tenká (ISO)
100
AcDbLine
 10
148.2260306970471
 20
489.0947754003825
 30
0.0
 11
156.358661661693
 21
488.0889491532051
 31
0.0
  0
LINE
  5
1D1
330
6C
100
AcDbEntity
  8
Viditelná tenká (ISO)
100
AcDbLine
 10
156.9085742619377
 20
488.0889491532051
 30
0.0
 11
156.5370400667408
 21
489.2157346317272
 31
0.0
  0
ELLIPSE
  5
1D2
330
6C
100
AcDbEntity
  8
Viditelná tenká (ISO)
100
AcDbEllipse
 10
156.3447831521241
 20
489.088949153205
 30
0.0
 11
-0.0000000000000001
 21
0.3000000000000138
 31
0.0
210
0.0
220
0.0
230
1.0
 40
0.7071067811865475
 41
5.148721293383386
 42
6.283185307179669
  0
LINE
  5
1D3
330
6C
100
AcDbEntity
  8
Viditelná tenká (ISO)
100
AcDbLine
 10
156.3447831521241
 20
489.388949153205
 30
0.0
 11
148.226030697047
 21
489.388949153205
 31
0.0
  0
LINE
  5
1D4
330
6C
100
AcDbEntity
  8
Viditelná (ISO)
100
AcDbLine
 10
147.3666029688281
 20
490.588949153205
 30
0.0
 11
155.4962550147003
 21
490.588949153205
 31
0.0
  0
LINE
  5
1D5
330
6C
100
AcDbEntity
  8
Viditelná tenká (ISO)
100
AcDbLine
 10
197.5988058649265
 20
489.0947754003825
 30
0.0
 11
200.5755553978275
 21
488.0889491532051
 31
0.0
  0
LINE
  5
1D6
330
6C
100
AcDbEntity
  8
Viditelná tenká (ISO)
100
AcDbLine
 10
200.7768373791415
 20
488.0889491532051
 30
0.0
 11
200.6408464253249
 21
489.2157346317272
 31
0.0
  0
ELLIPSE
  5
1D7
330
6C
100
AcDbEntity
  8
Viditelná tenká (ISO)
100
AcDbEllipse
 10
200.5704755105219
 20
489.0889491532051
 30
0.0
 11
0.0000000000000188
 21
0.3000000000000041
 31
0.0
210
0.0
220
0.0
230
1.0
 40
0.2588190451025454
 41
5.148721293383187
 42
6.283185307179368
  0
LINE
  5
1D8
330
6C
100
AcDbEntity
  8
Viditelná tenká (ISO)
100
AcDbLine
 10
200.5704755105219
 20
489.388949153205
 30
0.0
 11
197.5988058649264
 21
489.388949153205
 31
0.0
  0
LINE
  5
1D9
330
6C
100
AcDbEntity
  8
Viditelná (ISO)
100
AcDbLine
 10
196.4357053462577
 20
490.588949153205
 30
0.0
 11
199.411364518975
 21
490.588949153205
 31
0.0
  0
LINE
  5
1DA
330
6C
100
AcDbEntity
  8
Viditelná tenká (ISO)
100
AcDbLine
 10
247.1061150855544
 20
489.2157346317272
 30
0.0
 11
246.9701241317377
 21
488.0889491532051
 31
0.0
  0
SPLINE
  5
1DB
330
6C
100
AcDbEntity
  8
Viditelná tenká (ISO)
100
AcDbSpline
210
0.0
220
0.0
230
1.0
 70
    12
 71
     3
 72
     8
 73
     4
 74
     0
 42
0.0000000001
 43
0.0000000001
 40
0.0008135986686325
 40
0.0008135986686325
 40
0.0008135986686325
 40
0.0008135986686325
 40
0.0123590108384382
 40
0.0123590108384382
 40
0.0123590108384382
 40
0.0123590108384382
 10
247.171344421129
 20
488.0889491531134
 30
0.0
 41
1.0
 10
248.1636152061751
 20
488.4242079257387
 30
0.0
 41
1.0
 10
249.1558855741753
 20
488.7594851205705
 30
0.0
 41
1.0
 10
250.1481556459534
 20
489.0947754003726
 30
0.0
 41
1.0
  0
LINE
  5
1DC
330
6C
100
AcDbEntity
  8
Viditelná tenká (ISO)
100
AcDbLine
 10
250.1481556459528
 20
489.388949153205
 30
0.0
 11
247.1764860003573
 21
489.388949153205
 31
0.0
  0
ELLIPSE
  5
1DD
330
6C
100
AcDbEntity
  8
Viditelná tenká (ISO)
100
AcDbEllipse
 10
247.1764860003573
 20
489.0889491532051
 30
0.0
 11
0.0000000000000266
 21
0.2999999999999749
 31
0.0
210
0.0
220
0.0
230
1.0
 40
0.2588190451024892
 41
0.0000000000016545
 42
1.134464013797415
  0
LINE
  5
1DE
330
6C
100
AcDbEntity
  8
Viditelná (ISO)
100
AcDbLine
 10
248.3355969919042
 20
490.588949153205
 30
0.0
 11
251.3112561646216
 21
490.588949153205
 31
0.0
  0
SPLINE
  5
1DF
330
6C
100
AcDbEntity
  8
Viditelná tenká (ISO)
100
AcDbSpline
210
0.0
220
0.0
230
1.0
 70
    12
 71
     3
 72
     8
 73
     4
 74
     0
 42
0.0000000001
 43
0.0000000001
 40
0.0008135986685929
 40
0.0008135986685929
 40
0.0008135986685929
 40
0.0008135986685929
 40
0.0123590108384382
 40
0.0123590108384382
 40
0.0123590108384382
 40
0.0123590108384382
 10
291.388131303044
 20
488.0889491531105
 30
0.0
 41
1.0
 10
294.0990655026652
 20
488.4242079257392
 30
0.0
 41
1.0
 10
296.8099985628967
 20
488.759485120571
 30
0.0
 41
1.0
 10
299.5209308138337
 20
489.0947754003727
 30
0.0
 41
1.0
  0
LINE
  5
1E0
330
6C
100
AcDbEntity
  8
Viditelná tenká (ISO)
100
AcDbLine
 10
299.520930813832
 20
489.388949153205
 30
0.0
 11
291.402178358755
 21
489.388949153205
 31
0.0
  0
ELLIPSE
  5
1E1
330
6C
100
AcDbEntity
  8
Viditelná tenká (ISO)
100
AcDbEllipse
 10
291.402178358755
 20
489.088949153205
 30
0.0
 11
-0.0000000000000089
 21
0.3000000000000197
 31
0.0
210
0.0
220
0.0
230
1.0
 40
0.7071067811865476
 41
0.0
 42
1.134464013796168
  0
LINE
  5
1E2
330
6C
100
AcDbEntity
  8
Viditelná (ISO)
100
AcDbLine
 10
292.2507064961788
 20
490.588949153205
 30
0.0
 11
300.3803585420511
 21
490.588949153205
 31
0.0
  0
SPLINE
  5
1E3
330
6C
100
AcDbEntity
  8
Viditelná tenká (ISO)
100
AcDbSpline
210
0.0
220
0.0
230
1.0
 70
    12
 71
     3
 72
     8
 73
     4
 74
     0
 42
0.0000000001
 43
0.0000000001
 40
0.0008135986685422
 40
0.0008135986685422
 40
0.0008135986685422
 40
0.0008135986685422
 40
0.0123590108384382
 40
0.0123590108384382
 40
0.0123590108384382
 40
0.0123590108384382
 10
317.5144220934202
 20
488.0889491531058
 30
0.0
 41
1.0
 10
321.2176270781071
 20
488.4242079257343
 30
0.0
 41
1.0
 10
324.9208305063588
 20
488.7594851205657
 30
0.0
 41
1.0
 10
328.6240328290932
 20
489.0947754003726
 30
0.0
 41
1.0
  0
LINE
  5
1E4
330
6C
100
AcDbEntity
  8
Viditelná tenká (ISO)
100
AcDbLine
 10
328.624032829091
 20
489.388949153205
 30
0.0
 11
317.5336107284184
 21
489.388949153205
 31
0.0
  0
ELLIPSE
  5
1E5
330
6C
100
AcDbEntity
  8
Viditelná tenká (ISO)
100
AcDbEllipse
 10
317.5336107284184
 20
489.0889491532051
 30
0.0
 11
0.0
 21
0.2999999999999818
 31
0.0
210
0.0
220
0.0
230
1.0
 40
0.9659258262890631
 41
0.0
 42
1.134464013796384
  0
LINE
  5
1E6
330
6C
100
AcDbEntity
  8
Viditelná (ISO)
100
AcDbLine
 10
317.8441935825414
 20
490.588949153205
 30
0.0
 11
328.949504801131
 21
490.588949153205
 31
0.0
  0
ELLIPSE
  5
1E7
330
6C
100
AcDbEntity
  8
Viditelná tenká (ISO)
100
AcDbEllipse
 10
129.9027679283372
 20
489.3889491532051
 30
0.0
 11
-0.0000000000000178
 21
1.2
 31
0.0
210
0.0
220
0.0
230
1.0
 40
0.2588190451025154
 41
4.712388980384686
 42
6.283185307179586
  0
ELLIPSE
  5
1E8
330
6C
100
AcDbEntity
  8
Viditelná tenká (ISO)
100
AcDbEllipse
 10
155.4962550147003
 20
489.3889491532051
 30
0.0
 11
0.0
 21
1.199999999999994
 31
0.0
210
0.0
220
0.0
230
1.0
 40
0.7071067811865538
 41
4.712388980384689
 42
6.283185307179555
  0
ELLIPSE
  5
1E9
330
6C
100
AcDbEntity
  8
Viditelná tenká (ISO)
100
AcDbEllipse
 10
155.688511929317
 20
489.2157346317272
 30
0.0
 11
1.139646150377977
 21
0.375774735617976
 31
0.0
210
0.0
220
0.0
230
1.0
 40
0.298836238730119
 41
5.44867813710042
 42
6.283185307179922
  0
ELLIPSE
  5
1EA
330
6C
100
AcDbEntity
  8
Viditelná tenká (ISO)
100
AcDbEllipse
 10
199.411364518975
 20
489.388949153205
 30
0.0
 11
0.0000000000000178
 21
1.200000000000008
 31
0.0
210
0.0
220
0.0
230
1.0
 40
0.9659258262890755
 41
4.712388980384703
 42
6.283185307179536
  0
ELLIPSE
  5
1EB
330
6C
100
AcDbEntity
  8
Viditelná tenká (ISO)
100
AcDbEllipse
 10
199.481735433778
 20
489.2157346317277
 30
0.0
 11
1.191354785548979
 21
0.1437837784640771
 31
0.0
210
0.0
220
0.0
230
1.0
 40
0.4082178936767785
 41
5.995724816015965
 42
6.283185307177765
  0
ELLIPSE
  5
1EC
330
6C
100
AcDbEntity
  8
Viditelná tenká (ISO)
100
AcDbEllipse
 10
248.3355969919042
 20
489.388949153205
 30
0.0
 11
-0.0000000000000007
 21
1.200000000000005
 31
0.0
210
0.0
220
0.0
230
1.0
 40
0.9659258262890704
 41
0.0
 42
1.570796326794896
  0
ELLIPSE
  5
1ED
330
6C
100
AcDbEntity
  8
Viditelná tenká (ISO)
100
AcDbEllipse
 10
248.2652260771013
 20
489.2157346317277
 30
0.0
 11
-1.191354785548989
 21
0.143783778463991
 31
0.0
210
0.0
220
0.0
230
1.0
 40
0.4082178936767792
 41
0.0
 42
0.2874604911616547
  0
ELLIPSE
  5
1EE
330
6C
100
AcDbEntity
  8
Viditelná tenká (ISO)
100
AcDbEllipse
 10
292.2507064961788
 20
489.388949153205
 30
0.0
 11
0.0000000000000177
 21
1.200000000000017
 31
0.0
210
0.0
220
0.0
230
1.0
 40
0.70710678118654
 41
0.0
 42
1.570796326794907
  0
ELLIPSE
  5
1EF
330
6C
100
AcDbEntity
  8
Viditelná tenká (ISO)
100
AcDbEllipse
 10
317.8441935825414
 20
489.388949153205
 30
0.0
 11
0.0000000000000155
 21
1.200000000000001
 31
0.0
210
0.0
220
0.0
230
1.0
 40
0.2588190451025131
 41
0.0
 42
1.5707963267949
  0
LINE
  5
1F0
330
6C
100
AcDbEntity
  8
Viditelná (ISO)
100
AcDbLine
 10
316.4874314119614
 20
489.708553100835
 30
0.0
 11
315.757931653106
 21
488.0889491532051
 31
0.0
  0
LINE
  5
1F1
330
6C
100
AcDbEntity
  8
Viditelná (ISO)
100
AcDbLine
 10
290.9188034311841
 20
489.5915093673452
 30
0.0
 11
290.4233652927485
 21
488.0889491532051
 31
0.0
  0
LINE
  5
1F2
330
6C
100
AcDbEntity
  8
Viditelná (ISO)
100
AcDbLine
 10
131.9890298577726
 20
488.0889491532051
 30
0.0
 11
131.2595300989171
 21
489.708553100835
 31
0.0
  0
ARC
  5
1F3
330
6C
100
AcDbEntity
  8
Viditelná (ISO)
100
AcDbCircle
 10
329.8734807554394
 20
485.138949153205
 30
0.0
 40
3.000000000000007
100
AcDbArc
 50
312.0
 51
0.0
  0
ARC
  5
1F4
330
6C
100
AcDbEntity
  8
Viditelná (ISO)
100
AcDbCircle
 10
117.8734807554393
 20
485.138949153205
 30
0.0
 40
3.000000000000007
100
AcDbArc
 50
180.0
 51
227.9999999999997
  0
LINE
  5
1F5
330
6C
100
AcDbEntity
  8
Viditelná (ISO)
100
AcDbLine
 10
117.3845684840541
 20
481.542269550848
 30
0.0
 11
115.8660889363627
 21
482.9095146767729
 31
0.0
  0
LINE
  5
1F6
330
6C
100
AcDbEntity
  8
Viditelná (ISO)
100
AcDbLine
 10
330.3623930268245
 20
481.542269550848
 30
0.0
 11
331.8808725745158
 21
482.9095146767729
 31
0.0
  0
ARC
  5
1F7
330
6C
100
AcDbEntity
  8
Viditelná (ISO)
100
AcDbCircle
 10
333.3734807554393
 20
478.1981178361997
 30
0.0
 40
4.499999999999997
100
AcDbArc
 50
132.0000000000004
 51
180.0
  0
ARC
  5
1F8
330
6C
100
AcDbEntity
  8
Viditelná (ISO)
100
AcDbCircle
 10
114.3734807554393
 20
478.1981178361997
 30
0.0
 40
4.499999999999998
100
AcDbArc
 50
0.0
 51
47.99999999999992
  0
LINE
  5
1F9
330
6C
100
AcDbEntity
  8
Viditelná (ISO)
100
AcDbLine
 10
118.8734807554393
 20
476.4797804702104
 30
0.0
 11
118.8734807554393
 21
478.1981178361997
 31
0.0
  0
LINE
  5
1FA
330
6C
100
AcDbEntity
  8
Viditelná (ISO)
100
AcDbLine
 10
328.8734807554392
 20
476.4797804702104
 30
0.0
 11
328.8734807554392
 21
478.1981178361997
 31
0.0
  0
ARC
  5
1FB
330
6C
100
AcDbEntity
  8
Viditelná (ISO)
100
AcDbCircle
 10
333.3734807554393
 20
476.4797804702104
 30
0.0
 40
4.500000000000019
100
AcDbArc
 50
180.0
 51
204.8462512631512
  0
ARC
  5
1FC
330
6C
100
AcDbEntity
  8
Viditelná (ISO)
100
AcDbCircle
 10
114.3734807554392
 20
476.4797804702104
 30
0.0
 40
4.500000000000019
100
AcDbArc
 50
335.1537487368491
 51
0.0
  0
LINE
  5
1FD
330
6C
100
AcDbEntity
  8
Viditelná (ISO)
100
AcDbLine
 10
114.8734807554393
 20
485.138949153205
 30
0.0
 11
114.8734807554393
 21
488.0889491532051
 31
0.0
  0
LINE
  5
1FE
330
6C
100
AcDbEntity
  8
Viditelná (ISO)
100
AcDbLine
 10
332.8734807554393
 20
485.138949153205
 30
0.0
 11
332.8734807554393
 21
488.0889491532051
 31
0.0
  0
SPLINE
  5
1FF
330
6C
100
AcDbEntity
  8
Viditelná (ISO)
100
AcDbSpline
210
0.0
220
0.0
230
1.0
 70
     8
 71
     3
 72
    16
 73
    12
 74
     0
 42
0.0000000001
 43
0.0000000001
 40
3.141592653589793
 40
3.141592653589793
 40
3.141592653589793
 40
3.141592653589793
 40
3.368485456349053
 40
3.368485456349053
 40
3.595378259108313
 40
3.595378259108313
 40
3.822271061867573
 40
3.822271061867573
 40
4.049163864626833
 40
4.049163864626833
 40
4.276056667386093
 40
4.276056667386093
 40
4.276056667386093
 40
4.276056667386093
 10
129.9027679283372
 20
490.588949153205
 30
0.0
 10
130.0186427758169
 20
490.588949153205
 30
0.0
 10
130.1345028988524
 20
490.5752529871171
 30
0.0
 10
130.3593195316261
 20
490.5215190378522
 30
0.0
 10
130.4682522940544
 20
490.4814964356789
 30
0.0
 10
130.6731113860574
 20
490.3780553095442
 30
0.0
 10
130.7690271921218
 20
490.3146592321245
 30
0.0
 10
130.9431159395334
 20
490.1687119096945
 30
0.0
 10
131.0212911913446
 20
490.0861806823529
 30
0.0
 10
131.1566434236991
 20
489.9068263753389
 30
0.0
 10
131.2138296710886
 20
489.8100152225437
 30
0.0
 10
131.2595300989172
 20
489.708553100835
 30
0.0
  0
SPLINE
  5
200
330
6C
100
AcDbEntity
  8
Viditelná (ISO)
100
AcDbSpline
210
0.0
220
0.0
230
1.0
 70
     8
 71
     3
 72
    16
 73
    12
 74
     0
 42
0.0000000001
 43
0.0000000001
 40
3.141592653589789
 40
3.141592653589789
 40
3.141592653589789
 40
3.141592653589789
 40
3.36848545634905
 40
3.36848545634905
 40
3.595378259108312
 40
3.595378259108312
 40
3.822271061867573
 40
3.822271061867573
 40
4.049163864626835
 40
4.049163864626835
 40
4.276056667386097
 40
4.276056667386097
 40
4.276056667386097
 40
4.276056667386097
 10
155.4962550147003
 20
490.588949153205
 30
0.0
 10
155.6406487101904
 20
490.588949153205
 30
0.0
 10
155.7846545903469
 20
490.565019632158
 30
0.0
 10
156.0481889169844
 20
490.4789764843492
 30
0.0
 10
156.1675524399001
 20
490.4174703307468
 30
0.0
 10
156.3736395311575
 20
490.2753201022901
 30
0.0
 10
156.4607103739589
 20
490.1949097532699
 30
0.0
 10
156.6065897098436
 20
490.0278476346259
 30
0.0
 10
156.6656199206679
 20
489.9411142241019
 30
0.0
 10
156.7619538035029
 20
489.766739220903
 30
0.0
 10
156.7993109601178
 20
489.6789966453855
 30
0.0
 10
156.8281580796949
 20
489.5915093673452
 30
0.0
  0
LINE
  5
201
330
6C
100
AcDbEntity
  8
Viditelná (ISO)
100
AcDbLine
 10
157.3235962181305
 20
488.0889491532051
 30
0.0
 11
156.8281580796949
 21
489.5915093673452
 31
0.0
  0
SPLINE
  5
202
330
6C
100
AcDbEntity
  8
Viditelná (ISO)
100
AcDbSpline
210
0.0
220
0.0
230
1.0
 70
     8
 71
     3
 72
    20
 73
    16
 74
     0
 42
0.0000000001
 43
0.0000000001
 40
3.141592653589782
 40
3.141592653589782
 40
3.141592653589782
 40
3.141592653589782
 40
3.224571077515467
 40
3.224571077515467
 40
3.315458446022249
 40
3.315458446022249
 40
3.432705376346524
 40
3.432705376346524
 40
3.608329045537842
 40
3.608329045537842
 40
3.835221848297105
 40
3.835221848297105
 40
4.062114651056369
 40
4.062114651056369
 40
4.276056667386097
 40
4.276056667386097
 40
4.276056667386097
 40
4.276056667386097
 10
199.411364518975
 20
490.588949153205
 30
0.0
 10
199.5417537629307
 20
490.588949153205
 30
0.0
 10
199.6713501696144
 20
490.5668752148521
 30
0.0
 10
199.9093172418085
 20
490.4904064299208
 30
0.0
 10
200.014277631456
 20
490.434618556342
 30
0.0
 10
200.2074459450627
 20
490.3035311183937
 30
0.0
 10
200.2836925582838
 20
490.2279831592011
 30
0.0
 10
200.4287387303553
 20
490.0600687023467
 30
0.0
 10
200.477194447495
 20
489.9762585686272
 30
0.0
 10
200.5609028107916
 20
489.8132957589061
 30
0.0
 10
200.5866907380772
 20
489.7408186368822
 30
0.0
 10
200.6268648058646
 20
489.6117595048853
 30
0.0
 10
200.6401145341734
 20
489.5554455741533
 30
0.0
 10
200.6604187174758
 20
489.4523092511075
 30
0.0
 10
200.6675655273996
 20
489.4052945626664
 30
0.0
 10
200.673090219327
 20
489.3595184101918
 30
0.0
  0
LINE
  5
203
330
6C
100
AcDbEntity
  8
Viditelná (ISO)
100
AcDbLine
 10
200.8264343371215
 20
488.0889491532051
 30
0.0
 11
200.673090219327
 21
489.3595184101918
 31
0.0
  0
SPLINE
  5
204
330
6C
100
AcDbEntity
  8
Viditelná (ISO)
100
AcDbSpline
210
0.0
220
0.0
230
1.0
 70
     8
 71
     3
 72
    20
 73
    16
 74
     0
 42
0.0000000001
 43
0.0000000001
 40
3.141592653589802
 40
3.141592653589802
 40
3.141592653589802
 40
3.141592653589802
 40
3.22457107751548
 40
3.22457107751548
 40
3.31545844602226
 40
3.31545844602226
 40
3.432705376346536
 40
3.432705376346536
 40
3.608329045537865
 40
3.608329045537865
 40
3.835221848297122
 40
3.835221848297122
 40
4.062114651056379
 40
4.062114651056379
 40
4.276056667386088
 40
4.276056667386088
 40
4.276056667386088
 40
4.276056667386088
 10
248.3355969919041
 20
490.588949153205
 30
0.0
 10
248.2052077479484
 20
490.588949153205
 30
0.0
 10
248.0756113412647
 20
490.5668752148521
 30
0.0
 10
247.8376442690706
 20
490.4904064299208
 30
0.0
 10
247.7326838794232
 20
490.434618556342
 30
0.0
 10
247.5395155658165
 20
490.3035311183937
 30
0.0
 10
247.4632689525954
 20
490.2279831592011
 30
0.0
 10
247.3182227805239
 20
490.0600687023467
 30
0.0
 10
247.2697670633842
 20
489.9762585686271
 30
0.0
 10
247.1860587000876
 20
489.8132957589061
 30
0.0
 10
247.160270772802
 20
489.7408186368821
 30
0.0
 10
247.1200967050147
 20
489.6117595048852
 30
0.0
 10
247.1068469767058
 20
489.5554455741533
 30
0.0
 10
247.0865427934035
 20
489.4523092511075
 30
0.0
 10
247.0793959834796
 20
489.4052945626664
 30
0.0
 10
247.0738712915522
 20
489.3595184101918
 30
0.0
  0
LINE
  5
205
330
6C
100
AcDbEntity
  8
Viditelná (ISO)
100
AcDbLine
 10
247.0738712915522
 20
489.3595184101918
 30
0.0
 11
246.9205271737577
 21
488.0889491532051
 31
0.0
  0
SPLINE
  5
206
330
6C
100
AcDbEntity
  8
Viditelná (ISO)
100
AcDbSpline
210
0.0
220
0.0
230
1.0
 70
     8
 71
     3
 72
    16
 73
    12
 74
     0
 42
0.0000000001
 43
0.0000000001
 40
3.141592653589789
 40
3.141592653589789
 40
3.141592653589789
 40
3.141592653589789
 40
3.368485456349052
 40
3.368485456349052
 40
3.595378259108314
 40
3.595378259108314
 40
3.822271061867578
 40
3.822271061867578
 40
4.049163864626841
 40
4.049163864626841
 40
4.276056667386104
 40
4.276056667386104
 40
4.276056667386104
 40
4.276056667386104
 10
292.2507064961788
 20
490.588949153205
 30
0.0
 10
292.1063128006886
 20
490.588949153205
 30
0.0
 10
291.9623069205321
 20
490.565019632158
 30
0.0
 10
291.6987725938946
 20
490.4789764843492
 30
0.0
 10
291.5794090709789
 20
490.4174703307468
 30
0.0
 10
291.3733219797216
 20
490.2753201022901
 30
0.0
 10
291.2862511369202
 20
490.1949097532699
 30
0.0
 10
291.1403718010354
 20
490.0278476346259
 30
0.0
 10
291.0813415902111
 20
489.9411142241019
 30
0.0
 10
290.9850077073761
 20
489.766739220903
 30
0.0
 10
290.9476505507612
 20
489.6789966453855
 30
0.0
 10
290.9188034311841
 20
489.5915093673452
 30
0.0
  0
SPLINE
  5
207
330
6C
100
AcDbEntity
  8
Viditelná (ISO)
100
AcDbSpline
210
0.0
220
0.0
230
1.0
 70
     8
 71
     3
 72
    16
 73
    12
 74
     0
 42
0.0000000001
 43
0.0000000001
 40
3.141592653589804
 40
3.141592653589804
 40
3.141592653589804
 40
3.141592653589804
 40
3.368485456349066
 40
3.368485456349066
 40
3.595378259108328
 40
3.595378259108328
 40
3.82227106186759
 40
3.82227106186759
 40
4.049163864626852
 40
4.049163864626852
 40
4.276056667386114
 40
4.276056667386114
 40
4.276056667386114
 40
4.276056667386114
 10
317.8441935825414
 20
490.588949153205
 30
0.0
 10
317.7283187350618
 20
490.588949153205
 30
0.0
 10
317.6124586120262
 20
490.575252987117
 30
0.0
 10
317.3876419792525
 20
490.5215190378521
 30
0.0
 10
317.2787092168243
 20
490.4814964356789
 30
0.0
 10
317.0738501248212
 20
490.3780553095442
 30
0.0
 10
316.9779343187569
 20
490.3146592321245
 30
0.0
 10
316.8038455713452
 20
490.1687119096945
 30
0.0
 10
316.7256703195341
 20
490.0861806823528
 30
0.0
 10
316.5903180871795
 20
489.9068263753389
 30
0.0
 10
316.53313183979
 20
489.8100152225437
 30
0.0
 10
316.4874314119615
 20
489.7085531008349
 30
0.0
  0
LINE
  5
208
330
6C
100
AcDbEntity
  8
Viditelná (ISO)
100
AcDbLine
 10
118.4569543907933
 20
474.588949153205
 30
0.0
 11
329.2900071200853
 21
474.588949153205
 31
0.0
  0
LINE
  5
209
330
6C
100
AcDbEntity
  8
Viditelná tenká (ISO)
100
AcDbLine
 10
330.3623930268245
 20
473.1356287555621
 30
0.0
 11
117.3845684840541
 21
473.1356287555621
 31
0.0
  0
LINE
  5
20A
330
6C
100
AcDbEntity
  8
Viditelná tenká (ISO)
100
AcDbLine
 10
331.8808725745159
 20
471.7683836296372
 30
0.0
 11
115.8660889363626
 21
471.7683836296372
 31
0.0
  0
LINE
  5
20B
330
6C
100
AcDbEntity
  8
Viditelná tenká (ISO)
100
AcDbLine
 10
332.8734807554393
 20
469.5389491532051
 30
0.0
 11
114.8734807554393
 21
469.5389491532051
 31
0.0
  0
LINE
  5
20C
330
6C
100
AcDbEntity
  8
Viditelná (ISO)
100
AcDbLine
 10
332.8734807554393
 20
466.588949153205
 30
0.0
 11
114.8734807554393
 21
466.588949153205
 31
0.0
  0
ARC
  5
20D
330
6C
100
AcDbEntity
  8
Viditelná (ISO)
100
AcDbCircle
 10
333.3734807554393
 20
476.4797804702104
 30
0.0
 40
4.50000000000002
100
AcDbArc
 50
204.8462512631508
 51
227.9999999999995
  0
ARC
  5
20E
330
6C
100
AcDbEntity
  8
Viditelná (ISO)
100
AcDbCircle
 10
114.3734807554392
 20
476.4797804702104
 30
0.0
 40
4.500000000000019
100
AcDbArc
 50
312.0000000000004
 51
335.1537487368491
  0
LINE
  5
20F
330
6C
100
AcDbEntity
  8
Viditelná (ISO)
100
AcDbLine
 10
330.3623930268245
 20
473.1356287555621
 30
0.0
 11
331.8808725745159
 21
471.7683836296372
 31
0.0
  0
LINE
  5
210
330
6C
100
AcDbEntity
  8
Viditelná (ISO)
100
AcDbLine
 10
117.3845684840541
 20
473.1356287555621
 30
0.0
 11
115.8660889363626
 21
471.7683836296372
 31
0.0
  0
ARC
  5
211
330
6C
100
AcDbEntity
  8
Viditelná (ISO)
100
AcDbCircle
 10
329.8734807554394
 20
469.5389491532051
 30
0.0
 40
2.999999999999984
100
AcDbArc
 50
0.0
 51
47.9999999999999
  0
ARC
  5
212
330
6C
100
AcDbEntity
  8
Viditelná (ISO)
100
AcDbCircle
 10
117.8734807554392
 20
469.5389491532051
 30
0.0
 40
2.999999999999984
100
AcDbArc
 50
132.0000000000001
 51
180.0
  0
LINE
  5
213
330
6C
100
AcDbEntity
  8
Viditelná (ISO)
100
AcDbLine
 10
114.8734807554393
 20
466.588949153205
 30
0.0
 11
114.8734807554393
 21
469.5389491532051
 31
0.0
  0
LINE
  5
214
330
6C
100
AcDbEntity
  8
Viditelná (ISO)
100
AcDbLine
 10
332.8734807554393
 20
466.588949153205
 30
0.0
 11
332.8734807554393
 21
469.5389491532051
 31
0.0
  0
LINE
  5
215
330
6C
100
AcDbEntity
  8
Viditelná (ISO)
100
AcDbLine
 10
308.1274143040163
 20
405.888949153205
 30
0.0
 11
139.619547206862
 21
405.888949153205
 31
0.0
  0
LINE
  5
216
330
6C
100
AcDbEntity
  8
Viditelná (ISO)
100
AcDbLine
 10
308.0925168069784
 20
374.1341436740612
 30
0.0
 11
139.6544447039
 21
374.1341436740612
 31
0.0
  0
LINE
  5
217
330
6C
100
AcDbEntity
  8
Viditelná tenká (ISO)
100
AcDbLine
 10
276.621324175175
 20
336.8956258633322
 30
0.0
 11
171.1256373357034
 21
336.8956258633322
 31
0.0
  0
LINE
  5
218
330
6C
100
AcDbEntity
  8
Viditelná tenká (ISO)
100
AcDbLine
 10
283.3862101325054
 20
338.5969337554681
 30
0.0
 11
164.360751378373
 21
338.5969337554681
 31
0.0
  0
LINE
  5
219
330
6C
100
AcDbEntity
  8
Viditelná tenká (ISO)
100
AcDbLine
 10
288.7516762289912
 20
341.6262202886201
 30
0.0
 11
158.9952852818871
 21
341.6262202886201
 31
0.0
  0
LINE
  5
21A
330
6C
100
AcDbEntity
  8
Viditelná (ISO)
100
AcDbLine
 10
299.4055510001733
 20
351.4485374195737
 30
0.0
 11
148.3414105107051
 21
351.4485374195737
 31
0.0
  0
LINE
  5
21B
330
6C
100
AcDbEntity
  8
Viditelná (ISO)
100
AcDbLine
 10
139.6544447038999
 20
374.1341436740612
 30
0.0
 11
139.619547206862
 21
405.888949153205
 31
0.0
  0
LINE
  5
21C
330
6C
100
AcDbEntity
  8
Viditelná (ISO)
100
AcDbLine
 10
308.0925168069784
 20
374.1341436740612
 30
0.0
 11
308.1274143040163
 21
405.888949153205
 31
0.0
  0
LINE
  5
21D
330
6C
100
AcDbEntity
  8
Viditelná (ISO)
100
AcDbLine
 10
223.8734807554392
 20
335.668373607894
 30
0.0
 11
171.1256373357034
 21
336.8956258633322
 31
0.0
  0
LINE
  5
21E
330
6C
100
AcDbEntity
  8
Viditelná (ISO)
100
AcDbLine
 10
223.8734807554392
 20
335.668373607894
 30
0.0
 11
276.621324175175
 21
336.8956258633322
 31
0.0
  0
ARC
  5
21F
330
6C
100
AcDbEntity
  8
Viditelná (ISO)
100
AcDbCircle
 10
276.2546911132449
 20
352.653676628764
 30
0.0
 40
15.76231530353416
100
AcDbArc
 50
271.3328258785009
 51
296.9004095463393
  0
ARC
  5
220
330
6C
100
AcDbEntity
  8
Viditelná (ISO)
100
AcDbCircle
 10
171.4922703976334
 20
352.653676628764
 30
0.0
 40
15.76231530353416
100
AcDbArc
 50
243.0995904536605
 51
268.6671741214991
  0
ARC
  5
221
330
6C
100
AcDbEntity
  8
Viditelná (ISO)
100
AcDbCircle
 10
252.0351131934565
 20
400.3922269149999
 30
0.0
 40
69.29321421289471
100
AcDbArc
 50
296.90040954634
 51
301.9968350997684
  0
ARC
  5
222
330
6C
100
AcDbEntity
  8
Viditelná (ISO)
100
AcDbCircle
 10
195.7118483174218
 20
400.3922269149999
 30
0.0
 40
69.29321421289471
100
AcDbArc
 50
238.0031649002316
 51
243.0995904536601
  0
ARC
  5
223
330
6C
100
AcDbEntity
  8
Viditelná (ISO)
100
AcDbCircle
 10
268.0312442658119
 20
374.7899192130316
 30
0.0
 40
39.10456785453281
100
AcDbArc
 50
301.9968350997683
 51
323.3520484587572
  0
ARC
  5
224
330
6C
100
AcDbEntity
  8
Viditelná (ISO)
100
AcDbCircle
 10
179.7157172450665
 20
374.7899192130316
 30
0.0
 40
39.10456785453281
100
AcDbArc
 50
216.6479515412429
 51
238.0031649002317
  0
ARC
  5
225
330
6C
100
AcDbEntity
  8
Viditelná (ISO)
100
AcDbCircle
 10
272.2422047960146
 20
374.8562042347385
 30
0.0
 40
35.85758277877559
100
AcDbArc
 50
319.2473002361131
 51
358.8461626261704
  0
ARC
  5
226
330
6C
100
AcDbEntity
  8
Viditelná (ISO)
100
AcDbCircle
 10
175.5047567148638
 20
374.8562042347385
 30
0.0
 40
35.85758277877558
100
AcDbArc
 50
181.1538373738295
 51
220.7526997638869
  0
SPLINE
  5
227
330
6C
100
AcDbEntity
  8
Viditelná (ISO)
100
AcDbSpline
210
0.0
220
0.0
230
1.0
 70
     8
 71
     3
 72
    24
 73
    20
 74
     0
 42
0.0000000001
 43
0.0000000001
 40
-1.735121116705249
 40
-1.735121116705249
 40
-1.735121116705249
 40
-1.735121116705249
 40
-1.634640328553339
 40
-1.634640328553339
 40
-1.52900666096045
 40
-1.52900666096045
 40
-1.419063772582563
 40
-1.419063772582563
 40
-1.322386018963052
 40
-1.322386018963052
 40
-1.231746992026116
 40
-1.231746992026116
 40
-1.13558007749151
 40
-1.13558007749151
 40
-1.034181227380715
 40
-1.034181227380715
 40
-0.9246926849178734
 40
-0.9246926849178734
 40
-0.8675758905440032
 40
-0.8675758905440032
 40
-0.8675758905440032
 40
-0.8675758905440032
 10
155.1202907778611
 20
415.279680468092
 30
0.0
 10
155.1202907778611
 20
415.279680468092
 30
0.0
 10
155.1674179737595
 20
415.2402908433958
 30
0.0
 10
155.3540153977699
 20
415.0808753856543
 30
0.0
 10
155.4963095092354
 20
414.9582308381427
 30
0.0
 10
155.860484395131
 20
414.632549080701
 30
0.0
 10
156.0816949055443
 20
414.4294628822987
 30
0.0
 10
156.5334195884249
 20
413.9942648099612
 30
0.0
 10
156.7559240464069
 20
413.7720216138055
 30
0.0
 10
157.1865679496779
 20
413.3223514898888
 30
0.0
 10
157.3915457002054
 20
413.0994376957085
 30
0.0
 10
157.7908019822197
 20
412.6477565094874
 30
0.0
 10
157.9805418977953
 20
412.4230319881275
 30
0.0
 10
158.3242929527533
 20
412.001600493914
 30
0.0
 10
158.4731830094244
 20
411.8104868897765
 30
0.0
 10
158.716211832148
 20
411.4914823339756
 30
0.0
 10
158.8029097364665
 20
411.3730240477801
 30
0.0
 10
158.8709636006554
 20
411.2798373178692
 30
0.0
 10
158.8826320994731
 20
411.263834784693
 30
0.0
 10
158.8826269710222
 20
411.2638307499298
 30
0.0
  0
SPLINE
  5
228
330
6C
100
AcDbEntity
  8
Viditelná (ISO)
100
AcDbSpline
210
0.0
220
0.0
230
1.0
 70
     8
 71
     3
 72
    32
 73
    28
 74
     0
 42
0.0000000001
 43
0.0000000001
 40
-0.8669319467753167
 40
-0.8669319467753167
 40
-0.8669319467753167
 40
-0.8669319467753167
 40
-0.8436147984183239
 40
-0.8436147984183239
 40
-0.7431485033961345
 40
-0.7431485033961345
 40
-0.6492293606757471
 40
-0.6492293606757471
 40
-0.5637116306579069
 40
-0.5637116306579069
 40
-0.4967766009706023
 40
-0.4967766009706023
 40
-0.4643850143855918
 40
-0.4643850143855918
 40
-0.4414153748598145
 40
-0.4414153748598145
 40
-0.4184588458523826
 40
-0.4184588458523826
 40
-0.3861348545706784
 40
-0.3861348545706784
 40
-0.3158258773250182
 40
-0.3158258773250182
 40
-0.2174134687937328
 40
-0.2174134687937328
 40
-0.1096008405032938
 40
-0.1096008405032938
 40
0.0
 40
0.0
 40
0.0
 40
0.0
 10
288.8643605686514
 20
411.2638107909058
 30
0.0
 10
288.8643716325993
 20
411.2638020987459
 30
0.0
 10
288.8663287170035
 20
411.2664731488303
 30
0.0
 10
288.8870814837387
 20
411.2950297910117
 30
0.0
 10
288.9398928285195
 20
411.3679926755574
 30
0.0
 10
289.1093050508875
 20
411.5950858597093
 30
0.0
 10
289.220375599267
 20
411.7418632590713
 30
0.0
 10
289.4834279550246
 20
412.0763813079332
 30
0.0
 10
289.6294716259751
 20
412.257384949863
 30
0.0
 10
289.9204315810751
 20
412.6041059666174
 30
0.0
 10
290.0576782259546
 20
412.7633771880296
 30
0.0
 10
290.2718056601159
 20
413.0042892307761
 30
0.0
 10
290.3430905551765
 20
413.0833639833089
 30
0.0
 10
290.4668397814256
 20
413.2186486124808
 30
0.0
 10
290.5186886764298
 20
413.2747558273194
 30
0.0
 10
290.6231058897383
 20
413.3865978069909
 30
0.0
 10
290.6756239718839
 20
413.4422794248129
 30
0.0
 10
290.8025397191331
 20
413.5754874635479
 30
0.0
 10
290.8770008775432
 20
413.6525287987697
 30
0.0
 10
291.112928926799
 20
413.8932852137214
 30
0.0
 10
291.2727916564147
 20
414.0513739591102
 30
0.0
 10
291.6415425205392
 20
414.406568492849
 30
0.0
 10
291.8414387067733
 20
414.5910978071328
 30
0.0
 10
292.2037200259662
 20
414.9171930187072
 30
0.0
 10
292.3571875698166
 20
415.0500452942751
 30
0.0
 10
292.5705700267171
 20
415.2328487695951
 30
0.0
 10
292.6266707330173
 20
415.2796804680918
 30
0.0
 10
292.6266707330173
 20
415.2796804680918
 30
0.0
  0
LINE
  5
229
330
6C
100
AcDbEntity
  8
Viditelná (ISO)
100
AcDbLine
 10
312.0234807554392
 20
429.8889491532049
 30
0.0
 11
135.7234807554392
 21
429.8889491532049
 31
0.0
  0
LINE
  5
22A
330
6C
100
AcDbEntity
  8
Viditelná tenká (ISO)
100
AcDbLine
 10
132.7234807554392
 20
432.8889491532049
 30
0.0
 11
315.0234807554392
 21
432.8889491532049
 31
0.0
  0
LINE
  5
22B
330
6C
100
AcDbEntity
  8
Viditelná tenká (ISO)
100
AcDbLine
 10
302.9801153492534
 20
421.2813883969296
 30
0.0
 11
144.766846161625
 21
421.2813883969296
 31
0.0
  0
LINE
  5
22C
330
6C
100
AcDbEntity
  8
Viditelná tenká (ISO)
100
AcDbLine
 10
142.7234807554392
 20
424.1247755063324
 30
0.0
 11
305.0234807554391
 21
424.1247755063324
 31
0.0
  0
ARC
  5
22D
330
6C
100
AcDbEntity
  8
Viditelná (ISO)
100
AcDbCircle
 10
312.0234807554392
 20
432.8889491532049
 30
0.0
 40
3.0
100
AcDbArc
 50
270.0
 51
0.0
  0
ARC
  5
22E
330
6C
100
AcDbEntity
  8
Viditelná (ISO)
100
AcDbCircle
 10
135.7234807554392
 20
432.8889491532049
 30
0.0
 40
3.0
100
AcDbArc
 50
180.0
 51
270.0
  0
ARC
  5
22F
330
6C
100
AcDbEntity
  8
Viditelná (ISO)
100
AcDbCircle
 10
302.0234807554392
 20
424.1247755063324
 30
0.0
 40
3.0
100
AcDbArc
 50
288.5950966168177
 51
0.0
  0
ARC
  5
230
330
6C
100
AcDbEntity
  8
Viditelná (ISO)
100
AcDbCircle
 10
145.7234807554392
 20
424.1247755063324
 30
0.0
 40
3.0
100
AcDbArc
 50
180.0
 51
251.404903383182
  0
LINE
  5
231
330
6C
100
AcDbEntity
  8
Viditelná (ISO)
100
AcDbLine
 10
315.0234807554392
 20
434.8889491532049
 30
0.0
 11
132.7234807554392
 21
434.8889491532049
 31
0.0
  0
LINE
  5
232
330
6C
100
AcDbEntity
  8
Viditelná tenká (ISO)
100
AcDbLine
 10
305.0234807554391
 20
428.388949153205
 30
0.0
 11
142.7234807554392
 21
428.388949153205
 31
0.0
  0
LINE
  5
233
330
6C
100
AcDbEntity
  8
Viditelná (ISO)
100
AcDbLine
 10
132.7234807554392
 20
432.8889491532049
 30
0.0
 11
132.7234807554392
 21
434.8889491532049
 31
0.0
  0
LINE
  5
234
330
6C
100
AcDbEntity
  8
Viditelná (ISO)
100
AcDbLine
 10
315.0234807554392
 20
432.8889491532049
 30
0.0
 11
315.0234807554392
 21
434.8889491532049
 31
0.0
  0
LINE
  5
235
330
6C
100
AcDbEntity
  8
Viditelná (ISO)
100
AcDbLine
 10
142.7234807554392
 20
424.1247755063324
 30
0.0
 11
142.7234807554392
 21
428.388949153205
 31
0.0
  0
LINE
  5
236
330
6C
100
AcDbEntity
  8
Viditelná (ISO)
100
AcDbLine
 10
305.0234807554391
 20
424.1247755063324
 30
0.0
 11
305.0234807554391
 21
428.388949153205
 31
0.0
  0
ARC
  5
237
330
6C
100
AcDbEntity
  8
Viditelná (ISO)
100
AcDbCircle
 10
312.5464612873951
 20
392.8475173029017
 30
0.0
 40
30.0
100
AcDbArc
 50
142.1297170304741
 51
154.2328782161477
  0
ARC
  5
238
330
6C
100
AcDbEntity
  8
Viditelná (ISO)
100
AcDbCircle
 10
312.5464612873951
 20
392.8475173029017
 30
0.0
 40
30.0
100
AcDbArc
 50
108.595096616818
 51
131.6051188199074
  0
ARC
  5
239
330
6C
100
AcDbEntity
  8
Viditelná (ISO)
100
AcDbCircle
 10
135.2005002234833
 20
392.8475173029017
 30
0.0
 40
30.0
100
AcDbArc
 50
48.39488118009253
 51
71.40490338318203
  0
ARC
  5
23A
330
6C
100
AcDbEntity
  8
Viditelná (ISO)
100
AcDbCircle
 10
135.2005002234833
 20
392.8475173029017
 30
0.0
 40
30.0
100
AcDbArc
 50
25.76712178385226
 51
37.87028296952597
  0
ARC
  5
23B
330
6C
100
AcDbEntity
  8
Viditelná (ISO)
100
AcDbCircle
 10
306.5234807554392
 20
428.388949153205
 30
0.0
 40
1.500000000000003
100
AcDbArc
 50
90.0
 51
180.0
  0
ARC
  5
23C
330
6C
100
AcDbEntity
  8
Viditelná (ISO)
100
AcDbCircle
 10
141.2234807554392
 20
428.388949153205
 30
0.0
 40
1.500000000000003
100
AcDbArc
 50
0.0
 51
90.0
  0
SPLINE
  5
23D
330
6C
100
AcDbEntity
  8
Viditelná (ISO)
100
AcDbSpline
210
0.0
220
0.0
230
1.0
 70
    24
 71
     3
 72
     8
 73
     4
 74
     0
 42
0.0000000001
 43
0.0000000001
 40
0.0
 40
0.0
 40
0.0
 40
0.0
 40
0.040375551876353
 40
0.040375551876353
 40
0.040375551876353
 40
0.040375551876353
 10
140.6234807554391
 20
405.933771381814
 30
0.0
 10
140.6234807554391
 20
405.933771381814
 30
0.0
 10
140.6234807554391
 20
405.916637997038
 30
0.0
 10
140.6234807554391
 20
405.8858922838482
 30
0.0
  0
SPLINE
  5
23E
330
6C
100
AcDbEntity
  8
Viditelná (ISO)
100
AcDbSpline
210
0.0
220
0.0
230
1.0
 70
    24
 71
     3
 72
     8
 73
     4
 74
     0
 42
0.0000000001
 43
0.0000000001
 40
1.632663554078974
 40
1.632663554078974
 40
1.632663554078974
 40
1.632663554078974
 40
1.673039105955344
 40
1.673039105955344
 40
1.673039105955344
 40
1.673039105955344
 10
307.1234807554391
 20
405.8858922838482
 30
0.0
 10
307.1234807554391
 20
405.916637997038
 30
0.0
 10
307.1234807554391
 20
405.9337713818141
 30
0.0
 10
307.1234807554391
 20
405.9337713818141
 30
0.0
  0
ARC
  5
23F
330
6C
100
AcDbEntity
  8
Viditelná (ISO)
100
AcDbCircle
 10
223.8734807554391
 20
292.3816798114692
 30
0.0
 40
140.8
100
AcDbArc
 50
119.2206652996319
 51
126.2467714022976
  0
ARC
  5
240
330
6C
100
AcDbEntity
  8
Viditelná (ISO)
100
AcDbCircle
 10
223.8734807554391
 20
292.3816798114692
 30
0.0
 40
140.8
100
AcDbArc
 50
53.75322859770244
 51
60.77933470036815
  0
ARC
  5
241
330
6C
100
AcDbEntity
  8
Viditelná (ISO)
100
AcDbCircle
 10
223.8734807554391
 20
292.3816798114692
 30
0.0
 40
135.8
100
AcDbArc
 50
56.70355797455611
 51
61.31735255767598
  0
ARC
  5
242
330
6C
100
AcDbEntity
  8
Viditelná (ISO)
100
AcDbCircle
 10
223.8734807554391
 20
292.3816798114692
 30
0.0
 40
135.8
100
AcDbArc
 50
118.682647442324
 51
123.2964420254438
  0
DIMENSION
  5
243
330
6C
100
AcDbEntity
  8
Kóta (ISO)
100
AcDbDimension
  2
*D29
 10
55.87348075543941
 20
466.588949153205
 30
0.0
 11
55.87348075543933
 21
477.338949153205
 31
0.0
 70
   160
  1
<>
 71
     2
 42
21.50000000000006
  3
Kopie z Různé objekty (ISO)
100
AcDbAlignedDimension
 13
114.8734807554393
 23
488.0889491532051
 33
0.0
 14
114.8734807554393
 24
466.588949153205
 34
0.0
 50
270.0
100
AcDbRotatedDimension
1001
ACAD
1000
DSTYLE
1002
{
1070
   172
1070
     0
1070
   289
1070
     1
1070
   271
1070
     0
1070
   272
1070
     2
1070
    48
1040
0.0
1070
    47
1040
0.0
1002
}
  0
DIMENSION
  5
31A
330
6C
100
AcDbEntity
  8
Kóta (ISO)
100
AcDbDimension
  2
*D30
 10
332.8734807554393
 20
520.1389491532051
 30
0.0
 11
223.8734807554394
 21
520.1389491532051
 31
0.0
 70
   160
  1
{\fAIGDT|b0|i0;\H5.0000;\ln\fTahoma|b0|i0;\H5.0000;}<>
 71
     2
 42
218.0000000000001
  3
Výchozí (ISO)-01
100
AcDbAlignedDimension
 13
114.8734807554393
 23
485.138949153205
 33
0.0
 14
332.8734807554393
 24
485.138949153205
 34
0.0
 50
180.0
100
AcDbRotatedDimension
1001
ACAD
1000
DSTYLE
1002
{
1070
   172
1070
     0
1070
   289
1070
     1
1070
   271
1070
     0
1070
   272
1070
     2
1070
    48
1040
0.0
1070
    47
1040
0.0
1002
}
  0
DIMENSION
  5
3F1
330
6C
100
AcDbEntity
  8
Kóta (ISO)
100
AcDbDimension
  2
*D31
 10
315.0234807554392
 20
451.888949153205
 30
0.0
 11
223.8734807554391
 21
451.888949153205
 31
0.0
 70
   160
  1
{\fAIGDT|b0|i0;\H5.0000;\ln\fTahoma|b0|i0;\H5.0000;}<>
 71
     2
 42
182.3
  3
Kopie z Různé objekty (ISO)
100
AcDbAlignedDimension
 13
132.7234807554392
 23
434.8889491532049
 33
0.0
 14
315.0234807554392
 24
434.8889491532049
 34
0.0
 50
180.0
100
AcDbRotatedDimension
1001
ACAD
1000
DSTYLE
1002
{
1070
   172
1070
     0
1070
   289
1070
     1
1070
   271
1070
     0
1070
   272
1070
     2
1070
    48
1040
0.0
1070
    47
1040
0.0
1002
}
  0
DIMENSION
  5
4C7
330
6C
100
AcDbEntity
  8
Kóta (ISO)
100
AcDbDimension
  2
*D32
 10
372.9254034949138
 20
314.0889491594303
 30
0.0
 11
223.873480755439
 21
314.0889491594303
 31
0.0
 70
   160
  1
{\fAIGDT|b0|i0;\H5.0000;\ln\fTahoma|b0|i0;\H5.0000;}<>
 71
     2
 42
298.1038454789498
  3
Kopie z Různé objekty (ISO)
100
AcDbAlignedDimension
 13
74.82155801596393
 23
294.0889491594304
 33
0.0
 14
372.9254034949138
 24
294.0889491594303
 34
0.0
 50
180.0
100
AcDbRotatedDimension
1001
ACAD
1000
DSTYLE
1002
{
1070
   172
1070
     0
1070
   289
1070
     1
1070
   271
1070
     0
1070
   272
1070
     2
1070
    48
1040
0.0
1070
    47
1040
0.0
1002
}
  0
DIMENSION
  5
59D
330
6C
100
AcDbEntity
  8
Kóta (ISO)
100
AcDbDimension
  2
*D33
 10
58.72348075543926
 20
434.888949153205
 30
0.0
 11
58.72348075543918
 21
385.2786613805495
 31
0.0
 70
   160
  1
<>
 71
     2
 42
99.22057554531097
  3
Kopie z Různé objekty (ISO)
100
AcDbAlignedDimension
 13
223.8734807554392
 23
335.668373607894
 33
0.0
 14
132.7234807554392
 24
434.8889491532049
 34
0.0
 50
270.0
100
AcDbRotatedDimension
1001
ACAD
1000
DSTYLE
1002
{
1070
   172
1070
     0
1070
   289
1070
     1
1070
   271
1070
     0
1070
   272
1070
     2
1070
    48
1040
0.0
1070
    47
1040
0.0
1002
}
  0
DIMENSION
  5
673
330
6C
100
AcDbEntity
  8
Kóta (ISO)
100
AcDbDimension
  2
*D34
 10
35.09988729031854
 20
88.08894915943103
 30
0.0
 11
35.09988729031853
 21
193.0889491594307
 31
0.0
 70
   160
  1
<>
 71
     2
 42
209.9999999999994
  3
Kopie z Různé objekty (ISO)
100
AcDbAlignedDimension
 13
74.82155801596393
 23
298.0889491594304
 33
0.0
 14
91.09988729031847
 24
88.08894915943103
 34
0.0
 50
270.0
100
AcDbRotatedDimension
1001
ACAD
1000
DSTYLE
1002
{
1070
   172
1070
     0
1070
   289
1070
     1
1070
   271
1070
     0
1070
   272
1070
     2
1070
    48
1040
0.0
1070
    47
1040
0.0
1002
}
  0
LINE
  5
749
330
6C
100
AcDbEntity
  8
Osa (ISO)
  6
Continuous
100
AcDbLine
 10
223.8734807554394
 20
58.82021481470061
 30
0.0
 11
223.8734807554394
 21
496.9859861245249
 31
0.0
  0
ENDSEC
  0
SECTION
  2
OBJECTS
  0
DICTIONARY
  5
C
330
0
100
AcDbDictionary
281
     1
  3
ACAD_CIP_PREVIOUS_PRODUCT_INFO
350
74A
  3
ACAD_COLOR
350
63
  3
ACAD_GROUP
350
D
  3
ACAD_LAYOUT
350
62
  3
ACAD_MATERIAL
350
10
  3
ACAD_MLEADERSTYLE
350
66
  3
ACAD_MLINESTYLE
350
5F
  3
ACAD_PLOTSETTINGS
350
61
  3
ACAD_PLOTSTYLENAME
350
E
  3
ACAD_SCALELIST
350
42
  3
ACAD_TABLESTYLE
350
64
  3
ACAD_VISUALSTYLE
350
29
  3
ACDB_RECOMPOSE_DATA
350
758
  3
AcDbVariableDictionary
350
74B
  0
DICTIONARY
  5
78E
330
CE
100
AcDbDictionary
280
     1
281
     1
  3
ACAD_MTEXT_2008_RT
360
78F
  0
DICTIONARY
  5
790
330
D3
100
AcDbDictionary
280
     1
281
     1
  3
ACAD_MTEXT_2008_RT
360
791
  0
DICTIONARY
  5
792
330
D7
100
AcDbDictionary
280
     1
281
     1
  3
ACAD_MTEXT_2008_RT
360
793
  0
DICTIONARY
  5
794
330
DB
100
AcDbDictionary
280
     1
281
     1
  3
ACAD_MTEXT_2008_RT
360
795
  0
DICTIONARY
  5
796
330
E7
100
AcDbDictionary
280
     1
281
     1
  3
ACAD_MTEXT_2008_RT
360
797
  0
DICTIONARY
  5
798
330
EB
100
AcDbDictionary
280
     1
281
     1
  3
ACAD_MTEXT_2008_RT
360
799
  0
DICTIONARY
  5
79A
330
EF
100
AcDbDictionary
280
     1
281
     1
  3
ACAD_MTEXT_2008_RT
360
79B
  0
DICTIONARY
  5
79C
330
F3
100
AcDbDictionary
280
     1
281
     1
  3
ACAD_MTEXT_2008_RT
360
79D
  0
DICTIONARY
  5
79E
330
FF
100
AcDbDictionary
280
     1
281
     1
  3
ACAD_MTEXT_2008_RT
360
79F
  0
DICTIONARY
  5
7A0
330
103
100
AcDbDictionary
280
     1
281
     1
  3
ACAD_MTEXT_2008_RT
360
7A1
  0
DICTIONARY
  5
7A2
330
107
100
AcDbDictionary
280
     1
281
     1
  3
ACAD_MTEXT_2008_RT
360
7A3
  0
DICTIONARY
  5
7A4
330
10B
100
AcDbDictionary
280
     1
281
     1
  3
ACAD_MTEXT_2008_RT
360
7A5
  0
DICTIONARY
  5
7A6
330
10F
100
AcDbDictionary
280
     1
281
     1
  3
ACAD_MTEXT_2008_RT
360
7A7
  0
DICTIONARY
  5
7A8
330
113
100
AcDbDictionary
280
     1
281
     1
  3
ACAD_MTEXT_2008_RT
360
7A9
  0
DICTIONARY
  5
7AA
330
117
100
AcDbDictionary
280
     1
281
     1
  3
ACAD_MTEXT_2008_RT
360
7AB
  0
DICTIONARY
  5
7AC
330
11B
100
AcDbDictionary
280
     1
281
     1
  3
ACAD_MTEXT_2008_RT
360
7AD
  0
DICTIONARY
  5
7AE
330
123
100
AcDbDictionary
280
     1
281
     1
  3
ACAD_MTEXT_2008_RT
360
7AF
  0
XRECORD
  5
74A
102
{ACAD_REACTORS
330
C
102
}
330
C
100
AcDbXrecord
280
     1
300
INVNTOR
300
2012
300
PDSP_F_S
  0
DICTIONARY
  5
63
102
{ACAD_REACTORS
330
C
102
}
330
C
100
AcDbDictionary
281
     1
  0
DICTIONARY
  5
D
102
{ACAD_REACTORS
330
C
102
}
330
C
100
AcDbDictionary
281
     1
  0
DICTIONARY
  5
62
102
{ACAD_REACTORS
330
C
102
}
330
C
100
AcDbDictionary
281
     1
  3
Layout1
350
6B
  3
Layout2
350
73
  3
Model
350
6F
  0
DICTIONARY
  5
10
102
{ACAD_REACTORS
330
C
102
}
330
C
100
AcDbDictionary
281
     1
  3
ByBlock
350
19
  3
ByLayer
350
11
  3
Global
350
21
  0
DICTIONARY
  5
66
102
{ACAD_REACTORS
330
C
102
}
330
C
100
AcDbDictionary
281
     1
  3
Standard
350
67
  0
DICTIONARY
  5
5F
102
{ACAD_REACTORS
330
C
102
}
330
C
100
AcDbDictionary
281
     1
  3
Standard
350
60
  0
DICTIONARY
  5
61
102
{ACAD_REACTORS
330
C
102
}
330
C
100
AcDbDictionary
281
     1
  0
ACDBDICTIONARYWDFLT
  5
E
102
{ACAD_REACTORS
330
C
102
}
330
C
100
AcDbDictionary
281
     1
  3
Normal
350
F
100
AcDbDictionaryWithDefault
340
F
  0
DICTIONARY
  5
42
102
{ACAD_REACTORS
330
C
102
}
330
C
100
AcDbDictionary
281
     1
  3
A0
350
43
  3
A1
350
44
  3
A2
350
45
  3
A3
350
46
  3
A4
350
47
  3
A5
350
48
  3
A6
350
49
  3
A7
350
4A
  3
A8
350
4B
  3
A9
350
4C
  3
B0
350
4D
  3
B1
350
4E
  3
B2
350
4F
  3
B3
350
50
  3
B4
350
51
  3
B5
350
52
  3
B6
350
53
  0
DICTIONARY
  5
64
102
{ACAD_REACTORS
330
C
102
}
330
C
100
AcDbDictionary
281
     1
  3
Standard
350
65
  0
DICTIONARY
  5
29
102
{ACAD_REACTORS
330
C
102
}
330
C
100
AcDbDictionary
281
     1
  3
2dWireframe
350
2F
  3
Basic
350
2E
  3
Brighten
350
35
  3
ColorChange
350
39
  3
Conceptual
350
32
  3
Dim
350
34
  3
EdgeColorOff
350
41
  3
Facepattern
350
38
  3
Flat
350
2A
  3
FlatWithEdges
350
2B
  3
Gouraud
350
2C
  3
GouraudWithEdges
350
2D
  3
Hidden
350
31
  3
JitterOff
350
3F
  3
Linepattern
350
37
  3
OverhangOff
350
40
  3
Realistic
350
33
  3
Shaded
350
3E
  3
Shaded with edges
350
3D
  3
Shades of Gray
350
3A
  3
Sketchy
350
3B
  3
Thicken
350
36
  3
Wireframe
350
30
  3
X-Ray
350
3C
  0
XRECORD
  5
758
102
{ACAD_REACTORS
330
C
102
}
330
C
100
AcDbXrecord
280
     1
 90
        1
330
65
  0
DICTIONARY
  5
74B
102
{ACAD_REACTORS
330
C
102
}
330
C
100
AcDbDictionary
281
     1
  3
CANNOSCALE
350
74F
  3
CMLEADERSTYLE
350
74D
  3
CTABLESTYLE
350
74C
  3
LAYEREVAL
350
751
  3
LAYERNOTIFY
350
752
  3
LIGHTINGUNITS
350
750
  3
MSLTSCALE
350
74E
  3
XCLIPFRAME
350
753
  0
XRECORD
  5
78F
102
{ACAD_REACTORS
330
78E
102
}
330
78E
100
AcDbXrecord
280
     1
 40
3087375.0
  1
WIG svařování- svary dle potřeby zabrousit.\PPohledové plochy brousit (vel. brusných zrn 240)\Pa polepit páskou.\P\PWIG Schweisung, Nahte sauber geschliffen und poliert\PSichtstege geschliffen mit 240 Korn und abgeklebt.
  0
XRECORD
  5
791
102
{ACAD_REACTORS
330
790
102
}
330
790
100
AcDbXrecord
280
     1
 40
2428738.0
  1
WIG svařování- svary dle potřeby zabrousit.\PPohledové plochy brousit (vel. brusných zrn 240)\Pa polepit páskou.\P \PWIG welding - Visible sufaces to be grinded\Pand covered by protectiv foil.
  0
XRECORD
  5
793
102
{ACAD_REACTORS
330
792
102
}
330
792
100
AcDbXrecord
280
     1
 40
2458240.0
  1
Vzdálenost nivel. šroubů ca. 1500\PVzdálenost kotev ca. 400\PVzdálenost dist. kolíků ca. 250\P \PAbstand der Nivellieschraben ca.1500\PAbstand der Maueranker ca.400\PAbstand der Distanzstege ca.250\P 
  0
XRECORD
  5
795
102
{ACAD_REACTORS
330
794
102
}
330
794
100
AcDbXrecord
280
     1
 40
1069838.0
  1
Vzdálenost nivel. šroubů ca. 1500\PVzdálenost kotev ca. 400\P \PDistance of leveling feets ca.1500\PDistance of fixing tangs ca.400\P\P 
  0
XRECORD
  5
797
102
{ACAD_REACTORS
330
796
102
}
330
796
100
AcDbXrecord
280
     1
 40
126939.0
  1
Mořit a pasivovat\P(Gebeitzt und passivieren)
  0
XRECORD
  5
799
102
{ACAD_REACTORS
330
798
102
}
330
798
100
AcDbXrecord
280
     1
 40
109520.0
  1
Mořit a pasivovat\P(Pickled and passivate)
  0
XRECORD
  5
79B
102
{ACAD_REACTORS
330
79A
102
}
330
79A
100
AcDbXrecord
280
     1
 40
93252.0
  1
Žárově zinkovat\P(Verzinkt )
  0
XRECORD
  5
79D
102
{ACAD_REACTORS
330
79C
102
}
330
79C
100
AcDbXrecord
280
     1
 40
132246.0
  1
Žárově zinkovat\P(Hot-dip galvanize)
  0
XRECORD
  5
79F
102
{ACAD_REACTORS
330
79E
102
}
330
79E
100
AcDbXrecord
280
     1
 40
83720.0
  1
Elektrolyt. leštit\P(Elektr. poliert)
  0
XRECORD
  5
7A1
102
{ACAD_REACTORS
330
7A0
102
}
330
7A0
100
AcDbXrecord
280
     1
 40
87333.0
  1
Elektrolyt. leštit\P(Electr. polished)
  0
XRECORD
  5
7A3
102
{ACAD_REACTORS
330
7A2
102
}
330
7A2
100
AcDbXrecord
280
     1
 40
118263.0
  1
Žlab bez spádu!\PRinne ohne Gefälle!
  0
XRECORD
  5
7A5
102
{ACAD_REACTORS
330
7A4
102
}
330
7A4
100
AcDbXrecord
280
     1
 40
119399.0
  1
Žlab bez spádu!\PChannel without slope!
  0
XRECORD
  5
7A7
102
{ACAD_REACTORS
330
7A6
102
}
330
7A6
100
AcDbXrecord
280
     1
 40
2672228.0
  1
POZOR:\PSpád žlabu je menší než 1% - nebezpečí vzniku prohlubní\Pse stojatou vodou.\PACHTUNG:\PDas Bodengefälle ist kleiner als 1%. Das Gefahr der\PSenkungsentstehung mit dem stehenden Wasser.
  0
XRECORD
  5
7A9
102
{ACAD_REACTORS
330
7A8
102
}
330
7A8
100
AcDbXrecord
280
     1
 40
2193518.0
  1
POZOR:\PSpád žlabu je menší než 1% - nebezpečí vzniku prohlubní\Pse stojatou vodou.\PAUTENTION:\PThe gradient of the bottom is minor then 1%.\PThat can be reason of slack water.
  0
XRECORD
  5
7AB
102
{ACAD_REACTORS
330
7AA
102
}
330
7AA
100
AcDbXrecord
280
     1
 40
275286.0
  1
Kartáčováno + folie\PGeburstet mit abziehbarer Schutzfolie
  0
XRECORD
  5
7AD
102
{ACAD_REACTORS
330
7AC
102
}
330
7AC
100
AcDbXrecord
280
     1
 40
175505.0
  1
Kartáčováno + fólie.\P(Brushed and foils) 
  0
XRECORD
  5
7AF
102
{ACAD_REACTORS
330
7AE
102
}
330
7AE
100
AcDbXrecord
280
     1
 40
2320136.0
  1
Povrchová úprava/Oberfläche:\PTryskat pouze vnitřek žlabu, včetně pohledových ploch!\PPříruby proti tryskání chránit!\PFlansches per strahlung behütent!
  0
LAYOUT
  5
6B
102
{ACAD_REACTORS
330
62
102
}
330
62
100
AcDbPlotSettings
  1

  2

  4

  6

 40
0.0
 41
0.0
 42
0.0
 43
0.0
 44
0.0
 45
0.0
 46
0.0
 47
0.0
 48
0.0
 49
0.0
140
0.0
141
0.0
142
1.0
143
1.0
 70
   688
 72
     0
 73
     0
 74
     5
  7

 75
    16
147
1.0
 76
     0
 77
     2
 78
   300
148
0.0
149
0.0
100
AcDbLayout
  1
Layout1
 70
     1
 71
     1
 10
0.0
 20
0.0
 11
12.0
 21
9.0
 12
0.0
 22
0.0
 32
0.0
 14
0.0
 24
0.0
 34
0.0
 15
0.0
 25
0.0
 35
0.0
146
0.0
 13
0.0
 23
0.0
 33
0.0
 16
1.0
 26
0.0
 36
0.0
 17
0.0
 27
1.0
 37
0.0
 76
     0
330
68
  0
LAYOUT
  5
73
102
{ACAD_REACTORS
330
62
102
}
330
62
100
AcDbPlotSettings
  1

  2

  4

  6

 40
0.0
 41
0.0
 42
0.0
 43
0.0
 44
0.0
 45
0.0
 46
0.0
 47
0.0
 48
0.0
 49
0.0
140
0.0
141
0.0
142
1.0
143
1.0
 70
   688
 72
     0
 73
     0
 74
     5
  7

 75
    16
147
1.0
 76
     0
 77
     2
 78
   300
148
0.0
149
0.0
100
AcDbLayout
  1
Layout2
 70
     1
 71
     2
 10
0.0
 20
0.0
 11
12.0
 21
9.0
 12
0.0
 22
0.0
 32
0.0
 14
0.0
 24
0.0
 34
0.0
 15
0.0
 25
0.0
 35
0.0
146
0.0
 13
0.0
 23
0.0
 33
0.0
 16
1.0
 26
0.0
 36
0.0
 17
0.0
 27
1.0
 37
0.0
 76
     0
330
70
  0
LAYOUT
  5
6F
102
{ACAD_REACTORS
330
62
102
}
330
62
100
AcDbPlotSettings
  1

  2

  4

  6

 40
0.0
 41
0.0
 42
0.0
 43
0.0
 44
0.0
 45
0.0
 46
0.0
 47
0.0
 48
0.0
 49
0.0
140
0.0
141
0.0
142
1.0
143
1.0
 70
  1712
 72
     0
 73
     0
 74
     0
  7

 75
     0
147
1.0
 76
     0
 77
     2
 78
   300
148
0.0
149
0.0
100
AcDbLayout
  1
Model
 70
     1
 71
     0
 10
0.0
 20
0.0
 11
12.0
 21
9.0
 12
0.0
 22
0.0
 32
0.0
 14
0.0
 24
0.0
 34
0.0
 15
0.0
 25
0.0
 35
0.0
146
0.0
 13
0.0
 23
0.0
 33
0.0
 16
1.0
 26
0.0
 36
0.0
 17
0.0
 27
1.0
 37
0.0
 76
     0
330
6C
  0
MATERIAL
  5
19
102
{ACAD_XDICTIONARY
360
1A
102
}
102
{ACAD_REACTORS
330
10
102
}
330
10
100
AcDbMaterial
  1
ByBlock
 72
     0
 43
0.0208333333333333
 43
0.0
 43
0.0
 43
0.0
 43
0.0
 43
0.0208333333333333
 43
0.0
 43
0.0
 43
0.0
 43
0.0
 43
1.0
 43
0.0
 43
0.0
 43
0.0
 43
0.0
 43
1.0
 77
     0
 47
0.0208333333333333
 47
0.0
 47
0.0
 47
0.0
 47
0.0
 47
0.0208333333333333
 47
0.0
 47
0.0
 47
0.0
 47
0.0
 47
1.0
 47
0.0
 47
0.0
 47
0.0
 47
0.0
 47
1.0
171
     0
 49
0.0208333333333333
 49
0.0
 49
0.0
 49
0.0
 49
0.0
 49
0.0208333333333333
 49
0.0
 49
0.0
 49
0.0
 49
0.0
 49
1.0
 49
0.0
 49
0.0
 49
0.0
 49
0.0
 49
1.0
175
     0
142
0.0208333333333333
142
0.0
142
0.0
142
0.0
142
0.0
142
0.0208333333333333
142
0.0
142
0.0
142
0.0
142
0.0
142
1.0
142
0.0
142
0.0
142
0.0
142
0.0
142
1.0
179
     0
144
0.0208333333333333
144
0.0
144
0.0
144
0.0
144
0.0
144
0.0208333333333333
144
0.0
144
0.0
144
0.0
144
0.0
144
1.0
144
0.0
144
0.0
144
0.0
144
0.0
144
1.0
147
0.0208333333333333
147
0.0
147
0.0
147
0.0
147
0.0
147
0.0208333333333333
147
0.0
147
0.0
147
0.0
147
0.0
147
1.0
147
0.0
147
0.0
147
0.0
147
0.0
147
1.0
  0
MATERIAL
  5
11
102
{ACAD_XDICTIONARY
360
12
102
}
102
{ACAD_REACTORS
330
10
102
}
330
10
100
AcDbMaterial
  1
ByLayer
 72
     0
 43
0.0208333333333333
 43
0.0
 43
0.0
 43
0.0
 43
0.0
 43
0.0208333333333333
 43
0.0
 43
0.0
 43
0.0
 43
0.0
 43
1.0
 43
0.0
 43
0.0
 43
0.0
 43
0.0
 43
1.0
 77
     0
 47
0.0208333333333333
 47
0.0
 47
0.0
 47
0.0
 47
0.0
 47
0.0208333333333333
 47
0.0
 47
0.0
 47
0.0
 47
0.0
 47
1.0
 47
0.0
 47
0.0
 47
0.0
 47
0.0
 47
1.0
171
     0
 49
0.0208333333333333
 49
0.0
 49
0.0
 49
0.0
 49
0.0
 49
0.0208333333333333
 49
0.0
 49
0.0
 49
0.0
 49
0.0
 49
1.0
 49
0.0
 49
0.0
 49
0.0
 49
0.0
 49
1.0
175
     0
142
0.0208333333333333
142
0.0
142
0.0
142
0.0
142
0.0
142
0.0208333333333333
142
0.0
142
0.0
142
0.0
142
0.0
142
1.0
142
0.0
142
0.0
142
0.0
142
0.0
142
1.0
179
     0
144
0.0208333333333333
144
0.0
144
0.0
144
0.0
144
0.0
144
0.0208333333333333
144
0.0
144
0.0
144
0.0
144
0.0
144
1.0
144
0.0
144
0.0
144
0.0
144
0.0
144
1.0
147
0.0208333333333333
147
0.0
147
0.0
147
0.0
147
0.0
147
0.0208333333333333
147
0.0
147
0.0
147
0.0
147
0.0
147
1.0
147
0.0
147
0.0
147
0.0
147
0.0
147
1.0
  0
MATERIAL
  5
21
102
{ACAD_XDICTIONARY
360
22
102
}
102
{ACAD_REACTORS
330
10
102
}
330
10
100
AcDbMaterial
  1
Global
 72
     0
 43
0.0208333333333333
 43
0.0
 43
0.0
 43
0.0
 43
0.0
 43
0.0208333333333333
 43
0.0
 43
0.0
 43
0.0
 43
0.0
 43
1.0
 43
0.0
 43
0.0
 43
0.0
 43
0.0
 43
1.0
 77
     0
 47
0.0208333333333333
 47
0.0
 47
0.0
 47
0.0
 47
0.0
 47
0.0208333333333333
 47
0.0
 47
0.0
 47
0.0
 47
0.0
 47
1.0
 47
0.0
 47
0.0
 47
0.0
 47
0.0
 47
1.0
171
     0
 49
0.0208333333333333
 49
0.0
 49
0.0
 49
0.0
 49
0.0
 49
0.0208333333333333
 49
0.0
 49
0.0
 49
0.0
 49
0.0
 49
1.0
 49
0.0
 49
0.0
 49
0.0
 49
0.0
 49
1.0
175
     0
142
0.0208333333333333
142
0.0
142
0.0
142
0.0
142
0.0
142
0.0208333333333333
142
0.0
142
0.0
142
0.0
142
0.0
142
1.0
142
0.0
142
0.0
142
0.0
142
0.0
142
1.0
179
     0
144
0.0208333333333333
144
0.0
144
0.0
144
0.0
144
0.0
144
0.0208333333333333
144
0.0
144
0.0
144
0.0
144
0.0
144
1.0
144
0.0
144
0.0
144
0.0
144
0.0
144
1.0
147
0.0208333333333333
147
0.0
147
0.0
147
0.0
147
0.0
147
0.0208333333333333
147
0.0
147
0.0
147
0.0
147
0.0
147
1.0
147
0.0
147
0.0
147
0.0
147
0.0
147
1.0
  0
MLEADERSTYLE
  5
67
102
{ACAD_XDICTIONARY
360
756
102
}
102
{ACAD_REACTORS
330
66
102
}
330
66
100
AcDbMLeaderStyle
170
     2
171
     1
172
     0
 90
        2
 40
0.0
 41
0.0
173
     1
 91
-1056964608
340
5B
 92
       -2
290
     1
 42
0.09
291
     1
 43
0.36
  3
Standard
 44
0.18
300

342
55
174
     1
178
     6
175
     1
176
     0
 93
-1056964608
 45
0.18
292
     0
297
     0
 46
0.18
 94
-1056964608
 47
1.0
 49
1.0
140
1.0
293
     1
141
0.0
294
     1
177
     0
142
1.0
295
     0
296
     0
143
0.125
1001
ACAD_MLEADERVER
1070
     2
  0
MLINESTYLE
  5
60
102
{ACAD_REACTORS
330
5F
102
}
330
5F
100
AcDbMlineStyle
  2
STANDARD
 70
     0
  3

 62
   256
 51
90.0
 52
90.0
 71
     2
 49
0.5
 62
   256
  6
BYLAYER
 49
-0.5
 62
   256
  6
BYLAYER
  0
ACDBPLACEHOLDER
  5
F
102
{ACAD_REACTORS
330
E
102
}
330
E
  0
SCALE
  5
43
102
{ACAD_REACTORS
330
42
102
}
330
42
100
AcDbScale
 70
     0
300
1:1
140
1.0
141
1.0
290
     1
  0
SCALE
  5
44
102
{ACAD_REACTORS
330
42
102
}
330
42
100
AcDbScale
 70
     0
300
1/128" = 1'-0"
140
0.0078125
141
12.0
290
     0
  0
SCALE
  5
45
102
{ACAD_REACTORS
330
42
102
}
330
42
100
AcDbScale
 70
     0
300
1/64" = 1'-0"
140
0.015625
141
12.0
290
     0
  0
SCALE
  5
46
102
{ACAD_REACTORS
330
42
102
}
330
42
100
AcDbScale
 70
     0
300
1/32" = 1'-0"
140
0.03125
141
12.0
290
     0
  0
SCALE
  5
47
102
{ACAD_REACTORS
330
42
102
}
330
42
100
AcDbScale
 70
     0
300
1/16" = 1'-0"
140
0.0625
141
12.0
290
     0
  0
SCALE
  5
48
102
{ACAD_REACTORS
330
42
102
}
330
42
100
AcDbScale
 70
     0
300
3/32" = 1'-0"
140
0.09375
141
12.0
290
     0
  0
SCALE
  5
49
102
{ACAD_REACTORS
330
42
102
}
330
42
100
AcDbScale
 70
     0
300
1/8" = 1'-0"
140
0.125
141
12.0
290
     0
  0
SCALE
  5
4A
102
{ACAD_REACTORS
330
42
102
}
330
42
100
AcDbScale
 70
     0
300
3/16" = 1'-0"
140
0.1875
141
12.0
290
     0
  0
SCALE
  5
4B
102
{ACAD_REACTORS
330
42
102
}
330
42
100
AcDbScale
 70
     0
300
1/4" = 1'-0"
140
0.25
141
12.0
290
     0
  0
SCALE
  5
4C
102
{ACAD_REACTORS
330
42
102
}
330
42
100
AcDbScale
 70
     0
300
3/8" = 1'-0"
140
0.375
141
12.0
290
     0
  0
SCALE
  5
4D
102
{ACAD_REACTORS
330
42
102
}
330
42
100
AcDbScale
 70
     0
300
1/2" = 1'-0"
140
0.5
141
12.0
290
     0
  0
SCALE
  5
4E
102
{ACAD_REACTORS
330
42
102
}
330
42
100
AcDbScale
 70
     0
300
3/4" = 1'-0"
140
0.75
141
12.0
290
     0
  0
SCALE
  5
4F
102
{ACAD_REACTORS
330
42
102
}
330
42
100
AcDbScale
 70
     0
300
1" = 1'-0"
140
1.0
141
12.0
290
     0
  0
SCALE
  5
50
102
{ACAD_REACTORS
330
42
102
}
330
42
100
AcDbScale
 70
     0
300
1-1/2" = 1'-0"
140
1.5
141
12.0
290
     0
  0
SCALE
  5
51
102
{ACAD_REACTORS
330
42
102
}
330
42
100
AcDbScale
 70
     0
300
3" = 1'-0"
140
3.0
141
12.0
290
     0
  0
SCALE
  5
52
102
{ACAD_REACTORS
330
42
102
}
330
42
100
AcDbScale
 70
     0
300
6" = 1'-0"
140
6.0
141
12.0
290
     0
  0
SCALE
  5
53
102
{ACAD_REACTORS
330
42
102
}
330
42
100
AcDbScale
 70
     0
300
1'-0" = 1'-0"
140
12.0
141
12.0
290
     0
  0
TABLESTYLE
  5
65
102
{ACAD_XDICTIONARY
360
754
102
}
102
{ACAD_REACTORS
330
64
102
}
330
64
100
AcDbTableStyle
  3
Standard
 70
     0
 71
     0
 40
0.06
 41
0.06
280
     0
281
     0
  7
Standard
140
0.18
170
     2
 62
     0
 63
     7
283
     0
274
    -2
284
     1
 64
     0
275
    -2
285
     1
 65
     0
276
    -2
286
     1
 66
     0
277
    -2
287
     1
 67
     0
278
    -2
288
     1
 68
     0
279
    -2
289
     1
 69
     0
  7
Standard
140
0.25
170
     5
 62
     0
 63
     7
283
     0
274
    -2
284
     1
 64
     0
275
    -2
285
     1
 65
     0
276
    -2
286
     1
 66
     0
277
    -2
287
     1
 67
     0
278
    -2
288
     1
 68
     0
279
    -2
289
     1
 69
     0
  7
Standard
140
0.18
170
     5
 62
     0
 63
     7
283
     0
274
    -2
284
     1
 64
     0
275
    -2
285
     1
 65
     0
276
    -2
286
     1
 66
     0
277
    -2
287
     1
 67
     0
278
    -2
288
     1
 68
     0
279
    -2
289
     1
 69
     0
  0
VISUALSTYLE
  5
2F
102
{ACAD_XDICTIONARY
360
766
102
}
102
{ACAD_REACTORS
330
29
102
}
330
29
100
AcDbVisualStyle
  2
2dWireframe
 70
     4
 71
     0
 72
     2
 73
     0
 90
        0
 40
-0.6
 41
-30.0
 62
     5
 63
     7
421
 16777215
 74
     1
 91
        4
 64
     7
 65
   257
 75
     1
175
     1
 42
1.0
 92
        0
 66
   257
 43
1.0
 76
     1
 77
     6
 78
     2
 67
     7
 79
     5
170
     0
171
     0
290
     0
174
     0
 93
        1
 44
0.0
173
     0
291
     0
 45
0.0
1001
ACAD
1000
AcDbSavedByObjectVersion
1070
     0
  0
VISUALSTYLE
  5
2E
102
{ACAD_XDICTIONARY
360
764
102
}
102
{ACAD_REACTORS
330
29
102
}
330
29
100
AcDbVisualStyle
  2
Basic
 70
     7
 71
     1
 72
     0
 73
     1
 90
        0
 40
-0.6
 41
-30.0
 62
     5
 63
     7
421
 16777215
 74
     0
 91
        4
 64
     7
 65
   257
 75
     1
175
     1
 42
1.0
 92
        8
 66
     7
 43
1.0
 76
     1
 77
     6
 78
     2
 67
     7
 79
     5
170
     0
171
     0
290
     0
174
     0
 93
        1
 44
0.0
173
     0
291
     1
 45
0.0
1001
ACAD
1000
AcDbSavedByObjectVersion
1070
     0
  0
VISUALSTYLE
  5
35
102
{ACAD_XDICTIONARY
360
772
102
}
102
{ACAD_REACTORS
330
29
102
}
330
29
100
AcDbVisualStyle
  2
Brighten
 70
    12
 71
     2
 72
     2
 73
     0
 90
        0
 40
-0.6
 41
-30.0
 62
     5
 63
     7
421
 16777215
 74
     1
 91
        4
 64
     7
 65
   257
 75
     1
175
     1
 42
1.0
 92
        8
 66
     7
 43
1.0
 76
     1
 77
     6
 78
     2
 67
     7
 79
     5
170
     0
171
     0
290
     0
174
     0
 93
        1
 44
50.0
173
     0
291
     1
 45
0.0
1001
ACAD
1000
AcDbSavedByObjectVersion
1070
     0
  0
VISUALSTYLE
  5
39
102
{ACAD_XDICTIONARY
360
77A
102
}
102
{ACAD_REACTORS
330
29
102
}
330
29
100
AcDbVisualStyle
  2
ColorChange
 70
    16
 71
     2
 72
     2
 73
     3
 90
        0
 40
-0.6
 41
-30.0
 62
     5
 63
     8
421
  8421504
 74
     1
 91
        4
 64
     7
 65
   257
 75
     1
175
     1
 42
1.0
 92
        8
 66
     8
424
  8421504
 43
1.0
 76
     1
 77
     6
 78
     2
 67
     7
 79
     5
170
     0
171
     0
290
     0
174
     0
 93
        1
 44
0.0
173
     0
291
     1
 45
0.0
1001
ACAD
1000
AcDbSavedByObjectVersion
1070
     0
  0
VISUALSTYLE
  5
32
102
{ACAD_XDICTIONARY
360
76C
102
}
102
{ACAD_REACTORS
330
29
102
}
330
29
100
AcDbVisualStyle
  2
Conceptual
 70
     9
 71
     3
 72
     2
 73
     0
 90
        0
 40
-0.6
 41
-30.0
 62
     5
 63
     7
421
 16777215
 74
     2
 91
        2
 64
     7
 65
   257
 75
     1
175
     1
 42
179.0
 92
        8
 66
     7
 43
1.0
 76
     1
 77
     6
 78
     2
 67
     7
 79
     3
170
     0
171
     0
290
     0
174
     0
 93
        1
 44
0.0
173
     0
291
     0
 45
0.0
1001
ACAD
1000
AcDbSavedByObjectVersion
1070
     0
  0
VISUALSTYLE
  5
34
102
{ACAD_XDICTIONARY
360
770
102
}
102
{ACAD_REACTORS
330
29
102
}
330
29
100
AcDbVisualStyle
  2
Dim
 70
    11
 71
     2
 72
     2
 73
     0
 90
        0
 40
-0.6
 41
-30.0
 62
     5
 63
     7
421
 16777215
 74
     1
 91
        4
 64
     7
 65
   257
 75
     1
175
     1
 42
1.0
 92
        8
 66
     7
 43
1.0
 76
     1
 77
     6
 78
     2
 67
     7
 79
     5
170
     0
171
     0
290
     0
174
     0
 93
        1
 44
-50.0
173
     0
291
     1
 45
0.0
1001
ACAD
1000
AcDbSavedByObjectVersion
1070
     0
  0
VISUALSTYLE
  5
41
102
{ACAD_XDICTIONARY
360
78A
102
}
102
{ACAD_REACTORS
330
29
102
}
330
29
100
AcDbVisualStyle
  2
EdgeColorOff
 70
    22
 71
     2
 72
     2
 73
     0
 90
        0
 40
-0.6
 41
-30.0
 62
     5
 63
     7
421
 16777215
 74
     1
 91
        4
 64
     7
 65
   257
 75
     1
175
     1
 42
1.0
 92
        8
 66
     7
 43
1.0
 76
     1
 77
     6
 78
     2
 67
     7
 79
     5
170
     0
171
     0
290
     0
174
     0
 93
        1
 44
0.0
173
     0
291
     1
 45
0.0
1001
ACAD
1000
AcDbSavedByObjectVersion
1070
     0
  0
VISUALSTYLE
  5
38
102
{ACAD_XDICTIONARY
360
778
102
}
102
{ACAD_REACTORS
330
29
102
}
330
29
100
AcDbVisualStyle
  2
Facepattern
 70
    15
 71
     2
 72
     2
 73
     0
 90
        0
 40
-0.6
 41
-30.0
 62
     5
 63
     7
421
 16777215
 74
     1
 91
        4
 64
     7
 65
   257
 75
     1
175
     1
 42
1.0
 92
        8
 66
     7
 43
1.0
 76
     1
 77
     6
 78
     2
 67
     7
 79
     5
170
     0
171
     0
290
     0
174
     0
 93
        1
 44
0.0
173
     0
291
     1
 45
0.0
1001
ACAD
1000
AcDbSavedByObjectVersion
1070
     0
  0
VISUALSTYLE
  5
2A
102
{ACAD_XDICTIONARY
360
75C
102
}
102
{ACAD_REACTORS
330
29
102
}
330
29
100
AcDbVisualStyle
  2
Flat
 70
     0
 71
     2
 72
     1
 73
     1
 90
        2
 40
-0.6
 41
30.0
 62
     5
 63
     7
421
 16777215
 74
     0
 91
        0
 64
     7
 65
   257
 75
     1
175
     1
 42
1.0
 92
        8
 66
     7
 43
1.0
 76
     1
 77
     6
 78
     2
 67
     7
 79
     5
170
     0
171
     0
290
     0
174
     0
 93
       13
 44
0.0
173
     0
291
     1
 45
0.0
1001
ACAD
1000
AcDbSavedByObjectVersion
1070
     0
  0
VISUALSTYLE
  5
2B
102
{ACAD_XDICTIONARY
360
75E
102
}
102
{ACAD_REACTORS
330
29
102
}
330
29
100
AcDbVisualStyle
  2
FlatWithEdges
 70
     1
 71
     2
 72
     1
 73
     1
 90
        2
 40
-0.6
 41
30.0
 62
     5
 63
     7
421
 16777215
 74
     1
 91
        0
 64
     7
 65
   257
 75
     1
175
     1
 42
1.0
 92
        0
 66
   257
 43
1.0
 76
     1
 77
     6
 78
     2
 67
     7
 79
     5
170
     0
171
     0
290
     0
174
     0
 93
       13
 44
0.0
173
     0
291
     1
 45
0.0
1001
ACAD
1000
AcDbSavedByObjectVersion
1070
     0
  0
VISUALSTYLE
  5
2C
102
{ACAD_XDICTIONARY
360
760
102
}
102
{ACAD_REACTORS
330
29
102
}
330
29
100
AcDbVisualStyle
  2
Gouraud
 70
     2
 71
     2
 72
     2
 73
     1
 90
        2
 40
-0.6
 41
30.0
 62
     5
 63
     7
421
 16777215
 74
     0
 91
        0
 64
     7
 65
   257
 75
     1
175
     1
 42
1.0
 92
        0
 66
     7
 43
1.0
 76
     1
 77
     6
 78
     2
 67
     7
 79
     5
170
     0
171
     0
290
     0
174
     0
 93
       13
 44
0.0
173
     0
291
     1
 45
0.0
1001
ACAD
1000
AcDbSavedByObjectVersion
1070
     0
  0
VISUALSTYLE
  5
2D
102
{ACAD_XDICTIONARY
360
762
102
}
102
{ACAD_REACTORS
330
29
102
}
330
29
100
AcDbVisualStyle
  2
GouraudWithEdges
 70
     3
 71
     2
 72
     2
 73
     1
 90
        2
 40
-0.6
 41
30.0
 62
     5
 63
     7
421
 16777215
 74
     1
 91
        0
 64
     7
 65
   257
 75
     1
175
     1
 42
1.0
 92
        0
 66
   257
 43
1.0
 76
     1
 77
     6
 78
     2
 67
     7
 79
     5
170
     0
171
     0
290
     0
174
     0
 93
       13
 44
0.0
173
     0
291
     1
 45
0.0
1001
ACAD
1000
AcDbSavedByObjectVersion
1070
     0
  0
VISUALSTYLE
  5
31
102
{ACAD_XDICTIONARY
360
76A
102
}
102
{ACAD_REACTORS
330
29
102
}
330
29
100
AcDbVisualStyle
  2
Hidden
 70
     6
 71
     1
 72
     2
 73
     2
 90
        0
 40
-0.6
 41
-30.0
 62
     5
 63
     7
421
 16777215
 74
     2
 91
        2
 64
     7
 65
   257
 75
     2
175
     1
 42
40.0
 92
        0
 66
   257
 43
1.0
 76
     1
 77
     6
 78
     2
 67
     7
 79
     3
170
     0
171
     0
290
     0
174
     0
 93
        1
 44
0.0
173
     0
291
     0
 45
0.0
1001
ACAD
1000
AcDbSavedByObjectVersion
1070
     0
  0
VISUALSTYLE
  5
3F
102
{ACAD_XDICTIONARY
360
786
102
}
102
{ACAD_REACTORS
330
29
102
}
330
29
100
AcDbVisualStyle
  2
JitterOff
 70
    20
 71
     2
 72
     2
 73
     0
 90
        0
 40
-0.6
 41
-30.0
 62
     5
 63
     7
421
 16777215
 74
     1
 91
        4
 64
     7
 65
   257
 75
     1
175
     1
 42
1.0
 92
       10
 66
     7
 43
1.0
 76
     1
 77
     6
 78
     2
 67
     7
 79
     5
170
     0
171
     0
290
     0
174
     0
 93
        1
 44
0.0
173
     0
291
     1
 45
0.0
1001
ACAD
1000
AcDbSavedByObjectVersion
1070
     0
  0
VISUALSTYLE
  5
37
102
{ACAD_XDICTIONARY
360
776
102
}
102
{ACAD_REACTORS
330
29
102
}
330
29
100
AcDbVisualStyle
  2
Linepattern
 70
    14
 71
     2
 72
     2
 73
     0
 90
        0
 40
-0.6
 41
-30.0
 62
     5
 63
     7
421
 16777215
 74
     1
 91
        4
 64
     7
 65
   257
 75
     7
175
     7
 42
1.0
 92
        8
 66
     7
 43
1.0
 76
     1
 77
     6
 78
     2
 67
     7
 79
     5
170
     0
171
     0
290
     0
174
     0
 93
        1
 44
0.0
173
     0
291
     1
 45
0.0
1001
ACAD
1000
AcDbSavedByObjectVersion
1070
     0
  0
VISUALSTYLE
  5
40
102
{ACAD_XDICTIONARY
360
788
102
}
102
{ACAD_REACTORS
330
29
102
}
330
29
100
AcDbVisualStyle
  2
OverhangOff
 70
    21
 71
     2
 72
     2
 73
     0
 90
        0
 40
-0.6
 41
-30.0
 62
     5
 63
     7
421
 16777215
 74
     1
 91
        4
 64
     7
 65
   257
 75
     1
175
     1
 42
1.0
 92
        9
 66
     7
 43
1.0
 76
     1
 77
     6
 78
     2
 67
     7
 79
     5
170
     0
171
     0
290
     0
174
     0
 93
        1
 44
0.0
173
     0
291
     1
 45
0.0
1001
ACAD
1000
AcDbSavedByObjectVersion
1070
     0
  0
VISUALSTYLE
  5
33
102
{ACAD_XDICTIONARY
360
76E
102
}
102
{ACAD_REACTORS
330
29
102
}
330
29
100
AcDbVisualStyle
  2
Realistic
 70
     8
 71
     2
 72
     3
 73
     0
 90
        2
 40
-0.6
 41
30.0
 62
     5
 63
     7
421
 16777215
 74
     0
 91
        0
 64
     7
 65
   257
 75
     1
175
     1
 42
1.0
 92
        8
 66
   257
 43
1.0
 76
     1
 77
     6
 78
     2
 67
     7
 79
     3
170
     0
171
     0
290
     0
174
     0
 93
       13
 44
0.0
173
     0
291
     0
 45
0.0
1001
ACAD
1000
AcDbSavedByObjectVersion
1070
     0
  0
VISUALSTYLE
  5
3E
102
{ACAD_XDICTIONARY
360
784
102
}
102
{ACAD_REACTORS
330
29
102
}
330
29
100
AcDbVisualStyle
  2
Shaded
 70
    27
 71
     2
 72
     2
 73
     1
 90
        2
 40
-0.6
 41
30.0
 62
     5
 63
     7
421
 16777215
 74
     0
 91
        4
 64
     7
 65
   257
 75
     1
175
     1
 42
1.0
 92
        8
 66
   257
 43
1.0
 76
     1
 77
     6
 78
     2
 67
     8
425
  7895160
 79
     3
170
     0
171
     0
290
     0
174
     0
 93
        5
 44
0.0
173
     0
291
     0
 45
0.0
1001
ACAD
1000
AcDbSavedByObjectVersion
1070
     0
  0
VISUALSTYLE
  5
3D
102
{ACAD_XDICTIONARY
360
782
102
}
102
{ACAD_REACTORS
330
29
102
}
330
29
100
AcDbVisualStyle
  2
Shaded with edges
 70
    26
 71
     2
 72
     2
 73
     1
 90
        2
 40
-0.6
 41
30.0
 62
     5
 63
     7
421
 16777215
 74
     1
 91
       10
 64
     7
 65
   257
 75
     2
175
     1
 42
1.0
 92
        8
 66
   257
 43
1.0
 76
     1
 77
     6
 78
     2
 67
     7
 79
     3
170
     0
171
     0
290
     0
174
     0
 93
        5
 44
0.0
173
     0
291
     0
 45
0.0
1001
ACAD
1000
AcDbSavedByObjectVersion
1070
     0
  0
VISUALSTYLE
  5
3A
102
{ACAD_XDICTIONARY
360
77C
102
}
102
{ACAD_REACTORS
330
29
102
}
330
29
100
AcDbVisualStyle
  2
Shades of Gray
 70
    23
 71
     2
 72
     2
 73
     3
 90
        0
 40
-0.6
 41
-30.0
 62
     5
 63
     7
421
 16777215
 74
     2
 91
        2
 64
     7
 65
     7
 75
     1
175
     1
 42
40.0
 92
        8
 66
     7
 43
1.0
 76
     1
 77
     6
 78
     2
 67
     7
 79
     3
170
     0
171
     0
290
     0
174
     0
 93
        1
 44
0.0
173
     0
291
     0
 45
0.0
1001
ACAD
1000
AcDbSavedByObjectVersion
1070
     0
  0
VISUALSTYLE
  5
3B
102
{ACAD_XDICTIONARY
360
77E
102
}
102
{ACAD_REACTORS
330
29
102
}
330
29
100
AcDbVisualStyle
  2
Sketchy
 70
    24
 71
     1
 72
     2
 73
     2
 90
        0
 40
-0.6
 41
-30.0
 62
     5
 63
     7
421
 16777215
 74
     2
 91
        2
 64
     7
 65
     7
 75
     1
175
     1
 42
40.0
 92
       11
 66
     7
 43
1.0
 76
     1
 77
     6
 78
     2
 67
     7
 79
     6
170
     0
171
     0
290
     0
174
     0
 93
        1
 44
0.0
173
     0
291
     0
 45
0.0
1001
ACAD
1000
AcDbSavedByObjectVersion
1070
     0
  0
VISUALSTYLE
  5
36
102
{ACAD_XDICTIONARY
360
774
102
}
102
{ACAD_REACTORS
330
29
102
}
330
29
100
AcDbVisualStyle
  2
Thicken
 70
    13
 71
     2
 72
     2
 73
     0
 90
        0
 40
-0.6
 41
-30.0
 62
     5
 63
     7
421
 16777215
 74
     1
 91
        4
 64
     7
 65
   257
 75
     1
175
     1
 42
1.0
 92
       12
 66
     7
 43
1.0
 76
     1
 77
     6
 78
     2
 67
     7
 79
     5
170
     0
171
     0
290
     0
174
     0
 93
        1
 44
0.0
173
     0
291
     1
 45
0.0
1001
ACAD
1000
AcDbSavedByObjectVersion
1070
     0
  0
VISUALSTYLE
  5
30
102
{ACAD_XDICTIONARY
360
768
102
}
102
{ACAD_REACTORS
330
29
102
}
330
29
100
AcDbVisualStyle
  2
Wireframe
 70
     5
 71
     0
 72
     2
 73
     0
 90
        0
 40
-0.6
 41
-30.0
 62
     5
 63
     7
421
 16777215
 74
     1
 91
        4
 64
     7
 65
   257
 75
     1
175
     1
 42
1.0
 92
        0
 66
   257
 43
1.0
 76
     1
 77
     6
 78
     2
 67
     7
 79
     3
170
     0
171
     0
290
     0
174
     0
 93
        1
 44
0.0
173
     0
291
     0
 45
0.0
1001
ACAD
1000
AcDbSavedByObjectVersion
1070
     0
  0
VISUALSTYLE
  5
3C
102
{ACAD_XDICTIONARY
360
780
102
}
102
{ACAD_REACTORS
330
29
102
}
330
29
100
AcDbVisualStyle
  2
X-Ray
 70
    25
 71
     2
 72
     2
 73
     1
 90
        1
 40
0.5
 41
-30.0
 62
     5
 63
     7
421
 16777215
 74
     1
 91
        0
 64
     7
 65
   257
 75
     1
175
     1
 42
1.0
 92
        8
 66
     7
 43
1.0
 76
     1
 77
     6
 78
     2
 67
     7
 79
     3
170
     0
171
     0
290
     0
174
     0
 93
       13
 44
0.0
173
     0
291
     0
 45
0.0
1001
ACAD
1000
AcDbSavedByObjectVersion
1070
     0
  0
DICTIONARYVAR
  5
74F
102
{ACAD_REACTORS
330
74B
102
}
330
74B
100
DictionaryVariables
280
     0
  1
1:1
  0
DICTIONARYVAR
  5
74D
102
{ACAD_REACTORS
330
74B
102
}
330
74B
100
DictionaryVariables
280
     0
  1
STANDARD
  0
DICTIONARYVAR
  5
74C
102
{ACAD_REACTORS
330
74B
102
}
330
74B
100
DictionaryVariables
280
     0
  1
STANDARD
  0
DICTIONARYVAR
  5
751
102
{ACAD_REACTORS
330
74B
102
}
330
74B
100
DictionaryVariables
280
     0
  1
0
  0
DICTIONARYVAR
  5
752
102
{ACAD_REACTORS
330
74B
102
}
330
74B
100
DictionaryVariables
280
     0
  1
0
  0
DICTIONARYVAR
  5
750
102
{ACAD_REACTORS
330
74B
102
}
330
74B
100
DictionaryVariables
280
     0
  1
2
  0
DICTIONARYVAR
  5
74E
102
{ACAD_REACTORS
330
74B
102
}
330
74B
100
DictionaryVariables
280
     0
  1
1
  0
DICTIONARYVAR
  5
753
102
{ACAD_REACTORS
330
74B
102
}
330
74B
100
DictionaryVariables
280
     0
  1
2
  0
DICTIONARY
  5
1A
330
19
100
AcDbDictionary
280
     1
281
     1
  3
ACAD_XREC_ROUNDTRIP
360
75A
  3
BUMPTILE
360
1C
  3
DIFFUSETILE
360
1B
  3
OPACITYTILE
360
1F
  3
REFLECTIONTILE
360
1E
  3
REFRACTIONTILE
360
20
  3
SPECULARTILE
360
1D
  0
DICTIONARY
  5
12
330
11
100
AcDbDictionary
280
     1
281
     1
  3
ACAD_XREC_ROUNDTRIP
360
759
  3
BUMPTILE
360
14
  3
DIFFUSETILE
360
13
  3
FBXASSET
360
9C
  3
OPACITYTILE
360
17
  3
REFLECTIONTILE
360
16
  3
REFRACTIONTILE
360
18
  3
SPECULARTILE
360
15
  0
DICTIONARY
  5
22
330
21
100
AcDbDictionary
280
     1
281
     1
  3
ACAD_XREC_ROUNDTRIP
360
75B
  3
BUMPTILE
360
24
  3
DIFFUSETILE
360
23
  3
OPACITYTILE
360
27
  3
REFLECTIONTILE
360
26
  3
REFRACTIONTILE
360
28
  3
SPECULARTILE
360
25
  0
DICTIONARY
  5
756
330
67
100
AcDbDictionary
280
     1
281
     1
  3
ACAD_XREC_ROUNDTRIP
360
757
  0
DICTIONARY
  5
754
330
65
100
AcDbDictionary
280
     1
281
     1
  3
ACAD_ROUNDTRIP_2008_TABLESTYLE_CELLSTYLEMAP
360
755
  3
ACAD_XREC_ROUNDTRIP
360
78C
  0
DICTIONARY
  5
766
330
2F
100
AcDbDictionary
280
     1
281
     1
  3
ACAD_XREC_ROUNDTRIP
360
767
  0
DICTIONARY
  5
764
330
2E
100
AcDbDictionary
280
     1
281
     1
  3
ACAD_XREC_ROUNDTRIP
360
765
  0
DICTIONARY
  5
772
330
35
100
AcDbDictionary
280
     1
281
     1
  3
ACAD_XREC_ROUNDTRIP
360
773
  0
DICTIONARY
  5
77A
330
39
100
AcDbDictionary
280
     1
281
     1
  3
ACAD_XREC_ROUNDTRIP
360
77B
  0
DICTIONARY
  5
76C
330
32
100
AcDbDictionary
280
     1
281
     1
  3
ACAD_XREC_ROUNDTRIP
360
76D
  0
DICTIONARY
  5
770
330
34
100
AcDbDictionary
280
     1
281
     1
  3
ACAD_XREC_ROUNDTRIP
360
771
  0
DICTIONARY
  5
78A
330
41
100
AcDbDictionary
280
     1
281
     1
  3
ACAD_XREC_ROUNDTRIP
360
78B
  0
DICTIONARY
  5
778
330
38
100
AcDbDictionary
280
     1
281
     1
  3
ACAD_XREC_ROUNDTRIP
360
779
  0
DICTIONARY
  5
75C
330
2A
100
AcDbDictionary
280
     1
281
     1
  3
ACAD_XREC_ROUNDTRIP
360
75D
  0
DICTIONARY
  5
75E
330
2B
100
AcDbDictionary
280
     1
281
     1
  3
ACAD_XREC_ROUNDTRIP
360
75F
  0
DICTIONARY
  5
760
330
2C
100
AcDbDictionary
280
     1
281
     1
  3
ACAD_XREC_ROUNDTRIP
360
761
  0
DICTIONARY
  5
762
330
2D
100
AcDbDictionary
280
     1
281
     1
  3
ACAD_XREC_ROUNDTRIP
360
763
  0
DICTIONARY
  5
76A
330
31
100
AcDbDictionary
280
     1
281
     1
  3
ACAD_XREC_ROUNDTRIP
360
76B
  0
DICTIONARY
  5
786
330
3F
100
AcDbDictionary
280
     1
281
     1
  3
ACAD_XREC_ROUNDTRIP
360
787
  0
DICTIONARY
  5
776
330
37
100
AcDbDictionary
280
     1
281
     1
  3
ACAD_XREC_ROUNDTRIP
360
777
  0
DICTIONARY
  5
788
330
40
100
AcDbDictionary
280
     1
281
     1
  3
ACAD_XREC_ROUNDTRIP
360
789
  0
DICTIONARY
  5
76E
330
33
100
AcDbDictionary
280
     1
281
     1
  3
ACAD_XREC_ROUNDTRIP
360
76F
  0
DICTIONARY
  5
784
330
3E
100
AcDbDictionary
280
     1
281
     1
  3
ACAD_XREC_ROUNDTRIP
360
785
  0
DICTIONARY
  5
782
330
3D
100
AcDbDictionary
280
     1
281
     1
  3
ACAD_XREC_ROUNDTRIP
360
783
  0
DICTIONARY
  5
77C
330
3A
100
AcDbDictionary
280
     1
281
     1
  3
ACAD_XREC_ROUNDTRIP
360
77D
  0
DICTIONARY
  5
77E
330
3B
100
AcDbDictionary
280
     1
281
     1
  3
ACAD_XREC_ROUNDTRIP
360
77F
  0
DICTIONARY
  5
774
330
36
100
AcDbDictionary
280
     1
281
     1
  3
ACAD_XREC_ROUNDTRIP
360
775
  0
DICTIONARY
  5
768
330
30
100
AcDbDictionary
280
     1
281
     1
  3
ACAD_XREC_ROUNDTRIP
360
769
  0
DICTIONARY
  5
780
330
3C
100
AcDbDictionary
280
     1
281
     1
  3
ACAD_XREC_ROUNDTRIP
360
781
  0
XRECORD
  5
75A
102
{ACAD_REACTORS
330
1A
102
}
330
1A
100
AcDbXrecord
280
     1
102
MATERIAL
148
0.0
149
0.0
149
0.0
 93
        0
 94
      127
282
     0
 72
     0
 77
     0
171
     0
175
     0
179
     0
273
     0
  0
XRECORD
  5
1C
102
{ACAD_REACTORS
330
1A
102
}
330
1A
100
AcDbXrecord
280
     1
270
     1
271
     1
  0
XRECORD
  5
1B
102
{ACAD_REACTORS
330
1A
102
}
330
1A
100
AcDbXrecord
280
     1
270
     1
271
     1
  0
XRECORD
  5
1F
102
{ACAD_REACTORS
330
1A
102
}
330
1A
100
AcDbXrecord
280
     1
270
     1
271
     1
  0
XRECORD
  5
1E
102
{ACAD_REACTORS
330
1A
102
}
330
1A
100
AcDbXrecord
280
     1
270
     1
271
     1
  0
XRECORD
  5
20
102
{ACAD_REACTORS
330
1A
102
}
330
1A
100
AcDbXrecord
280
     1
270
     1
271
     1
  0
XRECORD
  5
1D
102
{ACAD_REACTORS
330
1A
102
}
330
1A
100
AcDbXrecord
280
     1
270
     1
271
     1
  0
XRECORD
  5
759
102
{ACAD_REACTORS
330
12
102
}
330
12
100
AcDbXrecord
280
     1
102
MATERIAL
148
0.0
149
0.0
149
0.0
 93
        0
 94
      127
282
     0
 72
     0
 77
     0
171
     0
175
     0
179
     0
273
     0
  0
XRECORD
  5
14
102
{ACAD_REACTORS
330
12
102
}
330
12
100
AcDbXrecord
280
     1
270
     1
271
     1
  0
XRECORD
  5
13
102
{ACAD_REACTORS
330
12
102
}
330
12
100
AcDbXrecord
280
     1
270
     1
271
     1
  0
XRECORD
  5
9C
102
{ACAD_REACTORS
330
12
102
}
330
12
100
AcDbXrecord
280
     1
 70
     1
 90
1959938040
 71
     1
  1
034DF82C-7F65-40CF-9D8E-650483FAD1EB
311
504B03040A00000800004D6189433DEE336E79000000790000001B0000006175746F6465736B2D64657369676E2D7061636B6167652E786D6C3C3F786D6C2076657273696F6E3D22312E302220656E636F64696E673D227574662D3822203F3E3C666F726D6174733E3C666F726D61743E687474703A2F2F736368656D612E
311
6175746F6465736B2E636F6D2F64657369676E2D7061636B6167652F323030393C2F666F726D61743E3C2F666F726D6174733E504B03041400060808004D618943D486FD9CA0000000F4000000130000005B436F6E74656E745F54797065735D2E786D6C7D8EC10E82300C865F65E91D8A1E8C310C0EEA1BF002731658846E
311
D98AC1B77784ABF1D8FE5FBFBF75BBCE937A534CCEB38643598122B6FEE978D0B0485F9C41B54DDD7D022595594E1A469170414C76A4D9A4D207E29CF43ECE46F218070CC6BECC4078ACAA135ACF422C856C0E68EA1BF5669944DDD7BCDE7B1F8E415D77AECB980613C2E4AC91FC167A2B244592486606FC29C8FD7F045B9A
311
EF7053A7E60B504B03041400060808004D61894355445D6EEB0000007C01000008000000636F72652E786D6C8D90416EC3201045AF82665BE100761ADBC2446E2D9FA01740405C94182C03558F5F9C3852BBEB6A467FFE9B197D7EFE9E6FE8CBACC17AD7012D0820E394D7D64D1DA478C135A0B3E0ABF7F1970D9093B3E960
311
9341F069F569D925E55D342E66D5796D76518660222075CB4D07417D9A591632C5EC08D76291EA2A2753D06797E194AC468F2356E77DF662CD0A626C08390D758947462B5CF5C706F7F550E27EA89AFA9D1CDFC6FEC40F1B2C78B4F3F3BE5A8D8C468360849698324C9A0FCA5A4A5AF6FA42684B083F6CF63F505AF43FA164
311
5D2CD9FEEE030B20687EE43E10FCB06591CB3DA85CB7DCC40F504B03041400060808004D61894355019EA25F0000007C00000007000000636E782E786D6C4DCB3B0E80201045D1AD90E915ED2CF8AC45050C11660C8261F98AB1B07AC9C97D42D718D865D3E909258CFD00CCE24AC6E326A164D74DC0B4128928FF32603847
311
2BA13128B1252AC747C6BAB984FC68F0B87FE8960A5C09FE86CFB69FBA01504B03041400060808004D618943EF9AFA6068010000020300000C0000006662782F636F72652E786D6C8D525B6E833010BC8AE5DF0A6C036942641CD14639412FE0804351C046C646397E9747445345518564AC999DDDD9017EB8B50D1A94ED6B
311
A333CC428A91D285296B5D65D8BB4BB0C3E820B835C6FD2AC348CB56657884B1E09535BE5BA0C268A7B403549B522DA0EC7BE5302A1AB864B82FBE552B43E91D54F4D7B093C555562A6421D0502778EF2C1840F390F1C4E272BE7132E3827B5F970B5B9730ADBED4CA62714A29DD1E7771708A581224F9260DF2DD310EF263
311
92EE3EE9E6E3946F3919C582BBBABDBB2BAC924E95584494C5018B029A7EB168CFE83E7A7FA36C4F292763F983C877E53F45BED62E8E16BBB3ACC782819189F8B32D44E4502F07F04304276388F09A127E0C1A0281909D3C37F73DAE000DAA70C626C094C6AFD4201BAF602A45D3C3C9CC42E7A9016CF6B44FF4A2CFEB1EF0
311
01A5AEC09A74703D7B374EE7F3D4258A4ED9607037A48D6D65B39A9B2DAEE73AE8A9BC308DB1FF51936555B28449C6BF57FC00504B03041400060808004D61894325AB97F17C0000009D0000000B0000006662782F636E782E786D6C4DCCD10A83201886E15B91FFDCE5EF5C28A8917423B12C64A5C3E9D8E5AF46073BFAE0
311
E1E3D5DD675BC9DBE75748D1005E18101FEF690A713150CB4C2590CEEA9C52F9BB0189E3E60D1C0C562F39D5E749939FC7BA965DD7101F27DE18220ECA5176152D15882D759C2BCA65DFA372831412A1B1BAF995F63DC2F60B504B03041400060808004D6189430C288D282B01000015020000310000006662782F35303131
311
314439422D303334362D343131362D423232392D3238414131394244383438312F636F72652E786D6C8D515B6EC32010BC0AE22B55659BC58E6B479828518ED00B3836495162B07854397E97DA91DABFFCB06876667660C5FE31DDC9B7725E5BD351C81925CA0C76D4E6DAD1182E5943C95E0A676DF843A3C4F493EA6882A9
311
145767E3BC428335419980A8B1A35AC1DE7B152819EE78E9A81FBED4D4E77D0CC8F0B77CEE875B7F5539E4D8469E143E380C409621E9A472CB00E0D41E335656755601D4D991F336E3CDE100EDF1D4540D8862114A11A31E57B91E318EBE68E55E35496229829E9EF107A7FAA0462A398332039EB1F613F80ED88ED7EF0C76
311
8C8922D1FF89E23CBE288ADA8492AF711799A7125FB334A4186D3CDF9F61D463B62E90346FE3D5F04625CB196BA16CEB8FAD28162EFE009AD6D56AEA8375F8C39BDB19E980ACE45C5752146949587E3788352D54FE00504B03041400060808004D6189437807F0D44E01000033030000300000006662782F35303131314439
311
422D303334362D343131362D423232392D3238414131394244383438312F636E782E786D6CD593CD6E022114855F85B06DE687D198D6309874D127E8A25B84AB521998F0D3D4B7EF45D1BA71D165376472EEE19C9B2F0CDF7C4F967C4188C6BB91B2B6A7049CF2DAB8FD4873DA35CF946C040FDEA73B1B254E4E30D22253C1
311
F7C1E7B94A1A7632DB84AA35EE58C500D1E7A020A25C6E12EB95B41800AEC928C2B405AD41939B11BF7610701514B727920E40DE5E3F88DF7E824A91772545F0AE74085ECEDA7467A2445919E348A33AC0245B9993D7108FAD9649B6ACBD763DD8E93789940BD7CA1C0C29E5232D271575A31639F20E8782C714905E35A5D3
311
0C54C879B646C98490BBB3F1E2113C1B9756CBEA35083EA09BAD16CB25869D678227334175A8003281A662E8D9A26143D3BFBCB361CDFAF5B07AEAD9BAEF7957EC826FBDB7F512C640F03351DE2570890AC6BB327E84AFFA88360159FB70FA034804505B2F746E19FF994F777EDF882BE05F207E00504B0304140006080800
311
4D61894367425F47A505000081100000340000006662782F35303131314439422D303334362D343131362D423232392D3238414131394244383438312F6F626A656374732E786D6CAD57D96EDB3814FD1541F332F3E045B6933A03454562C785D1A62D6AA4980703062D510A27D402924A9DF9FA3914295972ECD433E88B16
311
2E97F79E7BEE42FFFD2EE5CE331592E5D9B5EBF587AE43B3308F58965CBBA58A7B53D7791FF822CF556B99EB6424A5D7AE1E76033F117959D8A188C6A4E4EA607471FB9723439A51D7093991F2DA95E1234D499F942A8FA87CEA4744917E12EFFA5EDF2CEC8A4D04291E0F841644D04C41538C6790E218A5BCEEEFD01D04FE
311
40CF07BE7EDA55E3D3AB06953DDDF3592615C9C257871D88197B93F9DDE8E2AA7731998C7B93CB91D7BB5DDCCE7BDEBBF17076399B5DDDDC5DE160A90424594D048DDDE003B0112CF407662AF04B96A9F1C82EB10E1A08FACCB4A7DC60E478FEC0AC69ACB3461E533FCCB38C86155640A3B2CF8A8E6841B3083E675442B316
311
42C3EEAFA7716C4D8FF5BF3DB23D7C1E02ED1D2D41B5EEF5BBAD69BEFD1B26C873182424D50C34585A430D57877B84B779CEED1C934E4A14158C7087B3AD20E2C50DB0542F09FC8E18CD64A1A3415BE006F08299EED20561F4739E1FD3322E39D73476832A0A368815AA64A519FB878ABDF66D64A0137CA5D930B506A99782
311
BAC195A1C8F4804D064827E62481CB61A6DE391E1D183AD371BA9CBBC1C7C576B7D2B17BFCF042E405154AD307D4AA1D57BF354A5627EF2CCFE90DEE812A7B50BE01F9CF08F5BD2AF09B60BBC96E624F51826432CE450ADF3843A737C463E878D5537FB7BEFC41B3B9EBBD5378C2D91AAA5F8067D786B62F5B7006FE33089F
311
8BB1356D15128EB471CF3200A449E2F01C43C8C3F176E7064B64396465EC223CF06032D47DC6A73FB0629028AA935AEF0C581EA4C533123460AB1809350CF9AD827B3FBD4A67D5C176D929782F7E095D6FE6AB8FAB52C424A4F736A6E73466195328717BDEB415EA60DEB1E889BEFCC84504435FE3BD6AE39DDAA324D0D698
311
6BE0933AA7EB9FFDC99D0342EC4B729D6EFC9F9C002374616DC9BF6732A49C938CE6657DEE9BF50365C340AC835D33B92930FBC202D29899831844910E052B34884DB56A9266FF84750FCBCF60A41BDCBE7C222FEDECB5DDE7DE30E7B9D86C5F36262D1D85FA7B97DB1683819602BA574152C7BF057D13B1382E2592E0115C
311
BF2F676DDFE9B48014514B35D13281FD082E222C696BB9A8D682A092E6D986A16E22EE8E1ED0960F482D032A81A7349694C71BC679996E62C6518D3629294EC0F1FFF5DF9669B121695E66EA84EC8EEAA80E5DDD3BEC953F880A1FDD6055BD7BB7C8BD118D4E9041D7922358755C3B1C4FE68BE968D67BB7B8BCE84D86B345
311
EF6A3EBDEB5D5E0C27D3F1E266EEDDDDD67E329A047E5D6ADA110D2FA1B4F9A560D67D0F4BC48F4D026E704F945C7F30E159BF1F967DF4C2FE007B502F9B8D37D133FA3E1AFD5CC07EE55141CBB4E034A599223A86EEF507FF46D067749431E3CB9424F40C295F3EAC0E8CC1C819FBBEEA78A73F0EF6DAD1990EC8A342D463
311
996E33C2F8C1C6C420D92FB2C4E257FBA4799B4253FFEA3FEB1874A632E72C421E8C9C84E62955C886671421915209EAB57BFAC8DE3DCED8FD6C3A4445B69CD69A3C1234C95C222C40AD3254DD71E7373475BAAFBA76516EFB4F78D84CE13AE0CCB58B265DB190CAFE16055AB742957070A9DDC9A3F12759C2D16B9B4DCD7F
311
B34B63D329C9CD9273FA276B9749E1D600A491027D031A2278A75226F02BDDEC7CF89F0CAFD57188C2E7B6548D2DFB81C698EA1884A831CADE16D0C43CD9A37708D4B7CDF2FAD59A0E2267DDB2DE248191DA534424D54D41EB6755BA997F1DA04371965F9C8297097C79BEA49EA02073A9031C2C022BACCC82285075F6E7FA
311
ABC871934D9D0503059CDF77D3CB3FD6B33C4DF3CC0CAD6FEC7DD8593DE2761BAD911CA8BE96C8F568E88DD6D575C0DE50365B22699F44F20903F0AC600DD01DF78397E6CE883A64269A7503ED8A03862EE78E2D6C1308B57469E7560D0E1A8F8C3A88217DA5D411D35E50BC792318544BA182402F1FFC0B504B0304140006
311
0800004D618943000000000000000000000000350000006662782F35303131314439422D303334362D343131362D423232392D3238414131394244383438312F76657274696365732E62696E504B03041400060808004D618943F270F1330600000004000000360000006662782F35303131314439422D303334362D343131
311
362D423232392D3238414131394244383438312F747269616E676C65732E62696E636660600000504B03041400060800004D618943000000000000000000000000370000006662782F35303131314439422D303334362D343131362D423232392D3238414131394244383438312F617474726962757465732E62696E504B03
311
041400060808004D618943D5987DFC8F00000041010000360000006662782F35303131314439422D303334362D343131362D423232392D3238414131394244383438312F6469726563746F72792E786D6C858F410EC2201045AF4266AF15DDB800BA74E7C21B903225242D6328188F2FA5C4183471359997F9FF81E89FF3C4
311
1E1816475E02DF1F80A11FC8386F25A438EECEC07A250251FC3803E6F58C12560C4AD840E95E91C151A72936F496F35732D860FE635F62C8F2DA16B505C545B74125BAA2FA9E05D7CC053D063734D5C7665FD55B6B8D15D5E9BFEAFD8490FFA45E504B03041400060808004D61894346EF73F6FE000000A00100003B000000
311
6662782F35303131314439422D303334362D343131362D423232392D3238414131394244383438312F7265736F75726365732F636F72652E786D6C8D504B6E833010BD0A9A6D65B09DA401641CD1224ED00B586642AC043BF2A7EAF16B122AB5BB6E6646EFA3797AE2F4B5DC8A4FF4C138DB012B291468B59B8C9D3B48F14C
311
6A284E5278E7E22F1914562DD8C10A8314B377E9BE41DAD9883666D4BA0937508580110A7DCB4707415F7051A54A312BC2B5BC2B7D553396ACCC74D64911A2CF018AE7937582F4185CF21A83A89EAC14299969D39829FF3467831EE4D8507A1C6A4E46CEF664DF1F1AD2D7C38EF4C3BEA9DFE9E16DEC8FA25ACD5244B3FC64
311
D41E55C40924A76C471827B4F960BC65B4E5AF2F94B5948A6A95FF31A5FBF44F533236EEF816F7690B20590EF220A4A8D6BEF27A9499F7DAADFC06504B010214000A00000800004D6189433DEE336E79000000790000001B00000000000000000000000000000000006175746F6465736B2D64657369676E2D7061636B6167
311
652E786D6C504B010214001400060808004D618943D486FD9CA0000000F40000001300000000000000000000000000B20000005B436F6E74656E745F54797065735D2E786D6C504B010214001400060808004D61894355445D6EEB0000007C010000080000000000000000000000000083010000636F72652E786D6C504B01
311
0214001400060808004D61894355019EA25F0000007C000000070000000000000000000000000094020000636E782E786D6C504B010214001400060808004D618943EF9AFA6068010000020300000C00000000000000000000000000180300006662782F636F72652E786D6C504B010214001400060808004D61894325AB97
311
F17C0000009D0000000B00000000000000000000000000AA0400006662782F636E782E786D6C504B010214001400060808004D6189430C288D282B0100001502000031000000000000000000000000004F0500006662782F35303131314439422D303334362D343131362D423232392D3238414131394244383438312F636F
311
72652E786D6C504B010214001400060808004D6189437807F0D44E010000330300003000000000000000000000000000C90600006662782F35303131314439422D303334362D343131362D423232392D3238414131394244383438312F636E782E786D6C504B010214001400060808004D61894367425F47A5050000811000
311
003400000000000000000000000000650800006662782F35303131314439422D303334362D343131362D423232392D3238414131394244383438312F6F626A656374732E786D6C504B010214001400060800004D61894300000000000000000000000035000000000000000000000000005C0E00006662782F353031313144
311
39422D303334362D343131362D423232392D3238414131394244383438312F76657274696365732E62696E504B010214001400060808004D618943F270F13306000000040000003600000000000000000000000000AF0E00006662782F35303131314439422D303334362D343131362D423232392D32384141313942443834
311
38312F747269616E676C65732E62696E504B010214001400060800004D6189430000000000000000000000003700000000000000000000000000090F00006662782F35303131314439422D303334362D343131362D423232392D3238414131394244383438312F617474726962757465732E62696E504B0102140014000608
311
08004D618943D5987DFC8F0000004101000036000000000000000000000000005E0F00006662782F35303131314439422D303334362D343131362D423232392D3238414131394244383438312F6469726563746F72792E786D6C504B010214001400060808004D61894346EF73F6FE000000A00100003B0000000000000000
311
0000000000411000006662782F35303131314439422D303334362D343131362D423232392D3238414131394244383438312F7265736F75726365732F636F72652E786D6C504B0506000000000E000E0080040000981100000000
310
504B03040A00000800004D6189433DEE336E79000000790000001B0000006175746F6465736B2D64657369676E2D7061636B6167652E786D6C3C3F786D6C2076657273696F6E3D22312E302220656E636F64696E673D227574662D3822203F3E3C666F726D6174733E3C666F726D61743E687474703A2F2F736368656D612E
310
6175746F6465736B2E636F6D2F64657369676E2D7061636B6167652F323030393C2F666F726D61743E3C2F666F726D6174733E504B03041400060808004D618943D486FD9CA0000000F4000000130000005B436F6E74656E745F54797065735D2E786D6C7D8EC10E82300C865F65E91D8A1E8C310C0EEA1BF002731658846E
310
D98AC1B77784ABF1D8FE5FBFBF75BBCE937A534CCEB38643598122B6FEE978D0B0485F9C41B54DDD7D022595594E1A469170414C76A4D9A4D207E29CF43ECE46F218070CC6BECC4078ACAA135ACF422C856C0E68EA1BF5669944DDD7BCDE7B1F8E415D77AECB980613C2E4AC91FC167A2B244592486606FC29C8FD7F045B9A
310
EF7053A7E60B504B03041400060808004D618943E89F91B1EA0000007C01000008000000636F72652E786D6C8D90416EC3201045AF82665B6103B65C6C61A2266D4FD00B20202E4A0C9681AAC72F4E1CA9DD7535A33FFFCD8CBE387CCF57F465D7E8821F81560490F53A18E7A711723A630EE820C51A42FA6503E4D56C47D8
310
6490625A435E7649079FAC4F45F5C1D85D5431DA04485F4B3342D49F765695CAA938E2A55A94BEA8C956F4D115386767D0FD8833659F3B3BBB827C39F53D67FC19F7BCEF704B5A868FA78662FEFA46E8FBB1ED78D3897A83A5486E7EDCD7AB55C91A908CD006538649FF41D940C9C0BA2742074244BDD9FF407931FF84B2F3
310
A961FBBB772C82A4E591DB408A7ACBA2945B50A56EB9C91F504B03041400060808004D61894355019EA25F0000007C00000007000000636E782E786D6C4DCB3B0E80201045D1AD90E915ED2CF8AC45050C11660C8261F98AB1B07AC9C97D42D718D865D3E909258CFD00CCE24AC6E326A164D74DC0B4128928FF326038472B
310
A13128B1252AC747C6BAB984FC68F0B87FE8960A5C09FE86CFB69FBA01504B03041400060808004D618943245A7E7C67010000020300000C0000006662782F636F72652E786D6C8D525B6E833010BC8AE5DF0A6C03A21019474DDA9EA01770C0A128602363A31CBFCB23A2A9A2A84232D6CCCEEEEC00DF5FBB168DCA0E8DD1
310
056621C548E9D2548DAE0BECDD39C830DA0B6E8D71BFCA30D2B253059E602C786D8DEF57A834DA29ED00D5A6522B288741398CCA162E051ECA6FD5C9507A0715C325EC657991B50A590834D4093E380B06D032643AB1389FAE9C2CB8E0DE37D5CA36154C6BCE8DB258BC1DF33C8BB2D720CFF234486812058763CC82ECFD83
310
B2CF43926671CAC92416DC35DDCD5D699574AAC222A22C0E5814D0FC8B453B467751FA42D98E524EA6F23B91EFAB7F8A7CA35D1CAD7617D98005032333F1675B88C8A1418EE087084EA610E135277C1F340402213B796A6F7B5C001A55E98C4D80A98CDFA851B65EC1548AE687938585CE7303D8EC619FE8499FE73DE0034A
310
5D8335E9E07AF26E9ACE97A96B14BDB2C1E8AE481BDBC97633B758DCCE6DD04379695A63FFA326EBAA640D934C7FAFF801504B03041400060808004D6189430F5A673E7D0000009D0000000B0000006662782F636E782E786D6C4DCCD10AC2201886E15B91FFDC96CBE1047568D87D8CE686E4344CA3CB6F8B1D74F4C1C3C7
310
2B86CF1AD0DBE5974F5102399D01B9784F938F8B845A66DC031A94C82995BF1BA038AE4EC2CEA0C492537D1E34B979ACA16C1A7C7C1C683BAE7B6E18D696724C5B4AB1E18C6163F5B5BBDC5AC288854689E657DA760FAB2F504B03041400060808004D6189438E1A3F052B01000014020000310000006662782F4535394138
310
3942372D414534392D343234342D423937372D4245414335334632313731452F636F72652E786D6C8D515B6EC32010BC8AC557AA0A1B3089E3081325957B825EC00192A0C460F1A872FC42ED48ED5F7E58343B333BDA65FBC7782FBE95F3DA9A0EE01281421961A536970EC470865B50EC3973D6863F34509861541DC830E0
310
ECE26C9C164858139409093556AA051CBC570114E29E3E1DF0E2AAC6A11C62480C7F2BA741DC868B2A7199DA89C7990F2E0528E621F905BC5FB7876D7B6CE0A1A72DA48452786C9B061EFBC3C7BAFE24B8C13DAB662167316AB9C8B54C71F4592BF7AA49167316F4F88C2F9C1A82928013846B880944ED17263B8C7664F38E
310
F00E215665FA3F519CE48BA2A84DA8C912779679C031ABE60667D2C6D3FD19463D26EB4291E7ADBC126F80A31261842959B7AC9AA96901C97343174F1FAC4B0B5EDD4E895D2FC61BCA59956F94CAEF0153CDF7E43F504B03041400060808004D6189431EA03FC35501000033030000300000006662782F4535394138394237
310
2D414534392D343234342D423937372D4245414335334632313731452F636E782E786D6CBD93CD6EC32010845F0571ADFC831359698489D4439FA0875E096C121A0C16E0AA79FB2E094973C9A152D50BB2668799D527CC375FA3259F10A2F16EA0AC6E2901A7BC366E3FD039EDAA15251BC183F7E9CE468993230C34CB54F0
310
7DF0F354240D3B39DB84AA35EE58C400D1CF41414439DF24D62B6931005C35A308E316B4064D6E46FCDA41C05550DC9E483A00797D79277EFB012A45DEE414C19BDC21783E4BD39D891265658C038DEA00A3ACE59CBC8678ACB54CB266F5B5EBC14E3F49245FB856CEC1905C3ED07C525136AA91236F7028784C01E915533A
310
4D40859C266B944C08B9391B2F1EC167E352BF2C5E83E003BA175DBF5A61D8792678322314870A2013682ABA962D2AD655EDF31BEBD6AC5D77FD53CBD66DCB9B6C177CEBBD2D973006829F88F22E814B5430DEE4F1237CC547B409C8DA87D32F402280D27AA173CBF84B3EAC5F2C97FFC8A739BF6FC415F02F10DF504B0304
310
1400060808004D61894358E408B2640700009A1B0000340000006662782F45353941383942372D414534392D343234342D423937372D4245414335334632313731452F6F626A656374732E786D6CED59DD739B3810FF5718EEE5EEC1D8C44E9ADC103A89DD743CBDB49DFADAB907CF3032C84417211849A4F1FDF5B7FA0003
310
3109BEE6DEFA6003425AEDFEF6534BF0F631A3CE03E682E4ECD2F5BD89EB6016E70961E9A55BCAEDE8DC75DE8601CF73D998E63A0C65F8D255C36E18A43C2F0B3B94E02D2AA9EC8CDE5CFFE5881833EC3A3145425CBA22BEC319F25029F3048B7B2F411279E9F6D1F33D33B14D36E5A8B8EB102D10C74C02A730CE808A6398
310
F2DB8F13771C0663F53E0CD4BF9D351D346BD63F6BACA56E7349989088C54F58EA90990E6269EACF16EF4E4E2F46A7B3D974343B3BF147D737D78B91FF663A999FCDE71757EF2E80BD4D9E532B53820BCC12D0DFCE0DFD60ACDED4A25B040E711DE78CE15803095069B1BA040916B05503BE49FBD15712355E6B091BCF33F5
310
DEB2D0189EB6A9F4CD1A06448B2E0862B7AB24AEAE4DF9F2CDDF20B81862945C6009DC0AC941BB161E0E5EE18693606C46C360B3D705114E8624E6045187920D471C940253D59430300B2C19E51C1C48394A02AD39F3BA6D5BE0992FBBCE212EB725A5CA33DC503B5604EE87A5D09C917F30DF73DF44067802694BC2E4B9E5
310
52EE0AEC8617C1580F8681BA4C4FEC4B03A4B3A528151A11F3B623E85CB9FE72E1861F6E368F2B150E0E6F5EF0BCC05C2AA3537AD47C8121DBAB42C96EEB0FD29C5A00C21850EDCA3D285F00F98F103DF6AC80DE38799C3DCEEC5CC91113DB9C67A01B67E28C26F037717CFDAFEE1B77C1B85EDCD65E1F9EE0A60AAAF31FC7
310
B32D83C6CAF2DF80330C1EC0E0733EB5AF5631A260CFB7840140CA481C9AC31084F6EDE6D10D97103821D0C32A44431F4406761FE036185B327BAD54EE65BD8E01A2768FE91025016CDA22818D1E3DBD87ECC149BC575353C43E784F5FC55CAF16AB0FAB926F518C6FAD4F2FF0963022216B1E66A885794BA27BBCFB9EF304
310
047D8AF7AA897766B71280B6C25C019F5620A887FDCEAD0D625897E62ADC042FEC0042A85CDDA07F4B448C29450CE765B56F1DDD94A1D61E6F6B06373C31104F4F3A26CCF10351550538CD7E468B51C8FB31278502D10DDF1BC9EAA0E9F548F775F9112CB29EDF336BC920F43244FFD441EB000E2DCBAE90B640D4026FF6E1
310
3CCE69CEA3CD2E3291CE855A02D8687BCBB7165188F546498A0A7890F6BB2AA4A446DA2821DB6D2920AE1E60F1DB72DE34878937F54F9DE67FC71967106DC17711B77ED7D92322194A71B44549DF76CDDD6ADA4293EC21CDF196825CE481C85D84643449707A0C344711BF7855EA29CD85200C0BC85707C16FA231F1209018
310
6D562C2BAD76802622CAB044F4180414991E7075DAD1356E0CA5C3CB3CD6D6FB9CC69A44FF278BE0086AC99C45044A51C8212F32EE7BA71043DAE81A943BF882B555B4B518B4841222DE45DF3149EFE431A81BF23DB8C77024296594172806B31E40F689AF28A57678DFA0F85EE58F282EE96B1988C0741B114ACB2C821F61
310
70F218E2DA75607A1685067113FB24CEA02843B2E44336393B9D3CD9C7D40CDD10D8D8684B2884ED2843450FEAAD80A8EB11A706DF52EF51EAA6CC8A086579C906198A37ED7A9325DF55AB223B905F552A42D95811B604C380305967D52A6683A9EBC00A6EA403D52E12282BA83985BD9078FCDA9B34E5DE0DB8F5D3D7DD20
310
83C2AF477BCD883AAB60B03CB60A03F11DC9F8CE0D57FA3ABA86FA3BC1C93ED557B566B30204C454242F39B12AFABA84F2C6D6686E788BA458BF3759B7BA7E5D7AD0FD08C6B0066A977AE152019D612691AA4C6ED50DFD822004B76898F1A5CAA9C750B94A125D35227A43FAD4D92A235A9B66C42BEE30CB33F8B13561312D
310
13BC4689B88F6E258D5644B16EA5F4325261FCAC809FDEAF3AF0C0C800913EAB020F7FEFACB5A373552E1D2422EFCA6CC3108120D8122D35BAF10A965A8D545AAEAFEA4C017517189855F1ECE7C9A2D98EF879B248AD61FCD0C9E27AF707DA35FB228D741E2BBB3EEA1850E72745E5358E01BAED5053ADB38849E6567EEB4C
310
1104C52ACA0FAEC6AAA06108F671FC9FB3765F1634DB75F83F2E6BFB4F2A8EA3B24A6BB2EA521DA85C97CD1C3699CE1637E727F3D19B9BB3D3D16C32BF195D2CCEDF8DA0F6999D4F6FAE16FEBBEB1A4DEDA8615007339DBBE0D904B56A583D590CA02B2B724A1238CD274E8A21E64B38D30F689FF30C0B489ECD6677629BF2
310
03563F983EA7441B8A2B4EEE103488A980B40E1895B16C8F3BBF406B52C241FBD285A691770F7FD62A5D0732CFA50BAD0249622CBC0DB49954434F138794AB73BF2506F82096AA946816D5CFF52A854D2BFCD75386A4012B57AB8701855B01DDAF568742F366798A8F12BC62C741126E37A5846ACDC8B21FA885D1DBECD56F
310
64A384DDDBAD1FC1759F17CBF7F49C1622833E193C6B0486EA48229EEA7EB762CCB274B5F83C863E9BB3FCE414B44C4197C3298D3806632E5541055604566169164882A9CE7F5F7FE6397CE2C91C5D1539BF3E9E9FFDB69EE759963333B4BE825359021F8A9CD51D7CF649D6503C60D55C17EB93897FB2D64D6DDB678F3648
310
604F5545305015134A908EC9815D3E6950D9F6E558A9A2337DB9706C10856680B1A3273D5EF391CB011F529F5394C7683FAFA47DB6AF3DD653C1263874A4C37F01504B03041400060800004D618943000000000000000000000000350000006662782F45353941383942372D414534392D343234342D423937372D42454143
310
35334632313731452F76657274696365732E62696E504B03041400060808004D618943F270F1330600000004000000360000006662782F45353941383942372D414534392D343234342D423937372D4245414335334632313731452F747269616E676C65732E62696E636660600000504B03041400060800004D6189430000
310
00000000000000000000370000006662782F45353941383942372D414534392D343234342D423937372D4245414335334632313731452F617474726962757465732E62696E504B03041400060808004D618943D5987DFC8F00000041010000360000006662782F45353941383942372D414534392D343234342D423937372D
310
4245414335334632313731452F6469726563746F72792E786D6C858F410EC2201045AF4266AF15DDB800BA74E7C21B903225242D6328188F2FA5C4183471359997F9FF81E89FF3C41E1816475E02DF1F80A11FC8386F25A438EECEC07A250251FC3803E6F58C12560C4AD840E95E91C151A72936F496F35732D860FE635F62
310
C8F2DA16B505C545B74125BAA2FA9E05D7CC053D063734D5C7665FD55B6B8D15D5E9BFEAFD8490FFA45E504B03041400060808004D618943FB34BF29FC000000A00100003B0000006662782F45353941383942372D414534392D343234342D423937372D4245414335334632313731452F7265736F75726365732F636F7265
310
2E786D6C8D50DB6A843010FD1599D7124DA2884ACCD2DDB65FD01F0871D6865D13C9A5F4F31B570BED5B5F668673610E479CBE967BF1893E18674760258502AD7693B1F308295E4907C5490AEF5CFC2583C2AA0547D8609062F62EAD07A49D8D686346AD9BF000550818A1D0F77C8C10F4072EAA54296645B895ABD2373563
310
C9CA4C679D1421FA1CA0D89F6C13A4C7E092D71844B5B352A464A64363A6FCD35C0D7A90CF97BEEF78D792BEEB5BD2D08693F3A566A47B79A5ECEDDCB45DDD8A6A334B11CDF293517B541127909CB29A304E68FFCEF8C0E8C0DB27CA064A45B5C9FF98D23AFDD3948C8D353FE2EEB60092E5200F428A6AEB2BAF4799796FDD
310
CA6F504B010214000A00000800004D6189433DEE336E79000000790000001B00000000000000000000000000000000006175746F6465736B2D64657369676E2D7061636B6167652E786D6C504B010214001400060808004D618943D486FD9CA0000000F40000001300000000000000000000000000B20000005B436F6E7465
310
6E745F54797065735D2E786D6C504B010214001400060808004D618943E89F91B1EA0000007C010000080000000000000000000000000083010000636F72652E786D6C504B010214001400060808004D61894355019EA25F0000007C000000070000000000000000000000000093020000636E782E786D6C504B0102140014
310
00060808004D618943245A7E7C67010000020300000C00000000000000000000000000170300006662782F636F72652E786D6C504B010214001400060808004D6189430F5A673E7D0000009D0000000B00000000000000000000000000A80400006662782F636E782E786D6C504B010214001400060808004D6189438E1A3F
310
052B0100001402000031000000000000000000000000004E0500006662782F45353941383942372D414534392D343234342D423937372D4245414335334632313731452F636F72652E786D6C504B010214001400060808004D6189431EA03FC355010000330300003000000000000000000000000000C80600006662782F45
310
353941383942372D414534392D343234342D423937372D4245414335334632313731452F636E782E786D6C504B010214001400060808004D61894358E408B2640700009A1B000034000000000000000000000000006B0800006662782F45353941383942372D414534392D343234342D423937372D42454143353346323137
310
31452F6F626A656374732E786D6C504B010214001400060800004D6189430000000000000000000000003500000000000000000000000000211000006662782F45353941383942372D414534392D343234342D423937372D4245414335334632313731452F76657274696365732E62696E504B010214001400060808004D61
310
8943F270F13306000000040000003600000000000000000000000000741000006662782F45353941383942372D414534392D343234342D423937372D4245414335334632313731452F747269616E676C65732E62696E504B010214001400060800004D61894300000000000000000000000037000000000000000000000000
310
00CE1000006662782F45353941383942372D414534392D343234342D423937372D4245414335334632313731452F617474726962757465732E62696E504B010214001400060808004D618943D5987DFC8F000000410100003600000000000000000000000000231100006662782F45353941383942372D414534392D343234
310
342D423937372D4245414335334632313731452F6469726563746F72792E786D6C504B010214001400060808004D618943FB34BF29FC000000A00100003B00000000000000000000000000061200006662782F45353941383942372D414534392D343234342D423937372D4245414335334632313731452F7265736F757263
310
65732F636F72652E786D6C504B0506000000000E000E00800400005B1300000000
  0
XRECORD
  5
17
102
{ACAD_REACTORS
330
12
102
}
330
12
100
AcDbXrecord
280
     1
270
     1
271
     1
  0
XRECORD
  5
16
102
{ACAD_REACTORS
330
12
102
}
330
12
100
AcDbXrecord
280
     1
270
     1
271
     1
  0
XRECORD
  5
18
102
{ACAD_REACTORS
330
12
102
}
330
12
100
AcDbXrecord
280
     1
270
     1
271
     1
  0
XRECORD
  5
15
102
{ACAD_REACTORS
330
12
102
}
330
12
100
AcDbXrecord
280
     1
270
     1
271
     1
  0
XRECORD
  5
75B
102
{ACAD_REACTORS
330
22
102
}
330
22
100
AcDbXrecord
280
     1
102
MATERIAL
148
0.0
149
0.0
149
0.0
 93
        0
 94
      127
282
     0
 72
     0
 77
     0
171
     0
175
     0
179
     0
273
     0
  0
XRECORD
  5
24
102
{ACAD_REACTORS
330
22
102
}
330
22
100
AcDbXrecord
280
     1
270
     1
271
     1
  0
XRECORD
  5
23
102
{ACAD_REACTORS
330
22
102
}
330
22
100
AcDbXrecord
280
     1
270
     1
271
     1
  0
XRECORD
  5
27
102
{ACAD_REACTORS
330
22
102
}
330
22
100
AcDbXrecord
280
     1
270
     1
271
     1
  0
XRECORD
  5
26
102
{ACAD_REACTORS
330
22
102
}
330
22
100
AcDbXrecord
280
     1
270
     1
271
     1
  0
XRECORD
  5
28
102
{ACAD_REACTORS
330
22
102
}
330
22
100
AcDbXrecord
280
     1
270
     1
271
     1
  0
XRECORD
  5
25
102
{ACAD_REACTORS
330
22
102
}
330
22
100
AcDbXrecord
280
     1
270
     1
271
     1
  0
XRECORD
  5
757
102
{ACAD_REACTORS
330
756
102
}
330
756
100
AcDbXrecord
280
     1
102
ACAD_ROUNDTRIP_2012_MLEADER_STYLE
298
     1
  0
CELLSTYLEMAP
  5
755
102
{ACAD_REACTORS
330
754
102
}
330
754
100
AcDbCellStyleMap
 90
        3
300
CELLSTYLE
  1
TABLEFORMAT_BEGIN
 90
        5
170
     1
 91
        0
 92
    32768
 62
   257
 93
        1
300
CONTENTFORMAT
  1
CONTENTFORMAT_BEGIN
 90
        0
 91
        0
 92
      512
 93
        0
300

 40
0.0
140
1.0
 94
        5
 62
     0
340
55
144
0.25
309
CONTENTFORMAT_END
171
     0
 94
        0
309
TABLEFORMAT_END
  1
CELLSTYLE_BEGIN
 90
        1
 91
        1
300
_TITLE
309
CELLSTYLE_END
300
CELLSTYLE
  1
TABLEFORMAT_BEGIN
 90
        5
170
     1
 91
        0
 92
        0
 62
   257
 93
        1
300
CONTENTFORMAT
  1
CONTENTFORMAT_BEGIN
 90
        0
 91
        0
 92
      512
 93
        0
300

 40
0.0
140
1.0
 94
        5
 62
     0
340
55
144
0.18
309
CONTENTFORMAT_END
171
     0
 94
        0
309
TABLEFORMAT_END
  1
CELLSTYLE_BEGIN
 90
        2
 91
        1
300
_HEADER
309
CELLSTYLE_END
300
CELLSTYLE
  1
TABLEFORMAT_BEGIN
 90
        5
170
     1
 91
        0
 92
        0
 62
   257
 93
        1
300
CONTENTFORMAT
  1
CONTENTFORMAT_BEGIN
 90
        0
 91
        0
 92
      512
 93
        0
300

 40
0.0
140
1.0
 94
        2
 62
     0
340
55
144
0.18
309
CONTENTFORMAT_END
171
     0
 94
        0
309
TABLEFORMAT_END
  1
CELLSTYLE_BEGIN
 90
        3
 91
        2
300
_DATA
309
CELLSTYLE_END
  0
XRECORD
  5
78C
102
{ACAD_REACTORS
330
754
102
}
330
754
100
AcDbXrecord
280
     1
102
ACAD_ROUNDTRIP_PRE2007_TABLESTYLE
 90
      512
 91
        0
  1

 92
      512
 93
        0
  2

 94
      512
 95
        0
  3

  0
XRECORD
  5
767
102
{ACAD_REACTORS
330
766
102
}
330
766
100
AcDbXrecord
280
     1
102
RTVSPropertyOp0
 70
     1
102
RTVSPropertyOp1
 70
     1
102
RTVSPropertyOp2
 70
     1
102
RTVSPropertyOp3
 70
     1
102
RTVSPropertyOp4
 70
     1
102
RTVSPropertyOp5
 70
     1
102
RTVSPropertyOp6
 70
     1
102
RTVSPropertyOp7
 70
     1
102
RTVSPropertyOp8
 70
     1
102
RTVSPropertyOp9
 70
     1
102
RTVSPropertyOp10
 70
     1
102
RTVSPropertyOp11
 70
     1
102
RTVSPropertyOp12
 70
     1
102
RTVSPropertyOp13
 70
     1
102
RTVSPropertyOp14
 70
     1
102
RTVSPropertyOp15
 70
     1
102
RTVSPropertyOp16
 70
     1
102
RTVSPropertyOp17
 70
     1
102
RTVSPropertyOp18
 70
     1
102
RTVSPropertyOp19
 70
     1
102
RTVSPropertyOp20
 70
     1
102
RTVSPropertyOp21
 70
     1
102
RTVSPropertyOp22
 70
     1
102
RTVSPropertyOp23
 70
     1
102
RTVSPropertyOp24
 70
     1
102
RTVSPropertyOp25
 70
     1
102
RTVSPropertyOp26
 70
     1
102
RTVSPropertyOp27
 70
     1
102
RTVSPropertyOp28
 70
     1
102
RTVSPropertyOp29
 70
     1
102
RTVSPropertyOp30
 70
     1
102
RTVSPropertyOp31
 70
     1
102
RTVSPropertyOp32
 70
     1
  0
XRECORD
  5
765
102
{ACAD_REACTORS
330
764
102
}
330
764
100
AcDbXrecord
280
     1
102
RTVSPropertyOp0
 70
     1
102
RTVSPropertyOp1
 70
     1
102
RTVSPropertyOp2
 70
     1
102
RTVSPropertyOp3
 70
     1
102
RTVSPropertyOp4
 70
     1
102
RTVSPropertyOp5
 70
     1
102
RTVSPropertyOp6
 70
     1
102
RTVSPropertyOp7
 70
     1
102
RTVSPropertyOp8
 70
     1
102
RTVSPropertyOp9
 70
     1
102
RTVSPropertyOp10
 70
     1
102
RTVSPropertyOp11
 70
     1
102
RTVSPropertyOp12
 70
     1
102
RTVSPropertyOp13
 70
     1
102
RTVSPropertyOp14
 70
     1
102
RTVSPropertyOp15
 70
     1
102
RTVSPropertyOp16
 70
     1
102
RTVSPropertyOp17
 70
     1
102
RTVSPropertyOp18
 70
     1
102
RTVSPropertyOp19
 70
     1
102
RTVSPropertyOp20
 70
     1
102
RTVSPropertyOp21
 70
     1
102
RTVSPropertyOp22
 70
     1
102
RTVSPropertyOp23
 70
     1
102
RTVSPropertyOp24
 70
     1
102
RTVSPropertyOp25
 70
     1
102
RTVSPropertyOp26
 70
     1
102
RTVSPropertyOp27
 70
     1
102
RTVSPropertyOp28
 70
     1
102
RTVSPropertyOp29
 70
     1
102
RTVSPropertyOp30
 70
     1
102
RTVSPropertyOp31
 70
     1
102
RTVSPropertyOp32
 70
     1
  0
XRECORD
  5
773
102
{ACAD_REACTORS
330
772
102
}
330
772
100
AcDbXrecord
280
     1
102
RTVSPropertyOp0
 70
     1
102
RTVSPropertyOp1
 70
     1
102
RTVSPropertyOp2
 70
     1
102
RTVSPropertyOp3
 70
     1
102
RTVSPropertyOp4
 70
     1
102
RTVSPropertyOp5
 70
     1
102
RTVSPropertyOp6
 70
     1
102
RTVSPropertyOp7
 70
     1
102
RTVSPropertyOp8
 70
     1
102
RTVSPropertyOp9
 70
     1
102
RTVSPropertyOp10
 70
     1
102
RTVSPropertyOp11
 70
     1
102
RTVSPropertyOp12
 70
     1
102
RTVSPropertyOp13
 70
     1
102
RTVSPropertyOp14
 70
     1
102
RTVSPropertyOp15
 70
     1
102
RTVSPropertyOp16
 70
     1
102
RTVSPropertyOp17
 70
     1
102
RTVSPropertyOp18
 70
     1
102
RTVSPropertyOp19
 70
     1
102
RTVSPropertyOp20
 70
     1
102
RTVSPropertyOp21
 70
     1
102
RTVSPropertyOp22
 70
     1
102
RTVSPropertyOp23
 70
     1
102
RTVSPropertyOp24
 70
     1
102
RTVSPropertyOp25
 70
     1
102
RTVSPropertyOp26
 70
     1
102
RTVSPropertyOp27
 70
     1
102
RTVSPropertyOp28
 70
     1
102
RTVSPropertyOp29
 70
     1
102
RTVSPropertyOp30
 70
     1
102
RTVSPropertyOp31
 70
     1
102
RTVSPropertyOp32
 70
     1
  0
XRECORD
  5
77B
102
{ACAD_REACTORS
330
77A
102
}
330
77A
100
AcDbXrecord
280
     1
102
RTVSPropertyOp0
 70
     1
102
RTVSPropertyOp1
 70
     1
102
RTVSPropertyOp2
 70
     1
102
RTVSPropertyOp3
 70
     1
102
RTVSPropertyOp4
 70
     1
102
RTVSPropertyOp5
 70
     1
102
RTVSPropertyOp6
 70
     1
102
RTVSPropertyOp7
 70
     1
102
RTVSPropertyOp8
 70
     1
102
RTVSPropertyOp9
 70
     1
102
RTVSPropertyOp10
 70
     1
102
RTVSPropertyOp11
 70
     1
102
RTVSPropertyOp12
 70
     1
102
RTVSPropertyOp13
 70
     1
102
RTVSPropertyOp14
 70
     1
102
RTVSPropertyOp15
 70
     1
102
RTVSPropertyOp16
 70
     1
102
RTVSPropertyOp17
 70
     1
102
RTVSPropertyOp18
 70
     1
102
RTVSPropertyOp19
 70
     1
102
RTVSPropertyOp20
 70
     1
102
RTVSPropertyOp21
 70
     1
102
RTVSPropertyOp22
 70
     1
102
RTVSPropertyOp23
 70
     1
102
RTVSPropertyOp24
 70
     1
102
RTVSPropertyOp25
 70
     1
102
RTVSPropertyOp26
 70
     1
102
RTVSPropertyOp27
 70
     1
102
RTVSPropertyOp28
 70
     1
102
RTVSPropertyOp29
 70
     1
102
RTVSPropertyOp30
 70
     1
102
RTVSPropertyOp31
 70
     1
102
RTVSPropertyOp32
 70
     1
  0
XRECORD
  5
76D
102
{ACAD_REACTORS
330
76C
102
}
330
76C
100
AcDbXrecord
280
     1
102
RTVSPropertyOp0
 70
     1
102
RTVSPropertyOp1
 70
     1
102
RTVSPropertyOp2
 70
     1
102
RTVSPropertyOp3
 70
     1
102
RTVSPropertyOp4
 70
     1
102
RTVSPropertyOp5
 70
     1
102
RTVSPropertyOp6
 70
     1
102
RTVSPropertyOp7
 70
     1
102
RTVSPropertyOp8
 70
     1
102
RTVSPropertyOp9
 70
     1
102
RTVSPropertyOp10
 70
     1
102
RTVSPropertyOp11
 70
     1
102
RTVSPropertyOp12
 70
     1
102
RTVSPropertyOp13
 70
     1
102
RTVSPropertyOp14
 70
     1
102
RTVSPropertyOp15
 70
     1
102
RTVSPropertyOp16
 70
     1
102
RTVSPropertyOp17
 70
     1
102
RTVSPropertyOp18
 70
     1
102
RTVSPropertyOp19
 70
     1
102
RTVSPropertyOp20
 70
     1
102
RTVSPropertyOp21
 70
     1
102
RTVSPropertyOp22
 70
     1
102
RTVSPropertyOp23
 70
     1
102
RTVSPropertyOp24
 70
     1
102
RTVSPropertyOp25
 70
     1
102
RTVSPropertyOp26
 70
     1
102
RTVSPropertyOp27
 70
     1
102
RTVSPropertyOp28
 70
     1
102
RTVSPropertyOp29
 70
     1
102
RTVSPropertyOp30
 70
     1
102
RTVSPropertyOp31
 70
     1
102
RTVSPropertyOp32
 70
     1
  0
XRECORD
  5
771
102
{ACAD_REACTORS
330
770
102
}
330
770
100
AcDbXrecord
280
     1
102
RTVSPropertyOp0
 70
     1
102
RTVSPropertyOp1
 70
     1
102
RTVSPropertyOp2
 70
     1
102
RTVSPropertyOp3
 70
     1
102
RTVSPropertyOp4
 70
     1
102
RTVSPropertyOp5
 70
     1
102
RTVSPropertyOp6
 70
     1
102
RTVSPropertyOp7
 70
     1
102
RTVSPropertyOp8
 70
     1
102
RTVSPropertyOp9
 70
     1
102
RTVSPropertyOp10
 70
     1
102
RTVSPropertyOp11
 70
     1
102
RTVSPropertyOp12
 70
     1
102
RTVSPropertyOp13
 70
     1
102
RTVSPropertyOp14
 70
     1
102
RTVSPropertyOp15
 70
     1
102
RTVSPropertyOp16
 70
     1
102
RTVSPropertyOp17
 70
     1
102
RTVSPropertyOp18
 70
     1
102
RTVSPropertyOp19
 70
     1
102
RTVSPropertyOp20
 70
     1
102
RTVSPropertyOp21
 70
     1
102
RTVSPropertyOp22
 70
     1
102
RTVSPropertyOp23
 70
     1
102
RTVSPropertyOp24
 70
     1
102
RTVSPropertyOp25
 70
     1
102
RTVSPropertyOp26
 70
     1
102
RTVSPropertyOp27
 70
     1
102
RTVSPropertyOp28
 70
     1
102
RTVSPropertyOp29
 70
     1
102
RTVSPropertyOp30
 70
     1
102
RTVSPropertyOp31
 70
     1
102
RTVSPropertyOp32
 70
     1
  0
XRECORD
  5
78B
102
{ACAD_REACTORS
330
78A
102
}
330
78A
100
AcDbXrecord
280
     1
102
RTVSPropertyOp0
 70
     0
102
RTVSPropertyOp1
 70
     0
102
RTVSPropertyOp2
 70
     0
102
RTVSPropertyOp3
 70
     0
102
RTVSPropertyOp4
 70
     0
102
RTVSPropertyOp5
 70
     0
102
RTVSPropertyOp6
 70
     0
102
RTVSPropertyOp7
 70
     0
102
RTVSPropertyOp8
 70
     0
102
RTVSPropertyOp9
 70
     0
102
RTVSPropertyOp10
 70
     0
102
RTVSPropertyOp11
 70
     0
102
RTVSPropertyOp12
 70
     0
102
RTVSPropertyOp13
 70
     0
102
RTVSPropertyOp14
 70
     2
102
RTVSPropertyOp15
 70
     0
102
RTVSPropertyOp16
 70
     0
102
RTVSPropertyOp17
 70
     0
102
RTVSPropertyOp18
 70
     0
102
RTVSPropertyOp19
 70
     0
102
RTVSPropertyOp20
 70
     0
102
RTVSPropertyOp21
 70
     0
102
RTVSPropertyOp22
 70
     0
102
RTVSPropertyOp23
 70
     0
102
RTVSPropertyOp24
 70
     0
102
RTVSPropertyOp25
 70
     0
102
RTVSPropertyOp26
 70
     0
102
RTVSPropertyOp27
 70
     0
102
RTVSPropertyOp28
 70
     0
102
RTVSPropertyOp29
 70
     0
102
RTVSPropertyOp30
 70
     0
102
RTVSPropertyOp31
 70
     0
102
RTVSPropertyOp32
 70
     0
  0
XRECORD
  5
779
102
{ACAD_REACTORS
330
778
102
}
330
778
100
AcDbXrecord
280
     1
102
RTVSPropertyOp0
 70
     1
102
RTVSPropertyOp1
 70
     1
102
RTVSPropertyOp2
 70
     1
102
RTVSPropertyOp3
 70
     1
102
RTVSPropertyOp4
 70
     1
102
RTVSPropertyOp5
 70
     1
102
RTVSPropertyOp6
 70
     1
102
RTVSPropertyOp7
 70
     1
102
RTVSPropertyOp8
 70
     1
102
RTVSPropertyOp9
 70
     1
102
RTVSPropertyOp10
 70
     1
102
RTVSPropertyOp11
 70
     1
102
RTVSPropertyOp12
 70
     1
102
RTVSPropertyOp13
 70
     1
102
RTVSPropertyOp14
 70
     1
102
RTVSPropertyOp15
 70
     1
102
RTVSPropertyOp16
 70
     1
102
RTVSPropertyOp17
 70
     1
102
RTVSPropertyOp18
 70
     1
102
RTVSPropertyOp19
 70
     1
102
RTVSPropertyOp20
 70
     1
102
RTVSPropertyOp21
 70
     1
102
RTVSPropertyOp22
 70
     1
102
RTVSPropertyOp23
 70
     1
102
RTVSPropertyOp24
 70
     1
102
RTVSPropertyOp25
 70
     1
102
RTVSPropertyOp26
 70
     1
102
RTVSPropertyOp27
 70
     1
102
RTVSPropertyOp28
 70
     1
102
RTVSPropertyOp29
 70
     1
102
RTVSPropertyOp30
 70
     1
102
RTVSPropertyOp31
 70
     1
102
RTVSPropertyOp32
 70
     1
  0
XRECORD
  5
75D
102
{ACAD_REACTORS
330
75C
102
}
330
75C
100
AcDbXrecord
280
     1
102
RTVSPropertyOp0
 70
     1
102
RTVSPropertyOp1
 70
     1
102
RTVSPropertyOp2
 70
     1
102
RTVSPropertyOp3
 70
     1
102
RTVSPropertyOp4
 70
     1
102
RTVSPropertyOp5
 70
     1
102
RTVSPropertyOp6
 70
     1
102
RTVSPropertyOp7
 70
     1
102
RTVSPropertyOp8
 70
     1
102
RTVSPropertyOp9
 70
     1
102
RTVSPropertyOp10
 70
     1
102
RTVSPropertyOp11
 70
     1
102
RTVSPropertyOp12
 70
     1
102
RTVSPropertyOp13
 70
     1
102
RTVSPropertyOp14
 70
     1
102
RTVSPropertyOp15
 70
     1
102
RTVSPropertyOp16
 70
     1
102
RTVSPropertyOp17
 70
     1
102
RTVSPropertyOp18
 70
     1
102
RTVSPropertyOp19
 70
     1
102
RTVSPropertyOp20
 70
     1
102
RTVSPropertyOp21
 70
     1
102
RTVSPropertyOp22
 70
     1
102
RTVSPropertyOp23
 70
     1
102
RTVSPropertyOp24
 70
     1
102
RTVSPropertyOp25
 70
     1
102
RTVSPropertyOp26
 70
     1
102
RTVSPropertyOp27
 70
     1
102
RTVSPropertyOp28
 70
     1
102
RTVSPropertyOp29
 70
     1
102
RTVSPropertyOp30
 70
     1
102
RTVSPropertyOp31
 70
     1
102
RTVSPropertyOp32
 70
     1
  0
XRECORD
  5
75F
102
{ACAD_REACTORS
330
75E
102
}
330
75E
100
AcDbXrecord
280
     1
102
RTVSPropertyOp0
 70
     1
102
RTVSPropertyOp1
 70
     1
102
RTVSPropertyOp2
 70
     1
102
RTVSPropertyOp3
 70
     1
102
RTVSPropertyOp4
 70
     1
102
RTVSPropertyOp5
 70
     1
102
RTVSPropertyOp6
 70
     1
102
RTVSPropertyOp7
 70
     1
102
RTVSPropertyOp8
 70
     1
102
RTVSPropertyOp9
 70
     1
102
RTVSPropertyOp10
 70
     1
102
RTVSPropertyOp11
 70
     1
102
RTVSPropertyOp12
 70
     1
102
RTVSPropertyOp13
 70
     1
102
RTVSPropertyOp14
 70
     1
102
RTVSPropertyOp15
 70
     1
102
RTVSPropertyOp16
 70
     1
102
RTVSPropertyOp17
 70
     1
102
RTVSPropertyOp18
 70
     1
102
RTVSPropertyOp19
 70
     1
102
RTVSPropertyOp20
 70
     1
102
RTVSPropertyOp21
 70
     1
102
RTVSPropertyOp22
 70
     1
102
RTVSPropertyOp23
 70
     1
102
RTVSPropertyOp24
 70
     1
102
RTVSPropertyOp25
 70
     1
102
RTVSPropertyOp26
 70
     1
102
RTVSPropertyOp27
 70
     1
102
RTVSPropertyOp28
 70
     1
102
RTVSPropertyOp29
 70
     1
102
RTVSPropertyOp30
 70
     1
102
RTVSPropertyOp31
 70
     1
102
RTVSPropertyOp32
 70
     1
  0
XRECORD
  5
761
102
{ACAD_REACTORS
330
760
102
}
330
760
100
AcDbXrecord
280
     1
102
RTVSPropertyOp0
 70
     1
102
RTVSPropertyOp1
 70
     1
102
RTVSPropertyOp2
 70
     1
102
RTVSPropertyOp3
 70
     1
102
RTVSPropertyOp4
 70
     1
102
RTVSPropertyOp5
 70
     1
102
RTVSPropertyOp6
 70
     1
102
RTVSPropertyOp7
 70
     1
102
RTVSPropertyOp8
 70
     1
102
RTVSPropertyOp9
 70
     1
102
RTVSPropertyOp10
 70
     1
102
RTVSPropertyOp11
 70
     1
102
RTVSPropertyOp12
 70
     1
102
RTVSPropertyOp13
 70
     1
102
RTVSPropertyOp14
 70
     1
102
RTVSPropertyOp15
 70
     1
102
RTVSPropertyOp16
 70
     1
102
RTVSPropertyOp17
 70
     1
102
RTVSPropertyOp18
 70
     1
102
RTVSPropertyOp19
 70
     1
102
RTVSPropertyOp20
 70
     1
102
RTVSPropertyOp21
 70
     1
102
RTVSPropertyOp22
 70
     1
102
RTVSPropertyOp23
 70
     1
102
RTVSPropertyOp24
 70
     1
102
RTVSPropertyOp25
 70
     1
102
RTVSPropertyOp26
 70
     1
102
RTVSPropertyOp27
 70
     1
102
RTVSPropertyOp28
 70
     1
102
RTVSPropertyOp29
 70
     1
102
RTVSPropertyOp30
 70
     1
102
RTVSPropertyOp31
 70
     1
102
RTVSPropertyOp32
 70
     1
  0
XRECORD
  5
763
102
{ACAD_REACTORS
330
762
102
}
330
762
100
AcDbXrecord
280
     1
102
RTVSPropertyOp0
 70
     1
102
RTVSPropertyOp1
 70
     1
102
RTVSPropertyOp2
 70
     1
102
RTVSPropertyOp3
 70
     1
102
RTVSPropertyOp4
 70
     1
102
RTVSPropertyOp5
 70
     1
102
RTVSPropertyOp6
 70
     1
102
RTVSPropertyOp7
 70
     1
102
RTVSPropertyOp8
 70
     1
102
RTVSPropertyOp9
 70
     1
102
RTVSPropertyOp10
 70
     1
102
RTVSPropertyOp11
 70
     1
102
RTVSPropertyOp12
 70
     1
102
RTVSPropertyOp13
 70
     1
102
RTVSPropertyOp14
 70
     1
102
RTVSPropertyOp15
 70
     1
102
RTVSPropertyOp16
 70
     1
102
RTVSPropertyOp17
 70
     1
102
RTVSPropertyOp18
 70
     1
102
RTVSPropertyOp19
 70
     1
102
RTVSPropertyOp20
 70
     1
102
RTVSPropertyOp21
 70
     1
102
RTVSPropertyOp22
 70
     1
102
RTVSPropertyOp23
 70
     1
102
RTVSPropertyOp24
 70
     1
102
RTVSPropertyOp25
 70
     1
102
RTVSPropertyOp26
 70
     1
102
RTVSPropertyOp27
 70
     1
102
RTVSPropertyOp28
 70
     1
102
RTVSPropertyOp29
 70
     1
102
RTVSPropertyOp30
 70
     1
102
RTVSPropertyOp31
 70
     1
102
RTVSPropertyOp32
 70
     1
  0
XRECORD
  5
76B
102
{ACAD_REACTORS
330
76A
102
}
330
76A
100
AcDbXrecord
280
     1
102
RTVSPropertyOp0
 70
     1
102
RTVSPropertyOp1
 70
     1
102
RTVSPropertyOp2
 70
     1
102
RTVSPropertyOp3
 70
     1
102
RTVSPropertyOp4
 70
     1
102
RTVSPropertyOp5
 70
     1
102
RTVSPropertyOp6
 70
     1
102
RTVSPropertyOp7
 70
     1
102
RTVSPropertyOp8
 70
     1
102
RTVSPropertyOp9
 70
     1
102
RTVSPropertyOp10
 70
     1
102
RTVSPropertyOp11
 70
     1
102
RTVSPropertyOp12
 70
     1
102
RTVSPropertyOp13
 70
     1
102
RTVSPropertyOp14
 70
     1
102
RTVSPropertyOp15
 70
     1
102
RTVSPropertyOp16
 70
     1
102
RTVSPropertyOp17
 70
     1
102
RTVSPropertyOp18
 70
     1
102
RTVSPropertyOp19
 70
     1
102
RTVSPropertyOp20
 70
     1
102
RTVSPropertyOp21
 70
     1
102
RTVSPropertyOp22
 70
     1
102
RTVSPropertyOp23
 70
     1
102
RTVSPropertyOp24
 70
     1
102
RTVSPropertyOp25
 70
     1
102
RTVSPropertyOp26
 70
     1
102
RTVSPropertyOp27
 70
     1
102
RTVSPropertyOp28
 70
     1
102
RTVSPropertyOp29
 70
     1
102
RTVSPropertyOp30
 70
     1
102
RTVSPropertyOp31
 70
     1
102
RTVSPropertyOp32
 70
     1
  0
XRECORD
  5
787
102
{ACAD_REACTORS
330
786
102
}
330
786
100
AcDbXrecord
280
     1
102
RTVSPropertyOp0
 70
     0
102
RTVSPropertyOp1
 70
     0
102
RTVSPropertyOp2
 70
     0
102
RTVSPropertyOp3
 70
     0
102
RTVSPropertyOp4
 70
     0
102
RTVSPropertyOp5
 70
     0
102
RTVSPropertyOp6
 70
     0
102
RTVSPropertyOp7
 70
     0
102
RTVSPropertyOp8
 70
     0
102
RTVSPropertyOp9
 70
     0
102
RTVSPropertyOp10
 70
     0
102
RTVSPropertyOp11
 70
     0
102
RTVSPropertyOp12
 70
     0
102
RTVSPropertyOp13
 70
     0
102
RTVSPropertyOp14
 70
     2
102
RTVSPropertyOp15
 70
     0
102
RTVSPropertyOp16
 70
     0
102
RTVSPropertyOp17
 70
     0
102
RTVSPropertyOp18
 70
     0
102
RTVSPropertyOp19
 70
     0
102
RTVSPropertyOp20
 70
     0
102
RTVSPropertyOp21
 70
     0
102
RTVSPropertyOp22
 70
     0
102
RTVSPropertyOp23
 70
     0
102
RTVSPropertyOp24
 70
     0
102
RTVSPropertyOp25
 70
     0
102
RTVSPropertyOp26
 70
     0
102
RTVSPropertyOp27
 70
     0
102
RTVSPropertyOp28
 70
     0
102
RTVSPropertyOp29
 70
     0
102
RTVSPropertyOp30
 70
     0
102
RTVSPropertyOp31
 70
     0
102
RTVSPropertyOp32
 70
     0
  0
XRECORD
  5
777
102
{ACAD_REACTORS
330
776
102
}
330
776
100
AcDbXrecord
280
     1
102
RTVSPropertyOp0
 70
     1
102
RTVSPropertyOp1
 70
     1
102
RTVSPropertyOp2
 70
     1
102
RTVSPropertyOp3
 70
     1
102
RTVSPropertyOp4
 70
     1
102
RTVSPropertyOp5
 70
     1
102
RTVSPropertyOp6
 70
     1
102
RTVSPropertyOp7
 70
     1
102
RTVSPropertyOp8
 70
     1
102
RTVSPropertyOp9
 70
     1
102
RTVSPropertyOp10
 70
     1
102
RTVSPropertyOp11
 70
     1
102
RTVSPropertyOp12
 70
     1
102
RTVSPropertyOp13
 70
     1
102
RTVSPropertyOp14
 70
     1
102
RTVSPropertyOp15
 70
     1
102
RTVSPropertyOp16
 70
     1
102
RTVSPropertyOp17
 70
     1
102
RTVSPropertyOp18
 70
     1
102
RTVSPropertyOp19
 70
     1
102
RTVSPropertyOp20
 70
     1
102
RTVSPropertyOp21
 70
     1
102
RTVSPropertyOp22
 70
     1
102
RTVSPropertyOp23
 70
     1
102
RTVSPropertyOp24
 70
     1
102
RTVSPropertyOp25
 70
     1
102
RTVSPropertyOp26
 70
     1
102
RTVSPropertyOp27
 70
     1
102
RTVSPropertyOp28
 70
     1
102
RTVSPropertyOp29
 70
     1
102
RTVSPropertyOp30
 70
     1
102
RTVSPropertyOp31
 70
     1
102
RTVSPropertyOp32
 70
     1
  0
XRECORD
  5
789
102
{ACAD_REACTORS
330
788
102
}
330
788
100
AcDbXrecord
280
     1
102
RTVSPropertyOp0
 70
     0
102
RTVSPropertyOp1
 70
     0
102
RTVSPropertyOp2
 70
     0
102
RTVSPropertyOp3
 70
     0
102
RTVSPropertyOp4
 70
     0
102
RTVSPropertyOp5
 70
     0
102
RTVSPropertyOp6
 70
     0
102
RTVSPropertyOp7
 70
     0
102
RTVSPropertyOp8
 70
     0
102
RTVSPropertyOp9
 70
     0
102
RTVSPropertyOp10
 70
     0
102
RTVSPropertyOp11
 70
     0
102
RTVSPropertyOp12
 70
     0
102
RTVSPropertyOp13
 70
     0
102
RTVSPropertyOp14
 70
     2
102
RTVSPropertyOp15
 70
     0
102
RTVSPropertyOp16
 70
     0
102
RTVSPropertyOp17
 70
     0
102
RTVSPropertyOp18
 70
     0
102
RTVSPropertyOp19
 70
     0
102
RTVSPropertyOp20
 70
     0
102
RTVSPropertyOp21
 70
     0
102
RTVSPropertyOp22
 70
     0
102
RTVSPropertyOp23
 70
     0
102
RTVSPropertyOp24
 70
     0
102
RTVSPropertyOp25
 70
     0
102
RTVSPropertyOp26
 70
     0
102
RTVSPropertyOp27
 70
     0
102
RTVSPropertyOp28
 70
     0
102
RTVSPropertyOp29
 70
     0
102
RTVSPropertyOp30
 70
     0
102
RTVSPropertyOp31
 70
     0
102
RTVSPropertyOp32
 70
     0
  0
XRECORD
  5
76F
102
{ACAD_REACTORS
330
76E
102
}
330
76E
100
AcDbXrecord
280
     1
102
RTVSPropertyOp0
 70
     1
102
RTVSPropertyOp1
 70
     1
102
RTVSPropertyOp2
 70
     1
102
RTVSPropertyOp3
 70
     1
102
RTVSPropertyOp4
 70
     1
102
RTVSPropertyOp5
 70
     1
102
RTVSPropertyOp6
 70
     1
102
RTVSPropertyOp7
 70
     1
102
RTVSPropertyOp8
 70
     1
102
RTVSPropertyOp9
 70
     1
102
RTVSPropertyOp10
 70
     1
102
RTVSPropertyOp11
 70
     1
102
RTVSPropertyOp12
 70
     1
102
RTVSPropertyOp13
 70
     1
102
RTVSPropertyOp14
 70
     1
102
RTVSPropertyOp15
 70
     1
102
RTVSPropertyOp16
 70
     1
102
RTVSPropertyOp17
 70
     1
102
RTVSPropertyOp18
 70
     1
102
RTVSPropertyOp19
 70
     1
102
RTVSPropertyOp20
 70
     1
102
RTVSPropertyOp21
 70
     1
102
RTVSPropertyOp22
 70
     1
102
RTVSPropertyOp23
 70
     1
102
RTVSPropertyOp24
 70
     1
102
RTVSPropertyOp25
 70
     1
102
RTVSPropertyOp26
 70
     1
102
RTVSPropertyOp27
 70
     1
102
RTVSPropertyOp28
 70
     1
102
RTVSPropertyOp29
 70
     1
102
RTVSPropertyOp30
 70
     1
102
RTVSPropertyOp31
 70
     1
102
RTVSPropertyOp32
 70
     1
  0
XRECORD
  5
785
102
{ACAD_REACTORS
330
784
102
}
330
784
100
AcDbXrecord
280
     1
102
RTVSPropertyOp0
 70
     1
102
RTVSPropertyOp1
 70
     1
102
RTVSPropertyOp2
 70
     1
102
RTVSPropertyOp3
 70
     1
102
RTVSPropertyOp4
 70
     1
102
RTVSPropertyOp5
 70
     1
102
RTVSPropertyOp6
 70
     1
102
RTVSPropertyOp7
 70
     1
102
RTVSPropertyOp8
 70
     1
102
RTVSPropertyOp9
 70
     1
102
RTVSPropertyOp10
 70
     1
102
RTVSPropertyOp11
 70
     1
102
RTVSPropertyOp12
 70
     1
102
RTVSPropertyOp13
 70
     1
102
RTVSPropertyOp14
 70
     1
102
RTVSPropertyOp15
 70
     1
102
RTVSPropertyOp16
 70
     1
102
RTVSPropertyOp17
 70
     1
102
RTVSPropertyOp18
 70
     1
102
RTVSPropertyOp19
 70
     1
102
RTVSPropertyOp20
 70
     1
102
RTVSPropertyOp21
 70
     1
102
RTVSPropertyOp22
 70
     1
102
RTVSPropertyOp23
 70
     1
102
RTVSPropertyOp24
 70
     1
102
RTVSPropertyOp25
 70
     1
102
RTVSPropertyOp26
 70
     1
102
RTVSPropertyOp27
 70
     1
102
RTVSPropertyOp28
 70
     1
102
RTVSPropertyOp29
 70
     1
102
RTVSPropertyOp30
 70
     1
102
RTVSPropertyOp31
 70
     1
102
RTVSPropertyOp32
 70
     1
  0
XRECORD
  5
783
102
{ACAD_REACTORS
330
782
102
}
330
782
100
AcDbXrecord
280
     1
102
RTVSPropertyOp0
 70
     1
102
RTVSPropertyOp1
 70
     1
102
RTVSPropertyOp2
 70
     1
102
RTVSPropertyOp3
 70
     1
102
RTVSPropertyOp4
 70
     1
102
RTVSPropertyOp5
 70
     1
102
RTVSPropertyOp6
 70
     1
102
RTVSPropertyOp7
 70
     1
102
RTVSPropertyOp8
 70
     1
102
RTVSPropertyOp9
 70
     1
102
RTVSPropertyOp10
 70
     1
102
RTVSPropertyOp11
 70
     1
102
RTVSPropertyOp12
 70
     1
102
RTVSPropertyOp13
 70
     1
102
RTVSPropertyOp14
 70
     1
102
RTVSPropertyOp15
 70
     1
102
RTVSPropertyOp16
 70
     1
102
RTVSPropertyOp17
 70
     1
102
RTVSPropertyOp18
 70
     1
102
RTVSPropertyOp19
 70
     1
102
RTVSPropertyOp20
 70
     1
102
RTVSPropertyOp21
 70
     1
102
RTVSPropertyOp22
 70
     1
102
RTVSPropertyOp23
 70
     1
102
RTVSPropertyOp24
 70
     1
102
RTVSPropertyOp25
 70
     1
102
RTVSPropertyOp26
 70
     1
102
RTVSPropertyOp27
 70
     1
102
RTVSPropertyOp28
 70
     1
102
RTVSPropertyOp29
 70
     1
102
RTVSPropertyOp30
 70
     1
102
RTVSPropertyOp31
 70
     1
102
RTVSPropertyOp32
 70
     1
  0
XRECORD
  5
77D
102
{ACAD_REACTORS
330
77C
102
}
330
77C
100
AcDbXrecord
280
     1
102
RTVSPropertyOp0
 70
     1
102
RTVSPropertyOp1
 70
     1
102
RTVSPropertyOp2
 70
     1
102
RTVSPropertyOp3
 70
     1
102
RTVSPropertyOp4
 70
     1
102
RTVSPropertyOp5
 70
     1
102
RTVSPropertyOp6
 70
     1
102
RTVSPropertyOp7
 70
     1
102
RTVSPropertyOp8
 70
     1
102
RTVSPropertyOp9
 70
     1
102
RTVSPropertyOp10
 70
     1
102
RTVSPropertyOp11
 70
     1
102
RTVSPropertyOp12
 70
     1
102
RTVSPropertyOp13
 70
     1
102
RTVSPropertyOp14
 70
     1
102
RTVSPropertyOp15
 70
     1
102
RTVSPropertyOp16
 70
     1
102
RTVSPropertyOp17
 70
     1
102
RTVSPropertyOp18
 70
     1
102
RTVSPropertyOp19
 70
     1
102
RTVSPropertyOp20
 70
     1
102
RTVSPropertyOp21
 70
     1
102
RTVSPropertyOp22
 70
     1
102
RTVSPropertyOp23
 70
     1
102
RTVSPropertyOp24
 70
     1
102
RTVSPropertyOp25
 70
     1
102
RTVSPropertyOp26
 70
     1
102
RTVSPropertyOp27
 70
     1
102
RTVSPropertyOp28
 70
     1
102
RTVSPropertyOp29
 70
     1
102
RTVSPropertyOp30
 70
     1
102
RTVSPropertyOp31
 70
     1
102
RTVSPropertyOp32
 70
     1
  0
XRECORD
  5
77F
102
{ACAD_REACTORS
330
77E
102
}
330
77E
100
AcDbXrecord
280
     1
102
RTVSPropertyOp0
 70
     1
102
RTVSPropertyOp1
 70
     1
102
RTVSPropertyOp2
 70
     1
102
RTVSPropertyOp3
 70
     1
102
RTVSPropertyOp4
 70
     1
102
RTVSPropertyOp5
 70
     1
102
RTVSPropertyOp6
 70
     1
102
RTVSPropertyOp7
 70
     1
102
RTVSPropertyOp8
 70
     1
102
RTVSPropertyOp9
 70
     1
102
RTVSPropertyOp10
 70
     1
102
RTVSPropertyOp11
 70
     1
102
RTVSPropertyOp12
 70
     1
102
RTVSPropertyOp13
 70
     1
102
RTVSPropertyOp14
 70
     1
102
RTVSPropertyOp15
 70
     1
102
RTVSPropertyOp16
 70
     1
102
RTVSPropertyOp17
 70
     1
102
RTVSPropertyOp18
 70
     1
102
RTVSPropertyOp19
 70
     1
102
RTVSPropertyOp20
 70
     1
102
RTVSPropertyOp21
 70
     1
102
RTVSPropertyOp22
 70
     1
102
RTVSPropertyOp23
 70
     1
102
RTVSPropertyOp24
 70
     1
102
RTVSPropertyOp25
 70
     1
102
RTVSPropertyOp26
 70
     1
102
RTVSPropertyOp27
 70
     1
102
RTVSPropertyOp28
 70
     1
102
RTVSPropertyOp29
 70
     1
102
RTVSPropertyOp30
 70
     1
102
RTVSPropertyOp31
 70
     1
102
RTVSPropertyOp32
 70
     1
  0
XRECORD
  5
775
102
{ACAD_REACTORS
330
774
102
}
330
774
100
AcDbXrecord
280
     1
102
RTVSPropertyOp0
 70
     1
102
RTVSPropertyOp1
 70
     1
102
RTVSPropertyOp2
 70
     1
102
RTVSPropertyOp3
 70
     1
102
RTVSPropertyOp4
 70
     1
102
RTVSPropertyOp5
 70
     1
102
RTVSPropertyOp6
 70
     1
102
RTVSPropertyOp7
 70
     1
102
RTVSPropertyOp8
 70
     1
102
RTVSPropertyOp9
 70
     1
102
RTVSPropertyOp10
 70
     1
102
RTVSPropertyOp11
 70
     1
102
RTVSPropertyOp12
 70
     1
102
RTVSPropertyOp13
 70
     1
102
RTVSPropertyOp14
 70
     1
102
RTVSPropertyOp15
 70
     1
102
RTVSPropertyOp16
 70
     1
102
RTVSPropertyOp17
 70
     1
102
RTVSPropertyOp18
 70
     1
102
RTVSPropertyOp19
 70
     1
102
RTVSPropertyOp20
 70
     1
102
RTVSPropertyOp21
 70
     1
102
RTVSPropertyOp22
 70
     1
102
RTVSPropertyOp23
 70
     1
102
RTVSPropertyOp24
 70
     1
102
RTVSPropertyOp25
 70
     1
102
RTVSPropertyOp26
 70
     1
102
RTVSPropertyOp27
 70
     1
102
RTVSPropertyOp28
 70
     1
102
RTVSPropertyOp29
 70
     1
102
RTVSPropertyOp30
 70
     1
102
RTVSPropertyOp31
 70
     1
102
RTVSPropertyOp32
 70
     1
  0
XRECORD
  5
769
102
{ACAD_REACTORS
330
768
102
}
330
768
100
AcDbXrecord
280
     1
102
RTVSPropertyOp0
 70
     1
102
RTVSPropertyOp1
 70
     1
102
RTVSPropertyOp2
 70
     1
102
RTVSPropertyOp3
 70
     1
102
RTVSPropertyOp4
 70
     1
102
RTVSPropertyOp5
 70
     1
102
RTVSPropertyOp6
 70
     1
102
RTVSPropertyOp7
 70
     1
102
RTVSPropertyOp8
 70
     1
102
RTVSPropertyOp9
 70
     1
102
RTVSPropertyOp10
 70
     1
102
RTVSPropertyOp11
 70
     1
102
RTVSPropertyOp12
 70
     1
102
RTVSPropertyOp13
 70
     1
102
RTVSPropertyOp14
 70
     1
102
RTVSPropertyOp15
 70
     1
102
RTVSPropertyOp16
 70
     1
102
RTVSPropertyOp17
 70
     1
102
RTVSPropertyOp18
 70
     1
102
RTVSPropertyOp19
 70
     1
102
RTVSPropertyOp20
 70
     1
102
RTVSPropertyOp21
 70
     1
102
RTVSPropertyOp22
 70
     1
102
RTVSPropertyOp23
 70
     1
102
RTVSPropertyOp24
 70
     1
102
RTVSPropertyOp25
 70
     1
102
RTVSPropertyOp26
 70
     1
102
RTVSPropertyOp27
 70
     1
102
RTVSPropertyOp28
 70
     1
102
RTVSPropertyOp29
 70
     1
102
RTVSPropertyOp30
 70
     1
102
RTVSPropertyOp31
 70
     1
102
RTVSPropertyOp32
 70
     1
  0
XRECORD
  5
781
102
{ACAD_REACTORS
330
780
102
}
330
780
100
AcDbXrecord
280
     1
102
RTVSPropertyOp0
 70
     1
102
RTVSPropertyOp1
 70
     1
102
RTVSPropertyOp2
 70
     1
102
RTVSPropertyOp3
 70
     1
102
RTVSPropertyOp4
 70
     1
102
RTVSPropertyOp5
 70
     1
102
RTVSPropertyOp6
 70
     1
102
RTVSPropertyOp7
 70
     1
102
RTVSPropertyOp8
 70
     1
102
RTVSPropertyOp9
 70
     1
102
RTVSPropertyOp10
 70
     1
102
RTVSPropertyOp11
 70
     1
102
RTVSPropertyOp12
 70
     1
102
RTVSPropertyOp13
 70
     1
102
RTVSPropertyOp14
 70
     1
102
RTVSPropertyOp15
 70
     1
102
RTVSPropertyOp16
 70
     1
102
RTVSPropertyOp17
 70
     1
102
RTVSPropertyOp18
 70
     1
102
RTVSPropertyOp19
 70
     1
102
RTVSPropertyOp20
 70
     1
102
RTVSPropertyOp21
 70
     1
102
RTVSPropertyOp22
 70
     1
102
RTVSPropertyOp23
 70
     1
102
RTVSPropertyOp24
 70
     1
102
RTVSPropertyOp25
 70
     1
102
RTVSPropertyOp26
 70
     1
102
RTVSPropertyOp27
 70
     1
102
RTVSPropertyOp28
 70
     1
102
RTVSPropertyOp29
 70
     1
102
RTVSPropertyOp30
 70
     1
102
RTVSPropertyOp31
 70
     1
102
RTVSPropertyOp32
 70
     1
  0
ENDSEC
  0
EOF
