  0
SECTION
  2
HEADER
  9
$ACADVER
  1
AC1018
  9
$ACADMAINTVER
 70
   104
  9
$DWGCODEPAGE
  3
ANSI_1250
  9
$AUTHOR
  1
pmacoun
  9
$LASTSAVEDBY
  1
pfic
  9
$REVISIONNUMBER
  1
000
  9
$CUSTOMPROPERTYTAG
  1
Vedoucí
  9
$CUSTOMPROPERTY
  1

  9
$CUSTOMPROPERTYTAG
  1
Společnost
  9
$CUSTOMPROPERTY
  1

  9
$CUSTOMPROPERTYTAG
  1
Kategorie
  9
$CUSTOMPROPERTY
  1

  9
$CUSTOMPROPERTYTAG
  1
Číslo součásti
  9
$CUSTOMPROPERTY
  1
408242
  9
$CUSTOMPROPERTYTAG
  1
Popis
  9
$CUSTOMPROPERTY
  1

  9
$CUSTOMPROPERTYTAG
  1
Projekt
  9
$CUSTOMPROPERTY
  1

  9
$CUSTOMPROPERTYTAG
  1
Kreslil
  9
$CUSTOMPROPERTY
  1
pmacoun
  9
$CUSTOMPROPERTYTAG
  1
Schválil
  9
$CUSTOMPROPERTY
  1

  9
$CUSTOMPROPERTYTAG
  1
Zodpovídá
  9
$CUSTOMPROPERTY
  1

  9
$CUSTOMPROPERTYTAG
  1
Nákladové středisko
  9
$CUSTOMPROPERTY
  1

  9
$CUSTOMPROPERTYTAG
  1
Dodavatel
  9
$CUSTOMPROPERTY
  1

  9
$CUSTOMPROPERTYTAG
  1
Uživatelský stav
  9
$CUSTOMPROPERTY
  1

  9
$CUSTOMPROPERTYTAG
  1
Stav návrhu
  9
$CUSTOMPROPERTY
  1
Rozpracováno
  9
$CUSTOMPROPERTYTAG
  1
Zkontroloval
  9
$CUSTOMPROPERTY
  1

  9
$CUSTOMPROPERTYTAG
  1
Techn. kontr. schválil
  9
$CUSTOMPROPERTY
  1

  9
$CUSTOMPROPERTYTAG
  1
Výrobu schválil
  9
$CUSTOMPROPERTY
  1

  9
$CUSTOMPROPERTYTAG
  1
VS_First
  9
$CUSTOMPROPERTY
  1

  9
$CUSTOMPROPERTYTAG
  1
VS_All
  9
$CUSTOMPROPERTY
  1
1:1,
  9
$CUSTOMPROPERTYTAG
  1
Model_Mass_Value
  9
$CUSTOMPROPERTY
  1
,0
  9
$CUSTOMPROPERTYTAG
  1
Model_Mass_Units
  9
$CUSTOMPROPERTY
  1
kg
  9
$CUSTOMPROPERTYTAG
  1
Model_Area_Value
  9
$CUSTOMPROPERTY
  1
2694,0
  9
$CUSTOMPROPERTYTAG
  1
Model_Area_Units
  9
$CUSTOMPROPERTY
  1
mm˛
  9
$CUSTOMPROPERTYTAG
  1
Model_Volume_Value
  9
$CUSTOMPROPERTY
  1
5471,0
  9
$CUSTOMPROPERTYTAG
  1
Model_Volume_Units
  9
$CUSTOMPROPERTY
  1
mmł
  9
$CUSTOMPROPERTYTAG
  1
Model_CogX_Value
  9
$CUSTOMPROPERTY
  1
,0
  9
$CUSTOMPROPERTYTAG
  1
Model_CogY_Value
  9
$CUSTOMPROPERTY
  1
,0
  9
$CUSTOMPROPERTYTAG
  1
Model_CogZ_Value
  9
$CUSTOMPROPERTY
  1
,0
  9
$CUSTOMPROPERTYTAG
  1
Model_Cog_Units
  9
$CUSTOMPROPERTY
  1
mm
  9
$CUSTOMPROPERTYTAG
  1
Model_Ixx_Value
  9
$CUSTOMPROPERTY
  1
,0
  9
$CUSTOMPROPERTYTAG
  1
Model_Iyy_Value
  9
$CUSTOMPROPERTY
  1
,0
  9
$CUSTOMPROPERTYTAG
  1
Model_Izz_Value
  9
$CUSTOMPROPERTY
  1
,0
  9
$CUSTOMPROPERTYTAG
  1
Model_Ixy_Value
  9
$CUSTOMPROPERTY
  1
,0
  9
$CUSTOMPROPERTYTAG
  1
Model_Iyz_Value
  9
$CUSTOMPROPERTY
  1
,0
  9
$CUSTOMPROPERTYTAG
  1
Model_Ixz_Value
  9
$CUSTOMPROPERTY
  1
,0
  9
$CUSTOMPROPERTYTAG
  1
Model_MassMom_Units
  9
$CUSTOMPROPERTY
  1
kg mm˛
  9
$CUSTOMPROPERTYTAG
  1
FirstViewScale
  9
$CUSTOMPROPERTY
  1

  9
$CUSTOMPROPERTYTAG
  1
AllViewScales
  9
$CUSTOMPROPERTY
  1

  9
$CUSTOMPROPERTYTAG
  1
SaveDate
  9
$CUSTOMPROPERTY
  1
09/12/2007
  9
$CUSTOMPROPERTYTAG
  1
SaveTime
  9
$CUSTOMPROPERTY
  1
10:32
  9
$CUSTOMPROPERTYTAG
  1
PaperSize
  9
$CUSTOMPROPERTY
  1
A3
  9
$CUSTOMPROPERTYTAG
  1
DateSaved
  9
$CUSTOMPROPERTY
  1
12.09.2007
  9
$CUSTOMPROPERTYTAG
  1
TimeSaved
  9
$CUSTOMPROPERTY
  1
10:32 dop.
  9
$INSBASE
 10
0.0
 20
0.0
 30
0.0
  9
$EXTMIN
 10
106.0908532586077
 20
12.95623943786631
 30
-0.0015258207003583
  9
$EXTMAX
 10
540.9228533447289
 20
621.8353286872563
 30
0.0000000349246037
  9
$LIMMIN
 10
0.0
 20
0.0
  9
$LIMMAX
 10
990.0
 20
700.0
  9
$ORTHOMODE
 70
     0
  9
$REGENMODE
 70
     1
  9
$FILLMODE
 70
     1
  9
$QTEXTMODE
 70
     0
  9
$MIRRTEXT
 70
     0
  9
$LTSCALE
 40
1.666666666666666
  9
$ATTMODE
 70
     1
  9
$TEXTSIZE
 40
0.2
  9
$TRACEWID
 40
0.05
  9
$TEXTSTYLE
  7
Standard
  9
$CLAYER
  8
0
  9
$CELTYPE
  6
ByLayer
  9
$CECOLOR
 62
   256
  9
$CELTSCALE
 40
1.0
  9
$DISPSILH
 70
     0
  9
$DIMSCALE
 40
1.0
  9
$DIMASZ
 40
1.799999999999999
  9
$DIMEXO
 40
0.0625
  9
$DIMDLI
 40
0.38
  9
$DIMRND
 40
0.0
  9
$DIMDLE
 40
0.0
  9
$DIMEXE
 40
0.18
  9
$DIMTP
 40
0.0
  9
$DIMTM
 40
0.0
  9
$DIMTXT
 40
0.3499999940395355
  9
$DIMCEN
 40
0.09
  9
$DIMTSZ
 40
0.0
  9
$DIMTOL
 70
     0
  9
$DIMLIM
 70
     0
  9
$DIMTIH
 70
     1
  9
$DIMTOH
 70
     1
  9
$DIMSE1
 70
     0
  9
$DIMSE2
 70
     0
  9
$DIMTAD
 70
     0
  9
$DIMZIN
 70
     0
  9
$DIMBLK
  1

  9
$DIMASO
 70
     1
  9
$DIMSHO
 70
     1
  9
$DIMPOST
  1

  9
$DIMAPOST
  1

  9
$DIMALT
 70
     0
  9
$DIMALTD
 70
     2
  9
$DIMALTF
 40
25.4
  9
$DIMLFAC
 40
1.0
  9
$DIMTOFL
 70
     0
  9
$DIMTVP
 40
0.0
  9
$DIMTIX
 70
     0
  9
$DIMSOXD
 70
     0
  9
$DIMSAH
 70
     0
  9
$DIMBLK1
  1

  9
$DIMBLK2
  1

  9
$DIMSTYLE
  2
Standard
  9
$DIMCLRD
 70
     0
  9
$DIMCLRE
 70
     0
  9
$DIMCLRT
 70
     0
  9
$DIMTFAC
 40
1.0
  9
$DIMGAP
 40
0.09
  9
$DIMJUST
 70
     0
  9
$DIMSD1
 70
     0
  9
$DIMSD2
 70
     0
  9
$DIMTOLJ
 70
     1
  9
$DIMTZIN
 70
     0
  9
$DIMALTZ
 70
     0
  9
$DIMALTTZ
 70
     0
  9
$DIMUPT
 70
     0
  9
$DIMDEC
 70
     4
  9
$DIMTDEC
 70
     4
  9
$DIMALTU
 70
     2
  9
$DIMALTTD
 70
     2
  9
$DIMTXSTY
  7
Standard
  9
$DIMAUNIT
 70
     0
  9
$DIMADEC
 70
     0
  9
$DIMALTRND
 40
0.0
  9
$DIMAZIN
 70
     0
  9
$DIMDSEP
 70
    46
  9
$DIMATFIT
 70
     3
  9
$DIMFRAC
 70
     0
  9
$DIMLDRBLK
  1

  9
$DIMLUNIT
 70
     2
  9
$DIMLWD
 70
    -2
  9
$DIMLWE
 70
    -2
  9
$DIMTMOVE
 70
     0
  9
$LUNITS
 70
     2
  9
$LUPREC
 70
     4
  9
$SKETCHINC
 40
0.1
  9
$FILLETRAD
 40
0.0
  9
$AUNITS
 70
     0
  9
$AUPREC
 70
     0
  9
$MENU
  1
.
  9
$ELEVATION
 40
0.0
  9
$PELEVATION
 40
0.0
  9
$THICKNESS
 40
0.0
  9
$LIMCHECK
 70
     0
  9
$CHAMFERA
 40
0.0
  9
$CHAMFERB
 40
0.0
  9
$CHAMFERC
 40
0.0
  9
$CHAMFERD
 40
0.0
  9
$SKPOLY
 70
     0
  9
$TDCREATE
 40
2455804.378664699
  9
$TDUCREATE
 40
2455804.295331366
  9
$TDUPDATE
 40
2456553.473687709
  9
$TDUUPDATE
 40
2456553.390354375
  9
$TDINDWG
 40
0.0027287731
  9
$TDUSRTIMER
 40
0.0027287731
  9
$USRTIMER
 70
     1
  9
$ANGBASE
 50
0.0
  9
$ANGDIR
 70
     0
  9
$PDMODE
 70
     0
  9
$PDSIZE
 40
0.0
  9
$PLINEWID
 40
0.0
  9
$SPLFRAME
 70
     0
  9
$SPLINETYPE
 70
     6
  9
$SPLINESEGS
 70
     8
  9
$HANDSEED
  5
282C
  9
$SURFTAB1
 70
     6
  9
$SURFTAB2
 70
     6
  9
$SURFTYPE
 70
     6
  9
$SURFU
 70
     6
  9
$SURFV
 70
     6
  9
$UCSBASE
  2

  9
$UCSNAME
  2

  9
$UCSORG
 10
0.0
 20
0.0
 30
0.0
  9
$UCSXDIR
 10
1.0
 20
0.0
 30
0.0
  9
$UCSYDIR
 10
0.0
 20
1.0
 30
0.0
  9
$UCSORTHOREF
  2

  9
$UCSORTHOVIEW
 70
     0
  9
$UCSORGTOP
 10
0.0
 20
0.0
 30
0.0
  9
$UCSORGBOTTOM
 10
0.0
 20
0.0
 30
0.0
  9
$UCSORGLEFT
 10
0.0
 20
0.0
 30
0.0
  9
$UCSORGRIGHT
 10
0.0
 20
0.0
 30
0.0
  9
$UCSORGFRONT
 10
0.0
 20
0.0
 30
0.0
  9
$UCSORGBACK
 10
0.0
 20
0.0
 30
0.0
  9
$PUCSBASE
  2

  9
$PUCSNAME
  2

  9
$PUCSORG
 10
0.0
 20
0.0
 30
0.0
  9
$PUCSXDIR
 10
1.0
 20
0.0
 30
0.0
  9
$PUCSYDIR
 10
0.0
 20
1.0
 30
0.0
  9
$PUCSORTHOREF
  2

  9
$PUCSORTHOVIEW
 70
     0
  9
$PUCSORGTOP
 10
0.0
 20
0.0
 30
0.0
  9
$PUCSORGBOTTOM
 10
0.0
 20
0.0
 30
0.0
  9
$PUCSORGLEFT
 10
0.0
 20
0.0
 30
0.0
  9
$PUCSORGRIGHT
 10
0.0
 20
0.0
 30
0.0
  9
$PUCSORGFRONT
 10
0.0
 20
0.0
 30
0.0
  9
$PUCSORGBACK
 10
0.0
 20
0.0
 30
0.0
  9
$USERI1
 70
     0
  9
$USERI2
 70
     0
  9
$USERI3
 70
     0
  9
$USERI4
 70
     0
  9
$USERI5
 70
     0
  9
$USERR1
 40
0.0
  9
$USERR2
 40
0.0
  9
$USERR3
 40
0.0
  9
$USERR4
 40
0.0
  9
$USERR5
 40
0.0
  9
$WORLDVIEW
 70
     1
  9
$SHADEDGE
 70
     3
  9
$SHADEDIF
 70
    70
  9
$TILEMODE
 70
     1
  9
$MAXACTVP
 70
    64
  9
$PINSBASE
 10
0.0
 20
0.0
 30
0.0
  9
$PLIMCHECK
 70
     0
  9
$PEXTMIN
 10
0.0
 20
0.0
 30
0.0
  9
$PEXTMAX
 10
990.0
 20
700.0
 30
0.0
  9
$PLIMMIN
 10
0.0
 20
0.0
  9
$PLIMMAX
 10
990.0
 20
700.0
  9
$UNITMODE
 70
     0
  9
$VISRETAIN
 70
     1
  9
$PLINEGEN
 70
     0
  9
$PSLTSCALE
 70
     1
  9
$TREEDEPTH
 70
  3020
  9
$CMLSTYLE
  2
Standard
  9
$CMLJUST
 70
     0
  9
$CMLSCALE
 40
1.0
  9
$PROXYGRAPHICS
 70
     1
  9
$MEASUREMENT
 70
     1
  9
$CELWEIGHT
370
    -1
  9
$ENDCAPS
280
     0
  9
$JOINSTYLE
280
     0
  9
$LWDISPLAY
290
     0
  9
$INSUNITS
 70
     4
  9
$HYPERLINKBASE
  1

  9
$STYLESHEET
  1

  9
$XEDIT
290
     1
  9
$CEPSNTYPE
380
     0
  9
$PSTYLEMODE
290
     1
  9
$FINGERPRINTGUID
  2
{5E1295F3-C806-4A17-A21F-26F39792EAC9}
  9
$VERSIONGUID
  2
{ADD004D6-0515-4171-BE69-A559FEB21271}
  9
$EXTNAMES
290
     1
  9
$PSVPSCALE
 40
0.0
  9
$OLESTARTUP
290
     0
  9
$SORTENTS
280
   127
  9
$INDEXCTL
280
     0
  9
$HIDETEXT
280
     1
  9
$XCLIPFRAME
290
     0
  9
$HALOGAP
280
     0
  9
$OBSCOLOR
 70
   257
  9
$OBSLTYPE
280
     0
  9
$INTERSECTIONDISPLAY
280
     0
  9
$INTERSECTIONCOLOR
 70
   257
  9
$DIMASSOC
280
     1
  9
$PROJECTNAME
  1

  0
ENDSEC
  0
SECTION
  2
CLASSES
  0
CLASS
  1
ACDBDICTIONARYWDFLT
  2
AcDbDictionaryWithDefault
  3
ObjectDBX Classes
 90
        0
 91
        1
280
     0
281
     0
  0
CLASS
  1
MATERIAL
  2
AcDbMaterial
  3
ObjectDBX Classes
 90
     1153
 91
        3
280
     0
281
     0
  0
CLASS
  1
VISUALSTYLE
  2
AcDbVisualStyle
  3
ObjectDBX Classes
 90
     4095
 91
       26
280
     0
281
     0
  0
CLASS
  1
SCALE
  2
AcDbScale
  3
ObjectDBX Classes
 90
     1153
 91
       17
280
     0
281
     0
  0
CLASS
  1
TABLESTYLE
  2
AcDbTableStyle
  3
ObjectDBX Classes
 90
     4095
 91
        1
280
     0
281
     0
  0
CLASS
  1
MLEADERSTYLE
  2
AcDbMLeaderStyle
  3
ACDB_MLEADERSTYLE_CLASS
 90
     4095
 91
        1
280
     0
281
     0
  0
CLASS
  1
CELLSTYLEMAP
  2
AcDbCellStyleMap
  3
ObjectDBX Classes
 90
     1152
 91
        2
280
     0
281
     0
  0
CLASS
  1
DICTIONARYVAR
  2
AcDbDictionaryVar
  3
ObjectDBX Classes
 90
        0
 91
        9
280
     0
281
     0
  0
CLASS
  1
ACME_DOCUMENT
  2
AcMeDbDoc
  3
AcMeServices
 90
     1024
 91
        2
280
     0
281
     0
  0
CLASS
  1
AMGSETTINGSOBJ
  2
AmgSettingsObj
  3
"AcadM|Product Description: AutoCAD Mechanical|Company: Autodesk, Inc."
 90
     1024
 91
        2
280
     0
281
     0
  0
CLASS
  1
ACMESCOPE
  2
AcMeScope
  3
AcMeServices
 90
     1024
 91
        1
280
     0
281
     0
  0
CLASS
  1
ACMECOMMANDHISTORY
  2
AcMeCommandHistory
  3
AcMeServices
 90
     1024
 91
        1
280
     0
281
     0
  0
CLASS
  1
ACIMSYSVARMAN
  2
AcImSysVarManager
  3
AcMeServices
 90
     1024
 91
        5
280
     0
281
     0
  0
CLASS
  1
ACIMINTSYSVAR
  2
AcImIntSysVar
  3
AcMeServices
 90
     1024
 91
       27
280
     0
281
     0
  0
CLASS
  1
ACMEDRAWINGMAN
  2
AcMeDrawingMan
  3
AcMeServices
 90
     1024
 91
        1
280
     0
281
     0
  0
CLASS
  1
ACMEVIEW
  2
AcMeView
  3
AcMeServices
 90
     1024
 91
        1
280
     0
281
     0
  0
CLASS
  1
ACDBENTITYCACHE
  2
AcMeEntityCache
  3
AcMeServices
 90
     1024
 91
        1
280
     0
281
     0
  0
CLASS
  1
ACMESTATEMGR
  2
AcMeStateMgr
  3
AcMeServices
 90
     1024
 91
        1
280
     0
281
     0
  0
CLASS
  1
ACGREFMASTER
  2
AcGrefMaster
  3
AcAttribServices
 90
     1024
 91
        1
280
     0
281
     0
  0
CLASS
  1
AM_DRAWING_MGR
  2
AcDmDwgMgr
  3
AcMechDwgViewMgmt
 90
     1024
 91
        1
280
     0
281
     0
  0
CLASS
  1
AM_DWG_DOCUMENT
  2
AcDmDwgDocument
  3
AcMechDwgViewMgmt
 90
     1024
 91
        1
280
     0
281
     0
  0
CLASS
  1
AM_DWG_SHEET
  2
AcDmSheet
  3
AcMechDwgViewMgmt
 90
     1024
 91
        2
280
     0
281
     0
  0
CLASS
  1
AM_VIEWDIMPARMAP
  2
AcDmViewDimParMap
  3
AcMechDwgViewMgmt
 90
     1024
 91
        2
280
     0
281
     0
  0
CLASS
  1
AMDTINTERNALREACTOR
  2
AmdtInternalReactor
  3
AcMeServices
 90
     1024
 91
        1
280
     0
281
     0
  0
CLASS
  1
ACIMREALSYSVAR
  2
AcImRealSysVar
  3
AcMeServices
 90
     1024
 91
        1
280
     0
281
     0
  0
CLASS
  1
AM_DWGMGR_NAME
  2
AcDmDwgMgrName
  3
AcMechDwgViewMgmt
 90
     1024
 91
        1
280
     0
281
     0
  0
CLASS
  1
ACME_DATABASE
  2
AcMeDbDatabase
  3
AcMeServices
 90
     1024
 91
        2
280
     0
281
     0
  0
CLASS
  1
ACRFINSADJUSTERMGR
  2
AcRfInsAdjusterMgr
  3
AcMeServices
 90
     1024
 91
        1
280
     0
281
     0
  0
CLASS
  1
ACGREFACADMASTER
  2
AcGrefacadMaster
  3
AcGrefServices
 90
     1024
 91
        1
280
     0
281
     0
  0
CLASS
  1
AMDTMENUSTATEMGR
  2
AmdtMenuStateMgr
  3
McadcomServices
 90
     1024
 91
        1
280
     0
281
     0
  0
CLASS
  1
AMDTMCOMMENUSTATE
  2
AmdtMcomMenuState
  3
McadcomServices
 90
     1024
 91
        1
280
     0
281
     0
  0
CLASS
  1
AMIMASTER
  2
AmiMaster
  3
AmiServices
 90
     1024
 91
        1
280
     0
281
     0
  0
CLASS
  1
MAPIAMMOUDLE
  2
MApiAmModule
  3
MApiAmServices
 90
     1024
 91
        1
280
     0
281
     0
  0
CLASS
  1
ACIMSTRSYSVAR
  2
AcImStrSysVar
  3
AcMeServices
 90
     1024
 91
        5
280
     0
281
     0
  0
CLASS
  1
AMDTADMENUSTATE
  2
AmdtAdMenuState
  3
DesignerServices
 90
     1024
 91
        1
280
     0
281
     0
  0
CLASS
  1
ADAPPL
  2
AcAdAppl
  3
DesignerServices
 90
     1024
 91
        1
280
     0
281
     0
  0
CLASS
  1
DEPMGR
  2
AcAdDepMgr
  3
DesignerServices
 90
     1024
 91
        1
280
     0
281
     0
  0
CLASS
  1
PARAMMGR
  2
AcAdParamMgr
  3
DesignerServices
 90
     1024
 91
        1
280
     0
281
     0
  0
CLASS
  1
PARAMSCOPE
  2
AcAdParamScope
  3
DesignerServices
 90
     1024
 91
        1
280
     0
281
     0
  0
CLASS
  1
NAMEDAPPL
  2
AcAdNamedAppl
  3
DesignerServices
 90
     1024
 91
        1
280
     0
281
     0
  0
CLASS
  1
AMDTDMMENUSTATE
  2
AmdtDmMenuState
  3
AcMechDwgViewMgmt
 90
     1024
 91
        1
280
     0
281
     0
  0
CLASS
  1
AMDTAMMENUSTATE
  2
AmdtAmMenuState
  3
DesignerAssemblies
 90
     1024
 91
        1
280
     0
281
     0
  0
CLASS
  1
ACAMPROJECT
  2
AcAmProject
  3
DesignerAssemblies
 90
     1024
 91
        1
280
     0
281
     0
  0
CLASS
  1
ACAMGRCOMPDEF
  2
AcAmGrCompDef
  3
DesignerAssemblies
 90
     1024
 91
        1
280
     0
281
     0
  0
CLASS
  1
ACAMCOMPDEF
  2
AcAmCompDef
  3
DesignerAssemblies
 90
     1024
 91
        1
280
     0
281
     0
  0
CLASS
  1
ACAMCOMPDEFMGR
  2
AcAmCompDefMgr
  3
DesignerAssemblies
 90
     1024
 91
        1
280
     0
281
     0
  0
CLASS
  1
AMCONTEXTMGR
  2
AcAmContextMgr
  3
DesignerAssemblies
 90
     1024
 91
        1
280
     0
281
     0
  0
CLASS
  1
ACAMCONTEXTMODELER
  2
AcAmContextModeler
  3
DesignerAssemblies
 90
     1024
 91
        1
280
     0
281
     0
  0
CLASS
  1
ACMDATADICTIONARY
  2
AcmDataDictionary
  3
"AcmSymBB|Product Description: AutoCAD Mechanical|Company: Autodesk, Inc."
 90
     1024
 91
        1
280
     0
281
     0
  0
CLASS
  1
CATALOGSTATE
  2
AcAmCatalogState
  3
DesignerAssemblies
 90
     1024
 91
        1
280
     0
281
     0
  0
CLASS
  1
ACAMGRCOMPDEFSET
  2
AcAmGrCompDefSet
  3
DesignerAssemblies
 90
     1024
 91
        1
280
     0
281
     0
  0
CLASS
  1
AMDTBROWSERDBTAB
  2
AmdtBrowserDbTab
  3
McadcomServices
 90
     1024
 91
        1
280
     0
281
     0
  0
CLASS
  1
CBROWSERAPPOBJECT
  2
CBrowserAppObject
  3
McadcomServices
 90
     1024
 91
        2
280
     0
281
     0
  0
CLASS
  1
DM_PLACEHOLDER
  2
AcDmSelsetPlaceholder
  3
AcMechDwgViewMgmt
 90
     1024
 91
        1
280
     0
281
     0
  0
CLASS
  1
ACMSTANDARDISO
  2
AcmStandardISO
  3
"Amdt_StdImp|Product Description: AutoCAD Mechanical|Company: Autodesk, Inc."
 90
     1024
 91
        1
280
     0
281
     0
  0
CLASS
  1
AMDTEDGESTANDARDISO13715
  2
AmdtEdgeStdISO13715
  3
"Amdt_StdImp|Product Description: AutoCAD Mechanical|Company: Autodesk, Inc."
 90
     1024
 91
        1
280
     0
281
     0
  0
CLASS
  1
ACMSURFSTANDARDISO2002
  2
AcmSurfTextStdISO2002
  3
"Amdt_StdImp|Product Description: AutoCAD Mechanical|Company: Autodesk, Inc."
 90
     1024
 91
        1
280
     0
281
     0
  0
CLASS
  1
ACMFCFSTANDARDISO
  2
AcmFCFStdISO
  3
"Amdt_StdImp|Product Description: AutoCAD Mechanical|Company: Autodesk, Inc."
 90
     1024
 91
        1
280
     0
281
     0
  0
CLASS
  1
ACMWELDSTANDARDISO
  2
AcmWeldingStdISO
  3
"Amdt_StdImp|Product Description: AutoCAD Mechanical|Company: Autodesk, Inc."
 90
     1024
 91
        1
280
     0
281
     0
  0
CLASS
  1
ACMIDSTANDARDISO
  2
AcmIdStdISO
  3
"Amdt_StdImp|Product Description: AutoCAD Mechanical|Company: Autodesk, Inc."
 90
     1024
 91
        1
280
     0
281
     0
  0
CLASS
  1
ACMDATUMSTANDARDISO
  2
AcmDatumStdISO
  3
"Amdt_StdImp|Product Description: AutoCAD Mechanical|Company: Autodesk, Inc."
 90
     1024
 91
        1
280
     0
281
     0
  0
CLASS
  1
ACMBOMSTANDARDISO
  2
AcmBOMStdISO
  3
"Amdt_StdImp|Product Description: AutoCAD Mechanical|Company: Autodesk, Inc."
 90
     1024
 91
        1
280
     0
281
     0
  0
CLASS
  1
ACMDETAILSTANDARDISO
  2
AmdtDetailSymStdISO
  3
"Amdt_StdImp|Product Description: AutoCAD Mechanical|Company: Autodesk, Inc."
 90
     1024
 91
        1
280
     0
281
     0
  0
CLASS
  1
ACMSECTIONSTANDARDISO2001
  2
AmdtSectionSymStdISO2001
  3
"Amdt_StdImp|Product Description: AutoCAD Mechanical|Company: Autodesk, Inc."
 90
     1024
 91
        1
280
     0
281
     0
  0
CLASS
  1
ACMCENTERLINESTANDARDISO
  2
AmdtCenterLineStdISO
  3
"Amdt_StdImp|Product Description: AutoCAD Mechanical|Company: Autodesk, Inc."
 90
     1024
 91
        1
280
     0
281
     0
  0
CLASS
  1
ACMTHREADLINESTANDARDISO
  2
AmdtThreadLineStdISO
  3
"Amdt_StdImp|Product Description: AutoCAD Mechanical|Company: Autodesk, Inc."
 90
     1024
 91
        1
280
     0
281
     0
  0
CLASS
  1
ACMNOTESTANDARDISO
  2
AmdtNoteStdISO
  3
"Amdt_StdImp|Product Description: AutoCAD Mechanical|Company: Autodesk, Inc."
 90
     1024
 91
        1
280
     0
281
     0
  0
CLASS
  1
ACMTAPERSTANDARDISO
  2
AcmTaperStdISO
  3
"Amdt_StdImp|Product Description: AutoCAD Mechanical|Company: Autodesk, Inc."
 90
     1024
 91
        1
280
     0
281
     0
  0
CLASS
  1
ACMANOOTATIONVIEWSTANDARDISO
  2
AmdtAnViewStdISO
  3
"Amdt_StdImp|Product Description: AutoCAD Mechanical|Company: Autodesk, Inc."
 90
     1024
 91
        1
280
     0
281
     0
  0
CLASS
  1
ACAMGLAYSTD
  2
AcAmgLayStd
  3
"AmgLay|Product Description: AutoCAD Mechanical|Company: Autodesk, Inc."
 90
     1024
 91
        1
280
     0
281
     0
  0
CLASS
  1
ACAMGDIMSTD
  2
AcAmgDimStd
  3
"AmgDim|Product Description: AutoCAD Mechanical|Company: Autodesk, Inc."
 90
     1024
 91
        1
280
     0
281
     0
  0
CLASS
  1
AMGOBJPROPCFG
  2
AmgObjPropCfg
  3
"AmgLay|Product Description: AutoCAD Mechanical|Company: Autodesk, Inc."
 90
     1025
 91
        1
280
     0
281
     0
  0
CLASS
  1
ACAMGHOLECHARTSTDISO
  2
AcAmgHoleChartStdISO
  3
AmgDim|Product Description: AutoCAD Mechanical|Company: Autodesk, Inc.
 90
     1024
 91
        1
280
     0
281
     0
  0
CLASS
  1
ACAMGTITLESTD
  2
AcAmgTitleStd
  3
"AmgTitle|Product Description: AutoCAD Mechanical|Company: Autodesk, Inc."
 90
     4095
 91
        1
280
     0
281
     0
  0
CLASS
  1
AMDTNOTETEMPLATEDB
  2
AmdtNoteTemplateDB
  3
AcmSymBB|Product Description: AutoCAD Mechanical|Company: Autodesk, Inc.
 90
     1024
 91
        6
280
     0
281
     0
  0
CLASS
  1
ACAMGFILTERDAT
  2
AcAmgFilterDat
  3
"AcadM|Product Description: AutoCAD Mechanical|Company: Autodesk, Inc."
 90
     1024
 91
        6
280
     0
281
     0
  0
CLASS
  1
AEC_REFEDIT_STATUS_TRACKER
  2
AecDbRefEditStatusTracker
  3
AecArchBase60|Product Desc: Autodesk Architectural Desktop 2007 |Company: Autodesk,Inc. |WEB Address: www.autodesk.com
 90
      129
 91
        1
280
     0
281
     0
  0
CLASS
  1
NPOCOLLECTION
  2
AcDbImpNonPersistentObjectsCollection
  3
ObjectDBX Classes
 90
     1153
 91
        1
280
     0
281
     0
  0
ENDSEC
  0
SECTION
  2
TABLES
  0
TABLE
  2
VPORT
  5
8
102
{ACAD_XDICTIONARY
360
96A
102
}
330
0
100
AcDbSymbolTable
 70
     1
  0
VPORT
  5
57
330
8
100
AcDbSymbolTableRecord
100
AcDbViewportTableRecord
  2
*Active
 70
     0
 10
0.0
 20
0.0
 11
1.0
 21
1.0
 12
323.5068533016683
 22
317.3957840625614
 13
0.0
 23
0.0
 14
1.0
 24
1.0
 15
0.0
 25
0.0
 16
0.0
 26
0.0
 36
1.0
 17
0.0
 27
0.0
 37
0.0
 40
612.4677675750249
 41
1.810226155358898
 42
50.0
 43
0.0
 44
0.0
 50
0.0
 51
0.0
 71
     0
 72
   100
 73
     1
 74
     1
 75
     0
 76
     0
 77
     0
 78
     0
281
     0
 65
     1
110
0.0
120
0.0
130
0.0
111
1.0
121
0.0
131
0.0
112
0.0
122
1.0
132
0.0
 79
     0
146
0.0
  0
ENDTAB
  0
TABLE
  2
LTYPE
  5
5
330
0
100
AcDbSymbolTable
 70
    15
  0
LTYPE
  5
5B
330
5
100
AcDbSymbolTableRecord
100
AcDbLinetypeTableRecord
  2
ByBlock
 70
     0
  3

 72
    65
 73
     0
 40
0.0
  0
LTYPE
  5
5C
330
5
100
AcDbSymbolTableRecord
100
AcDbLinetypeTableRecord
  2
ByLayer
 70
     0
  3

 72
    65
 73
     0
 40
0.0
  0
LTYPE
  5
5D
330
5
100
AcDbSymbolTableRecord
100
AcDbLinetypeTableRecord
  2
Continuous
 70
     0
  3
Solid line
 72
    65
 73
     0
 40
0.0
  0
LTYPE
  5
A0C
330
5
100
AcDbSymbolTableRecord
100
AcDbLinetypeTableRecord
  2
HIDDEN
 70
     0
  3
Skrytá __ __ __ __ __ __ __ __ __ __ __ __ __ __
 72
    65
 73
     2
 40
9.525
 49
6.349999999999999
 74
     0
 49
-3.174999999999999
 74
     0
  0
LTYPE
  5
A0D
330
5
100
AcDbSymbolTableRecord
100
AcDbLinetypeTableRecord
  2
PHANTOM2
 70
     0
  3
Sdružená (.5x) ___ _ _ ___ _ _ ___ _ _ ___ _ _
 72
    65
 73
     6
 40
31.75
 49
15.875
 74
     0
 49
-3.174999999999999
 74
     0
 49
3.174999999999999
 74
     0
 49
-3.174999999999999
 74
     0
 49
3.174999999999999
 74
     0
 49
-3.174999999999999
 74
     0
  0
LTYPE
  5
A0E
330
5
100
AcDbSymbolTableRecord
100
AcDbLinetypeTableRecord
  2
CENTER
 70
     0
  3
Středová ____ _ ____ _ ____ _ ____ _ ____ _ ____
 72
    65
 73
     4
 40
50.8
 49
31.75
 74
     0
 49
-6.349999999999999
 74
     0
 49
6.349999999999999
 74
     0
 49
-6.349999999999999
 74
     0
  0
LTYPE
  5
A54
330
5
100
AcDbSymbolTableRecord
100
AcDbLinetypeTableRecord
  2
AM_ISO02W050
 70
     0
  3
__ __ __ __ __ __ __ __ __ __ __ __ __ __ __
 72
    65
 73
     2
 40
7.5
 49
6.0
 74
     0
 49
-1.5
 74
     0
  0
LTYPE
  5
A55
330
5
100
AcDbSymbolTableRecord
100
AcDbLinetypeTableRecord
  2
AM_ISO08W050
 70
     0
  3
____ . ____ . ____ . ____ . ____ . ____ . ____
 72
    65
 73
     4
 40
18.0
 49
12.0
 74
     0
 49
-1.5
 74
     0
 49
3.0
 74
     0
 49
-1.5
 74
     0
  0
LTYPE
  5
A56
330
5
100
AcDbSymbolTableRecord
100
AcDbLinetypeTableRecord
  2
AM_ISO09W050
 70
     0
  3
_____ . . _____ . . _____ . . ____ .. ____
 72
    65
 73
     6
 40
22.5
 49
12.0
 74
     0
 49
-1.5
 74
     0
 49
3.0
 74
     0
 49
-1.5
 74
     0
 49
3.0
 74
     0
 49
-1.5
 74
     0
  0
LTYPE
  5
A57
330
5
100
AcDbSymbolTableRecord
100
AcDbLinetypeTableRecord
  2
Amconstr
 70
     0
  3
_______________________
 72
    65
 73
     2
 40
9999.0
 49
9999.0
 74
     0
 49
0.0
 74
     0
  0
LTYPE
  5
A58
330
5
100
AcDbSymbolTableRecord
100
AcDbLinetypeTableRecord
  2
AM_ISO08W050x2
 70
     0
  3
__ . __ . __ . __ . __ . __
 72
    65
 73
     4
 40
9.0
 49
6.0
 74
     0
 49
-0.75
 74
     0
 49
1.5
 74
     0
 49
-0.75
 74
     0
  0
LTYPE
  5
A59
330
5
100
AcDbSymbolTableRecord
100
AcDbLinetypeTableRecord
  2
AM_ISO02W050x2
 70
     0
  3
 _ _ _ _ _ _ _ _ _ _ _ _
 72
    65
 73
     2
 40
3.75
 49
3.0
 74
     0
 49
-0.75
 74
     0
  0
LTYPE
  5
A5C
330
5
100
AcDbSymbolTableRecord
100
AcDbLinetypeTableRecord
  2
Amzigzag
 70
     0
  3
/\/-/\/-/\/-/\/-/\/-/\/
 72
    65
 73
     2
 40
11.0001
 49
0.0001
 74
     4
 75
   136
340
A5B
 46
0.04
 50
0.0
 44
0.0
 45
0.0
 49
-11.0
 74
     0
  0
LTYPE
  5
A6B
330
5
100
AcDbSymbolTableRecord
100
AcDbLinetypeTableRecord
  2
ACISOWELD
 70
     0
  3
_ _ _ _ _
 72
    65
 73
     2
 40
2.0
 49
2.0
 74
     0
 49
-1.0
 74
     0
  0
LTYPE
  5
A6C
330
5
100
AcDbSymbolTableRecord
100
AcDbLinetypeTableRecord
  2
ACISOTGB
 70
     0
  3
__ . . __ . .
 72
    65
 73
     6
 40
9.0
 49
4.0
 74
     0
 49
-1.0
 74
     0
 49
1.0
 74
     0
 49
-1.0
 74
     0
 49
1.0
 74
     0
 49
-1.0
 74
     0
  0
LTYPE
  5
A6D
330
5
100
AcDbSymbolTableRecord
100
AcDbLinetypeTableRecord
  2
ACISOTGL
 70
     0
  3
_ _ _ _ _
 72
    65
 73
     2
 40
3.0
 49
2.0
 74
     0
 49
-1.0
 74
     0
  0
ENDTAB
  0
TABLE
  2
LAYER
  5
2
330
0
100
AcDbSymbolTable
 70
    14
  0
LAYER
  5
54
330
2
100
AcDbSymbolTableRecord
100
AcDbLayerTableRecord
  2
0
 70
     0
 62
     7
  6
Continuous
370
    -3
390
F
  0
LAYER
  5
78
330
2
100
AcDbSymbolTableRecord
100
AcDbLayerTableRecord
  2
Geometrie náčrtu (ISO)
 70
     0
 62
     7
  6
Continuous
370
     9
390
F
  0
LAYER
  5
79
330
2
100
AcDbSymbolTableRecord
100
AcDbLayerTableRecord
  2
KOPF
 70
     0
 62
     8
420
  8421504
  6
Continuous
370
     9
390
F
  0
LAYER
  5
7A
330
2
100
AcDbSymbolTableRecord
100
AcDbLayerTableRecord
  2
Kóta (ISO)
 70
     0
 62
     5
420
      255
  6
Continuous
370
     9
390
F
  0
LAYER
  5
7B
330
2
100
AcDbSymbolTableRecord
100
AcDbLayerTableRecord
  2
Nadpis (ISO)
 70
     0
 62
     7
  6
Continuous
370
    18
390
F
  0
LAYER
  5
7D
330
2
100
AcDbSymbolTableRecord
100
AcDbLayerTableRecord
  2
Osa (ISO)
 70
     0
 62
     1
420
 16711680
  6
Continuous
370
     9
390
F
  0
LAYER
  5
85
330
2
100
AcDbSymbolTableRecord
100
AcDbLayerTableRecord
  2
Rámeček (ISO)
 70
     0
 62
     7
  6
Continuous
370
    35
390
F
  0
LAYER
  5
88
330
2
100
AcDbSymbolTableRecord
100
AcDbLayerTableRecord
  2
Skrytá (ISO)
 70
     0
 62
   142
420
    32960
  6
Continuous
370
     9
390
F
  0
LAYER
  5
8B
330
2
100
AcDbSymbolTableRecord
100
AcDbLayerTableRecord
  2
TEXT35
 70
     0
 62
    12
420
 13369344
  6
Continuous
370
    20
390
F
  0
LAYER
  5
8C
330
2
100
AcDbSymbolTableRecord
100
AcDbLayerTableRecord
  2
TEXT50
 70
     0
 62
     7
  6
Continuous
370
    20
390
F
  0
LAYER
  5
8D
330
2
100
AcDbSymbolTableRecord
100
AcDbLayerTableRecord
  2
Viditelná (ISO)
 70
     0
 62
     7
  6
Continuous
370
    35
390
F
  0
LAYER
  5
8E
330
2
100
AcDbSymbolTableRecord
100
AcDbLayerTableRecord
  2
Viditelná tenká (ISO)
 70
     0
 62
     7
  6
Continuous
370
     9
390
F
  0
LAYER
  5
8F
330
2
100
AcDbSymbolTableRecord
100
AcDbLayerTableRecord
  2
Značka (ISO)
 70
     0
 62
     5
420
      255
  6
Continuous
370
     9
390
F
  0
LAYER
  5
676
330
2
100
AcDbSymbolTableRecord
100
AcDbLayerTableRecord
  2
Defpoints
 70
     0
 62
     7
  6
Continuous
290
     0
370
    -3
390
F
  0
ENDTAB
  0
TABLE
  2
STYLE
  5
3
330
0
100
AcDbSymbolTable
 70
    21
  0
STYLE
  5
55
330
3
100
AcDbSymbolTableRecord
100
AcDbTextStyleTableRecord
  2
Standard
 70
     0
 40
0.0
 41
1.0
 50
0.0
 71
     0
 42
0.2
  3
TAHOMA.TTF
  4

1001
ACAD
1000
Tahoma
1071
      256
  0
STYLE
  5
5A
330
3
100
AcDbSymbolTableRecord
100
AcDbTextStyleTableRecord
  2
Annotative
 70
     0
 40
0.0
 41
1.0
 50
0.0
 71
     0
 42
0.2
  3
txt
  4

1001
AcadAnnotative
1000
AnnotativeData
1002
{
1070
     1
1070
     1
1002
}
  0
STYLE
  5
90
330
3
100
AcDbSymbolTableRecord
100
AcDbTextStyleTableRecord
  2
ITALICC8_57
 70
     0
 40
0.0
 41
1.0
 50
0.0
 71
     0
 42
0.2
  3
TAHOMA.TTF
  4

1001
ACAD
1000
Tahoma
1071
      256
  0
STYLE
  5
91
330
3
100
AcDbSymbolTableRecord
100
AcDbTextStyleTableRecord
  2
kusovnik
 70
     0
 40
0.0
 41
1.0
 50
0.0
 71
     0
 42
0.2
  3
ARIAL.TTF
  4

1001
ACAD
1000
Arial
1071
      256
  0
STYLE
  5
92
330
3
100
AcDbSymbolTableRecord
100
AcDbTextStyleTableRecord
  2
ROMANS8_69
 70
     0
 40
0.0
 41
1.0
 50
0.0
 71
     0
 42
0.2
  3
TAHOMA.TTF
  4

1001
ACAD
1000
Tahoma
1071
      256
  0
STYLE
  5
93
330
3
100
AcDbSymbolTableRecord
100
AcDbTextStyleTableRecord
  2
Text popisu (ISO)
 70
     0
 40
0.0
 41
1.0
 50
0.0
 71
     0
 42
0.2
  3
TAHOMA.TTF
  4

1001
ACAD
1000
Tahoma
1071
      256
  0
STYLE
  5
94
330
3
100
AcDbSymbolTableRecord
100
AcDbTextStyleTableRecord
  2
Text poznámky (DIN)
 70
     0
 40
0.0
 41
1.0
 50
0.0
 71
     0
 42
0.2
  3
isocpeur.ttf
  4

1001
ACAD
1000
ISOCPEUR
1071
      256
  0
STYLE
  5
95
330
3
100
AcDbSymbolTableRecord
100
AcDbTextStyleTableRecord
  2
Text poznámky (ISO)
 70
     0
 40
0.0
 41
1.0
 50
0.0
 71
     0
 42
0.2
  3
TAHOMA.TTF
  4

1001
ACAD
1000
Tahoma
1071
      256
  0
STYLE
  5
96
330
3
100
AcDbSymbolTableRecord
100
AcDbTextStyleTableRecord
  2
TEXT20_41
 70
     0
 40
0.0
 41
1.0
 50
0.0
 71
     0
 42
0.2
  3
TAHOMA.TTF
  4

1001
ACAD
1000
Tahoma
1071
      256
  0
STYLE
  5
97
330
3
100
AcDbSymbolTableRecord
100
AcDbTextStyleTableRecord
  2
TEXT20_59
 70
     0
 40
0.0
 41
1.0
 50
0.0
 71
     0
 42
0.2
  3
TAHOMA.TTF
  4

1001
ACAD
1000
Tahoma
1071
      256
  0
STYLE
  5
1C0
330
3
100
AcDbSymbolTableRecord
100
AcDbTextStyleTableRecord
  2
Styl textu62
 70
     0
 40
0.0
 41
0.8000000119209289
 50
0.0
 71
     0
 42
0.2
  3
TAHOMA.TTF
  4

1001
ACAD
1000
Tahoma
1071
      256
  0
STYLE
  5
1C7
330
3
100
AcDbSymbolTableRecord
100
AcDbTextStyleTableRecord
  2
Styl textu58
 70
     0
 40
0.0
 41
0.8000000119209289
 50
0.0
 71
     0
 42
0.2
  3
TAHOMA.TTF
  4

1001
ACAD
1000
Tahoma
1071
      256
  0
STYLE
  5
1C9
330
3
100
AcDbSymbolTableRecord
100
AcDbTextStyleTableRecord
  2
Styl textu63
 70
     0
 40
0.0
 41
0.75
 50
0.0
 71
     0
 42
0.2
  3
TAHOMA.TTF
  4

1001
ACAD
1000
Tahoma
1071
      256
  0
STYLE
  5
1CC
330
3
100
AcDbSymbolTableRecord
100
AcDbTextStyleTableRecord
  2
Styl textu72
 70
     0
 40
0.0
 41
0.6999999880790711
 50
0.0
 71
     0
 42
0.2
  3
TAHOMA.TTF
  4

1001
ACAD
1000
Tahoma
1071
      256
  0
STYLE
  5
1CF
330
3
100
AcDbSymbolTableRecord
100
AcDbTextStyleTableRecord
  2
Styl textu75
 70
     0
 40
0.0
 41
0.8000000119209289
 50
0.0
 71
     0
 42
0.2
  3
TAHOMA.TTF
  4

1001
ACAD
1000
Tahoma
1071
      256
  0
STYLE
  5
1E6
330
3
100
AcDbSymbolTableRecord
100
AcDbTextStyleTableRecord
  2
Styl textu9
 70
     0
 40
0.0
 41
1.0
 50
0.0
 71
     0
 42
0.2
  3
ARIAL.TTF
  4

1001
ACAD
1000
Arial
1071
      256
  0
STYLE
  5
1EA
330
3
100
AcDbSymbolTableRecord
100
AcDbTextStyleTableRecord
  2
Styl textu40
 70
     0
 40
0.0
 41
1.0
 50
0.0
 71
     0
 42
0.2
  3
ARIAL.TTF
  4

1001
ACAD
1000
Arial
1071
      256
  0
STYLE
  5
1EF
330
3
100
AcDbSymbolTableRecord
100
AcDbTextStyleTableRecord
  2
Styl textu94
 70
     0
 40
0.0
 41
1.0
 50
0.0
 71
     0
 42
0.2
  3
TAHOMA.TTF
  4

1001
ACAD
1000
Tahoma
1071
      256
  0
STYLE
  5
A5B
330
3
100
AcDbSymbolTableRecord
100
AcDbTextStyleTableRecord
  2

 70
     1
 40
0.0
 41
1.0
 50
0.0
 71
     0
 42
0.2
  3
genltshp.shx
  4

  0
STYLE
  5
A69
330
3
100
AcDbSymbolTableRecord
100
AcDbTextStyleTableRecord
  2
ACISOTS
 70
     0
 40
1.0
 41
1.0
 50
0.0
 71
     0
 42
0.2
  3
isocp.shx
  4

  0
STYLE
  5
A6A
330
3
100
AcDbSymbolTableRecord
100
AcDbTextStyleTableRecord
  2
ACISOGDT
 70
     0
 40
0.0
 41
1.0
 50
0.0
 71
     0
 42
0.2
  3
amgdt.shx
  4

  0
ENDTAB
  0
TABLE
  2
VIEW
  5
6
330
0
100
AcDbSymbolTable
 70
     0
  0
ENDTAB
  0
TABLE
  2
UCS
  5
7
330
0
100
AcDbSymbolTable
 70
     0
  0
ENDTAB
  0
TABLE
  2
APPID
  5
9
330
0
100
AcDbSymbolTable
 70
    19
  0
APPID
  5
56
330
9
100
AcDbSymbolTableRecord
100
AcDbRegAppTableRecord
  2
ACAD
 70
     0
  0
APPID
  5
5E
330
9
100
AcDbSymbolTableRecord
100
AcDbRegAppTableRecord
  2
AcadAnnotative
 70
     0
  0
APPID
  5
1E9
330
9
100
AcDbSymbolTableRecord
100
AcDbRegAppTableRecord
  2
AcadAnnoPO
 70
     0
  0
APPID
  5
9A0
330
9
100
AcDbSymbolTableRecord
100
AcDbRegAppTableRecord
  2
ACAD_MLEADERVER
 70
     0
  0
APPID
  5
9DF
330
9
100
AcDbSymbolTableRecord
100
AcDbRegAppTableRecord
  2
MCAD_NO_VIS
 70
     0
  0
APPID
  5
9E0
330
9
100
AcDbSymbolTableRecord
100
AcDbRegAppTableRecord
  2
ACAD_TEMP_GRAPHIC
 70
     0
  0
APPID
  5
A10
330
9
100
AcDbSymbolTableRecord
100
AcDbRegAppTableRecord
  2
AD_DRAW
 70
     0
  0
APPID
  5
A13
330
9
100
AcDbSymbolTableRecord
100
AcDbRegAppTableRecord
  2
ACATTRIBSERVICES
 70
     0
  0
APPID
  5
A33
330
9
100
AcDbSymbolTableRecord
100
AcDbRegAppTableRecord
  2
DESIGNERASSEMBLIES
 70
     0
  0
APPID
  5
A39
330
9
100
AcDbSymbolTableRecord
100
AcDbRegAppTableRecord
  2
ACADM_DIM_EDIT
 70
     0
  0
APPID
  5
A3A
330
9
100
AcDbSymbolTableRecord
100
AcDbRegAppTableRecord
  2
AMDT_DM_ADJ
 70
     0
  0
APPID
  5
A51
330
9
100
AcDbSymbolTableRecord
100
AcDbRegAppTableRecord
  2
ACAD_DSTYLE_DIMJAG
 70
     0
  0
APPID
  5
A52
330
9
100
AcDbSymbolTableRecord
100
AcDbRegAppTableRecord
  2
ACAD_DSTYLE_DIMBREAK
 70
     0
  0
APPID
  5
AA5
330
9
100
AcDbSymbolTableRecord
100
AcDbRegAppTableRecord
  2
ACAD_DSTYLE_DIMINSPECT
 70
     0
  0
APPID
  5
27E1
330
9
100
AcDbSymbolTableRecord
100
AcDbRegAppTableRecord
  2
ACAD_EXEMPT_FROM_CAD_STANDARDS
 70
     0
  0
APPID
  5
2828
330
9
100
AcDbSymbolTableRecord
100
AcDbRegAppTableRecord
  2
ACAD_DSTYLE_DIMARC_LENGTH_SYMBOL
 70
     0
  0
APPID
  5
2829
330
9
100
AcDbSymbolTableRecord
100
AcDbRegAppTableRecord
  2
ACAD_DSTYLE_DIM_LINETYPE
 70
     0
  0
APPID
  5
282A
330
9
100
AcDbSymbolTableRecord
100
AcDbRegAppTableRecord
  2
ACAD_DSTYLE_DIM_EXT1_LINETYPE
 70
     0
  0
APPID
  5
282B
330
9
100
AcDbSymbolTableRecord
100
AcDbRegAppTableRecord
  2
ACAD_DSTYLE_DIM_EXT2_LINETYPE
 70
     0
  0
ENDTAB
  0
TABLE
  2
DIMSTYLE
  5
A
330
0
100
AcDbSymbolTable
 70
    24
100
AcDbDimStyleTable
 71
     2
340
58
340
B0
  0
DIMSTYLE
105
58
330
A
100
AcDbSymbolTableRecord
100
AcDbDimStyleTableRecord
  2
Standard
 70
     0
340
55
  0
DIMSTYLE
105
59
330
A
100
AcDbSymbolTableRecord
100
AcDbDimStyleTableRecord
  2
Annotative
 70
     0
340
55
1001
AcadAnnotative
1000
AnnotativeData
1002
{
1070
     1
1070
     1
1002
}
  0
DIMSTYLE
105
A6
330
A
100
AcDbSymbolTableRecord
100
AcDbDimStyleTableRecord
  2
Různé objekty (ISO)
 70
     0
 40
1.666666666666666
 41
2.5
 42
0.0
 43
5.999999999999999
 44
1.0
 45
0.00000001
 46
10.0
 73
     0
 74
     0
 77
     1
 78
     8
 79
     2
140
5.25
143
0.03937
146
0.6676571709769112
147
0.762
171
     3
172
     1
176
   256
177
   256
178
   256
179
     2
271
     2
272
     2
274
     3
278
    44
284
     8
340
93
341
98
371
    -1
372
    -1
  0
DIMSTYLE
105
A7
330
A
100
AcDbSymbolTableRecord
100
AcDbDimStyleTableRecord
  2
Různé objekty (ISO)$7
 70
     0
 40
1.666666666666666
 41
5.0
 42
0.0
 43
5.999999999999999
 44
1.0
 45
0.00000001
 46
10.0
 73
     0
 74
     0
 77
     1
 78
     8
 79
     2
140
5.25
143
0.03937
146
0.6676571709769112
147
0.762
171
     3
172
     1
176
   256
177
   256
178
   256
179
     2
271
     2
272
     2
274
     3
278
    44
284
     8
340
93
341
98
371
    25
372
    -1
  0
DIMSTYLE
105
A8
330
A
100
AcDbSymbolTableRecord
100
AcDbDimStyleTableRecord
  2
Výchozí - Metoda 1b (ISO)
 70
     0
 40
1.666666666666666
 41
2.5
 42
0.0
 43
5.999999999999999
 44
1.0
 45
0.00000001
 46
10.0
 73
     0
 77
     1
 78
     8
 79
     2
140
3.5
143
0.03937
147
0.762
171
     3
172
     1
176
   256
177
   256
178
   256
179
     2
271
     2
272
     2
274
     3
278
    44
284
     8
286
     8
340
95
371
    -1
372
    -1
  0
DIMSTYLE
105
A9
330
A
100
AcDbSymbolTableRecord
100
AcDbDimStyleTableRecord
  2
Výchozí - Metoda 1b (ISO)$7
 70
     0
 40
1.666666666666666
 41
2.5
 42
0.0
 43
5.999999999999999
 44
1.0
 45
0.00000001
 46
10.0
 73
     0
 77
     1
 78
     8
 79
     2
140
3.5
143
0.03937
147
0.762
171
     3
172
     1
176
   256
177
   256
178
   256
179
     2
271
     2
272
     2
274
     3
278
    44
284
     8
286
     8
340
95
371
    -1
372
    -1
  0
DIMSTYLE
105
AA
330
A
100
AcDbSymbolTableRecord
100
AcDbDimStyleTableRecord
  2
Výchozí - Metoda 2a (ISO)
 70
     0
 40
1.666666666666666
 41
2.5
 42
0.0
 43
5.999999999999999
 44
1.0
 45
0.00000001
 46
10.0
 77
     1
 78
     8
 79
     2
140
3.5
143
0.03937
147
0.762
171
     3
172
     1
176
   256
177
   256
178
   256
179
     2
271
     2
272
     2
274
     3
278
    44
284
     8
286
     8
340
95
371
    -1
372
    -1
  0
DIMSTYLE
105
AB
330
A
100
AcDbSymbolTableRecord
100
AcDbDimStyleTableRecord
  2
Výchozí - Metoda 2a (ISO)$7
 70
     0
 40
1.666666666666666
 41
2.5
 42
0.0
 43
5.999999999999999
 44
1.0
 45
0.00000001
 46
10.0
 77
     1
 78
     8
 79
     2
140
3.5
143
0.03937
147
0.762
171
     3
172
     1
176
   256
177
   256
178
   256
179
     2
271
     2
272
     2
274
     3
278
    44
284
     8
286
     8
340
95
371
    -1
372
    -1
  0
DIMSTYLE
105
AC
330
A
100
AcDbSymbolTableRecord
100
AcDbDimStyleTableRecord
  2
Výchozí - Metoda 2b (ISO)
 70
     0
 40
1.666666666666666
 41
2.5
 42
0.0
 43
5.999999999999999
 44
1.0
 45
0.00000001
 46
10.0
 77
     1
 78
     8
 79
     2
140
3.5
143
0.03937
147
0.762
171
     3
172
     1
176
   256
177
   256
178
   256
179
     2
271
     2
272
     2
274
     3
278
    44
284
     8
286
     8
340
95
371
    -1
372
    -1
  0
DIMSTYLE
105
AD
330
A
100
AcDbSymbolTableRecord
100
AcDbDimStyleTableRecord
  2
Výchozí - Metoda 2b (ISO)$7
 70
     0
 40
1.666666666666666
 41
2.5
 42
0.0
 43
5.999999999999999
 44
1.0
 45
0.00000001
 46
10.0
 77
     1
 78
     8
 79
     2
140
3.5
143
0.03937
147
0.762
171
     3
172
     1
176
   256
177
   256
178
   256
179
     2
271
     2
272
     2
274
     3
278
    44
284
     8
286
     8
340
95
371
    -1
372
    -1
  0
DIMSTYLE
105
AE
330
A
100
AcDbSymbolTableRecord
100
AcDbDimStyleTableRecord
  2
Výchozí - mm [palce] (ISO)
 70
     0
  4
 in
 40
1.666666666666666
 41
2.5
 42
0.0
 43
5.999999999999999
 44
3.174999999999999
 45
0.00000001
 46
10.0
 73
     0
 74
     0
 77
     1
 78
     8
 79
     2
140
3.5
143
0.03937
147
0.762
170
     1
171
     3
172
     1
176
   256
177
   256
178
   256
179
     3
271
     3
272
     2
274
     3
275
     1
278
    44
284
     8
285
     8
286
     8
340
95
371
    -1
372
    -1
  0
DIMSTYLE
105
AF
330
A
100
AcDbSymbolTableRecord
100
AcDbDimStyleTableRecord
  2
Výchozí - mm [palce] (ISO)$7
 70
     0
  4
 in
 40
1.666666666666666
 41
2.5
 42
0.0
 43
5.999999999999999
 44
3.174999999999999
 45
0.00000001
 46
10.0
 73
     0
 74
     0
 77
     1
 78
     8
 79
     2
140
3.5
143
0.03937
147
0.762
170
     1
171
     3
172
     1
176
   256
177
   256
178
   256
179
     3
271
     3
272
     2
274
     3
275
     1
278
    44
284
     8
285
     8
286
     8
340
95
371
    -1
372
    -1
  0
DIMSTYLE
105
B0
102
{ACAD_REACTORS
330
675
330
74F
102
}
330
A
100
AcDbSymbolTableRecord
100
AcDbDimStyleTableRecord
  2
Výchozí (ISO)
 70
     0
 40
1.666666666666666
 41
2.5
 42
0.0
 43
5.999999999999999
 44
1.0
 45
0.00000001
 46
10.0
 73
     0
 74
     0
 77
     1
 78
     8
 79
     2
140
3.5
143
0.03937
146
1.001485756465366
147
0.762
171
     3
172
     1
176
   256
177
   256
178
   256
179
     2
271
     2
272
     2
274
     3
278
    44
284
     8
340
95
371
    -1
372
    -1
  0
DIMSTYLE
105
B1
330
A
100
AcDbSymbolTableRecord
100
AcDbDimStyleTableRecord
  2
Výchozí (ISO)$7
 70
     0
 40
1.666666666666666
 41
2.5
 42
0.0
 43
5.999999999999999
 44
1.0
 45
0.00000001
 46
10.0
 73
     0
 74
     0
 77
     1
 78
     8
 79
     2
140
3.5
143
0.03937
146
1.001485756465366
147
0.762
171
     3
172
     1
176
   256
177
   256
178
   256
179
     2
271
     2
272
     2
274
     3
278
    44
284
     8
340
95
371
    -1
372
    -1
  0
DIMSTYLE
105
B2
330
A
100
AcDbSymbolTableRecord
100
AcDbDimStyleTableRecord
  2
Alternativní (ISO)
 70
     0
 40
1.666666666666666
 41
2.5
340
55
342
B3
  0
DIMSTYLE
105
C4
330
A
100
AcDbSymbolTableRecord
100
AcDbDimStyleTableRecord
  2
Základny (ISO)
 70
     0
 40
1.666666666666666
 41
2.5
340
55
342
B3
  0
DIMSTYLE
105
A50
102
{ACAD_REACTORS
330
A3F
102
}
330
A
100
AcDbSymbolTableRecord
100
AcDbDimStyleTableRecord
  2
AM_ISO
 70
     0
  4
"
 41
3.5
 42
1.0
 43
10.0
 44
1.0
 47
0.1
 48
0.1
 73
     0
 74
     0
 77
     1
 78
     8
 79
     2
140
3.5
141
0.0
143
0.0393701
146
0.71
147
1.5
172
     1
176
   256
177
   256
178
     2
271
     2
272
     3
274
     4
283
     0
284
     8
340
55
371
    -1
372
    -1
1001
ACAD_DSTYLE_DIMJAG
1070
   388
1040
1.5
1001
ACAD_DSTYLE_DIMBREAK
1070
   391
1040
3.75
1001
ACAD_DSTYLE_DIMARC_LENGTH_SYMBOL
1070
   379
1070
     1
1001
ACAD_DSTYLE_DIM_LINETYPE
1070
   380
1005
5B
1001
ACAD_DSTYLE_DIM_EXT1_LINETYPE
1070
   381
1005
5B
1001
ACAD_DSTYLE_DIM_EXT2_LINETYPE
1070
   382
1005
5B
  0
DIMSTYLE
105
A5D
330
A
100
AcDbSymbolTableRecord
100
AcDbDimStyleTableRecord
  2
AM_ISO$3
 70
     0
  4
"
 41
3.5
 42
1.0
 43
10.0
 44
1.0
 47
0.1
 48
0.1
 73
     0
 77
     1
 78
     8
 79
     2
140
3.5
141
0.0
143
0.0393701
146
0.71
147
1.5
176
   256
177
   256
178
     2
271
     2
272
     3
274
     4
283
     0
284
     8
288
     1
289
     0
340
55
371
    -1
372
    -1
1001
ACAD_DSTYLE_DIMBREAK
1070
   391
1040
3.75
1001
ACAD_DSTYLE_DIMJAG
1070
   388
1040
1.5
1001
ACAD_DSTYLE_DIMARC_LENGTH_SYMBOL
1070
   379
1070
     1
1001
ACAD_DSTYLE_DIM_LINETYPE
1070
   380
1005
5B
1001
ACAD_DSTYLE_DIM_EXT1_LINETYPE
1070
   381
1005
5B
1001
ACAD_DSTYLE_DIM_EXT2_LINETYPE
1070
   382
1005
5B
  0
DIMSTYLE
105
A5E
330
A
100
AcDbSymbolTableRecord
100
AcDbDimStyleTableRecord
  2
AM_ISO$4
 70
     0
  4
"
 41
3.5
 42
1.0
 43
10.0
 44
1.0
 47
0.1
 48
0.1
 73
     0
 77
     1
 78
     8
 79
     2
140
3.5
141
0.0
143
0.0393701
146
0.71
147
1.5
176
   256
177
   256
178
     2
271
     2
272
     3
274
     4
283
     0
284
     8
288
     1
289
     0
340
55
371
    -1
372
    -1
1001
ACAD_DSTYLE_DIMBREAK
1070
   391
1040
3.75
1001
ACAD_DSTYLE_DIMJAG
1070
   388
1040
1.5
1001
ACAD_DSTYLE_DIMARC_LENGTH_SYMBOL
1070
   379
1070
     1
1001
ACAD_DSTYLE_DIM_LINETYPE
1070
   380
1005
5B
1001
ACAD_DSTYLE_DIM_EXT1_LINETYPE
1070
   381
1005
5B
1001
ACAD_DSTYLE_DIM_EXT2_LINETYPE
1070
   382
1005
5B
  0
DIMSTYLE
105
A5F
330
A
100
AcDbSymbolTableRecord
100
AcDbDimStyleTableRecord
  2
AM_ISO$6
 70
     0
  4
"
 41
3.5
 42
1.0
 43
10.0
 44
1.0
 47
0.1
 48
0.1
 73
     0
 74
     0
 78
     8
 79
     2
140
3.5
141
0.0
143
0.0393701
146
0.71
147
1.5
172
     1
176
   256
177
   256
178
     2
271
     2
272
     3
274
     4
283
     0
284
     8
340
55
371
    -1
372
    -1
1001
ACAD_DSTYLE_DIMBREAK
1070
   391
1040
3.75
1001
ACAD_DSTYLE_DIMJAG
1070
   388
1040
1.5
1001
ACAD_DSTYLE_DIMARC_LENGTH_SYMBOL
1070
   379
1070
     1
1001
ACAD_DSTYLE_DIM_LINETYPE
1070
   380
1005
5B
1001
ACAD_DSTYLE_DIM_EXT1_LINETYPE
1070
   381
1005
5B
1001
ACAD_DSTYLE_DIM_EXT2_LINETYPE
1070
   382
1005
5B
  0
DIMSTYLE
105
A60
330
A
100
AcDbSymbolTableRecord
100
AcDbDimStyleTableRecord
  2
AM_ISO$7
 70
     0
  4
"
 41
3.5
 42
1.0
 43
10.0
 44
1.0
 47
0.1
 48
0.1
 73
     0
 74
     0
 77
     1
 78
     8
 79
     2
140
3.5
141
0.0
143
0.0393701
146
0.71
147
1.5
172
     1
176
   256
177
   256
178
     2
271
     2
272
     3
274
     4
283
     0
284
     8
340
55
371
    -1
372
    -1
1001
ACAD_DSTYLE_DIMBREAK
1070
   391
1040
3.75
1001
ACAD_DSTYLE_DIMJAG
1070
   388
1040
1.5
1001
ACAD_DSTYLE_DIMARC_LENGTH_SYMBOL
1070
   379
1070
     1
1001
ACAD_DSTYLE_DIM_LINETYPE
1070
   380
1005
5B
1001
ACAD_DSTYLE_DIM_EXT1_LINETYPE
1070
   381
1005
5B
1001
ACAD_DSTYLE_DIM_EXT2_LINETYPE
1070
   382
1005
5B
  0
DIMSTYLE
105
A61
330
A
100
AcDbSymbolTableRecord
100
AcDbDimStyleTableRecord
  2
AM_ISO$SF
 70
     0
  4
"
 41
3.5
 42
1.0
 43
10.0
 44
1.0
 47
0.1
 48
0.1
 73
     0
 74
     0
 75
     1
 76
     1
 77
     1
 78
     8
 79
     2
140
3.5
141
0.0
143
0.0393701
146
0.71
147
1.5
172
     1
176
   256
177
   256
178
     2
271
     2
272
     3
274
     4
283
     0
284
     8
340
55
371
    -1
372
    -1
1001
ACAD_DSTYLE_DIMBREAK
1070
   391
1040
3.75
1001
ACAD_DSTYLE_DIMJAG
1070
   388
1040
1.5
1001
ACAD_DSTYLE_DIMARC_LENGTH_SYMBOL
1070
   379
1070
     1
1001
ACAD_DSTYLE_DIM_LINETYPE
1070
   380
1005
5B
1001
ACAD_DSTYLE_DIM_EXT1_LINETYPE
1070
   381
1005
5B
1001
ACAD_DSTYLE_DIM_EXT2_LINETYPE
1070
   382
1005
5B
  0
DIMSTYLE
105
A66
330
A
100
AcDbSymbolTableRecord
100
AcDbDimStyleTableRecord
  2
AM_ISO$SH
 70
     0
  4
"
 41
3.5
 42
1.0
 43
10.0
 44
1.0
 47
0.1
 48
0.1
 73
     0
 74
     0
 75
     1
 76
     1
 77
     1
 78
     8
 79
     2
140
3.5
141
0.0
143
0.0393701
144
2.0
146
0.71
147
1.5
172
     1
173
     1
176
   256
177
   256
178
     2
271
     2
272
     3
274
     4
283
     0
284
     8
340
55
343
A62
371
    -1
372
    -1
1001
ACAD_DSTYLE_DIMBREAK
1070
   391
1040
3.75
1001
ACAD_DSTYLE_DIMJAG
1070
   388
1040
1.5
1001
ACAD_DSTYLE_DIMARC_LENGTH_SYMBOL
1070
   379
1070
     1
1001
ACAD_DSTYLE_DIM_LINETYPE
1070
   380
1005
5B
1001
ACAD_DSTYLE_DIM_EXT1_LINETYPE
1070
   381
1005
5B
1001
ACAD_DSTYLE_DIM_EXT2_LINETYPE
1070
   382
1005
5B
  0
ENDTAB
  0
TABLE
  2
BLOCK_RECORD
  5
1
330
0
100
AcDbSymbolTable
 70
    38
  0
BLOCK_RECORD
  5
6C
330
1
100
AcDbSymbolTableRecord
100
AcDbBlockTableRecord
  2
*Model_Space
340
6F
  0
BLOCK_RECORD
  5
68
330
1
100
AcDbSymbolTableRecord
100
AcDbBlockTableRecord
  2
*Paper_Space
340
6B
  0
BLOCK_RECORD
  5
70
330
1
100
AcDbSymbolTableRecord
100
AcDbBlockTableRecord
  2
*Paper_Space0
340
73
  0
BLOCK_RECORD
  5
98
330
1
100
AcDbSymbolTableRecord
100
AcDbBlockTableRecord
  2
Filled-1
340
0
  0
BLOCK_RECORD
  5
B3
330
1
100
AcDbSymbolTableRecord
100
AcDbBlockTableRecord
  2
_Closed
340
0
  0
BLOCK_RECORD
  5
BA
330
1
100
AcDbSymbolTableRecord
100
AcDbBlockTableRecord
  2
DatumFilled45
340
0
  0
BLOCK_RECORD
  5
C5
330
1
100
AcDbSymbolTableRecord
100
AcDbBlockTableRecord
  2
WIG-svarovani
340
0
  0
BLOCK_RECORD
  5
CA
330
1
100
AcDbSymbolTableRecord
100
AcDbBlockTableRecord
  2
Popis kotvy_srouby
340
0
  0
BLOCK_RECORD
  5
CE
330
1
100
AcDbSymbolTableRecord
100
AcDbBlockTableRecord
  2
Mater. provedeni Art.
340
0
  0
BLOCK_RECORD
  5
F0
330
1
100
AcDbSymbolTableRecord
100
AcDbBlockTableRecord
  2
Art. s popisy
340
0
  0
BLOCK_RECORD
  5
112
330
1
100
AcDbSymbolTableRecord
100
AcDbBlockTableRecord
  2
Tryskat
340
0
  0
BLOCK_RECORD
  5
116
330
1
100
AcDbSymbolTableRecord
100
AcDbBlockTableRecord
  2
Morit
340
0
  0
BLOCK_RECORD
  5
11A
330
1
100
AcDbSymbolTableRecord
100
AcDbBlockTableRecord
  2
zinkovat
340
0
  0
BLOCK_RECORD
  5
11E
330
1
100
AcDbSymbolTableRecord
100
AcDbBlockTableRecord
  2
Nater
340
0
  0
BLOCK_RECORD
  5
122
330
1
100
AcDbSymbolTableRecord
100
AcDbBlockTableRecord
  2
Brus
340
0
  0
BLOCK_RECORD
  5
126
330
1
100
AcDbSymbolTableRecord
100
AcDbBlockTableRecord
  2
Elektroliticky lestit
340
0
  0
BLOCK_RECORD
  5
12A
330
1
100
AcDbSymbolTableRecord
100
AcDbBlockTableRecord
  2
Rámečky Default Border
340
0
  0
BLOCK_RECORD
  5
181
330
1
100
AcDbSymbolTableRecord
100
AcDbBlockTableRecord
  2
Rohová razítka ACO-razitko
340
0
  0
BLOCK_RECORD
  5
677
330
1
100
AcDbSymbolTableRecord
100
AcDbBlockTableRecord
  2
*D16
340
0
  0
BLOCK_RECORD
  5
750
330
1
100
AcDbSymbolTableRecord
100
AcDbBlockTableRecord
  2
*D17
340
0
  0
BLOCK_RECORD
  5
832
330
1
100
AcDbSymbolTableRecord
100
AcDbBlockTableRecord
  2
KUSOVNÍK
340
0
  0
BLOCK_RECORD
  5
8B0
330
1
100
AcDbSymbolTableRecord
100
AcDbBlockTableRecord
  2
Pozice1
340
0
  0
BLOCK_RECORD
  5
8C2
330
1
100
AcDbSymbolTableRecord
100
AcDbBlockTableRecord
  2
Pozice2
340
0
  0
BLOCK_RECORD
  5
8D4
330
1
100
AcDbSymbolTableRecord
100
AcDbBlockTableRecord
  2
Pozice3
340
0
  0
BLOCK_RECORD
  5
8E6
330
1
100
AcDbSymbolTableRecord
100
AcDbBlockTableRecord
  2
Pozice4
340
0
  0
BLOCK_RECORD
  5
8F8
330
1
100
AcDbSymbolTableRecord
100
AcDbBlockTableRecord
  2
Pozice5
340
0
  0
BLOCK_RECORD
  5
90B
330
1
100
AcDbSymbolTableRecord
100
AcDbBlockTableRecord
  2
Pozice6
340
0
  0
BLOCK_RECORD
  5
91B
330
1
100
AcDbSymbolTableRecord
100
AcDbBlockTableRecord
  2
Pozice7
340
0
  0
BLOCK_RECORD
  5
A62
330
1
100
AcDbSymbolTableRecord
100
AcDbBlockTableRecord
  2
GENAXEH
340
0
  0
BLOCK_RECORD
  5
A75
330
1
100
AcDbSymbolTableRecord
100
AcDbBlockTableRecord
  2
*D28
340
0
  0
BLOCK_RECORD
  5
A81
330
1
100
AcDbSymbolTableRecord
100
AcDbBlockTableRecord
  2
*D29
340
0
  0
BLOCK_RECORD
  5
A8D
330
1
100
AcDbSymbolTableRecord
100
AcDbBlockTableRecord
  2
*D30
340
0
  0
BLOCK_RECORD
  5
A99
330
1
100
AcDbSymbolTableRecord
100
AcDbBlockTableRecord
  2
*D31
340
0
  0
BLOCK_RECORD
  5
278C
330
1
100
AcDbSymbolTableRecord
100
AcDbBlockTableRecord
  2
*D33
340
0
  0
BLOCK_RECORD
  5
2798
330
1
100
AcDbSymbolTableRecord
100
AcDbBlockTableRecord
  2
*D34
340
0
  0
BLOCK_RECORD
  5
27A4
330
1
100
AcDbSymbolTableRecord
100
AcDbBlockTableRecord
  2
*D35
340
0
  0
BLOCK_RECORD
  5
27B0
330
1
100
AcDbSymbolTableRecord
100
AcDbBlockTableRecord
  2
*D36
340
0
  0
ENDTAB
  0
ENDSEC
  0
SECTION
  2
BLOCKS
  0
BLOCK
  5
6D
330
6C
100
AcDbEntity
  8
0
100
AcDbBlockBegin
  2
*Model_Space
 70
     0
 10
0.0
 20
0.0
 30
0.0
  3
*Model_Space
  1

  0
ENDBLK
  5
6E
330
6C
100
AcDbEntity
  8
0
100
AcDbBlockEnd
  0
BLOCK
  5
69
330
68
100
AcDbEntity
 67
     1
  8
0
100
AcDbBlockBegin
  2
*Paper_Space
 70
     0
 10
0.0
 20
0.0
 30
0.0
  3
*Paper_Space
  1

  0
ENDBLK
  5
6A
330
68
100
AcDbEntity
 67
     1
  8
0
100
AcDbBlockEnd
  0
BLOCK
  5
71
330
70
100
AcDbEntity
 67
     1
  8
0
100
AcDbBlockBegin
  2
*Paper_Space0
 70
     0
 10
0.0
 20
0.0
 30
0.0
  3
*Paper_Space0
  1

  0
ENDBLK
  5
72
330
70
100
AcDbEntity
 67
     1
  8
0
100
AcDbBlockEnd
  0
BLOCK
  5
99
330
98
100
AcDbEntity
  8
0
100
AcDbBlockBegin
  2
Filled-1
 70
     0
 10
0.0
 20
0.0
 30
0.0
  3
Filled-1
  1

  0
LINE
  5
9B
330
98
100
AcDbEntity
  8
0
 62
     0
100
AcDbLine
 10
-1.0
 20
0.0
 30
0.0
 11
0.0
 21
0.0
 31
0.0
  0
POLYLINE
  5
9C
330
98
100
AcDbEntity
  8
0
 62
     0
100
AcDb2dPolyline
 66
     1
 10
0.0
 20
0.0
 30
0.0
 70
   128
  0
VERTEX
  5
9D
330
9C
100
AcDbEntity
  8
0
 62
     0
100
AcDbVertex
100
AcDb2dVertex
 10
-1.0
 20
-0.1
 30
0.0
  0
VERTEX
  5
9E
330
9C
100
AcDbEntity
  8
0
 62
     0
100
AcDbVertex
100
AcDb2dVertex
 10
0.0
 20
0.0
 30
0.0
  0
VERTEX
  5
A0
330
9C
100
AcDbEntity
  8
0
 62
     0
100
AcDbVertex
100
AcDb2dVertex
 10
-1.0
 20
0.1
 30
0.0
  0
VERTEX
  5
A1
330
9C
100
AcDbEntity
  8
0
 62
     0
100
AcDbVertex
100
AcDb2dVertex
 10
-1.0
 20
-0.1
 30
0.0
  0
SEQEND
  5
9F
330
9C
100
AcDbEntity
  8
0
 62
     0
  0
SOLID
  5
A2
330
98
100
AcDbEntity
  8
0
 62
     0
100
AcDbTrace
 10
-1.0
 20
-0.1
 30
0.0
 11
0.0
 21
0.0
 31
0.0
 12
-1.0
 22
0.1
 32
0.0
 13
-1.0
 23
-0.1
 33
0.0
  0
LINE
  5
A3
330
98
100
AcDbEntity
  8
0
 62
     0
100
AcDbLine
 10
-1.0
 20
-0.1
 30
0.0
 11
0.0
 21
0.0
 31
0.0
  0
LINE
  5
A4
330
98
100
AcDbEntity
  8
0
 62
     0
100
AcDbLine
 10
0.0
 20
0.0
 30
0.0
 11
-1.0
 21
0.1
 31
0.0
  0
LINE
  5
A5
330
98
100
AcDbEntity
  8
0
 62
     0
100
AcDbLine
 10
-1.0
 20
0.1
 30
0.0
 11
-1.0
 21
-0.1
 31
0.0
  0
ENDBLK
  5
9A
330
98
100
AcDbEntity
  8
0
100
AcDbBlockEnd
  0
BLOCK
  5
B8
330
B3
100
AcDbEntity
  8
0
100
AcDbBlockBegin
  2
_Closed
 70
     0
 10
0.0
 20
0.0
 30
0.0
  3
_Closed
  1

  0
LINE
  5
B4
330
B3
100
AcDbEntity
  8
0
  6
ByBlock
 62
     0
370
    -2
100
AcDbLine
 10
-1.0
 20
0.1666666666666666
 30
0.0
 11
0.0
 21
0.0
 31
0.0
  0
LINE
  5
B5
330
B3
100
AcDbEntity
  8
0
  6
ByBlock
 62
     0
370
    -2
100
AcDbLine
 10
0.0
 20
0.0
 30
0.0
 11
-1.0
 21
-0.1666666666666666
 31
0.0
  0
LINE
  5
B6
330
B3
100
AcDbEntity
  8
0
  6
ByBlock
 62
     0
370
    -2
100
AcDbLine
 10
-1.0
 20
0.1666666666666666
 30
0.0
 11
-1.0
 21
-0.1666666666666666
 31
0.0
  0
LINE
  5
B7
330
B3
100
AcDbEntity
  8
0
  6
ByBlock
 62
     0
370
    -2
100
AcDbLine
 10
0.0
 20
0.0
 30
0.0
 11
-1.0
 21
0.0
 31
0.0
  0
ENDBLK
  5
B9
330
B3
100
AcDbEntity
  8
0
100
AcDbBlockEnd
  0
BLOCK
  5
BB
330
BA
100
AcDbEntity
  8
0
100
AcDbBlockBegin
  2
DatumFilled45
 70
     0
 10
0.0
 20
0.0
 30
0.0
  3
DatumFilled45
  1

  0
POLYLINE
  5
BD
330
BA
100
AcDbEntity
  8
0
 62
     0
100
AcDb2dPolyline
 66
     1
 10
0.0
 20
0.0
 30
0.0
 70
   128
  0
VERTEX
  5
BE
330
BD
100
AcDbEntity
  8
0
 62
     0
100
AcDbVertex
100
AcDb2dVertex
 10
0.0
 20
1.0
 30
0.0
  0
VERTEX
  5
BF
330
BD
100
AcDbEntity
  8
0
 62
     0
100
AcDbVertex
100
AcDb2dVertex
 10
0.0
 20
-1.0
 30
0.0
  0
VERTEX
  5
C1
330
BD
100
AcDbEntity
  8
0
 62
     0
100
AcDbVertex
100
AcDb2dVertex
 10
-1.0
 20
0.0
 30
0.0
  0
VERTEX
  5
C2
330
BD
100
AcDbEntity
  8
0
 62
     0
100
AcDbVertex
100
AcDb2dVertex
 10
0.0
 20
1.0
 30
0.0
  0
SEQEND
  5
C0
330
BD
100
AcDbEntity
  8
0
 62
     0
  0
SOLID
  5
C3
330
BA
100
AcDbEntity
  8
0
 62
     0
100
AcDbTrace
 10
0.0
 20
1.0
 30
0.0
 11
0.0
 21
-1.0
 31
0.0
 12
-1.0
 22
0.0
 32
0.0
 13
0.0
 23
1.0
 33
0.0
  0
ENDBLK
  5
BC
330
BA
100
AcDbEntity
  8
0
100
AcDbBlockEnd
  0
BLOCK
  5
C6
330
C5
100
AcDbEntity
  8
0
100
AcDbBlockBegin
  2
WIG-svarovani
 70
     0
 10
0.0
 20
0.0
 30
0.0
  3
WIG-svarovani
  1

  0
MTEXT
  5
C8
102
{ACAD_XDICTIONARY
360
27EB
102
}
330
C5
100
AcDbEntity
  8
Značka (ISO)
100
AcDbMText
 10
-57.87338256835937
 20
16.31795931607484
 30
0.0
 40
3.499999940395355
 41
115.7467651367187
 71
     1
 72
     1
  1
WIG Schweisung, Nahte sauber geschliffen und poliert\PSichtstege geschliffen mit 240 Korn und abgeklebt.\P{\H0.85714x; \P\H1.1667x;WIG svarovani- svary dle potreby zabrousit.\PPohledove plochy brousit (vel. brusnych zrn 240)\Pa polepit paskou}
  7
Text poznámky (ISO)
 73
     1
 44
0.959658920764923
  0
ENDBLK
  5
C7
330
C5
100
AcDbEntity
  8
0
100
AcDbBlockEnd
  0
BLOCK
  5
CB
330
CA
100
AcDbEntity
  8
0
100
AcDbBlockBegin
  2
Popis kotvy_srouby
 70
     0
 10
0.0
 20
0.0
 30
0.0
  3
Popis kotvy_srouby
  1

  0
MTEXT
  5
CD
330
CA
100
AcDbEntity
  8
Značka (ISO)
100
AcDbMText
 10
-39.79761123657226
 20
21.84130281209946
 30
0.0
 40
3.499999940395355
 41
0.0
 71
     1
 72
     1
  1
Vzdalenost nivel. sroubu ca. 1500\PVzdalenost kotev ca. 400\PVzdalenost dist. koliku ca. 250\P\PAbstand der Nivellieschraben ca.1500\PAbstand der Maueranker ca.400\PAbstand der Distanzstege ca.250\P
  7
Text poznámky (ISO)
 73
     2
 44
0.9878841638565063
  0
ENDBLK
  5
CC
330
CA
100
AcDbEntity
  8
0
100
AcDbBlockEnd
  0
BLOCK
  5
CF
330
CE
100
AcDbEntity
  8
0
100
AcDbBlockBegin
  2
Mater. provedeni Art.
 70
     0
 10
0.0
 20
0.0
 30
0.0
  3
Mater. provedeni Art.
  1

  0
LINE
  5
D1
330
CE
100
AcDbEntity
  8
Geometrie náčrtu (ISO)
100
AcDbLine
 10
-35.0
 20
-22.5
 30
0.0
 11
35.0
 21
-22.5
 31
0.0
  0
LINE
  5
D2
330
CE
100
AcDbEntity
  8
Geometrie náčrtu (ISO)
100
AcDbLine
 10
35.0
 20
-22.5
 30
0.0
 11
34.99999999999996
 21
-13.49999999999998
 31
0.0
  0
LINE
  5
D3
330
CE
100
AcDbEntity
  8
Geometrie náčrtu (ISO)
100
AcDbLine
 10
34.99999999999996
 20
-13.49999999999998
 30
0.0
 11
-35.00000000000003
 21
-13.49999999999998
 31
0.0
  0
LINE
  5
D4
330
CE
100
AcDbEntity
  8
Geometrie náčrtu (ISO)
100
AcDbLine
 10
-35.00000000000003
 20
-13.49999999999998
 30
0.0
 11
-35.0
 21
-22.5
 31
0.0
  0
LINE
  5
D5
330
CE
100
AcDbEntity
  8
Geometrie náčrtu (ISO)
100
AcDbLine
 10
-35.00000000000003
 20
-13.49999999999998
 30
0.0
 11
34.99999999999996
 21
-13.49999999999998
 31
0.0
  0
LINE
  5
D6
330
CE
100
AcDbEntity
  8
Geometrie náčrtu (ISO)
100
AcDbLine
 10
34.99999999999996
 20
-13.49999999999998
 30
0.0
 11
34.99999999999996
 21
-4.499999999999992
 31
0.0
  0
LINE
  5
D7
330
CE
100
AcDbEntity
  8
Geometrie náčrtu (ISO)
100
AcDbLine
 10
34.99999999999996
 20
-4.499999999999992
 30
0.0
 11
-35.00000000000003
 21
-4.499999999999992
 31
0.0
  0
LINE
  5
D8
330
CE
100
AcDbEntity
  8
Geometrie náčrtu (ISO)
100
AcDbLine
 10
-35.00000000000003
 20
-4.499999999999992
 30
0.0
 11
-35.00000000000003
 21
-13.49999999999998
 31
0.0
  0
LINE
  5
D9
330
CE
100
AcDbEntity
  8
Geometrie náčrtu (ISO)
100
AcDbLine
 10
-35.00000000000003
 20
-4.499999999999992
 30
0.0
 11
34.99999999999996
 21
-4.499999999999992
 31
0.0
  0
LINE
  5
DA
330
CE
100
AcDbEntity
  8
Geometrie náčrtu (ISO)
100
AcDbLine
 10
34.99999999999996
 20
-4.499999999999992
 30
0.0
 11
34.99999999999996
 21
4.499999999999992
 31
0.0
  0
LINE
  5
DB
330
CE
100
AcDbEntity
  8
Geometrie náčrtu (ISO)
100
AcDbLine
 10
34.99999999999996
 20
4.499999999999992
 30
0.0
 11
-35.00000000000003
 21
4.499999999999992
 31
0.0
  0
LINE
  5
DC
330
CE
100
AcDbEntity
  8
Geometrie náčrtu (ISO)
100
AcDbLine
 10
-35.00000000000003
 20
4.499999999999992
 30
0.0
 11
-35.00000000000003
 21
-4.499999999999992
 31
0.0
  0
LINE
  5
DD
330
CE
100
AcDbEntity
  8
Geometrie náčrtu (ISO)
100
AcDbLine
 10
-35.00000000000003
 20
4.499999999999992
 30
0.0
 11
34.99999999999996
 21
4.499999999999992
 31
0.0
  0
LINE
  5
DE
330
CE
100
AcDbEntity
  8
Geometrie náčrtu (ISO)
100
AcDbLine
 10
34.99999999999996
 20
4.499999999999992
 30
0.0
 11
34.99999999999996
 21
13.50000000000001
 31
0.0
  0
LINE
  5
DF
330
CE
100
AcDbEntity
  8
Geometrie náčrtu (ISO)
100
AcDbLine
 10
34.99999999999996
 20
13.50000000000001
 30
0.0
 11
-35.00000000000003
 21
13.50000000000001
 31
0.0
  0
LINE
  5
E0
330
CE
100
AcDbEntity
  8
Geometrie náčrtu (ISO)
100
AcDbLine
 10
-35.00000000000003
 20
13.50000000000001
 30
0.0
 11
-35.00000000000003
 21
4.499999999999992
 31
0.0
  0
LINE
  5
E1
330
CE
100
AcDbEntity
  8
Geometrie náčrtu (ISO)
100
AcDbLine
 10
-35.00000000000003
 20
13.50000000000001
 30
0.0
 11
34.99999999999996
 21
13.50000000000001
 31
0.0
  0
LINE
  5
E2
330
CE
100
AcDbEntity
  8
Geometrie náčrtu (ISO)
100
AcDbLine
 10
34.99999999999996
 20
13.50000000000001
 30
0.0
 11
34.99999999999996
 21
22.5
 31
0.0
  0
LINE
  5
E3
330
CE
100
AcDbEntity
  8
Geometrie náčrtu (ISO)
100
AcDbLine
 10
34.99999999999996
 20
22.5
 30
0.0
 11
-35.00000000000003
 21
22.5
 31
0.0
  0
LINE
  5
E4
330
CE
100
AcDbEntity
  8
Geometrie náčrtu (ISO)
100
AcDbLine
 10
-35.00000000000003
 20
22.5
 30
0.0
 11
-35.00000000000003
 21
13.50000000000001
 31
0.0
  0
LINE
  5
E5
330
CE
100
AcDbEntity
  8
Geometrie náčrtu (ISO)
100
AcDbLine
 10
-6.999999999999992
 20
22.5
 30
0.0
 11
-6.999999999999992
 21
-22.5
 31
0.0
  0
MTEXT
  5
E6
330
CE
100
AcDbEntity
  8
Značka (ISO)
100
AcDbMText
 10
-5.126613448311374
 20
11.7684641726084
 30
0.0
 40
5.0
 41
0.0
 71
     1
 72
     1
  1
\fTahoma|b0|i0;\H5.0000;xxxxxxxxxxx
  7
Text poznámky (ISO)
 73
     1
 44
1.0
  0
MTEXT
  5
E7
330
CE
100
AcDbEntity
  8
Značka (ISO)
100
AcDbMText
 10
-33.0130165251342
 20
11.7684641726084
 30
0.0
 40
5.0
 41
20.42139291763306
 71
     1
 72
     1
  1
\fTahoma|b0|i0;\H5.0000;xxxxxx
  7
Text poznámky (ISO)
 73
     1
 44
1.0
  0
MTEXT
  5
E8
330
CE
100
AcDbEntity
  8
Značka (ISO)
100
AcDbMText
 10
-32.07756235018873
 20
20.30710993714994
 30
0.0
 40
5.0
 41
13.92583036716939
 71
     1
 72
     1
  1
\fTahoma|b0|i0;\H5.0000;Art.
  7
Text poznámky (ISO)
 73
     1
 44
1.0
  0
MTEXT
  5
E9
330
CE
100
AcDbEntity
  8
Značka (ISO)
100
AcDbMText
 10
4.291672002492319
 20
20.30710993714994
 30
0.0
 40
5.0
 41
0.0
 71
     1
 72
     1
  1
\fTahoma|b0|i0;\H5.0000;Mat.
  7
Text poznámky (ISO)
 73
     1
 44
1.0
  0
MTEXT
  5
EA
330
CE
100
AcDbEntity
  8
Značka (ISO)
100
AcDbMText
 10
-33.0130165251342
 20
2.473781856899819
 30
0.0
 40
5.0
 41
20.42139291763306
 71
     1
 72
     1
  1
\fTahoma|b0|i0;\H5.0000;xxxxxx
  7
Text poznámky (ISO)
 73
     1
 44
1.0
  0
MTEXT
  5
EB
330
CE
100
AcDbEntity
  8
Značka (ISO)
100
AcDbMText
 10
-5.126613448311374
 20
2.473781856899819
 30
0.0
 40
5.0
 41
0.0
 71
     1
 72
     1
  1
\fTahoma|b0|i0;\H5.0000;xxxxxxxxxxx
  7
Text poznámky (ISO)
 73
     1
 44
1.0
  0
MTEXT
  5
EC
330
CE
100
AcDbEntity
  8
Značka (ISO)
100
AcDbMText
 10
-33.0130165251342
 20
-6.862452441171491
 30
0.0
 40
5.0
 41
20.42139291763306
 71
     1
 72
     1
  1
\fTahoma|b0|i0;\H5.0000;xxxxxx
  7
Text poznámky (ISO)
 73
     1
 44
1.0
  0
MTEXT
  5
ED
330
CE
100
AcDbEntity
  8
Značka (ISO)
100
AcDbMText
 10
-5.126613448311374
 20
-6.862452441171491
 30
0.0
 40
5.0
 41
0.0
 71
     1
 72
     1
  1
\fTahoma|b0|i0;\H5.0000;xxxxxxxxxxx
  7
Text poznámky (ISO)
 73
     1
 44
1.0
  0
MTEXT
  5
EE
330
CE
100
AcDbEntity
  8
Značka (ISO)
100
AcDbMText
 10
-33.0130165251342
 20
-15.52177565039578
 30
0.0
 40
5.0
 41
20.42139291763306
 71
     1
 72
     1
  1
\fTahoma|b0|i0;\H5.0000;xxxxxx
  7
Text poznámky (ISO)
 73
     1
 44
1.0
  0
MTEXT
  5
EF
330
CE
100
AcDbEntity
  8
Značka (ISO)
100
AcDbMText
 10
-5.126613448311374
 20
-15.52177565039578
 30
0.0
 40
5.0
 41
0.0
 71
     1
 72
     1
  1
\fTahoma|b0|i0;\H5.0000;xxxxxxxxxxx
  7
Text poznámky (ISO)
 73
     1
 44
1.0
  0
ENDBLK
  5
D0
330
CE
100
AcDbEntity
  8
0
100
AcDbBlockEnd
  0
BLOCK
  5
F1
330
F0
100
AcDbEntity
  8
0
100
AcDbBlockBegin
  2
Art. s popisy
 70
     0
 10
0.0
 20
0.0
 30
0.0
  3
Art. s popisy
  1

  0
LINE
  5
F3
330
F0
100
AcDbEntity
  8
Geometrie náčrtu (ISO)
100
AcDbLine
 10
-60.00000000000081
 20
-22.5
 30
0.0
 11
59.99999999999911
 21
-22.5
 31
0.0
  0
LINE
  5
F4
330
F0
100
AcDbEntity
  8
Geometrie náčrtu (ISO)
100
AcDbLine
 10
59.99999999999911
 20
-22.5
 30
0.0
 11
60.00000000000081
 21
-13.50000000000001
 31
0.0
  0
LINE
  5
F5
330
F0
100
AcDbEntity
  8
Geometrie náčrtu (ISO)
100
AcDbLine
 10
60.00000000000081
 20
-13.50000000000001
 30
0.0
 11
-60.00000000000081
 21
-13.49999999999998
 31
0.0
  0
LINE
  5
F6
330
F0
100
AcDbEntity
  8
Geometrie náčrtu (ISO)
100
AcDbLine
 10
-60.00000000000081
 20
-13.49999999999998
 30
0.0
 11
-60.00000000000081
 21
-22.5
 31
0.0
  0
LINE
  5
F7
330
F0
100
AcDbEntity
  8
Geometrie náčrtu (ISO)
100
AcDbLine
 10
-60.00000000000081
 20
-13.49999999999998
 30
0.0
 11
60.00000000000081
 21
-13.50000000000001
 31
0.0
  0
LINE
  5
F8
330
F0
100
AcDbEntity
  8
Geometrie náčrtu (ISO)
100
AcDbLine
 10
60.00000000000081
 20
-13.50000000000001
 30
0.0
 11
59.99999999999911
 21
-4.500000000000028
 31
0.0
  0
LINE
  5
F9
330
F0
100
AcDbEntity
  8
Geometrie náčrtu (ISO)
100
AcDbLine
 10
59.99999999999911
 20
-4.500000000000028
 30
0.0
 11
-60.00000000000081
 21
-4.499999999999992
 31
0.0
  0
LINE
  5
FA
330
F0
100
AcDbEntity
  8
Geometrie náčrtu (ISO)
100
AcDbLine
 10
-60.00000000000081
 20
-4.499999999999992
 30
0.0
 11
-60.00000000000081
 21
-13.49999999999998
 31
0.0
  0
LINE
  5
FB
330
F0
100
AcDbEntity
  8
Geometrie náčrtu (ISO)
100
AcDbLine
 10
-60.00000000000081
 20
-4.499999999999992
 30
0.0
 11
59.99999999999911
 21
-4.500000000000028
 31
0.0
  0
LINE
  5
FC
330
F0
100
AcDbEntity
  8
Geometrie náčrtu (ISO)
100
AcDbLine
 10
59.99999999999911
 20
-4.500000000000028
 30
0.0
 11
59.99999999999911
 21
4.499999999999957
 31
0.0
  0
LINE
  5
FD
330
F0
100
AcDbEntity
  8
Geometrie náčrtu (ISO)
100
AcDbLine
 10
59.99999999999911
 20
4.499999999999957
 30
0.0
 11
-60.00000000000081
 21
4.499999999999992
 31
0.0
  0
LINE
  5
FE
330
F0
100
AcDbEntity
  8
Geometrie náčrtu (ISO)
100
AcDbLine
 10
-60.00000000000081
 20
4.499999999999992
 30
0.0
 11
-60.00000000000081
 21
-4.499999999999992
 31
0.0
  0
LINE
  5
FF
330
F0
100
AcDbEntity
  8
Geometrie náčrtu (ISO)
100
AcDbLine
 10
-60.00000000000081
 20
4.499999999999992
 30
0.0
 11
59.99999999999911
 21
4.499999999999957
 31
0.0
  0
LINE
  5
100
330
F0
100
AcDbEntity
  8
Geometrie náčrtu (ISO)
100
AcDbLine
 10
59.99999999999911
 20
4.499999999999957
 30
0.0
 11
59.99999999999911
 21
13.49999999999998
 31
0.0
  0
LINE
  5
101
330
F0
100
AcDbEntity
  8
Geometrie náčrtu (ISO)
100
AcDbLine
 10
59.99999999999911
 20
13.49999999999998
 30
0.0
 11
-60.00000000000081
 21
13.50000000000001
 31
0.0
  0
LINE
  5
102
330
F0
100
AcDbEntity
  8
Geometrie náčrtu (ISO)
100
AcDbLine
 10
-60.00000000000081
 20
13.50000000000001
 30
0.0
 11
-60.00000000000081
 21
4.499999999999992
 31
0.0
  0
LINE
  5
103
330
F0
100
AcDbEntity
  8
Geometrie náčrtu (ISO)
100
AcDbLine
 10
-60.00000000000081
 20
13.50000000000001
 30
0.0
 11
59.99999999999911
 21
13.49999999999998
 31
0.0
  0
LINE
  5
104
330
F0
100
AcDbEntity
  8
Geometrie náčrtu (ISO)
100
AcDbLine
 10
59.99999999999911
 20
13.49999999999998
 30
0.0
 11
59.99999999999911
 21
22.49999999999996
 31
0.0
  0
LINE
  5
105
330
F0
100
AcDbEntity
  8
Geometrie náčrtu (ISO)
100
AcDbLine
 10
59.99999999999911
 20
22.49999999999996
 30
0.0
 11
-60.00000000000081
 21
22.5
 31
0.0
  0
LINE
  5
106
330
F0
100
AcDbEntity
  8
Geometrie náčrtu (ISO)
100
AcDbLine
 10
-60.00000000000081
 20
22.5
 30
0.0
 11
-60.00000000000081
 21
13.50000000000001
 31
0.0
  0
LINE
  5
107
330
F0
100
AcDbEntity
  8
Geometrie náčrtu (ISO)
100
AcDbLine
 10
-32.00000000000081
 20
22.5
 30
0.0
 11
-32.00000000000081
 21
-22.5
 31
0.0
  0
MTEXT
  5
108
330
F0
100
AcDbEntity
  8
Značka (ISO)
100
AcDbMText
 10
-27.63552601875791
 20
11.7684641726084
 30
0.0
 40
5.0
 41
0.0
 71
     1
 72
     1
  1
\fTahoma|b0|i0;\H5.0000;xxxxxxxxxxx
  7
Text poznámky (ISO)
 73
     1
 44
1.0
  0
MTEXT
  5
109
330
F0
100
AcDbEntity
  8
Značka (ISO)
100
AcDbMText
 10
-55.52192909558073
 20
11.7684641726084
 30
0.0
 40
5.0
 41
20.42139291763306
 71
     1
 72
     1
  1
\fTahoma|b0|i0;\H5.0000;xxxxxx
  7
Text poznámky (ISO)
 73
     1
 44
1.0
  0
MTEXT
  5
10A
330
F0
100
AcDbEntity
  8
Značka (ISO)
100
AcDbMText
 10
-54.58647492063526
 20
20.30710993714994
 30
0.0
 40
5.0
 41
13.92583036716939
 71
     1
 72
     1
  1
\fTahoma|b0|i0;\H5.0000;Art.
  7
Text poznámky (ISO)
 73
     1
 44
1.0
  0
MTEXT
  5
10B
330
F0
100
AcDbEntity
  8
Značka (ISO)
100
AcDbMText
 10
-18.21724056795421
 20
20.30710993714994
 30
0.0
 40
5.0
 41
0.0
 71
     1
 72
     1
  1
\fTahoma|b0|i0;\H5.0000;Popis.
  7
Text poznámky (ISO)
 73
     1
 44
1.0
  0
MTEXT
  5
10C
330
F0
100
AcDbEntity
  8
Značka (ISO)
100
AcDbMText
 10
-55.52192909558073
 20
2.473781856899819
 30
0.0
 40
5.0
 41
20.42139291763306
 71
     1
 72
     1
  1
\fTahoma|b0|i0;\H5.0000;xxxxxx
  7
Text poznámky (ISO)
 73
     1
 44
1.0
  0
MTEXT
  5
10D
330
F0
100
AcDbEntity
  8
Značka (ISO)
100
AcDbMText
 10
-27.63552601875791
 20
2.473781856899819
 30
0.0
 40
5.0
 41
0.0
 71
     1
 72
     1
  1
\fTahoma|b0|i0;\H5.0000;xxxxxxxxxxx
  7
Text poznámky (ISO)
 73
     1
 44
1.0
  0
MTEXT
  5
10E
330
F0
100
AcDbEntity
  8
Značka (ISO)
100
AcDbMText
 10
-55.52192909558073
 20
-6.862452441171491
 30
0.0
 40
5.0
 41
20.42139291763306
 71
     1
 72
     1
  1
\fTahoma|b0|i0;\H5.0000;xxxxxx
  7
Text poznámky (ISO)
 73
     1
 44
1.0
  0
MTEXT
  5
10F
330
F0
100
AcDbEntity
  8
Značka (ISO)
100
AcDbMText
 10
-27.63552601875791
 20
-6.862452441171491
 30
0.0
 40
5.0
 41
0.0
 71
     1
 72
     1
  1
\fTahoma|b0|i0;\H5.0000;xxxxxxxxxxx
  7
Text poznámky (ISO)
 73
     1
 44
1.0
  0
MTEXT
  5
110
330
F0
100
AcDbEntity
  8
Značka (ISO)
100
AcDbMText
 10
-55.52192909558073
 20
-15.52177565039578
 30
0.0
 40
5.0
 41
20.42139291763306
 71
     1
 72
     1
  1
\fTahoma|b0|i0;\H5.0000;xxxxxx
  7
Text poznámky (ISO)
 73
     1
 44
1.0
  0
MTEXT
  5
111
330
F0
100
AcDbEntity
  8
Značka (ISO)
100
AcDbMText
 10
-27.63552601875791
 20
-15.52177565039578
 30
0.0
 40
5.0
 41
0.0
 71
     1
 72
     1
  1
\fTahoma|b0|i0;\H5.0000;xxxxxxxxxxx
  7
Text poznámky (ISO)
 73
     1
 44
1.0
  0
ENDBLK
  5
F2
330
F0
100
AcDbEntity
  8
0
100
AcDbBlockEnd
  0
BLOCK
  5
113
330
112
100
AcDbEntity
  8
0
100
AcDbBlockBegin
  2
Tryskat
 70
     0
 10
0.0
 20
0.0
 30
0.0
  3
Tryskat
  1

  0
MTEXT
  5
115
330
112
100
AcDbEntity
  8
Značka (ISO)
100
AcDbMText
 10
-30.20239114761352
 20
5.036920197308063
 30
0.0
 40
3.499999940395355
 41
0.0
 71
     1
 72
     1
  1
Tryskat \P( Blasted , Glasperlstrahken)
  7
Text poznámky (ISO)
 73
     2
 44
0.9878841638565063
  0
ENDBLK
  5
114
330
112
100
AcDbEntity
  8
0
100
AcDbBlockEnd
  0
BLOCK
  5
117
330
116
100
AcDbEntity
  8
0
100
AcDbBlockBegin
  2
Morit
 70
     0
 10
0.0
 20
0.0
 30
0.0
  3
Morit
  1

  0
MTEXT
  5
119
330
116
100
AcDbEntity
  8
Značka (ISO)
100
AcDbMText
 10
-19.08124089241028
 20
5.11633675545454
 30
0.0
 40
3.499999940395355
 41
0.0
 71
     1
 72
     1
  1
Morit a pasivovat\P(Pickled, gebeitzt)
  7
Text poznámky (ISO)
 73
     2
 44
0.9878841638565063
  0
ENDBLK
  5
118
330
116
100
AcDbEntity
  8
0
100
AcDbBlockEnd
  0
BLOCK
  5
11B
330
11A
100
AcDbEntity
  8
0
100
AcDbBlockBegin
  2
zinkovat
 70
     0
 10
0.0
 20
0.0
 30
0.0
  3
zinkovat
  1

  0
MTEXT
  5
11D
330
11A
100
AcDbEntity
  8
Značka (ISO)
100
AcDbMText
 10
-27.74189710617065
 20
5.049683563411235
 30
0.0
 40
3.499999940395355
 41
0.0
 71
     1
 72
     1
  1
Zarove zinkovat\P(hot galvanized, verzinkt )
  7
Text poznámky (ISO)
 73
     2
 44
0.9878841638565063
  0
ENDBLK
  5
11C
330
11A
100
AcDbEntity
  8
0
100
AcDbBlockEnd
  0
BLOCK
  5
11F
330
11E
100
AcDbEntity
  8
0
100
AcDbBlockBegin
  2
Nater
 70
     0
 10
0.0
 20
0.0
 30
0.0
  3
Nater
  1

  0
MTEXT
  5
121
330
11E
100
AcDbEntity
  8
Značka (ISO)
100
AcDbMText
 10
-25.88411808013916
 20
1.864870421122759
 30
0.0
 40
3.499999940395355
 41
0.0
 71
     1
 72
     1
  1
Lackiert Farbe RAL 5002
  7
Text poznámky (ISO)
 73
     1
 44
1.0
  0
ENDBLK
  5
120
330
11E
100
AcDbEntity
  8
0
100
AcDbBlockEnd
  0
BLOCK
  5
123
330
122
100
AcDbEntity
  8
0
100
AcDbBlockBegin
  2
Brus
 70
     0
 10
0.0
 20
0.0
 30
0.0
  3
Brus
  1

  0
MTEXT
  5
125
330
122
100
AcDbEntity
  8
Značka (ISO)
100
AcDbMText
 10
-23.46616744995117
 20
5.11633675545454
 30
0.0
 40
3.499999940395355
 41
0.0
 71
     1
 72
     1
  1
Brousit\P(geburstet , brushed )
  7
Text poznámky (ISO)
 73
     2
 44
0.9878841638565063
  0
ENDBLK
  5
124
330
122
100
AcDbEntity
  8
0
100
AcDbBlockEnd
  0
BLOCK
  5
127
330
126
100
AcDbEntity
  8
0
100
AcDbBlockBegin
  2
Elektroliticky lestit
 70
     0
 10
0.0
 20
0.0
 30
0.0
  3
Elektroliticky lestit
  1

  0
MTEXT
  5
129
330
126
100
AcDbEntity
  8
Značka (ISO)
100
AcDbMText
 10
-18.68841171264648
 20
5.036920197308063
 30
0.0
 40
3.499999940395355
 41
0.0
 71
     1
 72
     1
  1
Elektrolit. lestit\P(Elektropolished )
  7
Text poznámky (ISO)
 73
     2
 44
0.9878841638565063
  0
ENDBLK
  5
128
330
126
100
AcDbEntity
  8
0
100
AcDbBlockEnd
  0
BLOCK
  5
12B
330
12A
100
AcDbEntity
  8
0
100
AcDbBlockBegin
  2
Rámečky Default Border
 70
     0
 10
0.0
 20
0.0
 30
0.0
  3
Rámečky Default Border
  1

  0
POLYLINE
  5
12D
330
12A
100
AcDbEntity
  8
Rámeček (ISO)
100
AcDb2dPolyline
 66
     1
 10
0.0
 20
0.0
 30
0.0
 70
   128
  0
VERTEX
  5
12E
330
12D
100
AcDbEntity
  8
Rámeček (ISO)
100
AcDbVertex
100
AcDb2dVertex
 10
10.0
 20
10.0
 30
0.0
  0
VERTEX
  5
12F
330
12D
100
AcDbEntity
  8
Rámeček (ISO)
100
AcDbVertex
100
AcDb2dVertex
 10
10.0
 20
410.0
 30
0.0
  0
VERTEX
  5
131
330
12D
100
AcDbEntity
  8
Rámeček (ISO)
100
AcDbVertex
100
AcDb2dVertex
 10
584.000015258789
 20
410.0
 30
0.0
  0
VERTEX
  5
132
330
12D
100
AcDbEntity
  8
Rámeček (ISO)
100
AcDbVertex
100
AcDb2dVertex
 10
584.000015258789
 20
10.0
 30
0.0
  0
VERTEX
  5
133
330
12D
100
AcDbEntity
  8
Rámeček (ISO)
100
AcDbVertex
100
AcDb2dVertex
 10
10.0
 20
10.0
 30
0.0
  0
SEQEND
  5
130
330
12D
100
AcDbEntity
  8
Rámeček (ISO)
  0
POLYLINE
  5
134
330
12A
100
AcDbEntity
  8
Rámeček (ISO)
100
AcDb2dPolyline
 66
     1
 10
0.0
 20
0.0
 30
0.0
 70
   128
  0
VERTEX
  5
135
330
134
100
AcDbEntity
  8
Rámeček (ISO)
100
AcDbVertex
100
AcDb2dVertex
 10
297.0000076293946
 20
0.0
 30
0.0
  0
VERTEX
  5
136
330
134
100
AcDbEntity
  8
Rámeček (ISO)
100
AcDbVertex
100
AcDb2dVertex
 10
297.0000076293946
 20
10.0
 30
0.0
  0
VERTEX
  5
138
330
134
100
AcDbEntity
  8
Rámeček (ISO)
100
AcDbVertex
100
AcDb2dVertex
 10
294.1132545471191
 20
5.0
 30
0.0
  0
VERTEX
  5
139
330
134
100
AcDbEntity
  8
Rámeček (ISO)
100
AcDbVertex
100
AcDb2dVertex
 10
299.8867607116699
 20
5.0
 30
0.0
  0
VERTEX
  5
13A
330
134
100
AcDbEntity
  8
Rámeček (ISO)
100
AcDbVertex
100
AcDb2dVertex
 10
297.0000076293946
 20
10.0
 30
0.0
  0
SEQEND
  5
137
330
134
100
AcDbEntity
  8
Rámeček (ISO)
  0
POLYLINE
  5
13B
330
12A
100
AcDbEntity
  8
Rámeček (ISO)
100
AcDb2dPolyline
 66
     1
 10
0.0
 20
0.0
 30
0.0
 70
   128
  0
VERTEX
  5
13C
330
13B
100
AcDbEntity
  8
Rámeček (ISO)
100
AcDbVertex
100
AcDb2dVertex
 10
297.0000076293946
 20
420.0
 30
0.0
  0
VERTEX
  5
13D
330
13B
100
AcDbEntity
  8
Rámeček (ISO)
100
AcDbVertex
100
AcDb2dVertex
 10
297.0000076293946
 20
410.0
 30
0.0
  0
VERTEX
  5
13F
330
13B
100
AcDbEntity
  8
Rámeček (ISO)
100
AcDbVertex
100
AcDb2dVertex
 10
294.1132545471191
 20
415.0
 30
0.0
  0
VERTEX
  5
140
330
13B
100
AcDbEntity
  8
Rámeček (ISO)
100
AcDbVertex
100
AcDb2dVertex
 10
299.8867607116699
 20
415.0
 30
0.0
  0
VERTEX
  5
141
330
13B
100
AcDbEntity
  8
Rámeček (ISO)
100
AcDbVertex
100
AcDb2dVertex
 10
297.0000076293946
 20
410.0
 30
0.0
  0
SEQEND
  5
13E
330
13B
100
AcDbEntity
  8
Rámeček (ISO)
  0
POLYLINE
  5
142
330
12A
100
AcDbEntity
  8
Rámeček (ISO)
100
AcDb2dPolyline
 66
     1
 10
0.0
 20
0.0
 30
0.0
 70
   128
  0
VERTEX
  5
143
330
142
100
AcDbEntity
  8
Rámeček (ISO)
100
AcDbVertex
100
AcDb2dVertex
 10
0.0
 20
210.0
 30
0.0
  0
VERTEX
  5
144
330
142
100
AcDbEntity
  8
Rámeček (ISO)
100
AcDbVertex
100
AcDb2dVertex
 10
10.0
 20
210.0
 30
0.0
  0
VERTEX
  5
146
330
142
100
AcDbEntity
  8
Rámeček (ISO)
100
AcDbVertex
100
AcDb2dVertex
 10
5.0
 20
212.8867530822754
 30
0.0
  0
VERTEX
  5
147
330
142
100
AcDbEntity
  8
Rámeček (ISO)
100
AcDbVertex
100
AcDb2dVertex
 10
5.0
 20
207.1132469177246
 30
0.0
  0
VERTEX
  5
148
330
142
100
AcDbEntity
  8
Rámeček (ISO)
100
AcDbVertex
100
AcDb2dVertex
 10
10.0
 20
210.0
 30
0.0
  0
SEQEND
  5
145
330
142
100
AcDbEntity
  8
Rámeček (ISO)
  0
POLYLINE
  5
149
330
12A
100
AcDbEntity
  8
Rámeček (ISO)
100
AcDb2dPolyline
 66
     1
 10
0.0
 20
0.0
 30
0.0
 70
   128
  0
VERTEX
  5
14A
330
149
100
AcDbEntity
  8
Rámeček (ISO)
100
AcDbVertex
100
AcDb2dVertex
 10
594.0000152587891
 20
210.0
 30
0.0
  0
VERTEX
  5
14B
330
149
100
AcDbEntity
  8
Rámeček (ISO)
100
AcDbVertex
100
AcDb2dVertex
 10
584.000015258789
 20
210.0
 30
0.0
  0
VERTEX
  5
14D
330
149
100
AcDbEntity
  8
Rámeček (ISO)
100
AcDbVertex
100
AcDb2dVertex
 10
589.000015258789
 20
212.8867530822754
 30
0.0
  0
VERTEX
  5
14E
330
149
100
AcDbEntity
  8
Rámeček (ISO)
100
AcDbVertex
100
AcDb2dVertex
 10
589.000015258789
 20
207.1132469177246
 30
0.0
  0
VERTEX
  5
14F
330
149
100
AcDbEntity
  8
Rámeček (ISO)
100
AcDbVertex
100
AcDb2dVertex
 10
584.000015258789
 20
210.0
 30
0.0
  0
SEQEND
  5
14C
330
149
100
AcDbEntity
  8
Rámeček (ISO)
  0
LINE
  5
150
330
12A
100
AcDbEntity
  8
Rámeček (ISO)
100
AcDbLine
 10
74.25000190734863
 20
10.0
 30
0.0
 11
74.25000190734863
 21
6.100000143051147
 31
0.0
  0
LINE
  5
151
330
12A
100
AcDbEntity
  8
Rámeček (ISO)
100
AcDbLine
 10
74.25000190734863
 20
410.0
 30
0.0
 11
74.25000190734863
 21
413.8999938964843
 31
0.0
  0
LINE
  5
152
330
12A
100
AcDbEntity
  8
Rámeček (ISO)
100
AcDbLine
 10
148.5000038146973
 20
10.0
 30
0.0
 11
148.5000038146973
 21
6.100000143051147
 31
0.0
  0
LINE
  5
153
330
12A
100
AcDbEntity
  8
Rámeček (ISO)
100
AcDbLine
 10
148.5000038146973
 20
410.0
 30
0.0
 11
148.5000038146973
 21
413.8999938964843
 31
0.0
  0
LINE
  5
154
330
12A
100
AcDbEntity
  8
Rámeček (ISO)
100
AcDbLine
 10
222.7499961853027
 20
10.0
 30
0.0
 11
222.7499961853027
 21
6.100000143051147
 31
0.0
  0
LINE
  5
155
330
12A
100
AcDbEntity
  8
Rámeček (ISO)
100
AcDbLine
 10
222.7499961853027
 20
410.0
 30
0.0
 11
222.7499961853027
 21
413.8999938964843
 31
0.0
  0
LINE
  5
156
330
12A
100
AcDbEntity
  8
Rámeček (ISO)
100
AcDbLine
 10
371.25
 20
10.0
 30
0.0
 11
371.25
 21
6.100000143051147
 31
0.0
  0
LINE
  5
157
330
12A
100
AcDbEntity
  8
Rámeček (ISO)
100
AcDbLine
 10
371.25
 20
410.0
 30
0.0
 11
371.25
 21
413.8999938964843
 31
0.0
  0
LINE
  5
158
330
12A
100
AcDbEntity
  8
Rámeček (ISO)
100
AcDbLine
 10
445.4999923706054
 20
10.0
 30
0.0
 11
445.4999923706054
 21
6.100000143051147
 31
0.0
  0
LINE
  5
159
330
12A
100
AcDbEntity
  8
Rámeček (ISO)
100
AcDbLine
 10
445.4999923706054
 20
410.0
 30
0.0
 11
445.4999923706054
 21
413.8999938964843
 31
0.0
  0
LINE
  5
15A
330
12A
100
AcDbEntity
  8
Rámeček (ISO)
100
AcDbLine
 10
519.7499847412109
 20
10.0
 30
0.0
 11
519.7499847412109
 21
6.100000143051147
 31
0.0
  0
LINE
  5
15B
330
12A
100
AcDbEntity
  8
Rámeček (ISO)
100
AcDbLine
 10
519.7499847412109
 20
410.0
 30
0.0
 11
519.7499847412109
 21
413.8999938964843
 31
0.0
  0
MTEXT
  5
15C
330
12A
100
AcDbEntity
  8
Rámeček (ISO)
100
AcDbMText
 10
556.0853922448459
 20
410.4
 30
0.0
 40
3.499999940395355
 41
0.0
 71
     7
 72
     1
  1
1
  7
Text poznámky (ISO)
 73
     1
 44
1.0
  0
MTEXT
  5
15D
330
12A
100
AcDbEntity
  8
Rámeček (ISO)
100
AcDbMText
 10
556.0853922448459
 20
6.100000059604644
 30
0.0
 40
3.499999940395355
 41
0.0
 71
     7
 72
     1
  1
1
  7
Text poznámky (ISO)
 73
     1
 44
1.0
  0
MTEXT
  5
15E
330
12A
100
AcDbEntity
  8
Rámeček (ISO)
100
AcDbMText
 10
481.5637915541735
 20
410.4
 30
0.0
 40
3.499999940395355
 41
0.0
 71
     7
 72
     1
  1
2
  7
Text poznámky (ISO)
 73
     1
 44
1.0
  0
MTEXT
  5
15F
330
12A
100
AcDbEntity
  8
Rámeček (ISO)
100
AcDbMText
 10
481.5637915541735
 20
6.100000059604644
 30
0.0
 40
3.499999940395355
 41
0.0
 71
     7
 72
     1
  1
2
  7
Text poznámky (ISO)
 73
     1
 44
1.0
  0
MTEXT
  5
160
330
12A
100
AcDbEntity
  8
Rámeček (ISO)
100
AcDbMText
 10
407.2857914829702
 20
410.3262560764327
 30
0.0
 40
3.499999940395355
 41
0.0
 71
     7
 72
     1
  1
3
  7
Text poznámky (ISO)
 73
     1
 44
1.0
  0
MTEXT
  5
161
330
12A
100
AcDbEntity
  8
Rámeček (ISO)
100
AcDbMText
 10
407.2857914829702
 20
6.026256136037408
 30
0.0
 40
3.499999940395355
 41
0.0
 71
     7
 72
     1
  1
3
  7
Text poznámky (ISO)
 73
     1
 44
1.0
  0
MTEXT
  5
162
330
12A
100
AcDbEntity
  8
Rámeček (ISO)
100
AcDbMText
 10
332.9041911483145
 20
410.4
 30
0.0
 40
3.499999940395355
 41
0.0
 71
     7
 72
     1
  1
4
  7
Text poznámky (ISO)
 73
     1
 44
1.0
  0
MTEXT
  5
163
330
12A
100
AcDbEntity
  8
Rámeček (ISO)
100
AcDbMText
 10
332.9041911483145
 20
6.100000059604644
 30
0.0
 40
3.499999940395355
 41
0.0
 71
     7
 72
     1
  1
4
  7
Text poznámky (ISO)
 73
     1
 44
1.0
  0
MTEXT
  5
164
330
12A
100
AcDbEntity
  8
Rámeček (ISO)
100
AcDbMText
 10
258.850191646738
 20
410.3262560764327
 30
0.0
 40
3.499999940395355
 41
0.0
 71
     7
 72
     1
  1
5
  7
Text poznámky (ISO)
 73
     1
 44
1.0
  0
MTEXT
  5
165
330
12A
100
AcDbEntity
  8
Rámeček (ISO)
100
AcDbMText
 10
258.850191646738
 20
6.026256136037408
 30
0.0
 40
3.499999940395355
 41
0.0
 71
     7
 72
     1
  1
5
  7
Text poznámky (ISO)
 73
     1
 44
1.0
  0
MTEXT
  5
166
330
12A
100
AcDbEntity
  8
Rámeček (ISO)
100
AcDbMText
 10
184.5077914117669
 20
410.3262560764327
 30
0.0
 40
3.499999940395355
 41
0.0
 71
     7
 72
     1
  1
6
  7
Text poznámky (ISO)
 73
     1
 44
1.0
  0
MTEXT
  5
167
330
12A
100
AcDbEntity
  8
Rámeček (ISO)
100
AcDbMText
 10
184.5077914117669
 20
6.026256136037408
 30
0.0
 40
3.499999940395355
 41
0.0
 71
     7
 72
     1
  1
6
  7
Text poznámky (ISO)
 73
     1
 44
1.0
  0
MTEXT
  5
168
330
12A
100
AcDbEntity
  8
Rámeček (ISO)
100
AcDbMText
 10
110.2913914972109
 20
410.4
 30
0.0
 40
3.499999940395355
 41
0.0
 71
     7
 72
     1
  1
7
  7
Text poznámky (ISO)
 73
     1
 44
1.0
  0
MTEXT
  5
169
330
12A
100
AcDbEntity
  8
Rámeček (ISO)
100
AcDbMText
 10
110.2913914972109
 20
6.100000059604644
 30
0.0
 40
3.499999940395355
 41
0.0
 71
     7
 72
     1
  1
7
  7
Text poznámky (ISO)
 73
     1
 44
1.0
  0
MTEXT
  5
16A
330
12A
100
AcDbEntity
  8
Rámeček (ISO)
100
AcDbMText
 10
35.9825913476839
 20
410.3205834697932
 30
0.0
 40
3.499999940395355
 41
0.0
 71
     7
 72
     1
  1
8
  7
Text poznámky (ISO)
 73
     1
 44
1.0
  0
MTEXT
  5
16B
330
12A
100
AcDbEntity
  8
Rámeček (ISO)
100
AcDbMText
 10
35.9825913476839
 20
6.020583529397844
 30
0.0
 40
3.499999940395355
 41
0.0
 71
     7
 72
     1
  1
8
  7
Text poznámky (ISO)
 73
     1
 44
1.0
  0
LINE
  5
16C
330
12A
100
AcDbEntity
  8
Rámeček (ISO)
100
AcDbLine
 10
10.0
 20
70.0
 30
0.0
 11
6.100000143051147
 21
70.0
 31
0.0
  0
LINE
  5
16D
330
12A
100
AcDbEntity
  8
Rámeček (ISO)
100
AcDbLine
 10
584.000015258789
 20
70.0
 30
0.0
 11
587.9000091552734
 21
70.0
 31
0.0
  0
LINE
  5
16E
330
12A
100
AcDbEntity
  8
Rámeček (ISO)
100
AcDbLine
 10
10.0
 20
140.0
 30
0.0
 11
6.100000143051147
 21
140.0
 31
0.0
  0
LINE
  5
16F
330
12A
100
AcDbEntity
  8
Rámeček (ISO)
100
AcDbLine
 10
584.000015258789
 20
140.0
 30
0.0
 11
587.9000091552734
 21
140.0
 31
0.0
  0
LINE
  5
170
330
12A
100
AcDbEntity
  8
Rámeček (ISO)
100
AcDbLine
 10
10.0
 20
280.0
 30
0.0
 11
6.100000143051147
 21
280.0
 31
0.0
  0
LINE
  5
171
330
12A
100
AcDbEntity
  8
Rámeček (ISO)
100
AcDbLine
 10
584.000015258789
 20
280.0
 30
0.0
 11
587.9000091552734
 21
280.0
 31
0.0
  0
LINE
  5
172
330
12A
100
AcDbEntity
  8
Rámeček (ISO)
100
AcDbLine
 10
10.0
 20
350.0
 30
0.0
 11
6.100000143051147
 21
350.0
 31
0.0
  0
LINE
  5
173
330
12A
100
AcDbEntity
  8
Rámeček (ISO)
100
AcDbLine
 10
584.000015258789
 20
350.0
 30
0.0
 11
587.9000091552734
 21
350.0
 31
0.0
  0
MTEXT
  5
174
330
12A
100
AcDbEntity
  8
Rámeček (ISO)
100
AcDbMText
 10
6.361230343933396
 20
33.25000002980232
 30
0.0
 40
3.499999940395355
 41
0.0
 71
     7
 72
     1
  1
A
  7
Text poznámky (ISO)
 73
     1
 44
1.0
  0
MTEXT
  5
175
330
12A
100
AcDbEntity
  8
Rámeček (ISO)
100
AcDbMText
 10
584.6612302843287
 20
33.25000002980232
 30
0.0
 40
3.499999940395355
 41
0.0
 71
     7
 72
     1
  1
A
  7
Text poznámky (ISO)
 73
     1
 44
1.0
  0
MTEXT
  5
176
330
12A
100
AcDbEntity
  8
Rámeček (ISO)
100
AcDbMText
 10
6.781848468328938
 20
103.2500000298023
 30
0.0
 40
3.499999940395355
 41
0.0
 71
     7
 72
     1
  1
B
  7
Text poznámky (ISO)
 73
     1
 44
1.0
  0
MTEXT
  5
177
330
12A
100
AcDbEntity
  8
Rámeček (ISO)
100
AcDbMText
 10
585.0818484087242
 20
103.2500000298023
 30
0.0
 40
3.499999940395355
 41
0.0
 71
     7
 72
     1
  1
B
  7
Text poznámky (ISO)
 73
     1
 44
1.0
  0
MTEXT
  5
178
330
12A
100
AcDbEntity
  8
Rámeček (ISO)
100
AcDbMText
 10
6.558903094188359
 20
173.1876013241708
 30
0.0
 40
3.499999940395355
 41
0.0
 71
     7
 72
     1
  1
C
  7
Text poznámky (ISO)
 73
     1
 44
1.0
  0
MTEXT
  5
179
330
12A
100
AcDbEntity
  8
Rámeček (ISO)
100
AcDbMText
 10
584.8589030345837
 20
173.1876013241708
 30
0.0
 40
3.499999940395355
 41
0.0
 71
     7
 72
     1
  1
C
  7
Text poznámky (ISO)
 73
     1
 44
1.0
  0
MTEXT
  5
17A
330
12A
100
AcDbEntity
  8
Rámeček (ISO)
100
AcDbMText
 10
6.56770745709084
 20
243.2500000298023
 30
0.0
 40
3.499999940395355
 41
0.0
 71
     7
 72
     1
  1
D
  7
Text poznámky (ISO)
 73
     1
 44
1.0
  0
MTEXT
  5
17B
330
12A
100
AcDbEntity
  8
Rámeček (ISO)
100
AcDbMText
 10
584.8677073974861
 20
243.2500000298023
 30
0.0
 40
3.499999940395355
 41
0.0
 71
     7
 72
     1
  1
D
  7
Text poznámky (ISO)
 73
     1
 44
1.0
  0
MTEXT
  5
17C
330
12A
100
AcDbEntity
  8
Rámeček (ISO)
100
AcDbMText
 10
6.849919803883061
 20
313.2500000298023
 30
0.0
 40
3.499999940395355
 41
0.0
 71
     7
 72
     1
  1
E
  7
Text poznámky (ISO)
 73
     1
 44
1.0
  0
MTEXT
  5
17D
330
12A
100
AcDbEntity
  8
Rámeček (ISO)
100
AcDbMText
 10
585.1499197442783
 20
313.2500000298023
 30
0.0
 40
3.499999940395355
 41
0.0
 71
     7
 72
     1
  1
E
  7
Text poznámky (ISO)
 73
     1
 44
1.0
  0
MTEXT
  5
17E
330
12A
100
AcDbEntity
  8
Rámeček (ISO)
100
AcDbMText
 10
6.944936015154347
 20
383.2500000298023
 30
0.0
 40
3.499999940395355
 41
0.0
 71
     7
 72
     1
  1
F
  7
Text poznámky (ISO)
 73
     1
 44
1.0
  0
MTEXT
  5
17F
330
12A
100
AcDbEntity
  8
Rámeček (ISO)
100
AcDbMText
 10
585.2449359555496
 20
383.2500000298023
 30
0.0
 40
3.499999940395355
 41
0.0
 71
     7
 72
     1
  1
F
  7
Text poznámky (ISO)
 73
     1
 44
1.0
  0
ENDBLK
  5
12C
330
12A
100
AcDbEntity
  8
0
100
AcDbBlockEnd
  0
BLOCK
  5
182
330
181
100
AcDbEntity
  8
0
100
AcDbBlockBegin
  2
Rohová razítka ACO-razitko
 70
     2
 10
0.0
 20
0.0
 30
0.0
  3
Rohová razítka ACO-razitko
  1

  0
LINE
  5
184
330
181
100
AcDbEntity
  8
KOPF
  6
Continuous
370
    25
100
AcDbLine
 10
264.0
 20
94.01203200000001
 30
0.0
 11
264.0
 21
74.00000000000003
 31
0.0
  0
LINE
  5
185
330
181
100
AcDbEntity
  8
KOPF
  6
Continuous
370
    25
100
AcDbLine
 10
264.0
 20
94.01203200000001
 30
0.0
 11
264.0
 21
74.00000000000003
 31
0.0
  0
CIRCLE
  5
186
330
181
100
AcDbEntity
  8
TEXT50
  6
Continuous
370
    25
100
AcDbCircle
 10
247.5054493575618
 20
83.04852954632861
 30
0.0
 40
1.979948192651899
  0
LINE
  5
187
330
181
100
AcDbEntity
  8
TEXT50
  6
Continuous
370
    25
100
AcDbLine
 10
262.4910595621649
 20
85.02847773898061
 30
0.0
 11
262.4910595621649
 21
81.06858135367653
 31
0.0
  0
LINE
  5
188
330
181
100
AcDbEntity
  8
TEXT50
  6
Continuous
370
    25
100
AcDbLine
 10
253.9413433929653
 20
87.07146289795376
 30
0.0
 11
253.9413433929653
 21
79.02559619470344
 31
0.0
  0
LINE
  5
189
330
181
100
AcDbEntity
  8
TEXT50
  6
Continuous
370
    25
100
AcDbLine
 10
262.4910595621649
 20
85.02847773898061
 30
0.0
 11
253.9413433929653
 21
87.07146289795376
 31
0.0
  0
CIRCLE
  5
18A
330
181
100
AcDbEntity
  8
TEXT50
  6
Continuous
370
    25
100
AcDbCircle
 10
247.5054493575618
 20
83.04852954632861
 30
0.0
 40
4.022933351625178
  0
LINE
  5
18B
330
181
100
AcDbEntity
  8
TEXT50
  6
Continuous
370
    25
100
AcDbLine
 10
253.9413433929653
 20
79.02559619470344
 30
0.0
 11
262.4910595621649
 21
81.06858135367653
 31
0.0
  0
CIRCLE
  5
18C
330
181
100
AcDbEntity
  8
TEXT35
  6
Continuous
370
    25
100
AcDbCircle
 10
221.0936673107637
 20
101.9131972309053
 30
0.0
 40
2.281499999999998
  0
CIRCLE
  5
18D
330
181
100
AcDbEntity
  8
TEXT35
  6
Continuous
370
    25
100
AcDbCircle
 10
221.0936673107637
 20
101.9131972309053
 30
0.0
 40
1.579499999999999
  0
ARC
  5
18E
330
181
100
AcDbEntity
  8
TEXT35
  6
Continuous
370
    25
100
AcDbCircle
 10
214.6291610736662
 20
101.9131972309054
 30
0.0
 40
1.579500000000072
100
AcDbArc
 50
31.05580049908738
 51
329.9999999999987
  0
LINE
  5
18F
330
181
100
AcDbEntity
  8
TEXT35
  6
Continuous
370
    25
100
AcDbLine
 10
215.9822639109751
 20
102.7280180465864
 30
0.0
 11
216.5902852082589
 21
103.0790593062462
 31
0.0
  0
ARC
  5
190
330
181
100
AcDbEntity
  8
TEXT35
  6
Continuous
370
    25
100
AcDbCircle
 10
214.6291610736662
 20
101.9131972309052
 30
0.0
 40
2.281500000000015
100
AcDbArc
 50
30.73091726592628
 51
330.0000000000016
  0
LINE
  5
191
330
181
100
AcDbEntity
  8
TEXT35
  6
Continuous
370
    25
100
AcDbLine
 10
216.6049980324005
 20
100.7724472309053
 30
0.0
 11
215.9970481989438
 21
101.1234472309053
 31
0.0
  0
LINE
  5
192
330
181
100
AcDbEntity
  8
TEXT35
  6
Continuous
370
    25
100
AcDbLine
 10
211.8347763192409
 20
111.6789659312995
 30
0.0
 11
211.8347763192409
 21
98.44416361029551
 31
0.0
  0
LINE
  5
193
330
181
100
AcDbEntity
  8
TEXT35
  6
Continuous
370
    25
100
AcDbLine
 10
211.8347763192409
 20
98.44416361029551
 30
0.0
 11
217.4235458280916
 21
98.44416361029551
 31
0.0
  0
LINE
  5
194
330
181
100
AcDbEntity
  8
TEXT35
  6
Continuous
370
    25
100
AcDbLine
 10
217.4235458280916
 20
98.44416361029551
 30
0.0
 11
217.4235458280916
 21
111.6789659312995
 31
0.0
  0
LINE
  5
195
330
181
100
AcDbEntity
  8
TEXT35
  6
Continuous
370
    25
100
AcDbLine
 10
217.4235458280916
 20
111.6789659312995
 30
0.0
 11
211.8347763192409
 21
111.6789659312995
 31
0.0
  0
LINE
  5
196
330
181
100
AcDbEntity
  8
TEXT35
  6
Continuous
370
    25
100
AcDbLine
 10
223.888052065189
 20
111.6789659312995
 30
0.0
 11
223.888052065189
 21
98.44416361029551
 31
0.0
  0
LINE
  5
197
330
181
100
AcDbEntity
  8
TEXT35
  6
Continuous
370
    25
100
AcDbLine
 10
223.888052065189
 20
98.44416361029551
 30
0.0
 11
218.2992825563384
 21
98.44416361029551
 31
0.0
  0
LINE
  5
198
330
181
100
AcDbEntity
  8
TEXT35
  6
Continuous
370
    25
100
AcDbLine
 10
218.2992825563384
 20
98.44416361029551
 30
0.0
 11
218.2992825563384
 21
111.6789659312995
 31
0.0
  0
LINE
  5
199
330
181
100
AcDbEntity
  8
TEXT35
  6
Continuous
370
    25
100
AcDbLine
 10
218.2992825563384
 20
111.6789659312995
 30
0.0
 11
223.888052065189
 21
111.6789659312995
 31
0.0
  0
ARC
  5
19A
330
181
100
AcDbEntity
  8
TEXT35
  6
Continuous
370
    25
100
AcDbCircle
 10
211.499154836569
 20
99.57623034270236
 30
0.0
 40
4.914000000000251
100
AcDbArc
 50
172.305837035409
 51
179.7113029220757
  0
LINE
  5
19B
330
181
100
AcDbEntity
  8
TEXT35
  6
Continuous
370
    25
100
AcDbLine
 10
206.6293963427935
 20
100.2341423522474
 30
0.0
 11
209.6999133303443
 21
100.2341423522474
 31
0.0
  0
ARC
  5
19C
330
181
100
AcDbEntity
  8
TEXT35
  6
Continuous
370
    25
100
AcDbCircle
 10
204.8301548365688
 20
99.57623034270325
 30
0.0
 40
4.914000000000133
100
AcDbArc
 50
0.2886970779141535
 51
7.694162964580896
  0
LINE
  5
19D
330
181
100
AcDbEntity
  8
TEXT35
  6
Continuous
370
    25
100
AcDbLine
 10
209.7440924568018
 20
99.600990481233
 30
0.0
 11
210.4461002543538
 21
99.600990481233
 31
0.0
  0
ARC
  5
19E
330
181
100
AcDbEntity
  8
TEXT35
  6
Continuous
370
    25
100
AcDbCircle
 10
204.8301548365688
 20
99.5762303427033
 30
0.0
 40
5.616000000000016
100
AcDbArc
 50
0.2526096926473688
 51
53.57642635766914
  0
ARC
  5
19F
330
181
100
AcDbEntity
  8
TEXT35
  6
Continuous
370
    25
100
AcDbCircle
 10
211.4991548365688
 20
99.57623034270325
 30
0.0
 40
5.616000000000024
100
AcDbArc
 50
126.4235736423304
 51
179.7473903073512
  0
LINE
  5
1A0
330
181
100
AcDbEntity
  8
TEXT35
  6
Continuous
370
    25
100
AcDbLine
 10
205.8832094187838
 20
99.600990481233
 30
0.0
 11
206.5852172163358
 21
99.600990481233
 31
0.0
  0
LINE
  5
1A1
330
181
100
AcDbEntity
  8
TEXT35
  6
Continuous
370
    25
100
AcDbLine
 10
205.3702700821435
 20
111.6789659312995
 30
0.0
 11
205.3702700821435
 21
98.44416361029551
 31
0.0
  0
LINE
  5
1A2
330
181
100
AcDbEntity
  8
TEXT35
  6
Continuous
370
    25
100
AcDbLine
 10
205.3702700821435
 20
98.44416361029551
 30
0.0
 11
210.9590395909941
 21
98.44416361029551
 31
0.0
  0
LINE
  5
1A3
330
181
100
AcDbEntity
  8
TEXT35
  6
Continuous
370
    25
100
AcDbLine
 10
210.9590395909941
 20
98.44416361029551
 30
0.0
 11
210.9590395909941
 21
111.6789659312995
 31
0.0
  0
LINE
  5
1A4
330
181
100
AcDbEntity
  8
TEXT35
  6
Continuous
370
    25
100
AcDbLine
 10
210.9590395909941
 20
111.6789659312995
 30
0.0
 11
205.3702700821435
 21
111.6789659312995
 31
0.0
  0
ARC
  5
1A5
330
181
100
AcDbEntity
  8
TEXT35
  6
Continuous
370
    25
100
AcDbCircle
 10
204.830154836569
 20
99.57623034270341
 30
0.0
 40
4.913999999999818
100
AcDbArc
 50
16.0658750272321
 51
47.26788995739759
  0
LINE
  5
1A6
330
181
100
AcDbEntity
  8
TEXT35
  6
Continuous
370
    25
100
AcDbLine
 10
209.5522343918387
 20
100.9361423522474
 30
0.0
 11
206.7770752812989
 21
100.9361423522474
 31
0.0
  0
ARC
  5
1A7
330
181
100
AcDbEntity
  8
TEXT35
  6
Continuous
370
    25
100
AcDbCircle
 10
211.4991548365683
 20
99.57623034270339
 30
0.0
 40
4.913999999999566
100
AcDbArc
 50
132.7321100425983
 51
163.9341249727667
  0
LINE
  5
1A8
330
181
100
AcDbEntity
  8
Nadpis (ISO)
100
AcDbLine
 10
299.0
 20
114.0
 30
0.0
 11
299.0
 21
45.0
 31
0.0
  0
LINE
  5
1A9
330
181
100
AcDbEntity
  8
Nadpis (ISO)
100
AcDbLine
 10
299.0
 20
45.0
 30
0.0
 11
117.0
 21
44.99999999999999
 31
0.0
  0
LINE
  5
1AA
330
181
100
AcDbEntity
  8
Nadpis (ISO)
100
AcDbLine
 10
117.0
 20
44.99999999999999
 30
0.0
 11
117.0
 21
114.0
 31
0.0
  0
LINE
  5
1AB
330
181
100
AcDbEntity
  8
Nadpis (ISO)
100
AcDbLine
 10
117.0
 20
114.0
 30
0.0
 11
299.0
 21
114.0
 31
0.0
  0
LINE
  5
1AC
330
181
100
AcDbEntity
  8
Nadpis (ISO)
100
AcDbLine
 10
199.0
 20
114.0
 30
0.0
 11
199.0
 21
93.99999999999998
 31
0.0
  0
LINE
  5
1AD
330
181
100
AcDbEntity
  8
KOPF
100
AcDbLine
 10
199.0
 20
104.0
 30
0.0
 11
117.0
 21
104.0
 31
0.0
  0
LINE
  5
1AE
330
181
100
AcDbEntity
  8
Nadpis (ISO)
100
AcDbLine
 10
199.0
 20
93.99999999999998
 30
0.0
 11
117.0
 21
93.99999999999996
 31
0.0
  0
LINE
  5
1AF
330
181
100
AcDbEntity
  8
KOPF
100
AcDbLine
 10
158.0
 20
93.99999999999998
 30
0.0
 11
158.0
 21
114.0
 31
0.0
  0
LINE
  5
1B0
330
181
100
AcDbEntity
  8
Nadpis (ISO)
100
AcDbLine
 10
199.0
 20
93.99999999999998
 30
0.0
 11
299.0
 21
93.99999999999998
 31
0.0
  0
LINE
  5
1B1
330
181
100
AcDbEntity
  8
Nadpis (ISO)
100
AcDbLine
 10
216.0
 20
94.00000000000003
 30
0.0
 11
216.0
 21
44.99999999999999
 31
0.0
  0
LINE
  5
1B2
330
181
100
AcDbEntity
  8
Nadpis (ISO)
100
AcDbLine
 10
299.0
 20
74.00000000000004
 30
0.0
 11
117.0
 21
73.99999999999998
 31
0.0
  0
LINE
  5
1B3
330
181
100
AcDbEntity
  8
Nadpis (ISO)
100
AcDbLine
 10
186.0
 20
94.0
 30
0.0
 11
186.0
 21
74.00000000000002
 31
0.0
  0
LINE
  5
1B4
330
181
100
AcDbEntity
  8
KOPF
100
AcDbLine
 10
137.0
 20
93.99999999999998
 30
0.0
 11
137.0
 21
74.0
 31
0.0
  0
LINE
  5
1B5
330
181
100
AcDbEntity
  8
KOPF
100
AcDbLine
 10
162.0
 20
93.99999999999998
 30
0.0
 11
162.0
 21
74.0
 31
0.0
  0
LINE
  5
1B6
330
181
100
AcDbEntity
  8
KOPF
100
AcDbLine
 10
186.0
 20
84.0
 30
0.0
 11
117.0
 21
83.99999999999996
 31
0.0
  0
LINE
  5
1B7
330
181
100
AcDbEntity
  8
KOPF
100
AcDbLine
 10
186.0
 20
79.0
 30
0.0
 11
117.0
 21
78.99999999999997
 31
0.0
  0
LINE
  5
1B8
330
181
100
AcDbEntity
  8
KOPF
100
AcDbLine
 10
186.0
 20
89.0
 30
0.0
 11
117.0
 21
88.99999999999996
 31
0.0
  0
LINE
  5
1B9
330
181
100
AcDbEntity
  8
KOPF
100
AcDbLine
 10
216.0
 20
50.0
 30
0.0
 11
299.0
 21
50.0
 31
0.0
  0
LINE
  5
1BA
330
181
100
AcDbEntity
  8
Nadpis (ISO)
100
AcDbLine
 10
216.0
 20
55.0
 30
0.0
 11
299.0
 21
55.0
 31
0.0
  0
LINE
  5
1BB
330
181
100
AcDbEntity
  8
KOPF
100
AcDbLine
 10
238.0000000000001
 20
93.99999999999998
 30
0.0
 11
238.0000000000001
 21
74.00000000000003
 31
0.0
  0
LINE
  5
1BC
330
181
100
AcDbEntity
  8
KOPF
100
AcDbLine
 10
238.0000000000001
 20
84.00000000000003
 30
0.0
 11
216.0
 21
84.00000000000003
 31
0.0
  0
LINE
  5
1BD
330
181
100
AcDbEntity
  8
Nadpis (ISO)
100
AcDbLine
 10
287.0
 20
74.00000000000004
 30
0.0
 11
287.0
 21
55.0
 31
0.0
  0
LINE
  5
1BE
330
181
100
AcDbEntity
  8
KOPF
100
AcDbLine
 10
289.0
 20
50.0
 30
0.0
 11
289.0
 21
45.0
 31
0.0
  0
LINE
  5
1BF
330
181
100
AcDbEntity
  8
Nadpis (ISO)
100
AcDbLine
 10
260.9160465310349
 20
50.0
 30
0.0
 11
260.9160465310349
 21
45.0
 31
0.0
  0
TEXT
  5
1C1
330
181
100
AcDbEntity
  8
Viditelná tenká (ISO)
100
AcDbText
 10
266.0
 20
84.97994933403729
 30
0.0
 40
1.539999991655349
  1
zum Zweck anderweitiger Benutzung
 41
0.7999999523162842
  7
Styl textu62
100
AcDbText
  0
TEXT
  5
1C3
330
181
100
AcDbEntity
  8
Viditelná tenká (ISO)
100
AcDbText
 10
266.0
 20
82.63814072439632
 30
0.0
 40
1.539999991655349
  1
mitgeteilt werden und bleibt unser
 41
0.7999999523162842
  7
Styl textu62
100
AcDbText
  0
TEXT
  5
1C4
330
181
100
AcDbEntity
  8
Viditelná tenká (ISO)
100
AcDbText
 10
266.0
 20
87.26106040199921
 30
0.0
 40
1.539999991655349
  1
noch dritten Personen, insbesondere
 41
0.7999999523162842
  7
Styl textu62
100
AcDbText
  0
TEXT
  5
1C5
330
181
100
AcDbEntity
  8
Viditelná tenká (ISO)
100
AcDbText
 10
266.0
 20
89.6282322587214
 30
0.0
 40
1.539999991655349
  1
Diese Zeichnung darf weder kopiert
 41
0.7999999523162842
  7
Styl textu62
100
AcDbText
  0
TEXT
  5
1C6
330
181
100
AcDbEntity
  8
Viditelná tenká (ISO)
100
AcDbText
 10
266.0
 20
80.37532604459599
 30
0.0
 40
1.539999991655349
  1
Eigentum.
 41
0.7999999523162842
  7
Styl textu62
100
AcDbText
  0
TEXT
  5
1C8
330
181
100
AcDbEntity
  8
Viditelná tenká (ISO)
100
AcDbText
 10
241.877559521167
 20
90.82431699999998
 30
0.0
 40
2.000000029802322
  1
Projektion: ISO-E
 41
0.7999999523162842
  7
Styl textu58
100
AcDbText
  0
TEXT
  5
1CA
330
181
100
AcDbEntity
  8
Viditelná tenká (ISO)
100
AcDbText
 10
266.0
 20
77.30982488917627
 30
0.0
 40
1.539999991655349
  1
Schutzvermerk nach DIN 34 beachten
 41
0.75
  7
Styl textu63
100
AcDbText
  0
TEXT
  5
1CB
330
181
100
AcDbEntity
  8
Viditelná tenká (ISO)
100
AcDbText
 10
236.2487793316645
 20
99.38243367792949
 30
0.0
 40
2.000000029802322
  1
582 22 Přibyslav
 41
0.7999999523162842
  7
Styl textu58
100
AcDbText
  0
TEXT
  5
1CD
330
181
100
AcDbEntity
  8
Viditelná tenká (ISO)
100
AcDbText
 10
261.6984261202779
 20
99.57784645000474
 30
0.0
 40
2.09999993443489
  1
Fax: 0451 / 482529
 41
0.7000000476837159
  7
Styl textu72
100
AcDbText
  0
TEXT
  5
1CE
330
181
100
AcDbEntity
  8
Viditelná tenká (ISO)
100
AcDbText
 10
236.5351154208068
 20
103.0087314099309
 30
0.0
 40
2.000000029802322
  1
Havličkova 260
 41
0.7999999523162842
  7
Styl textu58
100
AcDbText
  0
TEXT
  5
1D0
330
181
100
AcDbEntity
  8
TEXT35
100
AcDbText
 10
235.9801354774567
 20
108.2018007493417
 30
0.0
 40
3.000000119209289
  1
ACO Industries
 41
0.7999999523162842
  7
Styl textu75
100
AcDbText
  0
TEXT
  5
1D1
330
181
100
AcDbEntity
  8
Viditelná tenká (ISO)
100
AcDbText
 10
261.6456899832647
 20
102.9064533471121
 30
0.0
 40
2.09999993443489
  1
Tel.: 0451 / 491660
 41
0.7000000476837159
  7
Styl textu72
100
AcDbText
  0
MTEXT
  5
1D2
330
181
100
AcDbEntity
  8
Viditelná tenká (ISO)
100
AcDbMText
 10
217.3570092483237
 20
73.27889989032858
 30
0.0
 40
2.000000029802322
 41
0.0
 71
     1
 72
     1
  1
\fArial|b0|i0;\H2.0000;Zeichnung Nr.
  7
Text poznámky (ISO)
 73
     1
 44
1.0
  0
MTEXT
  5
1D3
330
181
100
AcDbEntity
  8
Viditelná tenká (ISO)
100
AcDbMText
 10
287.9433731401013
 20
72.84063462326733
 30
0.0
 40
2.000000029802322
 41
0.0
 71
     1
 72
     1
  1
\fArial|b0|i0;\H2.0000;Index
  7
Text poznámky (ISO)
 73
     1
 44
1.0
  0
MTEXT
  5
1D4
330
181
100
AcDbEntity
  8
Viditelná tenká (ISO)
100
AcDbMText
 10
217.1230582952341
 20
52.63510416823109
 30
0.0
 40
2.000000029802322
 41
0.0
 71
     1
 72
     1
  1
\fArial|b0|i0;\H2.0000;Ersatz fur\PErsatz durch
  7
Text poznámky (ISO)
 73
     2
 44
0.9442214369773864
  0
MTEXT
  5
1D5
330
181
100
AcDbEntity
  8
Viditelná tenká (ISO)
100
AcDbMText
 10
188.916108134284
 20
93.0
 30
0.0
 40
2.000000029802322
 41
0.0
 71
     1
 72
     1
  1
\fArial|b0|i0;\H2.0000;Massstab
  7
Text poznámky (ISO)
 73
     1
 44
1.0
  0
MTEXT
  5
1D6
330
181
100
AcDbEntity
  8
Viditelná tenká (ISO)
100
AcDbMText
 10
217.0
 20
93.0
 30
0.0
 40
2.000000029802322
 41
0.0
 71
     1
 72
     1
  1
\fArial|b0|i0;\H2.0000;Masseinheit
  7
Text poznámky (ISO)
 73
     1
 44
1.0
  0
MTEXT
  5
1D7
330
181
100
AcDbEntity
  8
Viditelná tenká (ISO)
100
AcDbMText
 10
118.0
 20
113.0
 30
0.0
 40
2.000000029802322
 41
0.0
 71
     1
 72
     1
  1
\fArial|b0|i0;\H2.0000;Werkstoff.
  7
Text poznámky (ISO)
 73
     1
 44
1.0
  0
MTEXT
  5
1D8
330
181
100
AcDbEntity
  8
Viditelná tenká (ISO)
100
AcDbMText
 10
159.0
 20
113.0
 30
0.0
 40
2.000000029802322
 41
0.0
 71
     1
 72
     1
  1
\fArial|b0|i0;\H2.0000;Hmotnost
  7
Text poznámky (ISO)
 73
     1
 44
1.0
  0
MTEXT
  5
1D9
330
181
100
AcDbEntity
  8
Viditelná tenká (ISO)
100
AcDbMText
 10
118.0
 20
103.0
 30
0.0
 40
2.000000029802322
 41
0.0
 71
     1
 72
     1
  1
\fArial|b0|i0;\H2.0000;zul.Abweich.
  7
Text poznámky (ISO)
 73
     1
 44
1.0
  0
MTEXT
  5
1DA
330
181
100
AcDbEntity
  8
Viditelná tenká (ISO)
100
AcDbMText
 10
159.0
 20
103.0
 30
0.0
 40
2.000000029802322
 41
0.0
 71
     1
 72
     1
  1
\fArial|b0|i0;\H2.0000;Oberflache
  7
Text poznámky (ISO)
 73
     1
 44
1.0
  0
MTEXT
  5
1DB
330
181
100
AcDbEntity
  8
Viditelná tenká (ISO)
100
AcDbMText
 10
118.2064366962235
 20
87.52498463872976
 30
0.0
 40
2.000000029802322
 41
0.0
 71
     1
 72
     1
  1
\fArial|b0|i0;\H2.0000;Gezeichnet
  7
Text poznámky (ISO)
 73
     1
 44
1.0
  0
MTEXT
  5
1DC
330
181
100
AcDbEntity
  8
Viditelná tenká (ISO)
100
AcDbMText
 10
118.2064366962235
 20
82.79398756785594
 30
0.0
 40
2.000000029802322
 41
0.0
 71
     1
 72
     1
  1
\fArial|b0|i0;\H2.0000;Gepruft
  7
Text poznámky (ISO)
 73
     1
 44
1.0
  0
MTEXT
  5
1DD
330
181
100
AcDbEntity
  8
Viditelná tenká (ISO)
100
AcDbMText
 10
118.2064366962235
 20
77.59713566222233
 30
0.0
 40
2.000000029802322
 41
0.0
 71
     1
 72
     1
  1
\fArial|b0|i0;\H2.0000;Update
  7
Text poznámky (ISO)
 73
     1
 44
1.0
  0
MTEXT
  5
1DE
330
181
100
AcDbEntity
  8
Viditelná tenká (ISO)
100
AcDbMText
 10
143.0
 20
93.0
 30
0.0
 40
2.000000029802322
 41
0.0
 71
     1
 72
     1
  1
\fArial|b0|i0;\H2.0000;Datum
  7
Text poznámky (ISO)
 73
     1
 44
1.0
  0
MTEXT
  5
1DF
330
181
100
AcDbEntity
  8
Viditelná tenká (ISO)
100
AcDbMText
 10
170.0
 20
93.0
 30
0.0
 40
2.000000029802322
 41
0.0
 71
     1
 72
     1
  1
\fArial|b0|i0;\H2.0000;Name
  7
Text poznámky (ISO)
 73
     1
 44
1.0
  0
MTEXT
  5
1E0
330
181
100
AcDbEntity
  8
Nadpis (ISO)
100
AcDbMText
 10
118.0
 20
71.0
 30
0.0
 40
3.499999940395355
 41
0.0
 71
     1
 72
     1
  1
Effidrain rostova nastavba pro vinyl 218 V2A
  7
Text poznámky (ISO)
 73
     1
 44
1.0
  0
MTEXT
  5
1E1
330
181
100
AcDbEntity
  8
Nadpis (ISO)
100
AcDbMText
 10
138.6542642016321
 20
87.78242706242743
 30
0.0
 40
2.000000029802322
 41
0.0
 71
     1
 72
     1
  1
\fTahoma|b0|i0;\H2.0000;24.5.2010
  7
Text poznámky (ISO)
 73
     1
 44
1.0
  0
MTEXT
  5
1E2
330
181
100
AcDbEntity
  8
Nadpis (ISO)
100
AcDbMText
 10
118.9147684950603
 20
98.79632878646518
 30
0.0
 40
3.499999940395355
 41
0.0
 71
     1
 72
     1
  1
ISO 2768-m
  7
Text poznámky (ISO)
 73
     1
 44
1.0
  0
MTEXT
  5
1E3
330
181
100
AcDbEntity
  8
Nadpis (ISO)
100
AcDbMText
 10
162.5831033854
 20
99.20167780246005
 30
0.0
 40
3.499999940395355
 41
0.0
 71
     1
 72
     1
  1
DIN ISO 1302
  7
Text poznámky (ISO)
 73
     1
 44
1.0
  0
MTEXT
  5
1E4
330
181
100
AcDbEntity
  8
Nadpis (ISO)
100
AcDbMText
 10
262.4743825961981
 20
49.17778241269704
 30
0.0
 40
3.499999940395355
 41
0.0
 71
     1
 72
     1
  1
\fArial|b0|i0;\H3.5000;List:\fArial|b0|i0;\H3.5000;1 \fArial|b0|i0;\H3.5000;/\fArial|b0|i0;\H3.5000;1 
  7
Text poznámky (ISO)
 73
     1
 44
1.0
  0
MTEXT
  5
1E5
330
181
100
AcDbEntity
  8
Nadpis (ISO)
100
AcDbMText
 10
159.4396788094336
 20
109.6756657996811
 30
0.0
 40
3.499999940395355
 41
29.10098367733216
 71
     1
 72
     1
  1
2,36 kg
  7
Text poznámky (ISO)
 73
     1
 44
1.0
  0
ATTDEF
  5
1E7
102
{ACAD_XDICTIONARY
360
933
102
}
330
181
100
AcDbEntity
  8
Nadpis (ISO)
100
AcDbText
 10
287.4393862219839
 20
62.4856753668063
 30
0.0
 40
3.499999940395355
  1
000
  7
Styl textu9
100
AcDbAttributeDefinition
  3
ČÍSLO REVIZE
  2
ČÍSLO_REVIZE_001
 70
     0
  0
ATTDEF
  5
1EB
102
{ACAD_XDICTIONARY
360
936
102
}
330
181
100
AcDbEntity
  8
Nadpis (ISO)
100
AcDbText
 10
289.7753402652471
 20
46.32882590415591
 30
0.0
 40
2.000000029802322
  1
A2
  7
Styl textu40
100
AcDbAttributeDefinition
  3
Sheet Size
  2
Sheet_Size_001
 70
     0
  0
ATTDEF
  5
1EC
102
{ACAD_XDICTIONARY
360
939
102
}
330
181
100
AcDbEntity
  8
Nadpis (ISO)
100
AcDbText
 10
230.1305737493188
 20
51.10091360311345
 30
0.0
 40
2.000000029802322
  1
C:\Inventor_DATA\Projekty\Guly\Effidrain\Effidrain rostova nastavba pro vinyl\408242.iam
  7
Styl textu40
100
AcDbAttributeDefinition
  3
FILENAME AND PATH
  2
FILENAME_AND_PATH_001
 70
     0
  0
ATTDEF
  5
1ED
102
{ACAD_XDICTIONARY
360
93C
102
}
330
181
100
AcDbEntity
  8
Nadpis (ISO)
100
AcDbText
 10
217.9059771674843
 20
62.42008065196634
 30
0.0
 40
3.499999940395355
  1
408242
  7
Text poznámky (ISO)
100
AcDbAttributeDefinition
  3
PART NUMBER
  2
PART_NUMBER_001
 70
     0
  0
ATTDEF
  5
1EE
102
{ACAD_XDICTIONARY
360
93F
102
}
330
181
100
AcDbEntity
  8
Nadpis (ISO)
100
AcDbText
 10
118.0
 20
56.50000005960464
 30
0.0
 40
3.499999940395355
  1

  7
Text poznámky (ISO)
 11
118.0
 21
60.0
 31
0.0
100
AcDbAttributeDefinition
  3
PROJECT
  2
PROJECT
 70
     0
 74
     3
  0
ATTDEF
  5
1F0
102
{ACAD_XDICTIONARY
360
942
102
}
330
181
100
AcDbEntity
  8
Nadpis (ISO)
100
AcDbText
 10
117.8119543349687
 20
47.73407435882506
 30
0.0
 40
6.99999988079071
  1
408242
  7
Styl textu94
100
AcDbAttributeDefinition
  3
SKLADOVÉ ČÍSLO
  2
SKLADOVÉ_ČÍSLO_001
 70
     0
  0
ATTDEF
  5
1F1
102
{ACAD_XDICTIONARY
360
945
102
}
330
181
100
AcDbEntity
  8
Nadpis (ISO)
100
AcDbText
 10
117.5939056808251
 20
105.1756658592858
 30
0.0
 40
3.499999940395355
  1

  7
Text poznámky (ISO)
 11
117.5939056808251
 21
108.6756657996811
 31
0.0
100
AcDbAttributeDefinition
  3
MATERIAL
  2
MATERIAL
 70
     0
 74
     3
  0
ATTDEF
  5
1F2
102
{ACAD_XDICTIONARY
360
948
102
}
330
181
100
AcDbEntity
  8
Nadpis (ISO)
100
AcDbText
 10
165.0470513532835
 20
85.7824270326251
 30
0.0
 40
2.000000029802322
  1
pmacoun
  7
Styl textu40
100
AcDbAttributeDefinition
  3
AUTHOR
  2
AUTHOR_001
 70
     0
  0
ATTDEF
  5
1F3
102
{ACAD_XDICTIONARY
360
94B
102
}
330
181
100
AcDbEntity
  8
Nadpis (ISO)
100
AcDbText
 10
189.1855699863978
 20
82.50038826992806
 30
0.0
 40
3.499999940395355
  1

  7
Text poznámky (ISO)
 11
189.1855699863978
 21
86.00038821032342
 31
0.0
100
AcDbAttributeDefinition
  3
VS_First
  2
VS_First
 70
     0
 74
     3
  0
ENDBLK
  5
183
330
181
100
AcDbEntity
  8
0
100
AcDbBlockEnd
  0
BLOCK
  5
678
330
677
100
AcDbEntity
  8
0
100
AcDbBlockBegin
  2
*D16
 70
     1
 10
0.0
 20
0.0
 30
0.0
  3
*D16
  1

  0
LINE
  5
746
330
677
100
AcDbEntity
  8
Kóta (ISO)
440
 16777216
100
AcDbLine
 10
411.4283888851661
 20
498.3714139280025
 30
0.0
 11
411.4283888851661
 21
448.9018772797557
 31
0.0
  0
LINE
  5
747
330
677
100
AcDbEntity
  8
Kóta (ISO)
440
 16777216
100
AcDbLine
 10
211.4283888851662
 20
498.3714139280025
 30
0.0
 11
211.4283888851662
 21
448.9018772797557
 31
0.0
  0
LINE
  5
748
330
677
100
AcDbEntity
  8
Kóta (ISO)
440
 16777216
100
AcDbLine
 10
407.2617222184995
 20
450.5685439464223
 30
0.0
 11
215.5950555518328
 21
450.5685439464223
 31
0.0
  0
SOLID
  5
749
330
677
100
AcDbEntity
  8
Kóta (ISO)
440
 16777216
100
AcDbTrace
 10
407.2617222184995
 20
451.2629883908668
 30
0.0
 11
407.2617222184995
 21
449.8740995019779
 31
0.0
 12
411.4283888851661
 22
450.5685439464223
 32
0.0
 13
411.4283888851661
 23
450.5685439464223
 33
0.0
  0
SOLID
  5
74A
330
677
100
AcDbEntity
  8
Kóta (ISO)
440
 16777216
100
AcDbTrace
 10
215.5950555518328
 20
451.2629883908668
 30
0.0
 11
215.5950555518328
 21
449.8740995019779
 31
0.0
 12
211.4283888851662
 22
450.5685439464223
 32
0.0
 13
211.4283888851662
 23
450.5685439464223
 33
0.0
  0
MTEXT
  5
74B
330
677
100
AcDbEntity
  8
Kóta (ISO)
440
 16777216
100
AcDbMText
 10
301.870682583383
 20
460.6153225272371
 30
0.0
 40
5.833333333333333
 41
0.0
 71
     1
 72
     1
  1
\A1;{\fAIGDT|b0|i0;\H5.8333;\ln\fTahoma|b0|i0;\H5.8333;}200
  7
Text poznámky (ISO)
 73
     1
 44
1.0
  0
POINT
  5
74C
330
677
100
AcDbEntity
  8
Defpoints
 62
     0
440
 16777216
100
AcDbPoint
 10
411.4283888851661
 20
498.3714139280025
 30
0.0
  0
POINT
  5
74D
330
677
100
AcDbEntity
  8
Defpoints
 62
     0
440
 16777216
100
AcDbPoint
 10
211.4283888851662
 20
498.3714139280025
 30
0.0
  0
POINT
  5
74E
330
677
100
AcDbEntity
  8
Defpoints
 62
     0
440
 16777216
100
AcDbPoint
 10
211.4283888851662
 20
450.5685439464223
 30
0.0
  0
ENDBLK
  5
679
330
677
100
AcDbEntity
  8
0
100
AcDbBlockEnd
  0
BLOCK
  5
751
330
750
100
AcDbEntity
  8
0
100
AcDbBlockBegin
  2
*D17
 70
     1
 10
0.0
 20
0.0
 30
0.0
  3
*D17
  1

  0
LINE
  5
828
330
750
100
AcDbEntity
  8
Kóta (ISO)
440
 16777216
100
AcDbLine
 10
211.4283888851662
 20
498.3714139280025
 30
0.0
 11
115.5300137748725
 21
498.3714139280026
 31
0.0
  0
LINE
  5
829
330
750
100
AcDbEntity
  8
Kóta (ISO)
440
 16777216
100
AcDbLine
 10
136.4783888851665
 20
602.1714139280025
 30
0.0
 11
115.5300137748725
 21
602.1714139280025
 31
0.0
  0
LINE
  5
82A
330
750
100
AcDbEntity
  8
Kóta (ISO)
440
 16777216
100
AcDbLine
 10
117.1966804415392
 20
502.5380805946693
 30
0.0
 11
117.1966804415392
 21
598.0047472613359
 31
0.0
  0
SOLID
  5
82B
330
750
100
AcDbEntity
  8
Kóta (ISO)
440
 16777216
100
AcDbTrace
 10
116.5022359970947
 20
502.5380805946693
 30
0.0
 11
117.8911248859836
 21
502.5380805946693
 31
0.0
 12
117.1966804415392
 22
498.3714139280026
 32
0.0
 13
117.1966804415392
 23
498.3714139280026
 33
0.0
  0
SOLID
  5
82C
330
750
100
AcDbEntity
  8
Kóta (ISO)
440
 16777216
100
AcDbTrace
 10
116.5022359970948
 20
598.0047472613359
 30
0.0
 11
117.8911248859837
 21
598.0047472613359
 31
0.0
 12
117.1966804415392
 22
602.1714139280025
 32
0.0
 13
117.1966804415392
 23
602.1714139280025
 33
0.0
  0
MTEXT
  5
82D
330
750
100
AcDbEntity
  8
Kóta (ISO)
440
 16777216
100
AcDbMText
 10
108.510629400572
 20
540.8848009886697
 30
0.0
 40
5.833333333333333
 41
0.0
 71
     1
 72
     1
  1
\A1;103,8
  7
Text poznámky (ISO)
 11
0.0000000000000001
 21
1.0
 31
0.0
 73
     1
 44
1.0
  0
POINT
  5
82E
330
750
100
AcDbEntity
  8
Defpoints
 62
     0
440
 16777216
100
AcDbPoint
 10
211.4283888851662
 20
498.3714139280025
 30
0.0
  0
POINT
  5
82F
330
750
100
AcDbEntity
  8
Defpoints
 62
     0
440
 16777216
100
AcDbPoint
 10
136.4783888851665
 20
602.1714139280025
 30
0.0
  0
POINT
  5
830
330
750
100
AcDbEntity
  8
Defpoints
 62
     0
440
 16777216
100
AcDbPoint
 10
117.1966804415392
 20
602.1714139280025
 30
0.0
  0
ENDBLK
  5
752
330
750
100
AcDbEntity
  8
0
100
AcDbBlockEnd
  0
BLOCK
  5
833
330
832
100
AcDbEntity
  8
0
100
AcDbBlockBegin
  2
KUSOVNÍK
 70
     0
 10
0.0
 20
0.0
 30
0.0
  3
KUSOVNÍK
  1

  0
LINE
  5
835
330
832
100
AcDbEntity
  8
Značka (ISO)
100
AcDbLine
 10
584.0
 20
193.2766215443611
 30
0.0
 11
402.0465887839551
 21
193.2766215443611
 31
0.0
  0
LINE
  5
836
330
832
100
AcDbEntity
  8
Značka (ISO)
100
AcDbLine
 10
584.0
 20
193.2766215443611
 30
0.0
 11
584.0
 21
186.9279203474522
 31
0.0
  0
LINE
  5
837
330
832
100
AcDbEntity
  8
Značka (ISO)
100
AcDbLine
 10
402.0465887839551
 20
193.2766215443611
 30
0.0
 11
402.0465887839551
 21
186.9279203474522
 31
0.0
  0
MTEXT
  5
838
102
{ACAD_XDICTIONARY
360
2804
102
}
330
832
100
AcDbEntity
  8
Značka (ISO)
100
AcDbMText
 10
482.4799159804469
 20
187.6525955945254
 30
0.0
 40
3.499999940395355
 41
0.0
 71
     7
 72
     1
  1
KUSOVN\U+00CDK
  7
Text poznámky (DIN)
 73
     1
 44
1.0
  0
LINE
  5
83A
330
832
100
AcDbEntity
  8
Značka (ISO)
100
AcDbLine
 10
584.0
 20
186.9279203474522
 30
0.0
 11
402.0465887839551
 21
186.9279203474522
 31
0.0
  0
LINE
  5
83B
330
832
100
AcDbEntity
  8
Značka (ISO)
100
AcDbLine
 10
584.0
 20
186.9279203474522
 30
0.0
 11
584.0
 21
180.5792191505432
 31
0.0
  0
MTEXT
  5
83C
102
{ACAD_XDICTIONARY
360
2806
102
}
330
832
100
AcDbEntity
  8
Značka (ISO)
100
AcDbMText
 10
561.1072709453114
 20
181.3038943976164
 30
0.0
 40
3.499999940395355
 41
0.0
 71
     7
 72
     1
  1
MATERI\U+00C1L
  7
Text poznámky (DIN)
 73
     1
 44
1.0
  0
LINE
  5
83D
330
832
100
AcDbEntity
  8
Značka (ISO)
100
AcDbLine
 10
558.6
 20
186.9279203474522
 30
0.0
 11
558.6
 21
180.5792191505432
 31
0.0
  0
MTEXT
  5
83E
330
832
100
AcDbEntity
  8
Značka (ISO)
100
AcDbMText
 10
534.8322711837299
 20
182.0035697788
 30
0.0
 40
3.499999940395355
 41
0.0
 71
     7
 72
     1
  1
HMOTNOST
  7
Text poznámky (DIN)
 73
     1
 44
1.0
  0
LINE
  5
83F
330
832
100
AcDbEntity
  8
Značka (ISO)
100
AcDbLine
 10
533.2
 20
186.9279203474522
 30
0.0
 11
533.2
 21
180.5792191505432
 31
0.0
  0
MTEXT
  5
840
102
{ACAD_XDICTIONARY
360
2808
102
}
330
832
100
AcDbEntity
  8
Značka (ISO)
100
AcDbMText
 10
509.607595862151
 20
181.3038943976164
 30
0.0
 40
3.499999940395355
 41
0.0
 71
     7
 72
     1
  1
SKLADOV\U+00C9
  7
Text poznámky (DIN)
 73
     1
 44
1.0
  0
LINE
  5
841
330
832
100
AcDbEntity
  8
Značka (ISO)
100
AcDbLine
 10
507.8
 20
186.9279203474522
 30
0.0
 11
507.8
 21
180.5792191505432
 31
0.0
  0
MTEXT
  5
842
330
832
100
AcDbEntity
  8
Značka (ISO)
100
AcDbMText
 10
462.4064093113998
 20
182.0035697788
 30
0.0
 40
3.499999940395355
 41
0.0
 71
     7
 72
     1
  1
POPIS
  7
Text poznámky (DIN)
 73
     1
 44
1.0
  0
LINE
  5
843
330
832
100
AcDbEntity
  8
Značka (ISO)
100
AcDbLine
 10
428.6515228011313
 20
186.9279203474522
 30
0.0
 11
428.6515228011313
 21
180.5792191505432
 31
0.0
  0
MTEXT
  5
844
330
832
100
AcDbEntity
  8
Značka (ISO)
100
AcDbMText
 10
420.9232095985152
 20
182.0035697788
 30
0.0
 40
3.499999940395355
 41
0.0
 71
     7
 72
     1
  1
KS
  7
Text poznámky (DIN)
 73
     1
 44
1.0
  0
LINE
  5
845
330
832
100
AcDbEntity
  8
Značka (ISO)
100
AcDbLine
 10
418.1874973113294
 20
186.9279203474522
 30
0.0
 11
418.1874973113294
 21
180.5792191505432
 31
0.0
  0
MTEXT
  5
846
330
832
100
AcDbEntity
  8
Značka (ISO)
100
AcDbMText
 10
403.2489895529513
 20
182.0035697788
 30
0.0
 40
3.499999940395355
 41
0.0
 71
     7
 72
     1
  1
POZICE
  7
Text poznámky (DIN)
 73
     1
 44
1.0
  0
LINE
  5
847
330
832
100
AcDbEntity
  8
Značka (ISO)
100
AcDbLine
 10
402.0465887839551
 20
186.9279203474522
 30
0.0
 11
402.0465887839551
 21
180.5792191505432
 31
0.0
  0
MTEXT
  5
848
330
832
100
AcDbEntity
  8
Značka (ISO)
100
AcDbMText
 10
559.8024007689961
 20
175.6548685818911
 30
0.0
 40
3.499999940395355
 41
0.0
 71
     7
 72
     1
  1
AISI 304
  7
Text poznámky (DIN)
 73
     1
 44
1.0
  0
MTEXT
  5
849
330
832
100
AcDbEntity
  8
Značka (ISO)
100
AcDbMText
 10
534.3996007618758
 20
174.6061673253775
 30
0.0
 40
3.499999940395355
 41
0.0
 71
     7
 72
     1
  1
1,6 kg
  7
Text poznámky (DIN)
 73
     1
 44
1.0
  0
MTEXT
  5
84A
330
832
100
AcDbEntity
  8
Značka (ISO)
100
AcDbMText
 10
509.0024007689961
 20
175.6548685818911
 30
0.0
 40
3.499999940395355
 41
0.0
 71
     7
 72
     1
  1
E53977
  7
Text poznámky (DIN)
 73
     1
 44
1.0
  0
MTEXT
  5
84B
102
{ACAD_XDICTIONARY
360
280A
102
}
330
832
100
AcDbEntity
  8
Značka (ISO)
100
AcDbMText
 10
429.8539235701274
 20
174.4324659794569
 30
0.0
 40
3.499999940395355
 41
0.0
 71
     7
 72
     1
  1
Sva\U+0159enec ro\U+0161t nastavb. vinyl
  7
Text poznámky (DIN)
 73
     1
 44
1.0
  0
MTEXT
  5
84C
330
832
100
AcDbEntity
  8
Značka (ISO)
100
AcDbMText
 10
422.3691853927105
 20
175.6548685818911
 30
0.0
 40
3.499999940395355
 41
0.0
 71
     7
 72
     1
  1
 
  7
Text poznámky (DIN)
 73
     1
 44
1.0
  0
MTEXT
  5
84D
330
832
100
AcDbEntity
  8
Značka (ISO)
100
AcDbMText
 10
409.5416438244193
 20
175.6548685818911
 30
0.0
 40
3.499999940395355
 41
0.0
 71
     7
 72
     1
  1
1
  7
Text poznámky (DIN)
 73
     1
 44
1.0
  0
LINE
  5
84E
330
832
100
AcDbEntity
  8
Značka (ISO)
100
AcDbLine
 10
584.0
 20
180.5792191505432
 30
0.0
 11
402.0465887839551
 21
180.5792191505432
 31
0.0
  0
MTEXT
  5
84F
330
832
100
AcDbEntity
  8
Značka (ISO)
100
AcDbMText
 10
559.8024007689961
 20
169.3061673849821
 30
0.0
 40
3.499999940395355
 41
0.0
 71
     7
 72
     1
  1
AISI 304
  7
Text poznámky (DIN)
 73
     1
 44
1.0
  0
MTEXT
  5
850
330
832
100
AcDbEntity
  8
Značka (ISO)
100
AcDbMText
 10
534.4024007689961
 20
168.2574661284685
 30
0.0
 40
3.499999940395355
 41
0.0
 71
     7
 72
     1
  1
0,476 kg
  7
Text poznámky (DIN)
 73
     1
 44
1.0
  0
MTEXT
  5
851
330
832
100
AcDbEntity
  8
Značka (ISO)
100
AcDbMText
 10
509.0024007689961
 20
169.3061673849821
 30
0.0
 40
3.499999940395355
 41
0.0
 71
     7
 72
     1
  1
E23347
  7
Text poznámky (DIN)
 73
     1
 44
1.0
  0
MTEXT
  5
852
102
{ACAD_XDICTIONARY
360
280C
102
}
330
832
100
AcDbEntity
  8
Značka (ISO)
100
AcDbMText
 10
429.8539235701274
 20
168.083764782548
 30
0.0
 40
3.499999940395355
 41
0.0
 71
     7
 72
     1
  1
Effidrain v\U+00FDpust rost.nast. 200 
  7
Text poznámky (DIN)
 73
     1
 44
1.0
  0
MTEXT
  5
853
102
{ACAD_XDICTIONARY
360
280E
102
}
330
832
100
AcDbEntity
  8
Značka (ISO)
100
AcDbMText
 10
429.8539235701274
 20
161.7350636631251
 30
0.0
 40
3.499999940395355
 41
0.0
 71
     7
 72
     1
  1
prodlou\U+017Een\U+00E1 AISI 304
  7
Text poznámky (DIN)
 73
     1
 44
1.0
  0
MTEXT
  5
854
330
832
100
AcDbEntity
  8
Značka (ISO)
100
AcDbMText
 10
422.8441108330073
 20
169.3061673849821
 30
0.0
 40
3.499999940395355
 41
0.0
 71
     7
 72
     1
  1
1
  7
Text poznámky (DIN)
 73
     1
 44
1.0
  0
MTEXT
  5
855
330
832
100
AcDbEntity
  8
Značka (ISO)
100
AcDbMText
 10
407.7932672612279
 20
169.3061673849821
 30
0.0
 40
3.499999940395355
 41
0.0
 71
     7
 72
     1
  1
1.3
  7
Text poznámky (DIN)
 73
     1
 44
1.0
  0
LINE
  5
856
330
832
100
AcDbEntity
  8
Značka (ISO)
100
AcDbLine
 10
584.0
 20
174.2305179536343
 30
0.0
 11
402.0465887839551
 21
174.2305179536343
 31
0.0
  0
MTEXT
  5
857
330
832
100
AcDbEntity
  8
Značka (ISO)
100
AcDbMText
 10
559.8024007689961
 20
156.6087649911642
 30
0.0
 40
3.499999940395355
 41
0.0
 71
     7
 72
     1
  1
AISI 304
  7
Text poznámky (DIN)
 73
     1
 44
1.0
  0
MTEXT
  5
858
330
832
100
AcDbEntity
  8
Značka (ISO)
100
AcDbMText
 10
534.4024007689961
 20
155.5600637346507
 30
0.0
 40
3.499999940395355
 41
0.0
 71
     7
 72
     1
  1
0,005 kg
  7
Text poznámky (DIN)
 73
     1
 44
1.0
  0
MTEXT
  5
859
330
832
100
AcDbEntity
  8
Značka (ISO)
100
AcDbMText
 10
509.0024007689961
 20
156.6087649911642
 30
0.0
 40
3.499999940395355
 41
0.0
 71
     7
 72
     1
  1
90576
  7
Text poznámky (DIN)
 73
     1
 44
1.0
  0
MTEXT
  5
85A
102
{ACAD_XDICTIONARY
360
2810
102
}
330
832
100
AcDbEntity
  8
Značka (ISO)
100
AcDbMText
 10
429.8539235701274
 20
155.3863623887301
 30
0.0
 40
3.499999940395355
 41
0.0
 71
     7
 72
     1
  1
Matice n\U+00FDtovac\U+00ED nerez  M5
  7
Text poznámky (DIN)
 73
     1
 44
1.0
  0
MTEXT
  5
85B
330
832
100
AcDbEntity
  8
Značka (ISO)
100
AcDbMText
 10
422.4978848902918
 20
156.6087649911642
 30
0.0
 40
3.499999940395355
 41
0.0
 71
     7
 72
     1
  1
8
  7
Text poznámky (DIN)
 73
     1
 44
1.0
  0
MTEXT
  5
85C
330
832
100
AcDbEntity
  8
Značka (ISO)
100
AcDbMText
 10
407.6179425828069
 20
156.6087649911642
 30
0.0
 40
3.499999940395355
 41
0.0
 71
     7
 72
     1
  1
1.4
  7
Text poznámky (DIN)
 73
     1
 44
1.0
  0
LINE
  5
85D
330
832
100
AcDbEntity
  8
Značka (ISO)
100
AcDbLine
 10
584.0
 20
161.5331155598164
 30
0.0
 11
402.0465887839551
 21
161.5331155598164
 31
0.0
  0
MTEXT
  5
85E
330
832
100
AcDbEntity
  8
Značka (ISO)
100
AcDbMText
 10
559.8024007689961
 20
150.2600637942553
 30
0.0
 40
3.499999940395355
 41
0.0
 71
     7
 72
     1
  1
AISI 304
  7
Text poznámky (DIN)
 73
     1
 44
1.0
  0
MTEXT
  5
85F
330
832
100
AcDbEntity
  8
Značka (ISO)
100
AcDbMText
 10
534.4024007689961
 20
149.2113625377417
 30
0.0
 40
3.499999940395355
 41
0.0
 71
     7
 72
     1
  1
0,007 kg
  7
Text poznámky (DIN)
 73
     1
 44
1.0
  0
MTEXT
  5
860
330
832
100
AcDbEntity
  8
Značka (ISO)
100
AcDbMText
 10
509.0024007689961
 20
150.2600637942553
 30
0.0
 40
3.499999940395355
 41
0.0
 71
     7
 72
     1
  1
90507
  7
Text poznámky (DIN)
 73
     1
 44
1.0
  0
MTEXT
  5
861
102
{ACAD_XDICTIONARY
360
2812
102
}
330
832
100
AcDbEntity
  8
Značka (ISO)
100
AcDbMText
 10
429.8539235701274
 20
149.5603884130717
 30
0.0
 40
3.499999940395355
 41
0.0
 71
     7
 72
     1
  1
\U+0160roub nava\U+0159ovac\U+00ED nerez M8x20 A2 
  7
Text poznámky (DIN)
 73
     1
 44
1.0
  0
MTEXT
  5
862
330
832
100
AcDbEntity
  8
Značka (ISO)
100
AcDbMText
 10
429.8539235701274
 20
143.2116872936487
 30
0.0
 40
3.499999940395355
 41
0.0
 71
     7
 72
     1
  1
DIN 32501
  7
Text poznámky (DIN)
 73
     1
 44
1.0
  0
MTEXT
  5
863
330
832
100
AcDbEntity
  8
Značka (ISO)
100
AcDbMText
 10
422.8441108330073
 20
150.2600637942553
 30
0.0
 40
3.499999940395355
 41
0.0
 71
     7
 72
     1
  1
1
  7
Text poznámky (DIN)
 73
     1
 44
1.0
  0
MTEXT
  5
864
330
832
100
AcDbEntity
  8
Značka (ISO)
100
AcDbMText
 10
407.7932672612279
 20
150.2600637942553
 30
0.0
 40
3.499999940395355
 41
0.0
 71
     7
 72
     1
  1
1.5
  7
Text poznámky (DIN)
 73
     1
 44
1.0
  0
LINE
  5
865
330
832
100
AcDbEntity
  8
Značka (ISO)
100
AcDbLine
 10
584.0
 20
155.1844143629074
 30
0.0
 11
402.0465887839551
 21
155.1844143629074
 31
0.0
  0
MTEXT
  5
866
330
832
100
AcDbEntity
  8
Značka (ISO)
100
AcDbMText
 10
559.8024007689961
 20
136.8613626867533
 30
0.0
 40
3.499999940395355
 41
0.0
 71
     7
 72
     1
  1
Steel, Mild
  7
Text poznámky (DIN)
 73
     1
 44
1.0
  0
MTEXT
  5
867
330
832
100
AcDbEntity
  8
Značka (ISO)
100
AcDbMText
 10
534.4024007689961
 20
136.5139601439238
 30
0.0
 40
3.499999940395355
 41
0.0
 71
     7
 72
     1
  1
0,002 kg
  7
Text poznámky (DIN)
 73
     1
 44
1.0
  0
MTEXT
  5
868
330
832
100
AcDbEntity
  8
Značka (ISO)
100
AcDbMText
 10
509.0024007689961
 20
137.5626614004374
 30
0.0
 40
3.499999940395355
 41
0.0
 71
     7
 72
     1
  1
90560
  7
Text poznámky (DIN)
 73
     1
 44
1.0
  0
MTEXT
  5
869
102
{ACAD_XDICTIONARY
360
2814
102
}
330
832
100
AcDbEntity
  8
Značka (ISO)
100
AcDbMText
 10
429.8539235701274
 20
135.8142847627402
 30
0.0
 40
3.499999940395355
 41
0.0
 71
     7
 72
     1
  1
\U+0160roub se z\U+00E1pustnou hlavou
  7
Text poznámky (DIN)
 73
     1
 44
1.0
  0
MTEXT
  5
86A
330
832
100
AcDbEntity
  8
Značka (ISO)
100
AcDbMText
 10
422.4978848902918
 20
137.5626614004374
 30
0.0
 40
3.499999940395355
 41
0.0
 71
     7
 72
     1
  1
8
  7
Text poznámky (DIN)
 73
     1
 44
1.0
  0
MTEXT
  5
86B
330
832
100
AcDbEntity
  8
Značka (ISO)
100
AcDbMText
 10
409.1954178817038
 20
137.5626614004374
 30
0.0
 40
3.499999940395355
 41
0.0
 71
     7
 72
     1
  1
3
  7
Text poznámky (DIN)
 73
     1
 44
1.0
  0
LINE
  5
86C
330
832
100
AcDbEntity
  8
Značka (ISO)
100
AcDbLine
 10
584.0
 20
142.4870119690895
 30
0.0
 11
402.0465887839551
 21
142.4870119690895
 31
0.0
  0
MTEXT
  5
86D
330
832
100
AcDbEntity
  8
Značka (ISO)
100
AcDbMText
 10
559.8024007689961
 20
131.2139602035284
 30
0.0
 40
3.499999940395355
 41
0.0
 71
     7
 72
     1
  1
Plast ABS
  7
Text poznámky (DIN)
 73
     1
 44
1.0
  0
MTEXT
  5
86E
330
832
100
AcDbEntity
  8
Značka (ISO)
100
AcDbMText
 10
534.4024007689961
 20
130.1652589470148
 30
0.0
 40
3.499999940395355
 41
0.0
 71
     7
 72
     1
  1
0,001 kg
  7
Text poznámky (DIN)
 73
     1
 44
1.0
  0
MTEXT
  5
86F
330
832
100
AcDbEntity
  8
Značka (ISO)
100
AcDbMText
 10
509.0024007689961
 20
131.2139602035284
 30
0.0
 40
3.499999940395355
 41
0.0
 71
     7
 72
     1
  1
91365
  7
Text poznámky (DIN)
 73
     1
 44
1.0
  0
MTEXT
  5
870
102
{ACAD_XDICTIONARY
360
2816
102
}
330
832
100
AcDbEntity
  8
Značka (ISO)
100
AcDbMText
 10
429.8539235701274
 20
129.9915576010943
 30
0.0
 40
3.499999940395355
 41
0.0
 71
     7
 72
     1
  1
Krytka n\U+00FDtovac\U+00ED matice M5
  7
Text poznámky (DIN)
 73
     1
 44
1.0
  0
MTEXT
  5
871
330
832
100
AcDbEntity
  8
Značka (ISO)
100
AcDbMText
 10
422.4978848902918
 20
131.2139602035284
 30
0.0
 40
3.499999940395355
 41
0.0
 71
     7
 72
     1
  1
8
  7
Text poznámky (DIN)
 73
     1
 44
1.0
  0
MTEXT
  5
872
330
832
100
AcDbEntity
  8
Značka (ISO)
100
AcDbMText
 10
409.0200932032828
 20
131.2139602035284
 30
0.0
 40
3.499999940395355
 41
0.0
 71
     7
 72
     1
  1
4
  7
Text poznámky (DIN)
 73
     1
 44
1.0
  0
LINE
  5
873
330
832
100
AcDbEntity
  8
Značka (ISO)
100
AcDbLine
 10
584.0
 20
136.1383107721806
 30
0.0
 11
402.0465887839551
 21
136.1383107721806
 31
0.0
  0
MTEXT
  5
874
330
832
100
AcDbEntity
  8
Značka (ISO)
100
AcDbMText
 10
559.8024007689961
 20
124.8652590066195
 30
0.0
 40
3.499999940395355
 41
0.0
 71
     7
 72
     1
  1
AISI 304
  7
Text poznámky (DIN)
 73
     1
 44
1.0
  0
MTEXT
  5
875
330
832
100
AcDbEntity
  8
Značka (ISO)
100
AcDbMText
 10
534.4024007689961
 20
123.8165577501059
 30
0.0
 40
3.499999940395355
 41
0.0
 71
     7
 72
     1
  1
0,025 kg
  7
Text poznámky (DIN)
 73
     1
 44
1.0
  0
MTEXT
  5
876
330
832
100
AcDbEntity
  8
Značka (ISO)
100
AcDbMText
 10
509.0024007689961
 20
124.8652590066195
 30
0.0
 40
3.499999940395355
 41
0.0
 71
     7
 72
     1
  1
05598
  7
Text poznámky (DIN)
 73
     1
 44
1.0
  0
MTEXT
  5
877
330
832
100
AcDbEntity
  8
Značka (ISO)
100
AcDbMText
 10
429.8539235701274
 20
124.8652590066195
 30
0.0
 40
3.499999940395355
 41
0.0
 71
     7
 72
     1
  1
Kotva 
  7
Text poznámky (DIN)
 73
     1
 44
1.0
  0
MTEXT
  5
878
330
832
100
AcDbEntity
  8
Značka (ISO)
100
AcDbMText
 10
422.4978848902918
 20
124.8652590066195
 30
0.0
 40
3.499999940395355
 41
0.0
 71
     7
 72
     1
  1
3
  7
Text poznámky (DIN)
 73
     1
 44
1.0
  0
MTEXT
  5
879
330
832
100
AcDbEntity
  8
Značka (ISO)
100
AcDbMText
 10
409.1954178817038
 20
124.8652590066195
 30
0.0
 40
3.499999940395355
 41
0.0
 71
     7
 72
     1
  1
5
  7
Text poznámky (DIN)
 73
     1
 44
1.0
  0
LINE
  5
87A
330
832
100
AcDbEntity
  8
Značka (ISO)
100
AcDbLine
 10
584.0
 20
129.7896095752717
 30
0.0
 11
402.0465887839551
 21
129.7896095752717
 31
0.0
  0
MTEXT
  5
87B
102
{ACAD_XDICTIONARY
360
2818
102
}
330
832
100
AcDbEntity
  8
Značka (ISO)
100
AcDbMText
 10
559.8024007689961
 20
118.34285646379
 30
0.0
 40
3.499999940395355
 41
0.0
 71
     7
 72
     1
  1
M\U+011Bkk\U+00E1 ocel
  7
Text poznámky (DIN)
 73
     1
 44
1.0
  0
MTEXT
  5
87C
330
832
100
AcDbEntity
  8
Značka (ISO)
100
AcDbMText
 10
534.4024007689961
 20
117.467856553197
 30
0.0
 40
3.499999940395355
 41
0.0
 71
     7
 72
     1
  1
0,005 kg
  7
Text poznámky (DIN)
 73
     1
 44
1.0
  0
MTEXT
  5
87D
330
832
100
AcDbEntity
  8
Značka (ISO)
100
AcDbMText
 10
509.0024007689961
 20
118.5165578097105
 30
0.0
 40
3.499999940395355
 41
0.0
 71
     7
 72
     1
  1
90503
  7
Text poznámky (DIN)
 73
     1
 44
1.0
  0
MTEXT
  5
87E
102
{ACAD_XDICTIONARY
360
281A
102
}
330
832
100
AcDbEntity
  8
Značka (ISO)
100
AcDbMText
 10
429.8539235701274
 20
117.8168824285269
 30
0.0
 40
3.499999940395355
 41
0.0
 71
     7
 72
     1
  1
\U+0160estihrann\U+00E1 matice
  7
Text poznámky (DIN)
 73
     1
 44
1.0
  0
MTEXT
  5
87F
330
832
100
AcDbEntity
  8
Značka (ISO)
100
AcDbMText
 10
422.8441108330073
 20
118.5165578097105
 30
0.0
 40
3.499999940395355
 41
0.0
 71
     7
 72
     1
  1
1
  7
Text poznámky (DIN)
 73
     1
 44
1.0
  0
MTEXT
  5
880
330
832
100
AcDbEntity
  8
Značka (ISO)
100
AcDbMText
 10
409.1954178817038
 20
118.5165578097105
 30
0.0
 40
3.499999940395355
 41
0.0
 71
     7
 72
     1
  1
6
  7
Text poznámky (DIN)
 73
     1
 44
1.0
  0
LINE
  5
881
330
832
100
AcDbEntity
  8
Značka (ISO)
100
AcDbLine
 10
584.0
 20
123.4409083783627
 30
0.0
 11
402.0465887839551
 21
123.4409083783627
 31
0.0
  0
MTEXT
  5
882
330
832
100
AcDbEntity
  8
Značka (ISO)
100
AcDbMText
 10
559.8024007689961
 20
112.1678566128016
 30
0.0
 40
3.499999940395355
 41
0.0
 71
     7
 72
     1
  1
Plast ABS
  7
Text poznámky (DIN)
 73
     1
 44
1.0
  0
MTEXT
  5
883
330
832
100
AcDbEntity
  8
Značka (ISO)
100
AcDbMText
 10
534.4024007689961
 20
111.119155356288
 30
0.0
 40
3.499999940395355
 41
0.0
 71
     7
 72
     1
  1
0,002 kg
  7
Text poznámky (DIN)
 73
     1
 44
1.0
  0
MTEXT
  5
884
330
832
100
AcDbEntity
  8
Značka (ISO)
100
AcDbMText
 10
509.0024007689961
 20
112.1678566128016
 30
0.0
 40
3.499999940395355
 41
0.0
 71
     7
 72
     1
  1
91024
  7
Text poznámky (DIN)
 73
     1
 44
1.0
  0
MTEXT
  5
885
330
832
100
AcDbEntity
  8
Značka (ISO)
100
AcDbMText
 10
429.8539235701274
 20
111.119155356288
 30
0.0
 40
3.499999940395355
 41
0.0
 71
     7
 72
     1
  1
Krytka  matic 130-034-148 
  7
Text poznámky (DIN)
 73
     1
 44
1.0
  0
MTEXT
  5
886
102
{ACAD_XDICTIONARY
360
281C
102
}
330
832
100
AcDbEntity
  8
Značka (ISO)
100
AcDbMText
 10
429.8539235701274
 20
105.1178567796946
 30
0.0
 40
3.499999940395355
 41
0.0
 71
     7
 72
     1
  1
\U+0161estihrann\U+00E1, \U+010Dern\U+00E1
  7
Text poznámky (DIN)
 73
     1
 44
1.0
  0
MTEXT
  5
887
330
832
100
AcDbEntity
  8
Značka (ISO)
100
AcDbMText
 10
422.8441108330073
 20
112.1678566128016
 30
0.0
 40
3.499999940395355
 41
0.0
 71
     7
 72
     1
  1
1
  7
Text poznámky (DIN)
 73
     1
 44
1.0
  0
MTEXT
  5
888
330
832
100
AcDbEntity
  8
Značka (ISO)
100
AcDbMText
 10
409.1926178745835
 20
112.1678566128016
 30
0.0
 40
3.499999940395355
 41
0.0
 71
     7
 72
     1
  1
7
  7
Text poznámky (DIN)
 73
     1
 44
1.0
  0
LINE
  5
889
330
832
100
AcDbEntity
  8
Značka (ISO)
100
AcDbLine
 10
584.0
 20
117.0922071814537
 30
0.0
 11
402.0465887839551
 21
117.0922071814537
 31
0.0
  0
MTEXT
  5
88A
102
{ACAD_XDICTIONARY
360
281E
102
}
330
832
100
AcDbEntity
  8
Značka (ISO)
100
AcDbMText
 10
559.8024007689961
 20
98.24805161654957
 30
0.0
 40
3.499999940395355
 41
0.0
 71
     7
 72
     1
  1
Pap\U+00EDr
  7
Text poznámky (DIN)
 73
     1
 44
1.0
  0
MTEXT
  5
88B
330
832
100
AcDbEntity
  8
Značka (ISO)
100
AcDbMText
 10
534.4024007689961
 20
98.42175296247013
 30
0.0
 40
3.499999940395355
 41
0.0
 71
     7
 72
     1
  1
0,001 kg
  7
Text poznámky (DIN)
 73
     1
 44
1.0
  0
MTEXT
  5
88C
330
832
100
AcDbEntity
  8
Značka (ISO)
100
AcDbMText
 10
509.0024007689961
 20
99.47045421898373
 30
0.0
 40
3.499999940395355
 41
0.0
 71
     7
 72
     1
  1
91018
  7
Text poznámky (DIN)
 73
     1
 44
1.0
  0
MTEXT
  5
88D
330
832
100
AcDbEntity
  8
Značka (ISO)
100
AcDbMText
 10
429.8539235701274
 20
99.47045421898373
 30
0.0
 40
3.499999940395355
 41
0.0
 71
     7
 72
     1
  1
Etiketa
  7
Text poznámky (DIN)
 73
     1
 44
1.0
  0
MTEXT
  5
88E
330
832
100
AcDbEntity
  8
Značka (ISO)
100
AcDbMText
 10
422.8441108330073
 20
99.47045421898373
 30
0.0
 40
3.499999940395355
 41
0.0
 71
     7
 72
     1
  1
1
  7
Text poznámky (DIN)
 73
     1
 44
1.0
  0
MTEXT
  5
88F
330
832
100
AcDbEntity
  8
Značka (ISO)
100
AcDbMText
 10
409.1954178817038
 20
99.47045421898373
 30
0.0
 40
3.499999940395355
 41
0.0
 71
     7
 72
     1
  1
8
  7
Text poznámky (DIN)
 73
     1
 44
1.0
  0
LINE
  5
890
330
832
100
AcDbEntity
  8
Značka (ISO)
100
AcDbLine
 10
584.0
 20
104.3948047876358
 30
0.0
 11
402.0465887839551
 21
104.3948047876358
 31
0.0
  0
MTEXT
  5
891
330
832
100
AcDbEntity
  8
Značka (ISO)
100
AcDbMText
 10
559.8024007689961
 20
93.12175302207478
 30
0.0
 40
3.499999940395355
 41
0.0
 71
     7
 72
     1
  1
AISI 304
  7
Text poznámky (DIN)
 73
     1
 44
1.0
  0
MTEXT
  5
892
330
832
100
AcDbEntity
  8
Značka (ISO)
100
AcDbMText
 10
534.4024007689961
 20
92.07305176556118
 30
0.0
 40
3.499999940395355
 41
0.0
 71
     7
 72
     1
  1
0,411 kg
  7
Text poznámky (DIN)
 73
     1
 44
1.0
  0
MTEXT
  5
893
330
832
100
AcDbEntity
  8
Značka (ISO)
100
AcDbMText
 10
509.0024007689961
 20
93.12175302207478
 30
0.0
 40
3.499999940395355
 41
0.0
 71
     7
 72
     1
  1
E1764
  7
Text poznámky (DIN)
 73
     1
 44
1.0
  0
MTEXT
  5
894
102
{ACAD_XDICTIONARY
360
2820
102
}
330
832
100
AcDbEntity
  8
Značka (ISO)
100
AcDbMText
 10
429.8539235701274
 20
92.94805167615422
 30
0.0
 40
3.499999940395355
 41
0.0
 71
     7
 72
     1
  1
P\U+0159echod 257/200-30
  7
Text poznámky (DIN)
 73
     1
 44
1.0
  0
MTEXT
  5
895
330
832
100
AcDbEntity
  8
Značka (ISO)
100
AcDbMText
 10
422.8441108330073
 20
93.12175302207478
 30
0.0
 40
3.499999940395355
 41
0.0
 71
     7
 72
     1
  1
1
  7
Text poznámky (DIN)
 73
     1
 44
1.0
  0
MTEXT
  5
896
330
832
100
AcDbEntity
  8
Značka (ISO)
100
AcDbMText
 10
407.9713919467692
 20
93.12175302207478
 30
0.0
 40
3.499999940395355
 41
0.0
 71
     7
 72
     1
  1
33
  7
Text poznámky (DIN)
 73
     1
 44
1.0
  0
LINE
  5
897
330
832
100
AcDbEntity
  8
Značka (ISO)
100
AcDbLine
 10
584.0
 20
98.04610359072695
 30
0.0
 11
402.0465887839551
 21
98.04610359072695
 31
0.0
  0
MTEXT
  5
898
330
832
100
AcDbEntity
  8
Značka (ISO)
100
AcDbMText
 10
559.8024007689961
 20
86.77305182516583
 30
0.0
 40
3.499999940395355
 41
0.0
 71
     7
 72
     1
  1
AISI 304
  7
Text poznámky (DIN)
 73
     1
 44
1.0
  0
MTEXT
  5
899
330
832
100
AcDbEntity
  8
Značka (ISO)
100
AcDbMText
 10
534.4024007689961
 20
85.72435056865224
 30
0.0
 40
3.499999940395355
 41
0.0
 71
     7
 72
     1
  1
0,587 kg
  7
Text poznámky (DIN)
 73
     1
 44
1.0
  0
MTEXT
  5
89A
330
832
100
AcDbEntity
  8
Značka (ISO)
100
AcDbMText
 10
509.0024007689961
 20
86.77305182516583
 30
0.0
 40
3.499999940395355
 41
0.0
 71
     7
 72
     1
  1
E1763
  7
Text poznámky (DIN)
 73
     1
 44
1.0
  0
MTEXT
  5
89B
102
{ACAD_XDICTIONARY
360
2822
102
}
330
832
100
AcDbEntity
  8
Značka (ISO)
100
AcDbMText
 10
429.8539235701274
 20
85.55064922273167
 30
0.0
 40
3.499999940395355
 41
0.0
 71
     7
 72
     1
  1
p\U+0159\U+00EDruba pro lino
  7
Text poznámky (DIN)
 73
     1
 44
1.0
  0
MTEXT
  5
89C
330
832
100
AcDbEntity
  8
Značka (ISO)
100
AcDbMText
 10
422.8441108330073
 20
86.77305182516583
 30
0.0
 40
3.499999940395355
 41
0.0
 71
     7
 72
     1
  1
1
  7
Text poznámky (DIN)
 73
     1
 44
1.0
  0
MTEXT
  5
89D
330
832
100
AcDbEntity
  8
Značka (ISO)
100
AcDbMText
 10
407.9713919467692
 20
86.77305182516583
 30
0.0
 40
3.499999940395355
 41
0.0
 71
     7
 72
     1
  1
39
  7
Text poznámky (DIN)
 73
     1
 44
1.0
  0
LINE
  5
89E
330
832
100
AcDbEntity
  8
Značka (ISO)
100
AcDbLine
 10
584.0
 20
91.69740239381798
 30
0.0
 11
402.0465887839551
 21
91.69740239381798
 31
0.0
  0
MTEXT
  5
89F
330
832
100
AcDbEntity
  8
Značka (ISO)
100
AcDbMText
 10
559.8024007689961
 20
80.42435062825688
 30
0.0
 40
3.499999940395355
 41
0.0
 71
     7
 72
     1
  1
AISI 304
  7
Text poznámky (DIN)
 73
     1
 44
1.0
  0
MTEXT
  5
8A0
330
832
100
AcDbEntity
  8
Značka (ISO)
100
AcDbMText
 10
534.4024007689961
 20
79.37564937174329
 30
0.0
 40
3.499999940395355
 41
0.0
 71
     7
 72
     1
  1
0,740 kg
  7
Text poznámky (DIN)
 73
     1
 44
1.0
  0
MTEXT
  5
8A1
330
832
100
AcDbEntity
  8
Značka (ISO)
100
AcDbMText
 10
509.0024007689961
 20
80.42435062825688
 30
0.0
 40
3.499999940395355
 41
0.0
 71
     7
 72
     1
  1
E1765
  7
Text poznámky (DIN)
 73
     1
 44
1.0
  0
MTEXT
  5
8A2
330
832
100
AcDbEntity
  8
Značka (ISO)
100
AcDbMText
 10
429.8539235701274
 20
79.37564937174329
 30
0.0
 40
3.499999940395355
 41
0.0
 71
     7
 72
     1
  1
pritlacna_priruba_pro_vinyl
  7
Text poznámky (DIN)
 73
     1
 44
1.0
  0
MTEXT
  5
8A3
330
832
100
AcDbEntity
  8
Značka (ISO)
100
AcDbMText
 10
422.8441108330073
 20
80.42435062825688
 30
0.0
 40
3.499999940395355
 41
0.0
 71
     7
 72
     1
  1
1
  7
Text poznámky (DIN)
 73
     1
 44
1.0
  0
MTEXT
  5
8A4
330
832
100
AcDbEntity
  8
Značka (ISO)
100
AcDbMText
 10
407.7960672683482
 20
80.42435062825688
 30
0.0
 40
3.499999940395355
 41
0.0
 71
     7
 72
     1
  1
42
  7
Text poznámky (DIN)
 73
     1
 44
1.0
  0
LINE
  5
8A5
330
832
100
AcDbEntity
  8
Značka (ISO)
100
AcDbLine
 10
584.0
 20
85.34870119690905
 30
0.0
 11
402.0465887839551
 21
85.34870119690905
 31
0.0
  0
LINE
  5
8A6
330
832
100
AcDbEntity
  8
Značka (ISO)
100
AcDbLine
 10
584.0
 20
79.00000000000009
 30
0.0
 11
402.0465887839551
 21
79.00000000000009
 31
0.0
  0
LINE
  5
8A7
330
832
100
AcDbEntity
  8
Značka (ISO)
100
AcDbLine
 10
584.0
 20
180.5792191505432
 30
0.0
 11
584.0
 21
79.00000000000009
 31
0.0
  0
LINE
  5
8A8
330
832
100
AcDbEntity
  8
Značka (ISO)
100
AcDbLine
 10
558.6
 20
180.5792191505432
 30
0.0
 11
558.6
 21
79.00000000000009
 31
0.0
  0
LINE
  5
8A9
330
832
100
AcDbEntity
  8
Značka (ISO)
100
AcDbLine
 10
533.2
 20
180.5792191505432
 30
0.0
 11
533.2
 21
79.00000000000009
 31
0.0
  0
LINE
  5
8AA
330
832
100
AcDbEntity
  8
Značka (ISO)
100
AcDbLine
 10
507.8
 20
180.5792191505432
 30
0.0
 11
507.8
 21
79.00000000000009
 31
0.0
  0
LINE
  5
8AB
330
832
100
AcDbEntity
  8
Značka (ISO)
100
AcDbLine
 10
428.6515228011313
 20
180.5792191505432
 30
0.0
 11
428.6515228011313
 21
79.00000000000009
 31
0.0
  0
LINE
  5
8AC
330
832
100
AcDbEntity
  8
Značka (ISO)
100
AcDbLine
 10
418.1874973113294
 20
180.5792191505432
 30
0.0
 11
418.1874973113294
 21
79.00000000000009
 31
0.0
  0
LINE
  5
8AD
330
832
100
AcDbEntity
  8
Značka (ISO)
100
AcDbLine
 10
402.0465887839551
 20
180.5792191505432
 30
0.0
 11
402.0465887839551
 21
79.00000000000009
 31
0.0
  0
ENDBLK
  5
834
330
832
100
AcDbEntity
  8
0
100
AcDbBlockEnd
  0
BLOCK
  5
8B1
330
8B0
100
AcDbEntity
  8
0
100
AcDbBlockBegin
  2
Pozice1
 70
     0
 10
0.0
 20
0.0
 30
0.0
  3
Pozice1
  1

  0
LINE
  5
8B3
330
8B0
100
AcDbEntity
  8
Značka (ISO)
100
AcDbLine
 10
243.4445088744182
 20
363.4275871729514
 30
0.0
 11
244.2556872342095
 21
361.0628483568015
 31
0.0
  0
POLYLINE
  5
8B4
330
8B0
100
AcDbEntity
  8
Značka (ISO)
100
AcDb2dPolyline
 66
     1
 10
0.0
 20
0.0
 30
0.0
 70
   128
  0
VERTEX
  5
8B5
330
8B4
100
AcDbEntity
  8
Značka (ISO)
100
AcDbVertex
100
AcDb2dVertex
 10
242.9715538024902
 20
363.2653427124024
 30
0.0
  0
VERTEX
  5
8B6
330
8B4
100
AcDbEntity
  8
Značka (ISO)
100
AcDbVertex
100
AcDb2dVertex
 10
244.2556953430176
 20
361.0628509521484
 30
0.0
  0
VERTEX
  5
8B8
330
8B4
100
AcDbEntity
  8
Značka (ISO)
100
AcDbVertex
100
AcDb2dVertex
 10
243.9174652099609
 20
363.5898208618164
 30
0.0
  0
VERTEX
  5
8B9
330
8B4
100
AcDbEntity
  8
Značka (ISO)
100
AcDbVertex
100
AcDb2dVertex
 10
242.9715538024902
 20
363.2653427124024
 30
0.0
  0
SEQEND
  5
8B7
330
8B4
100
AcDbEntity
  8
Značka (ISO)
  0
SOLID
  5
8BA
330
8B0
100
AcDbEntity
  8
Značka (ISO)
100
AcDbTrace
 10
242.9715538024902
 20
363.2653427124024
 30
0.0
 11
244.2556953430176
 21
361.0628509521484
 31
0.0
 12
243.9174652099609
 22
363.5898208618164
 32
0.0
 13
242.9715538024902
 23
363.2653427124024
 33
0.0
  0
LINE
  5
8BB
330
8B0
100
AcDbEntity
  8
Značka (ISO)
100
AcDbLine
 10
242.9715611111882
 20
363.2653515009932
 30
0.0
 11
244.2556872342095
 21
361.0628483568015
 31
0.0
  0
LINE
  5
8BC
330
8B0
100
AcDbEntity
  8
Značka (ISO)
100
AcDbLine
 10
244.2556872342095
 20
361.0628483568015
 30
0.0
 11
243.9174566376482
 21
363.5898228449097
 31
0.0
  0
LINE
  5
8BD
330
8B0
100
AcDbEntity
  8
Značka (ISO)
100
AcDbLine
 10
243.9174566376482
 20
363.5898228449097
 30
0.0
 11
242.9715611111882
 21
363.2653515009932
 31
0.0
  0
LINE
  5
8BE
330
8B0
100
AcDbEntity
  8
Značka (ISO)
100
AcDbLine
 10
243.4445088744182
 20
363.4275871729514
 30
0.0
 11
235.5323165059107
 21
386.4931290341394
 31
0.0
  0
MTEXT
  5
8BF
330
8B0
100
AcDbEntity
  8
Značka (ISO)
100
AcDbMText
 10
227.6573168635386
 20
393.2768602926137
 30
0.0
 40
5.24999976158142
 41
0.0
 71
     5
 72
     1
  1
3
  7
Text popisu (ISO)
 73
     1
 44
1.0
  0
LINE
  5
8C0
330
8B0
100
AcDbEntity
  8
Značka (ISO)
100
AcDbLine
 10
235.5323165059107
 20
386.4931290341394
 30
0.0
 11
219.7823172211665
 21
386.4931290341394
 31
0.0
  0
ENDBLK
  5
8B2
330
8B0
100
AcDbEntity
  8
0
100
AcDbBlockEnd
  0
BLOCK
  5
8C3
330
8C2
100
AcDbEntity
  8
0
100
AcDbBlockBegin
  2
Pozice2
 70
     0
 10
0.0
 20
0.0
 30
0.0
  3
Pozice2
  1

  0
LINE
  5
8C5
330
8C2
100
AcDbEntity
  8
Značka (ISO)
100
AcDbLine
 10
241.423877608392
 20
354.4382164229063
 30
0.0
 11
242.9475241455223
 21
356.4202611322636
 31
0.0
  0
POLYLINE
  5
8C6
330
8C2
100
AcDbEntity
  8
Značka (ISO)
100
AcDb2dPolyline
 66
     1
 10
0.0
 20
0.0
 30
0.0
 70
   128
  0
VERTEX
  5
8C7
330
8C6
100
AcDbEntity
  8
Značka (ISO)
100
AcDbVertex
100
AcDb2dVertex
 10
241.8202781677246
 20
354.1334915161133
 30
0.0
  0
VERTEX
  5
8C8
330
8C6
100
AcDbEntity
  8
Značka (ISO)
100
AcDbVertex
100
AcDb2dVertex
 10
242.9475212097168
 20
356.4202499389649
 30
0.0
  0
VERTEX
  5
8CA
330
8C6
100
AcDbEntity
  8
Značka (ISO)
100
AcDbVertex
100
AcDb2dVertex
 10
241.0274696350098
 20
354.7429275512695
 30
0.0
  0
VERTEX
  5
8CB
330
8C6
100
AcDbEntity
  8
Značka (ISO)
100
AcDbVertex
100
AcDb2dVertex
 10
241.8202781677246
 20
354.1334915161133
 30
0.0
  0
SEQEND
  5
8C9
330
8C6
100
AcDbEntity
  8
Značka (ISO)
  0
SOLID
  5
8CC
330
8C2
100
AcDbEntity
  8
Značka (ISO)
100
AcDbTrace
 10
241.8202781677246
 20
354.1334915161133
 30
0.0
 11
242.9475212097168
 21
356.4202499389649
 31
0.0
 12
241.0274696350098
 22
354.7429275512695
 32
0.0
 13
241.8202781677246
 23
354.1334915161133
 33
0.0
  0
LINE
  5
8CD
330
8C2
100
AcDbEntity
  8
Značka (ISO)
100
AcDbLine
 10
241.8202865502635
 20
354.1334871154803
 30
0.0
 11
242.9475241455223
 21
356.4202611322636
 31
0.0
  0
LINE
  5
8CE
330
8C2
100
AcDbEntity
  8
Značka (ISO)
100
AcDbLine
 10
242.9475241455223
 20
356.4202611322636
 30
0.0
 11
241.0274686665206
 21
354.7429457303325
 31
0.0
  0
LINE
  5
8CF
330
8C2
100
AcDbEntity
  8
Značka (ISO)
100
AcDbLine
 10
241.0274686665206
 20
354.7429457303325
 30
0.0
 11
241.8202865502635
 21
354.1334871154803
 31
0.0
  0
LINE
  5
8D0
330
8C2
100
AcDbEntity
  8
Značka (ISO)
100
AcDbLine
 10
241.423877608392
 20
354.4382164229063
 30
0.0
 11
236.0191457647542
 21
347.4074386833706
 31
0.0
  0
MTEXT
  5
8D1
330
8C2
100
AcDbEntity
  8
Značka (ISO)
100
AcDbMText
 10
227.8361237425069
 20
353.9784472464123
 30
0.0
 40
5.24999976158142
 41
0.0
 71
     5
 72
     1
  1
1.4
  7
Text popisu (ISO)
 73
     1
 44
1.0
  0
LINE
  5
8D2
330
8C2
100
AcDbEntity
  8
Značka (ISO)
100
AcDbLine
 10
236.0191457647542
 20
347.4074386833706
 30
0.0
 11
219.6531017202596
 21
347.4074386833706
 31
0.0
  0
ENDBLK
  5
8C4
330
8C2
100
AcDbEntity
  8
0
100
AcDbBlockEnd
  0
BLOCK
  5
8D5
330
8D4
100
AcDbEntity
  8
0
100
AcDbBlockBegin
  2
Pozice3
 70
     0
 10
0.0
 20
0.0
 30
0.0
  3
Pozice3
  1

  0
LINE
  5
8D7
330
8D4
100
AcDbEntity
  8
Značka (ISO)
100
AcDbLine
 10
217.8785722993769
 20
51.00571795612868
 30
0.0
 11
220.1555219252887
 21
52.0379487447899
 31
0.0
  0
POLYLINE
  5
8D8
330
8D4
100
AcDbEntity
  8
Značka (ISO)
100
AcDb2dPolyline
 66
     1
 10
0.0
 20
0.0
 30
0.0
 70
   128
  0
VERTEX
  5
8D9
330
8D8
100
AcDbEntity
  8
Značka (ISO)
100
AcDbVertex
100
AcDb2dVertex
 10
218.0850219726563
 20
50.55032730102539
 30
0.0
  0
VERTEX
  5
8DA
330
8D8
100
AcDbEntity
  8
Značka (ISO)
100
AcDbVertex
100
AcDb2dVertex
 10
220.1555252075195
 20
52.03794956207275
 30
0.0
  0
VERTEX
  5
8DC
330
8D8
100
AcDbEntity
  8
Značka (ISO)
100
AcDbVertex
100
AcDb2dVertex
 10
217.672119140625
 20
51.46111011505126
 30
0.0
  0
VERTEX
  5
8DD
330
8D8
100
AcDbEntity
  8
Značka (ISO)
100
AcDbVertex
100
AcDb2dVertex
 10
218.0850219726563
 20
50.55032730102539
 30
0.0
  0
SEQEND
  5
8DB
330
8D8
100
AcDbEntity
  8
Značka (ISO)
  0
SOLID
  5
8DE
330
8D4
100
AcDbEntity
  8
Značka (ISO)
100
AcDbTrace
 10
218.0850219726563
 20
50.55032730102539
 30
0.0
 11
220.1555252075195
 21
52.03794956207275
 31
0.0
 12
217.672119140625
 22
51.46111011505126
 32
0.0
 13
218.0850219726563
 23
50.55032730102539
 33
0.0
  0
LINE
  5
8DF
330
8D4
100
AcDbEntity
  8
Značka (ISO)
100
AcDbLine
 10
218.0850184571092
 20
50.55032803094633
 30
0.0
 11
220.1555219252887
 21
52.0379487447899
 31
0.0
  0
LINE
  5
8E0
330
8D4
100
AcDbEntity
  8
Značka (ISO)
100
AcDbLine
 10
220.1555219252887
 20
52.0379487447899
 30
0.0
 11
217.6721261416447
 21
51.46110788131104
 31
0.0
  0
LINE
  5
8E1
330
8D4
100
AcDbEntity
  8
Značka (ISO)
100
AcDbLine
 10
217.6721261416447
 20
51.46110788131104
 30
0.0
 11
218.0850184571092
 21
50.55032803094633
 31
0.0
  0
LINE
  5
8E2
330
8D4
100
AcDbEntity
  8
Značka (ISO)
100
AcDbLine
 10
217.8785722993769
 20
51.00571795612868
 30
0.0
 11
188.7054065488046
 21
37.78037491482234
 31
0.0
  0
MTEXT
  5
8E3
330
8D4
100
AcDbEntity
  8
Značka (ISO)
100
AcDbMText
 10
180.8304069064325
 20
44.34287461679911
 30
0.0
 40
5.24999976158142
 41
0.0
 71
     5
 72
     1
  1
7
  7
Text popisu (ISO)
 73
     1
 44
1.0
  0
LINE
  5
8E4
330
8D4
100
AcDbEntity
  8
Značka (ISO)
100
AcDbLine
 10
188.7054065488046
 20
37.78037491482234
 30
0.0
 11
172.9554072640603
 21
37.78037491482234
 31
0.0
  0
ENDBLK
  5
8D6
330
8D4
100
AcDbEntity
  8
0
100
AcDbBlockEnd
  0
BLOCK
  5
8E7
330
8E6
100
AcDbEntity
  8
0
100
AcDbBlockBegin
  2
Pozice4
 70
     0
 10
0.0
 20
0.0
 30
0.0
  3
Pozice4
  1

  0
LINE
  5
8E9
330
8E6
100
AcDbEntity
  8
Značka (ISO)
100
AcDbLine
 10
222.1084583816575
 20
49.31494895545593
 30
0.0
 11
224.1178128896652
 21
50.80239457165475
 31
0.0
  0
POLYLINE
  5
8EA
330
8E6
100
AcDbEntity
  8
Značka (ISO)
100
AcDb2dPolyline
 66
     1
 10
0.0
 20
0.0
 30
0.0
 70
   128
  0
VERTEX
  5
8EB
330
8EA
100
AcDbEntity
  8
Značka (ISO)
100
AcDbVertex
100
AcDb2dVertex
 10
222.405948638916
 20
48.91307830810546
 30
0.0
  0
VERTEX
  5
8EC
330
8EA
100
AcDbEntity
  8
Značka (ISO)
100
AcDbVertex
100
AcDb2dVertex
 10
224.1178131103516
 20
50.80239295959472
 30
0.0
  0
VERTEX
  5
8EE
330
8EA
100
AcDbEntity
  8
Značka (ISO)
100
AcDbVertex
100
AcDb2dVertex
 10
221.8109703063965
 20
49.71682071685791
 30
0.0
  0
VERTEX
  5
8EF
330
8EA
100
AcDbEntity
  8
Značka (ISO)
100
AcDbVertex
100
AcDb2dVertex
 10
222.405948638916
 20
48.91307830810546
 30
0.0
  0
SEQEND
  5
8ED
330
8EA
100
AcDbEntity
  8
Značka (ISO)
  0
SOLID
  5
8F0
330
8E6
100
AcDbEntity
  8
Značka (ISO)
100
AcDbTrace
 10
222.405948638916
 20
48.91307830810546
 30
0.0
 11
224.1178131103516
 21
50.80239295959472
 31
0.0
 12
221.8109703063965
 22
49.71682071685791
 32
0.0
 13
222.405948638916
 23
48.91307830810546
 33
0.0
  0
LINE
  5
8F1
330
8E6
100
AcDbEntity
  8
Značka (ISO)
100
AcDbLine
 10
222.4059475048973
 20
48.91307805385438
 30
0.0
 11
224.1178128896652
 21
50.80239457165475
 31
0.0
  0
LINE
  5
8F2
330
8E6
100
AcDbEntity
  8
Značka (ISO)
100
AcDbLine
 10
224.1178128896652
 20
50.80239457165475
 30
0.0
 11
221.8109692584177
 21
49.71681985705746
 31
0.0
  0
LINE
  5
8F3
330
8E6
100
AcDbEntity
  8
Značka (ISO)
100
AcDbLine
 10
221.8109692584177
 20
49.71681985705746
 30
0.0
 11
222.4059475048973
 21
48.91307805385438
 31
0.0
  0
LINE
  5
8F4
330
8E6
100
AcDbEntity
  8
Značka (ISO)
100
AcDbLine
 10
222.1084583816575
 20
49.31494895545593
 30
0.0
 11
191.8881728222151
 21
26.9440676119548
 31
0.0
  0
MTEXT
  5
8F5
330
8E6
100
AcDbEntity
  8
Značka (ISO)
100
AcDbMText
 10
183.7051507999678
 20
33.68099998556047
 30
0.0
 40
5.24999976158142
 41
0.0
 71
     5
 72
     1
  1
1.5
  7
Text popisu (ISO)
 73
     1
 44
1.0
  0
LINE
  5
8F6
330
8E6
100
AcDbEntity
  8
Značka (ISO)
100
AcDbLine
 10
191.8881728222151
 20
26.9440676119548
 30
0.0
 11
175.5221287777205
 21
26.9440676119548
 31
0.0
  0
ENDBLK
  5
8E8
330
8E6
100
AcDbEntity
  8
0
100
AcDbBlockEnd
  0
BLOCK
  5
8F9
330
8F8
100
AcDbEntity
  8
0
100
AcDbBlockBegin
  2
Pozice5
 70
     0
 10
0.0
 20
0.0
 30
0.0
  3
Pozice5
  1

  0
LINE
  5
8FB
330
8F8
100
AcDbEntity
  8
Značka (ISO)
100
AcDbLine
 10
226.0505353308726
 20
56.04607035645585
 30
0.0
 11
226.9476126659038
 21
58.37957678562492
 31
0.0
  0
POLYLINE
  5
8FC
330
8F8
100
AcDbEntity
  8
Značka (ISO)
100
AcDb2dPolyline
 66
     1
 10
0.0
 20
0.0
 30
0.0
 70
   128
  0
VERTEX
  5
8FD
330
8FC
100
AcDbEntity
  8
Značka (ISO)
100
AcDbVertex
100
AcDb2dVertex
 10
226.5172386169433
 20
55.86665630340576
 30
0.0
  0
VERTEX
  5
8FE
330
8FC
100
AcDbEntity
  8
Značka (ISO)
100
AcDbVertex
100
AcDb2dVertex
 10
226.9476127624512
 20
58.37957859039306
 30
0.0
  0
VERTEX
  5
900
330
8FC
100
AcDbEntity
  8
Značka (ISO)
100
AcDbVertex
100
AcDb2dVertex
 10
225.5838394165039
 20
56.22548580169677
 30
0.0
  0
VERTEX
  5
901
330
8FC
100
AcDbEntity
  8
Značka (ISO)
100
AcDbVertex
100
AcDb2dVertex
 10
226.5172386169433
 20
55.86665630340576
 30
0.0
  0
SEQEND
  5
8FF
330
8FC
100
AcDbEntity
  8
Značka (ISO)
  0
SOLID
  5
902
330
8F8
100
AcDbEntity
  8
Značka (ISO)
100
AcDbTrace
 10
226.5172386169433
 20
55.86665630340576
 30
0.0
 11
226.9476127624512
 21
58.37957859039306
 31
0.0
 12
225.5838394165039
 22
56.22548580169677
 32
0.0
 13
226.5172386169433
 23
55.86665630340576
 33
0.0
  0
LINE
  5
903
330
8F8
100
AcDbEntity
  8
Značka (ISO)
100
AcDbLine
 10
226.5172366167064
 20
55.86665488944962
 30
0.0
 11
226.9476126659038
 21
58.37957678562492
 31
0.0
  0
LINE
  5
904
330
8F8
100
AcDbEntity
  8
Značka (ISO)
100
AcDbLine
 10
226.9476126659038
 20
58.37957678562492
 30
0.0
 11
225.5838340450388
 21
56.22548582346208
 31
0.0
  0
LINE
  5
905
330
8F8
100
AcDbEntity
  8
Značka (ISO)
100
AcDbLine
 10
225.5838340450388
 20
56.22548582346208
 30
0.0
 11
226.5172366167064
 21
55.86665488944962
 31
0.0
  0
LINE
  5
906
330
8F8
100
AcDbEntity
  8
Značka (ISO)
100
AcDbLine
 10
226.0505353308726
 20
56.04607035645585
 30
0.0
 11
224.0205763412276
 21
50.76567571453615
 31
0.0
  0
LINE
  5
907
330
8F8
100
AcDbEntity
  8
Značka (ISO)
100
AcDbLine
 10
223.3330633963374
 20
48.97729492016178
 30
0.0
 11
211.7489809694605
 21
18.84440696998006
 31
0.0
  0
MTEXT
  5
908
330
8F8
100
AcDbEntity
  8
Značka (ISO)
100
AcDbMText
 10
203.8739813270884
 20
25.62175665716148
 30
0.0
 40
5.24999976158142
 41
0.0
 71
     5
 72
     1
  1
6
  7
Text popisu (ISO)
 73
     1
 44
1.0
  0
LINE
  5
909
330
8F8
100
AcDbEntity
  8
Značka (ISO)
100
AcDbLine
 10
211.7489809694605
 20
18.84440696998006
 30
0.0
 11
195.9989816847162
 21
18.84440696998006
 31
0.0
  0
ENDBLK
  5
8FA
330
8F8
100
AcDbEntity
  8
0
100
AcDbBlockEnd
  0
BLOCK
  5
90C
330
90B
100
AcDbEntity
  8
0
100
AcDbBlockBegin
  2
Pozice6
 70
     0
 10
0.0
 20
0.0
 30
0.0
  3
Pozice6
  1

  0
LINE
  5
90E
330
90B
100
AcDbEntity
  8
Značka (ISO)
100
AcDbLine
 10
247.7248002840663
 20
327.1758399551941
 30
0.0
 11
245.9570333310997
 21
328.9436069081602
 31
0.0
  0
POLYLINE
  5
90F
330
90B
100
AcDbEntity
  8
Značka (ISO)
100
AcDb2dPolyline
 66
     1
 10
0.0
 20
0.0
 30
0.0
 70
   128
  0
VERTEX
  5
910
330
90F
100
AcDbEntity
  8
Značka (ISO)
100
AcDbVertex
100
AcDb2dVertex
 10
248.0783462524414
 20
327.529411315918
 30
0.0
  0
VERTEX
  5
911
330
90F
100
AcDbEntity
  8
Značka (ISO)
100
AcDbVertex
100
AcDb2dVertex
 10
245.95703125
 20
328.9435958862305
 30
0.0
  0
VERTEX
  5
913
330
90F
100
AcDbEntity
  8
Značka (ISO)
100
AcDbVertex
100
AcDb2dVertex
 10
247.3712539672852
 20
326.8222808837891
 30
0.0
  0
VERTEX
  5
914
330
90F
100
AcDbEntity
  8
Značka (ISO)
100
AcDbVertex
100
AcDb2dVertex
 10
248.0783462524414
 20
327.529411315918
 30
0.0
  0
SEQEND
  5
912
330
90F
100
AcDbEntity
  8
Značka (ISO)
  0
SOLID
  5
915
330
90B
100
AcDbEntity
  8
Značka (ISO)
100
AcDbTrace
 10
248.0783462524414
 20
327.529411315918
 30
0.0
 11
245.95703125
 21
328.9435958862305
 31
0.0
 12
247.3712539672852
 22
326.8222808837891
 32
0.0
 13
248.0783462524414
 23
327.529411315918
 33
0.0
  0
LINE
  5
916
330
90B
100
AcDbEntity
  8
Značka (ISO)
100
AcDbLine
 10
248.0783536746595
 20
327.5293933457874
 30
0.0
 11
245.9570333310997
 21
328.9436069081602
 31
0.0
  0
LINE
  5
917
330
90B
100
AcDbEntity
  8
Značka (ISO)
100
AcDbLine
 10
245.9570333310997
 20
328.9436069081602
 30
0.0
 11
247.3712468934731
 21
326.8222865646007
 31
0.0
  0
LINE
  5
918
330
90B
100
AcDbEntity
  8
Značka (ISO)
100
AcDbLine
 10
247.3712468934731
 20
326.8222865646007
 30
0.0
 11
248.0783536746595
 21
327.5293933457874
 31
0.0
  0
LINE
  5
919
330
90B
100
AcDbEntity
  8
Značka (ISO)
100
AcDbLine
 10
247.7248002840663
 20
327.1758399551941
 30
0.0
 11
279.9767258229313
 21
294.9239144163386
 31
0.0
  0
ENDBLK
  5
90D
330
90B
100
AcDbEntity
  8
0
100
AcDbBlockEnd
  0
BLOCK
  5
91C
330
91B
100
AcDbEntity
  8
0
100
AcDbBlockBegin
  2
Pozice7
 70
     0
 10
0.0
 20
0.0
 30
0.0
  3
Pozice7
  1

  0
LINE
  5
91E
330
91B
100
AcDbEntity
  8
Značka (ISO)
100
AcDbLine
 10
114.1228124376523
 20
295.1882696659242
 30
0.0
 11
113.0585915288689
 21
297.4504442518721
 31
0.0
  0
POLYLINE
  5
91F
330
91B
100
AcDbEntity
  8
Značka (ISO)
100
AcDb2dPolyline
 66
     1
 10
0.0
 20
0.0
 30
0.0
 70
   128
  0
VERTEX
  5
920
330
91F
100
AcDbEntity
  8
Značka (ISO)
100
AcDbVertex
100
AcDb2dVertex
 10
114.5752429962158
 20
295.4011154174805
 30
0.0
  0
VERTEX
  5
921
330
91F
100
AcDbEntity
  8
Značka (ISO)
100
AcDbVertex
100
AcDb2dVertex
 10
113.0585956573486
 20
297.4504470825195
 30
0.0
  0
VERTEX
  5
923
330
91F
100
AcDbEntity
  8
Značka (ISO)
100
AcDbVertex
100
AcDb2dVertex
 10
113.6703777313232
 20
294.9754333496094
 30
0.0
  0
VERTEX
  5
924
330
91F
100
AcDbEntity
  8
Značka (ISO)
100
AcDbVertex
100
AcDb2dVertex
 10
114.5752429962158
 20
295.4011154174805
 30
0.0
  0
SEQEND
  5
922
330
91F
100
AcDbEntity
  8
Značka (ISO)
  0
SOLID
  5
925
330
91B
100
AcDbEntity
  8
Značka (ISO)
100
AcDbTrace
 10
114.5752429962158
 20
295.4011154174805
 30
0.0
 11
113.0585956573486
 21
297.4504470825195
 31
0.0
 12
113.6703777313232
 22
294.9754333496094
 32
0.0
 13
114.5752429962158
 23
295.4011154174805
 33
0.0
  0
LINE
  5
926
330
91B
100
AcDbEntity
  8
Značka (ISO)
100
AcDbLine
 10
114.5752473548418
 20
295.4011138476809
 30
0.0
 11
113.0585915288689
 21
297.4504442518721
 31
0.0
  0
LINE
  5
927
330
91B
100
AcDbEntity
  8
Značka (ISO)
100
AcDbLine
 10
113.0585915288689
 20
297.4504442518721
 30
0.0
 11
113.6703775204627
 21
294.9754254841675
 31
0.0
  0
LINE
  5
928
330
91B
100
AcDbEntity
  8
Značka (ISO)
100
AcDbLine
 10
113.6703775204627
 20
294.9754254841675
 30
0.0
 11
114.5752473548418
 21
295.4011138476809
 31
0.0
  0
LINE
  5
929
330
91B
100
AcDbEntity
  8
Značka (ISO)
100
AcDbLine
 10
114.1228124376523
 20
295.1882696659242
 30
0.0
 11
125.9553651756379
 21
270.036254825925
 31
0.0
  0
MTEXT
  5
92A
330
91B
100
AcDbEntity
  8
Značka (ISO)
100
AcDbMText
 10
133.83036481801
 20
276.7646783384657
 30
0.0
 40
5.24999976158142
 41
0.0
 71
     5
 72
     1
  1
5
  7
Text popisu (ISO)
 73
     1
 44
1.0
  0
LINE
  5
92B
330
91B
100
AcDbEntity
  8
Značka (ISO)
100
AcDbLine
 10
125.9553651756379
 20
270.036254825925
 30
0.0
 11
141.7053644603821
 21
270.036254825925
 31
0.0
  0
ENDBLK
  5
91D
330
91B
100
AcDbEntity
  8
0
100
AcDbBlockEnd
  0
BLOCK
  5
A64
330
A62
100
AcDbEntity
  8
0
100
AcDbBlockBegin
  2
GENAXEH
 70
     0
 10
0.0
 20
0.0
 30
0.0
  3
GENAXEH
  1

  0
LINE
  5
A63
330
A62
100
AcDbEntity
  8
0
100
AcDbLine
 10
-1.0
 20
0.0
 30
0.0
 11
1.0
 21
0.0
 31
0.0
  0
ENDBLK
  5
A65
330
A62
100
AcDbEntity
  8
0
100
AcDbBlockEnd
  0
BLOCK
  5
A76
330
A75
100
AcDbEntity
  8
0
100
AcDbBlockBegin
  2
*D28
 70
     1
 10
0.0
 20
0.0
 30
0.0
  3
*D28
  1

  0
LINE
  5
A77
330
A75
100
AcDbEntity
  8
Kóta (ISO)
100
AcDbLine
 10
153.1065989985478
 20
563.509945017122
 30
0.0
 11
47.60659899854815
 21
563.509945017122
 31
0.0
  0
LINE
  5
A78
330
A75
100
AcDbEntity
  8
Kóta (ISO)
100
AcDbLine
 10
105.1065989985478
 20
665.9819329037234
 30
0.0
 11
47.60659899854817
 21
665.9819329037234
 31
0.0
  0
LINE
  5
A79
330
A75
100
AcDbEntity
  8
Kóta (ISO)
100
AcDbLine
 10
50.10659899854815
 20
569.759945017122
 30
0.0
 11
50.10659899854817
 21
659.7319329037234
 31
0.0
  0
SOLID
  5
A7A
330
A75
100
AcDbEntity
  8
Kóta (ISO)
100
AcDbTrace
 10
49.06493233188149
 20
569.759945017122
 30
0.0
 11
51.14826566521482
 21
569.759945017122
 31
0.0
 12
50.10659899854815
 22
563.509945017122
 32
0.0
 13
50.10659899854815
 23
563.509945017122
 33
0.0
  0
SOLID
  5
A7B
330
A75
100
AcDbEntity
  8
Kóta (ISO)
100
AcDbTrace
 10
49.0649323318815
 20
659.7319329037234
 30
0.0
 11
51.14826566521483
 21
659.7319329037234
 31
0.0
 12
50.10659899854817
 22
665.9819329037234
 32
0.0
 13
50.10659899854817
 23
665.9819329037234
 33
0.0
  0
MTEXT
  5
A7C
330
A75
100
AcDbEntity
  8
Kóta (ISO)
100
AcDbMText
 10
37.09515171849433
 20
596.0521402448632
 30
0.0
 40
8.75
 41
0.0
 71
     1
 72
     1
  1
\A1;102,5
  7
Text poznámky (ISO)
 11
0.0000000000000001
 21
1.0
 31
0.0
 73
     1
 44
1.0
  0
POINT
  5
A7D
330
A75
100
AcDbEntity
  8
Defpoints
 62
     0
100
AcDbPoint
 10
153.1065989985478
 20
563.509945017122
 30
0.0
  0
POINT
  5
A7E
330
A75
100
AcDbEntity
  8
Defpoints
 62
     0
100
AcDbPoint
 10
105.1065989985478
 20
665.9819329037234
 30
0.0
  0
POINT
  5
A7F
330
A75
100
AcDbEntity
  8
Defpoints
 62
     0
100
AcDbPoint
 10
50.10659899854817
 20
665.9819329037234
 30
0.0
  0
ENDBLK
  5
A80
330
A75
100
AcDbEntity
  8
0
100
AcDbBlockEnd
  0
BLOCK
  5
A82
330
A81
100
AcDbEntity
  8
0
100
AcDbBlockBegin
  2
*D29
 70
     1
 10
0.0
 20
0.0
 30
0.0
  3
*D29
  1

  0
LINE
  5
A83
330
A81
100
AcDbEntity
  8
Kóta (ISO)
440
 16777216
100
AcDbLine
 10
451.1065989982961
 20
454.559970734216
 30
0.0
 11
502.436488650644
 21
454.559970734216
 31
0.0
  0
LINE
  5
A84
330
A81
100
AcDbEntity
  8
Kóta (ISO)
440
 16777216
100
AcDbLine
 10
451.1065989982961
 20
54.55997073421601
 30
0.0
 11
502.436488650644
 21
54.55997073421599
 31
0.0
  0
LINE
  5
A85
330
A81
100
AcDbEntity
  8
Kóta (ISO)
440
 16777216
100
AcDbLine
 10
499.936488650644
 20
448.309970734216
 30
0.0
 11
499.9364886506439
 21
60.80997073421599
 31
0.0
  0
SOLID
  5
A86
330
A81
100
AcDbEntity
  8
Kóta (ISO)
440
 16777216
100
AcDbTrace
 10
498.8948219839774
 20
448.309970734216
 30
0.0
 11
500.9781553173107
 21
448.309970734216
 31
0.0
 12
499.936488650644
 22
454.559970734216
 32
0.0
 13
499.936488650644
 23
454.559970734216
 33
0.0
  0
SOLID
  5
A87
330
A81
100
AcDbEntity
  8
Kóta (ISO)
440
 16777216
100
AcDbTrace
 10
498.8948219839772
 20
60.80997073421599
 30
0.0
 11
500.9781553173106
 21
60.80997073421599
 31
0.0
 12
499.9364886506439
 22
54.55997073421599
 32
0.0
 13
499.9364886506439
 23
54.55997073421599
 33
0.0
  0
MTEXT
  5
A88
330
A81
100
AcDbEntity
  8
Kóta (ISO)
440
 16777216
100
AcDbMText
 10
488.9230265955734
 20
239.7037552917828
 30
0.0
 40
8.75
 41
0.0
 71
     1
 72
     1
  1
\A1;400
  7
Text poznámky (ISO)
 11
0.0000000000000001
 21
1.0
 31
0.0
 73
     1
 44
1.0
  0
POINT
  5
A89
330
A81
100
AcDbEntity
  8
Defpoints
 62
     0
440
 16777216
100
AcDbPoint
 10
451.1065989982961
 20
454.559970734216
 30
0.0
  0
POINT
  5
A8A
330
A81
100
AcDbEntity
  8
Defpoints
 62
     0
440
 16777216
100
AcDbPoint
 10
451.1065989982961
 20
54.55997073421601
 30
0.0
  0
POINT
  5
A8B
330
A81
100
AcDbEntity
  8
Defpoints
 62
     0
440
 16777216
100
AcDbPoint
 10
499.9364886506439
 20
54.55997073421599
 30
0.0
  0
ENDBLK
  5
A8C
330
A81
100
AcDbEntity
  8
0
100
AcDbBlockEnd
  0
BLOCK
  5
A8E
330
A8D
100
AcDbEntity
  8
0
100
AcDbBlockBegin
  2
*D30
 70
     1
 10
0.0
 20
0.0
 30
0.0
  3
*D30
  1

  0
LINE
  5
A8F
330
A8D
100
AcDbEntity
  8
Kóta (ISO)
440
 16777216
100
AcDbLine
 10
53.10659899829617
 20
452.559970734216
 30
0.0
 11
53.10659899829617
 21
480.059970734216
 31
0.0
  0
LINE
  5
A90
330
A8D
100
AcDbEntity
  8
Kóta (ISO)
440
 16777216
100
AcDbLine
 10
453.1065989982961
 20
452.5599707342159
 30
0.0
 11
453.1065989982961
 21
480.059970734216
 31
0.0
  0
LINE
  5
A91
330
A8D
100
AcDbEntity
  8
Kóta (ISO)
440
 16777216
100
AcDbLine
 10
59.35659899829617
 20
477.5599707342159
 30
0.0
 11
446.8565989982961
 21
477.5599707342159
 31
0.0
  0
SOLID
  5
A92
330
A8D
100
AcDbEntity
  8
Kóta (ISO)
440
 16777216
100
AcDbTrace
 10
59.35659899829617
 20
478.6016374008826
 30
0.0
 11
59.35659899829617
 21
476.5183040675493
 31
0.0
 12
53.10659899829617
 22
477.5599707342159
 32
0.0
 13
53.10659899829617
 23
477.5599707342159
 33
0.0
  0
SOLID
  5
A93
330
A8D
100
AcDbEntity
  8
Kóta (ISO)
440
 16777216
100
AcDbTrace
 10
446.8565989982961
 20
478.6016374008826
 30
0.0
 11
446.8565989982961
 21
476.5183040675493
 31
0.0
 12
453.1065989982961
 22
477.5599707342159
 32
0.0
 13
453.1065989982961
 23
477.5599707342159
 33
0.0
  0
MTEXT
  5
A94
330
A8D
100
AcDbEntity
  8
Kóta (ISO)
440
 16777216
100
AcDbMText
 10
243.6132309660597
 20
488.5734327892865
 30
0.0
 40
8.75
 41
0.0
 71
     1
 72
     1
  1
\A1;400
  7
Text poznámky (ISO)
 73
     1
 44
1.0
  0
POINT
  5
A95
330
A8D
100
AcDbEntity
  8
Defpoints
 62
     0
440
 16777216
100
AcDbPoint
 10
53.10659899829617
 20
452.559970734216
 30
0.0
  0
POINT
  5
A96
330
A8D
100
AcDbEntity
  8
Defpoints
 62
     0
440
 16777216
100
AcDbPoint
 10
453.1065989982961
 20
452.5599707342159
 30
0.0
  0
POINT
  5
A97
330
A8D
100
AcDbEntity
  8
Defpoints
 62
     0
440
 16777216
100
AcDbPoint
 10
453.1065989982961
 20
477.5599707342159
 30
0.0
  0
ENDBLK
  5
A98
330
A8D
100
AcDbEntity
  8
0
100
AcDbBlockEnd
  0
BLOCK
  5
A9A
330
A99
100
AcDbEntity
  8
0
100
AcDbBlockBegin
  2
*D31
 70
     1
 10
0.0
 20
0.0
 30
0.0
  3
*D31
  1

  0
LINE
  5
A9B
330
A99
100
AcDbEntity
  8
Kóta (ISO)
100
AcDbLine
 10
153.1065989985478
 20
563.5099450171221
 30
0.0
 11
153.1065989985478
 21
526.8886140977801
 31
0.0
  0
LINE
  5
A9C
330
A99
100
AcDbEntity
  8
Kóta (ISO)
100
AcDbLine
 10
353.1065989985478
 20
563.5099450171221
 30
0.0
 11
353.1065989985478
 21
526.8886140977801
 31
0.0
  0
LINE
  5
A9D
330
A99
100
AcDbEntity
  8
Kóta (ISO)
100
AcDbLine
 10
159.3565989985478
 20
529.38861409778
 30
0.0
 11
346.8565989985478
 21
529.38861409778
 31
0.0
  0
SOLID
  5
A9E
330
A99
100
AcDbEntity
  8
Kóta (ISO)
100
AcDbTrace
 10
159.3565989985478
 20
530.4302807644467
 30
0.0
 11
159.3565989985478
 21
528.3469474311134
 31
0.0
 12
153.1065989985478
 22
529.38861409778
 32
0.0
 13
153.1065989985478
 23
529.38861409778
 33
0.0
  0
SOLID
  5
A9F
330
A99
100
AcDbEntity
  8
Kóta (ISO)
100
AcDbTrace
 10
346.8565989985478
 20
530.4302807644467
 30
0.0
 11
346.8565989985478
 21
528.3469474311134
 31
0.0
 12
353.1065989985478
 22
529.38861409778
 32
0.0
 13
353.1065989985478
 23
529.38861409778
 33
0.0
  0
MTEXT
  5
AA0
330
A99
100
AcDbEntity
  8
Kóta (ISO)
100
AcDbMText
 10
238.4827675155585
 20
544.4588571989627
 30
0.0
 40
8.75
 41
0.0
 71
     1
 72
     1
  1
\A1;{\fAIGDT|b0|i0;\H8.7500;\ln\fTahoma|b0|i0;\H8.7500;}200
  7
Text poznámky (ISO)
 73
     1
 44
1.0
  0
POINT
  5
AA1
330
A99
100
AcDbEntity
  8
Defpoints
 62
     0
100
AcDbPoint
 10
153.1065989985478
 20
563.5099450171221
 30
0.0
  0
POINT
  5
AA2
330
A99
100
AcDbEntity
  8
Defpoints
 62
     0
100
AcDbPoint
 10
353.1065989985478
 20
563.5099450171221
 30
0.0
  0
POINT
  5
AA3
330
A99
100
AcDbEntity
  8
Defpoints
 62
     0
100
AcDbPoint
 10
353.1065989985478
 20
529.38861409778
 30
0.0
  0
ENDBLK
  5
AA4
330
A99
100
AcDbEntity
  8
0
100
AcDbBlockEnd
  0
BLOCK
  5
278D
330
278C
100
AcDbEntity
  8
0
100
AcDbBlockBegin
  2
*D33
 70
     1
 10
0.0
 20
0.0
 30
0.0
  3
*D33
  1

  0
LINE
  5
27BC
330
278C
100
AcDbEntity
  8
Kóta (ISO)
100
AcDbLine
 10
1283.382341693129
 20
584.2120962414439
 30
0.0
 11
1178.715675026463
 21
584.212096241444
 31
0.0
  0
LINE
  5
27BD
330
278C
100
AcDbEntity
  8
Kóta (ISO)
100
AcDbLine
 10
1235.382341693129
 20
686.6840841280452
 30
0.0
 11
1178.715675026463
 21
686.6840841280452
 31
0.0
  0
LINE
  5
27BE
330
278C
100
AcDbEntity
  8
Kóta (ISO)
100
AcDbLine
 10
1180.382341693129
 20
588.3787629081106
 30
0.0
 11
1180.382341693129
 21
682.5174174613786
 31
0.0
  0
SOLID
  5
27BF
330
278C
100
AcDbEntity
  8
Kóta (ISO)
100
AcDbTrace
 10
1179.687897248685
 20
588.3787629081106
 30
0.0
 11
1181.076786137574
 21
588.3787629081106
 31
0.0
 12
1180.382341693129
 22
584.212096241444
 32
0.0
 13
1180.382341693129
 23
584.212096241444
 33
0.0
  0
SOLID
  5
27C0
330
278C
100
AcDbEntity
  8
Kóta (ISO)
100
AcDbTrace
 10
1179.687897248685
 20
682.5174174613786
 30
0.0
 11
1181.076786137574
 21
682.5174174613786
 31
0.0
 12
1180.382341693129
 22
686.6840841280452
 32
0.0
 13
1180.382341693129
 23
686.6840841280452
 33
0.0
  0
MTEXT
  5
27C1
330
278C
100
AcDbEntity
  8
Kóta (ISO)
100
AcDbMText
 10
1171.708043506427
 20
621.4152775896238
 30
0.0
 40
5.833333333333333
 41
0.0
 71
     1
 72
     1
  1
\A1;102,5
  7
Text poznámky (ISO)
 11
0.0000000000000001
 21
1.0
 31
0.0
 73
     1
 44
1.0
  0
POINT
  5
27C2
330
278C
100
AcDbEntity
  8
Defpoints
 62
     0
100
AcDbPoint
 10
1283.382341693129
 20
584.2120962414439
 30
0.0
  0
POINT
  5
27C3
330
278C
100
AcDbEntity
  8
Defpoints
 62
     0
100
AcDbPoint
 10
1235.382341693129
 20
686.6840841280452
 30
0.0
  0
POINT
  5
27C4
330
278C
100
AcDbEntity
  8
Defpoints
 62
     0
100
AcDbPoint
 10
1180.382341693129
 20
686.6840841280452
 30
0.0
  0
ENDBLK
  5
278E
330
278C
100
AcDbEntity
  8
0
100
AcDbBlockEnd
  0
BLOCK
  5
2799
330
2798
100
AcDbEntity
  8
0
100
AcDbBlockBegin
  2
*D34
 70
     1
 10
0.0
 20
0.0
 30
0.0
  3
*D34
  1

  0
LINE
  5
27C5
330
2798
100
AcDbEntity
  8
Kóta (ISO)
100
AcDbLine
 10
1581.382341692878
 20
475.2621219585377
 30
0.0
 11
1631.878898011892
 21
475.2621219585377
 31
0.0
  0
LINE
  5
27C6
330
2798
100
AcDbEntity
  8
Kóta (ISO)
100
AcDbLine
 10
1581.382341692878
 20
75.26212195853783
 30
0.0
 11
1631.878898011892
 21
75.26212195853783
 31
0.0
  0
LINE
  5
27C7
330
2798
100
AcDbEntity
  8
Kóta (ISO)
100
AcDbLine
 10
1630.212231345225
 20
471.0954552918711
 30
0.0
 11
1630.212231345225
 21
79.4287886252045
 31
0.0
  0
SOLID
  5
27C8
330
2798
100
AcDbEntity
  8
Kóta (ISO)
100
AcDbTrace
 10
1629.517786900781
 20
471.0954552918711
 30
0.0
 11
1630.90667578967
 21
471.0954552918711
 31
0.0
 12
1630.212231345225
 22
475.2621219585377
 32
0.0
 13
1630.212231345225
 23
475.2621219585377
 33
0.0
  0
SOLID
  5
27C9
330
2798
100
AcDbEntity
  8
Kóta (ISO)
100
AcDbTrace
 10
1629.517786900781
 20
79.4287886252045
 30
0.0
 11
1630.90667578967
 21
79.4287886252045
 31
0.0
 12
1630.212231345225
 22
75.26212195853783
 32
0.0
 13
1630.212231345225
 23
75.26212195853783
 33
0.0
  0
MTEXT
  5
27CA
330
2798
100
AcDbEntity
  8
Kóta (ISO)
100
AcDbMText
 10
1622.869923308511
 20
263.5703625268501
 30
0.0
 40
5.833333333333333
 41
0.0
 71
     1
 72
     1
  1
\A1;400
  7
Text poznámky (ISO)
 11
0.0000000000000001
 21
1.0
 31
0.0
 73
     1
 44
1.0
  0
POINT
  5
27CB
330
2798
100
AcDbEntity
  8
Defpoints
 62
     0
100
AcDbPoint
 10
1581.382341692878
 20
475.2621219585377
 30
0.0
  0
POINT
  5
27CC
330
2798
100
AcDbEntity
  8
Defpoints
 62
     0
100
AcDbPoint
 10
1581.382341692878
 20
75.26212195853783
 30
0.0
  0
POINT
  5
27CD
330
2798
100
AcDbEntity
  8
Defpoints
 62
     0
100
AcDbPoint
 10
1630.212231345225
 20
75.26212195853783
 30
0.0
  0
ENDBLK
  5
279A
330
2798
100
AcDbEntity
  8
0
100
AcDbBlockEnd
  0
BLOCK
  5
27A5
330
27A4
100
AcDbEntity
  8
0
100
AcDbBlockBegin
  2
*D35
 70
     1
 10
0.0
 20
0.0
 30
0.0
  3
*D35
  1

  0
LINE
  5
27CE
330
27A4
100
AcDbEntity
  8
Kóta (ISO)
100
AcDbLine
 10
1183.382341692877
 20
473.2621219585379
 30
0.0
 11
1183.382341692877
 21
499.9287886252044
 31
0.0
  0
LINE
  5
27CF
330
27A4
100
AcDbEntity
  8
Kóta (ISO)
100
AcDbLine
 10
1583.382341692878
 20
473.2621219585378
 30
0.0
 11
1583.382341692878
 21
499.9287886252044
 31
0.0
  0
LINE
  5
27D0
330
27A4
100
AcDbEntity
  8
Kóta (ISO)
100
AcDbLine
 10
1187.549008359544
 20
498.2621219585378
 30
0.0
 11
1579.215675026211
 21
498.2621219585378
 31
0.0
  0
SOLID
  5
27D1
330
27A4
100
AcDbEntity
  8
Kóta (ISO)
100
AcDbTrace
 10
1187.549008359544
 20
498.9565664029822
 30
0.0
 11
1187.549008359544
 21
497.5676775140933
 31
0.0
 12
1183.382341692877
 22
498.2621219585378
 32
0.0
 13
1183.382341692877
 23
498.2621219585378
 33
0.0
  0
SOLID
  5
27D2
330
27A4
100
AcDbEntity
  8
Kóta (ISO)
100
AcDbTrace
 10
1579.215675026211
 20
498.9565664029822
 30
0.0
 11
1579.215675026211
 21
497.5676775140933
 31
0.0
 12
1583.382341692878
 22
498.2621219585378
 32
0.0
 13
1583.382341692878
 23
498.2621219585378
 33
0.0
  0
MTEXT
  5
27D3
330
27A4
100
AcDbEntity
  8
Kóta (ISO)
100
AcDbMText
 10
1377.053429671386
 20
505.6044299952515
 30
0.0
 40
5.833333333333333
 41
0.0
 71
     1
 72
     1
  1
\A1;400
  7
Text poznámky (ISO)
 73
     1
 44
1.0
  0
POINT
  5
27D4
330
27A4
100
AcDbEntity
  8
Defpoints
 62
     0
100
AcDbPoint
 10
1183.382341692877
 20
473.2621219585379
 30
0.0
  0
POINT
  5
27D5
330
27A4
100
AcDbEntity
  8
Defpoints
 62
     0
100
AcDbPoint
 10
1583.382341692878
 20
473.2621219585378
 30
0.0
  0
POINT
  5
27D6
330
27A4
100
AcDbEntity
  8
Defpoints
 62
     0
100
AcDbPoint
 10
1583.382341692878
 20
498.2621219585378
 30
0.0
  0
ENDBLK
  5
27A6
330
27A4
100
AcDbEntity
  8
0
100
AcDbBlockEnd
  0
BLOCK
  5
27B1
330
27B0
100
AcDbEntity
  8
0
100
AcDbBlockBegin
  2
*D36
 70
     1
 10
0.0
 20
0.0
 30
0.0
  3
*D36
  1

  0
LINE
  5
27D7
330
27B0
100
AcDbEntity
  8
Kóta (ISO)
100
AcDbLine
 10
1283.382341693129
 20
584.212096241444
 30
0.0
 11
1283.382341693129
 21
548.4240986554352
 31
0.0
  0
LINE
  5
27D8
330
27B0
100
AcDbEntity
  8
Kóta (ISO)
100
AcDbLine
 10
1483.382341693129
 20
584.212096241444
 30
0.0
 11
1483.382341693129
 21
548.4240986554352
 31
0.0
  0
LINE
  5
27D9
330
27B0
100
AcDbEntity
  8
Kóta (ISO)
100
AcDbLine
 10
1287.549008359796
 20
550.0907653221019
 30
0.0
 11
1479.215675026462
 21
550.0907653221019
 31
0.0
  0
SOLID
  5
27DA
330
27B0
100
AcDbEntity
  8
Kóta (ISO)
100
AcDbTrace
 10
1287.549008359796
 20
550.7852097665463
 30
0.0
 11
1287.549008359796
 21
549.3963208776574
 31
0.0
 12
1283.382341693129
 22
550.0907653221019
 32
0.0
 13
1283.382341693129
 23
550.0907653221019
 33
0.0
  0
SOLID
  5
27DB
330
27B0
100
AcDbEntity
  8
Kóta (ISO)
100
AcDbTrace
 10
1479.215675026462
 20
550.7852097665463
 30
0.0
 11
1479.215675026462
 21
549.3963208776574
 31
0.0
 12
1483.382341693129
 22
550.0907653221019
 32
0.0
 13
1483.382341693129
 23
550.0907653221019
 33
0.0
  0
MTEXT
  5
27DC
330
27B0
100
AcDbEntity
  8
Kóta (ISO)
100
AcDbMText
 10
1371.962142401767
 20
564.5260084232845
 30
0.0
 40
5.833333333333333
 41
0.0
 71
     1
 72
     1
  1
\A1;{\fAIGDT|b0|i0;\H8.7500;\ln\fTahoma|b0|i0;\H8.7500;}200
  7
Text poznámky (ISO)
 73
     1
 44
1.0
  0
POINT
  5
27DD
330
27B0
100
AcDbEntity
  8
Defpoints
 62
     0
100
AcDbPoint
 10
1283.382341693129
 20
584.212096241444
 30
0.0
  0
POINT
  5
27DE
330
27B0
100
AcDbEntity
  8
Defpoints
 62
     0
100
AcDbPoint
 10
1483.382341693129
 20
584.212096241444
 30
0.0
  0
POINT
  5
27DF
330
27B0
100
AcDbEntity
  8
Defpoints
 62
     0
100
AcDbPoint
 10
1483.382341693129
 20
550.0907653221019
 30
0.0
  0
ENDBLK
  5
27B2
330
27B0
100
AcDbEntity
  8
0
100
AcDbBlockEnd
  0
ENDSEC
  0
SECTION
  2
ENTITIES
  0
LINE
  5
200
330
6C
100
AcDbEntity
  8
Viditelná (ISO)
100
AcDbLine
 10
383.8062552569467
 20
498.3714139280025
 30
0.0
 11
411.4283888851661
 21
498.3714139280025
 31
0.0
  0
LINE
  5
201
330
6C
100
AcDbEntity
  8
Viditelná (ISO)
100
AcDbLine
 10
211.4283888851661
 20
498.3714139280025
 30
0.0
 11
361.6516062869991
 21
498.3714139280025
 31
0.0
  0
LINE
  5
202
330
6C
100
AcDbEntity
  8
Viditelná (ISO)
100
AcDbLine
 10
411.4283888851661
 20
562.3714139280025
 30
0.0
 11
411.4283888851661
 21
498.3714139280025
 31
0.0
  0
LINE
  5
203
330
6C
100
AcDbEntity
  8
Viditelná (ISO)
100
AcDbLine
 10
211.4283888851662
 20
562.3714139280025
 30
0.0
 11
211.4283888851662
 21
498.3714139280025
 31
0.0
  0
LINE
  5
211
330
6C
100
AcDbEntity
  8
Viditelná (ISO)
100
AcDbLine
 10
165.4283888851665
 20
593.4714139280025
 30
0.0
 11
175.4283888851665
 21
593.4714139280025
 31
0.0
  0
ARC
  5
212
330
6C
100
AcDbEntity
  8
Viditelná (ISO)
100
AcDbCircle
 10
165.4283888851665
 20
595.0714139280026
 30
0.0
 40
1.6
100
AcDbArc
 50
90.0
 51
270.0
  0
ARC
  5
213
330
6C
100
AcDbEntity
  8
Viditelná (ISO)
100
AcDbCircle
 10
175.4283888851665
 20
595.0714139280026
 30
0.0
 40
1.6
100
AcDbArc
 50
270.0
 51
90.0
  0
LINE
  5
220
330
6C
100
AcDbEntity
  8
Viditelná (ISO)
100
AcDbLine
 10
206.7263327378631
 20
593.4714139280025
 30
0.0
 11
216.7263327378631
 21
593.4714139280025
 31
0.0
  0
ARC
  5
221
330
6C
100
AcDbEntity
  8
Viditelná (ISO)
100
AcDbCircle
 10
206.7263327378631
 20
595.0714139280026
 30
0.0
 40
1.6
100
AcDbArc
 50
90.0
 51
270.0
  0
ARC
  5
222
330
6C
100
AcDbEntity
  8
Viditelná (ISO)
100
AcDbCircle
 10
216.7263327378631
 20
595.0714139280026
 30
0.0
 40
1.6
100
AcDbArc
 50
270.0
 51
90.0
  0
LINE
  5
22F
330
6C
100
AcDbEntity
  8
Viditelná (ISO)
100
AcDbLine
 10
306.4283888851661
 20
593.4714139280025
 30
0.0
 11
316.428388885166
 21
593.4714139280025
 31
0.0
  0
ARC
  5
230
330
6C
100
AcDbEntity
  8
Viditelná (ISO)
100
AcDbCircle
 10
306.428388885166
 20
595.0714139280026
 30
0.0
 40
1.6
100
AcDbArc
 50
90.0
 51
270.0
  0
ARC
  5
231
330
6C
100
AcDbEntity
  8
Viditelná (ISO)
100
AcDbCircle
 10
316.428388885166
 20
595.0714139280026
 30
0.0
 40
1.6
100
AcDbArc
 50
270.0
 51
90.0
  0
LINE
  5
23E
330
6C
100
AcDbEntity
  8
Viditelná (ISO)
100
AcDbLine
 10
406.1304450324691
 20
593.4714139280024
 30
0.0
 11
416.1304450324689
 21
593.4714139280024
 31
0.0
  0
ARC
  5
23F
330
6C
100
AcDbEntity
  8
Viditelná (ISO)
100
AcDbCircle
 10
406.1304450324691
 20
595.0714139280024
 30
0.0
 40
1.6
100
AcDbArc
 50
90.0
 51
270.0
  0
ARC
  5
240
330
6C
100
AcDbEntity
  8
Viditelná (ISO)
100
AcDbCircle
 10
416.130445032469
 20
595.0714139280024
 30
0.0
 40
1.6
100
AcDbArc
 50
270.0
 51
90.0
  0
LINE
  5
24D
330
6C
100
AcDbEntity
  8
Viditelná (ISO)
100
AcDbLine
 10
447.4283888851659
 20
593.4714139280024
 30
0.0
 11
457.4283888851659
 21
593.4714139280024
 31
0.0
  0
ARC
  5
24E
330
6C
100
AcDbEntity
  8
Viditelná (ISO)
100
AcDbCircle
 10
447.4283888851659
 20
595.0714139280024
 30
0.0
 40
1.6
100
AcDbArc
 50
90.0
 51
270.0
  0
ARC
  5
24F
330
6C
100
AcDbEntity
  8
Viditelná (ISO)
100
AcDbCircle
 10
457.4283888851659
 20
595.0714139280024
 30
0.0
 40
1.6
100
AcDbArc
 50
270.0
 51
90.0
  0
LINE
  5
252
330
6C
100
AcDbEntity
  8
Viditelná (ISO)
100
AcDbLine
 10
175.9283888851665
 20
576.4714139280025
 30
0.0
 11
164.9283888851665
 21
576.4714139280025
 31
0.0
  0
LINE
  5
253
330
6C
100
AcDbEntity
  8
Viditelná (ISO)
100
AcDbLine
 10
175.9283888851665
 20
577.4714139280026
 30
0.0
 11
164.9283888851665
 21
577.4714139280026
 31
0.0
  0
LINE
  5
254
330
6C
100
AcDbEntity
  8
Viditelná (ISO)
100
AcDbLine
 10
164.9283888851665
 20
576.4714139280025
 30
0.0
 11
164.9283888851665
 21
577.4714139280026
 31
0.0
  0
LINE
  5
255
330
6C
100
AcDbEntity
  8
Viditelná (ISO)
100
AcDbLine
 10
175.9283888851665
 20
576.4714139280025
 30
0.0
 11
175.9283888851665
 21
577.4714139280026
 31
0.0
  0
LINE
  5
256
330
6C
100
AcDbEntity
  8
Viditelná (ISO)
100
AcDbLine
 10
165.9283888851665
 20
577.4714139280026
 30
0.0
 11
165.9283888851665
 21
593.4714139280025
 31
0.0
  0
LINE
  5
257
330
6C
100
AcDbEntity
  8
Viditelná (ISO)
100
AcDbLine
 10
174.9283888851665
 20
577.4714139280026
 30
0.0
 11
174.9283888851665
 21
593.4714139280025
 31
0.0
  0
LINE
  5
25A
330
6C
100
AcDbEntity
  8
Viditelná (ISO)
100
AcDbLine
 10
217.226332737863
 20
576.4714139280025
 30
0.0
 11
206.2263327378631
 21
576.4714139280025
 31
0.0
  0
LINE
  5
25B
330
6C
100
AcDbEntity
  8
Viditelná (ISO)
100
AcDbLine
 10
217.226332737863
 20
577.4714139280026
 30
0.0
 11
206.2263327378631
 21
577.4714139280026
 31
0.0
  0
LINE
  5
25C
330
6C
100
AcDbEntity
  8
Viditelná (ISO)
100
AcDbLine
 10
206.2263327378631
 20
576.4714139280025
 30
0.0
 11
206.2263327378631
 21
577.4714139280026
 31
0.0
  0
LINE
  5
25D
330
6C
100
AcDbEntity
  8
Viditelná (ISO)
100
AcDbLine
 10
217.2263327378631
 20
576.4714139280025
 30
0.0
 11
217.2263327378631
 21
577.4714139280026
 31
0.0
  0
LINE
  5
25E
330
6C
100
AcDbEntity
  8
Viditelná (ISO)
100
AcDbLine
 10
207.2263327378631
 20
577.4714139280026
 30
0.0
 11
207.2263327378631
 21
593.4714139280025
 31
0.0
  0
LINE
  5
25F
330
6C
100
AcDbEntity
  8
Viditelná (ISO)
100
AcDbLine
 10
216.2263327378631
 20
577.4714139280026
 30
0.0
 11
216.226332737863
 21
593.4714139280025
 31
0.0
  0
LINE
  5
262
330
6C
100
AcDbEntity
  8
Viditelná (ISO)
100
AcDbLine
 10
316.928388885166
 20
576.4714139280025
 30
0.0
 11
305.9283888851661
 21
576.4714139280025
 31
0.0
  0
LINE
  5
263
330
6C
100
AcDbEntity
  8
Viditelná (ISO)
100
AcDbLine
 10
316.928388885166
 20
577.4714139280026
 30
0.0
 11
305.9283888851661
 21
577.4714139280026
 31
0.0
  0
LINE
  5
264
330
6C
100
AcDbEntity
  8
Viditelná (ISO)
100
AcDbLine
 10
305.9283888851661
 20
576.4714139280025
 30
0.0
 11
305.9283888851661
 21
577.4714139280026
 31
0.0
  0
LINE
  5
265
330
6C
100
AcDbEntity
  8
Viditelná (ISO)
100
AcDbLine
 10
316.928388885166
 20
576.4714139280025
 30
0.0
 11
316.928388885166
 21
577.4714139280026
 31
0.0
  0
LINE
  5
266
330
6C
100
AcDbEntity
  8
Viditelná (ISO)
100
AcDbLine
 10
306.9283888851661
 20
577.4714139280026
 30
0.0
 11
306.9283888851661
 21
593.4714139280025
 31
0.0
  0
LINE
  5
267
330
6C
100
AcDbEntity
  8
Viditelná (ISO)
100
AcDbLine
 10
315.9283888851661
 20
577.4714139280026
 30
0.0
 11
315.9283888851661
 21
593.4714139280025
 31
0.0
  0
LINE
  5
26A
330
6C
100
AcDbEntity
  8
Viditelná (ISO)
100
AcDbLine
 10
416.630445032469
 20
576.4714139280025
 30
0.0
 11
405.6304450324691
 21
576.4714139280025
 31
0.0
  0
LINE
  5
26B
330
6C
100
AcDbEntity
  8
Viditelná (ISO)
100
AcDbLine
 10
416.630445032469
 20
577.4714139280026
 30
0.0
 11
405.6304450324691
 21
577.4714139280026
 31
0.0
  0
LINE
  5
26C
330
6C
100
AcDbEntity
  8
Viditelná (ISO)
100
AcDbLine
 10
405.6304450324691
 20
576.4714139280025
 30
0.0
 11
405.6304450324691
 21
577.4714139280026
 31
0.0
  0
LINE
  5
26D
330
6C
100
AcDbEntity
  8
Viditelná (ISO)
100
AcDbLine
 10
416.630445032469
 20
576.4714139280025
 30
0.0
 11
416.630445032469
 21
577.4714139280026
 31
0.0
  0
LINE
  5
26E
330
6C
100
AcDbEntity
  8
Viditelná (ISO)
100
AcDbLine
 10
406.6304450324691
 20
577.4714139280026
 30
0.0
 11
406.6304450324691
 21
593.4714139280025
 31
0.0
  0
LINE
  5
26F
330
6C
100
AcDbEntity
  8
Viditelná (ISO)
100
AcDbLine
 10
415.630445032469
 20
577.4714139280026
 30
0.0
 11
415.630445032469
 21
593.4714139280025
 31
0.0
  0
LINE
  5
272
330
6C
100
AcDbEntity
  8
Viditelná (ISO)
100
AcDbLine
 10
457.9283888851659
 20
576.4714139280025
 30
0.0
 11
446.9283888851659
 21
576.4714139280025
 31
0.0
  0
LINE
  5
273
330
6C
100
AcDbEntity
  8
Viditelná (ISO)
100
AcDbLine
 10
457.9283888851659
 20
577.4714139280026
 30
0.0
 11
446.9283888851659
 21
577.4714139280026
 31
0.0
  0
LINE
  5
274
330
6C
100
AcDbEntity
  8
Viditelná (ISO)
100
AcDbLine
 10
446.9283888851659
 20
576.4714139280025
 30
0.0
 11
446.9283888851659
 21
577.4714139280026
 31
0.0
  0
LINE
  5
275
330
6C
100
AcDbEntity
  8
Viditelná (ISO)
100
AcDbLine
 10
457.9283888851659
 20
576.4714139280025
 30
0.0
 11
457.9283888851659
 21
577.4714139280026
 31
0.0
  0
LINE
  5
276
330
6C
100
AcDbEntity
  8
Viditelná (ISO)
100
AcDbLine
 10
447.9283888851659
 20
577.4714139280026
 30
0.0
 11
447.9283888851659
 21
593.4714139280025
 31
0.0
  0
LINE
  5
277
330
6C
100
AcDbEntity
  8
Viditelná (ISO)
100
AcDbLine
 10
456.9283888851659
 20
577.4714139280026
 30
0.0
 11
456.9283888851659
 21
593.4714139280025
 31
0.0
  0
LINE
  5
316
330
6C
100
AcDbEntity
  8
Viditelná (ISO)
100
AcDbLine
 10
182.6783888851661
 20
582.3714139280026
 30
0.0
 11
183.6783888851661
 21
582.3714139280026
 31
0.0
  0
LINE
  5
317
330
6C
100
AcDbEntity
  8
Viditelná (ISO)
100
AcDbLine
 10
182.6783888851661
 20
570.3714139280026
 30
0.0
 11
182.6783888851661
 21
582.3714139280026
 31
0.0
  0
LINE
  5
318
330
6C
100
AcDbEntity
  8
Viditelná (ISO)
100
AcDbLine
 10
183.6783888851661
 20
570.3714139280026
 30
0.0
 11
182.6783888851661
 21
570.3714139280026
 31
0.0
  0
LINE
  5
319
330
6C
100
AcDbEntity
  8
Viditelná (ISO)
100
AcDbLine
 10
183.6783888851661
 20
582.3714139280026
 30
0.0
 11
183.6783888851661
 21
570.3714139280026
 31
0.0
  0
LINE
  5
31A
330
6C
100
AcDbEntity
  8
Viditelná (ISO)
100
AcDbLine
 10
182.6783888851661
 20
570.3714139280026
 30
0.0
 11
182.6783888851661
 21
550.3897038912322
 31
0.0
  0
ARC
  5
31B
330
6C
100
AcDbEntity
  8
Viditelná (ISO)
100
AcDbCircle
 10
188.1783888851661
 20
550.3897038912322
 30
0.0
 40
5.5
100
AcDbArc
 50
180.0
 51
225.0
  0
LINE
  5
31C
330
6C
100
AcDbEntity
  8
Viditelná (ISO)
100
AcDbLine
 10
184.2893015886401
 20
546.5006165947062
 30
0.0
 11
186.764175322793
 21
544.0257428605533
 31
0.0
  0
ARC
  5
31D
330
6C
100
AcDbEntity
  8
Viditelná (ISO)
100
AcDbCircle
 10
182.875088026267
 20
540.1366555640273
 30
0.0
 40
5.500000000000012
100
AcDbArc
 50
315.0
 51
45.0
  0
LINE
  5
31E
330
6C
100
AcDbEntity
  8
Viditelná (ISO)
100
AcDbLine
 10
186.764175322793
 20
536.2475682675012
 30
0.0
 11
184.2893015886401
 21
533.7726945333484
 31
0.0
  0
ARC
  5
31F
330
6C
100
AcDbEntity
  8
Viditelná (ISO)
100
AcDbCircle
 10
188.1783888851661
 20
529.8836072368223
 30
0.0
 40
5.499999999999993
100
AcDbArc
 50
135.0
 51
225.0000000000002
  0
LINE
  5
320
330
6C
100
AcDbEntity
  8
Viditelná (ISO)
100
AcDbLine
 10
184.2893015886401
 20
525.9945199402962
 30
0.0
 11
186.764175322793
 21
523.5196462061434
 31
0.0
  0
ARC
  5
321
330
6C
100
AcDbEntity
  8
Viditelná (ISO)
100
AcDbCircle
 10
182.875088026267
 20
519.6305589096174
 30
0.0
 40
5.50000000000001
100
AcDbArc
 50
315.0
 51
44.99999999999976
  0
LINE
  5
322
330
6C
100
AcDbEntity
  8
Viditelná (ISO)
100
AcDbLine
 10
186.764175322793
 20
515.7414716130914
 30
0.0
 11
184.2893015886401
 21
513.2665978789384
 31
0.0
  0
ARC
  5
323
330
6C
100
AcDbEntity
  8
Viditelná (ISO)
100
AcDbCircle
 10
188.1783888851661
 20
509.3775105824124
 30
0.0
 40
5.500000000000011
100
AcDbArc
 50
135.0000000000002
 51
225.0
  0
LINE
  5
324
330
6C
100
AcDbEntity
  8
Viditelná (ISO)
100
AcDbLine
 10
184.2893015886401
 20
505.4884232858865
 30
0.0
 11
186.764175322793
 21
503.0135495517335
 31
0.0
  0
ARC
  5
325
330
6C
100
AcDbEntity
  8
Viditelná (ISO)
100
AcDbCircle
 10
182.875088026267
 20
499.1244622552075
 30
0.0
 40
5.500000000000041
100
AcDbArc
 50
314.9999999999998
 51
44.99999999999952
  0
LINE
  5
326
330
6C
100
AcDbEntity
  8
Viditelná (ISO)
100
AcDbLine
 10
186.764175322793
 20
495.2353749586815
 30
0.0
 11
184.2893015886401
 21
492.7605012245286
 31
0.0
  0
ARC
  5
327
330
6C
100
AcDbEntity
  8
Viditelná (ISO)
100
AcDbCircle
 10
188.1783888851661
 20
488.8714139280026
 30
0.0
 40
5.499999999999984
100
AcDbArc
 50
135.0
 51
180.0
  0
LINE
  5
328
330
6C
100
AcDbEntity
  8
Viditelná (ISO)
100
AcDbLine
 10
182.6783888851661
 20
488.8714139280026
 30
0.0
 11
182.6783888851661
 21
472.3839217502835
 31
0.0
  0
LINE
  5
329
330
6C
100
AcDbEntity
  8
Viditelná (ISO)
100
AcDbLine
 10
183.6783888851661
 20
472.3839217502835
 30
0.0
 11
183.6783888851661
 21
488.8714139280026
 31
0.0
  0
ARC
  5
32A
330
6C
100
AcDbEntity
  8
Viditelná (ISO)
100
AcDbCircle
 10
188.1783888851661
 20
488.8714139280026
 30
0.0
 40
4.499999999999975
100
AcDbArc
 50
134.9999999999997
 51
180.0
  0
LINE
  5
32B
330
6C
100
AcDbEntity
  8
Viditelná (ISO)
100
AcDbLine
 10
184.9964083698266
 20
492.0533944433421
 30
0.0
 11
187.4712821039796
 21
494.528268177495
 31
0.0
  0
ARC
  5
32C
330
6C
100
AcDbEntity
  8
Viditelná (ISO)
100
AcDbCircle
 10
182.875088026267
 20
499.1244622552075
 30
0.0
 40
6.500000000000036
100
AcDbArc
 50
315.0000000000002
 51
44.99999999999976
  0
LINE
  5
32D
330
6C
100
AcDbEntity
  8
Viditelná (ISO)
100
AcDbLine
 10
187.4712821039796
 20
503.7206563329201
 30
0.0
 11
184.9964083698266
 21
506.195530067073
 31
0.0
  0
ARC
  5
32E
330
6C
100
AcDbEntity
  8
Viditelná (ISO)
100
AcDbCircle
 10
188.1783888851661
 20
509.3775105824124
 30
0.0
 40
4.499999999999994
100
AcDbArc
 50
135.0
 51
225.0
  0
LINE
  5
32F
330
6C
100
AcDbEntity
  8
Viditelná (ISO)
100
AcDbLine
 10
184.9964083698266
 20
512.559491097752
 30
0.0
 11
187.4712821039796
 21
515.0343648319049
 31
0.0
  0
ARC
  5
330
330
6C
100
AcDbEntity
  8
Viditelná (ISO)
100
AcDbCircle
 10
182.875088026267
 20
519.6305589096174
 30
0.0
 40
6.500000000000007
100
AcDbArc
 50
315.0
 51
45.0
  0
LINE
  5
331
330
6C
100
AcDbEntity
  8
Viditelná (ISO)
100
AcDbLine
 10
187.4712821039796
 20
524.2267529873299
 30
0.0
 11
184.9964083698266
 21
526.7016267214828
 31
0.0
  0
ARC
  5
332
330
6C
100
AcDbEntity
  8
Viditelná (ISO)
100
AcDbCircle
 10
188.1783888851661
 20
529.8836072368223
 30
0.0
 40
4.5
100
AcDbArc
 50
135.0
 51
225.0
  0
LINE
  5
333
330
6C
100
AcDbEntity
  8
Viditelná (ISO)
100
AcDbLine
 10
184.9964083698266
 20
533.0655877521618
 30
0.0
 11
187.4712821039796
 21
535.5404614863147
 31
0.0
  0
ARC
  5
334
330
6C
100
AcDbEntity
  8
Viditelná (ISO)
100
AcDbCircle
 10
182.875088026267
 20
540.1366555640273
 30
0.0
 40
6.500000000000011
100
AcDbArc
 50
315.0
 51
45.0
  0
LINE
  5
335
330
6C
100
AcDbEntity
  8
Viditelná (ISO)
100
AcDbLine
 10
187.4712821039796
 20
544.7328496417399
 30
0.0
 11
184.9964083698266
 21
547.2077233758928
 31
0.0
  0
ARC
  5
336
330
6C
100
AcDbEntity
  8
Viditelná (ISO)
100
AcDbCircle
 10
188.1783888851662
 20
550.3897038912322
 30
0.0
 40
4.500000000000017
100
AcDbArc
 50
180.0
 51
224.9999999999997
  0
LINE
  5
337
330
6C
100
AcDbEntity
  8
Viditelná (ISO)
100
AcDbLine
 10
183.6783888851661
 20
550.3897038912322
 30
0.0
 11
183.6783888851661
 21
570.3714139280026
 31
0.0
  0
LINE
  5
338
330
6C
100
AcDbEntity
  8
Viditelná (ISO)
100
AcDbLine
 10
183.6783888851661
 20
582.3714139280026
 30
0.0
 11
183.6783888851661
 21
588.4414773532904
 31
0.0
  0
LINE
  5
339
330
6C
100
AcDbEntity
  8
Viditelná (ISO)
100
AcDbLine
 10
183.2866216896104
 20
592.3714139280026
 30
0.0
 11
182.6783888851661
 21
592.3714139280026
 31
0.0
  0
LINE
  5
33A
330
6C
100
AcDbEntity
  8
Viditelná (ISO)
100
AcDbLine
 10
182.6783888851661
 20
592.3714139280026
 30
0.0
 11
182.6783888851661
 21
582.3714139280026
 31
0.0
  0
LINE
  5
33C
330
6C
100
AcDbEntity
  8
Viditelná (ISO)
100
AcDbLine
 10
182.6783888851661
 20
472.3839217502835
 30
0.0
 11
183.6783888851661
 21
472.3839217502835
 31
0.0
  0
LINE
  5
33D
330
6C
100
AcDbEntity
  8
Viditelná (ISO)
100
AcDbLine
 10
182.6783888851661
 20
472.3839217502835
 30
0.0
 11
182.6783888851661
 21
466.3714139280026
 31
0.0
  0
LINE
  5
33E
330
6C
100
AcDbEntity
  8
Viditelná (ISO)
100
AcDbLine
 10
183.6783888851661
 20
466.3714139280026
 30
0.0
 11
183.6783888851661
 21
472.3839217502835
 31
0.0
  0
LINE
  5
33F
330
6C
100
AcDbEntity
  8
Viditelná (ISO)
100
AcDbLine
 10
182.6783888851661
 20
466.3714139280026
 30
0.0
 11
183.6783888851661
 21
466.3714139280026
 31
0.0
  0
ELLIPSE
  5
345
330
6C
100
AcDbEntity
  8
Viditelná (ISO)
100
AcDbEllipse
 10
386.6287064324715
 20
576.3714139280025
 30
0.0
 11
-0.0000000000000014
 21
-6.0
 31
0.0
210
0.0
220
0.0
230
1.0
 40
0.8660254037844394
 41
3.141592653589793
 42
6.283185307179586
  0
LINE
  5
346
330
6C
100
AcDbEntity
  8
Viditelná (ISO)
100
AcDbLine
 10
364.9780713378606
 20
570.3714139280025
 30
0.0
 11
364.4780713378605
 21
570.3714139280025
 31
0.0
  0
ELLIPSE
  5
347
330
6C
100
AcDbEntity
  8
Viditelná (ISO)
100
AcDbEllipse
 10
364.9780713378606
 20
576.3714139280025
 30
0.0
 11
0.0000000000000014
 21
6.0
 31
0.0
210
0.0
220
0.0
230
1.0
 40
0.8660254037844394
 41
3.141592653589793
 42
6.283185307179586
  0
LINE
  5
348
330
6C
100
AcDbEntity
  8
Viditelná (ISO)
100
AcDbLine
 10
364.4780713378605
 20
582.3714139280025
 30
0.0
 11
364.9780713378606
 21
582.3714139280025
 31
0.0
  0
ELLIPSE
  5
349
330
6C
100
AcDbEntity
  8
Viditelná (ISO)
100
AcDbEllipse
 10
364.4780713378605
 20
576.3714139280025
 30
0.0
 11
-0.0000000000000033
 21
-6.0
 31
0.0
210
0.0
220
0.0
230
1.0
 40
0.8660254037844394
 41
0.0000000000000009
 42
3.141592653589793
  0
LINE
  5
34A
330
6C
100
AcDbEntity
  8
Viditelná (ISO)
100
AcDbLine
 10
386.6287064324715
 20
570.3714139280025
 30
0.0
 11
386.6287064324715
 21
550.389703891232
 31
0.0
  0
ELLIPSE
  5
34B
330
6C
100
AcDbEntity
  8
Viditelná (ISO)
100
AcDbEllipse
 10
383.8787064324715
 20
550.389703891232
 30
0.0
 11
-0.0000000000000013
 21
-5.5
 31
0.0
210
0.0
220
0.0
230
1.0
 40
0.4999999999999986
 41
0.7853981633974501
 42
1.570796326794896
  0
LINE
  5
34C
330
6C
100
AcDbEntity
  8
Viditelná (ISO)
100
AcDbLine
 10
385.8232500807345
 20
546.5006165947061
 30
0.0
 11
384.585813213658
 21
544.0257428605532
 31
0.0
  0
ELLIPSE
  5
34D
330
6C
100
AcDbEntity
  8
Viditelná (ISO)
100
AcDbEllipse
 10
386.530356861921
 20
540.1366555640272
 30
0.0
 11
0.0000000000002831
 21
-5.500000000000012
 31
0.0
210
0.0
220
0.0
230
1.0
 40
0.4999999999999988
 41
3.926990816986901
 42
5.497787143781795
  0
LINE
  5
34E
330
6C
100
AcDbEntity
  8
Viditelná (ISO)
100
AcDbLine
 10
384.585813213658
 20
536.2475682675011
 30
0.0
 11
385.8232500807345
 21
533.7726945333482
 31
0.0
  0
ELLIPSE
  5
34F
330
6C
100
AcDbEntity
  8
Viditelná (ISO)
100
AcDbEllipse
 10
383.8787064324715
 20
529.8836072368223
 30
0.0
 11
-0.0000000000002852
 21
-5.499999999999993
 31
0.0
210
0.0
220
0.0
230
1.0
 40
0.4999999999999988
 41
0.7853981633977832
 42
2.356194490192685
  0
LINE
  5
350
330
6C
100
AcDbEntity
  8
Viditelná (ISO)
100
AcDbLine
 10
385.8232500807345
 20
525.9945199402962
 30
0.0
 11
384.585813213658
 21
523.5196462061432
 31
0.0
  0
ELLIPSE
  5
351
330
6C
100
AcDbEntity
  8
Viditelná (ISO)
100
AcDbEllipse
 10
386.530356861921
 20
519.6305589096173
 30
0.0
 11
0.0000000000002831
 21
-5.50000000000001
 31
0.0
210
0.0
220
0.0
230
1.0
 40
0.4999999999999988
 41
3.926990816986901
 42
5.497787143781803
  0
LINE
  5
352
330
6C
100
AcDbEntity
  8
Viditelná (ISO)
100
AcDbLine
 10
384.585813213658
 20
515.7414716130913
 30
0.0
 11
385.8232500807345
 21
513.2665978789383
 31
0.0
  0
ELLIPSE
  5
353
330
6C
100
AcDbEntity
  8
Viditelná (ISO)
100
AcDbEllipse
 10
383.8787064324715
 20
509.3775105824123
 30
0.0
 11
-0.0000000000002857
 21
-5.50000000000001
 31
0.0
210
0.0
220
0.0
230
1.0
 40
0.4999999999999988
 41
0.785398163397792
 42
2.356194490192685
  0
LINE
  5
354
330
6C
100
AcDbEntity
  8
Viditelná (ISO)
100
AcDbLine
 10
385.8232500807345
 20
505.4884232858864
 30
0.0
 11
384.585813213658
 21
503.0135495517334
 31
0.0
  0
ELLIPSE
  5
355
330
6C
100
AcDbEntity
  8
Viditelná (ISO)
100
AcDbEllipse
 10
386.530356861921
 20
499.1244622552074
 30
0.0
 11
0.0000000000002829
 21
-5.500000000000039
 31
0.0
210
0.0
220
0.0
230
1.0
 40
0.4999999999999988
 41
3.926990816986901
 42
5.497787143781788
  0
LINE
  5
356
330
6C
100
AcDbEntity
  8
Viditelná (ISO)
100
AcDbLine
 10
384.585813213658
 20
495.2353749586814
 30
0.0
 11
385.8232500807345
 21
492.7605012245285
 31
0.0
  0
ELLIPSE
  5
357
330
6C
100
AcDbEntity
  8
Viditelná (ISO)
100
AcDbEllipse
 10
383.8787064324715
 20
488.8714139280025
 30
0.0
 11
-0.0000000000002852
 21
-5.499999999999984
 31
0.0
210
0.0
220
0.0
230
1.0
 40
0.4999999999999986
 41
1.570796326795029
 42
2.356194490192677
  0
LINE
  5
358
330
6C
100
AcDbEntity
  8
Viditelná (ISO)
100
AcDbLine
 10
386.6287064324715
 20
488.8714139280025
 30
0.0
 11
386.6287064324715
 21
472.3839217502834
 31
0.0
  0
LINE
  5
359
330
6C
100
AcDbEntity
  8
Viditelná (ISO)
100
AcDbLine
 10
364.4780713378605
 20
550.389703891232
 30
0.0
 11
364.4780713378605
 21
570.3714139280025
 31
0.0
  0
LINE
  5
35A
330
6C
100
AcDbEntity
  8
Viditelná (ISO)
100
AcDbLine
 10
364.4780713378605
 20
582.3714139280025
 30
0.0
 11
364.4780713378605
 21
585.8106447151658
 31
0.0
  0
LINE
  5
35B
330
6C
100
AcDbEntity
  8
Viditelná (ISO)
100
AcDbLine
 10
364.9780713378606
 20
585.3279811008993
 30
0.0
 11
364.9780713378606
 21
582.3714139280025
 31
0.0
  0
ELLIPSE
  5
35C
330
6C
100
AcDbEntity
  8
Viditelná (ISO)
100
AcDbEllipse
 10
362.2280713378605
 20
550.389703891232
 30
0.0
 11
-0.0000000000002308
 21
4.500000000000017
 31
0.0
210
0.0
220
0.0
230
1.0
 40
0.4999999999999988
 41
3.926990816986911
 42
4.712388980384558
  0
LINE
  5
35D
330
6C
100
AcDbEntity
  8
Viditelná (ISO)
100
AcDbLine
 10
362.5816247284538
 20
544.7328496417397
 30
0.0
 11
363.8190615955303
 21
547.2077233758926
 31
0.0
  0
ELLIPSE
  5
35E
330
6C
100
AcDbEntity
  8
Viditelná (ISO)
100
AcDbEllipse
 10
364.87972176731
 20
540.1366555640272
 30
0.0
 11
0.0000000000003388
 21
6.500000000000012
 31
0.0
210
0.0
220
0.0
230
1.0
 40
0.4999999999999986
 41
0.7853981633977867
 42
2.356194490192692
  0
LINE
  5
35F
330
6C
100
AcDbEntity
  8
Viditelná (ISO)
100
AcDbLine
 10
363.8190615955303
 20
533.0655877521617
 30
0.0
 11
362.5816247284538
 21
535.5404614863146
 31
0.0
  0
ELLIPSE
  5
360
330
6C
100
AcDbEntity
  8
Viditelná (ISO)
100
AcDbEllipse
 10
362.2280713378605
 20
529.8836072368223
 30
0.0
 11
-0.0000000000002313
 21
4.5
 31
0.0
210
0.0
220
0.0
230
1.0
 40
0.4999999999999985
 41
3.926990816986911
 42
5.497787143781814
  0
LINE
  5
361
330
6C
100
AcDbEntity
  8
Viditelná (ISO)
100
AcDbLine
 10
362.5816247284538
 20
524.2267529873299
 30
0.0
 11
363.8190615955303
 21
526.7016267214827
 31
0.0
  0
ELLIPSE
  5
362
330
6C
100
AcDbEntity
  8
Viditelná (ISO)
100
AcDbEllipse
 10
364.87972176731
 20
519.6305589096173
 30
0.0
 11
0.0000000000003377
 21
6.500000000000007
 31
0.0
210
0.0
220
0.0
230
1.0
 40
0.4999999999999986
 41
0.7853981633977787
 42
2.356194490192685
  0
LINE
  5
363
330
6C
100
AcDbEntity
  8
Viditelná (ISO)
100
AcDbLine
 10
363.8190615955303
 20
512.5594910977518
 30
0.0
 11
362.5816247284538
 21
515.0343648319047
 31
0.0
  0
ELLIPSE
  5
364
330
6C
100
AcDbEntity
  8
Viditelná (ISO)
100
AcDbEllipse
 10
362.2280713378605
 20
509.3775105824123
 30
0.0
 11
-0.0000000000002313
 21
4.499999999999994
 31
0.0
210
0.0
220
0.0
230
1.0
 40
0.4999999999999986
 41
3.926990816986911
 42
5.497787143781805
  0
LINE
  5
365
330
6C
100
AcDbEntity
  8
Viditelná (ISO)
100
AcDbLine
 10
362.5816247284538
 20
503.7206563329199
 30
0.0
 11
363.8190615955303
 21
506.1955300670728
 31
0.0
  0
ELLIPSE
  5
366
330
6C
100
AcDbEntity
  8
Viditelná (ISO)
100
AcDbEllipse
 10
364.87972176731
 20
499.1244622552074
 30
0.0
 11
0.0000000000003375
 21
6.500000000000036
 31
0.0
210
0.0
220
0.0
230
1.0
 40
0.4999999999999986
 41
0.785398163397792
 42
2.356194490192672
  0
LINE
  5
367
330
6C
100
AcDbEntity
  8
Viditelná (ISO)
100
AcDbLine
 10
363.8190615955303
 20
492.053394443342
 30
0.0
 11
362.5816247284538
 21
494.5282681774948
 31
0.0
  0
ELLIPSE
  5
368
330
6C
100
AcDbEntity
  8
Viditelná (ISO)
100
AcDbEllipse
 10
362.2280713378605
 20
488.8714139280025
 30
0.0
 11
0.0000000000000099
 21
4.499999999999975
 31
0.0
210
0.0
220
0.0
230
1.0
 40
0.4999999999999986
 41
4.71238898038469
 42
5.497787143782145
  0
LINE
  5
369
330
6C
100
AcDbEntity
  8
Viditelná (ISO)
100
AcDbLine
 10
364.4780713378605
 20
472.3839217502834
 30
0.0
 11
364.4780713378605
 21
488.8714139280025
 31
0.0
  0
LINE
  5
36A
330
6C
100
AcDbEntity
  8
Viditelná (ISO)
100
AcDbLine
 10
364.9780713378604
 20
488.8714139280025
 30
0.0
 11
364.9780713378604
 21
472.3839217502834
 31
0.0
  0
ELLIPSE
  5
36B
330
6C
100
AcDbEntity
  8
Viditelná (ISO)
100
AcDbEllipse
 10
362.2280713378605
 20
488.8714139280025
 30
0.0
 11
-0.0000000000002852
 21
-5.499999999999984
 31
0.0
210
0.0
220
0.0
230
1.0
 40
0.4999999999999986
 41
1.570796326795029
 42
2.356194490192677
  0
LINE
  5
36C
330
6C
100
AcDbEntity
  8
Viditelná (ISO)
100
AcDbLine
 10
362.9351781190471
 20
495.2353749586814
 30
0.0
 11
364.1726149861235
 21
492.7605012245285
 31
0.0
  0
ELLIPSE
  5
36D
330
6C
100
AcDbEntity
  8
Viditelná (ISO)
100
AcDbEllipse
 10
364.87972176731
 20
499.1244622552074
 30
0.0
 11
0.0000000000002829
 21
-5.500000000000039
 31
0.0
210
0.0
220
0.0
230
1.0
 40
0.4999999999999988
 41
3.926990816986901
 42
5.497787143781788
  0
LINE
  5
36E
330
6C
100
AcDbEntity
  8
Viditelná (ISO)
100
AcDbLine
 10
364.1726149861235
 20
505.4884232858864
 30
0.0
 11
362.9351781190471
 21
503.0135495517334
 31
0.0
  0
ELLIPSE
  5
36F
330
6C
100
AcDbEntity
  8
Viditelná (ISO)
100
AcDbEllipse
 10
362.2280713378605
 20
509.3775105824123
 30
0.0
 11
-0.0000000000002857
 21
-5.50000000000001
 31
0.0
210
0.0
220
0.0
230
1.0
 40
0.4999999999999988
 41
0.785398163397792
 42
2.356194490192685
  0
LINE
  5
370
330
6C
100
AcDbEntity
  8
Viditelná (ISO)
100
AcDbLine
 10
362.9351781190471
 20
515.7414716130913
 30
0.0
 11
364.1726149861235
 21
513.2665978789383
 31
0.0
  0
ELLIPSE
  5
371
330
6C
100
AcDbEntity
  8
Viditelná (ISO)
100
AcDbEllipse
 10
364.87972176731
 20
519.6305589096173
 30
0.0
 11
0.0000000000002831
 21
-5.50000000000001
 31
0.0
210
0.0
220
0.0
230
1.0
 40
0.4999999999999988
 41
3.926990816986901
 42
5.497787143781803
  0
LINE
  5
372
330
6C
100
AcDbEntity
  8
Viditelná (ISO)
100
AcDbLine
 10
364.1726149861235
 20
525.9945199402962
 30
0.0
 11
362.9351781190471
 21
523.5196462061432
 31
0.0
  0
ELLIPSE
  5
373
330
6C
100
AcDbEntity
  8
Viditelná (ISO)
100
AcDbEllipse
 10
362.2280713378605
 20
529.8836072368223
 30
0.0
 11
-0.0000000000002852
 21
-5.499999999999993
 31
0.0
210
0.0
220
0.0
230
1.0
 40
0.4999999999999988
 41
0.7853981633977832
 42
2.356194490192685
  0
LINE
  5
374
330
6C
100
AcDbEntity
  8
Viditelná (ISO)
100
AcDbLine
 10
362.9351781190471
 20
536.2475682675011
 30
0.0
 11
364.1726149861235
 21
533.7726945333482
 31
0.0
  0
ELLIPSE
  5
375
330
6C
100
AcDbEntity
  8
Viditelná (ISO)
100
AcDbEllipse
 10
364.87972176731
 20
540.1366555640272
 30
0.0
 11
0.0000000000002831
 21
-5.500000000000012
 31
0.0
210
0.0
220
0.0
230
1.0
 40
0.4999999999999988
 41
3.926990816986901
 42
5.497787143781795
  0
LINE
  5
376
330
6C
100
AcDbEntity
  8
Viditelná (ISO)
100
AcDbLine
 10
364.1726149861235
 20
546.5006165947061
 30
0.0
 11
362.9351781190471
 21
544.0257428605532
 31
0.0
  0
ELLIPSE
  5
377
330
6C
100
AcDbEntity
  8
Viditelná (ISO)
100
AcDbEllipse
 10
362.2280713378605
 20
550.389703891232
 30
0.0
 11
-0.0000000000000013
 21
-5.5
 31
0.0
210
0.0
220
0.0
230
1.0
 40
0.4999999999999986
 41
0.7853981633974501
 42
1.570796326794896
  0
LINE
  5
378
330
6C
100
AcDbEntity
  8
Viditelná (ISO)
100
AcDbLine
 10
364.9780713378606
 20
570.3714139280025
 30
0.0
 11
364.9780713378606
 21
550.389703891232
 31
0.0
  0
LINE
  5
379
330
6C
100
AcDbEntity
  8
Viditelná (ISO)
100
AcDbLine
 10
386.6287064324715
 20
592.3714139280025
 30
0.0
 11
385.6124119702234
 21
592.3714139280025
 31
0.0
  0
LINE
  5
37A
330
6C
100
AcDbEntity
  8
Viditelná (ISO)
100
AcDbLine
 10
386.6287064324715
 20
592.3714139280025
 30
0.0
 11
386.6287064324715
 21
582.3714139280025
 31
0.0
  0
LINE
  5
391
330
6C
100
AcDbEntity
  8
Viditelná (ISO)
100
AcDbLine
 10
364.4780713378605
 20
472.3839217502834
 30
0.0
 11
364.9780713378604
 21
472.3839217502834
 31
0.0
  0
ELLIPSE
  5
392
330
6C
100
AcDbEntity
  8
Viditelná (ISO)
100
AcDbEllipse
 10
375.803388885166
 20
482.3714139280024
 30
0.0
 11
-0.0000000000000028
 21
-16.00000000000001
 31
0.0
210
0.0
220
0.0
230
1.0
 40
0.8660254037844397
 41
5.386519487052007
 42
7.179851127307165
  0
ELLIPSE
  5
393
330
6C
100
AcDbEntity
  8
Viditelná (ISO)
100
AcDbEllipse
 10
375.3033888851659
 20
482.3714139280024
 30
0.0
 11
0.0000000000000158
 21
-15.99999999999996
 31
0.0
210
0.0
220
0.0
230
1.0
 40
0.8660254037844396
 41
5.386519487052
 42
6.283185307179584
  0
LINE
  5
394
330
6C
100
AcDbEntity
  8
Viditelná (ISO)
100
AcDbLine
 10
375.803388885166
 20
466.3714139280024
 30
0.0
 11
375.303388885166
 21
466.3714139280024
 31
0.0
  0
ELLIPSE
  5
395
330
6C
100
AcDbEntity
  8
Viditelná (ISO)
100
AcDbEllipse
 10
375.303388885166
 20
478.8714139280024
 30
0.0
 11
-0.0000000000000015
 21
-5.999999999999994
 31
0.0
210
0.0
220
0.0
230
1.0
 40
0.8660254037844396
 41
0.0481311037244492
 42
3.093461549865356
  0
ELLIPSE
  5
396
330
6C
100
AcDbEntity
  8
Viditelná (ISO)
100
AcDbEllipse
 10
375.803388885166
 20
478.8714139280024
 30
0.0
 11
-0.0000000000000014
 21
-6.0
 31
0.0
210
0.0
220
0.0
230
1.0
 40
0.8660254037844394
 41
0.0
 42
6.283185307179586
  0
ELLIPSE
  5
3A8
330
6C
100
AcDbEntity
  8
Viditelná (ISO)
100
AcDbEllipse
 10
369.9967208968983
 20
592.3714139280025
 30
0.0
 11
0.0000000000008442
 21
-9.0
 31
0.0
210
0.0
220
0.0
230
1.0
 40
0.8957582968629504
 41
4.214265632950978
 42
6.618081465618841
  0
ELLIPSE
  5
3A9
330
6C
100
AcDbEntity
  8
Viditelná (ISO)
100
AcDbEllipse
 10
370.4412623163422
 20
592.3714139280025
 30
0.0
 11
0.0000000000007929
 21
-8.499999999999996
 31
0.0
210
0.0
220
0.0
230
1.0
 40
0.8957582968629505
 41
4.181984425152236
 42
6.283185307179456
  0
ELLIPSE
  5
3AA
330
6C
100
AcDbEntity
  8
Viditelná (ISO)
100
AcDbEllipse
 10
377.9984664468882
 20
592.3714139280025
 30
0.0
 11
0.0000000000007966
 21
-8.500000000000008
 31
0.0
210
0.0
220
0.0
230
1.0
 40
0.8957582968629505
 41
4.181984425152235
 42
8.384386189206736
  0
ELLIPSE
  5
3AB
330
6C
100
AcDbEntity
  8
Viditelná (ISO)
100
AcDbEllipse
 10
378.8875492857761
 20
592.3714139280025
 30
0.0
 11
0.0000000000007031
 21
-7.500000000000005
 31
0.0
210
0.0
220
0.0
230
1.0
 40
0.8957582968629505
 41
4.029303670659121
 42
8.537066943699846
  0
LINE
  5
3AC
330
6C
100
AcDbEntity
  8
Viditelná (ISO)
100
AcDbLine
 10
370.4412623163422
 20
583.8714139280025
 30
0.0
 11
377.9984664468882
 21
583.8714139280025
 31
0.0
  0
LINE
  5
3CE
330
6C
100
AcDbEntity
  8
Viditelná (ISO)
100
AcDbLine
 10
364.4780713378605
 20
562.3714139280026
 30
0.0
 11
211.0783888851662
 21
562.3714139280026
 31
0.0
  0
LINE
  5
3CF
330
6C
100
AcDbEntity
  8
Viditelná (ISO)
100
AcDbLine
 10
411.7783888851662
 20
562.3714139280026
 30
0.0
 11
386.6287064324715
 21
562.3714139280026
 31
0.0
  0
LINE
  5
3D0
330
6C
100
AcDbEntity
  8
Viditelná (ISO)
100
AcDbLine
 10
368.3510546840679
 20
572.3714139280026
 30
0.0
 11
202.6783888851662
 21
572.3714139280026
 31
0.0
  0
LINE
  5
3D1
330
6C
100
AcDbEntity
  8
Viditelná (ISO)
100
AcDbLine
 10
420.1783888851661
 20
572.3714139280026
 30
0.0
 11
382.7557230862641
 21
572.3714139280026
 31
0.0
  0
LINE
  5
3D2
330
6C
100
AcDbEntity
  8
Viditelná (ISO)
100
AcDbLine
 10
207.2263327378631
 20
592.3714139280026
 30
0.0
 11
183.2866216896104
 21
592.3714139280026
 31
0.0
  0
LINE
  5
3D3
330
6C
100
AcDbEntity
  8
Viditelná (ISO)
100
AcDbLine
 10
306.928388885166
 20
592.3714139280026
 30
0.0
 11
216.226332737863
 21
592.3714139280026
 31
0.0
  0
LINE
  5
3D4
330
6C
100
AcDbEntity
  8
Viditelná (ISO)
100
AcDbLine
 10
361.9348962251317
 20
592.3714139280026
 30
0.0
 11
315.9283888851661
 21
592.3714139280026
 31
0.0
  0
LINE
  5
3D5
330
6C
100
AcDbEntity
  8
Viditelná (ISO)
100
AcDbLine
 10
406.6304450324691
 20
592.3714139280026
 30
0.0
 11
386.6287064324715
 21
592.3714139280026
 31
0.0
  0
LINE
  5
3D6
330
6C
100
AcDbEntity
  8
Viditelná (ISO)
100
AcDbLine
 10
440.1783888851662
 20
592.3714139280026
 30
0.0
 11
415.6304450324689
 21
592.3714139280026
 31
0.0
  0
LINE
  5
3D7
330
6C
100
AcDbEntity
  8
Viditelná (ISO)
100
AcDbLine
 10
211.0783888851662
 20
562.3714139280026
 30
0.0
 11
211.0783888851662
 21
568.3714139280026
 31
0.0
  0
LINE
  5
3D8
330
6C
100
AcDbEntity
  8
Viditelná (ISO)
100
AcDbLine
 10
411.7783888851662
 20
562.3714139280025
 30
0.0
 11
411.7783888851662
 21
568.3714139280025
 31
0.0
  0
ARC
  5
3D9
330
6C
100
AcDbEntity
  8
Viditelná (ISO)
100
AcDbCircle
 10
415.7783888851662
 20
568.3714139280025
 30
0.0
 40
4.0
100
AcDbArc
 50
90.0
 51
180.0
  0
ARC
  5
3DA
330
6C
100
AcDbEntity
  8
Viditelná (ISO)
100
AcDbCircle
 10
207.0783888851662
 20
568.3714139280026
 30
0.0
 40
4.0
100
AcDbArc
 50
0.0
 51
90.0
  0
ARC
  5
3DB
330
6C
100
AcDbEntity
  8
Viditelná (ISO)
100
AcDbCircle
 10
420.1783888851661
 20
592.3714139280026
 30
0.0
 40
20.0
100
AcDbArc
 50
270.0
 51
0.0
  0
ARC
  5
3DC
330
6C
100
AcDbEntity
  8
Viditelná (ISO)
100
AcDbCircle
 10
202.6783888851662
 20
592.3714139280026
 30
0.0
 40
20.0
100
AcDbArc
 50
198.1948723387666
 51
270.0
  0
LINE
  5
3EF
330
6C
100
AcDbEntity
  8
Viditelná (ISO)
100
AcDbLine
 10
486.3783888851658
 20
602.1714139280027
 30
0.0
 11
136.4783888851665
 21
602.1714139280027
 31
0.0
  0
LINE
  5
3F0
330
6C
100
AcDbEntity
  8
Viditelná (ISO)
100
AcDbLine
 10
207.2263327378633
 20
592.3714139280026
 30
0.0
 11
183.2866216896107
 21
592.3714139280026
 31
0.0
  0
LINE
  5
3F1
330
6C
100
AcDbEntity
  8
Viditelná (ISO)
100
AcDbLine
 10
306.9283888851661
 20
592.3714139280026
 30
0.0
 11
216.2263327378633
 21
592.3714139280026
 31
0.0
  0
LINE
  5
3F2
330
6C
100
AcDbEntity
  8
Viditelná (ISO)
100
AcDbLine
 10
361.9348962251316
 20
592.3714139280026
 30
0.0
 11
315.928388885166
 21
592.3714139280026
 31
0.0
  0
LINE
  5
3F3
330
6C
100
AcDbEntity
  8
Viditelná (ISO)
100
AcDbLine
 10
406.6304450324689
 20
592.3714139280026
 30
0.0
 11
386.6287064324713
 21
592.3714139280026
 31
0.0
  0
LINE
  5
3F4
330
6C
100
AcDbEntity
  8
Viditelná (ISO)
100
AcDbLine
 10
440.1783888851658
 20
592.3714139280026
 30
0.0
 11
415.6304450324689
 21
592.3714139280026
 31
0.0
  0
LINE
  5
3F5
330
6C
100
AcDbEntity
  8
Viditelná (ISO)
100
AcDbLine
 10
486.3783888851658
 20
600.6714139280026
 30
0.0
 11
136.4783888851665
 21
600.6714139280026
 31
0.0
  0
LINE
  5
3F6
330
6C
100
AcDbEntity
  8
Viditelná (ISO)
100
AcDbLine
 10
182.6783888851664
 20
592.3714139280026
 30
0.0
 11
182.6783888851664
 21
595.1714139280026
 31
0.0
  0
LINE
  5
3F7
330
6C
100
AcDbEntity
  8
Viditelná (ISO)
100
AcDbLine
 10
440.1783888851659
 20
592.3714139280026
 30
0.0
 11
440.1783888851659
 21
595.1714139280026
 31
0.0
  0
LINE
  5
3F8
330
6C
100
AcDbEntity
  8
Viditelná (ISO)
100
AcDbLine
 10
158.9997092287261
 20
597.550093584443
 30
0.0
 11
156.3177287133867
 21
600.2320740997825
 31
0.0
  0
LINE
  5
3F9
330
6C
100
AcDbEntity
  8
Viditelná (ISO)
100
AcDbLine
 10
463.8570685416062
 20
597.550093584443
 30
0.0
 11
466.5390490569456
 21
600.2320740997824
 31
0.0
  0
LINE
  5
3FA
330
6C
100
AcDbEntity
  8
Viditelná (ISO)
100
AcDbLine
 10
136.4783888851665
 20
600.6714139280027
 30
0.0
 11
136.4783888851665
 21
602.1714139280027
 31
0.0
  0
LINE
  5
3FB
330
6C
100
AcDbEntity
  8
Viditelná (ISO)
100
AcDbLine
 10
486.3783888851658
 20
600.6714139280026
 30
0.0
 11
486.3783888851658
 21
602.1714139280027
 31
0.0
  0
LINE
  5
400
330
6C
100
AcDbEntity
  8
Viditelná (ISO)
100
AcDbLine
 10
371.8066845227077
 20
596.6714139280027
 30
0.0
 11
161.1210295722858
 21
596.6714139280027
 31
0.0
  0
LINE
  5
401
330
6C
100
AcDbEntity
  8
Viditelná (ISO)
100
AcDbLine
 10
461.7357481980465
 20
596.6714139280027
 30
0.0
 11
384.5363805630007
 21
596.6714139280027
 31
0.0
  0
ARC
  5
402
330
6C
100
AcDbEntity
  8
Viditelná (ISO)
100
AcDbCircle
 10
441.6783888851659
 20
595.1714139280026
 30
0.0
 40
1.5
100
AcDbArc
 50
90.0
 51
180.0
  0
ARC
  5
403
330
6C
100
AcDbEntity
  8
Viditelná (ISO)
100
AcDbCircle
 10
181.1783888851664
 20
595.1714139280026
 30
0.0
 40
1.5
100
AcDbArc
 50
0.0
 51
90.0
  0
ARC
  5
404
330
6C
100
AcDbEntity
  8
Viditelná (ISO)
100
AcDbCircle
 10
461.7357481980465
 20
599.6714139280026
 30
0.0
 40
2.999999999999997
100
AcDbArc
 50
270.0
 51
314.9999999999984
  0
ARC
  5
405
330
6C
100
AcDbEntity
  8
Viditelná (ISO)
100
AcDbCircle
 10
161.1210295722858
 20
599.6714139280027
 30
0.0
 40
3.0
100
AcDbArc
 50
225.0000000000007
 51
270.0
  0
ARC
  5
406
330
6C
100
AcDbEntity
  8
Viditelná (ISO)
100
AcDbCircle
 10
467.5997092287255
 20
599.1714139280027
 30
0.0
 40
1.499999999999999
100
AcDbArc
 50
90.00000000000225
 51
135.0000000000016
  0
ARC
  5
407
330
6C
100
AcDbEntity
  8
Viditelná (ISO)
100
AcDbCircle
 10
155.2570685416068
 20
599.1714139280027
 30
0.0
 40
1.5
100
AcDbArc
 50
44.9999999999992
 51
90.0
  0
CIRCLE
  5
431
330
6C
100
AcDbEntity
  8
Viditelná (ISO)
100
AcDbCircle
 10
311.4283888850719
 20
217.6790826521073
 30
0.0
 40
98.49999999999999
  0
CIRCLE
  5
465
330
6C
100
AcDbEntity
  8
Viditelná (ISO)
100
AcDbCircle
 10
411.130445032375
 20
317.3811387994219
 30
0.0
 40
4.714999999999999
  0
LINE
  5
466
330
6C
100
AcDbEntity
  8
Viditelná (ISO)
100
AcDbLine
 10
412.7837514868143
 20
317.897450495696
 30
0.0
 11
412.4042373048391
 21
316.2074892577738
 31
0.0
  0
LINE
  5
467
330
6C
100
AcDbEntity
  8
Viditelná (ISO)
100
AcDbLine
 10
412.4042373048391
 20
316.2074892577738
 30
0.0
 11
410.7509308503998
 21
315.6911775614996
 31
0.0
  0
LINE
  5
468
330
6C
100
AcDbEntity
  8
Viditelná (ISO)
100
AcDbLine
 10
410.7509308503998
 20
315.6911775614996
 30
0.0
 11
409.4771385779358
 21
316.8648271031478
 31
0.0
  0
LINE
  5
469
330
6C
100
AcDbEntity
  8
Viditelná (ISO)
100
AcDbLine
 10
409.4771385779358
 20
316.8648271031478
 30
0.0
 11
409.856652759911
 21
318.55478834107
 31
0.0
  0
LINE
  5
46A
330
6C
100
AcDbEntity
  8
Viditelná (ISO)
100
AcDbLine
 10
411.5099592143502
 20
319.0711000373441
 30
0.0
 11
412.7837514868143
 21
317.897450495696
 31
0.0
  0
LINE
  5
46B
330
6C
100
AcDbEntity
  8
Viditelná (ISO)
100
AcDbLine
 10
409.856652759911
 20
318.55478834107
 30
0.0
 11
411.5099592143502
 21
319.0711000373441
 31
0.0
  0
CIRCLE
  5
46E
330
6C
100
AcDbEntity
  8
Viditelná (ISO)
100
AcDbCircle
 10
311.4283888850719
 20
358.6790826521181
 30
0.0
 40
4.714999999999999
  0
LINE
  5
46F
330
6C
100
AcDbEntity
  8
Viditelná (ISO)
100
AcDbLine
 10
312.232365588744
 20
360.213234359073
 30
0.0
 11
313.1589915883901
 21
358.7498942561646
 31
0.0
  0
LINE
  5
470
330
6C
100
AcDbEntity
  8
Viditelná (ISO)
100
AcDbLine
 10
313.1589915883901
 20
358.7498942561647
 30
0.0
 11
312.355014884718
 21
357.2157425492098
 31
0.0
  0
LINE
  5
471
330
6C
100
AcDbEntity
  8
Viditelná (ISO)
100
AcDbLine
 10
312.355014884718
 20
357.2157425492098
 30
0.0
 11
310.6244121813997
 21
357.1449309451633
 31
0.0
  0
LINE
  5
472
330
6C
100
AcDbEntity
  8
Viditelná (ISO)
100
AcDbLine
 10
310.6244121813997
 20
357.1449309451633
 30
0.0
 11
309.6977861817536
 21
358.6082710480717
 31
0.0
  0
LINE
  5
473
330
6C
100
AcDbEntity
  8
Viditelná (ISO)
100
AcDbLine
 10
310.5017628854258
 20
360.1424227550265
 30
0.0
 11
312.232365588744
 21
360.2132343590731
 31
0.0
  0
LINE
  5
474
330
6C
100
AcDbEntity
  8
Viditelná (ISO)
100
AcDbLine
 10
309.6977861817536
 20
358.6082710480717
 30
0.0
 11
310.5017628854258
 21
360.1424227550265
 31
0.0
  0
CIRCLE
  5
477
330
6C
100
AcDbEntity
  8
Viditelná (ISO)
100
AcDbCircle
 10
211.7263327377691
 20
317.3811387994211
 30
0.0
 40
4.715
  0
LINE
  5
478
330
6C
100
AcDbEntity
  8
Viditelná (ISO)
100
AcDbLine
 10
211.2100210414949
 20
319.0344452538603
 30
0.0
 11
212.8999822794172
 21
318.6549310718851
 31
0.0
  0
LINE
  5
479
330
6C
100
AcDbEntity
  8
Viditelná (ISO)
100
AcDbLine
 10
212.8999822794172
 20
318.6549310718851
 30
0.0
 11
213.4162939756913
 21
317.0016246174459
 31
0.0
  0
LINE
  5
47A
330
6C
100
AcDbEntity
  8
Viditelná (ISO)
100
AcDbLine
 10
213.4162939756913
 20
317.0016246174459
 30
0.0
 11
212.2426444340432
 21
315.7278323449818
 31
0.0
  0
LINE
  5
47B
330
6C
100
AcDbEntity
  8
Viditelná (ISO)
100
AcDbLine
 10
212.2426444340432
 20
315.7278323449818
 30
0.0
 11
210.5526831961209
 21
316.107346526957
 31
0.0
  0
LINE
  5
47C
330
6C
100
AcDbEntity
  8
Viditelná (ISO)
100
AcDbLine
 10
210.0363714998468
 20
317.7606529813963
 30
0.0
 11
211.2100210414949
 21
319.0344452538603
 31
0.0
  0
LINE
  5
47D
330
6C
100
AcDbEntity
  8
Viditelná (ISO)
100
AcDbLine
 10
210.5526831961209
 20
316.107346526957
 30
0.0
 11
210.0363714998468
 21
317.7606529813963
 31
0.0
  0
CIRCLE
  5
480
330
6C
100
AcDbEntity
  8
Viditelná (ISO)
100
AcDbCircle
 10
170.4283888850727
 20
217.6790826521179
 30
0.0
 40
4.715
  0
LINE
  5
481
330
6C
100
AcDbEntity
  8
Viditelná (ISO)
100
AcDbLine
 10
168.8942371781179
 20
218.48305935579
 30
0.0
 11
170.3575772810263
 21
219.4096853554361
 31
0.0
  0
LINE
  5
482
330
6C
100
AcDbEntity
  8
Viditelná (ISO)
100
AcDbLine
 10
170.3575772810263
 20
219.4096853554361
 30
0.0
 11
171.8917289879811
 21
218.605708651764
 31
0.0
  0
LINE
  5
483
330
6C
100
AcDbEntity
  8
Viditelná (ISO)
100
AcDbLine
 10
171.8917289879811
 20
218.605708651764
 30
0.0
 11
171.9625405920276
 21
216.8751059484458
 31
0.0
  0
LINE
  5
484
330
6C
100
AcDbEntity
  8
Viditelná (ISO)
100
AcDbLine
 10
171.9625405920276
 20
216.8751059484458
 30
0.0
 11
170.4992004891192
 21
215.9484799487997
 31
0.0
  0
LINE
  5
485
330
6C
100
AcDbEntity
  8
Viditelná (ISO)
100
AcDbLine
 10
168.9650487821644
 20
216.7524566524718
 30
0.0
 11
168.8942371781179
 21
218.48305935579
 31
0.0
  0
LINE
  5
486
330
6C
100
AcDbEntity
  8
Viditelná (ISO)
100
AcDbLine
 10
170.4992004891193
 20
215.9484799487997
 30
0.0
 11
168.9650487821644
 21
216.7524566524718
 31
0.0
  0
CIRCLE
  5
489
330
6C
100
AcDbEntity
  8
Viditelná (ISO)
100
AcDbCircle
 10
211.7263327377699
 20
117.977026504815
 30
0.0
 40
4.714999999999999
  0
LINE
  5
48A
330
6C
100
AcDbEntity
  8
Viditelná (ISO)
100
AcDbLine
 10
210.0730262833306
 20
117.4607148085409
 30
0.0
 11
210.4525404653058
 21
119.1506760464631
 31
0.0
  0
LINE
  5
48B
330
6C
100
AcDbEntity
  8
Viditelná (ISO)
100
AcDbLine
 10
210.4525404653058
 20
119.1506760464631
 30
0.0
 11
212.1058469197451
 21
119.6669877427372
 31
0.0
  0
LINE
  5
48C
330
6C
100
AcDbEntity
  8
Viditelná (ISO)
100
AcDbLine
 10
212.1058469197451
 20
119.6669877427372
 30
0.0
 11
213.3796391922091
 21
118.4933382010891
 31
0.0
  0
LINE
  5
48D
330
6C
100
AcDbEntity
  8
Viditelná (ISO)
100
AcDbLine
 10
213.3796391922091
 20
118.4933382010891
 30
0.0
 11
213.000125010234
 21
116.8033769631669
 31
0.0
  0
LINE
  5
48E
330
6C
100
AcDbEntity
  8
Viditelná (ISO)
100
AcDbLine
 10
211.3468185557947
 20
116.2870652668927
 30
0.0
 11
210.0730262833306
 21
117.4607148085409
 31
0.0
  0
LINE
  5
48F
330
6C
100
AcDbEntity
  8
Viditelná (ISO)
100
AcDbLine
 10
213.0001250102339
 20
116.8033769631669
 30
0.0
 11
211.3468185557947
 21
116.2870652668928
 31
0.0
  0
CIRCLE
  5
492
330
6C
100
AcDbEntity
  8
Viditelná (ISO)
100
AcDbCircle
 10
311.4283888850731
 20
76.67908265211872
 30
0.0
 40
4.714999999999998
  0
LINE
  5
493
330
6C
100
AcDbEntity
  8
Viditelná (ISO)
100
AcDbLine
 10
310.6244121814009
 20
75.14493094516389
 30
0.0
 11
309.6977861817548
 21
76.60827104807224
 31
0.0
  0
LINE
  5
494
330
6C
100
AcDbEntity
  8
Viditelná (ISO)
100
AcDbLine
 10
309.6977861817548
 20
76.60827104807225
 30
0.0
 11
310.501762885427
 21
78.14242275502708
 31
0.0
  0
LINE
  5
495
330
6C
100
AcDbEntity
  8
Viditelná (ISO)
100
AcDbLine
 10
310.501762885427
 20
78.14242275502707
 30
0.0
 11
312.2323655887452
 21
78.21323435907356
 31
0.0
  0
LINE
  5
496
330
6C
100
AcDbEntity
  8
Viditelná (ISO)
100
AcDbLine
 10
312.2323655887452
 20
78.21323435907358
 30
0.0
 11
313.1589915883913
 21
76.74989425616523
 31
0.0
  0
LINE
  5
497
330
6C
100
AcDbEntity
  8
Viditelná (ISO)
100
AcDbLine
 10
312.3550148847192
 20
75.21574254921036
 30
0.0
 11
310.6244121814009
 21
75.14493094516388
 31
0.0
  0
LINE
  5
498
330
6C
100
AcDbEntity
  8
Viditelná (ISO)
100
AcDbLine
 10
313.1589915883913
 20
76.74989425616522
 30
0.0
 11
312.3550148847192
 21
75.21574254921036
 31
0.0
  0
CIRCLE
  5
49B
330
6C
100
AcDbEntity
  8
Viditelná (ISO)
100
AcDbCircle
 10
411.1304450323759
 20
117.9770265048158
 30
0.0
 40
4.715
  0
LINE
  5
49C
330
6C
100
AcDbEntity
  8
Viditelná (ISO)
100
AcDbLine
 10
411.64675672865
 20
116.3237200503765
 30
0.0
 11
409.9567954907277
 21
116.7032342323517
 31
0.0
  0
LINE
  5
49D
330
6C
100
AcDbEntity
  8
Viditelná (ISO)
100
AcDbLine
 10
409.9567954907277
 20
116.7032342323517
 30
0.0
 11
409.4404837944535
 21
118.356540686791
 31
0.0
  0
LINE
  5
49E
330
6C
100
AcDbEntity
  8
Viditelná (ISO)
100
AcDbLine
 10
409.4404837944536
 20
118.356540686791
 30
0.0
 11
410.6141333361017
 21
119.630332959255
 31
0.0
  0
LINE
  5
49F
330
6C
100
AcDbEntity
  8
Viditelná (ISO)
100
AcDbLine
 10
410.6141333361017
 20
119.630332959255
 30
0.0
 11
412.3040945740239
 21
119.2508187772798
 31
0.0
  0
LINE
  5
4A0
330
6C
100
AcDbEntity
  8
Viditelná (ISO)
100
AcDbLine
 10
412.8204062702981
 20
117.5975123228406
 30
0.0
 11
411.64675672865
 21
116.3237200503765
 31
0.0
  0
LINE
  5
4A1
330
6C
100
AcDbEntity
  8
Viditelná (ISO)
100
AcDbLine
 10
412.3040945740239
 20
119.2508187772798
 30
0.0
 11
412.8204062702981
 21
117.5975123228406
 31
0.0
  0
CIRCLE
  5
4A4
330
6C
100
AcDbEntity
  8
Viditelná (ISO)
100
AcDbCircle
 10
452.4283888850722
 20
217.679082652119
 30
0.0
 40
4.714999999999999
  0
LINE
  5
4A5
330
6C
100
AcDbEntity
  8
Viditelná (ISO)
100
AcDbLine
 10
453.962540592027
 20
216.8751059484468
 30
0.0
 11
452.4992004891187
 21
215.9484799488008
 31
0.0
  0
LINE
  5
4A6
330
6C
100
AcDbEntity
  8
Viditelná (ISO)
100
AcDbLine
 10
452.4992004891187
 20
215.9484799488008
 30
0.0
 11
450.9650487821637
 21
216.7524566524729
 31
0.0
  0
LINE
  5
4A7
330
6C
100
AcDbEntity
  8
Viditelná (ISO)
100
AcDbLine
 10
450.9650487821637
 20
216.7524566524729
 30
0.0
 11
450.8942371781173
 21
218.4830593557911
 31
0.0
  0
LINE
  5
4A8
330
6C
100
AcDbEntity
  8
Viditelná (ISO)
100
AcDbLine
 10
450.8942371781173
 20
218.4830593557911
 30
0.0
 11
452.3575772810256
 21
219.4096853554372
 31
0.0
  0
LINE
  5
4A9
330
6C
100
AcDbEntity
  8
Viditelná (ISO)
100
AcDbLine
 10
453.8917289879806
 20
218.6057086517651
 30
0.0
 11
453.962540592027
 21
216.8751059484468
 31
0.0
  0
LINE
  5
4AA
330
6C
100
AcDbEntity
  8
Viditelná (ISO)
100
AcDbLine
 10
452.3575772810256
 20
219.4096853554372
 30
0.0
 11
453.8917289879806
 21
218.6057086517651
 31
0.0
  0
LINE
  5
4F0
330
6C
100
AcDbEntity
  8
Viditelná (ISO)
100
AcDbLine
 10
368.3066075225065
 20
98.82416796773496
 30
0.0
 11
371.6868342711016
 21
100.5016861131154
 31
0.0
  0
CIRCLE
  5
510
330
6C
100
AcDbEntity
  8
Viditelná (ISO)
100
AcDbCircle
 10
311.4283888850719
 20
217.6790826521091
 30
0.0
 40
98.85000000000003
  0
CIRCLE
  5
513
330
6C
100
AcDbEntity
  8
Viditelná (ISO)
100
AcDbCircle
 10
311.4283888850719
 20
217.6790826521191
 30
0.0
 40
174.9499999999996
  0
CIRCLE
  5
516
330
6C
100
AcDbEntity
  8
Viditelná (ISO)
100
AcDbCircle
 10
311.4283888850719
 20
217.6790826521188
 30
0.0
 40
152.0000000000003
  0
CIRCLE
  5
517
330
6C
100
AcDbEntity
  8
Viditelná (ISO)
100
AcDbCircle
 10
211.726332737768
 20
317.3811387994221
 30
0.0
 40
5.30000000000001
  0
CIRCLE
  5
518
330
6C
100
AcDbEntity
  8
Viditelná (ISO)
100
AcDbCircle
 10
170.4283888850716
 20
217.6790826521187
 30
0.0
 40
5.30000000000001
  0
CIRCLE
  5
519
330
6C
100
AcDbEntity
  8
Viditelná (ISO)
100
AcDbCircle
 10
211.7263327377691
 20
117.9770265048153
 30
0.0
 40
5.30000000000001
  0
CIRCLE
  5
51A
330
6C
100
AcDbEntity
  8
Viditelná (ISO)
100
AcDbCircle
 10
311.4283888850728
 20
76.67908265211855
 30
0.0
 40
5.30000000000001
  0
CIRCLE
  5
51B
330
6C
100
AcDbEntity
  8
Viditelná (ISO)
100
AcDbCircle
 10
411.1304450323759
 20
117.9770265048156
 30
0.0
 40
5.30000000000001
  0
CIRCLE
  5
51C
330
6C
100
AcDbEntity
  8
Viditelná (ISO)
100
AcDbCircle
 10
452.4283888850722
 20
217.679082652119
 30
0.0
 40
5.30000000000001
  0
CIRCLE
  5
51D
330
6C
100
AcDbEntity
  8
Viditelná (ISO)
100
AcDbCircle
 10
411.1304450323747
 20
317.3811387994224
 30
0.0
 40
5.30000000000001
  0
CIRCLE
  5
51E
330
6C
100
AcDbEntity
  8
Viditelná (ISO)
100
AcDbCircle
 10
311.4283888850712
 20
358.6790826521191
 30
0.0
 40
5.30000000000001
  0
CIRCLE
  5
527
330
6C
100
AcDbEntity
  8
Viditelná (ISO)
100
AcDbCircle
 10
311.4283888850719
 20
217.6790826521188
 30
0.0
 40
112.5000000000002
  0
DIMENSION
  5
675
330
6C
100
AcDbEntity
  8
Kóta (ISO)
100
AcDbDimension
  2
*D16
 10
211.4283888851662
 20
450.5685439464223
 30
0.0
 11
311.4283888851662
 21
450.5685439464223
 31
0.0
 70
   160
  1
{\fAIGDT|b0|i0;\H5.8333;\ln\fTahoma|b0|i0;\H5.8333;}<>
 42
200.0
  3
Výchozí (ISO)
100
AcDbAlignedDimension
 13
411.4283888851661
 23
498.3714139280025
 33
0.0
 14
211.4283888851662
 24
498.3714139280025
 34
0.0
 50
180.0
100
AcDbRotatedDimension
1001
ACAD
1000
DSTYLE
1002
{
1070
   172
1070
     0
1070
   289
1070
     1
1070
   271
1070
     2
1070
   272
1070
     2
1070
    48
1040
0.0
1070
    47
1040
0.0
1002
}
  0
DIMENSION
  5
74F
330
6C
100
AcDbEntity
  8
Kóta (ISO)
100
AcDbDimension
  2
*D17
 10
117.1966804415392
 20
602.1714139280025
 30
0.0
 11
117.1966804415391
 21
550.2714139280026
 31
0.0
 70
   160
  1
<>
 42
103.7999999999999
  3
Výchozí (ISO)
100
AcDbAlignedDimension
 13
211.4283888851662
 23
498.3714139280025
 33
0.0
 14
136.4783888851665
 24
602.1714139280025
 34
0.0
 50
90.0
100
AcDbRotatedDimension
1001
ACAD
1000
DSTYLE
1002
{
1070
   172
1070
     0
1070
   289
1070
     1
1070
   271
1070
     2
1070
   272
1070
     2
1070
    48
1040
0.0
1070
    47
1040
0.0
1002
}
  0
LINE
  5
831
330
6C
100
AcDbEntity
  8
Osa (ISO)
  6
Continuous
100
AcDbLine
 10
311.4283888851662
 20
621.8076309731594
 30
0.0
 11
311.4283888851662
 21
494.2047472613359
 31
0.0
  0
LINE
  5
27E0
330
6C
100
AcDbEntity
  8
Osa (ISO)
100
AcDbLine
 10
311.4283888850719
 20
12.98913121036071
 30
0.0
 11
311.4283888850719
 21
410.1524302597649
 31
0.0
  0
LINE
  5
27E8
330
6C
100
AcDbEntity
  8
Osa (ISO)
100
AcDbLine
 10
106.1585965906874
 20
217.6790826521192
 30
0.0
 11
540.8768241070252
 21
217.6790826521191
 31
0.0
  0
ENDSEC
  0
SECTION
  2
OBJECTS
  0
DICTIONARY
  5
C
330
0
100
AcDbDictionary
281
     1
  3
ACAD_COLOR
350
63
  3
ACAD_GROUP
350
D
  3
ACAD_LAYOUT
350
62
  3
ACAD_MATERIAL
350
10
  3
ACAD_MLEADERSTYLE
350
66
  3
ACAD_MLINESTYLE
350
5F
  3
ACAD_PLOTSETTINGS
350
61
  3
ACAD_PLOTSTYLENAME
350
E
  3
ACAD_SCALELIST
350
42
  3
ACAD_TABLESTYLE
350
64
  3
ACAD_VISUALSTYLE
350
29
  3
ACDB_RECOMPOSE_DATA
350
27FF
  3
AcDbVariableDictionary
350
9C3
  3
AcmDictionary
350
A34
  3
AEC_PROPERTY_SET_DEFS
350
1914
  3
AMG
350
9DA
  3
AMGSNAPSETTINGS
350
1917
  0
DICTIONARY
  5
96A
330
8
100
AcDbDictionary
280
     1
281
     1
  0
DICTIONARY
  5
27EB
330
C8
100
AcDbDictionary
280
     1
281
     1
  3
ACAD_MTEXT_2008_RT
360
27EC
  0
DICTIONARY
  5
933
330
1E7
100
AcDbDictionary
280
     1
281
     1
  3
ACAD_MLATT
360
27EE
  3
ACAD_XREC_ROUNDTRIP
360
27ED
  0
DICTIONARY
  5
936
330
1EB
100
AcDbDictionary
280
     1
281
     1
  3
ACAD_MLATT
360
27F0
  3
ACAD_XREC_ROUNDTRIP
360
27EF
  0
DICTIONARY
  5
939
330
1EC
100
AcDbDictionary
280
     1
281
     1
  3
ACAD_MLATT
360
27F2
  3
ACAD_XREC_ROUNDTRIP
360
27F1
  0
DICTIONARY
  5
93C
330
1ED
100
AcDbDictionary
280
     1
281
     1
  3
ACAD_MLATT
360
27F4
  3
ACAD_XREC_ROUNDTRIP
360
27F3
  0
DICTIONARY
  5
93F
330
1EE
100
AcDbDictionary
280
     1
281
     1
  3
ACAD_MLATT
360
27F6
  3
ACAD_XREC_ROUNDTRIP
360
27F5
  0
DICTIONARY
  5
942
330
1F0
100
AcDbDictionary
280
     1
281
     1
  3
ACAD_MLATT
360
27F8
  3
ACAD_XREC_ROUNDTRIP
360
27F7
  0
DICTIONARY
  5
945
330
1F1
100
AcDbDictionary
280
     1
281
     1
  3
ACAD_MLATT
360
27FA
  3
ACAD_XREC_ROUNDTRIP
360
27F9
  0
DICTIONARY
  5
948
330
1F2
100
AcDbDictionary
280
     1
281
     1
  3
ACAD_MLATT
360
27FC
  3
ACAD_XREC_ROUNDTRIP
360
27FB
  0
DICTIONARY
  5
94B
330
1F3
100
AcDbDictionary
280
     1
281
     1
  3
ACAD_MLATT
360
27FE
  3
ACAD_XREC_ROUNDTRIP
360
27FD
  0
DICTIONARY
  5
2804
330
838
100
AcDbDictionary
280
     1
281
     1
  3
ACAD_MTEXT_2008_RT
360
2805
  0
DICTIONARY
  5
2806
330
83C
100
AcDbDictionary
280
     1
281
     1
  3
ACAD_MTEXT_2008_RT
360
2807
  0
DICTIONARY
  5
2808
330
840
100
AcDbDictionary
280
     1
281
     1
  3
ACAD_MTEXT_2008_RT
360
2809
  0
DICTIONARY
  5
280A
330
84B
100
AcDbDictionary
280
     1
281
     1
  3
ACAD_MTEXT_2008_RT
360
280B
  0
DICTIONARY
  5
280C
330
852
100
AcDbDictionary
280
     1
281
     1
  3
ACAD_MTEXT_2008_RT
360
280D
  0
DICTIONARY
  5
280E
330
853
100
AcDbDictionary
280
     1
281
     1
  3
ACAD_MTEXT_2008_RT
360
280F
  0
DICTIONARY
  5
2810
330
85A
100
AcDbDictionary
280
     1
281
     1
  3
ACAD_MTEXT_2008_RT
360
2811
  0
DICTIONARY
  5
2812
330
861
100
AcDbDictionary
280
     1
281
     1
  3
ACAD_MTEXT_2008_RT
360
2813
  0
DICTIONARY
  5
2814
330
869
100
AcDbDictionary
280
     1
281
     1
  3
ACAD_MTEXT_2008_RT
360
2815
  0
DICTIONARY
  5
2816
330
870
100
AcDbDictionary
280
     1
281
     1
  3
ACAD_MTEXT_2008_RT
360
2817
  0
DICTIONARY
  5
2818
330
87B
100
AcDbDictionary
280
     1
281
     1
  3
ACAD_MTEXT_2008_RT
360
2819
  0
DICTIONARY
  5
281A
330
87E
100
AcDbDictionary
280
     1
281
     1
  3
ACAD_MTEXT_2008_RT
360
281B
  0
DICTIONARY
  5
281C
330
886
100
AcDbDictionary
280
     1
281
     1
  3
ACAD_MTEXT_2008_RT
360
281D
  0
DICTIONARY
  5
281E
330
88A
100
AcDbDictionary
280
     1
281
     1
  3
ACAD_MTEXT_2008_RT
360
281F
  0
DICTIONARY
  5
2820
330
894
100
AcDbDictionary
280
     1
281
     1
  3
ACAD_MTEXT_2008_RT
360
2821
  0
DICTIONARY
  5
2822
330
89B
100
AcDbDictionary
280
     1
281
     1
  3
ACAD_MTEXT_2008_RT
360
2823
  0
DICTIONARY
  5
63
102
{ACAD_REACTORS
330
C
102
}
330
C
100
AcDbDictionary
281
     1
  0
DICTIONARY
  5
D
102
{ACAD_REACTORS
330
C
102
}
330
C
100
AcDbDictionary
281
     1
  0
DICTIONARY
  5
62
102
{ACAD_REACTORS
330
C
102
}
330
C
100
AcDbDictionary
281
     1
  3
Layout1
350
6B
  3
Layout2
350
73
  3
Model
350
6F
  0
DICTIONARY
  5
10
102
{ACAD_REACTORS
330
C
102
}
330
C
100
AcDbDictionary
281
     1
  3
ByBlock
350
19
  3
ByLayer
350
11
  3
Global
350
21
  0
DICTIONARY
  5
66
102
{ACAD_REACTORS
330
C
102
}
330
C
100
AcDbDictionary
281
     1
  3
Standard
350
67
  0
DICTIONARY
  5
5F
102
{ACAD_REACTORS
330
C
102
}
330
C
100
AcDbDictionary
281
     1
  3
Standard
350
60
  0
DICTIONARY
  5
61
102
{ACAD_REACTORS
330
C
102
}
330
C
100
AcDbDictionary
281
     1
  0
ACDBDICTIONARYWDFLT
  5
E
102
{ACAD_REACTORS
330
C
102
}
330
C
100
AcDbDictionary
281
     1
  3
Normal
350
F
100
AcDbDictionaryWithDefault
340
F
  0
DICTIONARY
  5
42
102
{ACAD_REACTORS
330
C
102
}
330
C
100
AcDbDictionary
281
     1
  3
A0
350
43
  3
A1
350
44
  3
A2
350
45
  3
A3
350
46
  3
A4
350
47
  3
A5
350
48
  3
A6
350
49
  3
A7
350
4A
  3
A8
350
4B
  3
A9
350
4C
  3
B0
350
4D
  3
B1
350
4E
  3
B2
350
4F
  3
B3
350
50
  3
B4
350
51
  3
B5
350
52
  3
B6
350
53
  0
DICTIONARY
  5
64
102
{ACAD_REACTORS
330
C
102
}
330
C
100
AcDbDictionary
281
     1
  3
Standard
350
65
  0
DICTIONARY
  5
29
102
{ACAD_REACTORS
330
C
102
}
330
C
100
AcDbDictionary
281
     1
  3
2dWireframe
350
2F
  3
3D Hidden
350
9CE
  3
3dWireframe
350
9CD
  3
Basic
350
2E
  3
Brighten
350
35
  3
ColorChange
350
39
  3
Conceptual
350
32
  3
Dim
350
34
  3
EdgeColorOff
350
41
  3
Facepattern
350
38
  3
Flat
350
2A
  3
FlatWithEdges
350
2B
  3
Gouraud
350
2C
  3
GouraudWithEdges
350
2D
  3
Hidden
350
31
  3
JitterOff
350
3F
  3
Linepattern
350
37
  3
OverhangOff
350
40
  3
Realistic
350
33
  3
Shaded
350
3E
  3
Shaded with edges
350
3D
  3
Shades of Gray
350
3A
  3
Sketchy
350
3B
  3
Thicken
350
36
  3
Wireframe
350
30
  3
X-Ray
350
3C
  0
XRECORD
  5
27FF
102
{ACAD_REACTORS
330
C
102
}
330
C
100
AcDbXrecord
280
     1
 90
        1
330
65
330
C8
330
1E7
330
1EB
330
1EC
330
1ED
330
1EE
330
1F0
330
1F1
330
1F2
330
1F3
  0
DICTIONARY
  5
9C3
102
{ACAD_REACTORS
330
C
102
}
330
C
100
AcDbDictionary
281
     1
  3
CANNOSCALE
350
9C7
  3
CMLEADERSTYLE
350
9C5
  3
CTABLESTYLE
350
9C4
  3
LAYEREVAL
350
9C9
  3
LAYERNOTIFY
350
9CA
  3
LIGHTINGUNITS
350
9C8
  3
MSLTSCALE
350
9C6
  3
XCLIPFRAME
350
27E9
  0
DICTIONARY
  5
A34
102
{ACAD_REACTORS
330
C
102
}
330
C
100
AcDbDictionary
281
     1
  3
AcmStdDictionary
350
A3E
  0
DICTIONARY
  5
1914
102
{ACAD_REACTORS
330
C
102
}
330
C
100
AcDbDictionary
281
     1
  0
DICTIONARY
  5
9DA
102
{ACAD_REACTORS
330
C
102
}
330
C
100
AcDbDictionary
281
     1
  0
DICTIONARY
  5
1917
102
{ACAD_REACTORS
330
C
102
}
330
C
100
AcDbDictionary
281
     1
  0
XRECORD
  5
27EC
102
{ACAD_REACTORS
330
27EB
102
}
330
27EB
100
AcDbXrecord
280
     1
 40
2697178.0
  1
\pxsm0,94;WIG Schweisung, Nahte sauber geschliffen und poliert\PSichtstege geschliffen mit 240 Korn und abgeklebt.\P\fTahoma|b0|i0;\H3.0000; \P\fTahoma|b0|i0;\H3.5000;WIG svarovani- svary dle potreby zabrousit.\PPohledove plochy brousit (vel. brusnyc
  1
h zrn 240)\Pa polepit paskou
  0
XRECORD
  5
27EE
102
{ACAD_REACTORS
330
933
102
}
330
933
100
AcDbXrecord
280
     1
 70
     4
 70
     0
 70
     0
 40
1.0
  2
ČÍSLO_REVIZE
  1
Embedded Object
 10
287.6423193699604
 20
66.0
 30
0.0
 40
3.499999940395355
 41
0.0
 46
0.0
 71
     1
 72
     5
  1
000
  7
Styl textu9
 73
     1
 44
1.0
  0
XRECORD
  5
27ED
102
{ACAD_REACTORS
330
933
102
}
330
933
100
AcDbXrecord
280
     1
102
ACAD_MATT_HEIGHT
140
3.499999940395355
  0
XRECORD
  5
27F0
102
{ACAD_REACTORS
330
936
102
}
330
936
100
AcDbXrecord
280
     1
 70
     4
 70
     0
 70
     0
 40
1.0
  2
Sheet_Size
  1
Embedded Object
 10
289.7753402652471
 20
48.33701147296152
 30
0.0
 40
2.000000029802322
 41
0.0
 46
0.0
 71
     1
 72
     5
  1
A2
  7
Styl textu40
 73
     1
 44
1.0
  0
XRECORD
  5
27EF
102
{ACAD_REACTORS
330
936
102
}
330
936
100
AcDbXrecord
280
     1
102
ACAD_MATT_HEIGHT
140
2.000000029802322
  0
XRECORD
  5
27F2
102
{ACAD_REACTORS
330
939
102
}
330
939
100
AcDbXrecord
280
     1
 70
     4
 70
     0
 70
     0
 40
1.0
  2
FILENAME_AND_PATH
  1
Embedded Object
 10
230.2697279123746
 20
53.13502004542946
 30
0.0
 40
2.000000029802322
 41
0.0
 46
0.0
 71
     1
 72
     5
  1
C:\\Inventor_DATA\\Projekty\\Guly\\Effidrain\\Effidrain rostova nastavba pro vinyl\\408242.iam
  7
Styl textu40
 73
     1
 44
1.0
  0
XRECORD
  5
27F1
102
{ACAD_REACTORS
330
939
102
}
330
939
100
AcDbXrecord
280
     1
102
ACAD_MATT_HEIGHT
140
2.000000029802322
  0
XRECORD
  5
27F4
102
{ACAD_REACTORS
330
93C
102
}
330
93C
100
AcDbXrecord
280
     1
 70
     4
 70
     0
 70
     0
 40
1.0
  2
PART_NUMBER
  1
Embedded Object
 10
218.0
 20
66.0
 30
0.0
 40
3.499999940395355
 41
0.0
 46
0.0
 71
     1
 72
     5
  1
408242
  7
Text poznámky (ISO)
 73
     1
 44
1.0
  0
XRECORD
  5
27F3
102
{ACAD_REACTORS
330
93C
102
}
330
93C
100
AcDbXrecord
280
     1
102
ACAD_MATT_HEIGHT
140
3.499999940395355
  0
XRECORD
  5
27F6
102
{ACAD_REACTORS
330
93F
102
}
330
93F
100
AcDbXrecord
280
     1
 70
     4
 70
     0
 70
     0
 40
1.0
  2
PROJECT
  1
Embedded Object
 10
118.0
 20
60.0
 30
0.0
 40
3.499999940395355
 41
0.0
 46
0.0
 71
     1
 72
     5
  1

  7
Text poznámky (ISO)
 73
     1
 44
1.0
  0
XRECORD
  5
27F5
102
{ACAD_REACTORS
330
93F
102
}
330
93F
100
AcDbXrecord
280
     1
102
ACAD_MATT_HEIGHT
140
3.499999940395355
  0
XRECORD
  5
27F8
102
{ACAD_REACTORS
330
942
102
}
330
942
100
AcDbXrecord
280
     1
 70
     4
 70
     0
 70
     0
 40
1.0
  2
SKLADOVÉ_ČÍSLO
  1
Embedded Object
 10
118.0
 20
54.89391305489239
 30
0.0
 40
6.99999988079071
 41
153.2966041564941
 46
0.0
 71
     1
 72
     5
  1
408242
  7
Styl textu94
 73
     1
 44
1.0
  0
XRECORD
  5
27F7
102
{ACAD_REACTORS
330
942
102
}
330
942
100
AcDbXrecord
280
     1
102
ACAD_MATT_HEIGHT
140
6.99999988079071
  0
XRECORD
  5
27FA
102
{ACAD_REACTORS
330
945
102
}
330
945
100
AcDbXrecord
280
     1
 70
     4
 70
     0
 70
     0
 40
1.0
  2
MATERIAL
  1
Embedded Object
 10
117.5939056808251
 20
108.6756657996811
 30
0.0
 40
3.499999940395355
 41
0.0
 46
0.0
 71
     1
 72
     5
  1

  7
Text poznámky (ISO)
 73
     1
 44
1.0
  0
XRECORD
  5
27F9
102
{ACAD_REACTORS
330
945
102
}
330
945
100
AcDbXrecord
280
     1
102
ACAD_MATT_HEIGHT
140
3.499999940395355
  0
XRECORD
  5
27FC
102
{ACAD_REACTORS
330
948
102
}
330
948
100
AcDbXrecord
280
     1
 70
     4
 70
     0
 70
     0
 40
1.0
  2
AUTHOR
  1
Embedded Object
 10
165.2312259808574
 20
87.78242706242743
 30
0.0
 40
2.000000029802322
 41
15.06250023841858
 46
0.0
 71
     1
 72
     5
  1
pmacoun
  7
Styl textu40
 73
     1
 44
1.0
  0
XRECORD
  5
27FB
102
{ACAD_REACTORS
330
948
102
}
330
948
100
AcDbXrecord
280
     1
102
ACAD_MATT_HEIGHT
140
2.000000029802322
  0
XRECORD
  5
27FE
102
{ACAD_REACTORS
330
94B
102
}
330
94B
100
AcDbXrecord
280
     1
 70
     4
 70
     0
 70
     0
 40
1.0
  2
VS_First
  1
Embedded Object
 10
189.1855699863978
 20
86.00038821032342
 30
0.0
 40
3.499999940395355
 41
24.15597186978378
 46
0.0
 71
     1
 72
     5
  1

  7
Text poznámky (ISO)
 73
     1
 44
1.0
  0
XRECORD
  5
27FD
102
{ACAD_REACTORS
330
94B
102
}
330
94B
100
AcDbXrecord
280
     1
102
ACAD_MATT_HEIGHT
140
3.499999940395355
  0
XRECORD
  5
2805
102
{ACAD_REACTORS
330
2804
102
}
330
2804
100
AcDbXrecord
280
     1
 40
7165.0
  1
KUSOVNÍK
  0
XRECORD
  5
2807
102
{ACAD_REACTORS
330
2806
102
}
330
2806
100
AcDbXrecord
280
     1
 40
6807.0
  1
MATERIÁL
  0
XRECORD
  5
2809
102
{ACAD_REACTORS
330
2808
102
}
330
2808
100
AcDbXrecord
280
     1
 40
6841.0
  1
SKLADOVÉ
  0
XRECORD
  5
280B
102
{ACAD_REACTORS
330
280A
102
}
330
280A
100
AcDbXrecord
280
     1
 40
71678.0
  1
Svařenec rošt nastavb. vinyl
  0
XRECORD
  5
280D
102
{ACAD_REACTORS
330
280C
102
}
330
280C
100
AcDbXrecord
280
     1
 40
58568.0
  1
Effidrain výpust rost.nast. 200 
  0
XRECORD
  5
280F
102
{ACAD_REACTORS
330
280E
102
}
330
280E
100
AcDbXrecord
280
     1
 40
33811.0
  1
prodloužená AISI 304
  0
XRECORD
  5
2811
102
{ACAD_REACTORS
330
2810
102
}
330
2810
100
AcDbXrecord
280
     1
 40
53907.0
  1
Matice nýtovací nerez  M5
  0
XRECORD
  5
2813
102
{ACAD_REACTORS
330
2812
102
}
330
2812
100
AcDbXrecord
280
     1
 40
92605.0
  1
Šroub navařovací nerez M8x20 A2 
  0
XRECORD
  5
2815
102
{ACAD_REACTORS
330
2814
102
}
330
2814
100
AcDbXrecord
280
     1
 40
65077.0
  1
Šroub se zápustnou hlavou
  0
XRECORD
  5
2817
102
{ACAD_REACTORS
330
2816
102
}
330
2816
100
AcDbXrecord
280
     1
 40
55642.0
  1
Krytka nýtovací matice M5
  0
XRECORD
  5
2819
102
{ACAD_REACTORS
330
2818
102
}
330
2818
100
AcDbXrecord
280
     1
 40
19208.0
  1
Měkká ocel
  0
XRECORD
  5
281B
102
{ACAD_REACTORS
330
281A
102
}
330
281A
100
AcDbXrecord
280
     1
 40
39656.0
  1
Šestihranná matice
  0
XRECORD
  5
281D
102
{ACAD_REACTORS
330
281C
102
}
330
281C
100
AcDbXrecord
280
     1
 40
63777.0
  1
šestihranná, černá
  0
XRECORD
  5
281F
102
{ACAD_REACTORS
330
281E
102
}
330
281E
100
AcDbXrecord
280
     1
 40
4936.0
  1
Papír
  0
XRECORD
  5
2821
102
{ACAD_REACTORS
330
2820
102
}
330
2820
100
AcDbXrecord
280
     1
 40
17787.0
  1
Přechod 257/200-30
  0
XRECORD
  5
2823
102
{ACAD_REACTORS
330
2822
102
}
330
2822
100
AcDbXrecord
280
     1
 40
35170.0
  1
příruba pro lino
  0
LAYOUT
  5
6B
102
{ACAD_REACTORS
330
62
102
}
330
62
100
AcDbPlotSettings
  1

  2

  4

  6

 40
0.0
 41
0.0
 42
0.0
 43
0.0
 44
0.0
 45
0.0
 46
0.0
 47
0.0
 48
0.0
 49
0.0
140
0.0
141
0.0
142
1.0
143
1.0
 70
   688
 72
     0
 73
     0
 74
     5
  7

 75
    16
147
1.0
 76
     0
 77
     2
 78
   300
148
0.0
149
0.0
100
AcDbLayout
  1
Layout1
 70
     1
 71
     1
 10
0.0
 20
0.0
 11
990.0
 21
700.0
 12
0.0
 22
0.0
 32
0.0
 14
0.0
 24
0.0
 34
0.0
 15
990.0
 25
700.0
 35
0.0
146
0.0
 13
0.0
 23
0.0
 33
0.0
 16
1.0
 26
0.0
 36
0.0
 17
0.0
 27
1.0
 37
0.0
 76
     0
330
68
  0
LAYOUT
  5
73
102
{ACAD_REACTORS
330
62
102
}
330
62
100
AcDbPlotSettings
  1

  2

  4

  6

 40
0.0
 41
0.0
 42
0.0
 43
0.0
 44
0.0
 45
0.0
 46
0.0
 47
0.0
 48
0.0
 49
0.0
140
0.0
141
0.0
142
1.0
143
1.0
 70
   688
 72
     0
 73
     0
 74
     5
  7

 75
    16
147
1.0
 76
     0
 77
     2
 78
   300
148
0.0
149
0.0
100
AcDbLayout
  1
Layout2
 70
     1
 71
     2
 10
0.0
 20
0.0
 11
12.0
 21
9.0
 12
0.0
 22
0.0
 32
0.0
 14
0.0
 24
0.0
 34
0.0
 15
0.0
 25
0.0
 35
0.0
146
0.0
 13
0.0
 23
0.0
 33
0.0
 16
1.0
 26
0.0
 36
0.0
 17
0.0
 27
1.0
 37
0.0
 76
     0
330
70
  0
LAYOUT
  5
6F
102
{ACAD_REACTORS
330
62
102
}
330
62
100
AcDbPlotSettings
  1

  2

  4

  6

 40
0.0
 41
0.0
 42
0.0
 43
0.0
 44
0.0
 45
0.0
 46
0.0
 47
0.0
 48
0.0
 49
0.0
140
0.0
141
0.0
142
1.0
143
1.0
 70
  1712
 72
     0
 73
     0
 74
     0
  7

 75
     0
147
1.0
 76
     0
 77
     2
 78
   300
148
0.0
149
0.0
100
AcDbLayout
  1
Model
 70
     1
 71
     0
 10
0.0
 20
0.0
 11
12.0
 21
9.0
 12
0.0
 22
0.0
 32
0.0
 14
0.0
 24
0.0
 34
0.0
 15
0.0
 25
0.0
 35
0.0
146
0.0
 13
0.0
 23
0.0
 33
0.0
 16
1.0
 26
0.0
 36
0.0
 17
0.0
 27
1.0
 37
0.0
 76
     0
330
6C
331
57
  0
MATERIAL
  5
19
102
{ACAD_XDICTIONARY
360
1A
102
}
102
{ACAD_REACTORS
330
10
102
}
330
10
100
AcDbMaterial
  1
ByBlock
 72
     0
 43
0.0208333333333333
 43
0.0
 43
0.0
 43
0.0
 43
0.0
 43
0.0208333333333333
 43
0.0
 43
0.0
 43
0.0
 43
0.0
 43
1.0
 43
0.0
 43
0.0
 43
0.0
 43
0.0
 43
1.0
 77
     0
 47
0.0208333333333333
 47
0.0
 47
0.0
 47
0.0
 47
0.0
 47
0.0208333333333333
 47
0.0
 47
0.0
 47
0.0
 47
0.0
 47
1.0
 47
0.0
 47
0.0
 47
0.0
 47
0.0
 47
1.0
171
     0
 49
0.0208333333333333
 49
0.0
 49
0.0
 49
0.0
 49
0.0
 49
0.0208333333333333
 49
0.0
 49
0.0
 49
0.0
 49
0.0
 49
1.0
 49
0.0
 49
0.0
 49
0.0
 49
0.0
 49
1.0
175
     0
142
0.0208333333333333
142
0.0
142
0.0
142
0.0
142
0.0
142
0.0208333333333333
142
0.0
142
0.0
142
0.0
142
0.0
142
1.0
142
0.0
142
0.0
142
0.0
142
0.0
142
1.0
179
     0
144
0.0208333333333333
144
0.0
144
0.0
144
0.0
144
0.0
144
0.0208333333333333
144
0.0
144
0.0
144
0.0
144
0.0
144
1.0
144
0.0
144
0.0
144
0.0
144
0.0
144
1.0
147
0.0208333333333333
147
0.0
147
0.0
147
0.0
147
0.0
147
0.0208333333333333
147
0.0
147
0.0
147
0.0
147
0.0
147
1.0
147
0.0
147
0.0
147
0.0
147
0.0
147
1.0
  0
MATERIAL
  5
11
102
{ACAD_XDICTIONARY
360
12
102
}
102
{ACAD_REACTORS
330
10
102
}
330
10
100
AcDbMaterial
  1
ByLayer
 72
     0
 43
0.0208333333333333
 43
0.0
 43
0.0
 43
0.0
 43
0.0
 43
0.0208333333333333
 43
0.0
 43
0.0
 43
0.0
 43
0.0
 43
1.0
 43
0.0
 43
0.0
 43
0.0
 43
0.0
 43
1.0
 77
     0
 47
0.0208333333333333
 47
0.0
 47
0.0
 47
0.0
 47
0.0
 47
0.0208333333333333
 47
0.0
 47
0.0
 47
0.0
 47
0.0
 47
1.0
 47
0.0
 47
0.0
 47
0.0
 47
0.0
 47
1.0
171
     0
 49
0.0208333333333333
 49
0.0
 49
0.0
 49
0.0
 49
0.0
 49
0.0208333333333333
 49
0.0
 49
0.0
 49
0.0
 49
0.0
 49
1.0
 49
0.0
 49
0.0
 49
0.0
 49
0.0
 49
1.0
175
     0
142
0.0208333333333333
142
0.0
142
0.0
142
0.0
142
0.0
142
0.0208333333333333
142
0.0
142
0.0
142
0.0
142
0.0
142
1.0
142
0.0
142
0.0
142
0.0
142
0.0
142
1.0
179
     0
144
0.0208333333333333
144
0.0
144
0.0
144
0.0
144
0.0
144
0.0208333333333333
144
0.0
144
0.0
144
0.0
144
0.0
144
1.0
144
0.0
144
0.0
144
0.0
144
0.0
144
1.0
147
0.0208333333333333
147
0.0
147
0.0
147
0.0
147
0.0
147
0.0208333333333333
147
0.0
147
0.0
147
0.0
147
0.0
147
1.0
147
0.0
147
0.0
147
0.0
147
0.0
147
1.0
  0
MATERIAL
  5
21
102
{ACAD_XDICTIONARY
360
22
102
}
102
{ACAD_REACTORS
330
10
102
}
330
10
100
AcDbMaterial
  1
Global
 72
     0
 43
0.0208333333333333
 43
0.0
 43
0.0
 43
0.0
 43
0.0
 43
0.0208333333333333
 43
0.0
 43
0.0
 43
0.0
 43
0.0
 43
1.0
 43
0.0
 43
0.0
 43
0.0
 43
0.0
 43
1.0
 77
     0
 47
0.0208333333333333
 47
0.0
 47
0.0
 47
0.0
 47
0.0
 47
0.0208333333333333
 47
0.0
 47
0.0
 47
0.0
 47
0.0
 47
1.0
 47
0.0
 47
0.0
 47
0.0
 47
0.0
 47
1.0
171
     0
 49
0.0208333333333333
 49
0.0
 49
0.0
 49
0.0
 49
0.0
 49
0.0208333333333333
 49
0.0
 49
0.0
 49
0.0
 49
0.0
 49
1.0
 49
0.0
 49
0.0
 49
0.0
 49
0.0
 49
1.0
175
     0
142
0.0208333333333333
142
0.0
142
0.0
142
0.0
142
0.0
142
0.0208333333333333
142
0.0
142
0.0
142
0.0
142
0.0
142
1.0
142
0.0
142
0.0
142
0.0
142
0.0
142
1.0
179
     0
144
0.0208333333333333
144
0.0
144
0.0
144
0.0
144
0.0
144
0.0208333333333333
144
0.0
144
0.0
144
0.0
144
0.0
144
1.0
144
0.0
144
0.0
144
0.0
144
0.0
144
1.0
147
0.0208333333333333
147
0.0
147
0.0
147
0.0
147
0.0
147
0.0208333333333333
147
0.0
147
0.0
147
0.0
147
0.0
147
1.0
147
0.0
147
0.0
147
0.0
147
0.0
147
1.0
  0
MLEADERSTYLE
  5
67
102
{ACAD_REACTORS
330
66
102
}
330
66
100
AcDbMLeaderStyle
170
     2
171
     1
172
     0
 90
        2
 40
0.0
 41
0.0
173
     1
 91
-1056964608
340
5B
 92
       -2
290
     1
 42
0.09
291
     1
 43
0.36
  3
Standard
 44
0.18
300

342
55
174
     1
178
     6
175
     1
176
     0
 93
-1056964608
 45
0.18
292
     0
297
     0
 46
0.18
 94
-1056964608
 47
1.0
 49
1.0
140
1.0
293
     1
141
0.0
294
     1
177
     0
142
1.0
295
     0
296
     0
143
0.125
1001
ACAD_MLEADERVER
1070
     2
  0
MLINESTYLE
  5
60
102
{ACAD_REACTORS
330
5F
102
}
330
5F
100
AcDbMlineStyle
  2
STANDARD
 70
     0
  3

 62
   256
 51
90.0
 52
90.0
 71
     2
 49
0.5
 62
   256
  6
BYLAYER
 49
-0.5
 62
   256
  6
BYLAYER
  0
ACDBPLACEHOLDER
  5
F
102
{ACAD_REACTORS
330
E
102
}
330
E
  0
SCALE
  5
43
102
{ACAD_REACTORS
330
42
102
}
330
42
100
AcDbScale
 70
     0
300
1:1
140
1.0
141
1.0
290
     1
  0
SCALE
  5
44
102
{ACAD_REACTORS
330
42
102
}
330
42
100
AcDbScale
 70
     0
300
1/128" = 1'-0"
140
0.0078125
141
12.0
290
     0
  0
SCALE
  5
45
102
{ACAD_REACTORS
330
42
102
}
330
42
100
AcDbScale
 70
     0
300
1/64" = 1'-0"
140
0.015625
141
12.0
290
     0
  0
SCALE
  5
46
102
{ACAD_REACTORS
330
42
102
}
330
42
100
AcDbScale
 70
     0
300
1/32" = 1'-0"
140
0.03125
141
12.0
290
     0
  0
SCALE
  5
47
102
{ACAD_REACTORS
330
42
102
}
330
42
100
AcDbScale
 70
     0
300
1/16" = 1'-0"
140
0.0625
141
12.0
290
     0
  0
SCALE
  5
48
102
{ACAD_REACTORS
330
42
102
}
330
42
100
AcDbScale
 70
     0
300
3/32" = 1'-0"
140
0.09375
141
12.0
290
     0
  0
SCALE
  5
49
102
{ACAD_REACTORS
330
42
102
}
330
42
100
AcDbScale
 70
     0
300
1/8" = 1'-0"
140
0.125
141
12.0
290
     0
  0
SCALE
  5
4A
102
{ACAD_REACTORS
330
42
102
}
330
42
100
AcDbScale
 70
     0
300
3/16" = 1'-0"
140
0.1875
141
12.0
290
     0
  0
SCALE
  5
4B
102
{ACAD_REACTORS
330
42
102
}
330
42
100
AcDbScale
 70
     0
300
1/4" = 1'-0"
140
0.25
141
12.0
290
     0
  0
SCALE
  5
4C
102
{ACAD_REACTORS
330
42
102
}
330
42
100
AcDbScale
 70
     0
300
3/8" = 1'-0"
140
0.375
141
12.0
290
     0
  0
SCALE
  5
4D
102
{ACAD_REACTORS
330
42
102
}
330
42
100
AcDbScale
 70
     0
300
1/2" = 1'-0"
140
0.5
141
12.0
290
     0
  0
SCALE
  5
4E
102
{ACAD_REACTORS
330
42
102
}
330
42
100
AcDbScale
 70
     0
300
3/4" = 1'-0"
140
0.75
141
12.0
290
     0
  0
SCALE
  5
4F
102
{ACAD_REACTORS
330
42
102
}
330
42
100
AcDbScale
 70
     0
300
1" = 1'-0"
140
1.0
141
12.0
290
     0
  0
SCALE
  5
50
102
{ACAD_REACTORS
330
42
102
}
330
42
100
AcDbScale
 70
     0
300
1-1/2" = 1'-0"
140
1.5
141
12.0
290
     0
  0
SCALE
  5
51
102
{ACAD_REACTORS
330
42
102
}
330
42
100
AcDbScale
 70
     0
300
3" = 1'-0"
140
3.0
141
12.0
290
     0
  0
SCALE
  5
52
102
{ACAD_REACTORS
330
42
102
}
330
42
100
AcDbScale
 70
     0
300
6" = 1'-0"
140
6.0
141
12.0
290
     0
  0
SCALE
  5
53
102
{ACAD_REACTORS
330
42
102
}
330
42
100
AcDbScale
 70
     0
300
1'-0" = 1'-0"
140
12.0
141
12.0
290
     0
  0
TABLESTYLE
  5
65
102
{ACAD_XDICTIONARY
360
92F
102
}
102
{ACAD_REACTORS
330
64
102
}
330
64
100
AcDbTableStyle
  3
Standard
 70
     0
 71
     0
 40
0.06
 41
0.06
280
     0
281
     0
  7
Standard
140
0.18
170
     2
 62
     0
 63
     7
283
     0
274
    -2
284
     1
 64
     0
275
    -2
285
     1
 65
     0
276
    -2
286
     1
 66
     0
277
    -2
287
     1
 67
     0
278
    -2
288
     1
 68
     0
279
    -2
289
     1
 69
     0
  7
Standard
140
0.25
170
     5
 62
     0
 63
     7
283
     0
274
    -2
284
     1
 64
     0
275
    -2
285
     1
 65
     0
276
    -2
286
     1
 66
     0
277
    -2
287
     1
 67
     0
278
    -2
288
     1
 68
     0
279
    -2
289
     1
 69
     0
  7
Standard
140
0.18
170
     5
 62
     0
 63
     7
283
     0
274
    -2
284
     1
 64
     0
275
    -2
285
     1
 65
     0
276
    -2
286
     1
 66
     0
277
    -2
287
     1
 67
     0
278
    -2
288
     1
 68
     0
279
    -2
289
     1
 69
     0
  0
VISUALSTYLE
  5
2F
102
{ACAD_XDICTIONARY
360
979
102
}
102
{ACAD_REACTORS
330
29
102
}
330
29
100
AcDbVisualStyle
  2
2dWireframe
 70
     4
 71
     0
 72
     2
 73
     0
 90
        0
 40
-0.6
 41
-30.0
 62
     5
 63
     7
421
 16777215
 74
     1
 91
        4
 64
     7
 65
   257
 75
     1
175
     1
 42
1.0
 92
        0
 66
   257
 43
1.0
 76
     1
 77
     6
 78
     2
 67
     7
 79
     5
170
     0
171
     0
290
     0
174
     0
 93
        1
 44
0.0
173
     0
291
     0
 45
0.0
1001
ACAD
1000
AcDbSavedByObjectVersion
1070
     0
  0
VISUALSTYLE
  5
9CE
102
{ACAD_XDICTIONARY
360
2826
102
}
102
{ACAD_REACTORS
330
29
102
}
330
29
100
AcDbVisualStyle
  2
3D Hidden
 70
     6
 71
     1
 72
     2
 73
     2
 90
        0
 40
-0.6
 41
-30.0
 62
     5
 63
     7
421
 16777215
 74
     2
 91
        2
 64
     7
 65
   257
 75
     2
175
     1
 42
179.0
 92
        0
 66
   257
 43
1.0
 76
     1
 77
     6
 78
     2
 67
     7
 79
     3
170
     0
171
     0
290
     0
174
     0
 93
        1
 44
0.0
173
     0
291
     0
 45
0.0
1001
ACAD
1000
AcDbSavedByObjectVersion
1070
     0
  0
VISUALSTYLE
  5
9CD
102
{ACAD_XDICTIONARY
360
2824
102
}
102
{ACAD_REACTORS
330
29
102
}
330
29
100
AcDbVisualStyle
  2
3dWireframe
 70
     5
 71
     0
 72
     2
 73
     0
 90
        0
 40
-0.6
 41
-30.0
 62
     5
 63
     7
421
 16777215
 74
     1
 91
        4
 64
     7
 65
   257
 75
     1
175
     1
 42
1.0
 92
        0
 66
   257
 43
1.0
 76
     1
 77
     6
 78
     2
 67
     7
 79
     5
170
     0
171
     0
290
     0
174
     0
 93
        1
 44
0.0
173
     0
291
     0
 45
0.0
1001
ACAD
1000
AcDbSavedByObjectVersion
1070
     0
  0
VISUALSTYLE
  5
2E
102
{ACAD_XDICTIONARY
360
977
102
}
102
{ACAD_REACTORS
330
29
102
}
330
29
100
AcDbVisualStyle
  2
Basic
 70
     7
 71
     1
 72
     0
 73
     1
 90
        0
 40
-0.6
 41
-30.0
 62
     5
 63
     7
421
 16777215
 74
     0
 91
        4
 64
     7
 65
   257
 75
     1
175
     1
 42
1.0
 92
        8
 66
     7
 43
1.0
 76
     1
 77
     6
 78
     2
 67
     7
 79
     5
170
     0
171
     0
290
     0
174
     0
 93
        1
 44
0.0
173
     0
291
     1
 45
0.0
1001
ACAD
1000
AcDbSavedByObjectVersion
1070
     0
  0
VISUALSTYLE
  5
35
102
{ACAD_XDICTIONARY
360
985
102
}
102
{ACAD_REACTORS
330
29
102
}
330
29
100
AcDbVisualStyle
  2
Brighten
 70
    12
 71
     2
 72
     2
 73
     0
 90
        0
 40
-0.6
 41
-30.0
 62
     5
 63
     7
421
 16777215
 74
     1
 91
        4
 64
     7
 65
   257
 75
     1
175
     1
 42
1.0
 92
        8
 66
     7
 43
1.0
 76
     1
 77
     6
 78
     2
 67
     7
 79
     5
170
     0
171
     0
290
     0
174
     0
 93
        1
 44
50.0
173
     0
291
     1
 45
0.0
1001
ACAD
1000
AcDbSavedByObjectVersion
1070
     0
  0
VISUALSTYLE
  5
39
102
{ACAD_XDICTIONARY
360
98D
102
}
102
{ACAD_REACTORS
330
29
102
}
330
29
100
AcDbVisualStyle
  2
ColorChange
 70
    16
 71
     2
 72
     2
 73
     3
 90
        0
 40
-0.6
 41
-30.0
 62
     5
 63
     8
421
  8421504
 74
     1
 91
        4
 64
     7
 65
   257
 75
     1
175
     1
 42
1.0
 92
        8
 66
     8
424
  8421504
 43
1.0
 76
     1
 77
     6
 78
     2
 67
     7
 79
     5
170
     0
171
     0
290
     0
174
     0
 93
        1
 44
0.0
173
     0
291
     1
 45
0.0
1001
ACAD
1000
AcDbSavedByObjectVersion
1070
     0
  0
VISUALSTYLE
  5
32
102
{ACAD_XDICTIONARY
360
97F
102
}
102
{ACAD_REACTORS
330
29
102
}
330
29
100
AcDbVisualStyle
  2
Conceptual
 70
     9
 71
     3
 72
     2
 73
     0
 90
        0
 40
-0.6
 41
-30.0
 62
     5
 63
     7
421
 16777215
 74
     2
 91
        2
 64
     7
 65
   257
 75
     1
175
     1
 42
179.0
 92
        8
 66
     7
 43
1.0
 76
     1
 77
     6
 78
     2
 67
     7
 79
     3
170
     0
171
     0
290
     0
174
     0
 93
        1
 44
0.0
173
     0
291
     0
 45
0.0
1001
ACAD
1000
AcDbSavedByObjectVersion
1070
     0
  0
VISUALSTYLE
  5
34
102
{ACAD_XDICTIONARY
360
983
102
}
102
{ACAD_REACTORS
330
29
102
}
330
29
100
AcDbVisualStyle
  2
Dim
 70
    11
 71
     2
 72
     2
 73
     0
 90
        0
 40
-0.6
 41
-30.0
 62
     5
 63
     7
421
 16777215
 74
     1
 91
        4
 64
     7
 65
   257
 75
     1
175
     1
 42
1.0
 92
        8
 66
     7
 43
1.0
 76
     1
 77
     6
 78
     2
 67
     7
 79
     5
170
     0
171
     0
290
     0
174
     0
 93
        1
 44
-50.0
173
     0
291
     1
 45
0.0
1001
ACAD
1000
AcDbSavedByObjectVersion
1070
     0
  0
VISUALSTYLE
  5
41
102
{ACAD_XDICTIONARY
360
99D
102
}
102
{ACAD_REACTORS
330
29
102
}
330
29
100
AcDbVisualStyle
  2
EdgeColorOff
 70
    22
 71
     2
 72
     2
 73
     0
 90
        0
 40
-0.6
 41
-30.0
 62
     5
 63
     7
421
 16777215
 74
     1
 91
        4
 64
     7
 65
   257
 75
     1
175
     1
 42
1.0
 92
        8
 66
     7
 43
1.0
 76
     1
 77
     6
 78
     2
 67
     7
 79
     5
170
     0
171
     0
290
     0
174
     0
 93
        1
 44
0.0
173
     0
291
     1
 45
0.0
1001
ACAD
1000
AcDbSavedByObjectVersion
1070
     0
  0
VISUALSTYLE
  5
38
102
{ACAD_XDICTIONARY
360
98B
102
}
102
{ACAD_REACTORS
330
29
102
}
330
29
100
AcDbVisualStyle
  2
Facepattern
 70
    15
 71
     2
 72
     2
 73
     0
 90
        0
 40
-0.6
 41
-30.0
 62
     5
 63
     7
421
 16777215
 74
     1
 91
        4
 64
     7
 65
   257
 75
     1
175
     1
 42
1.0
 92
        8
 66
     7
 43
1.0
 76
     1
 77
     6
 78
     2
 67
     7
 79
     5
170
     0
171
     0
290
     0
174
     0
 93
        1
 44
0.0
173
     0
291
     1
 45
0.0
1001
ACAD
1000
AcDbSavedByObjectVersion
1070
     0
  0
VISUALSTYLE
  5
2A
102
{ACAD_XDICTIONARY
360
96F
102
}
102
{ACAD_REACTORS
330
29
102
}
330
29
100
AcDbVisualStyle
  2
Flat
 70
     0
 71
     2
 72
     1
 73
     1
 90
        2
 40
-0.6
 41
30.0
 62
     5
 63
     7
421
 16777215
 74
     0
 91
        0
 64
     7
 65
   257
 75
     1
175
     1
 42
1.0
 92
        8
 66
     7
 43
1.0
 76
     1
 77
     6
 78
     2
 67
     7
 79
     5
170
     0
171
     0
290
     0
174
     0
 93
       13
 44
0.0
173
     0
291
     1
 45
0.0
1001
ACAD
1000
AcDbSavedByObjectVersion
1070
     0
  0
VISUALSTYLE
  5
2B
102
{ACAD_XDICTIONARY
360
971
102
}
102
{ACAD_REACTORS
330
29
102
}
330
29
100
AcDbVisualStyle
  2
FlatWithEdges
 70
     1
 71
     2
 72
     1
 73
     1
 90
        2
 40
-0.6
 41
30.0
 62
     5
 63
     7
421
 16777215
 74
     1
 91
        0
 64
     7
 65
   257
 75
     1
175
     1
 42
1.0
 92
        0
 66
   257
 43
1.0
 76
     1
 77
     6
 78
     2
 67
     7
 79
     5
170
     0
171
     0
290
     0
174
     0
 93
       13
 44
0.0
173
     0
291
     1
 45
0.0
1001
ACAD
1000
AcDbSavedByObjectVersion
1070
     0
  0
VISUALSTYLE
  5
2C
102
{ACAD_XDICTIONARY
360
973
102
}
102
{ACAD_REACTORS
330
29
102
}
330
29
100
AcDbVisualStyle
  2
Gouraud
 70
     2
 71
     2
 72
     2
 73
     1
 90
        2
 40
-0.6
 41
30.0
 62
     5
 63
     7
421
 16777215
 74
     0
 91
        0
 64
     7
 65
   257
 75
     1
175
     1
 42
1.0
 92
        0
 66
     7
 43
1.0
 76
     1
 77
     6
 78
     2
 67
     7
 79
     5
170
     0
171
     0
290
     0
174
     0
 93
       13
 44
0.0
173
     0
291
     1
 45
0.0
1001
ACAD
1000
AcDbSavedByObjectVersion
1070
     0
  0
VISUALSTYLE
  5
2D
102
{ACAD_XDICTIONARY
360
975
102
}
102
{ACAD_REACTORS
330
29
102
}
330
29
100
AcDbVisualStyle
  2
GouraudWithEdges
 70
     3
 71
     2
 72
     2
 73
     1
 90
        2
 40
-0.6
 41
30.0
 62
     5
 63
     7
421
 16777215
 74
     1
 91
        0
 64
     7
 65
   257
 75
     1
175
     1
 42
1.0
 92
        0
 66
   257
 43
1.0
 76
     1
 77
     6
 78
     2
 67
     7
 79
     5
170
     0
171
     0
290
     0
174
     0
 93
       13
 44
0.0
173
     0
291
     1
 45
0.0
1001
ACAD
1000
AcDbSavedByObjectVersion
1070
     0
  0
VISUALSTYLE
  5
31
102
{ACAD_XDICTIONARY
360
97D
102
}
102
{ACAD_REACTORS
330
29
102
}
330
29
100
AcDbVisualStyle
  2
Hidden
 70
     6
 71
     1
 72
     2
 73
     2
 90
        0
 40
-0.6
 41
-30.0
 62
     5
 63
     7
421
 16777215
 74
     2
 91
        2
 64
     7
 65
   257
 75
     2
175
     1
 42
40.0
 92
        0
 66
   257
 43
1.0
 76
     1
 77
     6
 78
     2
 67
     7
 79
     3
170
     0
171
     0
290
     0
174
     0
 93
        1
 44
0.0
173
     0
291
     0
 45
0.0
1001
ACAD
1000
AcDbSavedByObjectVersion
1070
     0
  0
VISUALSTYLE
  5
3F
102
{ACAD_XDICTIONARY
360
999
102
}
102
{ACAD_REACTORS
330
29
102
}
330
29
100
AcDbVisualStyle
  2
JitterOff
 70
    20
 71
     2
 72
     2
 73
     0
 90
        0
 40
-0.6
 41
-30.0
 62
     5
 63
     7
421
 16777215
 74
     1
 91
        4
 64
     7
 65
   257
 75
     1
175
     1
 42
1.0
 92
       10
 66
     7
 43
1.0
 76
     1
 77
     6
 78
     2
 67
     7
 79
     5
170
     0
171
     0
290
     0
174
     0
 93
        1
 44
0.0
173
     0
291
     1
 45
0.0
1001
ACAD
1000
AcDbSavedByObjectVersion
1070
     0
  0
VISUALSTYLE
  5
37
102
{ACAD_XDICTIONARY
360
989
102
}
102
{ACAD_REACTORS
330
29
102
}
330
29
100
AcDbVisualStyle
  2
Linepattern
 70
    14
 71
     2
 72
     2
 73
     0
 90
        0
 40
-0.6
 41
-30.0
 62
     5
 63
     7
421
 16777215
 74
     1
 91
        4
 64
     7
 65
   257
 75
     7
175
     7
 42
1.0
 92
        8
 66
     7
 43
1.0
 76
     1
 77
     6
 78
     2
 67
     7
 79
     5
170
     0
171
     0
290
     0
174
     0
 93
        1
 44
0.0
173
     0
291
     1
 45
0.0
1001
ACAD
1000
AcDbSavedByObjectVersion
1070
     0
  0
VISUALSTYLE
  5
40
102
{ACAD_XDICTIONARY
360
99B
102
}
102
{ACAD_REACTORS
330
29
102
}
330
29
100
AcDbVisualStyle
  2
OverhangOff
 70
    21
 71
     2
 72
     2
 73
     0
 90
        0
 40
-0.6
 41
-30.0
 62
     5
 63
     7
421
 16777215
 74
     1
 91
        4
 64
     7
 65
   257
 75
     1
175
     1
 42
1.0
 92
        9
 66
     7
 43
1.0
 76
     1
 77
     6
 78
     2
 67
     7
 79
     5
170
     0
171
     0
290
     0
174
     0
 93
        1
 44
0.0
173
     0
291
     1
 45
0.0
1001
ACAD
1000
AcDbSavedByObjectVersion
1070
     0
  0
VISUALSTYLE
  5
33
102
{ACAD_XDICTIONARY
360
981
102
}
102
{ACAD_REACTORS
330
29
102
}
330
29
100
AcDbVisualStyle
  2
Realistic
 70
     8
 71
     2
 72
     2
 73
     0
 90
        2
 40
-0.6
 41
30.0
 62
     5
 63
     7
421
 16777215
 74
     0
 91
        0
 64
     7
 65
   257
 75
     1
175
     1
 42
1.0
 92
        8
 66
   257
 43
1.0
 76
     1
 77
     6
 78
     2
 67
     7
 79
     3
170
     0
171
     0
290
     0
174
     0
 93
       13
 44
0.0
173
     0
291
     0
 45
0.0
1001
ACAD
1000
AcDbSavedByObjectVersion
1070
     0
  0
VISUALSTYLE
  5
3E
102
{ACAD_XDICTIONARY
360
997
102
}
102
{ACAD_REACTORS
330
29
102
}
330
29
100
AcDbVisualStyle
  2
Shaded
 70
    27
 71
     2
 72
     2
 73
     1
 90
        2
 40
-0.6
 41
30.0
 62
     5
 63
     7
421
 16777215
 74
     0
 91
        4
 64
     7
 65
   257
 75
     1
175
     1
 42
1.0
 92
        8
 66
   257
 43
1.0
 76
     1
 77
     6
 78
     2
 67
     8
425
  7895160
 79
     3
170
     0
171
     0
290
     0
174
     0
 93
        5
 44
0.0
173
     0
291
     0
 45
0.0
1001
ACAD
1000
AcDbSavedByObjectVersion
1070
     0
  0
VISUALSTYLE
  5
3D
102
{ACAD_XDICTIONARY
360
995
102
}
102
{ACAD_REACTORS
330
29
102
}
330
29
100
AcDbVisualStyle
  2
Shaded with edges
 70
    26
 71
     2
 72
     2
 73
     1
 90
        2
 40
-0.6
 41
30.0
 62
     5
 63
     7
421
 16777215
 74
     1
 91
       10
 64
     7
 65
   257
 75
     2
175
     1
 42
1.0
 92
        8
 66
   257
 43
1.0
 76
     1
 77
     6
 78
     2
 67
     7
 79
     3
170
     0
171
     0
290
     0
174
     0
 93
        5
 44
0.0
173
     0
291
     0
 45
0.0
1001
ACAD
1000
AcDbSavedByObjectVersion
1070
     0
  0
VISUALSTYLE
  5
3A
102
{ACAD_XDICTIONARY
360
98F
102
}
102
{ACAD_REACTORS
330
29
102
}
330
29
100
AcDbVisualStyle
  2
Shades of Gray
 70
    23
 71
     2
 72
     2
 73
     3
 90
        0
 40
-0.6
 41
-30.0
 62
     5
 63
     7
421
 16777215
 74
     2
 91
        2
 64
     7
 65
     7
 75
     1
175
     1
 42
40.0
 92
        8
 66
     7
 43
1.0
 76
     1
 77
     6
 78
     2
 67
     7
 79
     3
170
     0
171
     0
290
     0
174
     0
 93
        1
 44
0.0
173
     0
291
     0
 45
0.0
1001
ACAD
1000
AcDbSavedByObjectVersion
1070
     0
  0
VISUALSTYLE
  5
3B
102
{ACAD_XDICTIONARY
360
991
102
}
102
{ACAD_REACTORS
330
29
102
}
330
29
100
AcDbVisualStyle
  2
Sketchy
 70
    24
 71
     1
 72
     2
 73
     2
 90
        0
 40
-0.6
 41
-30.0
 62
     5
 63
     7
421
 16777215
 74
     2
 91
        2
 64
     7
 65
     7
 75
     1
175
     1
 42
40.0
 92
       11
 66
     7
 43
1.0
 76
     1
 77
     6
 78
     2
 67
     7
 79
     6
170
     0
171
     0
290
     0
174
     0
 93
        1
 44
0.0
173
     0
291
     0
 45
0.0
1001
ACAD
1000
AcDbSavedByObjectVersion
1070
     0
  0
VISUALSTYLE
  5
36
102
{ACAD_XDICTIONARY
360
987
102
}
102
{ACAD_REACTORS
330
29
102
}
330
29
100
AcDbVisualStyle
  2
Thicken
 70
    13
 71
     2
 72
     2
 73
     0
 90
        0
 40
-0.6
 41
-30.0
 62
     5
 63
     7
421
 16777215
 74
     1
 91
        4
 64
     7
 65
   257
 75
     1
175
     1
 42
1.0
 92
       12
 66
     7
 43
1.0
 76
     1
 77
     6
 78
     2
 67
     7
 79
     5
170
     0
171
     0
290
     0
174
     0
 93
        1
 44
0.0
173
     0
291
     1
 45
0.0
1001
ACAD
1000
AcDbSavedByObjectVersion
1070
     0
  0
VISUALSTYLE
  5
30
102
{ACAD_XDICTIONARY
360
97B
102
}
102
{ACAD_REACTORS
330
29
102
}
330
29
100
AcDbVisualStyle
  2
Wireframe
 70
     5
 71
     0
 72
     2
 73
     0
 90
        0
 40
-0.6
 41
-30.0
 62
     5
 63
     7
421
 16777215
 74
     1
 91
        4
 64
     7
 65
   257
 75
     1
175
     1
 42
1.0
 92
        0
 66
   257
 43
1.0
 76
     1
 77
     6
 78
     2
 67
     7
 79
     3
170
     0
171
     0
290
     0
174
     0
 93
        1
 44
0.0
173
     0
291
     0
 45
0.0
1001
ACAD
1000
AcDbSavedByObjectVersion
1070
     0
  0
VISUALSTYLE
  5
3C
102
{ACAD_XDICTIONARY
360
993
102
}
102
{ACAD_REACTORS
330
29
102
}
330
29
100
AcDbVisualStyle
  2
X-Ray
 70
    25
 71
     2
 72
     2
 73
     1
 90
        1
 40
0.5
 41
-30.0
 62
     5
 63
     7
421
 16777215
 74
     1
 91
        0
 64
     7
 65
   257
 75
     1
175
     1
 42
1.0
 92
        8
 66
     7
 43
1.0
 76
     1
 77
     6
 78
     2
 67
     7
 79
     3
170
     0
171
     0
290
     0
174
     0
 93
       13
 44
0.0
173
     0
291
     0
 45
0.0
1001
ACAD
1000
AcDbSavedByObjectVersion
1070
     0
  0
DICTIONARYVAR
  5
9C7
102
{ACAD_REACTORS
330
9C3
102
}
330
9C3
100
DictionaryVariables
280
     0
  1
1:1
  0
DICTIONARYVAR
  5
9C5
102
{ACAD_REACTORS
330
9C3
102
}
330
9C3
100
DictionaryVariables
280
     0
  1
STANDARD
  0
DICTIONARYVAR
  5
9C4
102
{ACAD_REACTORS
330
9C3
102
}
330
9C3
100
DictionaryVariables
280
     0
  1
STANDARD
  0
DICTIONARYVAR
  5
9C9
102
{ACAD_REACTORS
330
9C3
102
}
330
9C3
100
DictionaryVariables
280
     0
  1
0
  0
DICTIONARYVAR
  5
9CA
102
{ACAD_REACTORS
330
9C3
102
}
330
9C3
100
DictionaryVariables
280
     0
  1
0
  0
DICTIONARYVAR
  5
9C8
102
{ACAD_REACTORS
330
9C3
102
}
330
9C3
100
DictionaryVariables
280
     0
  1
2
  0
DICTIONARYVAR
  5
9C6
102
{ACAD_REACTORS
330
9C3
102
}
330
9C3
100
DictionaryVariables
280
     0
  1
1
  0
DICTIONARYVAR
  5
27E9
102
{ACAD_REACTORS
330
9C3
102
}
330
9C3
100
DictionaryVariables
280
     0
  1
2
  0
DICTIONARY
  5
A3E
102
{ACAD_REACTORS
330
A34
102
}
330
A34
100
AcDbDictionary
281
     1
  0
DICTIONARY
  5
1A
330
19
100
AcDbDictionary
280
     1
281
     1
  3
ACAD_XREC_ROUNDTRIP
360
2801
  3
BUMPTILE
360
1C
  3
DIFFUSETILE
360
1B
  3
OPACITYTILE
360
1F
  3
REFLECTIONTILE
360
1E
  3
REFRACTIONTILE
360
20
  3
SPECULARTILE
360
1D
  0
DICTIONARY
  5
12
330
11
100
AcDbDictionary
280
     1
281
     1
  3
ACAD_XREC_ROUNDTRIP
360
2800
  3
BUMPTILE
360
14
  3
DIFFUSETILE
360
13
  3
OPACITYTILE
360
17
  3
REFLECTIONTILE
360
16
  3
REFRACTIONTILE
360
18
  3
SPECULARTILE
360
15
  0
DICTIONARY
  5
22
330
21
100
AcDbDictionary
280
     1
281
     1
  3
ACAD_XREC_ROUNDTRIP
360
2802
  3
BUMPTILE
360
24
  3
DIFFUSETILE
360
23
  3
OPACITYTILE
360
27
  3
REFLECTIONTILE
360
26
  3
REFRACTIONTILE
360
28
  3
SPECULARTILE
360
25
  0
DICTIONARY
  5
92F
330
65
100
AcDbDictionary
280
     1
281
     1
  3
ACAD_ROUNDTRIP_2008_TABLESTYLE_CELLSTYLEMAP
360
27EA
  3
ACAD_XREC_ROUNDTRIP
360
2803
  0
DICTIONARY
  5
979
330
2F
100
AcDbDictionary
280
     1
281
     1
  3
ACAD_XREC_ROUNDTRIP
360
97A
  0
DICTIONARY
  5
2826
330
9CE
100
AcDbDictionary
280
     1
281
     1
  3
ACAD_XREC_ROUNDTRIP
360
2827
  0
DICTIONARY
  5
2824
330
9CD
100
AcDbDictionary
280
     1
281
     1
  3
ACAD_XREC_ROUNDTRIP
360
2825
  0
DICTIONARY
  5
977
330
2E
100
AcDbDictionary
280
     1
281
     1
  3
ACAD_XREC_ROUNDTRIP
360
978
  0
DICTIONARY
  5
985
330
35
100
AcDbDictionary
280
     1
281
     1
  3
ACAD_XREC_ROUNDTRIP
360
986
  0
DICTIONARY
  5
98D
330
39
100
AcDbDictionary
280
     1
281
     1
  3
ACAD_XREC_ROUNDTRIP
360
98E
  0
DICTIONARY
  5
97F
330
32
100
AcDbDictionary
280
     1
281
     1
  3
ACAD_XREC_ROUNDTRIP
360
980
  0
DICTIONARY
  5
983
330
34
100
AcDbDictionary
280
     1
281
     1
  3
ACAD_XREC_ROUNDTRIP
360
984
  0
DICTIONARY
  5
99D
330
41
100
AcDbDictionary
280
     1
281
     1
  3
ACAD_XREC_ROUNDTRIP
360
99E
  0
DICTIONARY
  5
98B
330
38
100
AcDbDictionary
280
     1
281
     1
  3
ACAD_XREC_ROUNDTRIP
360
98C
  0
DICTIONARY
  5
96F
330
2A
100
AcDbDictionary
280
     1
281
     1
  3
ACAD_XREC_ROUNDTRIP
360
970
  0
DICTIONARY
  5
971
330
2B
100
AcDbDictionary
280
     1
281
     1
  3
ACAD_XREC_ROUNDTRIP
360
972
  0
DICTIONARY
  5
973
330
2C
100
AcDbDictionary
280
     1
281
     1
  3
ACAD_XREC_ROUNDTRIP
360
974
  0
DICTIONARY
  5
975
330
2D
100
AcDbDictionary
280
     1
281
     1
  3
ACAD_XREC_ROUNDTRIP
360
976
  0
DICTIONARY
  5
97D
330
31
100
AcDbDictionary
280
     1
281
     1
  3
ACAD_XREC_ROUNDTRIP
360
97E
  0
DICTIONARY
  5
999
330
3F
100
AcDbDictionary
280
     1
281
     1
  3
ACAD_XREC_ROUNDTRIP
360
99A
  0
DICTIONARY
  5
989
330
37
100
AcDbDictionary
280
     1
281
     1
  3
ACAD_XREC_ROUNDTRIP
360
98A
  0
DICTIONARY
  5
99B
330
40
100
AcDbDictionary
280
     1
281
     1
  3
ACAD_XREC_ROUNDTRIP
360
99C
  0
DICTIONARY
  5
981
330
33
100
AcDbDictionary
280
     1
281
     1
  3
ACAD_XREC_ROUNDTRIP
360
982
  0
DICTIONARY
  5
997
330
3E
100
AcDbDictionary
280
     1
281
     1
  3
ACAD_XREC_ROUNDTRIP
360
998
  0
DICTIONARY
  5
995
330
3D
100
AcDbDictionary
280
     1
281
     1
  3
ACAD_XREC_ROUNDTRIP
360
996
  0
DICTIONARY
  5
98F
330
3A
100
AcDbDictionary
280
     1
281
     1
  3
ACAD_XREC_ROUNDTRIP
360
990
  0
DICTIONARY
  5
991
330
3B
100
AcDbDictionary
280
     1
281
     1
  3
ACAD_XREC_ROUNDTRIP
360
992
  0
DICTIONARY
  5
987
330
36
100
AcDbDictionary
280
     1
281
     1
  3
ACAD_XREC_ROUNDTRIP
360
988
  0
DICTIONARY
  5
97B
330
30
100
AcDbDictionary
280
     1
281
     1
  3
ACAD_XREC_ROUNDTRIP
360
97C
  0
DICTIONARY
  5
993
330
3C
100
AcDbDictionary
280
     1
281
     1
  3
ACAD_XREC_ROUNDTRIP
360
994
  0
XRECORD
  5
2801
102
{ACAD_REACTORS
330
1A
102
}
330
1A
100
AcDbXrecord
280
     1
102
MATERIAL
148
0.0
149
0.0
149
0.0
 93
        0
 94
      127
282
     0
 72
     0
 77
     0
171
     0
175
     0
179
     0
273
     0
  0
XRECORD
  5
1C
102
{ACAD_REACTORS
330
1A
102
}
330
1A
100
AcDbXrecord
280
     1
270
     1
271
     1
  0
XRECORD
  5
1B
102
{ACAD_REACTORS
330
1A
102
}
330
1A
100
AcDbXrecord
280
     1
270
     1
271
     1
  0
XRECORD
  5
1F
102
{ACAD_REACTORS
330
1A
102
}
330
1A
100
AcDbXrecord
280
     1
270
     1
271
     1
  0
XRECORD
  5
1E
102
{ACAD_REACTORS
330
1A
102
}
330
1A
100
AcDbXrecord
280
     1
270
     1
271
     1
  0
XRECORD
  5
20
102
{ACAD_REACTORS
330
1A
102
}
330
1A
100
AcDbXrecord
280
     1
270
     1
271
     1
  0
XRECORD
  5
1D
102
{ACAD_REACTORS
330
1A
102
}
330
1A
100
AcDbXrecord
280
     1
270
     1
271
     1
  0
XRECORD
  5
2800
102
{ACAD_REACTORS
330
12
102
}
330
12
100
AcDbXrecord
280
     1
102
MATERIAL
148
0.0
149
0.0
149
0.0
 93
        0
 94
      127
282
     0
 72
     0
 77
     0
171
     0
175
     0
179
     0
273
     0
  0
XRECORD
  5
14
102
{ACAD_REACTORS
330
12
102
}
330
12
100
AcDbXrecord
280
     1
270
     1
271
     1
  0
XRECORD
  5
13
102
{ACAD_REACTORS
330
12
102
}
330
12
100
AcDbXrecord
280
     1
270
     1
271
     1
  0
XRECORD
  5
17
102
{ACAD_REACTORS
330
12
102
}
330
12
100
AcDbXrecord
280
     1
270
     1
271
     1
  0
XRECORD
  5
16
102
{ACAD_REACTORS
330
12
102
}
330
12
100
AcDbXrecord
280
     1
270
     1
271
     1
  0
XRECORD
  5
18
102
{ACAD_REACTORS
330
12
102
}
330
12
100
AcDbXrecord
280
     1
270
     1
271
     1
  0
XRECORD
  5
15
102
{ACAD_REACTORS
330
12
102
}
330
12
100
AcDbXrecord
280
     1
270
     1
271
     1
  0
XRECORD
  5
2802
102
{ACAD_REACTORS
330
22
102
}
330
22
100
AcDbXrecord
280
     1
102
MATERIAL
148
0.0
149
0.0
149
0.0
 93
        0
 94
      127
282
     0
 72
     0
 77
     0
171
     0
175
     0
179
     0
273
     0
  0
XRECORD
  5
24
102
{ACAD_REACTORS
330
22
102
}
330
22
100
AcDbXrecord
280
     1
270
     1
271
     1
  0
XRECORD
  5
23
102
{ACAD_REACTORS
330
22
102
}
330
22
100
AcDbXrecord
280
     1
270
     1
271
     1
  0
XRECORD
  5
27
102
{ACAD_REACTORS
330
22
102
}
330
22
100
AcDbXrecord
280
     1
270
     1
271
     1
  0
XRECORD
  5
26
102
{ACAD_REACTORS
330
22
102
}
330
22
100
AcDbXrecord
280
     1
270
     1
271
     1
  0
XRECORD
  5
28
102
{ACAD_REACTORS
330
22
102
}
330
22
100
AcDbXrecord
280
     1
270
     1
271
     1
  0
XRECORD
  5
25
102
{ACAD_REACTORS
330
22
102
}
330
22
100
AcDbXrecord
280
     1
270
     1
271
     1
  0
CELLSTYLEMAP
  5
27EA
102
{ACAD_REACTORS
330
92F
102
}
330
92F
100
AcDbCellStyleMap
 90
        3
300
CELLSTYLE
  1
TABLEFORMAT_BEGIN
 90
        5
170
     1
 91
        0
 92
    32768
 62
   257
 93
        1
300
CONTENTFORMAT
  1
CONTENTFORMAT_BEGIN
 90
        0
 91
        0
 92
      512
 93
        0
300

 40
0.0
140
1.0
 94
        5
 62
     0
340
55
144
0.25
309
CONTENTFORMAT_END
171
     0
 94
        0
309
TABLEFORMAT_END
  1
CELLSTYLE_BEGIN
 90
        1
 91
        1
300
_TITLE
309
CELLSTYLE_END
300
CELLSTYLE
  1
TABLEFORMAT_BEGIN
 90
        5
170
     1
 91
        0
 92
        0
 62
   257
 93
        1
300
CONTENTFORMAT
  1
CONTENTFORMAT_BEGIN
 90
        0
 91
        0
 92
      512
 93
        0
300

 40
0.0
140
1.0
 94
        5
 62
     0
340
55
144
0.18
309
CONTENTFORMAT_END
171
     0
 94
        0
309
TABLEFORMAT_END
  1
CELLSTYLE_BEGIN
 90
        2
 91
        1
300
_HEADER
309
CELLSTYLE_END
300
CELLSTYLE
  1
TABLEFORMAT_BEGIN
 90
        5
170
     1
 91
        0
 92
        0
 62
   257
 93
        1
300
CONTENTFORMAT
  1
CONTENTFORMAT_BEGIN
 90
        0
 91
        0
 92
      512
 93
        0
300

 40
0.0
140
1.0
 94
        2
 62
     0
340
55
144
0.18
309
CONTENTFORMAT_END
171
     0
 94
        0
309
TABLEFORMAT_END
  1
CELLSTYLE_BEGIN
 90
        3
 91
        2
300
_DATA
309
CELLSTYLE_END
  0
XRECORD
  5
2803
102
{ACAD_REACTORS
330
92F
102
}
330
92F
100
AcDbXrecord
280
     1
102
ACAD_ROUNDTRIP_PRE2007_TABLESTYLE
 90
      512
 91
        0
  1

 92
      512
 93
        0
  2

 94
      512
 95
        0
  3

  0
XRECORD
  5
97A
102
{ACAD_REACTORS
330
979
102
}
330
979
100
AcDbXrecord
280
     1
102
RTVSPropertyOp28
 70
     1
102
RTVSPropertyOp29
 70
     1
102
RTVSPropertyOp30
 70
     1
102
RTVSPropertyOp31
 70
     1
102
RTVSPropertyOp32
 70
     1
102
RTVSPropertyOp0
 70
     1
102
RTVSPropertyOp1
 70
     1
102
RTVSPropertyOp2
 70
     1
102
RTVSPropertyOp3
 70
     1
102
RTVSPropertyOp4
 70
     1
102
RTVSPropertyOp5
 70
     1
102
RTVSPropertyOp6
 70
     1
102
RTVSPropertyOp7
 70
     1
102
RTVSPropertyOp8
 70
     1
102
RTVSPropertyOp9
 70
     1
102
RTVSPropertyOp10
 70
     1
102
RTVSPropertyOp11
 70
     1
102
RTVSPropertyOp12
 70
     1
102
RTVSPropertyOp13
 70
     1
102
RTVSPropertyOp14
 70
     1
102
RTVSPropertyOp15
 70
     1
102
RTVSPropertyOp16
 70
     1
102
RTVSPropertyOp17
 70
     1
102
RTVSPropertyOp18
 70
     1
102
RTVSPropertyOp19
 70
     1
102
RTVSPropertyOp20
 70
     1
102
RTVSPropertyOp21
 70
     1
102
RTVSPropertyOp22
 70
     1
102
RTVSPropertyOp23
 70
     1
102
RTVSPropertyOp24
 70
     1
102
RTVSPropertyOp25
 70
     1
102
RTVSPropertyOp26
 70
     1
102
RTVSPropertyOp27
 70
     1
  0
XRECORD
  5
2827
102
{ACAD_REACTORS
330
2826
102
}
330
2826
100
AcDbXrecord
280
     1
102
RTVSPropertyOp0
 70
     1
102
RTVSPropertyOp1
 70
     1
102
RTVSPropertyOp2
 70
     1
102
RTVSPropertyOp3
 70
     1
102
RTVSPropertyOp4
 70
     1
102
RTVSPropertyOp5
 70
     1
102
RTVSPropertyOp6
 70
     1
102
RTVSPropertyOp7
 70
     1
102
RTVSPropertyOp8
 70
     1
102
RTVSPropertyOp9
 70
     1
102
RTVSPropertyOp10
 70
     1
102
RTVSPropertyOp11
 70
     1
102
RTVSPropertyOp12
 70
     1
102
RTVSPropertyOp13
 70
     1
102
RTVSPropertyOp14
 70
     1
102
RTVSPropertyOp15
 70
     1
102
RTVSPropertyOp16
 70
     1
102
RTVSPropertyOp17
 70
     1
102
RTVSPropertyOp18
 70
     1
102
RTVSPropertyOp19
 70
     1
102
RTVSPropertyOp20
 70
     1
102
RTVSPropertyOp21
 70
     1
102
RTVSPropertyOp22
 70
     1
102
RTVSPropertyOp23
 70
     1
102
RTVSPropertyOp24
 70
     1
102
RTVSPropertyOp25
 70
     1
102
RTVSPropertyOp26
 70
     1
102
RTVSPropertyOp27
 70
     1
  0
XRECORD
  5
2825
102
{ACAD_REACTORS
330
2824
102
}
330
2824
100
AcDbXrecord
280
     1
102
RTVSPropertyOp0
 70
     1
102
RTVSPropertyOp1
 70
     1
102
RTVSPropertyOp2
 70
     1
102
RTVSPropertyOp3
 70
     1
102
RTVSPropertyOp4
 70
     1
102
RTVSPropertyOp5
 70
     1
102
RTVSPropertyOp6
 70
     1
102
RTVSPropertyOp7
 70
     1
102
RTVSPropertyOp8
 70
     1
102
RTVSPropertyOp9
 70
     1
102
RTVSPropertyOp10
 70
     1
102
RTVSPropertyOp11
 70
     1
102
RTVSPropertyOp12
 70
     1
102
RTVSPropertyOp13
 70
     1
102
RTVSPropertyOp14
 70
     1
102
RTVSPropertyOp15
 70
     1
102
RTVSPropertyOp16
 70
     1
102
RTVSPropertyOp17
 70
     1
102
RTVSPropertyOp18
 70
     1
102
RTVSPropertyOp19
 70
     1
102
RTVSPropertyOp20
 70
     1
102
RTVSPropertyOp21
 70
     1
102
RTVSPropertyOp22
 70
     1
102
RTVSPropertyOp23
 70
     1
102
RTVSPropertyOp24
 70
     1
102
RTVSPropertyOp25
 70
     1
102
RTVSPropertyOp26
 70
     1
102
RTVSPropertyOp27
 70
     1
  0
XRECORD
  5
978
102
{ACAD_REACTORS
330
977
102
}
330
977
100
AcDbXrecord
280
     1
102
RTVSPropertyOp28
 70
     1
102
RTVSPropertyOp29
 70
     1
102
RTVSPropertyOp30
 70
     1
102
RTVSPropertyOp31
 70
     1
102
RTVSPropertyOp32
 70
     1
102
RTVSPropertyOp0
 70
     1
102
RTVSPropertyOp1
 70
     1
102
RTVSPropertyOp2
 70
     1
102
RTVSPropertyOp3
 70
     1
102
RTVSPropertyOp4
 70
     1
102
RTVSPropertyOp5
 70
     1
102
RTVSPropertyOp6
 70
     1
102
RTVSPropertyOp7
 70
     1
102
RTVSPropertyOp8
 70
     1
102
RTVSPropertyOp9
 70
     1
102
RTVSPropertyOp10
 70
     1
102
RTVSPropertyOp11
 70
     1
102
RTVSPropertyOp12
 70
     1
102
RTVSPropertyOp13
 70
     1
102
RTVSPropertyOp14
 70
     1
102
RTVSPropertyOp15
 70
     1
102
RTVSPropertyOp16
 70
     1
102
RTVSPropertyOp17
 70
     1
102
RTVSPropertyOp18
 70
     1
102
RTVSPropertyOp19
 70
     1
102
RTVSPropertyOp20
 70
     1
102
RTVSPropertyOp21
 70
     1
102
RTVSPropertyOp22
 70
     1
102
RTVSPropertyOp23
 70
     1
102
RTVSPropertyOp24
 70
     1
102
RTVSPropertyOp25
 70
     1
102
RTVSPropertyOp26
 70
     1
102
RTVSPropertyOp27
 70
     1
  0
XRECORD
  5
986
102
{ACAD_REACTORS
330
985
102
}
330
985
100
AcDbXrecord
280
     1
102
RTVSPropertyOp28
 70
     1
102
RTVSPropertyOp29
 70
     1
102
RTVSPropertyOp30
 70
     1
102
RTVSPropertyOp31
 70
     1
102
RTVSPropertyOp32
 70
     1
102
RTVSPropertyOp0
 70
     1
102
RTVSPropertyOp1
 70
     1
102
RTVSPropertyOp2
 70
     1
102
RTVSPropertyOp3
 70
     1
102
RTVSPropertyOp4
 70
     1
102
RTVSPropertyOp5
 70
     1
102
RTVSPropertyOp6
 70
     1
102
RTVSPropertyOp7
 70
     1
102
RTVSPropertyOp8
 70
     1
102
RTVSPropertyOp9
 70
     1
102
RTVSPropertyOp10
 70
     1
102
RTVSPropertyOp11
 70
     1
102
RTVSPropertyOp12
 70
     1
102
RTVSPropertyOp13
 70
     1
102
RTVSPropertyOp14
 70
     1
102
RTVSPropertyOp15
 70
     1
102
RTVSPropertyOp16
 70
     1
102
RTVSPropertyOp17
 70
     1
102
RTVSPropertyOp18
 70
     1
102
RTVSPropertyOp19
 70
     1
102
RTVSPropertyOp20
 70
     1
102
RTVSPropertyOp21
 70
     1
102
RTVSPropertyOp22
 70
     1
102
RTVSPropertyOp23
 70
     1
102
RTVSPropertyOp24
 70
     1
102
RTVSPropertyOp25
 70
     1
102
RTVSPropertyOp26
 70
     1
102
RTVSPropertyOp27
 70
     1
  0
XRECORD
  5
98E
102
{ACAD_REACTORS
330
98D
102
}
330
98D
100
AcDbXrecord
280
     1
102
RTVSPropertyOp28
 70
     1
102
RTVSPropertyOp29
 70
     1
102
RTVSPropertyOp30
 70
     1
102
RTVSPropertyOp31
 70
     1
102
RTVSPropertyOp32
 70
     1
102
RTVSPropertyOp0
 70
     1
102
RTVSPropertyOp1
 70
     1
102
RTVSPropertyOp2
 70
     1
102
RTVSPropertyOp3
 70
     1
102
RTVSPropertyOp4
 70
     1
102
RTVSPropertyOp5
 70
     1
102
RTVSPropertyOp6
 70
     1
102
RTVSPropertyOp7
 70
     1
102
RTVSPropertyOp8
 70
     1
102
RTVSPropertyOp9
 70
     1
102
RTVSPropertyOp10
 70
     1
102
RTVSPropertyOp11
 70
     1
102
RTVSPropertyOp12
 70
     1
102
RTVSPropertyOp13
 70
     1
102
RTVSPropertyOp14
 70
     1
102
RTVSPropertyOp15
 70
     1
102
RTVSPropertyOp16
 70
     1
102
RTVSPropertyOp17
 70
     1
102
RTVSPropertyOp18
 70
     1
102
RTVSPropertyOp19
 70
     1
102
RTVSPropertyOp20
 70
     1
102
RTVSPropertyOp21
 70
     1
102
RTVSPropertyOp22
 70
     1
102
RTVSPropertyOp23
 70
     1
102
RTVSPropertyOp24
 70
     1
102
RTVSPropertyOp25
 70
     1
102
RTVSPropertyOp26
 70
     1
102
RTVSPropertyOp27
 70
     1
  0
XRECORD
  5
980
102
{ACAD_REACTORS
330
97F
102
}
330
97F
100
AcDbXrecord
280
     1
102
RTVSPropertyOp28
 70
     1
102
RTVSPropertyOp29
 70
     1
102
RTVSPropertyOp30
 70
     1
102
RTVSPropertyOp31
 70
     1
102
RTVSPropertyOp32
 70
     1
102
RTVSPropertyOp0
 70
     1
102
RTVSPropertyOp1
 70
     1
102
RTVSPropertyOp2
 70
     1
102
RTVSPropertyOp3
 70
     1
102
RTVSPropertyOp4
 70
     1
102
RTVSPropertyOp5
 70
     1
102
RTVSPropertyOp6
 70
     1
102
RTVSPropertyOp7
 70
     1
102
RTVSPropertyOp8
 70
     1
102
RTVSPropertyOp9
 70
     1
102
RTVSPropertyOp10
 70
     1
102
RTVSPropertyOp11
 70
     1
102
RTVSPropertyOp12
 70
     1
102
RTVSPropertyOp13
 70
     1
102
RTVSPropertyOp14
 70
     1
102
RTVSPropertyOp15
 70
     1
102
RTVSPropertyOp16
 70
     1
102
RTVSPropertyOp17
 70
     1
102
RTVSPropertyOp18
 70
     1
102
RTVSPropertyOp19
 70
     1
102
RTVSPropertyOp20
 70
     1
102
RTVSPropertyOp21
 70
     1
102
RTVSPropertyOp22
 70
     1
102
RTVSPropertyOp23
 70
     1
102
RTVSPropertyOp24
 70
     1
102
RTVSPropertyOp25
 70
     1
102
RTVSPropertyOp26
 70
     1
102
RTVSPropertyOp27
 70
     1
  0
XRECORD
  5
984
102
{ACAD_REACTORS
330
983
102
}
330
983
100
AcDbXrecord
280
     1
102
RTVSPropertyOp28
 70
     1
102
RTVSPropertyOp29
 70
     1
102
RTVSPropertyOp30
 70
     1
102
RTVSPropertyOp31
 70
     1
102
RTVSPropertyOp32
 70
     1
102
RTVSPropertyOp0
 70
     1
102
RTVSPropertyOp1
 70
     1
102
RTVSPropertyOp2
 70
     1
102
RTVSPropertyOp3
 70
     1
102
RTVSPropertyOp4
 70
     1
102
RTVSPropertyOp5
 70
     1
102
RTVSPropertyOp6
 70
     1
102
RTVSPropertyOp7
 70
     1
102
RTVSPropertyOp8
 70
     1
102
RTVSPropertyOp9
 70
     1
102
RTVSPropertyOp10
 70
     1
102
RTVSPropertyOp11
 70
     1
102
RTVSPropertyOp12
 70
     1
102
RTVSPropertyOp13
 70
     1
102
RTVSPropertyOp14
 70
     1
102
RTVSPropertyOp15
 70
     1
102
RTVSPropertyOp16
 70
     1
102
RTVSPropertyOp17
 70
     1
102
RTVSPropertyOp18
 70
     1
102
RTVSPropertyOp19
 70
     1
102
RTVSPropertyOp20
 70
     1
102
RTVSPropertyOp21
 70
     1
102
RTVSPropertyOp22
 70
     1
102
RTVSPropertyOp23
 70
     1
102
RTVSPropertyOp24
 70
     1
102
RTVSPropertyOp25
 70
     1
102
RTVSPropertyOp26
 70
     1
102
RTVSPropertyOp27
 70
     1
  0
XRECORD
  5
99E
102
{ACAD_REACTORS
330
99D
102
}
330
99D
100
AcDbXrecord
280
     1
102
RTVSPropertyOp28
 70
     0
102
RTVSPropertyOp29
 70
     0
102
RTVSPropertyOp30
 70
     0
102
RTVSPropertyOp31
 70
     0
102
RTVSPropertyOp32
 70
     0
102
RTVSPropertyOp0
 70
     0
102
RTVSPropertyOp1
 70
     0
102
RTVSPropertyOp2
 70
     0
102
RTVSPropertyOp3
 70
     0
102
RTVSPropertyOp4
 70
     0
102
RTVSPropertyOp5
 70
     0
102
RTVSPropertyOp6
 70
     0
102
RTVSPropertyOp7
 70
     0
102
RTVSPropertyOp8
 70
     0
102
RTVSPropertyOp9
 70
     0
102
RTVSPropertyOp10
 70
     0
102
RTVSPropertyOp11
 70
     0
102
RTVSPropertyOp12
 70
     0
102
RTVSPropertyOp13
 70
     0
102
RTVSPropertyOp14
 70
     2
102
RTVSPropertyOp15
 70
     0
102
RTVSPropertyOp16
 70
     0
102
RTVSPropertyOp17
 70
     0
102
RTVSPropertyOp18
 70
     0
102
RTVSPropertyOp19
 70
     0
102
RTVSPropertyOp20
 70
     0
102
RTVSPropertyOp21
 70
     0
102
RTVSPropertyOp22
 70
     0
102
RTVSPropertyOp23
 70
     0
102
RTVSPropertyOp24
 70
     0
102
RTVSPropertyOp25
 70
     0
102
RTVSPropertyOp26
 70
     0
102
RTVSPropertyOp27
 70
     0
  0
XRECORD
  5
98C
102
{ACAD_REACTORS
330
98B
102
}
330
98B
100
AcDbXrecord
280
     1
102
RTVSPropertyOp28
 70
     1
102
RTVSPropertyOp29
 70
     1
102
RTVSPropertyOp30
 70
     1
102
RTVSPropertyOp31
 70
     1
102
RTVSPropertyOp32
 70
     1
102
RTVSPropertyOp0
 70
     1
102
RTVSPropertyOp1
 70
     1
102
RTVSPropertyOp2
 70
     1
102
RTVSPropertyOp3
 70
     1
102
RTVSPropertyOp4
 70
     1
102
RTVSPropertyOp5
 70
     1
102
RTVSPropertyOp6
 70
     1
102
RTVSPropertyOp7
 70
     1
102
RTVSPropertyOp8
 70
     1
102
RTVSPropertyOp9
 70
     1
102
RTVSPropertyOp10
 70
     1
102
RTVSPropertyOp11
 70
     1
102
RTVSPropertyOp12
 70
     1
102
RTVSPropertyOp13
 70
     1
102
RTVSPropertyOp14
 70
     1
102
RTVSPropertyOp15
 70
     1
102
RTVSPropertyOp16
 70
     1
102
RTVSPropertyOp17
 70
     1
102
RTVSPropertyOp18
 70
     1
102
RTVSPropertyOp19
 70
     1
102
RTVSPropertyOp20
 70
     1
102
RTVSPropertyOp21
 70
     1
102
RTVSPropertyOp22
 70
     1
102
RTVSPropertyOp23
 70
     1
102
RTVSPropertyOp24
 70
     1
102
RTVSPropertyOp25
 70
     1
102
RTVSPropertyOp26
 70
     1
102
RTVSPropertyOp27
 70
     1
  0
XRECORD
  5
970
102
{ACAD_REACTORS
330
96F
102
}
330
96F
100
AcDbXrecord
280
     1
102
RTVSPropertyOp28
 70
     1
102
RTVSPropertyOp29
 70
     1
102
RTVSPropertyOp30
 70
     1
102
RTVSPropertyOp31
 70
     1
102
RTVSPropertyOp32
 70
     1
102
RTVSPropertyOp0
 70
     1
102
RTVSPropertyOp1
 70
     1
102
RTVSPropertyOp2
 70
     1
102
RTVSPropertyOp3
 70
     1
102
RTVSPropertyOp4
 70
     1
102
RTVSPropertyOp5
 70
     1
102
RTVSPropertyOp6
 70
     1
102
RTVSPropertyOp7
 70
     1
102
RTVSPropertyOp8
 70
     1
102
RTVSPropertyOp9
 70
     1
102
RTVSPropertyOp10
 70
     1
102
RTVSPropertyOp11
 70
     1
102
RTVSPropertyOp12
 70
     1
102
RTVSPropertyOp13
 70
     1
102
RTVSPropertyOp14
 70
     1
102
RTVSPropertyOp15
 70
     1
102
RTVSPropertyOp16
 70
     1
102
RTVSPropertyOp17
 70
     1
102
RTVSPropertyOp18
 70
     1
102
RTVSPropertyOp19
 70
     1
102
RTVSPropertyOp20
 70
     1
102
RTVSPropertyOp21
 70
     1
102
RTVSPropertyOp22
 70
     1
102
RTVSPropertyOp23
 70
     1
102
RTVSPropertyOp24
 70
     1
102
RTVSPropertyOp25
 70
     1
102
RTVSPropertyOp26
 70
     1
102
RTVSPropertyOp27
 70
     1
  0
XRECORD
  5
972
102
{ACAD_REACTORS
330
971
102
}
330
971
100
AcDbXrecord
280
     1
102
RTVSPropertyOp28
 70
     1
102
RTVSPropertyOp29
 70
     1
102
RTVSPropertyOp30
 70
     1
102
RTVSPropertyOp31
 70
     1
102
RTVSPropertyOp32
 70
     1
102
RTVSPropertyOp0
 70
     1
102
RTVSPropertyOp1
 70
     1
102
RTVSPropertyOp2
 70
     1
102
RTVSPropertyOp3
 70
     1
102
RTVSPropertyOp4
 70
     1
102
RTVSPropertyOp5
 70
     1
102
RTVSPropertyOp6
 70
     1
102
RTVSPropertyOp7
 70
     1
102
RTVSPropertyOp8
 70
     1
102
RTVSPropertyOp9
 70
     1
102
RTVSPropertyOp10
 70
     1
102
RTVSPropertyOp11
 70
     1
102
RTVSPropertyOp12
 70
     1
102
RTVSPropertyOp13
 70
     1
102
RTVSPropertyOp14
 70
     1
102
RTVSPropertyOp15
 70
     1
102
RTVSPropertyOp16
 70
     1
102
RTVSPropertyOp17
 70
     1
102
RTVSPropertyOp18
 70
     1
102
RTVSPropertyOp19
 70
     1
102
RTVSPropertyOp20
 70
     1
102
RTVSPropertyOp21
 70
     1
102
RTVSPropertyOp22
 70
     1
102
RTVSPropertyOp23
 70
     1
102
RTVSPropertyOp24
 70
     1
102
RTVSPropertyOp25
 70
     1
102
RTVSPropertyOp26
 70
     1
102
RTVSPropertyOp27
 70
     1
  0
XRECORD
  5
974
102
{ACAD_REACTORS
330
973
102
}
330
973
100
AcDbXrecord
280
     1
102
RTVSPropertyOp28
 70
     1
102
RTVSPropertyOp29
 70
     1
102
RTVSPropertyOp30
 70
     1
102
RTVSPropertyOp31
 70
     1
102
RTVSPropertyOp32
 70
     1
102
RTVSPropertyOp0
 70
     1
102
RTVSPropertyOp1
 70
     1
102
RTVSPropertyOp2
 70
     1
102
RTVSPropertyOp3
 70
     1
102
RTVSPropertyOp4
 70
     1
102
RTVSPropertyOp5
 70
     1
102
RTVSPropertyOp6
 70
     1
102
RTVSPropertyOp7
 70
     1
102
RTVSPropertyOp8
 70
     1
102
RTVSPropertyOp9
 70
     1
102
RTVSPropertyOp10
 70
     1
102
RTVSPropertyOp11
 70
     1
102
RTVSPropertyOp12
 70
     1
102
RTVSPropertyOp13
 70
     1
102
RTVSPropertyOp14
 70
     1
102
RTVSPropertyOp15
 70
     1
102
RTVSPropertyOp16
 70
     1
102
RTVSPropertyOp17
 70
     1
102
RTVSPropertyOp18
 70
     1
102
RTVSPropertyOp19
 70
     1
102
RTVSPropertyOp20
 70
     1
102
RTVSPropertyOp21
 70
     1
102
RTVSPropertyOp22
 70
     1
102
RTVSPropertyOp23
 70
     1
102
RTVSPropertyOp24
 70
     1
102
RTVSPropertyOp25
 70
     1
102
RTVSPropertyOp26
 70
     1
102
RTVSPropertyOp27
 70
     1
  0
XRECORD
  5
976
102
{ACAD_REACTORS
330
975
102
}
330
975
100
AcDbXrecord
280
     1
102
RTVSPropertyOp28
 70
     1
102
RTVSPropertyOp29
 70
     1
102
RTVSPropertyOp30
 70
     1
102
RTVSPropertyOp31
 70
     1
102
RTVSPropertyOp32
 70
     1
102
RTVSPropertyOp0
 70
     1
102
RTVSPropertyOp1
 70
     1
102
RTVSPropertyOp2
 70
     1
102
RTVSPropertyOp3
 70
     1
102
RTVSPropertyOp4
 70
     1
102
RTVSPropertyOp5
 70
     1
102
RTVSPropertyOp6
 70
     1
102
RTVSPropertyOp7
 70
     1
102
RTVSPropertyOp8
 70
     1
102
RTVSPropertyOp9
 70
     1
102
RTVSPropertyOp10
 70
     1
102
RTVSPropertyOp11
 70
     1
102
RTVSPropertyOp12
 70
     1
102
RTVSPropertyOp13
 70
     1
102
RTVSPropertyOp14
 70
     1
102
RTVSPropertyOp15
 70
     1
102
RTVSPropertyOp16
 70
     1
102
RTVSPropertyOp17
 70
     1
102
RTVSPropertyOp18
 70
     1
102
RTVSPropertyOp19
 70
     1
102
RTVSPropertyOp20
 70
     1
102
RTVSPropertyOp21
 70
     1
102
RTVSPropertyOp22
 70
     1
102
RTVSPropertyOp23
 70
     1
102
RTVSPropertyOp24
 70
     1
102
RTVSPropertyOp25
 70
     1
102
RTVSPropertyOp26
 70
     1
102
RTVSPropertyOp27
 70
     1
  0
XRECORD
  5
97E
102
{ACAD_REACTORS
330
97D
102
}
330
97D
100
AcDbXrecord
280
     1
102
RTVSPropertyOp28
 70
     1
102
RTVSPropertyOp29
 70
     1
102
RTVSPropertyOp30
 70
     1
102
RTVSPropertyOp31
 70
     1
102
RTVSPropertyOp32
 70
     1
102
RTVSPropertyOp0
 70
     1
102
RTVSPropertyOp1
 70
     1
102
RTVSPropertyOp2
 70
     1
102
RTVSPropertyOp3
 70
     1
102
RTVSPropertyOp4
 70
     1
102
RTVSPropertyOp5
 70
     1
102
RTVSPropertyOp6
 70
     1
102
RTVSPropertyOp7
 70
     1
102
RTVSPropertyOp8
 70
     1
102
RTVSPropertyOp9
 70
     1
102
RTVSPropertyOp10
 70
     1
102
RTVSPropertyOp11
 70
     1
102
RTVSPropertyOp12
 70
     1
102
RTVSPropertyOp13
 70
     1
102
RTVSPropertyOp14
 70
     1
102
RTVSPropertyOp15
 70
     1
102
RTVSPropertyOp16
 70
     1
102
RTVSPropertyOp17
 70
     1
102
RTVSPropertyOp18
 70
     1
102
RTVSPropertyOp19
 70
     1
102
RTVSPropertyOp20
 70
     1
102
RTVSPropertyOp21
 70
     1
102
RTVSPropertyOp22
 70
     1
102
RTVSPropertyOp23
 70
     1
102
RTVSPropertyOp24
 70
     1
102
RTVSPropertyOp25
 70
     1
102
RTVSPropertyOp26
 70
     1
102
RTVSPropertyOp27
 70
     1
  0
XRECORD
  5
99A
102
{ACAD_REACTORS
330
999
102
}
330
999
100
AcDbXrecord
280
     1
102
RTVSPropertyOp28
 70
     0
102
RTVSPropertyOp29
 70
     0
102
RTVSPropertyOp30
 70
     0
102
RTVSPropertyOp31
 70
     0
102
RTVSPropertyOp32
 70
     0
102
RTVSPropertyOp0
 70
     0
102
RTVSPropertyOp1
 70
     0
102
RTVSPropertyOp2
 70
     0
102
RTVSPropertyOp3
 70
     0
102
RTVSPropertyOp4
 70
     0
102
RTVSPropertyOp5
 70
     0
102
RTVSPropertyOp6
 70
     0
102
RTVSPropertyOp7
 70
     0
102
RTVSPropertyOp8
 70
     0
102
RTVSPropertyOp9
 70
     0
102
RTVSPropertyOp10
 70
     0
102
RTVSPropertyOp11
 70
     0
102
RTVSPropertyOp12
 70
     0
102
RTVSPropertyOp13
 70
     0
102
RTVSPropertyOp14
 70
     2
102
RTVSPropertyOp15
 70
     0
102
RTVSPropertyOp16
 70
     0
102
RTVSPropertyOp17
 70
     0
102
RTVSPropertyOp18
 70
     0
102
RTVSPropertyOp19
 70
     0
102
RTVSPropertyOp20
 70
     0
102
RTVSPropertyOp21
 70
     0
102
RTVSPropertyOp22
 70
     0
102
RTVSPropertyOp23
 70
     0
102
RTVSPropertyOp24
 70
     0
102
RTVSPropertyOp25
 70
     0
102
RTVSPropertyOp26
 70
     0
102
RTVSPropertyOp27
 70
     0
  0
XRECORD
  5
98A
102
{ACAD_REACTORS
330
989
102
}
330
989
100
AcDbXrecord
280
     1
102
RTVSPropertyOp28
 70
     1
102
RTVSPropertyOp29
 70
     1
102
RTVSPropertyOp30
 70
     1
102
RTVSPropertyOp31
 70
     1
102
RTVSPropertyOp32
 70
     1
102
RTVSPropertyOp0
 70
     1
102
RTVSPropertyOp1
 70
     1
102
RTVSPropertyOp2
 70
     1
102
RTVSPropertyOp3
 70
     1
102
RTVSPropertyOp4
 70
     1
102
RTVSPropertyOp5
 70
     1
102
RTVSPropertyOp6
 70
     1
102
RTVSPropertyOp7
 70
     1
102
RTVSPropertyOp8
 70
     1
102
RTVSPropertyOp9
 70
     1
102
RTVSPropertyOp10
 70
     1
102
RTVSPropertyOp11
 70
     1
102
RTVSPropertyOp12
 70
     1
102
RTVSPropertyOp13
 70
     1
102
RTVSPropertyOp14
 70
     1
102
RTVSPropertyOp15
 70
     1
102
RTVSPropertyOp16
 70
     1
102
RTVSPropertyOp17
 70
     1
102
RTVSPropertyOp18
 70
     1
102
RTVSPropertyOp19
 70
     1
102
RTVSPropertyOp20
 70
     1
102
RTVSPropertyOp21
 70
     1
102
RTVSPropertyOp22
 70
     1
102
RTVSPropertyOp23
 70
     1
102
RTVSPropertyOp24
 70
     1
102
RTVSPropertyOp25
 70
     1
102
RTVSPropertyOp26
 70
     1
102
RTVSPropertyOp27
 70
     1
  0
XRECORD
  5
99C
102
{ACAD_REACTORS
330
99B
102
}
330
99B
100
AcDbXrecord
280
     1
102
RTVSPropertyOp28
 70
     0
102
RTVSPropertyOp29
 70
     0
102
RTVSPropertyOp30
 70
     0
102
RTVSPropertyOp31
 70
     0
102
RTVSPropertyOp32
 70
     0
102
RTVSPropertyOp0
 70
     0
102
RTVSPropertyOp1
 70
     0
102
RTVSPropertyOp2
 70
     0
102
RTVSPropertyOp3
 70
     0
102
RTVSPropertyOp4
 70
     0
102
RTVSPropertyOp5
 70
     0
102
RTVSPropertyOp6
 70
     0
102
RTVSPropertyOp7
 70
     0
102
RTVSPropertyOp8
 70
     0
102
RTVSPropertyOp9
 70
     0
102
RTVSPropertyOp10
 70
     0
102
RTVSPropertyOp11
 70
     0
102
RTVSPropertyOp12
 70
     0
102
RTVSPropertyOp13
 70
     0
102
RTVSPropertyOp14
 70
     2
102
RTVSPropertyOp15
 70
     0
102
RTVSPropertyOp16
 70
     0
102
RTVSPropertyOp17
 70
     0
102
RTVSPropertyOp18
 70
     0
102
RTVSPropertyOp19
 70
     0
102
RTVSPropertyOp20
 70
     0
102
RTVSPropertyOp21
 70
     0
102
RTVSPropertyOp22
 70
     0
102
RTVSPropertyOp23
 70
     0
102
RTVSPropertyOp24
 70
     0
102
RTVSPropertyOp25
 70
     0
102
RTVSPropertyOp26
 70
     0
102
RTVSPropertyOp27
 70
     0
  0
XRECORD
  5
982
102
{ACAD_REACTORS
330
981
102
}
330
981
100
AcDbXrecord
280
     1
102
RTVSPropertyOp28
 70
     1
102
RTVSPropertyOp29
 70
     1
102
RTVSPropertyOp30
 70
     1
102
RTVSPropertyOp31
 70
     1
102
RTVSPropertyOp32
 70
     1
102
RTVSPropertyOp0
 70
     1
102
RTVSPropertyOp1
 70
     1
102
RTVSPropertyOp2
 70
     1
102
RTVSPropertyOp3
 70
     1
102
RTVSPropertyOp4
 70
     1
102
RTVSPropertyOp5
 70
     1
102
RTVSPropertyOp6
 70
     1
102
RTVSPropertyOp7
 70
     1
102
RTVSPropertyOp8
 70
     1
102
RTVSPropertyOp9
 70
     1
102
RTVSPropertyOp10
 70
     1
102
RTVSPropertyOp11
 70
     1
102
RTVSPropertyOp12
 70
     1
102
RTVSPropertyOp13
 70
     1
102
RTVSPropertyOp14
 70
     1
102
RTVSPropertyOp15
 70
     1
102
RTVSPropertyOp16
 70
     1
102
RTVSPropertyOp17
 70
     1
102
RTVSPropertyOp18
 70
     1
102
RTVSPropertyOp19
 70
     1
102
RTVSPropertyOp20
 70
     1
102
RTVSPropertyOp21
 70
     1
102
RTVSPropertyOp22
 70
     1
102
RTVSPropertyOp23
 70
     1
102
RTVSPropertyOp24
 70
     1
102
RTVSPropertyOp25
 70
     1
102
RTVSPropertyOp26
 70
     1
102
RTVSPropertyOp27
 70
     1
  0
XRECORD
  5
998
102
{ACAD_REACTORS
330
997
102
}
330
997
100
AcDbXrecord
280
     1
102
RTVSPropertyOp28
 70
     1
102
RTVSPropertyOp29
 70
     1
102
RTVSPropertyOp30
 70
     1
102
RTVSPropertyOp31
 70
     1
102
RTVSPropertyOp32
 70
     1
102
RTVSPropertyOp0
 70
     1
102
RTVSPropertyOp1
 70
     1
102
RTVSPropertyOp2
 70
     1
102
RTVSPropertyOp3
 70
     1
102
RTVSPropertyOp4
 70
     1
102
RTVSPropertyOp5
 70
     1
102
RTVSPropertyOp6
 70
     1
102
RTVSPropertyOp7
 70
     1
102
RTVSPropertyOp8
 70
     1
102
RTVSPropertyOp9
 70
     1
102
RTVSPropertyOp10
 70
     1
102
RTVSPropertyOp11
 70
     1
102
RTVSPropertyOp12
 70
     1
102
RTVSPropertyOp13
 70
     1
102
RTVSPropertyOp14
 70
     1
102
RTVSPropertyOp15
 70
     1
102
RTVSPropertyOp16
 70
     1
102
RTVSPropertyOp17
 70
     1
102
RTVSPropertyOp18
 70
     1
102
RTVSPropertyOp19
 70
     1
102
RTVSPropertyOp20
 70
     1
102
RTVSPropertyOp21
 70
     1
102
RTVSPropertyOp22
 70
     1
102
RTVSPropertyOp23
 70
     1
102
RTVSPropertyOp24
 70
     1
102
RTVSPropertyOp25
 70
     1
102
RTVSPropertyOp26
 70
     1
102
RTVSPropertyOp27
 70
     1
  0
XRECORD
  5
996
102
{ACAD_REACTORS
330
995
102
}
330
995
100
AcDbXrecord
280
     1
102
RTVSPropertyOp28
 70
     1
102
RTVSPropertyOp29
 70
     1
102
RTVSPropertyOp30
 70
     1
102
RTVSPropertyOp31
 70
     1
102
RTVSPropertyOp32
 70
     1
102
RTVSPropertyOp0
 70
     1
102
RTVSPropertyOp1
 70
     1
102
RTVSPropertyOp2
 70
     1
102
RTVSPropertyOp3
 70
     1
102
RTVSPropertyOp4
 70
     1
102
RTVSPropertyOp5
 70
     1
102
RTVSPropertyOp6
 70
     1
102
RTVSPropertyOp7
 70
     1
102
RTVSPropertyOp8
 70
     1
102
RTVSPropertyOp9
 70
     1
102
RTVSPropertyOp10
 70
     1
102
RTVSPropertyOp11
 70
     1
102
RTVSPropertyOp12
 70
     1
102
RTVSPropertyOp13
 70
     1
102
RTVSPropertyOp14
 70
     1
102
RTVSPropertyOp15
 70
     1
102
RTVSPropertyOp16
 70
     1
102
RTVSPropertyOp17
 70
     1
102
RTVSPropertyOp18
 70
     1
102
RTVSPropertyOp19
 70
     1
102
RTVSPropertyOp20
 70
     1
102
RTVSPropertyOp21
 70
     1
102
RTVSPropertyOp22
 70
     1
102
RTVSPropertyOp23
 70
     1
102
RTVSPropertyOp24
 70
     1
102
RTVSPropertyOp25
 70
     1
102
RTVSPropertyOp26
 70
     1
102
RTVSPropertyOp27
 70
     1
  0
XRECORD
  5
990
102
{ACAD_REACTORS
330
98F
102
}
330
98F
100
AcDbXrecord
280
     1
102
RTVSPropertyOp28
 70
     1
102
RTVSPropertyOp29
 70
     1
102
RTVSPropertyOp30
 70
     1
102
RTVSPropertyOp31
 70
     1
102
RTVSPropertyOp32
 70
     1
102
RTVSPropertyOp0
 70
     1
102
RTVSPropertyOp1
 70
     1
102
RTVSPropertyOp2
 70
     1
102
RTVSPropertyOp3
 70
     1
102
RTVSPropertyOp4
 70
     1
102
RTVSPropertyOp5
 70
     1
102
RTVSPropertyOp6
 70
     1
102
RTVSPropertyOp7
 70
     1
102
RTVSPropertyOp8
 70
     1
102
RTVSPropertyOp9
 70
     1
102
RTVSPropertyOp10
 70
     1
102
RTVSPropertyOp11
 70
     1
102
RTVSPropertyOp12
 70
     1
102
RTVSPropertyOp13
 70
     1
102
RTVSPropertyOp14
 70
     1
102
RTVSPropertyOp15
 70
     1
102
RTVSPropertyOp16
 70
     1
102
RTVSPropertyOp17
 70
     1
102
RTVSPropertyOp18
 70
     1
102
RTVSPropertyOp19
 70
     1
102
RTVSPropertyOp20
 70
     1
102
RTVSPropertyOp21
 70
     1
102
RTVSPropertyOp22
 70
     1
102
RTVSPropertyOp23
 70
     1
102
RTVSPropertyOp24
 70
     1
102
RTVSPropertyOp25
 70
     1
102
RTVSPropertyOp26
 70
     1
102
RTVSPropertyOp27
 70
     1
  0
XRECORD
  5
992
102
{ACAD_REACTORS
330
991
102
}
330
991
100
AcDbXrecord
280
     1
102
RTVSPropertyOp28
 70
     1
102
RTVSPropertyOp29
 70
     1
102
RTVSPropertyOp30
 70
     1
102
RTVSPropertyOp31
 70
     1
102
RTVSPropertyOp32
 70
     1
102
RTVSPropertyOp0
 70
     1
102
RTVSPropertyOp1
 70
     1
102
RTVSPropertyOp2
 70
     1
102
RTVSPropertyOp3
 70
     1
102
RTVSPropertyOp4
 70
     1
102
RTVSPropertyOp5
 70
     1
102
RTVSPropertyOp6
 70
     1
102
RTVSPropertyOp7
 70
     1
102
RTVSPropertyOp8
 70
     1
102
RTVSPropertyOp9
 70
     1
102
RTVSPropertyOp10
 70
     1
102
RTVSPropertyOp11
 70
     1
102
RTVSPropertyOp12
 70
     1
102
RTVSPropertyOp13
 70
     1
102
RTVSPropertyOp14
 70
     1
102
RTVSPropertyOp15
 70
     1
102
RTVSPropertyOp16
 70
     1
102
RTVSPropertyOp17
 70
     1
102
RTVSPropertyOp18
 70
     1
102
RTVSPropertyOp19
 70
     1
102
RTVSPropertyOp20
 70
     1
102
RTVSPropertyOp21
 70
     1
102
RTVSPropertyOp22
 70
     1
102
RTVSPropertyOp23
 70
     1
102
RTVSPropertyOp24
 70
     1
102
RTVSPropertyOp25
 70
     1
102
RTVSPropertyOp26
 70
     1
102
RTVSPropertyOp27
 70
     1
  0
XRECORD
  5
988
102
{ACAD_REACTORS
330
987
102
}
330
987
100
AcDbXrecord
280
     1
102
RTVSPropertyOp28
 70
     1
102
RTVSPropertyOp29
 70
     1
102
RTVSPropertyOp30
 70
     1
102
RTVSPropertyOp31
 70
     1
102
RTVSPropertyOp32
 70
     1
102
RTVSPropertyOp0
 70
     1
102
RTVSPropertyOp1
 70
     1
102
RTVSPropertyOp2
 70
     1
102
RTVSPropertyOp3
 70
     1
102
RTVSPropertyOp4
 70
     1
102
RTVSPropertyOp5
 70
     1
102
RTVSPropertyOp6
 70
     1
102
RTVSPropertyOp7
 70
     1
102
RTVSPropertyOp8
 70
     1
102
RTVSPropertyOp9
 70
     1
102
RTVSPropertyOp10
 70
     1
102
RTVSPropertyOp11
 70
     1
102
RTVSPropertyOp12
 70
     1
102
RTVSPropertyOp13
 70
     1
102
RTVSPropertyOp14
 70
     1
102
RTVSPropertyOp15
 70
     1
102
RTVSPropertyOp16
 70
     1
102
RTVSPropertyOp17
 70
     1
102
RTVSPropertyOp18
 70
     1
102
RTVSPropertyOp19
 70
     1
102
RTVSPropertyOp20
 70
     1
102
RTVSPropertyOp21
 70
     1
102
RTVSPropertyOp22
 70
     1
102
RTVSPropertyOp23
 70
     1
102
RTVSPropertyOp24
 70
     1
102
RTVSPropertyOp25
 70
     1
102
RTVSPropertyOp26
 70
     1
102
RTVSPropertyOp27
 70
     1
  0
XRECORD
  5
97C
102
{ACAD_REACTORS
330
97B
102
}
330
97B
100
AcDbXrecord
280
     1
102
RTVSPropertyOp28
 70
     1
102
RTVSPropertyOp29
 70
     1
102
RTVSPropertyOp30
 70
     1
102
RTVSPropertyOp31
 70
     1
102
RTVSPropertyOp32
 70
     1
102
RTVSPropertyOp0
 70
     1
102
RTVSPropertyOp1
 70
     1
102
RTVSPropertyOp2
 70
     1
102
RTVSPropertyOp3
 70
     1
102
RTVSPropertyOp4
 70
     1
102
RTVSPropertyOp5
 70
     1
102
RTVSPropertyOp6
 70
     1
102
RTVSPropertyOp7
 70
     1
102
RTVSPropertyOp8
 70
     1
102
RTVSPropertyOp9
 70
     1
102
RTVSPropertyOp10
 70
     1
102
RTVSPropertyOp11
 70
     1
102
RTVSPropertyOp12
 70
     1
102
RTVSPropertyOp13
 70
     1
102
RTVSPropertyOp14
 70
     1
102
RTVSPropertyOp15
 70
     1
102
RTVSPropertyOp16
 70
     1
102
RTVSPropertyOp17
 70
     1
102
RTVSPropertyOp18
 70
     1
102
RTVSPropertyOp19
 70
     1
102
RTVSPropertyOp20
 70
     1
102
RTVSPropertyOp21
 70
     1
102
RTVSPropertyOp22
 70
     1
102
RTVSPropertyOp23
 70
     1
102
RTVSPropertyOp24
 70
     1
102
RTVSPropertyOp25
 70
     1
102
RTVSPropertyOp26
 70
     1
102
RTVSPropertyOp27
 70
     1
  0
XRECORD
  5
994
102
{ACAD_REACTORS
330
993
102
}
330
993
100
AcDbXrecord
280
     1
102
RTVSPropertyOp28
 70
     1
102
RTVSPropertyOp29
 70
     1
102
RTVSPropertyOp30
 70
     1
102
RTVSPropertyOp31
 70
     1
102
RTVSPropertyOp32
 70
     1
102
RTVSPropertyOp0
 70
     1
102
RTVSPropertyOp1
 70
     1
102
RTVSPropertyOp2
 70
     1
102
RTVSPropertyOp3
 70
     1
102
RTVSPropertyOp4
 70
     1
102
RTVSPropertyOp5
 70
     1
102
RTVSPropertyOp6
 70
     1
102
RTVSPropertyOp7
 70
     1
102
RTVSPropertyOp8
 70
     1
102
RTVSPropertyOp9
 70
     1
102
RTVSPropertyOp10
 70
     1
102
RTVSPropertyOp11
 70
     1
102
RTVSPropertyOp12
 70
     1
102
RTVSPropertyOp13
 70
     1
102
RTVSPropertyOp14
 70
     1
102
RTVSPropertyOp15
 70
     1
102
RTVSPropertyOp16
 70
     1
102
RTVSPropertyOp17
 70
     1
102
RTVSPropertyOp18
 70
     1
102
RTVSPropertyOp19
 70
     1
102
RTVSPropertyOp20
 70
     1
102
RTVSPropertyOp21
 70
     1
102
RTVSPropertyOp22
 70
     1
102
RTVSPropertyOp23
 70
     1
102
RTVSPropertyOp24
 70
     1
102
RTVSPropertyOp25
 70
     1
102
RTVSPropertyOp26
 70
     1
102
RTVSPropertyOp27
 70
     1
  0
ENDSEC
  0
EOF
