  0
SECTION
  2
HEADER
  9
$ACADVER
  1
AC1018
  9
$ACADMAINTVER
 70
   104
  9
$DWGCODEPAGE
  3
ANSI_1250
  9
$AUTHOR
  1
mkotera
  9
$LASTSAVEDBY
  1
pklepetko
  9
$CUSTOMPROPERTYTAG
  1
Vedoucí
  9
$CUSTOMPROPERTY
  1

  9
$CUSTOMPROPERTYTAG
  1
Společnost
  9
$CUSTOMPROPERTY
  1

  9
$CUSTOMPROPERTYTAG
  1
Kategorie
  9
$CUSTOMPROPERTY
  1

  9
$CUSTOMPROPERTYTAG
  1
Číslo součásti
  9
$CUSTOMPROPERTY
  1
416549
  9
$CUSTOMPROPERTYTAG
  1
Popis
  9
$CUSTOMPROPERTY
  1

  9
$CUSTOMPROPERTYTAG
  1
Projekt
  9
$CUSTOMPROPERTY
  1

  9
$CUSTOMPROPERTYTAG
  1
Kreslil
  9
$CUSTOMPROPERTY
  1
mkotera
  9
$CUSTOMPROPERTYTAG
  1
Schválil
  9
$CUSTOMPROPERTY
  1

  9
$CUSTOMPROPERTYTAG
  1
Zodpovídá
  9
$CUSTOMPROPERTY
  1

  9
$CUSTOMPROPERTYTAG
  1
Nákladové středisko
  9
$CUSTOMPROPERTY
  1

  9
$CUSTOMPROPERTYTAG
  1
Dodavatel
  9
$CUSTOMPROPERTY
  1

  9
$CUSTOMPROPERTYTAG
  1
Uživatelský stav
  9
$CUSTOMPROPERTY
  1

  9
$CUSTOMPROPERTYTAG
  1
Stav návrhu
  9
$CUSTOMPROPERTY
  1
Rozpracováno
  9
$CUSTOMPROPERTYTAG
  1
Zkontroloval
  9
$CUSTOMPROPERTY
  1

  9
$CUSTOMPROPERTYTAG
  1
Techn. kontr. schválil
  9
$CUSTOMPROPERTY
  1

  9
$CUSTOMPROPERTYTAG
  1
Výrobu schválil
  9
$CUSTOMPROPERTY
  1

  9
$CUSTOMPROPERTYTAG
  1
VS_First
  9
$CUSTOMPROPERTY
  1

  9
$CUSTOMPROPERTYTAG
  1
VS_All
  9
$CUSTOMPROPERTY
  1
1:1,
  9
$CUSTOMPROPERTYTAG
  1
Model_Mass_Value
  9
$CUSTOMPROPERTY
  1
,0
  9
$CUSTOMPROPERTYTAG
  1
Model_Mass_Units
  9
$CUSTOMPROPERTY
  1
kg
  9
$CUSTOMPROPERTYTAG
  1
Model_Area_Value
  9
$CUSTOMPROPERTY
  1
2694,0
  9
$CUSTOMPROPERTYTAG
  1
Model_Area_Units
  9
$CUSTOMPROPERTY
  1
mm˛
  9
$CUSTOMPROPERTYTAG
  1
Model_Volume_Value
  9
$CUSTOMPROPERTY
  1
5471,0
  9
$CUSTOMPROPERTYTAG
  1
Model_Volume_Units
  9
$CUSTOMPROPERTY
  1
mmł
  9
$CUSTOMPROPERTYTAG
  1
Model_CogX_Value
  9
$CUSTOMPROPERTY
  1
,0
  9
$CUSTOMPROPERTYTAG
  1
Model_CogY_Value
  9
$CUSTOMPROPERTY
  1
,0
  9
$CUSTOMPROPERTYTAG
  1
Model_CogZ_Value
  9
$CUSTOMPROPERTY
  1
,0
  9
$CUSTOMPROPERTYTAG
  1
Model_Cog_Units
  9
$CUSTOMPROPERTY
  1
mm
  9
$CUSTOMPROPERTYTAG
  1
Model_Ixx_Value
  9
$CUSTOMPROPERTY
  1
,0
  9
$CUSTOMPROPERTYTAG
  1
Model_Iyy_Value
  9
$CUSTOMPROPERTY
  1
,0
  9
$CUSTOMPROPERTYTAG
  1
Model_Izz_Value
  9
$CUSTOMPROPERTY
  1
,0
  9
$CUSTOMPROPERTYTAG
  1
Model_Ixy_Value
  9
$CUSTOMPROPERTY
  1
,0
  9
$CUSTOMPROPERTYTAG
  1
Model_Iyz_Value
  9
$CUSTOMPROPERTY
  1
,0
  9
$CUSTOMPROPERTYTAG
  1
Model_Ixz_Value
  9
$CUSTOMPROPERTY
  1
,0
  9
$CUSTOMPROPERTYTAG
  1
Model_MassMom_Units
  9
$CUSTOMPROPERTY
  1
kg mm˛
  9
$CUSTOMPROPERTYTAG
  1
FirstViewScale
  9
$CUSTOMPROPERTY
  1

  9
$CUSTOMPROPERTYTAG
  1
AllViewScales
  9
$CUSTOMPROPERTY
  1

  9
$CUSTOMPROPERTYTAG
  1
SaveDate
  9
$CUSTOMPROPERTY
  1
09/12/2007
  9
$CUSTOMPROPERTYTAG
  1
SaveTime
  9
$CUSTOMPROPERTY
  1
10:32
  9
$CUSTOMPROPERTYTAG
  1
PaperSize
  9
$CUSTOMPROPERTY
  1
A3
  9
$CUSTOMPROPERTYTAG
  1
DateSaved
  9
$CUSTOMPROPERTY
  1
12.09.2007
  9
$CUSTOMPROPERTYTAG
  1
TimeSaved
  9
$CUSTOMPROPERTY
  1
10:32 dop.
  9
$INSBASE
 10
0.0
 20
0.0
 30
0.0
  9
$EXTMIN
 10
73.23211825130511
 20
51.75158038217535
 30
-0.0015258207003583
  9
$EXTMAX
 10
288.6602793897737
 20
406.5282678986298
 30
0.0000000349246037
  9
$LIMMIN
 10
0.0
 20
0.0
  9
$LIMMAX
 10
630.0
 20
445.5
  9
$ORTHOMODE
 70
     0
  9
$REGENMODE
 70
     1
  9
$FILLMODE
 70
     1
  9
$QTEXTMODE
 70
     0
  9
$MIRRTEXT
 70
     0
  9
$LTSCALE
 40
1.5
  9
$ATTMODE
 70
     1
  9
$TEXTSIZE
 40
0.2
  9
$TRACEWID
 40
0.05
  9
$TEXTSTYLE
  7
Standard
  9
$CLAYER
  8
0
  9
$CELTYPE
  6
ByLayer
  9
$CECOLOR
 62
   256
  9
$CELTSCALE
 40
1.0
  9
$DISPSILH
 70
     0
  9
$DIMSCALE
 40
1.0
  9
$DIMASZ
 40
1.799999999999999
  9
$DIMEXO
 40
0.0625
  9
$DIMDLI
 40
0.38
  9
$DIMRND
 40
0.0
  9
$DIMDLE
 40
0.0
  9
$DIMEXE
 40
0.18
  9
$DIMTP
 40
0.0
  9
$DIMTM
 40
0.0
  9
$DIMTXT
 40
0.3499999940395355
  9
$DIMCEN
 40
0.09
  9
$DIMTSZ
 40
0.0
  9
$DIMTOL
 70
     0
  9
$DIMLIM
 70
     0
  9
$DIMTIH
 70
     1
  9
$DIMTOH
 70
     1
  9
$DIMSE1
 70
     0
  9
$DIMSE2
 70
     0
  9
$DIMTAD
 70
     0
  9
$DIMZIN
 70
     0
  9
$DIMBLK
  1

  9
$DIMASO
 70
     1
  9
$DIMSHO
 70
     1
  9
$DIMPOST
  1

  9
$DIMAPOST
  1

  9
$DIMALT
 70
     0
  9
$DIMALTD
 70
     2
  9
$DIMALTF
 40
25.4
  9
$DIMLFAC
 40
1.0
  9
$DIMTOFL
 70
     0
  9
$DIMTVP
 40
0.0
  9
$DIMTIX
 70
     0
  9
$DIMSOXD
 70
     0
  9
$DIMSAH
 70
     0
  9
$DIMBLK1
  1

  9
$DIMBLK2
  1

  9
$DIMSTYLE
  2
Standard
  9
$DIMCLRD
 70
     0
  9
$DIMCLRE
 70
     0
  9
$DIMCLRT
 70
     0
  9
$DIMTFAC
 40
1.0
  9
$DIMGAP
 40
0.09
  9
$DIMJUST
 70
     0
  9
$DIMSD1
 70
     0
  9
$DIMSD2
 70
     0
  9
$DIMTOLJ
 70
     1
  9
$DIMTZIN
 70
     0
  9
$DIMALTZ
 70
     0
  9
$DIMALTTZ
 70
     0
  9
$DIMUPT
 70
     0
  9
$DIMDEC
 70
     4
  9
$DIMTDEC
 70
     4
  9
$DIMALTU
 70
     2
  9
$DIMALTTD
 70
     2
  9
$DIMTXSTY
  7
Standard
  9
$DIMAUNIT
 70
     0
  9
$DIMADEC
 70
     0
  9
$DIMALTRND
 40
0.0
  9
$DIMAZIN
 70
     0
  9
$DIMDSEP
 70
    46
  9
$DIMATFIT
 70
     3
  9
$DIMFRAC
 70
     0
  9
$DIMLDRBLK
  1

  9
$DIMLUNIT
 70
     2
  9
$DIMLWD
 70
    -2
  9
$DIMLWE
 70
    -2
  9
$DIMTMOVE
 70
     0
  9
$LUNITS
 70
     2
  9
$LUPREC
 70
     4
  9
$SKETCHINC
 40
0.1
  9
$FILLETRAD
 40
0.0
  9
$AUNITS
 70
     0
  9
$AUPREC
 70
     0
  9
$MENU
  1
.
  9
$ELEVATION
 40
0.0
  9
$PELEVATION
 40
0.0
  9
$THICKNESS
 40
0.0
  9
$LIMCHECK
 70
     0
  9
$CHAMFERA
 40
0.0
  9
$CHAMFERB
 40
0.0
  9
$CHAMFERC
 40
0.0
  9
$CHAMFERD
 40
0.0
  9
$SKPOLY
 70
     0
  9
$TDCREATE
 40
2456580.552603669
  9
$TDUCREATE
 40
2456580.469270336
  9
$TDUPDATE
 40
2456581.437317037
  9
$TDUUPDATE
 40
2456581.353983704
  9
$TDINDWG
 40
0.0021382639
  9
$TDUSRTIMER
 40
0.0021382639
  9
$USRTIMER
 70
     1
  9
$ANGBASE
 50
0.0
  9
$ANGDIR
 70
     0
  9
$PDMODE
 70
     0
  9
$PDSIZE
 40
0.0
  9
$PLINEWID
 40
0.0
  9
$SPLFRAME
 70
     0
  9
$SPLINETYPE
 70
     6
  9
$SPLINESEGS
 70
     8
  9
$HANDSEED
  5
80B
  9
$SURFTAB1
 70
     6
  9
$SURFTAB2
 70
     6
  9
$SURFTYPE
 70
     6
  9
$SURFU
 70
     6
  9
$SURFV
 70
     6
  9
$UCSBASE
  2

  9
$UCSNAME
  2

  9
$UCSORG
 10
0.0
 20
0.0
 30
0.0
  9
$UCSXDIR
 10
1.0
 20
0.0
 30
0.0
  9
$UCSYDIR
 10
0.0
 20
1.0
 30
0.0
  9
$UCSORTHOREF
  2

  9
$UCSORTHOVIEW
 70
     0
  9
$UCSORGTOP
 10
0.0
 20
0.0
 30
0.0
  9
$UCSORGBOTTOM
 10
0.0
 20
0.0
 30
0.0
  9
$UCSORGLEFT
 10
0.0
 20
0.0
 30
0.0
  9
$UCSORGRIGHT
 10
0.0
 20
0.0
 30
0.0
  9
$UCSORGFRONT
 10
0.0
 20
0.0
 30
0.0
  9
$UCSORGBACK
 10
0.0
 20
0.0
 30
0.0
  9
$PUCSBASE
  2

  9
$PUCSNAME
  2

  9
$PUCSORG
 10
0.0
 20
0.0
 30
0.0
  9
$PUCSXDIR
 10
1.0
 20
0.0
 30
0.0
  9
$PUCSYDIR
 10
0.0
 20
1.0
 30
0.0
  9
$PUCSORTHOREF
  2

  9
$PUCSORTHOVIEW
 70
     0
  9
$PUCSORGTOP
 10
0.0
 20
0.0
 30
0.0
  9
$PUCSORGBOTTOM
 10
0.0
 20
0.0
 30
0.0
  9
$PUCSORGLEFT
 10
0.0
 20
0.0
 30
0.0
  9
$PUCSORGRIGHT
 10
0.0
 20
0.0
 30
0.0
  9
$PUCSORGFRONT
 10
0.0
 20
0.0
 30
0.0
  9
$PUCSORGBACK
 10
0.0
 20
0.0
 30
0.0
  9
$USERI1
 70
     0
  9
$USERI2
 70
     0
  9
$USERI3
 70
     0
  9
$USERI4
 70
     0
  9
$USERI5
 70
     0
  9
$USERR1
 40
0.0
  9
$USERR2
 40
0.0
  9
$USERR3
 40
0.0
  9
$USERR4
 40
0.0
  9
$USERR5
 40
0.0
  9
$WORLDVIEW
 70
     1
  9
$SHADEDGE
 70
     3
  9
$SHADEDIF
 70
    70
  9
$TILEMODE
 70
     1
  9
$MAXACTVP
 70
    64
  9
$PINSBASE
 10
0.0
 20
0.0
 30
0.0
  9
$PLIMCHECK
 70
     0
  9
$PEXTMIN
 10
0.0
 20
0.0
 30
0.0
  9
$PEXTMAX
 10
630.0
 20
445.5
 30
0.0
  9
$PLIMMIN
 10
0.0
 20
0.0
  9
$PLIMMAX
 10
630.0
 20
445.5
  9
$UNITMODE
 70
     0
  9
$VISRETAIN
 70
     1
  9
$PLINEGEN
 70
     0
  9
$PSLTSCALE
 70
     1
  9
$TREEDEPTH
 70
  3020
  9
$CMLSTYLE
  2
Standard
  9
$CMLJUST
 70
     0
  9
$CMLSCALE
 40
1.0
  9
$PROXYGRAPHICS
 70
     1
  9
$MEASUREMENT
 70
     1
  9
$CELWEIGHT
370
    -1
  9
$ENDCAPS
280
     0
  9
$JOINSTYLE
280
     0
  9
$LWDISPLAY
290
     0
  9
$INSUNITS
 70
     4
  9
$HYPERLINKBASE
  1

  9
$STYLESHEET
  1

  9
$XEDIT
290
     1
  9
$CEPSNTYPE
380
     0
  9
$PSTYLEMODE
290
     1
  9
$FINGERPRINTGUID
  2
{70DD476B-A15A-4DD0-BB76-FC9E52C11C0B}
  9
$VERSIONGUID
  2
{6315AE79-0C3A-4750-AABD-BC4035F577C1}
  9
$EXTNAMES
290
     1
  9
$PSVPSCALE
 40
0.0
  9
$OLESTARTUP
290
     0
  9
$SORTENTS
280
   127
  9
$INDEXCTL
280
     0
  9
$HIDETEXT
280
     1
  9
$XCLIPFRAME
290
     0
  9
$HALOGAP
280
     0
  9
$OBSCOLOR
 70
   257
  9
$OBSLTYPE
280
     0
  9
$INTERSECTIONDISPLAY
280
     0
  9
$INTERSECTIONCOLOR
 70
   257
  9
$DIMASSOC
280
     1
  9
$PROJECTNAME
  1

  0
ENDSEC
  0
SECTION
  2
CLASSES
  0
CLASS
  1
ACDBDICTIONARYWDFLT
  2
AcDbDictionaryWithDefault
  3
ObjectDBX Classes
 90
        0
 91
        1
280
     0
281
     0
  0
CLASS
  1
MATERIAL
  2
AcDbMaterial
  3
ObjectDBX Classes
 90
     1153
 91
        3
280
     0
281
     0
  0
CLASS
  1
VISUALSTYLE
  2
AcDbVisualStyle
  3
ObjectDBX Classes
 90
     4095
 91
       26
280
     0
281
     0
  0
CLASS
  1
SCALE
  2
AcDbScale
  3
ObjectDBX Classes
 90
     1153
 91
       17
280
     0
281
     0
  0
CLASS
  1
TABLESTYLE
  2
AcDbTableStyle
  3
ObjectDBX Classes
 90
     4095
 91
        1
280
     0
281
     0
  0
CLASS
  1
MLEADERSTYLE
  2
AcDbMLeaderStyle
  3
ACDB_MLEADERSTYLE_CLASS
 90
     4095
 91
        1
280
     0
281
     0
  0
CLASS
  1
DICTIONARYVAR
  2
AcDbDictionaryVar
  3
ObjectDBX Classes
 90
        0
 91
        9
280
     0
281
     0
  0
CLASS
  1
ACME_DOCUMENT
  2
AcMeDbDoc
  3
AcMeServices
 90
     1024
 91
        2
280
     0
281
     0
  0
CLASS
  1
AMGSETTINGSOBJ
  2
AmgSettingsObj
  3
"AcadM|Product Description: AutoCAD Mechanical|Company: Autodesk, Inc."
 90
     1024
 91
        2
280
     0
281
     0
  0
CLASS
  1
ACMESCOPE
  2
AcMeScope
  3
AcMeServices
 90
     1024
 91
        1
280
     0
281
     0
  0
CLASS
  1
ACMECOMMANDHISTORY
  2
AcMeCommandHistory
  3
AcMeServices
 90
     1024
 91
        1
280
     0
281
     0
  0
CLASS
  1
ACIMSYSVARMAN
  2
AcImSysVarManager
  3
AcMeServices
 90
     1024
 91
        5
280
     0
281
     0
  0
CLASS
  1
ACIMINTSYSVAR
  2
AcImIntSysVar
  3
AcMeServices
 90
     1024
 91
       27
280
     0
281
     0
  0
CLASS
  1
ACMEDRAWINGMAN
  2
AcMeDrawingMan
  3
AcMeServices
 90
     1024
 91
        1
280
     0
281
     0
  0
CLASS
  1
ACMEVIEW
  2
AcMeView
  3
AcMeServices
 90
     1024
 91
        1
280
     0
281
     0
  0
CLASS
  1
ACDBENTITYCACHE
  2
AcMeEntityCache
  3
AcMeServices
 90
     1024
 91
        1
280
     0
281
     0
  0
CLASS
  1
ACMESTATEMGR
  2
AcMeStateMgr
  3
AcMeServices
 90
     1024
 91
        1
280
     0
281
     0
  0
CLASS
  1
ACGREFMASTER
  2
AcGrefMaster
  3
AcAttribServices
 90
     1024
 91
        1
280
     0
281
     0
  0
CLASS
  1
AM_DRAWING_MGR
  2
AcDmDwgMgr
  3
AcMechDwgViewMgmt
 90
     1024
 91
        1
280
     0
281
     0
  0
CLASS
  1
AM_DWG_DOCUMENT
  2
AcDmDwgDocument
  3
AcMechDwgViewMgmt
 90
     1024
 91
        1
280
     0
281
     0
  0
CLASS
  1
AM_DWG_SHEET
  2
AcDmSheet
  3
AcMechDwgViewMgmt
 90
     1024
 91
        2
280
     0
281
     0
  0
CLASS
  1
AM_VIEWDIMPARMAP
  2
AcDmViewDimParMap
  3
AcMechDwgViewMgmt
 90
     1024
 91
        2
280
     0
281
     0
  0
CLASS
  1
AMDTINTERNALREACTOR
  2
AmdtInternalReactor
  3
AcMeServices
 90
     1024
 91
        1
280
     0
281
     0
  0
CLASS
  1
ACIMREALSYSVAR
  2
AcImRealSysVar
  3
AcMeServices
 90
     1024
 91
        1
280
     0
281
     0
  0
CLASS
  1
AM_DWGMGR_NAME
  2
AcDmDwgMgrName
  3
AcMechDwgViewMgmt
 90
     1024
 91
        1
280
     0
281
     0
  0
CLASS
  1
ACME_DATABASE
  2
AcMeDbDatabase
  3
AcMeServices
 90
     1024
 91
        2
280
     0
281
     0
  0
CLASS
  1
ACRFINSADJUSTERMGR
  2
AcRfInsAdjusterMgr
  3
AcMeServices
 90
     1024
 91
        1
280
     0
281
     0
  0
CLASS
  1
ACGREFACADMASTER
  2
AcGrefacadMaster
  3
AcGrefServices
 90
     1024
 91
        1
280
     0
281
     0
  0
CLASS
  1
AMDTMENUSTATEMGR
  2
AmdtMenuStateMgr
  3
McadcomServices
 90
     1024
 91
        1
280
     0
281
     0
  0
CLASS
  1
AMDTMCOMMENUSTATE
  2
AmdtMcomMenuState
  3
McadcomServices
 90
     1024
 91
        1
280
     0
281
     0
  0
CLASS
  1
AMIMASTER
  2
AmiMaster
  3
AmiServices
 90
     1024
 91
        1
280
     0
281
     0
  0
CLASS
  1
MAPIAMMOUDLE
  2
MApiAmModule
  3
MApiAmServices
 90
     1024
 91
        1
280
     0
281
     0
  0
CLASS
  1
ACIMSTRSYSVAR
  2
AcImStrSysVar
  3
AcMeServices
 90
     1024
 91
        5
280
     0
281
     0
  0
CLASS
  1
AMDTADMENUSTATE
  2
AmdtAdMenuState
  3
DesignerServices
 90
     1024
 91
        1
280
     0
281
     0
  0
CLASS
  1
ADAPPL
  2
AcAdAppl
  3
DesignerServices
 90
     1024
 91
        1
280
     0
281
     0
  0
CLASS
  1
DEPMGR
  2
AcAdDepMgr
  3
DesignerServices
 90
     1024
 91
        1
280
     0
281
     0
  0
CLASS
  1
PARAMMGR
  2
AcAdParamMgr
  3
DesignerServices
 90
     1024
 91
        1
280
     0
281
     0
  0
CLASS
  1
PARAMSCOPE
  2
AcAdParamScope
  3
DesignerServices
 90
     1024
 91
        1
280
     0
281
     0
  0
CLASS
  1
NAMEDAPPL
  2
AcAdNamedAppl
  3
DesignerServices
 90
     1024
 91
        1
280
     0
281
     0
  0
CLASS
  1
AMDTDMMENUSTATE
  2
AmdtDmMenuState
  3
AcMechDwgViewMgmt
 90
     1024
 91
        1
280
     0
281
     0
  0
CLASS
  1
AMDTAMMENUSTATE
  2
AmdtAmMenuState
  3
DesignerAssemblies
 90
     1024
 91
        1
280
     0
281
     0
  0
CLASS
  1
ACAMPROJECT
  2
AcAmProject
  3
DesignerAssemblies
 90
     1024
 91
        1
280
     0
281
     0
  0
CLASS
  1
ACAMGRCOMPDEF
  2
AcAmGrCompDef
  3
DesignerAssemblies
 90
     1024
 91
        1
280
     0
281
     0
  0
CLASS
  1
ACAMCOMPDEF
  2
AcAmCompDef
  3
DesignerAssemblies
 90
     1024
 91
        1
280
     0
281
     0
  0
CLASS
  1
ACAMCOMPDEFMGR
  2
AcAmCompDefMgr
  3
DesignerAssemblies
 90
     1024
 91
        1
280
     0
281
     0
  0
CLASS
  1
AMCONTEXTMGR
  2
AcAmContextMgr
  3
DesignerAssemblies
 90
     1024
 91
        1
280
     0
281
     0
  0
CLASS
  1
ACAMCONTEXTMODELER
  2
AcAmContextModeler
  3
DesignerAssemblies
 90
     1024
 91
        1
280
     0
281
     0
  0
CLASS
  1
ACMDATADICTIONARY
  2
AcmDataDictionary
  3
"AcmSymBB|Product Description: AutoCAD Mechanical|Company: Autodesk, Inc."
 90
     1024
 91
        1
280
     0
281
     0
  0
CLASS
  1
CATALOGSTATE
  2
AcAmCatalogState
  3
DesignerAssemblies
 90
     1024
 91
        1
280
     0
281
     0
  0
CLASS
  1
ACAMGRCOMPDEFSET
  2
AcAmGrCompDefSet
  3
DesignerAssemblies
 90
     1024
 91
        1
280
     0
281
     0
  0
CLASS
  1
AMDTBROWSERDBTAB
  2
AmdtBrowserDbTab
  3
McadcomServices
 90
     1024
 91
        1
280
     0
281
     0
  0
CLASS
  1
CBROWSERAPPOBJECT
  2
CBrowserAppObject
  3
McadcomServices
 90
     1024
 91
        2
280
     0
281
     0
  0
CLASS
  1
DM_PLACEHOLDER
  2
AcDmSelsetPlaceholder
  3
AcMechDwgViewMgmt
 90
     1024
 91
        1
280
     0
281
     0
  0
CLASS
  1
ACMSTANDARDISO
  2
AcmStandardISO
  3
"Amdt_StdImp|Product Description: AutoCAD Mechanical|Company: Autodesk, Inc."
 90
     1024
 91
        1
280
     0
281
     0
  0
CLASS
  1
AMDTEDGESTANDARDISO13715
  2
AmdtEdgeStdISO13715
  3
"Amdt_StdImp|Product Description: AutoCAD Mechanical|Company: Autodesk, Inc."
 90
     1024
 91
        1
280
     0
281
     0
  0
CLASS
  1
ACMSURFSTANDARDISO2002
  2
AcmSurfTextStdISO2002
  3
"Amdt_StdImp|Product Description: AutoCAD Mechanical|Company: Autodesk, Inc."
 90
     1024
 91
        1
280
     0
281
     0
  0
CLASS
  1
ACMFCFSTANDARDISO
  2
AcmFCFStdISO
  3
"Amdt_StdImp|Product Description: AutoCAD Mechanical|Company: Autodesk, Inc."
 90
     1024
 91
        1
280
     0
281
     0
  0
CLASS
  1
ACMWELDSTANDARDISO
  2
AcmWeldingStdISO
  3
"Amdt_StdImp|Product Description: AutoCAD Mechanical|Company: Autodesk, Inc."
 90
     1024
 91
        1
280
     0
281
     0
  0
CLASS
  1
ACMIDSTANDARDISO
  2
AcmIdStdISO
  3
"Amdt_StdImp|Product Description: AutoCAD Mechanical|Company: Autodesk, Inc."
 90
     1024
 91
        1
280
     0
281
     0
  0
CLASS
  1
ACMDATUMSTANDARDISO
  2
AcmDatumStdISO
  3
"Amdt_StdImp|Product Description: AutoCAD Mechanical|Company: Autodesk, Inc."
 90
     1024
 91
        1
280
     0
281
     0
  0
CLASS
  1
ACMBOMSTANDARDISO
  2
AcmBOMStdISO
  3
"Amdt_StdImp|Product Description: AutoCAD Mechanical|Company: Autodesk, Inc."
 90
     1024
 91
        1
280
     0
281
     0
  0
CLASS
  1
ACMDETAILSTANDARDISO
  2
AmdtDetailSymStdISO
  3
"Amdt_StdImp|Product Description: AutoCAD Mechanical|Company: Autodesk, Inc."
 90
     1024
 91
        1
280
     0
281
     0
  0
CLASS
  1
ACMSECTIONSTANDARDISO2001
  2
AmdtSectionSymStdISO2001
  3
"Amdt_StdImp|Product Description: AutoCAD Mechanical|Company: Autodesk, Inc."
 90
     1024
 91
        1
280
     0
281
     0
  0
CLASS
  1
ACMCENTERLINESTANDARDISO
  2
AmdtCenterLineStdISO
  3
"Amdt_StdImp|Product Description: AutoCAD Mechanical|Company: Autodesk, Inc."
 90
     1024
 91
        1
280
     0
281
     0
  0
CLASS
  1
ACMTHREADLINESTANDARDISO
  2
AmdtThreadLineStdISO
  3
"Amdt_StdImp|Product Description: AutoCAD Mechanical|Company: Autodesk, Inc."
 90
     1024
 91
        1
280
     0
281
     0
  0
CLASS
  1
ACMNOTESTANDARDISO
  2
AmdtNoteStdISO
  3
"Amdt_StdImp|Product Description: AutoCAD Mechanical|Company: Autodesk, Inc."
 90
     1024
 91
        1
280
     0
281
     0
  0
CLASS
  1
ACMTAPERSTANDARDISO
  2
AcmTaperStdISO
  3
"Amdt_StdImp|Product Description: AutoCAD Mechanical|Company: Autodesk, Inc."
 90
     1024
 91
        1
280
     0
281
     0
  0
CLASS
  1
ACMANOOTATIONVIEWSTANDARDISO
  2
AmdtAnViewStdISO
  3
"Amdt_StdImp|Product Description: AutoCAD Mechanical|Company: Autodesk, Inc."
 90
     1024
 91
        1
280
     0
281
     0
  0
CLASS
  1
ACAMGLAYSTD
  2
AcAmgLayStd
  3
"AmgLay|Product Description: AutoCAD Mechanical|Company: Autodesk, Inc."
 90
     1024
 91
        1
280
     0
281
     0
  0
CLASS
  1
ACAMGDIMSTD
  2
AcAmgDimStd
  3
"AmgDim|Product Description: AutoCAD Mechanical|Company: Autodesk, Inc."
 90
     1024
 91
        1
280
     0
281
     0
  0
CLASS
  1
AMGOBJPROPCFG
  2
AmgObjPropCfg
  3
"AmgLay|Product Description: AutoCAD Mechanical|Company: Autodesk, Inc."
 90
     1025
 91
        1
280
     0
281
     0
  0
CLASS
  1
ACAMGHOLECHARTSTDISO
  2
AcAmgHoleChartStdISO
  3
AmgDim|Product Description: AutoCAD Mechanical|Company: Autodesk, Inc.
 90
     1024
 91
        1
280
     0
281
     0
  0
CLASS
  1
ACAMGTITLESTD
  2
AcAmgTitleStd
  3
"AmgTitle|Product Description: AutoCAD Mechanical|Company: Autodesk, Inc."
 90
     4095
 91
        1
280
     0
281
     0
  0
CLASS
  1
AMDTNOTETEMPLATEDB
  2
AmdtNoteTemplateDB
  3
AcmSymBB|Product Description: AutoCAD Mechanical|Company: Autodesk, Inc.
 90
     1024
 91
        6
280
     0
281
     0
  0
CLASS
  1
ACAMGFILTERDAT
  2
AcAmgFilterDat
  3
"AcadM|Product Description: AutoCAD Mechanical|Company: Autodesk, Inc."
 90
     1024
 91
        6
280
     0
281
     0
  0
CLASS
  1
AEC_REFEDIT_STATUS_TRACKER
  2
AecDbRefEditStatusTracker
  3
AecArchBase60|Product Desc: Autodesk Architectural Desktop 2007 |Company: Autodesk,Inc. |WEB Address: www.autodesk.com
 90
      129
 91
        1
280
     0
281
     0
  0
CLASS
  1
NPOCOLLECTION
  2
AcDbImpNonPersistentObjectsCollection
  3
ObjectDBX Classes
 90
     1153
 91
        1
280
     0
281
     0
  0
CLASS
  1
CELLSTYLEMAP
  2
AcDbCellStyleMap
  3
ObjectDBX Classes
 90
     1152
 91
        1
280
     0
281
     0
  0
ENDSEC
  0
SECTION
  2
TABLES
  0
TABLE
  2
VPORT
  5
8
330
0
100
AcDbSymbolTable
 70
     1
  0
VPORT
  5
57
330
8
100
AcDbSymbolTableRecord
100
AcDbViewportTableRecord
  2
*Active
 70
     0
 10
0.0
 20
0.0
 11
1.0
 21
1.0
 12
180.9461988205394
 22
229.1399241404026
 13
0.0
 23
0.0
 14
1.0
 24
1.0
 15
0.0
 25
0.0
 16
0.0
 26
0.0
 36
1.0
 17
0.0
 27
0.0
 37
0.0
 40
356.913896477397
 41
1.818090452261306
 42
50.0
 43
0.0
 44
0.0
 50
0.0
 51
0.0
 71
     0
 72
   100
 73
     1
 74
     1
 75
     0
 76
     0
 77
     0
 78
     0
281
     0
 65
     1
110
0.0
120
0.0
130
0.0
111
1.0
121
0.0
131
0.0
112
0.0
122
1.0
132
0.0
 79
     0
146
0.0
  0
ENDTAB
  0
TABLE
  2
LTYPE
  5
5
330
0
100
AcDbSymbolTable
 70
    15
  0
LTYPE
  5
5B
330
5
100
AcDbSymbolTableRecord
100
AcDbLinetypeTableRecord
  2
ByBlock
 70
     0
  3

 72
    65
 73
     0
 40
0.0
  0
LTYPE
  5
5C
330
5
100
AcDbSymbolTableRecord
100
AcDbLinetypeTableRecord
  2
ByLayer
 70
     0
  3

 72
    65
 73
     0
 40
0.0
  0
LTYPE
  5
5D
330
5
100
AcDbSymbolTableRecord
100
AcDbLinetypeTableRecord
  2
Continuous
 70
     0
  3
Solid line
 72
    65
 73
     0
 40
0.0
  0
LTYPE
  5
628
330
5
100
AcDbSymbolTableRecord
100
AcDbLinetypeTableRecord
  2
HIDDEN
 70
     0
  3
Skrytá __ __ __ __ __ __ __ __ __ __ __ __ __ __
 72
    65
 73
     2
 40
9.525
 49
6.349999999999999
 74
     0
 49
-3.174999999999999
 74
     0
  0
LTYPE
  5
629
330
5
100
AcDbSymbolTableRecord
100
AcDbLinetypeTableRecord
  2
PHANTOM2
 70
     0
  3
Sdružená (.5x) ___ _ _ ___ _ _ ___ _ _ ___ _ _
 72
    65
 73
     6
 40
31.75
 49
15.875
 74
     0
 49
-3.174999999999999
 74
     0
 49
3.174999999999999
 74
     0
 49
-3.174999999999999
 74
     0
 49
3.174999999999999
 74
     0
 49
-3.174999999999999
 74
     0
  0
LTYPE
  5
62A
330
5
100
AcDbSymbolTableRecord
100
AcDbLinetypeTableRecord
  2
CENTER
 70
     0
  3
Středová ____ _ ____ _ ____ _ ____ _ ____ _ ____
 72
    65
 73
     4
 40
50.8
 49
31.75
 74
     0
 49
-6.349999999999999
 74
     0
 49
6.349999999999999
 74
     0
 49
-6.349999999999999
 74
     0
  0
LTYPE
  5
670
330
5
100
AcDbSymbolTableRecord
100
AcDbLinetypeTableRecord
  2
AM_ISO02W050
 70
     0
  3
__ __ __ __ __ __ __ __ __ __ __ __ __ __ __
 72
    65
 73
     2
 40
7.5
 49
6.0
 74
     0
 49
-1.5
 74
     0
  0
LTYPE
  5
671
330
5
100
AcDbSymbolTableRecord
100
AcDbLinetypeTableRecord
  2
AM_ISO08W050
 70
     0
  3
____ . ____ . ____ . ____ . ____ . ____ . ____
 72
    65
 73
     4
 40
18.0
 49
12.0
 74
     0
 49
-1.5
 74
     0
 49
3.0
 74
     0
 49
-1.5
 74
     0
  0
LTYPE
  5
672
330
5
100
AcDbSymbolTableRecord
100
AcDbLinetypeTableRecord
  2
AM_ISO09W050
 70
     0
  3
_____ . . _____ . . _____ . . ____ .. ____
 72
    65
 73
     6
 40
22.5
 49
12.0
 74
     0
 49
-1.5
 74
     0
 49
3.0
 74
     0
 49
-1.5
 74
     0
 49
3.0
 74
     0
 49
-1.5
 74
     0
  0
LTYPE
  5
673
330
5
100
AcDbSymbolTableRecord
100
AcDbLinetypeTableRecord
  2
Amconstr
 70
     0
  3
_______________________
 72
    65
 73
     2
 40
9999.0
 49
9999.0
 74
     0
 49
0.0
 74
     0
  0
LTYPE
  5
674
330
5
100
AcDbSymbolTableRecord
100
AcDbLinetypeTableRecord
  2
AM_ISO08W050x2
 70
     0
  3
__ . __ . __ . __ . __ . __
 72
    65
 73
     4
 40
9.0
 49
6.0
 74
     0
 49
-0.75
 74
     0
 49
1.5
 74
     0
 49
-0.75
 74
     0
  0
LTYPE
  5
675
330
5
100
AcDbSymbolTableRecord
100
AcDbLinetypeTableRecord
  2
AM_ISO02W050x2
 70
     0
  3
 _ _ _ _ _ _ _ _ _ _ _ _
 72
    65
 73
     2
 40
3.75
 49
3.0
 74
     0
 49
-0.75
 74
     0
  0
LTYPE
  5
678
330
5
100
AcDbSymbolTableRecord
100
AcDbLinetypeTableRecord
  2
Amzigzag
 70
     0
  3
/\/-/\/-/\/-/\/-/\/-/\/
 72
    65
 73
     2
 40
11.0001
 49
0.0001
 74
     4
 75
   136
340
677
 46
0.04
 50
0.0
 44
0.0
 45
0.0
 49
-11.0
 74
     0
  0
LTYPE
  5
687
330
5
100
AcDbSymbolTableRecord
100
AcDbLinetypeTableRecord
  2
ACISOWELD
 70
     0
  3
_ _ _ _ _
 72
    65
 73
     2
 40
2.0
 49
2.0
 74
     0
 49
-1.0
 74
     0
  0
LTYPE
  5
688
330
5
100
AcDbSymbolTableRecord
100
AcDbLinetypeTableRecord
  2
ACISOTGB
 70
     0
  3
__ . . __ . .
 72
    65
 73
     6
 40
9.0
 49
4.0
 74
     0
 49
-1.0
 74
     0
 49
1.0
 74
     0
 49
-1.0
 74
     0
 49
1.0
 74
     0
 49
-1.0
 74
     0
  0
LTYPE
  5
689
330
5
100
AcDbSymbolTableRecord
100
AcDbLinetypeTableRecord
  2
ACISOTGL
 70
     0
  3
_ _ _ _ _
 72
    65
 73
     2
 40
3.0
 49
2.0
 74
     0
 49
-1.0
 74
     0
  0
ENDTAB
  0
TABLE
  2
LAYER
  5
2
330
0
100
AcDbSymbolTable
 70
    13
  0
LAYER
  5
54
330
2
100
AcDbSymbolTableRecord
100
AcDbLayerTableRecord
  2
0
 70
     0
 62
     7
  6
Continuous
370
    -3
390
F
  0
LAYER
  5
78
330
2
100
AcDbSymbolTableRecord
100
AcDbLayerTableRecord
  2
Geometrie náčrtu (ISO)
 70
     0
 62
     7
  6
Continuous
370
     9
390
F
  0
LAYER
  5
79
330
2
100
AcDbSymbolTableRecord
100
AcDbLayerTableRecord
  2
KOPF
 70
     0
 62
     8
420
  8421504
  6
Continuous
370
     9
390
F
  0
LAYER
  5
7A
330
2
100
AcDbSymbolTableRecord
100
AcDbLayerTableRecord
  2
Kóta (ISO)
 70
     0
 62
     5
420
      255
  6
Continuous
370
     9
390
F
  0
LAYER
  5
7B
330
2
100
AcDbSymbolTableRecord
100
AcDbLayerTableRecord
  2
Nadpis (ISO)
 70
     0
 62
     7
  6
Continuous
370
    18
390
F
  0
LAYER
  5
85
330
2
100
AcDbSymbolTableRecord
100
AcDbLayerTableRecord
  2
Rámeček (ISO)
 70
     0
 62
     7
  6
Continuous
370
    35
390
F
  0
LAYER
  5
8B
330
2
100
AcDbSymbolTableRecord
100
AcDbLayerTableRecord
  2
TEXT35
 70
     0
 62
    12
420
 13369344
  6
Continuous
370
    20
390
F
  0
LAYER
  5
8C
330
2
100
AcDbSymbolTableRecord
100
AcDbLayerTableRecord
  2
TEXT50
 70
     0
 62
     7
  6
Continuous
370
    20
390
F
  0
LAYER
  5
8D
330
2
100
AcDbSymbolTableRecord
100
AcDbLayerTableRecord
  2
Viditelná (ISO)
 70
     0
 62
     7
  6
Continuous
370
    35
390
F
  0
LAYER
  5
8E
330
2
100
AcDbSymbolTableRecord
100
AcDbLayerTableRecord
  2
Viditelná tenká (ISO)
 70
     0
 62
     7
  6
Continuous
370
     9
390
F
  0
LAYER
  5
8F
330
2
100
AcDbSymbolTableRecord
100
AcDbLayerTableRecord
  2
Značka (ISO)
 70
     0
 62
     5
420
      255
  6
Continuous
370
     9
390
F
  0
LAYER
  5
2CD
330
2
100
AcDbSymbolTableRecord
100
AcDbLayerTableRecord
  2
Defpoints
 70
     0
 62
     7
  6
Continuous
290
     0
370
    -3
390
F
  0
LAYER
  5
6C5
330
2
100
AcDbSymbolTableRecord
100
AcDbLayerTableRecord
  2
Středová značka (ISO)
 70
     0
 62
     1
420
 16711680
  6
Continuous
370
     9
390
F
  0
ENDTAB
  0
TABLE
  2
STYLE
  5
3
330
0
100
AcDbSymbolTable
 70
    21
  0
STYLE
  5
55
330
3
100
AcDbSymbolTableRecord
100
AcDbTextStyleTableRecord
  2
Standard
 70
     0
 40
0.0
 41
1.0
 50
0.0
 71
     0
 42
0.2
  3
TAHOMA.TTF
  4

1001
ACAD
1000
Tahoma
1071
      256
  0
STYLE
  5
5A
330
3
100
AcDbSymbolTableRecord
100
AcDbTextStyleTableRecord
  2
Annotative
 70
     0
 40
0.0
 41
1.0
 50
0.0
 71
     0
 42
0.2
  3
txt
  4

1001
AcadAnnotative
1000
AnnotativeData
1002
{
1070
     1
1070
     1
1002
}
  0
STYLE
  5
90
330
3
100
AcDbSymbolTableRecord
100
AcDbTextStyleTableRecord
  2
ITALICC8_57
 70
     0
 40
0.0
 41
1.0
 50
0.0
 71
     0
 42
0.2
  3
TAHOMA.TTF
  4

1001
ACAD
1000
Tahoma
1071
      256
  0
STYLE
  5
91
330
3
100
AcDbSymbolTableRecord
100
AcDbTextStyleTableRecord
  2
kusovnik
 70
     0
 40
0.0
 41
1.0
 50
0.0
 71
     0
 42
0.2
  3
ARIAL.TTF
  4

1001
ACAD
1000
Arial
1071
      256
  0
STYLE
  5
92
330
3
100
AcDbSymbolTableRecord
100
AcDbTextStyleTableRecord
  2
ROMANS8_69
 70
     0
 40
0.0
 41
1.0
 50
0.0
 71
     0
 42
0.2
  3
TAHOMA.TTF
  4

1001
ACAD
1000
Tahoma
1071
      256
  0
STYLE
  5
93
330
3
100
AcDbSymbolTableRecord
100
AcDbTextStyleTableRecord
  2
Text popisu (ISO)
 70
     0
 40
0.0
 41
1.0
 50
0.0
 71
     0
 42
0.2
  3
TAHOMA.TTF
  4

1001
ACAD
1000
Tahoma
1071
      256
  0
STYLE
  5
94
330
3
100
AcDbSymbolTableRecord
100
AcDbTextStyleTableRecord
  2
Text poznámky (DIN)
 70
     0
 40
0.0
 41
1.0
 50
0.0
 71
     0
 42
0.2
  3
isocpeur.ttf
  4

1001
ACAD
1000
ISOCPEUR
1071
      256
  0
STYLE
  5
95
330
3
100
AcDbSymbolTableRecord
100
AcDbTextStyleTableRecord
  2
Text poznámky (ISO)
 70
     0
 40
0.0
 41
1.0
 50
0.0
 71
     0
 42
0.2
  3
TAHOMA.TTF
  4

1001
ACAD
1000
Tahoma
1071
      256
  0
STYLE
  5
96
330
3
100
AcDbSymbolTableRecord
100
AcDbTextStyleTableRecord
  2
TEXT20_41
 70
     0
 40
0.0
 41
1.0
 50
0.0
 71
     0
 42
0.2
  3
TAHOMA.TTF
  4

1001
ACAD
1000
Tahoma
1071
      256
  0
STYLE
  5
97
330
3
100
AcDbSymbolTableRecord
100
AcDbTextStyleTableRecord
  2
TEXT20_59
 70
     0
 40
0.0
 41
1.0
 50
0.0
 71
     0
 42
0.2
  3
TAHOMA.TTF
  4

1001
ACAD
1000
Tahoma
1071
      256
  0
STYLE
  5
1EA
330
3
100
AcDbSymbolTableRecord
100
AcDbTextStyleTableRecord
  2
Styl textu62
 70
     0
 40
0.0
 41
0.8000000119209289
 50
0.0
 71
     0
 42
0.2
  3
TAHOMA.TTF
  4

1001
ACAD
1000
Tahoma
1071
      256
  0
STYLE
  5
1F1
330
3
100
AcDbSymbolTableRecord
100
AcDbTextStyleTableRecord
  2
Styl textu58
 70
     0
 40
0.0
 41
0.8000000119209289
 50
0.0
 71
     0
 42
0.2
  3
TAHOMA.TTF
  4

1001
ACAD
1000
Tahoma
1071
      256
  0
STYLE
  5
1F3
330
3
100
AcDbSymbolTableRecord
100
AcDbTextStyleTableRecord
  2
Styl textu63
 70
     0
 40
0.0
 41
0.75
 50
0.0
 71
     0
 42
0.2
  3
TAHOMA.TTF
  4

1001
ACAD
1000
Tahoma
1071
      256
  0
STYLE
  5
1F7
330
3
100
AcDbSymbolTableRecord
100
AcDbTextStyleTableRecord
  2
Styl textu75
 70
     0
 40
0.0
 41
0.8000000119209289
 50
0.0
 71
     0
 42
0.2
  3
TAHOMA.TTF
  4

1001
ACAD
1000
Tahoma
1071
      256
  0
STYLE
  5
1F9
330
3
100
AcDbSymbolTableRecord
100
AcDbTextStyleTableRecord
  2
Styl textu72
 70
     0
 40
0.0
 41
0.6999999880790711
 50
0.0
 71
     0
 42
0.2
  3
TAHOMA.TTF
  4

1001
ACAD
1000
Tahoma
1071
      256
  0
STYLE
  5
210
330
3
100
AcDbSymbolTableRecord
100
AcDbTextStyleTableRecord
  2
Styl textu9
 70
     0
 40
0.0
 41
1.0
 50
0.0
 71
     0
 42
0.2
  3
ARIAL.TTF
  4

1001
ACAD
1000
Arial
1071
      256
  0
STYLE
  5
214
330
3
100
AcDbSymbolTableRecord
100
AcDbTextStyleTableRecord
  2
Styl textu40
 70
     0
 40
0.0
 41
1.0
 50
0.0
 71
     0
 42
0.2
  3
ARIAL.TTF
  4

1001
ACAD
1000
Arial
1071
      256
  0
STYLE
  5
218
330
3
100
AcDbSymbolTableRecord
100
AcDbTextStyleTableRecord
  2
Styl textu94
 70
     0
 40
0.0
 41
1.0
 50
0.0
 71
     0
 42
0.2
  3
TAHOMA.TTF
  4

1001
ACAD
1000
Tahoma
1071
      256
  0
STYLE
  5
677
330
3
100
AcDbSymbolTableRecord
100
AcDbTextStyleTableRecord
  2

 70
     1
 40
0.0
 41
1.0
 50
0.0
 71
     0
 42
0.2
  3
genltshp.shx
  4

  0
STYLE
  5
685
330
3
100
AcDbSymbolTableRecord
100
AcDbTextStyleTableRecord
  2
ACISOTS
 70
     0
 40
1.0
 41
1.0
 50
0.0
 71
     0
 42
0.2
  3
isocp.shx
  4

  0
STYLE
  5
686
330
3
100
AcDbSymbolTableRecord
100
AcDbTextStyleTableRecord
  2
ACISOGDT
 70
     0
 40
0.0
 41
1.0
 50
0.0
 71
     0
 42
0.2
  3
amgdt.shx
  4

  0
ENDTAB
  0
TABLE
  2
VIEW
  5
6
330
0
100
AcDbSymbolTable
 70
     0
  0
ENDTAB
  0
TABLE
  2
UCS
  5
7
330
0
100
AcDbSymbolTable
 70
     0
  0
ENDTAB
  0
TABLE
  2
APPID
  5
9
330
0
100
AcDbSymbolTable
 70
    18
  0
APPID
  5
56
330
9
100
AcDbSymbolTableRecord
100
AcDbRegAppTableRecord
  2
ACAD
 70
     0
  0
APPID
  5
5E
330
9
100
AcDbSymbolTableRecord
100
AcDbRegAppTableRecord
  2
AcadAnnotative
 70
     0
  0
APPID
  5
213
330
9
100
AcDbSymbolTableRecord
100
AcDbRegAppTableRecord
  2
AcadAnnoPO
 70
     0
  0
APPID
  5
5FB
330
9
100
AcDbSymbolTableRecord
100
AcDbRegAppTableRecord
  2
MCAD_NO_VIS
 70
     0
  0
APPID
  5
5FC
330
9
100
AcDbSymbolTableRecord
100
AcDbRegAppTableRecord
  2
ACAD_TEMP_GRAPHIC
 70
     0
  0
APPID
  5
62C
330
9
100
AcDbSymbolTableRecord
100
AcDbRegAppTableRecord
  2
AD_DRAW
 70
     0
  0
APPID
  5
62F
330
9
100
AcDbSymbolTableRecord
100
AcDbRegAppTableRecord
  2
ACATTRIBSERVICES
 70
     0
  0
APPID
  5
64F
330
9
100
AcDbSymbolTableRecord
100
AcDbRegAppTableRecord
  2
DESIGNERASSEMBLIES
 70
     0
  0
APPID
  5
655
330
9
100
AcDbSymbolTableRecord
100
AcDbRegAppTableRecord
  2
ACADM_DIM_EDIT
 70
     0
  0
APPID
  5
656
330
9
100
AcDbSymbolTableRecord
100
AcDbRegAppTableRecord
  2
AMDT_DM_ADJ
 70
     0
  0
APPID
  5
66D
330
9
100
AcDbSymbolTableRecord
100
AcDbRegAppTableRecord
  2
ACAD_DSTYLE_DIMJAG
 70
     0
  0
APPID
  5
66E
330
9
100
AcDbSymbolTableRecord
100
AcDbRegAppTableRecord
  2
ACAD_DSTYLE_DIMBREAK
 70
     0
  0
APPID
  5
773
330
9
100
AcDbSymbolTableRecord
100
AcDbRegAppTableRecord
  2
ACAD_EXEMPT_FROM_CAD_STANDARDS
 70
     0
  0
APPID
  5
7D0
330
9
100
AcDbSymbolTableRecord
100
AcDbRegAppTableRecord
  2
ACAD_MLEADERVER
 70
     0
  0
APPID
  5
803
330
9
100
AcDbSymbolTableRecord
100
AcDbRegAppTableRecord
  2
ACAD_DSTYLE_DIMARC_LENGTH_SYMBOL
 70
     0
  0
APPID
  5
804
330
9
100
AcDbSymbolTableRecord
100
AcDbRegAppTableRecord
  2
ACAD_DSTYLE_DIM_LINETYPE
 70
     0
  0
APPID
  5
805
330
9
100
AcDbSymbolTableRecord
100
AcDbRegAppTableRecord
  2
ACAD_DSTYLE_DIM_EXT1_LINETYPE
 70
     0
  0
APPID
  5
806
330
9
100
AcDbSymbolTableRecord
100
AcDbRegAppTableRecord
  2
ACAD_DSTYLE_DIM_EXT2_LINETYPE
 70
     0
  0
ENDTAB
  0
TABLE
  2
DIMSTYLE
  5
A
330
0
100
AcDbSymbolTable
 70
    24
100
AcDbDimStyleTable
 71
     2
340
58
340
B1
  0
DIMSTYLE
105
58
330
A
100
AcDbSymbolTableRecord
100
AcDbDimStyleTableRecord
  2
Standard
 70
     0
340
55
  0
DIMSTYLE
105
59
330
A
100
AcDbSymbolTableRecord
100
AcDbDimStyleTableRecord
  2
Annotative
 70
     0
340
55
1001
AcadAnnotative
1000
AnnotativeData
1002
{
1070
     1
1070
     1
1002
}
  0
DIMSTYLE
105
A7
330
A
100
AcDbSymbolTableRecord
100
AcDbDimStyleTableRecord
  2
Různé objekty (ISO)
 70
     0
 40
1.5
 41
2.5
 42
0.0
 43
5.999999999999999
 44
1.0
 45
0.00000001
 46
10.0
 73
     0
 74
     0
 77
     1
 78
     8
 79
     2
140
5.25
143
0.03937
146
0.6676571709769112
147
0.762
171
     3
172
     1
176
   256
177
   256
178
   256
179
     2
271
     2
272
     2
274
     3
278
    44
284
     8
340
93
341
98
371
    -1
372
    -1
  0
DIMSTYLE
105
A8
330
A
100
AcDbSymbolTableRecord
100
AcDbDimStyleTableRecord
  2
Různé objekty (ISO)$7
 70
     0
 40
1.5
 41
5.0
 42
0.0
 43
5.999999999999999
 44
1.0
 45
0.00000001
 46
10.0
 73
     0
 74
     0
 77
     1
 78
     8
 79
     2
140
5.25
143
0.03937
146
0.6676571709769112
147
0.762
171
     3
172
     1
176
   256
177
   256
178
   256
179
     2
271
     2
272
     2
274
     3
278
    44
284
     8
340
93
341
98
371
    25
372
    -1
  0
DIMSTYLE
105
A9
330
A
100
AcDbSymbolTableRecord
100
AcDbDimStyleTableRecord
  2
Výchozí - Metoda 1b (ISO)
 70
     0
 40
1.5
 41
2.5
 42
0.0
 43
5.999999999999999
 44
1.0
 45
0.00000001
 46
10.0
 73
     0
 77
     1
 78
     8
 79
     2
140
3.5
143
0.03937
147
0.762
171
     3
172
     1
176
   256
177
   256
178
   256
179
     2
271
     2
272
     2
274
     3
278
    44
284
     8
286
     8
340
95
371
    -1
372
    -1
  0
DIMSTYLE
105
AA
330
A
100
AcDbSymbolTableRecord
100
AcDbDimStyleTableRecord
  2
Výchozí - Metoda 1b (ISO)$7
 70
     0
 40
1.5
 41
2.5
 42
0.0
 43
5.999999999999999
 44
1.0
 45
0.00000001
 46
10.0
 73
     0
 77
     1
 78
     8
 79
     2
140
3.5
143
0.03937
147
0.762
171
     3
172
     1
176
   256
177
   256
178
   256
179
     2
271
     2
272
     2
274
     3
278
    44
284
     8
286
     8
340
95
371
    -1
372
    -1
  0
DIMSTYLE
105
AB
330
A
100
AcDbSymbolTableRecord
100
AcDbDimStyleTableRecord
  2
Výchozí - Metoda 2a (ISO)
 70
     0
 40
1.5
 41
2.5
 42
0.0
 43
5.999999999999999
 44
1.0
 45
0.00000001
 46
10.0
 77
     1
 78
     8
 79
     2
140
3.5
143
0.03937
147
0.762
171
     3
172
     1
176
   256
177
   256
178
   256
179
     2
271
     2
272
     2
274
     3
278
    44
284
     8
286
     8
340
95
371
    -1
372
    -1
  0
DIMSTYLE
105
AC
330
A
100
AcDbSymbolTableRecord
100
AcDbDimStyleTableRecord
  2
Výchozí - Metoda 2a (ISO)$7
 70
     0
 40
1.5
 41
2.5
 42
0.0
 43
5.999999999999999
 44
1.0
 45
0.00000001
 46
10.0
 77
     1
 78
     8
 79
     2
140
3.5
143
0.03937
147
0.762
171
     3
172
     1
176
   256
177
   256
178
   256
179
     2
271
     2
272
     2
274
     3
278
    44
284
     8
286
     8
340
95
371
    -1
372
    -1
  0
DIMSTYLE
105
AD
330
A
100
AcDbSymbolTableRecord
100
AcDbDimStyleTableRecord
  2
Výchozí - Metoda 2b (ISO)
 70
     0
 40
1.5
 41
2.5
 42
0.0
 43
5.999999999999999
 44
1.0
 45
0.00000001
 46
10.0
 77
     1
 78
     8
 79
     2
140
3.5
143
0.03937
147
0.762
171
     3
172
     1
176
   256
177
   256
178
   256
179
     2
271
     2
272
     2
274
     3
278
    44
284
     8
286
     8
340
95
371
    -1
372
    -1
  0
DIMSTYLE
105
AE
330
A
100
AcDbSymbolTableRecord
100
AcDbDimStyleTableRecord
  2
Výchozí - Metoda 2b (ISO)$7
 70
     0
 40
1.5
 41
2.5
 42
0.0
 43
5.999999999999999
 44
1.0
 45
0.00000001
 46
10.0
 77
     1
 78
     8
 79
     2
140
3.5
143
0.03937
147
0.762
171
     3
172
     1
176
   256
177
   256
178
   256
179
     2
271
     2
272
     2
274
     3
278
    44
284
     8
286
     8
340
95
371
    -1
372
    -1
  0
DIMSTYLE
105
AF
330
A
100
AcDbSymbolTableRecord
100
AcDbDimStyleTableRecord
  2
Výchozí - mm [palce] (ISO)
 70
     0
  4
 in
 40
1.5
 41
2.5
 42
0.0
 43
5.999999999999999
 44
3.174999999999999
 45
0.00000001
 46
10.0
 73
     0
 74
     0
 77
     1
 78
     8
 79
     2
140
3.5
143
0.03937
147
0.762
170
     1
171
     3
172
     1
176
   256
177
   256
178
   256
179
     3
271
     3
272
     2
274
     3
275
     1
278
    44
284
     8
285
     8
286
     8
340
95
371
    -1
372
    -1
  0
DIMSTYLE
105
B0
330
A
100
AcDbSymbolTableRecord
100
AcDbDimStyleTableRecord
  2
Výchozí - mm [palce] (ISO)$7
 70
     0
  4
 in
 40
1.5
 41
2.5
 42
0.0
 43
5.999999999999999
 44
3.174999999999999
 45
0.00000001
 46
10.0
 73
     0
 74
     0
 77
     1
 78
     8
 79
     2
140
3.5
143
0.03937
147
0.762
170
     1
171
     3
172
     1
176
   256
177
   256
178
   256
179
     3
271
     3
272
     2
274
     3
275
     1
278
    44
284
     8
285
     8
286
     8
340
95
371
    -1
372
    -1
  0
DIMSTYLE
105
B1
102
{ACAD_REACTORS
330
2CC
330
3B0
330
492
102
}
330
A
100
AcDbSymbolTableRecord
100
AcDbDimStyleTableRecord
  2
Výchozí (ISO)
 70
     0
 40
1.5
 41
3.5
 42
0.0
 43
5.999999999999999
 44
1.499999999999999
 45
0.00000001
 46
10.0
 73
     0
 74
     0
 77
     1
 78
     8
 79
     2
140
3.5
143
0.03937
146
1.001485756465366
147
1.0
171
     3
172
     1
176
   256
177
   256
178
   256
179
     2
271
     2
272
     2
274
     3
278
    44
284
     8
340
95
371
    -1
372
    -1
  0
DIMSTYLE
105
B2
330
A
100
AcDbSymbolTableRecord
100
AcDbDimStyleTableRecord
  2
Výchozí (ISO)$7
 70
     0
 40
1.5
 41
2.5
 42
0.0
 43
5.999999999999999
 44
1.499999999999999
 45
0.00000001
 46
10.0
 73
     0
 74
     0
 77
     1
 78
     8
 79
     2
140
3.5
143
0.03937
146
1.001485756465366
147
1.0
171
     3
172
     1
176
   256
177
   256
178
   256
179
     2
271
     2
272
     2
274
     3
278
    44
284
     8
340
95
371
    -1
372
    -1
  0
DIMSTYLE
105
B3
330
A
100
AcDbSymbolTableRecord
100
AcDbDimStyleTableRecord
  2
Alternativní (ISO)
 70
     0
 40
1.5
 41
2.5
340
55
342
B4
  0
DIMSTYLE
105
C5
330
A
100
AcDbSymbolTableRecord
100
AcDbDimStyleTableRecord
  2
Základny (ISO)
 70
     0
 40
1.5
 41
2.5
340
55
342
B4
  0
DIMSTYLE
105
66C
102
{ACAD_REACTORS
330
65B
102
}
330
A
100
AcDbSymbolTableRecord
100
AcDbDimStyleTableRecord
  2
AM_ISO
 70
     0
  4
"
 41
3.5
 42
1.0
 43
10.0
 44
1.0
 47
0.1
 48
0.1
 73
     0
 74
     0
 77
     1
 78
     8
 79
     2
140
3.5
141
0.0
143
0.0393701
146
0.71
147
1.5
172
     1
176
   256
177
   256
178
     2
271
     2
272
     3
274
     4
283
     0
284
     8
340
55
371
    -1
372
    -1
1001
ACAD_DSTYLE_DIMJAG
1070
   388
1040
1.5
1001
ACAD_DSTYLE_DIMBREAK
1070
   391
1040
3.75
1001
ACAD_DSTYLE_DIMARC_LENGTH_SYMBOL
1070
   379
1070
     1
1001
ACAD_DSTYLE_DIM_LINETYPE
1070
   380
1005
5B
1001
ACAD_DSTYLE_DIM_EXT1_LINETYPE
1070
   381
1005
5B
1001
ACAD_DSTYLE_DIM_EXT2_LINETYPE
1070
   382
1005
5B
  0
DIMSTYLE
105
679
330
A
100
AcDbSymbolTableRecord
100
AcDbDimStyleTableRecord
  2
AM_ISO$3
 70
     0
  4
"
 41
3.5
 42
1.0
 43
10.0
 44
1.0
 47
0.1
 48
0.1
 73
     0
 77
     1
 78
     8
 79
     2
140
3.5
141
0.0
143
0.0393701
146
0.71
147
1.5
176
   256
177
   256
178
     2
271
     2
272
     3
274
     4
283
     0
284
     8
288
     1
289
     0
340
55
371
    -1
372
    -1
1001
ACAD_DSTYLE_DIMBREAK
1070
   391
1040
3.75
1001
ACAD_DSTYLE_DIMJAG
1070
   388
1040
1.5
1001
ACAD_DSTYLE_DIMARC_LENGTH_SYMBOL
1070
   379
1070
     1
1001
ACAD_DSTYLE_DIM_LINETYPE
1070
   380
1005
5B
1001
ACAD_DSTYLE_DIM_EXT1_LINETYPE
1070
   381
1005
5B
1001
ACAD_DSTYLE_DIM_EXT2_LINETYPE
1070
   382
1005
5B
  0
DIMSTYLE
105
67A
330
A
100
AcDbSymbolTableRecord
100
AcDbDimStyleTableRecord
  2
AM_ISO$4
 70
     0
  4
"
 41
3.5
 42
1.0
 43
10.0
 44
1.0
 47
0.1
 48
0.1
 73
     0
 77
     1
 78
     8
 79
     2
140
3.5
141
0.0
143
0.0393701
146
0.71
147
1.5
176
   256
177
   256
178
     2
271
     2
272
     3
274
     4
283
     0
284
     8
288
     1
289
     0
340
55
371
    -1
372
    -1
1001
ACAD_DSTYLE_DIMBREAK
1070
   391
1040
3.75
1001
ACAD_DSTYLE_DIMJAG
1070
   388
1040
1.5
1001
ACAD_DSTYLE_DIMARC_LENGTH_SYMBOL
1070
   379
1070
     1
1001
ACAD_DSTYLE_DIM_LINETYPE
1070
   380
1005
5B
1001
ACAD_DSTYLE_DIM_EXT1_LINETYPE
1070
   381
1005
5B
1001
ACAD_DSTYLE_DIM_EXT2_LINETYPE
1070
   382
1005
5B
  0
DIMSTYLE
105
67B
330
A
100
AcDbSymbolTableRecord
100
AcDbDimStyleTableRecord
  2
AM_ISO$6
 70
     0
  4
"
 41
3.5
 42
1.0
 43
10.0
 44
1.0
 47
0.1
 48
0.1
 73
     0
 74
     0
 78
     8
 79
     2
140
3.5
141
0.0
143
0.0393701
146
0.71
147
1.5
172
     1
176
   256
177
   256
178
     2
271
     2
272
     3
274
     4
283
     0
284
     8
340
55
371
    -1
372
    -1
1001
ACAD_DSTYLE_DIMBREAK
1070
   391
1040
3.75
1001
ACAD_DSTYLE_DIMJAG
1070
   388
1040
1.5
1001
ACAD_DSTYLE_DIMARC_LENGTH_SYMBOL
1070
   379
1070
     1
1001
ACAD_DSTYLE_DIM_LINETYPE
1070
   380
1005
5B
1001
ACAD_DSTYLE_DIM_EXT1_LINETYPE
1070
   381
1005
5B
1001
ACAD_DSTYLE_DIM_EXT2_LINETYPE
1070
   382
1005
5B
  0
DIMSTYLE
105
67C
330
A
100
AcDbSymbolTableRecord
100
AcDbDimStyleTableRecord
  2
AM_ISO$7
 70
     0
  4
"
 41
3.5
 42
1.0
 43
10.0
 44
1.0
 47
0.1
 48
0.1
 73
     0
 74
     0
 77
     1
 78
     8
 79
     2
140
3.5
141
0.0
143
0.0393701
146
0.71
147
1.5
172
     1
176
   256
177
   256
178
     2
271
     2
272
     3
274
     4
283
     0
284
     8
340
55
371
    -1
372
    -1
1001
ACAD_DSTYLE_DIMBREAK
1070
   391
1040
3.75
1001
ACAD_DSTYLE_DIMJAG
1070
   388
1040
1.5
1001
ACAD_DSTYLE_DIMARC_LENGTH_SYMBOL
1070
   379
1070
     1
1001
ACAD_DSTYLE_DIM_LINETYPE
1070
   380
1005
5B
1001
ACAD_DSTYLE_DIM_EXT1_LINETYPE
1070
   381
1005
5B
1001
ACAD_DSTYLE_DIM_EXT2_LINETYPE
1070
   382
1005
5B
  0
DIMSTYLE
105
67D
330
A
100
AcDbSymbolTableRecord
100
AcDbDimStyleTableRecord
  2
AM_ISO$SF
 70
     0
  4
"
 41
3.5
 42
1.0
 43
10.0
 44
1.0
 47
0.1
 48
0.1
 73
     0
 74
     0
 75
     1
 76
     1
 77
     1
 78
     8
 79
     2
140
3.5
141
0.0
143
0.0393701
146
0.71
147
1.5
172
     1
176
   256
177
   256
178
     2
271
     2
272
     3
274
     4
283
     0
284
     8
340
55
371
    -1
372
    -1
1001
ACAD_DSTYLE_DIMBREAK
1070
   391
1040
3.75
1001
ACAD_DSTYLE_DIMJAG
1070
   388
1040
1.5
1001
ACAD_DSTYLE_DIMARC_LENGTH_SYMBOL
1070
   379
1070
     1
1001
ACAD_DSTYLE_DIM_LINETYPE
1070
   380
1005
5B
1001
ACAD_DSTYLE_DIM_EXT1_LINETYPE
1070
   381
1005
5B
1001
ACAD_DSTYLE_DIM_EXT2_LINETYPE
1070
   382
1005
5B
  0
DIMSTYLE
105
682
330
A
100
AcDbSymbolTableRecord
100
AcDbDimStyleTableRecord
  2
AM_ISO$SH
 70
     0
  4
"
 41
3.5
 42
1.0
 43
10.0
 44
1.0
 47
0.1
 48
0.1
 73
     0
 74
     0
 75
     1
 76
     1
 77
     1
 78
     8
 79
     2
140
3.5
141
0.0
143
0.0393701
144
2.0
146
0.71
147
1.5
172
     1
173
     1
176
   256
177
   256
178
     2
271
     2
272
     3
274
     4
283
     0
284
     8
340
55
343
67E
371
    -1
372
    -1
1001
ACAD_DSTYLE_DIMBREAK
1070
   391
1040
3.75
1001
ACAD_DSTYLE_DIMJAG
1070
   388
1040
1.5
1001
ACAD_DSTYLE_DIMARC_LENGTH_SYMBOL
1070
   379
1070
     1
1001
ACAD_DSTYLE_DIM_LINETYPE
1070
   380
1005
5B
1001
ACAD_DSTYLE_DIM_EXT1_LINETYPE
1070
   381
1005
5B
1001
ACAD_DSTYLE_DIM_EXT2_LINETYPE
1070
   382
1005
5B
  0
ENDTAB
  0
TABLE
  2
BLOCK_RECORD
  5
1
330
0
100
AcDbSymbolTable
 70
    46
  0
BLOCK_RECORD
  5
6C
330
1
100
AcDbSymbolTableRecord
100
AcDbBlockTableRecord
  2
*Model_Space
340
6F
  0
BLOCK_RECORD
  5
68
330
1
100
AcDbSymbolTableRecord
100
AcDbBlockTableRecord
  2
*Paper_Space
340
6B
  0
BLOCK_RECORD
  5
70
330
1
100
AcDbSymbolTableRecord
100
AcDbBlockTableRecord
  2
*Paper_Space0
340
73
  0
BLOCK_RECORD
  5
98
330
1
100
AcDbSymbolTableRecord
100
AcDbBlockTableRecord
  2
Filled-1
340
0
  0
BLOCK_RECORD
  5
B4
330
1
100
AcDbSymbolTableRecord
100
AcDbBlockTableRecord
  2
_Closed
340
0
  0
BLOCK_RECORD
  5
BB
330
1
100
AcDbSymbolTableRecord
100
AcDbBlockTableRecord
  2
DatumFilled45
340
0
  0
BLOCK_RECORD
  5
C6
330
1
100
AcDbSymbolTableRecord
100
AcDbBlockTableRecord
  2
WIG-svařování DE
340
0
  0
BLOCK_RECORD
  5
CB
330
1
100
AcDbSymbolTableRecord
100
AcDbBlockTableRecord
  2
WIG-svařování EN
340
0
  0
BLOCK_RECORD
  5
CF
330
1
100
AcDbSymbolTableRecord
100
AcDbBlockTableRecord
  2
Popis kotvy_srouby DE
340
0
  0
BLOCK_RECORD
  5
D3
330
1
100
AcDbSymbolTableRecord
100
AcDbBlockTableRecord
  2
Popis kotvy_ šrouby EN
340
0
  0
BLOCK_RECORD
  5
D7
330
1
100
AcDbSymbolTableRecord
100
AcDbBlockTableRecord
  2
Tryskat DE
340
0
  0
BLOCK_RECORD
  5
DB
330
1
100
AcDbSymbolTableRecord
100
AcDbBlockTableRecord
  2
Tryskat EN
340
0
  0
BLOCK_RECORD
  5
DF
330
1
100
AcDbSymbolTableRecord
100
AcDbBlockTableRecord
  2
Mořit a pasivovat DE
340
0
  0
BLOCK_RECORD
  5
E3
330
1
100
AcDbSymbolTableRecord
100
AcDbBlockTableRecord
  2
Mořit a pasivovat EN
340
0
  0
BLOCK_RECORD
  5
E7
330
1
100
AcDbSymbolTableRecord
100
AcDbBlockTableRecord
  2
Žárově zinkovat DE
340
0
  0
BLOCK_RECORD
  5
EB
330
1
100
AcDbSymbolTableRecord
100
AcDbBlockTableRecord
  2
Žárově zinkovat EN
340
0
  0
BLOCK_RECORD
  5
EF
330
1
100
AcDbSymbolTableRecord
100
AcDbBlockTableRecord
  2
Brousit DE
340
0
  0
BLOCK_RECORD
  5
F3
330
1
100
AcDbSymbolTableRecord
100
AcDbBlockTableRecord
  2
Brousit EN
340
0
  0
BLOCK_RECORD
  5
F7
330
1
100
AcDbSymbolTableRecord
100
AcDbBlockTableRecord
  2
Elektrolyticky leštit DE
340
0
  0
BLOCK_RECORD
  5
FB
330
1
100
AcDbSymbolTableRecord
100
AcDbBlockTableRecord
  2
Elektrolyticky leštit EN
340
0
  0
BLOCK_RECORD
  5
FF
330
1
100
AcDbSymbolTableRecord
100
AcDbBlockTableRecord
  2
Žlab bez spádu DE
340
0
  0
BLOCK_RECORD
  5
103
330
1
100
AcDbSymbolTableRecord
100
AcDbBlockTableRecord
  2
Žlab bez spádu EN
340
0
  0
BLOCK_RECORD
  5
107
330
1
100
AcDbSymbolTableRecord
100
AcDbBlockTableRecord
  2
Spád žlabu DE
340
0
  0
BLOCK_RECORD
  5
10B
330
1
100
AcDbSymbolTableRecord
100
AcDbBlockTableRecord
  2
Spád žlabu EN
340
0
  0
BLOCK_RECORD
  5
10F
330
1
100
AcDbSymbolTableRecord
100
AcDbBlockTableRecord
  2
Kartáč + fólie DE
340
0
  0
BLOCK_RECORD
  5
113
330
1
100
AcDbSymbolTableRecord
100
AcDbBlockTableRecord
  2
Kartáč + fólie EN
340
0
  0
BLOCK_RECORD
  5
117
330
1
100
AcDbSymbolTableRecord
100
AcDbBlockTableRecord
  2
Komplet tryskat DE
340
0
  0
BLOCK_RECORD
  5
11B
330
1
100
AcDbSymbolTableRecord
100
AcDbBlockTableRecord
  2
Aschl Nirotec-tryskání
340
0
  0
BLOCK_RECORD
  5
11F
330
1
100
AcDbSymbolTableRecord
100
AcDbBlockTableRecord
  2
Mater. provedeni Art.
340
0
  0
BLOCK_RECORD
  5
141
330
1
100
AcDbSymbolTableRecord
100
AcDbBlockTableRecord
  2
Art. s popisy
340
0
  0
BLOCK_RECORD
  5
163
330
1
100
AcDbSymbolTableRecord
100
AcDbBlockTableRecord
  2
Nátěr
340
0
  0
BLOCK_RECORD
  5
167
330
1
100
AcDbSymbolTableRecord
100
AcDbBlockTableRecord
  2
Rámečky Default Border
340
0
  0
BLOCK_RECORD
  5
1AE
330
1
100
AcDbSymbolTableRecord
100
AcDbBlockTableRecord
  2
Rohová razítka ACO-razitko
340
0
  0
BLOCK_RECORD
  5
2B6
330
1
100
AcDbSymbolTableRecord
100
AcDbBlockTableRecord
  2
Pozice1
340
0
  0
BLOCK_RECORD
  5
2CE
330
1
100
AcDbSymbolTableRecord
100
AcDbBlockTableRecord
  2
*D32
340
0
  0
BLOCK_RECORD
  5
3B1
330
1
100
AcDbSymbolTableRecord
100
AcDbBlockTableRecord
  2
*D33
340
0
  0
BLOCK_RECORD
  5
493
330
1
100
AcDbSymbolTableRecord
100
AcDbBlockTableRecord
  2
*D34
340
0
  0
BLOCK_RECORD
  5
574
330
1
100
AcDbSymbolTableRecord
100
AcDbBlockTableRecord
  2
Tabulka1
340
0
  0
BLOCK_RECORD
  5
67E
330
1
100
AcDbSymbolTableRecord
100
AcDbBlockTableRecord
  2
GENAXEH
340
0
  0
BLOCK_RECORD
  5
6A1
330
1
100
AcDbSymbolTableRecord
100
AcDbBlockTableRecord
  2
*D38
340
0
  0
BLOCK_RECORD
  5
6AD
330
1
100
AcDbSymbolTableRecord
100
AcDbBlockTableRecord
  2
*D39
340
0
  0
BLOCK_RECORD
  5
6B9
330
1
100
AcDbSymbolTableRecord
100
AcDbBlockTableRecord
  2
*D40
340
0
  0
BLOCK_RECORD
  5
733
330
1
100
AcDbSymbolTableRecord
100
AcDbBlockTableRecord
  2
*D42
340
0
  0
BLOCK_RECORD
  5
73F
330
1
100
AcDbSymbolTableRecord
100
AcDbBlockTableRecord
  2
*D43
340
0
  0
BLOCK_RECORD
  5
74B
330
1
100
AcDbSymbolTableRecord
100
AcDbBlockTableRecord
  2
*D44
340
0
  0
ENDTAB
  0
ENDSEC
  0
SECTION
  2
BLOCKS
  0
BLOCK
  5
6D
330
6C
100
AcDbEntity
  8
0
100
AcDbBlockBegin
  2
*Model_Space
 70
     0
 10
0.0
 20
0.0
 30
0.0
  3
*Model_Space
  1

  0
ENDBLK
  5
6E
330
6C
100
AcDbEntity
  8
0
100
AcDbBlockEnd
  0
BLOCK
  5
69
330
68
100
AcDbEntity
 67
     1
  8
0
100
AcDbBlockBegin
  2
*Paper_Space
 70
     0
 10
0.0
 20
0.0
 30
0.0
  3
*Paper_Space
  1

  0
ENDBLK
  5
6A
330
68
100
AcDbEntity
 67
     1
  8
0
100
AcDbBlockEnd
  0
BLOCK
  5
71
330
70
100
AcDbEntity
 67
     1
  8
0
100
AcDbBlockBegin
  2
*Paper_Space0
 70
     0
 10
0.0
 20
0.0
 30
0.0
  3
*Paper_Space0
  1

  0
ENDBLK
  5
72
330
70
100
AcDbEntity
 67
     1
  8
0
100
AcDbBlockEnd
  0
BLOCK
  5
99
330
98
100
AcDbEntity
  8
0
100
AcDbBlockBegin
  2
Filled-1
 70
     0
 10
0.0
 20
0.0
 30
0.0
  3
Filled-1
  1

  0
LINE
  5
9B
330
98
100
AcDbEntity
  8
0
 62
     0
100
AcDbLine
 10
-1.0
 20
0.0
 30
0.0
 11
0.0
 21
0.0
 31
0.0
  0
POLYLINE
  5
9D
330
98
100
AcDbEntity
  8
0
 62
     0
100
AcDb2dPolyline
 66
     1
 10
0.0
 20
0.0
 30
0.0
 70
   128
  0
VERTEX
  5
9E
330
9D
100
AcDbEntity
  8
0
 62
     0
100
AcDbVertex
100
AcDb2dVertex
 10
-1.0
 20
-0.1
 30
0.0
  0
VERTEX
  5
9F
330
9D
100
AcDbEntity
  8
0
 62
     0
100
AcDbVertex
100
AcDb2dVertex
 10
0.0
 20
0.0
 30
0.0
  0
VERTEX
  5
A1
330
9D
100
AcDbEntity
  8
0
 62
     0
100
AcDbVertex
100
AcDb2dVertex
 10
-1.0
 20
0.1
 30
0.0
  0
VERTEX
  5
A2
330
9D
100
AcDbEntity
  8
0
 62
     0
100
AcDbVertex
100
AcDb2dVertex
 10
-1.0
 20
-0.1
 30
0.0
  0
SEQEND
  5
A0
330
9D
100
AcDbEntity
  8
0
 62
     0
  0
SOLID
  5
A3
330
98
100
AcDbEntity
  8
0
 62
     0
100
AcDbTrace
 10
-1.0
 20
-0.1
 30
0.0
 11
0.0
 21
0.0
 31
0.0
 12
-1.0
 22
0.1
 32
0.0
 13
-1.0
 23
-0.1
 33
0.0
  0
LINE
  5
A4
330
98
100
AcDbEntity
  8
0
 62
     0
100
AcDbLine
 10
-1.0
 20
-0.1
 30
0.0
 11
0.0
 21
0.0
 31
0.0
  0
LINE
  5
A5
330
98
100
AcDbEntity
  8
0
 62
     0
100
AcDbLine
 10
0.0
 20
0.0
 30
0.0
 11
-1.0
 21
0.1
 31
0.0
  0
LINE
  5
A6
330
98
100
AcDbEntity
  8
0
 62
     0
100
AcDbLine
 10
-1.0
 20
0.1
 30
0.0
 11
-1.0
 21
-0.1
 31
0.0
  0
ENDBLK
  5
9A
330
98
100
AcDbEntity
  8
0
100
AcDbBlockEnd
  0
BLOCK
  5
B9
330
B4
100
AcDbEntity
  8
0
100
AcDbBlockBegin
  2
_Closed
 70
     0
 10
0.0
 20
0.0
 30
0.0
  3
_Closed
  1

  0
LINE
  5
B5
330
B4
100
AcDbEntity
  8
0
  6
ByBlock
 62
     0
370
    -2
100
AcDbLine
 10
-1.0
 20
0.1666666666666666
 30
0.0
 11
0.0
 21
0.0
 31
0.0
  0
LINE
  5
B6
330
B4
100
AcDbEntity
  8
0
  6
ByBlock
 62
     0
370
    -2
100
AcDbLine
 10
0.0
 20
0.0
 30
0.0
 11
-1.0
 21
-0.1666666666666666
 31
0.0
  0
LINE
  5
B7
330
B4
100
AcDbEntity
  8
0
  6
ByBlock
 62
     0
370
    -2
100
AcDbLine
 10
-1.0
 20
0.1666666666666666
 30
0.0
 11
-1.0
 21
-0.1666666666666666
 31
0.0
  0
LINE
  5
B8
330
B4
100
AcDbEntity
  8
0
  6
ByBlock
 62
     0
370
    -2
100
AcDbLine
 10
0.0
 20
0.0
 30
0.0
 11
-1.0
 21
0.0
 31
0.0
  0
ENDBLK
  5
BA
330
B4
100
AcDbEntity
  8
0
100
AcDbBlockEnd
  0
BLOCK
  5
BC
330
BB
100
AcDbEntity
  8
0
100
AcDbBlockBegin
  2
DatumFilled45
 70
     0
 10
0.0
 20
0.0
 30
0.0
  3
DatumFilled45
  1

  0
POLYLINE
  5
BE
330
BB
100
AcDbEntity
  8
0
 62
     0
100
AcDb2dPolyline
 66
     1
 10
0.0
 20
0.0
 30
0.0
 70
   128
  0
VERTEX
  5
BF
330
BE
100
AcDbEntity
  8
0
 62
     0
100
AcDbVertex
100
AcDb2dVertex
 10
0.0
 20
1.0
 30
0.0
  0
VERTEX
  5
C0
330
BE
100
AcDbEntity
  8
0
 62
     0
100
AcDbVertex
100
AcDb2dVertex
 10
0.0
 20
-1.0
 30
0.0
  0
VERTEX
  5
C2
330
BE
100
AcDbEntity
  8
0
 62
     0
100
AcDbVertex
100
AcDb2dVertex
 10
-1.0
 20
0.0
 30
0.0
  0
VERTEX
  5
C3
330
BE
100
AcDbEntity
  8
0
 62
     0
100
AcDbVertex
100
AcDb2dVertex
 10
0.0
 20
1.0
 30
0.0
  0
SEQEND
  5
C1
330
BE
100
AcDbEntity
  8
0
 62
     0
  0
SOLID
  5
C4
330
BB
100
AcDbEntity
  8
0
 62
     0
100
AcDbTrace
 10
0.0
 20
1.0
 30
0.0
 11
0.0
 21
-1.0
 31
0.0
 12
-1.0
 22
0.0
 32
0.0
 13
0.0
 23
1.0
 33
0.0
  0
ENDBLK
  5
BD
330
BB
100
AcDbEntity
  8
0
100
AcDbBlockEnd
  0
BLOCK
  5
C7
330
C6
100
AcDbEntity
  8
0
100
AcDbBlockBegin
  2
WIG-svařování DE
 70
     0
 10
0.0
 20
0.0
 30
0.0
  3
WIG-svařování DE
  1

  0
MTEXT
  5
C9
102
{ACAD_XDICTIONARY
360
7D1
102
}
330
C6
100
AcDbEntity
  8
Značka (ISO)
100
AcDbMText
 10
-57.87338256835937
 20
16.43318336457014
 30
0.0
 40
3.499999940395355
 41
115.7467651367187
 71
     1
 72
     1
  3
WIG sva\U+0159ov\U+00E1n\U+00ED- svary dle pot\U+0159eby zabrousit.\PPohledov\U+00E9 plochy brousit (vel. brusn\U+00FDch zrn 240)\Pa polepit p\U+00E1skou.\P\PWIG Schweisung, Nahte sauber geschliffen und poliert\PSichtstege geschliffen mit 240 Korn un
  1
d abgeklebt.
  7
Text poznámky (ISO)
 73
     2
 44
0.9878841638565063
  0
ENDBLK
  5
C8
330
C6
100
AcDbEntity
  8
0
100
AcDbBlockEnd
  0
BLOCK
  5
CC
330
CB
100
AcDbEntity
  8
0
100
AcDbBlockBegin
  2
WIG-svařování EN
 70
     0
 10
0.0
 20
0.0
 30
0.0
  3
WIG-svařování EN
  1

  0
MTEXT
  5
CE
102
{ACAD_XDICTIONARY
360
7D3
102
}
330
CB
100
AcDbEntity
  8
Značka (ISO)
100
AcDbMText
 10
-51.92564964294433
 20
16.42041999846697
 30
0.0
 40
3.499999940395355
 41
0.0
 71
     1
 72
     1
  1
WIG sva\U+0159ov\U+00E1n\U+00ED- svary dle pot\U+0159eby zabrousit.\PPohledov\U+00E9 plochy brousit (vel. brusn\U+00FDch zrn 240)\Pa polepit p\U+00E1skou.\P \PWIG welding - Visible sufaces to be grinded\Pand covered by protectiv foil.
  7
Text poznámky (ISO)
 73
     2
 44
0.9878841638565063
  0
ENDBLK
  5
CD
330
CB
100
AcDbEntity
  8
0
100
AcDbBlockEnd
  0
BLOCK
  5
D0
330
CF
100
AcDbEntity
  8
0
100
AcDbBlockBegin
  2
Popis kotvy_srouby DE
 70
     0
 10
0.0
 20
0.0
 30
0.0
  3
Popis kotvy_srouby DE
  1

  0
MTEXT
  5
D2
102
{ACAD_XDICTIONARY
360
7D5
102
}
330
CF
100
AcDbEntity
  8
Značka (ISO)
100
AcDbMText
 10
-39.79761123657226
 20
21.64559781551361
 30
0.0
 40
3.499999940395355
 41
0.0
 71
     1
 72
     1
  1
Vzd\U+00E1lenost nivel. \U+0161roub\U+016F ca. 1500\PVzd\U+00E1lenost kotev ca. 400\PVzd\U+00E1lenost dist. kol\U+00EDk\U+016F ca. 250\P \PAbstand der Nivellieschraben ca.1500\PAbstand der Maueranker ca.400\PAbstand der Distanzstege ca.250\P 
  7
Text poznámky (ISO)
 73
     2
 44
0.9878841638565063
  0
ENDBLK
  5
D1
330
CF
100
AcDbEntity
  8
0
100
AcDbBlockEnd
  0
BLOCK
  5
D4
330
D3
100
AcDbEntity
  8
0
100
AcDbBlockBegin
  2
Popis kotvy_ šrouby EN
 70
     0
 10
0.0
 20
0.0
 30
0.0
  3
Popis kotvy_ šrouby EN
  1

  0
MTEXT
  5
D6
102
{ACAD_XDICTIONARY
360
7D7
102
}
330
D3
100
AcDbEntity
  8
Značka (ISO)
100
AcDbMText
 10
-35.70907592773437
 20
18.764269053936
 30
0.0
 40
3.499999940395355
 41
0.0
 71
     1
 72
     1
  1
Vzd\U+00E1lenost nivel. \U+0161roub\U+016F ca. 1500\PVzd\U+00E1lenost kotev ca. 400\P \PDistance of leveling feets ca.1500\PDistance of fixing tangs ca.400\P\P 
  7
Text poznámky (ISO)
 73
     2
 44
0.9878841638565063
  0
ENDBLK
  5
D5
330
D3
100
AcDbEntity
  8
0
100
AcDbBlockEnd
  0
BLOCK
  5
D8
330
D7
100
AcDbEntity
  8
0
100
AcDbBlockBegin
  2
Tryskat DE
 70
     0
 10
0.0
 20
0.0
 30
0.0
  3
Tryskat DE
  1

  0
MTEXT
  5
DA
330
D7
100
AcDbEntity
  8
Značka (ISO)
100
AcDbMText
 10
-18.86284470558166
 20
5.036920197308063
 30
0.0
 40
3.499999940395355
 41
0.0
 71
     1
 72
     1
  1
Tryskat \P(Glasperlstrahlen)
  7
Text poznámky (ISO)
 73
     2
 44
0.9878841638565063
  0
ENDBLK
  5
D9
330
D7
100
AcDbEntity
  8
0
100
AcDbBlockEnd
  0
BLOCK
  5
DC
330
DB
100
AcDbEntity
  8
0
100
AcDbBlockBegin
  2
Tryskat EN
 70
     0
 10
0.0
 20
0.0
 30
0.0
  3
Tryskat EN
  1

  0
MTEXT
  5
DE
330
DB
100
AcDbEntity
  8
Značka (ISO)
100
AcDbMText
 10
-9.551256299018859
 20
5.036920197308063
 30
0.0
 40
3.499999940395355
 41
0.0
 71
     1
 72
     1
  1
Tryskat\P(Blasted)
  7
Text poznámky (ISO)
 73
     2
 44
0.9878841638565063
  0
ENDBLK
  5
DD
330
DB
100
AcDbEntity
  8
0
100
AcDbBlockEnd
  0
BLOCK
  5
E0
330
DF
100
AcDbEntity
  8
0
100
AcDbBlockBegin
  2
Mořit a pasivovat DE
 70
     0
 10
0.0
 20
0.0
 30
0.0
  3
Mořit a pasivovat DE
  1

  0
MTEXT
  5
E2
102
{ACAD_XDICTIONARY
360
7D9
102
}
330
DF
100
AcDbEntity
  8
Značka (ISO)
100
AcDbMText
 10
-27.84258604049683
 20
4.895104952156543
 30
0.0
 40
3.499999940395355
 41
0.0
 71
     1
 72
     1
  1
Mo\U+0159it a pasivovat\P(Gebeitzt und passivieren)
  7
Text poznámky (ISO)
 73
     2
 44
0.9878841638565063
  0
ENDBLK
  5
E1
330
DF
100
AcDbEntity
  8
0
100
AcDbBlockEnd
  0
BLOCK
  5
E4
330
E3
100
AcDbEntity
  8
0
100
AcDbBlockBegin
  2
Mořit a pasivovat EN
 70
     0
 10
0.0
 20
0.0
 30
0.0
  3
Mořit a pasivovat EN
  1

  0
MTEXT
  5
E6
102
{ACAD_XDICTIONARY
360
7DB
102
}
330
E3
100
AcDbEntity
  8
Značka (ISO)
100
AcDbMText
 10
-24.44043874740601
 20
4.895104952156543
 30
0.0
 40
3.499999940395355
 41
0.0
 71
     1
 72
     1
  1
Mo\U+0159it a pasivovat\P(Pickled and passivate)
  7
Text poznámky (ISO)
 73
     2
 44
0.9878841638565063
  0
ENDBLK
  5
E5
330
E3
100
AcDbEntity
  8
0
100
AcDbBlockEnd
  0
BLOCK
  5
E8
330
E7
100
AcDbEntity
  8
0
100
AcDbBlockBegin
  2
Žárově zinkovat DE
 70
     0
 10
0.0
 20
0.0
 30
0.0
  3
Žárově zinkovat DE
  1

  0
MTEXT
  5
EA
102
{ACAD_XDICTIONARY
360
7DD
102
}
330
E7
100
AcDbEntity
  8
Značka (ISO)
100
AcDbMText
 10
-16.73277974128723
 20
4.456895925104618
 30
0.0
 40
3.499999940395355
 41
0.0
 71
     1
 72
     1
  1
\U+017D\U+00E1rov\U+011B zinkovat\P(Verzinkt )
  7
Text poznámky (ISO)
 73
     2
 44
0.9878841638565063
  0
ENDBLK
  5
E9
330
E7
100
AcDbEntity
  8
0
100
AcDbBlockEnd
  0
BLOCK
  5
EC
330
EB
100
AcDbEntity
  8
0
100
AcDbBlockBegin
  2
Žárově zinkovat EN
 70
     0
 10
0.0
 20
0.0
 30
0.0
  3
Žárově zinkovat EN
  1

  0
MTEXT
  5
EE
102
{ACAD_XDICTIONARY
360
7DF
102
}
330
EB
100
AcDbEntity
  8
Značka (ISO)
100
AcDbMText
 10
-20.24979829788208
 20
4.46965929120779
 30
0.0
 40
3.499999940395355
 41
0.0
 71
     1
 72
     1
  1
\U+017D\U+00E1rov\U+011B zinkovat\P(Hot-dip galvanize)
  7
Text poznámky (ISO)
 73
     2
 44
0.9878841638565063
  0
ENDBLK
  5
ED
330
EB
100
AcDbEntity
  8
0
100
AcDbBlockEnd
  0
BLOCK
  5
F0
330
EF
100
AcDbEntity
  8
0
100
AcDbBlockBegin
  2
Brousit DE
 70
     0
 10
0.0
 20
0.0
 30
0.0
  3
Brousit DE
  1

  0
MTEXT
  5
F2
330
EF
100
AcDbEntity
  8
Značka (ISO)
100
AcDbMText
 10
-12.2074556350708
 20
5.103573389351367
 30
0.0
 40
3.499999940395355
 41
0.0
 71
     1
 72
     1
  1
Brousit\P(Geburstet)
  7
Text poznámky (ISO)
 73
     2
 44
0.9878841638565063
  0
ENDBLK
  5
F1
330
EF
100
AcDbEntity
  8
0
100
AcDbBlockEnd
  0
BLOCK
  5
F4
330
F3
100
AcDbEntity
  8
0
100
AcDbBlockBegin
  2
Brousit EN
 70
     0
 10
0.0
 20
0.0
 30
0.0
  3
Brousit EN
  1

  0
MTEXT
  5
F6
330
F3
100
AcDbEntity
  8
Značka (ISO)
100
AcDbMText
 10
-10.48298239707946
 20
5.103573389351367
 30
0.0
 40
3.499999940395355
 41
0.0
 71
     1
 72
     1
  1
Brousit\P(Brushed)
  7
Text poznámky (ISO)
 73
     2
 44
0.9878841638565063
  0
ENDBLK
  5
F5
330
F3
100
AcDbEntity
  8
0
100
AcDbBlockEnd
  0
BLOCK
  5
F8
330
F7
100
AcDbEntity
  8
0
100
AcDbBlockBegin
  2
Elektrolyticky leštit DE
 70
     0
 10
0.0
 20
0.0
 30
0.0
  3
Elektrolyticky leštit DE
  1

  0
MTEXT
  5
FA
102
{ACAD_XDICTIONARY
360
7E1
102
}
330
F7
100
AcDbEntity
  8
Značka (ISO)
100
AcDbMText
 10
-16.43071413040161
 20
4.895104952156543
 30
0.0
 40
3.499999940395355
 41
0.0
 71
     1
 72
     1
  1
Elektrolyt. le\U+0161tit\P(Elektr. poliert)
  7
Text poznámky (ISO)
 73
     2
 44
0.9878841638565063
  0
ENDBLK
  5
F9
330
F7
100
AcDbEntity
  8
0
100
AcDbBlockEnd
  0
BLOCK
  5
FC
330
FB
100
AcDbEntity
  8
0
100
AcDbBlockBegin
  2
Elektrolyticky leštit EN
 70
     0
 10
0.0
 20
0.0
 30
0.0
  3
Elektrolyticky leštit EN
  1

  0
MTEXT
  5
FE
102
{ACAD_XDICTIONARY
360
7E3
102
}
330
FB
100
AcDbEntity
  8
Značka (ISO)
100
AcDbMText
 10
-18.02329897880554
 20
4.895104952156543
 30
0.0
 40
3.499999940395355
 41
0.0
 71
     1
 72
     1
  1
Elektrolyt. le\U+0161tit\P(Electr. polished)
  7
Text poznámky (ISO)
 73
     2
 44
0.9878841638565063
  0
ENDBLK
  5
FD
330
FB
100
AcDbEntity
  8
0
100
AcDbBlockEnd
  0
BLOCK
  5
100
330
FF
100
AcDbEntity
  8
0
100
AcDbBlockBegin
  2
Žlab bez spádu DE
 70
     0
 10
0.0
 20
0.0
 30
0.0
  3
Žlab bez spádu DE
  1

  0
MTEXT
  5
102
102
{ACAD_XDICTIONARY
360
7E5
102
}
330
FF
100
AcDbEntity
  8
Značka (ISO)
100
AcDbMText
 10
-20.81989526748657
 20
4.010177932213991
 30
0.0
 40
3.499999940395355
 41
0.0
 71
     1
 72
     1
  1
\U+017Dlab bez sp\U+00E1du!\PRinne ohne Gef\U+00E4lle!
  7
Text poznámky (ISO)
 73
     2
 44
0.9878841638565063
  0
ENDBLK
  5
101
330
FF
100
AcDbEntity
  8
0
100
AcDbBlockEnd
  0
BLOCK
  5
104
330
103
100
AcDbEntity
  8
0
100
AcDbBlockBegin
  2
Žlab bez spádu EN
 70
     0
 10
0.0
 20
0.0
 30
0.0
  3
Žlab bez spádu EN
  1

  0
MTEXT
  5
106
102
{ACAD_XDICTIONARY
360
7E7
102
}
330
103
100
AcDbEntity
  8
Značka (ISO)
100
AcDbMText
 10
-24.31422233581541
 20
4.456895925104618
 30
0.0
 40
3.499999940395355
 41
0.0
 71
     1
 72
     1
  1
\U+017Dlab bez sp\U+00E1du!\PChannel without slope!
  7
Text poznámky (ISO)
 73
     2
 44
0.9878841638565063
  0
ENDBLK
  5
105
330
103
100
AcDbEntity
  8
0
100
AcDbBlockEnd
  0
BLOCK
  5
108
330
107
100
AcDbEntity
  8
0
100
AcDbBlockBegin
  2
Spád žlabu DE
 70
     0
 10
0.0
 20
0.0
 30
0.0
  3
Spád žlabu DE
  1

  0
MTEXT
  5
10A
102
{ACAD_XDICTIONARY
360
7E9
102
}
330
107
100
AcDbEntity
  8
Značka (ISO)
100
AcDbMText
 10
-61.1847686767578
 20
16.61612506955862
 30
0.0
 40
3.499999940395355
 41
0.0
 71
     1
 72
     1
  1
POZOR:\PSp\U+00E1d \U+017Elabu je men\U+0161\U+00ED ne\U+017E 1% - nebezpe\U+010D\U+00ED vzniku prohlubn\U+00ED\Pse stojatou vodou.\PACHTUNG:\PDas Bodengef\U+00E4lle ist kleiner als 1%. Das Gefahr der\PSenkungsentstehung mit dem stehenden Wasser.
  7
Text poznámky (ISO)
 73
     2
 44
0.9878841638565063
  0
ENDBLK
  5
109
330
107
100
AcDbEntity
  8
0
100
AcDbBlockEnd
  0
BLOCK
  5
10C
330
10B
100
AcDbEntity
  8
0
100
AcDbBlockBegin
  2
Spád žlabu EN
 70
     0
 10
0.0
 20
0.0
 30
0.0
  3
Spád žlabu EN
  1

  0
MTEXT
  5
10E
102
{ACAD_XDICTIONARY
360
7EB
102
}
330
10B
100
AcDbEntity
  8
Značka (ISO)
100
AcDbMText
 10
-61.1847686767578
 20
16.15664371056482
 30
0.0
 40
3.499999940395355
 41
0.0
 71
     1
 72
     1
  1
POZOR:\PSp\U+00E1d \U+017Elabu je men\U+0161\U+00ED ne\U+017E 1% - nebezpe\U+010D\U+00ED vzniku prohlubn\U+00ED\Pse stojatou vodou.\PAUTENTION:\PThe gradient of the bottom is minor then 1%.\PThat can be reason of slack water.
  7
Text poznámky (ISO)
 73
     2
 44
0.9878841638565063
  0
ENDBLK
  5
10D
330
10B
100
AcDbEntity
  8
0
100
AcDbBlockEnd
  0
BLOCK
  5
110
330
10F
100
AcDbEntity
  8
0
100
AcDbBlockBegin
  2
Kartáč + fólie DE
 70
     0
 10
0.0
 20
0.0
 30
0.0
  3
Kartáč + fólie DE
  1

  0
MTEXT
  5
112
102
{ACAD_XDICTIONARY
360
7ED
102
}
330
10F
100
AcDbEntity
  8
Značka (ISO)
100
AcDbMText
 10
-39.86001014709473
 20
4.448386959265917
 30
0.0
 40
3.499999940395355
 41
0.0
 71
     1
 72
     1
  1
Kart\U+00E1\U+010Dov\U+00E1no + folie\PGeburstet mit abziehbarer Schutzfolie
  7
Text poznámky (ISO)
 73
     2
 44
0.9878841638565063
  0
ENDBLK
  5
111
330
10F
100
AcDbEntity
  8
0
100
AcDbBlockEnd
  0
BLOCK
  5
114
330
113
100
AcDbEntity
  8
0
100
AcDbBlockBegin
  2
Kartáč + fólie EN
 70
     0
 10
0.0
 20
0.0
 30
0.0
  3
Kartáč + fólie EN
  1

  0
MTEXT
  5
116
102
{ACAD_XDICTIONARY
360
7EF
102
}
330
113
100
AcDbEntity
  8
Značka (ISO)
100
AcDbMText
 10
-21.56442403793335
 20
4.895104952156543
 30
0.0
 40
3.499999940395355
 41
0.0
 71
     1
 72
     1
  1
Kart\U+00E1\U+010Dov\U+00E1no + f\U+00F3lie.\P(Brushed and foils) 
  7
Text poznámky (ISO)
 73
     2
 44
0.9878841638565063
  0
ENDBLK
  5
115
330
113
100
AcDbEntity
  8
0
100
AcDbBlockEnd
  0
BLOCK
  5
118
330
117
100
AcDbEntity
  8
0
100
AcDbBlockBegin
  2
Komplet tryskat DE
 70
     0
 10
0.0
 20
0.0
 30
0.0
  3
Komplet tryskat DE
  1

  0
MTEXT
  5
11A
330
117
100
AcDbEntity
  8
Značka (ISO)
100
AcDbMText
 10
-37.33711719512938
 20
7.475785464048385
 30
0.0
 40
3.499999940395355
 41
0.0
 71
     1
 72
     1
  1
KOMPLETT GLASPER GESTRAHLT !\PKOMPLET ZHORA TRYSKAT ! \P
  7
Text poznámky (ISO)
 73
     2
 44
0.9878841638565063
  0
ENDBLK
  5
119
330
117
100
AcDbEntity
  8
0
100
AcDbBlockEnd
  0
BLOCK
  5
11C
330
11B
100
AcDbEntity
  8
0
100
AcDbBlockBegin
  2
Aschl Nirotec-tryskání
 70
     0
 10
0.0
 20
0.0
 30
0.0
  3
Aschl Nirotec-tryskání
  1

  0
MTEXT
  5
11E
102
{ACAD_XDICTIONARY
360
7F1
102
}
330
11B
100
AcDbEntity
  8
Značka (ISO)
100
AcDbMText
 10
-58.85332584381103
 20
10.67052584141493
 30
0.0
 40
3.499999940395355
 41
0.0
 71
     1
 72
     1
  1
Povrchov\U+00E1 \U+00FAprava/Oberfl\U+00E4che:\PTryskat pouze vnit\U+0159ek \U+017Elabu, v\U+010Detn\U+011B pohledov\U+00FDch ploch!\PP\U+0159\U+00EDruby proti trysk\U+00E1n\U+00ED chr\U+00E1nit!\PFlansches per strahlung beh\U+00FCtent!
  7
Text poznámky (ISO)
 73
     2
 44
0.9878841638565063
  0
ENDBLK
  5
11D
330
11B
100
AcDbEntity
  8
0
100
AcDbBlockEnd
  0
BLOCK
  5
120
330
11F
100
AcDbEntity
  8
0
100
AcDbBlockBegin
  2
Mater. provedeni Art.
 70
     0
 10
0.0
 20
0.0
 30
0.0
  3
Mater. provedeni Art.
  1

  0
LINE
  5
122
330
11F
100
AcDbEntity
  8
Geometrie náčrtu (ISO)
100
AcDbLine
 10
-35.0
 20
-22.5
 30
0.0
 11
35.0
 21
-22.5
 31
0.0
  0
LINE
  5
123
330
11F
100
AcDbEntity
  8
Geometrie náčrtu (ISO)
100
AcDbLine
 10
35.0
 20
-22.5
 30
0.0
 11
34.99999999999996
 21
-13.49999999999998
 31
0.0
  0
LINE
  5
124
330
11F
100
AcDbEntity
  8
Geometrie náčrtu (ISO)
100
AcDbLine
 10
34.99999999999996
 20
-13.49999999999998
 30
0.0
 11
-35.00000000000003
 21
-13.49999999999998
 31
0.0
  0
LINE
  5
125
330
11F
100
AcDbEntity
  8
Geometrie náčrtu (ISO)
100
AcDbLine
 10
-35.00000000000003
 20
-13.49999999999998
 30
0.0
 11
-35.0
 21
-22.5
 31
0.0
  0
LINE
  5
126
330
11F
100
AcDbEntity
  8
Geometrie náčrtu (ISO)
100
AcDbLine
 10
-35.00000000000003
 20
-13.49999999999998
 30
0.0
 11
34.99999999999996
 21
-13.49999999999998
 31
0.0
  0
LINE
  5
127
330
11F
100
AcDbEntity
  8
Geometrie náčrtu (ISO)
100
AcDbLine
 10
34.99999999999996
 20
-13.49999999999998
 30
0.0
 11
34.99999999999996
 21
-4.499999999999992
 31
0.0
  0
LINE
  5
128
330
11F
100
AcDbEntity
  8
Geometrie náčrtu (ISO)
100
AcDbLine
 10
34.99999999999996
 20
-4.499999999999992
 30
0.0
 11
-35.00000000000003
 21
-4.499999999999992
 31
0.0
  0
LINE
  5
129
330
11F
100
AcDbEntity
  8
Geometrie náčrtu (ISO)
100
AcDbLine
 10
-35.00000000000003
 20
-4.499999999999992
 30
0.0
 11
-35.00000000000003
 21
-13.49999999999998
 31
0.0
  0
LINE
  5
12A
330
11F
100
AcDbEntity
  8
Geometrie náčrtu (ISO)
100
AcDbLine
 10
-35.00000000000003
 20
-4.499999999999992
 30
0.0
 11
34.99999999999996
 21
-4.499999999999992
 31
0.0
  0
LINE
  5
12B
330
11F
100
AcDbEntity
  8
Geometrie náčrtu (ISO)
100
AcDbLine
 10
34.99999999999996
 20
-4.499999999999992
 30
0.0
 11
34.99999999999996
 21
4.499999999999992
 31
0.0
  0
LINE
  5
12C
330
11F
100
AcDbEntity
  8
Geometrie náčrtu (ISO)
100
AcDbLine
 10
34.99999999999996
 20
4.499999999999992
 30
0.0
 11
-35.00000000000003
 21
4.499999999999992
 31
0.0
  0
LINE
  5
12D
330
11F
100
AcDbEntity
  8
Geometrie náčrtu (ISO)
100
AcDbLine
 10
-35.00000000000003
 20
4.499999999999992
 30
0.0
 11
-35.00000000000003
 21
-4.499999999999992
 31
0.0
  0
LINE
  5
12E
330
11F
100
AcDbEntity
  8
Geometrie náčrtu (ISO)
100
AcDbLine
 10
-35.00000000000003
 20
4.499999999999992
 30
0.0
 11
34.99999999999996
 21
4.499999999999992
 31
0.0
  0
LINE
  5
12F
330
11F
100
AcDbEntity
  8
Geometrie náčrtu (ISO)
100
AcDbLine
 10
34.99999999999996
 20
4.499999999999992
 30
0.0
 11
34.99999999999996
 21
13.50000000000001
 31
0.0
  0
LINE
  5
130
330
11F
100
AcDbEntity
  8
Geometrie náčrtu (ISO)
100
AcDbLine
 10
34.99999999999996
 20
13.50000000000001
 30
0.0
 11
-35.00000000000003
 21
13.50000000000001
 31
0.0
  0
LINE
  5
131
330
11F
100
AcDbEntity
  8
Geometrie náčrtu (ISO)
100
AcDbLine
 10
-35.00000000000003
 20
13.50000000000001
 30
0.0
 11
-35.00000000000003
 21
4.499999999999992
 31
0.0
  0
LINE
  5
132
330
11F
100
AcDbEntity
  8
Geometrie náčrtu (ISO)
100
AcDbLine
 10
-35.00000000000003
 20
13.50000000000001
 30
0.0
 11
34.99999999999996
 21
13.50000000000001
 31
0.0
  0
LINE
  5
133
330
11F
100
AcDbEntity
  8
Geometrie náčrtu (ISO)
100
AcDbLine
 10
34.99999999999996
 20
13.50000000000001
 30
0.0
 11
34.99999999999996
 21
22.5
 31
0.0
  0
LINE
  5
134
330
11F
100
AcDbEntity
  8
Geometrie náčrtu (ISO)
100
AcDbLine
 10
34.99999999999996
 20
22.5
 30
0.0
 11
-35.00000000000003
 21
22.5
 31
0.0
  0
LINE
  5
135
330
11F
100
AcDbEntity
  8
Geometrie náčrtu (ISO)
100
AcDbLine
 10
-35.00000000000003
 20
22.5
 30
0.0
 11
-35.00000000000003
 21
13.50000000000001
 31
0.0
  0
LINE
  5
136
330
11F
100
AcDbEntity
  8
Geometrie náčrtu (ISO)
100
AcDbLine
 10
-6.999999999999992
 20
22.5
 30
0.0
 11
-6.999999999999992
 21
-22.5
 31
0.0
  0
MTEXT
  5
137
330
11F
100
AcDbEntity
  8
Značka (ISO)
100
AcDbMText
 10
-5.126613448311374
 20
11.7684641726084
 30
0.0
 40
5.0
 41
0.0
 71
     1
 72
     1
  1
\fTahoma|b0|i0;\H5.0000;xxxxxxxxxxx
  7
Text poznámky (ISO)
 73
     1
 44
1.0
  0
MTEXT
  5
138
330
11F
100
AcDbEntity
  8
Značka (ISO)
100
AcDbMText
 10
-33.0130165251342
 20
11.7684641726084
 30
0.0
 40
5.0
 41
20.42139291763306
 71
     1
 72
     1
  1
\fTahoma|b0|i0;\H5.0000;xxxxxx
  7
Text poznámky (ISO)
 73
     1
 44
1.0
  0
MTEXT
  5
139
330
11F
100
AcDbEntity
  8
Značka (ISO)
100
AcDbMText
 10
-32.07756235018873
 20
20.30710993714994
 30
0.0
 40
5.0
 41
13.92583036716939
 71
     1
 72
     1
  1
\fTahoma|b0|i0;\H5.0000;Art.
  7
Text poznámky (ISO)
 73
     1
 44
1.0
  0
MTEXT
  5
13A
330
11F
100
AcDbEntity
  8
Značka (ISO)
100
AcDbMText
 10
4.291672002492319
 20
20.30710993714994
 30
0.0
 40
5.0
 41
0.0
 71
     1
 72
     1
  1
\fTahoma|b0|i0;\H5.0000;Mat.
  7
Text poznámky (ISO)
 73
     1
 44
1.0
  0
MTEXT
  5
13B
330
11F
100
AcDbEntity
  8
Značka (ISO)
100
AcDbMText
 10
-33.0130165251342
 20
2.473781856899819
 30
0.0
 40
5.0
 41
20.42139291763306
 71
     1
 72
     1
  1
\fTahoma|b0|i0;\H5.0000;xxxxxx
  7
Text poznámky (ISO)
 73
     1
 44
1.0
  0
MTEXT
  5
13C
330
11F
100
AcDbEntity
  8
Značka (ISO)
100
AcDbMText
 10
-5.126613448311374
 20
2.473781856899819
 30
0.0
 40
5.0
 41
0.0
 71
     1
 72
     1
  1
\fTahoma|b0|i0;\H5.0000;xxxxxxxxxxx
  7
Text poznámky (ISO)
 73
     1
 44
1.0
  0
MTEXT
  5
13D
330
11F
100
AcDbEntity
  8
Značka (ISO)
100
AcDbMText
 10
-33.0130165251342
 20
-6.862452441171491
 30
0.0
 40
5.0
 41
20.42139291763306
 71
     1
 72
     1
  1
\fTahoma|b0|i0;\H5.0000;xxxxxx
  7
Text poznámky (ISO)
 73
     1
 44
1.0
  0
MTEXT
  5
13E
330
11F
100
AcDbEntity
  8
Značka (ISO)
100
AcDbMText
 10
-5.126613448311374
 20
-6.862452441171491
 30
0.0
 40
5.0
 41
0.0
 71
     1
 72
     1
  1
\fTahoma|b0|i0;\H5.0000;xxxxxxxxxxx
  7
Text poznámky (ISO)
 73
     1
 44
1.0
  0
MTEXT
  5
13F
330
11F
100
AcDbEntity
  8
Značka (ISO)
100
AcDbMText
 10
-33.0130165251342
 20
-15.52177565039578
 30
0.0
 40
5.0
 41
20.42139291763306
 71
     1
 72
     1
  1
\fTahoma|b0|i0;\H5.0000;xxxxxx
  7
Text poznámky (ISO)
 73
     1
 44
1.0
  0
MTEXT
  5
140
330
11F
100
AcDbEntity
  8
Značka (ISO)
100
AcDbMText
 10
-5.126613448311374
 20
-15.52177565039578
 30
0.0
 40
5.0
 41
0.0
 71
     1
 72
     1
  1
\fTahoma|b0|i0;\H5.0000;xxxxxxxxxxx
  7
Text poznámky (ISO)
 73
     1
 44
1.0
  0
ENDBLK
  5
121
330
11F
100
AcDbEntity
  8
0
100
AcDbBlockEnd
  0
BLOCK
  5
142
330
141
100
AcDbEntity
  8
0
100
AcDbBlockBegin
  2
Art. s popisy
 70
     0
 10
0.0
 20
0.0
 30
0.0
  3
Art. s popisy
  1

  0
LINE
  5
144
330
141
100
AcDbEntity
  8
Geometrie náčrtu (ISO)
100
AcDbLine
 10
-60.00000000000081
 20
-22.5
 30
0.0
 11
59.99999999999911
 21
-22.5
 31
0.0
  0
LINE
  5
145
330
141
100
AcDbEntity
  8
Geometrie náčrtu (ISO)
100
AcDbLine
 10
59.99999999999911
 20
-22.5
 30
0.0
 11
60.00000000000081
 21
-13.50000000000001
 31
0.0
  0
LINE
  5
146
330
141
100
AcDbEntity
  8
Geometrie náčrtu (ISO)
100
AcDbLine
 10
60.00000000000081
 20
-13.50000000000001
 30
0.0
 11
-60.00000000000081
 21
-13.49999999999998
 31
0.0
  0
LINE
  5
147
330
141
100
AcDbEntity
  8
Geometrie náčrtu (ISO)
100
AcDbLine
 10
-60.00000000000081
 20
-13.49999999999998
 30
0.0
 11
-60.00000000000081
 21
-22.5
 31
0.0
  0
LINE
  5
148
330
141
100
AcDbEntity
  8
Geometrie náčrtu (ISO)
100
AcDbLine
 10
-60.00000000000081
 20
-13.49999999999998
 30
0.0
 11
60.00000000000081
 21
-13.50000000000001
 31
0.0
  0
LINE
  5
149
330
141
100
AcDbEntity
  8
Geometrie náčrtu (ISO)
100
AcDbLine
 10
60.00000000000081
 20
-13.50000000000001
 30
0.0
 11
59.99999999999911
 21
-4.500000000000028
 31
0.0
  0
LINE
  5
14A
330
141
100
AcDbEntity
  8
Geometrie náčrtu (ISO)
100
AcDbLine
 10
59.99999999999911
 20
-4.500000000000028
 30
0.0
 11
-60.00000000000081
 21
-4.499999999999992
 31
0.0
  0
LINE
  5
14B
330
141
100
AcDbEntity
  8
Geometrie náčrtu (ISO)
100
AcDbLine
 10
-60.00000000000081
 20
-4.499999999999992
 30
0.0
 11
-60.00000000000081
 21
-13.49999999999998
 31
0.0
  0
LINE
  5
14C
330
141
100
AcDbEntity
  8
Geometrie náčrtu (ISO)
100
AcDbLine
 10
-60.00000000000081
 20
-4.499999999999992
 30
0.0
 11
59.99999999999911
 21
-4.500000000000028
 31
0.0
  0
LINE
  5
14D
330
141
100
AcDbEntity
  8
Geometrie náčrtu (ISO)
100
AcDbLine
 10
59.99999999999911
 20
-4.500000000000028
 30
0.0
 11
59.99999999999911
 21
4.499999999999957
 31
0.0
  0
LINE
  5
14E
330
141
100
AcDbEntity
  8
Geometrie náčrtu (ISO)
100
AcDbLine
 10
59.99999999999911
 20
4.499999999999957
 30
0.0
 11
-60.00000000000081
 21
4.499999999999992
 31
0.0
  0
LINE
  5
14F
330
141
100
AcDbEntity
  8
Geometrie náčrtu (ISO)
100
AcDbLine
 10
-60.00000000000081
 20
4.499999999999992
 30
0.0
 11
-60.00000000000081
 21
-4.499999999999992
 31
0.0
  0
LINE
  5
150
330
141
100
AcDbEntity
  8
Geometrie náčrtu (ISO)
100
AcDbLine
 10
-60.00000000000081
 20
4.499999999999992
 30
0.0
 11
59.99999999999911
 21
4.499999999999957
 31
0.0
  0
LINE
  5
151
330
141
100
AcDbEntity
  8
Geometrie náčrtu (ISO)
100
AcDbLine
 10
59.99999999999911
 20
4.499999999999957
 30
0.0
 11
59.99999999999911
 21
13.49999999999998
 31
0.0
  0
LINE
  5
152
330
141
100
AcDbEntity
  8
Geometrie náčrtu (ISO)
100
AcDbLine
 10
59.99999999999911
 20
13.49999999999998
 30
0.0
 11
-60.00000000000081
 21
13.50000000000001
 31
0.0
  0
LINE
  5
153
330
141
100
AcDbEntity
  8
Geometrie náčrtu (ISO)
100
AcDbLine
 10
-60.00000000000081
 20
13.50000000000001
 30
0.0
 11
-60.00000000000081
 21
4.499999999999992
 31
0.0
  0
LINE
  5
154
330
141
100
AcDbEntity
  8
Geometrie náčrtu (ISO)
100
AcDbLine
 10
-60.00000000000081
 20
13.50000000000001
 30
0.0
 11
59.99999999999911
 21
13.49999999999998
 31
0.0
  0
LINE
  5
155
330
141
100
AcDbEntity
  8
Geometrie náčrtu (ISO)
100
AcDbLine
 10
59.99999999999911
 20
13.49999999999998
 30
0.0
 11
59.99999999999911
 21
22.49999999999996
 31
0.0
  0
LINE
  5
156
330
141
100
AcDbEntity
  8
Geometrie náčrtu (ISO)
100
AcDbLine
 10
59.99999999999911
 20
22.49999999999996
 30
0.0
 11
-60.00000000000081
 21
22.5
 31
0.0
  0
LINE
  5
157
330
141
100
AcDbEntity
  8
Geometrie náčrtu (ISO)
100
AcDbLine
 10
-60.00000000000081
 20
22.5
 30
0.0
 11
-60.00000000000081
 21
13.50000000000001
 31
0.0
  0
LINE
  5
158
330
141
100
AcDbEntity
  8
Geometrie náčrtu (ISO)
100
AcDbLine
 10
-32.00000000000081
 20
22.5
 30
0.0
 11
-32.00000000000081
 21
-22.5
 31
0.0
  0
MTEXT
  5
159
330
141
100
AcDbEntity
  8
Značka (ISO)
100
AcDbMText
 10
-27.63552601875791
 20
11.7684641726084
 30
0.0
 40
5.0
 41
0.0
 71
     1
 72
     1
  1
\fTahoma|b0|i0;\H5.0000;xxxxxxxxxxx
  7
Text poznámky (ISO)
 73
     1
 44
1.0
  0
MTEXT
  5
15A
330
141
100
AcDbEntity
  8
Značka (ISO)
100
AcDbMText
 10
-55.52192909558073
 20
11.7684641726084
 30
0.0
 40
5.0
 41
20.42139291763306
 71
     1
 72
     1
  1
\fTahoma|b0|i0;\H5.0000;xxxxxx
  7
Text poznámky (ISO)
 73
     1
 44
1.0
  0
MTEXT
  5
15B
330
141
100
AcDbEntity
  8
Značka (ISO)
100
AcDbMText
 10
-54.58647492063526
 20
20.30710993714994
 30
0.0
 40
5.0
 41
13.92583036716939
 71
     1
 72
     1
  1
\fTahoma|b0|i0;\H5.0000;Art.
  7
Text poznámky (ISO)
 73
     1
 44
1.0
  0
MTEXT
  5
15C
330
141
100
AcDbEntity
  8
Značka (ISO)
100
AcDbMText
 10
-18.21724056795421
 20
20.30710993714994
 30
0.0
 40
5.0
 41
0.0
 71
     1
 72
     1
  1
\fTahoma|b0|i0;\H5.0000;Popis.
  7
Text poznámky (ISO)
 73
     1
 44
1.0
  0
MTEXT
  5
15D
330
141
100
AcDbEntity
  8
Značka (ISO)
100
AcDbMText
 10
-55.52192909558073
 20
2.473781856899819
 30
0.0
 40
5.0
 41
20.42139291763306
 71
     1
 72
     1
  1
\fTahoma|b0|i0;\H5.0000;xxxxxx
  7
Text poznámky (ISO)
 73
     1
 44
1.0
  0
MTEXT
  5
15E
330
141
100
AcDbEntity
  8
Značka (ISO)
100
AcDbMText
 10
-27.63552601875791
 20
2.473781856899819
 30
0.0
 40
5.0
 41
0.0
 71
     1
 72
     1
  1
\fTahoma|b0|i0;\H5.0000;xxxxxxxxxxx
  7
Text poznámky (ISO)
 73
     1
 44
1.0
  0
MTEXT
  5
15F
330
141
100
AcDbEntity
  8
Značka (ISO)
100
AcDbMText
 10
-55.52192909558073
 20
-6.862452441171491
 30
0.0
 40
5.0
 41
20.42139291763306
 71
     1
 72
     1
  1
\fTahoma|b0|i0;\H5.0000;xxxxxx
  7
Text poznámky (ISO)
 73
     1
 44
1.0
  0
MTEXT
  5
160
330
141
100
AcDbEntity
  8
Značka (ISO)
100
AcDbMText
 10
-27.63552601875791
 20
-6.862452441171491
 30
0.0
 40
5.0
 41
0.0
 71
     1
 72
     1
  1
\fTahoma|b0|i0;\H5.0000;xxxxxxxxxxx
  7
Text poznámky (ISO)
 73
     1
 44
1.0
  0
MTEXT
  5
161
330
141
100
AcDbEntity
  8
Značka (ISO)
100
AcDbMText
 10
-55.52192909558073
 20
-15.52177565039578
 30
0.0
 40
5.0
 41
20.42139291763306
 71
     1
 72
     1
  1
\fTahoma|b0|i0;\H5.0000;xxxxxx
  7
Text poznámky (ISO)
 73
     1
 44
1.0
  0
MTEXT
  5
162
330
141
100
AcDbEntity
  8
Značka (ISO)
100
AcDbMText
 10
-27.63552601875791
 20
-15.52177565039578
 30
0.0
 40
5.0
 41
0.0
 71
     1
 72
     1
  1
\fTahoma|b0|i0;\H5.0000;xxxxxxxxxxx
  7
Text poznámky (ISO)
 73
     1
 44
1.0
  0
ENDBLK
  5
143
330
141
100
AcDbEntity
  8
0
100
AcDbBlockEnd
  0
BLOCK
  5
164
330
163
100
AcDbEntity
  8
0
100
AcDbBlockBegin
  2
Nátěr
 70
     0
 10
0.0
 20
0.0
 30
0.0
  3
Nátěr
  1

  0
MTEXT
  5
166
330
163
100
AcDbEntity
  8
Značka (ISO)
100
AcDbMText
 10
-25.88411808013916
 20
1.864870421122759
 30
0.0
 40
3.499999940395355
 41
0.0
 71
     1
 72
     1
  1
Lackiert Farbe RAL 5002
  7
Text poznámky (ISO)
 73
     1
 44
1.0
  0
ENDBLK
  5
165
330
163
100
AcDbEntity
  8
0
100
AcDbBlockEnd
  0
BLOCK
  5
168
330
167
100
AcDbEntity
  8
0
100
AcDbBlockBegin
  2
Rámečky Default Border
 70
     0
 10
0.0
 20
0.0
 30
0.0
  3
Rámečky Default Border
  1

  0
POLYLINE
  5
16A
330
167
100
AcDbEntity
  8
Rámeček (ISO)
100
AcDb2dPolyline
 66
     1
 10
0.0
 20
0.0
 30
0.0
 70
   128
  0
VERTEX
  5
16B
330
16A
100
AcDbEntity
  8
Rámeček (ISO)
100
AcDbVertex
100
AcDb2dVertex
 10
10.0
 20
10.0
 30
0.0
  0
VERTEX
  5
16C
330
16A
100
AcDbEntity
  8
Rámeček (ISO)
100
AcDbVertex
100
AcDb2dVertex
 10
10.0
 20
287.0000076293946
 30
0.0
  0
VERTEX
  5
16E
330
16A
100
AcDbEntity
  8
Rámeček (ISO)
100
AcDbVertex
100
AcDb2dVertex
 10
410.0
 20
287.0000076293946
 30
0.0
  0
VERTEX
  5
16F
330
16A
100
AcDbEntity
  8
Rámeček (ISO)
100
AcDbVertex
100
AcDb2dVertex
 10
410.0
 20
10.0
 30
0.0
  0
VERTEX
  5
170
330
16A
100
AcDbEntity
  8
Rámeček (ISO)
100
AcDbVertex
100
AcDb2dVertex
 10
10.0
 20
10.0
 30
0.0
  0
SEQEND
  5
16D
330
16A
100
AcDbEntity
  8
Rámeček (ISO)
  0
POLYLINE
  5
171
330
167
100
AcDbEntity
  8
Rámeček (ISO)
100
AcDb2dPolyline
 66
     1
 10
0.0
 20
0.0
 30
0.0
 70
   128
  0
VERTEX
  5
172
330
171
100
AcDbEntity
  8
Rámeček (ISO)
100
AcDbVertex
100
AcDb2dVertex
 10
210.0
 20
0.0
 30
0.0
  0
VERTEX
  5
173
330
171
100
AcDbEntity
  8
Rámeček (ISO)
100
AcDbVertex
100
AcDb2dVertex
 10
210.0
 20
10.0
 30
0.0
  0
VERTEX
  5
175
330
171
100
AcDbEntity
  8
Rámeček (ISO)
100
AcDbVertex
100
AcDb2dVertex
 10
207.1132469177246
 20
5.0
 30
0.0
  0
VERTEX
  5
176
330
171
100
AcDbEntity
  8
Rámeček (ISO)
100
AcDbVertex
100
AcDb2dVertex
 10
212.8867530822754
 20
5.0
 30
0.0
  0
VERTEX
  5
177
330
171
100
AcDbEntity
  8
Rámeček (ISO)
100
AcDbVertex
100
AcDb2dVertex
 10
210.0
 20
10.0
 30
0.0
  0
SEQEND
  5
174
330
171
100
AcDbEntity
  8
Rámeček (ISO)
  0
POLYLINE
  5
178
330
167
100
AcDbEntity
  8
Rámeček (ISO)
100
AcDb2dPolyline
 66
     1
 10
0.0
 20
0.0
 30
0.0
 70
   128
  0
VERTEX
  5
179
330
178
100
AcDbEntity
  8
Rámeček (ISO)
100
AcDbVertex
100
AcDb2dVertex
 10
210.0
 20
297.0000076293946
 30
0.0
  0
VERTEX
  5
17A
330
178
100
AcDbEntity
  8
Rámeček (ISO)
100
AcDbVertex
100
AcDb2dVertex
 10
210.0
 20
287.0000076293946
 30
0.0
  0
VERTEX
  5
17C
330
178
100
AcDbEntity
  8
Rámeček (ISO)
100
AcDbVertex
100
AcDb2dVertex
 10
207.1132469177246
 20
292.0000076293945
 30
0.0
  0
VERTEX
  5
17D
330
178
100
AcDbEntity
  8
Rámeček (ISO)
100
AcDbVertex
100
AcDb2dVertex
 10
212.8867530822754
 20
292.0000076293945
 30
0.0
  0
VERTEX
  5
17E
330
178
100
AcDbEntity
  8
Rámeček (ISO)
100
AcDbVertex
100
AcDb2dVertex
 10
210.0
 20
287.0000076293946
 30
0.0
  0
SEQEND
  5
17B
330
178
100
AcDbEntity
  8
Rámeček (ISO)
  0
POLYLINE
  5
17F
330
167
100
AcDbEntity
  8
Rámeček (ISO)
100
AcDb2dPolyline
 66
     1
 10
0.0
 20
0.0
 30
0.0
 70
   128
  0
VERTEX
  5
180
330
17F
100
AcDbEntity
  8
Rámeček (ISO)
100
AcDbVertex
100
AcDb2dVertex
 10
0.0
 20
148.5000038146973
 30
0.0
  0
VERTEX
  5
181
330
17F
100
AcDbEntity
  8
Rámeček (ISO)
100
AcDbVertex
100
AcDb2dVertex
 10
10.0
 20
148.5000038146973
 30
0.0
  0
VERTEX
  5
183
330
17F
100
AcDbEntity
  8
Rámeček (ISO)
100
AcDbVertex
100
AcDb2dVertex
 10
5.0
 20
151.3867473602295
 30
0.0
  0
VERTEX
  5
184
330
17F
100
AcDbEntity
  8
Rámeček (ISO)
100
AcDbVertex
100
AcDb2dVertex
 10
5.0
 20
145.6132507324219
 30
0.0
  0
VERTEX
  5
185
330
17F
100
AcDbEntity
  8
Rámeček (ISO)
100
AcDbVertex
100
AcDb2dVertex
 10
10.0
 20
148.5000038146973
 30
0.0
  0
SEQEND
  5
182
330
17F
100
AcDbEntity
  8
Rámeček (ISO)
  0
POLYLINE
  5
186
330
167
100
AcDbEntity
  8
Rámeček (ISO)
100
AcDb2dPolyline
 66
     1
 10
0.0
 20
0.0
 30
0.0
 70
   128
  0
VERTEX
  5
187
330
186
100
AcDbEntity
  8
Rámeček (ISO)
100
AcDbVertex
100
AcDb2dVertex
 10
420.0
 20
148.5000038146973
 30
0.0
  0
VERTEX
  5
188
330
186
100
AcDbEntity
  8
Rámeček (ISO)
100
AcDbVertex
100
AcDb2dVertex
 10
410.0
 20
148.5000038146973
 30
0.0
  0
VERTEX
  5
18A
330
186
100
AcDbEntity
  8
Rámeček (ISO)
100
AcDbVertex
100
AcDb2dVertex
 10
415.0
 20
151.3867473602295
 30
0.0
  0
VERTEX
  5
18B
330
186
100
AcDbEntity
  8
Rámeček (ISO)
100
AcDbVertex
100
AcDb2dVertex
 10
415.0
 20
145.6132507324219
 30
0.0
  0
VERTEX
  5
18C
330
186
100
AcDbEntity
  8
Rámeček (ISO)
100
AcDbVertex
100
AcDb2dVertex
 10
410.0
 20
148.5000038146973
 30
0.0
  0
SEQEND
  5
189
330
186
100
AcDbEntity
  8
Rámeček (ISO)
  0
LINE
  5
18D
330
167
100
AcDbEntity
  8
Rámeček (ISO)
100
AcDbLine
 10
70.0
 20
10.0
 30
0.0
 11
70.0
 21
6.100000143051147
 31
0.0
  0
LINE
  5
18E
330
167
100
AcDbEntity
  8
Rámeček (ISO)
100
AcDbLine
 10
70.0
 20
287.0000076293946
 30
0.0
 11
70.0
 21
290.9000015258789
 31
0.0
  0
LINE
  5
18F
330
167
100
AcDbEntity
  8
Rámeček (ISO)
100
AcDbLine
 10
140.0
 20
10.0
 30
0.0
 11
140.0
 21
6.100000143051147
 31
0.0
  0
LINE
  5
190
330
167
100
AcDbEntity
  8
Rámeček (ISO)
100
AcDbLine
 10
140.0
 20
287.0000076293946
 30
0.0
 11
140.0
 21
290.9000015258789
 31
0.0
  0
LINE
  5
191
330
167
100
AcDbEntity
  8
Rámeček (ISO)
100
AcDbLine
 10
280.0
 20
10.0
 30
0.0
 11
280.0
 21
6.100000143051147
 31
0.0
  0
LINE
  5
192
330
167
100
AcDbEntity
  8
Rámeček (ISO)
100
AcDbLine
 10
280.0
 20
287.0000076293946
 30
0.0
 11
280.0
 21
290.9000015258789
 31
0.0
  0
LINE
  5
193
330
167
100
AcDbEntity
  8
Rámeček (ISO)
100
AcDbLine
 10
350.0
 20
10.0
 30
0.0
 11
350.0
 21
6.100000143051147
 31
0.0
  0
LINE
  5
194
330
167
100
AcDbEntity
  8
Rámeček (ISO)
100
AcDbLine
 10
350.0
 20
287.0000076293946
 30
0.0
 11
350.0
 21
290.9000015258789
 31
0.0
  0
MTEXT
  5
195
330
167
100
AcDbEntity
  8
Rámeček (ISO)
100
AcDbMText
 10
384.2103922448459
 20
287.4
 30
0.0
 40
3.499999940395355
 41
0.0
 71
     7
 72
     1
  1
1
  7
Text poznámky (ISO)
 73
     1
 44
1.0
  0
MTEXT
  5
196
330
167
100
AcDbEntity
  8
Rámeček (ISO)
100
AcDbMText
 10
384.2103922448459
 20
6.100000059604644
 30
0.0
 40
3.499999940395355
 41
0.0
 71
     7
 72
     1
  1
1
  7
Text poznámky (ISO)
 73
     1
 44
1.0
  0
MTEXT
  5
197
330
167
100
AcDbEntity
  8
Rámeček (ISO)
100
AcDbMText
 10
313.9387915541735
 20
287.4
 30
0.0
 40
3.499999940395355
 41
0.0
 71
     7
 72
     1
  1
2
  7
Text poznámky (ISO)
 73
     1
 44
1.0
  0
MTEXT
  5
198
330
167
100
AcDbEntity
  8
Rámeček (ISO)
100
AcDbMText
 10
313.9387915541735
 20
6.100000059604644
 30
0.0
 40
3.499999940395355
 41
0.0
 71
     7
 72
     1
  1
2
  7
Text poznámky (ISO)
 73
     1
 44
1.0
  0
MTEXT
  5
199
330
167
100
AcDbEntity
  8
Rámeček (ISO)
100
AcDbMText
 10
243.9107914829702
 20
287.3262560764327
 30
0.0
 40
3.499999940395355
 41
0.0
 71
     7
 72
     1
  1
3
  7
Text poznámky (ISO)
 73
     1
 44
1.0
  0
MTEXT
  5
19A
330
167
100
AcDbEntity
  8
Rámeček (ISO)
100
AcDbMText
 10
243.9107914829702
 20
6.026256136037408
 30
0.0
 40
3.499999940395355
 41
0.0
 71
     7
 72
     1
  1
3
  7
Text poznámky (ISO)
 73
     1
 44
1.0
  0
MTEXT
  5
19B
330
167
100
AcDbEntity
  8
Rámeček (ISO)
100
AcDbMText
 10
173.7791911483144
 20
287.4
 30
0.0
 40
3.499999940395355
 41
0.0
 71
     7
 72
     1
  1
4
  7
Text poznámky (ISO)
 73
     1
 44
1.0
  0
MTEXT
  5
19C
330
167
100
AcDbEntity
  8
Rámeček (ISO)
100
AcDbMText
 10
173.7791911483144
 20
6.100000059604644
 30
0.0
 40
3.499999940395355
 41
0.0
 71
     7
 72
     1
  1
4
  7
Text poznámky (ISO)
 73
     1
 44
1.0
  0
MTEXT
  5
19D
330
167
100
AcDbEntity
  8
Rámeček (ISO)
100
AcDbMText
 10
103.9751916467378
 20
287.3262560764327
 30
0.0
 40
3.499999940395355
 41
0.0
 71
     7
 72
     1
  1
5
  7
Text poznámky (ISO)
 73
     1
 44
1.0
  0
MTEXT
  5
19E
330
167
100
AcDbEntity
  8
Rámeček (ISO)
100
AcDbMText
 10
103.9751916467378
 20
6.026256136037408
 30
0.0
 40
3.499999940395355
 41
0.0
 71
     7
 72
     1
  1
5
  7
Text poznámky (ISO)
 73
     1
 44
1.0
  0
MTEXT
  5
19F
330
167
100
AcDbEntity
  8
Rámeček (ISO)
100
AcDbMText
 10
33.88279141176685
 20
287.3262560764327
 30
0.0
 40
3.499999940395355
 41
0.0
 71
     7
 72
     1
  1
6
  7
Text poznámky (ISO)
 73
     1
 44
1.0
  0
MTEXT
  5
1A0
330
167
100
AcDbEntity
  8
Rámeček (ISO)
100
AcDbMText
 10
33.88279141176685
 20
6.026256136037408
 30
0.0
 40
3.499999940395355
 41
0.0
 71
     7
 72
     1
  1
6
  7
Text poznámky (ISO)
 73
     1
 44
1.0
  0
LINE
  5
1A1
330
167
100
AcDbEntity
  8
Rámeček (ISO)
100
AcDbLine
 10
10.0
 20
74.25000190734863
 30
0.0
 11
6.100000143051147
 21
74.25000190734863
 31
0.0
  0
LINE
  5
1A2
330
167
100
AcDbEntity
  8
Rámeček (ISO)
100
AcDbLine
 10
410.0
 20
74.25000190734863
 30
0.0
 11
413.8999938964843
 21
74.25000190734863
 31
0.0
  0
LINE
  5
1A3
330
167
100
AcDbEntity
  8
Rámeček (ISO)
100
AcDbLine
 10
10.0
 20
222.7499961853027
 30
0.0
 11
6.100000143051147
 21
222.7499961853027
 31
0.0
  0
LINE
  5
1A4
330
167
100
AcDbEntity
  8
Rámeček (ISO)
100
AcDbLine
 10
410.0
 20
222.7499961853027
 30
0.0
 11
413.8999938964843
 21
222.7499961853027
 31
0.0
  0
MTEXT
  5
1A5
330
167
100
AcDbEntity
  8
Rámeček (ISO)
100
AcDbMText
 10
6.361230343933396
 20
35.37500002980233
 30
0.0
 40
3.499999940395355
 41
0.0
 71
     7
 72
     1
  1
A
  7
Text poznámky (ISO)
 73
     1
 44
1.0
  0
MTEXT
  5
1A6
330
167
100
AcDbEntity
  8
Rámeček (ISO)
100
AcDbMText
 10
410.6612302843287
 20
35.37500002980233
 30
0.0
 40
3.499999940395355
 41
0.0
 71
     7
 72
     1
  1
A
  7
Text poznámky (ISO)
 73
     1
 44
1.0
  0
MTEXT
  5
1A7
330
167
100
AcDbEntity
  8
Rámeček (ISO)
100
AcDbMText
 10
6.781848468328938
 20
109.6250000298023
 30
0.0
 40
3.499999940395355
 41
0.0
 71
     7
 72
     1
  1
B
  7
Text poznámky (ISO)
 73
     1
 44
1.0
  0
MTEXT
  5
1A8
330
167
100
AcDbEntity
  8
Rámeček (ISO)
100
AcDbMText
 10
411.0818484087242
 20
109.6250000298023
 30
0.0
 40
3.499999940395355
 41
0.0
 71
     7
 72
     1
  1
B
  7
Text poznámky (ISO)
 73
     1
 44
1.0
  0
MTEXT
  5
1A9
330
167
100
AcDbEntity
  8
Rámeček (ISO)
100
AcDbMText
 10
6.558903094188359
 20
183.8126013241708
 30
0.0
 40
3.499999940395355
 41
0.0
 71
     7
 72
     1
  1
C
  7
Text poznámky (ISO)
 73
     1
 44
1.0
  0
MTEXT
  5
1AA
330
167
100
AcDbEntity
  8
Rámeček (ISO)
100
AcDbMText
 10
410.8589030345837
 20
183.8126013241708
 30
0.0
 40
3.499999940395355
 41
0.0
 71
     7
 72
     1
  1
C
  7
Text poznámky (ISO)
 73
     1
 44
1.0
  0
MTEXT
  5
1AB
330
167
100
AcDbEntity
  8
Rámeček (ISO)
100
AcDbMText
 10
6.56770745709084
 20
258.1250000298023
 30
0.0
 40
3.499999940395355
 41
0.0
 71
     7
 72
     1
  1
D
  7
Text poznámky (ISO)
 73
     1
 44
1.0
  0
MTEXT
  5
1AC
330
167
100
AcDbEntity
  8
Rámeček (ISO)
100
AcDbMText
 10
410.8677073974861
 20
258.1250000298023
 30
0.0
 40
3.499999940395355
 41
0.0
 71
     7
 72
     1
  1
D
  7
Text poznámky (ISO)
 73
     1
 44
1.0
  0
ENDBLK
  5
169
330
167
100
AcDbEntity
  8
0
100
AcDbBlockEnd
  0
BLOCK
  5
1AF
330
1AE
100
AcDbEntity
  8
0
100
AcDbBlockBegin
  2
Rohová razítka ACO-razitko
 70
     2
 10
0.0
 20
0.0
 30
0.0
  3
Rohová razítka ACO-razitko
  1

  0
LINE
  5
1B1
330
1AE
100
AcDbEntity
  8
KOPF
  6
Continuous
370
    25
100
AcDbLine
 10
271.0
 20
94.01203200000004
 30
0.0
 11
271.0
 21
74.00000000000005
 31
0.0
  0
LINE
  5
1B2
330
1AE
100
AcDbEntity
  8
KOPF
  6
Continuous
370
    25
100
AcDbLine
 10
271.0
 20
94.01203200000004
 30
0.0
 11
271.0
 21
74.00000000000005
 31
0.0
  0
CIRCLE
  5
1B3
330
1AE
100
AcDbEntity
  8
TEXT50
  6
Continuous
370
    25
100
AcDbCircle
 10
228.4029491544077
 20
82.96404964998812
 30
0.0
 40
1.979948192651899
  0
LINE
  5
1B4
330
1AE
100
AcDbEntity
  8
TEXT50
  6
Continuous
370
    25
100
AcDbLine
 10
243.3885593590108
 20
84.94399784264013
 30
0.0
 11
243.3885593590108
 21
80.98410145733607
 31
0.0
  0
LINE
  5
1B5
330
1AE
100
AcDbEntity
  8
TEXT50
  6
Continuous
370
    25
100
AcDbLine
 10
234.8388431898113
 20
86.98698300161328
 30
0.0
 11
234.8388431898113
 21
78.94111629836295
 31
0.0
  0
LINE
  5
1B6
330
1AE
100
AcDbEntity
  8
TEXT50
  6
Continuous
370
    25
100
AcDbLine
 10
243.3885593590108
 20
84.94399784264013
 30
0.0
 11
234.8388431898113
 21
86.98698300161328
 31
0.0
  0
CIRCLE
  5
1B7
330
1AE
100
AcDbEntity
  8
TEXT50
  6
Continuous
370
    25
100
AcDbCircle
 10
228.4029491544077
 20
82.96404964998812
 30
0.0
 40
4.022933351625178
  0
LINE
  5
1B8
330
1AE
100
AcDbEntity
  8
TEXT50
  6
Continuous
370
    25
100
AcDbLine
 10
234.8388431898113
 20
78.94111629836295
 30
0.0
 11
243.3885593590108
 21
80.98410145733607
 31
0.0
  0
CIRCLE
  5
1B9
330
1AE
100
AcDbEntity
  8
TEXT35
  6
Continuous
370
    25
100
AcDbCircle
 10
221.0936673107637
 20
101.9131972309053
 30
0.0
 40
2.281499999999998
  0
CIRCLE
  5
1BA
330
1AE
100
AcDbEntity
  8
TEXT35
  6
Continuous
370
    25
100
AcDbCircle
 10
221.0936673107637
 20
101.9131972309053
 30
0.0
 40
1.579499999999999
  0
ARC
  5
1BB
330
1AE
100
AcDbEntity
  8
TEXT35
  6
Continuous
370
    25
100
AcDbCircle
 10
214.6291610736662
 20
101.9131972309054
 30
0.0
 40
1.579500000000072
100
AcDbArc
 50
31.05580049908738
 51
329.9999999999987
  0
LINE
  5
1BC
330
1AE
100
AcDbEntity
  8
TEXT35
  6
Continuous
370
    25
100
AcDbLine
 10
215.9822639109751
 20
102.7280180465864
 30
0.0
 11
216.5902852082589
 21
103.0790593062462
 31
0.0
  0
ARC
  5
1BD
330
1AE
100
AcDbEntity
  8
TEXT35
  6
Continuous
370
    25
100
AcDbCircle
 10
214.6291610736662
 20
101.9131972309052
 30
0.0
 40
2.281500000000015
100
AcDbArc
 50
30.73091726592628
 51
330.0000000000016
  0
LINE
  5
1BE
330
1AE
100
AcDbEntity
  8
TEXT35
  6
Continuous
370
    25
100
AcDbLine
 10
216.6049980324005
 20
100.7724472309053
 30
0.0
 11
215.9970481989438
 21
101.1234472309053
 31
0.0
  0
LINE
  5
1BF
330
1AE
100
AcDbEntity
  8
TEXT35
  6
Continuous
370
    25
100
AcDbLine
 10
211.8347763192409
 20
111.6789659312995
 30
0.0
 11
211.8347763192409
 21
98.44416361029551
 31
0.0
  0
LINE
  5
1C0
330
1AE
100
AcDbEntity
  8
TEXT35
  6
Continuous
370
    25
100
AcDbLine
 10
211.8347763192409
 20
98.44416361029551
 30
0.0
 11
217.4235458280916
 21
98.44416361029551
 31
0.0
  0
LINE
  5
1C1
330
1AE
100
AcDbEntity
  8
TEXT35
  6
Continuous
370
    25
100
AcDbLine
 10
217.4235458280916
 20
98.44416361029551
 30
0.0
 11
217.4235458280916
 21
111.6789659312995
 31
0.0
  0
LINE
  5
1C2
330
1AE
100
AcDbEntity
  8
TEXT35
  6
Continuous
370
    25
100
AcDbLine
 10
217.4235458280916
 20
111.6789659312995
 30
0.0
 11
211.8347763192409
 21
111.6789659312995
 31
0.0
  0
LINE
  5
1C3
330
1AE
100
AcDbEntity
  8
TEXT35
  6
Continuous
370
    25
100
AcDbLine
 10
223.888052065189
 20
111.6789659312995
 30
0.0
 11
223.888052065189
 21
98.44416361029551
 31
0.0
  0
LINE
  5
1C4
330
1AE
100
AcDbEntity
  8
TEXT35
  6
Continuous
370
    25
100
AcDbLine
 10
223.888052065189
 20
98.44416361029551
 30
0.0
 11
218.2992825563384
 21
98.44416361029551
 31
0.0
  0
LINE
  5
1C5
330
1AE
100
AcDbEntity
  8
TEXT35
  6
Continuous
370
    25
100
AcDbLine
 10
218.2992825563384
 20
98.44416361029551
 30
0.0
 11
218.2992825563384
 21
111.6789659312995
 31
0.0
  0
LINE
  5
1C6
330
1AE
100
AcDbEntity
  8
TEXT35
  6
Continuous
370
    25
100
AcDbLine
 10
218.2992825563384
 20
111.6789659312995
 30
0.0
 11
223.888052065189
 21
111.6789659312995
 31
0.0
  0
ARC
  5
1C7
330
1AE
100
AcDbEntity
  8
TEXT35
  6
Continuous
370
    25
100
AcDbCircle
 10
211.499154836569
 20
99.57623034270236
 30
0.0
 40
4.914000000000251
100
AcDbArc
 50
172.305837035409
 51
179.7113029220757
  0
LINE
  5
1C8
330
1AE
100
AcDbEntity
  8
TEXT35
  6
Continuous
370
    25
100
AcDbLine
 10
206.6293963427935
 20
100.2341423522474
 30
0.0
 11
209.6999133303443
 21
100.2341423522474
 31
0.0
  0
ARC
  5
1C9
330
1AE
100
AcDbEntity
  8
TEXT35
  6
Continuous
370
    25
100
AcDbCircle
 10
204.8301548365688
 20
99.57623034270325
 30
0.0
 40
4.914000000000133
100
AcDbArc
 50
0.2886970779141535
 51
7.694162964580896
  0
LINE
  5
1CA
330
1AE
100
AcDbEntity
  8
TEXT35
  6
Continuous
370
    25
100
AcDbLine
 10
209.7440924568018
 20
99.600990481233
 30
0.0
 11
210.4461002543538
 21
99.600990481233
 31
0.0
  0
ARC
  5
1CB
330
1AE
100
AcDbEntity
  8
TEXT35
  6
Continuous
370
    25
100
AcDbCircle
 10
204.8301548365688
 20
99.5762303427033
 30
0.0
 40
5.616000000000016
100
AcDbArc
 50
0.2526096926473688
 51
53.57642635766914
  0
ARC
  5
1CC
330
1AE
100
AcDbEntity
  8
TEXT35
  6
Continuous
370
    25
100
AcDbCircle
 10
211.4991548365688
 20
99.57623034270325
 30
0.0
 40
5.616000000000024
100
AcDbArc
 50
126.4235736423304
 51
179.7473903073512
  0
LINE
  5
1CD
330
1AE
100
AcDbEntity
  8
TEXT35
  6
Continuous
370
    25
100
AcDbLine
 10
205.8832094187838
 20
99.600990481233
 30
0.0
 11
206.5852172163358
 21
99.600990481233
 31
0.0
  0
LINE
  5
1CE
330
1AE
100
AcDbEntity
  8
TEXT35
  6
Continuous
370
    25
100
AcDbLine
 10
205.3702700821435
 20
111.6789659312995
 30
0.0
 11
205.3702700821435
 21
98.44416361029551
 31
0.0
  0
LINE
  5
1CF
330
1AE
100
AcDbEntity
  8
TEXT35
  6
Continuous
370
    25
100
AcDbLine
 10
205.3702700821435
 20
98.44416361029551
 30
0.0
 11
210.9590395909941
 21
98.44416361029551
 31
0.0
  0
LINE
  5
1D0
330
1AE
100
AcDbEntity
  8
TEXT35
  6
Continuous
370
    25
100
AcDbLine
 10
210.9590395909941
 20
98.44416361029551
 30
0.0
 11
210.9590395909941
 21
111.6789659312995
 31
0.0
  0
LINE
  5
1D1
330
1AE
100
AcDbEntity
  8
TEXT35
  6
Continuous
370
    25
100
AcDbLine
 10
210.9590395909941
 20
111.6789659312995
 30
0.0
 11
205.3702700821435
 21
111.6789659312995
 31
0.0
  0
ARC
  5
1D2
330
1AE
100
AcDbEntity
  8
TEXT35
  6
Continuous
370
    25
100
AcDbCircle
 10
204.830154836569
 20
99.57623034270341
 30
0.0
 40
4.913999999999818
100
AcDbArc
 50
16.0658750272321
 51
47.26788995739759
  0
LINE
  5
1D3
330
1AE
100
AcDbEntity
  8
TEXT35
  6
Continuous
370
    25
100
AcDbLine
 10
209.5522343918387
 20
100.9361423522474
 30
0.0
 11
206.7770752812989
 21
100.9361423522474
 31
0.0
  0
ARC
  5
1D4
330
1AE
100
AcDbEntity
  8
TEXT35
  6
Continuous
370
    25
100
AcDbCircle
 10
211.4991548365683
 20
99.57623034270339
 30
0.0
 40
4.913999999999566
100
AcDbArc
 50
132.7321100425983
 51
163.9341249727667
  0
LINE
  5
1D5
330
1AE
100
AcDbEntity
  8
Nadpis (ISO)
100
AcDbLine
 10
304.0
 20
114.0000000000001
 30
0.0
 11
304.0
 21
45.0
 31
0.0
  0
LINE
  5
1D6
330
1AE
100
AcDbEntity
  8
Nadpis (ISO)
100
AcDbLine
 10
304.0
 20
45.0
 30
0.0
 11
117.0
 21
44.99999999999999
 31
0.0
  0
LINE
  5
1D7
330
1AE
100
AcDbEntity
  8
Nadpis (ISO)
100
AcDbLine
 10
117.0
 20
44.99999999999999
 30
0.0
 11
117.0
 21
114.0
 31
0.0
  0
LINE
  5
1D8
330
1AE
100
AcDbEntity
  8
Nadpis (ISO)
100
AcDbLine
 10
117.0
 20
114.0
 30
0.0
 11
304.0
 21
114.0000000000001
 31
0.0
  0
LINE
  5
1D9
330
1AE
100
AcDbEntity
  8
Nadpis (ISO)
100
AcDbLine
 10
199.0
 20
114.0
 30
0.0
 11
199.0
 21
93.99999999999998
 31
0.0
  0
LINE
  5
1DA
330
1AE
100
AcDbEntity
  8
KOPF
 62
     7
100
AcDbLine
 10
199.0
 20
104.0
 30
0.0
 11
117.0
 21
104.0
 31
0.0
  0
LINE
  5
1DB
330
1AE
100
AcDbEntity
  8
Nadpis (ISO)
100
AcDbLine
 10
199.0
 20
93.99999999999998
 30
0.0
 11
117.0
 21
93.99999999999996
 31
0.0
  0
LINE
  5
1DC
330
1AE
100
AcDbEntity
  8
KOPF
100
AcDbLine
 10
158.0
 20
83.99999999999998
 30
0.0
 11
158.0
 21
114.0
 31
0.0
  0
LINE
  5
1DD
330
1AE
100
AcDbEntity
  8
Nadpis (ISO)
100
AcDbLine
 10
199.0
 20
93.99999999999998
 30
0.0
 11
304.0
 21
94.00000000000005
 31
0.0
  0
LINE
  5
1DE
330
1AE
100
AcDbEntity
  8
Nadpis (ISO)
100
AcDbLine
 10
223.0
 20
94.00000000000003
 30
0.0
 11
223.0
 21
44.99999999999999
 31
0.0
  0
LINE
  5
1DF
330
1AE
100
AcDbEntity
  8
Nadpis (ISO)
100
AcDbLine
 10
304.0
 20
74.00000000000004
 30
0.0
 11
117.0
 21
73.99999999999998
 31
0.0
  0
LINE
  5
1E0
330
1AE
100
AcDbEntity
  8
Nadpis (ISO)
100
AcDbLine
 10
186.0
 20
94.0
 30
0.0
 11
186.0
 21
74.00000000000002
 31
0.0
  0
LINE
  5
1E1
330
1AE
100
AcDbEntity
  8
KOPF
100
AcDbLine
 10
169.0
 20
83.99999999999998
 30
0.0
 11
169.0
 21
74.00000000000004
 31
0.0
  0
LINE
  5
1E2
330
1AE
100
AcDbEntity
  8
KOPF
100
AcDbLine
 10
186.0
 20
84.0
 30
0.0
 11
117.0
 21
83.99999999999996
 31
0.0
  0
LINE
  5
1E3
330
1AE
100
AcDbEntity
  8
KOPF
100
AcDbLine
 10
186.0
 20
79.0
 30
0.0
 11
117.0
 21
78.99999999999997
 31
0.0
  0
LINE
  5
1E4
330
1AE
100
AcDbEntity
  8
KOPF
100
AcDbLine
 10
223.0
 20
49.99999999999996
 30
0.0
 11
304.0
 21
50.00000000000003
 31
0.0
  0
LINE
  5
1E5
330
1AE
100
AcDbEntity
  8
KOPF
100
AcDbLine
 10
245.0
 20
94.00000000000003
 30
0.0
 11
245.0
 21
74.00000000000004
 31
0.0
  0
LINE
  5
1E6
330
1AE
100
AcDbEntity
  8
Nadpis (ISO)
100
AcDbLine
 10
292.0
 20
74.00000000000004
 30
0.0
 11
292.0
 21
50.00000000000007
 31
0.0
  0
LINE
  5
1E7
330
1AE
100
AcDbEntity
  8
KOPF
100
AcDbLine
 10
292.0
 20
50.00000000000001
 30
0.0
 11
292.0
 21
45.0
 31
0.0
  0
LINE
  5
1E8
330
1AE
100
AcDbEntity
  8
Nadpis (ISO)
100
AcDbLine
 10
260.9160465310349
 20
50.0
 30
0.0
 11
260.9160465310349
 21
45.0
 31
0.0
  0
LINE
  5
1E9
330
1AE
100
AcDbEntity
  8
Nadpis (ISO)
100
AcDbLine
 10
144.0
 20
83.99999999999998
 30
0.0
 11
144.0
 21
74.00000000000004
 31
0.0
  0
TEXT
  5
1EB
330
1AE
100
AcDbEntity
  8
Viditelná tenká (ISO)
100
AcDbText
 10
273.0
 20
84.97994933403731
 30
0.0
 40
1.539999991655349
  1
zum Zweck anderweitiger Benutzung
 41
0.7999999523162842
  7
Styl textu62
100
AcDbText
  0
TEXT
  5
1ED
330
1AE
100
AcDbEntity
  8
Viditelná tenká (ISO)
100
AcDbText
 10
273.0
 20
82.63814072439636
 30
0.0
 40
1.539999991655349
  1
mitgeteilt werden und bleibt unser
 41
0.7999999523162842
  7
Styl textu62
100
AcDbText
  0
TEXT
  5
1EE
330
1AE
100
AcDbEntity
  8
Viditelná tenká (ISO)
100
AcDbText
 10
273.0
 20
87.26106040199923
 30
0.0
 40
1.539999991655349
  1
noch dritten Personen, insbesondere
 41
0.7999999523162842
  7
Styl textu62
100
AcDbText
  0
TEXT
  5
1EF
330
1AE
100
AcDbEntity
  8
Viditelná tenká (ISO)
100
AcDbText
 10
273.0
 20
89.62823225872142
 30
0.0
 40
1.539999991655349
  1
Diese Zeichnung darf weder kopiert
 41
0.7999999523162842
  7
Styl textu62
100
AcDbText
  0
TEXT
  5
1F0
330
1AE
100
AcDbEntity
  8
Viditelná tenká (ISO)
100
AcDbText
 10
273.0
 20
80.37532604459602
 30
0.0
 40
1.539999991655349
  1
Eigentum.
 41
0.7999999523162842
  7
Styl textu62
100
AcDbText
  0
TEXT
  5
1F2
330
1AE
100
AcDbEntity
  8
Viditelná tenká (ISO)
100
AcDbText
 10
223.6386390092129
 20
91.29914147596016
 30
0.0
 40
2.000000029802322
  1
Projektion: ISO-E
 41
0.7999999523162842
  7
Styl textu58
100
AcDbText
  0
TEXT
  5
1F4
330
1AE
100
AcDbEntity
  8
Viditelná tenká (ISO)
100
AcDbText
 10
273.0
 20
77.30982488917629
 30
0.0
 40
1.539999991655349
  1
Schutzvermerk nach DIN 34 beachten
 41
0.75
  7
Styl textu63
100
AcDbText
  0
TEXT
  5
1F5
330
1AE
100
AcDbEntity
  8
Viditelná tenká (ISO)
100
AcDbText
 10
236.2487793316645
 20
99.38243367792949
 30
0.0
 40
2.000000029802322
  1
582 22 Přibyslav; CZ
 41
0.7999999523162842
  7
Styl textu58
100
AcDbText
  0
TEXT
  5
1F6
330
1AE
100
AcDbEntity
  8
Viditelná tenká (ISO)
100
AcDbText
 10
236.5351154208068
 20
103.0087314099309
 30
0.0
 40
2.000000029802322
  1
Havlíčkova 260
 41
0.7999999523162842
  7
Styl textu58
100
AcDbText
  0
TEXT
  5
1F8
330
1AE
100
AcDbEntity
  8
TEXT35
100
AcDbText
 10
235.9801354774567
 20
108.2018007493417
 30
0.0
 40
3.000000119209289
  1
ACO Industries k.s.
 41
0.7999999523162842
  7
Styl textu75
100
AcDbText
  0
TEXT
  5
1FA
330
1AE
100
AcDbEntity
  8
Viditelná tenká (ISO)
100
AcDbText
 10
261.6456899832647
 20
102.9064533471121
 30
0.0
 40
2.09999993443489
  1
Tel.: +420 569 491 111
 41
0.7000000476837159
  7
Styl textu72
100
AcDbText
  0
MTEXT
  5
1FB
330
1AE
100
AcDbEntity
  8
Viditelná tenká (ISO)
100
AcDbMText
 10
223.7412519286358
 20
73.27889989032858
 30
0.0
 40
2.000000029802322
 41
35.41727066040039
 71
     1
 72
     1
  1
\fArial|b0|i0;\H2.0000;Zeichnung Nr. \fTahoma|b0|i0;\H2.0000;/ Drawing No:
  7
Text poznámky (ISO)
 73
     1
 44
1.0
  0
MTEXT
  5
1FC
330
1AE
100
AcDbEntity
  8
Viditelná tenká (ISO)
100
AcDbMText
 10
292.8014921014588
 20
72.84063462326733
 30
0.0
 40
2.000000029802322
 41
7.016185171142836
 71
     1
 72
     1
  1
\fArial|b0|i0;\H2.0000;Index
  7
Text poznámky (ISO)
 73
     1
 44
1.0
  0
MTEXT
  5
1FD
330
1AE
100
AcDbEntity
  8
Viditelná tenká (ISO)
100
AcDbMText
 10
188.916108134284
 20
93.0
 30
0.0
 40
2.000000029802322
 41
0.0
 71
     1
 72
     1
  1
\fArial|b0|i0;\H2.0000;Massstab \fTahoma|b0|i0;\H2.0000;/ Scale:
  7
Text poznámky (ISO)
 73
     1
 44
1.0
  0
MTEXT
  5
1FE
330
1AE
100
AcDbEntity
  8
Viditelná tenká (ISO)
100
AcDbMText
 10
118.0
 20
113.0
 30
0.0
 40
2.000000029802322
 41
0.0
 71
     1
 72
     1
  1
\fArial|b0|i0;\H2.0000;Werkstoff / Material:
  7
Text poznámky (ISO)
 73
     1
 44
1.0
  0
MTEXT
  5
1FF
330
1AE
100
AcDbEntity
  8
Viditelná tenká (ISO)
100
AcDbMText
 10
159.0
 20
113.0
 30
0.0
 40
2.000000029802322
 41
0.0
 71
     1
 72
     1
  1
\fArial|b0|i0;\H2.0000;Gewicht / Weight:
  7
Text poznámky (ISO)
 73
     1
 44
1.0
  0
MTEXT
  5
200
330
1AE
100
AcDbEntity
  8
Viditelná tenká (ISO)
100
AcDbMText
 10
118.0
 20
103.0
 30
0.0
 40
2.000000029802322
 41
0.0
 71
     1
 72
     1
  1
\fArial|b0|i0;\H2.0000;zul.Abweich. \fTahoma|b0|i0;\H2.0000;/ Tolerance:
  7
Text poznámky (ISO)
 73
     1
 44
1.0
  0
MTEXT
  5
201
330
1AE
100
AcDbEntity
  8
Viditelná tenká (ISO)
100
AcDbMText
 10
159.0
 20
103.0
 30
0.0
 40
2.000000029802322
 41
0.0
 71
     1
 72
     1
  1
\fArial|b0|i0;\H2.0000;Oberflache \fTahoma|b0|i0;\H2.0000;/ Surface:
  7
Text poznámky (ISO)
 73
     1
 44
1.0
  0
MTEXT
  5
202
330
1AE
100
AcDbEntity
  8
Viditelná tenká (ISO)
100
AcDbMText
 10
118.2064366962235
 20
77.14296624611984
 30
0.0
 40
2.000000029802322
 41
0.0
 71
     1
 72
     1
  1
\fArial|b0|i0;\H2.0000;Gezeichnet \fTahoma|b0|i0;\H2.0000;/ Drawn:
  7
Text poznámky (ISO)
 73
     1
 44
1.0
  0
MTEXT
  5
203
330
1AE
100
AcDbEntity
  8
Viditelná tenká (ISO)
100
AcDbMText
 10
148.0773056067903
 20
83.21392117652587
 30
0.0
 40
2.000000029802322
 41
20.47901486848147
 71
     1
 72
     1
  1
\fArial|b0|i0;\H2.0000;Datum \fTahoma|b0|i0;\H2.0000;/ Date:
  7
Text poznámky (ISO)
 73
     1
 44
1.0
  0
MTEXT
  5
204
330
1AE
100
AcDbEntity
  8
Viditelná tenká (ISO)
100
AcDbMText
 10
171.7579499603395
 20
83.21392117652587
 30
0.0
 40
2.000000029802322
 41
7.452743649482727
 71
     1
 72
     1
  1
\fArial|b0|i0;\H2.0000;Name
  7
Text poznámky (ISO)
 73
     1
 44
1.0
  0
MTEXT
  5
205
330
1AE
100
AcDbEntity
  8
Nadpis (ISO)
100
AcDbMText
 10
118.0
 20
71.0
 30
0.0
 40
3.499999940395355
 41
0.0
 71
     1
 72
     1
  1
ACO VPUST 218_SIFON_V2A
  7
Text poznámky (ISO)
 73
     1
 44
1.0
  0
MTEXT
  5
206
330
1AE
100
AcDbEntity
  8
Nadpis (ISO)
100
AcDbMText
 10
117.5939056808251
 20
108.6756657996811
 30
0.0
 40
3.499999940395355
 41
0.0
 71
     1
 72
     1
  1
1.4301/1.4404
  7
Text poznámky (ISO)
 73
     1
 44
1.0
  0
MTEXT
  5
207
330
1AE
100
AcDbEntity
  8
Nadpis (ISO)
100
AcDbMText
 10
147.8345772780873
 20
77.9963482389533
 30
0.0
 40
2.000000029802322
 41
29.41232473017148
 71
     1
 72
     1
  1
\fTahoma|b0|i0;\H2.0000;3.7.2013
  7
Text poznámky (ISO)
 73
     1
 44
1.0
  0
MTEXT
  5
208
330
1AE
100
AcDbEntity
  8
Nadpis (ISO)
100
AcDbMText
 10
118.9147684950603
 20
98.79632878646518
 30
0.0
 40
3.499999940395355
 41
0.0
 71
     1
 72
     1
  1
ISO 2768-1m-2L
  7
Text poznámky (ISO)
 73
     1
 44
1.0
  0
MTEXT
  5
209
330
1AE
100
AcDbEntity
  8
Nadpis (ISO)
100
AcDbMText
 10
162.5831033854
 20
99.20167780246005
 30
0.0
 40
3.499999940395355
 41
0.0
 71
     1
 72
     1
  1
DIN ISO 1302
  7
Text poznámky (ISO)
 73
     1
 44
1.0
  0
MTEXT
  5
20A
330
1AE
100
AcDbEntity
  8
Nadpis (ISO)
100
AcDbMText
 10
262.4743825961981
 20
49.17778241269704
 30
0.0
 40
3.499999940395355
 41
0.0
 71
     1
 72
     1
  1
\fArial|b0|i0;\H3.5000;List:\fArial|b0|i0;\H3.5000;1 \fArial|b0|i0;\H3.5000;/\fArial|b0|i0;\H3.5000;1 
  7
Text poznámky (ISO)
 73
     1
 44
1.0
  0
MTEXT
  5
20B
330
1AE
100
AcDbEntity
  8
Nadpis (ISO)
100
AcDbMText
 10
159.4396788094336
 20
109.6756657996811
 30
0.0
 40
3.499999940395355
 41
29.10098367733216
 71
     1
 72
     1
  1
0,92 kg
  7
Text poznámky (ISO)
 73
     1
 44
1.0
  0
MTEXT
  5
20C
330
1AE
100
AcDbEntity
  8
Nadpis (ISO)
100
AcDbMText
 10
246.4026076227944
 20
91.0270523979041
 30
0.0
 40
1.500000059604644
 41
0.0
 71
     1
 72
     1
  1
\fTahoma|b0|i0;\W0.80;\H1.5000;The drawing is property \Pof company ACO \Pand must not be neither \Pcopied nor used\Pfor other unauthorized purposes. \PTrademark according to DIN 34\P
  7
Text poznámky (ISO)
 73
     2
 44
0.8232368230819702
  0
MTEXT
  5
20D
330
1AE
100
AcDbEntity
  8
Nadpis (ISO)
100
AcDbMText
 10
261.7171631717141
 20
101.5413993827952
 30
0.0
 40
2.09999993443489
 41
0.0
 71
     1
 72
     1
  1
\fTahoma|b0|i0;\H2.1000;www.aco.com
  7
Text poznámky (ISO)
 73
     1
 44
1.0
  0
MTEXT
  5
20E
330
1AE
100
AcDbEntity
  8
Viditelná tenká (ISO)
100
AcDbMText
 10
117.5488881436713
 20
93.28252823133128
 30
0.0
 40
2.000000029802322
 41
0.0
 71
     1
 72
     1
  1
\fTahoma|b0|i0;\H2.0000;Tolerance for welding:
  7
Text poznámky (ISO)
 73
     1
 44
1.0
  0
MTEXT
  5
20F
330
1AE
100
AcDbEntity
  8
Nadpis (ISO)
100
AcDbMText
 10
118.9147684950603
 20
89.07885701779646
 30
0.0
 40
3.499999940395355
 41
0.0
 71
     1
 72
     1
  1
EN ISO 13920-A
  7
Text poznámky (ISO)
 73
     1
 44
1.0
  0
ATTDEF
  5
211
102
{ACAD_XDICTIONARY
360
594
102
}
330
1AE
100
AcDbEntity
  8
Nadpis (ISO)
100
AcDbText
 10
292.3880993315334
 20
62.50000005960465
 30
0.0
 40
3.499999940395355
  1

  7
Styl textu9
 11
292.3880993315334
 21
66.0
 31
0.0
100
AcDbAttributeDefinition
  3
ČÍSLO REVIZE
  2
ČÍSLO_REVIZE
 70
     0
 74
     3
  0
ATTDEF
  5
215
102
{ACAD_XDICTIONARY
360
597
102
}
330
1AE
100
AcDbEntity
  8
Nadpis (ISO)
100
AcDbText
 10
294.5873446304243
 20
46.32882590415591
 30
0.0
 40
2.000000029802322
  1
A3
  7
Styl textu40
100
AcDbAttributeDefinition
  3
Sheet Size
  2
Sheet_Size_001
 70
     0
  0
ATTDEF
  5
216
102
{ACAD_XDICTIONARY
360
59A
102
}
330
1AE
100
AcDbEntity
  8
Nadpis (ISO)
100
AcDbText
 10
224.4232249036363
 20
62.4294829352179
 30
0.0
 40
3.499999940395355
  1
416549
  7
Text poznámky (ISO)
100
AcDbAttributeDefinition
  3
PART NUMBER
  2
PART_NUMBER_001
 70
     0
  0
ATTDEF
  5
217
102
{ACAD_XDICTIONARY
360
59D
102
}
330
1AE
100
AcDbEntity
  8
Nadpis (ISO)
100
AcDbText
 10
117.6450638072534
 20
56.43653464765657
 30
0.0
 40
3.499999940395355
  1
HYGIENIC
  7
Text poznámky (ISO)
100
AcDbAttributeDefinition
  3
PROJECT
  2
PROJECT_001
 70
     0
  0
ATTDEF
  5
219
102
{ACAD_XDICTIONARY
360
5A0
102
}
330
1AE
100
AcDbEntity
  8
Nadpis (ISO)
100
AcDbText
 10
117.8119543349687
 20
47.57893668517422
 30
0.0
 40
6.99999988079071
  1
416549 / 416550
  7
Styl textu94
100
AcDbAttributeDefinition
  3
SKLADOVÉ ČÍSLO
  2
SKLADOVÉ_ČÍSLO_001
 70
     0
  0
ATTDEF
  5
21A
102
{ACAD_XDICTIONARY
360
5A3
102
}
330
1AE
100
AcDbEntity
  8
Nadpis (ISO)
100
AcDbText
 10
171.1119787164546
 20
75.99634820915098
 30
0.0
 40
2.000000029802322
  1
mkotera
  7
Styl textu40
100
AcDbAttributeDefinition
  3
AUTHOR
  2
AUTHOR_001
 70
     0
  0
ATTDEF
  5
21B
102
{ACAD_XDICTIONARY
360
5A6
102
}
330
1AE
100
AcDbEntity
  8
Nadpis (ISO)
100
AcDbText
 10
189.1855699863978
 20
82.50038826992806
 30
0.0
 40
3.499999940395355
  1

  7
Text poznámky (ISO)
 11
189.1855699863978
 21
86.00038821032342
 31
0.0
100
AcDbAttributeDefinition
  3
FirstViewScale
  2
FirstViewScale
 70
     0
 74
     3
  0
ENDBLK
  5
1B0
330
1AE
100
AcDbEntity
  8
0
100
AcDbBlockEnd
  0
BLOCK
  5
2B7
330
2B6
100
AcDbEntity
  8
0
100
AcDbBlockBegin
  2
Pozice1
 70
     0
 10
0.0
 20
0.0
 30
0.0
  3
Pozice1
  1

  0
LINE
  5
2B9
330
2B6
100
AcDbEntity
  8
Značka (ISO)
100
AcDbLine
 10
184.7314466873424
 20
227.9316807269621
 30
0.0
 11
182.4663847641257
 21
226.8736190633558
 31
0.0
  0
POLYLINE
  5
2BA
330
2B6
100
AcDbEntity
  8
Značka (ISO)
100
AcDb2dPolyline
 66
     1
 10
0.0
 20
0.0
 30
0.0
 70
   128
  0
VERTEX
  5
2BB
330
2BA
100
AcDbEntity
  8
Značka (ISO)
100
AcDbVertex
100
AcDb2dVertex
 10
184.5198249816894
 20
228.3846855163574
 30
0.0
  0
VERTEX
  5
2BC
330
2BA
100
AcDbEntity
  8
Značka (ISO)
100
AcDbVertex
100
AcDb2dVertex
 10
182.4663925170898
 20
226.8736267089844
 30
0.0
  0
VERTEX
  5
2BE
330
2BA
100
AcDbEntity
  8
Značka (ISO)
100
AcDbVertex
100
AcDb2dVertex
 10
184.9430656433105
 20
227.4786758422852
 30
0.0
  0
VERTEX
  5
2BF
330
2BA
100
AcDbEntity
  8
Značka (ISO)
100
AcDbVertex
100
AcDb2dVertex
 10
184.5198249816894
 20
228.3846855163574
 30
0.0
  0
SEQEND
  5
2BD
330
2BA
100
AcDbEntity
  8
Značka (ISO)
  0
SOLID
  5
2C0
330
2B6
100
AcDbEntity
  8
Značka (ISO)
100
AcDbTrace
 10
184.5198249816894
 20
228.3846855163574
 30
0.0
 11
182.4663925170898
 21
226.8736267089844
 31
0.0
 12
184.9430656433105
 22
227.4786758422852
 32
0.0
 13
184.5198249816894
 23
228.3846855163574
 33
0.0
  0
LINE
  5
2C1
330
2B6
100
AcDbEntity
  8
Značka (ISO)
100
AcDbLine
 10
184.5198343546212
 20
228.3846931116055
 30
0.0
 11
182.4663847641257
 21
226.8736190633558
 31
0.0
  0
LINE
  5
2C2
330
2B6
100
AcDbEntity
  8
Značka (ISO)
100
AcDbLine
 10
182.4663847641257
 20
226.8736190633558
 30
0.0
 11
184.9430590200637
 21
227.4786683423188
 31
0.0
  0
LINE
  5
2C3
330
2B6
100
AcDbEntity
  8
Značka (ISO)
100
AcDbLine
 10
184.9430590200637
 20
227.4786683423188
 30
0.0
 11
184.5198343546212
 21
228.3846931116055
 31
0.0
  0
LINE
  5
2C4
330
2B6
100
AcDbEntity
  8
Značka (ISO)
100
AcDbLine
 10
184.7314466873424
 20
227.9316807269621
 30
0.0
 11
213.4767909002511
 21
241.3592812738178
 31
0.0
  0
MTEXT
  5
2C5
330
2B6
100
AcDbEntity
  8
Značka (ISO)
100
AcDbMText
 10
221.3517905426233
 20
247.9302898368594
 30
0.0
 40
5.24999976158142
 41
0.0
 71
     5
 72
     1
  1
1
  7
Text popisu (ISO)
 73
     1
 44
1.0
  0
LINE
  5
2C6
330
2B6
100
AcDbEntity
  8
Značka (ISO)
100
AcDbLine
 10
213.4767909002511
 20
241.3592812738178
 30
0.0
 11
229.2267901849954
 21
241.3592812738178
 31
0.0
  0
MTEXT
  5
2C7
330
2B6
100
AcDbEntity
  8
Značka (ISO)
100
AcDbMText
 10
237.1017898273675
 20
247.9770887217281
 30
0.0
 40
5.24999976158142
 41
0.0
 71
     5
 72
     1
  1
2
  7
Text popisu (ISO)
 73
     1
 44
1.0
  0
LINE
  5
2C8
330
2B6
100
AcDbEntity
  8
Značka (ISO)
100
AcDbLine
 10
229.2267901849954
 20
241.3592812738178
 30
0.0
 11
230.8017901134698
 21
239.7842813453433
 31
0.0
  0
LINE
  5
2C9
330
2B6
100
AcDbEntity
  8
Značka (ISO)
100
AcDbLine
 10
230.8017901134698
 20
239.7842813453433
 30
0.0
 11
232.3767900419442
 21
241.3592812738178
 31
0.0
  0
LINE
  5
2CA
330
2B6
100
AcDbEntity
  8
Značka (ISO)
100
AcDbLine
 10
232.3767900419442
 20
241.3592812738178
 30
0.0
 11
244.9767894697396
 21
241.3592812738178
 31
0.0
  0
ENDBLK
  5
2B8
330
2B6
100
AcDbEntity
  8
0
100
AcDbBlockEnd
  0
BLOCK
  5
2CF
330
2CE
100
AcDbEntity
  8
0
100
AcDbBlockBegin
  2
*D32
 70
     1
 10
0.0
 20
0.0
 30
0.0
  3
*D32
  1

  0
LINE
  5
77C
330
2CE
100
AcDbEntity
  8
Kóta (ISO)
100
AcDbLine
 10
99.55472531602259
 20
377.5736066605146
 30
0.0
 11
99.55472531602259
 21
397.2654071104629
 31
0.0
  0
LINE
  5
77D
330
2CE
100
AcDbEntity
  8
Kóta (ISO)
100
AcDbLine
 10
281.8547253160226
 20
377.5736066605146
 30
0.0
 11
281.8547253160226
 21
397.2654071104629
 31
0.0
  0
LINE
  5
77E
330
2CE
100
AcDbEntity
  8
Kóta (ISO)
100
AcDbLine
 10
104.8047253160226
 20
395.0154071104629
 30
0.0
 11
276.6047253160226
 21
395.0154071104629
 31
0.0
  0
SOLID
  5
77F
330
2CE
100
AcDbEntity
  8
Kóta (ISO)
100
AcDbTrace
 10
104.8047253160226
 20
395.8904071104629
 30
0.0
 11
104.8047253160226
 21
394.1404071104629
 31
0.0
 12
99.55472531602259
 22
395.0154071104629
 32
0.0
 13
99.55472531602259
 23
395.0154071104629
 33
0.0
  0
SOLID
  5
780
330
2CE
100
AcDbEntity
  8
Kóta (ISO)
100
AcDbTrace
 10
276.6047253160226
 20
395.8904071104629
 30
0.0
 11
276.6047253160226
 21
394.1404071104629
 31
0.0
 12
281.8547253160226
 22
395.0154071104629
 32
0.0
 13
281.8547253160226
 23
395.0154071104629
 33
0.0
  0
MTEXT
  5
781
330
2CE
100
AcDbEntity
  8
Kóta (ISO)
100
AcDbMText
 10
179.096980963879
 20
404.4145529711725
 30
0.0
 40
5.25
 41
0.0
 71
     1
 72
     1
  1
\A1;{\fAIGDT|b0|i0;\H5.2500;\ln\fTahoma|b0|i0;\H5.2500;}182,3
  7
Text poznámky (ISO)
 73
     1
 44
1.0
  0
POINT
  5
782
330
2CE
100
AcDbEntity
  8
Defpoints
 62
     0
100
AcDbPoint
 10
99.55472531602259
 20
377.5736066605146
 30
0.0
  0
POINT
  5
783
330
2CE
100
AcDbEntity
  8
Defpoints
 62
     0
100
AcDbPoint
 10
281.8547253160226
 20
377.5736066605146
 30
0.0
  0
POINT
  5
784
330
2CE
100
AcDbEntity
  8
Defpoints
 62
     0
100
AcDbPoint
 10
281.8547253160226
 20
395.0154071104629
 30
0.0
  0
ENDBLK
  5
2D0
330
2CE
100
AcDbEntity
  8
0
100
AcDbBlockEnd
  0
BLOCK
  5
3B2
330
3B1
100
AcDbEntity
  8
0
100
AcDbBlockBegin
  2
*D33
 70
     1
 10
0.0
 20
0.0
 30
0.0
  3
*D33
  1

  0
LINE
  5
697
330
3B1
100
AcDbEntity
  8
Kóta (ISO)
100
AcDbLine
 10
138.3235149582168
 20
279.5760188325395
 30
0.0
 11
79.88824530955189
 21
279.5760188325395
 31
0.0
  0
LINE
  5
698
330
3B1
100
AcDbEntity
  8
Kóta (ISO)
100
AcDbLine
 10
99.55472531602259
 20
377.5736066605146
 30
0.0
 11
79.88824530955191
 21
377.5736066605146
 31
0.0
  0
LINE
  5
699
330
3B1
100
AcDbEntity
  8
Kóta (ISO)
100
AcDbLine
 10
82.13824530955189
 20
284.8260188325395
 30
0.0
 11
82.13824530955191
 21
372.3236066605146
 31
0.0
  0
SOLID
  5
69A
330
3B1
100
AcDbEntity
  8
Kóta (ISO)
100
AcDbTrace
 10
81.26324530955189
 20
284.8260188325395
 30
0.0
 11
83.0132453095519
 21
284.8260188325395
 31
0.0
 12
82.13824530955189
 22
279.5760188325395
 32
0.0
 13
82.13824530955189
 23
279.5760188325395
 33
0.0
  0
SOLID
  5
69B
330
3B1
100
AcDbEntity
  8
Kóta (ISO)
100
AcDbTrace
 10
81.26324530955193
 20
372.3236066605146
 30
0.0
 11
83.01324530955191
 21
372.3236066605146
 31
0.0
 12
82.13824530955191
 22
377.5736066605146
 32
0.0
 13
82.13824530955191
 23
377.5736066605146
 33
0.0
  0
MTEXT
  5
69C
330
3B1
100
AcDbEntity
  8
Kóta (ISO)
100
AcDbMText
 10
75.14848708255385
 20
326.0602744417687
 30
0.0
 40
5.25
 41
0.0
 71
     1
 72
     1
  1
\A1;98
  7
Text poznámky (ISO)
 11
0.0000000000000001
 21
1.0
 31
0.0
 73
     1
 44
1.0
  0
POINT
  5
69D
330
3B1
100
AcDbEntity
  8
Defpoints
 62
     0
100
AcDbPoint
 10
138.3235149582168
 20
279.5760188325395
 30
0.0
  0
POINT
  5
69E
330
3B1
100
AcDbEntity
  8
Defpoints
 62
     0
100
AcDbPoint
 10
99.55472531602259
 20
377.5736066605146
 30
0.0
  0
POINT
  5
69F
330
3B1
100
AcDbEntity
  8
Defpoints
 62
     0
100
AcDbPoint
 10
82.13824530955191
 20
377.5736066605146
 30
0.0
  0
ENDBLK
  5
3B3
330
3B1
100
AcDbEntity
  8
0
100
AcDbBlockEnd
  0
BLOCK
  5
494
330
493
100
AcDbEntity
  8
0
100
AcDbBlockBegin
  2
*D34
 70
     1
 10
0.0
 20
0.0
 30
0.0
  3
*D34
  1

  0
LINE
  5
56B
330
493
100
AcDbEntity
  8
Kóta (ISO)
440
 16777216
100
AcDbLine
 10
106.4507917674454
 20
348.5736066605146
 30
0.0
 11
106.4507917674454
 21
255.9198038556138
 31
0.0
  0
LINE
  5
56C
330
493
100
AcDbEntity
  8
Kóta (ISO)
440
 16777216
100
AcDbLine
 10
274.9586588645997
 20
348.5736066605146
 30
0.0
 11
274.9586588645997
 21
255.9198038556138
 31
0.0
  0
LINE
  5
56D
330
493
100
AcDbEntity
  8
Kóta (ISO)
440
 16777216
100
AcDbLine
 10
111.7007917674454
 20
258.1698038556138
 30
0.0
 11
269.7086588645997
 21
258.1698038556138
 31
0.0
  0
SOLID
  5
56E
330
493
100
AcDbEntity
  8
Kóta (ISO)
440
 16777216
100
AcDbTrace
 10
111.7007917674454
 20
259.0448038556138
 30
0.0
 11
111.7007917674454
 21
257.2948038556138
 31
0.0
 12
106.4507917674454
 22
258.1698038556138
 32
0.0
 13
106.4507917674454
 23
258.1698038556138
 33
0.0
  0
SOLID
  5
56F
330
493
100
AcDbEntity
  8
Kóta (ISO)
440
 16777216
100
AcDbTrace
 10
269.7086588645997
 20
259.0448038556138
 30
0.0
 11
269.7086588645997
 21
257.2948038556138
 31
0.0
 12
274.9586588645997
 22
258.1698038556138
 32
0.0
 13
274.9586588645997
 23
258.1698038556138
 33
0.0
  0
MTEXT
  5
570
102
{ACAD_XDICTIONARY
360
7F3
102
}
330
493
100
AcDbEntity
  8
Kóta (ISO)
440
 16777216
100
AcDbMText
 10
179.4783989224699
 20
266.5487494566883
 30
0.0
 40
5.25
 41
0.0
 71
     1
 72
     1
  1
\A1;{\U+00D8}168,5
  7
Text poznámky (ISO)
 73
     1
 44
1.0
  0
POINT
  5
571
330
493
100
AcDbEntity
  8
Defpoints
 62
     0
440
 16777216
100
AcDbPoint
 10
106.4507917674454
 20
348.5736066605146
 30
0.0
  0
POINT
  5
572
330
493
100
AcDbEntity
  8
Defpoints
 62
     0
440
 16777216
100
AcDbPoint
 10
274.9586588645997
 20
348.5736066605146
 30
0.0
  0
POINT
  5
573
330
493
100
AcDbEntity
  8
Defpoints
 62
     0
440
 16777216
100
AcDbPoint
 10
274.9586588645997
 20
258.1698038556138
 30
0.0
  0
ENDBLK
  5
495
330
493
100
AcDbEntity
  8
0
100
AcDbBlockEnd
  0
BLOCK
  5
575
330
574
100
AcDbEntity
  8
0
100
AcDbBlockBegin
  2
Tabulka1
 70
     0
 10
0.0
 20
0.0
 30
0.0
  3
Tabulka1
  1

  0
LINE
  5
577
330
574
100
AcDbEntity
  8
Značka (ISO)
100
AcDbLine
 10
223.0
 20
100.1199997615814
 30
0.0
 11
362.0159301773857
 21
100.1199997615814
 31
0.0
  0
LINE
  5
578
330
574
100
AcDbEntity
  8
Značka (ISO)
100
AcDbLine
 10
223.0
 20
100.1199997615814
 30
0.0
 11
223.0
 21
94.83999982118607
 31
0.0
  0
MTEXT
  5
579
330
574
100
AcDbEntity
  8
Značka (ISO)
100
AcDbMText
 10
224.2400008900419
 20
95.65625583009794
 30
0.0
 40
3.499999940395355
 41
0.0
 71
     7
 72
     1
  1
POZ.
  7
Text poznámky (ISO)
 73
     1
 44
1.0
  0
LINE
  5
57A
330
574
100
AcDbEntity
  8
Značka (ISO)
100
AcDbLine
 10
234.9906976509095
 20
100.1199997615814
 30
0.0
 11
234.9906976509095
 21
94.83999982118607
 31
0.0
  0
MTEXT
  5
57B
102
{ACAD_XDICTIONARY
360
7F5
102
}
330
574
100
AcDbEntity
  8
Značka (ISO)
100
AcDbMText
 10
265.6669625661306
 20
95.47331412510946
 30
0.0
 40
3.499999940395355
 41
0.0
 71
     7
 72
     1
  1
N\U+00E1zev
  7
Text poznámky (ISO)
 73
     1
 44
1.0
  0
LINE
  5
57C
330
574
100
AcDbEntity
  8
Značka (ISO)
100
AcDbLine
 10
308.4519777612046
 20
100.1199997615814
 30
0.0
 11
308.4519777612046
 21
94.83999982118607
 31
0.0
  0
MTEXT
  5
57D
102
{ACAD_XDICTIONARY
360
7F7
102
}
330
574
100
AcDbEntity
  8
Značka (ISO)
100
AcDbMText
 10
320.6175709384395
 20
95.47331412510946
 30
0.0
 40
3.499999940395355
 41
0.0
 71
     7
 72
     1
  1
Skladov\U+00E9 \U+010D\U+00EDslo
  7
Text poznámky (ISO)
 73
     1
 44
1.0
  0
LINE
  5
57E
330
574
100
AcDbEntity
  8
Značka (ISO)
100
AcDbLine
 10
362.0159301773857
 20
100.1199997615814
 30
0.0
 11
362.0159301773857
 21
94.83999982118607
 31
0.0
  0
MTEXT
  5
57F
330
574
100
AcDbEntity
  8
Značka (ISO)
100
AcDbMText
 10
224.4136013315026
 20
90.44432715773583
 30
0.0
 40
3.499999940395355
 41
0.0
 71
     7
 72
     1
  1
1
  7
Text poznámky (ISO)
 73
     1
 44
1.0
  0
MTEXT
  5
580
102
{ACAD_XDICTIONARY
360
7F9
102
}
330
574
100
AcDbEntity
  8
Značka (ISO)
100
AcDbMText
 10
235.8582975939468
 20
89.74659619182348
 30
0.0
 40
3.499999940395355
 41
0.0
 71
     7
 72
     1
  1
Aco vpust 218_sva\U+0159enec, V2A
  7
Text poznámky (ISO)
 73
     1
 44
1.0
  0
MTEXT
  5
581
330
574
100
AcDbEntity
  8
Značka (ISO)
100
AcDbMText
 10
309.6919786512464
 20
90.37058329936117
 30
0.0
 40
3.499999940395355
 41
0.0
 71
     7
 72
     1
  1
E58047
  7
Text poznámky (ISO)
 73
     1
 44
1.0
  0
LINE
  5
582
330
574
100
AcDbEntity
  8
Značka (ISO)
100
AcDbLine
 10
223.0
 20
94.83999982118607
 30
0.0
 11
362.0159301773857
 21
94.83999982118607
 31
0.0
  0
MTEXT
  5
583
330
574
100
AcDbEntity
  8
Značka (ISO)
100
AcDbMText
 10
224.4136013315026
 20
85.16432721734046
 30
0.0
 40
3.499999940395355
 41
0.0
 71
     7
 72
     1
  1
1
  7
Text poznámky (ISO)
 73
     1
 44
1.0
  0
MTEXT
  5
584
102
{ACAD_XDICTIONARY
360
7FB
102
}
330
574
100
AcDbEntity
  8
Značka (ISO)
100
AcDbMText
 10
235.8582975939468
 20
84.46659625142812
 30
0.0
 40
3.499999940395355
 41
0.0
 71
     7
 72
     1
  1
Aco vpust 218_sva\U+0159enec, V4A
  7
Text poznámky (ISO)
 73
     1
 44
1.0
  0
MTEXT
  5
585
330
574
100
AcDbEntity
  8
Značka (ISO)
100
AcDbMText
 10
309.6919786512464
 20
85.09058335896581
 30
0.0
 40
3.499999940395355
 41
0.0
 71
     7
 72
     1
  1
E58048
  7
Text poznámky (ISO)
 73
     1
 44
1.0
  0
LINE
  5
586
330
574
100
AcDbEntity
  8
Značka (ISO)
100
AcDbLine
 10
223.0
 20
89.55999988079071
 30
0.0
 11
362.0159301773857
 21
89.55999988079071
 31
0.0
  0
MTEXT
  5
587
330
574
100
AcDbEntity
  8
Značka (ISO)
100
AcDbMText
 10
224.1420006408301
 20
79.85312797069548
 30
0.0
 40
3.499999940395355
 41
0.0
 71
     7
 72
     1
  1
2
  7
Text poznámky (ISO)
 73
     1
 44
1.0
  0
MTEXT
  5
588
102
{ACAD_XDICTIONARY
360
7FD
102
}
330
574
100
AcDbEntity
  8
Značka (ISO)
100
AcDbMText
 10
236.2306985409513
 20
79.18659631103276
 30
0.0
 40
3.499999940395355
 41
0.0
 71
     7
 72
     1
  1
Etiketa samolep\U+00EDc\U+00ED
  7
Text poznámky (ISO)
 73
     1
 44
1.0
  0
MTEXT
  5
589
330
574
100
AcDbEntity
  8
Značka (ISO)
100
AcDbMText
 10
309.4987781599433
 20
79.81058341857044
 30
0.0
 40
3.499999940395355
 41
0.0
 71
     7
 72
     1
  1
91018
  7
Text poznámky (ISO)
 73
     1
 44
1.0
  0
LINE
  5
58A
330
574
100
AcDbEntity
  8
Značka (ISO)
100
AcDbLine
 10
223.0
 20
84.27999994039536
 30
0.0
 11
362.0159301773857
 21
84.27999994039536
 31
0.0
  0
LINE
  5
58B
330
574
100
AcDbEntity
  8
Značka (ISO)
100
AcDbLine
 10
223.0
 20
79.0
 30
0.0
 11
362.0159301773857
 21
79.0
 31
0.0
  0
LINE
  5
58C
330
574
100
AcDbEntity
  8
Značka (ISO)
100
AcDbLine
 10
223.0
 20
94.83999982118607
 30
0.0
 11
223.0
 21
79.0
 31
0.0
  0
LINE
  5
58D
330
574
100
AcDbEntity
  8
Značka (ISO)
100
AcDbLine
 10
234.9906976509095
 20
94.83999982118607
 30
0.0
 11
234.9906976509095
 21
79.0
 31
0.0
  0
LINE
  5
58E
330
574
100
AcDbEntity
  8
Značka (ISO)
100
AcDbLine
 10
308.4519777612046
 20
94.83999982118607
 30
0.0
 11
308.4519777612046
 21
79.0
 31
0.0
  0
LINE
  5
58F
330
574
100
AcDbEntity
  8
Značka (ISO)
100
AcDbLine
 10
362.0159301773857
 20
94.83999982118607
 30
0.0
 11
362.0159301773857
 21
79.0
 31
0.0
  0
ENDBLK
  5
576
330
574
100
AcDbEntity
  8
0
100
AcDbBlockEnd
  0
BLOCK
  5
680
330
67E
100
AcDbEntity
  8
0
100
AcDbBlockBegin
  2
GENAXEH
 70
     0
 10
0.0
 20
0.0
 30
0.0
  3
GENAXEH
  1

  0
LINE
  5
67F
330
67E
100
AcDbEntity
  8
0
100
AcDbLine
 10
-1.0
 20
0.0
 30
0.0
 11
1.0
 21
0.0
 31
0.0
  0
ENDBLK
  5
681
330
67E
100
AcDbEntity
  8
0
100
AcDbBlockEnd
  0
BLOCK
  5
6A2
330
6A1
100
AcDbEntity
  8
0
100
AcDbBlockBegin
  2
*D38
 70
     1
 10
0.0
 20
0.0
 30
0.0
  3
*D38
  1

  0
LINE
  5
6A3
330
6A1
100
AcDbEntity
  8
Kóta (ISO)
100
AcDbLine
 10
58.7110297686593
 20
274.7325108656502
 30
0.0
 11
58.7110297686593
 21
292.0392925036275
 31
0.0
  0
LINE
  5
6A4
330
6A1
100
AcDbEntity
  8
Kóta (ISO)
100
AcDbLine
 10
185.7110297686593
 20
274.7325108656502
 30
0.0
 11
185.7110297686593
 21
292.0392925036275
 31
0.0
  0
LINE
  5
6A5
330
6A1
100
AcDbEntity
  8
Kóta (ISO)
100
AcDbLine
 10
62.21102976865931
 20
290.5392925036275
 30
0.0
 11
182.2110297686593
 21
290.5392925036275
 31
0.0
  0
SOLID
  5
6A6
330
6A1
100
AcDbEntity
  8
Kóta (ISO)
100
AcDbTrace
 10
62.21102976865931
 20
291.1226258369608
 30
0.0
 11
62.21102976865931
 21
289.9559591702942
 31
0.0
 12
58.7110297686593
 22
290.5392925036275
 32
0.0
 13
58.7110297686593
 23
290.5392925036275
 33
0.0
  0
SOLID
  5
6A7
330
6A1
100
AcDbEntity
  8
Kóta (ISO)
100
AcDbTrace
 10
182.2110297686593
 20
291.1226258369608
 30
0.0
 11
182.2110297686593
 21
289.9559591702942
 31
0.0
 12
185.7110297686593
 22
290.5392925036275
 32
0.0
 13
185.7110297686593
 23
290.5392925036275
 33
0.0
  0
MTEXT
  5
6A8
330
6A1
100
AcDbEntity
  8
Kóta (ISO)
100
AcDbMText
 10
115.6757106620462
 20
296.8053897441006
 30
0.0
 40
3.5
 41
0.0
 71
     1
 72
     1
  1
\A1;{\fAIGDT|b0|i0;\H3.5000;\ln\fTahoma|b0|i0;\H3.5000;}127
  7
Text poznámky (ISO)
 73
     1
 44
1.0
  0
POINT
  5
6A9
330
6A1
100
AcDbEntity
  8
Defpoints
 62
     0
100
AcDbPoint
 10
58.7110297686593
 20
274.7325108656502
 30
0.0
  0
POINT
  5
6AA
330
6A1
100
AcDbEntity
  8
Defpoints
 62
     0
100
AcDbPoint
 10
185.7110297686593
 20
274.7325108656502
 30
0.0
  0
POINT
  5
6AB
330
6A1
100
AcDbEntity
  8
Defpoints
 62
     0
100
AcDbPoint
 10
185.7110297686593
 20
290.5392925036275
 30
0.0
  0
ENDBLK
  5
6AC
330
6A1
100
AcDbEntity
  8
0
100
AcDbBlockEnd
  0
BLOCK
  5
6AE
330
6AD
100
AcDbEntity
  8
0
100
AcDbBlockBegin
  2
*D39
 70
     1
 10
0.0
 20
0.0
 30
0.0
  3
*D39
  1

  0
LINE
  5
6AF
330
6AD
100
AcDbEntity
  8
Kóta (ISO)
100
AcDbLine
 10
84.82738831972858
 20
169.5021192909687
 30
0.0
 11
43.13237229292556
 21
169.5021192909687
 31
0.0
  0
LINE
  5
6B0
330
6AD
100
AcDbEntity
  8
Kóta (ISO)
100
AcDbLine
 10
58.7110297686593
 20
274.7325108656502
 30
0.0
 11
43.13237229292559
 21
274.7325108656502
 31
0.0
  0
LINE
  5
6B1
330
6AD
100
AcDbEntity
  8
Kóta (ISO)
100
AcDbLine
 10
44.63237229292555
 20
173.0021192909687
 30
0.0
 11
44.63237229292558
 21
271.2325108656502
 31
0.0
  0
SOLID
  5
6B2
330
6AD
100
AcDbEntity
  8
Kóta (ISO)
100
AcDbTrace
 10
44.04903895959222
 20
173.0021192909687
 30
0.0
 11
45.21570562625889
 21
173.0021192909687
 31
0.0
 12
44.63237229292555
 22
169.5021192909687
 32
0.0
 13
44.63237229292555
 23
169.5021192909687
 33
0.0
  0
SOLID
  5
6B3
330
6AD
100
AcDbEntity
  8
Kóta (ISO)
100
AcDbTrace
 10
44.04903895959225
 20
271.2325108656502
 30
0.0
 11
45.21570562625892
 21
271.2325108656502
 31
0.0
 12
44.63237229292558
 22
274.7325108656502
 32
0.0
 13
44.63237229292558
 23
274.7325108656502
 33
0.0
  0
MTEXT
  5
6B4
330
6AD
100
AcDbEntity
  8
Kóta (ISO)
100
AcDbMText
 10
39.98898747089733
 20
219.5951235304279
 30
0.0
 40
3.5
 41
0.0
 71
     1
 72
     1
  1
\A1;105
  7
Text poznámky (ISO)
 11
0.0000000000000001
 21
1.0
 31
0.0
 73
     1
 44
1.0
  0
POINT
  5
6B5
330
6AD
100
AcDbEntity
  8
Defpoints
 62
     0
100
AcDbPoint
 10
84.82738831972858
 20
169.5021192909687
 30
0.0
  0
POINT
  5
6B6
330
6AD
100
AcDbEntity
  8
Defpoints
 62
     0
100
AcDbPoint
 10
58.7110297686593
 20
274.7325108656502
 30
0.0
  0
POINT
  5
6B7
330
6AD
100
AcDbEntity
  8
Defpoints
 62
     0
100
AcDbPoint
 10
44.63237229292558
 20
274.7325108656502
 30
0.0
  0
ENDBLK
  5
6B8
330
6AD
100
AcDbEntity
  8
0
100
AcDbBlockEnd
  0
BLOCK
  5
6BA
330
6B9
100
AcDbEntity
  8
0
100
AcDbBlockBegin
  2
*D40
 70
     1
 10
0.0
 20
0.0
 30
0.0
  3
*D40
  1

  0
LINE
  5
6BB
330
6B9
100
AcDbEntity
  8
Kóta (ISO)
100
AcDbLine
 10
65.4551530266298
 20
191.2702876817242
 30
0.0
 11
65.4551530266298
 21
154.0470667102347
 31
0.0
  0
LINE
  5
6BC
330
6B9
100
AcDbEntity
  8
Kóta (ISO)
100
AcDbLine
 10
178.9669065106888
 20
191.2702876817242
 30
0.0
 11
178.9669065106888
 21
154.0470667102347
 31
0.0
  0
LINE
  5
6BD
330
6B9
100
AcDbEntity
  8
Kóta (ISO)
100
AcDbLine
 10
68.9551530266298
 20
155.5470667102347
 30
0.0
 11
175.4669065106888
 21
155.5470667102347
 31
0.0
  0
SOLID
  5
6BE
330
6B9
100
AcDbEntity
  8
Kóta (ISO)
100
AcDbTrace
 10
68.9551530266298
 20
156.1304000435681
 30
0.0
 11
68.9551530266298
 21
154.9637333769014
 31
0.0
 12
65.4551530266298
 22
155.5470667102347
 32
0.0
 13
65.4551530266298
 23
155.5470667102347
 33
0.0
  0
SOLID
  5
6BF
330
6B9
100
AcDbEntity
  8
Kóta (ISO)
100
AcDbTrace
 10
175.4669065106888
 20
156.1304000435681
 30
0.0
 11
175.4669065106888
 21
154.9637333769014
 31
0.0
 12
178.9669065106888
 22
155.5470667102347
 32
0.0
 13
178.9669065106888
 23
155.5470667102347
 33
0.0
  0
MTEXT
  5
6C0
102
{ACAD_XDICTIONARY
360
807
102
}
330
6B9
100
AcDbEntity
  8
Kóta (ISO)
100
AcDbMText
 10
114.9727305664481
 20
161.1330304442844
 30
0.0
 40
3.5
 41
0.0
 71
     1
 72
     1
  1
\A1;{\U+00D8}113,5
  7
Text poznámky (ISO)
 73
     1
 44
1.0
  0
POINT
  5
6C1
330
6B9
100
AcDbEntity
  8
Defpoints
 62
     0
100
AcDbPoint
 10
65.4551530266298
 20
191.2702876817242
 30
0.0
  0
POINT
  5
6C2
330
6B9
100
AcDbEntity
  8
Defpoints
 62
     0
100
AcDbPoint
 10
178.9669065106888
 20
191.2702876817242
 30
0.0
  0
POINT
  5
6C3
330
6B9
100
AcDbEntity
  8
Defpoints
 62
     0
100
AcDbPoint
 10
178.9669065106888
 20
155.5470667102347
 30
0.0
  0
ENDBLK
  5
6C4
330
6B9
100
AcDbEntity
  8
0
100
AcDbBlockEnd
  0
BLOCK
  5
734
330
733
100
AcDbEntity
  8
0
100
AcDbBlockBegin
  2
*D42
 70
     1
 10
0.0
 20
0.0
 30
0.0
  3
*D42
  1

  0
LINE
  5
757
330
733
100
AcDbEntity
  8
Kóta (ISO)
100
AcDbLine
 10
460.1789439039499
 20
336.9423667744899
 30
0.0
 11
460.1789439039499
 21
354.9991484124672
 31
0.0
  0
LINE
  5
758
330
733
100
AcDbEntity
  8
Kóta (ISO)
100
AcDbLine
 10
587.1789439039498
 20
336.9423667744899
 30
0.0
 11
587.1789439039498
 21
354.9991484124672
 31
0.0
  0
LINE
  5
759
330
733
100
AcDbEntity
  8
Kóta (ISO)
100
AcDbLine
 10
465.4289439039499
 20
352.7491484124672
 30
0.0
 11
581.9289439039498
 21
352.7491484124672
 31
0.0
  0
SOLID
  5
75A
330
733
100
AcDbEntity
  8
Kóta (ISO)
100
AcDbTrace
 10
465.4289439039499
 20
353.6241484124672
 30
0.0
 11
465.4289439039499
 21
351.8741484124672
 31
0.0
 12
460.1789439039499
 22
352.7491484124672
 32
0.0
 13
460.1789439039499
 23
352.7491484124672
 33
0.0
  0
SOLID
  5
75B
330
733
100
AcDbEntity
  8
Kóta (ISO)
100
AcDbTrace
 10
581.9289439039498
 20
353.6241484124672
 30
0.0
 11
581.9289439039498
 21
351.8741484124672
 31
0.0
 12
587.1789439039498
 22
352.7491484124672
 32
0.0
 13
587.1789439039498
 23
352.7491484124672
 33
0.0
  0
MTEXT
  5
75C
330
733
100
AcDbEntity
  8
Kóta (ISO)
100
AcDbMText
 10
515.2161566979413
 20
360.5098954236195
 30
0.0
 40
5.25
 41
0.0
 71
     1
 72
     1
  1
\A1;{\fAIGDT|b0|i0;\H3.5000;\ln\fTahoma|b0|i0;\H3.5000;}127
  7
Text poznámky (ISO)
 73
     1
 44
1.0
  0
POINT
  5
75D
330
733
100
AcDbEntity
  8
Defpoints
 62
     0
100
AcDbPoint
 10
460.1789439039499
 20
336.9423667744899
 30
0.0
  0
POINT
  5
75E
330
733
100
AcDbEntity
  8
Defpoints
 62
     0
100
AcDbPoint
 10
587.1789439039498
 20
336.9423667744899
 30
0.0
  0
POINT
  5
75F
330
733
100
AcDbEntity
  8
Defpoints
 62
     0
100
AcDbPoint
 10
587.1789439039498
 20
352.7491484124672
 30
0.0
  0
ENDBLK
  5
735
330
733
100
AcDbEntity
  8
0
100
AcDbBlockEnd
  0
BLOCK
  5
740
330
73F
100
AcDbEntity
  8
0
100
AcDbBlockBegin
  2
*D43
 70
     1
 10
0.0
 20
0.0
 30
0.0
  3
*D43
  1

  0
LINE
  5
760
330
73F
100
AcDbEntity
  8
Kóta (ISO)
100
AcDbLine
 10
486.2953024550192
 20
231.7119751998084
 30
0.0
 11
443.8502864282162
 21
231.7119751998084
 31
0.0
  0
LINE
  5
761
330
73F
100
AcDbEntity
  8
Kóta (ISO)
100
AcDbLine
 10
460.1789439039499
 20
336.9423667744899
 30
0.0
 11
443.8502864282162
 21
336.9423667744899
 31
0.0
  0
LINE
  5
762
330
73F
100
AcDbEntity
  8
Kóta (ISO)
100
AcDbLine
 10
446.1002864282161
 20
236.9619751998084
 30
0.0
 11
446.1002864282161
 21
331.6923667744898
 31
0.0
  0
SOLID
  5
763
330
73F
100
AcDbEntity
  8
Kóta (ISO)
100
AcDbTrace
 10
445.2252864282161
 20
236.9619751998084
 30
0.0
 11
446.9752864282162
 21
236.9619751998084
 31
0.0
 12
446.1002864282161
 22
231.7119751998084
 32
0.0
 13
446.1002864282161
 23
231.7119751998084
 33
0.0
  0
SOLID
  5
764
330
73F
100
AcDbEntity
  8
Kóta (ISO)
100
AcDbTrace
 10
445.2252864282161
 20
331.6923667744898
 30
0.0
 11
446.9752864282162
 21
331.6923667744898
 31
0.0
 12
446.1002864282161
 22
336.9423667744899
 32
0.0
 13
446.1002864282161
 23
336.9423667744899
 33
0.0
  0
MTEXT
  5
765
330
73F
100
AcDbEntity
  8
Kóta (ISO)
100
AcDbMText
 10
439.1352091951738
 20
280.0297108025987
 30
0.0
 40
5.25
 41
0.0
 71
     1
 72
     1
  1
\A1;105
  7
Text poznámky (ISO)
 11
0.0000000000000001
 21
1.0
 31
0.0
 73
     1
 44
1.0
  0
POINT
  5
766
330
73F
100
AcDbEntity
  8
Defpoints
 62
     0
100
AcDbPoint
 10
486.2953024550192
 20
231.7119751998084
 30
0.0
  0
POINT
  5
767
330
73F
100
AcDbEntity
  8
Defpoints
 62
     0
100
AcDbPoint
 10
460.1789439039499
 20
336.9423667744899
 30
0.0
  0
POINT
  5
768
330
73F
100
AcDbEntity
  8
Defpoints
 62
     0
100
AcDbPoint
 10
446.1002864282161
 20
336.9423667744899
 30
0.0
  0
ENDBLK
  5
741
330
73F
100
AcDbEntity
  8
0
100
AcDbBlockEnd
  0
BLOCK
  5
74C
330
74B
100
AcDbEntity
  8
0
100
AcDbBlockBegin
  2
*D44
 70
     1
 10
0.0
 20
0.0
 30
0.0
  3
*D44
  1

  0
LINE
  5
769
330
74B
100
AcDbEntity
  8
Kóta (ISO)
100
AcDbLine
 10
466.9230671619203
 20
253.4801435905638
 30
0.0
 11
466.9230671619203
 21
215.5069226190744
 31
0.0
  0
LINE
  5
76A
330
74B
100
AcDbEntity
  8
Kóta (ISO)
100
AcDbLine
 10
580.4348206459793
 20
253.4801435905638
 30
0.0
 11
580.4348206459793
 21
215.5069226190744
 31
0.0
  0
LINE
  5
76B
330
74B
100
AcDbEntity
  8
Kóta (ISO)
100
AcDbLine
 10
472.1730671619203
 20
217.7569226190744
 30
0.0
 11
575.1848206459793
 21
217.7569226190744
 31
0.0
  0
SOLID
  5
76C
330
74B
100
AcDbEntity
  8
Kóta (ISO)
100
AcDbTrace
 10
472.1730671619203
 20
218.6319226190744
 30
0.0
 11
472.1730671619203
 21
216.8819226190744
 31
0.0
 12
466.9230671619203
 22
217.7569226190744
 32
0.0
 13
466.9230671619203
 23
217.7569226190744
 33
0.0
  0
SOLID
  5
76D
330
74B
100
AcDbEntity
  8
Kóta (ISO)
100
AcDbTrace
 10
575.1848206459793
 20
218.6319226190744
 30
0.0
 11
575.1848206459793
 21
216.8819226190744
 31
0.0
 12
580.4348206459793
 22
217.7569226190744
 32
0.0
 13
580.4348206459793
 23
217.7569226190744
 33
0.0
  0
MTEXT
  5
76E
102
{ACAD_XDICTIONARY
360
809
102
}
330
74B
100
AcDbEntity
  8
Kóta (ISO)
100
AcDbMText
 10
512.6985359038878
 20
226.1358682201489
 30
0.0
 40
5.25
 41
0.0
 71
     1
 72
     1
  1
\A1;{\U+00D8}113,5
  7
Text poznámky (ISO)
 73
     1
 44
1.0
  0
POINT
  5
76F
330
74B
100
AcDbEntity
  8
Defpoints
 62
     0
100
AcDbPoint
 10
466.9230671619203
 20
253.4801435905638
 30
0.0
  0
POINT
  5
770
330
74B
100
AcDbEntity
  8
Defpoints
 62
     0
100
AcDbPoint
 10
580.4348206459793
 20
253.4801435905638
 30
0.0
  0
POINT
  5
771
330
74B
100
AcDbEntity
  8
Defpoints
 62
     0
100
AcDbPoint
 10
580.4348206459793
 20
217.7569226190744
 30
0.0
  0
ENDBLK
  5
74D
330
74B
100
AcDbEntity
  8
0
100
AcDbBlockEnd
  0
ENDSEC
  0
SECTION
  2
ENTITIES
  0
LINE
  5
226
330
6C
100
AcDbEntity
  8
Viditelná (ISO)
100
AcDbLine
 10
274.9586588645997
 20
348.5736066605146
 30
0.0
 11
106.4507917674454
 21
348.5736066605146
 31
0.0
  0
LINE
  5
227
330
6C
100
AcDbEntity
  8
Viditelná (ISO)
100
AcDbLine
 10
274.9237613675618
 20
316.8188011813709
 30
0.0
 11
106.4856892644834
 21
316.8188011813709
 31
0.0
  0
LINE
  5
228
330
6C
100
AcDbEntity
  8
Viditelná tenká (ISO)
100
AcDbLine
 10
250.2174546930888
 20
281.2815912627778
 30
0.0
 11
131.1919959389564
 21
281.2815912627778
 31
0.0
  0
LINE
  5
229
330
6C
100
AcDbEntity
  8
Viditelná tenká (ISO)
100
AcDbLine
 10
255.5829207895746
 20
284.3108777959297
 30
0.0
 11
125.8265298424706
 21
284.3108777959297
 31
0.0
  0
LINE
  5
22A
330
6C
100
AcDbEntity
  8
Viditelná (ISO)
100
AcDbLine
 10
266.2367955607567
 20
294.1331949268833
 30
0.0
 11
115.1726550712885
 21
294.1331949268833
 31
0.0
  0
LINE
  5
22B
330
6C
100
AcDbEntity
  8
Viditelná (ISO)
100
AcDbLine
 10
106.4856892644834
 20
316.8188011813709
 30
0.0
 11
106.4507917674454
 21
348.5736066605146
 31
0.0
  0
LINE
  5
22C
330
6C
100
AcDbEntity
  8
Viditelná (ISO)
100
AcDbLine
 10
274.9237613675618
 20
316.8188011813709
 30
0.0
 11
274.9586588645997
 21
348.5736066605146
 31
0.0
  0
ARC
  5
22D
330
6C
100
AcDbEntity
  8
Viditelná (ISO)
100
AcDbCircle
 10
243.0859356738283
 20
295.3383341360736
 30
0.0
 40
15.76231530353416
100
AcDbArc
 50
270.0
 51
296.9004095463396
  0
ARC
  5
22E
330
6C
100
AcDbEntity
  8
Viditelná (ISO)
100
AcDbCircle
 10
138.3235149582168
 20
295.3383341360736
 30
0.0
 40
15.76231530353416
100
AcDbArc
 50
243.0995904536604
 51
270.0
  0
LINE
  5
22F
330
6C
100
AcDbEntity
  8
Viditelná (ISO)
100
AcDbLine
 10
138.3235149582168
 20
279.5760188325395
 30
0.0
 11
243.0859356738283
 21
279.5760188325395
 31
0.0
  0
ARC
  5
230
330
6C
100
AcDbEntity
  8
Viditelná (ISO)
100
AcDbCircle
 10
218.8663577540399
 20
343.0768844223096
 30
0.0
 40
69.29321421289468
100
AcDbArc
 50
296.90040954634
 51
301.9968350997684
  0
ARC
  5
231
330
6C
100
AcDbEntity
  8
Viditelná (ISO)
100
AcDbCircle
 10
162.5430928780052
 20
343.0768844223096
 30
0.0
 40
69.29321421289471
100
AcDbArc
 50
238.0031649002316
 51
243.0995904536601
  0
ARC
  5
232
330
6C
100
AcDbEntity
  8
Viditelná (ISO)
100
AcDbCircle
 10
234.8624888263953
 20
317.4745767203412
 30
0.0
 40
39.10456785453281
100
AcDbArc
 50
301.9968350997684
 51
323.3520484587572
  0
ARC
  5
233
330
6C
100
AcDbEntity
  8
Viditelná (ISO)
100
AcDbCircle
 10
146.5469618056499
 20
317.4745767203412
 30
0.0
 40
39.1045678545328
100
AcDbArc
 50
216.6479515412429
 51
238.0031649002316
  0
ARC
  5
234
330
6C
100
AcDbEntity
  8
Viditelná (ISO)
100
AcDbCircle
 10
239.073449356598
 20
317.5408617420481
 30
0.0
 40
35.85758277877559
100
AcDbArc
 50
319.2473002361131
 51
358.8461626261704
  0
ARC
  5
235
330
6C
100
AcDbEntity
  8
Viditelná (ISO)
100
AcDbCircle
 10
142.3360012754472
 20
317.5408617420481
 30
0.0
 40
35.85758277877558
100
AcDbArc
 50
181.1538373738295
 51
220.7526997638868
  0
SPLINE
  5
236
330
6C
100
AcDbEntity
  8
Viditelná (ISO)
100
AcDbSpline
210
0.0
220
0.0
230
1.0
 70
     8
 71
     3
 72
    24
 73
    20
 74
     0
 42
0.0000000001
 43
0.0000000001
 40
-0.8675758905440028
 40
-0.8675758905440028
 40
-0.8675758905440028
 40
-0.8675758905440028
 40
-0.8182677091944128
 40
-0.8182677091944128
 40
-0.7131237678057617
 40
-0.7131237678057617
 40
-0.6027468483771354
 40
-0.6027468483771354
 40
-0.5062767907503218
 40
-0.5062767907503218
 40
-0.4147475141938014
 40
-0.4147475141938014
 40
-0.3182773388435724
 40
-0.3182773388435724
 40
-0.2182218436684145
 40
-0.2182218436684145
 40
-0.1080912826139738
 40
-0.1080912826139738
 40
0.0
 40
0.0
 40
0.0
 40
0.0
 10
255.6955791004396
 20
353.9484882572395
 30
0.0
 10
255.6955835277642
 20
353.9484847740813
 30
0.0
 10
255.7042878927651
 20
353.9604044006734
 30
0.0
 10
255.7588278733007
 20
354.0351980414826
 30
0.0
 10
255.834868197115
 20
354.1393961158358
 30
0.0
 10
256.0664127124971
 20
354.4453052373955
 30
0.0
 10
256.2235988912278
 20
354.6484945157142
 30
0.0
 10
256.5801428246758
 20
355.0866855617966
 30
0.0
 10
256.7692442857985
 20
355.3112565020385
 30
0.0
 10
257.1693807281507
 20
355.7650773136938
 30
0.0
 10
257.3759728261251
 20
355.9902557008564
 30
0.0
 10
257.8080124553647
 20
356.4421707367643
 30
0.0
 10
258.0302481964996
 20
356.6645553676827
 30
0.0
 10
258.4610807959921
 20
357.0803360220734
 30
0.0
 10
258.6650967263758
 20
357.2688502650846
 30
0.0
 10
259.03532224648
 20
357.602254524762
 30
0.0
 10
259.1919068307607
 20
357.7377219170279
 30
0.0
 10
259.4033543478367
 20
357.9187820485732
 30
0.0
 10
259.4579152936006
 20
357.9643379754016
 30
0.0
 10
259.4579152936006
 20
357.9643379754016
 30
0.0
  0
SPLINE
  5
237
330
6C
100
AcDbEntity
  8
Viditelná (ISO)
100
AcDbSpline
210
0.0
220
0.0
230
1.0
 70
     8
 71
     3
 72
    32
 73
    28
 74
     0
 42
0.0000000001
 43
0.0000000001
 40
-1.733697985484337
 40
-1.733697985484337
 40
-1.733697985484337
 40
-1.733697985484337
 40
-1.663444123991581
 40
-1.663444123991581
 40
-1.588743295768048
 40
-1.588743295768048
 40
-1.495153033146851
 40
-1.495153033146851
 40
-1.410026261353486
 40
-1.410026261353486
 40
-1.345255115758298
 40
-1.345255115758298
 40
-1.31401615692076
 40
-1.31401615692076
 40
-1.291282263991521
 40
-1.291282263991521
 40
-1.268055359591284
 40
-1.268055359591284
 40
-1.234471692817972
 40
-1.234471692817972
 40
-1.158328558905993
 40
-1.158328558905993
 40
-1.058848917931054
 40
-1.058848917931054
 40
-0.9508292365690895
 40
-0.9508292365690895
 40
-0.8669319467753167
 40
-0.8669319467753167
 40
-0.8669319467753167
 40
-0.8669319467753167
 10
121.9515353384445
 20
357.9643379754016
 30
0.0
 10
121.9515353384445
 20
357.9643379754016
 30
0.0
 10
121.9745387808788
 20
357.9450439480639
 30
0.0
 10
122.0678230136957
 20
357.8659462650011
 30
0.0
 10
122.1405584482935
 20
357.8040245307101
 30
0.0
 10
122.3537159156629
 20
357.6190160502634
 30
0.0
 10
122.5050631161296
 20
357.4857173686089
 30
0.0
 10
122.8403063665541
 20
357.1799584890802
 30
0.0
 10
123.0180028977827
 20
357.0138777669108
 30
0.0
 10
123.348899761638
 20
356.6930871367702
 30
0.0
 10
123.4966039781047
 20
356.5463069591918
 30
0.0
 10
123.7174196109974
 20
356.3204469434144
 30
0.0
 10
123.7893711167566
 20
356.2458600301434
 30
0.0
 10
123.9132336106322
 20
356.1156705757229
 30
0.0
 10
123.9652094577051
 20
356.0604897754463
 30
0.0
 10
124.0696220673696
 20
355.9485133207011
 30
0.0
 10
124.1219934114298
 20
355.8917632107147
 30
0.0
 10
124.2487944815859
 20
355.7529372443691
 30
0.0
 10
124.3225193126215
 20
355.6709898858266
 30
0.0
 10
124.5581552760333
 20
355.4052111019164
 30
0.0
 10
124.7122343082063
 20
355.2251343855489
 30
0.0
 10
125.0378002993493
 20
354.8333300716864
 30
0.0
 10
125.1976789056866
 20
354.6318421895502
 30
0.0
 10
125.4696613714139
 20
354.2800847308425
 30
0.0
 10
125.5742104437798
 20
354.1389856332455
 30
0.0
 10
125.6887313955881
 20
353.9832235417193
 30
0.0
 10
125.7138853119341
 20
353.9484995734232
 30
0.0
 10
125.7138455028103
 20
353.9484682982155
 30
0.0
  0
LINE
  5
238
330
6C
100
AcDbEntity
  8
Viditelná (ISO)
100
AcDbLine
 10
278.8547253160226
 20
372.5736066605146
 30
0.0
 11
102.5547253160226
 21
372.5736066605146
 31
0.0
  0
LINE
  5
239
330
6C
100
AcDbEntity
  8
Viditelná tenká (ISO)
100
AcDbLine
 10
99.55472531602261
 20
375.5736066605146
 30
0.0
 11
281.8547253160226
 21
375.5736066605146
 31
0.0
  0
LINE
  5
23A
330
6C
100
AcDbEntity
  8
Viditelná tenká (ISO)
100
AcDbLine
 10
269.8113599098368
 20
363.9660459042393
 30
0.0
 11
111.5980907222084
 21
363.9660459042393
 31
0.0
  0
LINE
  5
23B
330
6C
100
AcDbEntity
  8
Viditelná tenká (ISO)
100
AcDbLine
 10
109.5547253160226
 20
366.809433013642
 30
0.0
 11
271.8547253160226
 21
366.809433013642
 31
0.0
  0
ARC
  5
23C
330
6C
100
AcDbEntity
  8
Viditelná (ISO)
100
AcDbCircle
 10
278.8547253160226
 20
375.5736066605146
 30
0.0
 40
3.0
100
AcDbArc
 50
270.000000000001
 51
0.0
  0
ARC
  5
23D
330
6C
100
AcDbEntity
  8
Viditelná (ISO)
100
AcDbCircle
 10
102.5547253160226
 20
375.5736066605146
 30
0.0
 40
3.0
100
AcDbArc
 50
180.0
 51
270.0
  0
ARC
  5
23E
330
6C
100
AcDbEntity
  8
Viditelná (ISO)
100
AcDbCircle
 10
268.8547253160226
 20
366.809433013642
 30
0.0
 40
3.0
100
AcDbArc
 50
288.5950966168179
 51
0.0
  0
ARC
  5
23F
330
6C
100
AcDbEntity
  8
Viditelná (ISO)
100
AcDbCircle
 10
112.5547253160226
 20
366.809433013642
 30
0.0
 40
3.0
100
AcDbArc
 50
180.0
 51
251.4049033831815
  0
LINE
  5
240
330
6C
100
AcDbEntity
  8
Viditelná (ISO)
100
AcDbLine
 10
281.8547253160226
 20
377.5736066605146
 30
0.0
 11
99.55472531602261
 21
377.5736066605146
 31
0.0
  0
LINE
  5
241
330
6C
100
AcDbEntity
  8
Viditelná tenká (ISO)
100
AcDbLine
 10
271.8547253160226
 20
371.0736066605146
 30
0.0
 11
109.5547253160226
 21
371.0736066605146
 31
0.0
  0
LINE
  5
242
330
6C
100
AcDbEntity
  8
Viditelná (ISO)
100
AcDbLine
 10
99.55472531602261
 20
375.5736066605146
 30
0.0
 11
99.55472531602261
 21
377.5736066605146
 31
0.0
  0
LINE
  5
243
330
6C
100
AcDbEntity
  8
Viditelná (ISO)
100
AcDbLine
 10
281.8547253160226
 20
375.5736066605146
 30
0.0
 11
281.8547253160226
 21
377.5736066605146
 31
0.0
  0
LINE
  5
244
330
6C
100
AcDbEntity
  8
Viditelná (ISO)
100
AcDbLine
 10
109.5547253160226
 20
366.809433013642
 30
0.0
 11
109.5547253160226
 21
371.0736066605146
 31
0.0
  0
LINE
  5
245
330
6C
100
AcDbEntity
  8
Viditelná (ISO)
100
AcDbLine
 10
271.8547253160226
 20
366.809433013642
 30
0.0
 11
271.8547253160226
 21
371.0736066605146
 31
0.0
  0
ARC
  5
246
330
6C
100
AcDbEntity
  8
Viditelná (ISO)
100
AcDbCircle
 10
279.3777058479784
 20
335.5321748102113
 30
0.0
 40
30.0
100
AcDbArc
 50
142.129717030474
 51
154.2328782161477
  0
ARC
  5
247
330
6C
100
AcDbEntity
  8
Viditelná (ISO)
100
AcDbCircle
 10
279.3777058479784
 20
335.5321748102113
 30
0.0
 40
30.0
100
AcDbArc
 50
108.5950966168179
 51
131.6051188199075
  0
ARC
  5
248
330
6C
100
AcDbEntity
  8
Viditelná (ISO)
100
AcDbCircle
 10
102.0317447840667
 20
335.5321748102113
 30
0.0
 40
30.0
100
AcDbArc
 50
48.39488118009248
 51
71.404903383182
  0
ARC
  5
249
330
6C
100
AcDbEntity
  8
Viditelná (ISO)
100
AcDbCircle
 10
102.0317447840667
 20
335.5321748102113
 30
0.0
 40
30.0
100
AcDbArc
 50
25.76712178385227
 51
37.87028296952596
  0
ARC
  5
24A
330
6C
100
AcDbEntity
  8
Viditelná (ISO)
100
AcDbCircle
 10
273.3547253160225
 20
371.0736066605146
 30
0.0
 40
1.500000000000003
100
AcDbArc
 50
90.00000000000202
 51
180.0
  0
ARC
  5
24B
330
6C
100
AcDbEntity
  8
Viditelná (ISO)
100
AcDbCircle
 10
108.0547253160226
 20
371.0736066605146
 30
0.0
 40
1.500000000000003
100
AcDbArc
 50
0.0
 51
90.0
  0
SPLINE
  5
24C
330
6C
100
AcDbEntity
  8
Viditelná (ISO)
100
AcDbSpline
210
0.0
220
0.0
230
1.0
 70
    24
 71
     3
 72
     8
 73
     4
 74
     0
 42
0.0000000001
 43
0.0000000001
 40
1.632663554078986
 40
1.632663554078986
 40
1.632663554078986
 40
1.632663554078986
 40
1.673039105955342
 40
1.673039105955342
 40
1.673039105955342
 40
1.673039105955342
 10
273.9547253160226
 20
348.570549791158
 30
0.0
 10
273.9547253160226
 20
348.6012955043477
 30
0.0
 10
273.9547253160226
 20
348.6184288891237
 30
0.0
 10
273.9547253160226
 20
348.6184288891237
 30
0.0
  0
SPLINE
  5
24D
330
6C
100
AcDbEntity
  8
Viditelná (ISO)
100
AcDbSpline
210
0.0
220
0.0
230
1.0
 70
    24
 71
     3
 72
     8
 73
     4
 74
     0
 42
0.0000000001
 43
0.0000000001
 40
0.0
 40
0.0
 40
0.0
 40
0.0
 40
0.0403755518763634
 40
0.0403755518763634
 40
0.0403755518763634
 40
0.0403755518763634
 10
107.4547253160226
 20
348.6184288891237
 30
0.0
 10
107.4547253160226
 20
348.6184288891237
 30
0.0
 10
107.4547253160226
 20
348.6012955043477
 30
0.0
 10
107.4547253160226
 20
348.5705497911579
 30
0.0
  0
ARC
  5
24E
330
6C
100
AcDbEntity
  8
Viditelná (ISO)
100
AcDbCircle
 10
190.7047253160226
 20
235.0663373187788
 30
0.0
 40
140.8
100
AcDbArc
 50
119.2206652996319
 51
126.2467714022976
  0
ARC
  5
24F
330
6C
100
AcDbEntity
  8
Viditelná (ISO)
100
AcDbCircle
 10
190.7047253160226
 20
235.0663373187788
 30
0.0
 40
140.8
100
AcDbArc
 50
53.75322859770244
 51
60.77933470036814
  0
ARC
  5
250
330
6C
100
AcDbEntity
  8
Viditelná (ISO)
100
AcDbCircle
 10
190.7047253160226
 20
235.0663373187788
 30
0.0
 40
135.8
100
AcDbArc
 50
56.70355797455612
 51
61.31735255767598
  0
ARC
  5
251
330
6C
100
AcDbEntity
  8
Viditelná (ISO)
100
AcDbCircle
 10
190.7047253160226
 20
235.0663373187788
 30
0.0
 40
135.8
100
AcDbArc
 50
118.682647442324
 51
123.2964420254438
  0
ARC
  5
252
330
6C
100
AcDbEntity
  8
Viditelná tenká (ISO)
100
AcDbCircle
 10
190.7047253159695
 20
149.8808699697111
 30
0.0
 40
46.4242490855606
100
AcDbArc
 50
183.0869378238889
 51
356.913062176111
  0
ARC
  5
253
330
6C
100
AcDbEntity
  8
Viditelná tenká (ISO)
100
AcDbCircle
 10
190.7047253159695
 20
149.8808699697111
 30
0.0
 40
46.4242490855606
100
AcDbArc
 50
3.086937823888955
 51
176.9130621761113
  0
ARC
  5
254
330
6C
100
AcDbEntity
  8
Viditelná (ISO)
100
AcDbCircle
 10
190.7047253159695
 20
149.8808699697134
 30
0.0
 40
25.92415988076027
100
AcDbArc
 50
185.5339265987784
 51
354.4660734012218
  0
ARC
  5
255
330
6C
100
AcDbEntity
  8
Viditelná (ISO)
100
AcDbCircle
 10
190.7047253159695
 20
149.8808699697134
 30
0.0
 40
25.92415988076027
100
AcDbArc
 50
5.533926598778301
 51
174.4660734012217
  0
ARC
  5
256
330
6C
100
AcDbEntity
  8
Viditelná tenká (ISO)
100
AcDbCircle
 10
190.7047253159695
 20
149.880869969714
 30
0.0
 40
21.81107817694302
100
AcDbArc
 50
186.5817453242061
 51
353.4182546757938
  0
ARC
  5
257
330
6C
100
AcDbEntity
  8
Viditelná tenká (ISO)
100
AcDbCircle
 10
190.7047253159695
 20
149.880869969714
 30
0.0
 40
21.81107817694302
100
AcDbArc
 50
6.581745324206139
 51
173.4182546757938
  0
ARC
  5
258
330
6C
100
AcDbEntity
  8
Viditelná tenká (ISO)
100
AcDbCircle
 10
190.7047253159695
 20
149.8808699697151
 30
0.0
 40
15.72124159177304
100
AcDbArc
 50
189.15004823526
 51
350.8499517647396
  0
ARC
  5
259
330
6C
100
AcDbEntity
  8
Viditelná tenká (ISO)
100
AcDbCircle
 10
190.7047253159695
 20
149.8808699697151
 30
0.0
 40
15.72124159177304
100
AcDbArc
 50
9.150048235260234
 51
170.8499517647397
  0
ARC
  5
25A
330
6C
100
AcDbEntity
  8
Viditelná tenká (ISO)
100
AcDbCircle
 10
190.7047253159695
 20
149.8808699697162
 30
0.0
 40
11.62258227885377
100
AcDbArc
 50
192.4213060733178
 51
347.5786939266821
  0
ARC
  5
25B
330
6C
100
AcDbEntity
  8
Viditelná tenká (ISO)
100
AcDbCircle
 10
190.7047253159695
 20
149.8808699697162
 30
0.0
 40
11.62258227885377
100
AcDbArc
 50
12.42130607331786
 51
167.5786939266821
  0
ARC
  5
25C
330
6C
100
AcDbEntity
  8
Viditelná tenká (ISO)
100
AcDbCircle
 10
190.7047253159695
 20
149.8808699697171
 30
0.0
 40
4.416800083993004
100
AcDbArc
 50
214.4731962654446
 51
325.5268037345552
  0
ARC
  5
25D
330
6C
100
AcDbEntity
  8
Viditelná tenká (ISO)
100
AcDbCircle
 10
190.7047253159695
 20
149.8808699697171
 30
0.0
 40
4.416800083993005
100
AcDbArc
 50
34.47319626544466
 51
145.5268037345551
  0
SPLINE
  5
25E
330
6C
100
AcDbEntity
  8
Viditelná (ISO)
100
AcDbSpline
210
0.0
220
0.0
230
1.0
 70
     8
 71
     3
 72
    18
 73
    14
 74
     0
 42
0.0000000001
 43
0.0000000001
 40
-1.734979746440992
 40
-1.734979746440992
 40
-1.734979746440992
 40
-1.734979746440992
 40
-1.646382469036324
 40
-1.646382469036324
 40
-1.540262649850976
 40
-1.540262649850976
 40
-1.430866030264039
 40
-1.430866030264039
 40
-1.331307896397183
 40
-1.331307896397183
 40
-1.237532260078505
 40
-1.237532260078505
 40
-1.18295751657908
 40
-1.18295751657908
 40
-1.18295751657908
 40
-1.18295751657908
 10
258.5725402916231
 20
149.8808699697338
 30
0.0
 10
258.5725402916231
 20
149.5855457117183
 30
0.0
 10
258.5359931604464
 20
149.2922299692481
 30
0.0
 10
258.379696305566
 20
148.676621177097
 30
0.0
 10
258.2464013194026
 20
148.3658797593837
 30
0.0
 10
257.8981409465469
 20
147.8196209362333
 30
0.0
 10
257.6842675738638
 20
147.591984587765
 30
0.0
 10
257.2348971215554
 20
147.2775000031685
 30
0.0
 10
257.0069179794781
 20
147.1824526812801
 30
0.0
 10
256.5615298493946
 20
147.1132088157604
 30
0.0
 10
256.3477970587761
 20
147.1328501841666
 30
0.0
 10
256.0274042587316
 20
147.24646464865
 30
0.0
 10
255.9143777921556
 20
147.3055633685521
 30
0.0
 10
255.8074457727722
 20
147.3808684885182
 30
0.0
  0
SPLINE
  5
25F
330
6C
100
AcDbEntity
  8
Viditelná (ISO)
100
AcDbSpline
210
0.0
220
0.0
230
1.0
 70
     8
 71
     3
 72
    18
 73
    14
 74
     0
 42
0.0000000001
 43
0.0000000001
 40
-0.552079538003013
 40
-0.552079538003013
 40
-0.552079538003013
 40
-0.552079538003013
 40
-0.5094533097020006
 40
-0.5094533097020006
 40
-0.4157819053898977
 40
-0.4157819053898977
 40
-0.3174080673858673
 40
-0.3174080673858673
 40
-0.2178130792864875
 40
-0.2178130792864875
 40
-0.1080329482577103
 40
-0.1080329482577103
 40
0.0
 40
0.0
 40
0.0
 40
0.0
 10
255.8074451373145
 20
152.3808711509136
 30
0.0
 10
255.8909566073172
 20
152.4396868175935
 30
0.0
 10
255.9782553161141
 20
152.4886651852335
 30
0.0
 10
256.2676945303933
 20
152.6119910230576
 30
0.0
 10
256.4791781508993
 20
152.6452071315399
 30
0.0
 10
256.9209088529015
 20
152.6042627154264
 30
0.0
 10
257.1477254351519
 20
152.5249756773126
 30
0.0
 10
257.5812380611592
 20
152.2555486087074
 30
0.0
 10
257.7838986859581
 20
152.0663160170772
 30
0.0
 10
258.1518635027837
 20
151.5750598541438
 30
0.0
 10
258.3075251998881
 20
151.2682454861126
 30
0.0
 10
258.5181417611669
 20
150.5974586660296
 30
0.0
 10
258.5725402916231
 20
150.2409797972595
 30
0.0
 10
258.5725402916231
 20
149.8808699697338
 30
0.0
  0
SPLINE
  5
260
330
6C
100
AcDbEntity
  8
Viditelná (ISO)
100
AcDbSpline
210
0.0
220
0.0
230
1.0
 70
     8
 71
     3
 72
    10
 73
     6
 74
     0
 42
0.0000000001
 43
0.0000000001
 40
-1.236341256741891
 40
-1.236341256741891
 40
-1.236341256741891
 40
-1.236341256741891
 40
-1.231746992026116
 40
-1.231746992026116
 40
-1.183052966850795
 40
-1.183052966850795
 40
-1.183052966850795
 40
-1.183052966850795
 10
257.0224829556514
 20
152.5541209904332
 30
0.0
 10
257.0126069132093
 20
152.5505367622108
 30
0.0
 10
257.0027587694629
 20
152.5468278026025
 30
0.0
 10
256.8888668646915
 20
152.5023632765187
 30
0.0
 10
256.7888439910581
 20
152.4480514131115
 30
0.0
 10
256.6937304100696
 20
152.3808714127804
 30
0.0
  0
SPLINE
  5
261
330
6C
100
AcDbEntity
  8
Viditelná (ISO)
100
AcDbSpline
210
0.0
220
0.0
230
1.0
 70
     8
 71
     3
 72
    10
 73
     6
 74
     0
 42
0.0000000001
 43
0.0000000001
 40
-0.5520896354772363
 40
-0.5520896354772363
 40
-0.5520896354772363
 40
-0.5520896354772363
 40
-0.5062767907503218
 40
-0.5062767907503218
 40
-0.4988090605756353
 40
-0.4988090605756353
 40
-0.4988090605756353
 40
-0.4988090605756353
 10
256.6937302106545
 20
147.3808686046336
 30
0.0
 10
256.7832140405609
 20
147.3176638963483
 30
0.0
 10
256.8770627364719
 20
147.2658358899703
 30
0.0
 10
256.9904647321769
 20
147.2195951171059
 30
0.0
 10
257.0064374236693
 20
147.2134423913166
 30
0.0
 10
257.0224841810655
 20
147.2076187702998
 30
0.0
  0
SPLINE
  5
262
330
6C
100
AcDbEntity
  8
Viditelná (ISO)
100
AcDbSpline
210
0.0
220
0.0
230
1.0
 70
     8
 71
     3
 72
    26
 73
    22
 74
     0
 42
0.0000000001
 43
0.0000000001
 40
-1.733570177815725
 40
-1.733570177815725
 40
-1.733570177815725
 40
-1.733570177815725
 40
-1.670544372900712
 40
-1.670544372900712
 40
-1.604395984518648
 40
-1.604395984518648
 40
-1.509563433234016
 40
-1.509563433234016
 40
-1.42281564469597
 40
-1.42281564469597
 40
-1.351261969084662
 40
-1.351261969084662
 40
-1.31725014591321
 40
-1.31725014591321
 40
-1.293519646963354
 40
-1.293519646963354
 40
-1.270146344296621
 40
-1.270146344296621
 40
-1.237819162803659
 40
-1.237819162803659
 40
-1.182326643181777
 40
-1.182326643181777
 40
-1.182326643181777
 40
-1.182326643181777
 10
122.8369103403159
 20
149.8808699697338
 30
0.0
 10
122.8369103403159
 20
150.0909559861172
 30
0.0
 10
122.8553844888329
 20
150.3003166920475
 30
0.0
 10
122.9300635269731
 20
150.7195905550037
 30
0.0
 10
122.9878121276912
 20
150.9274519819842
 30
0.0
 10
123.1716101916949
 20
151.4058246450339
 30
0.0
 10
123.3150703877991
 20
151.6609022849714
 30
0.0
 10
123.6410512224763
 20
152.0766779249002
 30
0.0
 10
123.8171693923781
 20
152.2410493172285
 30
0.0
 10
124.1610162390174
 20
152.4673304863912
 30
0.0
 10
124.3233071991883
 20
152.5411642633138
 30
0.0
 10
124.5659775511534
 20
152.6053774312209
 30
0.0
 10
124.6444138959119
 20
152.6191512842284
 30
0.0
 10
124.777194835682
 20
152.6306714747998
 30
0.0
 10
124.8315875450275
 20
152.631998159922
 30
0.0
 10
124.9389002831861
 20
152.6278657551207
 30
0.0
 10
124.9917773123119
 20
152.6225105394407
 30
0.0
 10
125.1165714288851
 20
152.6019160644466
 30
0.0
 10
125.1879061652371
 20
152.5836955041668
 30
0.0
 10
125.3778128043579
 20
152.517453906113
 30
0.0
 10
125.4930196069768
 20
152.4576345215512
 30
0.0
 10
125.6020236802066
 20
152.3808702070923
 30
0.0
  0
SPLINE
  5
263
330
6C
100
AcDbEntity
  8
Viditelná (ISO)
100
AcDbSpline
210
0.0
220
0.0
230
1.0
 70
     8
 71
     3
 72
    24
 73
    20
 74
     0
 42
0.0000000001
 43
0.0000000001
 40
-0.5516652912276204
 40
-0.5516652912276204
 40
-0.5516652912276204
 40
-0.5516652912276204
 40
-0.499347676869027
 40
-0.499347676869027
 40
-0.465731639130091
 40
-0.465731639130091
 40
-0.4420880303602998
 40
-0.4420880303602998
 40
-0.4186391785350147
 40
-0.4186391785350147
 40
-0.3859511864192573
 40
-0.3859511864192573
 40
-0.3161405188436078
 40
-0.3161405188436078
 40
-0.2174349602707668
 40
-0.2174349602707668
 40
-0.1096104549976142
 40
-0.1096104549976142
 40
0.0
 40
0.0
 40
0.0
 40
0.0
 10
125.6020223711051
 20
147.380869606426
 30
0.0
 10
125.499289292993
 20
147.3085216538535
 30
0.0
 10
125.3910161407815
 20
147.2512012040166
 30
0.0
 10
125.205981888641
 20
147.1831819263415
 30
0.0
 10
125.1320098976997
 20
147.1632207742467
 30
0.0
 10
125.0039411355688
 20
147.1407519254727
 30
0.0
 10
124.9505220805913
 20
147.1348344270303
 30
0.0
 10
124.843337302919
 20
147.1297808539228
 30
0.0
 10
124.7896311599631
 20
147.1305918260836
 30
0.0
 10
124.6606067291821
 20
147.1405004202544
 30
0.0
 10
124.5852345472271
 20
147.1527274937488
 30
0.0
 10
124.3494512532603
 20
147.2111287781896
 30
0.0
 10
124.1906769874532
 20
147.2798297871848
 30
0.0
 10
123.8222492819238
 20
147.5115128743675
 30
0.0
 10
123.6217926573429
 20
147.699837943348
 30
0.0
 10
123.2592826695457
 20
148.1850844430901
 30
0.0
 10
123.1060033268321
 20
148.4858914375462
 30
0.0
 10
122.8929143857183
 20
149.1539251125749
 30
0.0
 10
122.8369103403159
 20
149.5155017864085
 30
0.0
 10
122.8369103403159
 20
149.8808699697338
 30
0.0
  0
SPLINE
  5
264
330
6C
100
AcDbEntity
  8
Viditelná (ISO)
100
AcDbSpline
210
0.0
220
0.0
230
1.0
 70
     8
 71
     3
 72
    10
 73
     6
 74
     0
 42
0.0000000001
 43
0.0000000001
 40
-1.235661463165567
 40
-1.235661463165567
 40
-1.235661463165567
 40
-1.235661463165567
 40
-1.234471692817972
 40
-1.234471692817972
 40
-1.18240299576977
 40
-1.18240299576977
 40
-1.18240299576977
 40
-1.18240299576977
 10
124.3869684758469
 20
147.2076190699713
 30
0.0
 10
124.3895274936461
 20
147.2085478197548
 30
0.0
 10
124.3920845140076
 20
147.2094848970785
 30
0.0
 10
124.5064559364519
 20
147.2518044253784
 30
0.0
 10
124.6138595635903
 20
147.3089164155075
 30
0.0
 10
124.7157345037287
 20
147.3808693142341
 30
0.0
  0
SPLINE
  5
265
330
6C
100
AcDbEntity
  8
Viditelná (ISO)
100
AcDbSpline
210
0.0
220
0.0
230
1.0
 70
     8
 71
     3
 72
     8
 73
     4
 74
     0
 42
0.0000000001
 43
0.0000000001
 40
-0.5516820566944397
 40
-0.5516820566944397
 40
-0.5516820566944397
 40
-0.5516820566944397
 40
-0.4984390398335299
 40
-0.4984390398335299
 40
-0.4984390398335299
 40
-0.4984390398335299
 10
124.7157391843261
 20
152.3808701861115
 30
0.0
 10
124.6114704083286
 20
152.4545144708066
 30
0.0
 10
124.5014694388765
 20
152.5125644728533
 30
0.0
 10
124.3869684312054
 20
152.5541208746767
 30
0.0
  0
CIRCLE
  5
266
330
6C
100
AcDbEntity
  8
Viditelná tenká (ISO)
100
AcDbCircle
 10
190.7047253159695
 20
149.8808699697383
 30
0.0
 40
82.64999999999998
  0
CIRCLE
  5
267
330
6C
100
AcDbEntity
  8
Viditelná (ISO)
100
AcDbCircle
 10
190.7047253159695
 20
149.8808699697375
 30
0.0
 40
79.89999999999998
  0
CIRCLE
  5
268
330
6C
100
AcDbEntity
  8
Viditelná (ISO)
100
AcDbCircle
 10
190.7047253159695
 20
149.8808699697394
 30
0.0
 40
89.9
  0
CIRCLE
  5
269
330
6C
100
AcDbEntity
  8
Viditelná tenká (ISO)
100
AcDbCircle
 10
190.7047253159695
 20
149.8808699697383
 30
0.0
 40
88.14999999999999
  0
CIRCLE
  5
26A
330
6C
100
AcDbEntity
  8
Viditelná tenká (ISO)
100
AcDbCircle
 10
190.7047253159695
 20
149.8808699697357
 30
0.0
 40
78.70803684639158
  0
ARC
  5
26B
330
6C
100
AcDbEntity
  8
Viditelná tenká (ISO)
100
AcDbCircle
 10
190.7047253159695
 20
149.8808699697279
 30
0.0
 40
57.59078262624484
100
AcDbArc
 50
182.4879758057677
 51
357.5120241942323
  0
ARC
  5
26C
330
6C
100
AcDbEntity
  8
Viditelná tenká (ISO)
100
AcDbCircle
 10
190.7047253159695
 20
149.8808699697279
 30
0.0
 40
57.59078262624484
100
AcDbArc
 50
2.487975805767734
 51
177.5120241942322
  0
ARC
  5
26D
330
6C
100
AcDbEntity
  8
Viditelná tenká (ISO)
100
AcDbCircle
 10
190.7047253159695
 20
149.8808699697263
 30
0.0
 40
53.12535493528407
100
AcDbArc
 50
2.697250099921152
 51
177.3027499000788
  0
ARC
  5
26E
330
6C
100
AcDbEntity
  8
Viditelná tenká (ISO)
100
AcDbCircle
 10
190.7047253159695
 20
149.8808699697263
 30
0.0
 40
53.12535493528404
100
AcDbArc
 50
182.6972500999211
 51
357.3027499000788
  0
ARC
  5
26F
330
6C
100
AcDbEntity
  8
Viditelná (ISO)
100
AcDbCircle
 10
190.7047253159695
 20
149.8808699697248
 30
0.0
 40
51.25
100
AcDbArc
 50
2.796025696291938
 51
177.203974303708
  0
ARC
  5
270
330
6C
100
AcDbEntity
  8
Viditelná (ISO)
100
AcDbCircle
 10
190.7047253159695
 20
149.8808699697248
 30
0.0
 40
51.25
100
AcDbArc
 50
182.7960256962917
 51
357.2039743037081
  0
ARC
  5
271
330
6C
100
AcDbEntity
  8
Viditelná tenká (ISO)
100
AcDbCircle
 10
190.7047253159695
 20
149.8808699697276
 30
0.0
 40
57.14750766259441
100
AcDbArc
 50
2.507286519973917
 51
177.4927134800262
  0
ARC
  5
272
330
6C
100
AcDbEntity
  8
Viditelná tenká (ISO)
100
AcDbCircle
 10
190.7047253159695
 20
149.8808699697276
 30
0.0
 40
57.14750766259441
100
AcDbArc
 50
182.5072865199738
 51
357.4927134800262
  0
CIRCLE
  5
273
330
6C
100
AcDbEntity
  8
Viditelná (ISO)
100
AcDbCircle
 10
190.7047253159695
 20
149.8808699697394
 30
0.0
 40
91.15
  0
LINE
  5
274
330
6C
100
AcDbEntity
  8
Viditelná (ISO)
100
AcDbLine
 10
257.3794045360809
 20
152.3808699697331
 30
0.0
 11
124.0300460958581
 21
152.3808699697331
 31
0.0
  0
LINE
  5
275
330
6C
100
AcDbEntity
  8
Viditelná (ISO)
100
AcDbLine
 10
124.0300460958581
 20
147.3808699697331
 30
0.0
 11
257.3794045360809
 21
147.3808699697331
 31
0.0
  0
DIMENSION
  5
2CC
330
6C
100
AcDbEntity
  8
Kóta (ISO)
100
AcDbDimension
  2
*D32
 10
281.8547253160226
 20
395.0154071104629
 30
0.0
 11
190.7047253160225
 21
395.0154071104629
 31
0.0
 70
   160
  1
{\fAIGDT|b0|i0;\H5.2500;\ln\fTahoma|b0|i0;\H5.2500;}<>
 42
182.3
  3
Výchozí (ISO)
100
AcDbAlignedDimension
 13
99.55472531602259
 23
377.5736066605146
 33
0.0
 14
281.8547253160226
 24
377.5736066605146
 34
0.0
 50
180.0
100
AcDbRotatedDimension
1001
ACAD
1000
DSTYLE
1002
{
1070
   172
1070
     0
1070
   289
1070
     1
1070
   271
1070
     2
1070
   272
1070
     2
1070
    48
1040
0.0
1070
    47
1040
0.0
1002
}
  0
DIMENSION
  5
3B0
330
6C
100
AcDbEntity
  8
Kóta (ISO)
100
AcDbDimension
  2
*D33
 10
82.13824530955191
 20
377.5736066605146
 30
0.0
 11
82.13824530955184
 21
329.7536088944215
 31
0.0
 70
   160
  1
<>
 42
97.99758782797505
  3
Výchozí (ISO)
100
AcDbAlignedDimension
 13
138.3235149582168
 23
279.5760188325395
 33
0.0
 14
99.55472531602259
 24
377.5736066605146
 34
0.0
 50
90.0
100
AcDbRotatedDimension
1001
ACAD
1000
DSTYLE
1002
{
1070
   172
1070
     0
1070
   289
1070
     1
1070
   271
1070
     2
1070
   272
1070
     2
1070
    48
1040
0.0
1070
    47
1040
0.0
1002
}
  0
DIMENSION
  5
492
330
6C
100
AcDbEntity
  8
Kóta (ISO)
100
AcDbDimension
  2
*D34
 10
274.9586588645997
 20
258.1698038556138
 30
0.0
 11
190.7047253160226
 21
258.1698038556138
 31
0.0
 70
   160
  1
{\U+00D8}<>
 42
168.5078670971543
  3
Výchozí (ISO)
100
AcDbAlignedDimension
 13
106.4507917674454
 23
348.5736066605146
 33
0.0
 14
274.9586588645997
 24
348.5736066605146
 34
0.0
 50
180.0
100
AcDbRotatedDimension
1001
ACAD
1000
DSTYLE
1002
{
1070
   172
1070
     0
1070
   289
1070
     1
1070
   271
1070
     1
1070
   272
1070
     1
1070
    48
1040
0.0
1070
    47
1040
0.0
1002
}
  0
LINE
  5
772
330
6C
100
AcDbEntity
  8
Středová značka (ISO)
100
AcDbLine
 10
288.6281441297894
 20
149.8808699697171
 30
0.0
 11
95.32773425118094
 21
149.8808699697419
 31
0.0
  0
LINE
  5
77A
330
6C
100
AcDbEntity
  8
Středová značka (ISO)
100
AcDbLine
 10
190.7047253159695
 20
51.76356726385449
 30
0.0
 11
190.7047253159695
 21
246.5286927580868
 31
0.0
  0
LINE
  5
77B
330
6C
100
AcDbEntity
  8
Středová značka (ISO)
100
AcDbLine
 10
190.7047253160225
 20
275.7831289138723
 30
0.0
 11
190.7047253160225
 21
382.6221634612863
 31
0.0
  0
ENDSEC
  0
SECTION
  2
OBJECTS
  0
DICTIONARY
  5
C
330
0
100
AcDbDictionary
281
     1
  3
ACAD_CIP_PREVIOUS_PRODUCT_INFO
350
591
  3
ACAD_COLOR
350
63
  3
ACAD_GROUP
350
D
  3
ACAD_LAYOUT
350
62
  3
ACAD_MATERIAL
350
10
  3
ACAD_MLEADERSTYLE
350
66
  3
ACAD_MLINESTYLE
350
5F
  3
ACAD_PLOTSETTINGS
350
61
  3
ACAD_PLOTSTYLENAME
350
E
  3
ACAD_SCALELIST
350
42
  3
ACAD_TABLESTYLE
350
64
  3
ACAD_VISUALSTYLE
350
29
  3
ACDB_RECOMPOSE_DATA
350
79B
  3
AcDbVariableDictionary
350
5BF
  3
AcmDictionary
350
650
  3
AEC_PROPERTY_SET_DEFS
350
6FB
  3
AMG
350
5F6
  3
AMGSNAPSETTINGS
350
690
  0
DICTIONARY
  5
7D1
330
C9
100
AcDbDictionary
280
     1
281
     1
  3
ACAD_MTEXT_2008_RT
360
7D2
  0
DICTIONARY
  5
7D3
330
CE
100
AcDbDictionary
280
     1
281
     1
  3
ACAD_MTEXT_2008_RT
360
7D4
  0
DICTIONARY
  5
7D5
330
D2
100
AcDbDictionary
280
     1
281
     1
  3
ACAD_MTEXT_2008_RT
360
7D6
  0
DICTIONARY
  5
7D7
330
D6
100
AcDbDictionary
280
     1
281
     1
  3
ACAD_MTEXT_2008_RT
360
7D8
  0
DICTIONARY
  5
7D9
330
E2
100
AcDbDictionary
280
     1
281
     1
  3
ACAD_MTEXT_2008_RT
360
7DA
  0
DICTIONARY
  5
7DB
330
E6
100
AcDbDictionary
280
     1
281
     1
  3
ACAD_MTEXT_2008_RT
360
7DC
  0
DICTIONARY
  5
7DD
330
EA
100
AcDbDictionary
280
     1
281
     1
  3
ACAD_MTEXT_2008_RT
360
7DE
  0
DICTIONARY
  5
7DF
330
EE
100
AcDbDictionary
280
     1
281
     1
  3
ACAD_MTEXT_2008_RT
360
7E0
  0
DICTIONARY
  5
7E1
330
FA
100
AcDbDictionary
280
     1
281
     1
  3
ACAD_MTEXT_2008_RT
360
7E2
  0
DICTIONARY
  5
7E3
330
FE
100
AcDbDictionary
280
     1
281
     1
  3
ACAD_MTEXT_2008_RT
360
7E4
  0
DICTIONARY
  5
7E5
330
102
100
AcDbDictionary
280
     1
281
     1
  3
ACAD_MTEXT_2008_RT
360
7E6
  0
DICTIONARY
  5
7E7
330
106
100
AcDbDictionary
280
     1
281
     1
  3
ACAD_MTEXT_2008_RT
360
7E8
  0
DICTIONARY
  5
7E9
330
10A
100
AcDbDictionary
280
     1
281
     1
  3
ACAD_MTEXT_2008_RT
360
7EA
  0
DICTIONARY
  5
7EB
330
10E
100
AcDbDictionary
280
     1
281
     1
  3
ACAD_MTEXT_2008_RT
360
7EC
  0
DICTIONARY
  5
7ED
330
112
100
AcDbDictionary
280
     1
281
     1
  3
ACAD_MTEXT_2008_RT
360
7EE
  0
DICTIONARY
  5
7EF
330
116
100
AcDbDictionary
280
     1
281
     1
  3
ACAD_MTEXT_2008_RT
360
7F0
  0
DICTIONARY
  5
7F1
330
11E
100
AcDbDictionary
280
     1
281
     1
  3
ACAD_MTEXT_2008_RT
360
7F2
  0
DICTIONARY
  5
594
330
211
100
AcDbDictionary
280
     1
281
     1
  3
ACAD_MLATT
360
78E
  3
ACAD_XREC_ROUNDTRIP
360
78D
  0
DICTIONARY
  5
597
330
215
100
AcDbDictionary
280
     1
281
     1
  3
ACAD_MLATT
360
790
  3
ACAD_XREC_ROUNDTRIP
360
78F
  0
DICTIONARY
  5
59A
330
216
100
AcDbDictionary
280
     1
281
     1
  3
ACAD_MLATT
360
792
  3
ACAD_XREC_ROUNDTRIP
360
791
  0
DICTIONARY
  5
59D
330
217
100
AcDbDictionary
280
     1
281
     1
  3
ACAD_MLATT
360
794
  3
ACAD_XREC_ROUNDTRIP
360
793
  0
DICTIONARY
  5
5A0
330
219
100
AcDbDictionary
280
     1
281
     1
  3
ACAD_MLATT
360
796
  3
ACAD_XREC_ROUNDTRIP
360
795
  0
DICTIONARY
  5
5A3
330
21A
100
AcDbDictionary
280
     1
281
     1
  3
ACAD_MLATT
360
798
  3
ACAD_XREC_ROUNDTRIP
360
797
  0
DICTIONARY
  5
5A6
330
21B
100
AcDbDictionary
280
     1
281
     1
  3
ACAD_MLATT
360
79A
  3
ACAD_XREC_ROUNDTRIP
360
799
  0
DICTIONARY
  5
7F3
330
570
100
AcDbDictionary
280
     1
281
     1
  3
ACAD_MTEXT_2008_RT
360
7F4
  0
DICTIONARY
  5
7F5
330
57B
100
AcDbDictionary
280
     1
281
     1
  3
ACAD_MTEXT_2008_RT
360
7F6
  0
DICTIONARY
  5
7F7
330
57D
100
AcDbDictionary
280
     1
281
     1
  3
ACAD_MTEXT_2008_RT
360
7F8
  0
DICTIONARY
  5
7F9
330
580
100
AcDbDictionary
280
     1
281
     1
  3
ACAD_MTEXT_2008_RT
360
7FA
  0
DICTIONARY
  5
7FB
330
584
100
AcDbDictionary
280
     1
281
     1
  3
ACAD_MTEXT_2008_RT
360
7FC
  0
DICTIONARY
  5
7FD
330
588
100
AcDbDictionary
280
     1
281
     1
  3
ACAD_MTEXT_2008_RT
360
7FE
  0
DICTIONARY
  5
807
330
6C0
100
AcDbDictionary
280
     1
281
     1
  3
ACAD_MTEXT_2008_RT
360
808
  0
DICTIONARY
  5
809
330
76E
100
AcDbDictionary
280
     1
281
     1
  3
ACAD_MTEXT_2008_RT
360
80A
  0
XRECORD
  5
591
102
{ACAD_REACTORS
330
C
102
}
330
C
100
AcDbXrecord
280
     1
300
INVNTOR
300
2012
300
PDSP_F_S
  0
DICTIONARY
  5
63
102
{ACAD_REACTORS
330
C
102
}
330
C
100
AcDbDictionary
281
     1
  0
DICTIONARY
  5
D
102
{ACAD_REACTORS
330
C
102
}
330
C
100
AcDbDictionary
281
     1
  0
DICTIONARY
  5
62
102
{ACAD_REACTORS
330
C
102
}
330
C
100
AcDbDictionary
281
     1
  3
Layout1
350
6B
  3
Layout2
350
73
  3
Model
350
6F
  0
DICTIONARY
  5
10
102
{ACAD_REACTORS
330
C
102
}
330
C
100
AcDbDictionary
281
     1
  3
ByBlock
350
19
  3
ByLayer
350
11
  3
Global
350
21
  0
DICTIONARY
  5
66
102
{ACAD_REACTORS
330
C
102
}
330
C
100
AcDbDictionary
281
     1
  3
Standard
350
67
  0
DICTIONARY
  5
5F
102
{ACAD_REACTORS
330
C
102
}
330
C
100
AcDbDictionary
281
     1
  3
Standard
350
60
  0
DICTIONARY
  5
61
102
{ACAD_REACTORS
330
C
102
}
330
C
100
AcDbDictionary
281
     1
  0
ACDBDICTIONARYWDFLT
  5
E
102
{ACAD_REACTORS
330
C
102
}
330
C
100
AcDbDictionary
281
     1
  3
Normal
350
F
100
AcDbDictionaryWithDefault
340
F
  0
DICTIONARY
  5
42
102
{ACAD_REACTORS
330
C
102
}
330
C
100
AcDbDictionary
281
     1
  3
A0
350
43
  3
A1
350
44
  3
A2
350
45
  3
A3
350
46
  3
A4
350
47
  3
A5
350
48
  3
A6
350
49
  3
A7
350
4A
  3
A8
350
4B
  3
A9
350
4C
  3
B0
350
4D
  3
B1
350
4E
  3
B2
350
4F
  3
B3
350
50
  3
B4
350
51
  3
B5
350
52
  3
B6
350
53
  0
DICTIONARY
  5
64
102
{ACAD_REACTORS
330
C
102
}
330
C
100
AcDbDictionary
281
     1
  3
Standard
350
65
  0
DICTIONARY
  5
29
102
{ACAD_REACTORS
330
C
102
}
330
C
100
AcDbDictionary
281
     1
  3
2dWireframe
350
2F
  3
3D Hidden
350
5EB
  3
3dWireframe
350
5EA
  3
Basic
350
2E
  3
Brighten
350
35
  3
ColorChange
350
39
  3
Conceptual
350
32
  3
Dim
350
34
  3
EdgeColorOff
350
41
  3
Facepattern
350
38
  3
Flat
350
2A
  3
FlatWithEdges
350
2B
  3
Gouraud
350
2C
  3
GouraudWithEdges
350
2D
  3
Hidden
350
31
  3
JitterOff
350
3F
  3
Linepattern
350
37
  3
OverhangOff
350
40
  3
Realistic
350
33
  3
Shaded
350
3E
  3
Shaded with edges
350
3D
  3
Shades of Gray
350
3A
  3
Sketchy
350
3B
  3
Thicken
350
36
  3
Wireframe
350
30
  3
X-Ray
350
3C
  0
XRECORD
  5
79B
102
{ACAD_REACTORS
330
C
102
}
330
C
100
AcDbXrecord
280
     1
 90
        1
330
65
330
211
330
215
330
216
330
217
330
219
330
21A
330
21B
  0
DICTIONARY
  5
5BF
102
{ACAD_REACTORS
330
C
102
}
330
C
100
AcDbDictionary
281
     1
  3
CANNOSCALE
350
5C2
  3
CMLEADERSTYLE
350
5C1
  3
CTABLESTYLE
350
5C0
  3
LAYEREVAL
350
787
  3
LAYERNOTIFY
350
788
  3
LIGHTINGUNITS
350
786
  3
MSLTSCALE
350
785
  3
SOLIDHIST
350
789
  3
XCLIPFRAME
350
78A
  0
DICTIONARY
  5
650
102
{ACAD_REACTORS
330
C
102
}
330
C
100
AcDbDictionary
281
     1
  3
AcmStdDictionary
350
65A
  0
DICTIONARY
  5
6FB
102
{ACAD_REACTORS
330
C
102
}
330
C
100
AcDbDictionary
281
     1
  0
DICTIONARY
  5
5F6
102
{ACAD_REACTORS
330
C
102
}
330
C
100
AcDbDictionary
281
     1
  0
DICTIONARY
  5
690
102
{ACAD_REACTORS
330
C
102
}
330
C
100
AcDbDictionary
281
     1
  0
XRECORD
  5
7D2
102
{ACAD_REACTORS
330
7D1
102
}
330
7D1
100
AcDbXrecord
280
     1
 40
3087375.0
  1
WIG svařování- svary dle potřeby zabrousit.\PPohledové plochy brousit (vel. brusných zrn 240)\Pa polepit páskou.\P\PWIG Schweisung, Nahte sauber geschliffen und poliert\PSichtstege geschliffen mit 240 Korn und abgeklebt.
  0
XRECORD
  5
7D4
102
{ACAD_REACTORS
330
7D3
102
}
330
7D3
100
AcDbXrecord
280
     1
 40
2428738.0
  1
WIG svařování- svary dle potřeby zabrousit.\PPohledové plochy brousit (vel. brusných zrn 240)\Pa polepit páskou.\P \PWIG welding - Visible sufaces to be grinded\Pand covered by protectiv foil.
  0
XRECORD
  5
7D6
102
{ACAD_REACTORS
330
7D5
102
}
330
7D5
100
AcDbXrecord
280
     1
 40
2458240.0
  1
Vzdálenost nivel. šroubů ca. 1500\PVzdálenost kotev ca. 400\PVzdálenost dist. kolíků ca. 250\P \PAbstand der Nivellieschraben ca.1500\PAbstand der Maueranker ca.400\PAbstand der Distanzstege ca.250\P 
  0
XRECORD
  5
7D8
102
{ACAD_REACTORS
330
7D7
102
}
330
7D7
100
AcDbXrecord
280
     1
 40
1069838.0
  1
Vzdálenost nivel. šroubů ca. 1500\PVzdálenost kotev ca. 400\P \PDistance of leveling feets ca.1500\PDistance of fixing tangs ca.400\P\P 
  0
XRECORD
  5
7DA
102
{ACAD_REACTORS
330
7D9
102
}
330
7D9
100
AcDbXrecord
280
     1
 40
126939.0
  1
Mořit a pasivovat\P(Gebeitzt und passivieren)
  0
XRECORD
  5
7DC
102
{ACAD_REACTORS
330
7DB
102
}
330
7DB
100
AcDbXrecord
280
     1
 40
109520.0
  1
Mořit a pasivovat\P(Pickled and passivate)
  0
XRECORD
  5
7DE
102
{ACAD_REACTORS
330
7DD
102
}
330
7DD
100
AcDbXrecord
280
     1
 40
93252.0
  1
Žárově zinkovat\P(Verzinkt )
  0
XRECORD
  5
7E0
102
{ACAD_REACTORS
330
7DF
102
}
330
7DF
100
AcDbXrecord
280
     1
 40
132246.0
  1
Žárově zinkovat\P(Hot-dip galvanize)
  0
XRECORD
  5
7E2
102
{ACAD_REACTORS
330
7E1
102
}
330
7E1
100
AcDbXrecord
280
     1
 40
83720.0
  1
Elektrolyt. leštit\P(Elektr. poliert)
  0
XRECORD
  5
7E4
102
{ACAD_REACTORS
330
7E3
102
}
330
7E3
100
AcDbXrecord
280
     1
 40
87333.0
  1
Elektrolyt. leštit\P(Electr. polished)
  0
XRECORD
  5
7E6
102
{ACAD_REACTORS
330
7E5
102
}
330
7E5
100
AcDbXrecord
280
     1
 40
118263.0
  1
Žlab bez spádu!\PRinne ohne Gefälle!
  0
XRECORD
  5
7E8
102
{ACAD_REACTORS
330
7E7
102
}
330
7E7
100
AcDbXrecord
280
     1
 40
119399.0
  1
Žlab bez spádu!\PChannel without slope!
  0
XRECORD
  5
7EA
102
{ACAD_REACTORS
330
7E9
102
}
330
7E9
100
AcDbXrecord
280
     1
 40
2672228.0
  1
POZOR:\PSpád žlabu je menší než 1% - nebezpečí vzniku prohlubní\Pse stojatou vodou.\PACHTUNG:\PDas Bodengefälle ist kleiner als 1%. Das Gefahr der\PSenkungsentstehung mit dem stehenden Wasser.
  0
XRECORD
  5
7EC
102
{ACAD_REACTORS
330
7EB
102
}
330
7EB
100
AcDbXrecord
280
     1
 40
2193518.0
  1
POZOR:\PSpád žlabu je menší než 1% - nebezpečí vzniku prohlubní\Pse stojatou vodou.\PAUTENTION:\PThe gradient of the bottom is minor then 1%.\PThat can be reason of slack water.
  0
XRECORD
  5
7EE
102
{ACAD_REACTORS
330
7ED
102
}
330
7ED
100
AcDbXrecord
280
     1
 40
275286.0
  1
Kartáčováno + folie\PGeburstet mit abziehbarer Schutzfolie
  0
XRECORD
  5
7F0
102
{ACAD_REACTORS
330
7EF
102
}
330
7EF
100
AcDbXrecord
280
     1
 40
175505.0
  1
Kartáčováno + fólie.\P(Brushed and foils) 
  0
XRECORD
  5
7F2
102
{ACAD_REACTORS
330
7F1
102
}
330
7F1
100
AcDbXrecord
280
     1
 40
2320136.0
  1
Povrchová úprava/Oberfläche:\PTryskat pouze vnitřek žlabu, včetně pohledových ploch!\PPříruby proti tryskání chránit!\PFlansches per strahlung behütent!
  0
XRECORD
  5
78E
102
{ACAD_REACTORS
330
594
102
}
330
594
100
AcDbXrecord
280
     1
 70
     4
 70
     0
 70
     0
 40
1.0
  2
ČÍSLO_REVIZE
  1
Embedded Object
 10
292.3880993315334
 20
66.0
 30
0.0
 40
3.499999940395355
 41
34.661232501043
 46
0.0
 71
     1
 72
     5
  1

  7
Styl textu9
 73
     1
 44
1.0
  0
XRECORD
  5
78D
102
{ACAD_REACTORS
330
594
102
}
330
594
100
AcDbXrecord
280
     1
102
ACAD_MATT_HEIGHT
140
3.499999940395355
  0
XRECORD
  5
790
102
{ACAD_REACTORS
330
597
102
}
330
597
100
AcDbXrecord
280
     1
 70
     4
 70
     0
 70
     0
 40
1.0
  2
Sheet_Size
  1
Embedded Object
 10
294.5873446304243
 20
48.33701147296152
 30
0.0
 40
2.000000029802322
 41
19.44201149373395
 46
0.0
 71
     1
 72
     5
  1
A3
  7
Styl textu40
 73
     1
 44
1.0
  0
XRECORD
  5
78F
102
{ACAD_REACTORS
330
597
102
}
330
597
100
AcDbXrecord
280
     1
102
ACAD_MATT_HEIGHT
140
2.000000029802322
  0
XRECORD
  5
792
102
{ACAD_REACTORS
330
59A
102
}
330
59A
100
AcDbXrecord
280
     1
 70
     4
 70
     0
 70
     0
 40
1.0
  2
PART_NUMBER
  1
Embedded Object
 10
224.5172477361519
 20
66.0
 30
0.0
 40
3.499999940395355
 41
42.57494038810882
 46
0.0
 71
     1
 72
     5
  1
416549
  7
Text poznámky (ISO)
 73
     1
 44
1.0
  0
XRECORD
  5
791
102
{ACAD_REACTORS
330
59A
102
}
330
59A
100
AcDbXrecord
280
     1
102
ACAD_MATT_HEIGHT
140
3.499999940395355
  0
XRECORD
  5
794
102
{ACAD_REACTORS
330
59D
102
}
330
59D
100
AcDbXrecord
280
     1
 70
     4
 70
     0
 70
     0
 40
1.0
  2
PROJECT
  1
Embedded Object
 10
118.0
 20
60.0
 30
0.0
 40
3.499999940395355
 41
0.0
 46
0.0
 71
     1
 72
     5
  1
HYGIENIC
  7
Text poznámky (ISO)
 73
     1
 44
1.0
  0
XRECORD
  5
793
102
{ACAD_REACTORS
330
59D
102
}
330
59D
100
AcDbXrecord
280
     1
102
ACAD_MATT_HEIGHT
140
3.499999940395355
  0
XRECORD
  5
796
102
{ACAD_REACTORS
330
5A0
102
}
330
5A0
100
AcDbXrecord
280
     1
 70
     4
 70
     0
 70
     0
 40
1.0
  2
SKLADOVÉ_ČÍSLO
  1
Embedded Object
 10
118.0
 20
54.89391305489239
 30
0.0
 40
6.99999988079071
 41
153.2966041564941
 46
0.0
 71
     1
 72
     5
  1
416549 / 416550
  7
Styl textu94
 73
     1
 44
1.0
  0
XRECORD
  5
795
102
{ACAD_REACTORS
330
5A0
102
}
330
5A0
100
AcDbXrecord
280
     1
102
ACAD_MATT_HEIGHT
140
6.99999988079071
  0
XRECORD
  5
798
102
{ACAD_REACTORS
330
5A3
102
}
330
5A3
100
AcDbXrecord
280
     1
 70
     4
 70
     0
 70
     0
 40
1.0
  2
AUTHOR
  1
Embedded Object
 10
171.2961533440284
 20
77.9963482389533
 30
0.0
 40
2.000000029802322
 41
13.919832764198
 46
0.0
 71
     1
 72
     5
  1
mkotera
  7
Styl textu40
 73
     1
 44
1.0
  0
XRECORD
  5
797
102
{ACAD_REACTORS
330
5A3
102
}
330
5A3
100
AcDbXrecord
280
     1
102
ACAD_MATT_HEIGHT
140
2.000000029802322
  0
XRECORD
  5
79A
102
{ACAD_REACTORS
330
5A6
102
}
330
5A6
100
AcDbXrecord
280
     1
 70
     4
 70
     0
 70
     0
 40
1.0
  2
FirstViewScale
  1
Embedded Object
 10
189.1855699863978
 20
86.00038821032342
 30
0.0
 40
3.499999940395355
 41
24.15597186978378
 46
0.0
 71
     1
 72
     5
  1

  7
Text poznámky (ISO)
 73
     1
 44
1.0
  0
XRECORD
  5
799
102
{ACAD_REACTORS
330
5A6
102
}
330
5A6
100
AcDbXrecord
280
     1
102
ACAD_MATT_HEIGHT
140
3.499999940395355
  0
XRECORD
  5
7F4
102
{ACAD_REACTORS
330
7F3
102
}
330
7F3
100
AcDbXrecord
280
     1
 40
10762.0
  1
\A1;{\U+00D8}168,5
  0
XRECORD
  5
7F6
102
{ACAD_REACTORS
330
7F5
102
}
330
7F5
100
AcDbXrecord
280
     1
 40
5498.0
  1
Název
  0
XRECORD
  5
7F8
102
{ACAD_REACTORS
330
7F7
102
}
330
7F7
100
AcDbXrecord
280
     1
 40
38327.0
  1
Skladové číslo
  0
XRECORD
  5
7FA
102
{ACAD_REACTORS
330
7F9
102
}
330
7F9
100
AcDbXrecord
280
     1
 40
41882.0
  1
Aco vpust 218_svařenec, V2A
  0
XRECORD
  5
7FC
102
{ACAD_REACTORS
330
7FB
102
}
330
7FB
100
AcDbXrecord
280
     1
 40
41946.0
  1
Aco vpust 218_svařenec, V4A
  0
XRECORD
  5
7FE
102
{ACAD_REACTORS
330
7FD
102
}
330
7FD
100
AcDbXrecord
280
     1
 40
35131.0
  1
Etiketa samolepící
  0
XRECORD
  5
808
102
{ACAD_REACTORS
330
807
102
}
330
807
100
AcDbXrecord
280
     1
 40
10607.0
  1
\A1;{\U+00D8}113,5
  0
XRECORD
  5
80A
102
{ACAD_REACTORS
330
809
102
}
330
809
100
AcDbXrecord
280
     1
 40
10607.0
  1
\A1;{\U+00D8}113,5
  0
LAYOUT
  5
6B
102
{ACAD_REACTORS
330
62
102
}
330
62
100
AcDbPlotSettings
  1

  2

  4

  6

 40
0.0
 41
0.0
 42
0.0
 43
0.0
 44
0.0
 45
0.0
 46
0.0
 47
0.0
 48
0.0
 49
0.0
140
0.0
141
0.0
142
1.0
143
1.0
 70
   688
 72
     0
 73
     0
 74
     5
  7

 75
    16
147
1.0
 76
     0
 77
     2
 78
   300
148
0.0
149
0.0
100
AcDbLayout
  1
Layout1
 70
     1
 71
     1
 10
0.0
 20
0.0
 11
630.0
 21
445.5
 12
0.0
 22
0.0
 32
0.0
 14
0.0
 24
0.0
 34
0.0
 15
630.0
 25
445.5
 35
0.0
146
0.0
 13
0.0
 23
0.0
 33
0.0
 16
1.0
 26
0.0
 36
0.0
 17
0.0
 27
1.0
 37
0.0
 76
     0
330
68
  0
LAYOUT
  5
73
102
{ACAD_REACTORS
330
62
102
}
330
62
100
AcDbPlotSettings
  1

  2

  4

  6

 40
0.0
 41
0.0
 42
0.0
 43
0.0
 44
0.0
 45
0.0
 46
0.0
 47
0.0
 48
0.0
 49
0.0
140
0.0
141
0.0
142
1.0
143
1.0
 70
   688
 72
     0
 73
     0
 74
     5
  7

 75
    16
147
1.0
 76
     0
 77
     2
 78
   300
148
0.0
149
0.0
100
AcDbLayout
  1
Layout2
 70
     1
 71
     2
 10
0.0
 20
0.0
 11
12.0
 21
9.0
 12
0.0
 22
0.0
 32
0.0
 14
0.0
 24
0.0
 34
0.0
 15
0.0
 25
0.0
 35
0.0
146
0.0
 13
0.0
 23
0.0
 33
0.0
 16
1.0
 26
0.0
 36
0.0
 17
0.0
 27
1.0
 37
0.0
 76
     0
330
70
  0
LAYOUT
  5
6F
102
{ACAD_REACTORS
330
62
102
}
330
62
100
AcDbPlotSettings
  1

  2

  4

  6

 40
0.0
 41
0.0
 42
0.0
 43
0.0
 44
0.0
 45
0.0
 46
0.0
 47
0.0
 48
0.0
 49
0.0
140
0.0
141
0.0
142
1.0
143
1.0
 70
  1712
 72
     0
 73
     0
 74
     0
  7

 75
     0
147
1.0
 76
     0
 77
     2
 78
   300
148
0.0
149
0.0
100
AcDbLayout
  1
Model
 70
     1
 71
     0
 10
0.0
 20
0.0
 11
12.0
 21
9.0
 12
0.0
 22
0.0
 32
0.0
 14
0.0
 24
0.0
 34
0.0
 15
0.0
 25
0.0
 35
0.0
146
0.0
 13
0.0
 23
0.0
 33
0.0
 16
1.0
 26
0.0
 36
0.0
 17
0.0
 27
1.0
 37
0.0
 76
     0
330
6C
331
57
  0
MATERIAL
  5
19
102
{ACAD_XDICTIONARY
360
1A
102
}
102
{ACAD_REACTORS
330
10
102
}
330
10
100
AcDbMaterial
  1
ByBlock
 72
     0
 43
0.0208333333333333
 43
0.0
 43
0.0
 43
0.0
 43
0.0
 43
0.0208333333333333
 43
0.0
 43
0.0
 43
0.0
 43
0.0
 43
1.0
 43
0.0
 43
0.0
 43
0.0
 43
0.0
 43
1.0
 77
     0
 47
0.0208333333333333
 47
0.0
 47
0.0
 47
0.0
 47
0.0
 47
0.0208333333333333
 47
0.0
 47
0.0
 47
0.0
 47
0.0
 47
1.0
 47
0.0
 47
0.0
 47
0.0
 47
0.0
 47
1.0
171
     0
 49
0.0208333333333333
 49
0.0
 49
0.0
 49
0.0
 49
0.0
 49
0.0208333333333333
 49
0.0
 49
0.0
 49
0.0
 49
0.0
 49
1.0
 49
0.0
 49
0.0
 49
0.0
 49
0.0
 49
1.0
175
     0
142
0.0208333333333333
142
0.0
142
0.0
142
0.0
142
0.0
142
0.0208333333333333
142
0.0
142
0.0
142
0.0
142
0.0
142
1.0
142
0.0
142
0.0
142
0.0
142
0.0
142
1.0
179
     0
144
0.0208333333333333
144
0.0
144
0.0
144
0.0
144
0.0
144
0.0208333333333333
144
0.0
144
0.0
144
0.0
144
0.0
144
1.0
144
0.0
144
0.0
144
0.0
144
0.0
144
1.0
147
0.0208333333333333
147
0.0
147
0.0
147
0.0
147
0.0
147
0.0208333333333333
147
0.0
147
0.0
147
0.0
147
0.0
147
1.0
147
0.0
147
0.0
147
0.0
147
0.0
147
1.0
  0
MATERIAL
  5
11
102
{ACAD_XDICTIONARY
360
12
102
}
102
{ACAD_REACTORS
330
10
102
}
330
10
100
AcDbMaterial
  1
ByLayer
 72
     0
 43
0.0208333333333333
 43
0.0
 43
0.0
 43
0.0
 43
0.0
 43
0.0208333333333333
 43
0.0
 43
0.0
 43
0.0
 43
0.0
 43
1.0
 43
0.0
 43
0.0
 43
0.0
 43
0.0
 43
1.0
 77
     0
 47
0.0208333333333333
 47
0.0
 47
0.0
 47
0.0
 47
0.0
 47
0.0208333333333333
 47
0.0
 47
0.0
 47
0.0
 47
0.0
 47
1.0
 47
0.0
 47
0.0
 47
0.0
 47
0.0
 47
1.0
171
     0
 49
0.0208333333333333
 49
0.0
 49
0.0
 49
0.0
 49
0.0
 49
0.0208333333333333
 49
0.0
 49
0.0
 49
0.0
 49
0.0
 49
1.0
 49
0.0
 49
0.0
 49
0.0
 49
0.0
 49
1.0
175
     0
142
0.0208333333333333
142
0.0
142
0.0
142
0.0
142
0.0
142
0.0208333333333333
142
0.0
142
0.0
142
0.0
142
0.0
142
1.0
142
0.0
142
0.0
142
0.0
142
0.0
142
1.0
179
     0
144
0.0208333333333333
144
0.0
144
0.0
144
0.0
144
0.0
144
0.0208333333333333
144
0.0
144
0.0
144
0.0
144
0.0
144
1.0
144
0.0
144
0.0
144
0.0
144
0.0
144
1.0
147
0.0208333333333333
147
0.0
147
0.0
147
0.0
147
0.0
147
0.0208333333333333
147
0.0
147
0.0
147
0.0
147
0.0
147
1.0
147
0.0
147
0.0
147
0.0
147
0.0
147
1.0
  0
MATERIAL
  5
21
102
{ACAD_XDICTIONARY
360
22
102
}
102
{ACAD_REACTORS
330
10
102
}
330
10
100
AcDbMaterial
  1
Global
 72
     0
 43
0.0208333333333333
 43
0.0
 43
0.0
 43
0.0
 43
0.0
 43
0.0208333333333333
 43
0.0
 43
0.0
 43
0.0
 43
0.0
 43
1.0
 43
0.0
 43
0.0
 43
0.0
 43
0.0
 43
1.0
 77
     0
 47
0.0208333333333333
 47
0.0
 47
0.0
 47
0.0
 47
0.0
 47
0.0208333333333333
 47
0.0
 47
0.0
 47
0.0
 47
0.0
 47
1.0
 47
0.0
 47
0.0
 47
0.0
 47
0.0
 47
1.0
171
     0
 49
0.0208333333333333
 49
0.0
 49
0.0
 49
0.0
 49
0.0
 49
0.0208333333333333
 49
0.0
 49
0.0
 49
0.0
 49
0.0
 49
1.0
 49
0.0
 49
0.0
 49
0.0
 49
0.0
 49
1.0
175
     0
142
0.0208333333333333
142
0.0
142
0.0
142
0.0
142
0.0
142
0.0208333333333333
142
0.0
142
0.0
142
0.0
142
0.0
142
1.0
142
0.0
142
0.0
142
0.0
142
0.0
142
1.0
179
     0
144
0.0208333333333333
144
0.0
144
0.0
144
0.0
144
0.0
144
0.0208333333333333
144
0.0
144
0.0
144
0.0
144
0.0
144
1.0
144
0.0
144
0.0
144
0.0
144
0.0
144
1.0
147
0.0208333333333333
147
0.0
147
0.0
147
0.0
147
0.0
147
0.0208333333333333
147
0.0
147
0.0
147
0.0
147
0.0
147
1.0
147
0.0
147
0.0
147
0.0
147
0.0
147
1.0
  0
MLEADERSTYLE
  5
67
102
{ACAD_XDICTIONARY
360
5C7
102
}
102
{ACAD_REACTORS
330
66
102
}
330
66
100
AcDbMLeaderStyle
170
     2
171
     1
172
     0
 90
        2
 40
0.0
 41
0.0
173
     1
 91
-1056964608
340
5B
 92
       -2
290
     1
 42
0.09
291
     1
 43
0.36
  3
Standard
 44
0.18
300

342
55
174
     1
178
     6
175
     1
176
     0
 93
-1056964608
 45
0.18
292
     0
297
     0
 46
0.18
 94
-1056964608
 47
1.0
 49
1.0
140
1.0
293
     1
141
0.0
294
     1
177
     0
142
1.0
295
     0
296
     0
143
0.125
1001
ACAD_MLEADERVER
1070
     2
  0
MLINESTYLE
  5
60
102
{ACAD_REACTORS
330
5F
102
}
330
5F
100
AcDbMlineStyle
  2
STANDARD
 70
     0
  3

 62
   256
 51
90.0
 52
90.0
 71
     2
 49
0.5
 62
   256
  6
BYLAYER
 49
-0.5
 62
   256
  6
BYLAYER
  0
ACDBPLACEHOLDER
  5
F
102
{ACAD_REACTORS
330
E
102
}
330
E
  0
SCALE
  5
43
102
{ACAD_REACTORS
330
42
102
}
330
42
100
AcDbScale
 70
     0
300
1:1
140
1.0
141
1.0
290
     1
  0
SCALE
  5
44
102
{ACAD_REACTORS
330
42
102
}
330
42
100
AcDbScale
 70
     0
300
1/128" = 1'-0"
140
0.0078125
141
12.0
290
     0
  0
SCALE
  5
45
102
{ACAD_REACTORS
330
42
102
}
330
42
100
AcDbScale
 70
     0
300
1/64" = 1'-0"
140
0.015625
141
12.0
290
     0
  0
SCALE
  5
46
102
{ACAD_REACTORS
330
42
102
}
330
42
100
AcDbScale
 70
     0
300
1/32" = 1'-0"
140
0.03125
141
12.0
290
     0
  0
SCALE
  5
47
102
{ACAD_REACTORS
330
42
102
}
330
42
100
AcDbScale
 70
     0
300
1/16" = 1'-0"
140
0.0625
141
12.0
290
     0
  0
SCALE
  5
48
102
{ACAD_REACTORS
330
42
102
}
330
42
100
AcDbScale
 70
     0
300
3/32" = 1'-0"
140
0.09375
141
12.0
290
     0
  0
SCALE
  5
49
102
{ACAD_REACTORS
330
42
102
}
330
42
100
AcDbScale
 70
     0
300
1/8" = 1'-0"
140
0.125
141
12.0
290
     0
  0
SCALE
  5
4A
102
{ACAD_REACTORS
330
42
102
}
330
42
100
AcDbScale
 70
     0
300
3/16" = 1'-0"
140
0.1875
141
12.0
290
     0
  0
SCALE
  5
4B
102
{ACAD_REACTORS
330
42
102
}
330
42
100
AcDbScale
 70
     0
300
1/4" = 1'-0"
140
0.25
141
12.0
290
     0
  0
SCALE
  5
4C
102
{ACAD_REACTORS
330
42
102
}
330
42
100
AcDbScale
 70
     0
300
3/8" = 1'-0"
140
0.375
141
12.0
290
     0
  0
SCALE
  5
4D
102
{ACAD_REACTORS
330
42
102
}
330
42
100
AcDbScale
 70
     0
300
1/2" = 1'-0"
140
0.5
141
12.0
290
     0
  0
SCALE
  5
4E
102
{ACAD_REACTORS
330
42
102
}
330
42
100
AcDbScale
 70
     0
300
3/4" = 1'-0"
140
0.75
141
12.0
290
     0
  0
SCALE
  5
4F
102
{ACAD_REACTORS
330
42
102
}
330
42
100
AcDbScale
 70
     0
300
1" = 1'-0"
140
1.0
141
12.0
290
     0
  0
SCALE
  5
50
102
{ACAD_REACTORS
330
42
102
}
330
42
100
AcDbScale
 70
     0
300
1-1/2" = 1'-0"
140
1.5
141
12.0
290
     0
  0
SCALE
  5
51
102
{ACAD_REACTORS
330
42
102
}
330
42
100
AcDbScale
 70
     0
300
3" = 1'-0"
140
3.0
141
12.0
290
     0
  0
SCALE
  5
52
102
{ACAD_REACTORS
330
42
102
}
330
42
100
AcDbScale
 70
     0
300
6" = 1'-0"
140
6.0
141
12.0
290
     0
  0
SCALE
  5
53
102
{ACAD_REACTORS
330
42
102
}
330
42
100
AcDbScale
 70
     0
300
1'-0" = 1'-0"
140
12.0
141
12.0
290
     0
  0
TABLESTYLE
  5
65
102
{ACAD_XDICTIONARY
360
78B
102
}
102
{ACAD_REACTORS
330
64
102
}
330
64
100
AcDbTableStyle
  3
Standard
 70
     0
 71
     0
 40
0.06
 41
0.06
280
     0
281
     0
  7
Standard
140
0.18
170
     2
 62
     0
 63
     7
283
     0
274
    -2
284
     1
 64
     0
275
    -2
285
     1
 65
     0
276
    -2
286
     1
 66
     0
277
    -2
287
     1
 67
     0
278
    -2
288
     1
 68
     0
279
    -2
289
     1
 69
     0
  7
Standard
140
0.25
170
     5
 62
     0
 63
     7
283
     0
274
    -2
284
     1
 64
     0
275
    -2
285
     1
 65
     0
276
    -2
286
     1
 66
     0
277
    -2
287
     1
 67
     0
278
    -2
288
     1
 68
     0
279
    -2
289
     1
 69
     0
  7
Standard
140
0.18
170
     5
 62
     0
 63
     7
283
     0
274
    -2
284
     1
 64
     0
275
    -2
285
     1
 65
     0
276
    -2
286
     1
 66
     0
277
    -2
287
     1
 67
     0
278
    -2
288
     1
 68
     0
279
    -2
289
     1
 69
     0
  0
VISUALSTYLE
  5
2F
102
{ACAD_XDICTIONARY
360
7A9
102
}
102
{ACAD_REACTORS
330
29
102
}
330
29
100
AcDbVisualStyle
  2
2dWireframe
 70
     4
 71
     0
 72
     2
 73
     0
 90
        0
 40
-0.6
 41
-30.0
 62
     5
 63
     7
421
 16777215
 74
     1
 91
        4
 64
     7
 65
   257
 75
     1
175
     1
 42
1.0
 92
        0
 66
   257
 43
1.0
 76
     1
 77
     6
 78
     2
 67
     7
 79
     5
170
     0
171
     0
290
     0
174
     0
 93
        1
 44
0.0
173
     0
291
     0
 45
0.0
1001
ACAD
1000
AcDbSavedByObjectVersion
1070
     0
  0
VISUALSTYLE
  5
5EB
102
{ACAD_XDICTIONARY
360
801
102
}
102
{ACAD_REACTORS
330
29
102
}
330
29
100
AcDbVisualStyle
  2
3D Hidden
 70
     6
 71
     1
 72
     2
 73
     2
 90
        0
 40
-0.6
 41
-30.0
 62
     5
 63
     7
421
 16777215
 74
     2
 91
        2
 64
     7
 65
   257
 75
     2
175
     1
 42
179.0
 92
        0
 66
   257
 43
1.0
 76
     1
 77
     6
 78
     2
 67
     7
 79
     3
170
     0
171
     0
290
     0
174
     0
 93
        1
 44
0.0
173
     0
291
     0
 45
0.0
1001
ACAD
1000
AcDbSavedByObjectVersion
1070
     0
  0
VISUALSTYLE
  5
5EA
102
{ACAD_XDICTIONARY
360
7FF
102
}
102
{ACAD_REACTORS
330
29
102
}
330
29
100
AcDbVisualStyle
  2
3dWireframe
 70
     5
 71
     0
 72
     2
 73
     0
 90
        0
 40
-0.6
 41
-30.0
 62
     5
 63
     7
421
 16777215
 74
     1
 91
        4
 64
     7
 65
   257
 75
     1
175
     1
 42
1.0
 92
        0
 66
   257
 43
1.0
 76
     1
 77
     6
 78
     2
 67
     7
 79
     5
170
     0
171
     0
290
     0
174
     0
 93
        1
 44
0.0
173
     0
291
     0
 45
0.0
1001
ACAD
1000
AcDbSavedByObjectVersion
1070
     0
  0
VISUALSTYLE
  5
2E
102
{ACAD_XDICTIONARY
360
7A7
102
}
102
{ACAD_REACTORS
330
29
102
}
330
29
100
AcDbVisualStyle
  2
Basic
 70
     7
 71
     1
 72
     0
 73
     1
 90
        0
 40
-0.6
 41
-30.0
 62
     5
 63
     7
421
 16777215
 74
     0
 91
        4
 64
     7
 65
   257
 75
     1
175
     1
 42
1.0
 92
        8
 66
     7
 43
1.0
 76
     1
 77
     6
 78
     2
 67
     7
 79
     5
170
     0
171
     0
290
     0
174
     0
 93
        1
 44
0.0
173
     0
291
     1
 45
0.0
1001
ACAD
1000
AcDbSavedByObjectVersion
1070
     0
  0
VISUALSTYLE
  5
35
102
{ACAD_XDICTIONARY
360
7B5
102
}
102
{ACAD_REACTORS
330
29
102
}
330
29
100
AcDbVisualStyle
  2
Brighten
 70
    12
 71
     2
 72
     2
 73
     0
 90
        0
 40
-0.6
 41
-30.0
 62
     5
 63
     7
421
 16777215
 74
     1
 91
        4
 64
     7
 65
   257
 75
     1
175
     1
 42
1.0
 92
        8
 66
     7
 43
1.0
 76
     1
 77
     6
 78
     2
 67
     7
 79
     5
170
     0
171
     0
290
     0
174
     0
 93
        1
 44
50.0
173
     0
291
     1
 45
0.0
1001
ACAD
1000
AcDbSavedByObjectVersion
1070
     0
  0
VISUALSTYLE
  5
39
102
{ACAD_XDICTIONARY
360
7BD
102
}
102
{ACAD_REACTORS
330
29
102
}
330
29
100
AcDbVisualStyle
  2
ColorChange
 70
    16
 71
     2
 72
     2
 73
     3
 90
        0
 40
-0.6
 41
-30.0
 62
     5
 63
     8
421
  8421504
 74
     1
 91
        4
 64
     7
 65
   257
 75
     1
175
     1
 42
1.0
 92
        8
 66
     8
424
  8421504
 43
1.0
 76
     1
 77
     6
 78
     2
 67
     7
 79
     5
170
     0
171
     0
290
     0
174
     0
 93
        1
 44
0.0
173
     0
291
     1
 45
0.0
1001
ACAD
1000
AcDbSavedByObjectVersion
1070
     0
  0
VISUALSTYLE
  5
32
102
{ACAD_XDICTIONARY
360
7AF
102
}
102
{ACAD_REACTORS
330
29
102
}
330
29
100
AcDbVisualStyle
  2
Conceptual
 70
     9
 71
     3
 72
     2
 73
     0
 90
        0
 40
-0.6
 41
-30.0
 62
     5
 63
     7
421
 16777215
 74
     2
 91
        2
 64
     7
 65
   257
 75
     1
175
     1
 42
179.0
 92
        8
 66
     7
 43
1.0
 76
     1
 77
     6
 78
     2
 67
     7
 79
     3
170
     0
171
     0
290
     0
174
     0
 93
        1
 44
0.0
173
     0
291
     0
 45
0.0
1001
ACAD
1000
AcDbSavedByObjectVersion
1070
     0
  0
VISUALSTYLE
  5
34
102
{ACAD_XDICTIONARY
360
7B3
102
}
102
{ACAD_REACTORS
330
29
102
}
330
29
100
AcDbVisualStyle
  2
Dim
 70
    11
 71
     2
 72
     2
 73
     0
 90
        0
 40
-0.6
 41
-30.0
 62
     5
 63
     7
421
 16777215
 74
     1
 91
        4
 64
     7
 65
   257
 75
     1
175
     1
 42
1.0
 92
        8
 66
     7
 43
1.0
 76
     1
 77
     6
 78
     2
 67
     7
 79
     5
170
     0
171
     0
290
     0
174
     0
 93
        1
 44
-50.0
173
     0
291
     1
 45
0.0
1001
ACAD
1000
AcDbSavedByObjectVersion
1070
     0
  0
VISUALSTYLE
  5
41
102
{ACAD_XDICTIONARY
360
7CD
102
}
102
{ACAD_REACTORS
330
29
102
}
330
29
100
AcDbVisualStyle
  2
EdgeColorOff
 70
    22
 71
     2
 72
     2
 73
     0
 90
        0
 40
-0.6
 41
-30.0
 62
     5
 63
     7
421
 16777215
 74
     1
 91
        4
 64
     7
 65
   257
 75
     1
175
     1
 42
1.0
 92
        8
 66
     7
 43
1.0
 76
     1
 77
     6
 78
     2
 67
     7
 79
     5
170
     0
171
     0
290
     0
174
     0
 93
        1
 44
0.0
173
     0
291
     1
 45
0.0
1001
ACAD
1000
AcDbSavedByObjectVersion
1070
     0
  0
VISUALSTYLE
  5
38
102
{ACAD_XDICTIONARY
360
7BB
102
}
102
{ACAD_REACTORS
330
29
102
}
330
29
100
AcDbVisualStyle
  2
Facepattern
 70
    15
 71
     2
 72
     2
 73
     0
 90
        0
 40
-0.6
 41
-30.0
 62
     5
 63
     7
421
 16777215
 74
     1
 91
        4
 64
     7
 65
   257
 75
     1
175
     1
 42
1.0
 92
        8
 66
     7
 43
1.0
 76
     1
 77
     6
 78
     2
 67
     7
 79
     5
170
     0
171
     0
290
     0
174
     0
 93
        1
 44
0.0
173
     0
291
     1
 45
0.0
1001
ACAD
1000
AcDbSavedByObjectVersion
1070
     0
  0
VISUALSTYLE
  5
2A
102
{ACAD_XDICTIONARY
360
79F
102
}
102
{ACAD_REACTORS
330
29
102
}
330
29
100
AcDbVisualStyle
  2
Flat
 70
     0
 71
     2
 72
     1
 73
     1
 90
        2
 40
-0.6
 41
30.0
 62
     5
 63
     7
421
 16777215
 74
     0
 91
        0
 64
     7
 65
   257
 75
     1
175
     1
 42
1.0
 92
        8
 66
     7
 43
1.0
 76
     1
 77
     6
 78
     2
 67
     7
 79
     5
170
     0
171
     0
290
     0
174
     0
 93
       13
 44
0.0
173
     0
291
     1
 45
0.0
1001
ACAD
1000
AcDbSavedByObjectVersion
1070
     0
  0
VISUALSTYLE
  5
2B
102
{ACAD_XDICTIONARY
360
7A1
102
}
102
{ACAD_REACTORS
330
29
102
}
330
29
100
AcDbVisualStyle
  2
FlatWithEdges
 70
     1
 71
     2
 72
     1
 73
     1
 90
        2
 40
-0.6
 41
30.0
 62
     5
 63
     7
421
 16777215
 74
     1
 91
        0
 64
     7
 65
   257
 75
     1
175
     1
 42
1.0
 92
        0
 66
   257
 43
1.0
 76
     1
 77
     6
 78
     2
 67
     7
 79
     5
170
     0
171
     0
290
     0
174
     0
 93
       13
 44
0.0
173
     0
291
     1
 45
0.0
1001
ACAD
1000
AcDbSavedByObjectVersion
1070
     0
  0
VISUALSTYLE
  5
2C
102
{ACAD_XDICTIONARY
360
7A3
102
}
102
{ACAD_REACTORS
330
29
102
}
330
29
100
AcDbVisualStyle
  2
Gouraud
 70
     2
 71
     2
 72
     2
 73
     1
 90
        2
 40
-0.6
 41
30.0
 62
     5
 63
     7
421
 16777215
 74
     0
 91
        0
 64
     7
 65
   257
 75
     1
175
     1
 42
1.0
 92
        0
 66
     7
 43
1.0
 76
     1
 77
     6
 78
     2
 67
     7
 79
     5
170
     0
171
     0
290
     0
174
     0
 93
       13
 44
0.0
173
     0
291
     1
 45
0.0
1001
ACAD
1000
AcDbSavedByObjectVersion
1070
     0
  0
VISUALSTYLE
  5
2D
102
{ACAD_XDICTIONARY
360
7A5
102
}
102
{ACAD_REACTORS
330
29
102
}
330
29
100
AcDbVisualStyle
  2
GouraudWithEdges
 70
     3
 71
     2
 72
     2
 73
     1
 90
        2
 40
-0.6
 41
30.0
 62
     5
 63
     7
421
 16777215
 74
     1
 91
        0
 64
     7
 65
   257
 75
     1
175
     1
 42
1.0
 92
        0
 66
   257
 43
1.0
 76
     1
 77
     6
 78
     2
 67
     7
 79
     5
170
     0
171
     0
290
     0
174
     0
 93
       13
 44
0.0
173
     0
291
     1
 45
0.0
1001
ACAD
1000
AcDbSavedByObjectVersion
1070
     0
  0
VISUALSTYLE
  5
31
102
{ACAD_XDICTIONARY
360
7AD
102
}
102
{ACAD_REACTORS
330
29
102
}
330
29
100
AcDbVisualStyle
  2
Hidden
 70
     6
 71
     1
 72
     2
 73
     2
 90
        0
 40
-0.6
 41
-30.0
 62
     5
 63
     7
421
 16777215
 74
     2
 91
        2
 64
     7
 65
   257
 75
     2
175
     1
 42
40.0
 92
        0
 66
   257
 43
1.0
 76
     1
 77
     6
 78
     2
 67
     7
 79
     3
170
     0
171
     0
290
     0
174
     0
 93
        1
 44
0.0
173
     0
291
     0
 45
0.0
1001
ACAD
1000
AcDbSavedByObjectVersion
1070
     0
  0
VISUALSTYLE
  5
3F
102
{ACAD_XDICTIONARY
360
7C9
102
}
102
{ACAD_REACTORS
330
29
102
}
330
29
100
AcDbVisualStyle
  2
JitterOff
 70
    20
 71
     2
 72
     2
 73
     0
 90
        0
 40
-0.6
 41
-30.0
 62
     5
 63
     7
421
 16777215
 74
     1
 91
        4
 64
     7
 65
   257
 75
     1
175
     1
 42
1.0
 92
       10
 66
     7
 43
1.0
 76
     1
 77
     6
 78
     2
 67
     7
 79
     5
170
     0
171
     0
290
     0
174
     0
 93
        1
 44
0.0
173
     0
291
     1
 45
0.0
1001
ACAD
1000
AcDbSavedByObjectVersion
1070
     0
  0
VISUALSTYLE
  5
37
102
{ACAD_XDICTIONARY
360
7B9
102
}
102
{ACAD_REACTORS
330
29
102
}
330
29
100
AcDbVisualStyle
  2
Linepattern
 70
    14
 71
     2
 72
     2
 73
     0
 90
        0
 40
-0.6
 41
-30.0
 62
     5
 63
     7
421
 16777215
 74
     1
 91
        4
 64
     7
 65
   257
 75
     7
175
     7
 42
1.0
 92
        8
 66
     7
 43
1.0
 76
     1
 77
     6
 78
     2
 67
     7
 79
     5
170
     0
171
     0
290
     0
174
     0
 93
        1
 44
0.0
173
     0
291
     1
 45
0.0
1001
ACAD
1000
AcDbSavedByObjectVersion
1070
     0
  0
VISUALSTYLE
  5
40
102
{ACAD_XDICTIONARY
360
7CB
102
}
102
{ACAD_REACTORS
330
29
102
}
330
29
100
AcDbVisualStyle
  2
OverhangOff
 70
    21
 71
     2
 72
     2
 73
     0
 90
        0
 40
-0.6
 41
-30.0
 62
     5
 63
     7
421
 16777215
 74
     1
 91
        4
 64
     7
 65
   257
 75
     1
175
     1
 42
1.0
 92
        9
 66
     7
 43
1.0
 76
     1
 77
     6
 78
     2
 67
     7
 79
     5
170
     0
171
     0
290
     0
174
     0
 93
        1
 44
0.0
173
     0
291
     1
 45
0.0
1001
ACAD
1000
AcDbSavedByObjectVersion
1070
     0
  0
VISUALSTYLE
  5
33
102
{ACAD_XDICTIONARY
360
7B1
102
}
102
{ACAD_REACTORS
330
29
102
}
330
29
100
AcDbVisualStyle
  2
Realistic
 70
     8
 71
     2
 72
     3
 73
     0
 90
        2
 40
-0.6
 41
30.0
 62
     5
 63
     7
421
 16777215
 74
     0
 91
        0
 64
     7
 65
   257
 75
     1
175
     1
 42
1.0
 92
        8
 66
   257
 43
1.0
 76
     1
 77
     6
 78
     2
 67
     7
 79
     3
170
     0
171
     0
290
     0
174
     0
 93
       13
 44
0.0
173
     0
291
     0
 45
0.0
1001
ACAD
1000
AcDbSavedByObjectVersion
1070
     0
  0
VISUALSTYLE
  5
3E
102
{ACAD_XDICTIONARY
360
7C7
102
}
102
{ACAD_REACTORS
330
29
102
}
330
29
100
AcDbVisualStyle
  2
Shaded
 70
    27
 71
     2
 72
     2
 73
     1
 90
        2
 40
-0.6
 41
30.0
 62
     5
 63
     7
421
 16777215
 74
     0
 91
        4
 64
     7
 65
   257
 75
     1
175
     1
 42
1.0
 92
        8
 66
   257
 43
1.0
 76
     1
 77
     6
 78
     2
 67
     8
425
  7895160
 79
     3
170
     0
171
     0
290
     0
174
     0
 93
        5
 44
0.0
173
     0
291
     0
 45
0.0
1001
ACAD
1000
AcDbSavedByObjectVersion
1070
     0
  0
VISUALSTYLE
  5
3D
102
{ACAD_XDICTIONARY
360
7C5
102
}
102
{ACAD_REACTORS
330
29
102
}
330
29
100
AcDbVisualStyle
  2
Shaded with edges
 70
    26
 71
     2
 72
     2
 73
     1
 90
        2
 40
-0.6
 41
30.0
 62
     5
 63
     7
421
 16777215
 74
     1
 91
       10
 64
     7
 65
   257
 75
     2
175
     1
 42
1.0
 92
        8
 66
   257
 43
1.0
 76
     1
 77
     6
 78
     2
 67
     7
 79
     3
170
     0
171
     0
290
     0
174
     0
 93
        5
 44
0.0
173
     0
291
     0
 45
0.0
1001
ACAD
1000
AcDbSavedByObjectVersion
1070
     0
  0
VISUALSTYLE
  5
3A
102
{ACAD_XDICTIONARY
360
7BF
102
}
102
{ACAD_REACTORS
330
29
102
}
330
29
100
AcDbVisualStyle
  2
Shades of Gray
 70
    23
 71
     2
 72
     2
 73
     3
 90
        0
 40
-0.6
 41
-30.0
 62
     5
 63
     7
421
 16777215
 74
     2
 91
        2
 64
     7
 65
     7
 75
     1
175
     1
 42
40.0
 92
        8
 66
     7
 43
1.0
 76
     1
 77
     6
 78
     2
 67
     7
 79
     3
170
     0
171
     0
290
     0
174
     0
 93
        1
 44
0.0
173
     0
291
     0
 45
0.0
1001
ACAD
1000
AcDbSavedByObjectVersion
1070
     0
  0
VISUALSTYLE
  5
3B
102
{ACAD_XDICTIONARY
360
7C1
102
}
102
{ACAD_REACTORS
330
29
102
}
330
29
100
AcDbVisualStyle
  2
Sketchy
 70
    24
 71
     1
 72
     2
 73
     2
 90
        0
 40
-0.6
 41
-30.0
 62
     5
 63
     7
421
 16777215
 74
     2
 91
        2
 64
     7
 65
     7
 75
     1
175
     1
 42
40.0
 92
       11
 66
     7
 43
1.0
 76
     1
 77
     6
 78
     2
 67
     7
 79
     6
170
     0
171
     0
290
     0
174
     0
 93
        1
 44
0.0
173
     0
291
     0
 45
0.0
1001
ACAD
1000
AcDbSavedByObjectVersion
1070
     0
  0
VISUALSTYLE
  5
36
102
{ACAD_XDICTIONARY
360
7B7
102
}
102
{ACAD_REACTORS
330
29
102
}
330
29
100
AcDbVisualStyle
  2
Thicken
 70
    13
 71
     2
 72
     2
 73
     0
 90
        0
 40
-0.6
 41
-30.0
 62
     5
 63
     7
421
 16777215
 74
     1
 91
        4
 64
     7
 65
   257
 75
     1
175
     1
 42
1.0
 92
       12
 66
     7
 43
1.0
 76
     1
 77
     6
 78
     2
 67
     7
 79
     5
170
     0
171
     0
290
     0
174
     0
 93
        1
 44
0.0
173
     0
291
     1
 45
0.0
1001
ACAD
1000
AcDbSavedByObjectVersion
1070
     0
  0
VISUALSTYLE
  5
30
102
{ACAD_XDICTIONARY
360
7AB
102
}
102
{ACAD_REACTORS
330
29
102
}
330
29
100
AcDbVisualStyle
  2
Wireframe
 70
     5
 71
     0
 72
     2
 73
     0
 90
        0
 40
-0.6
 41
-30.0
 62
     5
 63
     7
421
 16777215
 74
     1
 91
        4
 64
     7
 65
   257
 75
     1
175
     1
 42
1.0
 92
        0
 66
   257
 43
1.0
 76
     1
 77
     6
 78
     2
 67
     7
 79
     3
170
     0
171
     0
290
     0
174
     0
 93
        1
 44
0.0
173
     0
291
     0
 45
0.0
1001
ACAD
1000
AcDbSavedByObjectVersion
1070
     0
  0
VISUALSTYLE
  5
3C
102
{ACAD_XDICTIONARY
360
7C3
102
}
102
{ACAD_REACTORS
330
29
102
}
330
29
100
AcDbVisualStyle
  2
X-Ray
 70
    25
 71
     2
 72
     2
 73
     1
 90
        1
 40
0.5
 41
-30.0
 62
     5
 63
     7
421
 16777215
 74
     1
 91
        0
 64
     7
 65
   257
 75
     1
175
     1
 42
1.0
 92
        8
 66
     7
 43
1.0
 76
     1
 77
     6
 78
     2
 67
     7
 79
     3
170
     0
171
     0
290
     0
174
     0
 93
       13
 44
0.0
173
     0
291
     0
 45
0.0
1001
ACAD
1000
AcDbSavedByObjectVersion
1070
     0
  0
DICTIONARYVAR
  5
5C2
102
{ACAD_REACTORS
330
5BF
102
}
330
5BF
100
DictionaryVariables
280
     0
  1
1:1
  0
DICTIONARYVAR
  5
5C1
102
{ACAD_REACTORS
330
5BF
102
}
330
5BF
100
DictionaryVariables
280
     0
  1
STANDARD
  0
DICTIONARYVAR
  5
5C0
102
{ACAD_REACTORS
330
5BF
102
}
330
5BF
100
DictionaryVariables
280
     0
  1
STANDARD
  0
DICTIONARYVAR
  5
787
102
{ACAD_REACTORS
330
5BF
102
}
330
5BF
100
DictionaryVariables
280
     0
  1
0
  0
DICTIONARYVAR
  5
788
102
{ACAD_REACTORS
330
5BF
102
}
330
5BF
100
DictionaryVariables
280
     0
  1
0
  0
DICTIONARYVAR
  5
786
102
{ACAD_REACTORS
330
5BF
102
}
330
5BF
100
DictionaryVariables
280
     0
  1
2
  0
DICTIONARYVAR
  5
785
102
{ACAD_REACTORS
330
5BF
102
}
330
5BF
100
DictionaryVariables
280
     0
  1
1
  0
DICTIONARYVAR
  5
789
102
{ACAD_REACTORS
330
5BF
102
}
330
5BF
100
DictionaryVariables
280
     0
  1
0
  0
DICTIONARYVAR
  5
78A
102
{ACAD_REACTORS
330
5BF
102
}
330
5BF
100
DictionaryVariables
280
     0
  1
2
  0
DICTIONARY
  5
65A
102
{ACAD_REACTORS
330
650
102
}
330
650
100
AcDbDictionary
281
     1
  0
DICTIONARY
  5
1A
330
19
100
AcDbDictionary
280
     1
281
     1
  3
ACAD_XREC_ROUNDTRIP
360
79D
  3
BUMPTILE
360
1C
  3
DIFFUSETILE
360
1B
  3
OPACITYTILE
360
1F
  3
REFLECTIONTILE
360
1E
  3
REFRACTIONTILE
360
20
  3
SPECULARTILE
360
1D
  0
DICTIONARY
  5
12
330
11
100
AcDbDictionary
280
     1
281
     1
  3
ACAD_XREC_ROUNDTRIP
360
79C
  3
BUMPTILE
360
14
  3
DIFFUSETILE
360
13
  3
FBXASSET
360
9C
  3
OPACITYTILE
360
17
  3
REFLECTIONTILE
360
16
  3
REFRACTIONTILE
360
18
  3
SPECULARTILE
360
15
  0
DICTIONARY
  5
22
330
21
100
AcDbDictionary
280
     1
281
     1
  3
ACAD_XREC_ROUNDTRIP
360
79E
  3
BUMPTILE
360
24
  3
DIFFUSETILE
360
23
  3
OPACITYTILE
360
27
  3
REFLECTIONTILE
360
26
  3
REFRACTIONTILE
360
28
  3
SPECULARTILE
360
25
  0
DICTIONARY
  5
5C7
330
67
100
AcDbDictionary
280
     1
281
     1
  3
ACAD_XREC_ROUNDTRIP
360
5C8
  0
DICTIONARY
  5
78B
330
65
100
AcDbDictionary
280
     1
281
     1
  3
ACAD_ROUNDTRIP_2008_TABLESTYLE_CELLSTYLEMAP
360
78C
  3
ACAD_XREC_ROUNDTRIP
360
7CF
  0
DICTIONARY
  5
7A9
330
2F
100
AcDbDictionary
280
     1
281
     1
  3
ACAD_XREC_ROUNDTRIP
360
7AA
  0
DICTIONARY
  5
801
330
5EB
100
AcDbDictionary
280
     1
281
     1
  3
ACAD_XREC_ROUNDTRIP
360
802
  0
DICTIONARY
  5
7FF
330
5EA
100
AcDbDictionary
280
     1
281
     1
  3
ACAD_XREC_ROUNDTRIP
360
800
  0
DICTIONARY
  5
7A7
330
2E
100
AcDbDictionary
280
     1
281
     1
  3
ACAD_XREC_ROUNDTRIP
360
7A8
  0
DICTIONARY
  5
7B5
330
35
100
AcDbDictionary
280
     1
281
     1
  3
ACAD_XREC_ROUNDTRIP
360
7B6
  0
DICTIONARY
  5
7BD
330
39
100
AcDbDictionary
280
     1
281
     1
  3
ACAD_XREC_ROUNDTRIP
360
7BE
  0
DICTIONARY
  5
7AF
330
32
100
AcDbDictionary
280
     1
281
     1
  3
ACAD_XREC_ROUNDTRIP
360
7B0
  0
DICTIONARY
  5
7B3
330
34
100
AcDbDictionary
280
     1
281
     1
  3
ACAD_XREC_ROUNDTRIP
360
7B4
  0
DICTIONARY
  5
7CD
330
41
100
AcDbDictionary
280
     1
281
     1
  3
ACAD_XREC_ROUNDTRIP
360
7CE
  0
DICTIONARY
  5
7BB
330
38
100
AcDbDictionary
280
     1
281
     1
  3
ACAD_XREC_ROUNDTRIP
360
7BC
  0
DICTIONARY
  5
79F
330
2A
100
AcDbDictionary
280
     1
281
     1
  3
ACAD_XREC_ROUNDTRIP
360
7A0
  0
DICTIONARY
  5
7A1
330
2B
100
AcDbDictionary
280
     1
281
     1
  3
ACAD_XREC_ROUNDTRIP
360
7A2
  0
DICTIONARY
  5
7A3
330
2C
100
AcDbDictionary
280
     1
281
     1
  3
ACAD_XREC_ROUNDTRIP
360
7A4
  0
DICTIONARY
  5
7A5
330
2D
100
AcDbDictionary
280
     1
281
     1
  3
ACAD_XREC_ROUNDTRIP
360
7A6
  0
DICTIONARY
  5
7AD
330
31
100
AcDbDictionary
280
     1
281
     1
  3
ACAD_XREC_ROUNDTRIP
360
7AE
  0
DICTIONARY
  5
7C9
330
3F
100
AcDbDictionary
280
     1
281
     1
  3
ACAD_XREC_ROUNDTRIP
360
7CA
  0
DICTIONARY
  5
7B9
330
37
100
AcDbDictionary
280
     1
281
     1
  3
ACAD_XREC_ROUNDTRIP
360
7BA
  0
DICTIONARY
  5
7CB
330
40
100
AcDbDictionary
280
     1
281
     1
  3
ACAD_XREC_ROUNDTRIP
360
7CC
  0
DICTIONARY
  5
7B1
330
33
100
AcDbDictionary
280
     1
281
     1
  3
ACAD_XREC_ROUNDTRIP
360
7B2
  0
DICTIONARY
  5
7C7
330
3E
100
AcDbDictionary
280
     1
281
     1
  3
ACAD_XREC_ROUNDTRIP
360
7C8
  0
DICTIONARY
  5
7C5
330
3D
100
AcDbDictionary
280
     1
281
     1
  3
ACAD_XREC_ROUNDTRIP
360
7C6
  0
DICTIONARY
  5
7BF
330
3A
100
AcDbDictionary
280
     1
281
     1
  3
ACAD_XREC_ROUNDTRIP
360
7C0
  0
DICTIONARY
  5
7C1
330
3B
100
AcDbDictionary
280
     1
281
     1
  3
ACAD_XREC_ROUNDTRIP
360
7C2
  0
DICTIONARY
  5
7B7
330
36
100
AcDbDictionary
280
     1
281
     1
  3
ACAD_XREC_ROUNDTRIP
360
7B8
  0
DICTIONARY
  5
7AB
330
30
100
AcDbDictionary
280
     1
281
     1
  3
ACAD_XREC_ROUNDTRIP
360
7AC
  0
DICTIONARY
  5
7C3
330
3C
100
AcDbDictionary
280
     1
281
     1
  3
ACAD_XREC_ROUNDTRIP
360
7C4
  0
XRECORD
  5
79D
102
{ACAD_REACTORS
330
1A
102
}
330
1A
100
AcDbXrecord
280
     1
102
MATERIAL
148
0.0
149
0.0
149
0.0
 93
        0
 94
      127
282
     0
 72
     0
 77
     0
171
     0
175
     0
179
     0
273
     0
  0
XRECORD
  5
1C
102
{ACAD_REACTORS
330
1A
102
}
330
1A
100
AcDbXrecord
280
     1
270
     1
271
     1
  0
XRECORD
  5
1B
102
{ACAD_REACTORS
330
1A
102
}
330
1A
100
AcDbXrecord
280
     1
270
     1
271
     1
  0
XRECORD
  5
1F
102
{ACAD_REACTORS
330
1A
102
}
330
1A
100
AcDbXrecord
280
     1
270
     1
271
     1
  0
XRECORD
  5
1E
102
{ACAD_REACTORS
330
1A
102
}
330
1A
100
AcDbXrecord
280
     1
270
     1
271
     1
  0
XRECORD
  5
20
102
{ACAD_REACTORS
330
1A
102
}
330
1A
100
AcDbXrecord
280
     1
270
     1
271
     1
  0
XRECORD
  5
1D
102
{ACAD_REACTORS
330
1A
102
}
330
1A
100
AcDbXrecord
280
     1
270
     1
271
     1
  0
XRECORD
  5
79C
102
{ACAD_REACTORS
330
12
102
}
330
12
100
AcDbXrecord
280
     1
102
MATERIAL
148
0.0
149
0.0
149
0.0
 93
        0
 94
      127
282
     0
 72
     0
 77
     0
171
     0
175
     0
179
     0
273
     0
  0
XRECORD
  5
14
102
{ACAD_REACTORS
330
12
102
}
330
12
100
AcDbXrecord
280
     1
270
     1
271
     1
  0
XRECORD
  5
13
102
{ACAD_REACTORS
330
12
102
}
330
12
100
AcDbXrecord
280
     1
270
     1
271
     1
  0
XRECORD
  5
9C
102
{ACAD_REACTORS
330
12
102
}
330
12
100
AcDbXrecord
280
     1
 70
     1
 90
1959938040
 71
     1
  1
9E4C718D-BF04-4B97-A736-2EF34183841D
311
504B03040A0000080000F9694E433DEE336E79000000790000001B0000006175746F6465736B2D64657369676E2D7061636B6167652E786D6C3C3F786D6C2076657273696F6E3D22312E302220656E636F64696E673D227574662D3822203F3E3C666F726D6174733E3C666F726D61743E687474703A2F2F736368656D612E
311
6175746F6465736B2E636F6D2F64657369676E2D7061636B6167652F323030393C2F666F726D61743E3C2F666F726D6174733E504B0304140006080800F9694E43D486FD9CA0000000F4000000130000005B436F6E74656E745F54797065735D2E786D6C7D8EC10E82300C865F65E91D8A1E8C310C0EEA1BF002731658846E
311
D98AC1B77784ABF1D8FE5FBFBF75BBCE937A534CCEB38643598122B6FEE978D0B0485F9C41B54DDD7D022595594E1A469170414C76A4D9A4D207E29CF43ECE46F218070CC6BECC4078ACAA135ACF422C856C0E68EA1BF5669944DDD7BCDE7B1F8E415D77AECB980613C2E4AC91FC167A2B244592486606FC29C8FD7F045B9A
311
EF7053A7E60B504B0304140006080800F9694E43F9708C64E90000007C01000008000000636F72652E786D6C8D90DD6EC3200C855F05F9762231F9D1D2885065EBF6047B010434436D200A30EDF147DA54DAEE7665EBF87CB675F8F17BBE922FB306EBDD00AC4020C629AFAD9B0648F14C3B2047C157EFE32F1B10276733C0
311
2683E0D3EAD3B24BCABB685CCCAAF3DAECA20CC14420EA9A9B0182FA34B32C648AD9112EC522D5454EA6608F2EC329594DEE47ACCEFBECD99A1504E21B9E46447A3854481B7CAF6987ED8156C84E63F7DCBEBE34232F3758F068E7C77DB51A198D06917D35654859F3C1EA9EB57D8B4FC87A445E6EF63F505AF43FA1645DAC
311
ABFDDD3B1640B0FCC86D2078B96591CB2DA85CB7DCC40F504B0304140006080800F9694E4355019EA25F0000007C00000007000000636E782E786D6C4DCB3B0E80201045D1AD90E915ED2CF8AC45050C11660C8261F98AB1B07AC9C97D42D718D865D3E909258CFD00CCE24AC6E326A164D74DC0B4128928FF326038472BA1
311
3128B1252AC747C6BAB984FC68F0B87FE8960A5C09FE86CFB69FBA01504B0304140006080800F9694E430E699B3E66010000020300000C0000006662782F636F72652E786D6C8D525B6E833010BC8AE5DFCAD8E6A12691719436ED097A01071C8A02363236CAF1BB3C229A2A8A2A2463CDECECCE0E88FDB56DD0A05D5F5B93
311
631E318CB4296C599B2AC7C19FC906A3BD14CE5AFFAB0C23A35A9DE311C65254CE866E810A6BBC361E50634BBD80AAEFB5C7A868E092E3BEF8D6AD8A54F050D15FA24E151755E9884740439D14BD776000CD43C613CBF3E92AE88C4B11425D2E6C5DC2B4FA5C6B8725631FEC78608C6CB7312329FB4CC886655B12337E3C6C
311
5EB3F7B7F420E82896C2D7EDCD5DE1B4F2BAC412EA12C219E1E9174F763CDB65EC85F11D63828EE577A2D095FF1485DAF8245EECCEB21E4B0E4626E2CFB6109147BD1AC00F95828E21C26B4AF83E68080442F6EAD4DCF6B80034E8C25B970253DAB052836A8286A90C4D8FA0330B9DA706B0D9C33EF1933ECF7BC00754A602
311
6BCAC3F514FC385DCC5397283AEDC8E0AFC858D7AA6635375B5CCF75D04379611BEBFEA3A6CBAA7409938E7FAFFC01504B0304140006080800F9694E43540845AA7E0000009D0000000B0000006662782F636E782E786D6C4DCCD10E82201886E15B61FF392959281BE042EC3E5CA263223482D6E5A7CD838EBEEDD9B797B7
311
9FD5A1B7892F1BBC00722A0119FF08A3F5B3809C26DC006A258F21A4BF1B203FAC46C0CE20F91C437E1E349A69C82E6DEAAC5F0EEC28E97575D358F794E14B556BDC94EA8C6B7AA5AC23EAAE988642F2E257DA760FCB2F504B0304140006080800F9694E43E3444FAA2D01000015020000310000006662782F433631454433
311
41442D444536392D343337442D383042322D3736353639433142464239442F636F72652E786D6C8D515B6EC32010BC0AE2AB55850DC176E2081335717A825EC00192A2C460F1A872FC42ED48ED5F7E58343B333BDA65BBFB7803DFCA796D4D07498121504658A9CDA583319CD106821D67CEDAF08706811946D5C10C43CE2E
311
CEC6698184354199905063A55AC0C17B152010B7F4E9A0175F6A1C8A2186C4F0D7621AC475B8A88214A99D789CF9E05200300FC92FE487861C7BFADEA3FED8B4A8A2EB1E6DF07E85D64DDDB407B2FFD8B73D2B672167316AB9C8B54C71F4592BF7AC49167316F4F8882F9C1A829290AF30A1886044AA4F42B7A4DED6F80D93
311
2DC6ACCCF47FA238C92745519B40574BDC59E62127AC9C1B9C491B4FB74718759FAC0B20CF7BF14ABC428E0B8C5BBAC19424CDCC4D1B48A64DB598FA605DDAF0CBF594E8A49E9D9B8AB3321F2995DF0BA69A0FCA7F00504B0304140006080800F9694E43E7EA3E584D01000033030000300000006662782F43363145443341
311
442D444536392D343337442D383042322D3736353639433142464239442F636E782E786D6CD593CD6E022114855F85B06DE6873A9AC6309874D127E8A25B84AB521998F0D3D4B7EF45D1BA71D165376472EEE19C9B2F0CDF7C4F967C4188C6BB91B2B6A7049CF2DAB8FD4873DA352F946C040FDEA73B1B254E4E30D22253C1
311
F7C1E7B94A1A7632DB84AA35EE58C500D1E7A020A25C6E12EB95B41800AEC928C2B405AD41939B11BF7610701514B727920E40DE5E3F88DF7E824A91772545F0AE74085ECEDA7467A2445919E348A33AC0245B9993D7108FAD9649B6ACBD763DD8E93789940BD7CA1C0C29E5232D271575A31639F20E8782C714905E35A5D3
311
0C54C879B646C98490BBB3F1E2113C1B975643F51A041FD0CD568B61C0B0F34CF06426A80E154026D0543CF76CD1B0BE61C33B5BACD972BDEC9F7AB6EE7BDE15BBE05BEF6DBD843110FC4C9477095CA282F1AE8C1FE1AB3EA24D40D63E9CFE001201D4D60B9D5BC67FE6D39DDF37E20AF817881F504B0304140006080800F9
311
694E43FB2EEE379B0500007B100000340000006662782F43363145443341442D444536392D343337442D383042322D3736353639433142464239442F6F626A656374732E786D6CAD575D739B3814FD2B0CFB6C303669921D4227B1938EA79BB6534F3BFB90198F0041B4111F2389D4E9AFDF2310185C3BF1EEF4059090AEEE
311
3DF7DC0F05EFB739B79EA990AC2CAE6CCF99DA162DE23261457665D72A9D5CD8D6FB301065A906CB6CAB2039BDB2F5B41D069928EBCA4C25342535577BB377377F5B32A605B5AD981329AF6C193FD29C38A4566542E5939310459C2CDD3A9ED32E1C8BCD04A91EF7845644D0424153CC179062B54A79E3E1D476C3C0D5FFC3
311
403FCDAAF9F1556E63CFF87C5648458AF897C3F6C4CC3D7F793B3BBB9C9CF9FE7CE2BF9B79939BBB9BE5C43B9F4F17EF168BCBEBDB4B1C2C958024A389A0A91D7E003682C581DBFE0A839A156A3E334B8C835C419F99F6941DCE2C2F70DB35BD75C6C843EAC76551D0B8C10A6834F619D109AD6891C0E78C4A683640683A1E
311
7A1AC7C1EFB91E9B2387D3A72130DC3110D4E9DEBD879A96D13F30419EC22021A966608BA531B4E5EA7487705496DCFC63D2CA89A282116E711609225EEC104BF592301889D14C163A1AB40576082FB4BFC7744118BDCDF3435AA635E79AC676D844C106B142956C34633FA9D8693F44063AC1579A0D17C620F552513BBC6C
311
2972B1C7A616482BE52483CB61A6DE399FED19BAD071BA5ADAE1C7BB68BBD6B17BF8F04A9415154AD307D4EA1CD7BD354A4627EF24CFE90DF69E2A3B50BE02F94F08F59D2AF09B605B7FEB9B539420854C4B91C337D6D49A4CF1985A5EF3D4DF83AFC0ED378FBD770C4F385B43F51BF01CDB30F4E500CE307806E14B3137A6
311
AD63C29136EE59018034492C5E620A79388DB676B842964356C62EC2430F2643DD677C06AE118344D19C347817C0722F2D9E90A0015BC348A8D192DF28B8F3D32FE9AC39D82C3B06EFD96FA1EBF572FD715D8B94C4F4DEC4F492A6AC600A256EC79BA14223CC47163DD1971FA54860E8AF78AF8778E7E62809B435E61AF8AC
311
CBE97AB03B7974408C7D59A9D34DF0C609304217D681FC7B2663CA3929685977E7BE5A3F50365A8875B06B26F705665758409AF6CF5E0CA248C782551AC4BE5AF549D33962DDB7D52730D20E6F5EFE222FC3EC15ED726F5CF2526CA2974D9B960E42FD7DCC6D8381ABA580EE4D9074F16F40DF242C4D6B89247800D7EFABC5
311
D0773A2D20457452DB68F1613F828B0843DA4E2EAAB520A8A465B161A89B88BB83070CE50352C38046E0318D25E5E986715EE79B947154A34D4EAA2370FC7FFDA33AAF36242FEB421D913D521DD561ACFB88BDF20751F1A31DAE9BF7E406B937A1C91132E85A7200AB916B2F6FFDC5B977B144D734F527FECDE5F9E4FA7CFE
311
6E32BBBD9BFBDEC5FCC2F7969D9F5A4DC2A02B35C388869750DA825A30E3BE6F2BC48F490276784F947CF8D08667F7FEB672D00B072EF6A05EF61BAF9367F47D34795BC06EE54141ABBCE234A785223A86EEF507FF4AD0678C9469E75739C9E809523E7F58EF19839913F67DD1F14E7FECED35B30B1D900785A8C73A8F0AC2
311
F8DEC6AC45D2A98ACCE0D7F9A47FB785A61BEA91710C3A53597296200F265646CB9C2A64C3138A90C8A904F5863D7D62EE1E27EC7E6E3B4445224E3B4D1E099A642E1116A0561DABF1BCF5079A3ADD575DD928B7CE131E2653D816387365A349572CA6D28950A0752BD4080797869D3C1A7F52641CBD76BBA91FF7BB3436A3
311
92DC2F39A57F3276B529DC18803452A16F404304EF34CA8441A39BF91FFF27C33B752CA2F019D5AAB76537D11BD31C83106D8D32B70534314FE6E82D02F575B33CA7593342E4A45BD6AB2468A54E1411597353D0FA1995AE975F5C7428D6EAB355F13A832F4F9734111464AE75808345608591591105AA2EFE7CF8224ADC64
311
73EB8E81020F8B32CFCBC20CAECD4DD85A3FE25E9B3C202D507D21910FB3A9377B682E02E66EB28988A40E49E41326E053C17A88478E0723DBDB222A50FBA35FE76A27EC7173B5B44C49F321D410659855352C68390A6A217AF46552C7CA7041F5EA5DC06D964205812E3EFC17504B0304140006080000F9694E4300000000
311
0000000000000000350000006662782F43363145443341442D444536392D343337442D383042322D3736353639433142464239442F76657274696365732E62696E504B0304140006080800F9694E43F270F1330600000004000000360000006662782F43363145443341442D444536392D343337442D383042322D37363536
311
39433142464239442F747269616E676C65732E62696E636660600000504B0304140006080000F9694E43000000000000000000000000370000006662782F43363145443341442D444536392D343337442D383042322D3736353639433142464239442F617474726962757465732E62696E504B0304140006080800F9694E43
311
D5987DFC8F00000041010000360000006662782F43363145443341442D444536392D343337442D383042322D3736353639433142464239442F6469726563746F72792E786D6C858F410EC2201045AF4266AF15DDB800BA74E7C21B903225242D6328188F2FA5C4183471359997F9FF81E89FF3C41E1816475E02DF1F80A11F
311
C8386F25A438EECEC07A250251FC3803E6F58C12560C4AD840E95E91C151A72936F496F35732D860FE635F62C8F2DA16B505C545B74125BAA2FA9E05D7CC053D063734D5C7665FD55B6B8D15D5E9BFEAFD8490FFA45E504B0304140006080800F9694E4382A33E3EFE000000A00100003B0000006662782F43363145443341
311
442D444536392D343337442D383042322D3736353639433142464239442F7265736F75726365732F636F72652E786D6C8D905D6E83301084AF82F6B532AC435001194769534ED00B586643AD043BF24FD5E3D724546ADFFAE2B566BED18E561CBE966BF1493E186707E025424156BBC9D8798014CFAC85E22085772EFEC2A0
311
B06AA1015619A498BD4BB74DD2CE46B231ABD64DB4892A048A50E86BFE0C10F4072DAA542966225CCA9BD2173553C9CB6C674E8A107D2E503C96AC2F484FC125AF2988EAE14A91929936C64C79A7391BF22011DFF0D48D23EBBA1DB23D8E356BB1E9D80EF9E9D83E37AF2FFBA3A8D6B014D12C3F1DB52715690299B99A7164
311
7CFFCEEB9E377D834FC87B4451ADF89F50BA4DFF0C256363BDDBEA3E620124CF45EE8614D57AAF3CEEC7CC73BDADFC06504B010214000A0000080000F9694E433DEE336E79000000790000001B00000000000000000000000000000000006175746F6465736B2D64657369676E2D7061636B6167652E786D6C504B01021400
311
140006080800F9694E43D486FD9CA0000000F40000001300000000000000000000000000B20000005B436F6E74656E745F54797065735D2E786D6C504B01021400140006080800F9694E43F9708C64E90000007C010000080000000000000000000000000083010000636F72652E786D6C504B01021400140006080800F969
311
4E4355019EA25F0000007C000000070000000000000000000000000092020000636E782E786D6C504B01021400140006080800F9694E430E699B3E66010000020300000C00000000000000000000000000160300006662782F636F72652E786D6C504B01021400140006080800F9694E43540845AA7E0000009D0000000B00
311
000000000000000000000000A60400006662782F636E782E786D6C504B01021400140006080800F9694E43E3444FAA2D0100001502000031000000000000000000000000004D0500006662782F43363145443341442D444536392D343337442D383042322D3736353639433142464239442F636F72652E786D6C504B010214
311
00140006080800F9694E43E7EA3E584D010000330300003000000000000000000000000000C90600006662782F43363145443341442D444536392D343337442D383042322D3736353639433142464239442F636E782E786D6C504B01021400140006080800F9694E43FB2EEE379B0500007B10000034000000000000000000
311
00000000640800006662782F43363145443341442D444536392D343337442D383042322D3736353639433142464239442F6F626A656374732E786D6C504B01021400140006080000F9694E430000000000000000000000003500000000000000000000000000510E00006662782F43363145443341442D444536392D343337
311
442D383042322D3736353639433142464239442F76657274696365732E62696E504B01021400140006080800F9694E43F270F13306000000040000003600000000000000000000000000A40E00006662782F43363145443341442D444536392D343337442D383042322D3736353639433142464239442F747269616E676C65
311
732E62696E504B01021400140006080000F9694E430000000000000000000000003700000000000000000000000000FE0E00006662782F43363145443341442D444536392D343337442D383042322D3736353639433142464239442F617474726962757465732E62696E504B01021400140006080800F9694E43D5987DFC8F
311
000000410100003600000000000000000000000000530F00006662782F43363145443341442D444536392D343337442D383042322D3736353639433142464239442F6469726563746F72792E786D6C504B01021400140006080800F9694E4382A33E3EFE000000A00100003B00000000000000000000000000361000006662
311
782F43363145443341442D444536392D343337442D383042322D3736353639433142464239442F7265736F75726365732F636F72652E786D6C504B0506000000000E000E00800400008D1100000000
310
504B03040A0000080000F9694E433DEE336E79000000790000001B0000006175746F6465736B2D64657369676E2D7061636B6167652E786D6C3C3F786D6C2076657273696F6E3D22312E302220656E636F64696E673D227574662D3822203F3E3C666F726D6174733E3C666F726D61743E687474703A2F2F736368656D612E
310
6175746F6465736B2E636F6D2F64657369676E2D7061636B6167652F323030393C2F666F726D61743E3C2F666F726D6174733E504B0304140006080800F9694E43D486FD9CA0000000F4000000130000005B436F6E74656E745F54797065735D2E786D6C7D8EC10E82300C865F65E91D8A1E8C310C0EEA1BF002731658846E
310
D98AC1B77784ABF1D8FE5FBFBF75BBCE937A534CCEB38643598122B6FEE978D0B0485F9C41B54DDD7D022595594E1A469170414C76A4D9A4D207E29CF43ECE46F218070CC6BECC4078ACAA135ACF422C856C0E68EA1BF5669944DDD7BCDE7B1F8E415D77AECB980613C2E4AC91FC167A2B244592486606FC29C8FD7F045B9A
310
EF7053A7E60B504B0304140006080800F9694E4374EFB5B0EA0000007C01000008000000636F72652E786D6C8D90D16EC3200C457F05F975223149B32611A1AAB4F60BF60308688ADA401460DAE78FB4A9B4BDEDC9D6F53DB675F9E17BBA932FB304EBDD00AC4020C629AFAD1B0748F1425B2007C117EFE32F1B10272733C0
310
2A83E0E3E2D3BC49CABB685CCCAAF3DA6CA20CC14420EA9E9B0182BA9A491632C5EC08B76296EA264753B05797E194AC26CF2356E77DF662CD0202EBA6DB9F3E8EB4ADCF0DDD615BD1EE842DC53376ACD9EF8FEF6DC7CB15163CDAE9755F2D4646A34154C86ACA90B2DD27AB7BD6F40DBE21EB1179B9DAFF4069D6FF849275
310
B1AEB6779F5800C1F2238F81E0E59A452E8FA0725D73133F504B0304140006080800F9694E4355019EA25F0000007C00000007000000636E782E786D6C4DCB3B0E80201045D1AD90E915ED2CF8AC45050C11660C8261F98AB1B07AC9C97D42D718D865D3E909258CFD00CCE24AC6E326A164D74DC0B4128928FF326038472B
310
A13128B1252AC747C6BAB984FC68F0B87FE8960A5C09FE86CFB69FBA01504B0304140006080800F9694E43A93F092166010000020300000C0000006662782F636F72652E786D6C8D52ED8A8330107C9590BF8726D17AD512530AD73EC1BD40AAA927D54462227DFC5B3F8AD7A39422C430B3B33B3BCAF7B7B64183B27D6D74
310
8E59483152BA3065ADAB1C7B7709528CF6825B63DC9F328CB46C558E47180B5E59E3BB052A8C764A3B40B529D502CABE570EA3A2814B8EFBE247B53294DE41457F0D3B595C65A54216020D7582F7CE8201340F194F2C2EE71B27332EB8F775B9B07509D3EA4BAD2C16344EB2EDF1EB10A4F1290936348D82EC48D3809E68C6
310
92EDF6F099669C8C62C15DDDDEDD155649A74A2C22CAE280D1806DBE59BC63C92EA11F94ED28E5642C7F10F9AE7C53E46BEDE268B13BCB7A2C181899887FDB42440EF572003F4470328608AF29E1C7A0211008D9C97373DFE30AD0A00A67EC0698D2F8951A64E3154CA5687A389959E83C3580CD9EF6895EF479DD033EA0D4
310
1558930EAE67EFC6E97C9EBA44D1291B0CEE86B4B1AD6C5673B3C5F55C073D9517A631F61D355956254B9864FC7BC52F504B0304140006080800F9694E43A5E83E667E0000009D0000000B0000006662782F636E782E786D6C4DCCD10A83201886E15B91FFDCE59653033598AEFB886511990EA76397BF1A1DECE883878F57
310
B69FD5A3B74BAF390605E71301E4C2230E739814943C6201A8D532C598FF6E8042BF3A053B8396538AE579D0E0C6BEF8BCA99FC372A0BDB15A70C6F1955D2CA6861A2C0CA1D8D68DE9182577DE74506959FD4ADBEE61FD05504B0304140006080800F9694E43E6DD84D72A01000014020000310000006662782F4442363338
310
3736372D353632442D344334432D384330342D4433394346363430453739462F636F72652E786D6C8D515B6EC32010BC0AE22B55850D31761EC244AAD39CA01720405294182C1E558E5FA85DA9FD8B8458343B333B62D9E131DEC197F6C138DB43526108B4954E197BED618A17B485E0C099772EFEA14160C5A87B5860C8D9
310
D5BB342D9074366A1B336A9DD20B2842D0110279CF8F1E06F9A9475189143323DCAA49C89BB8EA8A54B99D799C85E87300300F2937E4C7B7AED96EBA0D6ABBF511D1810E683B608A8ECD6E387514BF6F762756CF42CE52326A911B95E3988BD1FE599322E62C9AF137BEF45A44AD205F63D2208211A11FA4D99376DFE2574C
310
F618B3BAD0FF89D2A49E14256363B35EE2CEB2003961F5DCE04CB974BEFF86D18FC9F908CABC55D0F205725C6182776D3EAC9EA9F903B2674717CF109DCF1FBCBA9D33BB598C3BCA595D7694CBCF02732DFBE4DF504B0304140006080800F9694E43814DF14F5501000033030000300000006662782F44423633383736372D
310
353632442D344334432D384330342D4433394346363430453739462F636E782E786D6CBD93CD6EC32010845F0571ADFC43EC44518489D4439FA0875E096C521A0C16E0AA79FB2E094973C9A152D50BB2668799D527CCB75FA3259F10A2F16EA0AC6E2901A7BC36EE30D039EDAB35255BC183F7E9CE468993230C34CB54F043
310
F0F354240D7B39DB84AA35EE58C400D1CF41414439DF24D62B6931005C35A308E30EB4064D6E46FCDA43C05550DC9D487A07F2F2FC46FCEE03548ABCC9298237B943F07C96A63B1325CACA18071AD53B8CB29673F21AE2B1D632C99AD5D7AE073BFD24917CE15A39074372F940F34945D9A8468EBCC1A1E03105A4574CE934
310
0115729AAC513221E4E66CBC78049F8D4BABBE780D820FE8EE16ABF51AC3CE33C19319A1385400994053B1685957B1B662FD2BEB366CB959B64F2DDBB42D6FB25DF09DF7B65CC218087E22CABB042E51C17893C78FF0151FD126206B1F4EBF0089004AEB85CE2DE32FF9B055D7F7FFC8A739BF6FC415F02F10DF504B030414
310
0006080800F9694E43A28C09FC5A070000941B0000340000006662782F44423633383736372D353632442D344334432D384330342D4433394346363430453739462F6F626A656374732E786D6CED59DD739B3810FF5718EED9D8C44E9ADC103A899D643CBDB49DFADAB987CC3032C8441721184924F1FDF5B7FA00033109BE
310
E6DEFA6003425AEDFEF6534BF0F139A3CE23E682E4ECDCF5BD89EB6016E70961E9B95BCACDE8D4753E8601CF73D998E63A0C65F8DC55C36E18A43C2F0B3B94E00D2AA9EC8C5E5FFEE5881833EC3A3145429CBB22BEC719F25029F3048B072F411279E9E6D9F33D33B14D36E5A8B8EF102D10C74C02A730CE808A6398F2DB8F
310
13771C0663F53E0CD4BF9D351D346BD63F6BACA56E7349989088C52F58EA90990E6269EACF165747C767A3E3D96C3A9A9D1CF9A3CBEBCBC5C8FF309DCC4FE6F3B38BAB33606F9DE7D4CA94E002B304F4B775433F18AB37B5E816817D5CC7396338D64002545AAC2E4182056CD5806FD27EF495448DD75AC2C6F34CBDB72C34
310
86A76D2A7DB38601D1A20B82D8ED2A89AB6B53BE7CFD37082E861825175802B74272D0AE85878357B8E124189BD13058EF7441849321893941D4A164CD1107A5C05435250CCC024B46390707528E92406BCEBC6EDB1678E6DBAEB38FCB4D49A9F20C37D48E1581FB61293467E41FCC77DC3791019E40DA9230796AB994DB02
310
BBE15930D68361A02ED323FBD200E96C284A8546C4BCED083A57AEBF5CB8E1A7EBF5F34A8583FD9B173C2F3097CAE8941E355F60C8F6AA50B2DBFA8334A71680300654BB7207CA3740FE33448F1D2BA0374E9E67CF333B5772C4C426E719E8C69938A309FC4D1C5FFFABFBC65D30AE17B7B5D78727B8A982EAF4E7F16CCBA0
310
B1B2FC37E00C834730F89C4FEDAB558C28D8F32D610090321287E63004A17DB37E76C325044E08F4B00AD1D0079181DD47B80DC696CC4E2B957B59AF6380A8DD633A4449009BB64860A3474F37903D3889776A6A8AD807EFF1BB98EBC562F56955F20D8AF1ADF5E905DE10462464CDFD0CB5306F49F480B74F394F40D09778
310
AF9A7867762B01682BCC15F06905827AD8EDDCDA20867569AEC24DF0C60E2084CAD50DFAB744C49852C4705E56FBD6D14D196AEDF1B66670C32303F1F4A863C21C3F12555580D3EC66B41885BC1F73522810DDF0C64856074DAF47BAEFCBCF6091F5FC9E594B06A19721FAA70E5A7B7068597685B405A21678BD0BE7714E73
310
1EADB79189742ED412C046DB5B7EB48842AC374A5254C083B4DF55212535D24609D96C4A0171750F8B3F96F3A6394CBCA97FEC34FF3BCE3883680BBE8BB8F5BBCE1E11C9508AA30D4AFAB66BEE56D3169A640F698E3714E4228F446E2324A34982D343A03988F8D9BB524F692E04615840BEDA0B7E138D890781C468B36259
310
69B5033411518625A28720A0C8F480ABD38EAE7163281DDEE6B1B6DED734D624FA3F590447504BE62C22508A420E799371DF3B8618D246D7A0DCC117ACADA2ADC5A0259410F1367AC224BD9787A06EC8F7E01EC391A494515EA018CC7A00D917BEA294DAE17D8DE207953FA2B8A4EF652002D34D44282DB3087E84C1C96388
310
6BD781E955141AC44DEC933883A20CC9920FD9E4E478F2621F533374436063A30DA110B6A30C153DA8B702A2AE479C1A7C4BBD47A9EB322B2294E5251B6428DEB4EB4D967C57AD8AEC407E55A908656345D8120C03C2649D55AB980DA6AE032BB8910E54DB48A0ACA0E614F646E2F16B6FD2947B37E0D64FDF77830C0ABF1E
310
ED3523EAAC82C1F2D82A0CC41392F1BD1BAEF4757409F57782935DAAAF6ACD66050888A9485E726255F47D09E58DADD1DCF01649717763B26E75FDBEF4A0FB118C610DD42EF5C2A5023AC34C225599DCAA1BFA0D41086ED130E34B95530FA1729124BA6A44F49AF4A9B35546B436CD8857DC639667F0637784C5B44CF01D4A
310
C443742B69B4228A752BA597910AE35705FC72B3EAC003230344FAAA0A3CFCD4596B47E7AA5CDA4B44DE97D99A210241B0255A6A74E3152CB51AA9B45C5FD59902EA2E3030ABE2D9AF9345B31DF1EB64915AC3F8A993C5E5F60FB46DF6451AE93C56767DD031A0CE4F8ACA7B1C0374DBA1A65A671193CCADFCD69922088A55
310
941F5C8D5541C310ECE3F83F67EDBE2C68B6EBF07F58D6F65F541C076595D664D5A5DA53B92E9B39ECEC6A36FFE09F2EA02D3B998D6697671F46171FA627A3A3ABEBE9CC3F9D9ECEFC458DA676D430A88399CE5DF06C825A35AC9E2C06D095153925099CE61327C510F3259CE907B4CF79860524CF66B33BB14DF901AB1F4D
310
9F53A235C51527F7081AC454405A078CCA58B6C79DDFA03529E1A07DEE42D3C87B803F6B95AE0399E7DC855681243116DE1ADA4CAAA1A78943CAD5B9DF12037C104B554A348BEAE77A95C2A615FEEB2943D28095ABD5C380C2AD80EE57AB43A179B33CC507095EB1E32009B7EB5242B56664D90DD4C2E86D76EA37B251C21E
310
ECD6CFE0BAAF8BE57B7A4E0B91419F0C5E3502437524114F75BF5B316659BA587C1D439FCD597E710A5AA6A0CBE194461C833197AAA0022B02ABB0340B24C154E7BFDF7DE5397CE2C91C5D15DDCDF32CCB997DB880F358029F889CD53D7CF049EEA06CC0AAAD2EEE8E26FED19D6E67DB0E7BB446027BAA1E8281AA8C502274
310
8C0D2CF2456BCA362EC74A099DE9CB8563C327B4018C05BDE8EE9ACF5B0E788FFA90A27C457B7825E7AB1DEDB19E0AD6C0A1171DFE0B504B0304140006080000F9694E43000000000000000000000000350000006662782F44423633383736372D353632442D344334432D384330342D4433394346363430453739462F7665
310
7274696365732E62696E504B0304140006080800F9694E43F270F1330600000004000000360000006662782F44423633383736372D353632442D344334432D384330342D4433394346363430453739462F747269616E676C65732E62696E636660600000504B0304140006080000F9694E4300000000000000000000000037
310
0000006662782F44423633383736372D353632442D344334432D384330342D4433394346363430453739462F617474726962757465732E62696E504B0304140006080800F9694E43D5987DFC8F00000041010000360000006662782F44423633383736372D353632442D344334432D384330342D4433394346363430453739
310
462F6469726563746F72792E786D6C858F410EC2201045AF4266AF15DDB800BA74E7C21B903225242D6328188F2FA5C4183471359997F9FF81E89FF3C41E1816475E02DF1F80A11FC8386F25A438EECEC07A250251FC3803E6F58C12560C4AD840E95E91C151A72936F496F35732D860FE635F62C8F2DA16B505C545B74125
310
BAA2FA9E05D7CC053D063734D5C7665FD55B6B8D15D5E9BFEAFD8490FFA45E504B0304140006080800F9694E43C926D671FD000000A00100003B0000006662782F44423633383736372D353632442D344334432D384330342D4433394346363430453739462F7265736F75726365732F636F72652E786D6C8D504B6E833010
310
BD0A9A6D65B02134808CA34A4D4ED00B586642AC041BF953F5F8B50395DA5D3733A3F7D13C3D7EFA5A1EC5273AAFAD198195140A34CA4EDACC23C470251D1427C19DB5E1970C0A23171C21C320F8EC6C5C77485913D084841A3BE10E4AEF3140A11EE918C1AB1B2EB294312485BF97AB54773963C9CA44279DE03EB814A0D8
310
9EE409C2A1B7D129F4BCDA58C163D4D3AED153FAA9AF1A1D08DAB4FDF1FCDE93AEB9B4E440BB9AF467DA117AA13D6B8FC7B7D7AEE755360B1EF4F29351399401271035650D6194B0C3076B06D60E2D7DA16CA0945759FEC714D7E99FA6A84D68EA3DEE66F320580AF22404AF725F693DCB4C3B772BBE01504B010214000A00
310
00080000F9694E433DEE336E79000000790000001B00000000000000000000000000000000006175746F6465736B2D64657369676E2D7061636B6167652E786D6C504B01021400140006080800F9694E43D486FD9CA0000000F40000001300000000000000000000000000B20000005B436F6E74656E745F54797065735D2E
310
786D6C504B01021400140006080800F9694E4374EFB5B0EA0000007C010000080000000000000000000000000083010000636F72652E786D6C504B01021400140006080800F9694E4355019EA25F0000007C000000070000000000000000000000000093020000636E782E786D6C504B01021400140006080800F9694E43A9
310
3F092166010000020300000C00000000000000000000000000170300006662782F636F72652E786D6C504B01021400140006080800F9694E43A5E83E667E0000009D0000000B00000000000000000000000000A70400006662782F636E782E786D6C504B01021400140006080800F9694E43E6DD84D72A0100001402000031
310
000000000000000000000000004E0500006662782F44423633383736372D353632442D344334432D384330342D4433394346363430453739462F636F72652E786D6C504B01021400140006080800F9694E43814DF14F55010000330300003000000000000000000000000000C70600006662782F44423633383736372D3536
310
32442D344334432D384330342D4433394346363430453739462F636E782E786D6C504B01021400140006080800F9694E43A28C09FC5A070000941B000034000000000000000000000000006A0800006662782F44423633383736372D353632442D344334432D384330342D4433394346363430453739462F6F626A65637473
310
2E786D6C504B01021400140006080000F9694E430000000000000000000000003500000000000000000000000000161000006662782F44423633383736372D353632442D344334432D384330342D4433394346363430453739462F76657274696365732E62696E504B01021400140006080800F9694E43F270F13306000000
310
040000003600000000000000000000000000691000006662782F44423633383736372D353632442D344334432D384330342D4433394346363430453739462F747269616E676C65732E62696E504B01021400140006080000F9694E430000000000000000000000003700000000000000000000000000C31000006662782F44
310
423633383736372D353632442D344334432D384330342D4433394346363430453739462F617474726962757465732E62696E504B01021400140006080800F9694E43D5987DFC8F000000410100003600000000000000000000000000181100006662782F44423633383736372D353632442D344334432D384330342D443339
310
4346363430453739462F6469726563746F72792E786D6C504B01021400140006080800F9694E43C926D671FD000000A00100003B00000000000000000000000000FB1100006662782F44423633383736372D353632442D344334432D384330342D4433394346363430453739462F7265736F75726365732F636F72652E786D
310
6C504B0506000000000E000E0080040000511300000000
  0
XRECORD
  5
17
102
{ACAD_REACTORS
330
12
102
}
330
12
100
AcDbXrecord
280
     1
270
     1
271
     1
  0
XRECORD
  5
16
102
{ACAD_REACTORS
330
12
102
}
330
12
100
AcDbXrecord
280
     1
270
     1
271
     1
  0
XRECORD
  5
18
102
{ACAD_REACTORS
330
12
102
}
330
12
100
AcDbXrecord
280
     1
270
     1
271
     1
  0
XRECORD
  5
15
102
{ACAD_REACTORS
330
12
102
}
330
12
100
AcDbXrecord
280
     1
270
     1
271
     1
  0
XRECORD
  5
79E
102
{ACAD_REACTORS
330
22
102
}
330
22
100
AcDbXrecord
280
     1
102
MATERIAL
148
0.0
149
0.0
149
0.0
 93
        0
 94
      127
282
     0
 72
     0
 77
     0
171
     0
175
     0
179
     0
273
     0
  0
XRECORD
  5
24
102
{ACAD_REACTORS
330
22
102
}
330
22
100
AcDbXrecord
280
     1
270
     1
271
     1
  0
XRECORD
  5
23
102
{ACAD_REACTORS
330
22
102
}
330
22
100
AcDbXrecord
280
     1
270
     1
271
     1
  0
XRECORD
  5
27
102
{ACAD_REACTORS
330
22
102
}
330
22
100
AcDbXrecord
280
     1
270
     1
271
     1
  0
XRECORD
  5
26
102
{ACAD_REACTORS
330
22
102
}
330
22
100
AcDbXrecord
280
     1
270
     1
271
     1
  0
XRECORD
  5
28
102
{ACAD_REACTORS
330
22
102
}
330
22
100
AcDbXrecord
280
     1
270
     1
271
     1
  0
XRECORD
  5
25
102
{ACAD_REACTORS
330
22
102
}
330
22
100
AcDbXrecord
280
     1
270
     1
271
     1
  0
XRECORD
  5
5C8
102
{ACAD_REACTORS
330
5C7
102
}
330
5C7
100
AcDbXrecord
280
     1
102
ACAD_ROUNDTRIP_2012_MLEADER_STYLE
298
     1
  0
CELLSTYLEMAP
  5
78C
102
{ACAD_REACTORS
330
78B
102
}
330
78B
100
AcDbCellStyleMap
 90
        3
300
CELLSTYLE
  1
TABLEFORMAT_BEGIN
 90
        5
170
     1
 91
        0
 92
    32768
 62
   257
 93
        1
300
CONTENTFORMAT
  1
CONTENTFORMAT_BEGIN
 90
        0
 91
        0
 92
      512
 93
        0
300

 40
0.0
140
1.0
 94
        5
 62
     0
340
55
144
0.25
309
CONTENTFORMAT_END
171
     0
 94
        0
309
TABLEFORMAT_END
  1
CELLSTYLE_BEGIN
 90
        1
 91
        1
300
_TITLE
309
CELLSTYLE_END
300
CELLSTYLE
  1
TABLEFORMAT_BEGIN
 90
        5
170
     1
 91
        0
 92
        0
 62
   257
 93
        1
300
CONTENTFORMAT
  1
CONTENTFORMAT_BEGIN
 90
        0
 91
        0
 92
      512
 93
        0
300

 40
0.0
140
1.0
 94
        5
 62
     0
340
55
144
0.18
309
CONTENTFORMAT_END
171
     0
 94
        0
309
TABLEFORMAT_END
  1
CELLSTYLE_BEGIN
 90
        2
 91
        1
300
_HEADER
309
CELLSTYLE_END
300
CELLSTYLE
  1
TABLEFORMAT_BEGIN
 90
        5
170
     1
 91
        0
 92
        0
 62
   257
 93
        1
300
CONTENTFORMAT
  1
CONTENTFORMAT_BEGIN
 90
        0
 91
        0
 92
      512
 93
        0
300

 40
0.0
140
1.0
 94
        2
 62
     0
340
55
144
0.18
309
CONTENTFORMAT_END
171
     0
 94
        0
309
TABLEFORMAT_END
  1
CELLSTYLE_BEGIN
 90
        3
 91
        2
300
_DATA
309
CELLSTYLE_END
  0
XRECORD
  5
7CF
102
{ACAD_REACTORS
330
78B
102
}
330
78B
100
AcDbXrecord
280
     1
102
ACAD_ROUNDTRIP_PRE2007_TABLESTYLE
 90
      512
 91
        0
  1

 92
      512
 93
        0
  2

 94
      512
 95
        0
  3

  0
XRECORD
  5
7AA
102
{ACAD_REACTORS
330
7A9
102
}
330
7A9
100
AcDbXrecord
280
     1
102
RTVSPropertyOp0
 70
     1
102
RTVSPropertyOp1
 70
     1
102
RTVSPropertyOp2
 70
     1
102
RTVSPropertyOp3
 70
     1
102
RTVSPropertyOp4
 70
     1
102
RTVSPropertyOp5
 70
     1
102
RTVSPropertyOp6
 70
     1
102
RTVSPropertyOp7
 70
     1
102
RTVSPropertyOp8
 70
     1
102
RTVSPropertyOp9
 70
     1
102
RTVSPropertyOp10
 70
     1
102
RTVSPropertyOp11
 70
     1
102
RTVSPropertyOp12
 70
     1
102
RTVSPropertyOp13
 70
     1
102
RTVSPropertyOp14
 70
     1
102
RTVSPropertyOp15
 70
     1
102
RTVSPropertyOp16
 70
     1
102
RTVSPropertyOp17
 70
     1
102
RTVSPropertyOp18
 70
     1
102
RTVSPropertyOp19
 70
     1
102
RTVSPropertyOp20
 70
     1
102
RTVSPropertyOp21
 70
     1
102
RTVSPropertyOp22
 70
     1
102
RTVSPropertyOp23
 70
     1
102
RTVSPropertyOp24
 70
     1
102
RTVSPropertyOp25
 70
     1
102
RTVSPropertyOp26
 70
     1
102
RTVSPropertyOp27
 70
     1
  0
XRECORD
  5
802
102
{ACAD_REACTORS
330
801
102
}
330
801
100
AcDbXrecord
280
     1
102
RTVSPropertyOp0
 70
     1
102
RTVSPropertyOp1
 70
     1
102
RTVSPropertyOp2
 70
     1
102
RTVSPropertyOp3
 70
     1
102
RTVSPropertyOp4
 70
     1
102
RTVSPropertyOp5
 70
     1
102
RTVSPropertyOp6
 70
     1
102
RTVSPropertyOp7
 70
     1
102
RTVSPropertyOp8
 70
     1
102
RTVSPropertyOp9
 70
     1
102
RTVSPropertyOp10
 70
     1
102
RTVSPropertyOp11
 70
     1
102
RTVSPropertyOp12
 70
     1
102
RTVSPropertyOp13
 70
     1
102
RTVSPropertyOp14
 70
     1
102
RTVSPropertyOp15
 70
     1
102
RTVSPropertyOp16
 70
     1
102
RTVSPropertyOp17
 70
     1
102
RTVSPropertyOp18
 70
     1
102
RTVSPropertyOp19
 70
     1
102
RTVSPropertyOp20
 70
     1
102
RTVSPropertyOp21
 70
     1
102
RTVSPropertyOp22
 70
     1
102
RTVSPropertyOp23
 70
     1
102
RTVSPropertyOp24
 70
     1
102
RTVSPropertyOp25
 70
     1
102
RTVSPropertyOp26
 70
     1
102
RTVSPropertyOp27
 70
     1
  0
XRECORD
  5
800
102
{ACAD_REACTORS
330
7FF
102
}
330
7FF
100
AcDbXrecord
280
     1
102
RTVSPropertyOp0
 70
     1
102
RTVSPropertyOp1
 70
     1
102
RTVSPropertyOp2
 70
     1
102
RTVSPropertyOp3
 70
     1
102
RTVSPropertyOp4
 70
     1
102
RTVSPropertyOp5
 70
     1
102
RTVSPropertyOp6
 70
     1
102
RTVSPropertyOp7
 70
     1
102
RTVSPropertyOp8
 70
     1
102
RTVSPropertyOp9
 70
     1
102
RTVSPropertyOp10
 70
     1
102
RTVSPropertyOp11
 70
     1
102
RTVSPropertyOp12
 70
     1
102
RTVSPropertyOp13
 70
     1
102
RTVSPropertyOp14
 70
     1
102
RTVSPropertyOp15
 70
     1
102
RTVSPropertyOp16
 70
     1
102
RTVSPropertyOp17
 70
     1
102
RTVSPropertyOp18
 70
     1
102
RTVSPropertyOp19
 70
     1
102
RTVSPropertyOp20
 70
     1
102
RTVSPropertyOp21
 70
     1
102
RTVSPropertyOp22
 70
     1
102
RTVSPropertyOp23
 70
     1
102
RTVSPropertyOp24
 70
     1
102
RTVSPropertyOp25
 70
     1
102
RTVSPropertyOp26
 70
     1
102
RTVSPropertyOp27
 70
     1
  0
XRECORD
  5
7A8
102
{ACAD_REACTORS
330
7A7
102
}
330
7A7
100
AcDbXrecord
280
     1
102
RTVSPropertyOp0
 70
     1
102
RTVSPropertyOp1
 70
     1
102
RTVSPropertyOp2
 70
     1
102
RTVSPropertyOp3
 70
     1
102
RTVSPropertyOp4
 70
     1
102
RTVSPropertyOp5
 70
     1
102
RTVSPropertyOp6
 70
     1
102
RTVSPropertyOp7
 70
     1
102
RTVSPropertyOp8
 70
     1
102
RTVSPropertyOp9
 70
     1
102
RTVSPropertyOp10
 70
     1
102
RTVSPropertyOp11
 70
     1
102
RTVSPropertyOp12
 70
     1
102
RTVSPropertyOp13
 70
     1
102
RTVSPropertyOp14
 70
     1
102
RTVSPropertyOp15
 70
     1
102
RTVSPropertyOp16
 70
     1
102
RTVSPropertyOp17
 70
     1
102
RTVSPropertyOp18
 70
     1
102
RTVSPropertyOp19
 70
     1
102
RTVSPropertyOp20
 70
     1
102
RTVSPropertyOp21
 70
     1
102
RTVSPropertyOp22
 70
     1
102
RTVSPropertyOp23
 70
     1
102
RTVSPropertyOp24
 70
     1
102
RTVSPropertyOp25
 70
     1
102
RTVSPropertyOp26
 70
     1
102
RTVSPropertyOp27
 70
     1
  0
XRECORD
  5
7B6
102
{ACAD_REACTORS
330
7B5
102
}
330
7B5
100
AcDbXrecord
280
     1
102
RTVSPropertyOp0
 70
     1
102
RTVSPropertyOp1
 70
     1
102
RTVSPropertyOp2
 70
     1
102
RTVSPropertyOp3
 70
     1
102
RTVSPropertyOp4
 70
     1
102
RTVSPropertyOp5
 70
     1
102
RTVSPropertyOp6
 70
     1
102
RTVSPropertyOp7
 70
     1
102
RTVSPropertyOp8
 70
     1
102
RTVSPropertyOp9
 70
     1
102
RTVSPropertyOp10
 70
     1
102
RTVSPropertyOp11
 70
     1
102
RTVSPropertyOp12
 70
     1
102
RTVSPropertyOp13
 70
     1
102
RTVSPropertyOp14
 70
     1
102
RTVSPropertyOp15
 70
     1
102
RTVSPropertyOp16
 70
     1
102
RTVSPropertyOp17
 70
     1
102
RTVSPropertyOp18
 70
     1
102
RTVSPropertyOp19
 70
     1
102
RTVSPropertyOp20
 70
     1
102
RTVSPropertyOp21
 70
     1
102
RTVSPropertyOp22
 70
     1
102
RTVSPropertyOp23
 70
     1
102
RTVSPropertyOp24
 70
     1
102
RTVSPropertyOp25
 70
     1
102
RTVSPropertyOp26
 70
     1
102
RTVSPropertyOp27
 70
     1
  0
XRECORD
  5
7BE
102
{ACAD_REACTORS
330
7BD
102
}
330
7BD
100
AcDbXrecord
280
     1
102
RTVSPropertyOp0
 70
     1
102
RTVSPropertyOp1
 70
     1
102
RTVSPropertyOp2
 70
     1
102
RTVSPropertyOp3
 70
     1
102
RTVSPropertyOp4
 70
     1
102
RTVSPropertyOp5
 70
     1
102
RTVSPropertyOp6
 70
     1
102
RTVSPropertyOp7
 70
     1
102
RTVSPropertyOp8
 70
     1
102
RTVSPropertyOp9
 70
     1
102
RTVSPropertyOp10
 70
     1
102
RTVSPropertyOp11
 70
     1
102
RTVSPropertyOp12
 70
     1
102
RTVSPropertyOp13
 70
     1
102
RTVSPropertyOp14
 70
     1
102
RTVSPropertyOp15
 70
     1
102
RTVSPropertyOp16
 70
     1
102
RTVSPropertyOp17
 70
     1
102
RTVSPropertyOp18
 70
     1
102
RTVSPropertyOp19
 70
     1
102
RTVSPropertyOp20
 70
     1
102
RTVSPropertyOp21
 70
     1
102
RTVSPropertyOp22
 70
     1
102
RTVSPropertyOp23
 70
     1
102
RTVSPropertyOp24
 70
     1
102
RTVSPropertyOp25
 70
     1
102
RTVSPropertyOp26
 70
     1
102
RTVSPropertyOp27
 70
     1
  0
XRECORD
  5
7B0
102
{ACAD_REACTORS
330
7AF
102
}
330
7AF
100
AcDbXrecord
280
     1
102
RTVSPropertyOp0
 70
     1
102
RTVSPropertyOp1
 70
     1
102
RTVSPropertyOp2
 70
     1
102
RTVSPropertyOp3
 70
     1
102
RTVSPropertyOp4
 70
     1
102
RTVSPropertyOp5
 70
     1
102
RTVSPropertyOp6
 70
     1
102
RTVSPropertyOp7
 70
     1
102
RTVSPropertyOp8
 70
     1
102
RTVSPropertyOp9
 70
     1
102
RTVSPropertyOp10
 70
     1
102
RTVSPropertyOp11
 70
     1
102
RTVSPropertyOp12
 70
     1
102
RTVSPropertyOp13
 70
     1
102
RTVSPropertyOp14
 70
     1
102
RTVSPropertyOp15
 70
     1
102
RTVSPropertyOp16
 70
     1
102
RTVSPropertyOp17
 70
     1
102
RTVSPropertyOp18
 70
     1
102
RTVSPropertyOp19
 70
     1
102
RTVSPropertyOp20
 70
     1
102
RTVSPropertyOp21
 70
     1
102
RTVSPropertyOp22
 70
     1
102
RTVSPropertyOp23
 70
     1
102
RTVSPropertyOp24
 70
     1
102
RTVSPropertyOp25
 70
     1
102
RTVSPropertyOp26
 70
     1
102
RTVSPropertyOp27
 70
     1
  0
XRECORD
  5
7B4
102
{ACAD_REACTORS
330
7B3
102
}
330
7B3
100
AcDbXrecord
280
     1
102
RTVSPropertyOp0
 70
     1
102
RTVSPropertyOp1
 70
     1
102
RTVSPropertyOp2
 70
     1
102
RTVSPropertyOp3
 70
     1
102
RTVSPropertyOp4
 70
     1
102
RTVSPropertyOp5
 70
     1
102
RTVSPropertyOp6
 70
     1
102
RTVSPropertyOp7
 70
     1
102
RTVSPropertyOp8
 70
     1
102
RTVSPropertyOp9
 70
     1
102
RTVSPropertyOp10
 70
     1
102
RTVSPropertyOp11
 70
     1
102
RTVSPropertyOp12
 70
     1
102
RTVSPropertyOp13
 70
     1
102
RTVSPropertyOp14
 70
     1
102
RTVSPropertyOp15
 70
     1
102
RTVSPropertyOp16
 70
     1
102
RTVSPropertyOp17
 70
     1
102
RTVSPropertyOp18
 70
     1
102
RTVSPropertyOp19
 70
     1
102
RTVSPropertyOp20
 70
     1
102
RTVSPropertyOp21
 70
     1
102
RTVSPropertyOp22
 70
     1
102
RTVSPropertyOp23
 70
     1
102
RTVSPropertyOp24
 70
     1
102
RTVSPropertyOp25
 70
     1
102
RTVSPropertyOp26
 70
     1
102
RTVSPropertyOp27
 70
     1
  0
XRECORD
  5
7CE
102
{ACAD_REACTORS
330
7CD
102
}
330
7CD
100
AcDbXrecord
280
     1
102
RTVSPropertyOp0
 70
     0
102
RTVSPropertyOp1
 70
     0
102
RTVSPropertyOp2
 70
     0
102
RTVSPropertyOp3
 70
     0
102
RTVSPropertyOp4
 70
     0
102
RTVSPropertyOp5
 70
     0
102
RTVSPropertyOp6
 70
     0
102
RTVSPropertyOp7
 70
     0
102
RTVSPropertyOp8
 70
     0
102
RTVSPropertyOp9
 70
     0
102
RTVSPropertyOp10
 70
     0
102
RTVSPropertyOp11
 70
     0
102
RTVSPropertyOp12
 70
     0
102
RTVSPropertyOp13
 70
     0
102
RTVSPropertyOp14
 70
     2
102
RTVSPropertyOp15
 70
     0
102
RTVSPropertyOp16
 70
     0
102
RTVSPropertyOp17
 70
     0
102
RTVSPropertyOp18
 70
     0
102
RTVSPropertyOp19
 70
     0
102
RTVSPropertyOp20
 70
     0
102
RTVSPropertyOp21
 70
     0
102
RTVSPropertyOp22
 70
     0
102
RTVSPropertyOp23
 70
     0
102
RTVSPropertyOp24
 70
     0
102
RTVSPropertyOp25
 70
     0
102
RTVSPropertyOp26
 70
     0
102
RTVSPropertyOp27
 70
     0
  0
XRECORD
  5
7BC
102
{ACAD_REACTORS
330
7BB
102
}
330
7BB
100
AcDbXrecord
280
     1
102
RTVSPropertyOp0
 70
     1
102
RTVSPropertyOp1
 70
     1
102
RTVSPropertyOp2
 70
     1
102
RTVSPropertyOp3
 70
     1
102
RTVSPropertyOp4
 70
     1
102
RTVSPropertyOp5
 70
     1
102
RTVSPropertyOp6
 70
     1
102
RTVSPropertyOp7
 70
     1
102
RTVSPropertyOp8
 70
     1
102
RTVSPropertyOp9
 70
     1
102
RTVSPropertyOp10
 70
     1
102
RTVSPropertyOp11
 70
     1
102
RTVSPropertyOp12
 70
     1
102
RTVSPropertyOp13
 70
     1
102
RTVSPropertyOp14
 70
     1
102
RTVSPropertyOp15
 70
     1
102
RTVSPropertyOp16
 70
     1
102
RTVSPropertyOp17
 70
     1
102
RTVSPropertyOp18
 70
     1
102
RTVSPropertyOp19
 70
     1
102
RTVSPropertyOp20
 70
     1
102
RTVSPropertyOp21
 70
     1
102
RTVSPropertyOp22
 70
     1
102
RTVSPropertyOp23
 70
     1
102
RTVSPropertyOp24
 70
     1
102
RTVSPropertyOp25
 70
     1
102
RTVSPropertyOp26
 70
     1
102
RTVSPropertyOp27
 70
     1
  0
XRECORD
  5
7A0
102
{ACAD_REACTORS
330
79F
102
}
330
79F
100
AcDbXrecord
280
     1
102
RTVSPropertyOp0
 70
     1
102
RTVSPropertyOp1
 70
     1
102
RTVSPropertyOp2
 70
     1
102
RTVSPropertyOp3
 70
     1
102
RTVSPropertyOp4
 70
     1
102
RTVSPropertyOp5
 70
     1
102
RTVSPropertyOp6
 70
     1
102
RTVSPropertyOp7
 70
     1
102
RTVSPropertyOp8
 70
     1
102
RTVSPropertyOp9
 70
     1
102
RTVSPropertyOp10
 70
     1
102
RTVSPropertyOp11
 70
     1
102
RTVSPropertyOp12
 70
     1
102
RTVSPropertyOp13
 70
     1
102
RTVSPropertyOp14
 70
     1
102
RTVSPropertyOp15
 70
     1
102
RTVSPropertyOp16
 70
     1
102
RTVSPropertyOp17
 70
     1
102
RTVSPropertyOp18
 70
     1
102
RTVSPropertyOp19
 70
     1
102
RTVSPropertyOp20
 70
     1
102
RTVSPropertyOp21
 70
     1
102
RTVSPropertyOp22
 70
     1
102
RTVSPropertyOp23
 70
     1
102
RTVSPropertyOp24
 70
     1
102
RTVSPropertyOp25
 70
     1
102
RTVSPropertyOp26
 70
     1
102
RTVSPropertyOp27
 70
     1
  0
XRECORD
  5
7A2
102
{ACAD_REACTORS
330
7A1
102
}
330
7A1
100
AcDbXrecord
280
     1
102
RTVSPropertyOp0
 70
     1
102
RTVSPropertyOp1
 70
     1
102
RTVSPropertyOp2
 70
     1
102
RTVSPropertyOp3
 70
     1
102
RTVSPropertyOp4
 70
     1
102
RTVSPropertyOp5
 70
     1
102
RTVSPropertyOp6
 70
     1
102
RTVSPropertyOp7
 70
     1
102
RTVSPropertyOp8
 70
     1
102
RTVSPropertyOp9
 70
     1
102
RTVSPropertyOp10
 70
     1
102
RTVSPropertyOp11
 70
     1
102
RTVSPropertyOp12
 70
     1
102
RTVSPropertyOp13
 70
     1
102
RTVSPropertyOp14
 70
     1
102
RTVSPropertyOp15
 70
     1
102
RTVSPropertyOp16
 70
     1
102
RTVSPropertyOp17
 70
     1
102
RTVSPropertyOp18
 70
     1
102
RTVSPropertyOp19
 70
     1
102
RTVSPropertyOp20
 70
     1
102
RTVSPropertyOp21
 70
     1
102
RTVSPropertyOp22
 70
     1
102
RTVSPropertyOp23
 70
     1
102
RTVSPropertyOp24
 70
     1
102
RTVSPropertyOp25
 70
     1
102
RTVSPropertyOp26
 70
     1
102
RTVSPropertyOp27
 70
     1
  0
XRECORD
  5
7A4
102
{ACAD_REACTORS
330
7A3
102
}
330
7A3
100
AcDbXrecord
280
     1
102
RTVSPropertyOp0
 70
     1
102
RTVSPropertyOp1
 70
     1
102
RTVSPropertyOp2
 70
     1
102
RTVSPropertyOp3
 70
     1
102
RTVSPropertyOp4
 70
     1
102
RTVSPropertyOp5
 70
     1
102
RTVSPropertyOp6
 70
     1
102
RTVSPropertyOp7
 70
     1
102
RTVSPropertyOp8
 70
     1
102
RTVSPropertyOp9
 70
     1
102
RTVSPropertyOp10
 70
     1
102
RTVSPropertyOp11
 70
     1
102
RTVSPropertyOp12
 70
     1
102
RTVSPropertyOp13
 70
     1
102
RTVSPropertyOp14
 70
     1
102
RTVSPropertyOp15
 70
     1
102
RTVSPropertyOp16
 70
     1
102
RTVSPropertyOp17
 70
     1
102
RTVSPropertyOp18
 70
     1
102
RTVSPropertyOp19
 70
     1
102
RTVSPropertyOp20
 70
     1
102
RTVSPropertyOp21
 70
     1
102
RTVSPropertyOp22
 70
     1
102
RTVSPropertyOp23
 70
     1
102
RTVSPropertyOp24
 70
     1
102
RTVSPropertyOp25
 70
     1
102
RTVSPropertyOp26
 70
     1
102
RTVSPropertyOp27
 70
     1
  0
XRECORD
  5
7A6
102
{ACAD_REACTORS
330
7A5
102
}
330
7A5
100
AcDbXrecord
280
     1
102
RTVSPropertyOp0
 70
     1
102
RTVSPropertyOp1
 70
     1
102
RTVSPropertyOp2
 70
     1
102
RTVSPropertyOp3
 70
     1
102
RTVSPropertyOp4
 70
     1
102
RTVSPropertyOp5
 70
     1
102
RTVSPropertyOp6
 70
     1
102
RTVSPropertyOp7
 70
     1
102
RTVSPropertyOp8
 70
     1
102
RTVSPropertyOp9
 70
     1
102
RTVSPropertyOp10
 70
     1
102
RTVSPropertyOp11
 70
     1
102
RTVSPropertyOp12
 70
     1
102
RTVSPropertyOp13
 70
     1
102
RTVSPropertyOp14
 70
     1
102
RTVSPropertyOp15
 70
     1
102
RTVSPropertyOp16
 70
     1
102
RTVSPropertyOp17
 70
     1
102
RTVSPropertyOp18
 70
     1
102
RTVSPropertyOp19
 70
     1
102
RTVSPropertyOp20
 70
     1
102
RTVSPropertyOp21
 70
     1
102
RTVSPropertyOp22
 70
     1
102
RTVSPropertyOp23
 70
     1
102
RTVSPropertyOp24
 70
     1
102
RTVSPropertyOp25
 70
     1
102
RTVSPropertyOp26
 70
     1
102
RTVSPropertyOp27
 70
     1
  0
XRECORD
  5
7AE
102
{ACAD_REACTORS
330
7AD
102
}
330
7AD
100
AcDbXrecord
280
     1
102
RTVSPropertyOp0
 70
     1
102
RTVSPropertyOp1
 70
     1
102
RTVSPropertyOp2
 70
     1
102
RTVSPropertyOp3
 70
     1
102
RTVSPropertyOp4
 70
     1
102
RTVSPropertyOp5
 70
     1
102
RTVSPropertyOp6
 70
     1
102
RTVSPropertyOp7
 70
     1
102
RTVSPropertyOp8
 70
     1
102
RTVSPropertyOp9
 70
     1
102
RTVSPropertyOp10
 70
     1
102
RTVSPropertyOp11
 70
     1
102
RTVSPropertyOp12
 70
     1
102
RTVSPropertyOp13
 70
     1
102
RTVSPropertyOp14
 70
     1
102
RTVSPropertyOp15
 70
     1
102
RTVSPropertyOp16
 70
     1
102
RTVSPropertyOp17
 70
     1
102
RTVSPropertyOp18
 70
     1
102
RTVSPropertyOp19
 70
     1
102
RTVSPropertyOp20
 70
     1
102
RTVSPropertyOp21
 70
     1
102
RTVSPropertyOp22
 70
     1
102
RTVSPropertyOp23
 70
     1
102
RTVSPropertyOp24
 70
     1
102
RTVSPropertyOp25
 70
     1
102
RTVSPropertyOp26
 70
     1
102
RTVSPropertyOp27
 70
     1
  0
XRECORD
  5
7CA
102
{ACAD_REACTORS
330
7C9
102
}
330
7C9
100
AcDbXrecord
280
     1
102
RTVSPropertyOp0
 70
     0
102
RTVSPropertyOp1
 70
     0
102
RTVSPropertyOp2
 70
     0
102
RTVSPropertyOp3
 70
     0
102
RTVSPropertyOp4
 70
     0
102
RTVSPropertyOp5
 70
     0
102
RTVSPropertyOp6
 70
     0
102
RTVSPropertyOp7
 70
     0
102
RTVSPropertyOp8
 70
     0
102
RTVSPropertyOp9
 70
     0
102
RTVSPropertyOp10
 70
     0
102
RTVSPropertyOp11
 70
     0
102
RTVSPropertyOp12
 70
     0
102
RTVSPropertyOp13
 70
     0
102
RTVSPropertyOp14
 70
     2
102
RTVSPropertyOp15
 70
     0
102
RTVSPropertyOp16
 70
     0
102
RTVSPropertyOp17
 70
     0
102
RTVSPropertyOp18
 70
     0
102
RTVSPropertyOp19
 70
     0
102
RTVSPropertyOp20
 70
     0
102
RTVSPropertyOp21
 70
     0
102
RTVSPropertyOp22
 70
     0
102
RTVSPropertyOp23
 70
     0
102
RTVSPropertyOp24
 70
     0
102
RTVSPropertyOp25
 70
     0
102
RTVSPropertyOp26
 70
     0
102
RTVSPropertyOp27
 70
     0
  0
XRECORD
  5
7BA
102
{ACAD_REACTORS
330
7B9
102
}
330
7B9
100
AcDbXrecord
280
     1
102
RTVSPropertyOp0
 70
     1
102
RTVSPropertyOp1
 70
     1
102
RTVSPropertyOp2
 70
     1
102
RTVSPropertyOp3
 70
     1
102
RTVSPropertyOp4
 70
     1
102
RTVSPropertyOp5
 70
     1
102
RTVSPropertyOp6
 70
     1
102
RTVSPropertyOp7
 70
     1
102
RTVSPropertyOp8
 70
     1
102
RTVSPropertyOp9
 70
     1
102
RTVSPropertyOp10
 70
     1
102
RTVSPropertyOp11
 70
     1
102
RTVSPropertyOp12
 70
     1
102
RTVSPropertyOp13
 70
     1
102
RTVSPropertyOp14
 70
     1
102
RTVSPropertyOp15
 70
     1
102
RTVSPropertyOp16
 70
     1
102
RTVSPropertyOp17
 70
     1
102
RTVSPropertyOp18
 70
     1
102
RTVSPropertyOp19
 70
     1
102
RTVSPropertyOp20
 70
     1
102
RTVSPropertyOp21
 70
     1
102
RTVSPropertyOp22
 70
     1
102
RTVSPropertyOp23
 70
     1
102
RTVSPropertyOp24
 70
     1
102
RTVSPropertyOp25
 70
     1
102
RTVSPropertyOp26
 70
     1
102
RTVSPropertyOp27
 70
     1
  0
XRECORD
  5
7CC
102
{ACAD_REACTORS
330
7CB
102
}
330
7CB
100
AcDbXrecord
280
     1
102
RTVSPropertyOp0
 70
     0
102
RTVSPropertyOp1
 70
     0
102
RTVSPropertyOp2
 70
     0
102
RTVSPropertyOp3
 70
     0
102
RTVSPropertyOp4
 70
     0
102
RTVSPropertyOp5
 70
     0
102
RTVSPropertyOp6
 70
     0
102
RTVSPropertyOp7
 70
     0
102
RTVSPropertyOp8
 70
     0
102
RTVSPropertyOp9
 70
     0
102
RTVSPropertyOp10
 70
     0
102
RTVSPropertyOp11
 70
     0
102
RTVSPropertyOp12
 70
     0
102
RTVSPropertyOp13
 70
     0
102
RTVSPropertyOp14
 70
     2
102
RTVSPropertyOp15
 70
     0
102
RTVSPropertyOp16
 70
     0
102
RTVSPropertyOp17
 70
     0
102
RTVSPropertyOp18
 70
     0
102
RTVSPropertyOp19
 70
     0
102
RTVSPropertyOp20
 70
     0
102
RTVSPropertyOp21
 70
     0
102
RTVSPropertyOp22
 70
     0
102
RTVSPropertyOp23
 70
     0
102
RTVSPropertyOp24
 70
     0
102
RTVSPropertyOp25
 70
     0
102
RTVSPropertyOp26
 70
     0
102
RTVSPropertyOp27
 70
     0
  0
XRECORD
  5
7B2
102
{ACAD_REACTORS
330
7B1
102
}
330
7B1
100
AcDbXrecord
280
     1
102
RTVSPropertyOp0
 70
     1
102
RTVSPropertyOp1
 70
     1
102
RTVSPropertyOp2
 70
     1
102
RTVSPropertyOp3
 70
     1
102
RTVSPropertyOp4
 70
     1
102
RTVSPropertyOp5
 70
     1
102
RTVSPropertyOp6
 70
     1
102
RTVSPropertyOp7
 70
     1
102
RTVSPropertyOp8
 70
     1
102
RTVSPropertyOp9
 70
     1
102
RTVSPropertyOp10
 70
     1
102
RTVSPropertyOp11
 70
     1
102
RTVSPropertyOp12
 70
     1
102
RTVSPropertyOp13
 70
     1
102
RTVSPropertyOp14
 70
     1
102
RTVSPropertyOp15
 70
     1
102
RTVSPropertyOp16
 70
     1
102
RTVSPropertyOp17
 70
     1
102
RTVSPropertyOp18
 70
     1
102
RTVSPropertyOp19
 70
     1
102
RTVSPropertyOp20
 70
     1
102
RTVSPropertyOp21
 70
     1
102
RTVSPropertyOp22
 70
     1
102
RTVSPropertyOp23
 70
     1
102
RTVSPropertyOp24
 70
     1
102
RTVSPropertyOp25
 70
     1
102
RTVSPropertyOp26
 70
     1
102
RTVSPropertyOp27
 70
     1
  0
XRECORD
  5
7C8
102
{ACAD_REACTORS
330
7C7
102
}
330
7C7
100
AcDbXrecord
280
     1
102
RTVSPropertyOp0
 70
     1
102
RTVSPropertyOp1
 70
     1
102
RTVSPropertyOp2
 70
     1
102
RTVSPropertyOp3
 70
     1
102
RTVSPropertyOp4
 70
     1
102
RTVSPropertyOp5
 70
     1
102
RTVSPropertyOp6
 70
     1
102
RTVSPropertyOp7
 70
     1
102
RTVSPropertyOp8
 70
     1
102
RTVSPropertyOp9
 70
     1
102
RTVSPropertyOp10
 70
     1
102
RTVSPropertyOp11
 70
     1
102
RTVSPropertyOp12
 70
     1
102
RTVSPropertyOp13
 70
     1
102
RTVSPropertyOp14
 70
     1
102
RTVSPropertyOp15
 70
     1
102
RTVSPropertyOp16
 70
     1
102
RTVSPropertyOp17
 70
     1
102
RTVSPropertyOp18
 70
     1
102
RTVSPropertyOp19
 70
     1
102
RTVSPropertyOp20
 70
     1
102
RTVSPropertyOp21
 70
     1
102
RTVSPropertyOp22
 70
     1
102
RTVSPropertyOp23
 70
     1
102
RTVSPropertyOp24
 70
     1
102
RTVSPropertyOp25
 70
     1
102
RTVSPropertyOp26
 70
     1
102
RTVSPropertyOp27
 70
     1
  0
XRECORD
  5
7C6
102
{ACAD_REACTORS
330
7C5
102
}
330
7C5
100
AcDbXrecord
280
     1
102
RTVSPropertyOp0
 70
     1
102
RTVSPropertyOp1
 70
     1
102
RTVSPropertyOp2
 70
     1
102
RTVSPropertyOp3
 70
     1
102
RTVSPropertyOp4
 70
     1
102
RTVSPropertyOp5
 70
     1
102
RTVSPropertyOp6
 70
     1
102
RTVSPropertyOp7
 70
     1
102
RTVSPropertyOp8
 70
     1
102
RTVSPropertyOp9
 70
     1
102
RTVSPropertyOp10
 70
     1
102
RTVSPropertyOp11
 70
     1
102
RTVSPropertyOp12
 70
     1
102
RTVSPropertyOp13
 70
     1
102
RTVSPropertyOp14
 70
     1
102
RTVSPropertyOp15
 70
     1
102
RTVSPropertyOp16
 70
     1
102
RTVSPropertyOp17
 70
     1
102
RTVSPropertyOp18
 70
     1
102
RTVSPropertyOp19
 70
     1
102
RTVSPropertyOp20
 70
     1
102
RTVSPropertyOp21
 70
     1
102
RTVSPropertyOp22
 70
     1
102
RTVSPropertyOp23
 70
     1
102
RTVSPropertyOp24
 70
     1
102
RTVSPropertyOp25
 70
     1
102
RTVSPropertyOp26
 70
     1
102
RTVSPropertyOp27
 70
     1
  0
XRECORD
  5
7C0
102
{ACAD_REACTORS
330
7BF
102
}
330
7BF
100
AcDbXrecord
280
     1
102
RTVSPropertyOp0
 70
     1
102
RTVSPropertyOp1
 70
     1
102
RTVSPropertyOp2
 70
     1
102
RTVSPropertyOp3
 70
     1
102
RTVSPropertyOp4
 70
     1
102
RTVSPropertyOp5
 70
     1
102
RTVSPropertyOp6
 70
     1
102
RTVSPropertyOp7
 70
     1
102
RTVSPropertyOp8
 70
     1
102
RTVSPropertyOp9
 70
     1
102
RTVSPropertyOp10
 70
     1
102
RTVSPropertyOp11
 70
     1
102
RTVSPropertyOp12
 70
     1
102
RTVSPropertyOp13
 70
     1
102
RTVSPropertyOp14
 70
     1
102
RTVSPropertyOp15
 70
     1
102
RTVSPropertyOp16
 70
     1
102
RTVSPropertyOp17
 70
     1
102
RTVSPropertyOp18
 70
     1
102
RTVSPropertyOp19
 70
     1
102
RTVSPropertyOp20
 70
     1
102
RTVSPropertyOp21
 70
     1
102
RTVSPropertyOp22
 70
     1
102
RTVSPropertyOp23
 70
     1
102
RTVSPropertyOp24
 70
     1
102
RTVSPropertyOp25
 70
     1
102
RTVSPropertyOp26
 70
     1
102
RTVSPropertyOp27
 70
     1
  0
XRECORD
  5
7C2
102
{ACAD_REACTORS
330
7C1
102
}
330
7C1
100
AcDbXrecord
280
     1
102
RTVSPropertyOp0
 70
     1
102
RTVSPropertyOp1
 70
     1
102
RTVSPropertyOp2
 70
     1
102
RTVSPropertyOp3
 70
     1
102
RTVSPropertyOp4
 70
     1
102
RTVSPropertyOp5
 70
     1
102
RTVSPropertyOp6
 70
     1
102
RTVSPropertyOp7
 70
     1
102
RTVSPropertyOp8
 70
     1
102
RTVSPropertyOp9
 70
     1
102
RTVSPropertyOp10
 70
     1
102
RTVSPropertyOp11
 70
     1
102
RTVSPropertyOp12
 70
     1
102
RTVSPropertyOp13
 70
     1
102
RTVSPropertyOp14
 70
     1
102
RTVSPropertyOp15
 70
     1
102
RTVSPropertyOp16
 70
     1
102
RTVSPropertyOp17
 70
     1
102
RTVSPropertyOp18
 70
     1
102
RTVSPropertyOp19
 70
     1
102
RTVSPropertyOp20
 70
     1
102
RTVSPropertyOp21
 70
     1
102
RTVSPropertyOp22
 70
     1
102
RTVSPropertyOp23
 70
     1
102
RTVSPropertyOp24
 70
     1
102
RTVSPropertyOp25
 70
     1
102
RTVSPropertyOp26
 70
     1
102
RTVSPropertyOp27
 70
     1
  0
XRECORD
  5
7B8
102
{ACAD_REACTORS
330
7B7
102
}
330
7B7
100
AcDbXrecord
280
     1
102
RTVSPropertyOp0
 70
     1
102
RTVSPropertyOp1
 70
     1
102
RTVSPropertyOp2
 70
     1
102
RTVSPropertyOp3
 70
     1
102
RTVSPropertyOp4
 70
     1
102
RTVSPropertyOp5
 70
     1
102
RTVSPropertyOp6
 70
     1
102
RTVSPropertyOp7
 70
     1
102
RTVSPropertyOp8
 70
     1
102
RTVSPropertyOp9
 70
     1
102
RTVSPropertyOp10
 70
     1
102
RTVSPropertyOp11
 70
     1
102
RTVSPropertyOp12
 70
     1
102
RTVSPropertyOp13
 70
     1
102
RTVSPropertyOp14
 70
     1
102
RTVSPropertyOp15
 70
     1
102
RTVSPropertyOp16
 70
     1
102
RTVSPropertyOp17
 70
     1
102
RTVSPropertyOp18
 70
     1
102
RTVSPropertyOp19
 70
     1
102
RTVSPropertyOp20
 70
     1
102
RTVSPropertyOp21
 70
     1
102
RTVSPropertyOp22
 70
     1
102
RTVSPropertyOp23
 70
     1
102
RTVSPropertyOp24
 70
     1
102
RTVSPropertyOp25
 70
     1
102
RTVSPropertyOp26
 70
     1
102
RTVSPropertyOp27
 70
     1
  0
XRECORD
  5
7AC
102
{ACAD_REACTORS
330
7AB
102
}
330
7AB
100
AcDbXrecord
280
     1
102
RTVSPropertyOp0
 70
     1
102
RTVSPropertyOp1
 70
     1
102
RTVSPropertyOp2
 70
     1
102
RTVSPropertyOp3
 70
     1
102
RTVSPropertyOp4
 70
     1
102
RTVSPropertyOp5
 70
     1
102
RTVSPropertyOp6
 70
     1
102
RTVSPropertyOp7
 70
     1
102
RTVSPropertyOp8
 70
     1
102
RTVSPropertyOp9
 70
     1
102
RTVSPropertyOp10
 70
     1
102
RTVSPropertyOp11
 70
     1
102
RTVSPropertyOp12
 70
     1
102
RTVSPropertyOp13
 70
     1
102
RTVSPropertyOp14
 70
     1
102
RTVSPropertyOp15
 70
     1
102
RTVSPropertyOp16
 70
     1
102
RTVSPropertyOp17
 70
     1
102
RTVSPropertyOp18
 70
     1
102
RTVSPropertyOp19
 70
     1
102
RTVSPropertyOp20
 70
     1
102
RTVSPropertyOp21
 70
     1
102
RTVSPropertyOp22
 70
     1
102
RTVSPropertyOp23
 70
     1
102
RTVSPropertyOp24
 70
     1
102
RTVSPropertyOp25
 70
     1
102
RTVSPropertyOp26
 70
     1
102
RTVSPropertyOp27
 70
     1
  0
XRECORD
  5
7C4
102
{ACAD_REACTORS
330
7C3
102
}
330
7C3
100
AcDbXrecord
280
     1
102
RTVSPropertyOp0
 70
     1
102
RTVSPropertyOp1
 70
     1
102
RTVSPropertyOp2
 70
     1
102
RTVSPropertyOp3
 70
     1
102
RTVSPropertyOp4
 70
     1
102
RTVSPropertyOp5
 70
     1
102
RTVSPropertyOp6
 70
     1
102
RTVSPropertyOp7
 70
     1
102
RTVSPropertyOp8
 70
     1
102
RTVSPropertyOp9
 70
     1
102
RTVSPropertyOp10
 70
     1
102
RTVSPropertyOp11
 70
     1
102
RTVSPropertyOp12
 70
     1
102
RTVSPropertyOp13
 70
     1
102
RTVSPropertyOp14
 70
     1
102
RTVSPropertyOp15
 70
     1
102
RTVSPropertyOp16
 70
     1
102
RTVSPropertyOp17
 70
     1
102
RTVSPropertyOp18
 70
     1
102
RTVSPropertyOp19
 70
     1
102
RTVSPropertyOp20
 70
     1
102
RTVSPropertyOp21
 70
     1
102
RTVSPropertyOp22
 70
     1
102
RTVSPropertyOp23
 70
     1
102
RTVSPropertyOp24
 70
     1
102
RTVSPropertyOp25
 70
     1
102
RTVSPropertyOp26
 70
     1
102
RTVSPropertyOp27
 70
     1
  0
ENDSEC
  0
EOF
