  0
SECTION
  2
HEADER
  9
$ACADVER
  1
AC1018
  9
$ACADMAINTVER
 70
   104
  9
$DWGCODEPAGE
  3
ANSI_1250
  9
$AUTHOR
  1
tmrtka
  9
$LASTSAVEDBY
  1
onovak
  9
$REVISIONNUMBER
  1
000
  9
$CUSTOMPROPERTYTAG
  1
Vedoucí
  9
$CUSTOMPROPERTY
  1

  9
$CUSTOMPROPERTYTAG
  1
Společnost
  9
$CUSTOMPROPERTY
  1

  9
$CUSTOMPROPERTYTAG
  1
Kategorie
  9
$CUSTOMPROPERTY
  1

  9
$CUSTOMPROPERTYTAG
  1
Číslo součásti
  9
$CUSTOMPROPERTY
  1
408084
  9
$CUSTOMPROPERTYTAG
  1
Popis
  9
$CUSTOMPROPERTY
  1

  9
$CUSTOMPROPERTYTAG
  1
Projekt
  9
$CUSTOMPROPERTY
  1

  9
$CUSTOMPROPERTYTAG
  1
Kreslil
  9
$CUSTOMPROPERTY
  1
tmrtka
  9
$CUSTOMPROPERTYTAG
  1
Schválil
  9
$CUSTOMPROPERTY
  1

  9
$CUSTOMPROPERTYTAG
  1
Zodpovídá
  9
$CUSTOMPROPERTY
  1

  9
$CUSTOMPROPERTYTAG
  1
Nákladové středisko
  9
$CUSTOMPROPERTY
  1

  9
$CUSTOMPROPERTYTAG
  1
Dodavatel
  9
$CUSTOMPROPERTY
  1

  9
$CUSTOMPROPERTYTAG
  1
Uživatelský stav
  9
$CUSTOMPROPERTY
  1

  9
$CUSTOMPROPERTYTAG
  1
Stav návrhu
  9
$CUSTOMPROPERTY
  1
Rozpracováno
  9
$CUSTOMPROPERTYTAG
  1
Zkontroloval
  9
$CUSTOMPROPERTY
  1

  9
$CUSTOMPROPERTYTAG
  1
Techn. kontr. schválil
  9
$CUSTOMPROPERTY
  1

  9
$CUSTOMPROPERTYTAG
  1
Výrobu schválil
  9
$CUSTOMPROPERTY
  1

  9
$CUSTOMPROPERTYTAG
  1
VS_First
  9
$CUSTOMPROPERTY
  1

  9
$CUSTOMPROPERTYTAG
  1
VS_All
  9
$CUSTOMPROPERTY
  1
1:1,
  9
$CUSTOMPROPERTYTAG
  1
Model_Mass_Value
  9
$CUSTOMPROPERTY
  1
,0
  9
$CUSTOMPROPERTYTAG
  1
Model_Mass_Units
  9
$CUSTOMPROPERTY
  1
kg
  9
$CUSTOMPROPERTYTAG
  1
Model_Area_Value
  9
$CUSTOMPROPERTY
  1
2694,0
  9
$CUSTOMPROPERTYTAG
  1
Model_Area_Units
  9
$CUSTOMPROPERTY
  1
mm˛
  9
$CUSTOMPROPERTYTAG
  1
Model_Volume_Value
  9
$CUSTOMPROPERTY
  1
5471,0
  9
$CUSTOMPROPERTYTAG
  1
Model_Volume_Units
  9
$CUSTOMPROPERTY
  1
mmł
  9
$CUSTOMPROPERTYTAG
  1
Model_CogX_Value
  9
$CUSTOMPROPERTY
  1
,0
  9
$CUSTOMPROPERTYTAG
  1
Model_CogY_Value
  9
$CUSTOMPROPERTY
  1
,0
  9
$CUSTOMPROPERTYTAG
  1
Model_CogZ_Value
  9
$CUSTOMPROPERTY
  1
,0
  9
$CUSTOMPROPERTYTAG
  1
Model_Cog_Units
  9
$CUSTOMPROPERTY
  1
mm
  9
$CUSTOMPROPERTYTAG
  1
Model_Ixx_Value
  9
$CUSTOMPROPERTY
  1
,0
  9
$CUSTOMPROPERTYTAG
  1
Model_Iyy_Value
  9
$CUSTOMPROPERTY
  1
,0
  9
$CUSTOMPROPERTYTAG
  1
Model_Izz_Value
  9
$CUSTOMPROPERTY
  1
,0
  9
$CUSTOMPROPERTYTAG
  1
Model_Ixy_Value
  9
$CUSTOMPROPERTY
  1
,0
  9
$CUSTOMPROPERTYTAG
  1
Model_Iyz_Value
  9
$CUSTOMPROPERTY
  1
,0
  9
$CUSTOMPROPERTYTAG
  1
Model_Ixz_Value
  9
$CUSTOMPROPERTY
  1
,0
  9
$CUSTOMPROPERTYTAG
  1
Model_MassMom_Units
  9
$CUSTOMPROPERTY
  1
kg mm˛
  9
$CUSTOMPROPERTYTAG
  1
FirstViewScale
  9
$CUSTOMPROPERTY
  1

  9
$CUSTOMPROPERTYTAG
  1
AllViewScales
  9
$CUSTOMPROPERTY
  1

  9
$CUSTOMPROPERTYTAG
  1
SaveDate
  9
$CUSTOMPROPERTY
  1
09/12/2007
  9
$CUSTOMPROPERTYTAG
  1
SaveTime
  9
$CUSTOMPROPERTY
  1
10:32
  9
$CUSTOMPROPERTYTAG
  1
PaperSize
  9
$CUSTOMPROPERTY
  1
A3
  9
$CUSTOMPROPERTYTAG
  1
DateSaved
  9
$CUSTOMPROPERTY
  1
12.09.2007
  9
$CUSTOMPROPERTYTAG
  1
TimeSaved
  9
$CUSTOMPROPERTY
  1
10:32 dop.
  9
$INSBASE
 10
0.0
 20
0.0
 30
0.0
  9
$EXTMIN
 10
40.89550993462967
 20
69.3869034030788
 30
-0.0000000349181948
  9
$EXTMAX
 10
454.4730850624305
 20
567.6786818142032
 30
0.0000000814935747
  9
$LIMMIN
 10
0.0
 20
0.0
  9
$LIMMAX
 10
891.0
 20
630.0
  9
$ORTHOMODE
 70
     1
  9
$REGENMODE
 70
     1
  9
$FILLMODE
 70
     1
  9
$QTEXTMODE
 70
     0
  9
$MIRRTEXT
 70
     0
  9
$LTSCALE
 40
1.5
  9
$ATTMODE
 70
     1
  9
$TEXTSIZE
 40
0.2
  9
$TRACEWID
 40
0.05
  9
$TEXTSTYLE
  7
Standard
  9
$CLAYER
  8
0
  9
$CELTYPE
  6
ByLayer
  9
$CECOLOR
 62
   256
  9
$CELTSCALE
 40
1.0
  9
$DISPSILH
 70
     0
  9
$DIMSCALE
 40
1.0
  9
$DIMASZ
 40
1.799999999999999
  9
$DIMEXO
 40
0.0625
  9
$DIMDLI
 40
0.38
  9
$DIMRND
 40
0.0
  9
$DIMDLE
 40
0.0
  9
$DIMEXE
 40
0.18
  9
$DIMTP
 40
0.0
  9
$DIMTM
 40
0.0
  9
$DIMTXT
 40
0.3499999940395355
  9
$DIMCEN
 40
0.09
  9
$DIMTSZ
 40
0.0
  9
$DIMTOL
 70
     0
  9
$DIMLIM
 70
     0
  9
$DIMTIH
 70
     1
  9
$DIMTOH
 70
     1
  9
$DIMSE1
 70
     0
  9
$DIMSE2
 70
     0
  9
$DIMTAD
 70
     0
  9
$DIMZIN
 70
     0
  9
$DIMBLK
  1

  9
$DIMASO
 70
     1
  9
$DIMSHO
 70
     1
  9
$DIMPOST
  1

  9
$DIMAPOST
  1

  9
$DIMALT
 70
     0
  9
$DIMALTD
 70
     2
  9
$DIMALTF
 40
25.4
  9
$DIMLFAC
 40
1.0
  9
$DIMTOFL
 70
     0
  9
$DIMTVP
 40
0.0
  9
$DIMTIX
 70
     0
  9
$DIMSOXD
 70
     0
  9
$DIMSAH
 70
     0
  9
$DIMBLK1
  1

  9
$DIMBLK2
  1

  9
$DIMSTYLE
  2
Standard
  9
$DIMCLRD
 70
     0
  9
$DIMCLRE
 70
     0
  9
$DIMCLRT
 70
     0
  9
$DIMTFAC
 40
1.0
  9
$DIMGAP
 40
0.09
  9
$DIMJUST
 70
     0
  9
$DIMSD1
 70
     0
  9
$DIMSD2
 70
     0
  9
$DIMTOLJ
 70
     1
  9
$DIMTZIN
 70
     0
  9
$DIMALTZ
 70
     0
  9
$DIMALTTZ
 70
     0
  9
$DIMUPT
 70
     0
  9
$DIMDEC
 70
     4
  9
$DIMTDEC
 70
     4
  9
$DIMALTU
 70
     2
  9
$DIMALTTD
 70
     2
  9
$DIMTXSTY
  7
Standard
  9
$DIMAUNIT
 70
     0
  9
$DIMADEC
 70
     0
  9
$DIMALTRND
 40
0.0
  9
$DIMAZIN
 70
     0
  9
$DIMDSEP
 70
    46
  9
$DIMATFIT
 70
     3
  9
$DIMFRAC
 70
     0
  9
$DIMLDRBLK
  1

  9
$DIMLUNIT
 70
     2
  9
$DIMLWD
 70
    -2
  9
$DIMLWE
 70
    -2
  9
$DIMTMOVE
 70
     0
  9
$LUNITS
 70
     2
  9
$LUPREC
 70
     2
  9
$SKETCHINC
 40
0.1
  9
$FILLETRAD
 40
0.0
  9
$AUNITS
 70
     0
  9
$AUPREC
 70
     0
  9
$MENU
  1
.
  9
$ELEVATION
 40
0.0
  9
$PELEVATION
 40
0.0
  9
$THICKNESS
 40
0.0
  9
$LIMCHECK
 70
     0
  9
$CHAMFERA
 40
0.0
  9
$CHAMFERB
 40
0.0
  9
$CHAMFERC
 40
0.0
  9
$CHAMFERD
 40
0.0
  9
$SKPOLY
 70
     0
  9
$TDCREATE
 40
2456105.609285695
  9
$TDUCREATE
 40
2456105.525952361
  9
$TDUPDATE
 40
2456113.405841644
  9
$TDUUPDATE
 40
2456113.322508310
  9
$TDINDWG
 40
0.0205517130
  9
$TDUSRTIMER
 40
0.0205515394
  9
$USRTIMER
 70
     1
  9
$ANGBASE
 50
0.0
  9
$ANGDIR
 70
     0
  9
$PDMODE
 70
     0
  9
$PDSIZE
 40
0.0
  9
$PLINEWID
 40
0.0
  9
$SPLFRAME
 70
     0
  9
$SPLINETYPE
 70
     6
  9
$SPLINESEGS
 70
     8
  9
$HANDSEED
  5
290A
  9
$SURFTAB1
 70
     6
  9
$SURFTAB2
 70
     6
  9
$SURFTYPE
 70
     6
  9
$SURFU
 70
     6
  9
$SURFV
 70
     6
  9
$UCSBASE
  2

  9
$UCSNAME
  2

  9
$UCSORG
 10
0.0
 20
0.0
 30
0.0
  9
$UCSXDIR
 10
1.0
 20
0.0
 30
0.0
  9
$UCSYDIR
 10
0.0
 20
1.0
 30
0.0
  9
$UCSORTHOREF
  2

  9
$UCSORTHOVIEW
 70
     0
  9
$UCSORGTOP
 10
0.0
 20
0.0
 30
0.0
  9
$UCSORGBOTTOM
 10
0.0
 20
0.0
 30
0.0
  9
$UCSORGLEFT
 10
0.0
 20
0.0
 30
0.0
  9
$UCSORGRIGHT
 10
0.0
 20
0.0
 30
0.0
  9
$UCSORGFRONT
 10
0.0
 20
0.0
 30
0.0
  9
$UCSORGBACK
 10
0.0
 20
0.0
 30
0.0
  9
$PUCSBASE
  2

  9
$PUCSNAME
  2

  9
$PUCSORG
 10
0.0
 20
0.0
 30
0.0
  9
$PUCSXDIR
 10
1.0
 20
0.0
 30
0.0
  9
$PUCSYDIR
 10
0.0
 20
1.0
 30
0.0
  9
$PUCSORTHOREF
  2

  9
$PUCSORTHOVIEW
 70
     0
  9
$PUCSORGTOP
 10
0.0
 20
0.0
 30
0.0
  9
$PUCSORGBOTTOM
 10
0.0
 20
0.0
 30
0.0
  9
$PUCSORGLEFT
 10
0.0
 20
0.0
 30
0.0
  9
$PUCSORGRIGHT
 10
0.0
 20
0.0
 30
0.0
  9
$PUCSORGFRONT
 10
0.0
 20
0.0
 30
0.0
  9
$PUCSORGBACK
 10
0.0
 20
0.0
 30
0.0
  9
$USERI1
 70
     0
  9
$USERI2
 70
     0
  9
$USERI3
 70
     0
  9
$USERI4
 70
     0
  9
$USERI5
 70
     0
  9
$USERR1
 40
0.0
  9
$USERR2
 40
0.0
  9
$USERR3
 40
0.0
  9
$USERR4
 40
0.0
  9
$USERR5
 40
0.0
  9
$WORLDVIEW
 70
     1
  9
$SHADEDGE
 70
     3
  9
$SHADEDIF
 70
    70
  9
$TILEMODE
 70
     1
  9
$MAXACTVP
 70
    64
  9
$PINSBASE
 10
0.0
 20
0.0
 30
0.0
  9
$PLIMCHECK
 70
     0
  9
$PEXTMIN
 10
0.0
 20
0.0
 30
0.0
  9
$PEXTMAX
 10
891.0
 20
630.0
 30
0.0
  9
$PLIMMIN
 10
0.0
 20
0.0
  9
$PLIMMAX
 10
891.0
 20
630.0
  9
$UNITMODE
 70
     0
  9
$VISRETAIN
 70
     1
  9
$PLINEGEN
 70
     0
  9
$PSLTSCALE
 70
     1
  9
$TREEDEPTH
 70
  3020
  9
$CMLSTYLE
  2
Standard
  9
$CMLJUST
 70
     0
  9
$CMLSCALE
 40
1.0
  9
$PROXYGRAPHICS
 70
     1
  9
$MEASUREMENT
 70
     1
  9
$CELWEIGHT
370
    -1
  9
$ENDCAPS
280
     0
  9
$JOINSTYLE
280
     0
  9
$LWDISPLAY
290
     0
  9
$INSUNITS
 70
     4
  9
$HYPERLINKBASE
  1

  9
$STYLESHEET
  1

  9
$XEDIT
290
     1
  9
$CEPSNTYPE
380
     0
  9
$PSTYLEMODE
290
     1
  9
$FINGERPRINTGUID
  2
{F1B4D850-1FC6-4849-BBF1-9DE13BC819E7}
  9
$VERSIONGUID
  2
{7BCC1652-E6FA-4D5D-8106-1424C04C8901}
  9
$EXTNAMES
290
     1
  9
$PSVPSCALE
 40
0.0
  9
$OLESTARTUP
290
     0
  9
$SORTENTS
280
   127
  9
$INDEXCTL
280
     0
  9
$HIDETEXT
280
     1
  9
$XCLIPFRAME
290
     0
  9
$HALOGAP
280
     0
  9
$OBSCOLOR
 70
   257
  9
$OBSLTYPE
280
     0
  9
$INTERSECTIONDISPLAY
280
     0
  9
$INTERSECTIONCOLOR
 70
   257
  9
$DIMASSOC
280
     1
  9
$PROJECTNAME
  1

  0
ENDSEC
  0
SECTION
  2
CLASSES
  0
CLASS
  1
ACDBDICTIONARYWDFLT
  2
AcDbDictionaryWithDefault
  3
ObjectDBX Classes
 90
        0
 91
        1
280
     0
281
     0
  0
CLASS
  1
MATERIAL
  2
AcDbMaterial
  3
ObjectDBX Classes
 90
     1153
 91
        3
280
     0
281
     0
  0
CLASS
  1
VISUALSTYLE
  2
AcDbVisualStyle
  3
ObjectDBX Classes
 90
     4095
 91
       26
280
     0
281
     0
  0
CLASS
  1
SCALE
  2
AcDbScale
  3
ObjectDBX Classes
 90
     1153
 91
       17
280
     0
281
     0
  0
CLASS
  1
TABLESTYLE
  2
AcDbTableStyle
  3
ObjectDBX Classes
 90
     4095
 91
        1
280
     0
281
     0
  0
CLASS
  1
MLEADERSTYLE
  2
AcDbMLeaderStyle
  3
ACDB_MLEADERSTYLE_CLASS
 90
     4095
 91
        1
280
     0
281
     0
  0
CLASS
  1
DICTIONARYVAR
  2
AcDbDictionaryVar
  3
ObjectDBX Classes
 90
        0
 91
       10
280
     0
281
     0
  0
CLASS
  1
ACME_DOCUMENT
  2
AcMeDbDoc
  3
AcMeServices
 90
     1024
 91
        1
280
     0
281
     0
  0
CLASS
  1
AMGSETTINGSOBJ
  2
AmgSettingsObj
  3
"AcadM|Product Description: AutoCAD Mechanical|Company: Autodesk, Inc."
 90
     1024
 91
        2
280
     0
281
     0
  0
CLASS
  1
ACMESCOPE
  2
AcMeScope
  3
AcMeServices
 90
     1024
 91
        1
280
     0
281
     0
  0
CLASS
  1
ACMECOMMANDHISTORY
  2
AcMeCommandHistory
  3
AcMeServices
 90
     1024
 91
        1
280
     0
281
     0
  0
CLASS
  1
ACIMSYSVARMAN
  2
AcImSysVarManager
  3
AcMeServices
 90
     1024
 91
        5
280
     0
281
     0
  0
CLASS
  1
ACIMINTSYSVAR
  2
AcImIntSysVar
  3
AcMeServices
 90
     1024
 91
       27
280
     0
281
     0
  0
CLASS
  1
ACMEDRAWINGMAN
  2
AcMeDrawingMan
  3
AcMeServices
 90
     1024
 91
        1
280
     0
281
     0
  0
CLASS
  1
ACMEVIEW
  2
AcMeView
  3
AcMeServices
 90
     1024
 91
        1
280
     0
281
     0
  0
CLASS
  1
ACDBENTITYCACHE
  2
AcMeEntityCache
  3
AcMeServices
 90
     1024
 91
        1
280
     0
281
     0
  0
CLASS
  1
ACMESTATEMGR
  2
AcMeStateMgr
  3
AcMeServices
 90
     1024
 91
        1
280
     0
281
     0
  0
CLASS
  1
ACGREFMASTER
  2
AcGrefMaster
  3
AcAttribServices
 90
     1024
 91
        1
280
     0
281
     0
  0
CLASS
  1
AM_DRAWING_MGR
  2
AcDmDwgMgr
  3
AcMechDwgViewMgmt
 90
     1024
 91
        1
280
     0
281
     0
  0
CLASS
  1
AM_DWG_DOCUMENT
  2
AcDmDwgDocument
  3
AcMechDwgViewMgmt
 90
     1024
 91
        1
280
     0
281
     0
  0
CLASS
  1
AM_DWG_SHEET
  2
AcDmSheet
  3
AcMechDwgViewMgmt
 90
     1024
 91
        2
280
     0
281
     0
  0
CLASS
  1
AM_VIEWDIMPARMAP
  2
AcDmViewDimParMap
  3
AcMechDwgViewMgmt
 90
     1024
 91
        2
280
     0
281
     0
  0
CLASS
  1
AMDTINTERNALREACTOR
  2
AmdtInternalReactor
  3
AcMeServices
 90
     1024
 91
        1
280
     0
281
     0
  0
CLASS
  1
ACIMREALSYSVAR
  2
AcImRealSysVar
  3
AcMeServices
 90
     1024
 91
        1
280
     0
281
     0
  0
CLASS
  1
AM_DWGMGR_NAME
  2
AcDmDwgMgrName
  3
AcMechDwgViewMgmt
 90
     1024
 91
        1
280
     0
281
     0
  0
CLASS
  1
ACME_DATABASE
  2
AcMeDbDatabase
  3
AcMeServices
 90
     1024
 91
        1
280
     0
281
     0
  0
CLASS
  1
ACRFINSADJUSTERMGR
  2
AcRfInsAdjusterMgr
  3
AcMeServices
 90
     1024
 91
        1
280
     0
281
     0
  0
CLASS
  1
ACGREFACADMASTER
  2
AcGrefacadMaster
  3
AcGrefServices
 90
     1024
 91
        1
280
     0
281
     0
  0
CLASS
  1
AMDTMENUSTATEMGR
  2
AmdtMenuStateMgr
  3
McadcomServices
 90
     1024
 91
        1
280
     0
281
     0
  0
CLASS
  1
AMDTMCOMMENUSTATE
  2
AmdtMcomMenuState
  3
McadcomServices
 90
     1024
 91
        1
280
     0
281
     0
  0
CLASS
  1
AMIMASTER
  2
AmiMaster
  3
AmiServices
 90
     1024
 91
        1
280
     0
281
     0
  0
CLASS
  1
MAPIAMMOUDLE
  2
MApiAmModule
  3
MApiAmServices
 90
     1024
 91
        1
280
     0
281
     0
  0
CLASS
  1
ACIMSTRSYSVAR
  2
AcImStrSysVar
  3
AcMeServices
 90
     1024
 91
        5
280
     0
281
     0
  0
CLASS
  1
AMDTADMENUSTATE
  2
AmdtAdMenuState
  3
DesignerServices
 90
     1024
 91
        1
280
     0
281
     0
  0
CLASS
  1
ADAPPL
  2
AcAdAppl
  3
DesignerServices
 90
     1024
 91
        1
280
     0
281
     0
  0
CLASS
  1
DEPMGR
  2
AcAdDepMgr
  3
DesignerServices
 90
     1024
 91
        1
280
     0
281
     0
  0
CLASS
  1
PARAMMGR
  2
AcAdParamMgr
  3
DesignerServices
 90
     1024
 91
        1
280
     0
281
     0
  0
CLASS
  1
PARAMSCOPE
  2
AcAdParamScope
  3
DesignerServices
 90
     1024
 91
        1
280
     0
281
     0
  0
CLASS
  1
NAMEDAPPL
  2
AcAdNamedAppl
  3
DesignerServices
 90
     1024
 91
        1
280
     0
281
     0
  0
CLASS
  1
AMDTDMMENUSTATE
  2
AmdtDmMenuState
  3
AcMechDwgViewMgmt
 90
     1024
 91
        1
280
     0
281
     0
  0
CLASS
  1
AMDTAMMENUSTATE
  2
AmdtAmMenuState
  3
DesignerAssemblies
 90
     1024
 91
        1
280
     0
281
     0
  0
CLASS
  1
ACAMPROJECT
  2
AcAmProject
  3
DesignerAssemblies
 90
     1024
 91
        1
280
     0
281
     0
  0
CLASS
  1
ACAMGRCOMPDEF
  2
AcAmGrCompDef
  3
DesignerAssemblies
 90
     1024
 91
        1
280
     0
281
     0
  0
CLASS
  1
ACAMCOMPDEF
  2
AcAmCompDef
  3
DesignerAssemblies
 90
     1024
 91
        1
280
     0
281
     0
  0
CLASS
  1
ACAMCOMPDEFMGR
  2
AcAmCompDefMgr
  3
DesignerAssemblies
 90
     1024
 91
        1
280
     0
281
     0
  0
CLASS
  1
AMCONTEXTMGR
  2
AcAmContextMgr
  3
DesignerAssemblies
 90
     1024
 91
        1
280
     0
281
     0
  0
CLASS
  1
ACAMCONTEXTMODELER
  2
AcAmContextModeler
  3
DesignerAssemblies
 90
     1024
 91
        1
280
     0
281
     0
  0
CLASS
  1
ACMDATADICTIONARY
  2
AcmDataDictionary
  3
"AcmSymBB|Product Description: AutoCAD Mechanical|Company: Autodesk, Inc."
 90
     1024
 91
        1
280
     0
281
     0
  0
CLASS
  1
CATALOGSTATE
  2
AcAmCatalogState
  3
DesignerAssemblies
 90
     1024
 91
        1
280
     0
281
     0
  0
CLASS
  1
ACAMGRCOMPDEFSET
  2
AcAmGrCompDefSet
  3
DesignerAssemblies
 90
     1024
 91
        1
280
     0
281
     0
  0
CLASS
  1
AMDTBROWSERDBTAB
  2
AmdtBrowserDbTab
  3
McadcomServices
 90
     1024
 91
        1
280
     0
281
     0
  0
CLASS
  1
CBROWSERAPPOBJECT
  2
CBrowserAppObject
  3
McadcomServices
 90
     1024
 91
        2
280
     0
281
     0
  0
CLASS
  1
DM_PLACEHOLDER
  2
AcDmSelsetPlaceholder
  3
AcMechDwgViewMgmt
 90
     1024
 91
        1
280
     0
281
     0
  0
CLASS
  1
ACMSTANDARDISO
  2
AcmStandardISO
  3
"Amdt_StdImp|Product Description: AutoCAD Mechanical|Company: Autodesk, Inc."
 90
     1024
 91
        1
280
     0
281
     0
  0
CLASS
  1
AMDTEDGESTANDARDISO13715
  2
AmdtEdgeStdISO13715
  3
"Amdt_StdImp|Product Description: AutoCAD Mechanical|Company: Autodesk, Inc."
 90
     1024
 91
        1
280
     0
281
     0
  0
CLASS
  1
ACMSURFSTANDARDISO2002
  2
AcmSurfTextStdISO2002
  3
"Amdt_StdImp|Product Description: AutoCAD Mechanical|Company: Autodesk, Inc."
 90
     1024
 91
        1
280
     0
281
     0
  0
CLASS
  1
ACMFCFSTANDARDISO
  2
AcmFCFStdISO
  3
"Amdt_StdImp|Product Description: AutoCAD Mechanical|Company: Autodesk, Inc."
 90
     1024
 91
        1
280
     0
281
     0
  0
CLASS
  1
ACMWELDSTANDARDISO
  2
AcmWeldingStdISO
  3
"Amdt_StdImp|Product Description: AutoCAD Mechanical|Company: Autodesk, Inc."
 90
     1024
 91
        1
280
     0
281
     0
  0
CLASS
  1
ACMIDSTANDARDISO
  2
AcmIdStdISO
  3
"Amdt_StdImp|Product Description: AutoCAD Mechanical|Company: Autodesk, Inc."
 90
     1024
 91
        1
280
     0
281
     0
  0
CLASS
  1
ACMDATUMSTANDARDISO
  2
AcmDatumStdISO
  3
"Amdt_StdImp|Product Description: AutoCAD Mechanical|Company: Autodesk, Inc."
 90
     1024
 91
        1
280
     0
281
     0
  0
CLASS
  1
ACMBOMSTANDARDISO
  2
AcmBOMStdISO
  3
"Amdt_StdImp|Product Description: AutoCAD Mechanical|Company: Autodesk, Inc."
 90
     1024
 91
        1
280
     0
281
     0
  0
CLASS
  1
ACMDETAILSTANDARDISO
  2
AmdtDetailSymStdISO
  3
"Amdt_StdImp|Product Description: AutoCAD Mechanical|Company: Autodesk, Inc."
 90
     1024
 91
        1
280
     0
281
     0
  0
CLASS
  1
ACMSECTIONSTANDARDISO2001
  2
AmdtSectionSymStdISO2001
  3
"Amdt_StdImp|Product Description: AutoCAD Mechanical|Company: Autodesk, Inc."
 90
     1024
 91
        1
280
     0
281
     0
  0
CLASS
  1
ACMCENTERLINESTANDARDISO
  2
AmdtCenterLineStdISO
  3
"Amdt_StdImp|Product Description: AutoCAD Mechanical|Company: Autodesk, Inc."
 90
     1024
 91
        1
280
     0
281
     0
  0
CLASS
  1
ACMTHREADLINESTANDARDISO
  2
AmdtThreadLineStdISO
  3
"Amdt_StdImp|Product Description: AutoCAD Mechanical|Company: Autodesk, Inc."
 90
     1024
 91
        1
280
     0
281
     0
  0
CLASS
  1
ACMNOTESTANDARDISO
  2
AmdtNoteStdISO
  3
"Amdt_StdImp|Product Description: AutoCAD Mechanical|Company: Autodesk, Inc."
 90
     1024
 91
        1
280
     0
281
     0
  0
CLASS
  1
ACMTAPERSTANDARDISO
  2
AcmTaperStdISO
  3
"Amdt_StdImp|Product Description: AutoCAD Mechanical|Company: Autodesk, Inc."
 90
     1024
 91
        1
280
     0
281
     0
  0
CLASS
  1
ACMANOOTATIONVIEWSTANDARDISO
  2
AmdtAnViewStdISO
  3
"Amdt_StdImp|Product Description: AutoCAD Mechanical|Company: Autodesk, Inc."
 90
     1024
 91
        1
280
     0
281
     0
  0
CLASS
  1
ACAMGLAYSTD
  2
AcAmgLayStd
  3
"AmgLay|Product Description: AutoCAD Mechanical|Company: Autodesk, Inc."
 90
     1024
 91
        1
280
     0
281
     0
  0
CLASS
  1
ACAMGDIMSTD
  2
AcAmgDimStd
  3
"AmgDim|Product Description: AutoCAD Mechanical|Company: Autodesk, Inc."
 90
     1024
 91
        1
280
     0
281
     0
  0
CLASS
  1
AMGOBJPROPCFG
  2
AmgObjPropCfg
  3
"AmgLay|Product Description: AutoCAD Mechanical|Company: Autodesk, Inc."
 90
     1025
 91
        1
280
     0
281
     0
  0
CLASS
  1
ACAMGHOLECHARTSTDISO
  2
AcAmgHoleChartStdISO
  3
AmgDim|Product Description: AutoCAD Mechanical|Company: Autodesk, Inc.
 90
     1024
 91
        1
280
     0
281
     0
  0
CLASS
  1
ACAMGTITLESTD
  2
AcAmgTitleStd
  3
"AmgTitle|Product Description: AutoCAD Mechanical|Company: Autodesk, Inc."
 90
     4095
 91
        1
280
     0
281
     0
  0
CLASS
  1
AMDTNOTETEMPLATEDB
  2
AmdtNoteTemplateDB
  3
AcmSymBB|Product Description: AutoCAD Mechanical|Company: Autodesk, Inc.
 90
     1024
 91
        6
280
     0
281
     0
  0
CLASS
  1
ACAMGFILTERDAT
  2
AcAmgFilterDat
  3
"AcadM|Product Description: AutoCAD Mechanical|Company: Autodesk, Inc."
 90
     1024
 91
        0
280
     0
281
     0
  0
CLASS
  1
AEC_REFEDIT_STATUS_TRACKER
  2
AecDbRefEditStatusTracker
  3
AecArchBase60|Product Desc: Autodesk Architectural Desktop 2007 |Company: Autodesk,Inc. |WEB Address: www.autodesk.com
 90
      129
 91
        0
280
     0
281
     0
  0
CLASS
  1
NPOCOLLECTION
  2
AcDbImpNonPersistentObjectsCollection
  3
ObjectDBX Classes
 90
     1153
 91
        0
280
     0
281
     0
  0
CLASS
  1
CAMSSTRUCTBTNSTATE
  2
StructBtnState
  3
DesignerAssemblies
 90
     1024
 91
        0
280
     0
281
     0
  0
CLASS
  1
CELLSTYLEMAP
  2
AcDbCellStyleMap
  3
ObjectDBX Classes
 90
     1152
 91
        2
280
     0
281
     0
  0
ENDSEC
  0
SECTION
  2
TABLES
  0
TABLE
  2
VPORT
  5
8
330
0
100
AcDbSymbolTable
 70
     1
  0
VPORT
  5
57
330
8
100
AcDbSymbolTableRecord
100
AcDbViewportTableRecord
  2
*Active
 70
     0
 10
0.0
 20
0.0
 11
1.0
 21
1.0
 12
247.6842974985301
 22
318.532792608641
 13
0.0
 23
0.0
 14
1.0
 24
1.0
 15
0.0
 25
0.0
 16
0.0
 26
0.0
 36
1.0
 17
0.0
 27
0.0
 37
0.0
 40
501.4893727110888
 41
1.576017130620984
 42
50.0
 43
0.0
 44
0.0
 50
0.0
 51
0.0
 71
     0
 72
   100
 73
     1
 74
     1
 75
     0
 76
     0
 77
     0
 78
     0
281
     0
 65
     0
110
0.0
120
0.0
130
0.0
111
1.0
121
0.0
131
0.0
112
0.0
122
1.0
132
0.0
 79
     0
146
0.0
  0
ENDTAB
  0
TABLE
  2
LTYPE
  5
5
330
0
100
AcDbSymbolTable
 70
    16
  0
LTYPE
  5
5B
330
5
100
AcDbSymbolTableRecord
100
AcDbLinetypeTableRecord
  2
ByBlock
 70
     0
  3

 72
    65
 73
     0
 40
0.0
  0
LTYPE
  5
5C
330
5
100
AcDbSymbolTableRecord
100
AcDbLinetypeTableRecord
  2
ByLayer
 70
     0
  3

 72
    65
 73
     0
 40
0.0
  0
LTYPE
  5
5D
330
5
100
AcDbSymbolTableRecord
100
AcDbLinetypeTableRecord
  2
Continuous
 70
     0
  3
Solid line
 72
    65
 73
     0
 40
0.0
  0
LTYPE
  5
23BC
330
5
100
AcDbSymbolTableRecord
100
AcDbLinetypeTableRecord
  2
HIDDEN
 70
     0
  3
Skrytá __ __ __ __ __ __ __ __ __ __ __ __ __ __
 72
    65
 73
     2
 40
9.525
 49
6.349999999999998
 74
     0
 49
-3.174999999999998
 74
     0
  0
LTYPE
  5
23BD
330
5
100
AcDbSymbolTableRecord
100
AcDbLinetypeTableRecord
  2
PHANTOM2
 70
     0
  3
Sdružená (.5x) ___ _ _ ___ _ _ ___ _ _ ___ _ _
 72
    65
 73
     6
 40
31.75
 49
15.875
 74
     0
 49
-3.174999999999998
 74
     0
 49
3.174999999999998
 74
     0
 49
-3.174999999999998
 74
     0
 49
3.174999999999998
 74
     0
 49
-3.174999999999998
 74
     0
  0
LTYPE
  5
23BE
330
5
100
AcDbSymbolTableRecord
100
AcDbLinetypeTableRecord
  2
CENTER
 70
     0
  3
Středová ____ _ ____ _ ____ _ ____ _ ____ _ ____
 72
    65
 73
     4
 40
50.8
 49
31.75
 74
     0
 49
-6.349999999999998
 74
     0
 49
6.349999999999998
 74
     0
 49
-6.349999999999998
 74
     0
  0
LTYPE
  5
2404
330
5
100
AcDbSymbolTableRecord
100
AcDbLinetypeTableRecord
  2
AM_ISO02W050
 70
     0
  3
__ __ __ __ __ __ __ __ __ __ __ __ __ __ __
 72
    65
 73
     2
 40
7.5
 49
6.0
 74
     0
 49
-1.5
 74
     0
  0
LTYPE
  5
2405
330
5
100
AcDbSymbolTableRecord
100
AcDbLinetypeTableRecord
  2
AM_ISO08W050
 70
     0
  3
____ . ____ . ____ . ____ . ____ . ____ . ____
 72
    65
 73
     4
 40
18.0
 49
12.0
 74
     0
 49
-1.5
 74
     0
 49
3.0
 74
     0
 49
-1.5
 74
     0
  0
LTYPE
  5
2406
330
5
100
AcDbSymbolTableRecord
100
AcDbLinetypeTableRecord
  2
AM_ISO09W050
 70
     0
  3
_____ . . _____ . . _____ . . ____ .. ____
 72
    65
 73
     6
 40
22.5
 49
12.0
 74
     0
 49
-1.5
 74
     0
 49
3.0
 74
     0
 49
-1.5
 74
     0
 49
3.0
 74
     0
 49
-1.5
 74
     0
  0
LTYPE
  5
2407
330
5
100
AcDbSymbolTableRecord
100
AcDbLinetypeTableRecord
  2
Amconstr
 70
     0
  3
_______________________
 72
    65
 73
     2
 40
9999.0
 49
9999.0
 74
     0
 49
0.0
 74
     0
  0
LTYPE
  5
2408
330
5
100
AcDbSymbolTableRecord
100
AcDbLinetypeTableRecord
  2
AM_ISO08W050x2
 70
     0
  3
__ . __ . __ . __ . __ . __
 72
    65
 73
     4
 40
9.0
 49
6.0
 74
     0
 49
-0.75
 74
     0
 49
1.5
 74
     0
 49
-0.75
 74
     0
  0
LTYPE
  5
2409
330
5
100
AcDbSymbolTableRecord
100
AcDbLinetypeTableRecord
  2
AM_ISO02W050x2
 70
     0
  3
 _ _ _ _ _ _ _ _ _ _ _ _
 72
    65
 73
     2
 40
3.75
 49
3.0
 74
     0
 49
-0.75
 74
     0
  0
LTYPE
  5
240C
330
5
100
AcDbSymbolTableRecord
100
AcDbLinetypeTableRecord
  2
Amzigzag
 70
     0
  3
/\/-/\/-/\/-/\/-/\/-/\/
 72
    65
 73
     2
 40
11.0001
 49
0.0001
 74
     4
 75
   136
340
240B
 46
0.04
 50
0.0
 44
0.0
 45
0.0
 49
-11.0
 74
     0
  0
LTYPE
  5
241B
330
5
100
AcDbSymbolTableRecord
100
AcDbLinetypeTableRecord
  2
ACISOWELD
 70
     0
  3
_ _ _ _ _
 72
    65
 73
     2
 40
2.0
 49
2.0
 74
     0
 49
-1.0
 74
     0
  0
LTYPE
  5
241C
330
5
100
AcDbSymbolTableRecord
100
AcDbLinetypeTableRecord
  2
ACISOTGB
 70
     0
  3
__ . . __ . .
 72
    65
 73
     6
 40
9.0
 49
4.0
 74
     0
 49
-1.0
 74
     0
 49
1.0
 74
     0
 49
-1.0
 74
     0
 49
1.0
 74
     0
 49
-1.0
 74
     0
  0
LTYPE
  5
241D
330
5
100
AcDbSymbolTableRecord
100
AcDbLinetypeTableRecord
  2
ACISOTGL
 70
     0
  3
_ _ _ _ _
 72
    65
 73
     2
 40
3.0
 49
2.0
 74
     0
 49
-1.0
 74
     0
  0
LTYPE
  5
2480
330
5
100
AcDbSymbolTableRecord
100
AcDbLinetypeTableRecord
  2
GEN7
 70
     0
  3
____ . ____ . ____ . ____ . ____ . ____ . ____
 72
    65
 73
     4
 40
13.75
 49
10.0
 74
     0
 49
-1.25
 74
     0
 49
1.25
 74
     0
 49
-1.25
 74
     0
  0
ENDTAB
  0
TABLE
  2
LAYER
  5
2
102
{ACAD_XDICTIONARY
360
2488
102
}
330
0
100
AcDbSymbolTable
 70
    18
  0
LAYER
  5
54
330
2
100
AcDbSymbolTableRecord
100
AcDbLayerTableRecord
  2
0
 70
     0
 62
     7
  6
Continuous
370
    -3
390
F
  0
LAYER
  5
78
330
2
100
AcDbSymbolTableRecord
100
AcDbLayerTableRecord
  2
Geometrie náčrtu (ISO)
 70
     0
 62
     7
  6
Continuous
370
     9
390
F
  0
LAYER
  5
79
330
2
100
AcDbSymbolTableRecord
100
AcDbLayerTableRecord
  2
KOPF
 70
     0
 62
     8
420
  8421504
  6
Continuous
370
     9
390
F
  0
LAYER
  5
7A
330
2
100
AcDbSymbolTableRecord
100
AcDbLayerTableRecord
  2
Kóta (ISO)
 70
     0
 62
     5
420
      255
  6
Continuous
370
     9
390
F
  0
LAYER
  5
7B
330
2
100
AcDbSymbolTableRecord
100
AcDbLayerTableRecord
  2
Nadpis (ISO)
 70
     0
 62
     7
  6
Continuous
370
    18
390
F
  0
LAYER
  5
7D
330
2
100
AcDbSymbolTableRecord
100
AcDbLayerTableRecord
  2
Osa (ISO)
 70
     0
 62
     1
420
 16711680
  6
Continuous
370
     9
390
F
  0
LAYER
  5
85
330
2
100
AcDbSymbolTableRecord
100
AcDbLayerTableRecord
  2
Rámeček (ISO)
 70
     0
 62
     7
  6
Continuous
370
    35
390
F
  0
LAYER
  5
88
330
2
100
AcDbSymbolTableRecord
100
AcDbLayerTableRecord
  2
Skrytá (ISO)
 70
     0
 62
   142
420
    32960
  6
Continuous
370
     9
390
F
  0
LAYER
  5
89
330
2
100
AcDbSymbolTableRecord
100
AcDbLayerTableRecord
  2
Středová značka (ISO)
 70
     0
 62
     1
420
 16711680
  6
Continuous
370
     9
390
F
  0
LAYER
  5
8B
330
2
100
AcDbSymbolTableRecord
100
AcDbLayerTableRecord
  2
TEXT35
 70
     0
 62
    12
420
 13369344
  6
Continuous
370
    20
390
F
  0
LAYER
  5
8C
330
2
100
AcDbSymbolTableRecord
100
AcDbLayerTableRecord
  2
TEXT50
 70
     0
 62
     7
  6
Continuous
370
    20
390
F
  0
LAYER
  5
8D
330
2
100
AcDbSymbolTableRecord
100
AcDbLayerTableRecord
  2
Viditelná (ISO)
 70
     0
 62
     7
  6
Continuous
370
    35
390
F
  0
LAYER
  5
8E
330
2
100
AcDbSymbolTableRecord
100
AcDbLayerTableRecord
  2
Viditelná tenká (ISO)
 70
     0
 62
     7
  6
Continuous
370
     9
390
F
  0
LAYER
  5
8F
330
2
100
AcDbSymbolTableRecord
100
AcDbLayerTableRecord
  2
Značka (ISO)
 70
     0
 62
     5
420
      255
  6
Continuous
370
     9
390
F
  0
LAYER
  5
1D95
330
2
100
AcDbSymbolTableRecord
100
AcDbLayerTableRecord
  2
Defpoints
 70
     0
 62
     7
  6
Continuous
290
     0
370
    -3
390
F
  0
LAYER
  5
2481
102
{ACAD_XDICTIONARY
360
2482
102
}
330
2
100
AcDbSymbolTableRecord
100
AcDbLayerTableRecord
  2
7
 70
     0
 62
     4
  6
GEN7
370
    -3
390
F
  0
LAYER
  5
2483
102
{ACAD_XDICTIONARY
360
2484
102
}
330
2
100
AcDbSymbolTableRecord
100
AcDbLayerTableRecord
  2
5
 70
     0
 62
     3
  6
Continuous
370
    -3
390
F
  0
LAYER
  5
25F5
330
2
100
AcDbSymbolTableRecord
100
AcDbLayerTableRecord
  2
AM_5
 70
     0
 62
    92
  6
Continuous
370
    25
390
F
1001
AcAecLayerStandard
1000

1000

  0
ENDTAB
  0
TABLE
  2
STYLE
  5
3
330
0
100
AcDbSymbolTable
 70
    21
  0
STYLE
  5
55
330
3
100
AcDbSymbolTableRecord
100
AcDbTextStyleTableRecord
  2
Standard
 70
     0
 40
0.0
 41
1.0
 50
0.0
 71
     0
 42
0.2
  3
TAHOMA.TTF
  4

1001
ACAD
1000
Tahoma
1071
      256
  0
STYLE
  5
5A
330
3
100
AcDbSymbolTableRecord
100
AcDbTextStyleTableRecord
  2
Annotative
 70
     0
 40
0.0
 41
1.0
 50
0.0
 71
     0
 42
0.2
  3
txt
  4

1001
AcadAnnotative
1000
AnnotativeData
1002
{
1070
     1
1070
     1
1002
}
  0
STYLE
  5
90
330
3
100
AcDbSymbolTableRecord
100
AcDbTextStyleTableRecord
  2
ITALICC8_57
 70
     0
 40
0.0
 41
1.0
 50
0.0
 71
     0
 42
0.2
  3
TAHOMA.TTF
  4

1001
ACAD
1000
Tahoma
1071
      256
  0
STYLE
  5
91
330
3
100
AcDbSymbolTableRecord
100
AcDbTextStyleTableRecord
  2
kusovnik
 70
     0
 40
0.0
 41
1.0
 50
0.0
 71
     0
 42
0.2
  3
ARIAL.TTF
  4

1001
ACAD
1000
Arial
1071
      256
  0
STYLE
  5
92
330
3
100
AcDbSymbolTableRecord
100
AcDbTextStyleTableRecord
  2
ROMANS8_69
 70
     0
 40
0.0
 41
1.0
 50
0.0
 71
     0
 42
0.2
  3
TAHOMA.TTF
  4

1001
ACAD
1000
Tahoma
1071
      256
  0
STYLE
  5
93
330
3
100
AcDbSymbolTableRecord
100
AcDbTextStyleTableRecord
  2
Text popisu (ISO)
 70
     0
 40
0.0
 41
1.0
 50
0.0
 71
     0
 42
0.2
  3
TAHOMA.TTF
  4

1001
ACAD
1000
Tahoma
1071
      256
  0
STYLE
  5
94
330
3
100
AcDbSymbolTableRecord
100
AcDbTextStyleTableRecord
  2
Text poznámky (DIN)
 70
     0
 40
0.0
 41
1.0
 50
0.0
 71
     0
 42
0.2
  3
isocpeur.ttf
  4

1001
ACAD
1000
ISOCPEUR
1071
      256
  0
STYLE
  5
95
330
3
100
AcDbSymbolTableRecord
100
AcDbTextStyleTableRecord
  2
Text poznámky (ISO)
 70
     0
 40
0.0
 41
1.0
 50
0.0
 71
     0
 42
0.2
  3
TAHOMA.TTF
  4

1001
ACAD
1000
Tahoma
1071
      256
  0
STYLE
  5
96
330
3
100
AcDbSymbolTableRecord
100
AcDbTextStyleTableRecord
  2
TEXT20_41
 70
     0
 40
0.0
 41
1.0
 50
0.0
 71
     0
 42
0.2
  3
TAHOMA.TTF
  4

1001
ACAD
1000
Tahoma
1071
      256
  0
STYLE
  5
97
330
3
100
AcDbSymbolTableRecord
100
AcDbTextStyleTableRecord
  2
TEXT20_59
 70
     0
 40
0.0
 41
1.0
 50
0.0
 71
     0
 42
0.2
  3
TAHOMA.TTF
  4

1001
ACAD
1000
Tahoma
1071
      256
  0
STYLE
  5
1C2
330
3
100
AcDbSymbolTableRecord
100
AcDbTextStyleTableRecord
  2
Styl textu62
 70
     0
 40
0.0
 41
0.8000000119209289
 50
0.0
 71
     0
 42
0.2
  3
TAHOMA.TTF
  4

1001
ACAD
1000
Tahoma
1071
      256
  0
STYLE
  5
1C9
330
3
100
AcDbSymbolTableRecord
100
AcDbTextStyleTableRecord
  2
Styl textu58
 70
     0
 40
0.0
 41
0.8000000119209289
 50
0.0
 71
     0
 42
0.2
  3
TAHOMA.TTF
  4

1001
ACAD
1000
Tahoma
1071
      256
  0
STYLE
  5
1CB
330
3
100
AcDbSymbolTableRecord
100
AcDbTextStyleTableRecord
  2
Styl textu63
 70
     0
 40
0.0
 41
0.75
 50
0.0
 71
     0
 42
0.2
  3
TAHOMA.TTF
  4

1001
ACAD
1000
Tahoma
1071
      256
  0
STYLE
  5
1CE
330
3
100
AcDbSymbolTableRecord
100
AcDbTextStyleTableRecord
  2
Styl textu72
 70
     0
 40
0.0
 41
0.6999999880790711
 50
0.0
 71
     0
 42
0.2
  3
TAHOMA.TTF
  4

1001
ACAD
1000
Tahoma
1071
      256
  0
STYLE
  5
1D1
330
3
100
AcDbSymbolTableRecord
100
AcDbTextStyleTableRecord
  2
Styl textu75
 70
     0
 40
0.0
 41
0.8000000119209289
 50
0.0
 71
     0
 42
0.2
  3
TAHOMA.TTF
  4

1001
ACAD
1000
Tahoma
1071
      256
  0
STYLE
  5
1E8
330
3
100
AcDbSymbolTableRecord
100
AcDbTextStyleTableRecord
  2
Styl textu9
 70
     0
 40
0.0
 41
1.0
 50
0.0
 71
     0
 42
0.2
  3
ARIAL.TTF
  4

1001
ACAD
1000
Arial
1071
      256
  0
STYLE
  5
1EC
330
3
100
AcDbSymbolTableRecord
100
AcDbTextStyleTableRecord
  2
Styl textu40
 70
     0
 40
0.0
 41
1.0
 50
0.0
 71
     0
 42
0.2
  3
ARIAL.TTF
  4

1001
ACAD
1000
Arial
1071
      256
  0
STYLE
  5
1F1
330
3
100
AcDbSymbolTableRecord
100
AcDbTextStyleTableRecord
  2
Styl textu94
 70
     0
 40
0.0
 41
1.0
 50
0.0
 71
     0
 42
0.2
  3
TAHOMA.TTF
  4

1001
ACAD
1000
Tahoma
1071
      256
  0
STYLE
  5
240B
330
3
100
AcDbSymbolTableRecord
100
AcDbTextStyleTableRecord
  2

 70
     1
 40
0.0
 41
1.0
 50
0.0
 71
     0
 42
0.2
  3
genltshp.shx
  4

  0
STYLE
  5
2419
330
3
100
AcDbSymbolTableRecord
100
AcDbTextStyleTableRecord
  2
ACISOTS
 70
     0
 40
1.0
 41
1.0
 50
0.0
 71
     0
 42
0.2
  3
isocp.shx
  4

  0
STYLE
  5
241A
330
3
100
AcDbSymbolTableRecord
100
AcDbTextStyleTableRecord
  2
ACISOGDT
 70
     0
 40
0.0
 41
1.0
 50
0.0
 71
     0
 42
0.2
  3
amgdt.shx
  4

  0
ENDTAB
  0
TABLE
  2
VIEW
  5
6
330
0
100
AcDbSymbolTable
 70
     0
  0
ENDTAB
  0
TABLE
  2
UCS
  5
7
330
0
100
AcDbSymbolTable
 70
     0
  0
ENDTAB
  0
TABLE
  2
APPID
  5
9
330
0
100
AcDbSymbolTable
 70
    21
  0
APPID
  5
56
330
9
100
AcDbSymbolTableRecord
100
AcDbRegAppTableRecord
  2
ACAD
 70
     0
  0
APPID
  5
5E
330
9
100
AcDbSymbolTableRecord
100
AcDbRegAppTableRecord
  2
AcadAnnotative
 70
     0
  0
APPID
  5
1EB
330
9
100
AcDbSymbolTableRecord
100
AcDbRegAppTableRecord
  2
AcadAnnoPO
 70
     0
  0
APPID
  5
238F
330
9
100
AcDbSymbolTableRecord
100
AcDbRegAppTableRecord
  2
MCAD_NO_VIS
 70
     0
  0
APPID
  5
2390
330
9
100
AcDbSymbolTableRecord
100
AcDbRegAppTableRecord
  2
ACAD_TEMP_GRAPHIC
 70
     0
  0
APPID
  5
23C0
330
9
100
AcDbSymbolTableRecord
100
AcDbRegAppTableRecord
  2
AD_DRAW
 70
     0
  0
APPID
  5
23C3
330
9
100
AcDbSymbolTableRecord
100
AcDbRegAppTableRecord
  2
ACATTRIBSERVICES
 70
     0
  0
APPID
  5
23E3
330
9
100
AcDbSymbolTableRecord
100
AcDbRegAppTableRecord
  2
DESIGNERASSEMBLIES
 70
     0
  0
APPID
  5
23E9
330
9
100
AcDbSymbolTableRecord
100
AcDbRegAppTableRecord
  2
ACADM_DIM_EDIT
 70
     0
  0
APPID
  5
23EA
330
9
100
AcDbSymbolTableRecord
100
AcDbRegAppTableRecord
  2
AMDT_DM_ADJ
 70
     0
  0
APPID
  5
2401
330
9
100
AcDbSymbolTableRecord
100
AcDbRegAppTableRecord
  2
ACAD_DSTYLE_DIMJAG
 70
     0
  0
APPID
  5
2402
330
9
100
AcDbSymbolTableRecord
100
AcDbRegAppTableRecord
  2
ACAD_DSTYLE_DIMBREAK
 70
     0
  0
APPID
  5
2486
330
9
100
AcDbSymbolTableRecord
100
AcDbRegAppTableRecord
  2
ACAD_DSTYLE_DIMINSPECT
 70
     0
  0
APPID
  5
2487
330
9
100
AcDbSymbolTableRecord
100
AcDbRegAppTableRecord
  2
ACAD_DSTYLE_DIMTALN
 70
     0
  0
APPID
  5
25EA
330
9
100
AcDbSymbolTableRecord
100
AcDbRegAppTableRecord
  2
ACAD_EXEMPT_FROM_CAD_STANDARDS
 70
     0
  0
APPID
  5
25F6
330
9
100
AcDbSymbolTableRecord
100
AcDbRegAppTableRecord
  2
AcAecLayerStandard
 70
     0
  0
APPID
  5
27DE
330
9
100
AcDbSymbolTableRecord
100
AcDbRegAppTableRecord
  2
ACAD_MLEADERVER
 70
     0
  0
APPID
  5
2809
330
9
100
AcDbSymbolTableRecord
100
AcDbRegAppTableRecord
  2
ACAD_DSTYLE_DIMARC_LENGTH_SYMBOL
 70
     0
  0
APPID
  5
280A
330
9
100
AcDbSymbolTableRecord
100
AcDbRegAppTableRecord
  2
ACAD_DSTYLE_DIM_LINETYPE
 70
     0
  0
APPID
  5
280B
330
9
100
AcDbSymbolTableRecord
100
AcDbRegAppTableRecord
  2
ACAD_DSTYLE_DIM_EXT1_LINETYPE
 70
     0
  0
APPID
  5
280C
330
9
100
AcDbSymbolTableRecord
100
AcDbRegAppTableRecord
  2
ACAD_DSTYLE_DIM_EXT2_LINETYPE
 70
     0
  0
ENDTAB
  0
TABLE
  2
DIMSTYLE
  5
A
330
0
100
AcDbSymbolTable
 70
    26
100
AcDbDimStyleTable
 71
     3
340
58
340
2485
340
B1
  0
DIMSTYLE
105
58
330
A
100
AcDbSymbolTableRecord
100
AcDbDimStyleTableRecord
  2
Standard
 70
     0
340
55
  0
DIMSTYLE
105
59
330
A
100
AcDbSymbolTableRecord
100
AcDbDimStyleTableRecord
  2
Annotative
 70
     0
340
55
1001
AcadAnnotative
1000
AnnotativeData
1002
{
1070
     1
1070
     1
1002
}
  0
DIMSTYLE
105
A7
330
A
100
AcDbSymbolTableRecord
100
AcDbDimStyleTableRecord
  2
Různé objekty (ISO)
 70
     0
 40
1.5
 41
2.5
 42
0.0
 43
5.999999999999999
 44
1.0
 45
0.00000001
 46
10.0
 73
     0
 74
     0
 77
     1
 78
     8
 79
     2
140
5.25
143
0.03937
146
0.6676571709769112
147
0.762
171
     3
172
     1
176
   256
177
   256
178
   256
179
     2
271
     2
272
     2
274
     3
278
    44
284
     8
340
93
341
98
371
    -1
372
    -1
  0
DIMSTYLE
105
A8
330
A
100
AcDbSymbolTableRecord
100
AcDbDimStyleTableRecord
  2
Různé objekty (ISO)$7
 70
     0
 40
1.5
 41
5.0
 42
0.0
 43
5.999999999999999
 44
1.0
 45
0.00000001
 46
10.0
 73
     0
 74
     0
 77
     1
 78
     8
 79
     2
140
5.25
143
0.03937
146
0.6676571709769112
147
0.762
171
     3
172
     1
176
   256
177
   256
178
   256
179
     2
271
     2
272
     2
274
     3
278
    44
284
     8
340
93
341
98
371
    25
372
    -1
  0
DIMSTYLE
105
A9
330
A
100
AcDbSymbolTableRecord
100
AcDbDimStyleTableRecord
  2
Výchozí - Metoda 1b (ISO)
 70
     0
 40
1.5
 41
2.5
 42
0.0
 43
5.999999999999999
 44
1.0
 45
0.00000001
 46
10.0
 73
     0
 77
     1
 78
     8
 79
     2
140
3.5
143
0.03937
147
0.762
171
     3
172
     1
176
   256
177
   256
178
   256
179
     2
271
     2
272
     2
274
     3
278
    44
284
     8
286
     8
340
95
371
    -1
372
    -1
  0
DIMSTYLE
105
AA
330
A
100
AcDbSymbolTableRecord
100
AcDbDimStyleTableRecord
  2
Výchozí - Metoda 1b (ISO)$7
 70
     0
 40
1.5
 41
2.5
 42
0.0
 43
5.999999999999999
 44
1.0
 45
0.00000001
 46
10.0
 73
     0
 77
     1
 78
     8
 79
     2
140
3.5
143
0.03937
147
0.762
171
     3
172
     1
176
   256
177
   256
178
   256
179
     2
271
     2
272
     2
274
     3
278
    44
284
     8
286
     8
340
95
371
    -1
372
    -1
  0
DIMSTYLE
105
AB
330
A
100
AcDbSymbolTableRecord
100
AcDbDimStyleTableRecord
  2
Výchozí - Metoda 2a (ISO)
 70
     0
 40
1.5
 41
2.5
 42
0.0
 43
5.999999999999999
 44
1.0
 45
0.00000001
 46
10.0
 77
     1
 78
     8
 79
     2
140
3.5
143
0.03937
147
0.762
171
     3
172
     1
176
   256
177
   256
178
   256
179
     2
271
     2
272
     2
274
     3
278
    44
284
     8
286
     8
340
95
371
    -1
372
    -1
  0
DIMSTYLE
105
AC
330
A
100
AcDbSymbolTableRecord
100
AcDbDimStyleTableRecord
  2
Výchozí - Metoda 2a (ISO)$7
 70
     0
 40
1.5
 41
2.5
 42
0.0
 43
5.999999999999999
 44
1.0
 45
0.00000001
 46
10.0
 77
     1
 78
     8
 79
     2
140
3.5
143
0.03937
147
0.762
171
     3
172
     1
176
   256
177
   256
178
   256
179
     2
271
     2
272
     2
274
     3
278
    44
284
     8
286
     8
340
95
371
    -1
372
    -1
  0
DIMSTYLE
105
AD
330
A
100
AcDbSymbolTableRecord
100
AcDbDimStyleTableRecord
  2
Výchozí - Metoda 2b (ISO)
 70
     0
 40
1.5
 41
2.5
 42
0.0
 43
5.999999999999999
 44
1.0
 45
0.00000001
 46
10.0
 77
     1
 78
     8
 79
     2
140
3.5
143
0.03937
147
0.762
171
     3
172
     1
176
   256
177
   256
178
   256
179
     2
271
     2
272
     2
274
     3
278
    44
284
     8
286
     8
340
95
371
    -1
372
    -1
  0
DIMSTYLE
105
AE
330
A
100
AcDbSymbolTableRecord
100
AcDbDimStyleTableRecord
  2
Výchozí - Metoda 2b (ISO)$7
 70
     0
 40
1.5
 41
2.5
 42
0.0
 43
5.999999999999999
 44
1.0
 45
0.00000001
 46
10.0
 77
     1
 78
     8
 79
     2
140
3.5
143
0.03937
147
0.762
171
     3
172
     1
176
   256
177
   256
178
   256
179
     2
271
     2
272
     2
274
     3
278
    44
284
     8
286
     8
340
95
371
    -1
372
    -1
  0
DIMSTYLE
105
AF
330
A
100
AcDbSymbolTableRecord
100
AcDbDimStyleTableRecord
  2
Výchozí - mm [palce] (ISO)
 70
     0
  4
 in
 40
1.5
 41
2.5
 42
0.0
 43
5.999999999999999
 44
3.174999999999998
 45
0.00000001
 46
10.0
 73
     0
 74
     0
 77
     1
 78
     8
 79
     2
140
3.5
143
0.03937
147
0.762
170
     1
171
     3
172
     1
176
   256
177
   256
178
   256
179
     3
271
     3
272
     2
274
     3
275
     1
278
    44
284
     8
285
     8
286
     8
340
95
371
    -1
372
    -1
  0
DIMSTYLE
105
B0
330
A
100
AcDbSymbolTableRecord
100
AcDbDimStyleTableRecord
  2
Výchozí - mm [palce] (ISO)$7
 70
     0
  4
 in
 40
1.5
 41
2.5
 42
0.0
 43
5.999999999999999
 44
3.174999999999998
 45
0.00000001
 46
10.0
 73
     0
 74
     0
 77
     1
 78
     8
 79
     2
140
3.5
143
0.03937
147
0.762
170
     1
171
     3
172
     1
176
   256
177
   256
178
   256
179
     3
271
     3
272
     2
274
     3
275
     1
278
    44
284
     8
285
     8
286
     8
340
95
371
    -1
372
    -1
  0
DIMSTYLE
105
B1
330
A
100
AcDbSymbolTableRecord
100
AcDbDimStyleTableRecord
  2
Výchozí (ISO)
 70
     0
 40
1.5
 41
2.5
 42
0.0
 43
5.999999999999999
 44
1.0
 45
0.00000001
 46
10.0
 73
     0
 74
     0
 77
     1
 78
     8
 79
     2
140
3.5
143
0.03937
146
1.001485756465366
147
0.762
171
     3
172
     1
176
   256
177
   256
178
   256
179
     2
271
     2
272
     2
274
     3
278
    44
284
     8
340
95
371
    -1
372
    -1
  0
DIMSTYLE
105
B2
330
A
100
AcDbSymbolTableRecord
100
AcDbDimStyleTableRecord
  2
Výchozí (ISO)$7
 70
     0
 40
1.5
 41
2.5
 42
0.0
 43
5.999999999999999
 44
1.0
 45
0.00000001
 46
10.0
 73
     0
 74
     0
 77
     1
 78
     8
 79
     2
140
3.5
143
0.03937
146
1.001485756465366
147
0.762
171
     3
172
     1
176
   256
177
   256
178
   256
179
     2
271
     2
272
     2
274
     3
278
    44
284
     8
340
95
371
    -1
372
    -1
  0
DIMSTYLE
105
B3
330
A
100
AcDbSymbolTableRecord
100
AcDbDimStyleTableRecord
  2
Alternativní (ISO)
 70
     0
 40
1.5
 41
2.5
340
55
342
B4
  0
DIMSTYLE
105
C5
330
A
100
AcDbSymbolTableRecord
100
AcDbDimStyleTableRecord
  2
Základny (ISO)
 70
     0
 40
1.5
 41
2.5
340
55
342
B4
  0
DIMSTYLE
105
2400
102
{ACAD_REACTORS
330
2872
102
}
330
A
100
AcDbSymbolTableRecord
100
AcDbDimStyleTableRecord
  2
AM_ISO
 70
     0
  4
"
 41
3.5
 42
1.0
 43
10.0
 44
1.0
 47
0.1
 48
0.1
 73
     0
 74
     0
 77
     1
 78
     8
 79
     2
140
3.5
141
0.0
143
0.0393701
146
0.71
147
1.5
172
     1
176
   256
177
   256
178
   140
271
     2
272
     3
274
     4
283
     0
284
     8
340
55
371
    -1
372
    -1
1001
ACAD_DSTYLE_DIMJAG
1070
   388
1040
1.5
1001
ACAD_DSTYLE_DIMBREAK
1070
   391
1040
3.75
1001
ACAD_DSTYLE_DIMARC_LENGTH_SYMBOL
1070
   379
1070
     1
1001
ACAD_DSTYLE_DIM_LINETYPE
1070
   380
1005
5B
1001
ACAD_DSTYLE_DIM_EXT1_LINETYPE
1070
   381
1005
5B
1001
ACAD_DSTYLE_DIM_EXT2_LINETYPE
1070
   382
1005
5B
  0
DIMSTYLE
105
240D
330
A
100
AcDbSymbolTableRecord
100
AcDbDimStyleTableRecord
  2
AM_ISO$3
 70
     0
  4
"
 41
3.5
 42
1.0
 43
10.0
 44
1.0
 47
0.1
 48
0.1
 73
     0
 77
     1
 78
     8
 79
     2
140
3.5
141
0.0
143
0.0393701
146
0.71
147
1.5
176
   256
177
   256
178
   140
271
     2
272
     3
274
     4
283
     0
284
     8
288
     1
289
     0
340
55
371
    -1
372
    -1
1001
ACAD_DSTYLE_DIMBREAK
1070
   391
1040
3.75
1001
ACAD_DSTYLE_DIMJAG
1070
   388
1040
1.5
1001
ACAD_DSTYLE_DIMARC_LENGTH_SYMBOL
1070
   379
1070
     1
1001
ACAD_DSTYLE_DIM_LINETYPE
1070
   380
1005
5B
1001
ACAD_DSTYLE_DIM_EXT1_LINETYPE
1070
   381
1005
5B
1001
ACAD_DSTYLE_DIM_EXT2_LINETYPE
1070
   382
1005
5B
  0
DIMSTYLE
105
240E
330
A
100
AcDbSymbolTableRecord
100
AcDbDimStyleTableRecord
  2
AM_ISO$4
 70
     0
  4
"
 41
3.5
 42
1.0
 43
10.0
 44
1.0
 47
0.1
 48
0.1
 73
     0
 77
     1
 78
     8
 79
     2
140
3.5
141
0.0
143
0.0393701
146
0.71
147
1.5
176
   256
177
   256
178
   140
271
     2
272
     3
274
     4
283
     0
284
     8
288
     1
289
     0
340
55
371
    -1
372
    -1
1001
ACAD_DSTYLE_DIMBREAK
1070
   391
1040
3.75
1001
ACAD_DSTYLE_DIMJAG
1070
   388
1040
1.5
1001
ACAD_DSTYLE_DIMARC_LENGTH_SYMBOL
1070
   379
1070
     1
1001
ACAD_DSTYLE_DIM_LINETYPE
1070
   380
1005
5B
1001
ACAD_DSTYLE_DIM_EXT1_LINETYPE
1070
   381
1005
5B
1001
ACAD_DSTYLE_DIM_EXT2_LINETYPE
1070
   382
1005
5B
  0
DIMSTYLE
105
240F
330
A
100
AcDbSymbolTableRecord
100
AcDbDimStyleTableRecord
  2
AM_ISO$6
 70
     0
  4
"
 41
3.5
 42
1.0
 43
10.0
 44
1.0
 47
0.1
 48
0.1
 73
     0
 74
     0
 78
     8
 79
     2
140
3.5
141
0.0
143
0.0393701
146
0.71
147
1.5
172
     1
176
   256
177
   256
178
   140
271
     2
272
     3
274
     4
283
     0
284
     8
340
55
371
    -1
372
    -1
1001
ACAD_DSTYLE_DIMBREAK
1070
   391
1040
3.75
1001
ACAD_DSTYLE_DIMJAG
1070
   388
1040
1.5
1001
ACAD_DSTYLE_DIMARC_LENGTH_SYMBOL
1070
   379
1070
     1
1001
ACAD_DSTYLE_DIM_LINETYPE
1070
   380
1005
5B
1001
ACAD_DSTYLE_DIM_EXT1_LINETYPE
1070
   381
1005
5B
1001
ACAD_DSTYLE_DIM_EXT2_LINETYPE
1070
   382
1005
5B
  0
DIMSTYLE
105
2410
330
A
100
AcDbSymbolTableRecord
100
AcDbDimStyleTableRecord
  2
AM_ISO$7
 70
     0
  4
"
 41
3.5
 42
1.0
 43
10.0
 44
1.0
 47
0.1
 48
0.1
 73
     0
 74
     0
 77
     1
 78
     8
 79
     2
140
3.5
141
0.0
143
0.0393701
146
0.71
147
1.5
172
     1
176
   256
177
   256
178
   140
271
     2
272
     3
274
     4
283
     0
284
     8
340
55
371
    -1
372
    -1
1001
ACAD_DSTYLE_DIMBREAK
1070
   391
1040
3.75
1001
ACAD_DSTYLE_DIMJAG
1070
   388
1040
1.5
1001
ACAD_DSTYLE_DIMARC_LENGTH_SYMBOL
1070
   379
1070
     1
1001
ACAD_DSTYLE_DIM_LINETYPE
1070
   380
1005
5B
1001
ACAD_DSTYLE_DIM_EXT1_LINETYPE
1070
   381
1005
5B
1001
ACAD_DSTYLE_DIM_EXT2_LINETYPE
1070
   382
1005
5B
  0
DIMSTYLE
105
2411
330
A
100
AcDbSymbolTableRecord
100
AcDbDimStyleTableRecord
  2
AM_ISO$SF
 70
     0
  4
"
 41
3.5
 42
1.0
 43
10.0
 44
1.0
 47
0.1
 48
0.1
 73
     0
 74
     0
 75
     1
 76
     1
 77
     1
 78
     8
 79
     2
140
3.5
141
0.0
143
0.0393701
146
0.71
147
1.5
172
     1
176
   256
177
   256
178
   140
271
     2
272
     3
274
     4
283
     0
284
     8
340
55
371
    -1
372
    -1
1001
ACAD_DSTYLE_DIMBREAK
1070
   391
1040
3.75
1001
ACAD_DSTYLE_DIMJAG
1070
   388
1040
1.5
1001
ACAD_DSTYLE_DIMARC_LENGTH_SYMBOL
1070
   379
1070
     1
1001
ACAD_DSTYLE_DIM_LINETYPE
1070
   380
1005
5B
1001
ACAD_DSTYLE_DIM_EXT1_LINETYPE
1070
   381
1005
5B
1001
ACAD_DSTYLE_DIM_EXT2_LINETYPE
1070
   382
1005
5B
  0
DIMSTYLE
105
2416
330
A
100
AcDbSymbolTableRecord
100
AcDbDimStyleTableRecord
  2
AM_ISO$SH
 70
     0
  4
"
 41
3.5
 42
1.0
 43
10.0
 44
1.0
 47
0.1
 48
0.1
 73
     0
 74
     0
 75
     1
 76
     1
 77
     1
 78
     8
 79
     2
140
3.5
141
0.0
143
0.0393701
144
2.0
146
0.71
147
1.5
172
     1
173
     1
176
   256
177
   256
178
   140
271
     2
272
     3
274
     4
283
     0
284
     8
340
55
343
2412
371
    -1
372
    -1
1001
ACAD_DSTYLE_DIMBREAK
1070
   391
1040
3.75
1001
ACAD_DSTYLE_DIMJAG
1070
   388
1040
1.5
1001
ACAD_DSTYLE_DIMARC_LENGTH_SYMBOL
1070
   379
1070
     1
1001
ACAD_DSTYLE_DIM_LINETYPE
1070
   380
1005
5B
1001
ACAD_DSTYLE_DIM_EXT1_LINETYPE
1070
   381
1005
5B
1001
ACAD_DSTYLE_DIM_EXT2_LINETYPE
1070
   382
1005
5B
  0
DIMSTYLE
105
2485
102
{ACAD_REACTORS
330
2647
330
25F9
330
2625
330
26CF
330
26AD
330
268B
330
2669
102
}
330
A
100
AcDbSymbolTableRecord
100
AcDbDimStyleTableRecord
  2
GEN-ISO
 70
     0
  3
<>
  4
"
 40
2.0
 41
2.5
 42
1.0
 43
7.0
 44
1.0
 47
0.1
 48
0.1
 73
     0
 74
     0
 77
     1
 78
     8
140
7.0
141
0.0
143
0.0393701
146
0.71
147
0.6
172
     1
176
   256
177
   256
178
     7
271
     2
272
     2
283
     0
340
55
1001
ACAD_DSTYLE_DIMJAG
1070
   388
1040
1.5
1001
ACAD_DSTYLE_DIMTALN
1070
   392
1070
     0
  0
DIMSTYLE
105
25F7
330
A
100
AcDbSymbolTableRecord
100
AcDbDimStyleTableRecord
  2
Standard$0
 70
     0
340
55
1001
ACAD_DSTYLE_DIMBREAK
1070
   391
1040
3.75
1001
ACAD_DSTYLE_DIMJAG
1070
   388
1040
1.5
  0
ENDTAB
  0
TABLE
  2
BLOCK_RECORD
  5
1
330
0
100
AcDbSymbolTable
 70
    53
  0
BLOCK_RECORD
  5
6C
330
1
100
AcDbSymbolTableRecord
100
AcDbBlockTableRecord
  2
*Model_Space
340
6F
  0
BLOCK_RECORD
  5
68
330
1
100
AcDbSymbolTableRecord
100
AcDbBlockTableRecord
  2
*Paper_Space
340
6B
  0
BLOCK_RECORD
  5
70
330
1
100
AcDbSymbolTableRecord
100
AcDbBlockTableRecord
  2
*Paper_Space0
340
73
  0
BLOCK_RECORD
  5
98
330
1
100
AcDbSymbolTableRecord
100
AcDbBlockTableRecord
  2
Filled-1
340
0
  0
BLOCK_RECORD
  5
B4
330
1
100
AcDbSymbolTableRecord
100
AcDbBlockTableRecord
  2
_Closed
340
0
  0
BLOCK_RECORD
  5
BB
330
1
100
AcDbSymbolTableRecord
100
AcDbBlockTableRecord
  2
DatumFilled45
340
0
  0
BLOCK_RECORD
  5
C6
330
1
100
AcDbSymbolTableRecord
100
AcDbBlockTableRecord
  2
WIG-svarovani
340
0
  0
BLOCK_RECORD
  5
CB
330
1
100
AcDbSymbolTableRecord
100
AcDbBlockTableRecord
  2
Popis kotvy_srouby
340
0
  0
BLOCK_RECORD
  5
CF
330
1
100
AcDbSymbolTableRecord
100
AcDbBlockTableRecord
  2
Mater. provedeni Art.
340
0
  0
BLOCK_RECORD
  5
F1
330
1
100
AcDbSymbolTableRecord
100
AcDbBlockTableRecord
  2
Art. s popisy
340
0
  0
BLOCK_RECORD
  5
113
330
1
100
AcDbSymbolTableRecord
100
AcDbBlockTableRecord
  2
Tryskat
340
0
  0
BLOCK_RECORD
  5
117
330
1
100
AcDbSymbolTableRecord
100
AcDbBlockTableRecord
  2
Morit
340
0
  0
BLOCK_RECORD
  5
11B
330
1
100
AcDbSymbolTableRecord
100
AcDbBlockTableRecord
  2
zinkovat
340
0
  0
BLOCK_RECORD
  5
11F
330
1
100
AcDbSymbolTableRecord
100
AcDbBlockTableRecord
  2
Nater
340
0
  0
BLOCK_RECORD
  5
123
330
1
100
AcDbSymbolTableRecord
100
AcDbBlockTableRecord
  2
Brus
340
0
  0
BLOCK_RECORD
  5
127
330
1
100
AcDbSymbolTableRecord
100
AcDbBlockTableRecord
  2
Elektroliticky lestit
340
0
  0
BLOCK_RECORD
  5
12C
330
1
100
AcDbSymbolTableRecord
100
AcDbBlockTableRecord
  2
Rámečky Default Border
340
0
  0
BLOCK_RECORD
  5
183
330
1
100
AcDbSymbolTableRecord
100
AcDbBlockTableRecord
  2
Rohová razítka ACO-razitko
340
0
  0
BLOCK_RECORD
  5
1D42
330
1
100
AcDbSymbolTableRecord
100
AcDbBlockTableRecord
  2
KUSOVNÍK
340
0
  0
BLOCK_RECORD
  5
1D96
330
1
100
AcDbSymbolTableRecord
100
AcDbBlockTableRecord
  2
*D17
340
0
  0
BLOCK_RECORD
  5
1E78
330
1
100
AcDbSymbolTableRecord
100
AcDbBlockTableRecord
  2
*D18
340
0
  0
BLOCK_RECORD
  5
1F5E
330
1
100
AcDbSymbolTableRecord
100
AcDbBlockTableRecord
  2
*D19
340
0
  0
BLOCK_RECORD
  5
203F
330
1
100
AcDbSymbolTableRecord
100
AcDbBlockTableRecord
  2
Pozice1
340
0
  0
BLOCK_RECORD
  5
2052
330
1
100
AcDbSymbolTableRecord
100
AcDbBlockTableRecord
  2
*D21
340
0
  0
BLOCK_RECORD
  5
2129
330
1
100
AcDbSymbolTableRecord
100
AcDbBlockTableRecord
  2
*D22
340
0
  0
BLOCK_RECORD
  5
2205
330
1
100
AcDbSymbolTableRecord
100
AcDbBlockTableRecord
  2
*D23
340
0
  0
BLOCK_RECORD
  5
22E0
330
1
100
AcDbSymbolTableRecord
100
AcDbBlockTableRecord
  2
Pozice2
340
0
  0
BLOCK_RECORD
  5
22F2
330
1
100
AcDbSymbolTableRecord
100
AcDbBlockTableRecord
  2
Pozice3
340
0
  0
BLOCK_RECORD
  5
2306
330
1
100
AcDbSymbolTableRecord
100
AcDbBlockTableRecord
  2
Pozice4
340
0
  0
BLOCK_RECORD
  5
2318
330
1
100
AcDbSymbolTableRecord
100
AcDbBlockTableRecord
  2
Pozice5
340
0
  0
BLOCK_RECORD
  5
232A
330
1
100
AcDbSymbolTableRecord
100
AcDbBlockTableRecord
  2
Pozice6
340
0
  0
BLOCK_RECORD
  5
2412
330
1
100
AcDbSymbolTableRecord
100
AcDbBlockTableRecord
  2
GENAXEH
340
0
  0
BLOCK_RECORD
  5
242C
330
1
100
AcDbSymbolTableRecord
100
AcDbBlockTableRecord
  2
*D30
340
0
  0
BLOCK_RECORD
  5
2438
330
1
100
AcDbSymbolTableRecord
100
AcDbBlockTableRecord
  2
*D31
340
0
  0
BLOCK_RECORD
  5
2444
330
1
100
AcDbSymbolTableRecord
100
AcDbBlockTableRecord
  2
*D32
340
0
  0
BLOCK_RECORD
  5
2450
330
1
100
AcDbSymbolTableRecord
100
AcDbBlockTableRecord
  2
*D33
340
0
  0
BLOCK_RECORD
  5
245C
330
1
100
AcDbSymbolTableRecord
100
AcDbBlockTableRecord
  2
*D34
340
0
  0
BLOCK_RECORD
  5
2468
330
1
100
AcDbSymbolTableRecord
100
AcDbBlockTableRecord
  2
*D35
340
0
  0
BLOCK_RECORD
  5
2474
330
1
100
AcDbSymbolTableRecord
100
AcDbBlockTableRecord
  2
*D36
340
0
  0
BLOCK_RECORD
  5
2541
330
1
100
AcDbSymbolTableRecord
100
AcDbBlockTableRecord
  2
*D37
340
0
  0
BLOCK_RECORD
  5
254D
330
1
100
AcDbSymbolTableRecord
100
AcDbBlockTableRecord
  2
*D38
340
0
  0
BLOCK_RECORD
  5
2559
330
1
100
AcDbSymbolTableRecord
100
AcDbBlockTableRecord
  2
*D39
340
0
  0
BLOCK_RECORD
  5
2565
330
1
100
AcDbSymbolTableRecord
100
AcDbBlockTableRecord
  2
*D40
340
0
  0
BLOCK_RECORD
  5
2571
330
1
100
AcDbSymbolTableRecord
100
AcDbBlockTableRecord
  2
*D41
340
0
  0
BLOCK_RECORD
  5
257D
330
1
100
AcDbSymbolTableRecord
100
AcDbBlockTableRecord
  2
*D42
340
0
  0
BLOCK_RECORD
  5
2589
330
1
100
AcDbSymbolTableRecord
100
AcDbBlockTableRecord
  2
*D43
340
0
  0
BLOCK_RECORD
  5
25FA
330
1
100
AcDbSymbolTableRecord
100
AcDbBlockTableRecord
  2
*D44
340
0
  0
BLOCK_RECORD
  5
2626
330
1
100
AcDbSymbolTableRecord
100
AcDbBlockTableRecord
  2
*D45
340
0
  0
BLOCK_RECORD
  5
2648
330
1
100
AcDbSymbolTableRecord
100
AcDbBlockTableRecord
  2
*D46
340
0
  0
BLOCK_RECORD
  5
266A
330
1
100
AcDbSymbolTableRecord
100
AcDbBlockTableRecord
  2
*D47
340
0
  0
BLOCK_RECORD
  5
268C
330
1
100
AcDbSymbolTableRecord
100
AcDbBlockTableRecord
  2
*D48
340
0
  0
BLOCK_RECORD
  5
26AE
330
1
100
AcDbSymbolTableRecord
100
AcDbBlockTableRecord
  2
*D49
340
0
  0
BLOCK_RECORD
  5
26D0
330
1
100
AcDbSymbolTableRecord
100
AcDbBlockTableRecord
  2
*D50
340
0
  0
ENDTAB
  0
ENDSEC
  0
SECTION
  2
BLOCKS
  0
BLOCK
  5
6D
330
6C
100
AcDbEntity
  8
0
100
AcDbBlockBegin
  2
*Model_Space
 70
     0
 10
0.0
 20
0.0
 30
0.0
  3
*Model_Space
  1

  0
ENDBLK
  5
6E
330
6C
100
AcDbEntity
  8
0
100
AcDbBlockEnd
  0
BLOCK
  5
69
330
68
100
AcDbEntity
 67
     1
  8
0
100
AcDbBlockBegin
  2
*Paper_Space
 70
     0
 10
0.0
 20
0.0
 30
0.0
  3
*Paper_Space
  1

  0
ENDBLK
  5
6A
330
68
100
AcDbEntity
 67
     1
  8
0
100
AcDbBlockEnd
  0
BLOCK
  5
71
330
70
100
AcDbEntity
 67
     1
  8
0
100
AcDbBlockBegin
  2
*Paper_Space0
 70
     0
 10
0.0
 20
0.0
 30
0.0
  3
*Paper_Space0
  1

  0
ENDBLK
  5
72
330
70
100
AcDbEntity
 67
     1
  8
0
100
AcDbBlockEnd
  0
BLOCK
  5
99
330
98
100
AcDbEntity
  8
0
100
AcDbBlockBegin
  2
Filled-1
 70
     0
 10
0.0
 20
0.0
 30
0.0
  3
Filled-1
  1

  0
LINE
  5
9B
330
98
100
AcDbEntity
  8
0
 62
     0
100
AcDbLine
 10
-1.0
 20
0.0
 30
0.0
 11
0.0
 21
0.0
 31
0.0
  0
POLYLINE
  5
9D
330
98
100
AcDbEntity
  8
0
 62
     0
100
AcDb2dPolyline
 66
     1
 10
0.0
 20
0.0
 30
0.0
 70
   128
  0
VERTEX
  5
9E
330
9D
100
AcDbEntity
  8
0
 62
     0
100
AcDbVertex
100
AcDb2dVertex
 10
-1.0
 20
-0.1
 30
0.0
  0
VERTEX
  5
9F
330
9D
100
AcDbEntity
  8
0
 62
     0
100
AcDbVertex
100
AcDb2dVertex
 10
0.0
 20
0.0
 30
0.0
  0
VERTEX
  5
A1
330
9D
100
AcDbEntity
  8
0
 62
     0
100
AcDbVertex
100
AcDb2dVertex
 10
-1.0
 20
0.1
 30
0.0
  0
VERTEX
  5
A2
330
9D
100
AcDbEntity
  8
0
 62
     0
100
AcDbVertex
100
AcDb2dVertex
 10
-1.0
 20
-0.1
 30
0.0
  0
SEQEND
  5
A0
330
9D
100
AcDbEntity
  8
0
 62
     0
  0
SOLID
  5
A3
330
98
100
AcDbEntity
  8
0
 62
     0
100
AcDbTrace
 10
-1.0
 20
-0.1
 30
0.0
 11
0.0
 21
0.0
 31
0.0
 12
-1.0
 22
0.1
 32
0.0
 13
-1.0
 23
-0.1
 33
0.0
  0
LINE
  5
A4
330
98
100
AcDbEntity
  8
0
 62
     0
100
AcDbLine
 10
-1.0
 20
-0.1
 30
0.0
 11
0.0
 21
0.0
 31
0.0
  0
LINE
  5
A5
330
98
100
AcDbEntity
  8
0
 62
     0
100
AcDbLine
 10
0.0
 20
0.0
 30
0.0
 11
-1.0
 21
0.1
 31
0.0
  0
LINE
  5
A6
330
98
100
AcDbEntity
  8
0
 62
     0
100
AcDbLine
 10
-1.0
 20
0.1
 30
0.0
 11
-1.0
 21
-0.1
 31
0.0
  0
ENDBLK
  5
9A
330
98
100
AcDbEntity
  8
0
100
AcDbBlockEnd
  0
BLOCK
  5
B9
330
B4
100
AcDbEntity
  8
0
100
AcDbBlockBegin
  2
_Closed
 70
     0
 10
0.0
 20
0.0
 30
0.0
  3
_Closed
  1

  0
LINE
  5
B5
330
B4
100
AcDbEntity
  8
0
  6
ByBlock
 62
     0
370
    -2
100
AcDbLine
 10
-1.0
 20
0.1666666666666666
 30
0.0
 11
0.0
 21
0.0
 31
0.0
  0
LINE
  5
B6
330
B4
100
AcDbEntity
  8
0
  6
ByBlock
 62
     0
370
    -2
100
AcDbLine
 10
0.0
 20
0.0
 30
0.0
 11
-1.0
 21
-0.1666666666666666
 31
0.0
  0
LINE
  5
B7
330
B4
100
AcDbEntity
  8
0
  6
ByBlock
 62
     0
370
    -2
100
AcDbLine
 10
-1.0
 20
0.1666666666666666
 30
0.0
 11
-1.0
 21
-0.1666666666666666
 31
0.0
  0
LINE
  5
B8
330
B4
100
AcDbEntity
  8
0
  6
ByBlock
 62
     0
370
    -2
100
AcDbLine
 10
0.0
 20
0.0
 30
0.0
 11
-1.0
 21
0.0
 31
0.0
  0
ENDBLK
  5
BA
330
B4
100
AcDbEntity
  8
0
100
AcDbBlockEnd
  0
BLOCK
  5
BC
330
BB
100
AcDbEntity
  8
0
100
AcDbBlockBegin
  2
DatumFilled45
 70
     0
 10
0.0
 20
0.0
 30
0.0
  3
DatumFilled45
  1

  0
POLYLINE
  5
BE
330
BB
100
AcDbEntity
  8
0
 62
     0
100
AcDb2dPolyline
 66
     1
 10
0.0
 20
0.0
 30
0.0
 70
   128
  0
VERTEX
  5
BF
330
BE
100
AcDbEntity
  8
0
 62
     0
100
AcDbVertex
100
AcDb2dVertex
 10
0.0
 20
1.0
 30
0.0
  0
VERTEX
  5
C0
330
BE
100
AcDbEntity
  8
0
 62
     0
100
AcDbVertex
100
AcDb2dVertex
 10
0.0
 20
-1.0
 30
0.0
  0
VERTEX
  5
C2
330
BE
100
AcDbEntity
  8
0
 62
     0
100
AcDbVertex
100
AcDb2dVertex
 10
-1.0
 20
0.0
 30
0.0
  0
VERTEX
  5
C3
330
BE
100
AcDbEntity
  8
0
 62
     0
100
AcDbVertex
100
AcDb2dVertex
 10
0.0
 20
1.0
 30
0.0
  0
SEQEND
  5
C1
330
BE
100
AcDbEntity
  8
0
 62
     0
  0
SOLID
  5
C4
330
BB
100
AcDbEntity
  8
0
 62
     0
100
AcDbTrace
 10
0.0
 20
1.0
 30
0.0
 11
0.0
 21
-1.0
 31
0.0
 12
-1.0
 22
0.0
 32
0.0
 13
0.0
 23
1.0
 33
0.0
  0
ENDBLK
  5
BD
330
BB
100
AcDbEntity
  8
0
100
AcDbBlockEnd
  0
BLOCK
  5
C7
330
C6
100
AcDbEntity
  8
0
100
AcDbBlockBegin
  2
WIG-svarovani
 70
     0
 10
0.0
 20
0.0
 30
0.0
  3
WIG-svarovani
  1

  0
MTEXT
  5
C9
102
{ACAD_XDICTIONARY
360
2894
102
}
330
C6
100
AcDbEntity
  8
Značka (ISO)
100
AcDbMText
 10
-57.87338256835937
 20
16.31795931607484
 30
0.0
 40
3.499999940395355
 41
115.7467651367187
 71
     1
 72
     1
  1
WIG Schweisung, Nahte sauber geschliffen und poliert\PSichtstege geschliffen mit 240 Korn und abgeklebt.\P{\H0.85714x; \P\H1.1667x;WIG svarovani- svary dle potreby zabrousit.\PPohledove plochy brousit (vel. brusnych zrn 240)\Pa polepit paskou}
  7
Text poznámky (ISO)
 73
     1
 44
0.9596589207649229
  0
ENDBLK
  5
C8
330
C6
100
AcDbEntity
  8
0
100
AcDbBlockEnd
  0
BLOCK
  5
CC
330
CB
100
AcDbEntity
  8
0
100
AcDbBlockBegin
  2
Popis kotvy_srouby
 70
     0
 10
0.0
 20
0.0
 30
0.0
  3
Popis kotvy_srouby
  1

  0
MTEXT
  5
CE
330
CB
100
AcDbEntity
  8
Značka (ISO)
100
AcDbMText
 10
-39.79761123657226
 20
21.84130281209946
 30
0.0
 40
3.499999940395355
 41
0.0
 71
     1
 72
     1
  1
Vzdalenost nivel. sroubu ca. 1500\PVzdalenost kotev ca. 400\PVzdalenost dist. koliku ca. 250\P\PAbstand der Nivellieschraben ca.1500\PAbstand der Maueranker ca.400\PAbstand der Distanzstege ca.250\P
  7
Text poznámky (ISO)
 73
     2
 44
0.9878841638565063
  0
ENDBLK
  5
CD
330
CB
100
AcDbEntity
  8
0
100
AcDbBlockEnd
  0
BLOCK
  5
D0
330
CF
100
AcDbEntity
  8
0
100
AcDbBlockBegin
  2
Mater. provedeni Art.
 70
     0
 10
0.0
 20
0.0
 30
0.0
  3
Mater. provedeni Art.
  1

  0
LINE
  5
D2
330
CF
100
AcDbEntity
  8
Geometrie náčrtu (ISO)
100
AcDbLine
 10
-35.0
 20
-22.5
 30
0.0
 11
35.0
 21
-22.5
 31
0.0
  0
LINE
  5
D3
330
CF
100
AcDbEntity
  8
Geometrie náčrtu (ISO)
100
AcDbLine
 10
35.0
 20
-22.5
 30
0.0
 11
34.99999999999996
 21
-13.49999999999998
 31
0.0
  0
LINE
  5
D4
330
CF
100
AcDbEntity
  8
Geometrie náčrtu (ISO)
100
AcDbLine
 10
34.99999999999996
 20
-13.49999999999998
 30
0.0
 11
-35.00000000000003
 21
-13.49999999999998
 31
0.0
  0
LINE
  5
D5
330
CF
100
AcDbEntity
  8
Geometrie náčrtu (ISO)
100
AcDbLine
 10
-35.00000000000003
 20
-13.49999999999998
 30
0.0
 11
-35.0
 21
-22.5
 31
0.0
  0
LINE
  5
D6
330
CF
100
AcDbEntity
  8
Geometrie náčrtu (ISO)
100
AcDbLine
 10
-35.00000000000003
 20
-13.49999999999998
 30
0.0
 11
34.99999999999996
 21
-13.49999999999998
 31
0.0
  0
LINE
  5
D7
330
CF
100
AcDbEntity
  8
Geometrie náčrtu (ISO)
100
AcDbLine
 10
34.99999999999996
 20
-13.49999999999998
 30
0.0
 11
34.99999999999996
 21
-4.499999999999992
 31
0.0
  0
LINE
  5
D8
330
CF
100
AcDbEntity
  8
Geometrie náčrtu (ISO)
100
AcDbLine
 10
34.99999999999996
 20
-4.499999999999992
 30
0.0
 11
-35.00000000000003
 21
-4.499999999999992
 31
0.0
  0
LINE
  5
D9
330
CF
100
AcDbEntity
  8
Geometrie náčrtu (ISO)
100
AcDbLine
 10
-35.00000000000003
 20
-4.499999999999992
 30
0.0
 11
-35.00000000000003
 21
-13.49999999999998
 31
0.0
  0
LINE
  5
DA
330
CF
100
AcDbEntity
  8
Geometrie náčrtu (ISO)
100
AcDbLine
 10
-35.00000000000003
 20
-4.499999999999992
 30
0.0
 11
34.99999999999996
 21
-4.499999999999992
 31
0.0
  0
LINE
  5
DB
330
CF
100
AcDbEntity
  8
Geometrie náčrtu (ISO)
100
AcDbLine
 10
34.99999999999996
 20
-4.499999999999992
 30
0.0
 11
34.99999999999996
 21
4.499999999999992
 31
0.0
  0
LINE
  5
DC
330
CF
100
AcDbEntity
  8
Geometrie náčrtu (ISO)
100
AcDbLine
 10
34.99999999999996
 20
4.499999999999992
 30
0.0
 11
-35.00000000000003
 21
4.499999999999992
 31
0.0
  0
LINE
  5
DD
330
CF
100
AcDbEntity
  8
Geometrie náčrtu (ISO)
100
AcDbLine
 10
-35.00000000000003
 20
4.499999999999992
 30
0.0
 11
-35.00000000000003
 21
-4.499999999999992
 31
0.0
  0
LINE
  5
DE
330
CF
100
AcDbEntity
  8
Geometrie náčrtu (ISO)
100
AcDbLine
 10
-35.00000000000003
 20
4.499999999999992
 30
0.0
 11
34.99999999999996
 21
4.499999999999992
 31
0.0
  0
LINE
  5
DF
330
CF
100
AcDbEntity
  8
Geometrie náčrtu (ISO)
100
AcDbLine
 10
34.99999999999996
 20
4.499999999999992
 30
0.0
 11
34.99999999999996
 21
13.50000000000001
 31
0.0
  0
LINE
  5
E0
330
CF
100
AcDbEntity
  8
Geometrie náčrtu (ISO)
100
AcDbLine
 10
34.99999999999996
 20
13.50000000000001
 30
0.0
 11
-35.00000000000003
 21
13.50000000000001
 31
0.0
  0
LINE
  5
E1
330
CF
100
AcDbEntity
  8
Geometrie náčrtu (ISO)
100
AcDbLine
 10
-35.00000000000003
 20
13.50000000000001
 30
0.0
 11
-35.00000000000003
 21
4.499999999999992
 31
0.0
  0
LINE
  5
E2
330
CF
100
AcDbEntity
  8
Geometrie náčrtu (ISO)
100
AcDbLine
 10
-35.00000000000003
 20
13.50000000000001
 30
0.0
 11
34.99999999999996
 21
13.50000000000001
 31
0.0
  0
LINE
  5
E3
330
CF
100
AcDbEntity
  8
Geometrie náčrtu (ISO)
100
AcDbLine
 10
34.99999999999996
 20
13.50000000000001
 30
0.0
 11
34.99999999999996
 21
22.5
 31
0.0
  0
LINE
  5
E4
330
CF
100
AcDbEntity
  8
Geometrie náčrtu (ISO)
100
AcDbLine
 10
34.99999999999996
 20
22.5
 30
0.0
 11
-35.00000000000003
 21
22.5
 31
0.0
  0
LINE
  5
E5
330
CF
100
AcDbEntity
  8
Geometrie náčrtu (ISO)
100
AcDbLine
 10
-35.00000000000003
 20
22.5
 30
0.0
 11
-35.00000000000003
 21
13.50000000000001
 31
0.0
  0
LINE
  5
E6
330
CF
100
AcDbEntity
  8
Geometrie náčrtu (ISO)
100
AcDbLine
 10
-6.999999999999992
 20
22.5
 30
0.0
 11
-6.999999999999992
 21
-22.5
 31
0.0
  0
MTEXT
  5
E7
330
CF
100
AcDbEntity
  8
Značka (ISO)
100
AcDbMText
 10
-5.126613448311374
 20
11.7684641726084
 30
0.0
 40
5.0
 41
0.0
 71
     1
 72
     1
  1
\fTahoma|b0|i0;\H5.0000;xxxxxxxxxxx
  7
Text poznámky (ISO)
 73
     1
 44
1.0
  0
MTEXT
  5
E8
330
CF
100
AcDbEntity
  8
Značka (ISO)
100
AcDbMText
 10
-33.0130165251342
 20
11.7684641726084
 30
0.0
 40
5.0
 41
20.42139291763306
 71
     1
 72
     1
  1
\fTahoma|b0|i0;\H5.0000;xxxxxx
  7
Text poznámky (ISO)
 73
     1
 44
1.0
  0
MTEXT
  5
E9
330
CF
100
AcDbEntity
  8
Značka (ISO)
100
AcDbMText
 10
-32.07756235018873
 20
20.30710993714994
 30
0.0
 40
5.0
 41
13.92583036716939
 71
     1
 72
     1
  1
\fTahoma|b0|i0;\H5.0000;Art.
  7
Text poznámky (ISO)
 73
     1
 44
1.0
  0
MTEXT
  5
EA
330
CF
100
AcDbEntity
  8
Značka (ISO)
100
AcDbMText
 10
4.291672002492318
 20
20.30710993714994
 30
0.0
 40
5.0
 41
0.0
 71
     1
 72
     1
  1
\fTahoma|b0|i0;\H5.0000;Mat.
  7
Text poznámky (ISO)
 73
     1
 44
1.0
  0
MTEXT
  5
EB
330
CF
100
AcDbEntity
  8
Značka (ISO)
100
AcDbMText
 10
-33.0130165251342
 20
2.473781856899818
 30
0.0
 40
5.0
 41
20.42139291763306
 71
     1
 72
     1
  1
\fTahoma|b0|i0;\H5.0000;xxxxxx
  7
Text poznámky (ISO)
 73
     1
 44
1.0
  0
MTEXT
  5
EC
330
CF
100
AcDbEntity
  8
Značka (ISO)
100
AcDbMText
 10
-5.126613448311374
 20
2.473781856899818
 30
0.0
 40
5.0
 41
0.0
 71
     1
 72
     1
  1
\fTahoma|b0|i0;\H5.0000;xxxxxxxxxxx
  7
Text poznámky (ISO)
 73
     1
 44
1.0
  0
MTEXT
  5
ED
330
CF
100
AcDbEntity
  8
Značka (ISO)
100
AcDbMText
 10
-33.0130165251342
 20
-6.862452441171491
 30
0.0
 40
5.0
 41
20.42139291763306
 71
     1
 72
     1
  1
\fTahoma|b0|i0;\H5.0000;xxxxxx
  7
Text poznámky (ISO)
 73
     1
 44
1.0
  0
MTEXT
  5
EE
330
CF
100
AcDbEntity
  8
Značka (ISO)
100
AcDbMText
 10
-5.126613448311374
 20
-6.862452441171491
 30
0.0
 40
5.0
 41
0.0
 71
     1
 72
     1
  1
\fTahoma|b0|i0;\H5.0000;xxxxxxxxxxx
  7
Text poznámky (ISO)
 73
     1
 44
1.0
  0
MTEXT
  5
EF
330
CF
100
AcDbEntity
  8
Značka (ISO)
100
AcDbMText
 10
-33.0130165251342
 20
-15.52177565039578
 30
0.0
 40
5.0
 41
20.42139291763306
 71
     1
 72
     1
  1
\fTahoma|b0|i0;\H5.0000;xxxxxx
  7
Text poznámky (ISO)
 73
     1
 44
1.0
  0
MTEXT
  5
F0
330
CF
100
AcDbEntity
  8
Značka (ISO)
100
AcDbMText
 10
-5.126613448311374
 20
-15.52177565039578
 30
0.0
 40
5.0
 41
0.0
 71
     1
 72
     1
  1
\fTahoma|b0|i0;\H5.0000;xxxxxxxxxxx
  7
Text poznámky (ISO)
 73
     1
 44
1.0
  0
ENDBLK
  5
D1
330
CF
100
AcDbEntity
  8
0
100
AcDbBlockEnd
  0
BLOCK
  5
F2
330
F1
100
AcDbEntity
  8
0
100
AcDbBlockBegin
  2
Art. s popisy
 70
     0
 10
0.0
 20
0.0
 30
0.0
  3
Art. s popisy
  1

  0
LINE
  5
F4
330
F1
100
AcDbEntity
  8
Geometrie náčrtu (ISO)
100
AcDbLine
 10
-60.00000000000081
 20
-22.5
 30
0.0
 11
59.99999999999911
 21
-22.5
 31
0.0
  0
LINE
  5
F5
330
F1
100
AcDbEntity
  8
Geometrie náčrtu (ISO)
100
AcDbLine
 10
59.99999999999911
 20
-22.5
 30
0.0
 11
60.00000000000081
 21
-13.50000000000001
 31
0.0
  0
LINE
  5
F6
330
F1
100
AcDbEntity
  8
Geometrie náčrtu (ISO)
100
AcDbLine
 10
60.00000000000081
 20
-13.50000000000001
 30
0.0
 11
-60.00000000000081
 21
-13.49999999999998
 31
0.0
  0
LINE
  5
F7
330
F1
100
AcDbEntity
  8
Geometrie náčrtu (ISO)
100
AcDbLine
 10
-60.00000000000081
 20
-13.49999999999998
 30
0.0
 11
-60.00000000000081
 21
-22.5
 31
0.0
  0
LINE
  5
F8
330
F1
100
AcDbEntity
  8
Geometrie náčrtu (ISO)
100
AcDbLine
 10
-60.00000000000081
 20
-13.49999999999998
 30
0.0
 11
60.00000000000081
 21
-13.50000000000001
 31
0.0
  0
LINE
  5
F9
330
F1
100
AcDbEntity
  8
Geometrie náčrtu (ISO)
100
AcDbLine
 10
60.00000000000081
 20
-13.50000000000001
 30
0.0
 11
59.99999999999911
 21
-4.500000000000028
 31
0.0
  0
LINE
  5
FA
330
F1
100
AcDbEntity
  8
Geometrie náčrtu (ISO)
100
AcDbLine
 10
59.99999999999911
 20
-4.500000000000028
 30
0.0
 11
-60.00000000000081
 21
-4.499999999999992
 31
0.0
  0
LINE
  5
FB
330
F1
100
AcDbEntity
  8
Geometrie náčrtu (ISO)
100
AcDbLine
 10
-60.00000000000081
 20
-4.499999999999992
 30
0.0
 11
-60.00000000000081
 21
-13.49999999999998
 31
0.0
  0
LINE
  5
FC
330
F1
100
AcDbEntity
  8
Geometrie náčrtu (ISO)
100
AcDbLine
 10
-60.00000000000081
 20
-4.499999999999992
 30
0.0
 11
59.99999999999911
 21
-4.500000000000028
 31
0.0
  0
LINE
  5
FD
330
F1
100
AcDbEntity
  8
Geometrie náčrtu (ISO)
100
AcDbLine
 10
59.99999999999911
 20
-4.500000000000028
 30
0.0
 11
59.99999999999911
 21
4.499999999999957
 31
0.0
  0
LINE
  5
FE
330
F1
100
AcDbEntity
  8
Geometrie náčrtu (ISO)
100
AcDbLine
 10
59.99999999999911
 20
4.499999999999957
 30
0.0
 11
-60.00000000000081
 21
4.499999999999992
 31
0.0
  0
LINE
  5
FF
330
F1
100
AcDbEntity
  8
Geometrie náčrtu (ISO)
100
AcDbLine
 10
-60.00000000000081
 20
4.499999999999992
 30
0.0
 11
-60.00000000000081
 21
-4.499999999999992
 31
0.0
  0
LINE
  5
100
330
F1
100
AcDbEntity
  8
Geometrie náčrtu (ISO)
100
AcDbLine
 10
-60.00000000000081
 20
4.499999999999992
 30
0.0
 11
59.99999999999911
 21
4.499999999999957
 31
0.0
  0
LINE
  5
101
330
F1
100
AcDbEntity
  8
Geometrie náčrtu (ISO)
100
AcDbLine
 10
59.99999999999911
 20
4.499999999999957
 30
0.0
 11
59.99999999999911
 21
13.49999999999998
 31
0.0
  0
LINE
  5
102
330
F1
100
AcDbEntity
  8
Geometrie náčrtu (ISO)
100
AcDbLine
 10
59.99999999999911
 20
13.49999999999998
 30
0.0
 11
-60.00000000000081
 21
13.50000000000001
 31
0.0
  0
LINE
  5
103
330
F1
100
AcDbEntity
  8
Geometrie náčrtu (ISO)
100
AcDbLine
 10
-60.00000000000081
 20
13.50000000000001
 30
0.0
 11
-60.00000000000081
 21
4.499999999999992
 31
0.0
  0
LINE
  5
104
330
F1
100
AcDbEntity
  8
Geometrie náčrtu (ISO)
100
AcDbLine
 10
-60.00000000000081
 20
13.50000000000001
 30
0.0
 11
59.99999999999911
 21
13.49999999999998
 31
0.0
  0
LINE
  5
105
330
F1
100
AcDbEntity
  8
Geometrie náčrtu (ISO)
100
AcDbLine
 10
59.99999999999911
 20
13.49999999999998
 30
0.0
 11
59.99999999999911
 21
22.49999999999996
 31
0.0
  0
LINE
  5
106
330
F1
100
AcDbEntity
  8
Geometrie náčrtu (ISO)
100
AcDbLine
 10
59.99999999999911
 20
22.49999999999996
 30
0.0
 11
-60.00000000000081
 21
22.5
 31
0.0
  0
LINE
  5
107
330
F1
100
AcDbEntity
  8
Geometrie náčrtu (ISO)
100
AcDbLine
 10
-60.00000000000081
 20
22.5
 30
0.0
 11
-60.00000000000081
 21
13.50000000000001
 31
0.0
  0
LINE
  5
108
330
F1
100
AcDbEntity
  8
Geometrie náčrtu (ISO)
100
AcDbLine
 10
-32.00000000000081
 20
22.5
 30
0.0
 11
-32.00000000000081
 21
-22.5
 31
0.0
  0
MTEXT
  5
109
330
F1
100
AcDbEntity
  8
Značka (ISO)
100
AcDbMText
 10
-27.63552601875791
 20
11.7684641726084
 30
0.0
 40
5.0
 41
0.0
 71
     1
 72
     1
  1
\fTahoma|b0|i0;\H5.0000;xxxxxxxxxxx
  7
Text poznámky (ISO)
 73
     1
 44
1.0
  0
MTEXT
  5
10A
330
F1
100
AcDbEntity
  8
Značka (ISO)
100
AcDbMText
 10
-55.52192909558073
 20
11.7684641726084
 30
0.0
 40
5.0
 41
20.42139291763306
 71
     1
 72
     1
  1
\fTahoma|b0|i0;\H5.0000;xxxxxx
  7
Text poznámky (ISO)
 73
     1
 44
1.0
  0
MTEXT
  5
10B
330
F1
100
AcDbEntity
  8
Značka (ISO)
100
AcDbMText
 10
-54.58647492063526
 20
20.30710993714994
 30
0.0
 40
5.0
 41
13.92583036716939
 71
     1
 72
     1
  1
\fTahoma|b0|i0;\H5.0000;Art.
  7
Text poznámky (ISO)
 73
     1
 44
1.0
  0
MTEXT
  5
10C
330
F1
100
AcDbEntity
  8
Značka (ISO)
100
AcDbMText
 10
-18.21724056795421
 20
20.30710993714994
 30
0.0
 40
5.0
 41
0.0
 71
     1
 72
     1
  1
\fTahoma|b0|i0;\H5.0000;Popis.
  7
Text poznámky (ISO)
 73
     1
 44
1.0
  0
MTEXT
  5
10D
330
F1
100
AcDbEntity
  8
Značka (ISO)
100
AcDbMText
 10
-55.52192909558073
 20
2.473781856899818
 30
0.0
 40
5.0
 41
20.42139291763306
 71
     1
 72
     1
  1
\fTahoma|b0|i0;\H5.0000;xxxxxx
  7
Text poznámky (ISO)
 73
     1
 44
1.0
  0
MTEXT
  5
10E
330
F1
100
AcDbEntity
  8
Značka (ISO)
100
AcDbMText
 10
-27.63552601875791
 20
2.473781856899818
 30
0.0
 40
5.0
 41
0.0
 71
     1
 72
     1
  1
\fTahoma|b0|i0;\H5.0000;xxxxxxxxxxx
  7
Text poznámky (ISO)
 73
     1
 44
1.0
  0
MTEXT
  5
10F
330
F1
100
AcDbEntity
  8
Značka (ISO)
100
AcDbMText
 10
-55.52192909558073
 20
-6.862452441171491
 30
0.0
 40
5.0
 41
20.42139291763306
 71
     1
 72
     1
  1
\fTahoma|b0|i0;\H5.0000;xxxxxx
  7
Text poznámky (ISO)
 73
     1
 44
1.0
  0
MTEXT
  5
110
330
F1
100
AcDbEntity
  8
Značka (ISO)
100
AcDbMText
 10
-27.63552601875791
 20
-6.862452441171491
 30
0.0
 40
5.0
 41
0.0
 71
     1
 72
     1
  1
\fTahoma|b0|i0;\H5.0000;xxxxxxxxxxx
  7
Text poznámky (ISO)
 73
     1
 44
1.0
  0
MTEXT
  5
111
330
F1
100
AcDbEntity
  8
Značka (ISO)
100
AcDbMText
 10
-55.52192909558073
 20
-15.52177565039578
 30
0.0
 40
5.0
 41
20.42139291763306
 71
     1
 72
     1
  1
\fTahoma|b0|i0;\H5.0000;xxxxxx
  7
Text poznámky (ISO)
 73
     1
 44
1.0
  0
MTEXT
  5
112
330
F1
100
AcDbEntity
  8
Značka (ISO)
100
AcDbMText
 10
-27.63552601875791
 20
-15.52177565039578
 30
0.0
 40
5.0
 41
0.0
 71
     1
 72
     1
  1
\fTahoma|b0|i0;\H5.0000;xxxxxxxxxxx
  7
Text poznámky (ISO)
 73
     1
 44
1.0
  0
ENDBLK
  5
F3
330
F1
100
AcDbEntity
  8
0
100
AcDbBlockEnd
  0
BLOCK
  5
114
330
113
100
AcDbEntity
  8
0
100
AcDbBlockBegin
  2
Tryskat
 70
     0
 10
0.0
 20
0.0
 30
0.0
  3
Tryskat
  1

  0
MTEXT
  5
116
330
113
100
AcDbEntity
  8
Značka (ISO)
100
AcDbMText
 10
-30.20239114761352
 20
5.036920197308063
 30
0.0
 40
3.499999940395355
 41
0.0
 71
     1
 72
     1
  1
Tryskat \P( Blasted , Glasperlstrahken)
  7
Text poznámky (ISO)
 73
     2
 44
0.9878841638565063
  0
ENDBLK
  5
115
330
113
100
AcDbEntity
  8
0
100
AcDbBlockEnd
  0
BLOCK
  5
118
330
117
100
AcDbEntity
  8
0
100
AcDbBlockBegin
  2
Morit
 70
     0
 10
0.0
 20
0.0
 30
0.0
  3
Morit
  1

  0
MTEXT
  5
11A
330
117
100
AcDbEntity
  8
Značka (ISO)
100
AcDbMText
 10
-19.08124089241028
 20
5.11633675545454
 30
0.0
 40
3.499999940395355
 41
0.0
 71
     1
 72
     1
  1
Morit a pasivovat\P(Pickled, gebeitzt)
  7
Text poznámky (ISO)
 73
     2
 44
0.9878841638565063
  0
ENDBLK
  5
119
330
117
100
AcDbEntity
  8
0
100
AcDbBlockEnd
  0
BLOCK
  5
11C
330
11B
100
AcDbEntity
  8
0
100
AcDbBlockBegin
  2
zinkovat
 70
     0
 10
0.0
 20
0.0
 30
0.0
  3
zinkovat
  1

  0
MTEXT
  5
11E
330
11B
100
AcDbEntity
  8
Značka (ISO)
100
AcDbMText
 10
-27.74189710617065
 20
5.049683563411234
 30
0.0
 40
3.499999940395355
 41
0.0
 71
     1
 72
     1
  1
Zarove zinkovat\P(hot galvanized, verzinkt )
  7
Text poznámky (ISO)
 73
     2
 44
0.9878841638565063
  0
ENDBLK
  5
11D
330
11B
100
AcDbEntity
  8
0
100
AcDbBlockEnd
  0
BLOCK
  5
120
330
11F
100
AcDbEntity
  8
0
100
AcDbBlockBegin
  2
Nater
 70
     0
 10
0.0
 20
0.0
 30
0.0
  3
Nater
  1

  0
MTEXT
  5
122
330
11F
100
AcDbEntity
  8
Značka (ISO)
100
AcDbMText
 10
-25.88411808013916
 20
1.864870421122758
 30
0.0
 40
3.499999940395355
 41
0.0
 71
     1
 72
     1
  1
Lackiert Farbe RAL 5002
  7
Text poznámky (ISO)
 73
     1
 44
1.0
  0
ENDBLK
  5
121
330
11F
100
AcDbEntity
  8
0
100
AcDbBlockEnd
  0
BLOCK
  5
124
330
123
100
AcDbEntity
  8
0
100
AcDbBlockBegin
  2
Brus
 70
     0
 10
0.0
 20
0.0
 30
0.0
  3
Brus
  1

  0
MTEXT
  5
126
330
123
100
AcDbEntity
  8
Značka (ISO)
100
AcDbMText
 10
-23.46616744995117
 20
5.11633675545454
 30
0.0
 40
3.499999940395355
 41
0.0
 71
     1
 72
     1
  1
Brousit\P(geburstet , brushed )
  7
Text poznámky (ISO)
 73
     2
 44
0.9878841638565063
  0
ENDBLK
  5
125
330
123
100
AcDbEntity
  8
0
100
AcDbBlockEnd
  0
BLOCK
  5
128
330
127
100
AcDbEntity
  8
0
100
AcDbBlockBegin
  2
Elektroliticky lestit
 70
     0
 10
0.0
 20
0.0
 30
0.0
  3
Elektroliticky lestit
  1

  0
MTEXT
  5
12A
330
127
100
AcDbEntity
  8
Značka (ISO)
100
AcDbMText
 10
-18.68841171264648
 20
5.036920197308063
 30
0.0
 40
3.499999940395355
 41
0.0
 71
     1
 72
     1
  1
Elektrolit. lestit\P(Elektropolished )
  7
Text poznámky (ISO)
 73
     2
 44
0.9878841638565063
  0
ENDBLK
  5
129
330
127
100
AcDbEntity
  8
0
100
AcDbBlockEnd
  0
BLOCK
  5
12D
330
12C
100
AcDbEntity
  8
0
100
AcDbBlockBegin
  2
Rámečky Default Border
 70
     0
 10
0.0
 20
0.0
 30
0.0
  3
Rámečky Default Border
  1

  0
POLYLINE
  5
12F
330
12C
100
AcDbEntity
  8
Rámeček (ISO)
100
AcDb2dPolyline
 66
     1
 10
0.0
 20
0.0
 30
0.0
 70
   128
  0
VERTEX
  5
130
330
12F
100
AcDbEntity
  8
Rámeček (ISO)
100
AcDbVertex
100
AcDb2dVertex
 10
10.0
 20
10.0
 30
0.0
  0
VERTEX
  5
131
330
12F
100
AcDbEntity
  8
Rámeček (ISO)
100
AcDbVertex
100
AcDb2dVertex
 10
10.0
 20
410.0
 30
0.0
  0
VERTEX
  5
133
330
12F
100
AcDbEntity
  8
Rámeček (ISO)
100
AcDbVertex
100
AcDb2dVertex
 10
584.0000152587889
 20
410.0
 30
0.0
  0
VERTEX
  5
134
330
12F
100
AcDbEntity
  8
Rámeček (ISO)
100
AcDbVertex
100
AcDb2dVertex
 10
584.0000152587889
 20
10.0
 30
0.0
  0
VERTEX
  5
135
330
12F
100
AcDbEntity
  8
Rámeček (ISO)
100
AcDbVertex
100
AcDb2dVertex
 10
10.0
 20
10.0
 30
0.0
  0
SEQEND
  5
132
330
12F
100
AcDbEntity
  8
Rámeček (ISO)
  0
POLYLINE
  5
136
330
12C
100
AcDbEntity
  8
Rámeček (ISO)
100
AcDb2dPolyline
 66
     1
 10
0.0
 20
0.0
 30
0.0
 70
   128
  0
VERTEX
  5
137
330
136
100
AcDbEntity
  8
Rámeček (ISO)
100
AcDbVertex
100
AcDb2dVertex
 10
297.0000076293946
 20
0.0
 30
0.0
  0
VERTEX
  5
138
330
136
100
AcDbEntity
  8
Rámeček (ISO)
100
AcDbVertex
100
AcDb2dVertex
 10
297.0000076293946
 20
10.0
 30
0.0
  0
VERTEX
  5
13A
330
136
100
AcDbEntity
  8
Rámeček (ISO)
100
AcDbVertex
100
AcDb2dVertex
 10
294.1132545471191
 20
5.0
 30
0.0
  0
VERTEX
  5
13B
330
136
100
AcDbEntity
  8
Rámeček (ISO)
100
AcDbVertex
100
AcDb2dVertex
 10
299.8867607116699
 20
5.0
 30
0.0
  0
VERTEX
  5
13C
330
136
100
AcDbEntity
  8
Rámeček (ISO)
100
AcDbVertex
100
AcDb2dVertex
 10
297.0000076293946
 20
10.0
 30
0.0
  0
SEQEND
  5
139
330
136
100
AcDbEntity
  8
Rámeček (ISO)
  0
POLYLINE
  5
13D
330
12C
100
AcDbEntity
  8
Rámeček (ISO)
100
AcDb2dPolyline
 66
     1
 10
0.0
 20
0.0
 30
0.0
 70
   128
  0
VERTEX
  5
13E
330
13D
100
AcDbEntity
  8
Rámeček (ISO)
100
AcDbVertex
100
AcDb2dVertex
 10
297.0000076293946
 20
420.0
 30
0.0
  0
VERTEX
  5
13F
330
13D
100
AcDbEntity
  8
Rámeček (ISO)
100
AcDbVertex
100
AcDb2dVertex
 10
297.0000076293946
 20
410.0
 30
0.0
  0
VERTEX
  5
141
330
13D
100
AcDbEntity
  8
Rámeček (ISO)
100
AcDbVertex
100
AcDb2dVertex
 10
294.1132545471191
 20
415.0
 30
0.0
  0
VERTEX
  5
142
330
13D
100
AcDbEntity
  8
Rámeček (ISO)
100
AcDbVertex
100
AcDb2dVertex
 10
299.8867607116699
 20
415.0
 30
0.0
  0
VERTEX
  5
143
330
13D
100
AcDbEntity
  8
Rámeček (ISO)
100
AcDbVertex
100
AcDb2dVertex
 10
297.0000076293946
 20
410.0
 30
0.0
  0
SEQEND
  5
140
330
13D
100
AcDbEntity
  8
Rámeček (ISO)
  0
POLYLINE
  5
144
330
12C
100
AcDbEntity
  8
Rámeček (ISO)
100
AcDb2dPolyline
 66
     1
 10
0.0
 20
0.0
 30
0.0
 70
   128
  0
VERTEX
  5
145
330
144
100
AcDbEntity
  8
Rámeček (ISO)
100
AcDbVertex
100
AcDb2dVertex
 10
0.0
 20
210.0
 30
0.0
  0
VERTEX
  5
146
330
144
100
AcDbEntity
  8
Rámeček (ISO)
100
AcDbVertex
100
AcDb2dVertex
 10
10.0
 20
210.0
 30
0.0
  0
VERTEX
  5
148
330
144
100
AcDbEntity
  8
Rámeček (ISO)
100
AcDbVertex
100
AcDb2dVertex
 10
5.0
 20
212.8867530822754
 30
0.0
  0
VERTEX
  5
149
330
144
100
AcDbEntity
  8
Rámeček (ISO)
100
AcDbVertex
100
AcDb2dVertex
 10
5.0
 20
207.1132469177246
 30
0.0
  0
VERTEX
  5
14A
330
144
100
AcDbEntity
  8
Rámeček (ISO)
100
AcDbVertex
100
AcDb2dVertex
 10
10.0
 20
210.0
 30
0.0
  0
SEQEND
  5
147
330
144
100
AcDbEntity
  8
Rámeček (ISO)
  0
POLYLINE
  5
14B
330
12C
100
AcDbEntity
  8
Rámeček (ISO)
100
AcDb2dPolyline
 66
     1
 10
0.0
 20
0.0
 30
0.0
 70
   128
  0
VERTEX
  5
14C
330
14B
100
AcDbEntity
  8
Rámeček (ISO)
100
AcDbVertex
100
AcDb2dVertex
 10
594.0000152587892
 20
210.0
 30
0.0
  0
VERTEX
  5
14D
330
14B
100
AcDbEntity
  8
Rámeček (ISO)
100
AcDbVertex
100
AcDb2dVertex
 10
584.0000152587889
 20
210.0
 30
0.0
  0
VERTEX
  5
14F
330
14B
100
AcDbEntity
  8
Rámeček (ISO)
100
AcDbVertex
100
AcDb2dVertex
 10
589.0000152587889
 20
212.8867530822754
 30
0.0
  0
VERTEX
  5
150
330
14B
100
AcDbEntity
  8
Rámeček (ISO)
100
AcDbVertex
100
AcDb2dVertex
 10
589.0000152587889
 20
207.1132469177246
 30
0.0
  0
VERTEX
  5
151
330
14B
100
AcDbEntity
  8
Rámeček (ISO)
100
AcDbVertex
100
AcDb2dVertex
 10
584.0000152587889
 20
210.0
 30
0.0
  0
SEQEND
  5
14E
330
14B
100
AcDbEntity
  8
Rámeček (ISO)
  0
LINE
  5
152
330
12C
100
AcDbEntity
  8
Rámeček (ISO)
100
AcDbLine
 10
74.25000190734862
 20
10.0
 30
0.0
 11
74.25000190734862
 21
6.100000143051147
 31
0.0
  0
LINE
  5
153
330
12C
100
AcDbEntity
  8
Rámeček (ISO)
100
AcDbLine
 10
74.25000190734862
 20
410.0
 30
0.0
 11
74.25000190734862
 21
413.8999938964842
 31
0.0
  0
LINE
  5
154
330
12C
100
AcDbEntity
  8
Rámeček (ISO)
100
AcDbLine
 10
148.5000038146973
 20
10.0
 30
0.0
 11
148.5000038146973
 21
6.100000143051147
 31
0.0
  0
LINE
  5
155
330
12C
100
AcDbEntity
  8
Rámeček (ISO)
100
AcDbLine
 10
148.5000038146973
 20
410.0
 30
0.0
 11
148.5000038146973
 21
413.8999938964842
 31
0.0
  0
LINE
  5
156
330
12C
100
AcDbEntity
  8
Rámeček (ISO)
100
AcDbLine
 10
222.7499961853027
 20
10.0
 30
0.0
 11
222.7499961853027
 21
6.100000143051147
 31
0.0
  0
LINE
  5
157
330
12C
100
AcDbEntity
  8
Rámeček (ISO)
100
AcDbLine
 10
222.7499961853027
 20
410.0
 30
0.0
 11
222.7499961853027
 21
413.8999938964842
 31
0.0
  0
LINE
  5
158
330
12C
100
AcDbEntity
  8
Rámeček (ISO)
100
AcDbLine
 10
371.25
 20
10.0
 30
0.0
 11
371.25
 21
6.100000143051147
 31
0.0
  0
LINE
  5
159
330
12C
100
AcDbEntity
  8
Rámeček (ISO)
100
AcDbLine
 10
371.25
 20
410.0
 30
0.0
 11
371.25
 21
413.8999938964842
 31
0.0
  0
LINE
  5
15A
330
12C
100
AcDbEntity
  8
Rámeček (ISO)
100
AcDbLine
 10
445.4999923706053
 20
10.0
 30
0.0
 11
445.4999923706053
 21
6.100000143051147
 31
0.0
  0
LINE
  5
15B
330
12C
100
AcDbEntity
  8
Rámeček (ISO)
100
AcDbLine
 10
445.4999923706053
 20
410.0
 30
0.0
 11
445.4999923706053
 21
413.8999938964842
 31
0.0
  0
LINE
  5
15C
330
12C
100
AcDbEntity
  8
Rámeček (ISO)
100
AcDbLine
 10
519.7499847412108
 20
10.0
 30
0.0
 11
519.7499847412108
 21
6.100000143051147
 31
0.0
  0
LINE
  5
15D
330
12C
100
AcDbEntity
  8
Rámeček (ISO)
100
AcDbLine
 10
519.7499847412108
 20
410.0
 30
0.0
 11
519.7499847412108
 21
413.8999938964842
 31
0.0
  0
MTEXT
  5
15E
330
12C
100
AcDbEntity
  8
Rámeček (ISO)
100
AcDbMText
 10
556.0853922448459
 20
410.4
 30
0.0
 40
3.499999940395355
 41
0.0
 71
     7
 72
     1
  1
1
  7
Text poznámky (ISO)
 73
     1
 44
1.0
  0
MTEXT
  5
15F
330
12C
100
AcDbEntity
  8
Rámeček (ISO)
100
AcDbMText
 10
556.0853922448459
 20
6.100000059604643
 30
0.0
 40
3.499999940395355
 41
0.0
 71
     7
 72
     1
  1
1
  7
Text poznámky (ISO)
 73
     1
 44
1.0
  0
MTEXT
  5
160
330
12C
100
AcDbEntity
  8
Rámeček (ISO)
100
AcDbMText
 10
481.5637915541735
 20
410.4
 30
0.0
 40
3.499999940395355
 41
0.0
 71
     7
 72
     1
  1
2
  7
Text poznámky (ISO)
 73
     1
 44
1.0
  0
MTEXT
  5
161
330
12C
100
AcDbEntity
  8
Rámeček (ISO)
100
AcDbMText
 10
481.5637915541735
 20
6.100000059604643
 30
0.0
 40
3.499999940395355
 41
0.0
 71
     7
 72
     1
  1
2
  7
Text poznámky (ISO)
 73
     1
 44
1.0
  0
MTEXT
  5
162
330
12C
100
AcDbEntity
  8
Rámeček (ISO)
100
AcDbMText
 10
407.2857914829701
 20
410.3262560764327
 30
0.0
 40
3.499999940395355
 41
0.0
 71
     7
 72
     1
  1
3
  7
Text poznámky (ISO)
 73
     1
 44
1.0
  0
MTEXT
  5
163
330
12C
100
AcDbEntity
  8
Rámeček (ISO)
100
AcDbMText
 10
407.2857914829701
 20
6.026256136037407
 30
0.0
 40
3.499999940395355
 41
0.0
 71
     7
 72
     1
  1
3
  7
Text poznámky (ISO)
 73
     1
 44
1.0
  0
MTEXT
  5
164
330
12C
100
AcDbEntity
  8
Rámeček (ISO)
100
AcDbMText
 10
332.9041911483145
 20
410.4
 30
0.0
 40
3.499999940395355
 41
0.0
 71
     7
 72
     1
  1
4
  7
Text poznámky (ISO)
 73
     1
 44
1.0
  0
MTEXT
  5
165
330
12C
100
AcDbEntity
  8
Rámeček (ISO)
100
AcDbMText
 10
332.9041911483145
 20
6.100000059604643
 30
0.0
 40
3.499999940395355
 41
0.0
 71
     7
 72
     1
  1
4
  7
Text poznámky (ISO)
 73
     1
 44
1.0
  0
MTEXT
  5
166
330
12C
100
AcDbEntity
  8
Rámeček (ISO)
100
AcDbMText
 10
258.8501916467381
 20
410.3262560764327
 30
0.0
 40
3.499999940395355
 41
0.0
 71
     7
 72
     1
  1
5
  7
Text poznámky (ISO)
 73
     1
 44
1.0
  0
MTEXT
  5
167
330
12C
100
AcDbEntity
  8
Rámeček (ISO)
100
AcDbMText
 10
258.8501916467381
 20
6.026256136037407
 30
0.0
 40
3.499999940395355
 41
0.0
 71
     7
 72
     1
  1
5
  7
Text poznámky (ISO)
 73
     1
 44
1.0
  0
MTEXT
  5
168
330
12C
100
AcDbEntity
  8
Rámeček (ISO)
100
AcDbMText
 10
184.5077914117669
 20
410.3262560764327
 30
0.0
 40
3.499999940395355
 41
0.0
 71
     7
 72
     1
  1
6
  7
Text poznámky (ISO)
 73
     1
 44
1.0
  0
MTEXT
  5
169
330
12C
100
AcDbEntity
  8
Rámeček (ISO)
100
AcDbMText
 10
184.5077914117669
 20
6.026256136037407
 30
0.0
 40
3.499999940395355
 41
0.0
 71
     7
 72
     1
  1
6
  7
Text poznámky (ISO)
 73
     1
 44
1.0
  0
MTEXT
  5
16A
330
12C
100
AcDbEntity
  8
Rámeček (ISO)
100
AcDbMText
 10
110.2913914972109
 20
410.4
 30
0.0
 40
3.499999940395355
 41
0.0
 71
     7
 72
     1
  1
7
  7
Text poznámky (ISO)
 73
     1
 44
1.0
  0
MTEXT
  5
16B
330
12C
100
AcDbEntity
  8
Rámeček (ISO)
100
AcDbMText
 10
110.2913914972109
 20
6.100000059604643
 30
0.0
 40
3.499999940395355
 41
0.0
 71
     7
 72
     1
  1
7
  7
Text poznámky (ISO)
 73
     1
 44
1.0
  0
MTEXT
  5
16C
330
12C
100
AcDbEntity
  8
Rámeček (ISO)
100
AcDbMText
 10
35.9825913476839
 20
410.3205834697932
 30
0.0
 40
3.499999940395355
 41
0.0
 71
     7
 72
     1
  1
8
  7
Text poznámky (ISO)
 73
     1
 44
1.0
  0
MTEXT
  5
16D
330
12C
100
AcDbEntity
  8
Rámeček (ISO)
100
AcDbMText
 10
35.9825913476839
 20
6.020583529397844
 30
0.0
 40
3.499999940395355
 41
0.0
 71
     7
 72
     1
  1
8
  7
Text poznámky (ISO)
 73
     1
 44
1.0
  0
LINE
  5
16E
330
12C
100
AcDbEntity
  8
Rámeček (ISO)
100
AcDbLine
 10
10.0
 20
70.0
 30
0.0
 11
6.100000143051147
 21
70.0
 31
0.0
  0
LINE
  5
16F
330
12C
100
AcDbEntity
  8
Rámeček (ISO)
100
AcDbLine
 10
584.0000152587889
 20
70.0
 30
0.0
 11
587.9000091552732
 21
70.0
 31
0.0
  0
LINE
  5
170
330
12C
100
AcDbEntity
  8
Rámeček (ISO)
100
AcDbLine
 10
10.0
 20
140.0
 30
0.0
 11
6.100000143051147
 21
140.0
 31
0.0
  0
LINE
  5
171
330
12C
100
AcDbEntity
  8
Rámeček (ISO)
100
AcDbLine
 10
584.0000152587889
 20
140.0
 30
0.0
 11
587.9000091552732
 21
140.0
 31
0.0
  0
LINE
  5
172
330
12C
100
AcDbEntity
  8
Rámeček (ISO)
100
AcDbLine
 10
10.0
 20
280.0
 30
0.0
 11
6.100000143051147
 21
280.0
 31
0.0
  0
LINE
  5
173
330
12C
100
AcDbEntity
  8
Rámeček (ISO)
100
AcDbLine
 10
584.0000152587889
 20
280.0
 30
0.0
 11
587.9000091552732
 21
280.0
 31
0.0
  0
LINE
  5
174
330
12C
100
AcDbEntity
  8
Rámeček (ISO)
100
AcDbLine
 10
10.0
 20
350.0
 30
0.0
 11
6.100000143051147
 21
350.0
 31
0.0
  0
LINE
  5
175
330
12C
100
AcDbEntity
  8
Rámeček (ISO)
100
AcDbLine
 10
584.0000152587889
 20
350.0
 30
0.0
 11
587.9000091552732
 21
350.0
 31
0.0
  0
MTEXT
  5
176
330
12C
100
AcDbEntity
  8
Rámeček (ISO)
100
AcDbMText
 10
6.361230343933396
 20
33.25000002980232
 30
0.0
 40
3.499999940395355
 41
0.0
 71
     7
 72
     1
  1
A
  7
Text poznámky (ISO)
 73
     1
 44
1.0
  0
MTEXT
  5
177
330
12C
100
AcDbEntity
  8
Rámeček (ISO)
100
AcDbMText
 10
584.6612302843287
 20
33.25000002980232
 30
0.0
 40
3.499999940395355
 41
0.0
 71
     7
 72
     1
  1
A
  7
Text poznámky (ISO)
 73
     1
 44
1.0
  0
MTEXT
  5
178
330
12C
100
AcDbEntity
  8
Rámeček (ISO)
100
AcDbMText
 10
6.781848468328937
 20
103.2500000298023
 30
0.0
 40
3.499999940395355
 41
0.0
 71
     7
 72
     1
  1
B
  7
Text poznámky (ISO)
 73
     1
 44
1.0
  0
MTEXT
  5
179
330
12C
100
AcDbEntity
  8
Rámeček (ISO)
100
AcDbMText
 10
585.0818484087242
 20
103.2500000298023
 30
0.0
 40
3.499999940395355
 41
0.0
 71
     7
 72
     1
  1
B
  7
Text poznámky (ISO)
 73
     1
 44
1.0
  0
MTEXT
  5
17A
330
12C
100
AcDbEntity
  8
Rámeček (ISO)
100
AcDbMText
 10
6.558903094188358
 20
173.1876013241708
 30
0.0
 40
3.499999940395355
 41
0.0
 71
     7
 72
     1
  1
C
  7
Text poznámky (ISO)
 73
     1
 44
1.0
  0
MTEXT
  5
17B
330
12C
100
AcDbEntity
  8
Rámeček (ISO)
100
AcDbMText
 10
584.8589030345837
 20
173.1876013241708
 30
0.0
 40
3.499999940395355
 41
0.0
 71
     7
 72
     1
  1
C
  7
Text poznámky (ISO)
 73
     1
 44
1.0
  0
MTEXT
  5
17C
330
12C
100
AcDbEntity
  8
Rámeček (ISO)
100
AcDbMText
 10
6.56770745709084
 20
243.2500000298023
 30
0.0
 40
3.499999940395355
 41
0.0
 71
     7
 72
     1
  1
D
  7
Text poznámky (ISO)
 73
     1
 44
1.0
  0
MTEXT
  5
17D
330
12C
100
AcDbEntity
  8
Rámeček (ISO)
100
AcDbMText
 10
584.8677073974861
 20
243.2500000298023
 30
0.0
 40
3.499999940395355
 41
0.0
 71
     7
 72
     1
  1
D
  7
Text poznámky (ISO)
 73
     1
 44
1.0
  0
MTEXT
  5
17E
330
12C
100
AcDbEntity
  8
Rámeček (ISO)
100
AcDbMText
 10
6.849919803883061
 20
313.2500000298023
 30
0.0
 40
3.499999940395355
 41
0.0
 71
     7
 72
     1
  1
E
  7
Text poznámky (ISO)
 73
     1
 44
1.0
  0
MTEXT
  5
17F
330
12C
100
AcDbEntity
  8
Rámeček (ISO)
100
AcDbMText
 10
585.1499197442782
 20
313.2500000298023
 30
0.0
 40
3.499999940395355
 41
0.0
 71
     7
 72
     1
  1
E
  7
Text poznámky (ISO)
 73
     1
 44
1.0
  0
MTEXT
  5
180
330
12C
100
AcDbEntity
  8
Rámeček (ISO)
100
AcDbMText
 10
6.944936015154347
 20
383.2500000298023
 30
0.0
 40
3.499999940395355
 41
0.0
 71
     7
 72
     1
  1
F
  7
Text poznámky (ISO)
 73
     1
 44
1.0
  0
MTEXT
  5
181
330
12C
100
AcDbEntity
  8
Rámeček (ISO)
100
AcDbMText
 10
585.2449359555496
 20
383.2500000298023
 30
0.0
 40
3.499999940395355
 41
0.0
 71
     7
 72
     1
  1
F
  7
Text poznámky (ISO)
 73
     1
 44
1.0
  0
ENDBLK
  5
12E
330
12C
100
AcDbEntity
  8
0
100
AcDbBlockEnd
  0
BLOCK
  5
184
330
183
100
AcDbEntity
  8
0
100
AcDbBlockBegin
  2
Rohová razítka ACO-razitko
 70
     2
 10
0.0
 20
0.0
 30
0.0
  3
Rohová razítka ACO-razitko
  1

  0
LINE
  5
186
330
183
100
AcDbEntity
  8
KOPF
  6
Continuous
370
    25
100
AcDbLine
 10
264.0
 20
94.01203200000001
 30
0.0
 11
264.0
 21
74.00000000000003
 31
0.0
  0
LINE
  5
187
330
183
100
AcDbEntity
  8
KOPF
  6
Continuous
370
    25
100
AcDbLine
 10
264.0
 20
94.01203200000001
 30
0.0
 11
264.0
 21
74.00000000000003
 31
0.0
  0
CIRCLE
  5
188
330
183
100
AcDbEntity
  8
TEXT50
  6
Continuous
370
    25
100
AcDbCircle
 10
247.5054493575618
 20
83.04852954632861
 30
0.0
 40
1.979948192651899
  0
LINE
  5
189
330
183
100
AcDbEntity
  8
TEXT50
  6
Continuous
370
    25
100
AcDbLine
 10
262.4910595621649
 20
85.02847773898061
 30
0.0
 11
262.4910595621649
 21
81.06858135367653
 31
0.0
  0
LINE
  5
18A
330
183
100
AcDbEntity
  8
TEXT50
  6
Continuous
370
    25
100
AcDbLine
 10
253.9413433929653
 20
87.07146289795376
 30
0.0
 11
253.9413433929653
 21
79.02559619470344
 31
0.0
  0
LINE
  5
18B
330
183
100
AcDbEntity
  8
TEXT50
  6
Continuous
370
    25
100
AcDbLine
 10
262.4910595621649
 20
85.02847773898061
 30
0.0
 11
253.9413433929653
 21
87.07146289795376
 31
0.0
  0
CIRCLE
  5
18C
330
183
100
AcDbEntity
  8
TEXT50
  6
Continuous
370
    25
100
AcDbCircle
 10
247.5054493575618
 20
83.04852954632861
 30
0.0
 40
4.022933351625178
  0
LINE
  5
18D
330
183
100
AcDbEntity
  8
TEXT50
  6
Continuous
370
    25
100
AcDbLine
 10
253.9413433929653
 20
79.02559619470344
 30
0.0
 11
262.4910595621649
 21
81.06858135367653
 31
0.0
  0
CIRCLE
  5
18E
330
183
100
AcDbEntity
  8
TEXT35
  6
Continuous
370
    25
100
AcDbCircle
 10
221.0936673107637
 20
101.9131972309053
 30
0.0
 40
2.281499999999998
  0
CIRCLE
  5
18F
330
183
100
AcDbEntity
  8
TEXT35
  6
Continuous
370
    25
100
AcDbCircle
 10
221.0936673107637
 20
101.9131972309053
 30
0.0
 40
1.579499999999999
  0
ARC
  5
190
330
183
100
AcDbEntity
  8
TEXT35
  6
Continuous
370
    25
100
AcDbCircle
 10
214.6291610736662
 20
101.9131972309054
 30
0.0
 40
1.579500000000071
100
AcDbArc
 50
31.05580049908738
 51
329.9999999999987
  0
LINE
  5
191
330
183
100
AcDbEntity
  8
TEXT35
  6
Continuous
370
    25
100
AcDbLine
 10
215.9822639109751
 20
102.7280180465864
 30
0.0
 11
216.5902852082589
 21
103.0790593062462
 31
0.0
  0
ARC
  5
192
330
183
100
AcDbEntity
  8
TEXT35
  6
Continuous
370
    25
100
AcDbCircle
 10
214.6291610736662
 20
101.9131972309052
 30
0.0
 40
2.281500000000015
100
AcDbArc
 50
30.73091726592628
 51
330.0000000000017
  0
LINE
  5
193
330
183
100
AcDbEntity
  8
TEXT35
  6
Continuous
370
    25
100
AcDbLine
 10
216.6049980324005
 20
100.7724472309053
 30
0.0
 11
215.9970481989438
 21
101.1234472309053
 31
0.0
  0
LINE
  5
194
330
183
100
AcDbEntity
  8
TEXT35
  6
Continuous
370
    25
100
AcDbLine
 10
211.8347763192409
 20
111.6789659312995
 30
0.0
 11
211.8347763192409
 21
98.44416361029551
 31
0.0
  0
LINE
  5
195
330
183
100
AcDbEntity
  8
TEXT35
  6
Continuous
370
    25
100
AcDbLine
 10
211.8347763192409
 20
98.44416361029551
 30
0.0
 11
217.4235458280916
 21
98.44416361029551
 31
0.0
  0
LINE
  5
196
330
183
100
AcDbEntity
  8
TEXT35
  6
Continuous
370
    25
100
AcDbLine
 10
217.4235458280916
 20
98.44416361029551
 30
0.0
 11
217.4235458280916
 21
111.6789659312995
 31
0.0
  0
LINE
  5
197
330
183
100
AcDbEntity
  8
TEXT35
  6
Continuous
370
    25
100
AcDbLine
 10
217.4235458280916
 20
111.6789659312995
 30
0.0
 11
211.8347763192409
 21
111.6789659312995
 31
0.0
  0
LINE
  5
198
330
183
100
AcDbEntity
  8
TEXT35
  6
Continuous
370
    25
100
AcDbLine
 10
223.888052065189
 20
111.6789659312995
 30
0.0
 11
223.888052065189
 21
98.44416361029551
 31
0.0
  0
LINE
  5
199
330
183
100
AcDbEntity
  8
TEXT35
  6
Continuous
370
    25
100
AcDbLine
 10
223.888052065189
 20
98.44416361029551
 30
0.0
 11
218.2992825563384
 21
98.44416361029551
 31
0.0
  0
LINE
  5
19A
330
183
100
AcDbEntity
  8
TEXT35
  6
Continuous
370
    25
100
AcDbLine
 10
218.2992825563384
 20
98.44416361029551
 30
0.0
 11
218.2992825563384
 21
111.6789659312995
 31
0.0
  0
LINE
  5
19B
330
183
100
AcDbEntity
  8
TEXT35
  6
Continuous
370
    25
100
AcDbLine
 10
218.2992825563384
 20
111.6789659312995
 30
0.0
 11
223.888052065189
 21
111.6789659312995
 31
0.0
  0
ARC
  5
19C
330
183
100
AcDbEntity
  8
TEXT35
  6
Continuous
370
    25
100
AcDbCircle
 10
211.499154836569
 20
99.57623034270234
 30
0.0
 40
4.914000000000251
100
AcDbArc
 50
172.305837035409
 51
179.7113029220757
  0
LINE
  5
19D
330
183
100
AcDbEntity
  8
TEXT35
  6
Continuous
370
    25
100
AcDbLine
 10
206.6293963427935
 20
100.2341423522474
 30
0.0
 11
209.6999133303443
 21
100.2341423522474
 31
0.0
  0
ARC
  5
19E
330
183
100
AcDbEntity
  8
TEXT35
  6
Continuous
370
    25
100
AcDbCircle
 10
204.8301548365688
 20
99.57623034270323
 30
0.0
 40
4.914000000000132
100
AcDbArc
 50
0.2886970779141535
 51
7.694162964580896
  0
LINE
  5
19F
330
183
100
AcDbEntity
  8
TEXT35
  6
Continuous
370
    25
100
AcDbLine
 10
209.7440924568018
 20
99.60099048123302
 30
0.0
 11
210.4461002543538
 21
99.60099048123302
 31
0.0
  0
ARC
  5
1A0
330
183
100
AcDbEntity
  8
TEXT35
  6
Continuous
370
    25
100
AcDbCircle
 10
204.8301548365688
 20
99.5762303427033
 30
0.0
 40
5.616000000000016
100
AcDbArc
 50
0.2526096926473688
 51
53.57642635766914
  0
ARC
  5
1A1
330
183
100
AcDbEntity
  8
TEXT35
  6
Continuous
370
    25
100
AcDbCircle
 10
211.4991548365688
 20
99.57623034270323
 30
0.0
 40
5.616000000000023
100
AcDbArc
 50
126.4235736423304
 51
179.7473903073512
  0
LINE
  5
1A2
330
183
100
AcDbEntity
  8
TEXT35
  6
Continuous
370
    25
100
AcDbLine
 10
205.8832094187838
 20
99.60099048123302
 30
0.0
 11
206.5852172163358
 21
99.60099048123302
 31
0.0
  0
LINE
  5
1A3
330
183
100
AcDbEntity
  8
TEXT35
  6
Continuous
370
    25
100
AcDbLine
 10
205.3702700821435
 20
111.6789659312995
 30
0.0
 11
205.3702700821435
 21
98.44416361029551
 31
0.0
  0
LINE
  5
1A4
330
183
100
AcDbEntity
  8
TEXT35
  6
Continuous
370
    25
100
AcDbLine
 10
205.3702700821435
 20
98.44416361029551
 30
0.0
 11
210.9590395909941
 21
98.44416361029551
 31
0.0
  0
LINE
  5
1A5
330
183
100
AcDbEntity
  8
TEXT35
  6
Continuous
370
    25
100
AcDbLine
 10
210.9590395909941
 20
98.44416361029551
 30
0.0
 11
210.9590395909941
 21
111.6789659312995
 31
0.0
  0
LINE
  5
1A6
330
183
100
AcDbEntity
  8
TEXT35
  6
Continuous
370
    25
100
AcDbLine
 10
210.9590395909941
 20
111.6789659312995
 30
0.0
 11
205.3702700821435
 21
111.6789659312995
 31
0.0
  0
ARC
  5
1A7
330
183
100
AcDbEntity
  8
TEXT35
  6
Continuous
370
    25
100
AcDbCircle
 10
204.830154836569
 20
99.57623034270341
 30
0.0
 40
4.913999999999818
100
AcDbArc
 50
16.0658750272321
 51
47.26788995739759
  0
LINE
  5
1A8
330
183
100
AcDbEntity
  8
TEXT35
  6
Continuous
370
    25
100
AcDbLine
 10
209.5522343918387
 20
100.9361423522474
 30
0.0
 11
206.7770752812989
 21
100.9361423522474
 31
0.0
  0
ARC
  5
1A9
330
183
100
AcDbEntity
  8
TEXT35
  6
Continuous
370
    25
100
AcDbCircle
 10
211.4991548365683
 20
99.57623034270341
 30
0.0
 40
4.913999999999566
100
AcDbArc
 50
132.7321100425983
 51
163.9341249727667
  0
LINE
  5
1AA
330
183
100
AcDbEntity
  8
Nadpis (ISO)
100
AcDbLine
 10
299.0
 20
114.0
 30
0.0
 11
299.0
 21
45.0
 31
0.0
  0
LINE
  5
1AB
330
183
100
AcDbEntity
  8
Nadpis (ISO)
100
AcDbLine
 10
299.0
 20
45.0
 30
0.0
 11
117.0
 21
44.99999999999999
 31
0.0
  0
LINE
  5
1AC
330
183
100
AcDbEntity
  8
Nadpis (ISO)
100
AcDbLine
 10
117.0
 20
44.99999999999999
 30
0.0
 11
117.0
 21
114.0
 31
0.0
  0
LINE
  5
1AD
330
183
100
AcDbEntity
  8
Nadpis (ISO)
100
AcDbLine
 10
117.0
 20
114.0
 30
0.0
 11
299.0
 21
114.0
 31
0.0
  0
LINE
  5
1AE
330
183
100
AcDbEntity
  8
Nadpis (ISO)
100
AcDbLine
 10
199.0
 20
114.0
 30
0.0
 11
199.0
 21
93.99999999999998
 31
0.0
  0
LINE
  5
1AF
330
183
100
AcDbEntity
  8
KOPF
100
AcDbLine
 10
199.0
 20
104.0
 30
0.0
 11
117.0
 21
104.0
 31
0.0
  0
LINE
  5
1B0
330
183
100
AcDbEntity
  8
Nadpis (ISO)
100
AcDbLine
 10
199.0
 20
93.99999999999998
 30
0.0
 11
117.0
 21
93.99999999999996
 31
0.0
  0
LINE
  5
1B1
330
183
100
AcDbEntity
  8
KOPF
100
AcDbLine
 10
158.0
 20
93.99999999999998
 30
0.0
 11
158.0
 21
114.0
 31
0.0
  0
LINE
  5
1B2
330
183
100
AcDbEntity
  8
Nadpis (ISO)
100
AcDbLine
 10
199.0
 20
93.99999999999998
 30
0.0
 11
299.0
 21
93.99999999999998
 31
0.0
  0
LINE
  5
1B3
330
183
100
AcDbEntity
  8
Nadpis (ISO)
100
AcDbLine
 10
216.0
 20
94.00000000000003
 30
0.0
 11
216.0
 21
44.99999999999999
 31
0.0
  0
LINE
  5
1B4
330
183
100
AcDbEntity
  8
Nadpis (ISO)
100
AcDbLine
 10
299.0
 20
74.00000000000004
 30
0.0
 11
117.0
 21
73.99999999999998
 31
0.0
  0
LINE
  5
1B5
330
183
100
AcDbEntity
  8
Nadpis (ISO)
100
AcDbLine
 10
186.0
 20
94.0
 30
0.0
 11
186.0
 21
74.00000000000002
 31
0.0
  0
LINE
  5
1B6
330
183
100
AcDbEntity
  8
KOPF
100
AcDbLine
 10
137.0
 20
93.99999999999998
 30
0.0
 11
137.0
 21
74.0
 31
0.0
  0
LINE
  5
1B7
330
183
100
AcDbEntity
  8
KOPF
100
AcDbLine
 10
162.0
 20
93.99999999999998
 30
0.0
 11
162.0
 21
74.0
 31
0.0
  0
LINE
  5
1B8
330
183
100
AcDbEntity
  8
KOPF
100
AcDbLine
 10
186.0
 20
84.0
 30
0.0
 11
117.0
 21
83.99999999999996
 31
0.0
  0
LINE
  5
1B9
330
183
100
AcDbEntity
  8
KOPF
100
AcDbLine
 10
186.0
 20
79.0
 30
0.0
 11
117.0
 21
78.99999999999997
 31
0.0
  0
LINE
  5
1BA
330
183
100
AcDbEntity
  8
KOPF
100
AcDbLine
 10
186.0
 20
89.0
 30
0.0
 11
117.0
 21
88.99999999999996
 31
0.0
  0
LINE
  5
1BB
330
183
100
AcDbEntity
  8
KOPF
100
AcDbLine
 10
216.0
 20
50.0
 30
0.0
 11
299.0
 21
50.0
 31
0.0
  0
LINE
  5
1BC
330
183
100
AcDbEntity
  8
Nadpis (ISO)
100
AcDbLine
 10
216.0
 20
55.0
 30
0.0
 11
299.0
 21
55.0
 31
0.0
  0
LINE
  5
1BD
330
183
100
AcDbEntity
  8
KOPF
100
AcDbLine
 10
238.0000000000001
 20
93.99999999999998
 30
0.0
 11
238.0000000000001
 21
74.00000000000003
 31
0.0
  0
LINE
  5
1BE
330
183
100
AcDbEntity
  8
KOPF
100
AcDbLine
 10
238.0000000000001
 20
84.00000000000003
 30
0.0
 11
216.0
 21
84.00000000000003
 31
0.0
  0
LINE
  5
1BF
330
183
100
AcDbEntity
  8
Nadpis (ISO)
100
AcDbLine
 10
287.0
 20
74.00000000000004
 30
0.0
 11
287.0
 21
55.0
 31
0.0
  0
LINE
  5
1C0
330
183
100
AcDbEntity
  8
KOPF
100
AcDbLine
 10
289.0
 20
50.0
 30
0.0
 11
289.0
 21
45.0
 31
0.0
  0
LINE
  5
1C1
330
183
100
AcDbEntity
  8
Nadpis (ISO)
100
AcDbLine
 10
260.9160465310349
 20
50.0
 30
0.0
 11
260.9160465310349
 21
45.0
 31
0.0
  0
TEXT
  5
1C3
330
183
100
AcDbEntity
  8
Viditelná tenká (ISO)
100
AcDbText
 10
266.0
 20
84.97994933403729
 30
0.0
 40
1.539999991655349
  1
zum Zweck anderweitiger Benutzung
 41
0.7999999523162842
  7
Styl textu62
100
AcDbText
  0
TEXT
  5
1C5
330
183
100
AcDbEntity
  8
Viditelná tenká (ISO)
100
AcDbText
 10
266.0
 20
82.63814072439631
 30
0.0
 40
1.539999991655349
  1
mitgeteilt werden und bleibt unser
 41
0.7999999523162842
  7
Styl textu62
100
AcDbText
  0
TEXT
  5
1C6
330
183
100
AcDbEntity
  8
Viditelná tenká (ISO)
100
AcDbText
 10
266.0
 20
87.26106040199921
 30
0.0
 40
1.539999991655349
  1
noch dritten Personen, insbesondere
 41
0.7999999523162842
  7
Styl textu62
100
AcDbText
  0
TEXT
  5
1C7
330
183
100
AcDbEntity
  8
Viditelná tenká (ISO)
100
AcDbText
 10
266.0
 20
89.6282322587214
 30
0.0
 40
1.539999991655349
  1
Diese Zeichnung darf weder kopiert
 41
0.7999999523162842
  7
Styl textu62
100
AcDbText
  0
TEXT
  5
1C8
330
183
100
AcDbEntity
  8
Viditelná tenká (ISO)
100
AcDbText
 10
266.0
 20
80.37532604459597
 30
0.0
 40
1.539999991655349
  1
Eigentum.
 41
0.7999999523162842
  7
Styl textu62
100
AcDbText
  0
TEXT
  5
1CA
330
183
100
AcDbEntity
  8
Viditelná tenká (ISO)
100
AcDbText
 10
241.877559521167
 20
90.82431699999998
 30
0.0
 40
2.000000029802321
  1
Projektion: ISO-E
 41
0.7999999523162842
  7
Styl textu58
100
AcDbText
  0
TEXT
  5
1CC
330
183
100
AcDbEntity
  8
Viditelná tenká (ISO)
100
AcDbText
 10
266.0
 20
77.30982488917627
 30
0.0
 40
1.539999991655349
  1
Schutzvermerk nach DIN 34 beachten
 41
0.75
  7
Styl textu63
100
AcDbText
  0
TEXT
  5
1CD
330
183
100
AcDbEntity
  8
Viditelná tenká (ISO)
100
AcDbText
 10
236.2487793316645
 20
99.38243367792949
 30
0.0
 40
2.000000029802321
  1
582 22 Přibyslav
 41
0.7999999523162842
  7
Styl textu58
100
AcDbText
  0
TEXT
  5
1CF
330
183
100
AcDbEntity
  8
Viditelná tenká (ISO)
100
AcDbText
 10
261.6984261202779
 20
99.57784645000472
 30
0.0
 40
2.099999934434889
  1
Fax: 0451 / 482529
 41
0.7000000476837159
  7
Styl textu72
100
AcDbText
  0
TEXT
  5
1D0
330
183
100
AcDbEntity
  8
Viditelná tenká (ISO)
100
AcDbText
 10
236.5351154208068
 20
103.0087314099309
 30
0.0
 40
2.000000029802321
  1
Havličkova 260
 41
0.7999999523162842
  7
Styl textu58
100
AcDbText
  0
TEXT
  5
1D2
330
183
100
AcDbEntity
  8
TEXT35
100
AcDbText
 10
235.9801354774567
 20
108.2018007493417
 30
0.0
 40
3.000000119209288
  1
ACO Stavebni prvky k.s
 41
0.7999999523162842
  7
Styl textu75
100
AcDbText
  0
TEXT
  5
1D3
330
183
100
AcDbEntity
  8
Viditelná tenká (ISO)
100
AcDbText
 10
261.6456899832647
 20
102.9064533471121
 30
0.0
 40
2.099999934434889
  1
Tel.: 0451 / 491660
 41
0.7000000476837159
  7
Styl textu72
100
AcDbText
  0
MTEXT
  5
1D4
330
183
100
AcDbEntity
  8
Viditelná tenká (ISO)
100
AcDbMText
 10
217.3570092483237
 20
73.27889989032858
 30
0.0
 40
2.000000029802321
 41
0.0
 71
     1
 72
     1
  1
\fArial|b0|i0;\H2.0000;Zeichnung Nr.
  7
Text poznámky (ISO)
 73
     1
 44
1.0
  0
MTEXT
  5
1D5
330
183
100
AcDbEntity
  8
Viditelná tenká (ISO)
100
AcDbMText
 10
287.9433731401013
 20
72.84063462326732
 30
0.0
 40
2.000000029802321
 41
0.0
 71
     1
 72
     1
  1
\fArial|b0|i0;\H2.0000;Index
  7
Text poznámky (ISO)
 73
     1
 44
1.0
  0
MTEXT
  5
1D6
330
183
100
AcDbEntity
  8
Viditelná tenká (ISO)
100
AcDbMText
 10
217.1230582952341
 20
52.63510416823109
 30
0.0
 40
2.000000029802321
 41
0.0
 71
     1
 72
     1
  1
\fArial|b0|i0;\H2.0000;Ersatz fur\PErsatz durch
  7
Text poznámky (ISO)
 73
     2
 44
0.9442214369773862
  0
MTEXT
  5
1D7
330
183
100
AcDbEntity
  8
Viditelná tenká (ISO)
100
AcDbMText
 10
188.9161081342839
 20
93.0
 30
0.0
 40
2.000000029802321
 41
0.0
 71
     1
 72
     1
  1
\fArial|b0|i0;\H2.0000;Massstab
  7
Text poznámky (ISO)
 73
     1
 44
1.0
  0
MTEXT
  5
1D8
330
183
100
AcDbEntity
  8
Viditelná tenká (ISO)
100
AcDbMText
 10
217.0
 20
93.0
 30
0.0
 40
2.000000029802321
 41
0.0
 71
     1
 72
     1
  1
\fArial|b0|i0;\H2.0000;Masseinheit
  7
Text poznámky (ISO)
 73
     1
 44
1.0
  0
MTEXT
  5
1D9
330
183
100
AcDbEntity
  8
Viditelná tenká (ISO)
100
AcDbMText
 10
118.0
 20
113.0
 30
0.0
 40
2.000000029802321
 41
0.0
 71
     1
 72
     1
  1
\fArial|b0|i0;\H2.0000;Werkstoff.
  7
Text poznámky (ISO)
 73
     1
 44
1.0
  0
MTEXT
  5
1DA
330
183
100
AcDbEntity
  8
Viditelná tenká (ISO)
100
AcDbMText
 10
159.0
 20
113.0
 30
0.0
 40
2.000000029802321
 41
0.0
 71
     1
 72
     1
  1
\fArial|b0|i0;\H2.0000;Hmotnost
  7
Text poznámky (ISO)
 73
     1
 44
1.0
  0
MTEXT
  5
1DB
330
183
100
AcDbEntity
  8
Viditelná tenká (ISO)
100
AcDbMText
 10
118.0
 20
103.0
 30
0.0
 40
2.000000029802321
 41
0.0
 71
     1
 72
     1
  1
\fArial|b0|i0;\H2.0000;zul.Abweich.
  7
Text poznámky (ISO)
 73
     1
 44
1.0
  0
MTEXT
  5
1DC
330
183
100
AcDbEntity
  8
Viditelná tenká (ISO)
100
AcDbMText
 10
159.0
 20
103.0
 30
0.0
 40
2.000000029802321
 41
0.0
 71
     1
 72
     1
  1
\fArial|b0|i0;\H2.0000;Oberflache
  7
Text poznámky (ISO)
 73
     1
 44
1.0
  0
MTEXT
  5
1DD
330
183
100
AcDbEntity
  8
Viditelná tenká (ISO)
100
AcDbMText
 10
118.2064366962235
 20
87.52498463872976
 30
0.0
 40
2.000000029802321
 41
0.0
 71
     1
 72
     1
  1
\fArial|b0|i0;\H2.0000;Gezeichnet
  7
Text poznámky (ISO)
 73
     1
 44
1.0
  0
MTEXT
  5
1DE
330
183
100
AcDbEntity
  8
Viditelná tenká (ISO)
100
AcDbMText
 10
118.2064366962235
 20
82.79398756785594
 30
0.0
 40
2.000000029802321
 41
0.0
 71
     1
 72
     1
  1
\fArial|b0|i0;\H2.0000;Gepruft
  7
Text poznámky (ISO)
 73
     1
 44
1.0
  0
MTEXT
  5
1DF
330
183
100
AcDbEntity
  8
Viditelná tenká (ISO)
100
AcDbMText
 10
118.2064366962235
 20
77.59713566222233
 30
0.0
 40
2.000000029802321
 41
0.0
 71
     1
 72
     1
  1
\fArial|b0|i0;\H2.0000;Update
  7
Text poznámky (ISO)
 73
     1
 44
1.0
  0
MTEXT
  5
1E0
330
183
100
AcDbEntity
  8
Viditelná tenká (ISO)
100
AcDbMText
 10
143.0
 20
93.0
 30
0.0
 40
2.000000029802321
 41
0.0
 71
     1
 72
     1
  1
\fArial|b0|i0;\H2.0000;Datum
  7
Text poznámky (ISO)
 73
     1
 44
1.0
  0
MTEXT
  5
1E1
330
183
100
AcDbEntity
  8
Viditelná tenká (ISO)
100
AcDbMText
 10
170.0
 20
93.0
 30
0.0
 40
2.000000029802321
 41
0.0
 71
     1
 72
     1
  1
\fArial|b0|i0;\H2.0000;Name
  7
Text poznámky (ISO)
 73
     1
 44
1.0
  0
MTEXT
  5
1E2
102
{ACAD_XDICTIONARY
360
28E0
102
}
330
183
100
AcDbEntity
  8
Nadpis (ISO)
100
AcDbMText
 10
118.0
 20
71.0
 30
0.0
 40
3.499999940395355
 41
0.0
 71
     1
 72
     1
  1
Effidrai sestava dvoud\U+00EDln\U+00E1  218 vodorovn\U+00E1
  7
Text poznámky (ISO)
 73
     1
 44
1.0
  0
MTEXT
  5
1E3
330
183
100
AcDbEntity
  8
Nadpis (ISO)
100
AcDbMText
 10
138.6542642016321
 20
87.78242706242744
 30
0.0
 40
2.000000029802321
 41
0.0
 71
     1
 72
     1
  1
\fTahoma|b0|i0;\H2.0000;11.8.2009
  7
Text poznámky (ISO)
 73
     1
 44
1.0
  0
MTEXT
  5
1E4
330
183
100
AcDbEntity
  8
Nadpis (ISO)
100
AcDbMText
 10
118.9147684950603
 20
98.79632878646518
 30
0.0
 40
3.499999940395355
 41
0.0
 71
     1
 72
     1
  1
ISO 2768-m
  7
Text poznámky (ISO)
 73
     1
 44
1.0
  0
MTEXT
  5
1E5
330
183
100
AcDbEntity
  8
Nadpis (ISO)
100
AcDbMText
 10
162.5831033854
 20
99.20167780246003
 30
0.0
 40
3.499999940395355
 41
0.0
 71
     1
 72
     1
  1
DIN ISO 1302
  7
Text poznámky (ISO)
 73
     1
 44
1.0
  0
MTEXT
  5
1E6
330
183
100
AcDbEntity
  8
Nadpis (ISO)
100
AcDbMText
 10
262.4743825961981
 20
49.17778241269704
 30
0.0
 40
3.499999940395355
 41
0.0
 71
     1
 72
     1
  1
\fArial|b0|i0;\H3.5000;List:\fArial|b0|i0;\H3.5000;1 \fArial|b0|i0;\H3.5000;/\fArial|b0|i0;\H3.5000;1 
  7
Text poznámky (ISO)
 73
     1
 44
1.0
  0
MTEXT
  5
1E7
102
{ACAD_XDICTIONARY
360
28E2
102
}
330
183
100
AcDbEntity
  8
Nadpis (ISO)
100
AcDbMText
 10
159.4396788094336
 20
109.2360383310952
 30
0.0
 40
3.499999940395355
 41
29.10098367733216
 71
     1
 72
     1
  1
Nen\U+00ED k dispozici
  7
Text poznámky (ISO)
 73
     2
 44
0.9878841638565063
  0
ATTDEF
  5
1E9
102
{ACAD_XDICTIONARY
360
2341
102
}
330
183
100
AcDbEntity
  8
Nadpis (ISO)
100
AcDbText
 10
287.4393862219839
 20
62.4856753668063
 30
0.0
 40
3.499999940395355
  1
000
  7
Styl textu9
100
AcDbAttributeDefinition
  3
ČÍSLO REVIZE
  2
ČÍSLO_REVIZE_001
 70
     0
  0
ATTDEF
  5
1ED
102
{ACAD_XDICTIONARY
360
2344
102
}
330
183
100
AcDbEntity
  8
Nadpis (ISO)
100
AcDbText
 10
289.7753402652471
 20
46.32882590415591
 30
0.0
 40
2.000000029802321
  1
A2
  7
Styl textu40
100
AcDbAttributeDefinition
  3
Sheet Size
  2
Sheet_Size_001
 70
     0
  0
ATTDEF
  5
1EE
102
{ACAD_XDICTIONARY
360
2347
102
}
330
183
100
AcDbEntity
  8
Nadpis (ISO)
100
AcDbText
 10
230.1305737493188
 20
51.10091360311345
 30
0.0
 40
2.000000029802321
  1
C:\Inventor_DATA\Projekty\Guly\Effidrain\Effidrain sestava dvoudílná  218 vodorovná\408084.iam
  7
Styl textu40
100
AcDbAttributeDefinition
  3
FILENAME AND PATH
  2
FILENAME_AND_PATH_001
 70
     0
  0
ATTDEF
  5
1EF
102
{ACAD_XDICTIONARY
360
234A
102
}
330
183
100
AcDbEntity
  8
Nadpis (ISO)
100
AcDbText
 10
217.9059771674843
 20
62.42008065196634
 30
0.0
 40
3.499999940395355
  1
408084
  7
Text poznámky (ISO)
100
AcDbAttributeDefinition
  3
PART NUMBER
  2
PART_NUMBER_001
 70
     0
  0
ATTDEF
  5
1F0
102
{ACAD_XDICTIONARY
360
234D
102
}
330
183
100
AcDbEntity
  8
Nadpis (ISO)
100
AcDbText
 10
118.0
 20
56.50000005960464
 30
0.0
 40
3.499999940395355
  1

  7
Text poznámky (ISO)
 11
118.0
 21
60.0
 31
0.0
100
AcDbAttributeDefinition
  3
PROJECT
  2
PROJECT
 70
     0
 74
     3
  0
ATTDEF
  5
1F2
102
{ACAD_XDICTIONARY
360
2350
102
}
330
183
100
AcDbEntity
  8
Nadpis (ISO)
100
AcDbText
 10
117.8119543349687
 20
47.73407435882505
 30
0.0
 40
6.99999988079071
  1
408084
  7
Styl textu94
100
AcDbAttributeDefinition
  3
SKLADOVÉ ČÍSLO
  2
SKLADOVÉ_ČÍSLO_001
 70
     0
  0
ATTDEF
  5
1F3
102
{ACAD_XDICTIONARY
360
2353
102
}
330
183
100
AcDbEntity
  8
Nadpis (ISO)
100
AcDbText
 10
117.5939056808251
 20
105.1756658592857
 30
0.0
 40
3.499999940395355
  1

  7
Text poznámky (ISO)
 11
117.5939056808251
 21
108.6756657996811
 31
0.0
100
AcDbAttributeDefinition
  3
MATERIAL
  2
MATERIAL
 70
     0
 74
     3
  0
ATTDEF
  5
1F4
102
{ACAD_XDICTIONARY
360
2356
102
}
330
183
100
AcDbEntity
  8
Nadpis (ISO)
100
AcDbText
 10
165.0470513532835
 20
85.78242703262512
 30
0.0
 40
2.000000029802321
  1
pmacoun
  7
Styl textu40
100
AcDbAttributeDefinition
  3
AUTHOR
  2
AUTHOR_001
 70
     0
  0
ATTDEF
  5
1F5
102
{ACAD_XDICTIONARY
360
2359
102
}
330
183
100
AcDbEntity
  8
Nadpis (ISO)
100
AcDbText
 10
189.1855699863978
 20
82.50038826992808
 30
0.0
 40
3.499999940395355
  1

  7
Text poznámky (ISO)
 11
189.1855699863978
 21
86.00038821032343
 31
0.0
100
AcDbAttributeDefinition
  3
VS_First
  2
VS_First
 70
     0
 74
     3
  0
ENDBLK
  5
185
330
183
100
AcDbEntity
  8
0
100
AcDbBlockEnd
  0
BLOCK
  5
1D43
330
1D42
100
AcDbEntity
  8
0
100
AcDbBlockBegin
  2
KUSOVNÍK
 70
     0
 10
0.0
 20
0.0
 30
0.0
  3
KUSOVNÍK
  1

  0
LINE
  5
1D45
330
1D42
100
AcDbEntity
  8
Značka (ISO)
100
AcDbLine
 10
584.0
 20
148.8357131659985
 30
0.0
 11
344.8997623033879
 21
148.8357131659985
 31
0.0
  0
LINE
  5
1D46
330
1D42
100
AcDbEntity
  8
Značka (ISO)
100
AcDbLine
 10
584.0
 20
148.8357131659985
 30
0.0
 11
584.0
 21
142.4870119690895
 31
0.0
  0
LINE
  5
1D47
330
1D42
100
AcDbEntity
  8
Značka (ISO)
100
AcDbLine
 10
344.8997623033879
 20
148.8357131659985
 30
0.0
 11
344.8997623033879
 21
142.4870119690895
 31
0.0
  0
MTEXT
  5
1D48
102
{ACAD_XDICTIONARY
360
28E4
102
}
330
1D42
100
AcDbEntity
  8
Značka (ISO)
100
AcDbMText
 10
453.9065027401631
 20
143.2116872161627
 30
0.0
 40
3.499999940395355
 41
0.0
 71
     7
 72
     1
  1
KUSOVN\U+00CDK
  7
Text poznámky (DIN)
 73
     1
 44
1.0
  0
LINE
  5
1D4A
330
1D42
100
AcDbEntity
  8
Značka (ISO)
100
AcDbLine
 10
584.0
 20
142.4870119690895
 30
0.0
 11
344.8997623033879
 21
142.4870119690895
 31
0.0
  0
LINE
  5
1D4B
330
1D42
100
AcDbEntity
  8
Značka (ISO)
100
AcDbLine
 10
584.0
 20
142.4870119690895
 30
0.0
 11
584.0
 21
136.1383107721806
 31
0.0
  0
MTEXT
  5
1D4C
102
{ACAD_XDICTIONARY
360
28E6
102
}
330
1D42
100
AcDbEntity
  8
Značka (ISO)
100
AcDbMText
 10
549.109998588463
 20
136.8629860192537
 30
0.0
 40
3.499999940395355
 41
0.0
 71
     7
 72
     1
  1
MATERI\U+00C1L
  7
Text poznámky (DIN)
 73
     1
 44
1.0
  0
LINE
  5
1D4D
330
1D42
100
AcDbEntity
  8
Značka (ISO)
100
AcDbLine
 10
534.6054552863031
 20
142.4870119690895
 30
0.0
 11
534.6054552863031
 21
136.1383107721806
 31
0.0
  0
MTEXT
  5
1D4E
330
1D42
100
AcDbEntity
  8
Značka (ISO)
100
AcDbMText
 10
510.837726470033
 20
137.5626614004374
 30
0.0
 40
3.499999940395355
 41
0.0
 71
     7
 72
     1
  1
HMOTNOST
  7
Text poznámky (DIN)
 73
     1
 44
1.0
  0
LINE
  5
1D4F
330
1D42
100
AcDbEntity
  8
Značka (ISO)
100
AcDbLine
 10
509.205455286303
 20
142.4870119690895
 30
0.0
 11
509.205455286303
 21
136.1383107721806
 31
0.0
  0
MTEXT
  5
1D50
102
{ACAD_XDICTIONARY
360
28E8
102
}
330
1D42
100
AcDbEntity
  8
Značka (ISO)
100
AcDbMText
 10
485.6130511484542
 20
136.8629860192537
 30
0.0
 40
3.499999940395355
 41
0.0
 71
     7
 72
     1
  1
SKLADOV\U+00C9
  7
Text poznámky (DIN)
 73
     1
 44
1.0
  0
LINE
  5
1D51
330
1D42
100
AcDbEntity
  8
Značka (ISO)
100
AcDbLine
 10
483.8054552863032
 20
142.4870119690895
 30
0.0
 11
483.8054552863032
 21
136.1383107721806
 31
0.0
  0
MTEXT
  5
1D52
330
1D42
100
AcDbEntity
  8
Značka (ISO)
100
AcDbMText
 10
420.3024121960782
 20
137.5626614004374
 30
0.0
 40
3.499999940395355
 41
0.0
 71
     7
 72
     1
  1
POPIS
  7
Text poznámky (DIN)
 73
     1
 44
1.0
  0
LINE
  5
1D53
330
1D42
100
AcDbEntity
  8
Značka (ISO)
100
AcDbLine
 10
368.4380732841847
 20
142.4870119690895
 30
0.0
 11
368.4380732841847
 21
136.1383107721806
 31
0.0
  0
MTEXT
  5
1D54
330
1D42
100
AcDbEntity
  8
Značka (ISO)
100
AcDbMText
 10
362.2430715997583
 20
137.5626614004374
 30
0.0
 40
3.499999940395355
 41
0.0
 71
     7
 72
     1
  1
KS
  7
Text poznámky (DIN)
 73
     1
 44
1.0
  0
LINE
  5
1D55
330
1D42
100
AcDbEntity
  8
Značka (ISO)
100
AcDbLine
 10
361.0406708307622
 20
142.4870119690895
 30
0.0
 11
361.0406708307622
 21
136.1383107721806
 31
0.0
  0
MTEXT
  5
1D56
330
1D42
100
AcDbEntity
  8
Značka (ISO)
100
AcDbMText
 10
346.102163072384
 20
137.5626614004374
 30
0.0
 40
3.499999940395355
 41
0.0
 71
     7
 72
     1
  1
POZICE
  7
Text poznámky (DIN)
 73
     1
 44
1.0
  0
LINE
  5
1D57
330
1D42
100
AcDbEntity
  8
Značka (ISO)
100
AcDbLine
 10
344.8997623033879
 20
142.4870119690895
 30
0.0
 11
344.8997623033879
 21
136.1383107721806
 31
0.0
  0
MTEXT
  5
1D58
330
1D42
100
AcDbEntity
  8
Značka (ISO)
100
AcDbMText
 10
535.8078560552993
 20
131.2139602035284
 30
0.0
 40
3.499999940395355
 41
0.0
 71
     7
 72
     1
  1
AISI 304
  7
Text poznámky (DIN)
 73
     1
 44
1.0
  0
MTEXT
  5
1D59
330
1D42
100
AcDbEntity
  8
Značka (ISO)
100
AcDbMText
 10
510.4050560481788
 20
130.1652589470148
 30
0.0
 40
3.499999940395355
 41
0.0
 71
     7
 72
     1
  1
1,859 kg
  7
Text poznámky (DIN)
 73
     1
 44
1.0
  0
MTEXT
  5
1D5A
330
1D42
100
AcDbEntity
  8
Značka (ISO)
100
AcDbMText
 10
485.0078560552993
 20
131.2139602035284
 30
0.0
 40
3.499999940395355
 41
0.0
 71
     7
 72
     1
  1
E23626
  7
Text poznámky (DIN)
 73
     1
 44
1.0
  0
MTEXT
  5
1D5B
102
{ACAD_XDICTIONARY
360
28EA
102
}
330
1D42
100
AcDbEntity
  8
Značka (ISO)
100
AcDbMText
 10
369.6404740531809
 20
131.0402588576079
 30
0.0
 40
3.499999940395355
 41
0.0
 71
     7
 72
     1
  1
Effidrai dvoud\U+00EDln\U+00E1  218/DN100 vodorovn\U+00E1 12mm 
  7
Text poznámky (DIN)
 73
     1
 44
1.0
  0
MTEXT
  5
1D5C
102
{ACAD_XDICTIONARY
360
28EC
102
}
330
1D42
100
AcDbEntity
  8
Značka (ISO)
100
AcDbMText
 10
369.6404740531809
 20
123.6428564816714
 30
0.0
 40
3.499999940395355
 41
0.0
 71
     7
 72
     1
  1
p\U+0159\U+00EDruba AISI 304
  7
Text poznámky (DIN)
 73
     1
 44
1.0
  0
MTEXT
  5
1D5D
330
1D42
100
AcDbEntity
  8
Značka (ISO)
100
AcDbMText
 10
364.1639728342505
 20
131.2139602035284
 30
0.0
 40
3.499999940395355
 41
0.0
 71
     7
 72
     1
  1
1
  7
Text poznámky (DIN)
 73
     1
 44
1.0
  0
MTEXT
  5
1D5E
330
1D42
100
AcDbEntity
  8
Značka (ISO)
100
AcDbMText
 10
352.394817343852
 20
131.2139602035284
 30
0.0
 40
3.499999940395355
 41
0.0
 71
     7
 72
     1
  1
1
  7
Text poznámky (DIN)
 73
     1
 44
1.0
  0
LINE
  5
1D5F
330
1D42
100
AcDbEntity
  8
Značka (ISO)
100
AcDbLine
 10
584.0
 20
136.1383107721806
 30
0.0
 11
344.8997623033879
 21
136.1383107721806
 31
0.0
  0
MTEXT
  5
1D60
330
1D42
100
AcDbEntity
  8
Značka (ISO)
100
AcDbMText
 10
535.8078560552993
 20
118.5165578097105
 30
0.0
 40
3.499999940395355
 41
0.0
 71
     7
 72
     1
  1
PVC-U
  7
Text poznámky (DIN)
 73
     1
 44
1.0
  0
MTEXT
  5
1D61
330
1D42
100
AcDbEntity
  8
Značka (ISO)
100
AcDbMText
 10
510.4078560552992
 20
117.4678565531969
 30
0.0
 40
3.499999940395355
 41
0.0
 71
     7
 72
     1
  1
0,069 kg
  7
Text poznámky (DIN)
 73
     1
 44
1.0
  0
MTEXT
  5
1D62
330
1D42
100
AcDbEntity
  8
Značka (ISO)
100
AcDbMText
 10
485.0078560552993
 20
118.5165578097105
 30
0.0
 40
3.499999940395355
 41
0.0
 71
     7
 72
     1
  1
NM 6702
  7
Text poznámky (DIN)
 73
     1
 44
1.0
  0
MTEXT
  5
1D63
102
{ACAD_XDICTIONARY
360
28EE
102
}
330
1D42
100
AcDbEntity
  8
Značka (ISO)
100
AcDbMText
 10
369.6404740531809
 20
117.2941552072764
 30
0.0
 40
3.499999940395355
 41
0.0
 71
     7
 72
     1
  1
n\U+00E1vlek sunap-DN100
  7
Text poznámky (DIN)
 73
     1
 44
1.0
  0
MTEXT
  5
1D64
330
1D42
100
AcDbEntity
  8
Značka (ISO)
100
AcDbMText
 10
364.1639728342505
 20
118.5165578097105
 30
0.0
 40
3.499999940395355
 41
0.0
 71
     7
 72
     1
  1
1
  7
Text poznámky (DIN)
 73
     1
 44
1.0
  0
MTEXT
  5
1D65
330
1D42
100
AcDbEntity
  8
Značka (ISO)
100
AcDbMText
 10
352.0485914011366
 20
118.5165578097105
 30
0.0
 40
3.499999940395355
 41
0.0
 71
     7
 72
     1
  1
2
  7
Text poznámky (DIN)
 73
     1
 44
1.0
  0
LINE
  5
1D66
330
1D42
100
AcDbEntity
  8
Značka (ISO)
100
AcDbLine
 10
584.0
 20
123.4409083783627
 30
0.0
 11
344.8997623033879
 21
123.4409083783627
 31
0.0
  0
MTEXT
  5
1D67
330
1D42
100
AcDbEntity
  8
Značka (ISO)
100
AcDbMText
 10
535.5054552863032
 20
112.1678566128016
 30
0.0
 40
3.499999940395355
 41
0.0
 71
     7
 72
     1
  1
 
  7
Text poznámky (DIN)
 73
     1
 44
1.0
  0
MTEXT
  5
1D68
330
1D42
100
AcDbEntity
  8
Značka (ISO)
100
AcDbMText
 10
510.4078560552992
 20
111.119155356288
 30
0.0
 40
3.499999940395355
 41
0.0
 71
     7
 72
     1
  1
0,974 kg
  7
Text poznámky (DIN)
 73
     1
 44
1.0
  0
MTEXT
  5
1D69
330
1D42
100
AcDbEntity
  8
Značka (ISO)
100
AcDbMText
 10
485.0078560552993
 20
112.1678566128016
 30
0.0
 40
3.499999940395355
 41
0.0
 71
     7
 72
     1
  1
408225
  7
Text poznámky (DIN)
 73
     1
 44
1.0
  0
MTEXT
  5
1D6A
102
{ACAD_XDICTIONARY
360
28F0
102
}
330
1D42
100
AcDbEntity
  8
Značka (ISO)
100
AcDbMText
 10
369.6404740531809
 20
110.9454540103674
 30
0.0
 40
3.499999940395355
 41
0.0
 71
     7
 72
     1
  1
Effidrain dren\U+00E1\U+017En\U+00ED krou\U+017Eek komplet 218 + karton
  7
Text poznámky (DIN)
 73
     1
 44
1.0
  0
MTEXT
  5
1D6B
330
1D42
100
AcDbEntity
  8
Značka (ISO)
100
AcDbMText
 10
364.1639728342505
 20
112.1678566128016
 30
0.0
 40
3.499999940395355
 41
0.0
 71
     7
 72
     1
  1
1
  7
Text poznámky (DIN)
 73
     1
 44
1.0
  0
MTEXT
  5
1D6C
330
1D42
100
AcDbEntity
  8
Značka (ISO)
100
AcDbMText
 10
352.0485914011366
 20
112.1678566128016
 30
0.0
 40
3.499999940395355
 41
0.0
 71
     7
 72
     1
  1
3
  7
Text poznámky (DIN)
 73
     1
 44
1.0
  0
LINE
  5
1D6D
330
1D42
100
AcDbEntity
  8
Značka (ISO)
100
AcDbLine
 10
584.0
 20
117.0922071814537
 30
0.0
 11
344.8997623033879
 21
117.0922071814537
 31
0.0
  0
MTEXT
  5
1D6E
330
1D42
100
AcDbEntity
  8
Značka (ISO)
100
AcDbMText
 10
535.8078560552993
 20
105.8191554158926
 30
0.0
 40
3.499999940395355
 41
0.0
 71
     7
 72
     1
  1
Plast ABS
  7
Text poznámky (DIN)
 73
     1
 44
1.0
  0
MTEXT
  5
1D6F
330
1D42
100
AcDbEntity
  8
Značka (ISO)
100
AcDbMText
 10
510.4078560552992
 20
104.770454159379
 30
0.0
 40
3.499999940395355
 41
0.0
 71
     7
 72
     1
  1
0,002 kg
  7
Text poznámky (DIN)
 73
     1
 44
1.0
  0
MTEXT
  5
1D70
330
1D42
100
AcDbEntity
  8
Značka (ISO)
100
AcDbMText
 10
485.0078560552993
 20
105.8191554158926
 30
0.0
 40
3.499999940395355
 41
0.0
 71
     7
 72
     1
  1
91024
  7
Text poznámky (DIN)
 73
     1
 44
1.0
  0
MTEXT
  5
1D71
102
{ACAD_XDICTIONARY
360
28F2
102
}
330
1D42
100
AcDbEntity
  8
Značka (ISO)
100
AcDbMText
 10
369.6404740531809
 20
104.5967528134585
 30
0.0
 40
3.499999940395355
 41
0.0
 71
     7
 72
     1
  1
Krytka  matic 130-034-148 \U+0161estihrann\U+00E1, \U+010Dern\U+00E1
  7
Text poznámky (DIN)
 73
     1
 44
1.0
  0
MTEXT
  5
1D72
330
1D42
100
AcDbEntity
  8
Značka (ISO)
100
AcDbMText
 10
364.1639728342505
 20
105.8191554158926
 30
0.0
 40
3.499999940395355
 41
0.0
 71
     7
 72
     1
  1
1
  7
Text poznámky (DIN)
 73
     1
 44
1.0
  0
MTEXT
  5
1D73
330
1D42
100
AcDbEntity
  8
Značka (ISO)
100
AcDbMText
 10
351.8732667227155
 20
105.8191554158926
 30
0.0
 40
3.499999940395355
 41
0.0
 71
     7
 72
     1
  1
4
  7
Text poznámky (DIN)
 73
     1
 44
1.0
  0
LINE
  5
1D74
330
1D42
100
AcDbEntity
  8
Značka (ISO)
100
AcDbLine
 10
584.0
 20
110.7435059845448
 30
0.0
 11
344.8997623033879
 21
110.7435059845448
 31
0.0
  0
MTEXT
  5
1D75
330
1D42
100
AcDbEntity
  8
Značka (ISO)
100
AcDbMText
 10
535.8078560552993
 20
99.47045421898373
 30
0.0
 40
3.499999940395355
 41
0.0
 71
     7
 72
     1
  1
Mosaz
  7
Text poznámky (DIN)
 73
     1
 44
1.0
  0
MTEXT
  5
1D76
330
1D42
100
AcDbEntity
  8
Značka (ISO)
100
AcDbMText
 10
510.4078560552992
 20
98.42175296247013
 30
0.0
 40
3.499999940395355
 41
0.0
 71
     7
 72
     1
  1
0,005 kg
  7
Text poznámky (DIN)
 73
     1
 44
1.0
  0
MTEXT
  5
1D77
330
1D42
100
AcDbEntity
  8
Značka (ISO)
100
AcDbMText
 10
485.0078560552993
 20
99.47045421898373
 30
0.0
 40
3.499999940395355
 41
0.0
 71
     7
 72
     1
  1
90678
  7
Text poznámky (DIN)
 73
     1
 44
1.0
  0
MTEXT
  5
1D78
102
{ACAD_XDICTIONARY
360
28F4
102
}
330
1D42
100
AcDbEntity
  8
Značka (ISO)
100
AcDbMText
 10
369.6404740531809
 20
98.7707788378001
 30
0.0
 40
3.499999940395355
 41
0.0
 71
     7
 72
     1
  1
\U+0160estihrann\U+00E1 matice M8 DIN 934
  7
Text poznámky (DIN)
 73
     1
 44
1.0
  0
MTEXT
  5
1D79
330
1D42
100
AcDbEntity
  8
Značka (ISO)
100
AcDbMText
 10
364.1639728342505
 20
99.47045421898373
 30
0.0
 40
3.499999940395355
 41
0.0
 71
     7
 72
     1
  1
1
  7
Text poznámky (DIN)
 73
     1
 44
1.0
  0
MTEXT
  5
1D7A
330
1D42
100
AcDbEntity
  8
Značka (ISO)
100
AcDbMText
 10
352.0485914011366
 20
99.47045421898373
 30
0.0
 40
3.499999940395355
 41
0.0
 71
     7
 72
     1
  1
5
  7
Text poznámky (DIN)
 73
     1
 44
1.0
  0
LINE
  5
1D7B
330
1D42
100
AcDbEntity
  8
Značka (ISO)
100
AcDbLine
 10
584.0
 20
104.3948047876358
 30
0.0
 11
344.8997623033879
 21
104.3948047876358
 31
0.0
  0
MTEXT
  5
1D7C
102
{ACAD_XDICTIONARY
360
28F6
102
}
330
1D42
100
AcDbEntity
  8
Značka (ISO)
100
AcDbMText
 10
535.8078560552993
 20
91.8993504196406
 30
0.0
 40
3.499999940395355
 41
0.0
 71
     7
 72
     1
  1
Polykarbon\U+00E1t, 
  7
Text poznámky (DIN)
 73
     1
 44
1.0
  0
MTEXT
  5
1D7D
102
{ACAD_XDICTIONARY
360
28F8
102
}
330
1D42
100
AcDbEntity
  8
Značka (ISO)
100
AcDbMText
 10
535.8078560552993
 20
85.55064930021769
 30
0.0
 40
3.499999940395355
 41
0.0
 71
     7
 72
     1
  1
kou\U+0159ov\U+00FD
  7
Text poznámky (DIN)
 73
     1
 44
1.0
  0
MTEXT
  5
1D7E
330
1D42
100
AcDbEntity
  8
Značka (ISO)
100
AcDbMText
 10
510.4078560552992
 20
92.07305176556117
 30
0.0
 40
3.499999940395355
 41
0.0
 71
     7
 72
     1
  1
0,033 kg
  7
Text poznámky (DIN)
 73
     1
 44
1.0
  0
MTEXT
  5
1D7F
330
1D42
100
AcDbEntity
  8
Značka (ISO)
100
AcDbMText
 10
485.0078560552993
 20
93.12175302207476
 30
0.0
 40
3.499999940395355
 41
0.0
 71
     7
 72
     1
  1
E29864
  7
Text poznámky (DIN)
 73
     1
 44
1.0
  0
MTEXT
  5
1D80
102
{ACAD_XDICTIONARY
360
28FA
102
}
330
1D42
100
AcDbEntity
  8
Značka (ISO)
100
AcDbMText
 10
369.6404740531809
 20
91.8993504196406
 30
0.0
 40
3.499999940395355
 41
0.0
 71
     7
 72
     1
  1
Effidrain kryt plastov\U+00FD 218 pro balen\U+00ED PP 12mm
  7
Text poznámky (DIN)
 73
     1
 44
1.0
  0
MTEXT
  5
1D81
330
1D42
100
AcDbEntity
  8
Značka (ISO)
100
AcDbMText
 10
364.1639728342505
 20
93.12175302207476
 30
0.0
 40
3.499999940395355
 41
0.0
 71
     7
 72
     1
  1
1
  7
Text poznámky (DIN)
 73
     1
 44
1.0
  0
MTEXT
  5
1D82
330
1D42
100
AcDbEntity
  8
Značka (ISO)
100
AcDbMText
 10
352.0485914011366
 20
93.12175302207476
 30
0.0
 40
3.499999940395355
 41
0.0
 71
     7
 72
     1
  1
6
  7
Text poznámky (DIN)
 73
     1
 44
1.0
  0
LINE
  5
1D83
330
1D42
100
AcDbEntity
  8
Značka (ISO)
100
AcDbLine
 10
584.0
 20
98.04610359072693
 30
0.0
 11
344.8997623033879
 21
98.04610359072693
 31
0.0
  0
MTEXT
  5
1D84
102
{ACAD_XDICTIONARY
360
28FC
102
}
330
1D42
100
AcDbEntity
  8
Značka (ISO)
100
AcDbMText
 10
535.8078560552993
 20
79.20194802582272
 30
0.0
 40
3.499999940395355
 41
0.0
 71
     7
 72
     1
  1
Pap\U+00EDr
  7
Text poznámky (DIN)
 73
     1
 44
1.0
  0
MTEXT
  5
1D85
330
1D42
100
AcDbEntity
  8
Značka (ISO)
100
AcDbMText
 10
510.4078560552992
 20
79.37564937174328
 30
0.0
 40
3.499999940395355
 41
0.0
 71
     7
 72
     1
  1
0,001 kg
  7
Text poznámky (DIN)
 73
     1
 44
1.0
  0
MTEXT
  5
1D86
330
1D42
100
AcDbEntity
  8
Značka (ISO)
100
AcDbMText
 10
485.0078560552993
 20
80.42435062825687
 30
0.0
 40
3.499999940395355
 41
0.0
 71
     7
 72
     1
  1
91018
  7
Text poznámky (DIN)
 73
     1
 44
1.0
  0
MTEXT
  5
1D87
330
1D42
100
AcDbEntity
  8
Značka (ISO)
100
AcDbMText
 10
369.6404740531809
 20
80.42435062825687
 30
0.0
 40
3.499999940395355
 41
0.0
 71
     7
 72
     1
  1
Etiketa
  7
Text poznámky (DIN)
 73
     1
 44
1.0
  0
MTEXT
  5
1D88
330
1D42
100
AcDbEntity
  8
Značka (ISO)
100
AcDbMText
 10
364.1639728342505
 20
80.42435062825687
 30
0.0
 40
3.499999940395355
 41
0.0
 71
     7
 72
     1
  1
1
  7
Text poznámky (DIN)
 73
     1
 44
1.0
  0
MTEXT
  5
1D89
330
1D42
100
AcDbEntity
  8
Značka (ISO)
100
AcDbMText
 10
352.0457913940163
 20
80.42435062825687
 30
0.0
 40
3.499999940395355
 41
0.0
 71
     7
 72
     1
  1
7
  7
Text poznámky (DIN)
 73
     1
 44
1.0
  0
LINE
  5
1D8A
330
1D42
100
AcDbEntity
  8
Značka (ISO)
100
AcDbLine
 10
584.0
 20
85.34870119690902
 30
0.0
 11
344.8997623033879
 21
85.34870119690902
 31
0.0
  0
LINE
  5
1D8B
330
1D42
100
AcDbEntity
  8
Značka (ISO)
100
AcDbLine
 10
584.0
 20
79.00000000000007
 30
0.0
 11
344.8997623033879
 21
79.00000000000007
 31
0.0
  0
LINE
  5
1D8C
330
1D42
100
AcDbEntity
  8
Značka (ISO)
100
AcDbLine
 10
584.0
 20
136.1383107721806
 30
0.0
 11
584.0
 21
79.00000000000007
 31
0.0
  0
LINE
  5
1D8D
330
1D42
100
AcDbEntity
  8
Značka (ISO)
100
AcDbLine
 10
534.6054552863031
 20
136.1383107721806
 30
0.0
 11
534.6054552863031
 21
79.00000000000007
 31
0.0
  0
LINE
  5
1D8E
330
1D42
100
AcDbEntity
  8
Značka (ISO)
100
AcDbLine
 10
509.205455286303
 20
136.1383107721806
 30
0.0
 11
509.205455286303
 21
79.00000000000007
 31
0.0
  0
LINE
  5
1D8F
330
1D42
100
AcDbEntity
  8
Značka (ISO)
100
AcDbLine
 10
483.8054552863032
 20
136.1383107721806
 30
0.0
 11
483.8054552863032
 21
79.00000000000007
 31
0.0
  0
LINE
  5
1D90
330
1D42
100
AcDbEntity
  8
Značka (ISO)
100
AcDbLine
 10
368.4380732841847
 20
136.1383107721806
 30
0.0
 11
368.4380732841847
 21
79.00000000000007
 31
0.0
  0
LINE
  5
1D91
330
1D42
100
AcDbEntity
  8
Značka (ISO)
100
AcDbLine
 10
361.0406708307622
 20
136.1383107721806
 30
0.0
 11
361.0406708307622
 21
79.00000000000007
 31
0.0
  0
LINE
  5
1D92
330
1D42
100
AcDbEntity
  8
Značka (ISO)
100
AcDbLine
 10
344.8997623033879
 20
136.1383107721806
 30
0.0
 11
344.8997623033879
 21
79.00000000000007
 31
0.0
  0
ENDBLK
  5
1D44
330
1D42
100
AcDbEntity
  8
0
100
AcDbBlockEnd
  0
BLOCK
  5
1D97
330
1D96
100
AcDbEntity
  8
0
100
AcDbBlockBegin
  2
*D17
 70
     1
 10
0.0
 20
0.0
 30
0.0
  3
*D17
  1

  0
LINE
  5
1E6E
330
1D96
100
AcDbEntity
  8
Kóta (ISO)
440
 16777216
100
AcDbLine
 10
384.0781280077923
 20
381.6084361163539
 30
0.0
 11
436.6436498448248
 21
381.6084361163539
 31
0.0
  0
LINE
  5
1E6F
330
1D96
100
AcDbEntity
  8
Kóta (ISO)
440
 16777216
100
AcDbLine
 10
384.0781280077923
 20
491.6084361163538
 30
0.0
 11
436.6436498448248
 21
491.6084361163538
 31
0.0
  0
LINE
  5
1E70
330
1D96
100
AcDbEntity
  8
Kóta (ISO)
440
 16777216
100
AcDbLine
 10
435.1436498448248
 20
385.3584361163539
 30
0.0
 11
435.1436498448248
 21
487.8584361163539
 31
0.0
  0
SOLID
  5
1E71
330
1D96
100
AcDbEntity
  8
Kóta (ISO)
440
 16777216
100
AcDbTrace
 10
434.5186498448248
 20
385.3584361163539
 30
0.0
 11
435.7686498448248
 21
385.3584361163539
 31
0.0
 12
435.1436498448246
 22
381.6084361163539
 32
0.0
 13
435.1436498448246
 23
381.6084361163539
 33
0.0
  0
SOLID
  5
1E72
330
1D96
100
AcDbEntity
  8
Kóta (ISO)
440
 16777216
100
AcDbTrace
 10
434.5186498448248
 20
487.8584361163539
 30
0.0
 11
435.7686498448248
 21
487.8584361163539
 31
0.0
 12
435.1436498448248
 22
491.6084361163538
 32
0.0
 13
435.1436498448248
 23
491.6084361163538
 33
0.0
  0
MTEXT
  5
1E73
102
{ACAD_XDICTIONARY
360
28FE
102
}
330
1D96
100
AcDbEntity
  8
Kóta (ISO)
440
 16777216
100
AcDbMText
 10
428.0172717387131
 20
428.4037685542316
 30
0.0
 40
5.25
 41
0.0
 71
     1
 72
     1
  1
\A1;{\U+00D8}110
  7
Text poznámky (ISO)
 11
0.0000000000000001
 21
1.0
 31
0.0
 73
     1
 44
1.0
  0
POINT
  5
1E74
330
1D96
100
AcDbEntity
  8
Defpoints
 62
     0
440
 16777216
100
AcDbPoint
 10
384.0781280077923
 20
381.6084361163539
 30
0.0
  0
POINT
  5
1E75
330
1D96
100
AcDbEntity
  8
Defpoints
 62
     0
440
 16777216
100
AcDbPoint
 10
384.0781280077923
 20
491.6084361163538
 30
0.0
  0
POINT
  5
1E76
330
1D96
100
AcDbEntity
  8
Defpoints
 62
     0
440
 16777216
100
AcDbPoint
 10
435.1436498448248
 20
491.6084361163538
 30
0.0
  0
ENDBLK
  5
1D98
330
1D96
100
AcDbEntity
  8
0
100
AcDbBlockEnd
  0
BLOCK
  5
1E79
330
1E78
100
AcDbEntity
  8
0
100
AcDbBlockBegin
  2
*D18
 70
     1
 10
0.0
 20
0.0
 30
0.0
  3
*D18
  1

  0
LINE
  5
1F54
330
1E78
100
AcDbEntity
  8
Kóta (ISO)
440
 16777216
100
AcDbLine
 10
384.0781280077923
 20
381.6084361163539
 30
0.0
 11
463.5781280077922
 21
381.6084361163539
 31
0.0
  0
LINE
  5
1F55
330
1E78
100
AcDbEntity
  8
Kóta (ISO)
440
 16777216
100
AcDbLine
 10
313.3643900521823
 20
534.1084361163539
 30
0.0
 11
463.5781280077924
 21
534.1084361163539
 31
0.0
  0
LINE
  5
1F56
330
1E78
100
AcDbEntity
  8
Kóta (ISO)
440
 16777216
100
AcDbLine
 10
462.0781280077922
 20
385.3584361163539
 30
0.0
 11
462.0781280077922
 21
530.3584361163538
 31
0.0
  0
SOLID
  5
1F57
330
1E78
100
AcDbEntity
  8
Kóta (ISO)
440
 16777216
100
AcDbTrace
 10
461.4531280077923
 20
385.3584361163539
 30
0.0
 11
462.7031280077924
 21
385.3584361163539
 31
0.0
 12
462.0781280077922
 22
381.6084361163539
 32
0.0
 13
462.0781280077922
 23
381.6084361163539
 33
0.0
  0
SOLID
  5
1F58
330
1E78
100
AcDbEntity
  8
Kóta (ISO)
440
 16777216
100
AcDbTrace
 10
461.4531280077923
 20
530.3584361163538
 30
0.0
 11
462.7031280077924
 21
530.3584361163538
 31
0.0
 12
462.0781280077922
 22
534.1084361163539
 32
0.0
 13
462.0781280077922
 23
534.1084361163539
 33
0.0
  0
MTEXT
  5
1F59
102
{ACAD_XDICTIONARY
360
2900
102
}
330
1E78
100
AcDbEntity
  8
Kóta (ISO)
440
 16777216
100
AcDbMText
 10
454.2712596397599
 20
444.9685611667232
 30
0.0
 40
5.25
 41
0.0
 71
     1
 72
     1
  1
\A1;152,5{\H5.257800;\U+00B11}
  7
Text poznámky (ISO)
 11
0.0000000000000001
 21
1.0
 31
0.0
 73
     1
 44
1.0
  0
POINT
  5
1F5A
330
1E78
100
AcDbEntity
  8
Defpoints
 62
     0
440
 16777216
100
AcDbPoint
 10
384.0781280077923
 20
381.6084361163539
 30
0.0
  0
POINT
  5
1F5B
330
1E78
100
AcDbEntity
  8
Defpoints
 62
     0
440
 16777216
100
AcDbPoint
 10
313.3643900521823
 20
534.1084361163539
 30
0.0
  0
POINT
  5
1F5C
330
1E78
100
AcDbEntity
  8
Defpoints
 62
     0
440
 16777216
100
AcDbPoint
 10
462.0781280077922
 20
534.1084361163539
 30
0.0
  0
ENDBLK
  5
1E7A
330
1E78
100
AcDbEntity
  8
0
100
AcDbBlockEnd
  0
BLOCK
  5
1F5F
330
1F5E
100
AcDbEntity
  8
0
100
AcDbBlockBegin
  2
*D19
 70
     1
 10
0.0
 20
0.0
 30
0.0
  3
*D19
  1

  0
LINE
  5
2036
330
1F5E
100
AcDbEntity
  8
Kóta (ISO)
440
 16777216
100
AcDbLine
 10
84.36439005218234
 20
403.6084361163538
 30
0.0
 11
84.36439005218234
 21
345.5065088313391
 31
0.0
  0
LINE
  5
2037
330
1F5E
100
AcDbEntity
  8
Kóta (ISO)
440
 16777216
100
AcDbLine
 10
392.3643900521824
 20
383.6084361163539
 30
0.0
 11
392.3643900521824
 21
345.5065088313391
 31
0.0
  0
LINE
  5
2038
330
1F5E
100
AcDbEntity
  8
Kóta (ISO)
440
 16777216
100
AcDbLine
 10
88.11439005218234
 20
347.0065088313392
 30
0.0
 11
388.6143900521823
 21
347.0065088313392
 31
0.0
  0
SOLID
  5
2039
330
1F5E
100
AcDbEntity
  8
Kóta (ISO)
440
 16777216
100
AcDbTrace
 10
88.11439005218234
 20
347.6315088313392
 30
0.0
 11
88.11439005218234
 21
346.3815088313392
 31
0.0
 12
84.36439005218234
 22
347.0065088313392
 32
0.0
 13
84.36439005218234
 23
347.0065088313392
 33
0.0
  0
SOLID
  5
203A
330
1F5E
100
AcDbEntity
  8
Kóta (ISO)
440
 16777216
100
AcDbTrace
 10
388.6143900521823
 20
347.6315088313392
 30
0.0
 11
388.6143900521823
 21
346.3815088313392
 31
0.0
 12
392.3643900521824
 22
347.0065088313392
 32
0.0
 13
392.3643900521824
 23
347.0065088313392
 33
0.0
  0
MTEXT
  5
203B
102
{ACAD_XDICTIONARY
360
2902
102
}
330
1F5E
100
AcDbEntity
  8
Kóta (ISO)
440
 16777216
100
AcDbMText
 10
228.3110664793146
 20
353.6392670583371
 30
0.0
 40
5.25
 41
0.0
 71
     1
 72
     1
  1
\A1;308{\H5.257800;\U+00B11}
  7
Text poznámky (ISO)
 73
     1
 44
1.0
  0
POINT
  5
203C
330
1F5E
100
AcDbEntity
  8
Defpoints
 62
     0
440
 16777216
100
AcDbPoint
 10
84.36439005218234
 20
403.6084361163538
 30
0.0
  0
POINT
  5
203D
330
1F5E
100
AcDbEntity
  8
Defpoints
 62
     0
440
 16777216
100
AcDbPoint
 10
392.3643900521824
 20
383.6084361163539
 30
0.0
  0
POINT
  5
203E
330
1F5E
100
AcDbEntity
  8
Defpoints
 62
     0
440
 16777216
100
AcDbPoint
 10
392.3643900521824
 20
347.0065088313392
 30
0.0
  0
ENDBLK
  5
1F60
330
1F5E
100
AcDbEntity
  8
0
100
AcDbBlockEnd
  0
BLOCK
  5
2040
330
203F
100
AcDbEntity
  8
0
100
AcDbBlockBegin
  2
Pozice1
 70
     0
 10
0.0
 20
0.0
 30
0.0
  3
Pozice1
  1

  0
LINE
  5
2042
330
203F
100
AcDbEntity
  8
Značka (ISO)
100
AcDbLine
 10
54.47515974848825
 20
291.2223595911292
 30
0.0
 11
56.24292670145488
 21
292.9901265440953
 31
0.0
  0
POLYLINE
  5
2043
330
203F
100
AcDbEntity
  8
Značka (ISO)
100
AcDb2dPolyline
 66
     1
 10
0.0
 20
0.0
 30
0.0
 70
   128
  0
VERTEX
  5
2044
330
2043
100
AcDbEntity
  8
Značka (ISO)
100
AcDbVertex
100
AcDb2dVertex
 10
54.82871532440185
 20
290.8687973022462
 30
0.0
  0
VERTEX
  5
2045
330
2043
100
AcDbEntity
  8
Značka (ISO)
100
AcDbVertex
100
AcDb2dVertex
 10
56.24292850494384
 20
292.9901313781738
 30
0.0
  0
VERTEX
  5
2047
330
2043
100
AcDbEntity
  8
Značka (ISO)
100
AcDbVertex
100
AcDb2dVertex
 10
54.12160873413085
 20
291.5759086608887
 30
0.0
  0
VERTEX
  5
2048
330
2043
100
AcDbEntity
  8
Značka (ISO)
100
AcDbVertex
100
AcDb2dVertex
 10
54.82871532440185
 20
290.8687973022462
 30
0.0
  0
SEQEND
  5
2046
330
2043
100
AcDbEntity
  8
Značka (ISO)
  0
SOLID
  5
2049
330
203F
100
AcDbEntity
  8
Značka (ISO)
100
AcDbTrace
 10
54.82871532440185
 20
290.8687973022462
 30
0.0
 11
56.24292850494384
 21
292.9901313781738
 31
0.0
 12
54.12160873413085
 22
291.5759086608887
 32
0.0
 13
54.82871532440185
 23
290.8687973022462
 33
0.0
  0
LINE
  5
204A
330
203F
100
AcDbEntity
  8
Značka (ISO)
100
AcDbLine
 10
54.82871313908148
 20
290.8688062005359
 30
0.0
 11
56.24292670145488
 21
292.9901265440953
 31
0.0
  0
LINE
  5
204B
330
203F
100
AcDbEntity
  8
Značka (ISO)
100
AcDbLine
 10
56.24292670145488
 20
292.9901265440953
 30
0.0
 11
54.12160635789504
 21
291.5759129817224
 31
0.0
  0
LINE
  5
204C
330
203F
100
AcDbEntity
  8
Značka (ISO)
100
AcDbLine
 10
54.12160635789504
 20
291.5759129817224
 30
0.0
 11
54.82871313908148
 21
290.8688062005359
 31
0.0
  0
LINE
  5
204D
330
203F
100
AcDbEntity
  8
Značka (ISO)
100
AcDbLine
 10
54.47515974848825
 20
291.2223595911292
 30
0.0
 11
48.89220606011868
 21
285.6394059027612
 31
0.0
  0
MTEXT
  5
204E
330
203F
100
AcDbEntity
  8
Značka (ISO)
100
AcDbMText
 10
41.01720641774654
 20
292.2104144658029
 30
0.0
 40
5.24999976158142
 41
0.0
 71
     5
 72
     1
  1
1
  7
Text popisu (ISO)
 73
     1
 44
2.342679262161253
  0
LINE
  5
204F
330
203F
100
AcDbEntity
  8
Značka (ISO)
100
AcDbLine
 10
48.89220606011868
 20
285.6394059027612
 30
0.0
 11
33.14220677537441
 21
285.6394059027612
 31
0.0
  0
ENDBLK
  5
2041
330
203F
100
AcDbEntity
  8
0
100
AcDbBlockEnd
  0
BLOCK
  5
2053
330
2052
100
AcDbEntity
  8
0
100
AcDbBlockBegin
  2
*D21
 70
     1
 10
0.0
 20
0.0
 30
0.0
  3
*D21
  1

  0
LINE
  5
211F
330
2052
100
AcDbEntity
  8
Kóta (ISO)
440
 16777216
100
AcDbLine
 10
313.3643900521823
 20
534.1084361163539
 30
0.0
 11
313.3643900521823
 21
505.0108569858307
 31
0.0
  0
LINE
  5
2120
330
2052
100
AcDbEntity
  8
Kóta (ISO)
440
 16777216
100
AcDbLine
 10
73.36439005218233
 20
534.1084361163539
 30
0.0
 11
73.36439005218233
 21
505.0108569858307
 31
0.0
  0
LINE
  5
2121
330
2052
100
AcDbEntity
  8
Kóta (ISO)
440
 16777216
100
AcDbLine
 10
309.6143900521823
 20
506.5108569858308
 30
0.0
 11
77.11439005218233
 21
506.5108569858308
 31
0.0
  0
SOLID
  5
2122
330
2052
100
AcDbEntity
  8
Kóta (ISO)
440
 16777216
100
AcDbTrace
 10
309.6143900521823
 20
507.1358569858309
 30
0.0
 11
309.6143900521823
 21
505.8858569858307
 31
0.0
 12
313.3643900521823
 22
506.5108569858308
 32
0.0
 13
313.3643900521823
 23
506.5108569858308
 33
0.0
  0
SOLID
  5
2123
330
2052
100
AcDbEntity
  8
Kóta (ISO)
440
 16777216
100
AcDbTrace
 10
77.11439005218233
 20
507.1358569858309
 30
0.0
 11
77.11439005218233
 21
505.8858569858307
 31
0.0
 12
73.36439005218233
 22
506.5108569858308
 32
0.0
 13
73.36439005218233
 23
506.5108569858308
 33
0.0
  0
MTEXT
  5
2124
330
2052
100
AcDbEntity
  8
Kóta (ISO)
440
 16777216
100
AcDbMText
 10
184.7624381782121
 20
515.5530028465403
 30
0.0
 40
5.25
 41
0.0
 71
     1
 72
     1
  1
\A1;{\fAIGDT|b0|i0;\H5.2500;\ln\fTahoma|b0|i0;\H5.2500;}240
  7
Text poznámky (ISO)
 73
     1
 44
1.0
  0
POINT
  5
2125
330
2052
100
AcDbEntity
  8
Defpoints
 62
     0
440
 16777216
100
AcDbPoint
 10
313.3643900521823
 20
534.1084361163539
 30
0.0
  0
POINT
  5
2126
330
2052
100
AcDbEntity
  8
Defpoints
 62
     0
440
 16777216
100
AcDbPoint
 10
73.36439005218233
 20
534.1084361163539
 30
0.0
  0
POINT
  5
2127
330
2052
100
AcDbEntity
  8
Defpoints
 62
     0
440
 16777216
100
AcDbPoint
 10
73.36439005218233
 20
506.5108569858308
 30
0.0
  0
ENDBLK
  5
2054
330
2052
100
AcDbEntity
  8
0
100
AcDbBlockEnd
  0
BLOCK
  5
212A
330
2129
100
AcDbEntity
  8
0
100
AcDbBlockBegin
  2
*D22
 70
     1
 10
0.0
 20
0.0
 30
0.0
  3
*D22
  1

  0
LINE
  5
21FB
330
2129
100
AcDbEntity
  8
Kóta (ISO)
440
 16777216
100
AcDbLine
 10
73.36439005218233
 20
534.1084361163539
 30
0.0
 11
43.768380487425
 21
534.1084361163539
 31
0.0
  0
LINE
  5
21FC
330
2129
100
AcDbEntity
  8
Kóta (ISO)
440
 16777216
100
AcDbLine
 10
100.8643900521823
 20
387.1084361163539
 30
0.0
 11
43.76838048742498
 21
387.1084361163539
 31
0.0
  0
LINE
  5
21FD
330
2129
100
AcDbEntity
  8
Kóta (ISO)
440
 16777216
100
AcDbLine
 10
45.268380487425
 20
530.3584361163538
 30
0.0
 11
45.26838048742496
 21
390.8584361163539
 31
0.0
  0
SOLID
  5
21FE
330
2129
100
AcDbEntity
  8
Kóta (ISO)
440
 16777216
100
AcDbTrace
 10
44.643380487425
 20
530.3584361163538
 30
0.0
 11
45.893380487425
 21
530.3584361163538
 31
0.0
 12
45.268380487425
 22
534.1084361163539
 32
0.0
 13
45.268380487425
 23
534.1084361163539
 33
0.0
  0
SOLID
  5
21FF
330
2129
100
AcDbEntity
  8
Kóta (ISO)
440
 16777216
100
AcDbTrace
 10
44.64338048742496
 20
390.8584361163539
 30
0.0
 11
45.89338048742496
 21
390.8584361163539
 31
0.0
 12
45.26838048742496
 22
387.1084361163539
 32
0.0
 13
45.26838048742496
 23
387.1084361163539
 33
0.0
  0
MTEXT
  5
2200
330
2129
100
AcDbEntity
  8
Kóta (ISO)
440
 16777216
100
AcDbMText
 10
38.85775120602801
 20
455.2244535777373
 30
0.0
 40
5.25
 41
0.0
 71
     1
 72
     1
  1
\A1;147
  7
Text poznámky (ISO)
 11
0.0000000000000001
 21
1.0
 31
0.0
 73
     1
 44
1.0
  0
POINT
  5
2201
330
2129
100
AcDbEntity
  8
Defpoints
 62
     0
440
 16777216
100
AcDbPoint
 10
73.36439005218233
 20
534.1084361163539
 30
0.0
  0
POINT
  5
2202
330
2129
100
AcDbEntity
  8
Defpoints
 62
     0
440
 16777216
100
AcDbPoint
 10
100.8643900521823
 20
387.1084361163539
 30
0.0
  0
POINT
  5
2203
330
2129
100
AcDbEntity
  8
Defpoints
 62
     0
440
 16777216
100
AcDbPoint
 10
45.26838048742496
 20
387.1084361163539
 30
0.0
  0
ENDBLK
  5
212B
330
2129
100
AcDbEntity
  8
0
100
AcDbBlockEnd
  0
BLOCK
  5
2206
330
2205
100
AcDbEntity
  8
0
100
AcDbBlockBegin
  2
*D23
 70
     1
 10
0.0
 20
0.0
 30
0.0
  3
*D23
  1

  0
LINE
  5
22D7
330
2205
100
AcDbEntity
  8
Kóta (ISO)
440
 16777216
100
AcDbLine
 10
302.3643900521824
 20
498.2052549589964
 30
0.0
 11
302.3643900521824
 21
364.5454893802838
 31
0.0
  0
LINE
  5
22D8
330
2205
100
AcDbEntity
  8
Kóta (ISO)
440
 16777216
100
AcDbLine
 10
84.36439005218234
 20
498.2052549589964
 30
0.0
 11
84.36439005218231
 21
364.5454893802838
 31
0.0
  0
LINE
  5
22D9
330
2205
100
AcDbEntity
  8
Kóta (ISO)
440
 16777216
100
AcDbLine
 10
298.6143900521824
 20
366.0454893802838
 30
0.0
 11
88.11439005218231
 21
366.0454893802838
 31
0.0
  0
SOLID
  5
22DA
330
2205
100
AcDbEntity
  8
Kóta (ISO)
440
 16777216
100
AcDbTrace
 10
298.6143900521824
 20
366.6704893802838
 30
0.0
 11
298.6143900521824
 21
365.4204893802838
 31
0.0
 12
302.3643900521824
 22
366.0454893802838
 32
0.0
 13
302.3643900521824
 23
366.0454893802838
 33
0.0
  0
SOLID
  5
22DB
330
2205
100
AcDbEntity
  8
Kóta (ISO)
440
 16777216
100
AcDbTrace
 10
88.11439005218231
 20
366.6704893802838
 30
0.0
 11
88.11439005218231
 21
365.4204893802838
 31
0.0
 12
84.36439005218231
 22
366.0454893802838
 32
0.0
 13
84.36439005218231
 23
366.0454893802838
 33
0.0
  0
MTEXT
  5
22DC
102
{ACAD_XDICTIONARY
360
2904
102
}
330
2205
100
AcDbEntity
  8
Kóta (ISO)
440
 16777216
100
AcDbMText
 10
185.1438561368028
 20
373.1718674863953
 30
0.0
 40
5.25
 41
0.0
 71
     1
 72
     1
  1
\A1;{\U+00D8}218
  7
Text poznámky (ISO)
 73
     1
 44
1.0
  0
POINT
  5
22DD
330
2205
100
AcDbEntity
  8
Defpoints
 62
     0
440
 16777216
100
AcDbPoint
 10
302.3643900521824
 20
498.2052549589964
 30
0.0
  0
POINT
  5
22DE
330
2205
100
AcDbEntity
  8
Defpoints
 62
     0
440
 16777216
100
AcDbPoint
 10
84.36439005218234
 20
498.2052549589964
 30
0.0
  0
POINT
  5
22DF
330
2205
100
AcDbEntity
  8
Defpoints
 62
     0
440
 16777216
100
AcDbPoint
 10
84.36439005218231
 20
366.0454893802838
 30
0.0
  0
ENDBLK
  5
2207
330
2205
100
AcDbEntity
  8
0
100
AcDbBlockEnd
  0
BLOCK
  5
22E1
330
22E0
100
AcDbEntity
  8
0
100
AcDbBlockBegin
  2
Pozice2
 70
     0
 10
0.0
 20
0.0
 30
0.0
  3
Pozice2
  1

  0
LINE
  5
22E3
330
22E0
100
AcDbEntity
  8
Značka (ISO)
100
AcDbLine
 10
240.0809040422887
 20
329.9040209203634
 30
0.0
 11
238.8309040422882
 21
327.7389574109026
 31
0.0
  0
POLYLINE
  5
22E4
330
22E0
100
AcDbEntity
  8
Značka (ISO)
100
AcDb2dPolyline
 66
     1
 10
0.0
 20
0.0
 30
0.0
 70
   128
  0
VERTEX
  5
22E5
330
22E4
100
AcDbEntity
  8
Značka (ISO)
100
AcDbVertex
100
AcDb2dVertex
 10
239.6478843688965
 20
330.1540374755859
 30
0.0
  0
VERTEX
  5
22E6
330
22E4
100
AcDbEntity
  8
Značka (ISO)
100
AcDbVertex
100
AcDb2dVertex
 10
238.8309097290039
 20
327.7389526367187
 30
0.0
  0
VERTEX
  5
22E8
330
22E4
100
AcDbEntity
  8
Značka (ISO)
100
AcDbVertex
100
AcDb2dVertex
 10
240.513916015625
 20
329.6540069580078
 30
0.0
  0
VERTEX
  5
22E9
330
22E4
100
AcDbEntity
  8
Značka (ISO)
100
AcDbVertex
100
AcDb2dVertex
 10
239.6478843688965
 20
330.1540374755859
 30
0.0
  0
SEQEND
  5
22E7
330
22E4
100
AcDbEntity
  8
Značka (ISO)
  0
SOLID
  5
22EA
330
22E0
100
AcDbEntity
  8
Značka (ISO)
100
AcDbTrace
 10
239.6478843688965
 20
330.1540374755859
 30
0.0
 11
238.8309097290039
 21
327.7389526367187
 31
0.0
 12
240.513916015625
 22
329.6540069580078
 32
0.0
 13
239.6478843688965
 23
330.1540374755859
 33
0.0
  0
LINE
  5
22EB
330
22E0
100
AcDbEntity
  8
Značka (ISO)
100
AcDbLine
 10
239.6478913403965
 20
330.1540209203636
 30
0.0
 11
238.8309040422882
 21
327.7389574109026
 31
0.0
  0
LINE
  5
22EC
330
22E0
100
AcDbEntity
  8
Značka (ISO)
100
AcDbLine
 10
238.8309040422882
 20
327.7389574109026
 30
0.0
 11
240.5139167441809
 21
329.6540209203633
 31
0.0
  0
LINE
  5
22ED
330
22E0
100
AcDbEntity
  8
Značka (ISO)
100
AcDbLine
 10
240.5139167441809
 20
329.6540209203633
 30
0.0
 11
239.6478913403965
 21
330.1540209203636
 31
0.0
  0
LINE
  5
22EE
330
22E0
100
AcDbEntity
  8
Značka (ISO)
100
AcDbLine
 10
240.0809040422887
 20
329.9040209203634
 30
0.0
 11
245.2524788389904
 21
338.8614512233893
 31
0.0
  0
MTEXT
  5
22EF
330
22E0
100
AcDbEntity
  8
Značka (ISO)
100
AcDbMText
 10
253.1274784813625
 20
345.4792586712996
 30
0.0
 40
5.24999976158142
 41
0.0
 71
     5
 72
     1
  1
2
  7
Text popisu (ISO)
 73
     1
 44
1.0
  0
LINE
  5
22F0
330
22E0
100
AcDbEntity
  8
Značka (ISO)
100
AcDbLine
 10
245.2524788389904
 20
338.8614512233893
 30
0.0
 11
261.0024781237346
 21
338.8614512233893
 31
0.0
  0
ENDBLK
  5
22E2
330
22E0
100
AcDbEntity
  8
0
100
AcDbBlockEnd
  0
BLOCK
  5
22F3
330
22F2
100
AcDbEntity
  8
0
100
AcDbBlockBegin
  2
Pozice3
 70
     0
 10
0.0
 20
0.0
 30
0.0
  3
Pozice3
  1

  0
LINE
  5
22F5
330
22F2
100
AcDbEntity
  8
Značka (ISO)
100
AcDbLine
 10
200.5407563916993
 20
356.7193383569921
 30
0.0
 11
198.1259418259766
 21
356.072290744236
 31
0.0
  0
POLYLINE
  5
22F6
330
22F2
100
AcDbEntity
  8
Značka (ISO)
100
AcDb2dPolyline
 66
     1
 10
0.0
 20
0.0
 30
0.0
 70
   128
  0
VERTEX
  5
22F7
330
22F6
100
AcDbEntity
  8
Značka (ISO)
100
AcDbVertex
100
AcDb2dVertex
 10
200.4113388061524
 20
357.2023010253906
 30
0.0
  0
VERTEX
  5
22F8
330
22F6
100
AcDbEntity
  8
Značka (ISO)
100
AcDbVertex
100
AcDb2dVertex
 10
198.12593460083
 20
356.0722732543945
 30
0.0
  0
VERTEX
  5
22FA
330
22F6
100
AcDbEntity
  8
Značka (ISO)
100
AcDbVertex
100
AcDb2dVertex
 10
200.670166015625
 20
356.2363815307617
 30
0.0
  0
VERTEX
  5
22FB
330
22F6
100
AcDbEntity
  8
Značka (ISO)
100
AcDbVertex
100
AcDb2dVertex
 10
200.4113388061524
 20
357.2023010253906
 30
0.0
  0
SEQEND
  5
22F9
330
22F6
100
AcDbEntity
  8
Značka (ISO)
  0
SOLID
  5
22FC
330
22F2
100
AcDbEntity
  8
Značka (ISO)
100
AcDbTrace
 10
200.4113388061524
 20
357.2023010253906
 30
0.0
 11
198.12593460083
 21
356.0722732543945
 31
0.0
 12
200.670166015625
 22
356.2363815307617
 32
0.0
 13
200.4113388061524
 23
357.2023010253906
 33
0.0
  0
LINE
  5
22FD
330
22F2
100
AcDbEntity
  8
Značka (ISO)
100
AcDbLine
 10
200.411346869148
 20
357.2023012701367
 30
0.0
 11
198.1259418259766
 21
356.072290744236
 31
0.0
  0
LINE
  5
22FE
330
22F2
100
AcDbEntity
  8
Značka (ISO)
100
AcDbLine
 10
198.1259418259766
 20
356.072290744236
 30
0.0
 11
200.6701659142505
 21
356.2363754438476
 31
0.0
  0
LINE
  5
22FF
330
22F2
100
AcDbEntity
  8
Značka (ISO)
100
AcDbLine
 10
200.6701659142505
 20
356.2363754438476
 30
0.0
 11
200.411346869148
 21
357.2023012701367
 31
0.0
  0
LINE
  5
2300
330
22F2
100
AcDbEntity
  8
Značka (ISO)
100
AcDbLine
 10
200.5407563916993
 20
356.7193383569921
 30
0.0
 11
219.5290513734958
 21
361.8072366630074
 31
0.0
  0
MTEXT
  5
2301
330
22F2
100
AcDbEntity
  8
Značka (ISO)
100
AcDbMText
 10
227.4040510158679
 20
368.5909679214817
 30
0.0
 40
5.24999976158142
 41
0.0
 71
     5
 72
     1
  1
3
  7
Text popisu (ISO)
 73
     1
 44
1.0
  0
LINE
  5
2302
330
22F2
100
AcDbEntity
  8
Značka (ISO)
100
AcDbLine
 10
219.5290513734958
 20
361.8072366630074
 30
0.0
 11
235.27905065824
 21
361.8072366630074
 31
0.0
  0
ENDBLK
  5
22F4
330
22F2
100
AcDbEntity
  8
0
100
AcDbBlockEnd
  0
BLOCK
  5
2307
330
2306
100
AcDbEntity
  8
0
100
AcDbBlockBegin
  2
Pozice4
 70
     0
 10
0.0
 20
0.0
 30
0.0
  3
Pozice4
  1

  0
LINE
  5
2309
330
2306
100
AcDbEntity
  8
Značka (ISO)
100
AcDbLine
 10
134.3491436781204
 20
362.3916608330401
 30
0.0
 11
133.2509891438156
 21
360.1457631018899
 31
0.0
  0
POLYLINE
  5
230A
330
2306
100
AcDbEntity
  8
Značka (ISO)
100
AcDb2dPolyline
 66
     1
 10
0.0
 20
0.0
 30
0.0
 70
   128
  0
VERTEX
  5
230B
330
230A
100
AcDbEntity
  8
Značka (ISO)
100
AcDbVertex
100
AcDb2dVertex
 10
133.8999652862549
 20
362.6112747192383
 30
0.0
  0
VERTEX
  5
230C
330
230A
100
AcDbEntity
  8
Značka (ISO)
100
AcDbVertex
100
AcDb2dVertex
 10
133.2509899139404
 20
360.1457595825195
 30
0.0
  0
VERTEX
  5
230E
330
230A
100
AcDbEntity
  8
Značka (ISO)
100
AcDbVertex
100
AcDb2dVertex
 10
134.7983264923096
 20
362.1720123291016
 30
0.0
  0
VERTEX
  5
230F
330
230A
100
AcDbEntity
  8
Značka (ISO)
100
AcDbVertex
100
AcDb2dVertex
 10
133.8999652862549
 20
362.6112747192383
 30
0.0
  0
SEQEND
  5
230D
330
230A
100
AcDbEntity
  8
Značka (ISO)
  0
SOLID
  5
2310
330
2306
100
AcDbEntity
  8
Značka (ISO)
100
AcDbTrace
 10
133.8999652862549
 20
362.6112747192383
 30
0.0
 11
133.2509899139404
 21
360.1457595825195
 31
0.0
 12
134.7983264923096
 22
362.1720123291016
 32
0.0
 13
133.8999652862549
 23
362.6112747192383
 33
0.0
  0
LINE
  5
2311
330
2306
100
AcDbEntity
  8
Značka (ISO)
100
AcDbLine
 10
133.8999641318904
 20
362.6112917399012
 30
0.0
 11
133.2509891438156
 21
360.1457631018899
 31
0.0
  0
LINE
  5
2312
330
2306
100
AcDbEntity
  8
Značka (ISO)
100
AcDbLine
 10
133.2509891438156
 20
360.1457631018899
 30
0.0
 11
134.7983232243505
 21
362.1720299261791
 31
0.0
  0
LINE
  5
2313
330
2306
100
AcDbEntity
  8
Značka (ISO)
100
AcDbLine
 10
134.7983232243505
 20
362.1720299261791
 30
0.0
 11
133.8999641318904
 21
362.6112917399012
 31
0.0
  0
LINE
  5
2314
330
2306
100
AcDbEntity
  8
Značka (ISO)
100
AcDbLine
 10
134.3491436781204
 20
362.3916608330401
 30
0.0
 11
152.1035431643885
 21
398.7021838773992
 31
0.0
  0
MTEXT
  5
2315
330
2306
100
AcDbEntity
  8
Značka (ISO)
100
AcDbMText
 10
159.9785428067606
 20
405.4306073899399
 30
0.0
 40
5.24999976158142
 41
0.0
 71
     5
 72
     1
  1
5
  7
Text popisu (ISO)
 73
     1
 44
1.0
  0
LINE
  5
2316
330
2306
100
AcDbEntity
  8
Značka (ISO)
100
AcDbLine
 10
152.1035431643885
 20
398.7021838773992
 30
0.0
 11
167.8535424491327
 21
398.7021838773992
 31
0.0
  0
ENDBLK
  5
2308
330
2306
100
AcDbEntity
  8
0
100
AcDbBlockEnd
  0
BLOCK
  5
2319
330
2318
100
AcDbEntity
  8
0
100
AcDbBlockBegin
  2
Pozice5
 70
     0
 10
0.0
 20
0.0
 30
0.0
  3
Pozice5
  1

  0
LINE
  5
231B
330
2318
100
AcDbEntity
  8
Značka (ISO)
100
AcDbLine
 10
122.2868556763682
 20
364.7575908077004
 30
0.0
 11
123.2429267014549
 21
362.4476279952313
 31
0.0
  0
POLYLINE
  5
231C
330
2318
100
AcDbEntity
  8
Značka (ISO)
100
AcDb2dPolyline
 66
     1
 10
0.0
 20
0.0
 30
0.0
 70
   128
  0
VERTEX
  5
231D
330
231C
100
AcDbEntity
  8
Značka (ISO)
100
AcDbVertex
100
AcDb2dVertex
 10
121.8248653411865
 20
364.5663833618164
 30
0.0
  0
VERTEX
  5
231E
330
231C
100
AcDbEntity
  8
Značka (ISO)
100
AcDbVertex
100
AcDb2dVertex
 10
123.2429313659668
 20
362.447624206543
 30
0.0
  0
VERTEX
  5
2320
330
231C
100
AcDbEntity
  8
Značka (ISO)
100
AcDbVertex
100
AcDb2dVertex
 10
122.748851776123
 20
364.9488067626953
 30
0.0
  0
VERTEX
  5
2321
330
231C
100
AcDbEntity
  8
Značka (ISO)
100
AcDbVertex
100
AcDb2dVertex
 10
121.8248653411865
 20
364.5663833618164
 30
0.0
  0
SEQEND
  5
231F
330
231C
100
AcDbEntity
  8
Značka (ISO)
  0
SOLID
  5
2322
330
2318
100
AcDbEntity
  8
Značka (ISO)
100
AcDbTrace
 10
121.8248653411865
 20
364.5663833618164
 30
0.0
 11
123.2429313659668
 21
362.447624206543
 31
0.0
 12
122.748851776123
 22
364.9488067626953
 32
0.0
 13
121.8248653411865
 23
364.5663833618164
 33
0.0
  0
LINE
  5
2323
330
2318
100
AcDbEntity
  8
Značka (ISO)
100
AcDbLine
 10
121.8248631138743
 20
364.5663766026828
 30
0.0
 11
123.2429267014549
 21
362.4476279952313
 31
0.0
  0
LINE
  5
2324
330
2318
100
AcDbEntity
  8
Značka (ISO)
100
AcDbLine
 10
123.2429267014549
 20
362.4476279952313
 30
0.0
 11
122.748848238862
 21
364.9488050127177
 31
0.0
  0
LINE
  5
2325
330
2318
100
AcDbEntity
  8
Značka (ISO)
100
AcDbLine
 10
122.748848238862
 20
364.9488050127177
 30
0.0
 11
121.8248631138743
 21
364.5663766026828
 31
0.0
  0
LINE
  5
2326
330
2318
100
AcDbEntity
  8
Značka (ISO)
100
AcDbLine
 10
122.2868556763682
 20
364.7575908077004
 30
0.0
 11
107.7301806294793
 21
399.9279674316117
 31
0.0
  0
MTEXT
  5
2327
330
2318
100
AcDbEntity
  8
Značka (ISO)
100
AcDbMText
 10
99.85518098710722
 20
406.4904671335884
 30
0.0
 40
5.24999976158142
 41
0.0
 71
     5
 72
     1
  1
4
  7
Text popisu (ISO)
 73
     1
 44
1.0
  0
LINE
  5
2328
330
2318
100
AcDbEntity
  8
Značka (ISO)
100
AcDbLine
 10
107.7301806294793
 20
399.9279674316117
 30
0.0
 11
91.98018134473507
 21
399.9279674316117
 31
0.0
  0
ENDBLK
  5
231A
330
2318
100
AcDbEntity
  8
0
100
AcDbBlockEnd
  0
BLOCK
  5
232B
330
232A
100
AcDbEntity
  8
0
100
AcDbBlockBegin
  2
Pozice6
 70
     0
 10
0.0
 20
0.0
 30
0.0
  3
Pozice6
  1

  0
LINE
  5
232D
330
232A
100
AcDbEntity
  8
Značka (ISO)
100
AcDbLine
 10
206.7194785637454
 20
370.5704127888405
 30
0.0
 11
205.0739581576997
 21
368.6883228352816
 31
0.0
  0
POLYLINE
  5
232E
330
232A
100
AcDbEntity
  8
Značka (ISO)
100
AcDb2dPolyline
 66
     1
 10
0.0
 20
0.0
 30
0.0
 70
   128
  0
VERTEX
  5
232F
330
232E
100
AcDbEntity
  8
Značka (ISO)
100
AcDbVertex
100
AcDb2dVertex
 10
206.3430595397949
 20
370.8995056152344
 30
0.0
  0
VERTEX
  5
2330
330
232E
100
AcDbEntity
  8
Značka (ISO)
100
AcDbVertex
100
AcDb2dVertex
 10
205.0739669799805
 20
368.6883163452149
 30
0.0
  0
VERTEX
  5
2332
330
232E
100
AcDbEntity
  8
Značka (ISO)
100
AcDbVertex
100
AcDb2dVertex
 10
207.095890045166
 20
370.2413177490234
 30
0.0
  0
VERTEX
  5
2333
330
232E
100
AcDbEntity
  8
Značka (ISO)
100
AcDbVertex
100
AcDb2dVertex
 10
206.3430595397949
 20
370.8995056152344
 30
0.0
  0
SEQEND
  5
2331
330
232E
100
AcDbEntity
  8
Značka (ISO)
  0
SOLID
  5
2334
330
232A
100
AcDbEntity
  8
Značka (ISO)
100
AcDbTrace
 10
206.3430595397949
 20
370.8995056152344
 30
0.0
 11
205.0739669799805
 21
368.6883163452149
 31
0.0
 12
207.095890045166
 22
370.2413177490234
 32
0.0
 13
206.3430595397949
 23
370.8995056152344
 33
0.0
  0
LINE
  5
2335
330
232A
100
AcDbEntity
  8
Značka (ISO)
100
AcDbLine
 10
206.3430605730336
 20
370.8995168700496
 30
0.0
 11
205.0739581576997
 21
368.6883228352816
 31
0.0
  0
LINE
  5
2336
330
232A
100
AcDbEntity
  8
Značka (ISO)
100
AcDbLine
 10
205.0739581576997
 20
368.6883228352816
 30
0.0
 11
207.0958965544571
 21
370.2413087076314
 31
0.0
  0
LINE
  5
2337
330
232A
100
AcDbEntity
  8
Značka (ISO)
100
AcDbLine
 10
207.0958965544571
 20
370.2413087076314
 30
0.0
 11
206.3430605730336
 21
370.8995168700496
 31
0.0
  0
LINE
  5
2338
330
232A
100
AcDbEntity
  8
Značka (ISO)
100
AcDbLine
 10
206.7194785637454
 20
370.5704127888405
 30
0.0
 11
213.6378746354507
 21
378.483437564139
 31
0.0
  0
MTEXT
  5
2339
330
232A
100
AcDbEntity
  8
Značka (ISO)
100
AcDbMText
 10
221.5128742778229
 20
385.2607872513203
 30
0.0
 40
5.24999976158142
 41
0.0
 71
     5
 72
     1
  1
6
  7
Text popisu (ISO)
 73
     1
 44
1.0
  0
LINE
  5
233A
330
232A
100
AcDbEntity
  8
Značka (ISO)
100
AcDbLine
 10
213.6378746354507
 20
378.483437564139
 30
0.0
 11
229.387873920195
 21
378.483437564139
 31
0.0
  0
ENDBLK
  5
232C
330
232A
100
AcDbEntity
  8
0
100
AcDbBlockEnd
  0
BLOCK
  5
2414
330
2412
100
AcDbEntity
  8
0
100
AcDbBlockBegin
  2
GENAXEH
 70
     0
 10
0.0
 20
0.0
 30
0.0
  3
GENAXEH
  1

  0
LINE
  5
2413
330
2412
100
AcDbEntity
  8
0
100
AcDbLine
 10
-1.0
 20
0.0
 30
0.0
 11
1.0
 21
0.0
 31
0.0
  0
ENDBLK
  5
2415
330
2412
100
AcDbEntity
  8
0
100
AcDbBlockEnd
  0
BLOCK
  5
242D
330
242C
100
AcDbEntity
  8
0
100
AcDbBlockBegin
  2
*D30
 70
     1
 10
0.0
 20
0.0
 30
0.0
  3
*D30
  1

  0
LINE
  5
242E
330
242C
100
AcDbEntity
  8
5
370
    -2
100
AcDbLine
 10
351.8337815987376
 20
492.9604192544072
 30
0.0
 11
384.4714598904701
 21
492.9604192544072
 31
0.0
  0
LINE
  5
242F
330
242C
100
AcDbEntity
  8
5
370
    -2
100
AcDbLine
 10
351.8337815987376
 20
382.9604192544073
 30
0.0
 11
384.4714598904701
 21
382.9604192544073
 31
0.0
  0
LINE
  5
2430
330
242C
100
AcDbEntity
  8
5
370
    -2
100
AcDbLine
 10
382.4714598904701
 20
487.960419254407
 30
0.0
 11
382.4714598904701
 21
387.9604192544073
 31
0.0
  0
SOLID
  5
2431
330
242C
100
AcDbEntity
  8
5
100
AcDbTrace
 10
381.6381265571369
 20
487.960419254407
 30
0.0
 11
383.3047932238034
 21
487.960419254407
 31
0.0
 12
382.4714598904701
 22
492.9604192544072
 32
0.0
 13
382.4714598904701
 23
492.9604192544072
 33
0.0
  0
SOLID
  5
2432
330
242C
100
AcDbEntity
  8
5
100
AcDbTrace
 10
381.6381265571369
 20
387.9604192544073
 30
0.0
 11
383.3047932238034
 21
387.9604192544073
 31
0.0
 12
382.4714598904701
 22
382.9604192544073
 32
0.0
 13
382.4714598904701
 23
382.9604192544073
 33
0.0
  0
MTEXT
  5
2433
330
242C
100
AcDbEntity
  8
5
 62
     7
100
AcDbMText
 10
373.2936224156547
 20
437.9604192544073
 30
0.0
 40
14.0
 41
0.0
 71
     5
 72
     1
  1
%%c110
 11
0.0000000000000001
 21
1.0
 31
0.0
 73
     1
 44
1.0
  0
POINT
  5
2434
330
242C
100
AcDbEntity
  8
Defpoints
 62
     0
100
AcDbPoint
 10
349.8337815987377
 20
492.9604192544072
 30
0.0
  0
POINT
  5
2435
330
242C
100
AcDbEntity
  8
Defpoints
 62
     0
100
AcDbPoint
 10
349.8337815987377
 20
382.9604192544073
 30
0.0
  0
POINT
  5
2436
330
242C
100
AcDbEntity
  8
Defpoints
 62
     0
100
AcDbPoint
 10
382.4714598904701
 20
382.9604192544073
 30
0.0
  0
ENDBLK
  5
2437
330
242C
100
AcDbEntity
  8
0
100
AcDbBlockEnd
  0
BLOCK
  5
2439
330
2438
100
AcDbEntity
  8
0
100
AcDbBlockBegin
  2
*D31
 70
     1
 10
0.0
 20
0.0
 30
0.0
  3
*D31
  1

  0
LINE
  5
243A
330
2438
100
AcDbEntity
  8
5
370
    -2
100
AcDbLine
 10
268.1200436431276
 20
498.0572380970497
 30
0.0
 11
268.1200436431276
 21
368.32954502183
 31
0.0
  0
LINE
  5
243B
330
2438
100
AcDbEntity
  8
5
370
    -2
100
AcDbLine
 10
111.1200436431275
 20
403.4604192544072
 30
0.0
 11
111.1200436431275
 21
368.32954502183
 31
0.0
  0
LINE
  5
243C
330
2438
100
AcDbEntity
  8
5
370
    -2
100
AcDbLine
 10
263.1200436431276
 20
370.32954502183
 30
0.0
 11
116.1200436431275
 21
370.32954502183
 31
0.0
  0
SOLID
  5
243D
330
2438
100
AcDbEntity
  8
5
100
AcDbTrace
 10
263.1200436431276
 20
371.1628783551633
 30
0.0
 11
263.1200436431276
 21
369.4962116884966
 31
0.0
 12
268.1200436431276
 22
370.32954502183
 32
0.0
 13
268.1200436431276
 23
370.32954502183
 33
0.0
  0
SOLID
  5
243E
330
2438
100
AcDbEntity
  8
5
100
AcDbTrace
 10
116.1200436431275
 20
371.1628783551633
 30
0.0
 11
116.1200436431275
 21
369.4962116884966
 31
0.0
 12
111.1200436431275
 22
370.32954502183
 32
0.0
 13
111.1200436431275
 23
370.32954502183
 33
0.0
  0
MTEXT
  5
243F
330
2438
100
AcDbEntity
  8
5
 62
     7
100
AcDbMText
 10
189.6200436431276
 20
378.6987861232403
 30
0.0
 40
14.0
 41
0.0
 71
     5
 72
     1
  1
157
 73
     1
 44
1.0
  0
POINT
  5
2440
330
2438
100
AcDbEntity
  8
Defpoints
 62
     0
100
AcDbPoint
 10
268.1200436431276
 20
500.0572380970496
 30
0.0
  0
POINT
  5
2441
330
2438
100
AcDbEntity
  8
Defpoints
 62
     0
100
AcDbPoint
 10
111.1200436431275
 20
405.4604192544072
 30
0.0
  0
POINT
  5
2442
330
2438
100
AcDbEntity
  8
Defpoints
 62
     0
100
AcDbPoint
 10
111.1200436431275
 20
370.32954502183
 30
0.0
  0
ENDBLK
  5
2443
330
2438
100
AcDbEntity
  8
0
100
AcDbBlockEnd
  0
BLOCK
  5
2445
330
2444
100
AcDbEntity
  8
0
100
AcDbBlockBegin
  2
*D32
 70
     1
 10
0.0
 20
0.0
 30
0.0
  3
*D32
  1

  0
LINE
  5
2446
330
2444
100
AcDbEntity
  8
5
370
    -2
100
AcDbLine
 10
189.6200436431275
 20
363.018453493266
 30
0.0
 11
189.6200436431275
 21
344.9756808173618
 31
0.0
  0
LINE
  5
2447
330
2444
100
AcDbEntity
  8
5
370
    -2
100
AcDbLine
 10
358.1200436431276
 20
382.9604192544073
 30
0.0
 11
358.1200436431276
 21
344.9756808173618
 31
0.0
  0
LINE
  5
2448
330
2444
100
AcDbEntity
  8
5
370
    -2
100
AcDbLine
 10
194.6200436431275
 20
346.9756808173618
 30
0.0
 11
353.1200436431276
 21
346.9756808173618
 31
0.0
  0
SOLID
  5
2449
330
2444
100
AcDbEntity
  8
5
100
AcDbTrace
 10
194.6200436431275
 20
347.8090141506951
 30
0.0
 11
194.6200436431275
 21
346.1423474840284
 31
0.0
 12
189.6200436431275
 22
346.9756808173618
 32
0.0
 13
189.6200436431275
 23
346.9756808173618
 33
0.0
  0
SOLID
  5
244A
330
2444
100
AcDbEntity
  8
5
100
AcDbTrace
 10
353.1200436431276
 20
347.8090141506951
 30
0.0
 11
353.1200436431276
 21
346.1423474840284
 31
0.0
 12
358.1200436431276
 22
346.9756808173618
 32
0.0
 13
358.1200436431276
 23
346.9756808173618
 33
0.0
  0
MTEXT
  5
244B
330
2444
100
AcDbEntity
  8
5
 62
     7
100
AcDbMText
 10
273.8700436431276
 20
355.4624504614182
 30
0.0
 40
14.0
 41
0.0
 71
     5
 72
     1
  1
169
 73
     1
 44
1.0
  0
POINT
  5
244C
330
2444
100
AcDbEntity
  8
Defpoints
 62
     0
100
AcDbPoint
 10
189.6200436431275
 20
365.0184534932658
 30
0.0
  0
POINT
  5
244D
330
2444
100
AcDbEntity
  8
Defpoints
 62
     0
100
AcDbPoint
 10
358.1200436431276
 20
384.9604192544073
 30
0.0
  0
POINT
  5
244E
330
2444
100
AcDbEntity
  8
Defpoints
 62
     0
100
AcDbPoint
 10
358.1200436431276
 20
346.9756808173618
 30
0.0
  0
ENDBLK
  5
244F
330
2444
100
AcDbEntity
  8
0
100
AcDbBlockEnd
  0
BLOCK
  5
2451
330
2450
100
AcDbEntity
  8
0
100
AcDbBlockBegin
  2
*D33
 70
     1
 10
0.0
 20
0.0
 30
0.0
  3
*D33
  1

  0
LINE
  5
2452
330
2450
100
AcDbEntity
  8
5
370
    -2
100
AcDbLine
 10
384.4714598904701
 20
438.4604192544072
 30
0.0
 11
407.4954989334366
 21
438.4604192544072
 31
0.0
  0
LINE
  5
2453
330
2450
100
AcDbEntity
  8
5
370
    -2
100
AcDbLine
 10
282.6200436431276
 20
535.9604192544074
 30
0.0
 11
407.4954989334366
 21
535.9604192544074
 31
0.0
  0
LINE
  5
2454
330
2450
100
AcDbEntity
  8
5
370
    -2
100
AcDbLine
 10
405.4954989334366
 20
443.4604192544072
 30
0.0
 11
405.4954989334366
 21
530.9604192544071
 31
0.0
  0
SOLID
  5
2455
330
2450
100
AcDbEntity
  8
5
100
AcDbTrace
 10
404.6621656001033
 20
443.4604192544072
 30
0.0
 11
406.32883226677
 21
443.4604192544072
 31
0.0
 12
405.4954989334366
 22
438.4604192544072
 32
0.0
 13
405.4954989334366
 23
438.4604192544072
 33
0.0
  0
SOLID
  5
2456
330
2450
100
AcDbEntity
  8
5
100
AcDbTrace
 10
404.6621656001033
 20
530.9604192544071
 30
0.0
 11
406.32883226677
 21
530.9604192544071
 31
0.0
 12
405.4954989334366
 22
535.9604192544074
 32
0.0
 13
405.4954989334366
 23
535.9604192544074
 33
0.0
  0
MTEXT
  5
2457
330
2450
100
AcDbEntity
  8
5
 62
     7
100
AcDbMText
 10
396.9758212974393
 20
487.2104192544073
 30
0.0
 40
14.0
 41
0.0
 71
     5
 72
     1
  1
98
 11
0.0000000000000001
 21
1.0
 31
0.0
 73
     1
 44
1.0
  0
POINT
  5
2458
330
2450
100
AcDbEntity
  8
Defpoints
 62
     0
100
AcDbPoint
 10
382.4714598904701
 20
438.4604192544072
 30
0.0
  0
POINT
  5
2459
330
2450
100
AcDbEntity
  8
Defpoints
 62
     0
100
AcDbPoint
 10
280.6200436431276
 20
535.9604192544074
 30
0.0
  0
POINT
  5
245A
330
2450
100
AcDbEntity
  8
Defpoints
 62
     0
100
AcDbPoint
 10
405.4954989334366
 20
535.9604192544074
 30
0.0
  0
ENDBLK
  5
245B
330
2450
100
AcDbEntity
  8
0
100
AcDbBlockEnd
  0
BLOCK
  5
245D
330
245C
100
AcDbEntity
  8
0
100
AcDbBlockBegin
  2
*D34
 70
     1
 10
0.0
 20
0.0
 30
0.0
  3
*D34
  1

  0
LINE
  5
245E
330
245C
100
AcDbEntity
  8
5
370
    -2
100
AcDbLine
 10
352.613378345253
 20
383.0112824335884
 30
0.0
 11
430.6955364338061
 21
383.0112824335884
 31
0.0
  0
LINE
  5
245F
330
245C
100
AcDbEntity
  8
5
370
    -2
100
AcDbLine
 10
352.613378345253
 20
535.9604192544074
 30
0.0
 11
430.6955364338063
 21
535.9604192544074
 31
0.0
  0
LINE
  5
2460
330
245C
100
AcDbEntity
  8
5
370
    -2
100
AcDbLine
 10
428.6955364338061
 20
388.0112824335884
 30
0.0
 11
428.6955364338061
 21
530.9604192544071
 31
0.0
  0
SOLID
  5
2461
330
245C
100
AcDbEntity
  8
5
100
AcDbTrace
 10
427.8622031004728
 20
388.0112824335884
 30
0.0
 11
429.5288697671396
 21
388.0112824335884
 31
0.0
 12
428.6955364338061
 22
383.0112824335884
 32
0.0
 13
428.6955364338061
 23
383.0112824335884
 33
0.0
  0
SOLID
  5
2462
330
245C
100
AcDbEntity
  8
5
100
AcDbTrace
 10
427.8622031004728
 20
530.9604192544071
 30
0.0
 11
429.5288697671396
 21
530.9604192544071
 31
0.0
 12
428.6955364338061
 22
535.9604192544074
 32
0.0
 13
428.6955364338061
 23
535.9604192544074
 33
0.0
  0
MTEXT
  5
2463
330
245C
100
AcDbEntity
  8
5
 62
     7
100
AcDbMText
 10
420.2040656480439
 20
459.4858508439978
 30
0.0
 40
14.0
 41
0.0
 71
     5
 72
     1
  1
153
 11
0.0000000000000001
 21
1.0
 31
0.0
 73
     1
 44
1.0
  0
POINT
  5
2464
330
245C
100
AcDbEntity
  8
Defpoints
 62
     0
100
AcDbPoint
 10
350.613378345253
 20
383.0112824335884
 30
0.0
  0
POINT
  5
2465
330
245C
100
AcDbEntity
  8
Defpoints
 62
     0
100
AcDbPoint
 10
350.613378345253
 20
535.9604192544074
 30
0.0
  0
POINT
  5
2466
330
245C
100
AcDbEntity
  8
Defpoints
 62
     0
100
AcDbPoint
 10
428.6955364338061
 20
535.9604192544074
 30
0.0
  0
ENDBLK
  5
2467
330
245C
100
AcDbEntity
  8
0
100
AcDbBlockEnd
  0
BLOCK
  5
2469
330
2468
100
AcDbEntity
  8
0
100
AcDbBlockBegin
  2
*D35
 70
     1
 10
0.0
 20
0.0
 30
0.0
  3
*D35
  1

  0
LINE
  5
246A
330
2468
100
AcDbEntity
  8
5
370
    -2
100
AcDbLine
 10
125.6200436431275
 20
388.9604192544073
 30
0.0
 11
84.62004364312756
 21
388.9604192544073
 31
0.0
  0
LINE
  5
246B
330
2468
100
AcDbEntity
  8
5
370
    -2
100
AcDbLine
 10
96.62004364312757
 20
535.9604192544074
 30
0.0
 11
84.62004364312759
 21
535.9604192544074
 31
0.0
  0
LINE
  5
246C
330
2468
100
AcDbEntity
  8
5
370
    -2
100
AcDbLine
 10
86.62004364312755
 20
393.9604192544073
 30
0.0
 11
86.62004364312759
 21
530.9604192544071
 31
0.0
  0
SOLID
  5
246D
330
2468
100
AcDbEntity
  8
5
100
AcDbTrace
 10
85.78671030979423
 20
393.9604192544073
 30
0.0
 11
87.45337697646091
 21
393.9604192544073
 31
0.0
 12
86.62004364312755
 22
388.9604192544073
 32
0.0
 13
86.62004364312755
 23
388.9604192544073
 33
0.0
  0
SOLID
  5
246E
330
2468
100
AcDbEntity
  8
5
100
AcDbTrace
 10
85.78671030979426
 20
530.9604192544071
 30
0.0
 11
87.45337697646091
 21
530.9604192544071
 31
0.0
 12
86.62004364312759
 22
535.9604192544074
 32
0.0
 13
86.62004364312759
 23
535.9604192544074
 33
0.0
  0
MTEXT
  5
246F
330
2468
100
AcDbEntity
  8
5
 62
     7
100
AcDbMText
 10
78.39653793459828
 20
462.4604192544071
 30
0.0
 40
14.0
 41
0.0
 71
     5
 72
     1
  1
147
 11
0.0000000000000001
 21
1.0
 31
0.0
 73
     1
 44
1.0
  0
POINT
  5
2470
330
2468
100
AcDbEntity
  8
Defpoints
 62
     0
100
AcDbPoint
 10
127.6200436431276
 20
388.9604192544073
 30
0.0
  0
POINT
  5
2471
330
2468
100
AcDbEntity
  8
Defpoints
 62
     0
100
AcDbPoint
 10
98.62004364312756
 20
535.9604192544074
 30
0.0
  0
POINT
  5
2472
330
2468
100
AcDbEntity
  8
Defpoints
 62
     0
100
AcDbPoint
 10
86.62004364312759
 20
535.9604192544074
 30
0.0
  0
ENDBLK
  5
2473
330
2468
100
AcDbEntity
  8
0
100
AcDbBlockEnd
  0
BLOCK
  5
2475
330
2474
100
AcDbEntity
  8
0
100
AcDbBlockBegin
  2
*D36
 70
     1
 10
0.0
 20
0.0
 30
0.0
  3
*D36
  1

  0
LINE
  5
2476
330
2474
100
AcDbEntity
  8
5
370
    -2
100
AcDbLine
 10
98.62004364312756
 20
537.9604192544071
 30
0.0
 11
98.62004364312756
 21
549.9604192544071
 31
0.0
  0
LINE
  5
2477
330
2474
100
AcDbEntity
  8
5
370
    -2
100
AcDbLine
 10
280.6200436431276
 20
537.9604192544071
 30
0.0
 11
280.6200436431276
 21
549.9604192544071
 31
0.0
  0
LINE
  5
2478
330
2474
100
AcDbEntity
  8
5
370
    -2
100
AcDbLine
 10
103.6200436431275
 20
547.9604192544071
 30
0.0
 11
275.6200436431276
 21
547.9604192544071
 31
0.0
  0
SOLID
  5
2479
330
2474
100
AcDbEntity
  8
5
100
AcDbTrace
 10
103.6200436431275
 20
548.7937525877406
 30
0.0
 11
103.6200436431275
 21
547.1270859210735
 31
0.0
 12
98.62004364312756
 22
547.9604192544071
 32
0.0
 13
98.62004364312756
 23
547.9604192544071
 33
0.0
  0
SOLID
  5
247A
330
2474
100
AcDbEntity
  8
5
100
AcDbTrace
 10
275.6200436431276
 20
548.7937525877406
 30
0.0
 11
275.6200436431276
 21
547.1270859210735
 31
0.0
 12
280.6200436431276
 22
547.9604192544071
 32
0.0
 13
280.6200436431276
 23
547.9604192544071
 33
0.0
  0
MTEXT
  5
247B
330
2474
100
AcDbEntity
  8
5
 62
     7
100
AcDbMText
 10
189.6200436431275
 20
557.1382567292224
 30
0.0
 40
14.0
 41
0.0
 71
     5
 72
     1
  1
%%c182
 73
     1
 44
1.0
  0
POINT
  5
247C
330
2474
100
AcDbEntity
  8
Defpoints
 62
     0
100
AcDbPoint
 10
98.62004364312756
 20
535.9604192544074
 30
0.0
  0
POINT
  5
247D
330
2474
100
AcDbEntity
  8
Defpoints
 62
     0
100
AcDbPoint
 10
280.6200436431276
 20
535.9604192544074
 30
0.0
  0
POINT
  5
247E
330
2474
100
AcDbEntity
  8
Defpoints
 62
     0
100
AcDbPoint
 10
280.6200436431276
 20
547.9604192544071
 30
0.0
  0
ENDBLK
  5
247F
330
2474
100
AcDbEntity
  8
0
100
AcDbBlockEnd
  0
BLOCK
  5
2542
330
2541
100
AcDbEntity
  8
0
100
AcDbBlockBegin
  2
*D37
 70
     1
 10
0.0
 20
0.0
 30
0.0
  3
*D37
  1

  0
LINE
  5
2595
330
2541
100
AcDbEntity
  8
5
370
    -2
100
AcDbLine
 10
818.8962206767055
 20
466.3238237247885
 30
0.0
 11
851.5338989684378
 21
466.3238237247885
 31
0.0
  0
LINE
  5
2596
330
2541
100
AcDbEntity
  8
5
370
    -2
100
AcDbLine
 10
818.8962206767055
 20
356.3238237247887
 30
0.0
 11
851.5338989684378
 21
356.3238237247887
 31
0.0
  0
LINE
  5
2597
330
2541
100
AcDbEntity
  8
5
370
    -2
100
AcDbLine
 10
849.5338989684379
 20
461.3238237247886
 30
0.0
 11
849.5338989684379
 21
361.3238237247887
 31
0.0
  0
SOLID
  5
2598
330
2541
100
AcDbEntity
  8
5
100
AcDbTrace
 10
848.7005656351046
 20
461.3238237247886
 30
0.0
 11
850.3672323017712
 21
461.3238237247886
 31
0.0
 12
849.5338989684379
 22
466.3238237247885
 32
0.0
 13
849.5338989684379
 23
466.3238237247885
 33
0.0
  0
SOLID
  5
2599
330
2541
100
AcDbEntity
  8
5
100
AcDbTrace
 10
848.7005656351046
 20
361.3238237247887
 30
0.0
 11
850.3672323017712
 21
361.3238237247887
 31
0.0
 12
849.5338989684379
 22
356.3238237247887
 32
0.0
 13
849.5338989684379
 23
356.3238237247887
 33
0.0
  0
MTEXT
  5
259A
330
2541
100
AcDbEntity
  8
5
 62
     7
100
AcDbMText
 10
840.3560614936226
 20
411.3238237247887
 30
0.0
 40
14.0
 41
0.0
 71
     5
 72
     1
  1
%%c110
 11
0.0000000000000001
 21
1.0
 31
0.0
 73
     1
 44
1.0
  0
POINT
  5
259B
330
2541
100
AcDbEntity
  8
Defpoints
 62
     0
100
AcDbPoint
 10
816.8962206767055
 20
466.3238237247885
 30
0.0
  0
POINT
  5
259C
330
2541
100
AcDbEntity
  8
Defpoints
 62
     0
100
AcDbPoint
 10
816.8962206767055
 20
356.3238237247887
 30
0.0
  0
POINT
  5
259D
330
2541
100
AcDbEntity
  8
Defpoints
 62
     0
100
AcDbPoint
 10
849.5338989684379
 20
356.3238237247887
 30
0.0
  0
ENDBLK
  5
2543
330
2541
100
AcDbEntity
  8
0
100
AcDbBlockEnd
  0
BLOCK
  5
254E
330
254D
100
AcDbEntity
  8
0
100
AcDbBlockBegin
  2
*D38
 70
     1
 10
0.0
 20
0.0
 30
0.0
  3
*D38
  1

  0
LINE
  5
259E
330
254D
100
AcDbEntity
  8
5
370
    -2
100
AcDbLine
 10
735.1824827210954
 20
471.4206425674309
 30
0.0
 11
735.1824827210954
 21
341.6929494922114
 31
0.0
  0
LINE
  5
259F
330
254D
100
AcDbEntity
  8
5
370
    -2
100
AcDbLine
 10
578.1824827210953
 20
376.8238237247886
 30
0.0
 11
578.1824827210953
 21
341.6929494922114
 31
0.0
  0
LINE
  5
25A0
330
254D
100
AcDbEntity
  8
5
370
    -2
100
AcDbLine
 10
730.1824827210954
 20
343.6929494922114
 30
0.0
 11
583.1824827210953
 21
343.6929494922114
 31
0.0
  0
SOLID
  5
25A1
330
254D
100
AcDbEntity
  8
5
100
AcDbTrace
 10
730.1824827210954
 20
344.5262828255447
 30
0.0
 11
730.1824827210954
 21
342.8596161588781
 31
0.0
 12
735.1824827210954
 22
343.6929494922114
 32
0.0
 13
735.1824827210954
 23
343.6929494922114
 33
0.0
  0
SOLID
  5
25A2
330
254D
100
AcDbEntity
  8
5
100
AcDbTrace
 10
583.1824827210953
 20
344.5262828255447
 30
0.0
 11
583.1824827210953
 21
342.8596161588781
 31
0.0
 12
578.1824827210953
 22
343.6929494922114
 32
0.0
 13
578.1824827210953
 23
343.6929494922114
 33
0.0
  0
MTEXT
  5
25A3
330
254D
100
AcDbEntity
  8
5
 62
     7
100
AcDbMText
 10
656.6824827210953
 20
352.0621905936217
 30
0.0
 40
14.0
 41
0.0
 71
     5
 72
     1
  1
157
 73
     1
 44
1.0
  0
POINT
  5
25A4
330
254D
100
AcDbEntity
  8
Defpoints
 62
     0
100
AcDbPoint
 10
735.1824827210954
 20
473.420642567431
 30
0.0
  0
POINT
  5
25A5
330
254D
100
AcDbEntity
  8
Defpoints
 62
     0
100
AcDbPoint
 10
578.1824827210953
 20
378.8238237247886
 30
0.0
  0
POINT
  5
25A6
330
254D
100
AcDbEntity
  8
Defpoints
 62
     0
100
AcDbPoint
 10
578.1824827210953
 20
343.6929494922114
 30
0.0
  0
ENDBLK
  5
254F
330
254D
100
AcDbEntity
  8
0
100
AcDbBlockEnd
  0
BLOCK
  5
255A
330
2559
100
AcDbEntity
  8
0
100
AcDbBlockBegin
  2
*D39
 70
     1
 10
0.0
 20
0.0
 30
0.0
  3
*D39
  1

  0
LINE
  5
25A7
330
2559
100
AcDbEntity
  8
5
370
    -2
100
AcDbLine
 10
656.6824827210953
 20
336.3818579636472
 30
0.0
 11
656.6824827210953
 21
318.3390852877431
 31
0.0
  0
LINE
  5
25A8
330
2559
100
AcDbEntity
  8
5
370
    -2
100
AcDbLine
 10
825.1824827210954
 20
356.3238237247887
 30
0.0
 11
825.1824827210954
 21
318.3390852877431
 31
0.0
  0
LINE
  5
25A9
330
2559
100
AcDbEntity
  8
5
370
    -2
100
AcDbLine
 10
661.6824827210953
 20
320.3390852877431
 30
0.0
 11
820.1824827210954
 21
320.3390852877431
 31
0.0
  0
SOLID
  5
25AA
330
2559
100
AcDbEntity
  8
5
100
AcDbTrace
 10
661.6824827210953
 20
321.1724186210765
 30
0.0
 11
661.6824827210953
 21
319.5057519544099
 31
0.0
 12
656.6824827210953
 22
320.3390852877431
 32
0.0
 13
656.6824827210953
 23
320.3390852877431
 33
0.0
  0
SOLID
  5
25AB
330
2559
100
AcDbEntity
  8
5
100
AcDbTrace
 10
820.1824827210954
 20
321.1724186210765
 30
0.0
 11
820.1824827210954
 21
319.5057519544099
 31
0.0
 12
825.1824827210954
 22
320.3390852877431
 32
0.0
 13
825.1824827210954
 23
320.3390852877431
 33
0.0
  0
MTEXT
  5
25AC
330
2559
100
AcDbEntity
  8
5
 62
     7
100
AcDbMText
 10
740.9324827210954
 20
328.8258549317997
 30
0.0
 40
14.0
 41
0.0
 71
     5
 72
     1
  1
169
 73
     1
 44
1.0
  0
POINT
  5
25AD
330
2559
100
AcDbEntity
  8
Defpoints
 62
     0
100
AcDbPoint
 10
656.6824827210953
 20
338.3818579636472
 30
0.0
  0
POINT
  5
25AE
330
2559
100
AcDbEntity
  8
Defpoints
 62
     0
100
AcDbPoint
 10
825.1824827210954
 20
358.3238237247887
 30
0.0
  0
POINT
  5
25AF
330
2559
100
AcDbEntity
  8
Defpoints
 62
     0
100
AcDbPoint
 10
825.1824827210954
 20
320.3390852877431
 30
0.0
  0
ENDBLK
  5
255B
330
2559
100
AcDbEntity
  8
0
100
AcDbBlockEnd
  0
BLOCK
  5
2566
330
2565
100
AcDbEntity
  8
0
100
AcDbBlockBegin
  2
*D40
 70
     1
 10
0.0
 20
0.0
 30
0.0
  3
*D40
  1

  0
LINE
  5
25B0
330
2565
100
AcDbEntity
  8
5
370
    -2
100
AcDbLine
 10
851.5338989684378
 20
411.8238237247886
 30
0.0
 11
874.5579380114046
 21
411.8238237247886
 31
0.0
  0
LINE
  5
25B1
330
2565
100
AcDbEntity
  8
5
370
    -2
100
AcDbLine
 10
749.6824827210954
 20
509.3238237247886
 30
0.0
 11
874.5579380114046
 21
509.3238237247886
 31
0.0
  0
LINE
  5
25B2
330
2565
100
AcDbEntity
  8
5
370
    -2
100
AcDbLine
 10
872.5579380114044
 20
416.8238237247885
 30
0.0
 11
872.5579380114044
 21
504.3238237247886
 31
0.0
  0
SOLID
  5
25B3
330
2565
100
AcDbEntity
  8
5
100
AcDbTrace
 10
871.7246046780713
 20
416.8238237247885
 30
0.0
 11
873.3912713447379
 21
416.8238237247885
 31
0.0
 12
872.5579380114044
 22
411.8238237247886
 32
0.0
 13
872.5579380114044
 23
411.8238237247886
 33
0.0
  0
SOLID
  5
25B4
330
2565
100
AcDbEntity
  8
5
100
AcDbTrace
 10
871.7246046780713
 20
504.3238237247886
 30
0.0
 11
873.3912713447379
 21
504.3238237247886
 31
0.0
 12
872.5579380114044
 22
509.3238237247886
 32
0.0
 13
872.5579380114044
 23
509.3238237247886
 33
0.0
  0
MTEXT
  5
25B5
330
2565
100
AcDbEntity
  8
5
 62
     7
100
AcDbMText
 10
864.0382603754071
 20
460.5738237247886
 30
0.0
 40
14.0
 41
0.0
 71
     5
 72
     1
  1
98
 11
0.0000000000000001
 21
1.0
 31
0.0
 73
     1
 44
1.0
  0
POINT
  5
25B6
330
2565
100
AcDbEntity
  8
Defpoints
 62
     0
100
AcDbPoint
 10
849.5338989684379
 20
411.8238237247886
 30
0.0
  0
POINT
  5
25B7
330
2565
100
AcDbEntity
  8
Defpoints
 62
     0
100
AcDbPoint
 10
747.6824827210954
 20
509.3238237247886
 30
0.0
  0
POINT
  5
25B8
330
2565
100
AcDbEntity
  8
Defpoints
 62
     0
100
AcDbPoint
 10
872.5579380114044
 20
509.3238237247886
 30
0.0
  0
ENDBLK
  5
2567
330
2565
100
AcDbEntity
  8
0
100
AcDbBlockEnd
  0
BLOCK
  5
2572
330
2571
100
AcDbEntity
  8
0
100
AcDbBlockBegin
  2
*D41
 70
     1
 10
0.0
 20
0.0
 30
0.0
  3
*D41
  1

  0
LINE
  5
25B9
330
2571
100
AcDbEntity
  8
5
370
    -2
100
AcDbLine
 10
819.6758174232208
 20
356.3746869039698
 30
0.0
 11
897.7579755117741
 21
356.3746869039698
 31
0.0
  0
LINE
  5
25BA
330
2571
100
AcDbEntity
  8
5
370
    -2
100
AcDbLine
 10
819.6758174232208
 20
509.3238237247886
 30
0.0
 11
897.7579755117741
 21
509.3238237247886
 31
0.0
  0
LINE
  5
25BB
330
2571
100
AcDbEntity
  8
5
370
    -2
100
AcDbLine
 10
895.7579755117741
 20
361.3746869039698
 30
0.0
 11
895.7579755117741
 21
504.3238237247886
 31
0.0
  0
SOLID
  5
25BC
330
2571
100
AcDbEntity
  8
5
100
AcDbTrace
 10
894.9246421784405
 20
361.3746869039698
 30
0.0
 11
896.5913088451074
 21
361.3746869039696
 31
0.0
 12
895.7579755117741
 22
356.3746869039698
 32
0.0
 13
895.7579755117741
 23
356.3746869039698
 33
0.0
  0
SOLID
  5
25BD
330
2571
100
AcDbEntity
  8
5
100
AcDbTrace
 10
894.9246421784405
 20
504.3238237247886
 30
0.0
 11
896.5913088451074
 21
504.3238237247886
 31
0.0
 12
895.7579755117741
 22
509.3238237247886
 32
0.0
 13
895.7579755117741
 23
509.3238237247886
 33
0.0
  0
MTEXT
  5
25BE
330
2571
100
AcDbEntity
  8
5
 62
     7
100
AcDbMText
 10
887.2665047260118
 20
432.849255314379
 30
0.0
 40
14.0
 41
0.0
 71
     5
 72
     1
  1
153
 11
0.0000000000000001
 21
1.0
 31
0.0
 73
     1
 44
1.0
  0
POINT
  5
25BF
330
2571
100
AcDbEntity
  8
Defpoints
 62
     0
100
AcDbPoint
 10
817.6758174232208
 20
356.3746869039698
 30
0.0
  0
POINT
  5
25C0
330
2571
100
AcDbEntity
  8
Defpoints
 62
     0
100
AcDbPoint
 10
817.6758174232208
 20
509.3238237247886
 30
0.0
  0
POINT
  5
25C1
330
2571
100
AcDbEntity
  8
Defpoints
 62
     0
100
AcDbPoint
 10
895.7579755117741
 20
509.3238237247886
 30
0.0
  0
ENDBLK
  5
2573
330
2571
100
AcDbEntity
  8
0
100
AcDbBlockEnd
  0
BLOCK
  5
257E
330
257D
100
AcDbEntity
  8
0
100
AcDbBlockBegin
  2
*D42
 70
     1
 10
0.0
 20
0.0
 30
0.0
  3
*D42
  1

  0
LINE
  5
25C2
330
257D
100
AcDbEntity
  8
5
370
    -2
100
AcDbLine
 10
592.6824827210952
 20
362.3238237247887
 30
0.0
 11
551.6824827210952
 21
362.3238237247887
 31
0.0
  0
LINE
  5
25C3
330
257D
100
AcDbEntity
  8
5
370
    -2
100
AcDbLine
 10
563.6824827210952
 20
509.3238237247886
 30
0.0
 11
551.6824827210952
 21
509.3238237247886
 31
0.0
  0
LINE
  5
25C4
330
257D
100
AcDbEntity
  8
5
370
    -2
100
AcDbLine
 10
553.6824827210953
 20
367.3238237247887
 30
0.0
 11
553.6824827210953
 21
504.3238237247886
 31
0.0
  0
SOLID
  5
25C5
330
257D
100
AcDbEntity
  8
5
100
AcDbTrace
 10
552.8491493877619
 20
367.3238237247887
 30
0.0
 11
554.5158160544287
 21
367.3238237247887
 31
0.0
 12
553.6824827210953
 22
362.3238237247887
 32
0.0
 13
553.6824827210953
 23
362.3238237247887
 33
0.0
  0
SOLID
  5
25C6
330
257D
100
AcDbEntity
  8
5
100
AcDbTrace
 10
552.8491493877619
 20
504.3238237247886
 30
0.0
 11
554.5158160544287
 21
504.3238237247886
 31
0.0
 12
553.6824827210953
 22
509.3238237247886
 32
0.0
 13
553.6824827210953
 23
509.3238237247886
 33
0.0
  0
MTEXT
  5
25C7
330
257D
100
AcDbEntity
  8
5
 62
     7
100
AcDbMText
 10
545.4589770125661
 20
435.8238237247888
 30
0.0
 40
14.0
 41
0.0
 71
     5
 72
     1
  1
147
 11
0.0000000000000001
 21
1.0
 31
0.0
 73
     1
 44
1.0
  0
POINT
  5
25C8
330
257D
100
AcDbEntity
  8
Defpoints
 62
     0
100
AcDbPoint
 10
594.6824827210953
 20
362.3238237247887
 30
0.0
  0
POINT
  5
25C9
330
257D
100
AcDbEntity
  8
Defpoints
 62
     0
100
AcDbPoint
 10
565.6824827210953
 20
509.3238237247886
 30
0.0
  0
POINT
  5
25CA
330
257D
100
AcDbEntity
  8
Defpoints
 62
     0
100
AcDbPoint
 10
553.6824827210953
 20
509.3238237247886
 30
0.0
  0
ENDBLK
  5
257F
330
257D
100
AcDbEntity
  8
0
100
AcDbBlockEnd
  0
BLOCK
  5
258A
330
2589
100
AcDbEntity
  8
0
100
AcDbBlockBegin
  2
*D43
 70
     1
 10
0.0
 20
0.0
 30
0.0
  3
*D43
  1

  0
LINE
  5
25CB
330
2589
100
AcDbEntity
  8
5
370
    -2
100
AcDbLine
 10
565.6824827210953
 20
511.3238237247887
 30
0.0
 11
565.6824827210953
 21
523.3238237247885
 31
0.0
  0
LINE
  5
25CC
330
2589
100
AcDbEntity
  8
5
370
    -2
100
AcDbLine
 10
747.6824827210954
 20
511.3238237247887
 30
0.0
 11
747.6824827210954
 21
523.3238237247885
 31
0.0
  0
LINE
  5
25CD
330
2589
100
AcDbEntity
  8
5
370
    -2
100
AcDbLine
 10
570.6824827210953
 20
521.3238237247885
 30
0.0
 11
742.6824827210954
 21
521.3238237247885
 31
0.0
  0
SOLID
  5
25CE
330
2589
100
AcDbEntity
  8
5
100
AcDbTrace
 10
570.6824827210953
 20
522.1571570581219
 30
0.0
 11
570.6824827210953
 21
520.4904903914552
 31
0.0
 12
565.6824827210953
 22
521.3238237247885
 32
0.0
 13
565.6824827210953
 23
521.3238237247885
 33
0.0
  0
SOLID
  5
25CF
330
2589
100
AcDbEntity
  8
5
100
AcDbTrace
 10
742.6824827210954
 20
522.1571570581219
 30
0.0
 11
742.6824827210954
 21
520.4904903914552
 31
0.0
 12
747.6824827210954
 22
521.3238237247885
 32
0.0
 13
747.6824827210954
 23
521.3238237247885
 33
0.0
  0
MTEXT
  5
25D0
330
2589
100
AcDbEntity
  8
5
 62
     7
100
AcDbMText
 10
656.6824827210953
 20
530.5016611996038
 30
0.0
 40
14.0
 41
0.0
 71
     5
 72
     1
  1
%%c182
 73
     1
 44
1.0
  0
POINT
  5
25D1
330
2589
100
AcDbEntity
  8
Defpoints
 62
     0
100
AcDbPoint
 10
565.6824827210953
 20
509.3238237247886
 30
0.0
  0
POINT
  5
25D2
330
2589
100
AcDbEntity
  8
Defpoints
 62
     0
100
AcDbPoint
 10
747.6824827210954
 20
509.3238237247886
 30
0.0
  0
POINT
  5
25D3
330
2589
100
AcDbEntity
  8
Defpoints
 62
     0
100
AcDbPoint
 10
747.6824827210954
 20
521.3238237247885
 30
0.0
  0
ENDBLK
  5
258B
330
2589
100
AcDbEntity
  8
0
100
AcDbBlockEnd
  0
BLOCK
  5
25FB
330
25FA
100
AcDbEntity
  8
0
100
AcDbBlockBegin
  2
*D44
 70
     1
 10
0.0
 20
0.0
 30
0.0
  3
*D44
  1

  0
LINE
  5
277B
330
25FA
100
AcDbEntity
  8
5
370
    -2
100
AcDbLine
 10
386.0781280077923
 20
491.6084361163539
 30
0.0
 11
415.2871366823484
 21
491.6084361163539
 31
0.0
  0
LINE
  5
277C
330
25FA
100
AcDbEntity
  8
5
370
    -2
100
AcDbLine
 10
386.0781280077923
 20
381.6084361163539
 30
0.0
 11
415.2871366823482
 21
381.6084361163539
 31
0.0
  0
LINE
  5
277D
330
25FA
100
AcDbEntity
  8
5
370
    -2
100
AcDbLine
 10
413.2871366823484
 20
486.6084361163538
 30
0.0
 11
413.2871366823484
 21
386.6084361163538
 31
0.0
  0
SOLID
  5
277E
330
25FA
100
AcDbEntity
  8
5
100
AcDbTrace
 10
412.4538033490151
 20
486.6084361163538
 30
0.0
 11
414.1204700156817
 21
486.6084361163538
 31
0.0
 12
413.2871366823484
 22
491.6084361163539
 32
0.0
 13
413.2871366823484
 23
491.6084361163539
 33
0.0
  0
SOLID
  5
277F
330
25FA
100
AcDbEntity
  8
5
100
AcDbTrace
 10
412.4538033490151
 20
386.6084361163538
 30
0.0
 11
414.1204700156817
 21
386.6084361163538
 31
0.0
 12
413.2871366823484
 22
381.6084361163539
 32
0.0
 13
413.2871366823484
 23
381.6084361163539
 33
0.0
  0
MTEXT
  5
2780
330
25FA
100
AcDbEntity
  8
5
 62
     7
100
AcDbMText
 10
404.109299207533
 20
436.6084361163539
 30
0.0
 40
14.0
 41
0.0
 71
     5
 72
     1
  1
%%c110
 11
0.0000000000000001
 21
1.0
 31
0.0
 73
     1
 44
1.0
  0
POINT
  5
2781
330
25FA
100
AcDbEntity
  8
Defpoints
 62
     0
100
AcDbPoint
 10
384.0781280077923
 20
491.6084361163539
 30
0.0
  0
POINT
  5
2782
330
25FA
100
AcDbEntity
  8
Defpoints
 62
     0
100
AcDbPoint
 10
384.0781280077923
 20
381.6084361163539
 30
0.0
  0
POINT
  5
2783
330
25FA
100
AcDbEntity
  8
Defpoints
 62
     0
100
AcDbPoint
 10
413.2871366823484
 20
381.6084361163539
 30
0.0
  0
ENDBLK
  5
25FC
330
25FA
100
AcDbEntity
  8
0
100
AcDbBlockEnd
  0
BLOCK
  5
2627
330
2626
100
AcDbEntity
  8
0
100
AcDbBlockBegin
  2
*D45
 70
     1
 10
0.0
 20
0.0
 30
0.0
  3
*D45
  1

  0
LINE
  5
2784
330
2626
100
AcDbEntity
  8
5
370
    -2
100
AcDbLine
 10
420.927076065836
 20
436.6084361163538
 30
0.0
 11
435.0402612282633
 21
436.6084361163538
 31
0.0
  0
LINE
  5
2785
330
2626
100
AcDbEntity
  8
5
370
    -2
100
AcDbLine
 10
315.3643900521823
 20
534.1084361163539
 30
0.0
 11
435.0402612282633
 21
534.1084361163539
 31
0.0
  0
LINE
  5
2786
330
2626
100
AcDbEntity
  8
5
370
    -2
100
AcDbLine
 10
433.0402612282632
 20
441.6084361163539
 30
0.0
 11
433.0402612282632
 21
529.1084361163539
 31
0.0
  0
SOLID
  5
2787
330
2626
100
AcDbEntity
  8
5
100
AcDbTrace
 10
432.2069278949299
 20
441.6084361163539
 30
0.0
 11
433.8735945615965
 21
441.6084361163539
 31
0.0
 12
433.0402612282632
 22
436.6084361163538
 32
0.0
 13
433.0402612282632
 23
436.6084361163538
 33
0.0
  0
SOLID
  5
2788
330
2626
100
AcDbEntity
  8
5
100
AcDbTrace
 10
432.2069278949299
 20
529.1084361163539
 30
0.0
 11
433.8735945615965
 21
529.1084361163539
 31
0.0
 12
433.0402612282632
 22
534.1084361163539
 32
0.0
 13
433.0402612282632
 23
534.1084361163539
 33
0.0
  0
MTEXT
  5
2789
330
2626
100
AcDbEntity
  8
5
 62
     7
100
AcDbMText
 10
424.5205835922658
 20
485.3584361163539
 30
0.0
 40
14.0
 41
0.0
 71
     5
 72
     1
  1
98
 11
0.0000000000000001
 21
1.0
 31
0.0
 73
     1
 44
1.0
  0
POINT
  5
278A
330
2626
100
AcDbEntity
  8
Defpoints
 62
     0
100
AcDbPoint
 10
418.9270760658359
 20
436.6084361163538
 30
0.0
  0
POINT
  5
278B
330
2626
100
AcDbEntity
  8
Defpoints
 62
     0
100
AcDbPoint
 10
313.3643900521823
 20
534.1084361163539
 30
0.0
  0
POINT
  5
278C
330
2626
100
AcDbEntity
  8
Defpoints
 62
     0
100
AcDbPoint
 10
433.0402612282632
 20
534.1084361163539
 30
0.0
  0
ENDBLK
  5
2628
330
2626
100
AcDbEntity
  8
0
100
AcDbBlockEnd
  0
BLOCK
  5
2649
330
2648
100
AcDbEntity
  8
0
100
AcDbBlockBegin
  2
*D46
 70
     1
 10
0.0
 20
0.0
 30
0.0
  3
*D46
  1

  0
LINE
  5
2706
330
2648
100
AcDbEntity
  8
5
370
    -2
100
AcDbLine
 10
386.0781280077923
 20
381.6084361163539
 30
0.0
 11
453.9837789546858
 21
381.6084361163539
 31
0.0
  0
LINE
  5
2707
330
2648
100
AcDbEntity
  8
5
370
    -2
100
AcDbLine
 10
315.3643900521823
 20
534.1084361163539
 30
0.0
 11
453.9837789546858
 21
534.1084361163539
 31
0.0
  0
LINE
  5
2708
330
2648
100
AcDbEntity
  8
5
370
    -2
100
AcDbLine
 10
451.9837789546858
 20
386.6084361163538
 30
0.0
 11
451.9837789546858
 21
529.1084361163539
 31
0.0
  0
SOLID
  5
2709
330
2648
100
AcDbEntity
  8
5
100
AcDbTrace
 10
451.1504456213526
 20
386.6084361163538
 30
0.0
 11
452.8171122880191
 21
386.6084361163538
 31
0.0
 12
451.9837789546857
 22
381.6084361163539
 32
0.0
 13
451.9837789546857
 23
381.6084361163539
 33
0.0
  0
SOLID
  5
270A
330
2648
100
AcDbEntity
  8
5
100
AcDbTrace
 10
451.1504456213526
 20
529.1084361163539
 30
0.0
 11
452.8171122880191
 21
529.1084361163539
 31
0.0
 12
451.9837789546858
 22
534.1084361163539
 32
0.0
 13
451.9837789546858
 23
534.1084361163539
 33
0.0
  0
MTEXT
  5
270B
330
2648
100
AcDbEntity
  8
5
 62
     7
100
AcDbMText
 10
443.4923081689235
 20
457.858436116354
 30
0.0
 40
14.0
 41
0.0
 71
     5
 72
     1
  1
153
 11
0.0000000000000001
 21
1.0
 31
0.0
 73
     1
 44
1.0
  0
POINT
  5
270C
330
2648
100
AcDbEntity
  8
Defpoints
 62
     0
100
AcDbPoint
 10
384.0781280077923
 20
381.6084361163539
 30
0.0
  0
POINT
  5
270D
330
2648
100
AcDbEntity
  8
Defpoints
 62
     0
100
AcDbPoint
 10
313.3643900521823
 20
534.1084361163539
 30
0.0
  0
POINT
  5
270E
330
2648
100
AcDbEntity
  8
Defpoints
 62
     0
100
AcDbPoint
 10
451.9837789546858
 20
534.1084361163539
 30
0.0
  0
ENDBLK
  5
264A
330
2648
100
AcDbEntity
  8
0
100
AcDbBlockEnd
  0
BLOCK
  5
266B
330
266A
100
AcDbEntity
  8
0
100
AcDbBlockBegin
  2
*D47
 70
     1
 10
0.0
 20
0.0
 30
0.0
  3
*D47
  1

  0
LINE
  5
2760
330
266A
100
AcDbEntity
  8
5
370
    -2
100
AcDbLine
 10
73.36439005218233
 20
536.1084361163539
 30
0.0
 11
73.36439005218233
 21
548.108436116354
 31
0.0
  0
LINE
  5
2761
330
266A
100
AcDbEntity
  8
5
370
    -2
100
AcDbLine
 10
313.3643900521823
 20
536.1084361163539
 30
0.0
 11
313.3643900521823
 21
548.108436116354
 31
0.0
  0
LINE
  5
2762
330
266A
100
AcDbEntity
  8
5
370
    -2
100
AcDbLine
 10
78.36439005218233
 20
546.108436116354
 30
0.0
 11
308.3643900521823
 21
546.108436116354
 31
0.0
  0
SOLID
  5
2763
330
266A
100
AcDbEntity
  8
5
100
AcDbTrace
 10
78.36439005218233
 20
546.9417694496874
 30
0.0
 11
78.36439005218233
 21
545.2751027830206
 31
0.0
 12
73.36439005218233
 22
546.108436116354
 32
0.0
 13
73.36439005218233
 23
546.108436116354
 33
0.0
  0
SOLID
  5
2764
330
266A
100
AcDbEntity
  8
5
100
AcDbTrace
 10
308.3643900521823
 20
546.9417694496874
 30
0.0
 11
308.3643900521823
 21
545.2751027830206
 31
0.0
 12
313.3643900521823
 22
546.108436116354
 32
0.0
 13
313.3643900521823
 23
546.108436116354
 33
0.0
  0
MTEXT
  5
2765
330
266A
100
AcDbEntity
  8
5
 62
     7
100
AcDbMText
 10
193.3643900521823
 20
555.2862735911693
 30
0.0
 40
14.0
 41
0.0
 71
     5
 72
     1
  1
%%c240
 73
     1
 44
1.0
  0
POINT
  5
2766
330
266A
100
AcDbEntity
  8
Defpoints
 62
     0
100
AcDbPoint
 10
73.36439005218233
 20
534.1084361163539
 30
0.0
  0
POINT
  5
2767
330
266A
100
AcDbEntity
  8
Defpoints
 62
     0
100
AcDbPoint
 10
313.3643900521823
 20
534.1084361163539
 30
0.0
  0
POINT
  5
2768
330
266A
100
AcDbEntity
  8
Defpoints
 62
     0
100
AcDbPoint
 10
313.3643900521823
 20
546.108436116354
 30
0.0
  0
ENDBLK
  5
266C
330
266A
100
AcDbEntity
  8
0
100
AcDbBlockEnd
  0
BLOCK
  5
268D
330
268C
100
AcDbEntity
  8
0
100
AcDbBlockBegin
  2
*D48
 70
     1
 10
0.0
 20
0.0
 30
0.0
  3
*D48
  1

  0
LINE
  5
2733
330
268C
100
AcDbEntity
  8
5
370
    -2
100
AcDbLine
 10
98.86439005218235
 20
387.1084361163539
 30
0.0
 11
59.36439005218232
 21
387.1084361163539
 31
0.0
  0
LINE
  5
2734
330
268C
100
AcDbEntity
  8
5
370
    -2
100
AcDbLine
 10
71.36439005218233
 20
534.1084361163539
 30
0.0
 11
59.36439005218236
 21
534.1084361163539
 31
0.0
  0
LINE
  5
2735
330
268C
100
AcDbEntity
  8
5
370
    -2
100
AcDbLine
 10
61.36439005218232
 20
392.1084361163539
 30
0.0
 11
61.36439005218235
 21
529.1084361163539
 31
0.0
  0
SOLID
  5
2736
330
268C
100
AcDbEntity
  8
5
100
AcDbTrace
 10
60.531056718849
 20
392.1084361163539
 30
0.0
 11
62.19772338551565
 21
392.1084361163539
 31
0.0
 12
61.36439005218232
 22
387.1084361163539
 32
0.0
 13
61.36439005218232
 23
387.1084361163539
 33
0.0
  0
SOLID
  5
2737
330
268C
100
AcDbEntity
  8
5
100
AcDbTrace
 10
60.53105671884902
 20
529.1084361163539
 30
0.0
 11
62.19772338551568
 21
529.1084361163539
 31
0.0
 12
61.36439005218235
 22
534.1084361163539
 32
0.0
 13
61.36439005218235
 23
534.1084361163539
 33
0.0
  0
MTEXT
  5
2738
330
268C
100
AcDbEntity
  8
5
 62
     7
100
AcDbMText
 10
53.14088434365306
 20
460.6084361163539
 30
0.0
 40
14.0
 41
0.0
 71
     5
 72
     1
  1
147
 11
0.0000000000000001
 21
1.0
 31
0.0
 73
     1
 44
1.0
  0
POINT
  5
2739
330
268C
100
AcDbEntity
  8
Defpoints
 62
     0
100
AcDbPoint
 10
100.8643900521823
 20
387.1084361163539
 30
0.0
  0
POINT
  5
273A
330
268C
100
AcDbEntity
  8
Defpoints
 62
     0
100
AcDbPoint
 10
73.36439005218233
 20
534.1084361163539
 30
0.0
  0
POINT
  5
273B
330
268C
100
AcDbEntity
  8
Defpoints
 62
     0
100
AcDbPoint
 10
61.36439005218235
 20
534.1084361163539
 30
0.0
  0
ENDBLK
  5
268E
330
268C
100
AcDbEntity
  8
0
100
AcDbBlockEnd
  0
BLOCK
  5
26AF
330
26AE
100
AcDbEntity
  8
0
100
AcDbBlockBegin
  2
*D49
 70
     1
 10
0.0
 20
0.0
 30
0.0
  3
*D49
  1

  0
LINE
  5
272A
330
26AE
100
AcDbEntity
  8
5
370
    -2
100
AcDbLine
 10
302.3643900521824
 20
496.2052549589963
 30
0.0
 11
302.3643900521824
 21
363.1272881055506
 31
0.0
  0
LINE
  5
272B
330
26AE
100
AcDbEntity
  8
5
370
    -2
100
AcDbLine
 10
84.36439005218231
 20
401.6084361163539
 30
0.0
 11
84.36439005218231
 21
363.1272881055506
 31
0.0
  0
LINE
  5
272C
330
26AE
100
AcDbEntity
  8
5
370
    -2
100
AcDbLine
 10
297.3643900521824
 20
365.1272881055506
 30
0.0
 11
89.36439005218231
 21
365.1272881055506
 31
0.0
  0
SOLID
  5
272D
330
26AE
100
AcDbEntity
  8
5
100
AcDbTrace
 10
297.3643900521824
 20
365.960621438884
 30
0.0
 11
297.3643900521824
 21
364.2939547722173
 31
0.0
 12
302.3643900521824
 22
365.1272881055506
 32
0.0
 13
302.3643900521824
 23
365.1272881055506
 33
0.0
  0
SOLID
  5
272E
330
26AE
100
AcDbEntity
  8
5
100
AcDbTrace
 10
89.36439005218231
 20
365.960621438884
 30
0.0
 11
89.36439005218231
 21
364.2939547722173
 31
0.0
 12
84.36439005218231
 22
365.1272881055506
 32
0.0
 13
84.36439005218231
 23
365.1272881055506
 33
0.0
  0
MTEXT
  5
272F
330
26AE
100
AcDbEntity
  8
5
 62
     7
100
AcDbMText
 10
193.3643900521823
 20
373.6469657415478
 30
0.0
 40
14.0
 41
0.0
 71
     5
 72
     1
  1
218
 73
     1
 44
1.0
  0
POINT
  5
2730
330
26AE
100
AcDbEntity
  8
Defpoints
 62
     0
100
AcDbPoint
 10
302.3643900521824
 20
498.2052549589964
 30
0.0
  0
POINT
  5
2731
330
26AE
100
AcDbEntity
  8
Defpoints
 62
     0
100
AcDbPoint
 10
84.36439005218231
 20
403.6084361163538
 30
0.0
  0
POINT
  5
2732
330
26AE
100
AcDbEntity
  8
Defpoints
 62
     0
100
AcDbPoint
 10
84.36439005218231
 20
365.1272881055506
 30
0.0
  0
ENDBLK
  5
26B0
330
26AE
100
AcDbEntity
  8
0
100
AcDbBlockEnd
  0
BLOCK
  5
26D1
330
26D0
100
AcDbEntity
  8
0
100
AcDbBlockBegin
  2
*D50
 70
     1
 10
0.0
 20
0.0
 30
0.0
  3
*D50
  1

  0
LINE
  5
2772
330
26D0
100
AcDbEntity
  8
5
370
    -2
100
AcDbLine
 10
193.3643900521823
 20
359.6195622078326
 30
0.0
 11
193.3643900521823
 21
340.7376143403703
 31
0.0
  0
LINE
  5
2773
330
26D0
100
AcDbEntity
  8
5
370
    -2
100
AcDbLine
 10
392.3643900521824
 20
381.6084361163539
 30
0.0
 11
392.3643900521824
 21
340.7376143403703
 31
0.0
  0
LINE
  5
2774
330
26D0
100
AcDbEntity
  8
5
370
    -2
100
AcDbLine
 10
198.3643900521823
 20
342.7376143403703
 30
0.0
 11
387.3643900521823
 21
342.7376143403703
 31
0.0
  0
SOLID
  5
2775
330
26D0
100
AcDbEntity
  8
5
100
AcDbTrace
 10
198.3643900521823
 20
343.5709476737037
 30
0.0
 11
198.3643900521823
 21
341.904281007037
 31
0.0
 12
193.3643900521823
 22
342.7376143403703
 32
0.0
 13
193.3643900521823
 23
342.7376143403703
 33
0.0
  0
SOLID
  5
2776
330
26D0
100
AcDbEntity
  8
5
100
AcDbTrace
 10
387.3643900521823
 20
343.5709476737037
 30
0.0
 11
387.3643900521823
 21
341.904281007037
 31
0.0
 12
392.3643900521824
 22
342.7376143403703
 32
0.0
 13
392.3643900521824
 23
342.7376143403703
 33
0.0
  0
MTEXT
  5
2777
330
26D0
100
AcDbEntity
  8
5
 62
     7
100
AcDbMText
 10
292.8643900521823
 20
351.2149817010151
 30
0.0
 40
14.0
 41
0.0
 71
     5
 72
     1
  1
199
 73
     1
 44
1.0
  0
POINT
  5
2778
330
26D0
100
AcDbEntity
  8
Defpoints
 62
     0
100
AcDbPoint
 10
193.3643900521823
 20
361.6195622078326
 30
0.0
  0
POINT
  5
2779
330
26D0
100
AcDbEntity
  8
Defpoints
 62
     0
100
AcDbPoint
 10
392.3643900521824
 20
383.6084361163539
 30
0.0
  0
POINT
  5
277A
330
26D0
100
AcDbEntity
  8
Defpoints
 62
     0
100
AcDbPoint
 10
392.3643900521824
 20
342.7376143403703
 30
0.0
  0
ENDBLK
  5
26D2
330
26D0
100
AcDbEntity
  8
0
100
AcDbBlockEnd
  0
ENDSEC
  0
SECTION
  2
ENTITIES
  0
LINE
  5
202
330
6C
100
AcDbEntity
  8
0
100
AcDbLine
 10
279.0028414212692
 20
534.1084361163539
 30
0.0
 11
285.9069896878642
 21
534.1084361163539
 31
0.0
  0
LINE
  5
203
330
6C
100
AcDbEntity
  8
0
100
AcDbLine
 10
192.8691468612434
 20
534.1084361163539
 30
0.0
 11
204.7839888227432
 21
534.1084361163539
 31
0.0
  0
LINE
  5
204
330
6C
100
AcDbEntity
  8
0
100
AcDbLine
 10
108.1108212159027
 20
534.1084361163539
 30
0.0
 11
115.8862797045808
 21
534.1084361163539
 31
0.0
  0
LINE
  5
205
330
6C
100
AcDbEntity
  8
0
100
AcDbLine
 10
73.36439005218233
 20
532.6084361163538
 30
0.0
 11
313.3643900521823
 21
532.6084361163538
 31
0.0
  0
LINE
  5
206
330
6C
100
AcDbEntity
  8
0
100
AcDbLine
 10
313.3643900521823
 20
534.1084361163539
 30
0.0
 11
313.3643900521823
 21
532.6084361163538
 31
0.0
  0
LINE
  5
207
330
6C
100
AcDbEntity
  8
0
100
AcDbLine
 10
73.36439005218233
 20
534.1084361163539
 30
0.0
 11
73.36439005218233
 21
532.6084361163538
 31
0.0
  0
LINE
  5
21A
330
6C
100
AcDbEntity
  8
0
100
AcDbLine
 10
307.3643900521823
 20
486.1084361163539
 30
0.0
 11
307.3643900521823
 21
387.1084361163539
 31
0.0
  0
LINE
  5
21B
330
6C
100
AcDbEntity
  8
0
100
AcDbLine
 10
307.3643900521823
 20
387.1084361163539
 30
0.0
 11
285.8643900521823
 21
387.1084361163539
 31
0.0
  0
LINE
  5
21C
330
6C
100
AcDbEntity
  8
0
100
AcDbLine
 10
307.3643900521823
 20
486.1084361163539
 30
0.0
 11
305.6667747579517
 21
486.1084361163539
 31
0.0
  0
LINE
  5
21D
330
6C
100
AcDbEntity
  8
0
100
AcDbLine
 10
285.8643900521823
 20
387.1084361163539
 30
0.0
 11
100.8643900521823
 21
387.1084361163539
 31
0.0
  0
LINE
  5
21E
330
6C
100
AcDbEntity
  8
0
100
AcDbLine
 10
84.36439005218231
 20
498.2052549589964
 30
0.0
 11
84.36439005218231
 21
519.0335500020307
 31
0.0
  0
LINE
  5
21F
330
6C
100
AcDbEntity
  8
0
100
AcDbLine
 10
84.36439005218231
 20
523.6433222306771
 30
0.0
 11
84.36439005218231
 21
526.6084361163539
 31
0.0
  0
LINE
  5
220
330
6C
100
AcDbEntity
  8
0
100
AcDbLine
 10
302.3643900521824
 20
498.2052549589964
 30
0.0
 11
302.3643900521824
 21
519.0335500020307
 31
0.0
  0
LINE
  5
221
330
6C
100
AcDbEntity
  8
0
100
AcDbLine
 10
302.3643900521824
 20
523.6433222306771
 30
0.0
 11
302.3643900521824
 21
526.6084361163539
 31
0.0
  0
ARC
  5
222
330
6C
100
AcDbEntity
  8
0
100
AcDbCircle
 10
298.8643900521823
 20
486.0116172737114
 30
0.0
 40
3.499999999999998
100
AcDbArc
 50
36.84309839098214
 51
59.99999999999975
  0
ARC
  5
223
330
6C
100
AcDbEntity
  8
0
100
AcDbCircle
 10
87.86439005218232
 20
486.0116172737114
 30
0.0
 40
3.499999999999998
100
AcDbArc
 50
120.0
 51
180.0
  0
LINE
  5
224
330
6C
100
AcDbEntity
  8
0
100
AcDbLine
 10
84.36439005218231
 20
403.6084361163538
 30
0.0
 11
84.36439005218231
 21
486.0116172737114
 31
0.0
  0
ARC
  5
225
330
6C
100
AcDbEntity
  8
0
100
AcDbCircle
 10
100.8643900521823
 20
403.6084361163538
 30
0.0
 40
16.49999999999999
100
AcDbArc
 50
180.0
 51
270.0
  0
LINE
  5
226
330
6C
100
AcDbEntity
  8
0
100
AcDbLine
 10
299.0543900521823
 20
489.9433726068927
 30
0.0
 11
300.6143900521824
 21
489.0427061869569
 31
0.0
  0
LINE
  5
227
330
6C
100
AcDbEntity
  8
0
100
AcDbLine
 10
87.67439005218234
 20
489.9433726068927
 30
0.0
 11
86.11439005218235
 21
489.0427061869569
 31
0.0
  0
ARC
  5
228
330
6C
100
AcDbEntity
  8
0
100
AcDbCircle
 10
300.3043900521823
 20
492.1084361163539
 30
0.0
 40
2.5
100
AcDbArc
 50
119.9999999999985
 51
240.0000000000002
  0
ARC
  5
229
330
6C
100
AcDbEntity
  8
0
100
AcDbCircle
 10
86.42439005218234
 20
492.1084361163539
 30
0.0
 40
2.5
100
AcDbArc
 50
300.0000000000003
 51
59.99999999999992
  0
LINE
  5
22A
330
6C
100
AcDbEntity
  8
0
100
AcDbLine
 10
87.67439005218234
 20
494.2734996258149
 30
0.0
 11
86.11439005218233
 21
495.1741660457507
 31
0.0
  0
LINE
  5
22B
330
6C
100
AcDbEntity
  8
0
100
AcDbLine
 10
299.0543900521823
 20
494.2734996258149
 30
0.0
 11
300.6143900521824
 21
495.1741660457507
 31
0.0
  0
ARC
  5
22C
330
6C
100
AcDbEntity
  8
0
100
AcDbCircle
 10
298.8643900521823
 20
498.2052549589964
 30
0.0
 40
3.499999999999998
100
AcDbArc
 50
300.0000000000002
 51
0.0
  0
ARC
  5
22D
330
6C
100
AcDbEntity
  8
0
100
AcDbCircle
 10
87.86439005218229
 20
498.2052549589964
 30
0.0
 40
3.499999999999998
100
AcDbArc
 50
180.0
 51
239.9999999999997
  0
ARC
  5
232
330
6C
100
AcDbEntity
  8
0
100
AcDbCircle
 10
78.36439005218231
 20
526.6084361163539
 30
0.0
 40
6.0
100
AcDbArc
 50
0.0
 51
90.0
  0
ARC
  5
233
330
6C
100
AcDbEntity
  8
0
100
AcDbCircle
 10
308.3643900521823
 20
526.6084361163539
 30
0.0
 40
6.0
100
AcDbArc
 50
90.0
 51
180.0
  0
ARC
  5
234
330
6C
100
AcDbEntity
  8
0
100
AcDbCircle
 10
305.6667747579517
 20
491.1084361163538
 30
0.0
 40
5.0
100
AcDbArc
 50
216.8430983909815
 51
270.0
  0
LINE
  5
237
330
6C
100
AcDbEntity
  8
0
100
AcDbLine
 10
392.3643900521824
 20
489.6084361163538
 30
0.0
 11
392.3643900521824
 21
383.6084361163539
 31
0.0
  0
ARC
  5
238
330
6C
100
AcDbEntity
  8
0
100
AcDbCircle
 10
384.0781280077923
 20
485.6084361163538
 30
0.0
 40
6.000000000000031
100
AcDbArc
 50
75.06858282186263
 51
90.0
  0
ARC
  5
239
330
6C
100
AcDbEntity
  8
0
100
AcDbCircle
 10
384.0781280077923
 20
387.6084361163539
 30
0.0
 40
6.000000000000031
100
AcDbArc
 50
270.0
 51
284.9314171781373
  0
LINE
  5
23A
330
6C
100
AcDbEntity
  8
0
100
AcDbLine
 10
384.0781280077923
 20
381.6084361163539
 30
0.0
 11
354.3643900521823
 21
381.6084361163539
 31
0.0
  0
LINE
  5
23B
330
6C
100
AcDbEntity
  8
0
100
AcDbLine
 10
384.0781280077923
 20
491.6084361163538
 30
0.0
 11
354.3643900521823
 21
491.6084361163538
 31
0.0
  0
LINE
  5
24A
330
6C
100
AcDbEntity
  8
0
100
AcDbLine
 10
392.3643900521824
 20
383.6084361163539
 30
0.0
 11
385.6241039111542
 21
381.8110264787463
 31
0.0
  0
LINE
  5
24B
330
6C
100
AcDbEntity
  8
0
100
AcDbLine
 10
392.3643900521824
 20
489.6084361163538
 30
0.0
 11
385.6241039111542
 21
491.4058457539614
 31
0.0
  0
LINE
  5
24C
330
6C
100
AcDbEntity
  8
0
100
AcDbLine
 10
354.3643900521823
 20
381.6084361163539
 30
0.0
 11
317.5574662368305
 21
381.6084361163539
 31
0.0
  0
LINE
  5
24D
330
6C
100
AcDbEntity
  8
0
100
AcDbLine
 10
354.3643900521823
 20
491.6084361163538
 30
0.0
 11
317.5574662368305
 21
491.6084361163538
 31
0.0
  0
ARC
  5
24E
330
6C
100
AcDbEntity
  8
0
100
AcDbCircle
 10
317.5574662368305
 20
485.6084361163538
 30
0.0
 40
6.0
100
AcDbArc
 50
90.00000000000047
 51
130.1559996249195
  0
ARC
  5
24F
330
6C
100
AcDbEntity
  8
0
100
AcDbCircle
 10
317.5574662368305
 20
387.6084361163539
 30
0.0
 40
6.0
100
AcDbArc
 50
229.8440003750808
 51
270.0
  0
LINE
  5
250
330
6C
100
AcDbEntity
  8
0
100
AcDbLine
 10
307.3643900521823
 20
484.8584361163538
 30
0.0
 11
313.6882406015717
 21
490.1941850174011
 31
0.0
  0
LINE
  5
251
330
6C
100
AcDbEntity
  8
0
100
AcDbLine
 10
307.3643900521823
 20
388.3584361163539
 30
0.0
 11
313.6882406015717
 21
383.0226872153065
 31
0.0
  0
LINE
  5
268
330
6C
100
AcDbEntity
  8
0
100
AcDbLine
 10
392.3643900521824
 20
489.6084361163538
 30
0.0
 11
392.3643900521824
 21
383.6084361163539
 31
0.0
  0
LINE
  5
271
330
6C
100
AcDbEntity
  8
0
100
AcDbLine
 10
380.1283220746825
 20
381.6084361163539
 30
0.0
 11
374.6004580296822
 21
381.6084361163539
 31
0.0
  0
LINE
  5
36E
330
6C
100
AcDbEntity
  8
0
100
AcDbLine
 10
287.0952841555115
 20
534.1084361163539
 30
0.0
 11
285.906989687864
 21
534.1084361163539
 31
0.0
  0
LINE
  5
3F9
330
6C
100
AcDbEntity
  8
0
100
AcDbLine
 10
204.856843659016
 20
534.1084361163539
 30
0.0
 11
204.7839888227432
 21
534.1084361163539
 31
0.0
  0
LINE
  5
4B9
330
6C
100
AcDbEntity
  8
0
100
AcDbLine
 10
108.1108212159027
 20
534.1084361163539
 30
0.0
 11
107.0255590457968
 21
534.1084361163539
 31
0.0
  0
LINE
  5
D73
330
6C
100
AcDbEntity
  8
0
100
AcDbLine
 10
115.886279704581
 20
534.1084361163539
 30
0.0
 11
192.8691468612433
 21
534.1084361163539
 31
0.0
  0
LINE
  5
D74
330
6C
100
AcDbEntity
  8
0
100
AcDbLine
 10
204.856843659016
 20
534.1084361163539
 30
0.0
 11
279.0028414212689
 21
534.1084361163539
 31
0.0
  0
LINE
  5
D75
330
6C
100
AcDbEntity
  8
0
100
AcDbLine
 10
287.0952841555115
 20
534.1084361163539
 30
0.0
 11
313.3643900521823
 21
534.1084361163539
 31
0.0
  0
LINE
  5
D76
330
6C
100
AcDbEntity
  8
0
100
AcDbLine
 10
73.36439005218233
 20
534.1084361163536
 30
0.0
 11
107.0255590457968
 21
534.1084361163536
 31
0.0
  0
ARC
  5
DB7
330
6C
100
AcDbEntity
  8
0
100
AcDbCircle
 10
300.8643900521822
 20
521.3384361163539
 30
0.0
 40
2.749999999999998
100
AcDbArc
 50
303.0557311508545
 51
56.94426884914548
  0
ARC
  5
DB8
330
6C
100
AcDbEntity
  8
0
100
AcDbCircle
 10
85.86439005218251
 20
521.3384361163539
 30
0.0
 40
2.749999999999998
100
AcDbArc
 50
123.0557311508545
 51
236.9442688491455
  0
LINE
  5
1134
330
6C
100
AcDbEntity
  8
0
100
AcDbLine
 10
307.3643900518463
 20
242.6824909748873
 30
0.0
 11
307.3643900518463
 21
235.5185051052387
 31
0.0
  0
LINE
  5
1135
330
6C
100
AcDbEntity
  8
0
100
AcDbLine
 10
307.3643900518463
 20
150.8464768445511
 30
0.0
 11
307.3643900518463
 21
143.6824909748873
 31
0.0
  0
LINE
  5
1136
330
6C
100
AcDbEntity
  8
0
100
AcDbLine
 10
307.3643900518463
 20
143.6824909748873
 30
0.0
 11
304.4413367709773
 21
143.6824909748873
 31
0.0
  0
LINE
  5
1137
330
6C
100
AcDbEntity
  8
0
100
AcDbLine
 10
307.3643900518463
 20
242.6824909748873
 30
0.0
 11
304.4413367709773
 21
242.6824909748873
 31
0.0
  0
LINE
  5
1145
330
6C
100
AcDbEntity
  8
0
100
AcDbLine
 10
392.3643900518463
 20
246.1824909748874
 30
0.0
 11
392.3643900518463
 21
140.1824909748873
 31
0.0
  0
ARC
  5
1146
330
6C
100
AcDbEntity
  8
0
100
AcDbCircle
 10
384.0781280074563
 20
242.1824909748873
 30
0.0
 40
6.000000000000031
100
AcDbArc
 50
75.06858282186263
 51
90.0
  0
ARC
  5
1147
330
6C
100
AcDbEntity
  8
0
100
AcDbCircle
 10
384.0781280074563
 20
144.1824909748873
 30
0.0
 40
6.000000000000031
100
AcDbArc
 50
270.0
 51
284.9314171781373
  0
LINE
  5
1148
330
6C
100
AcDbEntity
  8
0
100
AcDbLine
 10
384.0781280074563
 20
138.1824909748873
 30
0.0
 11
354.3643900518463
 21
138.1824909748873
 31
0.0
  0
LINE
  5
1149
330
6C
100
AcDbEntity
  8
0
100
AcDbLine
 10
384.0781280074563
 20
248.1824909748874
 30
0.0
 11
354.3643900518463
 21
248.1824909748874
 31
0.0
  0
LINE
  5
1158
330
6C
100
AcDbEntity
  8
0
100
AcDbLine
 10
392.3643900518463
 20
140.1824909748873
 30
0.0
 11
385.6241039108182
 21
138.3850813372798
 31
0.0
  0
LINE
  5
1159
330
6C
100
AcDbEntity
  8
0
100
AcDbLine
 10
392.3643900518463
 20
246.1824909748874
 30
0.0
 11
385.6241039108182
 21
247.9799006124948
 31
0.0
  0
LINE
  5
115A
330
6C
100
AcDbEntity
  8
0
100
AcDbLine
 10
354.3643900518463
 20
138.1824909748873
 30
0.0
 11
317.5574662364945
 21
138.1824909748873
 31
0.0
  0
LINE
  5
115B
330
6C
100
AcDbEntity
  8
0
100
AcDbLine
 10
354.3643900518463
 20
248.1824909748874
 30
0.0
 11
317.5574662364945
 21
248.1824909748874
 31
0.0
  0
ARC
  5
115C
330
6C
100
AcDbEntity
  8
0
100
AcDbCircle
 10
317.5574662364945
 20
242.1824909748873
 30
0.0
 40
6.0
100
AcDbArc
 50
90.0
 51
130.1559996249192
  0
ARC
  5
115D
330
6C
100
AcDbEntity
  8
0
100
AcDbCircle
 10
317.5574662364945
 20
144.1824909748873
 30
0.0
 40
6.0
100
AcDbArc
 50
229.8440003750807
 51
270.0
  0
LINE
  5
115E
330
6C
100
AcDbEntity
  8
0
100
AcDbLine
 10
307.3643900518463
 20
241.4324909748874
 30
0.0
 11
313.6882406012357
 21
246.7682398759347
 31
0.0
  0
LINE
  5
115F
330
6C
100
AcDbEntity
  8
0
100
AcDbLine
 10
307.3643900518463
 20
144.9324909748873
 30
0.0
 11
313.6882406012357
 21
139.59674207384
 31
0.0
  0
LINE
  5
116C
330
6C
100
AcDbEntity
  8
0
100
AcDbLine
 10
392.3643900518463
 20
246.1824909748874
 30
0.0
 11
392.3643900518463
 21
140.1824909748873
 31
0.0
  0
LINE
  5
1172
330
6C
100
AcDbEntity
  8
0
100
AcDbLine
 10
370.1283220743464
 20
248.1824909748874
 30
0.0
 11
366.6004580293462
 21
248.1824909748874
 31
0.0
  0
LINE
  5
1175
330
6C
100
AcDbEntity
  8
0
100
AcDbLine
 10
380.1283220743465
 20
138.1824909748873
 30
0.0
 11
374.6004580293462
 21
138.1824909748873
 31
0.0
  0
CIRCLE
  5
148B
330
6C
100
AcDbEntity
  8
0
100
AcDbCircle
 10
193.3643900518463
 20
309.1824909749243
 30
0.0
 40
7.500000000000007
  0
ARC
  5
1490
330
6C
100
AcDbEntity
  8
0
100
AcDbCircle
 10
202.2657420046342
 20
313.9549047680248
 30
0.0
 40
0.100000000000266
100
AcDbArc
 50
208.197753987791
 51
265.784721131386
  0
ARC
  5
1491
330
6C
100
AcDbEntity
  8
0
100
AcDbCircle
 10
184.4630380990586
 20
313.9549047680248
 30
0.0
 40
0.1000000000000453
100
AcDbArc
 50
274.215278868623
 51
331.8022460122124
  0
CIRCLE
  5
1492
330
6C
100
AcDbEntity
  8
0
100
AcDbCircle
 10
193.3643900518463
 20
309.1824909749238
 30
0.0
 40
9.999999999999994
  0
ARC
  5
1495
330
6C
100
AcDbEntity
  8
0
100
AcDbCircle
 10
193.3643900518461
 20
193.1824909749214
 30
0.0
 40
120.9999999999999
100
AcDbArc
 50
94.21527886861106
 51
85.78472113138863
  0
LINE
  5
1D3D
330
6C
100
AcDbEntity
  8
7
  6
Continuous
100
AcDbLine
 10
392.3643900521824
 20
436.6084361163538
 30
0.0
 11
282.1143900521823
 21
436.6084361163538
 31
0.0
  0
LINE
  5
1D3E
330
6C
100
AcDbEntity
  8
7
  6
Continuous
100
AcDbLine
 10
193.3643900521823
 20
399.8584361163539
 30
0.0
 11
193.3643900521823
 21
530.3584361163538
 31
0.0
  0
LINE
  5
1D3F
330
6C
100
AcDbEntity
  8
7
  6
Continuous
100
AcDbLine
 10
397.0532101004469
 20
193.1824909749163
 30
0.0
 11
69.61439005184633
 21
193.1824909749163
 31
0.0
  0
LINE
  5
1D40
330
6C
100
AcDbEntity
  8
7
  6
Continuous
100
AcDbLine
 10
193.3643900518463
 20
316.9324909749164
 30
0.0
 11
193.3643900518463
 21
69.43249097491632
 31
0.0
  0
CIRCLE
  5
25F3
330
6C
100
AcDbEntity
  8
0
100
AcDbCircle
 10
193.3643900518463
 20
193.1824909749163
 30
0.0
 40
107.499999999664
  0
CIRCLE
  5
25F4
330
6C
100
AcDbEntity
  8
0
100
AcDbCircle
 10
193.3643900518463
 20
193.1824909749163
 30
0.0
 40
102.939999999664
  0
DIMENSION
  5
25F9
330
6C
100
AcDbEntity
  8
5
100
AcDbDimension
  2
*D44
 10
413.2871366823484
 20
381.6084361163539
 30
0.0
 11
413.2871366823483
 21
436.6084361163539
 31
0.0
 70
   160
  1
%%c<>
 71
     5
 42
110.0
  3
GEN-ISO
100
AcDbAlignedDimension
 13
384.0781280077923
 23
491.6084361163539
 33
0.0
 14
384.0781280077923
 24
381.6084361163539
 34
0.0
 50
90.00000000000005
100
AcDbRotatedDimension
1001
ACAD
1000
DSTYLE
1002
{
1070
     3
1000

1070
   271
1070
     0
1002
}
1001
ACAD_DSTYLE_DIMINSPECT
1070
   396
1000
100%
1070
   395
1000

1070
   394
1070
    33
1070
   393
1070
     0
  0
DIMENSION
  5
2625
330
6C
100
AcDbEntity
  8
5
100
AcDbDimension
  2
*D45
 10
433.0402612282632
 20
534.1084361163539
 30
0.0
 11
433.0402612282632
 21
485.3584361163539
 31
0.0
 70
   160
 71
     5
 42
97.5
  3
GEN-ISO
100
AcDbAlignedDimension
 13
418.9270760658359
 23
436.6084361163538
 33
0.0
 14
313.3643900521823
 24
534.1084361163539
 34
0.0
 50
90.00000000000005
100
AcDbRotatedDimension
1001
ACAD_DSTYLE_DIMINSPECT
1070
   396
1000
100%
1070
   395
1000

1070
   394
1070
    33
1070
   393
1070
     0
1001
ACAD
1000
DSTYLE
1002
{
1070
     3
1000

1070
   271
1070
     0
1002
}
  0
DIMENSION
  5
2647
330
6C
100
AcDbEntity
  8
5
100
AcDbDimension
  2
*D46
 10
451.9837789546858
 20
534.1084361163539
 30
0.0
 11
443.4923081689235
 21
457.858436116354
 31
0.0
 70
    32
 71
     5
 42
152.5
  3
GEN-ISO
100
AcDbAlignedDimension
 13
384.0781280077923
 23
381.6084361163539
 33
0.0
 14
313.3643900521823
 24
534.1084361163539
 34
0.0
 50
90.00000000000005
100
AcDbRotatedDimension
1001
ACAD_DSTYLE_DIMINSPECT
1070
   396
1000
100%
1070
   395
1000

1070
   394
1070
    33
1070
   393
1070
     0
1001
ACAD
1000
DSTYLE
1002
{
1070
     3
1000

1070
   271
1070
     0
1002
}
  0
DIMENSION
  5
2669
330
6C
100
AcDbEntity
  8
5
100
AcDbDimension
  2
*D47
 10
313.3643900521823
 20
546.108436116354
 30
0.0
 11
193.3643900521823
 21
555.2862735911693
 31
0.0
 70
    32
  1
%%c<>
 71
     5
 42
240.0
  3
GEN-ISO
100
AcDbAlignedDimension
 13
73.36439005218233
 23
534.1084361163539
 33
0.0
 14
313.3643900521823
 24
534.1084361163539
 34
0.0
 50
0.0000000000000114
100
AcDbRotatedDimension
1001
ACAD
1000
DSTYLE
1002
{
1070
     3
1000

1070
   271
1070
     0
1002
}
1001
ACAD_DSTYLE_DIMINSPECT
1070
   396
1000
100%
1070
   395
1000

1070
   394
1070
    33
1070
   393
1070
     0
  0
DIMENSION
  5
268B
330
6C
100
AcDbEntity
  8
5
100
AcDbDimension
  2
*D48
 10
61.36439005218235
 20
534.1084361163539
 30
0.0
 11
53.14088434365306
 21
460.6084361163539
 31
0.0
 70
    32
 71
     5
 42
147.0
  3
GEN-ISO
100
AcDbAlignedDimension
 13
100.8643900521823
 23
387.1084361163539
 33
0.0
 14
73.36439005218233
 24
534.1084361163539
 34
0.0
 50
90.00000000000005
100
AcDbRotatedDimension
1001
ACAD_DSTYLE_DIMINSPECT
1070
   396
1000
100%
1070
   395
1000

1070
   394
1070
    33
1070
   393
1070
     0
1001
ACAD
1000
DSTYLE
1002
{
1070
     3
1000

1070
   271
1070
     0
1002
}
  0
DIMENSION
  5
26AD
330
6C
100
AcDbEntity
  8
5
100
AcDbDimension
  2
*D49
 10
84.36439005218231
 20
365.1272881055506
 30
0.0
 11
193.3643900521823
 21
373.6469657415478
 31
0.0
 70
    32
 71
     5
 42
218.0000000000001
  3
GEN-ISO
100
AcDbAlignedDimension
 13
302.3643900521824
 23
498.2052549589964
 33
0.0
 14
84.36439005218231
 24
403.6084361163538
 34
0.0
 50
0.0000000000001132
100
AcDbRotatedDimension
1001
ACAD_DSTYLE_DIMINSPECT
1070
   396
1000
100%
1070
   395
1000

1070
   394
1070
    33
1070
   393
1070
     0
1001
ACAD
1000
DSTYLE
1002
{
1070
     3
1000

1070
   271
1070
     0
1002
}
  0
DIMENSION
  5
26CF
330
6C
100
AcDbEntity
  8
5
100
AcDbDimension
  2
*D50
 10
392.3643900521824
 20
342.7376143403703
 30
0.0
 11
292.8643900521823
 21
342.7376143403703
 31
0.0
 70
   160
 71
     5
 42
199.0
  3
GEN-ISO
100
AcDbAlignedDimension
 13
193.3643900521823
 23
361.6195622078326
 33
0.0
 14
392.3643900521824
 24
383.6084361163539
 34
0.0
 50
0.0000000000001132
100
AcDbRotatedDimension
1001
ACAD_DSTYLE_DIMINSPECT
1070
   396
1000
100%
1070
   395
1000

1070
   394
1070
    33
1070
   393
1070
     0
1001
ACAD
1000
DSTYLE
1002
{
1070
     3
1000

1070
   271
1070
     0
1002
}
  0
ENDSEC
  0
SECTION
  2
OBJECTS
  0
DICTIONARY
  5
C
330
0
100
AcDbDictionary
281
     1
  3
ACAD_2007HEADERVARS_RT
350
28AA
  3
ACAD_CIP_PREVIOUS_PRODUCT_INFO
350
233C
  3
ACAD_COLOR
350
63
  3
ACAD_GROUP
350
D
  3
ACAD_LAYOUT
350
62
  3
ACAD_MATERIAL
350
10
  3
ACAD_MLEADERSTYLE
350
66
  3
ACAD_MLINESTYLE
350
5F
  3
ACAD_PLOTSETTINGS
350
61
  3
ACAD_PLOTSTYLENAME
350
E
  3
ACAD_SCALELIST
350
42
  3
ACAD_TABLESTYLE
350
64
  3
ACAD_VISUALSTYLE
350
29
  3
ACDB_RECOMPOSE_DATA
350
28A9
  3
AcDbVariableDictionary
350
2378
  3
AcmDictionary
350
23E4
  3
AEC_PROPERTY_SET_DEFS
350
24E4
  3
AMG
350
238A
  3
AMGSNAPSETTINGS
350
2424
  0
DICTIONARY
  5
2488
330
2
100
AcDbDictionary
280
     1
281
     1
  3
ACAD_LAYERSTATES
360
2489
  0
DICTIONARY
  5
2482
330
2481
100
AcDbDictionary
280
     1
281
     1
  0
DICTIONARY
  5
2484
330
2483
100
AcDbDictionary
280
     1
281
     1
  0
DICTIONARY
  5
2894
330
C9
100
AcDbDictionary
280
     1
281
     1
  3
ACAD_MTEXT_2008_RT
360
2895
  0
DICTIONARY
  5
28E0
330
1E2
100
AcDbDictionary
280
     1
281
     1
  3
ACAD_MTEXT_2008_RT
360
28E1
  0
DICTIONARY
  5
28E2
330
1E7
100
AcDbDictionary
280
     1
281
     1
  3
ACAD_MTEXT_2008_RT
360
28E3
  0
DICTIONARY
  5
2341
330
1E9
100
AcDbDictionary
280
     1
281
     1
  3
ACAD_MLATT
360
2897
  3
ACAD_XREC_ROUNDTRIP
360
2896
  0
DICTIONARY
  5
2344
330
1ED
100
AcDbDictionary
280
     1
281
     1
  3
ACAD_MLATT
360
2899
  3
ACAD_XREC_ROUNDTRIP
360
2898
  0
DICTIONARY
  5
2347
330
1EE
100
AcDbDictionary
280
     1
281
     1
  3
ACAD_MLATT
360
289B
  3
ACAD_XREC_ROUNDTRIP
360
289A
  0
DICTIONARY
  5
234A
330
1EF
100
AcDbDictionary
280
     1
281
     1
  3
ACAD_MLATT
360
289D
  3
ACAD_XREC_ROUNDTRIP
360
289C
  0
DICTIONARY
  5
234D
330
1F0
100
AcDbDictionary
280
     1
281
     1
  3
ACAD_MLATT
360
289F
  3
ACAD_XREC_ROUNDTRIP
360
289E
  0
DICTIONARY
  5
2350
330
1F2
100
AcDbDictionary
280
     1
281
     1
  3
ACAD_MLATT
360
28A1
  3
ACAD_XREC_ROUNDTRIP
360
28A0
  0
DICTIONARY
  5
2353
330
1F3
100
AcDbDictionary
280
     1
281
     1
  3
ACAD_MLATT
360
28A3
  3
ACAD_XREC_ROUNDTRIP
360
28A2
  0
DICTIONARY
  5
2356
330
1F4
100
AcDbDictionary
280
     1
281
     1
  3
ACAD_MLATT
360
28A5
  3
ACAD_XREC_ROUNDTRIP
360
28A4
  0
DICTIONARY
  5
2359
330
1F5
100
AcDbDictionary
280
     1
281
     1
  3
ACAD_MLATT
360
28A7
  3
ACAD_XREC_ROUNDTRIP
360
28A6
  0
DICTIONARY
  5
28E4
330
1D48
100
AcDbDictionary
280
     1
281
     1
  3
ACAD_MTEXT_2008_RT
360
28E5
  0
DICTIONARY
  5
28E6
330
1D4C
100
AcDbDictionary
280
     1
281
     1
  3
ACAD_MTEXT_2008_RT
360
28E7
  0
DICTIONARY
  5
28E8
330
1D50
100
AcDbDictionary
280
     1
281
     1
  3
ACAD_MTEXT_2008_RT
360
28E9
  0
DICTIONARY
  5
28EA
330
1D5B
100
AcDbDictionary
280
     1
281
     1
  3
ACAD_MTEXT_2008_RT
360
28EB
  0
DICTIONARY
  5
28EC
330
1D5C
100
AcDbDictionary
280
     1
281
     1
  3
ACAD_MTEXT_2008_RT
360
28ED
  0
DICTIONARY
  5
28EE
330
1D63
100
AcDbDictionary
280
     1
281
     1
  3
ACAD_MTEXT_2008_RT
360
28EF
  0
DICTIONARY
  5
28F0
330
1D6A
100
AcDbDictionary
280
     1
281
     1
  3
ACAD_MTEXT_2008_RT
360
28F1
  0
DICTIONARY
  5
28F2
330
1D71
100
AcDbDictionary
280
     1
281
     1
  3
ACAD_MTEXT_2008_RT
360
28F3
  0
DICTIONARY
  5
28F4
330
1D78
100
AcDbDictionary
280
     1
281
     1
  3
ACAD_MTEXT_2008_RT
360
28F5
  0
DICTIONARY
  5
28F6
330
1D7C
100
AcDbDictionary
280
     1
281
     1
  3
ACAD_MTEXT_2008_RT
360
28F7
  0
DICTIONARY
  5
28F8
330
1D7D
100
AcDbDictionary
280
     1
281
     1
  3
ACAD_MTEXT_2008_RT
360
28F9
  0
DICTIONARY
  5
28FA
330
1D80
100
AcDbDictionary
280
     1
281
     1
  3
ACAD_MTEXT_2008_RT
360
28FB
  0
DICTIONARY
  5
28FC
330
1D84
100
AcDbDictionary
280
     1
281
     1
  3
ACAD_MTEXT_2008_RT
360
28FD
  0
DICTIONARY
  5
28FE
330
1E73
100
AcDbDictionary
280
     1
281
     1
  3
ACAD_MTEXT_2008_RT
360
28FF
  0
DICTIONARY
  5
2900
330
1F59
100
AcDbDictionary
280
     1
281
     1
  3
ACAD_MTEXT_2008_RT
360
2901
  0
DICTIONARY
  5
2902
330
203B
100
AcDbDictionary
280
     1
281
     1
  3
ACAD_MTEXT_2008_RT
360
2903
  0
DICTIONARY
  5
2904
330
22DC
100
AcDbDictionary
280
     1
281
     1
  3
ACAD_MTEXT_2008_RT
360
2905
  0
DICTIONARY
  5
28AA
102
{ACAD_REACTORS
330
C
102
}
330
C
100
AcDbDictionary
281
     1
  3
DIMARCSYM
350
28AB
  3
DIMLTEX1
350
28AD
  3
DIMLTEX2
350
28AE
  3
DIMLTYPE
350
28AC
  0
XRECORD
  5
233C
102
{ACAD_REACTORS
330
C
102
}
330
C
100
AcDbXrecord
280
     1
300
INVNTOR
300
2012
300
PDSP_F_S
  0
DICTIONARY
  5
63
102
{ACAD_REACTORS
330
C
102
}
330
C
100
AcDbDictionary
281
     1
  0
DICTIONARY
  5
D
102
{ACAD_REACTORS
330
C
102
}
330
C
100
AcDbDictionary
281
     1
  0
DICTIONARY
  5
62
102
{ACAD_REACTORS
330
C
102
}
330
C
100
AcDbDictionary
281
     1
  3
Layout1
350
6B
  3
Layout2
350
73
  3
Model
350
6F
  0
DICTIONARY
  5
10
102
{ACAD_REACTORS
330
C
102
}
330
C
100
AcDbDictionary
281
     1
  3
ByBlock
350
19
  3
ByLayer
350
11
  3
Global
350
21
  0
DICTIONARY
  5
66
102
{ACAD_REACTORS
330
C
102
}
330
C
100
AcDbDictionary
281
     1
  3
Standard
350
67
  0
DICTIONARY
  5
5F
102
{ACAD_REACTORS
330
C
102
}
330
C
100
AcDbDictionary
281
     1
  3
Standard
350
60
  0
DICTIONARY
  5
61
102
{ACAD_REACTORS
330
C
102
}
330
C
100
AcDbDictionary
281
     1
  0
ACDBDICTIONARYWDFLT
  5
E
102
{ACAD_REACTORS
330
C
102
}
330
C
100
AcDbDictionary
281
     1
  3
Normal
350
F
100
AcDbDictionaryWithDefault
340
F
  0
DICTIONARY
  5
42
102
{ACAD_REACTORS
330
C
102
}
330
C
100
AcDbDictionary
281
     1
  3
A0
350
43
  3
A1
350
44
  3
A2
350
45
  3
A3
350
46
  3
A4
350
47
  3
A5
350
48
  3
A6
350
49
  3
A7
350
4A
  3
A8
350
4B
  3
A9
350
4C
  3
B0
350
4D
  3
B1
350
4E
  3
B2
350
4F
  3
B3
350
50
  3
B4
350
51
  3
B5
350
52
  3
B6
350
53
  0
DICTIONARY
  5
64
102
{ACAD_REACTORS
330
C
102
}
330
C
100
AcDbDictionary
281
     1
  3
Standard
350
65
  0
DICTIONARY
  5
29
102
{ACAD_REACTORS
330
C
102
}
330
C
100
AcDbDictionary
281
     1
  3
2dWireframe
350
2F
  3
3D Hidden
350
237E
  3
3dWireframe
350
237D
  3
Basic
350
2E
  3
Brighten
350
35
  3
ColorChange
350
39
  3
Conceptual
350
32
  3
Dim
350
34
  3
EdgeColorOff
350
41
  3
Facepattern
350
38
  3
Flat
350
2A
  3
FlatWithEdges
350
2B
  3
Gouraud
350
2C
  3
GouraudWithEdges
350
2D
  3
Hidden
350
31
  3
JitterOff
350
3F
  3
Linepattern
350
37
  3
OverhangOff
350
40
  3
Realistic
350
33
  3
Shaded
350
3E
  3
Shaded with edges
350
3D
  3
Shades of Gray
350
3A
  3
Sketchy
350
3B
  3
Thicken
350
36
  3
Wireframe
350
30
  3
X-Ray
350
3C
  0
XRECORD
  5
28A9
102
{ACAD_REACTORS
330
C
102
}
330
C
100
AcDbXrecord
280
     1
 90
        1
330
65
330
C9
330
1E9
330
1ED
330
1EE
330
1EF
330
1F0
330
1F2
330
1F3
330
1F4
330
1F5
  0
DICTIONARY
  5
2378
102
{ACAD_REACTORS
330
C
102
}
330
C
100
AcDbDictionary
281
     1
  3
CANNOSCALE
350
237B
  3
CMLEADERSTYLE
350
237A
  3
CTABLESTYLE
350
2379
  3
LAYEREVAL
350
278F
  3
LAYERNOTIFY
350
2790
  3
LIGHTINGUNITS
350
278E
  3
MSLTSCALE
350
278D
  3
SOLIDHIST
350
2791
  3
XCLIPFRAME
350
2892
  0
DICTIONARY
  5
23E4
102
{ACAD_REACTORS
330
C
102
}
330
C
100
AcDbDictionary
281
     1
  3
AcmStdDictionary
350
23EE
  0
DICTIONARY
  5
24E4
102
{ACAD_REACTORS
330
C
102
}
330
C
100
AcDbDictionary
281
     1
  0
DICTIONARY
  5
238A
102
{ACAD_REACTORS
330
C
102
}
330
C
100
AcDbDictionary
281
     1
  0
DICTIONARY
  5
2424
102
{ACAD_REACTORS
330
C
102
}
330
C
100
AcDbDictionary
281
     1
  0
DICTIONARY
  5
2489
102
{ACAD_REACTORS
330
2488
102
}
330
2488
100
AcDbDictionary
281
     1
  0
XRECORD
  5
2895
102
{ACAD_REACTORS
330
2894
102
}
330
2894
100
AcDbXrecord
280
     1
 40
2697178.0
  1
\pxsm0.94;WIG Schweisung, Nahte sauber geschliffen und poliert\PSichtstege geschliffen mit 240 Korn und abgeklebt.\P\fTahoma|b0|i0;\H3.0000; \P\fTahoma|b0|i0;\H3.5000;WIG svarovani- svary dle potreby zabrousit.\PPohledove plochy brousit (vel. brusnyc
  1
h zrn 240)\Pa polepit paskou
  0
XRECORD
  5
28E1
102
{ACAD_REACTORS
330
28E0
102
}
330
28E0
100
AcDbXrecord
280
     1
 40
136563.0
  1
Effidrai sestava dvoudílná  218 vodorovná
  0
XRECORD
  5
28E3
102
{ACAD_REACTORS
330
28E2
102
}
330
28E2
100
AcDbXrecord
280
     1
 40
23258.0
  1
Není k dispozici
  0
XRECORD
  5
2897
102
{ACAD_REACTORS
330
2341
102
}
330
2341
100
AcDbXrecord
280
     1
 70
     4
 70
     0
 70
     0
 40
1.0
  2
ČÍSLO_REVIZE
  1
Embedded Object
 10
287.6423193699604
 20
66.0
 30
0.0
 40
3.499999940395355
 41
0.0
 46
0.0
 71
     1
 72
     5
  1
000
  7
Styl textu9
 73
     1
 44
1.0
  0
XRECORD
  5
2896
102
{ACAD_REACTORS
330
2341
102
}
330
2341
100
AcDbXrecord
280
     1
102
ACAD_MATT_HEIGHT
140
3.499999940395355
  0
XRECORD
  5
2899
102
{ACAD_REACTORS
330
2344
102
}
330
2344
100
AcDbXrecord
280
     1
 70
     4
 70
     0
 70
     0
 40
1.0
  2
Sheet_Size
  1
Embedded Object
 10
289.7753402652471
 20
48.33701147296152
 30
0.0
 40
2.000000029802321
 41
0.0
 46
0.0
 71
     1
 72
     5
  1
A2
  7
Styl textu40
 73
     1
 44
1.0
  0
XRECORD
  5
2898
102
{ACAD_REACTORS
330
2344
102
}
330
2344
100
AcDbXrecord
280
     1
102
ACAD_MATT_HEIGHT
140
2.000000029802321
  0
XRECORD
  5
289B
102
{ACAD_REACTORS
330
2347
102
}
330
2347
100
AcDbXrecord
280
     1
 70
     4
 70
     0
 70
     0
 40
1.0
  2
FILENAME_AND_PATH
  1
Embedded Object
 10
230.2697279123746
 20
53.13502004542946
 30
0.0
 40
2.000000029802321
 41
0.0
 46
0.0
 71
     1
 72
     5
  1
C:\\Inventor_DATA\\Projekty\\Guly\\Effidrain\\Effidrain sestava dvoudílná  218 vodorovná\\408084.iam
  7
Styl textu40
 73
     1
 44
1.0
  0
XRECORD
  5
289A
102
{ACAD_REACTORS
330
2347
102
}
330
2347
100
AcDbXrecord
280
     1
102
ACAD_MATT_HEIGHT
140
2.000000029802321
  0
XRECORD
  5
289D
102
{ACAD_REACTORS
330
234A
102
}
330
234A
100
AcDbXrecord
280
     1
 70
     4
 70
     0
 70
     0
 40
1.0
  2
PART_NUMBER
  1
Embedded Object
 10
218.0
 20
66.0
 30
0.0
 40
3.499999940395355
 41
0.0
 46
0.0
 71
     1
 72
     5
  1
408084
  7
Text poznámky (ISO)
 73
     1
 44
1.0
  0
XRECORD
  5
289C
102
{ACAD_REACTORS
330
234A
102
}
330
234A
100
AcDbXrecord
280
     1
102
ACAD_MATT_HEIGHT
140
3.499999940395355
  0
XRECORD
  5
289F
102
{ACAD_REACTORS
330
234D
102
}
330
234D
100
AcDbXrecord
280
     1
 70
     4
 70
     0
 70
     0
 40
1.0
  2
PROJECT
  1
Embedded Object
 10
118.0
 20
60.0
 30
0.0
 40
3.499999940395355
 41
0.0
 46
0.0
 71
     1
 72
     5
  1

  7
Text poznámky (ISO)
 73
     1
 44
1.0
  0
XRECORD
  5
289E
102
{ACAD_REACTORS
330
234D
102
}
330
234D
100
AcDbXrecord
280
     1
102
ACAD_MATT_HEIGHT
140
3.499999940395355
  0
XRECORD
  5
28A1
102
{ACAD_REACTORS
330
2350
102
}
330
2350
100
AcDbXrecord
280
     1
 70
     4
 70
     0
 70
     0
 40
1.0
  2
SKLADOVÉ_ČÍSLO
  1
Embedded Object
 10
118.0
 20
54.89391305489238
 30
0.0
 40
6.99999988079071
 41
153.2966041564941
 46
0.0
 71
     1
 72
     5
  1
408084
  7
Styl textu94
 73
     1
 44
1.0
  0
XRECORD
  5
28A0
102
{ACAD_REACTORS
330
2350
102
}
330
2350
100
AcDbXrecord
280
     1
102
ACAD_MATT_HEIGHT
140
6.99999988079071
  0
XRECORD
  5
28A3
102
{ACAD_REACTORS
330
2353
102
}
330
2353
100
AcDbXrecord
280
     1
 70
     4
 70
     0
 70
     0
 40
1.0
  2
MATERIAL
  1
Embedded Object
 10
117.5939056808251
 20
108.6756657996811
 30
0.0
 40
3.499999940395355
 41
0.0
 46
0.0
 71
     1
 72
     5
  1

  7
Text poznámky (ISO)
 73
     1
 44
1.0
  0
XRECORD
  5
28A2
102
{ACAD_REACTORS
330
2353
102
}
330
2353
100
AcDbXrecord
280
     1
102
ACAD_MATT_HEIGHT
140
3.499999940395355
  0
XRECORD
  5
28A5
102
{ACAD_REACTORS
330
2356
102
}
330
2356
100
AcDbXrecord
280
     1
 70
     4
 70
     0
 70
     0
 40
1.0
  2
AUTHOR
  1
Embedded Object
 10
165.2312259808574
 20
87.78242706242744
 30
0.0
 40
2.000000029802321
 41
15.06250023841858
 46
0.0
 71
     1
 72
     5
  1
pmacoun
  7
Styl textu40
 73
     1
 44
1.0
  0
XRECORD
  5
28A4
102
{ACAD_REACTORS
330
2356
102
}
330
2356
100
AcDbXrecord
280
     1
102
ACAD_MATT_HEIGHT
140
2.000000029802321
  0
XRECORD
  5
28A7
102
{ACAD_REACTORS
330
2359
102
}
330
2359
100
AcDbXrecord
280
     1
 70
     4
 70
     0
 70
     0
 40
1.0
  2
VS_First
  1
Embedded Object
 10
189.1855699863978
 20
86.00038821032343
 30
0.0
 40
3.499999940395355
 41
24.15597186978378
 46
0.0
 71
     1
 72
     5
  1

  7
Text poznámky (ISO)
 73
     1
 44
1.0
  0
XRECORD
  5
28A6
102
{ACAD_REACTORS
330
2359
102
}
330
2359
100
AcDbXrecord
280
     1
102
ACAD_MATT_HEIGHT
140
3.499999940395355
  0
XRECORD
  5
28E5
102
{ACAD_REACTORS
330
28E4
102
}
330
28E4
100
AcDbXrecord
280
     1
 40
7165.0
  1
KUSOVNÍK
  0
XRECORD
  5
28E7
102
{ACAD_REACTORS
330
28E6
102
}
330
28E6
100
AcDbXrecord
280
     1
 40
6807.0
  1
MATERIÁL
  0
XRECORD
  5
28E9
102
{ACAD_REACTORS
330
28E8
102
}
330
28E8
100
AcDbXrecord
280
     1
 40
6841.0
  1
SKLADOVÉ
  0
XRECORD
  5
28EB
102
{ACAD_REACTORS
330
28EA
102
}
330
28EA
100
AcDbXrecord
280
     1
 40
144653.0
  1
Effidrai dvoudílná  218/DN100 vodorovná 12mm 
  0
XRECORD
  5
28ED
102
{ACAD_REACTORS
330
28EC
102
}
330
28EC
100
AcDbXrecord
280
     1
 40
26991.0
  1
příruba AISI 304
  0
XRECORD
  5
28EF
102
{ACAD_REACTORS
330
28EE
102
}
330
28EE
100
AcDbXrecord
280
     1
 40
23054.0
  1
návlek sunap-DN100
  0
XRECORD
  5
28F1
102
{ACAD_REACTORS
330
28F0
102
}
330
28F0
100
AcDbXrecord
280
     1
 40
202637.0
  1
Effidrain drenážní kroužek komplet 218 + karton
  0
XRECORD
  5
28F3
102
{ACAD_REACTORS
330
28F2
102
}
330
28F2
100
AcDbXrecord
280
     1
 40
164968.0
  1
Krytka  matic 130-034-148 šestihranná, černá
  0
XRECORD
  5
28F5
102
{ACAD_REACTORS
330
28F4
102
}
330
28F4
100
AcDbXrecord
280
     1
 40
61553.0
  1
Šestihranná matice M8 DIN 934
  0
XRECORD
  5
28F7
102
{ACAD_REACTORS
330
28F6
102
}
330
28F6
100
AcDbXrecord
280
     1
 40
15392.0
  1
Polykarbonát, 
  0
XRECORD
  5
28F9
102
{ACAD_REACTORS
330
28F8
102
}
330
28F8
100
AcDbXrecord
280
     1
 40
13310.0
  1
kouřový
  0
XRECORD
  5
28FB
102
{ACAD_REACTORS
330
28FA
102
}
330
28FA
100
AcDbXrecord
280
     1
 40
130192.0
  1
Effidrain kryt plastový 218 pro balení PP 12mm
  0
XRECORD
  5
28FD
102
{ACAD_REACTORS
330
28FC
102
}
330
28FC
100
AcDbXrecord
280
     1
 40
4936.0
  1
Papír
  0
XRECORD
  5
28FF
102
{ACAD_REACTORS
330
28FE
102
}
330
28FE
100
AcDbXrecord
280
     1
 40
8857.0
  1
\A1;{\U+00D8}110
  0
XRECORD
  5
2901
102
{ACAD_REACTORS
330
2900
102
}
330
2900
100
AcDbXrecord
280
     1
 40
29222.0
  1
\A1;152,5{\H5.257800;±1}
  0
XRECORD
  5
2903
102
{ACAD_REACTORS
330
2902
102
}
330
2902
100
AcDbXrecord
280
     1
 40
25695.0
  1
\A1;308{\H5.257800;±1}
  0
XRECORD
  5
2905
102
{ACAD_REACTORS
330
2904
102
}
330
2904
100
AcDbXrecord
280
     1
 40
8999.0
  1
\A1;{\U+00D8}218
  0
XRECORD
  5
28AB
102
{ACAD_REACTORS
330
28AA
102
}
330
28AA
100
AcDbXrecord
280
     1
 70
     1
  0
XRECORD
  5
28AD
102
{ACAD_REACTORS
330
28AA
102
}
330
28AA
100
AcDbXrecord
280
     1
340
5B
  0
XRECORD
  5
28AE
102
{ACAD_REACTORS
330
28AA
102
}
330
28AA
100
AcDbXrecord
280
     1
340
5B
  0
XRECORD
  5
28AC
102
{ACAD_REACTORS
330
28AA
102
}
330
28AA
100
AcDbXrecord
280
     1
340
5B
  0
LAYOUT
  5
6B
102
{ACAD_REACTORS
330
62
102
}
330
62
100
AcDbPlotSettings
  1

  2

  4

  6

 40
0.0
 41
0.0
 42
0.0
 43
0.0
 44
0.0
 45
0.0
 46
0.0
 47
0.0
 48
0.0
 49
0.0
140
0.0
141
0.0
142
1.0
143
1.0
 70
   688
 72
     0
 73
     0
 74
     5
  7

 75
    16
147
1.0
 76
     0
 77
     2
 78
   300
148
0.0
149
0.0
100
AcDbLayout
  1
Layout1
 70
     1
 71
     1
 10
0.0
 20
0.0
 11
891.0
 21
630.0
 12
0.0
 22
0.0
 32
0.0
 14
0.0
 24
0.0
 34
0.0
 15
891.0
 25
630.0
 35
0.0
146
0.0
 13
0.0
 23
0.0
 33
0.0
 16
1.0
 26
0.0
 36
0.0
 17
0.0
 27
1.0
 37
0.0
 76
     0
330
68
  0
LAYOUT
  5
73
102
{ACAD_REACTORS
330
62
102
}
330
62
100
AcDbPlotSettings
  1

  2

  4

  6

 40
0.0
 41
0.0
 42
0.0
 43
0.0
 44
0.0
 45
0.0
 46
0.0
 47
0.0
 48
0.0
 49
0.0
140
0.0
141
0.0
142
1.0
143
1.0
 70
   688
 72
     0
 73
     0
 74
     5
  7

 75
    16
147
1.0
 76
     0
 77
     2
 78
   300
148
0.0
149
0.0
100
AcDbLayout
  1
Layout2
 70
     1
 71
     2
 10
0.0
 20
0.0
 11
12.0
 21
9.0
 12
0.0
 22
0.0
 32
0.0
 14
0.0
 24
0.0
 34
0.0
 15
0.0
 25
0.0
 35
0.0
146
0.0
 13
0.0
 23
0.0
 33
0.0
 16
1.0
 26
0.0
 36
0.0
 17
0.0
 27
1.0
 37
0.0
 76
     0
330
70
  0
LAYOUT
  5
6F
102
{ACAD_REACTORS
330
62
102
}
330
62
100
AcDbPlotSettings
  1

  2

  4

  6

 40
0.0
 41
0.0
 42
0.0
 43
0.0
 44
0.0
 45
0.0
 46
0.0
 47
0.0
 48
0.0
 49
0.0
140
0.0
141
0.0
142
1.0
143
1.0
 70
  1712
 72
     0
 73
     0
 74
     0
  7

 75
     0
147
1.0
 76
     0
 77
     2
 78
   300
148
0.0
149
0.0
100
AcDbLayout
  1
Model
 70
     1
 71
     0
 10
0.0
 20
0.0
 11
12.0
 21
9.0
 12
0.0
 22
0.0
 32
0.0
 14
0.0
 24
0.0
 34
0.0
 15
0.0
 25
0.0
 35
0.0
146
0.0
 13
0.0
 23
0.0
 33
0.0
 16
1.0
 26
0.0
 36
0.0
 17
0.0
 27
1.0
 37
0.0
 76
     0
330
6C
331
57
  0
MATERIAL
  5
19
102
{ACAD_XDICTIONARY
360
1A
102
}
102
{ACAD_REACTORS
330
10
102
}
330
10
100
AcDbMaterial
  1
ByBlock
 72
     0
 43
0.0208333333333333
 43
0.0
 43
0.0
 43
0.0
 43
0.0
 43
0.0208333333333333
 43
0.0
 43
0.0
 43
0.0
 43
0.0
 43
1.0
 43
0.0
 43
0.0
 43
0.0
 43
0.0
 43
1.0
 77
     0
 47
0.0208333333333333
 47
0.0
 47
0.0
 47
0.0
 47
0.0
 47
0.0208333333333333
 47
0.0
 47
0.0
 47
0.0
 47
0.0
 47
1.0
 47
0.0
 47
0.0
 47
0.0
 47
0.0
 47
1.0
171
     0
 49
0.0208333333333333
 49
0.0
 49
0.0
 49
0.0
 49
0.0
 49
0.0208333333333333
 49
0.0
 49
0.0
 49
0.0
 49
0.0
 49
1.0
 49
0.0
 49
0.0
 49
0.0
 49
0.0
 49
1.0
175
     0
142
0.0208333333333333
142
0.0
142
0.0
142
0.0
142
0.0
142
0.0208333333333333
142
0.0
142
0.0
142
0.0
142
0.0
142
1.0
142
0.0
142
0.0
142
0.0
142
0.0
142
1.0
179
     0
144
0.0208333333333333
144
0.0
144
0.0
144
0.0
144
0.0
144
0.0208333333333333
144
0.0
144
0.0
144
0.0
144
0.0
144
1.0
144
0.0
144
0.0
144
0.0
144
0.0
144
1.0
147
0.0208333333333333
147
0.0
147
0.0
147
0.0
147
0.0
147
0.0208333333333333
147
0.0
147
0.0
147
0.0
147
0.0
147
1.0
147
0.0
147
0.0
147
0.0
147
0.0
147
1.0
  0
MATERIAL
  5
11
102
{ACAD_XDICTIONARY
360
12
102
}
102
{ACAD_REACTORS
330
10
102
}
330
10
100
AcDbMaterial
  1
ByLayer
 72
     0
 43
0.0208333333333333
 43
0.0
 43
0.0
 43
0.0
 43
0.0
 43
0.0208333333333333
 43
0.0
 43
0.0
 43
0.0
 43
0.0
 43
1.0
 43
0.0
 43
0.0
 43
0.0
 43
0.0
 43
1.0
 77
     0
 47
0.0208333333333333
 47
0.0
 47
0.0
 47
0.0
 47
0.0
 47
0.0208333333333333
 47
0.0
 47
0.0
 47
0.0
 47
0.0
 47
1.0
 47
0.0
 47
0.0
 47
0.0
 47
0.0
 47
1.0
171
     0
 49
0.0208333333333333
 49
0.0
 49
0.0
 49
0.0
 49
0.0
 49
0.0208333333333333
 49
0.0
 49
0.0
 49
0.0
 49
0.0
 49
1.0
 49
0.0
 49
0.0
 49
0.0
 49
0.0
 49
1.0
175
     0
142
0.0208333333333333
142
0.0
142
0.0
142
0.0
142
0.0
142
0.0208333333333333
142
0.0
142
0.0
142
0.0
142
0.0
142
1.0
142
0.0
142
0.0
142
0.0
142
0.0
142
1.0
179
     0
144
0.0208333333333333
144
0.0
144
0.0
144
0.0
144
0.0
144
0.0208333333333333
144
0.0
144
0.0
144
0.0
144
0.0
144
1.0
144
0.0
144
0.0
144
0.0
144
0.0
144
1.0
147
0.0208333333333333
147
0.0
147
0.0
147
0.0
147
0.0
147
0.0208333333333333
147
0.0
147
0.0
147
0.0
147
0.0
147
1.0
147
0.0
147
0.0
147
0.0
147
0.0
147
1.0
  0
MATERIAL
  5
21
102
{ACAD_XDICTIONARY
360
22
102
}
102
{ACAD_REACTORS
330
10
102
}
330
10
100
AcDbMaterial
  1
Global
 72
     0
 43
0.0208333333333333
 43
0.0
 43
0.0
 43
0.0
 43
0.0
 43
0.0208333333333333
 43
0.0
 43
0.0
 43
0.0
 43
0.0
 43
1.0
 43
0.0
 43
0.0
 43
0.0
 43
0.0
 43
1.0
 77
     0
 47
0.0208333333333333
 47
0.0
 47
0.0
 47
0.0
 47
0.0
 47
0.0208333333333333
 47
0.0
 47
0.0
 47
0.0
 47
0.0
 47
1.0
 47
0.0
 47
0.0
 47
0.0
 47
0.0
 47
1.0
171
     0
 49
0.0208333333333333
 49
0.0
 49
0.0
 49
0.0
 49
0.0
 49
0.0208333333333333
 49
0.0
 49
0.0
 49
0.0
 49
0.0
 49
1.0
 49
0.0
 49
0.0
 49
0.0
 49
0.0
 49
1.0
175
     0
142
0.0208333333333333
142
0.0
142
0.0
142
0.0
142
0.0
142
0.0208333333333333
142
0.0
142
0.0
142
0.0
142
0.0
142
1.0
142
0.0
142
0.0
142
0.0
142
0.0
142
1.0
179
     0
144
0.0208333333333333
144
0.0
144
0.0
144
0.0
144
0.0
144
0.0208333333333333
144
0.0
144
0.0
144
0.0
144
0.0
144
1.0
144
0.0
144
0.0
144
0.0
144
0.0
144
1.0
147
0.0208333333333333
147
0.0
147
0.0
147
0.0
147
0.0
147
0.0208333333333333
147
0.0
147
0.0
147
0.0
147
0.0
147
1.0
147
0.0
147
0.0
147
0.0
147
0.0
147
1.0
  0
MLEADERSTYLE
  5
67
102
{ACAD_XDICTIONARY
360
233D
102
}
102
{ACAD_REACTORS
330
66
102
}
330
66
100
AcDbMLeaderStyle
170
     2
171
     1
172
     0
 90
        2
 40
0.0
 41
0.0
173
     1
 91
-1056964608
340
5B
 92
       -2
290
     1
 42
0.09
291
     1
 43
0.36
  3
Standard
 44
0.18
300

342
55
174
     1
178
     6
175
     1
176
     0
 93
-1056964608
 45
0.18
292
     0
297
     0
 46
0.18
 94
-1056964608
 47
1.0
 49
1.0
140
1.0
293
     1
141
0.0
294
     1
177
     0
142
1.0
295
     0
296
     0
143
0.125
1001
ACAD_MLEADERVER
1070
     2
  0
MLINESTYLE
  5
60
102
{ACAD_REACTORS
330
5F
102
}
330
5F
100
AcDbMlineStyle
  2
STANDARD
 70
     0
  3

 62
   256
 51
90.0
 52
90.0
 71
     2
 49
0.5
 62
   256
  6
BYLAYER
 49
-0.5
 62
   256
  6
BYLAYER
  0
ACDBPLACEHOLDER
  5
F
102
{ACAD_REACTORS
330
E
102
}
330
E
  0
SCALE
  5
43
102
{ACAD_REACTORS
330
42
102
}
330
42
100
AcDbScale
 70
     0
300
1:1
140
1.0
141
1.0
290
     1
  0
SCALE
  5
44
102
{ACAD_REACTORS
330
42
102
}
330
42
100
AcDbScale
 70
     0
300
1/128" = 1'-0"
140
0.0078125
141
12.0
290
     0
  0
SCALE
  5
45
102
{ACAD_REACTORS
330
42
102
}
330
42
100
AcDbScale
 70
     0
300
1/64" = 1'-0"
140
0.015625
141
12.0
290
     0
  0
SCALE
  5
46
102
{ACAD_REACTORS
330
42
102
}
330
42
100
AcDbScale
 70
     0
300
1/32" = 1'-0"
140
0.03125
141
12.0
290
     0
  0
SCALE
  5
47
102
{ACAD_REACTORS
330
42
102
}
330
42
100
AcDbScale
 70
     0
300
1/16" = 1'-0"
140
0.0625
141
12.0
290
     0
  0
SCALE
  5
48
102
{ACAD_REACTORS
330
42
102
}
330
42
100
AcDbScale
 70
     0
300
3/32" = 1'-0"
140
0.09375
141
12.0
290
     0
  0
SCALE
  5
49
102
{ACAD_REACTORS
330
42
102
}
330
42
100
AcDbScale
 70
     0
300
1/8" = 1'-0"
140
0.125
141
12.0
290
     0
  0
SCALE
  5
4A
102
{ACAD_REACTORS
330
42
102
}
330
42
100
AcDbScale
 70
     0
300
3/16" = 1'-0"
140
0.1875
141
12.0
290
     0
  0
SCALE
  5
4B
102
{ACAD_REACTORS
330
42
102
}
330
42
100
AcDbScale
 70
     0
300
1/4" = 1'-0"
140
0.25
141
12.0
290
     0
  0
SCALE
  5
4C
102
{ACAD_REACTORS
330
42
102
}
330
42
100
AcDbScale
 70
     0
300
3/8" = 1'-0"
140
0.375
141
12.0
290
     0
  0
SCALE
  5
4D
102
{ACAD_REACTORS
330
42
102
}
330
42
100
AcDbScale
 70
     0
300
1/2" = 1'-0"
140
0.5
141
12.0
290
     0
  0
SCALE
  5
4E
102
{ACAD_REACTORS
330
42
102
}
330
42
100
AcDbScale
 70
     0
300
3/4" = 1'-0"
140
0.75
141
12.0
290
     0
  0
SCALE
  5
4F
102
{ACAD_REACTORS
330
42
102
}
330
42
100
AcDbScale
 70
     0
300
1" = 1'-0"
140
1.0
141
12.0
290
     0
  0
SCALE
  5
50
102
{ACAD_REACTORS
330
42
102
}
330
42
100
AcDbScale
 70
     0
300
1-1/2" = 1'-0"
140
1.5
141
12.0
290
     0
  0
SCALE
  5
51
102
{ACAD_REACTORS
330
42
102
}
330
42
100
AcDbScale
 70
     0
300
3" = 1'-0"
140
3.0
141
12.0
290
     0
  0
SCALE
  5
52
102
{ACAD_REACTORS
330
42
102
}
330
42
100
AcDbScale
 70
     0
300
6" = 1'-0"
140
6.0
141
12.0
290
     0
  0
SCALE
  5
53
102
{ACAD_REACTORS
330
42
102
}
330
42
100
AcDbScale
 70
     0
300
1'-0" = 1'-0"
140
12.0
141
12.0
290
     0
  0
TABLESTYLE
  5
65
102
{ACAD_XDICTIONARY
360
2793
102
}
102
{ACAD_REACTORS
330
64
102
}
330
64
100
AcDbTableStyle
  3
Standard
 70
     0
 71
     0
 40
0.06
 41
0.06
280
     0
281
     0
  7
Standard
140
0.18
170
     2
 62
     0
 63
     7
283
     0
274
    -2
284
     1
 64
     0
275
    -2
285
     1
 65
     0
276
    -2
286
     1
 66
     0
277
    -2
287
     1
 67
     0
278
    -2
288
     1
 68
     0
279
    -2
289
     1
 69
     0
  7
Standard
140
0.25
170
     5
 62
     0
 63
     7
283
     0
274
    -2
284
     1
 64
     0
275
    -2
285
     1
 65
     0
276
    -2
286
     1
 66
     0
277
    -2
287
     1
 67
     0
278
    -2
288
     1
 68
     0
279
    -2
289
     1
 69
     0
  7
Standard
140
0.18
170
     5
 62
     0
 63
     7
283
     0
274
    -2
284
     1
 64
     0
275
    -2
285
     1
 65
     0
276
    -2
286
     1
 66
     0
277
    -2
287
     1
 67
     0
278
    -2
288
     1
 68
     0
279
    -2
289
     1
 69
     0
  0
VISUALSTYLE
  5
2F
102
{ACAD_XDICTIONARY
360
28B9
102
}
102
{ACAD_REACTORS
330
29
102
}
330
29
100
AcDbVisualStyle
  2

 70
     4
 71
     0
 72
     2
 73
     0
 90
        0
 40
-0.6
 41
-30.0
 62
     5
 63
     7
421
 16777215
 74
     1
 91
        4
 64
     7
 65
   257
 75
     1
175
     1
 42
1.0
 92
        0
 66
   257
 43
1.0
 76
     1
 77
     6
 78
     2
 67
     7
 79
     5
170
     0
171
     0
290
     0
174
     0
 93
        1
 44
0.0
173
     0
291
     0
 45
0.0
1001
ACAD
1000
AcDbSavedByObjectVersion
1070
     0
  0
VISUALSTYLE
  5
237E
102
{ACAD_XDICTIONARY
360
2908
102
}
102
{ACAD_REACTORS
330
29
102
}
330
29
100
AcDbVisualStyle
  2

 70
     6
 71
     1
 72
     2
 73
     2
 90
        0
 40
-0.6
 41
-30.0
 62
     5
 63
     7
421
 16777215
 74
     2
 91
        2
 64
     7
 65
   257
 75
     2
175
     1
 42
179.0
 92
        0
 66
   257
 43
1.0
 76
     1
 77
     6
 78
     2
 67
     7
 79
     3
170
     0
171
     0
290
     0
174
     0
 93
        1
 44
0.0
173
     0
291
     0
 45
0.0
1001
ACAD
1000
AcDbSavedByObjectVersion
1070
     0
  0
VISUALSTYLE
  5
237D
102
{ACAD_XDICTIONARY
360
2906
102
}
102
{ACAD_REACTORS
330
29
102
}
330
29
100
AcDbVisualStyle
  2

 70
     5
 71
     0
 72
     2
 73
     0
 90
        0
 40
-0.6
 41
-30.0
 62
     5
 63
     7
421
 16777215
 74
     1
 91
        4
 64
     7
 65
   257
 75
     1
175
     1
 42
1.0
 92
        0
 66
   257
 43
1.0
 76
     1
 77
     6
 78
     2
 67
     7
 79
     5
170
     0
171
     0
290
     0
174
     0
 93
        1
 44
0.0
173
     0
291
     0
 45
0.0
1001
ACAD
1000
AcDbSavedByObjectVersion
1070
     0
  0
VISUALSTYLE
  5
2E
102
{ACAD_XDICTIONARY
360
28B7
102
}
102
{ACAD_REACTORS
330
29
102
}
330
29
100
AcDbVisualStyle
  2

 70
     7
 71
     1
 72
     0
 73
     1
 90
        0
 40
-0.6
 41
-30.0
 62
     5
 63
     7
421
 16777215
 74
     0
 91
        4
 64
     7
 65
   257
 75
     1
175
     1
 42
1.0
 92
        8
 66
     7
 43
1.0
 76
     1
 77
     6
 78
     2
 67
     7
 79
     5
170
     0
171
     0
290
     0
174
     0
 93
        1
 44
0.0
173
     0
291
     1
 45
0.0
1001
ACAD
1000
AcDbSavedByObjectVersion
1070
     0
  0
VISUALSTYLE
  5
35
102
{ACAD_XDICTIONARY
360
28C5
102
}
102
{ACAD_REACTORS
330
29
102
}
330
29
100
AcDbVisualStyle
  2

 70
    12
 71
     2
 72
     2
 73
     0
 90
        0
 40
-0.6
 41
-30.0
 62
     5
 63
     7
421
 16777215
 74
     1
 91
        4
 64
     7
 65
   257
 75
     1
175
     1
 42
1.0
 92
        8
 66
     7
 43
1.0
 76
     1
 77
     6
 78
     2
 67
     7
 79
     5
170
     0
171
     0
290
     0
174
     0
 93
        1
 44
50.0
173
     0
291
     1
 45
0.0
1001
ACAD
1000
AcDbSavedByObjectVersion
1070
     0
  0
VISUALSTYLE
  5
39
102
{ACAD_XDICTIONARY
360
28CD
102
}
102
{ACAD_REACTORS
330
29
102
}
330
29
100
AcDbVisualStyle
  2

 70
    16
 71
     2
 72
     2
 73
     3
 90
        0
 40
-0.6
 41
-30.0
 62
     5
 63
     8
421
  8421504
 74
     1
 91
        4
 64
     7
 65
   257
 75
     1
175
     1
 42
1.0
 92
        8
 66
     8
424
  8421504
 43
1.0
 76
     1
 77
     6
 78
     2
 67
     7
 79
     5
170
     0
171
     0
290
     0
174
     0
 93
        1
 44
0.0
173
     0
291
     1
 45
0.0
1001
ACAD
1000
AcDbSavedByObjectVersion
1070
     0
  0
VISUALSTYLE
  5
32
102
{ACAD_XDICTIONARY
360
28BF
102
}
102
{ACAD_REACTORS
330
29
102
}
330
29
100
AcDbVisualStyle
  2

 70
     9
 71
     3
 72
     2
 73
     0
 90
        0
 40
-0.6
 41
-30.0
 62
     5
 63
     7
421
 16777215
 74
     2
 91
        2
 64
     7
 65
   257
 75
     1
175
     1
 42
179.0
 92
        8
 66
     7
 43
1.0
 76
     1
 77
     6
 78
     2
 67
     7
 79
     3
170
     0
171
     0
290
     0
174
     0
 93
        1
 44
0.0
173
     0
291
     0
 45
0.0
1001
ACAD
1000
AcDbSavedByObjectVersion
1070
     0
  0
VISUALSTYLE
  5
34
102
{ACAD_XDICTIONARY
360
28C3
102
}
102
{ACAD_REACTORS
330
29
102
}
330
29
100
AcDbVisualStyle
  2

 70
    11
 71
     2
 72
     2
 73
     0
 90
        0
 40
-0.6
 41
-30.0
 62
     5
 63
     7
421
 16777215
 74
     1
 91
        4
 64
     7
 65
   257
 75
     1
175
     1
 42
1.0
 92
        8
 66
     7
 43
1.0
 76
     1
 77
     6
 78
     2
 67
     7
 79
     5
170
     0
171
     0
290
     0
174
     0
 93
        1
 44
-50.0
173
     0
291
     1
 45
0.0
1001
ACAD
1000
AcDbSavedByObjectVersion
1070
     0
  0
VISUALSTYLE
  5
41
102
{ACAD_XDICTIONARY
360
28DD
102
}
102
{ACAD_REACTORS
330
29
102
}
330
29
100
AcDbVisualStyle
  2

 70
    22
 71
     2
 72
     2
 73
     0
 90
        0
 40
-0.6
 41
-30.0
 62
     5
 63
     7
421
 16777215
 74
     1
 91
        4
 64
     7
 65
   257
 75
     1
175
     1
 42
1.0
 92
        8
 66
     7
 43
1.0
 76
     1
 77
     6
 78
     2
 67
     7
 79
     5
170
     0
171
     0
290
     0
174
     0
 93
        1
 44
0.0
173
     0
291
     1
 45
0.0
1001
ACAD
1000
AcDbSavedByObjectVersion
1070
     0
  0
VISUALSTYLE
  5
38
102
{ACAD_XDICTIONARY
360
28CB
102
}
102
{ACAD_REACTORS
330
29
102
}
330
29
100
AcDbVisualStyle
  2

 70
    15
 71
     2
 72
     2
 73
     0
 90
        0
 40
-0.6
 41
-30.0
 62
     5
 63
     7
421
 16777215
 74
     1
 91
        4
 64
     7
 65
   257
 75
     1
175
     1
 42
1.0
 92
        8
 66
     7
 43
1.0
 76
     1
 77
     6
 78
     2
 67
     7
 79
     5
170
     0
171
     0
290
     0
174
     0
 93
        1
 44
0.0
173
     0
291
     1
 45
0.0
1001
ACAD
1000
AcDbSavedByObjectVersion
1070
     0
  0
VISUALSTYLE
  5
2A
102
{ACAD_XDICTIONARY
360
28AF
102
}
102
{ACAD_REACTORS
330
29
102
}
330
29
100
AcDbVisualStyle
  2

 70
     0
 71
     2
 72
     1
 73
     1
 90
        2
 40
-0.6
 41
30.0
 62
     5
 63
     7
421
 16777215
 74
     0
 91
        0
 64
     7
 65
   257
 75
     1
175
     1
 42
1.0
 92
        8
 66
     7
 43
1.0
 76
     1
 77
     6
 78
     2
 67
     7
 79
     5
170
     0
171
     0
290
     0
174
     0
 93
       13
 44
0.0
173
     0
291
     1
 45
0.0
1001
ACAD
1000
AcDbSavedByObjectVersion
1070
     0
  0
VISUALSTYLE
  5
2B
102
{ACAD_XDICTIONARY
360
28B1
102
}
102
{ACAD_REACTORS
330
29
102
}
330
29
100
AcDbVisualStyle
  2

 70
     1
 71
     2
 72
     1
 73
     1
 90
        2
 40
-0.6
 41
30.0
 62
     5
 63
     7
421
 16777215
 74
     1
 91
        0
 64
     7
 65
   257
 75
     1
175
     1
 42
1.0
 92
        0
 66
   257
 43
1.0
 76
     1
 77
     6
 78
     2
 67
     7
 79
     5
170
     0
171
     0
290
     0
174
     0
 93
       13
 44
0.0
173
     0
291
     1
 45
0.0
1001
ACAD
1000
AcDbSavedByObjectVersion
1070
     0
  0
VISUALSTYLE
  5
2C
102
{ACAD_XDICTIONARY
360
28B3
102
}
102
{ACAD_REACTORS
330
29
102
}
330
29
100
AcDbVisualStyle
  2

 70
     2
 71
     2
 72
     2
 73
     1
 90
        2
 40
-0.6
 41
30.0
 62
     5
 63
     7
421
 16777215
 74
     0
 91
        0
 64
     7
 65
   257
 75
     1
175
     1
 42
1.0
 92
        0
 66
     7
 43
1.0
 76
     1
 77
     6
 78
     2
 67
     7
 79
     5
170
     0
171
     0
290
     0
174
     0
 93
       13
 44
0.0
173
     0
291
     1
 45
0.0
1001
ACAD
1000
AcDbSavedByObjectVersion
1070
     0
  0
VISUALSTYLE
  5
2D
102
{ACAD_XDICTIONARY
360
28B5
102
}
102
{ACAD_REACTORS
330
29
102
}
330
29
100
AcDbVisualStyle
  2

 70
     3
 71
     2
 72
     2
 73
     1
 90
        2
 40
-0.6
 41
30.0
 62
     5
 63
     7
421
 16777215
 74
     1
 91
        0
 64
     7
 65
   257
 75
     1
175
     1
 42
1.0
 92
        0
 66
   257
 43
1.0
 76
     1
 77
     6
 78
     2
 67
     7
 79
     5
170
     0
171
     0
290
     0
174
     0
 93
       13
 44
0.0
173
     0
291
     1
 45
0.0
1001
ACAD
1000
AcDbSavedByObjectVersion
1070
     0
  0
VISUALSTYLE
  5
31
102
{ACAD_XDICTIONARY
360
28BD
102
}
102
{ACAD_REACTORS
330
29
102
}
330
29
100
AcDbVisualStyle
  2

 70
     6
 71
     1
 72
     2
 73
     2
 90
        0
 40
-0.6
 41
-30.0
 62
     5
 63
     7
421
 16777215
 74
     2
 91
        2
 64
     7
 65
   257
 75
     2
175
     1
 42
40.0
 92
        0
 66
   257
 43
1.0
 76
     1
 77
     6
 78
     2
 67
     7
 79
     3
170
     0
171
     0
290
     0
174
     0
 93
        1
 44
0.0
173
     0
291
     0
 45
0.0
1001
ACAD
1000
AcDbSavedByObjectVersion
1070
     0
  0
VISUALSTYLE
  5
3F
102
{ACAD_XDICTIONARY
360
28D9
102
}
102
{ACAD_REACTORS
330
29
102
}
330
29
100
AcDbVisualStyle
  2

 70
    20
 71
     2
 72
     2
 73
     0
 90
        0
 40
-0.6
 41
-30.0
 62
     5
 63
     7
421
 16777215
 74
     1
 91
        4
 64
     7
 65
   257
 75
     1
175
     1
 42
1.0
 92
       10
 66
     7
 43
1.0
 76
     1
 77
     6
 78
     2
 67
     7
 79
     5
170
     0
171
     0
290
     0
174
     0
 93
        1
 44
0.0
173
     0
291
     1
 45
0.0
1001
ACAD
1000
AcDbSavedByObjectVersion
1070
     0
  0
VISUALSTYLE
  5
37
102
{ACAD_XDICTIONARY
360
28C9
102
}
102
{ACAD_REACTORS
330
29
102
}
330
29
100
AcDbVisualStyle
  2

 70
    14
 71
     2
 72
     2
 73
     0
 90
        0
 40
-0.6
 41
-30.0
 62
     5
 63
     7
421
 16777215
 74
     1
 91
        4
 64
     7
 65
   257
 75
     7
175
     7
 42
1.0
 92
        8
 66
     7
 43
1.0
 76
     1
 77
     6
 78
     2
 67
     7
 79
     5
170
     0
171
     0
290
     0
174
     0
 93
        1
 44
0.0
173
     0
291
     1
 45
0.0
1001
ACAD
1000
AcDbSavedByObjectVersion
1070
     0
  0
VISUALSTYLE
  5
40
102
{ACAD_XDICTIONARY
360
28DB
102
}
102
{ACAD_REACTORS
330
29
102
}
330
29
100
AcDbVisualStyle
  2

 70
    21
 71
     2
 72
     2
 73
     0
 90
        0
 40
-0.6
 41
-30.0
 62
     5
 63
     7
421
 16777215
 74
     1
 91
        4
 64
     7
 65
   257
 75
     1
175
     1
 42
1.0
 92
        9
 66
     7
 43
1.0
 76
     1
 77
     6
 78
     2
 67
     7
 79
     5
170
     0
171
     0
290
     0
174
     0
 93
        1
 44
0.0
173
     0
291
     1
 45
0.0
1001
ACAD
1000
AcDbSavedByObjectVersion
1070
     0
  0
VISUALSTYLE
  5
33
102
{ACAD_XDICTIONARY
360
28C1
102
}
102
{ACAD_REACTORS
330
29
102
}
330
29
100
AcDbVisualStyle
  2

 70
     8
 71
     2
 72
     3
 73
     0
 90
        2
 40
-0.6
 41
30.0
 62
     5
 63
     7
421
 16777215
 74
     0
 91
        0
 64
     7
 65
   257
 75
     1
175
     1
 42
1.0
 92
        8
 66
   257
 43
1.0
 76
     1
 77
     6
 78
     2
 67
     7
 79
     3
170
     0
171
     0
290
     0
174
     0
 93
       13
 44
0.0
173
     0
291
     0
 45
0.0
1001
ACAD
1000
AcDbSavedByObjectVersion
1070
     0
  0
VISUALSTYLE
  5
3E
102
{ACAD_XDICTIONARY
360
28D7
102
}
102
{ACAD_REACTORS
330
29
102
}
330
29
100
AcDbVisualStyle
  2

 70
    27
 71
     2
 72
     2
 73
     1
 90
        2
 40
-0.6
 41
30.0
 62
     5
 63
     7
421
 16777215
 74
     0
 91
        4
 64
     7
 65
   257
 75
     1
175
     1
 42
1.0
 92
        8
 66
   257
 43
1.0
 76
     1
 77
     6
 78
     2
 67
     8
425
  7895160
 79
     3
170
     0
171
     0
290
     0
174
     0
 93
        5
 44
0.0
173
     0
291
     0
 45
0.0
1001
ACAD
1000
AcDbSavedByObjectVersion
1070
     0
  0
VISUALSTYLE
  5
3D
102
{ACAD_XDICTIONARY
360
28D5
102
}
102
{ACAD_REACTORS
330
29
102
}
330
29
100
AcDbVisualStyle
  2

 70
    26
 71
     2
 72
     2
 73
     1
 90
        2
 40
-0.6
 41
30.0
 62
     5
 63
     7
421
 16777215
 74
     1
 91
       10
 64
     7
 65
   257
 75
     2
175
     1
 42
1.0
 92
        8
 66
   257
 43
1.0
 76
     1
 77
     6
 78
     2
 67
     7
 79
     3
170
     0
171
     0
290
     0
174
     0
 93
        5
 44
0.0
173
     0
291
     0
 45
0.0
1001
ACAD
1000
AcDbSavedByObjectVersion
1070
     0
  0
VISUALSTYLE
  5
3A
102
{ACAD_XDICTIONARY
360
28CF
102
}
102
{ACAD_REACTORS
330
29
102
}
330
29
100
AcDbVisualStyle
  2

 70
    23
 71
     2
 72
     2
 73
     3
 90
        0
 40
-0.6
 41
-30.0
 62
     5
 63
     7
421
 16777215
 74
     2
 91
        2
 64
     7
 65
     7
 75
     1
175
     1
 42
40.0
 92
        8
 66
     7
 43
1.0
 76
     1
 77
     6
 78
     2
 67
     7
 79
     3
170
     0
171
     0
290
     0
174
     0
 93
        1
 44
0.0
173
     0
291
     0
 45
0.0
1001
ACAD
1000
AcDbSavedByObjectVersion
1070
     0
  0
VISUALSTYLE
  5
3B
102
{ACAD_XDICTIONARY
360
28D1
102
}
102
{ACAD_REACTORS
330
29
102
}
330
29
100
AcDbVisualStyle
  2

 70
    24
 71
     1
 72
     2
 73
     2
 90
        0
 40
-0.6
 41
-30.0
 62
     5
 63
     7
421
 16777215
 74
     2
 91
        2
 64
     7
 65
     7
 75
     1
175
     1
 42
40.0
 92
       11
 66
     7
 43
1.0
 76
     1
 77
     6
 78
     2
 67
     7
 79
     6
170
     0
171
     0
290
     0
174
     0
 93
        1
 44
0.0
173
     0
291
     0
 45
0.0
1001
ACAD
1000
AcDbSavedByObjectVersion
1070
     0
  0
VISUALSTYLE
  5
36
102
{ACAD_XDICTIONARY
360
28C7
102
}
102
{ACAD_REACTORS
330
29
102
}
330
29
100
AcDbVisualStyle
  2

 70
    13
 71
     2
 72
     2
 73
     0
 90
        0
 40
-0.6
 41
-30.0
 62
     5
 63
     7
421
 16777215
 74
     1
 91
        4
 64
     7
 65
   257
 75
     1
175
     1
 42
1.0
 92
       12
 66
     7
 43
1.0
 76
     1
 77
     6
 78
     2
 67
     7
 79
     5
170
     0
171
     0
290
     0
174
     0
 93
        1
 44
0.0
173
     0
291
     1
 45
0.0
1001
ACAD
1000
AcDbSavedByObjectVersion
1070
     0
  0
VISUALSTYLE
  5
30
102
{ACAD_XDICTIONARY
360
28BB
102
}
102
{ACAD_REACTORS
330
29
102
}
330
29
100
AcDbVisualStyle
  2

 70
     5
 71
     0
 72
     2
 73
     0
 90
        0
 40
-0.6
 41
-30.0
 62
     5
 63
     7
421
 16777215
 74
     1
 91
        4
 64
     7
 65
   257
 75
     1
175
     1
 42
1.0
 92
        0
 66
   257
 43
1.0
 76
     1
 77
     6
 78
     2
 67
     7
 79
     3
170
     0
171
     0
290
     0
174
     0
 93
        1
 44
0.0
173
     0
291
     0
 45
0.0
1001
ACAD
1000
AcDbSavedByObjectVersion
1070
     0
  0
VISUALSTYLE
  5
3C
102
{ACAD_XDICTIONARY
360
28D3
102
}
102
{ACAD_REACTORS
330
29
102
}
330
29
100
AcDbVisualStyle
  2

 70
    25
 71
     2
 72
     2
 73
     1
 90
        1
 40
0.5
 41
-30.0
 62
     5
 63
     7
421
 16777215
 74
     1
 91
        0
 64
     7
 65
   257
 75
     1
175
     1
 42
1.0
 92
        8
 66
     7
 43
1.0
 76
     1
 77
     6
 78
     2
 67
     7
 79
     3
170
     0
171
     0
290
     0
174
     0
 93
       13
 44
0.0
173
     0
291
     0
 45
0.0
1001
ACAD
1000
AcDbSavedByObjectVersion
1070
     0
  0
DICTIONARYVAR
  5
237B
102
{ACAD_REACTORS
330
2378
102
}
330
2378
100
DictionaryVariables
280
     0
  1
1:1
  0
DICTIONARYVAR
  5
237A
102
{ACAD_REACTORS
330
2378
102
}
330
2378
100
DictionaryVariables
280
     0
  1
STANDARD
  0
DICTIONARYVAR
  5
2379
102
{ACAD_REACTORS
330
2378
102
}
330
2378
100
DictionaryVariables
280
     0
  1
STANDARD
  0
DICTIONARYVAR
  5
278F
102
{ACAD_REACTORS
330
2378
102
}
330
2378
100
DictionaryVariables
280
     0
  1
0
  0
DICTIONARYVAR
  5
2790
102
{ACAD_REACTORS
330
2378
102
}
330
2378
100
DictionaryVariables
280
     0
  1
0
  0
DICTIONARYVAR
  5
278E
102
{ACAD_REACTORS
330
2378
102
}
330
2378
100
DictionaryVariables
280
     0
  1
2
  0
DICTIONARYVAR
  5
278D
102
{ACAD_REACTORS
330
2378
102
}
330
2378
100
DictionaryVariables
280
     0
  1
1
  0
DICTIONARYVAR
  5
2791
102
{ACAD_REACTORS
330
2378
102
}
330
2378
100
DictionaryVariables
280
     0
  1
0
  0
DICTIONARYVAR
  5
2892
102
{ACAD_REACTORS
330
2378
102
}
330
2378
100
DictionaryVariables
280
     0
  1
2
  0
DICTIONARY
  5
23EE
102
{ACAD_REACTORS
330
23E4
102
}
330
23E4
100
AcDbDictionary
281
     1
  0
DICTIONARY
  5
1A
330
19
100
AcDbDictionary
280
     1
281
     1
  3
ACAD_XREC_ROUNDTRIP
360
27AB
  3
BUMPTILE
360
1C
  3
DIFFUSETILE
360
1B
  3
OPACITYTILE
360
1F
  3
REFLECTIONTILE
360
1E
  3
REFRACTIONTILE
360
20
  3
SPECULARTILE
360
1D
  0
DICTIONARY
  5
12
330
11
100
AcDbDictionary
280
     1
281
     1
  3
ACAD_XREC_ROUNDTRIP
360
27AA
  3
BUMPTILE
360
14
  3
DIFFUSETILE
360
13
  3
FBXASSET
360
9C
  3
OPACITYTILE
360
17
  3
REFLECTIONTILE
360
16
  3
REFRACTIONTILE
360
18
  3
SPECULARTILE
360
15
  0
DICTIONARY
  5
22
330
21
100
AcDbDictionary
280
     1
281
     1
  3
ACAD_XREC_ROUNDTRIP
360
27AC
  3
BUMPTILE
360
24
  3
DIFFUSETILE
360
23
  3
OPACITYTILE
360
27
  3
REFLECTIONTILE
360
26
  3
REFRACTIONTILE
360
28
  3
SPECULARTILE
360
25
  0
DICTIONARY
  5
233D
330
67
100
AcDbDictionary
280
     1
281
     1
  3
ACAD_XREC_ROUNDTRIP
360
233E
  0
DICTIONARY
  5
2793
330
65
100
AcDbDictionary
280
     1
281
     1
  3
ACAD_ROUNDTRIP_2008_TABLESTYLE_CELLSTYLEMAP
360
2893
  3
ACAD_XREC_ROUNDTRIP
360
28DF
  0
DICTIONARY
  5
28B9
330
2F
100
AcDbDictionary
280
     1
281
     1
  3
ACAD_XREC_ROUNDTRIP
360
28BA
  0
DICTIONARY
  5
2908
330
237E
100
AcDbDictionary
280
     1
281
     1
  3
ACAD_XREC_ROUNDTRIP
360
2909
  0
DICTIONARY
  5
2906
330
237D
100
AcDbDictionary
280
     1
281
     1
  3
ACAD_XREC_ROUNDTRIP
360
2907
  0
DICTIONARY
  5
28B7
330
2E
100
AcDbDictionary
280
     1
281
     1
  3
ACAD_XREC_ROUNDTRIP
360
28B8
  0
DICTIONARY
  5
28C5
330
35
100
AcDbDictionary
280
     1
281
     1
  3
ACAD_XREC_ROUNDTRIP
360
28C6
  0
DICTIONARY
  5
28CD
330
39
100
AcDbDictionary
280
     1
281
     1
  3
ACAD_XREC_ROUNDTRIP
360
28CE
  0
DICTIONARY
  5
28BF
330
32
100
AcDbDictionary
280
     1
281
     1
  3
ACAD_XREC_ROUNDTRIP
360
28C0
  0
DICTIONARY
  5
28C3
330
34
100
AcDbDictionary
280
     1
281
     1
  3
ACAD_XREC_ROUNDTRIP
360
28C4
  0
DICTIONARY
  5
28DD
330
41
100
AcDbDictionary
280
     1
281
     1
  3
ACAD_XREC_ROUNDTRIP
360
28DE
  0
DICTIONARY
  5
28CB
330
38
100
AcDbDictionary
280
     1
281
     1
  3
ACAD_XREC_ROUNDTRIP
360
28CC
  0
DICTIONARY
  5
28AF
330
2A
100
AcDbDictionary
280
     1
281
     1
  3
ACAD_XREC_ROUNDTRIP
360
28B0
  0
DICTIONARY
  5
28B1
330
2B
100
AcDbDictionary
280
     1
281
     1
  3
ACAD_XREC_ROUNDTRIP
360
28B2
  0
DICTIONARY
  5
28B3
330
2C
100
AcDbDictionary
280
     1
281
     1
  3
ACAD_XREC_ROUNDTRIP
360
28B4
  0
DICTIONARY
  5
28B5
330
2D
100
AcDbDictionary
280
     1
281
     1
  3
ACAD_XREC_ROUNDTRIP
360
28B6
  0
DICTIONARY
  5
28BD
330
31
100
AcDbDictionary
280
     1
281
     1
  3
ACAD_XREC_ROUNDTRIP
360
28BE
  0
DICTIONARY
  5
28D9
330
3F
100
AcDbDictionary
280
     1
281
     1
  3
ACAD_XREC_ROUNDTRIP
360
28DA
  0
DICTIONARY
  5
28C9
330
37
100
AcDbDictionary
280
     1
281
     1
  3
ACAD_XREC_ROUNDTRIP
360
28CA
  0
DICTIONARY
  5
28DB
330
40
100
AcDbDictionary
280
     1
281
     1
  3
ACAD_XREC_ROUNDTRIP
360
28DC
  0
DICTIONARY
  5
28C1
330
33
100
AcDbDictionary
280
     1
281
     1
  3
ACAD_XREC_ROUNDTRIP
360
28C2
  0
DICTIONARY
  5
28D7
330
3E
100
AcDbDictionary
280
     1
281
     1
  3
ACAD_XREC_ROUNDTRIP
360
28D8
  0
DICTIONARY
  5
28D5
330
3D
100
AcDbDictionary
280
     1
281
     1
  3
ACAD_XREC_ROUNDTRIP
360
28D6
  0
DICTIONARY
  5
28CF
330
3A
100
AcDbDictionary
280
     1
281
     1
  3
ACAD_XREC_ROUNDTRIP
360
28D0
  0
DICTIONARY
  5
28D1
330
3B
100
AcDbDictionary
280
     1
281
     1
  3
ACAD_XREC_ROUNDTRIP
360
28D2
  0
DICTIONARY
  5
28C7
330
36
100
AcDbDictionary
280
     1
281
     1
  3
ACAD_XREC_ROUNDTRIP
360
28C8
  0
DICTIONARY
  5
28BB
330
30
100
AcDbDictionary
280
     1
281
     1
  3
ACAD_XREC_ROUNDTRIP
360
28BC
  0
DICTIONARY
  5
28D3
330
3C
100
AcDbDictionary
280
     1
281
     1
  3
ACAD_XREC_ROUNDTRIP
360
28D4
  0
XRECORD
  5
27AB
102
{ACAD_REACTORS
330
1A
102
}
330
1A
100
AcDbXrecord
280
     1
102
MATERIAL
148
0.0
149
0.0
149
0.0
 93
        0
 94
      127
282
     0
 72
     0
 77
     0
171
     0
175
     0
179
     0
273
     0
  0
XRECORD
  5
1C
102
{ACAD_REACTORS
330
1A
102
}
330
1A
100
AcDbXrecord
280
     1
270
     1
271
     1
  0
XRECORD
  5
1B
102
{ACAD_REACTORS
330
1A
102
}
330
1A
100
AcDbXrecord
280
     1
270
     1
271
     1
  0
XRECORD
  5
1F
102
{ACAD_REACTORS
330
1A
102
}
330
1A
100
AcDbXrecord
280
     1
270
     1
271
     1
  0
XRECORD
  5
1E
102
{ACAD_REACTORS
330
1A
102
}
330
1A
100
AcDbXrecord
280
     1
270
     1
271
     1
  0
XRECORD
  5
20
102
{ACAD_REACTORS
330
1A
102
}
330
1A
100
AcDbXrecord
280
     1
270
     1
271
     1
  0
XRECORD
  5
1D
102
{ACAD_REACTORS
330
1A
102
}
330
1A
100
AcDbXrecord
280
     1
270
     1
271
     1
  0
XRECORD
  5
27AA
102
{ACAD_REACTORS
330
12
102
}
330
12
100
AcDbXrecord
280
     1
102
MATERIAL
148
0.0
149
0.0
149
0.0
 93
        0
 94
      127
282
     0
 72
     0
 77
     0
171
     0
175
     0
179
     0
273
     0
  0
XRECORD
  5
14
102
{ACAD_REACTORS
330
12
102
}
330
12
100
AcDbXrecord
280
     1
270
     1
271
     1
  0
XRECORD
  5
13
102
{ACAD_REACTORS
330
12
102
}
330
12
100
AcDbXrecord
280
     1
270
     1
271
     1
  0
XRECORD
  5
9C
102
{ACAD_REACTORS
330
12
102
}
330
12
100
AcDbXrecord
280
     1
 70
     1
 90
1959938040
 71
     1
  1
5A51A2FC-3C36-438C-837A-58392152B957
311
504B03040A0000080000AC74DA403DEE336E79000000790000001B0000006175746F6465736B2D64657369676E2D7061636B6167652E786D6C3C3F786D6C2076657273696F6E3D22312E302220656E636F64696E673D227574662D3822203F3E3C666F726D6174733E3C666F726D61743E687474703A2F2F736368656D612E
311
6175746F6465736B2E636F6D2F64657369676E2D7061636B6167652F323030393C2F666F726D61743E3C2F666F726D6174733E504B0304140006080800AC74DA40D486FD9CA0000000F4000000130000005B436F6E74656E745F54797065735D2E786D6C7D8EC10E82300C865F65E91D8A1E8C310C0EEA1BF002731658846E
311
D98AC1B77784ABF1D8FE5FBFBF75BBCE937A534CCEB38643598122B6FEE978D0B0485F9C41B54DDD7D022595594E1A469170414C76A4D9A4D207E29CF43ECE46F218070CC6BECC4078ACAA135ACF422C856C0E68EA1BF5669944DDD7BCDE7B1F8E415D77AECB980613C2E4AC91FC167A2B244592486606FC29C8FD7F045B9A
311
EF7053A7E60B504B0304140006080800AC74DA407977844AEB0000007C01000008000000636F72652E786D6C8D90516EC3201044AF82F8ADB0013B8E6B6122A56E4ED00B20D8B828315806A21CBF3871A4F6AF5FBB1AE6B1A31187FB7445375882F5AEC7ACA01881D3DE5837F638C53369313A48B1781F7FD930726A821EAF
311
3296625C7C9A37497B17C1C5AC3A6F601355081031D2D7BCF438E86F9854A152CC8E702966A52F6A8482BDB60CA7640D7A1EB126FF67CF16162C59C54F7B3A7C90CF811E49CD8F156987B6267CD79EAABA1EDE59D38A7285A588767ADDD70BA808064B4E1927B421BCF9627557ED3BBE7BA3ACA35494ABFD0F9466F34F2859
311
172BBEC57D622167CD411E0F52946B17793C8ACA73ED4DFE00504B0304140006080800AC74DA4055019EA25F0000007C00000007000000636E782E786D6C4DCB3B0E80201045D1AD90E915ED2CF8AC45050C11660C8261F98AB1B07AC9C97D42D718D865D3E909258CFD00CCE24AC6E326A164D74DC0B4128928FF32603847
311
2BA13128B1252AC747C6BAB984FC68F0B87FE8960A5C09FE86CFB69FBA01504B0304140006080800AC74DA40F772191367010000020300000C0000006662782F636F72652E786D6C8D525B6E833010BC8AE5DF0A6C0C4968641C29A539412FE0804351C046C646397E9747445345518564AC999DDDD9017EB8B50D1A94ED6B
311
A3331C851423A50B53D6BACAB0779720C5E820B835C6FD2AC348CB56657884B1E09535BE5BA0C268A7B403549B522DA0EC7BE5302A1AB864B82FBE552B43E91D54F4D7B093C555562A8C42A0A14EF0DE593080E621E389C5E57CE364C605F7BE2E17B62E615A7DA995C5228AD96947F38FE033A7C72061C73848F33409D826
311
3DC54992BF47DB9493512CB8ABDBBBBBC22AE9548905A3110BE83660DBAF28D9C7BB3DDBBCD1684F292763F983C877E53F45BED62E668BDD59D683573032117FB685881CEAE5007E88E0640C115E53C28F41432010B293E7E6BEC715A04115CED80498D2F8951A64E3154CA5687A389959E83C3580CD9EF6612FFABCEE011F
311
50EA0AAC4907D7B377E3743E4F5DA2E8940D067743DAD85636ABB9D9E27AAE839ECA0BD318FB1F355956254B9864FC7BC50F504B0304140006080800AC74DA4088F27BEA7E0000009D0000000B0000006662782F636E782E786D6C4DCCD10A83201886E15B91FFDC95CD9C0335DAC4FB886521990EA76397BF1A1DECE88387
311
8F57749FD5A3B74D2F17830472AA01D9F088A30BB3849227CC01754AA418F3DF0D5018562B616750624EB13C0F1AED34149F37F52E2C079A4B7BEE09D1F8CE5B8D29BB36F8A609C3BAA929A3DCF49C18A894A87EA56DF7B0FA02504B0304140006080800AC74DA40826EC9FA2C01000015020000310000006662782F463735
311
33413131442D433835442D343639322D424431362D4432303436343846413831462F636F72652E786D6C8D515B6EC32010BC0AE22B55651BB04DDC0813A5B572825E8000495162B07854397E71ED48ED5F7E58343B333BDA65FBFB7803DFDA07E36C0F718920D0563A65ECA587299E8B0E823D67DEB9F887068115A3EEE10C
311
43CE2EDEA56985A4B351DB9851EB945E4111828E10C85BFEF430C82F3D8A52A49819E15A4E425EC54597B8CCEDCCE32C449F038065C8FC427EDCB6F501E3A1F8E8DAA168E81B29DE074C8B81A08636DDF1D0E123AB1621672919B5CA8DCA71CCD968FFACC92CE62C9AF1115F7A2DA25690138449816841E8276E76F57647DA
311
57847708B16AA6FF13A5493D294AC6C69AAC711759801CB36A6970A65C3ADD1E61F47D723E8279DE2668F902392A116AB75D9D1F562DDCBC816C4A9BD53444E7F38637D753A6E37671A60D67D57CA45C7E2F98EB7C50FE03504B0304140006080800AC74DA40D7919E324E01000033030000300000006662782F4637353341
311
3131442D433835442D343639322D424431362D4432303436343846413831462F636E782E786D6CD593BD6E032110845F05D146F7EBCB25B2382CA5C813A4488B611D137370E2278ADF3E8B8D1D372E52A641A7D96166F589639BEFD9902FF0413B3BD1AE6E29012B9DD2F663A229EEAA674A369C79E7E28D8D122B66986896
311
29671FDEA5A5480A76229988AAD1F650440FC1252F21A09C6F12E3A4301800B64A28C2BC05A54091AB11BF76E0711514B74712F7405E5FDE89DB7E828C81353985B326777096CFD27463A2441A11C24483DCC32C6A91A253100EB51251D45D7DE9BAB3D36F12C9172E95C96B92CB279A4FCACB463572640D0E390BD123BD62
311
8AC7052817CB62B41411213727E3D9C359D2368E43F16A04EFD1DD8DAB61C0B0D38CB3A867280EE941445094F76DD757ED58F5E35B37AC574FEBFEF1A1EDD66DCB9A6CE76CEB9C29973006BC5B887436828D9477ACC9E37BF88A8F28ED91B5F3C73F804400A5F54CE79AF19FF934A7F78DB83CFE05FC07504B030414000608
311
0800AC74DA4072CFCF359C0500007B100000340000006662782F46373533413131442D433835442D343639322D424431362D4432303436343846413831462F6F626A656374732E786D6CAD575D8F9B3814FD2B887D064248DA99154395493A55B43B6DD5A8D53E8C14396018EF980FD9669AD95FBFC76008A4C934BBEA0B60
311
635FDF7BEEB91F0EDFED736E3D53215959DCD8BE3BB12D5AC465C28AECC6AE55EA5CD9D6BB281465A906CB6CAB2039BDB1F5B41D859928EBCA4C253425355747B377B77F5932A605B5AD9813296F6C193FD29CB8A4566542E5939B1045DC2CDDBBBEDB2E1C8BCD04A91E8F845644D0424153CC179062B54AF9E3E1C4F6A2D0
311
D3FFA3503FCDAAE0FC2AAFB1677C3E2BA42245FCC3614762027FB67A3F9D5F3BF3D92C70666FA6BE737B77BB72FCB7C164F966B9BC5EBCBFC6C1520948329A089ADAD1076023581C7AEDAF28AC59A182A959621CE409FACCB4A7EC686AF9A1D7AEE9AD33469E523F2E8B82C60D5640A3B1CF884E68458B043E675442B30142
311
93F1D0D7380E7E077A6C8E1C4E5F86C070C74050A77BF71E6A5AEEFE8609F21206094935035B2C8DA12D572707847765C9CD3F26AD9C282A18E116673B41C48B1D61A95E128523319AC9424783B6C08EE085F6F7982E08A39FF3FC949669CDB9A6B11D3551B045AC50251BCDD83F541CB41F22039DE02BCD862B63907AA9A8
311
1D5DB714B93A62530BA4957292C1E53053EF0CA647862E759CAE5776F4C7DD6EBFD1B17BFAF04A9415154AD307D4EA1CD7BD354A4627FF22CFE90DF6912A0750BE00F98F08F5832AF09B60FBD97E664E518214322D450EDF5813CB99E031B1FCE6A9BF075FA1D76F1E7BEF1C9E70B686EA17E039B661E8CB019C51F80CC297
311
2230A66D62C29136EE59018034492C5E620A7938DDEDED688D2C87AC8C5D84473E4C86BACFF80C3D230689A23969F02E80E5515ABC204103B6869150A325BF51F0E0A71FD25973B059760EDEF92FA1EB62B5F963538B94C4F4DEC4F48AA6AC600A25EEC09BA14223CC47163DD197EFA54860E88F786F8678E7E62809B435E6
311
1AF8ACCBE97A70387974408C7D59A9D34DF8931360842EAC03F9F74CC6947352D0B2EECE7DB57EA06CB410EB60D74CEE0BCCA1B08034ED9FA31844918E05AB34887DB5EA93A67BC6BAAFEB8F60A41DDDBEFC495E86D96B77C8BD71C94BB1DDBD6CDBB47412EA6F636E1B0C3C2D05746F82A48B7F03FA3661695A4B24C113B8
311
7E5B2F87BED3690129A293DA46CB0CF623B88830A4EDE4A25A0B824A5A165B86BA89B83B79C0503E20350C68049ED358529E6E19E775BE4D194735DAE6A43A03C7FFD77F57E7D596E4655DA833B247AAA33A8C751FB1577E272A7EB4A34DF3766E917B139A9C2183AE2527B01AB976BE98FB8BE9DDD20996C11B67165C2D9D
311
ABE0EDC2995F05D7537F3EBDBD9EBFEDFCD46A12855DA9194634BC84D216D68219F77D5D237E4C12B0A37BA2E4C387363CBBF7D7B58B5E38F4B007F5B2DFB8489ED1F7D1E4E7020E2B4F0A5AE715A7392D14D13174AF3FF817823E63A44C3BBFCE49462F90F2E9C3E6C818CC5CB0EFB38E77FAFD68AF995DEA803C29443DD6
311
F9AE208C1F6DCC5A24DDAAC80C7E9D4FFA775B68BAA11E19C7A03395256709F2606265B4CCA94236BCA008899C4A506FD8D327E6EE71C1EEE7B6435464C769A7C9234193CC25C202D4AA63359EB77E4353A7FBAA1B1BE5D67DC2C3640ADB02676E6C34E98AC554BA3B1468DD0A35C2C1A561278FC69F141947AFDD6EEAC7FD
311
2E8DCDA824F74B2EE99F8C5D6D0A3706208D54E81BD010C13B8D3251D8E866FEC7FFC9F04E1D8B287CEE6AD5DB7298E88D698E4188B64699DB029A982773F41E81FABA59BEDBAC192172D12DEB5512B4521D4544D6DC14B47E46A5C5EAB3870EC55A7FB22A5E67F0E5E5921C4141E65A073858045618991551A0EAF2F787CF
311
A2C44D36B7EE1828F0B02CF3BC2CCC60616EC2D6E611F7DAE4016981EA0B897C984EFCE9437311307793ED8E48EA92443E61023E15AC8778E47830B2BD2DA202B53FFA759E76C21137D72BCB94B419841AA20CB3AA86052D47412D448FBE4CEA58192EA85EBD0B78CD52A820D0C547FF02504B0304140006080000AC74DA40
311
000000000000000000000000350000006662782F46373533413131442D433835442D343639322D424431362D4432303436343846413831462F76657274696365732E62696E504B0304140006080800AC74DA40F270F1330600000004000000360000006662782F46373533413131442D433835442D343639322D424431362D
311
4432303436343846413831462F747269616E676C65732E62696E636660600000504B0304140006080000AC74DA40000000000000000000000000370000006662782F46373533413131442D433835442D343639322D424431362D4432303436343846413831462F617474726962757465732E62696E504B0304140006080800
311
AC74DA40D5987DFC8F00000041010000360000006662782F46373533413131442D433835442D343639322D424431362D4432303436343846413831462F6469726563746F72792E786D6C858F410EC2201045AF4266AF15DDB800BA74E7C21B903225242D6328188F2FA5C4183471359997F9FF81E89FF3C41E1816475E02DF
311
1F80A11FC8386F25A438EECEC07A250251FC3803E6F58C12560C4AD840E95E91C151A72936F496F35732D860FE635F62C8F2DA16B505C545B74125BAA2FA9E05D7CC053D063734D5C7665FD55B6B8D15D5E9BFEAFD8490FFA45E504B0304140006080800AC74DA406ADCAAD2FD000000A00100003B0000006662782F463735
311
33413131442D433835442D343639322D424431362D4432303436343846413831462F7265736F75726365732F636F72652E786D6C8D504B6E833010BD0AF2B632D886108A8C23219A13F4029699502BC146FE543D7EED40A576D7CDCCE87D344F8F5FBED647F109CE6B6B06444B820A30CACEDA2C038AE1863B545C0477D686
311
5F325418B9C280328C045F9C8DDB01296B0298905063673840E93D0454A8473A06E4D507ACB294312485BF979B5477B94049CB44279DE03EB814A0D89FE48984036FA353E079B5B382C7A8E743A3E7F453DF34382468CDAE67328DF86D22236ED858E36EEA1ACC4EDDB56E9AE995B61DAFB259F0A0D79F8CCA810C3023C108
311
6598B498B5EFB4E9EB73CF4E2F84F684F02ACBFF98E236FFD314B509353BE2EE369FB2A6204F42F02AF795D6B3CCB473B7E21B504B010214000A0000080000AC74DA403DEE336E79000000790000001B00000000000000000000000000000000006175746F6465736B2D64657369676E2D7061636B6167652E786D6C504B01
311
021400140006080800AC74DA40D486FD9CA0000000F40000001300000000000000000000000000B20000005B436F6E74656E745F54797065735D2E786D6C504B01021400140006080800AC74DA407977844AEB0000007C010000080000000000000000000000000083010000636F72652E786D6C504B010214001400060808
311
00AC74DA4055019EA25F0000007C000000070000000000000000000000000094020000636E782E786D6C504B01021400140006080800AC74DA40F772191367010000020300000C00000000000000000000000000180300006662782F636F72652E786D6C504B01021400140006080800AC74DA4088F27BEA7E0000009D0000
311
000B00000000000000000000000000A90400006662782F636E782E786D6C504B01021400140006080800AC74DA40826EC9FA2C010000150200003100000000000000000000000000500500006662782F46373533413131442D433835442D343639322D424431362D4432303436343846413831462F636F72652E786D6C504B
311
01021400140006080800AC74DA40D7919E324E010000330300003000000000000000000000000000CB0600006662782F46373533413131442D433835442D343639322D424431362D4432303436343846413831462F636E782E786D6C504B01021400140006080800AC74DA4072CFCF359C0500007B10000034000000000000
311
00000000000000670800006662782F46373533413131442D433835442D343639322D424431362D4432303436343846413831462F6F626A656374732E786D6C504B01021400140006080000AC74DA400000000000000000000000003500000000000000000000000000550E00006662782F46373533413131442D433835442D
311
343639322D424431362D4432303436343846413831462F76657274696365732E62696E504B01021400140006080800AC74DA40F270F13306000000040000003600000000000000000000000000A80E00006662782F46373533413131442D433835442D343639322D424431362D4432303436343846413831462F747269616E
311
676C65732E62696E504B01021400140006080000AC74DA400000000000000000000000003700000000000000000000000000020F00006662782F46373533413131442D433835442D343639322D424431362D4432303436343846413831462F617474726962757465732E62696E504B01021400140006080800AC74DA40D598
311
7DFC8F000000410100003600000000000000000000000000570F00006662782F46373533413131442D433835442D343639322D424431362D4432303436343846413831462F6469726563746F72792E786D6C504B01021400140006080800AC74DA406ADCAAD2FD000000A00100003B000000000000000000000000003A1000
311
006662782F46373533413131442D433835442D343639322D424431362D4432303436343846413831462F7265736F75726365732F636F72652E786D6C504B0506000000000E000E0080040000901100000000
310
504B03040A0000080000AC74DA403DEE336E79000000790000001B0000006175746F6465736B2D64657369676E2D7061636B6167652E786D6C3C3F786D6C2076657273696F6E3D22312E302220656E636F64696E673D227574662D3822203F3E3C666F726D6174733E3C666F726D61743E687474703A2F2F736368656D612E
310
6175746F6465736B2E636F6D2F64657369676E2D7061636B6167652F323030393C2F666F726D61743E3C2F666F726D6174733E504B0304140006080800AC74DA40D486FD9CA0000000F4000000130000005B436F6E74656E745F54797065735D2E786D6C7D8EC10E82300C865F65E91D8A1E8C310C0EEA1BF002731658846E
310
D98AC1B77784ABF1D8FE5FBFBF75BBCE937A534CCEB38643598122B6FEE978D0B0485F9C41B54DDD7D022595594E1A469170414C76A4D9A4D207E29CF43ECE46F218070CC6BECC4078ACAA135ACF422C856C0E68EA1BF5669944DDD7BCDE7B1F8E415D77AECB980613C2E4AC91FC167A2B244592486606FC29C8FD7F045B9A
310
EF7053A7E60B504B0304140006080800AC74DA40DD0223A9EC0000007C01000008000000636F72652E786D6C8D904D6EC3201085AF82665B61038E7F6261A2D8554FD00B204C1C94182C03558F5F9C3852BBEB6A466FDE37337AFCF43DDFD1975EBD71B6039A1140DA2A371A3B7510C30537804E82AFCE855F364056CEBA83
310
4D06C1A7D5C5659794B341DB9054EB46BD8BD27B1D00A97B6A3AF0EAAA6799C91892C3DFB245AA9B9C74465F5D826334237A1E3163DA672E46AF20AA66782F8FA4C48C141FF8D01747DC9C19C1F540EA735F5645CF069E6FB0E0C1CCAFFB6AD532E811042394615261567DD2435BD42D2BDF086D09E1F966FF03C565FC2714
310
8D0D05DBDF7D621E044D8F3C0682E75B16A93C824A75CB4DFC00504B0304140006080800AC74DA4055019EA25F0000007C00000007000000636E782E786D6C4DCB3B0E80201045D1AD90E915ED2CF8AC45050C11660C8261F98AB1B07AC9C97D42D718D865D3E909258CFD00CCE24AC6E326A164D74DC0B4128928FF326038
310
472BA13128B1252AC747C6BAB984FC68F0B87FE8960A5C09FE86CFB69FBA01504B0304140006080800AC74DA402043977268010000020300000C0000006662782F636F72652E786D6C8D52ED8E8320107C15C2DF8B8258ED4790A6EDE59EE05E802AF54C150C82E9E3DFFAD178BD344D6382646667777694EF6F4D8D7A65BB
310
CAE80C4721C548E9DC14952E33ECDD25D860B417DC1AE3FE9461A465A3323CC058F0D21ADFCE506EB453DA01AA4DA16650769D7218E5355C32DCE53FAA91A1F40E2ABA6BD8CAFC2A4B154621D0502778E72C1840D390E1C4E272BE7132E1827B5F15335B1530ADBA54CA62916E4E9FC9962601A3F157B03AC6DB6073603458
310
9FE8FA704CD2F8C84E9C0C62C15DD5DCDDE55649A70A2C188D5840D380A5DFD16A17AF772CF9A0D18E524E86F207916F8B3745BED22E66B3DD49D66111819191F8B72D44E450277BF04304274388F01A137E0C1A0281909D3CD7F73DAE00F52A77C6AE80298C5FA85ED65EC1548AC687938985CE6303D8EC691FF6A2CFEB1E
310
F001A52EC19A74703D7B374CE7D3D4398A56D9A07737A48D6D64BD989B2C2EE732E8A93C37B5B1EFA8C9BC2A99C324C3DF2B7E01504B0304140006080800AC74DA40F4D0C6077E0000009D0000000B0000006662782F636E782E786D6C4DCCD10A83201886E15B91FFDCD2A59B0335C2DA7DC4B290990EA76397BF1A1DECE8
310
83878F57B69FD5A3B74D2F1783025A114036DCE3E4C2A2A0E4190B40AD9629C6FC770314C6D52AD819B45C522CCF83263B8FC5E74DBD0B8F036F8634BD1106F3A127980DFC82AF8C197CA2B4EB381367C309D45AD6BFD2B67B587F01504B0304140006080800AC74DA4039AF491C2C01000015020000310000006662782F46
310
433033444338432D354544302D344535372D393434432D3231314141353438364335302F636F72652E786D6C8D515B6EC32010BC0AE22B55651B3076DC0813454E7A825EC00592A2C460F1A872FC42ED48ED5F7E58343B333BDA65FBFB7403DFCA796D4D0F718920504658A9CDA587319C8B0E823D67CEDAF08706811927D5
310
C30C43CE2ECEC6798584354199905063A55AC1D17B152010B7F4E9A1175F6A1ACB3186C4F0D7721EC575BCA81297A99D789CF9E05200B00CC92FE4EF03AA8F433714CDE9880A7A6AB6C51BA54341303E1C1ADAB5438358B508398B51CB55AE658AA3CF5AB9674DB298B3A0A7477CE1D41894849C204C0AD416A4FDC074576F
310
77A479457887D2E44CFF278AB37C5214B5093559E32E320F3966D5D2E04CDAF8797B8451F7D9BA00F2BC8D57E205725422D4362DAD3BC2AA859B36904C5BBA9AFA605DDAF0E6FA99E8F5EADC52CEAA7CA4547E2F986A3E28FF01504B0304140006080800AC74DA40B13651255601000033030000300000006662782F464330
310
33444338432D354544302D344535372D393434432D3231314141353438364335302F636E782E786D6CBD93CD6EC32010845F0571ADFC1BD78D224CA41EFA043DF48A61D3D060B00057CDDB7749489A4B0E95AA5E90353BCCAC3E61B6FD9A0CF9041FB4B3036DCA9A12B0D2296DDF07BAC45DB1A664CB99772EDED828B16282
310
81269972F6EEDD326749C14E2C26A26AB43D64D143708B9710504E37897152180C005B2C28C2348252A0C8D5885F3BF0B80A8AE391C43D9097E737E2C60F9031B02AA57056A50ECED2999B6E4C944823421868907B98442996E8148443A9441465535EBAEEECF49344D2854BE5E23549E5034D27E579A31239B20A879C85E8
310
915E36C5E30C948B79365A8A8890AB93F1ECE16CD136F65DF66A04EFD1BD6AFBF51AC34E33CEA29E203BA407114151DED64D5BD47DD1F6AF4DB7593D6DDAC787BAD9D435AB929DB3D139932F610C783713E96C041B296F5895C6F7F0651F51DA236BE78FBF00890072EB99CE35E32FF934FDAAEBFE914F757ADF88CBE35FC0
310
BF01504B0304140006080800AC74DA40863F3B035A070000941B0000340000006662782F46433033444338432D354544302D344535372D393434432D3231314141353438364335302F6F626A656374732E786D6CED59DD73A33610FF5718FA6C6C8C7D9774089DC4696E3C6DEE6ECEBD4E1F32C3C8201335423092C8C5FDEB
310
BBFA00033109EEA56FF76003425AEDFEF6534BF8CB534E9D47CC0529D885EB7B33D7C12C2952C2B20BB792BBC999EBFC1285BC28646B9AEB3094E30B570DBB5198F1A22AED508A77A8A2B2377A73F5972312CCB0EB24140971E18AE41EE7C843952C522C1EBC1449E465BB27CFF7CCC42ED98CA3F2BE47B4441C33099CC238
310
032A8E61CAEF3ECEDC69144ED5FB2854FF7656306AD66278D6544BDDE5923021114B9EB1D423138C6229F017D7BFCE97E793E562114C16EFE6FEE4EAE6EA7AE2BF0F66AB77ABD5F9E5AFE7C0DEB628A89529C5256629E86FEF467E38556F1AD12D02C7B84E0AC670A28104A8B4587D82040BD8AA05DFACFBE82B895AAFB584
310
ADE7857A6F59680D075D2A43B3C601D1A10B82D8ED6A89EB6B5BBE62FB37082EC61825175802B74272D0AE85878357B8D12C9C9AD128DC1E7441849323893941D4A164CB1107A5C05435250ACD024B46390707528E92406BCEBCEEDA1678E6EBAE738CCB5D45A9F20C37D28E1583FB61293467E41FCC0FDCB791019E40DA8A
310
307966B994FB12BBD17938D58351A82EC1DCBE34403A3B8A32A111316F7B82AE94EBAFAFDDE8B79BEDD3468583E39B97BC283197CAE8941E355F60C8F6AA50B2DBFAA334A71680300654BBF200CA1740FE23448F032BA0374E9E164F0B3B5772C4C4AEE039E8C699399319FCCD1C5FFFABFBD65D386D1677B5378427B8A982
310
EAECFBF1ECCAA0B1B2FCB7E08CC24730F88207F6D5264114ECF9963000481989430B1882D0BEDB3EB9D11A0227047A588568E483C8C0EE23DC86534BE6A095DABDACD73140D4EE118C5112C0A62D12D818D0D307C81E9C240735B5451C8277F926E67A79BDF96D53F11D4AF0ADF5E96BBC238C48C89AC719EA60DE91E801EF
310
BF153C05419FE3BD69E39DDBAD04A0AD3057C0673508EAE1B073678304D665850A37E12B3B80102A57B7E8DF1291604A11C34555EFDB443765A88DC7DB9AC18DE606E260DE33618E1F89AA2AC0690E333A8C42DE4F382915886EF4C148D6044D6F40BAAFEB8F6091CDFC81596B06A19721FA870E5A4770E858768DB405A211
310
787B08E749410B1E6FF7B189742ED412C046D75BFEEC1085586F94A4A8800769BFAB434A66A48D53B2DB5502E2EA1116FF5CAFDAE630F3027FE9B4FF7BCEB880680BBE8BB8F5BBDE1E31C95186E31D4A87B66BEFD6D0169AE400698E7714E4228F44EE6324E3598AB353A03989F8F99B52CF682104615840BE3A0A7E1B8D99
310
0781C468B3665969B5073411718E25A2A720A0C80C80ABD38EAE7113281D5EE7B1B1DE9734D626FA3F590447504B162C26508A420E799571DF5B420CE9A26B50EEE10BD656D3D662D00A4A88641F7FC324BB97A7A06EC80FE09EC091A4927151A204CC7A04D967BEA294DAE37D8B9207953FE2A4A26F652002D35D4C28ADF2
310
187E84C1C9638C6B3781E945145AC44DEC933887A20CC98A8FD9E4DD72F66C1F5333F443606BA31DA110B6E31C9503A87702A2AE479C067C4B7D40A9DB2A2F639417151B65285ED0F7264BBEAF56457624BFAA5484B2B1266C09462161B2C9AA75CC0653D78115DC4807AA7D2C505E52730A7B25F1F88D3769CA831B70EBA7
310
6FBB410E85DF80F6DA117551C36079EC1406E21B92C9BD1B6DF4757205F5778AD343AAAF6BCD76050888A9485E716255F4750DE58DADD1DCE8164971F7C164DDFAFA75ED41F7239CC21AA85D9A856B05748E9944AA32B95537F40B8210DCA161C6D72AA79E42E5324D75D588E80D195267A78CE86C9A13AFBCC7ACC8E1C7EE
310
084B6895E23B948A87F856D2784314EB564A2F2735C62F0AF8E9C3A6070F8C8C10E9B32AF0F0B7DE5A3BBA52E5D25122F2BECAB70C1108821DD132A31BAF6499D548ADE5E6AACE145077818159152F7E9C2CDAED881F278BCC1AC6779D2CAEF6BFA37DBB2FD24AE789B2EB938E014D7E5254DEE218A0DB0E0DD5268B98646E
310
E5B7CE144350ACA3FCE86AAC0E1A86E010C7FF396B0F6541B35D8FFFD3B2B6FFACE23829AB7426AB2ED591CA75DDCE61CBCBA57F39BF594D8255F06EB208CE5693B3E0FDE56479169CCFFDE5FCEA7CF9BE41533B6A1436C14CE72E783641AD1E564F1603E8CA8A8292144EF3A9936188F912CEF423DAE73CC7029267BBD99D
310
DAA6FC88D58FA6CF29D196E29A937B040D622A20AD03465522BBE3CE4FD09A9470D0BE70A169E43DC09FB54AD781CC73E142AB4092040B6F0B6D26D5D0D3C421E5EADC6F89013E88652A259A45CD73B34A61D309FFCD943169C0CAD5E96140E15642F7ABD3A1D0BC599E929304AFD9719084DB6D25A15A33B21C061A61F436
310
07F51BD928610F76EB2770DD97C5F23D3DA783C8A84F062F1A81A13A918867BADFAD18B32C5D5E7F9E429FCD597F724A5A65A0CBF194261C833157AAA0022B02ABB0344B24C154573FDF7DE6057CE2C91D5D15DDAD8A3C2F987DB884F3580A9F889CCD3D7CF049EFA06CC0AAAD2EEEE6337F7EA7DBD9B6C31E6F91C09EAA87
310
60A02E2394083D63038B7CD69AB28DCBA952426FFAFADAB1E113DA00C6829E7577CDE72D07BC477D4851BEA23DBC96F3C58EF6544F056BE0D08B8EFE05504B0304140006080000AC74DA40000000000000000000000000350000006662782F46433033444338432D354544302D344535372D393434432D3231314141353438
310
364335302F76657274696365732E62696E504B0304140006080800AC74DA40F270F1330600000004000000360000006662782F46433033444338432D354544302D344535372D393434432D3231314141353438364335302F747269616E676C65732E62696E636660600000504B0304140006080000AC74DA40000000000000
310
000000000000370000006662782F46433033444338432D354544302D344535372D393434432D3231314141353438364335302F617474726962757465732E62696E504B0304140006080800AC74DA40D5987DFC8F00000041010000360000006662782F46433033444338432D354544302D344535372D393434432D32313141
310
41353438364335302F6469726563746F72792E786D6C858F410EC2201045AF4266AF15DDB800BA74E7C21B903225242D6328188F2FA5C4183471359997F9FF81E89FF3C41E1816475E02DF1F80A11FC8386F25A438EECEC07A250251FC3803E6F58C12560C4AD840E95E91C151A72936F496F35732D860FE635F62C8F2DA16
310
B505C545B74125BAA2FA9E05D7CC053D063734D5C7665FD55B6B8D15D5E9BFEAFD8490FFA45E504B0304140006080800AC74DA40CEA90D31FE000000A00100003B0000006662782F46433033444338432D354544302D344535372D393434432D3231314141353438364335302F7265736F75726365732F636F72652E786D6C
310
8D50596E833010BD0A9ADFCA60CC9204194781AA27E8052C33A156828DBC543D7E4D42A5F6AF3F33A3B7689E1E3F7F2DF7EC139DD7D6F450E6143234CA4EDACC3DC4702547C8CE823B6BC32F1964462ED8C30683E0B3B371DD21654D4013126AEC843B28BDC70099BAA7A307AF3E7091B98C2129FC2D5FA5BAC919F3324F74
310
D209EE834B01B2E7936D8270E86D740A3D2F9EACE031EA69D7E829FDD4578D0E447B1C5F9B13AD09A3D51BA987EA448E1746C961A487CBD0B4D5C0465E6C66C1835E7E322A8732E00482D19211DA12D6BE9775571D3AD6BCD0B2A394179BFC8F29AED33F4D519B50B13DEED3E6419429C88310BCD8FA4AEB5166DA5BB7E21B
310
504B010214000A0000080000AC74DA403DEE336E79000000790000001B00000000000000000000000000000000006175746F6465736B2D64657369676E2D7061636B6167652E786D6C504B01021400140006080800AC74DA40D486FD9CA0000000F40000001300000000000000000000000000B20000005B436F6E74656E74
310
5F54797065735D2E786D6C504B01021400140006080800AC74DA40DD0223A9EC0000007C010000080000000000000000000000000083010000636F72652E786D6C504B01021400140006080800AC74DA4055019EA25F0000007C000000070000000000000000000000000095020000636E782E786D6C504B01021400140006
310
080800AC74DA402043977268010000020300000C00000000000000000000000000190300006662782F636F72652E786D6C504B01021400140006080800AC74DA40F4D0C6077E0000009D0000000B00000000000000000000000000AB0400006662782F636E782E786D6C504B01021400140006080800AC74DA4039AF491C2C
310
010000150200003100000000000000000000000000520500006662782F46433033444338432D354544302D344535372D393434432D3231314141353438364335302F636F72652E786D6C504B01021400140006080800AC74DA40B136512556010000330300003000000000000000000000000000CD0600006662782F464330
310
33444338432D354544302D344535372D393434432D3231314141353438364335302F636E782E786D6C504B01021400140006080800AC74DA40863F3B035A070000941B00003400000000000000000000000000710800006662782F46433033444338432D354544302D344535372D393434432D323131414135343836433530
310
2F6F626A656374732E786D6C504B01021400140006080000AC74DA4000000000000000000000000035000000000000000000000000001D1000006662782F46433033444338432D354544302D344535372D393434432D3231314141353438364335302F76657274696365732E62696E504B01021400140006080800AC74DA40
310
F270F13306000000040000003600000000000000000000000000701000006662782F46433033444338432D354544302D344535372D393434432D3231314141353438364335302F747269616E676C65732E62696E504B01021400140006080000AC74DA400000000000000000000000003700000000000000000000000000CA
310
1000006662782F46433033444338432D354544302D344535372D393434432D3231314141353438364335302F617474726962757465732E62696E504B01021400140006080800AC74DA40D5987DFC8F0000004101000036000000000000000000000000001F1100006662782F46433033444338432D354544302D344535372D
310
393434432D3231314141353438364335302F6469726563746F72792E786D6C504B01021400140006080800AC74DA40CEA90D31FE000000A00100003B00000000000000000000000000021200006662782F46433033444338432D354544302D344535372D393434432D3231314141353438364335302F7265736F7572636573
310
2F636F72652E786D6C504B0506000000000E000E0080040000591300000000
  0
XRECORD
  5
17
102
{ACAD_REACTORS
330
12
102
}
330
12
100
AcDbXrecord
280
     1
270
     1
271
     1
  0
XRECORD
  5
16
102
{ACAD_REACTORS
330
12
102
}
330
12
100
AcDbXrecord
280
     1
270
     1
271
     1
  0
XRECORD
  5
18
102
{ACAD_REACTORS
330
12
102
}
330
12
100
AcDbXrecord
280
     1
270
     1
271
     1
  0
XRECORD
  5
15
102
{ACAD_REACTORS
330
12
102
}
330
12
100
AcDbXrecord
280
     1
270
     1
271
     1
  0
XRECORD
  5
27AC
102
{ACAD_REACTORS
330
22
102
}
330
22
100
AcDbXrecord
280
     1
102
MATERIAL
148
0.0
149
0.0
149
0.0
 93
        0
 94
      127
282
     0
 72
     0
 77
     0
171
     0
175
     0
179
     0
273
     0
  0
XRECORD
  5
24
102
{ACAD_REACTORS
330
22
102
}
330
22
100
AcDbXrecord
280
     1
270
     1
271
     1
  0
XRECORD
  5
23
102
{ACAD_REACTORS
330
22
102
}
330
22
100
AcDbXrecord
280
     1
270
     1
271
     1
  0
XRECORD
  5
27
102
{ACAD_REACTORS
330
22
102
}
330
22
100
AcDbXrecord
280
     1
270
     1
271
     1
  0
XRECORD
  5
26
102
{ACAD_REACTORS
330
22
102
}
330
22
100
AcDbXrecord
280
     1
270
     1
271
     1
  0
XRECORD
  5
28
102
{ACAD_REACTORS
330
22
102
}
330
22
100
AcDbXrecord
280
     1
270
     1
271
     1
  0
XRECORD
  5
25
102
{ACAD_REACTORS
330
22
102
}
330
22
100
AcDbXrecord
280
     1
270
     1
271
     1
  0
XRECORD
  5
233E
102
{ACAD_REACTORS
330
233D
102
}
330
233D
100
AcDbXrecord
280
     1
102
ACAD_ROUNDTRIP_2012_MLEADER_STYLE
298
     1
  0
CELLSTYLEMAP
  5
2893
102
{ACAD_REACTORS
330
2793
102
}
330
2793
100
AcDbCellStyleMap
 90
        3
300
CELLSTYLE
  1
TABLEFORMAT_BEGIN
 90
        5
170
     1
 91
        0
 92
    32768
 62
   257
 93
        1
300
CONTENTFORMAT
  1
CONTENTFORMAT_BEGIN
 90
        0
 91
        0
 92
      512
 93
        0
300

 40
0.0
140
1.0
 94
        5
 62
     0
340
55
144
0.25
309
CONTENTFORMAT_END
171
     1
301
MARGIN
  1
CELLMARGIN_BEGIN
 40
0.06
 40
0.06
 40
0.06
 40
0.06
 40
0.18
 40
0.18
309
CELLMARGIN_END
 94
        6
 95
        1
302
GRIDFORMAT
  1
GRIDFORMAT_BEGIN
 90
        0
 91
        1
 62
     0
 92
       -2
340
0
 93
        0
 40
0.045
309
GRIDFORMAT_END
 95
        2
302
GRIDFORMAT
  1
GRIDFORMAT_BEGIN
 90
        0
 91
        1
 62
     0
 92
       -2
340
0
 93
        0
 40
0.045
309
GRIDFORMAT_END
 95
        4
302
GRIDFORMAT
  1
GRIDFORMAT_BEGIN
 90
        0
 91
        1
 62
     0
 92
       -2
340
0
 93
        0
 40
0.045
309
GRIDFORMAT_END
 95
        8
302
GRIDFORMAT
  1
GRIDFORMAT_BEGIN
 90
        0
 91
        1
 62
     0
 92
       -2
340
0
 93
        0
 40
0.045
309
GRIDFORMAT_END
 95
       16
302
GRIDFORMAT
  1
GRIDFORMAT_BEGIN
 90
        0
 91
        1
 62
     0
 92
       -2
340
0
 93
        0
 40
0.045
309
GRIDFORMAT_END
 95
       32
302
GRIDFORMAT
  1
GRIDFORMAT_BEGIN
 90
        0
 91
        1
 62
     0
 92
       -2
340
0
 93
        0
 40
0.045
309
GRIDFORMAT_END
309
TABLEFORMAT_END
  1
CELLSTYLE_BEGIN
 90
        1
 91
        1
300
_TITLE
309
CELLSTYLE_END
300
CELLSTYLE
  1
TABLEFORMAT_BEGIN
 90
        5
170
     1
 91
        0
 92
        0
 62
   257
 93
        1
300
CONTENTFORMAT
  1
CONTENTFORMAT_BEGIN
 90
        0
 91
        0
 92
      512
 93
        0
300

 40
0.0
140
1.0
 94
        5
 62
     0
340
55
144
0.18
309
CONTENTFORMAT_END
171
     1
301
MARGIN
  1
CELLMARGIN_BEGIN
 40
0.06
 40
0.06
 40
0.06
 40
0.06
 40
0.18
 40
0.18
309
CELLMARGIN_END
 94
        6
 95
        1
302
GRIDFORMAT
  1
GRIDFORMAT_BEGIN
 90
        0
 91
        1
 62
     0
 92
       -2
340
0
 93
        0
 40
0.045
309
GRIDFORMAT_END
 95
        2
302
GRIDFORMAT
  1
GRIDFORMAT_BEGIN
 90
        0
 91
        1
 62
     0
 92
       -2
340
0
 93
        0
 40
0.045
309
GRIDFORMAT_END
 95
        4
302
GRIDFORMAT
  1
GRIDFORMAT_BEGIN
 90
        0
 91
        1
 62
     0
 92
       -2
340
0
 93
        0
 40
0.045
309
GRIDFORMAT_END
 95
        8
302
GRIDFORMAT
  1
GRIDFORMAT_BEGIN
 90
        0
 91
        1
 62
     0
 92
       -2
340
0
 93
        0
 40
0.045
309
GRIDFORMAT_END
 95
       16
302
GRIDFORMAT
  1
GRIDFORMAT_BEGIN
 90
        0
 91
        1
 62
     0
 92
       -2
340
0
 93
        0
 40
0.045
309
GRIDFORMAT_END
 95
       32
302
GRIDFORMAT
  1
GRIDFORMAT_BEGIN
 90
        0
 91
        1
 62
     0
 92
       -2
340
0
 93
        0
 40
0.045
309
GRIDFORMAT_END
309
TABLEFORMAT_END
  1
CELLSTYLE_BEGIN
 90
        2
 91
        1
300
_HEADER
309
CELLSTYLE_END
300
CELLSTYLE
  1
TABLEFORMAT_BEGIN
 90
        5
170
     1
 91
        0
 92
        0
 62
   257
 93
        1
300
CONTENTFORMAT
  1
CONTENTFORMAT_BEGIN
 90
        0
 91
        0
 92
      512
 93
        0
300

 40
0.0
140
1.0
 94
        2
 62
     0
340
55
144
0.18
309
CONTENTFORMAT_END
171
     1
301
MARGIN
  1
CELLMARGIN_BEGIN
 40
0.06
 40
0.06
 40
0.06
 40
0.06
 40
0.18
 40
0.18
309
CELLMARGIN_END
 94
        6
 95
        1
302
GRIDFORMAT
  1
GRIDFORMAT_BEGIN
 90
        0
 91
        1
 62
     0
 92
       -2
340
0
 93
        0
 40
0.045
309
GRIDFORMAT_END
 95
        2
302
GRIDFORMAT
  1
GRIDFORMAT_BEGIN
 90
        0
 91
        1
 62
     0
 92
       -2
340
0
 93
        0
 40
0.045
309
GRIDFORMAT_END
 95
        4
302
GRIDFORMAT
  1
GRIDFORMAT_BEGIN
 90
        0
 91
        1
 62
     0
 92
       -2
340
0
 93
        0
 40
0.045
309
GRIDFORMAT_END
 95
        8
302
GRIDFORMAT
  1
GRIDFORMAT_BEGIN
 90
        0
 91
        1
 62
     0
 92
       -2
340
0
 93
        0
 40
0.045
309
GRIDFORMAT_END
 95
       16
302
GRIDFORMAT
  1
GRIDFORMAT_BEGIN
 90
        0
 91
        1
 62
     0
 92
       -2
340
0
 93
        0
 40
0.045
309
GRIDFORMAT_END
 95
       32
302
GRIDFORMAT
  1
GRIDFORMAT_BEGIN
 90
        0
 91
        1
 62
     0
 92
       -2
340
0
 93
        0
 40
0.045
309
GRIDFORMAT_END
309
TABLEFORMAT_END
  1
CELLSTYLE_BEGIN
 90
        3
 91
        2
300
_DATA
309
CELLSTYLE_END
  0
XRECORD
  5
28DF
102
{ACAD_REACTORS
330
2793
102
}
330
2793
100
AcDbXrecord
280
     1
102
ACAD_ROUNDTRIP_PRE2007_TABLESTYLE
 90
      512
 91
        0
  1

 92
      512
 93
        0
  2

 94
      512
 95
        0
  3

  0
XRECORD
  5
28BA
102
{ACAD_REACTORS
330
28B9
102
}
330
28B9
100
AcDbXrecord
280
     1
102
RTVSPropertyOp0
 70
     1
102
RTVSPropertyOp1
 70
     1
102
RTVSPropertyOp2
 70
     1
102
RTVSPropertyOp3
 70
     1
102
RTVSPropertyOp4
 70
     1
102
RTVSPropertyOp5
 70
     1
102
RTVSPropertyOp6
 70
     1
102
RTVSPropertyOp7
 70
     1
102
RTVSPropertyOp8
 70
     1
102
RTVSPropertyOp9
 70
     1
102
RTVSPropertyOp10
 70
     1
102
RTVSPropertyOp11
 70
     1
102
RTVSPropertyOp12
 70
     1
102
RTVSPropertyOp13
 70
     1
102
RTVSPropertyOp14
 70
     1
102
RTVSPropertyOp15
 70
     1
102
RTVSPropertyOp16
 70
     1
102
RTVSPropertyOp17
 70
     1
102
RTVSPropertyOp18
 70
     1
102
RTVSPropertyOp19
 70
     1
102
RTVSPropertyOp20
 70
     1
102
RTVSPropertyOp21
 70
     1
102
RTVSPropertyOp22
 70
     1
102
RTVSPropertyOp23
 70
     1
102
RTVSPropertyOp24
 70
     1
102
RTVSPropertyOp25
 70
     1
102
RTVSPropertyOp26
 70
     1
102
RTVSPropertyOp27
 70
     1
  0
XRECORD
  5
2909
102
{ACAD_REACTORS
330
2908
102
}
330
2908
100
AcDbXrecord
280
     1
102
RTVSPropertyOp0
 70
     1
102
RTVSPropertyOp1
 70
     1
102
RTVSPropertyOp2
 70
     1
102
RTVSPropertyOp3
 70
     1
102
RTVSPropertyOp4
 70
     1
102
RTVSPropertyOp5
 70
     1
102
RTVSPropertyOp6
 70
     1
102
RTVSPropertyOp7
 70
     1
102
RTVSPropertyOp8
 70
     1
102
RTVSPropertyOp9
 70
     1
102
RTVSPropertyOp10
 70
     1
102
RTVSPropertyOp11
 70
     1
102
RTVSPropertyOp12
 70
     1
102
RTVSPropertyOp13
 70
     1
102
RTVSPropertyOp14
 70
     1
102
RTVSPropertyOp15
 70
     1
102
RTVSPropertyOp16
 70
     1
102
RTVSPropertyOp17
 70
     1
102
RTVSPropertyOp18
 70
     1
102
RTVSPropertyOp19
 70
     1
102
RTVSPropertyOp20
 70
     1
102
RTVSPropertyOp21
 70
     1
102
RTVSPropertyOp22
 70
     1
102
RTVSPropertyOp23
 70
     1
102
RTVSPropertyOp24
 70
     1
102
RTVSPropertyOp25
 70
     1
102
RTVSPropertyOp26
 70
     1
102
RTVSPropertyOp27
 70
     1
  0
XRECORD
  5
2907
102
{ACAD_REACTORS
330
2906
102
}
330
2906
100
AcDbXrecord
280
     1
102
RTVSPropertyOp0
 70
     1
102
RTVSPropertyOp1
 70
     1
102
RTVSPropertyOp2
 70
     1
102
RTVSPropertyOp3
 70
     1
102
RTVSPropertyOp4
 70
     1
102
RTVSPropertyOp5
 70
     1
102
RTVSPropertyOp6
 70
     1
102
RTVSPropertyOp7
 70
     1
102
RTVSPropertyOp8
 70
     1
102
RTVSPropertyOp9
 70
     1
102
RTVSPropertyOp10
 70
     1
102
RTVSPropertyOp11
 70
     1
102
RTVSPropertyOp12
 70
     1
102
RTVSPropertyOp13
 70
     1
102
RTVSPropertyOp14
 70
     1
102
RTVSPropertyOp15
 70
     1
102
RTVSPropertyOp16
 70
     1
102
RTVSPropertyOp17
 70
     1
102
RTVSPropertyOp18
 70
     1
102
RTVSPropertyOp19
 70
     1
102
RTVSPropertyOp20
 70
     1
102
RTVSPropertyOp21
 70
     1
102
RTVSPropertyOp22
 70
     1
102
RTVSPropertyOp23
 70
     1
102
RTVSPropertyOp24
 70
     1
102
RTVSPropertyOp25
 70
     1
102
RTVSPropertyOp26
 70
     1
102
RTVSPropertyOp27
 70
     1
  0
XRECORD
  5
28B8
102
{ACAD_REACTORS
330
28B7
102
}
330
28B7
100
AcDbXrecord
280
     1
102
RTVSPropertyOp0
 70
     1
102
RTVSPropertyOp1
 70
     1
102
RTVSPropertyOp2
 70
     1
102
RTVSPropertyOp3
 70
     1
102
RTVSPropertyOp4
 70
     1
102
RTVSPropertyOp5
 70
     1
102
RTVSPropertyOp6
 70
     1
102
RTVSPropertyOp7
 70
     1
102
RTVSPropertyOp8
 70
     1
102
RTVSPropertyOp9
 70
     1
102
RTVSPropertyOp10
 70
     1
102
RTVSPropertyOp11
 70
     1
102
RTVSPropertyOp12
 70
     1
102
RTVSPropertyOp13
 70
     1
102
RTVSPropertyOp14
 70
     1
102
RTVSPropertyOp15
 70
     1
102
RTVSPropertyOp16
 70
     1
102
RTVSPropertyOp17
 70
     1
102
RTVSPropertyOp18
 70
     1
102
RTVSPropertyOp19
 70
     1
102
RTVSPropertyOp20
 70
     1
102
RTVSPropertyOp21
 70
     1
102
RTVSPropertyOp22
 70
     1
102
RTVSPropertyOp23
 70
     1
102
RTVSPropertyOp24
 70
     1
102
RTVSPropertyOp25
 70
     1
102
RTVSPropertyOp26
 70
     1
102
RTVSPropertyOp27
 70
     1
  0
XRECORD
  5
28C6
102
{ACAD_REACTORS
330
28C5
102
}
330
28C5
100
AcDbXrecord
280
     1
102
RTVSPropertyOp0
 70
     1
102
RTVSPropertyOp1
 70
     1
102
RTVSPropertyOp2
 70
     1
102
RTVSPropertyOp3
 70
     1
102
RTVSPropertyOp4
 70
     1
102
RTVSPropertyOp5
 70
     1
102
RTVSPropertyOp6
 70
     1
102
RTVSPropertyOp7
 70
     1
102
RTVSPropertyOp8
 70
     1
102
RTVSPropertyOp9
 70
     1
102
RTVSPropertyOp10
 70
     1
102
RTVSPropertyOp11
 70
     1
102
RTVSPropertyOp12
 70
     1
102
RTVSPropertyOp13
 70
     1
102
RTVSPropertyOp14
 70
     1
102
RTVSPropertyOp15
 70
     1
102
RTVSPropertyOp16
 70
     1
102
RTVSPropertyOp17
 70
     1
102
RTVSPropertyOp18
 70
     1
102
RTVSPropertyOp19
 70
     1
102
RTVSPropertyOp20
 70
     1
102
RTVSPropertyOp21
 70
     1
102
RTVSPropertyOp22
 70
     1
102
RTVSPropertyOp23
 70
     1
102
RTVSPropertyOp24
 70
     1
102
RTVSPropertyOp25
 70
     1
102
RTVSPropertyOp26
 70
     1
102
RTVSPropertyOp27
 70
     1
  0
XRECORD
  5
28CE
102
{ACAD_REACTORS
330
28CD
102
}
330
28CD
100
AcDbXrecord
280
     1
102
RTVSPropertyOp0
 70
     1
102
RTVSPropertyOp1
 70
     1
102
RTVSPropertyOp2
 70
     1
102
RTVSPropertyOp3
 70
     1
102
RTVSPropertyOp4
 70
     1
102
RTVSPropertyOp5
 70
     1
102
RTVSPropertyOp6
 70
     1
102
RTVSPropertyOp7
 70
     1
102
RTVSPropertyOp8
 70
     1
102
RTVSPropertyOp9
 70
     1
102
RTVSPropertyOp10
 70
     1
102
RTVSPropertyOp11
 70
     1
102
RTVSPropertyOp12
 70
     1
102
RTVSPropertyOp13
 70
     1
102
RTVSPropertyOp14
 70
     1
102
RTVSPropertyOp15
 70
     1
102
RTVSPropertyOp16
 70
     1
102
RTVSPropertyOp17
 70
     1
102
RTVSPropertyOp18
 70
     1
102
RTVSPropertyOp19
 70
     1
102
RTVSPropertyOp20
 70
     1
102
RTVSPropertyOp21
 70
     1
102
RTVSPropertyOp22
 70
     1
102
RTVSPropertyOp23
 70
     1
102
RTVSPropertyOp24
 70
     1
102
RTVSPropertyOp25
 70
     1
102
RTVSPropertyOp26
 70
     1
102
RTVSPropertyOp27
 70
     1
  0
XRECORD
  5
28C0
102
{ACAD_REACTORS
330
28BF
102
}
330
28BF
100
AcDbXrecord
280
     1
102
RTVSPropertyOp0
 70
     1
102
RTVSPropertyOp1
 70
     1
102
RTVSPropertyOp2
 70
     1
102
RTVSPropertyOp3
 70
     1
102
RTVSPropertyOp4
 70
     1
102
RTVSPropertyOp5
 70
     1
102
RTVSPropertyOp6
 70
     1
102
RTVSPropertyOp7
 70
     1
102
RTVSPropertyOp8
 70
     1
102
RTVSPropertyOp9
 70
     1
102
RTVSPropertyOp10
 70
     1
102
RTVSPropertyOp11
 70
     1
102
RTVSPropertyOp12
 70
     1
102
RTVSPropertyOp13
 70
     1
102
RTVSPropertyOp14
 70
     1
102
RTVSPropertyOp15
 70
     1
102
RTVSPropertyOp16
 70
     1
102
RTVSPropertyOp17
 70
     1
102
RTVSPropertyOp18
 70
     1
102
RTVSPropertyOp19
 70
     1
102
RTVSPropertyOp20
 70
     1
102
RTVSPropertyOp21
 70
     1
102
RTVSPropertyOp22
 70
     1
102
RTVSPropertyOp23
 70
     1
102
RTVSPropertyOp24
 70
     1
102
RTVSPropertyOp25
 70
     1
102
RTVSPropertyOp26
 70
     1
102
RTVSPropertyOp27
 70
     1
  0
XRECORD
  5
28C4
102
{ACAD_REACTORS
330
28C3
102
}
330
28C3
100
AcDbXrecord
280
     1
102
RTVSPropertyOp0
 70
     1
102
RTVSPropertyOp1
 70
     1
102
RTVSPropertyOp2
 70
     1
102
RTVSPropertyOp3
 70
     1
102
RTVSPropertyOp4
 70
     1
102
RTVSPropertyOp5
 70
     1
102
RTVSPropertyOp6
 70
     1
102
RTVSPropertyOp7
 70
     1
102
RTVSPropertyOp8
 70
     1
102
RTVSPropertyOp9
 70
     1
102
RTVSPropertyOp10
 70
     1
102
RTVSPropertyOp11
 70
     1
102
RTVSPropertyOp12
 70
     1
102
RTVSPropertyOp13
 70
     1
102
RTVSPropertyOp14
 70
     1
102
RTVSPropertyOp15
 70
     1
102
RTVSPropertyOp16
 70
     1
102
RTVSPropertyOp17
 70
     1
102
RTVSPropertyOp18
 70
     1
102
RTVSPropertyOp19
 70
     1
102
RTVSPropertyOp20
 70
     1
102
RTVSPropertyOp21
 70
     1
102
RTVSPropertyOp22
 70
     1
102
RTVSPropertyOp23
 70
     1
102
RTVSPropertyOp24
 70
     1
102
RTVSPropertyOp25
 70
     1
102
RTVSPropertyOp26
 70
     1
102
RTVSPropertyOp27
 70
     1
  0
XRECORD
  5
28DE
102
{ACAD_REACTORS
330
28DD
102
}
330
28DD
100
AcDbXrecord
280
     1
102
RTVSPropertyOp0
 70
     0
102
RTVSPropertyOp1
 70
     0
102
RTVSPropertyOp2
 70
     0
102
RTVSPropertyOp3
 70
     0
102
RTVSPropertyOp4
 70
     0
102
RTVSPropertyOp5
 70
     0
102
RTVSPropertyOp6
 70
     0
102
RTVSPropertyOp7
 70
     0
102
RTVSPropertyOp8
 70
     0
102
RTVSPropertyOp9
 70
     0
102
RTVSPropertyOp10
 70
     0
102
RTVSPropertyOp11
 70
     0
102
RTVSPropertyOp12
 70
     0
102
RTVSPropertyOp13
 70
     0
102
RTVSPropertyOp14
 70
     2
102
RTVSPropertyOp15
 70
     0
102
RTVSPropertyOp16
 70
     0
102
RTVSPropertyOp17
 70
     0
102
RTVSPropertyOp18
 70
     0
102
RTVSPropertyOp19
 70
     0
102
RTVSPropertyOp20
 70
     0
102
RTVSPropertyOp21
 70
     0
102
RTVSPropertyOp22
 70
     0
102
RTVSPropertyOp23
 70
     0
102
RTVSPropertyOp24
 70
     0
102
RTVSPropertyOp25
 70
     0
102
RTVSPropertyOp26
 70
     0
102
RTVSPropertyOp27
 70
     0
  0
XRECORD
  5
28CC
102
{ACAD_REACTORS
330
28CB
102
}
330
28CB
100
AcDbXrecord
280
     1
102
RTVSPropertyOp0
 70
     1
102
RTVSPropertyOp1
 70
     1
102
RTVSPropertyOp2
 70
     1
102
RTVSPropertyOp3
 70
     1
102
RTVSPropertyOp4
 70
     1
102
RTVSPropertyOp5
 70
     1
102
RTVSPropertyOp6
 70
     1
102
RTVSPropertyOp7
 70
     1
102
RTVSPropertyOp8
 70
     1
102
RTVSPropertyOp9
 70
     1
102
RTVSPropertyOp10
 70
     1
102
RTVSPropertyOp11
 70
     1
102
RTVSPropertyOp12
 70
     1
102
RTVSPropertyOp13
 70
     1
102
RTVSPropertyOp14
 70
     1
102
RTVSPropertyOp15
 70
     1
102
RTVSPropertyOp16
 70
     1
102
RTVSPropertyOp17
 70
     1
102
RTVSPropertyOp18
 70
     1
102
RTVSPropertyOp19
 70
     1
102
RTVSPropertyOp20
 70
     1
102
RTVSPropertyOp21
 70
     1
102
RTVSPropertyOp22
 70
     1
102
RTVSPropertyOp23
 70
     1
102
RTVSPropertyOp24
 70
     1
102
RTVSPropertyOp25
 70
     1
102
RTVSPropertyOp26
 70
     1
102
RTVSPropertyOp27
 70
     1
  0
XRECORD
  5
28B0
102
{ACAD_REACTORS
330
28AF
102
}
330
28AF
100
AcDbXrecord
280
     1
102
RTVSPropertyOp0
 70
     1
102
RTVSPropertyOp1
 70
     1
102
RTVSPropertyOp2
 70
     1
102
RTVSPropertyOp3
 70
     1
102
RTVSPropertyOp4
 70
     1
102
RTVSPropertyOp5
 70
     1
102
RTVSPropertyOp6
 70
     1
102
RTVSPropertyOp7
 70
     1
102
RTVSPropertyOp8
 70
     1
102
RTVSPropertyOp9
 70
     1
102
RTVSPropertyOp10
 70
     1
102
RTVSPropertyOp11
 70
     1
102
RTVSPropertyOp12
 70
     1
102
RTVSPropertyOp13
 70
     1
102
RTVSPropertyOp14
 70
     1
102
RTVSPropertyOp15
 70
     1
102
RTVSPropertyOp16
 70
     1
102
RTVSPropertyOp17
 70
     1
102
RTVSPropertyOp18
 70
     1
102
RTVSPropertyOp19
 70
     1
102
RTVSPropertyOp20
 70
     1
102
RTVSPropertyOp21
 70
     1
102
RTVSPropertyOp22
 70
     1
102
RTVSPropertyOp23
 70
     1
102
RTVSPropertyOp24
 70
     1
102
RTVSPropertyOp25
 70
     1
102
RTVSPropertyOp26
 70
     1
102
RTVSPropertyOp27
 70
     1
  0
XRECORD
  5
28B2
102
{ACAD_REACTORS
330
28B1
102
}
330
28B1
100
AcDbXrecord
280
     1
102
RTVSPropertyOp0
 70
     1
102
RTVSPropertyOp1
 70
     1
102
RTVSPropertyOp2
 70
     1
102
RTVSPropertyOp3
 70
     1
102
RTVSPropertyOp4
 70
     1
102
RTVSPropertyOp5
 70
     1
102
RTVSPropertyOp6
 70
     1
102
RTVSPropertyOp7
 70
     1
102
RTVSPropertyOp8
 70
     1
102
RTVSPropertyOp9
 70
     1
102
RTVSPropertyOp10
 70
     1
102
RTVSPropertyOp11
 70
     1
102
RTVSPropertyOp12
 70
     1
102
RTVSPropertyOp13
 70
     1
102
RTVSPropertyOp14
 70
     1
102
RTVSPropertyOp15
 70
     1
102
RTVSPropertyOp16
 70
     1
102
RTVSPropertyOp17
 70
     1
102
RTVSPropertyOp18
 70
     1
102
RTVSPropertyOp19
 70
     1
102
RTVSPropertyOp20
 70
     1
102
RTVSPropertyOp21
 70
     1
102
RTVSPropertyOp22
 70
     1
102
RTVSPropertyOp23
 70
     1
102
RTVSPropertyOp24
 70
     1
102
RTVSPropertyOp25
 70
     1
102
RTVSPropertyOp26
 70
     1
102
RTVSPropertyOp27
 70
     1
  0
XRECORD
  5
28B4
102
{ACAD_REACTORS
330
28B3
102
}
330
28B3
100
AcDbXrecord
280
     1
102
RTVSPropertyOp0
 70
     1
102
RTVSPropertyOp1
 70
     1
102
RTVSPropertyOp2
 70
     1
102
RTVSPropertyOp3
 70
     1
102
RTVSPropertyOp4
 70
     1
102
RTVSPropertyOp5
 70
     1
102
RTVSPropertyOp6
 70
     1
102
RTVSPropertyOp7
 70
     1
102
RTVSPropertyOp8
 70
     1
102
RTVSPropertyOp9
 70
     1
102
RTVSPropertyOp10
 70
     1
102
RTVSPropertyOp11
 70
     1
102
RTVSPropertyOp12
 70
     1
102
RTVSPropertyOp13
 70
     1
102
RTVSPropertyOp14
 70
     1
102
RTVSPropertyOp15
 70
     1
102
RTVSPropertyOp16
 70
     1
102
RTVSPropertyOp17
 70
     1
102
RTVSPropertyOp18
 70
     1
102
RTVSPropertyOp19
 70
     1
102
RTVSPropertyOp20
 70
     1
102
RTVSPropertyOp21
 70
     1
102
RTVSPropertyOp22
 70
     1
102
RTVSPropertyOp23
 70
     1
102
RTVSPropertyOp24
 70
     1
102
RTVSPropertyOp25
 70
     1
102
RTVSPropertyOp26
 70
     1
102
RTVSPropertyOp27
 70
     1
  0
XRECORD
  5
28B6
102
{ACAD_REACTORS
330
28B5
102
}
330
28B5
100
AcDbXrecord
280
     1
102
RTVSPropertyOp0
 70
     1
102
RTVSPropertyOp1
 70
     1
102
RTVSPropertyOp2
 70
     1
102
RTVSPropertyOp3
 70
     1
102
RTVSPropertyOp4
 70
     1
102
RTVSPropertyOp5
 70
     1
102
RTVSPropertyOp6
 70
     1
102
RTVSPropertyOp7
 70
     1
102
RTVSPropertyOp8
 70
     1
102
RTVSPropertyOp9
 70
     1
102
RTVSPropertyOp10
 70
     1
102
RTVSPropertyOp11
 70
     1
102
RTVSPropertyOp12
 70
     1
102
RTVSPropertyOp13
 70
     1
102
RTVSPropertyOp14
 70
     1
102
RTVSPropertyOp15
 70
     1
102
RTVSPropertyOp16
 70
     1
102
RTVSPropertyOp17
 70
     1
102
RTVSPropertyOp18
 70
     1
102
RTVSPropertyOp19
 70
     1
102
RTVSPropertyOp20
 70
     1
102
RTVSPropertyOp21
 70
     1
102
RTVSPropertyOp22
 70
     1
102
RTVSPropertyOp23
 70
     1
102
RTVSPropertyOp24
 70
     1
102
RTVSPropertyOp25
 70
     1
102
RTVSPropertyOp26
 70
     1
102
RTVSPropertyOp27
 70
     1
  0
XRECORD
  5
28BE
102
{ACAD_REACTORS
330
28BD
102
}
330
28BD
100
AcDbXrecord
280
     1
102
RTVSPropertyOp0
 70
     1
102
RTVSPropertyOp1
 70
     1
102
RTVSPropertyOp2
 70
     1
102
RTVSPropertyOp3
 70
     1
102
RTVSPropertyOp4
 70
     1
102
RTVSPropertyOp5
 70
     1
102
RTVSPropertyOp6
 70
     1
102
RTVSPropertyOp7
 70
     1
102
RTVSPropertyOp8
 70
     1
102
RTVSPropertyOp9
 70
     1
102
RTVSPropertyOp10
 70
     1
102
RTVSPropertyOp11
 70
     1
102
RTVSPropertyOp12
 70
     1
102
RTVSPropertyOp13
 70
     1
102
RTVSPropertyOp14
 70
     1
102
RTVSPropertyOp15
 70
     1
102
RTVSPropertyOp16
 70
     1
102
RTVSPropertyOp17
 70
     1
102
RTVSPropertyOp18
 70
     1
102
RTVSPropertyOp19
 70
     1
102
RTVSPropertyOp20
 70
     1
102
RTVSPropertyOp21
 70
     1
102
RTVSPropertyOp22
 70
     1
102
RTVSPropertyOp23
 70
     1
102
RTVSPropertyOp24
 70
     1
102
RTVSPropertyOp25
 70
     1
102
RTVSPropertyOp26
 70
     1
102
RTVSPropertyOp27
 70
     1
  0
XRECORD
  5
28DA
102
{ACAD_REACTORS
330
28D9
102
}
330
28D9
100
AcDbXrecord
280
     1
102
RTVSPropertyOp0
 70
     0
102
RTVSPropertyOp1
 70
     0
102
RTVSPropertyOp2
 70
     0
102
RTVSPropertyOp3
 70
     0
102
RTVSPropertyOp4
 70
     0
102
RTVSPropertyOp5
 70
     0
102
RTVSPropertyOp6
 70
     0
102
RTVSPropertyOp7
 70
     0
102
RTVSPropertyOp8
 70
     0
102
RTVSPropertyOp9
 70
     0
102
RTVSPropertyOp10
 70
     0
102
RTVSPropertyOp11
 70
     0
102
RTVSPropertyOp12
 70
     0
102
RTVSPropertyOp13
 70
     0
102
RTVSPropertyOp14
 70
     2
102
RTVSPropertyOp15
 70
     0
102
RTVSPropertyOp16
 70
     0
102
RTVSPropertyOp17
 70
     0
102
RTVSPropertyOp18
 70
     0
102
RTVSPropertyOp19
 70
     0
102
RTVSPropertyOp20
 70
     0
102
RTVSPropertyOp21
 70
     0
102
RTVSPropertyOp22
 70
     0
102
RTVSPropertyOp23
 70
     0
102
RTVSPropertyOp24
 70
     0
102
RTVSPropertyOp25
 70
     0
102
RTVSPropertyOp26
 70
     0
102
RTVSPropertyOp27
 70
     0
  0
XRECORD
  5
28CA
102
{ACAD_REACTORS
330
28C9
102
}
330
28C9
100
AcDbXrecord
280
     1
102
RTVSPropertyOp0
 70
     1
102
RTVSPropertyOp1
 70
     1
102
RTVSPropertyOp2
 70
     1
102
RTVSPropertyOp3
 70
     1
102
RTVSPropertyOp4
 70
     1
102
RTVSPropertyOp5
 70
     1
102
RTVSPropertyOp6
 70
     1
102
RTVSPropertyOp7
 70
     1
102
RTVSPropertyOp8
 70
     1
102
RTVSPropertyOp9
 70
     1
102
RTVSPropertyOp10
 70
     1
102
RTVSPropertyOp11
 70
     1
102
RTVSPropertyOp12
 70
     1
102
RTVSPropertyOp13
 70
     1
102
RTVSPropertyOp14
 70
     1
102
RTVSPropertyOp15
 70
     1
102
RTVSPropertyOp16
 70
     1
102
RTVSPropertyOp17
 70
     1
102
RTVSPropertyOp18
 70
     1
102
RTVSPropertyOp19
 70
     1
102
RTVSPropertyOp20
 70
     1
102
RTVSPropertyOp21
 70
     1
102
RTVSPropertyOp22
 70
     1
102
RTVSPropertyOp23
 70
     1
102
RTVSPropertyOp24
 70
     1
102
RTVSPropertyOp25
 70
     1
102
RTVSPropertyOp26
 70
     1
102
RTVSPropertyOp27
 70
     1
  0
XRECORD
  5
28DC
102
{ACAD_REACTORS
330
28DB
102
}
330
28DB
100
AcDbXrecord
280
     1
102
RTVSPropertyOp0
 70
     0
102
RTVSPropertyOp1
 70
     0
102
RTVSPropertyOp2
 70
     0
102
RTVSPropertyOp3
 70
     0
102
RTVSPropertyOp4
 70
     0
102
RTVSPropertyOp5
 70
     0
102
RTVSPropertyOp6
 70
     0
102
RTVSPropertyOp7
 70
     0
102
RTVSPropertyOp8
 70
     0
102
RTVSPropertyOp9
 70
     0
102
RTVSPropertyOp10
 70
     0
102
RTVSPropertyOp11
 70
     0
102
RTVSPropertyOp12
 70
     0
102
RTVSPropertyOp13
 70
     0
102
RTVSPropertyOp14
 70
     2
102
RTVSPropertyOp15
 70
     0
102
RTVSPropertyOp16
 70
     0
102
RTVSPropertyOp17
 70
     0
102
RTVSPropertyOp18
 70
     0
102
RTVSPropertyOp19
 70
     0
102
RTVSPropertyOp20
 70
     0
102
RTVSPropertyOp21
 70
     0
102
RTVSPropertyOp22
 70
     0
102
RTVSPropertyOp23
 70
     0
102
RTVSPropertyOp24
 70
     0
102
RTVSPropertyOp25
 70
     0
102
RTVSPropertyOp26
 70
     0
102
RTVSPropertyOp27
 70
     0
  0
XRECORD
  5
28C2
102
{ACAD_REACTORS
330
28C1
102
}
330
28C1
100
AcDbXrecord
280
     1
102
RTVSPropertyOp0
 70
     1
102
RTVSPropertyOp1
 70
     1
102
RTVSPropertyOp2
 70
     1
102
RTVSPropertyOp3
 70
     1
102
RTVSPropertyOp4
 70
     1
102
RTVSPropertyOp5
 70
     1
102
RTVSPropertyOp6
 70
     1
102
RTVSPropertyOp7
 70
     1
102
RTVSPropertyOp8
 70
     1
102
RTVSPropertyOp9
 70
     1
102
RTVSPropertyOp10
 70
     1
102
RTVSPropertyOp11
 70
     1
102
RTVSPropertyOp12
 70
     1
102
RTVSPropertyOp13
 70
     1
102
RTVSPropertyOp14
 70
     1
102
RTVSPropertyOp15
 70
     1
102
RTVSPropertyOp16
 70
     1
102
RTVSPropertyOp17
 70
     1
102
RTVSPropertyOp18
 70
     1
102
RTVSPropertyOp19
 70
     1
102
RTVSPropertyOp20
 70
     1
102
RTVSPropertyOp21
 70
     1
102
RTVSPropertyOp22
 70
     1
102
RTVSPropertyOp23
 70
     1
102
RTVSPropertyOp24
 70
     1
102
RTVSPropertyOp25
 70
     1
102
RTVSPropertyOp26
 70
     1
102
RTVSPropertyOp27
 70
     1
  0
XRECORD
  5
28D8
102
{ACAD_REACTORS
330
28D7
102
}
330
28D7
100
AcDbXrecord
280
     1
102
RTVSPropertyOp0
 70
     1
102
RTVSPropertyOp1
 70
     1
102
RTVSPropertyOp2
 70
     1
102
RTVSPropertyOp3
 70
     1
102
RTVSPropertyOp4
 70
     1
102
RTVSPropertyOp5
 70
     1
102
RTVSPropertyOp6
 70
     1
102
RTVSPropertyOp7
 70
     1
102
RTVSPropertyOp8
 70
     1
102
RTVSPropertyOp9
 70
     1
102
RTVSPropertyOp10
 70
     1
102
RTVSPropertyOp11
 70
     1
102
RTVSPropertyOp12
 70
     1
102
RTVSPropertyOp13
 70
     1
102
RTVSPropertyOp14
 70
     1
102
RTVSPropertyOp15
 70
     1
102
RTVSPropertyOp16
 70
     1
102
RTVSPropertyOp17
 70
     1
102
RTVSPropertyOp18
 70
     1
102
RTVSPropertyOp19
 70
     1
102
RTVSPropertyOp20
 70
     1
102
RTVSPropertyOp21
 70
     1
102
RTVSPropertyOp22
 70
     1
102
RTVSPropertyOp23
 70
     1
102
RTVSPropertyOp24
 70
     1
102
RTVSPropertyOp25
 70
     1
102
RTVSPropertyOp26
 70
     1
102
RTVSPropertyOp27
 70
     1
  0
XRECORD
  5
28D6
102
{ACAD_REACTORS
330
28D5
102
}
330
28D5
100
AcDbXrecord
280
     1
102
RTVSPropertyOp0
 70
     1
102
RTVSPropertyOp1
 70
     1
102
RTVSPropertyOp2
 70
     1
102
RTVSPropertyOp3
 70
     1
102
RTVSPropertyOp4
 70
     1
102
RTVSPropertyOp5
 70
     1
102
RTVSPropertyOp6
 70
     1
102
RTVSPropertyOp7
 70
     1
102
RTVSPropertyOp8
 70
     1
102
RTVSPropertyOp9
 70
     1
102
RTVSPropertyOp10
 70
     1
102
RTVSPropertyOp11
 70
     1
102
RTVSPropertyOp12
 70
     1
102
RTVSPropertyOp13
 70
     1
102
RTVSPropertyOp14
 70
     1
102
RTVSPropertyOp15
 70
     1
102
RTVSPropertyOp16
 70
     1
102
RTVSPropertyOp17
 70
     1
102
RTVSPropertyOp18
 70
     1
102
RTVSPropertyOp19
 70
     1
102
RTVSPropertyOp20
 70
     1
102
RTVSPropertyOp21
 70
     1
102
RTVSPropertyOp22
 70
     1
102
RTVSPropertyOp23
 70
     1
102
RTVSPropertyOp24
 70
     1
102
RTVSPropertyOp25
 70
     1
102
RTVSPropertyOp26
 70
     1
102
RTVSPropertyOp27
 70
     1
  0
XRECORD
  5
28D0
102
{ACAD_REACTORS
330
28CF
102
}
330
28CF
100
AcDbXrecord
280
     1
102
RTVSPropertyOp0
 70
     1
102
RTVSPropertyOp1
 70
     1
102
RTVSPropertyOp2
 70
     1
102
RTVSPropertyOp3
 70
     1
102
RTVSPropertyOp4
 70
     1
102
RTVSPropertyOp5
 70
     1
102
RTVSPropertyOp6
 70
     1
102
RTVSPropertyOp7
 70
     1
102
RTVSPropertyOp8
 70
     1
102
RTVSPropertyOp9
 70
     1
102
RTVSPropertyOp10
 70
     1
102
RTVSPropertyOp11
 70
     1
102
RTVSPropertyOp12
 70
     1
102
RTVSPropertyOp13
 70
     1
102
RTVSPropertyOp14
 70
     1
102
RTVSPropertyOp15
 70
     1
102
RTVSPropertyOp16
 70
     1
102
RTVSPropertyOp17
 70
     1
102
RTVSPropertyOp18
 70
     1
102
RTVSPropertyOp19
 70
     1
102
RTVSPropertyOp20
 70
     1
102
RTVSPropertyOp21
 70
     1
102
RTVSPropertyOp22
 70
     1
102
RTVSPropertyOp23
 70
     1
102
RTVSPropertyOp24
 70
     1
102
RTVSPropertyOp25
 70
     1
102
RTVSPropertyOp26
 70
     1
102
RTVSPropertyOp27
 70
     1
  0
XRECORD
  5
28D2
102
{ACAD_REACTORS
330
28D1
102
}
330
28D1
100
AcDbXrecord
280
     1
102
RTVSPropertyOp0
 70
     1
102
RTVSPropertyOp1
 70
     1
102
RTVSPropertyOp2
 70
     1
102
RTVSPropertyOp3
 70
     1
102
RTVSPropertyOp4
 70
     1
102
RTVSPropertyOp5
 70
     1
102
RTVSPropertyOp6
 70
     1
102
RTVSPropertyOp7
 70
     1
102
RTVSPropertyOp8
 70
     1
102
RTVSPropertyOp9
 70
     1
102
RTVSPropertyOp10
 70
     1
102
RTVSPropertyOp11
 70
     1
102
RTVSPropertyOp12
 70
     1
102
RTVSPropertyOp13
 70
     1
102
RTVSPropertyOp14
 70
     1
102
RTVSPropertyOp15
 70
     1
102
RTVSPropertyOp16
 70
     1
102
RTVSPropertyOp17
 70
     1
102
RTVSPropertyOp18
 70
     1
102
RTVSPropertyOp19
 70
     1
102
RTVSPropertyOp20
 70
     1
102
RTVSPropertyOp21
 70
     1
102
RTVSPropertyOp22
 70
     1
102
RTVSPropertyOp23
 70
     1
102
RTVSPropertyOp24
 70
     1
102
RTVSPropertyOp25
 70
     1
102
RTVSPropertyOp26
 70
     1
102
RTVSPropertyOp27
 70
     1
  0
XRECORD
  5
28C8
102
{ACAD_REACTORS
330
28C7
102
}
330
28C7
100
AcDbXrecord
280
     1
102
RTVSPropertyOp0
 70
     1
102
RTVSPropertyOp1
 70
     1
102
RTVSPropertyOp2
 70
     1
102
RTVSPropertyOp3
 70
     1
102
RTVSPropertyOp4
 70
     1
102
RTVSPropertyOp5
 70
     1
102
RTVSPropertyOp6
 70
     1
102
RTVSPropertyOp7
 70
     1
102
RTVSPropertyOp8
 70
     1
102
RTVSPropertyOp9
 70
     1
102
RTVSPropertyOp10
 70
     1
102
RTVSPropertyOp11
 70
     1
102
RTVSPropertyOp12
 70
     1
102
RTVSPropertyOp13
 70
     1
102
RTVSPropertyOp14
 70
     1
102
RTVSPropertyOp15
 70
     1
102
RTVSPropertyOp16
 70
     1
102
RTVSPropertyOp17
 70
     1
102
RTVSPropertyOp18
 70
     1
102
RTVSPropertyOp19
 70
     1
102
RTVSPropertyOp20
 70
     1
102
RTVSPropertyOp21
 70
     1
102
RTVSPropertyOp22
 70
     1
102
RTVSPropertyOp23
 70
     1
102
RTVSPropertyOp24
 70
     1
102
RTVSPropertyOp25
 70
     1
102
RTVSPropertyOp26
 70
     1
102
RTVSPropertyOp27
 70
     1
  0
XRECORD
  5
28BC
102
{ACAD_REACTORS
330
28BB
102
}
330
28BB
100
AcDbXrecord
280
     1
102
RTVSPropertyOp0
 70
     1
102
RTVSPropertyOp1
 70
     1
102
RTVSPropertyOp2
 70
     1
102
RTVSPropertyOp3
 70
     1
102
RTVSPropertyOp4
 70
     1
102
RTVSPropertyOp5
 70
     1
102
RTVSPropertyOp6
 70
     1
102
RTVSPropertyOp7
 70
     1
102
RTVSPropertyOp8
 70
     1
102
RTVSPropertyOp9
 70
     1
102
RTVSPropertyOp10
 70
     1
102
RTVSPropertyOp11
 70
     1
102
RTVSPropertyOp12
 70
     1
102
RTVSPropertyOp13
 70
     1
102
RTVSPropertyOp14
 70
     1
102
RTVSPropertyOp15
 70
     1
102
RTVSPropertyOp16
 70
     1
102
RTVSPropertyOp17
 70
     1
102
RTVSPropertyOp18
 70
     1
102
RTVSPropertyOp19
 70
     1
102
RTVSPropertyOp20
 70
     1
102
RTVSPropertyOp21
 70
     1
102
RTVSPropertyOp22
 70
     1
102
RTVSPropertyOp23
 70
     1
102
RTVSPropertyOp24
 70
     1
102
RTVSPropertyOp25
 70
     1
102
RTVSPropertyOp26
 70
     1
102
RTVSPropertyOp27
 70
     1
  0
XRECORD
  5
28D4
102
{ACAD_REACTORS
330
28D3
102
}
330
28D3
100
AcDbXrecord
280
     1
102
RTVSPropertyOp0
 70
     1
102
RTVSPropertyOp1
 70
     1
102
RTVSPropertyOp2
 70
     1
102
RTVSPropertyOp3
 70
     1
102
RTVSPropertyOp4
 70
     1
102
RTVSPropertyOp5
 70
     1
102
RTVSPropertyOp6
 70
     1
102
RTVSPropertyOp7
 70
     1
102
RTVSPropertyOp8
 70
     1
102
RTVSPropertyOp9
 70
     1
102
RTVSPropertyOp10
 70
     1
102
RTVSPropertyOp11
 70
     1
102
RTVSPropertyOp12
 70
     1
102
RTVSPropertyOp13
 70
     1
102
RTVSPropertyOp14
 70
     1
102
RTVSPropertyOp15
 70
     1
102
RTVSPropertyOp16
 70
     1
102
RTVSPropertyOp17
 70
     1
102
RTVSPropertyOp18
 70
     1
102
RTVSPropertyOp19
 70
     1
102
RTVSPropertyOp20
 70
     1
102
RTVSPropertyOp21
 70
     1
102
RTVSPropertyOp22
 70
     1
102
RTVSPropertyOp23
 70
     1
102
RTVSPropertyOp24
 70
     1
102
RTVSPropertyOp25
 70
     1
102
RTVSPropertyOp26
 70
     1
102
RTVSPropertyOp27
 70
     1
  0
ENDSEC
  0
EOF
