  0
SECTION
  2
HEADER
  9
$ACADVER
  1
AC1018
  9
$ACADMAINTVER
 70
   104
  9
$DWGCODEPAGE
  3
ANSI_1250
  9
$AUTHOR
  1
pmacoun
  9
$CUSTOMPROPERTYTAG
  1
Vedoucí
  9
$CUSTOMPROPERTY
  1

  9
$CUSTOMPROPERTYTAG
  1
Společnost
  9
$CUSTOMPROPERTY
  1

  9
$CUSTOMPROPERTYTAG
  1
Kategorie
  9
$CUSTOMPROPERTY
  1

  9
$CUSTOMPROPERTYTAG
  1
Číslo součásti
  9
$CUSTOMPROPERTY
  1
baleni 157
  9
$CUSTOMPROPERTYTAG
  1
Popis
  9
$CUSTOMPROPERTY
  1

  9
$CUSTOMPROPERTYTAG
  1
Projekt
  9
$CUSTOMPROPERTY
  1

  9
$CUSTOMPROPERTYTAG
  1
Kreslil
  9
$CUSTOMPROPERTY
  1
pmacoun
  9
$CUSTOMPROPERTYTAG
  1
Schválil
  9
$CUSTOMPROPERTY
  1

  9
$CUSTOMPROPERTYTAG
  1
Zodpovídá
  9
$CUSTOMPROPERTY
  1

  9
$CUSTOMPROPERTYTAG
  1
Nákladové středisko
  9
$CUSTOMPROPERTY
  1

  9
$CUSTOMPROPERTYTAG
  1
Dodavatel
  9
$CUSTOMPROPERTY
  1

  9
$CUSTOMPROPERTYTAG
  1
Uživatelský stav
  9
$CUSTOMPROPERTY
  1

  9
$CUSTOMPROPERTYTAG
  1
Stav návrhu
  9
$CUSTOMPROPERTY
  1
Rozpracováno
  9
$CUSTOMPROPERTYTAG
  1
Zkontroloval
  9
$CUSTOMPROPERTY
  1

  9
$CUSTOMPROPERTYTAG
  1
Techn. kontr. schválil
  9
$CUSTOMPROPERTY
  1

  9
$CUSTOMPROPERTYTAG
  1
Výrobu schválil
  9
$CUSTOMPROPERTY
  1

  9
$CUSTOMPROPERTYTAG
  1
VS_First
  9
$CUSTOMPROPERTY
  1

  9
$CUSTOMPROPERTYTAG
  1
VS_All
  9
$CUSTOMPROPERTY
  1
1:1,
  9
$CUSTOMPROPERTYTAG
  1
Model_Mass_Value
  9
$CUSTOMPROPERTY
  1
,0
  9
$CUSTOMPROPERTYTAG
  1
Model_Mass_Units
  9
$CUSTOMPROPERTY
  1
kg
  9
$CUSTOMPROPERTYTAG
  1
Model_Area_Value
  9
$CUSTOMPROPERTY
  1
2694,0
  9
$CUSTOMPROPERTYTAG
  1
Model_Area_Units
  9
$CUSTOMPROPERTY
  1
mm˛
  9
$CUSTOMPROPERTYTAG
  1
Model_Volume_Value
  9
$CUSTOMPROPERTY
  1
5471,0
  9
$CUSTOMPROPERTYTAG
  1
Model_Volume_Units
  9
$CUSTOMPROPERTY
  1
mmł
  9
$CUSTOMPROPERTYTAG
  1
Model_CogX_Value
  9
$CUSTOMPROPERTY
  1
,0
  9
$CUSTOMPROPERTYTAG
  1
Model_CogY_Value
  9
$CUSTOMPROPERTY
  1
,0
  9
$CUSTOMPROPERTYTAG
  1
Model_CogZ_Value
  9
$CUSTOMPROPERTY
  1
,0
  9
$CUSTOMPROPERTYTAG
  1
Model_Cog_Units
  9
$CUSTOMPROPERTY
  1
mm
  9
$CUSTOMPROPERTYTAG
  1
Model_Ixx_Value
  9
$CUSTOMPROPERTY
  1
,0
  9
$CUSTOMPROPERTYTAG
  1
Model_Iyy_Value
  9
$CUSTOMPROPERTY
  1
,0
  9
$CUSTOMPROPERTYTAG
  1
Model_Izz_Value
  9
$CUSTOMPROPERTY
  1
,0
  9
$CUSTOMPROPERTYTAG
  1
Model_Ixy_Value
  9
$CUSTOMPROPERTY
  1
,0
  9
$CUSTOMPROPERTYTAG
  1
Model_Iyz_Value
  9
$CUSTOMPROPERTY
  1
,0
  9
$CUSTOMPROPERTYTAG
  1
Model_Ixz_Value
  9
$CUSTOMPROPERTY
  1
,0
  9
$CUSTOMPROPERTYTAG
  1
Model_MassMom_Units
  9
$CUSTOMPROPERTY
  1
kg mm˛
  9
$CUSTOMPROPERTYTAG
  1
FirstViewScale
  9
$CUSTOMPROPERTY
  1

  9
$CUSTOMPROPERTYTAG
  1
AllViewScales
  9
$CUSTOMPROPERTY
  1

  9
$CUSTOMPROPERTYTAG
  1
SaveDate
  9
$CUSTOMPROPERTY
  1
09/11/2007
  9
$CUSTOMPROPERTYTAG
  1
SaveTime
  9
$CUSTOMPROPERTY
  1
10:32
  9
$CUSTOMPROPERTYTAG
  1
PaperSize
  9
$CUSTOMPROPERTY
  1
A3
  9
$CUSTOMPROPERTYTAG
  1
DateSaved
  9
$CUSTOMPROPERTY
  1
12.09.2007
  9
$CUSTOMPROPERTYTAG
  1
TimeSaved
  9
$CUSTOMPROPERTY
  1
10:32 dop.
  9
$INSBASE
 10
0.0
 20
0.0
 30
0.0
  9
$EXTMIN
 10
0.0
 20
0.0
 30
0.0
  9
$EXTMAX
 10
420.4999999999999
 20
594.5
 30
0.0
  9
$LIMMIN
 10
0.0
 20
0.0
  9
$LIMMAX
 10
420.4999999999999
 20
594.5
  9
$ORTHOMODE
 70
     0
  9
$REGENMODE
 70
     1
  9
$FILLMODE
 70
     1
  9
$QTEXTMODE
 70
     0
  9
$MIRRTEXT
 70
     0
  9
$LTSCALE
 40
0.5
  9
$ATTMODE
 70
     1
  9
$TEXTSIZE
 40
0.2
  9
$TRACEWID
 40
0.05
  9
$TEXTSTYLE
  7
Standard
  9
$CLAYER
  8
0
  9
$CELTYPE
  6
ByLayer
  9
$CECOLOR
 62
   256
  9
$CELTSCALE
 40
1.0
  9
$DISPSILH
 70
     0
  9
$DIMSCALE
 40
1.0
  9
$DIMASZ
 40
1.799999999999999
  9
$DIMEXO
 40
0.0625
  9
$DIMDLI
 40
0.38
  9
$DIMRND
 40
0.0
  9
$DIMDLE
 40
0.0
  9
$DIMEXE
 40
0.18
  9
$DIMTP
 40
0.0
  9
$DIMTM
 40
0.0
  9
$DIMTXT
 40
0.3499999940395355
  9
$DIMCEN
 40
0.09
  9
$DIMTSZ
 40
0.0
  9
$DIMTOL
 70
     0
  9
$DIMLIM
 70
     0
  9
$DIMTIH
 70
     1
  9
$DIMTOH
 70
     1
  9
$DIMSE1
 70
     0
  9
$DIMSE2
 70
     0
  9
$DIMTAD
 70
     0
  9
$DIMZIN
 70
     0
  9
$DIMBLK
  1

  9
$DIMASO
 70
     1
  9
$DIMSHO
 70
     1
  9
$DIMPOST
  1

  9
$DIMAPOST
  1

  9
$DIMALT
 70
     0
  9
$DIMALTD
 70
     2
  9
$DIMALTF
 40
25.4
  9
$DIMLFAC
 40
1.0
  9
$DIMTOFL
 70
     0
  9
$DIMTVP
 40
0.0
  9
$DIMTIX
 70
     0
  9
$DIMSOXD
 70
     0
  9
$DIMSAH
 70
     0
  9
$DIMBLK1
  1

  9
$DIMBLK2
  1

  9
$DIMSTYLE
  2
Standard
  9
$DIMCLRD
 70
     0
  9
$DIMCLRE
 70
     0
  9
$DIMCLRT
 70
     0
  9
$DIMTFAC
 40
1.0
  9
$DIMGAP
 40
0.09
  9
$DIMJUST
 70
     0
  9
$DIMSD1
 70
     0
  9
$DIMSD2
 70
     0
  9
$DIMTOLJ
 70
     1
  9
$DIMTZIN
 70
     0
  9
$DIMALTZ
 70
     0
  9
$DIMALTTZ
 70
     0
  9
$DIMUPT
 70
     0
  9
$DIMDEC
 70
     4
  9
$DIMTDEC
 70
     4
  9
$DIMALTU
 70
     2
  9
$DIMALTTD
 70
     2
  9
$DIMTXSTY
  7
Standard
  9
$DIMAUNIT
 70
     0
  9
$DIMADEC
 70
     0
  9
$DIMALTRND
 40
0.0
  9
$DIMAZIN
 70
     0
  9
$DIMDSEP
 70
    46
  9
$DIMATFIT
 70
     3
  9
$DIMFRAC
 70
     0
  9
$DIMLDRBLK
  1

  9
$DIMLUNIT
 70
     2
  9
$DIMLWD
 70
    -2
  9
$DIMLWE
 70
    -2
  9
$DIMTMOVE
 70
     0
  9
$LUNITS
 70
     2
  9
$LUPREC
 70
     4
  9
$SKETCHINC
 40
0.1
  9
$FILLETRAD
 40
0.0
  9
$AUNITS
 70
     0
  9
$AUPREC
 70
     0
  9
$MENU
  1
.
  9
$ELEVATION
 40
0.0
  9
$PELEVATION
 40
0.0
  9
$THICKNESS
 40
0.0
  9
$LIMCHECK
 70
     0
  9
$CHAMFERA
 40
0.0
  9
$CHAMFERB
 40
0.0
  9
$CHAMFERC
 40
0.0
  9
$CHAMFERD
 40
0.0
  9
$SKPOLY
 70
     0
  9
$TDCREATE
 40
2456636.506776123
  9
$TDUCREATE
 40
2456636.465109456
  9
$TDUPDATE
 40
2456636.506776123
  9
$TDUUPDATE
 40
2456636.465109456
  9
$TDINDWG
 40
0.0001894213
  9
$TDUSRTIMER
 40
0.0001894213
  9
$USRTIMER
 70
     1
  9
$ANGBASE
 50
0.0
  9
$ANGDIR
 70
     0
  9
$PDMODE
 70
     0
  9
$PDSIZE
 40
0.0
  9
$PLINEWID
 40
0.0
  9
$SPLFRAME
 70
     0
  9
$SPLINETYPE
 70
     6
  9
$SPLINESEGS
 70
     8
  9
$HANDSEED
  5
7B8
  9
$SURFTAB1
 70
     6
  9
$SURFTAB2
 70
     6
  9
$SURFTYPE
 70
     6
  9
$SURFU
 70
     6
  9
$SURFV
 70
     6
  9
$UCSBASE
  2

  9
$UCSNAME
  2

  9
$UCSORG
 10
0.0
 20
0.0
 30
0.0
  9
$UCSXDIR
 10
1.0
 20
0.0
 30
0.0
  9
$UCSYDIR
 10
0.0
 20
1.0
 30
0.0
  9
$UCSORTHOREF
  2

  9
$UCSORTHOVIEW
 70
     0
  9
$UCSORGTOP
 10
0.0
 20
0.0
 30
0.0
  9
$UCSORGBOTTOM
 10
0.0
 20
0.0
 30
0.0
  9
$UCSORGLEFT
 10
0.0
 20
0.0
 30
0.0
  9
$UCSORGRIGHT
 10
0.0
 20
0.0
 30
0.0
  9
$UCSORGFRONT
 10
0.0
 20
0.0
 30
0.0
  9
$UCSORGBACK
 10
0.0
 20
0.0
 30
0.0
  9
$PUCSBASE
  2

  9
$PUCSNAME
  2

  9
$PUCSORG
 10
0.0
 20
0.0
 30
0.0
  9
$PUCSXDIR
 10
1.0
 20
0.0
 30
0.0
  9
$PUCSYDIR
 10
0.0
 20
1.0
 30
0.0
  9
$PUCSORTHOREF
  2

  9
$PUCSORTHOVIEW
 70
     0
  9
$PUCSORGTOP
 10
0.0
 20
0.0
 30
0.0
  9
$PUCSORGBOTTOM
 10
0.0
 20
0.0
 30
0.0
  9
$PUCSORGLEFT
 10
0.0
 20
0.0
 30
0.0
  9
$PUCSORGRIGHT
 10
0.0
 20
0.0
 30
0.0
  9
$PUCSORGFRONT
 10
0.0
 20
0.0
 30
0.0
  9
$PUCSORGBACK
 10
0.0
 20
0.0
 30
0.0
  9
$USERI1
 70
     0
  9
$USERI2
 70
     0
  9
$USERI3
 70
     0
  9
$USERI4
 70
     0
  9
$USERI5
 70
     0
  9
$USERR1
 40
0.0
  9
$USERR2
 40
0.0
  9
$USERR3
 40
0.0
  9
$USERR4
 40
0.0
  9
$USERR5
 40
0.0
  9
$WORLDVIEW
 70
     1
  9
$SHADEDGE
 70
     3
  9
$SHADEDIF
 70
    70
  9
$TILEMODE
 70
     1
  9
$MAXACTVP
 70
    64
  9
$PINSBASE
 10
0.0
 20
0.0
 30
0.0
  9
$PLIMCHECK
 70
     0
  9
$PEXTMIN
 10
0.0
 20
0.0
 30
0.0
  9
$PEXTMAX
 10
420.4999999999999
 20
594.5
 30
0.0
  9
$PLIMMIN
 10
0.0
 20
0.0
  9
$PLIMMAX
 10
420.4999999999999
 20
594.5
  9
$UNITMODE
 70
     0
  9
$VISRETAIN
 70
     1
  9
$PLINEGEN
 70
     0
  9
$PSLTSCALE
 70
     1
  9
$TREEDEPTH
 70
  3020
  9
$CMLSTYLE
  2
Standard
  9
$CMLJUST
 70
     0
  9
$CMLSCALE
 40
1.0
  9
$PROXYGRAPHICS
 70
     1
  9
$MEASUREMENT
 70
     1
  9
$CELWEIGHT
370
    -1
  9
$ENDCAPS
280
     0
  9
$JOINSTYLE
280
     0
  9
$LWDISPLAY
290
     0
  9
$INSUNITS
 70
     4
  9
$HYPERLINKBASE
  1

  9
$STYLESHEET
  1

  9
$XEDIT
290
     1
  9
$CEPSNTYPE
380
     0
  9
$PSTYLEMODE
290
     1
  9
$FINGERPRINTGUID
  2
{C74C7571-7FD1-4378-9711-8297487FC343}
  9
$VERSIONGUID
  2
{54B77675-C876-4DB7-958D-398FAC760D2E}
  9
$EXTNAMES
290
     1
  9
$PSVPSCALE
 40
0.0
  9
$OLESTARTUP
290
     0
  9
$SORTENTS
280
   127
  9
$INDEXCTL
280
     0
  9
$HIDETEXT
280
     1
  9
$XCLIPFRAME
290
     0
  9
$HALOGAP
280
     0
  9
$OBSCOLOR
 70
   257
  9
$OBSLTYPE
280
     0
  9
$INTERSECTIONDISPLAY
280
     0
  9
$INTERSECTIONCOLOR
 70
   257
  9
$DIMASSOC
280
     1
  9
$PROJECTNAME
  1

  0
ENDSEC
  0
SECTION
  2
CLASSES
  0
CLASS
  1
ACDBDICTIONARYWDFLT
  2
AcDbDictionaryWithDefault
  3
ObjectDBX Classes
 90
        0
 91
        1
280
     0
281
     0
  0
CLASS
  1
MATERIAL
  2
AcDbMaterial
  3
ObjectDBX Classes
 90
     1153
 91
        3
280
     0
281
     0
  0
CLASS
  1
VISUALSTYLE
  2
AcDbVisualStyle
  3
ObjectDBX Classes
 90
     4095
 91
       24
280
     0
281
     0
  0
CLASS
  1
SCALE
  2
AcDbScale
  3
ObjectDBX Classes
 90
     1153
 91
       17
280
     0
281
     0
  0
CLASS
  1
TABLESTYLE
  2
AcDbTableStyle
  3
ObjectDBX Classes
 90
     4095
 91
        1
280
     0
281
     0
  0
CLASS
  1
MLEADERSTYLE
  2
AcDbMLeaderStyle
  3
ACDB_MLEADERSTYLE_CLASS
 90
     4095
 91
        1
280
     0
281
     0
  0
CLASS
  1
DICTIONARYVAR
  2
AcDbDictionaryVar
  3
ObjectDBX Classes
 90
        0
 91
        8
280
     0
281
     0
  0
CLASS
  1
CELLSTYLEMAP
  2
AcDbCellStyleMap
  3
ObjectDBX Classes
 90
     1152
 91
        1
280
     0
281
     0
  0
ENDSEC
  0
SECTION
  2
TABLES
  0
TABLE
  2
VPORT
  5
8
330
0
100
AcDbSymbolTable
 70
     1
  0
VPORT
  5
57
330
8
100
AcDbSymbolTableRecord
100
AcDbViewportTableRecord
  2
*Active
 70
     0
 10
0.0
 20
0.0
 11
1.0
 21
1.0
 12
210.25
 22
297.25
 13
0.0
 23
0.0
 14
1.0
 24
1.0
 15
0.0
 25
0.0
 16
0.0
 26
0.0
 36
1.0
 17
0.0
 27
0.0
 37
0.0
 40
594.5
 41
0.7073170731707316
 42
50.0
 43
0.0
 44
0.0
 50
0.0
 51
0.0
 71
     0
 72
   100
 73
     1
 74
     1
 75
     0
 76
     0
 77
     0
 78
     0
281
     0
 65
     1
110
0.0
120
0.0
130
0.0
111
1.0
121
0.0
131
0.0
112
0.0
122
1.0
132
0.0
 79
     0
146
0.0
  0
ENDTAB
  0
TABLE
  2
LTYPE
  5
5
330
0
100
AcDbSymbolTable
 70
     1
  0
LTYPE
  5
5B
330
5
100
AcDbSymbolTableRecord
100
AcDbLinetypeTableRecord
  2
ByBlock
 70
     0
  3

 72
    65
 73
     0
 40
0.0
  0
LTYPE
  5
5C
330
5
100
AcDbSymbolTableRecord
100
AcDbLinetypeTableRecord
  2
ByLayer
 70
     0
  3

 72
    65
 73
     0
 40
0.0
  0
LTYPE
  5
5D
330
5
100
AcDbSymbolTableRecord
100
AcDbLinetypeTableRecord
  2
Continuous
 70
     0
  3
Solid line
 72
    65
 73
     0
 40
0.0
  0
ENDTAB
  0
TABLE
  2
LAYER
  5
2
330
0
100
AcDbSymbolTable
 70
    30
  0
LAYER
  5
54
330
2
100
AcDbSymbolTableRecord
100
AcDbLayerTableRecord
  2
0
 70
     0
 62
     7
  6
Continuous
370
    -3
390
F
  0
LAYER
  5
78
330
2
100
AcDbSymbolTableRecord
100
AcDbLayerTableRecord
  2
Geometrie náčrtu (ISO)
 70
     0
 62
     7
  6
Continuous
370
     9
390
F
  0
LAYER
  5
7A
330
2
100
AcDbSymbolTableRecord
100
AcDbLayerTableRecord
  2
Kóta (ISO)
 70
     0
 62
     5
420
      255
  6
Continuous
370
     9
390
F
  0
LAYER
  5
7D
330
2
100
AcDbSymbolTableRecord
100
AcDbLayerTableRecord
  2
Osa (ISO)
 70
     0
 62
     1
420
 16711680
  6
Continuous
370
     9
390
F
  0
LAYER
  5
8D
330
2
100
AcDbSymbolTableRecord
100
AcDbLayerTableRecord
  2
Viditelná (ISO)
 70
     0
 62
     7
  6
Continuous
370
    35
390
F
  0
LAYER
  5
8E
330
2
100
AcDbSymbolTableRecord
100
AcDbLayerTableRecord
  2
Viditelná tenká (ISO)
 70
     0
 62
     7
  6
Continuous
370
     9
390
F
  0
LAYER
  5
8F
330
2
100
AcDbSymbolTableRecord
100
AcDbLayerTableRecord
  2
Značka (ISO)
 70
     0
 62
     5
420
      255
  6
Continuous
370
     9
390
F
  0
LAYER
  5
245
330
2
100
AcDbSymbolTableRecord
100
AcDbLayerTableRecord
  2
Defpoints
 70
     0
 62
     7
  6
Continuous
290
     0
370
    -3
390
F
  0
ENDTAB
  0
TABLE
  2
STYLE
  5
3
330
0
100
AcDbSymbolTable
 70
    10
  0
STYLE
  5
55
330
3
100
AcDbSymbolTableRecord
100
AcDbTextStyleTableRecord
  2
Standard
 70
     0
 40
0.0
 41
1.0
 50
0.0
 71
     0
 42
0.2
  3
tahoma.ttf
  4

1001
ACAD
1000
Tahoma
1071
      256
  0
STYLE
  5
5A
330
3
100
AcDbSymbolTableRecord
100
AcDbTextStyleTableRecord
  2
Annotative
 70
     0
 40
0.0
 41
1.0
 50
0.0
 71
     0
 42
0.2
  3
txt
  4

1001
AcadAnnotative
1000
AnnotativeData
1002
{
1070
     1
1070
     1
1002
}
  0
STYLE
  5
90
330
3
100
AcDbSymbolTableRecord
100
AcDbTextStyleTableRecord
  2
ITALICC8_57
 70
     0
 40
0.0
 41
1.0
 50
0.0
 71
     0
 42
0.2
  3
tahoma.ttf
  4

1001
ACAD
1000
Tahoma
1071
      256
  0
STYLE
  5
91
330
3
100
AcDbSymbolTableRecord
100
AcDbTextStyleTableRecord
  2
kusovnik
 70
     0
 40
0.0
 41
1.0
 50
0.0
 71
     0
 42
0.2
  3
arial.ttf
  4

1001
ACAD
1000
Arial
1071
      256
  0
STYLE
  5
92
330
3
100
AcDbSymbolTableRecord
100
AcDbTextStyleTableRecord
  2
ROMANS8_69
 70
     0
 40
0.0
 41
1.0
 50
0.0
 71
     0
 42
0.2
  3
tahoma.ttf
  4

1001
ACAD
1000
Tahoma
1071
      256
  0
STYLE
  5
93
330
3
100
AcDbSymbolTableRecord
100
AcDbTextStyleTableRecord
  2
Text popisu (ISO)
 70
     0
 40
0.0
 41
1.0
 50
0.0
 71
     0
 42
0.2
  3
tahoma.ttf
  4

1001
ACAD
1000
Tahoma
1071
      256
  0
STYLE
  5
94
330
3
100
AcDbSymbolTableRecord
100
AcDbTextStyleTableRecord
  2
Text poznámky (DIN)
 70
     0
 40
0.0
 41
1.0
 50
0.0
 71
     0
 42
0.2
  3
isocpeur.ttf
  4

1001
ACAD
1000
ISOCPEUR
1071
      256
  0
STYLE
  5
95
330
3
100
AcDbSymbolTableRecord
100
AcDbTextStyleTableRecord
  2
Text poznámky (ISO)
 70
     0
 40
0.0
 41
1.0
 50
0.0
 71
     0
 42
0.2
  3
tahoma.ttf
  4

1001
ACAD
1000
Tahoma
1071
      256
  0
STYLE
  5
96
330
3
100
AcDbSymbolTableRecord
100
AcDbTextStyleTableRecord
  2
TEXT20_41
 70
     0
 40
0.0
 41
1.0
 50
0.0
 71
     0
 42
0.2
  3
tahoma.ttf
  4

1001
ACAD
1000
Tahoma
1071
      256
  0
STYLE
  5
97
330
3
100
AcDbSymbolTableRecord
100
AcDbTextStyleTableRecord
  2
TEXT20_59
 70
     0
 40
0.0
 41
1.0
 50
0.0
 71
     0
 42
0.2
  3
tahoma.ttf
  4

1001
ACAD
1000
Tahoma
1071
      256
  0
ENDTAB
  0
TABLE
  2
VIEW
  5
6
330
0
100
AcDbSymbolTable
 70
     0
  0
ENDTAB
  0
TABLE
  2
UCS
  5
7
330
0
100
AcDbSymbolTable
 70
     0
  0
ENDTAB
  0
TABLE
  2
APPID
  5
9
330
0
100
AcDbSymbolTable
 70
     3
  0
APPID
  5
56
330
9
100
AcDbSymbolTableRecord
100
AcDbRegAppTableRecord
  2
ACAD
 70
     0
  0
APPID
  5
5E
330
9
100
AcDbSymbolTableRecord
100
AcDbRegAppTableRecord
  2
AcadAnnotative
 70
     0
  0
APPID
  5
793
330
9
100
AcDbSymbolTableRecord
100
AcDbRegAppTableRecord
  2
ACAD_MLEADERVER
 70
     0
  0
ENDTAB
  0
TABLE
  2
DIMSTYLE
  5
A
330
0
100
AcDbSymbolTable
 70
    19
100
AcDbDimStyleTable
 71
     3
340
A7
340
58
340
A9
  0
DIMSTYLE
105
58
330
A
100
AcDbSymbolTableRecord
100
AcDbDimStyleTableRecord
  2
Standard
 70
     0
340
55
  0
DIMSTYLE
105
59
330
A
100
AcDbSymbolTableRecord
100
AcDbDimStyleTableRecord
  2
Annotative
 70
     0
340
55
1001
AcadAnnotative
1000
AnnotativeData
1002
{
1070
     1
1070
     1
1002
}
  0
DIMSTYLE
105
A7
102
{ACAD_REACTORS
330
321
330
3F7
330
4CE
330
5A4
330
67A
102
}
330
A
100
AcDbSymbolTableRecord
100
AcDbDimStyleTableRecord
  2
Kopie z Různé objekty (ISO)
 70
     0
 40
0.5
 41
2.5
 42
0.0
 43
5.999999999999999
 44
1.0
 45
0.00000001
 46
10.0
 73
     0
 74
     0
 77
     1
 78
     8
 79
     2
140
10.0
143
0.03937
147
0.762
171
     3
172
     1
176
   256
177
   256
178
   256
179
     2
271
     2
272
     2
274
     3
278
    44
284
     8
340
93
341
98
371
    -1
372
    -1
  0
DIMSTYLE
105
A8
330
A
100
AcDbSymbolTableRecord
100
AcDbDimStyleTableRecord
  2
Kopie z Různé objekty (ISO)$7
 70
     0
 40
0.5
 41
5.0
 42
0.0
 43
5.999999999999999
 44
1.0
 45
0.00000001
 46
10.0
 73
     0
 74
     0
 77
     1
 78
     8
 79
     2
140
10.0
143
0.03937
147
0.762
171
     3
172
     1
176
   256
177
   256
178
   256
179
     2
271
     2
272
     2
274
     3
278
    44
284
     8
340
93
341
98
371
    25
372
    -1
  0
DIMSTYLE
105
A9
102
{ACAD_REACTORS
330
244
102
}
330
A
100
AcDbSymbolTableRecord
100
AcDbDimStyleTableRecord
  2
Různé objekty (ISO)
 70
     0
 40
0.5
 41
2.5
 42
0.0
 43
5.999999999999999
 44
1.0
 45
0.00000001
 46
10.0
 73
     0
 74
     0
 77
     1
 78
     8
 79
     2
140
10.0
143
0.03937
146
0.3505200147628784
147
0.762
171
     3
172
     1
176
   256
177
   256
178
   256
179
     2
271
     2
272
     2
274
     3
278
    44
284
     8
340
93
341
98
371
    -1
372
    -1
  0
DIMSTYLE
105
AA
330
A
100
AcDbSymbolTableRecord
100
AcDbDimStyleTableRecord
  2
Různé objekty (ISO)$7
 70
     0
 40
0.5
 41
5.0
 42
0.0
 43
5.999999999999999
 44
1.0
 45
0.00000001
 46
10.0
 73
     0
 74
     0
 77
     1
 78
     8
 79
     2
140
10.0
143
0.03937
146
0.3505200147628784
147
0.762
171
     3
172
     1
176
   256
177
   256
178
   256
179
     2
271
     2
272
     2
274
     3
278
    44
284
     8
340
93
341
98
371
    25
372
    -1
  0
DIMSTYLE
105
AB
330
A
100
AcDbSymbolTableRecord
100
AcDbDimStyleTableRecord
  2
Výchozí - Metoda 1b (ISO)
 70
     0
 40
0.5
 41
2.5
 42
0.0
 43
5.999999999999999
 44
1.0
 45
0.00000001
 46
10.0
 73
     0
 77
     1
 78
     8
 79
     2
140
3.5
143
0.03937
147
0.762
171
     3
172
     1
176
   256
177
   256
178
   256
179
     2
271
     2
272
     2
274
     3
278
    44
284
     8
286
     8
340
95
371
    -1
372
    -1
  0
DIMSTYLE
105
AC
330
A
100
AcDbSymbolTableRecord
100
AcDbDimStyleTableRecord
  2
Výchozí - Metoda 1b (ISO)$7
 70
     0
 40
0.5
 41
2.5
 42
0.0
 43
5.999999999999999
 44
1.0
 45
0.00000001
 46
10.0
 73
     0
 77
     1
 78
     8
 79
     2
140
3.5
143
0.03937
147
0.762
171
     3
172
     1
176
   256
177
   256
178
   256
179
     2
271
     2
272
     2
274
     3
278
    44
284
     8
286
     8
340
95
371
    -1
372
    -1
  0
DIMSTYLE
105
AD
330
A
100
AcDbSymbolTableRecord
100
AcDbDimStyleTableRecord
  2
Výchozí - Metoda 2a (ISO)
 70
     0
 40
0.5
 41
2.5
 42
0.0
 43
5.999999999999999
 44
1.0
 45
0.00000001
 46
10.0
 77
     1
 78
     8
 79
     2
140
3.5
143
0.03937
147
0.762
171
     3
172
     1
176
   256
177
   256
178
   256
179
     2
271
     2
272
     2
274
     3
278
    44
284
     8
286
     8
340
95
371
    -1
372
    -1
  0
DIMSTYLE
105
AE
330
A
100
AcDbSymbolTableRecord
100
AcDbDimStyleTableRecord
  2
Výchozí - Metoda 2a (ISO)$7
 70
     0
 40
0.5
 41
2.5
 42
0.0
 43
5.999999999999999
 44
1.0
 45
0.00000001
 46
10.0
 77
     1
 78
     8
 79
     2
140
3.5
143
0.03937
147
0.762
171
     3
172
     1
176
   256
177
   256
178
   256
179
     2
271
     2
272
     2
274
     3
278
    44
284
     8
286
     8
340
95
371
    -1
372
    -1
  0
DIMSTYLE
105
AF
330
A
100
AcDbSymbolTableRecord
100
AcDbDimStyleTableRecord
  2
Výchozí - Metoda 2b (ISO)
 70
     0
 40
0.5
 41
2.5
 42
0.0
 43
5.999999999999999
 44
1.0
 45
0.00000001
 46
10.0
 77
     1
 78
     8
 79
     2
140
3.5
143
0.03937
147
0.762
171
     3
172
     1
176
   256
177
   256
178
   256
179
     2
271
     2
272
     2
274
     3
278
    44
284
     8
286
     8
340
95
371
    -1
372
    -1
  0
DIMSTYLE
105
B0
330
A
100
AcDbSymbolTableRecord
100
AcDbDimStyleTableRecord
  2
Výchozí - Metoda 2b (ISO)$7
 70
     0
 40
0.5
 41
2.5
 42
0.0
 43
5.999999999999999
 44
1.0
 45
0.00000001
 46
10.0
 77
     1
 78
     8
 79
     2
140
3.5
143
0.03937
147
0.762
171
     3
172
     1
176
   256
177
   256
178
   256
179
     2
271
     2
272
     2
274
     3
278
    44
284
     8
286
     8
340
95
371
    -1
372
    -1
  0
DIMSTYLE
105
B1
330
A
100
AcDbSymbolTableRecord
100
AcDbDimStyleTableRecord
  2
Výchozí - mm [palce] (ISO)
 70
     0
  4
 in
 40
0.5
 41
2.5
 42
0.0
 43
5.999999999999999
 44
3.174999999999999
 45
0.00000001
 46
10.0
 73
     0
 74
     0
 77
     1
 78
     8
 79
     2
140
3.5
143
0.03937
147
0.762
170
     1
171
     3
172
     1
176
   256
177
   256
178
   256
179
     3
271
     3
272
     2
274
     3
275
     1
278
    44
284
     8
285
     8
286
     8
340
95
371
    -1
372
    -1
  0
DIMSTYLE
105
B2
330
A
100
AcDbSymbolTableRecord
100
AcDbDimStyleTableRecord
  2
Výchozí - mm [palce] (ISO)$7
 70
     0
  4
 in
 40
0.5
 41
2.5
 42
0.0
 43
5.999999999999999
 44
3.174999999999999
 45
0.00000001
 46
10.0
 73
     0
 74
     0
 77
     1
 78
     8
 79
     2
140
3.5
143
0.03937
147
0.762
170
     1
171
     3
172
     1
176
   256
177
   256
178
   256
179
     3
271
     3
272
     2
274
     3
275
     1
278
    44
284
     8
285
     8
286
     8
340
95
371
    -1
372
    -1
  0
DIMSTYLE
105
B3
330
A
100
AcDbSymbolTableRecord
100
AcDbDimStyleTableRecord
  2
Výchozí (ISO)
 70
     0
 40
0.5
 41
3.5
 42
0.0
 43
5.999999999999999
 44
1.499999999999999
 45
0.00000001
 46
10.0
 73
     0
 74
     0
 77
     1
 78
     8
 79
     2
140
3.5
143
0.03937
146
1.001485705375671
147
1.0
171
     3
172
     1
176
   256
177
   256
178
   256
179
     2
271
     2
272
     2
274
     3
278
    44
284
     8
340
95
371
    -1
372
    -1
  0
DIMSTYLE
105
B4
330
A
100
AcDbSymbolTableRecord
100
AcDbDimStyleTableRecord
  2
Výchozí (ISO)$7
 70
     0
 40
0.5
 41
2.5
 42
0.0
 43
5.999999999999999
 44
1.499999999999999
 45
0.00000001
 46
10.0
 73
     0
 74
     0
 77
     1
 78
     8
 79
     2
140
3.5
143
0.03937
146
1.001485705375671
147
1.0
171
     3
172
     1
176
   256
177
   256
178
   256
179
     2
271
     2
272
     2
274
     3
278
    44
284
     8
340
95
371
    -1
372
    -1
  0
DIMSTYLE
105
B5
330
A
100
AcDbSymbolTableRecord
100
AcDbDimStyleTableRecord
  2
Alternativní (ANSI)
 70
     0
 40
0.5
 41
2.489200115203857
340
55
342
B6
  0
DIMSTYLE
105
BD
330
A
100
AcDbSymbolTableRecord
100
AcDbDimStyleTableRecord
  2
Alternativní (ISO)
 70
     0
 40
0.5
 41
2.5
340
55
342
B6
  0
DIMSTYLE
105
C8
330
A
100
AcDbSymbolTableRecord
100
AcDbDimStyleTableRecord
  2
Základny (ISO)
 70
     0
 40
0.5
 41
2.5
340
55
342
B6
  0
ENDTAB
  0
TABLE
  2
BLOCK_RECORD
  5
1
330
0
100
AcDbSymbolTable
 70
    35
  0
BLOCK_RECORD
  5
6C
330
1
100
AcDbSymbolTableRecord
100
AcDbBlockTableRecord
  2
*Model_Space
340
6F
  0
BLOCK_RECORD
  5
68
330
1
100
AcDbSymbolTableRecord
100
AcDbBlockTableRecord
  2
*Paper_Space
340
6B
  0
BLOCK_RECORD
  5
70
330
1
100
AcDbSymbolTableRecord
100
AcDbBlockTableRecord
  2
*Paper_Space0
340
73
  0
BLOCK_RECORD
  5
98
330
1
100
AcDbSymbolTableRecord
100
AcDbBlockTableRecord
  2
Filled-1
340
0
  0
BLOCK_RECORD
  5
B6
330
1
100
AcDbSymbolTableRecord
100
AcDbBlockTableRecord
  2
_Closed
340
0
  0
BLOCK_RECORD
  5
BE
330
1
100
AcDbSymbolTableRecord
100
AcDbBlockTableRecord
  2
DatumFilled45
340
0
  0
BLOCK_RECORD
  5
C9
330
1
100
AcDbSymbolTableRecord
100
AcDbBlockTableRecord
  2
WIG-svařování DE
340
0
  0
BLOCK_RECORD
  5
CE
330
1
100
AcDbSymbolTableRecord
100
AcDbBlockTableRecord
  2
WIG-svařování EN
340
0
  0
BLOCK_RECORD
  5
D2
330
1
100
AcDbSymbolTableRecord
100
AcDbBlockTableRecord
  2
Popis kotvy_srouby DE
340
0
  0
BLOCK_RECORD
  5
D6
330
1
100
AcDbSymbolTableRecord
100
AcDbBlockTableRecord
  2
Popis kotvy_ šrouby EN
340
0
  0
BLOCK_RECORD
  5
DA
330
1
100
AcDbSymbolTableRecord
100
AcDbBlockTableRecord
  2
Tryskat DE
340
0
  0
BLOCK_RECORD
  5
DE
330
1
100
AcDbSymbolTableRecord
100
AcDbBlockTableRecord
  2
Tryskat EN
340
0
  0
BLOCK_RECORD
  5
E2
330
1
100
AcDbSymbolTableRecord
100
AcDbBlockTableRecord
  2
Mořit a pasivovat DE
340
0
  0
BLOCK_RECORD
  5
E6
330
1
100
AcDbSymbolTableRecord
100
AcDbBlockTableRecord
  2
Mořit a pasivovat EN
340
0
  0
BLOCK_RECORD
  5
EA
330
1
100
AcDbSymbolTableRecord
100
AcDbBlockTableRecord
  2
Žárově zinkovat DE
340
0
  0
BLOCK_RECORD
  5
EE
330
1
100
AcDbSymbolTableRecord
100
AcDbBlockTableRecord
  2
Žárově zinkovat EN
340
0
  0
BLOCK_RECORD
  5
F2
330
1
100
AcDbSymbolTableRecord
100
AcDbBlockTableRecord
  2
Brousit DE
340
0
  0
BLOCK_RECORD
  5
F6
330
1
100
AcDbSymbolTableRecord
100
AcDbBlockTableRecord
  2
Brousit EN
340
0
  0
BLOCK_RECORD
  5
FA
330
1
100
AcDbSymbolTableRecord
100
AcDbBlockTableRecord
  2
Elektrolyticky leštit DE
340
0
  0
BLOCK_RECORD
  5
FE
330
1
100
AcDbSymbolTableRecord
100
AcDbBlockTableRecord
  2
Elektrolyticky leštit EN
340
0
  0
BLOCK_RECORD
  5
102
330
1
100
AcDbSymbolTableRecord
100
AcDbBlockTableRecord
  2
Žlab bez spádu DE
340
0
  0
BLOCK_RECORD
  5
106
330
1
100
AcDbSymbolTableRecord
100
AcDbBlockTableRecord
  2
Žlab bez spádu EN
340
0
  0
BLOCK_RECORD
  5
10A
330
1
100
AcDbSymbolTableRecord
100
AcDbBlockTableRecord
  2
Spád žlabu DE
340
0
  0
BLOCK_RECORD
  5
10E
330
1
100
AcDbSymbolTableRecord
100
AcDbBlockTableRecord
  2
Spád žlabu EN
340
0
  0
BLOCK_RECORD
  5
112
330
1
100
AcDbSymbolTableRecord
100
AcDbBlockTableRecord
  2
Kartáč + fólie DE
340
0
  0
BLOCK_RECORD
  5
116
330
1
100
AcDbSymbolTableRecord
100
AcDbBlockTableRecord
  2
Kartáč + fólie EN
340
0
  0
BLOCK_RECORD
  5
11A
330
1
100
AcDbSymbolTableRecord
100
AcDbBlockTableRecord
  2
Komplet tryskat DE
340
0
  0
BLOCK_RECORD
  5
11E
330
1
100
AcDbSymbolTableRecord
100
AcDbBlockTableRecord
  2
Aschl Nirotec-tryskání
340
0
  0
BLOCK_RECORD
  5
122
330
1
100
AcDbSymbolTableRecord
100
AcDbBlockTableRecord
  2
Mater. provedeni Art.
340
0
  0
BLOCK_RECORD
  5
144
330
1
100
AcDbSymbolTableRecord
100
AcDbBlockTableRecord
  2
Art. s popisy
340
0
  0
BLOCK_RECORD
  5
166
330
1
100
AcDbSymbolTableRecord
100
AcDbBlockTableRecord
  2
Nátěr
340
0
  0
BLOCK_RECORD
  5
246
330
1
100
AcDbSymbolTableRecord
100
AcDbBlockTableRecord
  2
*D29
340
0
  0
BLOCK_RECORD
  5
322
330
1
100
AcDbSymbolTableRecord
100
AcDbBlockTableRecord
  2
*D30
340
0
  0
BLOCK_RECORD
  5
3F8
330
1
100
AcDbSymbolTableRecord
100
AcDbBlockTableRecord
  2
*D31
340
0
  0
BLOCK_RECORD
  5
4CF
330
1
100
AcDbSymbolTableRecord
100
AcDbBlockTableRecord
  2
*D32
340
0
  0
BLOCK_RECORD
  5
5A5
330
1
100
AcDbSymbolTableRecord
100
AcDbBlockTableRecord
  2
*D33
340
0
  0
BLOCK_RECORD
  5
67B
330
1
100
AcDbSymbolTableRecord
100
AcDbBlockTableRecord
  2
*D34
340
0
  0
ENDTAB
  0
ENDSEC
  0
SECTION
  2
BLOCKS
  0
BLOCK
  5
6D
330
6C
100
AcDbEntity
  8
0
100
AcDbBlockBegin
  2
*Model_Space
 70
     0
 10
0.0
 20
0.0
 30
0.0
  3
*Model_Space
  1

  0
ENDBLK
  5
6E
330
6C
100
AcDbEntity
  8
0
100
AcDbBlockEnd
  0
BLOCK
  5
69
330
68
100
AcDbEntity
 67
     1
  8
0
100
AcDbBlockBegin
  2
*Paper_Space
 70
     0
 10
0.0
 20
0.0
 30
0.0
  3
*Paper_Space
  1

  0
ENDBLK
  5
6A
330
68
100
AcDbEntity
 67
     1
  8
0
100
AcDbBlockEnd
  0
BLOCK
  5
71
330
70
100
AcDbEntity
 67
     1
  8
0
100
AcDbBlockBegin
  2
*Paper_Space0
 70
     0
 10
0.0
 20
0.0
 30
0.0
  3
*Paper_Space0
  1

  0
ENDBLK
  5
72
330
70
100
AcDbEntity
 67
     1
  8
0
100
AcDbBlockEnd
  0
BLOCK
  5
99
330
98
100
AcDbEntity
  8
0
100
AcDbBlockBegin
  2
Filled-1
 70
     0
 10
0.0
 20
0.0
 30
0.0
  3
Filled-1
  1

  0
LINE
  5
9B
330
98
100
AcDbEntity
  8
0
 62
     0
100
AcDbLine
 10
-1.0
 20
0.0
 30
0.0
 11
0.0
 21
0.0
 31
0.0
  0
POLYLINE
  5
9D
330
98
100
AcDbEntity
  8
0
 62
     0
100
AcDb2dPolyline
 66
     1
 10
0.0
 20
0.0
 30
0.0
 70
   128
  0
VERTEX
  5
9E
330
9D
100
AcDbEntity
  8
0
 62
     0
100
AcDbVertex
100
AcDb2dVertex
 10
-1.0
 20
-0.1
 30
0.0
  0
VERTEX
  5
9F
330
9D
100
AcDbEntity
  8
0
 62
     0
100
AcDbVertex
100
AcDb2dVertex
 10
0.0
 20
0.0
 30
0.0
  0
VERTEX
  5
A1
330
9D
100
AcDbEntity
  8
0
 62
     0
100
AcDbVertex
100
AcDb2dVertex
 10
-1.0
 20
0.1
 30
0.0
  0
VERTEX
  5
A2
330
9D
100
AcDbEntity
  8
0
 62
     0
100
AcDbVertex
100
AcDb2dVertex
 10
-1.0
 20
-0.1
 30
0.0
  0
SEQEND
  5
A0
330
9D
100
AcDbEntity
  8
0
 62
     0
  0
SOLID
  5
A3
330
98
100
AcDbEntity
  8
0
 62
     0
100
AcDbTrace
 10
-1.0
 20
-0.1
 30
0.0
 11
0.0
 21
0.0
 31
0.0
 12
-1.0
 22
0.1
 32
0.0
 13
-1.0
 23
-0.1
 33
0.0
  0
LINE
  5
A4
330
98
100
AcDbEntity
  8
0
 62
     0
100
AcDbLine
 10
-1.0
 20
-0.1
 30
0.0
 11
0.0
 21
0.0
 31
0.0
  0
LINE
  5
A5
330
98
100
AcDbEntity
  8
0
 62
     0
100
AcDbLine
 10
0.0
 20
0.0
 30
0.0
 11
-1.0
 21
0.1
 31
0.0
  0
LINE
  5
A6
330
98
100
AcDbEntity
  8
0
 62
     0
100
AcDbLine
 10
-1.0
 20
0.1
 30
0.0
 11
-1.0
 21
-0.1
 31
0.0
  0
ENDBLK
  5
9A
330
98
100
AcDbEntity
  8
0
100
AcDbBlockEnd
  0
BLOCK
  5
BB
330
B6
100
AcDbEntity
  8
0
100
AcDbBlockBegin
  2
_Closed
 70
     0
 10
0.0
 20
0.0
 30
0.0
  3
_Closed
  1

  0
LINE
  5
B7
330
B6
100
AcDbEntity
  8
0
  6
ByBlock
 62
     0
370
    -2
100
AcDbLine
 10
-1.0
 20
0.1666666666666666
 30
0.0
 11
0.0
 21
0.0
 31
0.0
  0
LINE
  5
B8
330
B6
100
AcDbEntity
  8
0
  6
ByBlock
 62
     0
370
    -2
100
AcDbLine
 10
0.0
 20
0.0
 30
0.0
 11
-1.0
 21
-0.1666666666666666
 31
0.0
  0
LINE
  5
B9
330
B6
100
AcDbEntity
  8
0
  6
ByBlock
 62
     0
370
    -2
100
AcDbLine
 10
-1.0
 20
0.1666666666666666
 30
0.0
 11
-1.0
 21
-0.1666666666666666
 31
0.0
  0
LINE
  5
BA
330
B6
100
AcDbEntity
  8
0
  6
ByBlock
 62
     0
370
    -2
100
AcDbLine
 10
0.0
 20
0.0
 30
0.0
 11
-1.0
 21
0.0
 31
0.0
  0
ENDBLK
  5
BC
330
B6
100
AcDbEntity
  8
0
100
AcDbBlockEnd
  0
BLOCK
  5
BF
330
BE
100
AcDbEntity
  8
0
100
AcDbBlockBegin
  2
DatumFilled45
 70
     0
 10
0.0
 20
0.0
 30
0.0
  3
DatumFilled45
  1

  0
POLYLINE
  5
C1
330
BE
100
AcDbEntity
  8
0
 62
     0
100
AcDb2dPolyline
 66
     1
 10
0.0
 20
0.0
 30
0.0
 70
   128
  0
VERTEX
  5
C2
330
C1
100
AcDbEntity
  8
0
 62
     0
100
AcDbVertex
100
AcDb2dVertex
 10
0.0
 20
1.0
 30
0.0
  0
VERTEX
  5
C3
330
C1
100
AcDbEntity
  8
0
 62
     0
100
AcDbVertex
100
AcDb2dVertex
 10
0.0
 20
-1.0
 30
0.0
  0
VERTEX
  5
C5
330
C1
100
AcDbEntity
  8
0
 62
     0
100
AcDbVertex
100
AcDb2dVertex
 10
-1.0
 20
0.0
 30
0.0
  0
VERTEX
  5
C6
330
C1
100
AcDbEntity
  8
0
 62
     0
100
AcDbVertex
100
AcDb2dVertex
 10
0.0
 20
1.0
 30
0.0
  0
SEQEND
  5
C4
330
C1
100
AcDbEntity
  8
0
 62
     0
  0
SOLID
  5
C7
330
BE
100
AcDbEntity
  8
0
 62
     0
100
AcDbTrace
 10
0.0
 20
1.0
 30
0.0
 11
0.0
 21
-1.0
 31
0.0
 12
-1.0
 22
0.0
 32
0.0
 13
0.0
 23
1.0
 33
0.0
  0
ENDBLK
  5
C0
330
BE
100
AcDbEntity
  8
0
100
AcDbBlockEnd
  0
BLOCK
  5
CA
330
C9
100
AcDbEntity
  8
0
100
AcDbBlockBegin
  2
WIG-svařování DE
 70
     0
 10
0.0
 20
0.0
 30
0.0
  3
WIG-svařování DE
  1

  0
MTEXT
  5
CC
102
{ACAD_XDICTIONARY
360
794
102
}
330
C9
100
AcDbEntity
  8
Značka (ISO)
100
AcDbMText
 10
-57.87338256835937
 20
16.43318336457014
 30
0.0
 40
3.499999940395355
 41
115.7467651367187
 71
     1
 72
     1
  3
WIG sva\U+0159ov\U+00E1n\U+00ED- svary dle pot\U+0159eby zabrousit.\PPohledov\U+00E9 plochy brousit (vel. brusn\U+00FDch zrn 240)\Pa polepit p\U+00E1skou.\P\PWIG Schweisung, Nahte sauber geschliffen und poliert\PSichtstege geschliffen mit 240 Korn un
  1
d abgeklebt.
  7
Text poznámky (ISO)
 73
     2
 44
0.9878841638565063
  0
ENDBLK
  5
CB
330
C9
100
AcDbEntity
  8
0
100
AcDbBlockEnd
  0
BLOCK
  5
CF
330
CE
100
AcDbEntity
  8
0
100
AcDbBlockBegin
  2
WIG-svařování EN
 70
     0
 10
0.0
 20
0.0
 30
0.0
  3
WIG-svařování EN
  1

  0
MTEXT
  5
D1
102
{ACAD_XDICTIONARY
360
796
102
}
330
CE
100
AcDbEntity
  8
Značka (ISO)
100
AcDbMText
 10
-51.92564964294433
 20
16.42041999846697
 30
0.0
 40
3.499999940395355
 41
0.0
 71
     1
 72
     1
  1
WIG sva\U+0159ov\U+00E1n\U+00ED- svary dle pot\U+0159eby zabrousit.\PPohledov\U+00E9 plochy brousit (vel. brusn\U+00FDch zrn 240)\Pa polepit p\U+00E1skou.\P \PWIG welding - Visible sufaces to be grinded\Pand covered by protectiv foil.
  7
Text poznámky (ISO)
 73
     2
 44
0.9878841638565063
  0
ENDBLK
  5
D0
330
CE
100
AcDbEntity
  8
0
100
AcDbBlockEnd
  0
BLOCK
  5
D3
330
D2
100
AcDbEntity
  8
0
100
AcDbBlockBegin
  2
Popis kotvy_srouby DE
 70
     0
 10
0.0
 20
0.0
 30
0.0
  3
Popis kotvy_srouby DE
  1

  0
MTEXT
  5
D5
102
{ACAD_XDICTIONARY
360
798
102
}
330
D2
100
AcDbEntity
  8
Značka (ISO)
100
AcDbMText
 10
-39.79761123657226
 20
21.64559781551361
 30
0.0
 40
3.499999940395355
 41
0.0
 71
     1
 72
     1
  1
Vzd\U+00E1lenost nivel. \U+0161roub\U+016F ca. 1500\PVzd\U+00E1lenost kotev ca. 400\PVzd\U+00E1lenost dist. kol\U+00EDk\U+016F ca. 250\P \PAbstand der Nivellieschraben ca.1500\PAbstand der Maueranker ca.400\PAbstand der Distanzstege ca.250\P 
  7
Text poznámky (ISO)
 73
     2
 44
0.9878841638565063
  0
ENDBLK
  5
D4
330
D2
100
AcDbEntity
  8
0
100
AcDbBlockEnd
  0
BLOCK
  5
D7
330
D6
100
AcDbEntity
  8
0
100
AcDbBlockBegin
  2
Popis kotvy_ šrouby EN
 70
     0
 10
0.0
 20
0.0
 30
0.0
  3
Popis kotvy_ šrouby EN
  1

  0
MTEXT
  5
D9
102
{ACAD_XDICTIONARY
360
79A
102
}
330
D6
100
AcDbEntity
  8
Značka (ISO)
100
AcDbMText
 10
-35.70907592773437
 20
18.764269053936
 30
0.0
 40
3.499999940395355
 41
0.0
 71
     1
 72
     1
  1
Vzd\U+00E1lenost nivel. \U+0161roub\U+016F ca. 1500\PVzd\U+00E1lenost kotev ca. 400\P \PDistance of leveling feets ca.1500\PDistance of fixing tangs ca.400\P\P 
  7
Text poznámky (ISO)
 73
     2
 44
0.9878841638565063
  0
ENDBLK
  5
D8
330
D6
100
AcDbEntity
  8
0
100
AcDbBlockEnd
  0
BLOCK
  5
DB
330
DA
100
AcDbEntity
  8
0
100
AcDbBlockBegin
  2
Tryskat DE
 70
     0
 10
0.0
 20
0.0
 30
0.0
  3
Tryskat DE
  1

  0
MTEXT
  5
DD
330
DA
100
AcDbEntity
  8
Značka (ISO)
100
AcDbMText
 10
-18.86284470558166
 20
5.036920197308063
 30
0.0
 40
3.499999940395355
 41
0.0
 71
     1
 72
     1
  1
Tryskat \P(Glasperlstrahlen)
  7
Text poznámky (ISO)
 73
     2
 44
0.9878841638565063
  0
ENDBLK
  5
DC
330
DA
100
AcDbEntity
  8
0
100
AcDbBlockEnd
  0
BLOCK
  5
DF
330
DE
100
AcDbEntity
  8
0
100
AcDbBlockBegin
  2
Tryskat EN
 70
     0
 10
0.0
 20
0.0
 30
0.0
  3
Tryskat EN
  1

  0
MTEXT
  5
E1
330
DE
100
AcDbEntity
  8
Značka (ISO)
100
AcDbMText
 10
-9.551256299018859
 20
5.036920197308063
 30
0.0
 40
3.499999940395355
 41
0.0
 71
     1
 72
     1
  1
Tryskat\P(Blasted)
  7
Text poznámky (ISO)
 73
     2
 44
0.9878841638565063
  0
ENDBLK
  5
E0
330
DE
100
AcDbEntity
  8
0
100
AcDbBlockEnd
  0
BLOCK
  5
E3
330
E2
100
AcDbEntity
  8
0
100
AcDbBlockBegin
  2
Mořit a pasivovat DE
 70
     0
 10
0.0
 20
0.0
 30
0.0
  3
Mořit a pasivovat DE
  1

  0
MTEXT
  5
E5
102
{ACAD_XDICTIONARY
360
79C
102
}
330
E2
100
AcDbEntity
  8
Značka (ISO)
100
AcDbMText
 10
-27.84258604049683
 20
4.895104952156543
 30
0.0
 40
3.499999940395355
 41
0.0
 71
     1
 72
     1
  1
Mo\U+0159it a pasivovat\P(Gebeitzt und passivieren)
  7
Text poznámky (ISO)
 73
     2
 44
0.9878841638565063
  0
ENDBLK
  5
E4
330
E2
100
AcDbEntity
  8
0
100
AcDbBlockEnd
  0
BLOCK
  5
E7
330
E6
100
AcDbEntity
  8
0
100
AcDbBlockBegin
  2
Mořit a pasivovat EN
 70
     0
 10
0.0
 20
0.0
 30
0.0
  3
Mořit a pasivovat EN
  1

  0
MTEXT
  5
E9
102
{ACAD_XDICTIONARY
360
79E
102
}
330
E6
100
AcDbEntity
  8
Značka (ISO)
100
AcDbMText
 10
-24.44043874740601
 20
4.895104952156543
 30
0.0
 40
3.499999940395355
 41
0.0
 71
     1
 72
     1
  1
Mo\U+0159it a pasivovat\P(Pickled and passivate)
  7
Text poznámky (ISO)
 73
     2
 44
0.9878841638565063
  0
ENDBLK
  5
E8
330
E6
100
AcDbEntity
  8
0
100
AcDbBlockEnd
  0
BLOCK
  5
EB
330
EA
100
AcDbEntity
  8
0
100
AcDbBlockBegin
  2
Žárově zinkovat DE
 70
     0
 10
0.0
 20
0.0
 30
0.0
  3
Žárově zinkovat DE
  1

  0
MTEXT
  5
ED
102
{ACAD_XDICTIONARY
360
7A0
102
}
330
EA
100
AcDbEntity
  8
Značka (ISO)
100
AcDbMText
 10
-16.73277974128723
 20
4.456895925104618
 30
0.0
 40
3.499999940395355
 41
0.0
 71
     1
 72
     1
  1
\U+017D\U+00E1rov\U+011B zinkovat\P(Verzinkt )
  7
Text poznámky (ISO)
 73
     2
 44
0.9878841638565063
  0
ENDBLK
  5
EC
330
EA
100
AcDbEntity
  8
0
100
AcDbBlockEnd
  0
BLOCK
  5
EF
330
EE
100
AcDbEntity
  8
0
100
AcDbBlockBegin
  2
Žárově zinkovat EN
 70
     0
 10
0.0
 20
0.0
 30
0.0
  3
Žárově zinkovat EN
  1

  0
MTEXT
  5
F1
102
{ACAD_XDICTIONARY
360
7A2
102
}
330
EE
100
AcDbEntity
  8
Značka (ISO)
100
AcDbMText
 10
-20.24979829788208
 20
4.46965929120779
 30
0.0
 40
3.499999940395355
 41
0.0
 71
     1
 72
     1
  1
\U+017D\U+00E1rov\U+011B zinkovat\P(Hot-dip galvanize)
  7
Text poznámky (ISO)
 73
     2
 44
0.9878841638565063
  0
ENDBLK
  5
F0
330
EE
100
AcDbEntity
  8
0
100
AcDbBlockEnd
  0
BLOCK
  5
F3
330
F2
100
AcDbEntity
  8
0
100
AcDbBlockBegin
  2
Brousit DE
 70
     0
 10
0.0
 20
0.0
 30
0.0
  3
Brousit DE
  1

  0
MTEXT
  5
F5
330
F2
100
AcDbEntity
  8
Značka (ISO)
100
AcDbMText
 10
-12.2074556350708
 20
5.103573389351367
 30
0.0
 40
3.499999940395355
 41
0.0
 71
     1
 72
     1
  1
Brousit\P(Geburstet)
  7
Text poznámky (ISO)
 73
     2
 44
0.9878841638565063
  0
ENDBLK
  5
F4
330
F2
100
AcDbEntity
  8
0
100
AcDbBlockEnd
  0
BLOCK
  5
F7
330
F6
100
AcDbEntity
  8
0
100
AcDbBlockBegin
  2
Brousit EN
 70
     0
 10
0.0
 20
0.0
 30
0.0
  3
Brousit EN
  1

  0
MTEXT
  5
F9
330
F6
100
AcDbEntity
  8
Značka (ISO)
100
AcDbMText
 10
-10.48298239707946
 20
5.103573389351367
 30
0.0
 40
3.499999940395355
 41
0.0
 71
     1
 72
     1
  1
Brousit\P(Brushed)
  7
Text poznámky (ISO)
 73
     2
 44
0.9878841638565063
  0
ENDBLK
  5
F8
330
F6
100
AcDbEntity
  8
0
100
AcDbBlockEnd
  0
BLOCK
  5
FB
330
FA
100
AcDbEntity
  8
0
100
AcDbBlockBegin
  2
Elektrolyticky leštit DE
 70
     0
 10
0.0
 20
0.0
 30
0.0
  3
Elektrolyticky leštit DE
  1

  0
MTEXT
  5
FD
102
{ACAD_XDICTIONARY
360
7A4
102
}
330
FA
100
AcDbEntity
  8
Značka (ISO)
100
AcDbMText
 10
-16.43071413040161
 20
4.895104952156543
 30
0.0
 40
3.499999940395355
 41
0.0
 71
     1
 72
     1
  1
Elektrolyt. le\U+0161tit\P(Elektr. poliert)
  7
Text poznámky (ISO)
 73
     2
 44
0.9878841638565063
  0
ENDBLK
  5
FC
330
FA
100
AcDbEntity
  8
0
100
AcDbBlockEnd
  0
BLOCK
  5
FF
330
FE
100
AcDbEntity
  8
0
100
AcDbBlockBegin
  2
Elektrolyticky leštit EN
 70
     0
 10
0.0
 20
0.0
 30
0.0
  3
Elektrolyticky leštit EN
  1

  0
MTEXT
  5
101
102
{ACAD_XDICTIONARY
360
7A6
102
}
330
FE
100
AcDbEntity
  8
Značka (ISO)
100
AcDbMText
 10
-18.02329897880554
 20
4.895104952156543
 30
0.0
 40
3.499999940395355
 41
0.0
 71
     1
 72
     1
  1
Elektrolyt. le\U+0161tit\P(Electr. polished)
  7
Text poznámky (ISO)
 73
     2
 44
0.9878841638565063
  0
ENDBLK
  5
100
330
FE
100
AcDbEntity
  8
0
100
AcDbBlockEnd
  0
BLOCK
  5
103
330
102
100
AcDbEntity
  8
0
100
AcDbBlockBegin
  2
Žlab bez spádu DE
 70
     0
 10
0.0
 20
0.0
 30
0.0
  3
Žlab bez spádu DE
  1

  0
MTEXT
  5
105
102
{ACAD_XDICTIONARY
360
7A8
102
}
330
102
100
AcDbEntity
  8
Značka (ISO)
100
AcDbMText
 10
-20.81989526748657
 20
4.010177932213991
 30
0.0
 40
3.499999940395355
 41
0.0
 71
     1
 72
     1
  1
\U+017Dlab bez sp\U+00E1du!\PRinne ohne Gef\U+00E4lle!
  7
Text poznámky (ISO)
 73
     2
 44
0.9878841638565063
  0
ENDBLK
  5
104
330
102
100
AcDbEntity
  8
0
100
AcDbBlockEnd
  0
BLOCK
  5
107
330
106
100
AcDbEntity
  8
0
100
AcDbBlockBegin
  2
Žlab bez spádu EN
 70
     0
 10
0.0
 20
0.0
 30
0.0
  3
Žlab bez spádu EN
  1

  0
MTEXT
  5
109
102
{ACAD_XDICTIONARY
360
7AA
102
}
330
106
100
AcDbEntity
  8
Značka (ISO)
100
AcDbMText
 10
-24.31422233581541
 20
4.456895925104618
 30
0.0
 40
3.499999940395355
 41
0.0
 71
     1
 72
     1
  1
\U+017Dlab bez sp\U+00E1du!\PChannel without slope!
  7
Text poznámky (ISO)
 73
     2
 44
0.9878841638565063
  0
ENDBLK
  5
108
330
106
100
AcDbEntity
  8
0
100
AcDbBlockEnd
  0
BLOCK
  5
10B
330
10A
100
AcDbEntity
  8
0
100
AcDbBlockBegin
  2
Spád žlabu DE
 70
     0
 10
0.0
 20
0.0
 30
0.0
  3
Spád žlabu DE
  1

  0
MTEXT
  5
10D
102
{ACAD_XDICTIONARY
360
7AC
102
}
330
10A
100
AcDbEntity
  8
Značka (ISO)
100
AcDbMText
 10
-61.1847686767578
 20
16.61612506955862
 30
0.0
 40
3.499999940395355
 41
0.0
 71
     1
 72
     1
  1
POZOR:\PSp\U+00E1d \U+017Elabu je men\U+0161\U+00ED ne\U+017E 1% - nebezpe\U+010D\U+00ED vzniku prohlubn\U+00ED\Pse stojatou vodou.\PACHTUNG:\PDas Bodengef\U+00E4lle ist kleiner als 1%. Das Gefahr der\PSenkungsentstehung mit dem stehenden Wasser.
  7
Text poznámky (ISO)
 73
     2
 44
0.9878841638565063
  0
ENDBLK
  5
10C
330
10A
100
AcDbEntity
  8
0
100
AcDbBlockEnd
  0
BLOCK
  5
10F
330
10E
100
AcDbEntity
  8
0
100
AcDbBlockBegin
  2
Spád žlabu EN
 70
     0
 10
0.0
 20
0.0
 30
0.0
  3
Spád žlabu EN
  1

  0
MTEXT
  5
111
102
{ACAD_XDICTIONARY
360
7AE
102
}
330
10E
100
AcDbEntity
  8
Značka (ISO)
100
AcDbMText
 10
-61.1847686767578
 20
16.15664371056482
 30
0.0
 40
3.499999940395355
 41
0.0
 71
     1
 72
     1
  1
POZOR:\PSp\U+00E1d \U+017Elabu je men\U+0161\U+00ED ne\U+017E 1% - nebezpe\U+010D\U+00ED vzniku prohlubn\U+00ED\Pse stojatou vodou.\PAUTENTION:\PThe gradient of the bottom is minor then 1%.\PThat can be reason of slack water.
  7
Text poznámky (ISO)
 73
     2
 44
0.9878841638565063
  0
ENDBLK
  5
110
330
10E
100
AcDbEntity
  8
0
100
AcDbBlockEnd
  0
BLOCK
  5
113
330
112
100
AcDbEntity
  8
0
100
AcDbBlockBegin
  2
Kartáč + fólie DE
 70
     0
 10
0.0
 20
0.0
 30
0.0
  3
Kartáč + fólie DE
  1

  0
MTEXT
  5
115
102
{ACAD_XDICTIONARY
360
7B0
102
}
330
112
100
AcDbEntity
  8
Značka (ISO)
100
AcDbMText
 10
-39.86001014709473
 20
4.448386959265917
 30
0.0
 40
3.499999940395355
 41
0.0
 71
     1
 72
     1
  1
Kart\U+00E1\U+010Dov\U+00E1no + folie\PGeburstet mit abziehbarer Schutzfolie
  7
Text poznámky (ISO)
 73
     2
 44
0.9878841638565063
  0
ENDBLK
  5
114
330
112
100
AcDbEntity
  8
0
100
AcDbBlockEnd
  0
BLOCK
  5
117
330
116
100
AcDbEntity
  8
0
100
AcDbBlockBegin
  2
Kartáč + fólie EN
 70
     0
 10
0.0
 20
0.0
 30
0.0
  3
Kartáč + fólie EN
  1

  0
MTEXT
  5
119
102
{ACAD_XDICTIONARY
360
7B2
102
}
330
116
100
AcDbEntity
  8
Značka (ISO)
100
AcDbMText
 10
-21.56442403793335
 20
4.895104952156543
 30
0.0
 40
3.499999940395355
 41
0.0
 71
     1
 72
     1
  1
Kart\U+00E1\U+010Dov\U+00E1no + f\U+00F3lie.\P(Brushed and foils) 
  7
Text poznámky (ISO)
 73
     2
 44
0.9878841638565063
  0
ENDBLK
  5
118
330
116
100
AcDbEntity
  8
0
100
AcDbBlockEnd
  0
BLOCK
  5
11B
330
11A
100
AcDbEntity
  8
0
100
AcDbBlockBegin
  2
Komplet tryskat DE
 70
     0
 10
0.0
 20
0.0
 30
0.0
  3
Komplet tryskat DE
  1

  0
MTEXT
  5
11D
330
11A
100
AcDbEntity
  8
Značka (ISO)
100
AcDbMText
 10
-37.33711719512938
 20
7.475785464048385
 30
0.0
 40
3.499999940395355
 41
0.0
 71
     1
 72
     1
  1
KOMPLETT GLASPER GESTRAHLT !\PKOMPLET ZHORA TRYSKAT ! \P
  7
Text poznámky (ISO)
 73
     2
 44
0.9878841638565063
  0
ENDBLK
  5
11C
330
11A
100
AcDbEntity
  8
0
100
AcDbBlockEnd
  0
BLOCK
  5
11F
330
11E
100
AcDbEntity
  8
0
100
AcDbBlockBegin
  2
Aschl Nirotec-tryskání
 70
     0
 10
0.0
 20
0.0
 30
0.0
  3
Aschl Nirotec-tryskání
  1

  0
MTEXT
  5
121
102
{ACAD_XDICTIONARY
360
7B4
102
}
330
11E
100
AcDbEntity
  8
Značka (ISO)
100
AcDbMText
 10
-58.85332584381103
 20
10.67052584141493
 30
0.0
 40
3.499999940395355
 41
0.0
 71
     1
 72
     1
  1
Povrchov\U+00E1 \U+00FAprava/Oberfl\U+00E4che:\PTryskat pouze vnit\U+0159ek \U+017Elabu, v\U+010Detn\U+011B pohledov\U+00FDch ploch!\PP\U+0159\U+00EDruby proti trysk\U+00E1n\U+00ED chr\U+00E1nit!\PFlansches per strahlung beh\U+00FCtent!
  7
Text poznámky (ISO)
 73
     2
 44
0.9878841638565063
  0
ENDBLK
  5
120
330
11E
100
AcDbEntity
  8
0
100
AcDbBlockEnd
  0
BLOCK
  5
123
330
122
100
AcDbEntity
  8
0
100
AcDbBlockBegin
  2
Mater. provedeni Art.
 70
     0
 10
0.0
 20
0.0
 30
0.0
  3
Mater. provedeni Art.
  1

  0
LINE
  5
125
330
122
100
AcDbEntity
  8
Geometrie náčrtu (ISO)
100
AcDbLine
 10
-35.0
 20
-22.5
 30
0.0
 11
35.0
 21
-22.5
 31
0.0
  0
LINE
  5
126
330
122
100
AcDbEntity
  8
Geometrie náčrtu (ISO)
100
AcDbLine
 10
35.0
 20
-22.5
 30
0.0
 11
34.99999999999996
 21
-13.49999999999998
 31
0.0
  0
LINE
  5
127
330
122
100
AcDbEntity
  8
Geometrie náčrtu (ISO)
100
AcDbLine
 10
34.99999999999996
 20
-13.49999999999998
 30
0.0
 11
-35.00000000000003
 21
-13.49999999999998
 31
0.0
  0
LINE
  5
128
330
122
100
AcDbEntity
  8
Geometrie náčrtu (ISO)
100
AcDbLine
 10
-35.00000000000003
 20
-13.49999999999998
 30
0.0
 11
-35.0
 21
-22.5
 31
0.0
  0
LINE
  5
129
330
122
100
AcDbEntity
  8
Geometrie náčrtu (ISO)
100
AcDbLine
 10
-35.00000000000003
 20
-13.49999999999998
 30
0.0
 11
34.99999999999996
 21
-13.49999999999998
 31
0.0
  0
LINE
  5
12A
330
122
100
AcDbEntity
  8
Geometrie náčrtu (ISO)
100
AcDbLine
 10
34.99999999999996
 20
-13.49999999999998
 30
0.0
 11
34.99999999999996
 21
-4.499999999999992
 31
0.0
  0
LINE
  5
12B
330
122
100
AcDbEntity
  8
Geometrie náčrtu (ISO)
100
AcDbLine
 10
34.99999999999996
 20
-4.499999999999992
 30
0.0
 11
-35.00000000000003
 21
-4.499999999999992
 31
0.0
  0
LINE
  5
12C
330
122
100
AcDbEntity
  8
Geometrie náčrtu (ISO)
100
AcDbLine
 10
-35.00000000000003
 20
-4.499999999999992
 30
0.0
 11
-35.00000000000003
 21
-13.49999999999998
 31
0.0
  0
LINE
  5
12D
330
122
100
AcDbEntity
  8
Geometrie náčrtu (ISO)
100
AcDbLine
 10
-35.00000000000003
 20
-4.499999999999992
 30
0.0
 11
34.99999999999996
 21
-4.499999999999992
 31
0.0
  0
LINE
  5
12E
330
122
100
AcDbEntity
  8
Geometrie náčrtu (ISO)
100
AcDbLine
 10
34.99999999999996
 20
-4.499999999999992
 30
0.0
 11
34.99999999999996
 21
4.499999999999992
 31
0.0
  0
LINE
  5
12F
330
122
100
AcDbEntity
  8
Geometrie náčrtu (ISO)
100
AcDbLine
 10
34.99999999999996
 20
4.499999999999992
 30
0.0
 11
-35.00000000000003
 21
4.499999999999992
 31
0.0
  0
LINE
  5
130
330
122
100
AcDbEntity
  8
Geometrie náčrtu (ISO)
100
AcDbLine
 10
-35.00000000000003
 20
4.499999999999992
 30
0.0
 11
-35.00000000000003
 21
-4.499999999999992
 31
0.0
  0
LINE
  5
131
330
122
100
AcDbEntity
  8
Geometrie náčrtu (ISO)
100
AcDbLine
 10
-35.00000000000003
 20
4.499999999999992
 30
0.0
 11
34.99999999999996
 21
4.499999999999992
 31
0.0
  0
LINE
  5
132
330
122
100
AcDbEntity
  8
Geometrie náčrtu (ISO)
100
AcDbLine
 10
34.99999999999996
 20
4.499999999999992
 30
0.0
 11
34.99999999999996
 21
13.50000000000001
 31
0.0
  0
LINE
  5
133
330
122
100
AcDbEntity
  8
Geometrie náčrtu (ISO)
100
AcDbLine
 10
34.99999999999996
 20
13.50000000000001
 30
0.0
 11
-35.00000000000003
 21
13.50000000000001
 31
0.0
  0
LINE
  5
134
330
122
100
AcDbEntity
  8
Geometrie náčrtu (ISO)
100
AcDbLine
 10
-35.00000000000003
 20
13.50000000000001
 30
0.0
 11
-35.00000000000003
 21
4.499999999999992
 31
0.0
  0
LINE
  5
135
330
122
100
AcDbEntity
  8
Geometrie náčrtu (ISO)
100
AcDbLine
 10
-35.00000000000003
 20
13.50000000000001
 30
0.0
 11
34.99999999999996
 21
13.50000000000001
 31
0.0
  0
LINE
  5
136
330
122
100
AcDbEntity
  8
Geometrie náčrtu (ISO)
100
AcDbLine
 10
34.99999999999996
 20
13.50000000000001
 30
0.0
 11
34.99999999999996
 21
22.5
 31
0.0
  0
LINE
  5
137
330
122
100
AcDbEntity
  8
Geometrie náčrtu (ISO)
100
AcDbLine
 10
34.99999999999996
 20
22.5
 30
0.0
 11
-35.00000000000003
 21
22.5
 31
0.0
  0
LINE
  5
138
330
122
100
AcDbEntity
  8
Geometrie náčrtu (ISO)
100
AcDbLine
 10
-35.00000000000003
 20
22.5
 30
0.0
 11
-35.00000000000003
 21
13.50000000000001
 31
0.0
  0
LINE
  5
139
330
122
100
AcDbEntity
  8
Geometrie náčrtu (ISO)
100
AcDbLine
 10
-6.999999999999992
 20
22.5
 30
0.0
 11
-6.999999999999992
 21
-22.5
 31
0.0
  0
MTEXT
  5
13A
330
122
100
AcDbEntity
  8
Značka (ISO)
100
AcDbMText
 10
-5.126613448311374
 20
11.7684641726084
 30
0.0
 40
5.0
 41
0.0
 71
     1
 72
     1
  1
\fTahoma|b0|i0;\H5.0000;xxxxxxxxxxx
  7
Text poznámky (ISO)
 73
     1
 44
1.0
  0
MTEXT
  5
13B
330
122
100
AcDbEntity
  8
Značka (ISO)
100
AcDbMText
 10
-33.0130165251342
 20
11.7684641726084
 30
0.0
 40
5.0
 41
20.42139291763306
 71
     1
 72
     1
  1
\fTahoma|b0|i0;\H5.0000;xxxxxx
  7
Text poznámky (ISO)
 73
     1
 44
1.0
  0
MTEXT
  5
13C
330
122
100
AcDbEntity
  8
Značka (ISO)
100
AcDbMText
 10
-32.07756235018873
 20
20.30710993714994
 30
0.0
 40
5.0
 41
13.92583036716939
 71
     1
 72
     1
  1
\fTahoma|b0|i0;\H5.0000;Art.
  7
Text poznámky (ISO)
 73
     1
 44
1.0
  0
MTEXT
  5
13D
330
122
100
AcDbEntity
  8
Značka (ISO)
100
AcDbMText
 10
4.291672002492319
 20
20.30710993714994
 30
0.0
 40
5.0
 41
0.0
 71
     1
 72
     1
  1
\fTahoma|b0|i0;\H5.0000;Mat.
  7
Text poznámky (ISO)
 73
     1
 44
1.0
  0
MTEXT
  5
13E
330
122
100
AcDbEntity
  8
Značka (ISO)
100
AcDbMText
 10
-33.0130165251342
 20
2.473781856899819
 30
0.0
 40
5.0
 41
20.42139291763306
 71
     1
 72
     1
  1
\fTahoma|b0|i0;\H5.0000;xxxxxx
  7
Text poznámky (ISO)
 73
     1
 44
1.0
  0
MTEXT
  5
13F
330
122
100
AcDbEntity
  8
Značka (ISO)
100
AcDbMText
 10
-5.126613448311374
 20
2.473781856899819
 30
0.0
 40
5.0
 41
0.0
 71
     1
 72
     1
  1
\fTahoma|b0|i0;\H5.0000;xxxxxxxxxxx
  7
Text poznámky (ISO)
 73
     1
 44
1.0
  0
MTEXT
  5
140
330
122
100
AcDbEntity
  8
Značka (ISO)
100
AcDbMText
 10
-33.0130165251342
 20
-6.862452441171491
 30
0.0
 40
5.0
 41
20.42139291763306
 71
     1
 72
     1
  1
\fTahoma|b0|i0;\H5.0000;xxxxxx
  7
Text poznámky (ISO)
 73
     1
 44
1.0
  0
MTEXT
  5
141
330
122
100
AcDbEntity
  8
Značka (ISO)
100
AcDbMText
 10
-5.126613448311374
 20
-6.862452441171491
 30
0.0
 40
5.0
 41
0.0
 71
     1
 72
     1
  1
\fTahoma|b0|i0;\H5.0000;xxxxxxxxxxx
  7
Text poznámky (ISO)
 73
     1
 44
1.0
  0
MTEXT
  5
142
330
122
100
AcDbEntity
  8
Značka (ISO)
100
AcDbMText
 10
-33.0130165251342
 20
-15.52177565039578
 30
0.0
 40
5.0
 41
20.42139291763306
 71
     1
 72
     1
  1
\fTahoma|b0|i0;\H5.0000;xxxxxx
  7
Text poznámky (ISO)
 73
     1
 44
1.0
  0
MTEXT
  5
143
330
122
100
AcDbEntity
  8
Značka (ISO)
100
AcDbMText
 10
-5.126613448311374
 20
-15.52177565039578
 30
0.0
 40
5.0
 41
0.0
 71
     1
 72
     1
  1
\fTahoma|b0|i0;\H5.0000;xxxxxxxxxxx
  7
Text poznámky (ISO)
 73
     1
 44
1.0
  0
ENDBLK
  5
124
330
122
100
AcDbEntity
  8
0
100
AcDbBlockEnd
  0
BLOCK
  5
145
330
144
100
AcDbEntity
  8
0
100
AcDbBlockBegin
  2
Art. s popisy
 70
     0
 10
0.0
 20
0.0
 30
0.0
  3
Art. s popisy
  1

  0
LINE
  5
147
330
144
100
AcDbEntity
  8
Geometrie náčrtu (ISO)
100
AcDbLine
 10
-60.00000000000081
 20
-22.5
 30
0.0
 11
59.99999999999911
 21
-22.5
 31
0.0
  0
LINE
  5
148
330
144
100
AcDbEntity
  8
Geometrie náčrtu (ISO)
100
AcDbLine
 10
59.99999999999911
 20
-22.5
 30
0.0
 11
60.00000000000081
 21
-13.50000000000001
 31
0.0
  0
LINE
  5
149
330
144
100
AcDbEntity
  8
Geometrie náčrtu (ISO)
100
AcDbLine
 10
60.00000000000081
 20
-13.50000000000001
 30
0.0
 11
-60.00000000000081
 21
-13.49999999999998
 31
0.0
  0
LINE
  5
14A
330
144
100
AcDbEntity
  8
Geometrie náčrtu (ISO)
100
AcDbLine
 10
-60.00000000000081
 20
-13.49999999999998
 30
0.0
 11
-60.00000000000081
 21
-22.5
 31
0.0
  0
LINE
  5
14B
330
144
100
AcDbEntity
  8
Geometrie náčrtu (ISO)
100
AcDbLine
 10
-60.00000000000081
 20
-13.49999999999998
 30
0.0
 11
60.00000000000081
 21
-13.50000000000001
 31
0.0
  0
LINE
  5
14C
330
144
100
AcDbEntity
  8
Geometrie náčrtu (ISO)
100
AcDbLine
 10
60.00000000000081
 20
-13.50000000000001
 30
0.0
 11
59.99999999999911
 21
-4.500000000000028
 31
0.0
  0
LINE
  5
14D
330
144
100
AcDbEntity
  8
Geometrie náčrtu (ISO)
100
AcDbLine
 10
59.99999999999911
 20
-4.500000000000028
 30
0.0
 11
-60.00000000000081
 21
-4.499999999999992
 31
0.0
  0
LINE
  5
14E
330
144
100
AcDbEntity
  8
Geometrie náčrtu (ISO)
100
AcDbLine
 10
-60.00000000000081
 20
-4.499999999999992
 30
0.0
 11
-60.00000000000081
 21
-13.49999999999998
 31
0.0
  0
LINE
  5
14F
330
144
100
AcDbEntity
  8
Geometrie náčrtu (ISO)
100
AcDbLine
 10
-60.00000000000081
 20
-4.499999999999992
 30
0.0
 11
59.99999999999911
 21
-4.500000000000028
 31
0.0
  0
LINE
  5
150
330
144
100
AcDbEntity
  8
Geometrie náčrtu (ISO)
100
AcDbLine
 10
59.99999999999911
 20
-4.500000000000028
 30
0.0
 11
59.99999999999911
 21
4.499999999999957
 31
0.0
  0
LINE
  5
151
330
144
100
AcDbEntity
  8
Geometrie náčrtu (ISO)
100
AcDbLine
 10
59.99999999999911
 20
4.499999999999957
 30
0.0
 11
-60.00000000000081
 21
4.499999999999992
 31
0.0
  0
LINE
  5
152
330
144
100
AcDbEntity
  8
Geometrie náčrtu (ISO)
100
AcDbLine
 10
-60.00000000000081
 20
4.499999999999992
 30
0.0
 11
-60.00000000000081
 21
-4.499999999999992
 31
0.0
  0
LINE
  5
153
330
144
100
AcDbEntity
  8
Geometrie náčrtu (ISO)
100
AcDbLine
 10
-60.00000000000081
 20
4.499999999999992
 30
0.0
 11
59.99999999999911
 21
4.499999999999957
 31
0.0
  0
LINE
  5
154
330
144
100
AcDbEntity
  8
Geometrie náčrtu (ISO)
100
AcDbLine
 10
59.99999999999911
 20
4.499999999999957
 30
0.0
 11
59.99999999999911
 21
13.49999999999998
 31
0.0
  0
LINE
  5
155
330
144
100
AcDbEntity
  8
Geometrie náčrtu (ISO)
100
AcDbLine
 10
59.99999999999911
 20
13.49999999999998
 30
0.0
 11
-60.00000000000081
 21
13.50000000000001
 31
0.0
  0
LINE
  5
156
330
144
100
AcDbEntity
  8
Geometrie náčrtu (ISO)
100
AcDbLine
 10
-60.00000000000081
 20
13.50000000000001
 30
0.0
 11
-60.00000000000081
 21
4.499999999999992
 31
0.0
  0
LINE
  5
157
330
144
100
AcDbEntity
  8
Geometrie náčrtu (ISO)
100
AcDbLine
 10
-60.00000000000081
 20
13.50000000000001
 30
0.0
 11
59.99999999999911
 21
13.49999999999998
 31
0.0
  0
LINE
  5
158
330
144
100
AcDbEntity
  8
Geometrie náčrtu (ISO)
100
AcDbLine
 10
59.99999999999911
 20
13.49999999999998
 30
0.0
 11
59.99999999999911
 21
22.49999999999996
 31
0.0
  0
LINE
  5
159
330
144
100
AcDbEntity
  8
Geometrie náčrtu (ISO)
100
AcDbLine
 10
59.99999999999911
 20
22.49999999999996
 30
0.0
 11
-60.00000000000081
 21
22.5
 31
0.0
  0
LINE
  5
15A
330
144
100
AcDbEntity
  8
Geometrie náčrtu (ISO)
100
AcDbLine
 10
-60.00000000000081
 20
22.5
 30
0.0
 11
-60.00000000000081
 21
13.50000000000001
 31
0.0
  0
LINE
  5
15B
330
144
100
AcDbEntity
  8
Geometrie náčrtu (ISO)
100
AcDbLine
 10
-32.00000000000081
 20
22.5
 30
0.0
 11
-32.00000000000081
 21
-22.5
 31
0.0
  0
MTEXT
  5
15C
330
144
100
AcDbEntity
  8
Značka (ISO)
100
AcDbMText
 10
-27.63552601875791
 20
11.7684641726084
 30
0.0
 40
5.0
 41
0.0
 71
     1
 72
     1
  1
\fTahoma|b0|i0;\H5.0000;xxxxxxxxxxx
  7
Text poznámky (ISO)
 73
     1
 44
1.0
  0
MTEXT
  5
15D
330
144
100
AcDbEntity
  8
Značka (ISO)
100
AcDbMText
 10
-55.52192909558073
 20
11.7684641726084
 30
0.0
 40
5.0
 41
20.42139291763306
 71
     1
 72
     1
  1
\fTahoma|b0|i0;\H5.0000;xxxxxx
  7
Text poznámky (ISO)
 73
     1
 44
1.0
  0
MTEXT
  5
15E
330
144
100
AcDbEntity
  8
Značka (ISO)
100
AcDbMText
 10
-54.58647492063526
 20
20.30710993714994
 30
0.0
 40
5.0
 41
13.92583036716939
 71
     1
 72
     1
  1
\fTahoma|b0|i0;\H5.0000;Art.
  7
Text poznámky (ISO)
 73
     1
 44
1.0
  0
MTEXT
  5
15F
330
144
100
AcDbEntity
  8
Značka (ISO)
100
AcDbMText
 10
-18.21724056795421
 20
20.30710993714994
 30
0.0
 40
5.0
 41
0.0
 71
     1
 72
     1
  1
\fTahoma|b0|i0;\H5.0000;Popis.
  7
Text poznámky (ISO)
 73
     1
 44
1.0
  0
MTEXT
  5
160
330
144
100
AcDbEntity
  8
Značka (ISO)
100
AcDbMText
 10
-55.52192909558073
 20
2.473781856899819
 30
0.0
 40
5.0
 41
20.42139291763306
 71
     1
 72
     1
  1
\fTahoma|b0|i0;\H5.0000;xxxxxx
  7
Text poznámky (ISO)
 73
     1
 44
1.0
  0
MTEXT
  5
161
330
144
100
AcDbEntity
  8
Značka (ISO)
100
AcDbMText
 10
-27.63552601875791
 20
2.473781856899819
 30
0.0
 40
5.0
 41
0.0
 71
     1
 72
     1
  1
\fTahoma|b0|i0;\H5.0000;xxxxxxxxxxx
  7
Text poznámky (ISO)
 73
     1
 44
1.0
  0
MTEXT
  5
162
330
144
100
AcDbEntity
  8
Značka (ISO)
100
AcDbMText
 10
-55.52192909558073
 20
-6.862452441171491
 30
0.0
 40
5.0
 41
20.42139291763306
 71
     1
 72
     1
  1
\fTahoma|b0|i0;\H5.0000;xxxxxx
  7
Text poznámky (ISO)
 73
     1
 44
1.0
  0
MTEXT
  5
163
330
144
100
AcDbEntity
  8
Značka (ISO)
100
AcDbMText
 10
-27.63552601875791
 20
-6.862452441171491
 30
0.0
 40
5.0
 41
0.0
 71
     1
 72
     1
  1
\fTahoma|b0|i0;\H5.0000;xxxxxxxxxxx
  7
Text poznámky (ISO)
 73
     1
 44
1.0
  0
MTEXT
  5
164
330
144
100
AcDbEntity
  8
Značka (ISO)
100
AcDbMText
 10
-55.52192909558073
 20
-15.52177565039578
 30
0.0
 40
5.0
 41
20.42139291763306
 71
     1
 72
     1
  1
\fTahoma|b0|i0;\H5.0000;xxxxxx
  7
Text poznámky (ISO)
 73
     1
 44
1.0
  0
MTEXT
  5
165
330
144
100
AcDbEntity
  8
Značka (ISO)
100
AcDbMText
 10
-27.63552601875791
 20
-15.52177565039578
 30
0.0
 40
5.0
 41
0.0
 71
     1
 72
     1
  1
\fTahoma|b0|i0;\H5.0000;xxxxxxxxxxx
  7
Text poznámky (ISO)
 73
     1
 44
1.0
  0
ENDBLK
  5
146
330
144
100
AcDbEntity
  8
0
100
AcDbBlockEnd
  0
BLOCK
  5
167
330
166
100
AcDbEntity
  8
0
100
AcDbBlockBegin
  2
Nátěr
 70
     0
 10
0.0
 20
0.0
 30
0.0
  3
Nátěr
  1

  0
MTEXT
  5
169
330
166
100
AcDbEntity
  8
Značka (ISO)
100
AcDbMText
 10
-25.88411808013916
 20
1.864870421122759
 30
0.0
 40
3.499999940395355
 41
0.0
 71
     1
 72
     1
  1
Lackiert Farbe RAL 5002
  7
Text poznámky (ISO)
 73
     1
 44
1.0
  0
ENDBLK
  5
168
330
166
100
AcDbEntity
  8
0
100
AcDbBlockEnd
  0
BLOCK
  5
247
330
246
100
AcDbEntity
  8
0
100
AcDbBlockBegin
  2
*D29
 70
     1
 10
0.0
 20
0.0
 30
0.0
  3
*D29
  1

  0
LINE
  5
318
330
246
100
AcDbEntity
  8
Kóta (ISO)
440
 16777216
100
AcDbLine
 10
131.6511016878894
 20
480.6803482833496
 30
0.0
 11
108.1511016878896
 21
480.6803482833496
 31
0.0
  0
LINE
  5
319
330
246
100
AcDbEntity
  8
Kóta (ISO)
440
 16777216
100
AcDbLine
 10
131.6511016878895
 20
459.1803482833496
 30
0.0
 11
108.1511016878896
 21
459.1803482833496
 31
0.0
  0
LINE
  5
31A
330
246
100
AcDbEntity
  8
Kóta (ISO)
440
 16777216
100
AcDbLine
 10
108.6511016878896
 20
479.4303482833496
 30
0.0
 11
108.6511016878896
 21
460.4303482833496
 31
0.0
  0
SOLID
  5
31B
330
246
100
AcDbEntity
  8
Kóta (ISO)
440
 16777216
100
AcDbTrace
 10
108.4427683545562
 20
479.4303482833496
 30
0.0
 11
108.8594350212229
 21
479.4303482833496
 31
0.0
 12
108.6511016878896
 22
480.6803482833496
 32
0.0
 13
108.6511016878896
 23
480.6803482833496
 33
0.0
  0
SOLID
  5
31C
330
246
100
AcDbEntity
  8
Kóta (ISO)
440
 16777216
100
AcDbTrace
 10
108.4427683545562
 20
460.4303482833496
 30
0.0
 11
108.8594350212229
 21
460.4303482833496
 31
0.0
 12
108.6511016878896
 22
459.1803482833496
 32
0.0
 13
108.6511016878896
 23
459.1803482833496
 33
0.0
  0
MTEXT
  5
31D
330
246
100
AcDbEntity
  8
Kóta (ISO)
440
 16777216
100
AcDbMText
 10
101.923560426007
 20
469.9303482833495
 30
0.0
 40
5.0
 41
0.0
 71
     2
 72
     1
  1
\A1;21,5
  7
Text popisu (ISO)
 11
0.0000000000000001
 21
1.0
 31
0.0
 73
     1
 44
1.0
  0
POINT
  5
31E
330
246
100
AcDbEntity
  8
Defpoints
 62
     0
440
 16777216
100
AcDbPoint
 10
131.6511016878894
 20
480.6803482833496
 30
0.0
  0
POINT
  5
31F
330
246
100
AcDbEntity
  8
Defpoints
 62
     0
440
 16777216
100
AcDbPoint
 10
131.6511016878895
 20
459.1803482833496
 30
0.0
  0
POINT
  5
320
330
246
100
AcDbEntity
  8
Defpoints
 62
     0
440
 16777216
100
AcDbPoint
 10
108.6511016878896
 20
459.1803482833496
 30
0.0
  0
ENDBLK
  5
248
330
246
100
AcDbEntity
  8
0
100
AcDbBlockEnd
  0
BLOCK
  5
323
330
322
100
AcDbEntity
  8
0
100
AcDbBlockBegin
  2
*D30
 70
     1
 10
0.0
 20
0.0
 30
0.0
  3
*D30
  1

  0
LINE
  5
3EE
330
322
100
AcDbEntity
  8
Kóta (ISO)
440
 16777216
100
AcDbLine
 10
131.6511016878895
 20
480.6803482833496
 30
0.0
 11
131.6511016878895
 21
505.155422687863
 31
0.0
  0
LINE
  5
3EF
330
322
100
AcDbEntity
  8
Kóta (ISO)
440
 16777216
100
AcDbLine
 10
287.6511016878896
 20
480.6803482833496
 30
0.0
 11
287.6511016878896
 21
505.155422687863
 31
0.0
  0
LINE
  5
3F0
330
322
100
AcDbEntity
  8
Kóta (ISO)
440
 16777216
100
AcDbLine
 10
132.9011016878895
 20
504.655422687863
 30
0.0
 11
286.4011016878896
 21
504.655422687863
 31
0.0
  0
SOLID
  5
3F1
330
322
100
AcDbEntity
  8
Kóta (ISO)
440
 16777216
100
AcDbTrace
 10
132.9011016878895
 20
504.8637560211964
 30
0.0
 11
132.9011016878895
 21
504.4470893545297
 31
0.0
 12
131.6511016878895
 22
504.655422687863
 32
0.0
 13
131.6511016878895
 23
504.655422687863
 33
0.0
  0
SOLID
  5
3F2
330
322
100
AcDbEntity
  8
Kóta (ISO)
440
 16777216
100
AcDbTrace
 10
286.4011016878896
 20
504.8637560211964
 30
0.0
 11
286.4011016878896
 21
504.4470893545297
 31
0.0
 12
287.6511016878896
 22
504.655422687863
 32
0.0
 13
287.6511016878896
 23
504.655422687863
 33
0.0
  0
MTEXT
  5
3F3
102
{ACAD_XDICTIONARY
360
7B6
102
}
330
322
100
AcDbEntity
  8
Kóta (ISO)
440
 16777216
100
AcDbMText
 10
209.6511016878895
 20
510.7348779901988
 30
0.0
 40
5.0
 41
0.0
 71
     2
 72
     1
  1
\A1;{\U+00D8}156
  7
Text popisu (ISO)
 73
     1
 44
1.0
  0
POINT
  5
3F4
330
322
100
AcDbEntity
  8
Defpoints
 62
     0
440
 16777216
100
AcDbPoint
 10
131.6511016878895
 20
480.6803482833496
 30
0.0
  0
POINT
  5
3F5
330
322
100
AcDbEntity
  8
Defpoints
 62
     0
440
 16777216
100
AcDbPoint
 10
287.6511016878896
 20
480.6803482833496
 30
0.0
  0
POINT
  5
3F6
330
322
100
AcDbEntity
  8
Defpoints
 62
     0
440
 16777216
100
AcDbPoint
 10
287.6511016878896
 20
504.655422687863
 30
0.0
  0
ENDBLK
  5
324
330
322
100
AcDbEntity
  8
0
100
AcDbBlockEnd
  0
BLOCK
  5
3F9
330
3F8
100
AcDbEntity
  8
0
100
AcDbBlockBegin
  2
*D31
 70
     1
 10
0.0
 20
0.0
 30
0.0
  3
*D31
  1

  0
LINE
  5
4C5
330
3F8
100
AcDbEntity
  8
Kóta (ISO)
440
 16777216
100
AcDbLine
 10
146.1511016878895
 20
426.9803482833495
 30
0.0
 11
146.1511016878895
 21
441.4803482833495
 31
0.0
  0
LINE
  5
4C6
330
3F8
100
AcDbEntity
  8
Kóta (ISO)
440
 16777216
100
AcDbLine
 10
273.1511016878895
 20
426.9803482833495
 30
0.0
 11
273.1511016878895
 21
441.4803482833495
 31
0.0
  0
LINE
  5
4C7
330
3F8
100
AcDbEntity
  8
Kóta (ISO)
440
 16777216
100
AcDbLine
 10
147.4011016878895
 20
440.9803482833495
 30
0.0
 11
271.9011016878895
 21
440.9803482833495
 31
0.0
  0
SOLID
  5
4C8
330
3F8
100
AcDbEntity
  8
Kóta (ISO)
440
 16777216
100
AcDbTrace
 10
147.4011016878895
 20
441.1886816166828
 30
0.0
 11
147.4011016878895
 21
440.7720149500162
 31
0.0
 12
146.1511016878895
 22
440.9803482833495
 32
0.0
 13
146.1511016878895
 23
440.9803482833495
 33
0.0
  0
SOLID
  5
4C9
330
3F8
100
AcDbEntity
  8
Kóta (ISO)
440
 16777216
100
AcDbTrace
 10
271.9011016878895
 20
441.1886816166828
 30
0.0
 11
271.9011016878895
 21
440.7720149500162
 31
0.0
 12
273.1511016878895
 22
440.9803482833495
 32
0.0
 13
273.1511016878895
 23
440.9803482833495
 33
0.0
  0
MTEXT
  5
4CA
330
3F8
100
AcDbEntity
  8
Kóta (ISO)
440
 16777216
100
AcDbMText
 10
209.6511016878896
 20
448.8843441493697
 30
0.0
 40
5.0
 41
0.0
 71
     2
 72
     1
  1
\A1;{\fAIGDT|b0|i0;\H5.0000;\ln\fTahoma|b0|i0;\H5.0000;}127
  7
Text popisu (ISO)
 73
     1
 44
1.0
  0
POINT
  5
4CB
330
3F8
100
AcDbEntity
  8
Defpoints
 62
     0
440
 16777216
100
AcDbPoint
 10
146.1511016878895
 20
426.9803482833495
 30
0.0
  0
POINT
  5
4CC
330
3F8
100
AcDbEntity
  8
Defpoints
 62
     0
440
 16777216
100
AcDbPoint
 10
273.1511016878895
 20
426.9803482833495
 30
0.0
  0
POINT
  5
4CD
330
3F8
100
AcDbEntity
  8
Defpoints
 62
     0
440
 16777216
100
AcDbPoint
 10
273.1511016878895
 20
440.9803482833495
 30
0.0
  0
ENDBLK
  5
3FA
330
3F8
100
AcDbEntity
  8
0
100
AcDbBlockEnd
  0
BLOCK
  5
4D0
330
4CF
100
AcDbEntity
  8
0
100
AcDbBlockBegin
  2
*D32
 70
     1
 10
0.0
 20
0.0
 30
0.0
  3
*D32
  1

  0
LINE
  5
59B
330
4CF
100
AcDbEntity
  8
Kóta (ISO)
440
 16777216
100
AcDbLine
 10
146.1511016878895
 20
426.9803482833495
 30
0.0
 11
110.6511016878896
 21
426.9803482833496
 31
0.0
  0
LINE
  5
59C
330
4CF
100
AcDbEntity
  8
Kóta (ISO)
440
 16777216
100
AcDbLine
 10
209.6511016878896
 20
316.3088592259662
 30
0.0
 11
110.6511016878896
 21
316.3088592259663
 31
0.0
  0
LINE
  5
59D
330
4CF
100
AcDbEntity
  8
Kóta (ISO)
440
 16777216
100
AcDbLine
 10
111.1511016878896
 20
425.7303482833496
 30
0.0
 11
111.1511016878896
 21
317.5588592259663
 31
0.0
  0
SOLID
  5
59E
330
4CF
100
AcDbEntity
  8
Kóta (ISO)
440
 16777216
100
AcDbTrace
 10
110.9427683545563
 20
425.7303482833496
 30
0.0
 11
111.3594350212229
 21
425.7303482833496
 31
0.0
 12
111.1511016878896
 22
426.9803482833496
 32
0.0
 13
111.1511016878896
 23
426.9803482833496
 33
0.0
  0
SOLID
  5
59F
330
4CF
100
AcDbEntity
  8
Kóta (ISO)
440
 16777216
100
AcDbTrace
 10
110.9427683545562
 20
317.5588592259663
 30
0.0
 11
111.3594350212229
 21
317.5588592259663
 31
0.0
 12
111.1511016878896
 22
316.3088592259663
 32
0.0
 13
111.1511016878896
 23
316.3088592259663
 33
0.0
  0
MTEXT
  5
5A0
330
4CF
100
AcDbEntity
  8
Kóta (ISO)
440
 16777216
100
AcDbMText
 10
105.7533119284967
 20
371.6446037546579
 30
0.0
 40
5.0
 41
0.0
 71
     2
 72
     1
  1
\A1;111
  7
Text popisu (ISO)
 11
0.0000000000000001
 21
1.0
 31
0.0
 73
     1
 44
1.0
  0
POINT
  5
5A1
330
4CF
100
AcDbEntity
  8
Defpoints
 62
     0
440
 16777216
100
AcDbPoint
 10
146.1511016878895
 20
426.9803482833495
 30
0.0
  0
POINT
  5
5A2
330
4CF
100
AcDbEntity
  8
Defpoints
 62
     0
440
 16777216
100
AcDbPoint
 10
209.6511016878896
 20
316.3088592259662
 30
0.0
  0
POINT
  5
5A3
330
4CF
100
AcDbEntity
  8
Defpoints
 62
     0
440
 16777216
100
AcDbPoint
 10
111.1511016878896
 20
316.3088592259663
 30
0.0
  0
ENDBLK
  5
4D1
330
4CF
100
AcDbEntity
  8
0
100
AcDbBlockEnd
  0
BLOCK
  5
5A6
330
5A5
100
AcDbEntity
  8
0
100
AcDbBlockBegin
  2
*D33
 70
     1
 10
0.0
 20
0.0
 30
0.0
  3
*D33
  1

  0
LINE
  5
671
330
5A5
100
AcDbEntity
  8
Kóta (ISO)
440
 16777216
100
AcDbLine
 10
98.09917894841461
 20
286.6803482833496
 30
0.0
 11
98.09917894841461
 21
304.1803482833496
 31
0.0
  0
LINE
  5
672
330
5A5
100
AcDbEntity
  8
Kóta (ISO)
440
 16777216
100
AcDbLine
 10
321.2030244273644
 20
286.6803482833496
 30
0.0
 11
321.2030244273644
 21
304.1803482833496
 31
0.0
  0
LINE
  5
673
330
5A5
100
AcDbEntity
  8
Kóta (ISO)
440
 16777216
100
AcDbLine
 10
99.34917894841461
 20
303.6803482833497
 30
0.0
 11
319.9530244273644
 21
303.6803482833497
 31
0.0
  0
SOLID
  5
674
330
5A5
100
AcDbEntity
  8
Kóta (ISO)
440
 16777216
100
AcDbTrace
 10
99.34917894841461
 20
303.888681616683
 30
0.0
 11
99.34917894841461
 21
303.4720149500163
 31
0.0
 12
98.09917894841461
 22
303.6803482833497
 32
0.0
 13
98.09917894841461
 23
303.6803482833497
 33
0.0
  0
SOLID
  5
675
330
5A5
100
AcDbEntity
  8
Kóta (ISO)
440
 16777216
100
AcDbTrace
 10
319.9530244273644
 20
303.888681616683
 30
0.0
 11
319.9530244273644
 21
303.4720149500163
 31
0.0
 12
321.2030244273644
 22
303.6803482833497
 32
0.0
 13
321.2030244273644
 23
303.6803482833497
 33
0.0
  0
MTEXT
  5
676
330
5A5
100
AcDbEntity
  8
Kóta (ISO)
440
 16777216
100
AcDbMText
 10
209.6511016878895
 20
311.5843441493698
 30
0.0
 40
5.0
 41
0.0
 71
     2
 72
     1
  1
\A1;{\fAIGDT|b0|i0;\H5.0000;\ln\fTahoma|b0|i0;\H5.0000;}223
  7
Text popisu (ISO)
 73
     1
 44
1.0
  0
POINT
  5
677
330
5A5
100
AcDbEntity
  8
Defpoints
 62
     0
440
 16777216
100
AcDbPoint
 10
98.09917894841461
 20
286.6803482833496
 30
0.0
  0
POINT
  5
678
330
5A5
100
AcDbEntity
  8
Defpoints
 62
     0
440
 16777216
100
AcDbPoint
 10
321.2030244273644
 20
286.6803482833496
 30
0.0
  0
POINT
  5
679
330
5A5
100
AcDbEntity
  8
Defpoints
 62
     0
440
 16777216
100
AcDbPoint
 10
321.2030244273644
 20
303.6803482833497
 30
0.0
  0
ENDBLK
  5
5A7
330
5A5
100
AcDbEntity
  8
0
100
AcDbBlockEnd
  0
BLOCK
  5
67C
330
67B
100
AcDbEntity
  8
0
100
AcDbBlockBegin
  2
*D34
 70
     1
 10
0.0
 20
0.0
 30
0.0
  3
*D34
  1

  0
LINE
  5
747
330
67B
100
AcDbEntity
  8
Kóta (ISO)
440
 16777216
100
AcDbLine
 10
98.09917894841461
 20
290.6803482833496
 30
0.0
 11
49.49791952135949
 21
290.6803482833496
 31
0.0
  0
LINE
  5
748
330
67B
100
AcDbEntity
  8
Kóta (ISO)
440
 16777216
100
AcDbLine
 10
118.1877120932206
 20
80.68034828334965
 30
0.0
 11
49.49791952135944
 21
80.68034828334967
 31
0.0
  0
LINE
  5
749
330
67B
100
AcDbEntity
  8
Kóta (ISO)
440
 16777216
100
AcDbLine
 10
49.99791952135948
 20
289.4303482833496
 30
0.0
 11
49.99791952135944
 21
81.93034828334967
 31
0.0
  0
SOLID
  5
74A
330
67B
100
AcDbEntity
  8
Kóta (ISO)
440
 16777216
100
AcDbTrace
 10
49.78958618802614
 20
289.4303482833496
 30
0.0
 11
50.20625285469282
 21
289.4303482833496
 31
0.0
 12
49.99791952135948
 22
290.6803482833496
 32
0.0
 13
49.99791952135948
 23
290.6803482833496
 33
0.0
  0
SOLID
  5
74B
330
67B
100
AcDbEntity
  8
Kóta (ISO)
440
 16777216
100
AcDbTrace
 10
49.78958618802611
 20
81.93034828334967
 30
0.0
 11
50.20625285469278
 21
81.93034828334967
 31
0.0
 12
49.99791952135944
 22
80.68034828334967
 32
0.0
 13
49.99791952135944
 23
80.68034828334967
 33
0.0
  0
MTEXT
  5
74C
330
67B
100
AcDbEntity
  8
Kóta (ISO)
440
 16777216
100
AcDbMText
 10
44.40872613660822
 20
185.6803482833496
 30
0.0
 40
5.0
 41
0.0
 71
     2
 72
     1
  1
\A1;210
  7
Text popisu (ISO)
 11
0.0000000000000001
 21
1.0
 31
0.0
 73
     1
 44
1.0
  0
POINT
  5
74D
330
67B
100
AcDbEntity
  8
Defpoints
 62
     0
440
 16777216
100
AcDbPoint
 10
98.09917894841461
 20
290.6803482833496
 30
0.0
  0
POINT
  5
74E
330
67B
100
AcDbEntity
  8
Defpoints
 62
     0
440
 16777216
100
AcDbPoint
 10
118.1877120932206
 20
80.68034828334965
 30
0.0
  0
POINT
  5
74F
330
67B
100
AcDbEntity
  8
Defpoints
 62
     0
440
 16777216
100
AcDbPoint
 10
49.99791952135944
 20
80.68034828334967
 30
0.0
  0
ENDBLK
  5
67D
330
67B
100
AcDbEntity
  8
0
100
AcDbBlockEnd
  0
ENDSEC
  0
SECTION
  2
ENTITIES
  0
LINE
  5
16A
330
6C
100
AcDbEntity
  8
Viditelná tenká (ISO)
100
AcDbLine
 10
304.6268917606019
 20
82.12183133357402
 30
0.0
 11
114.6753116151772
 21
82.12183133357402
 31
0.0
  0
LINE
  5
16B
330
6C
100
AcDbEntity
  8
Viditelná (ISO)
100
AcDbLine
 10
301.1144912825584
 20
80.68034828334962
 30
0.0
 11
118.1877120932206
 21
80.68034828334962
 31
0.0
  0
LINE
  5
16C
330
6C
100
AcDbEntity
  8
Viditelná tenká (ISO)
100
AcDbLine
 10
314.1639275083174
 20
91.53527221138308
 30
0.0
 11
105.1382758674616
 21
91.53527221138308
 31
0.0
  0
LINE
  5
16D
330
6C
100
AcDbEntity
  8
Viditelná tenká (ISO)
100
AcDbLine
 10
315.6511016878895
 20
95.02857225132288
 30
0.0
 11
103.6511016878895
 21
95.02857225132288
 31
0.0
  0
LINE
  5
16E
330
6C
100
AcDbEntity
  8
Viditelná (ISO)
100
AcDbLine
 10
321.2030244273644
 20
286.6803482833496
 30
0.0
 11
98.09917894841461
 21
286.6803482833496
 31
0.0
  0
LINE
  5
16F
330
6C
100
AcDbEntity
  8
Viditelná (ISO)
100
AcDbLine
 10
300.8689461875212
 20
290.6803482833496
 30
0.0
 11
116.4782134493733
 21
290.6803482833496
 31
0.0
  0
ARC
  5
170
330
6C
100
AcDbEntity
  8
Viditelná (ISO)
100
AcDbCircle
 10
301.1144912825585
 20
85.68034828334962
 30
0.0
 40
5.000000000000135
100
AcDbArc
 50
270.0
 51
314.6263226434373
  0
ARC
  5
171
330
6C
100
AcDbEntity
  8
Viditelná (ISO)
100
AcDbCircle
 10
118.1877120932206
 20
85.68034828334962
 30
0.0
 40
5.000000000000135
100
AcDbArc
 50
225.373677356563
 51
270.0
  0
LINE
  5
172
330
6C
100
AcDbEntity
  8
Viditelná (ISO)
100
AcDbLine
 10
114.6753116151772
 20
82.12183133357402
 30
0.0
 11
105.1382758674616
 21
91.53527221138308
 31
0.0
  0
LINE
  5
173
330
6C
100
AcDbEntity
  8
Viditelná (ISO)
100
AcDbLine
 10
304.6268917606019
 20
82.12183133357402
 30
0.0
 11
314.1639275083174
 21
91.53527221138308
 31
0.0
  0
ARC
  5
174
330
6C
100
AcDbEntity
  8
Viditelná (ISO)
100
AcDbCircle
 10
310.6515270305172
 20
95.09378916139869
 30
0.0
 40
5.000000000000047
100
AcDbArc
 50
314.6263226395214
 51
359.2526480677926
  0
ARC
  5
175
330
6C
100
AcDbEntity
  8
Viditelná (ISO)
100
AcDbCircle
 10
108.6506763452618
 20
95.09378916139869
 30
0.0
 40
5.000000000000047
100
AcDbArc
 50
180.7473519322074
 51
225.3736773604787
  0
LINE
  5
176
330
6C
100
AcDbEntity
  8
Viditelná (ISO)
100
AcDbLine
 10
103.6511016878895
 20
95.02857225132288
 30
0.0
 11
101.1511016878895
 21
286.6803482833496
 31
0.0
  0
LINE
  5
177
330
6C
100
AcDbEntity
  8
Viditelná (ISO)
100
AcDbLine
 10
315.6511016878895
 20
95.02857225132288
 30
0.0
 11
318.1511016878896
 21
286.6803482833496
 31
0.0
  0
LINE
  5
178
330
6C
100
AcDbEntity
  8
Viditelná (ISO)
100
AcDbLine
 10
98.09917894841463
 20
286.6803482833496
 30
0.0
 11
98.09917894841463
 21
290.6803482833496
 31
0.0
  0
LINE
  5
179
330
6C
100
AcDbEntity
  8
Viditelná (ISO)
100
AcDbLine
 10
321.2030244273644
 20
286.6803482833496
 30
0.0
 11
321.2030244273644
 21
290.6803482833496
 31
0.0
  0
LINE
  5
17A
330
6C
100
AcDbEntity
  8
Viditelná (ISO)
100
AcDbLine
 10
196.1870000727514
 20
292.6803482833496
 30
0.0
 11
196.1870000727514
 21
290.6803482833496
 31
0.0
  0
LINE
  5
17B
330
6C
100
AcDbEntity
  8
Viditelná (ISO)
100
AcDbLine
 10
216.1870000727514
 20
292.6803482833495
 30
0.0
 11
196.1870000727514
 21
292.6803482833496
 31
0.0
  0
LINE
  5
17C
330
6C
100
AcDbEntity
  8
Viditelná (ISO)
100
AcDbLine
 10
216.1870000727514
 20
290.6803482833496
 30
0.0
 11
216.1870000727514
 21
292.6803482833495
 31
0.0
  0
LINE
  5
17D
330
6C
100
AcDbEntity
  8
Viditelná (ISO)
100
AcDbLine
 10
316.8013914779737
 20
292.6803482833496
 30
0.0
 11
283.8924261341651
 21
292.6803482833496
 31
0.0
  0
LINE
  5
17E
330
6C
100
AcDbEntity
  8
Viditelná (ISO)
100
AcDbLine
 10
326.8013914779738
 20
292.6803482833496
 30
0.0
 11
316.8013914779738
 21
292.6803482833496
 31
0.0
  0
LINE
  5
17F
330
6C
100
AcDbEntity
  8
Viditelná tenká (ISO)
100
AcDbLine
 10
283.892426134165
 20
290.6803482833496
 30
0.0
 11
283.8924261341651
 21
292.6803482833496
 31
0.0
  0
LINE
  5
180
330
6C
100
AcDbEntity
  8
Viditelná (ISO)
100
AcDbLine
 10
316.8013914779737
 20
290.6803482833496
 30
0.0
 11
300.8689461875213
 21
290.6803482833496
 31
0.0
  0
LINE
  5
181
330
6C
100
AcDbEntity
  8
Viditelná (ISO)
100
AcDbLine
 10
316.8013914779737
 20
290.6803482833496
 30
0.0
 11
316.8013914779737
 21
292.6803482833496
 31
0.0
  0
LINE
  5
182
330
6C
100
AcDbEntity
  8
Viditelná (ISO)
100
AcDbLine
 10
326.8013914779738
 20
290.6803482833496
 30
0.0
 11
326.8013914779738
 21
292.6803482833496
 31
0.0
  0
LINE
  5
183
330
6C
100
AcDbEntity
  8
Viditelná (ISO)
100
AcDbLine
 10
316.8013914779737
 20
290.6803482833496
 30
0.0
 11
326.8013914779738
 21
290.6803482833496
 31
0.0
  0
ELLIPSE
  5
184
330
6C
100
AcDbEntity
  8
Viditelná (ISO)
100
AcDbEllipse
 10
283.8924261341651
 20
288.6803482833496
 30
0.0
 11
0.0
 21
3.999999999999957
 31
0.0
210
0.0
220
0.0
230
1.0
 40
0.8660254037844387
 41
0.0
 42
1.047197551196582
  0
ELLIPSE
  5
185
330
6C
100
AcDbEntity
  8
Viditelná (ISO)
100
AcDbEllipse
 10
128.4815740113377
 20
288.6803482833496
 30
0.0
 11
0.0000000000000014
 21
4.000000000000016
 31
0.0
210
0.0
220
0.0
230
1.0
 40
0.8660254037844385
 41
5.235987755982982
 42
6.283185307179581
  0
LINE
  5
186
330
6C
100
AcDbEntity
  8
Viditelná tenká (ISO)
100
AcDbLine
 10
128.4815740113378
 20
292.6803482833496
 30
0.0
 11
128.4815740113378
 21
290.6803482833496
 31
0.0
  0
LINE
  5
187
330
6C
100
AcDbEntity
  8
Viditelná (ISO)
100
AcDbLine
 10
95.57260866752907
 20
292.6803482833496
 30
0.0
 11
85.57260866752907
 21
292.6803482833496
 31
0.0
  0
LINE
  5
188
330
6C
100
AcDbEntity
  8
Viditelná (ISO)
100
AcDbLine
 10
128.4815740113378
 20
292.6803482833496
 30
0.0
 11
95.5726086675291
 21
292.6803482833496
 31
0.0
  0
LINE
  5
189
330
6C
100
AcDbEntity
  8
Viditelná (ISO)
100
AcDbLine
 10
85.5726086675291
 20
290.6803482833496
 30
0.0
 11
85.5726086675291
 21
292.6803482833496
 31
0.0
  0
LINE
  5
18A
330
6C
100
AcDbEntity
  8
Viditelná (ISO)
100
AcDbLine
 10
95.57260866752907
 20
290.6803482833496
 30
0.0
 11
95.57260866752907
 21
292.6803482833496
 31
0.0
  0
LINE
  5
18B
330
6C
100
AcDbEntity
  8
Viditelná (ISO)
100
AcDbLine
 10
95.57260866752907
 20
290.6803482833496
 30
0.0
 11
116.4782134493733
 21
290.6803482833496
 31
0.0
  0
LINE
  5
18C
330
6C
100
AcDbEntity
  8
Viditelná (ISO)
100
AcDbLine
 10
85.5726086675291
 20
290.6803482833496
 30
0.0
 11
95.5726086675291
 21
290.6803482833496
 31
0.0
  0
LINE
  5
18D
330
6C
100
AcDbEntity
  8
Viditelná (ISO)
100
AcDbLine
 10
283.3463641782339
 20
467.1803482833495
 30
0.0
 11
135.9558391975451
 21
467.1803482833495
 31
0.0
  0
LINE
  5
18E
330
6C
100
AcDbEntity
  8
Viditelná tenká (ISO)
100
AcDbLine
 10
284.1314246309567
 20
473.3225406679753
 30
0.0
 11
135.1707787448224
 21
473.3225406679753
 31
0.0
  0
LINE
  5
18F
330
6C
100
AcDbEntity
  8
Viditelná tenká (ISO)
100
AcDbLine
 10
162.8772197237283
 20
480.7833527324393
 30
0.0
 11
162.8771776202145
 21
480.7834804235874
 31
0.0
  0
LINE
  5
190
330
6C
100
AcDbEntity
  8
Viditelná tenká (ISO)
100
AcDbLine
 10
286.7109402163559
 20
474.9344009000637
 30
0.0
 11
132.5912631594232
 21
474.9344009000637
 31
0.0
  0
LINE
  5
191
330
6C
100
AcDbEntity
  8
Viditelná tenká (ISO)
100
AcDbLine
 10
287.6511016878895
 20
476.6304970923766
 30
0.0
 11
131.6511016878896
 21
476.6304970923766
 31
0.0
  0
LINE
  5
192
330
6C
100
AcDbEntity
  8
Viditelná (ISO)
100
AcDbLine
 10
133.5874334839519
 20
480.6803482833496
 30
0.0
 11
131.6511016878896
 21
480.6803482833496
 31
0.0
  0
LINE
  5
193
330
6C
100
AcDbEntity
  8
Viditelná (ISO)
100
AcDbLine
 10
152.4139805434918
 20
480.6803482833496
 30
0.0
 11
135.1420848931675
 21
480.6803482833496
 31
0.0
  0
LINE
  5
194
330
6C
100
AcDbEntity
  8
Viditelná (ISO)
100
AcDbLine
 10
186.5771679907546
 20
480.6803482833496
 30
0.0
 11
156.6613671814885
 21
480.6803482833496
 31
0.0
  0
LINE
  5
195
330
6C
100
AcDbEntity
  8
Viditelná (ISO)
100
AcDbLine
 10
226.9229973383747
 20
480.6803482833496
 30
0.0
 11
192.3792060361632
 21
480.6803482833496
 31
0.0
  0
LINE
  5
196
330
6C
100
AcDbEntity
  8
Viditelná (ISO)
100
AcDbLine
 10
262.6408361946926
 20
480.6803482833496
 30
0.0
 11
232.7250353855455
 21
480.6803482833496
 31
0.0
  0
LINE
  5
197
330
6C
100
AcDbEntity
  8
Viditelná (ISO)
100
AcDbLine
 10
284.160118482773
 20
480.6803482833496
 30
0.0
 11
266.8882228326584
 21
480.6803482833496
 31
0.0
  0
LINE
  5
198
330
6C
100
AcDbEntity
  8
Viditelná (ISO)
100
AcDbLine
 10
287.6511016878895
 20
480.6803482833496
 30
0.0
 11
285.7147698919495
 21
480.6803482833496
 31
0.0
  0
SPLINE
  5
199
330
6C
100
AcDbEntity
  8
Viditelná (ISO)
100
AcDbSpline
210
0.0
220
0.0
230
1.0
 70
     8
 71
     3
 72
    16
 73
    12
 74
     0
 42
0.0000000001
 43
0.0000000001
 40
-0.1582931286148072
 40
-0.1582931286148072
 40
-0.1582931286148072
 40
-0.1582931286148072
 40
-0.138779848359541
 40
-0.138779848359541
 40
-0.1180224149028224
 40
-0.1180224149028224
 40
-0.0792268234311447
 40
-0.0792268234311447
 40
-0.0403978763141742
 40
-0.0403978763141742
 40
0.0
 40
0.0
 40
0.0
 40
0.0
 10
285.7147698917577
 20
480.6803482828935
 30
0.0
 10
285.7003679362179
 20
480.6803482829261
 30
0.0
 10
285.6859205785185
 20
480.6867011318355
 30
0.0
 10
285.6564428117343
 20
480.712713474501
 30
0.0
 10
285.6415137639322
 20
480.7331250690779
 30
0.0
 10
285.6001707671889
 20
480.8108016709207
 30
0.0
 10
285.5754352883755
 20
480.8839489519081
 30
0.0
 10
285.5333695203972
 20
481.0672183634839
 30
0.0
 10
285.516442168423
 20
481.1756762700698
 30
0.0
 10
285.4925128259117
 20
481.4189809934726
 30
0.0
 10
285.4861828275283
 20
481.5523120810812
 30
0.0
 10
285.4861828275283
 20
481.6869716687952
 30
0.0
  0
LINE
  5
19A
330
6C
100
AcDbEntity
  8
Viditelná (ISO)
100
AcDbLine
 10
285.4861828275284
 20
481.9803482833496
 30
0.0
 11
285.4861828275284
 21
481.6869716687808
 31
0.0
  0
SPLINE
  5
19B
330
6C
100
AcDbEntity
  8
Viditelná (ISO)
100
AcDbSpline
210
0.0
220
0.0
230
1.0
 70
     8
 71
     3
 72
    14
 73
    10
 74
     0
 42
0.0000000001
 43
0.0000000001
 40
0.0
 40
0.0
 40
0.0
 40
0.0
 40
0.0452033193944078
 40
0.0452033193944078
 40
0.0904066387888157
 40
0.0904066387888157
 40
0.1356150796889439
 40
0.1356150796889439
 40
0.1808235205890722
 40
0.1808235205890722
 40
0.1808235205890722
 40
0.1808235205890722
 10
285.4861828275284
 20
481.9803482833496
 30
0.0
 10
285.4861828275284
 20
482.1310260146643
 30
0.0
 10
285.4791525331239
 20
482.2917430495425
 30
0.0
 10
285.4503529395673
 20
482.5873890521044
 30
0.0
 10
285.4285595877213
 20
482.7223184134902
 30
0.0
 10
285.3777630526111
 20
482.9354026748372
 30
0.0
 10
285.3453684147984
 20
483.0277585698547
 30
0.0
 10
285.2734571046031
 20
483.1502315032636
 30
0.0
 10
285.2339162081166
 20
483.1803482833495
 30
0.0
 10
285.1964084976778
 20
483.1803482833495
 30
0.0
  0
LINE
  5
19C
330
6C
100
AcDbEntity
  8
Viditelná (ISO)
100
AcDbLine
 10
285.1964084976779
 20
483.1803482833495
 30
0.0
 11
284.7822980255138
 21
483.1803482833495
 31
0.0
  0
SPLINE
  5
19D
330
6C
100
AcDbEntity
  8
Viditelná (ISO)
100
AcDbSpline
210
0.0
220
0.0
230
1.0
 70
     8
 71
     3
 72
    14
 73
    10
 74
     0
 42
0.0000000001
 43
0.0000000001
 40
0.5424462007651196
 40
0.5424462007651196
 40
0.5424462007651196
 40
0.5424462007651196
 40
0.5876546416652476
 40
0.5876546416652476
 40
0.6328630825653756
 40
0.6328630825653756
 40
0.6780664019597836
 40
0.6780664019597836
 40
0.7232697213541917
 40
0.7232697213541917
 40
0.7232697213541917
 40
0.7232697213541917
 10
284.7822980255138
 20
483.1803482833495
 30
0.0
 10
284.741804468878
 20
483.1803482833495
 30
0.0
 10
284.698148391694
 20
483.1502315032636
 30
0.0
 10
284.6170148242565
 20
483.0277585698547
 30
0.0
 10
284.5795612945281
 20
482.9354026748372
 30
0.0
 10
284.5200629959808
 20
482.7223184134902
 30
0.0
 10
284.494054620265
 20
482.5873890521045
 30
0.0
 10
284.4594643314835
 20
482.2917430495425
 30
0.0
 10
284.4509066471182
 20
482.1310260146643
 30
0.0
 10
284.4509066471182
 20
481.9803482833496
 30
0.0
  0
LINE
  5
19E
330
6C
100
AcDbEntity
  8
Viditelná (ISO)
100
AcDbLine
 10
284.4509066471182
 20
481.9803482833496
 30
0.0
 11
284.4509066471182
 21
481.6869716688338
 31
0.0
  0
SPLINE
  5
19F
330
6C
100
AcDbEntity
  8
Viditelná (ISO)
100
AcDbSpline
210
0.0
220
0.0
230
1.0
 70
     8
 71
     3
 72
    16
 73
    12
 74
     0
 42
0.0000000001
 43
0.0000000001
 40
0.0
 40
0.0
 40
0.0
 40
0.0
 40
0.0403287774009559
 40
0.0403287774009559
 40
0.0791552835334172
 40
0.0791552835334172
 40
0.1179537193923184
 40
0.1179537193923184
 40
0.1387470047834856
 40
0.1387470047834856
 40
0.1582926446344655
 40
0.1582926446344655
 40
0.1582926446344655
 40
0.1582926446344655
 10
284.4509066471214
 20
481.6869716687782
 30
0.0
 10
284.4509066471214
 20
481.5525424107749
 30
0.0
 10
284.4432901519618
 20
481.4194348340612
 30
0.0
 10
284.4141448674589
 20
481.1762802283243
 30
0.0
 10
284.3934048702416
 20
481.0677789496162
 30
0.0
 10
284.3410000969582
 20
480.8843800134019
 30
0.0
 10
284.3098196707103
 20
480.8111525574455
 30
0.0
 10
284.2566414608638
 20
480.7333014757973
 30
0.0
 10
284.2372409010931
 20
480.7128211716475
 30
0.0
 10
284.1985368844042
 20
480.6867222183856
 30
0.0
 10
284.1793903007187
 20
480.6803482828776
 30
0.0
 10
284.1601184828929
 20
480.6803482828414
 30
0.0
  0
SPLINE
  5
1A0
330
6C
100
AcDbEntity
  8
Viditelná (ISO)
100
AcDbSpline
210
0.0
220
0.0
230
1.0
 70
     8
 71
     3
 72
    16
 73
    12
 74
     0
 42
0.0000000001
 43
0.0000000001
 40
-0.1582931286142127
 40
-0.1582931286142127
 40
-0.1582931286142127
 40
-0.1582931286142127
 40
-0.1387798483591346
 40
-0.1387798483591346
 40
-0.1180224149025915
 40
-0.1180224149025915
 40
-0.0792268234308682
 40
-0.0792268234308682
 40
-0.0403978763137955
 40
-0.0403978763137955
 40
0.0
 40
0.0
 40
0.0
 40
0.0
 10
266.8882228320808
 20
480.6803482828935
 30
0.0
 10
266.844038000499
 20
480.6803482829264
 30
0.0
 10
266.7998992706986
 20
480.686701131836
 30
0.0
 10
266.7102007345828
 20
480.7127134745017
 30
0.0
 10
266.664972535945
 20
480.7331250690787
 30
0.0
 10
266.5402039356777
 20
480.8108016709218
 30
0.0
 10
266.4661673262959
 20
480.8839489519097
 30
0.0
 10
266.3408645926862
 20
481.0672183634864
 30
0.0
 10
266.2907825042266
 20
481.175676270073
 30
0.0
 10
266.2201167153792
 20
481.4189809934751
 30
0.0
 10
266.2015102586236
 20
481.5523120810826
 30
0.0
 10
266.2015102586236
 20
481.6869716687953
 30
0.0
  0
LINE
  5
1A1
330
6C
100
AcDbEntity
  8
Viditelná (ISO)
100
AcDbLine
 10
266.2015102586236
 20
481.9803482833496
 30
0.0
 11
266.2015102586236
 21
481.6869716687809
 31
0.0
  0
SPLINE
  5
1A2
330
6C
100
AcDbEntity
  8
Viditelná (ISO)
100
AcDbSpline
210
0.0
220
0.0
230
1.0
 70
     8
 71
     3
 72
    14
 73
    10
 74
     0
 42
0.0000000001
 43
0.0000000001
 40
0.0
 40
0.0
 40
0.0
 40
0.0
 40
0.0452033193944082
 40
0.0452033193944082
 40
0.0904066387888164
 40
0.0904066387888164
 40
0.1356150796889449
 40
0.1356150796889449
 40
0.1808235205890735
 40
0.1808235205890735
 40
0.1808235205890735
 40
0.1808235205890735
 10
266.2015102586236
 20
481.9803482833496
 30
0.0
 10
266.2015102586236
 20
482.1310260146643
 30
0.0
 10
266.1807757471576
 20
482.2917430495425
 30
0.0
 10
266.0963030990988
 20
482.5873890521044
 30
0.0
 10
266.0325475307185
 20
482.7223184134902
 30
0.0
 10
265.885067052512
 20
482.9354026748371
 30
0.0
 10
265.7915043641992
 20
483.0277585698547
 30
0.0
 10
265.5858167538646
 20
483.1502315032636
 30
0.0
 10
265.473673834989
 20
483.1803482833495
 30
0.0
 10
265.3682150181977
 20
483.1803482833495
 30
0.0
  0
LINE
  5
1A3
330
6C
100
AcDbEntity
  8
Viditelná (ISO)
100
AcDbLine
 10
265.3682150181978
 20
483.1803482833495
 30
0.0
 11
264.2368441682993
 21
483.1803482833495
 31
0.0
  0
SPLINE
  5
1A4
330
6C
100
AcDbEntity
  8
Viditelná (ISO)
100
AcDbSpline
210
0.0
220
0.0
230
1.0
 70
     8
 71
     3
 72
    14
 73
    10
 74
     0
 42
0.0000000001
 43
0.0000000001
 40
0.5424462007651165
 40
0.5424462007651165
 40
0.5424462007651165
 40
0.5424462007651165
 40
0.5876546416652451
 40
0.5876546416652451
 40
0.632863082565374
 40
0.632863082565374
 40
0.6780664019597824
 40
0.6780664019597824
 40
0.7232697213541909
 40
0.7232697213541909
 40
0.7232697213541909
 40
0.7232697213541909
 10
264.2368441682992
 20
483.1803482833495
 30
0.0
 10
264.1291995603882
 20
483.1803482833495
 30
0.0
 10
264.0140441201597
 20
483.1502315032636
 30
0.0
 10
263.8016053489634
 20
483.0277585698547
 30
0.0
 10
263.7043392947384
 20
482.9354026748372
 30
0.0
 10
263.5504886835803
 20
482.7223184134902
 30
0.0
 10
263.4836475035723
 20
482.5873890521044
 30
0.0
 10
263.3949357723976
 20
482.2917430495425
 30
0.0
 10
263.3730831338773
 20
482.1310260146643
 30
0.0
 10
263.3730831338773
 20
481.9803482833496
 30
0.0
  0
LINE
  5
1A5
330
6C
100
AcDbEntity
  8
Viditelná (ISO)
100
AcDbLine
 10
263.3730831338775
 20
481.9803482833496
 30
0.0
 11
263.3730831338775
 21
481.6869716688338
 31
0.0
  0
SPLINE
  5
1A6
330
6C
100
AcDbEntity
  8
Viditelná (ISO)
100
AcDbSpline
210
0.0
220
0.0
230
1.0
 70
     8
 71
     3
 72
    16
 73
    12
 74
     0
 42
0.0000000001
 43
0.0000000001
 40
0.0
 40
0.0
 40
0.0
 40
0.0
 40
0.0403287774007984
 40
0.0403287774007984
 40
0.0791552835333909
 40
0.0791552835333909
 40
0.1179537193924119
 40
0.1179537193924119
 40
0.1387470047835102
 40
0.1387470047835102
 40
0.1582926446344094
 40
0.1582926446344094
 40
0.1582926446344094
 40
0.1582926446344094
 10
263.3730831338797
 20
481.6869716687784
 30
0.0
 10
263.3730831338796
 20
481.5525424107757
 30
0.0
 10
263.3535826534526
 20
481.4194348340627
 30
0.0
 10
263.2792319144658
 20
481.1762802283255
 30
0.0
 10
263.2263999714507
 20
481.0677789496171
 30
0.0
 10
263.093594846994
 20
480.8843800134022
 30
0.0
 10
263.0148621904695
 20
480.8111525574457
 30
0.0
 10
262.8813954848642
 20
480.7333014757973
 30
0.0
 10
262.8328396497733
 20
480.7128211716475
 30
0.0
 10
262.7362759916531
 20
480.6867222183856
 30
0.0
 10
262.6886418004506
 20
480.6803482828777
 30
0.0
 10
262.6408361949541
 20
480.6803482828414
 30
0.0
  0
SPLINE
  5
1A7
330
6C
100
AcDbEntity
  8
Viditelná (ISO)
100
AcDbSpline
210
0.0
220
0.0
230
1.0
 70
     8
 71
     3
 72
    16
 73
    12
 74
     0
 42
0.0000000001
 43
0.0000000001
 40
-0.158293128614248
 40
-0.158293128614248
 40
-0.158293128614248
 40
-0.158293128614248
 40
-0.1387798483591425
 40
-0.1387798483591425
 40
-0.1180224149025795
 40
-0.1180224149025795
 40
-0.0792268234308872
 40
-0.0792268234308872
 40
-0.0403978763138753
 40
-0.0403978763138753
 40
0.0
 40
0.0
 40
0.0
 40
0.0
 10
232.7250353847369
 20
480.6803482828935
 30
0.0
 10
232.6629069670529
 20
480.6803482829264
 30
0.0
 10
232.6009038021563
 20
480.686701131836
 30
0.0
 10
232.4750191470228
 20
480.7127134745019
 30
0.0
 10
232.4116106568492
 20
480.7331250690789
 30
0.0
 10
232.2368480987403
 20
480.810801670922
 30
0.0
 10
232.1333484084842
 20
480.8839489519097
 30
0.0
 10
231.9583834755234
 20
481.0672183634861
 30
0.0
 10
231.8885661057365
 20
481.1756762700723
 30
0.0
 10
231.7900987116067
 20
481.4189809934745
 30
0.0
 10
231.7642013815405
 20
481.5523120810822
 30
0.0
 10
231.7642013815406
 20
481.6869716687952
 30
0.0
  0
LINE
  5
1A8
330
6C
100
AcDbEntity
  8
Viditelná (ISO)
100
AcDbLine
 10
231.7642013815406
 20
481.9803482833496
 30
0.0
 11
231.7642013815406
 21
481.6869716687808
 31
0.0
  0
SPLINE
  5
1A9
330
6C
100
AcDbEntity
  8
Viditelná (ISO)
100
AcDbSpline
210
0.0
220
0.0
230
1.0
 70
     8
 71
     3
 72
    14
 73
    10
 74
     0
 42
0.0000000001
 43
0.0000000001
 40
0.0
 40
0.0
 40
0.0
 40
0.0
 40
0.0452033193944077
 40
0.0452033193944077
 40
0.0904066387888154
 40
0.0904066387888154
 40
0.1356150796889437
 40
0.1356150796889437
 40
0.1808235205890719
 40
0.1808235205890719
 40
0.1808235205890719
 40
0.1808235205890719
 10
231.7642013815406
 20
481.9803482833496
 30
0.0
 10
231.7642013815406
 20
482.1310260146643
 30
0.0
 10
231.7353184486159
 20
482.2917430495425
 30
0.0
 10
231.6178071238846
 20
482.5873890521044
 30
0.0
 10
231.5291725920305
 20
482.7223184134902
 30
0.0
 10
231.3245254457624
 20
482.9354026748371
 30
0.0
 10
231.1948647537247
 20
483.0277585698547
 30
0.0
 10
230.9105146723331
 20
483.1502315032636
 30
0.0
 10
230.755818335618
 20
483.1803482833495
 30
0.0
 10
230.6106660172682
 20
483.1803482833495
 30
0.0
  0
LINE
  5
1AA
330
6C
100
AcDbEntity
  8
Viditelná (ISO)
100
AcDbLine
 10
230.610666017268
 20
483.1803482833495
 30
0.0
 11
229.0651846952057
 21
483.1803482833495
 31
0.0
  0
SPLINE
  5
1AB
330
6C
100
AcDbEntity
  8
Viditelná (ISO)
100
AcDbSpline
210
0.0
220
0.0
230
1.0
 70
     8
 71
     3
 72
    14
 73
    10
 74
     0
 42
0.0000000001
 43
0.0000000001
 40
0.5424462007651182
 40
0.5424462007651182
 40
0.5424462007651182
 40
0.5424462007651182
 40
0.5876546416652462
 40
0.5876546416652462
 40
0.6328630825653744
 40
0.6328630825653744
 40
0.6780664019597823
 40
0.6780664019597823
 40
0.7232697213541903
 40
0.7232697213541903
 40
0.7232697213541903
 40
0.7232697213541903
 10
229.0651846952057
 20
483.1803482833495
 30
0.0
 10
228.9192323217787
 20
483.1803482833495
 30
0.0
 10
228.763433325719
 20
483.1502315032636
 30
0.0
 10
228.4766121479469
 20
483.0277585698547
 30
0.0
 10
228.3455959299058
 20
482.9354026748371
 30
0.0
 10
228.138617153152
 20
482.7223184134902
 30
0.0
 10
228.0488532090559
 20
482.5873890521044
 30
0.0
 10
227.9297902722155
 20
482.2917430495425
 30
0.0
 10
227.9004980763843
 20
482.1310260146643
 30
0.0
 10
227.9004980763843
 20
481.9803482833496
 30
0.0
  0
LINE
  5
1AC
330
6C
100
AcDbEntity
  8
Viditelná (ISO)
100
AcDbLine
 10
227.9004980763843
 20
481.9803482833496
 30
0.0
 11
227.9004980763843
 21
481.6869716688338
 31
0.0
  0
SPLINE
  5
1AD
330
6C
100
AcDbEntity
  8
Viditelná (ISO)
100
AcDbSpline
210
0.0
220
0.0
230
1.0
 70
     8
 71
     3
 72
    16
 73
    12
 74
     0
 42
0.0000000001
 43
0.0000000001
 40
0.0
 40
0.0
 40
0.0
 40
0.0
 40
0.0403287774008521
 40
0.0403287774008521
 40
0.0791552835333998
 40
0.0791552835333998
 40
0.1179537193924036
 40
0.1179537193924036
 40
0.1387470047835361
 40
0.1387470047835361
 40
0.1582926446344861
 40
0.1582926446344861
 40
0.1582926446344861
 40
0.1582926446344861
 10
227.9004980763851
 20
481.6869716687783
 30
0.0
 10
227.9004980763851
 20
481.5525424107755
 30
0.0
 10
227.8743387486731
 20
481.4194348340622
 30
0.0
 10
227.7747047756705
 20
481.1762802283251
 30
0.0
 10
227.7039371633232
 20
481.0677789496168
 30
0.0
 10
227.5263167135424
 20
480.8843800134022
 30
0.0
 10
227.4211281784752
 20
480.8111525574457
 30
0.0
 10
227.2431352730944
 20
480.7333014757975
 30
0.0
 10
227.1784346594837
 20
480.7128211716476
 30
0.0
 10
227.0498855141432
 20
480.6867222183857
 30
0.0
 10
226.9865272584886
 20
480.6803482828777
 30
0.0
 10
226.9229973387076
 20
480.6803482828414
 30
0.0
  0
SPLINE
  5
1AE
330
6C
100
AcDbEntity
  8
Viditelná (ISO)
100
AcDbSpline
210
0.0
220
0.0
230
1.0
 70
     8
 71
     3
 72
    16
 73
    12
 74
     0
 42
0.0000000001
 43
0.0000000001
 40
-0.1582931278159433
 40
-0.1582931278159433
 40
-0.1582931278159433
 40
-0.1582931278159433
 40
-0.1387798374070199
 40
-0.1387798374070199
 40
-0.1180223523920254
 40
-0.1180223523920254
 40
-0.079226823640687
 40
-0.079226823640687
 40
-0.0403978454709807
 40
-0.0403978454709807
 40
0.0
 40
0.0
 40
0.0
 40
0.0
 10
192.3792060336546
 20
480.6803482775159
 30
0.0
 10
192.3157812561981
 20
480.6803482778144
 30
0.0
 10
192.2525273214379
 20
480.686701133679
 30
0.0
 10
192.1241870450174
 20
480.7127135303081
 30
0.0
 10
192.0595883630289
 20
480.7331252000239
 30
0.0
 10
191.8816594138982
 20
480.8108019006106
 30
0.0
 10
191.7764294964218
 20
480.8839490946083
 30
0.0
 10
191.5986841488593
 20
481.0672184312122
 30
0.0
 10
191.5278389637157
 20
481.175676437158
 30
0.0
 10
191.4279542942408
 20
481.4189811922508
 30
0.0
 10
191.4017052993945
 20
481.5523121801024
 30
0.0
 10
191.4017052993948
 20
481.6869716650057
 30
0.0
  0
LINE
  5
1AF
330
6C
100
AcDbEntity
  8
Viditelná (ISO)
100
AcDbLine
 10
191.4017052993948
 20
481.9803482833496
 30
0.0
 11
191.4017052993948
 21
481.6869716635819
 31
0.0
  0
SPLINE
  5
1B0
330
6C
100
AcDbEntity
  8
Viditelná (ISO)
100
AcDbSpline
210
0.0
220
0.0
230
1.0
 70
     8
 71
     3
 72
    14
 73
    10
 74
     0
 42
0.0000000001
 43
0.0000000001
 40
0.0
 40
0.0
 40
0.0
 40
0.0
 40
0.0452033193944079
 40
0.0452033193944079
 40
0.0904066387888157
 40
0.0904066387888157
 40
0.1356150796889438
 40
0.1356150796889438
 40
0.180823520589072
 40
0.180823520589072
 40
0.180823520589072
 40
0.180823520589072
 10
191.4017052993948
 20
481.9803482833496
 30
0.0
 10
191.4017052993948
 20
482.1310260146643
 30
0.0
 10
191.3724131035636
 20
482.2917430495425
 30
0.0
 10
191.2533501667232
 20
482.5873890521044
 30
0.0
 10
191.1635862226271
 20
482.7223184134902
 30
0.0
 10
190.9566074458732
 20
482.9354026748371
 30
0.0
 10
190.8255912278322
 20
483.0277585698547
 30
0.0
 10
190.5387700500601
 20
483.1502315032636
 30
0.0
 10
190.3829710540005
 20
483.1803482833495
 30
0.0
 10
190.2370186805734
 20
483.1803482833495
 30
0.0
  0
LINE
  5
1B1
330
6C
100
AcDbEntity
  8
Viditelná (ISO)
100
AcDbLine
 10
190.2370186805735
 20
483.1803482833495
 30
0.0
 11
188.6915373585109
 21
483.1803482833495
 31
0.0
  0
SPLINE
  5
1B2
330
6C
100
AcDbEntity
  8
Viditelná (ISO)
100
AcDbSpline
210
0.0
220
0.0
230
1.0
 70
     8
 71
     3
 72
    14
 73
    10
 74
     0
 42
0.0000000001
 43
0.0000000001
 40
0.5424462007651185
 40
0.5424462007651185
 40
0.5424462007651185
 40
0.5424462007651185
 40
0.5876546416652467
 40
0.5876546416652467
 40
0.6328630825653749
 40
0.6328630825653749
 40
0.6780664019597826
 40
0.6780664019597826
 40
0.7232697213541903
 40
0.7232697213541903
 40
0.7232697213541903
 40
0.7232697213541903
 10
188.6915373585109
 20
483.1803482833495
 30
0.0
 10
188.5463850401611
 20
483.1803482833495
 30
0.0
 10
188.3916887034461
 20
483.1502315032636
 30
0.0
 10
188.1073386220544
 20
483.0277585698547
 30
0.0
 10
187.9776779300167
 20
482.9354026748371
 30
0.0
 10
187.7730307837485
 20
482.7223184134902
 30
0.0
 10
187.6843962518945
 20
482.5873890521044
 30
0.0
 10
187.5668849271632
 20
482.2917430495425
 30
0.0
 10
187.5380019942386
 20
482.1310260146643
 30
0.0
 10
187.5380019942386
 20
481.9803482833496
 30
0.0
  0
LINE
  5
1B3
330
6C
100
AcDbEntity
  8
Viditelná (ISO)
100
AcDbLine
 10
187.5380019942386
 20
481.9803482833496
 30
0.0
 11
187.5380019942386
 21
481.6869716688338
 31
0.0
  0
SPLINE
  5
1B4
330
6C
100
AcDbEntity
  8
Viditelná (ISO)
100
AcDbSpline
210
0.0
220
0.0
230
1.0
 70
     8
 71
     3
 72
    16
 73
    12
 74
     0
 42
0.0000000001
 43
0.0000000001
 40
0.0
 40
0.0
 40
0.0
 40
0.0
 40
0.0403287774009593
 40
0.0403287774009593
 40
0.0791552835334322
 40
0.0791552835334322
 40
0.117953719392336
 40
0.117953719392336
 40
0.1387470047834962
 40
0.1387470047834962
 40
0.158292644634479
 40
0.158292644634479
 40
0.158292644634479
 40
0.158292644634479
 10
187.5380019942377
 20
481.6869716687783
 30
0.0
 10
187.5380019942377
 20
481.5525424107751
 30
0.0
 10
187.5121931899757
 20
481.4194348340614
 30
0.0
 10
187.413972825562
 20
481.1762802283243
 30
0.0
 10
187.3442316684615
 20
481.0677789496161
 30
0.0
 10
187.1693891494352
 20
480.8843800134017
 30
0.0
 10
187.0659299188498
 20
480.8111525574453
 30
0.0
 10
186.8911038689491
 20
480.7333014757971
 30
0.0
 10
186.8275949539853
 20
480.7128211716473
 30
0.0
 10
186.7015049611062
 20
480.6867222183854
 30
0.0
 10
186.6393994344358
 20
480.6803482828775
 30
0.0
 10
186.577167991071
 20
480.6803482828414
 30
0.0
  0
SPLINE
  5
1B5
330
6C
100
AcDbEntity
  8
Viditelná (ISO)
100
AcDbSpline
210
0.0
220
0.0
230
1.0
 70
     8
 71
     3
 72
    16
 73
    12
 74
     0
 42
0.0000000001
 43
0.0000000001
 40
-0.158293128614305
 40
-0.158293128614305
 40
-0.158293128614305
 40
-0.158293128614305
 40
-0.1387798483592024
 40
-0.1387798483592024
 40
-0.1180224149026352
 40
-0.1180224149026352
 40
-0.0792268234309128
 40
-0.0792268234309128
 40
-0.0403978763138664
 40
-0.0403978763138664
 40
0.0
 40
0.0
 40
0.0
 40
0.0
 10
156.6613671808719
 20
480.6803482828935
 30
0.0
 10
156.6136407187274
 20
480.6803482829263
 30
0.0
 10
156.5660849115301
 20
480.6867011318359
 30
0.0
 10
156.4696780231805
 20
480.7127134745014
 30
0.0
 10
156.4211985808088
 20
480.7331250690785
 30
0.0
 10
156.2877790194429
 20
480.8108016709215
 30
0.0
 10
156.209014808
 20
480.8839489519092
 30
0.0
 10
156.0761156430172
 20
481.0672183634858
 30
0.0
 10
156.0232256252044
 20
481.1756762700722
 30
0.0
 10
155.9486875735855
 20
481.4189809934747
 30
0.0
 10
155.9291202419025
 20
481.5523120810823
 30
0.0
 10
155.9291202419024
 20
481.6869716687953
 30
0.0
  0
LINE
  5
1B6
330
6C
100
AcDbEntity
  8
Viditelná (ISO)
100
AcDbLine
 10
155.9291202419024
 20
481.9803482833496
 30
0.0
 11
155.9291202419024
 21
481.6869716687809
 31
0.0
  0
SPLINE
  5
1B7
330
6C
100
AcDbEntity
  8
Viditelná (ISO)
100
AcDbSpline
210
0.0
220
0.0
230
1.0
 70
     8
 71
     3
 72
    14
 73
    10
 74
     0
 42
0.0000000001
 43
0.0000000001
 40
0.0
 40
0.0
 40
0.0
 40
0.0
 40
0.0452033193944074
 40
0.0452033193944074
 40
0.0904066387888149
 40
0.0904066387888149
 40
0.135615079688943
 40
0.135615079688943
 40
0.1808235205890711
 40
0.1808235205890711
 40
0.1808235205890711
 40
0.1808235205890711
 10
155.9291202419024
 20
481.9803482833496
 30
0.0
 10
155.9291202419024
 20
482.1310260146643
 30
0.0
 10
155.9072676033822
 20
482.2917430495425
 30
0.0
 10
155.8185558722076
 20
482.5873890521044
 30
0.0
 10
155.7517146921995
 20
482.7223184134902
 30
0.0
 10
155.5978640810415
 20
482.9354026748371
 30
0.0
 10
155.5005980268165
 20
483.0277585698547
 30
0.0
 10
155.2881592556202
 20
483.1502315032636
 30
0.0
 10
155.1730038153917
 20
483.1803482833495
 30
0.0
 10
155.0653592074806
 20
483.1803482833495
 30
0.0
  0
LINE
  5
1B8
330
6C
100
AcDbEntity
  8
Viditelná (ISO)
100
AcDbLine
 10
155.0653592074804
 20
483.1803482833495
 30
0.0
 11
153.9339883575821
 21
483.1803482833495
 31
0.0
  0
SPLINE
  5
1B9
330
6C
100
AcDbEntity
  8
Viditelná (ISO)
100
AcDbSpline
210
0.0
220
0.0
230
1.0
 70
     8
 71
     3
 72
    14
 73
    10
 74
     0
 42
0.0000000001
 43
0.0000000001
 40
0.5424462007651171
 40
0.5424462007651171
 40
0.5424462007651171
 40
0.5424462007651171
 40
0.5876546416652452
 40
0.5876546416652452
 40
0.6328630825653732
 40
0.6328630825653732
 40
0.6780664019597803
 40
0.6780664019597803
 40
0.7232697213541873
 40
0.7232697213541873
 40
0.7232697213541873
 40
0.7232697213541873
 10
153.9339883575821
 20
483.1803482833495
 30
0.0
 10
153.8285295407908
 20
483.1803482833495
 30
0.0
 10
153.7163866219152
 20
483.1502315032636
 30
0.0
 10
153.5106990115806
 20
483.0277585698547
 30
0.0
 10
153.4171363232679
 20
482.9354026748371
 30
0.0
 10
153.2696558450614
 20
482.7223184134902
 30
0.0
 10
153.205900276681
 20
482.5873890521044
 30
0.0
 10
153.1214276286222
 20
482.2917430495425
 30
0.0
 10
153.1006931171562
 20
482.1310260146643
 30
0.0
 10
153.1006931171562
 20
481.9803482833496
 30
0.0
  0
LINE
  5
1BA
330
6C
100
AcDbEntity
  8
Viditelná (ISO)
100
AcDbLine
 10
153.1006931171562
 20
481.9803482833496
 30
0.0
 11
153.1006931171562
 21
481.6869716688338
 31
0.0
  0
SPLINE
  5
1BB
330
6C
100
AcDbEntity
  8
Viditelná (ISO)
100
AcDbSpline
210
0.0
220
0.0
230
1.0
 70
     8
 71
     3
 72
    16
 73
    12
 74
     0
 42
0.0000000001
 43
0.0000000001
 40
0.0
 40
0.0
 40
0.0
 40
0.0
 40
0.0403287774008596
 40
0.0403287774008596
 40
0.0791552835333966
 40
0.0791552835333966
 40
0.117953719392327
 40
0.117953719392327
 40
0.1387470047835349
 40
0.1387470047835349
 40
0.1582926446345569
 40
0.1582926446345569
 40
0.1582926446345569
 40
0.1582926446345569
 10
153.1006931171539
 20
481.6869716687782
 30
0.0
 10
153.1006931171539
 20
481.5525424107754
 30
0.0
 10
153.0821502846014
 20
481.4194348340619
 30
0.0
 10
153.0116615961018
 20
481.1762802283249
 30
0.0
 10
152.961633980972
 20
481.0677789496165
 30
0.0
 10
152.8364183044752
 20
480.8843800134017
 30
0.0
 10
152.7624101956561
 20
480.8111525574451
 30
0.0
 10
152.6375955001218
 20
480.7333014757968
 30
0.0
 10
152.5922954462817
 20
480.7128211716468
 30
0.0
 10
152.5024503176296
 20
480.6867222183853
 30
0.0
 10
152.4582386456603
 20
480.6803482828774
 30
0.0
 10
152.413980543705
 20
480.6803482828414
 30
0.0
  0
SPLINE
  5
1BC
330
6C
100
AcDbEntity
  8
Viditelná (ISO)
100
AcDbSpline
210
0.0
220
0.0
230
1.0
 70
     8
 71
     3
 72
    16
 73
    12
 74
     0
 42
0.0000000001
 43
0.0000000001
 40
-0.1582931286140497
 40
-0.1582931286140497
 40
-0.1582931286140497
 40
-0.1582931286140497
 40
-0.138779848359069
 40
-0.138779848359069
 40
-0.1180224149026211
 40
-0.1180224149026211
 40
-0.0792268234308011
 40
-0.0792268234308011
 40
-0.040397876313665
 40
-0.040397876313665
 40
0.0
 40
0.0
 40
0.0
 40
0.0
 10
135.1420848929222
 20
480.6803482828935
 30
0.0
 10
135.1228449800634
 20
480.6803482829266
 30
0.0
 10
135.1037298078335
 20
480.6867011318365
 30
0.0
 10
135.0650882614812
 20
480.7127134745022
 30
0.0
 10
135.0457179321452
 20
480.7331250690793
 30
0.0
 10
134.9925575027742
 20
480.8108016709224
 30
0.0
 10
134.9613639994464
 20
480.8839489519104
 30
0.0
 10
134.9089213132344
 20
481.0672183634874
 30
0.0
 10
134.8881582584317
 20
481.175676270074
 30
0.0
 10
134.858939306605
 20
481.418980993476
 30
0.0
 10
134.8512967286611
 20
481.552312081083
 30
0.0
 10
134.8512967286611
 20
481.6869716687953
 30
0.0
  0
LINE
  5
1BD
330
6C
100
AcDbEntity
  8
Viditelná (ISO)
100
AcDbLine
 10
134.8512967286611
 20
481.9803482833496
 30
0.0
 11
134.8512967286611
 21
481.6869716687809
 31
0.0
  0
SPLINE
  5
1BE
330
6C
100
AcDbEntity
  8
Viditelná (ISO)
100
AcDbSpline
210
0.0
220
0.0
230
1.0
 70
     8
 71
     3
 72
    14
 73
    10
 74
     0
 42
0.0000000001
 43
0.0000000001
 40
0.0
 40
0.0
 40
0.0
 40
0.0
 40
0.0452033193944078
 40
0.0452033193944078
 40
0.0904066387888156
 40
0.0904066387888156
 40
0.1356150796889438
 40
0.1356150796889438
 40
0.1808235205890721
 40
0.1808235205890721
 40
0.1808235205890721
 40
0.1808235205890721
 10
134.8512967286611
 20
481.9803482833496
 30
0.0
 10
134.8512967286611
 20
482.1310260146643
 30
0.0
 10
134.8427390442959
 20
482.2917430495425
 30
0.0
 10
134.8081487555143
 20
482.5873890521044
 30
0.0
 10
134.7821403797986
 20
482.7223184134902
 30
0.0
 10
134.7226420812513
 20
482.9354026748371
 30
0.0
 10
134.6851885515229
 20
483.0277585698547
 30
0.0
 10
134.6040549840854
 20
483.1502315032636
 30
0.0
 10
134.5603989069014
 20
483.1803482833495
 30
0.0
 10
134.5199053502656
 20
483.1803482833495
 30
0.0
  0
LINE
  5
1BF
330
6C
100
AcDbEntity
  8
Viditelná (ISO)
100
AcDbLine
 10
134.5199053502655
 20
483.1803482833495
 30
0.0
 11
134.1057948781015
 21
483.1803482833495
 31
0.0
  0
SPLINE
  5
1C0
330
6C
100
AcDbEntity
  8
Viditelná (ISO)
100
AcDbSpline
210
0.0
220
0.0
230
1.0
 70
     8
 71
     3
 72
    14
 73
    10
 74
     0
 42
0.0000000001
 43
0.0000000001
 40
0.5424462007651184
 40
0.5424462007651184
 40
0.5424462007651184
 40
0.5424462007651184
 40
0.5876546416652464
 40
0.5876546416652464
 40
0.6328630825653745
 40
0.6328630825653745
 40
0.6780664019597822
 40
0.6780664019597822
 40
0.72326972135419
 40
0.72326972135419
 40
0.72326972135419
 40
0.72326972135419
 10
134.1057948781015
 20
483.1803482833495
 30
0.0
 10
134.0682871676628
 20
483.1803482833495
 30
0.0
 10
134.0287462711762
 20
483.1502315032636
 30
0.0
 10
133.9568349609809
 20
483.0277585698547
 30
0.0
 10
133.9244403231682
 20
482.9354026748371
 30
0.0
 10
133.8736437880581
 20
482.7223184134902
 30
0.0
 10
133.851850436212
 20
482.5873890521044
 30
0.0
 10
133.8230508426554
 20
482.2917430495425
 30
0.0
 10
133.816020548251
 20
482.1310260146643
 30
0.0
 10
133.816020548251
 20
481.9803482833496
 30
0.0
  0
LINE
  5
1C1
330
6C
100
AcDbEntity
  8
Viditelná (ISO)
100
AcDbLine
 10
133.816020548251
 20
481.9803482833496
 30
0.0
 11
133.816020548251
 21
481.6869716688338
 31
0.0
  0
SPLINE
  5
1C2
330
6C
100
AcDbEntity
  8
Viditelná (ISO)
100
AcDbSpline
210
0.0
220
0.0
230
1.0
 70
     8
 71
     3
 72
    16
 73
    12
 74
     0
 42
0.0000000001
 43
0.0000000001
 40
0.0
 40
0.0
 40
0.0
 40
0.0
 40
0.0403287774008663
 40
0.0403287774008663
 40
0.0791552835334036
 40
0.0791552835334036
 40
0.1179537193923767
 40
0.1179537193923767
 40
0.1387470047835388
 40
0.1387470047835388
 40
0.1582926446345088
 40
0.1582926446345088
 40
0.1582926446345088
 40
0.1582926446345088
 10
133.8160205482479
 20
481.6869716687782
 30
0.0
 10
133.8160205482479
 20
481.5525424107753
 30
0.0
 10
133.8097122244128
 20
481.4194348340619
 30
0.0
 10
133.785842598986
 20
481.1762802283249
 30
0.0
 10
133.7689333849004
 20
481.0677789496167
 30
0.0
 10
133.7268959903301
 20
480.884380013402
 30
0.0
 10
133.7021694162688
 20
480.8111525574455
 30
0.0
 10
133.6608100719732
 20
480.7333014757973
 30
0.0
 10
133.6458569921004
 20
480.7128211716475
 30
0.0
 10
133.6163306573419
 20
480.6867222183856
 30
0.0
 10
133.601859321874
 20
480.6803482828776
 30
0.0
 10
133.5874334840059
 20
480.6803482828414
 30
0.0
  0
LINE
  5
1C3
330
6C
100
AcDbEntity
  8
Viditelná tenká (ISO)
100
AcDbLine
 10
191.4017052993948
 20
481.6869716635819
 30
0.0
 11
193.9057927619545
 21
480.8411806027526
 31
0.0
  0
LINE
  5
1C4
330
6C
100
AcDbEntity
  8
Viditelná tenká (ISO)
100
AcDbLine
 10
193.9057987935567
 20
480.8411873119853
 30
0.0
 11
193.7892193899704
 21
481.8071337618717
 31
0.0
  0
ELLIPSE
  5
1C5
330
6C
100
AcDbEntity
  8
Viditelná tenká (ISO)
100
AcDbEllipse
 10
193.7188484751674
 20
481.6803482833496
 30
0.0
 11
-0.0000000000000008
 21
0.2999999999999846
 31
0.0
210
0.0
220
0.0
230
1.0
 40
0.2588190451025128
 41
5.148721293383273
 42
6.283185307179577
  0
LINE
  5
1C6
330
6C
100
AcDbEntity
  8
Viditelná tenká (ISO)
100
AcDbLine
 10
193.7188484751674
 20
481.9803482833496
 30
0.0
 11
191.4017052993948
 21
481.9803482833496
 31
0.0
  0
LINE
  5
1C7
330
6C
100
AcDbEntity
  8
Viditelná (ISO)
100
AcDbLine
 10
190.2370186805734
 20
483.1803482833495
 30
0.0
 11
192.5597374836206
 21
483.1803482833495
 31
0.0
  0
ELLIPSE
  5
1C8
330
6C
100
AcDbEntity
  8
Viditelná tenká (ISO)
100
AcDbEllipse
 10
192.5597374836206
 20
481.9803482833496
 30
0.0
 11
0.0000000000000002
 21
1.199999999999998
 31
0.0
210
0.0
220
0.0
230
1.0
 40
0.9659258262890672
 41
4.712388980384689
 42
6.283185307179584
  0
ELLIPSE
  5
1C9
330
6C
100
AcDbEntity
  8
Viditelná tenká (ISO)
100
AcDbEllipse
 10
192.6301083984235
 20
481.8071337618716
 30
0.0
 11
1.191354785549022
 21
0.1437837784645866
 31
0.0
210
0.0
220
0.0
230
1.0
 40
0.4082178936767179
 41
5.995724816017789
 42
6.283185307179556
  0
SPLINE
  5
1CA
330
6C
100
AcDbEntity
  8
Viditelná tenká (ISO)
100
AcDbSpline
210
0.0
220
0.0
230
1.0
 70
     8
 71
     3
 72
    11
 73
     7
 74
     0
 42
0.0000000001
 43
0.0000000001
 40
0.0
 40
0.0
 40
0.0
 40
0.0
 40
0.1250000000000452
 40
0.1250000000000452
 40
0.1250000000000452
 40
0.1871972639987856
 40
0.1871972639987856
 40
0.1871972639987856
 40
0.1871972639987856
 10
193.9057998949318
 20
480.8411781938469
 30
0.0
 10
193.9305391276253
 20
480.8033339986951
 30
0.0
 10
193.949761128558
 20
480.7695351110113
 30
0.0
 10
193.9613467994985
 20
480.7395303175755
 30
0.0
 10
193.9671115757712
 20
480.7246005891069
 30
0.0
 10
193.9709872904077
 20
480.7106125435641
 30
0.0
 10
193.9726307153111
 20
480.6974025289775
 30
0.0
  0
SPLINE
  5
1CB
330
6C
100
AcDbEntity
  8
Viditelná (ISO)
100
AcDbSpline
210
0.0
220
0.0
230
1.0
 70
     8
 71
     3
 72
     8
 73
     4
 74
     0
 42
0.0000000001
 43
0.0000000001
 40
0.1871972639987856
 40
0.1871972639987856
 40
0.1871972639987856
 40
0.1871972639987856
 40
0.18782072751418
 40
0.18782072751418
 40
0.18782072751418
 40
0.18782072751418
 10
193.9726307153111
 20
480.6974025289775
 30
0.0
 10
193.9726471889533
 20
480.6972701121861
 30
0.0
 10
193.972663438295
 20
480.6971377735711
 30
0.0
 10
193.9726794629905
 20
480.697005512968
 30
0.0
  0
ELLIPSE
  5
1CC
330
6C
100
AcDbEntity
  8
Viditelná tenká (ISO)
100
AcDbEllipse
 10
194.8717196672244
 20
480.8412283481007
 30
0.0
 11
-0.319952679223865
 21
-0.9474335243466558
 31
0.0
210
0.0
220
0.0
230
1.0
 40
0.9622572245491728
 41
5.02662855636065
 42
5.188787283999675
  0
LINE
  5
1CD
330
6C
100
AcDbEntity
  8
Viditelná tenká (ISO)
100
AcDbLine
 10
225.5129839858087
 20
481.8071337618717
 30
0.0
 11
225.3964095348425
 21
480.8412283481005
 31
0.0
  0
SPLINE
  5
1CE
330
6C
100
AcDbEntity
  8
Viditelná tenká (ISO)
100
AcDbSpline
210
0.0
220
0.0
230
1.0
 70
    12
 71
     3
 72
     8
 73
     4
 74
     0
 42
0.0000000001
 43
0.0000000001
 40
0.0
 40
0.0
 40
0.0
 40
0.0
 40
0.0097119500770137
 40
0.0097119500770137
 40
0.0097119500770137
 40
0.0097119500770137
 10
225.3964095348425
 20
480.8412283481005
 30
0.0
 41
1.0
 10
226.2311064719114
 20
481.123109360857
 30
0.0
 41
1.0
 10
227.065802558843
 20
481.405027936099
 30
0.0
 41
1.0
 10
227.9004980763855
 20
481.6869716687785
 30
0.0
 41
1.0
  0
LINE
  5
1CF
330
6C
100
AcDbEntity
  8
Viditelná tenká (ISO)
100
AcDbLine
 10
227.9004980763843
 20
481.9803482833496
 30
0.0
 11
225.5833549006116
 21
481.9803482833496
 31
0.0
  0
ELLIPSE
  5
1D0
330
6C
100
AcDbEntity
  8
Viditelná tenká (ISO)
100
AcDbEllipse
 10
225.5833549006116
 20
481.6803482833496
 30
0.0
 11
0.0000000000000023
 21
0.2999999999999986
 31
0.0
210
0.0
220
0.0
230
1.0
 40
0.2588190451025211
 41
0.0000000000000286
 42
1.134464013796498
  0
LINE
  5
1D1
330
6C
100
AcDbEntity
  8
Viditelná (ISO)
100
AcDbLine
 10
226.7424658921585
 20
483.1803482833495
 30
0.0
 11
229.0651846952057
 21
483.1803482833495
 31
0.0
  0
LINE
  5
1D2
330
6C
100
AcDbEntity
  8
Viditelná tenká (ISO)
100
AcDbLine
 10
256.8502733346383
 20
481.8071337618717
 30
0.0
 11
256.5317860117342
 21
480.8412283481005
 31
0.0
  0
SPLINE
  5
1D3
330
6C
100
AcDbEntity
  8
Viditelná tenká (ISO)
100
AcDbSpline
210
0.0
220
0.0
230
1.0
 70
    12
 71
     3
 72
     8
 73
     4
 74
     0
 42
0.0000000001
 43
0.0000000001
 40
0.0
 40
0.0
 40
0.0
 40
0.0
 40
0.0097119500770137
 40
0.0097119500770137
 40
0.0097119500770137
 40
0.0097119500770137
 10
256.5317860117342
 20
480.8412283481005
 30
0.0
 41
1.0
 10
258.812220452729
 20
481.1231093608484
 30
0.0
 41
1.0
 10
261.0926525711043
 20
481.405027936103
 30
0.0
 41
1.0
 10
263.3730831338809
 20
481.6869716687785
 30
0.0
 41
1.0
  0
LINE
  5
1D4
330
6C
100
AcDbEntity
  8
Viditelná tenká (ISO)
100
AcDbLine
 10
263.3730831338775
 20
481.9803482833496
 30
0.0
 11
257.042530249255
 21
481.9803482833496
 31
0.0
  0
ELLIPSE
  5
1D5
330
6C
100
AcDbEntity
  8
Viditelná tenká (ISO)
100
AcDbEllipse
 10
257.042530249255
 20
481.6803482833496
 30
0.0
 11
-0.0000000000000266
 21
0.3000000000000005
 31
0.0
210
0.0
220
0.0
230
1.0
 40
0.7071067811865975
 41
0.000000000000335
 42
1.134464013796407
  0
LINE
  5
1D6
330
6C
100
AcDbEntity
  8
Viditelná (ISO)
100
AcDbLine
 10
257.8910583866789
 20
483.1803482833495
 30
0.0
 11
264.2368441682993
 21
483.1803482833495
 31
0.0
  0
LINE
  5
1D7
330
6C
100
AcDbEntity
  8
Viditelná tenká (ISO)
100
AcDbLine
 10
275.5405827573036
 20
481.8071337618717
 30
0.0
 11
275.1055209834332
 21
480.8412283481005
 31
0.0
  0
SPLINE
  5
1D8
330
6C
100
AcDbEntity
  8
Viditelná tenká (ISO)
100
AcDbSpline
210
0.0
220
0.0
230
1.0
 70
    12
 71
     3
 72
     8
 73
     4
 74
     0
 42
0.0000000001
 43
0.0000000001
 40
0.0
 40
0.0
 40
0.0
 40
0.0
 40
0.0097119500770137
 40
0.0097119500770137
 40
0.0097119500770137
 40
0.0097119500770137
 10
275.1055209834332
 20
480.8412283481005
 30
0.0
 41
1.0
 10
278.2206523614969
 20
481.1231093608504
 30
0.0
 41
1.0
 10
281.335780566805
 20
481.4050279360905
 30
0.0
 41
1.0
 10
284.450906647123
 20
481.6869716687783
 30
0.0
 41
1.0
  0
LINE
  5
1D9
330
6C
100
AcDbEntity
  8
Viditelná tenká (ISO)
100
AcDbLine
 10
284.4509066471182
 20
481.9803482833496
 30
0.0
 11
275.8032105867232
 21
481.9803482833496
 31
0.0
  0
ELLIPSE
  5
1DA
330
6C
100
AcDbEntity
  8
Viditelná tenká (ISO)
100
AcDbEllipse
 10
275.8032105867232
 20
481.6803482833496
 30
0.0
 11
0.0000000000000001
 21
0.2999999999999885
 31
0.0
210
0.0
220
0.0
230
1.0
 40
0.965925826289067
 41
0.0
 42
1.134464013796384
  0
LINE
  5
1DB
330
6C
100
AcDbEntity
  8
Viditelná (ISO)
100
AcDbLine
 10
276.1137934408463
 20
483.1803482833495
 30
0.0
 11
284.7822980255138
 21
483.1803482833495
 31
0.0
  0
LINE
  5
1DC
330
6C
100
AcDbEntity
  8
Viditelná tenká (ISO)
100
AcDbLine
 10
256.4249444304971
 20
480.7832337816757
 30
0.0
 11
256.4249271205487
 21
480.7831812842238
 31
0.0
  0
LINE
  5
1DD
330
6C
100
AcDbEntity
  8
Viditelná tenká (ISO)
100
AcDbLine
 10
134.8512967286611
 20
481.6869716687809
 30
0.0
 11
144.1966786513279
 21
480.8411840339399
 31
0.0
  0
LINE
  5
1DE
330
6C
100
AcDbEntity
  8
Viditelná tenká (ISO)
100
AcDbLine
 10
144.1966995474768
 20
480.8411902610181
 30
0.0
 11
143.7616206184758
 21
481.8071337618717
 31
0.0
  0
ELLIPSE
  5
1DF
330
6C
100
AcDbEntity
  8
Viditelná tenká (ISO)
100
AcDbEllipse
 10
143.4989927890561
 20
481.6803482833496
 30
0.0
 11
-0.0000000000000213
 21
0.2999999999999869
 31
0.0
210
0.0
220
0.0
230
1.0
 40
0.9659258262890611
 41
5.14872129338313
 42
6.283185307179451
  0
LINE
  5
1E0
330
6C
100
AcDbEntity
  8
Viditelná tenká (ISO)
100
AcDbLine
 10
143.4989927890561
 20
481.9803482833496
 30
0.0
 11
134.8512967286611
 21
481.9803482833496
 31
0.0
  0
LINE
  5
1E1
330
6C
100
AcDbEntity
  8
Viditelná (ISO)
100
AcDbLine
 10
134.5199053502656
 20
483.1803482833495
 30
0.0
 11
143.1884099349331
 21
483.1803482833495
 31
0.0
  0
LINE
  5
1E2
330
6C
100
AcDbEntity
  8
Viditelná tenká (ISO)
100
AcDbLine
 10
155.9291202419024
 20
481.6869716687809
 30
0.0
 11
162.7704146259422
 21
480.8411840339385
 31
0.0
  0
LINE
  5
1E3
330
6C
100
AcDbEntity
  8
Viditelná tenká (ISO)
100
AcDbLine
 10
162.7704299224733
 20
480.8411902610169
 30
0.0
 11
162.4519300411415
 21
481.8071337618717
 31
0.0
  0
ELLIPSE
  5
1E4
330
6C
100
AcDbEntity
  8
Viditelná tenká (ISO)
100
AcDbEllipse
 10
162.2596731265247
 20
481.6803482833496
 30
0.0
 11
0.0000000000000277
 21
0.3000000000000087
 31
0.0
210
0.0
220
0.0
230
1.0
 40
0.7071067811865577
 41
5.148721293383253
 42
6.283185307179549
  0
LINE
  5
1E5
330
6C
100
AcDbEntity
  8
Viditelná tenká (ISO)
100
AcDbLine
 10
162.2596731265248
 20
481.9803482833496
 30
0.0
 11
155.9291202419024
 21
481.9803482833496
 31
0.0
  0
LINE
  5
1E6
330
6C
100
AcDbEntity
  8
Viditelná (ISO)
100
AcDbLine
 10
155.0653592074806
 20
483.1803482833495
 30
0.0
 11
161.4111449891009
 21
483.1803482833495
 31
0.0
  0
ELLIPSE
  5
1E7
330
6C
100
AcDbEntity
  8
Viditelná tenká (ISO)
100
AcDbEllipse
 10
226.7424658921585
 20
481.9803482833496
 30
0.0
 11
0.000000000000003
 21
1.200000000000002
 31
0.0
210
0.0
220
0.0
230
1.0
 40
0.9659258262890666
 41
0.0
 42
1.570796326794899
  0
ELLIPSE
  5
1E8
330
6C
100
AcDbEntity
  8
Viditelná tenká (ISO)
100
AcDbEllipse
 10
226.6720949773556
 20
481.8071337618716
 30
0.0
 11
-1.19135478554904
 21
0.1437837784645999
 31
0.0
210
0.0
220
0.0
230
0.9999999999999998
 40
0.4082178936767251
 41
0.0
 42
0.2874604911618492
  0
SPLINE
  5
1E9
330
6C
100
AcDbEntity
  8
Viditelná tenká (ISO)
100
AcDbSpline
210
0.0
220
0.0
230
1.0
 70
     8
 71
     3
 72
     8
 73
     4
 74
     0
 42
0.0000000001
 43
0.0000000001
 40
0.8171328586188344
 40
0.8171328586188344
 40
0.8171328586188344
 40
0.8171328586188344
 40
1.0
 40
1.0
 40
1.0
 40
1.0
 10
225.3294343150145
 20
480.6962756499772
 30
0.0
 10
225.3342044605564
 20
480.7357210898755
 30
0.0
 10
225.3586054846011
 20
480.7833338491823
 30
0.0
 10
225.3964095348425
 20
480.8412283481005
 30
0.0
  0
ELLIPSE
  5
1EA
330
6C
100
AcDbEntity
  8
Viditelná tenká (ISO)
100
AcDbEllipse
 10
257.8910583866789
 20
481.9803482833496
 30
0.0
 11
-0.0000000000000045
 21
1.199999999999993
 31
0.0
210
0.0
220
0.0
230
1.0
 40
0.7071067811865461
 41
0.0
 42
1.570796326794893
  0
ELLIPSE
  5
1EB
330
6C
100
AcDbEntity
  8
Viditelná tenká (ISO)
100
AcDbEllipse
 10
257.6988014720622
 20
481.8071337618717
 30
0.0
 11
-1.139646150377931
 21
0.3757747356179528
 31
0.0
210
0.0
220
0.0
230
1.0
 40
0.2988362387301271
 41
0.0
 42
0.8345071700793535
  0
SPLINE
  5
1EC
330
6C
100
AcDbEntity
  8
Viditelná tenká (ISO)
100
AcDbSpline
210
0.0
220
0.0
230
1.0
 70
     8
 71
     3
 72
    11
 73
     7
 74
     0
 42
0.0000000001
 43
0.0000000001
 40
0.7920383563502443
 40
0.7920383563502443
 40
0.7920383563502443
 40
0.7920383563502443
 40
0.8124999999999813
 40
0.8124999999999813
 40
0.8124999999999813
 40
1.0
 40
1.0
 40
1.0
 40
1.0
 10
256.2204987532715
 20
480.6803568561185
 30
0.0
 10
256.2287935153997
 20
480.6844431593145
 30
0.0
 10
256.2379192033309
 20
480.68892580829
 30
0.0
 10
256.2468141526086
 20
480.6932933433079
 30
0.0
 10
256.3283229022546
 20
480.7333151924749
 30
0.0
 10
256.4258868068667
 20
480.7818671175231
 30
0.0
 10
256.5317860117342
 20
480.8412283481005
 30
0.0
  0
ELLIPSE
  5
1ED
330
6C
100
AcDbEntity
  8
Viditelná tenká (ISO)
100
AcDbEllipse
 10
276.1137934408463
 20
481.9803482833496
 30
0.0
 11
0.0000000000000004
 21
1.199999999999997
 31
0.0
210
0.0
220
0.0
230
1.0
 40
0.2588190451025205
 41
0.0
 42
1.570796326794896
  0
ELLIPSE
  5
1EE
330
6C
100
AcDbEntity
  8
Viditelná tenká (ISO)
100
AcDbEllipse
 10
275.8511656114266
 20
481.8071337618717
 30
0.0
 11
-1.094134341160301
 21
0.4928184691077592
 31
0.0
210
0.0
220
0.0
230
0.9999999999999996
 40
0.1093816549466157
 41
0.0
 42
1.332563564374842
  0
SPLINE
  5
1EF
330
6C
100
AcDbEntity
  8
Viditelná tenká (ISO)
100
AcDbSpline
210
0.0
220
0.0
230
1.0
 70
     8
 71
     3
 72
    11
 73
     7
 74
     0
 42
0.0000000001
 43
0.0000000001
 40
0.7920383563213895
 40
0.7920383563213895
 40
0.7920383563213895
 40
0.7920383563213895
 40
0.8124999999999712
 40
0.8124999999999712
 40
0.8124999999999712
 40
1.0
 40
1.0
 40
1.0
 40
1.0
 10
274.6341397766506
 20
480.6803568561007
 30
0.0
 10
274.6485875775567
 20
480.6844431593004
 30
0.0
 10
274.6642506109612
 20
480.6889258082813
 30
0.0
 10
274.6792351122204
 20
480.6932933433046
 30
0.0
 10
274.8165453904285
 20
480.7333151924644
 30
0.0
 10
274.9608599793095
 20
480.7818671175096
 30
0.0
 10
275.1055209834333
 20
480.8412283481005
 30
0.0
  0
ELLIPSE
  5
1F0
330
6C
100
AcDbEntity
  8
Viditelná tenká (ISO)
100
AcDbEllipse
 10
143.1884099349331
 20
481.9803482833496
 30
0.0
 11
-0.0000000000000086
 21
1.200000000000001
 31
0.0
210
0.0
220
0.0
230
1.0
 40
0.2588190451025289
 41
4.712388980384687
 42
6.283185307179611
  0
ELLIPSE
  5
1F1
330
6C
100
AcDbEntity
  8
Viditelná tenká (ISO)
100
AcDbEllipse
 10
143.4510377643528
 20
481.8071337618717
 30
0.0
 11
1.094134341160319
 21
0.492818469107779
 31
0.0
210
0.0
220
0.0
230
0.9999999999999998
 40
0.1093816549466128
 41
4.950621742805309
 42
6.283185307180589
  0
SPLINE
  5
1F2
330
6C
100
AcDbEntity
  8
Viditelná tenká (ISO)
100
AcDbSpline
210
0.0
220
0.0
230
1.0
 70
     8
 71
     3
 72
    11
 73
     7
 74
     0
 42
0.0000000001
 43
0.0000000001
 40
0.0
 40
0.0
 40
0.0
 40
0.0
 40
0.1250000000000967
 40
0.1250000000000967
 40
0.1250000000000967
 40
0.214647143439014
 40
0.214647143439014
 40
0.214647143439014
 40
0.214647143439014
 10
144.1967033595216
 20
480.8411817981486
 30
0.0
 10
144.2890331790473
 20
480.8033338917745
 30
0.0
 10
144.3822241037006
 20
480.7695351110097
 30
0.0
 10
144.4745074426161
 20
480.739530317574
 30
0.0
 10
144.5406909443823
 20
480.718011565406
 30
0.0
 10
144.6064207363018
 20
480.6984491113929
 30
0.0
 10
144.6706810013934
 20
480.6803529322015
 30
0.0
  0
ELLIPSE
  5
1F3
330
6C
100
AcDbEntity
  8
Viditelná tenká (ISO)
100
AcDbEllipse
 10
161.4111449891009
 20
481.9803482833496
 30
0.0
 11
0.0000000000000002
 21
1.200000000000006
 31
0.0
210
0.0
220
0.0
230
1.0
 40
0.7071067811865567
 41
4.712388980384689
 42
6.283185307179596
  0
ELLIPSE
  5
1F4
330
6C
100
AcDbEntity
  8
Viditelná tenká (ISO)
100
AcDbEllipse
 10
161.6034019037176
 20
481.8071337618717
 30
0.0
 11
1.139646150377985
 21
0.375774735617967
 31
0.0
210
0.0
220
0.0
230
1.0
 40
0.2988362387301243
 41
5.448678137100654
 42
6.283185307180314
  0
SPLINE
  5
1F5
330
6C
100
AcDbEntity
  8
Viditelná tenká (ISO)
100
AcDbSpline
210
0.0
220
0.0
230
1.0
 70
     8
 71
     3
 72
    11
 73
     7
 74
     0
 42
0.0000000001
 43
0.0000000001
 40
0.0
 40
0.0
 40
0.0
 40
0.0
 40
0.1250000000000087
 40
0.1250000000000087
 40
0.1250000000000087
 40
0.2146471434661748
 40
0.2146471434661748
 40
0.2146471434661748
 40
0.2146471434661748
 10
162.7704327135055
 20
480.8411817981471
 30
0.0
 10
162.8380228136975
 20
480.8033338917807
 30
0.0
 10
162.9029244463712
 20
480.7695351110173
 30
0.0
 10
162.9628932471728
 20
480.7395303175808
 30
0.0
 10
163.0059015006844
 20
480.7180115654057
 30
0.0
 10
163.0463820345486
 20
480.6984491113857
 30
0.0
 10
163.0831550072898
 20
480.6803529321876
 30
0.0
  0
ELLIPSE
  5
1F6
330
6C
100
AcDbEntity
  8
Viditelná tenká (ISO)
100
AcDbEllipse
 10
224.4304837085532
 20
480.8412283481005
 30
0.0
 11
0.3199526792269769
 21
-0.9474335243466951
 31
0.0
210
0.0
220
0.0
230
1.0
 40
0.962257224549708
 41
1.094398023177136
 42
1.256601772394153
  0
ELLIPSE
  5
1F7
330
6C
100
AcDbEntity
  8
Viditelná tenká (ISO)
100
AcDbEllipse
 10
255.8246792305453
 20
480.8412283481003
 30
0.0
 11
0.1226748451695615
 21
-0.9924469166475923
 31
0.0
210
0.0
220
0.0
230
0.9999999999999998
 40
0.7044211783226517
 41
1.32173920734192
 42
1.483942956558921
  0
ELLIPSE
  5
1F8
330
6C
100
AcDbEntity
  8
Viditelná tenká (ISO)
100
AcDbEllipse
 10
274.8467019383308
 20
480.8412283481005
 30
0.0
 11
0.0901194825565004
 21
-0.9959309608915313
 31
0.0
210
0.0
220
0.0
230
0.9999999999999998
 40
0.2578360462292742
 41
1.385265823721519
 42
1.547469572938708
  0
ELLIPSE
  5
1F9
330
6C
100
AcDbEntity
  8
Viditelná tenká (ISO)
100
AcDbEllipse
 10
144.4555014374492
 20
480.8412283481005
 30
0.0
 11
-0.0901194825566564
 21
-0.9959309608927297
 31
0.0
210
0.0
220
0.0
230
1.0
 40
0.2578360462296007
 41
4.735757520373663
 42
4.897919483457977
  0
ELLIPSE
  5
1FA
330
6C
100
AcDbEntity
  8
Viditelná tenká (ISO)
100
AcDbEllipse
 10
163.4775241452336
 20
480.8412283481007
 30
0.0
 11
-0.1226748451691008
 21
-0.9924469166487059
 31
0.0
210
0.0
220
0.0
230
1.0
 40
0.704421178321102
 41
4.799284136754437
 42
4.961446099837169
  0
ARC
  5
1FB
330
6C
100
AcDbEntity
  8
Viditelná (ISO)
100
AcDbCircle
 10
286.2511016878894
 20
469.9303482833495
 30
0.0
 40
3.999999999999992
100
AcDbArc
 50
121.9999999999998
 51
223.4325365577899
  0
ARC
  5
1FC
330
6C
100
AcDbEntity
  8
Viditelná (ISO)
100
AcDbCircle
 10
133.0511016878896
 20
469.9303482833495
 30
0.0
 40
3.999999999999994
100
AcDbArc
 50
316.5674634422101
 51
57.99999999999996
  0
ARC
  5
1FD
330
6C
100
AcDbEntity
  8
Viditelná (ISO)
100
AcDbCircle
 10
285.6511016878895
 20
476.6304970923766
 30
0.0
 40
2.0
100
AcDbArc
 50
301.9999999999997
 51
0.0
  0
ARC
  5
1FE
330
6C
100
AcDbEntity
  8
Viditelná (ISO)
100
AcDbCircle
 10
133.6511016878896
 20
476.6304970923766
 30
0.0
 40
1.999999999999999
100
AcDbArc
 50
180.0
 51
238.0000000000012
  0
LINE
  5
1FF
330
6C
100
AcDbEntity
  8
Viditelná (ISO)
100
AcDbLine
 10
135.1707787448224
 20
473.3225406679753
 30
0.0
 11
132.5912631594232
 21
474.9344009000636
 31
0.0
  0
LINE
  5
200
330
6C
100
AcDbEntity
  8
Viditelná (ISO)
100
AcDbLine
 10
284.1314246309567
 20
473.3225406679753
 30
0.0
 11
286.7109402163559
 21
474.9344009000637
 31
0.0
  0
LINE
  5
201
330
6C
100
AcDbEntity
  8
Viditelná (ISO)
100
AcDbLine
 10
131.6511016878896
 20
476.6304970923766
 30
0.0
 11
131.6511016878896
 21
480.6803482833496
 31
0.0
  0
LINE
  5
202
330
6C
100
AcDbEntity
  8
Viditelná (ISO)
100
AcDbLine
 10
287.6511016878895
 20
476.6304970923766
 30
0.0
 11
287.6511016878895
 21
480.6803482833496
 31
0.0
  0
SPLINE
  5
203
330
6C
100
AcDbEntity
  8
Viditelná (ISO)
100
AcDbSpline
210
0.0
220
0.0
230
1.0
 70
     8
 71
     3
 72
    20
 73
    16
 74
     0
 42
0.0000000001
 43
0.0000000001
 40
3.141592653589787
 40
3.141592653589787
 40
3.141592653589787
 40
3.141592653589787
 40
3.224571077515471
 40
3.224571077515471
 40
3.315458446022254
 40
3.315458446022254
 40
3.432705376346532
 40
3.432705376346532
 40
3.608329045537858
 40
3.608329045537858
 40
3.83522184829713
 40
3.83522184829713
 40
4.062114651056402
 40
4.062114651056402
 40
4.276056667386149
 40
4.276056667386149
 40
4.276056667386149
 40
4.276056667386149
 10
192.5597374836205
 20
483.1803482833495
 30
0.0
 10
192.6901267275763
 20
483.1803482833495
 30
0.0
 10
192.81972313426
 20
483.1582743449967
 30
0.0
 10
193.0576902064541
 20
483.0818055600653
 30
0.0
 10
193.1626505961015
 20
483.0260176864865
 30
0.0
 10
193.3558189097082
 20
482.8949302485383
 30
0.0
 10
193.4320655229293
 20
482.8193822893457
 30
0.0
 10
193.5771116950009
 20
482.6514678324913
 30
0.0
 10
193.6255674121405
 20
482.5676576987717
 30
0.0
 10
193.7092757754371
 20
482.4046948890506
 30
0.0
 10
193.7350637027228
 20
482.3322177670267
 30
0.0
 10
193.7752377705101
 20
482.2031586350298
 30
0.0
 10
193.7884874988189
 20
482.1468447042978
 30
0.0
 10
193.8087916821213
 20
482.043708381252
 30
0.0
 10
193.8159384920451
 20
481.9966936928109
 30
0.0
 10
193.8214631839725
 20
481.9509175403362
 30
0.0
  0
LINE
  5
204
330
6C
100
AcDbEntity
  8
Viditelná (ISO)
100
AcDbLine
 10
193.9727481174195
 20
480.6974101463291
 30
0.0
 11
193.8214631839725
 21
481.9509175403362
 31
0.0
  0
SPLINE
  5
205
330
6C
100
AcDbEntity
  8
Viditelná (ISO)
100
AcDbSpline
210
0.0
220
0.0
230
1.0
 70
     8
 71
     3
 72
     8
 73
     4
 74
     0
 42
0.0000000001
 43
0.0000000001
 40
0.0
 40
0.0
 40
0.0
 40
0.0
 40
0.0016782522058978
 40
0.0016782522058978
 40
0.0016782522058978
 40
0.0016782522058978
 10
193.9726716204624
 20
480.6969931163593
 30
0.0
 10
193.9733449348732
 20
480.6914429434112
 30
0.0
 10
193.9740653867707
 20
480.6858942861906
 30
0.0
 10
193.9748326026936
 20
480.6803482802133
 30
0.0
  0
SPLINE
  5
206
330
6C
100
AcDbEntity
  8
Viditelná (ISO)
100
AcDbSpline
210
0.0
220
0.0
230
1.0
 70
     8
 71
     3
 72
    20
 73
    16
 74
     0
 42
0.0000000001
 43
0.0000000001
 40
3.141592653589787
 40
3.141592653589787
 40
3.141592653589787
 40
3.141592653589787
 40
3.224571077515467
 40
3.224571077515467
 40
3.315458446022246
 40
3.315458446022246
 40
3.43270537634652
 40
3.43270537634652
 40
3.60832904553784
 40
3.60832904553784
 40
3.835221848297116
 40
3.835221848297116
 40
4.062114651056392
 40
4.062114651056392
 40
4.276056667386168
 40
4.276056667386168
 40
4.276056667386168
 40
4.276056667386168
 10
226.7424658921585
 20
483.1803482833496
 30
0.0
 10
226.6120766482028
 20
483.1803482833496
 30
0.0
 10
226.4824802415191
 20
483.1582743449967
 30
0.0
 10
226.244513169325
 20
483.0818055600653
 30
0.0
 10
226.1395527796776
 20
483.0260176864865
 30
0.0
 10
225.9463844660709
 20
482.8949302485383
 30
0.0
 10
225.8701378528498
 20
482.8193822893457
 30
0.0
 10
225.7250916807783
 20
482.6514678324913
 30
0.0
 10
225.6766359636386
 20
482.5676576987717
 30
0.0
 10
225.592927600342
 20
482.4046948890508
 30
0.0
 10
225.5671396730564
 20
482.3322177670267
 30
0.0
 10
225.526965605269
 20
482.2031586350298
 30
0.0
 10
225.5137158769602
 20
482.1468447042978
 30
0.0
 10
225.4934116936578
 20
482.043708381252
 30
0.0
 10
225.486264883734
 20
481.9966936928109
 30
0.0
 10
225.4807401918066
 20
481.9509175403362
 30
0.0
  0
LINE
  5
207
330
6C
100
AcDbEntity
  8
Viditelná (ISO)
100
AcDbLine
 10
225.4807401918066
 20
481.9509175403362
 30
0.0
 11
225.3294000676186
 21
480.6969528502828
 31
0.0
  0
SPLINE
  5
208
330
6C
100
AcDbEntity
  8
Viditelná (ISO)
100
AcDbSpline
210
0.0
220
0.0
230
1.0
 70
     8
 71
     3
 72
    16
 73
    12
 74
     0
 42
0.0000000001
 43
0.0000000001
 40
3.141592653589789
 40
3.141592653589789
 40
3.141592653589789
 40
3.141592653589789
 40
3.368485456349055
 40
3.368485456349055
 40
3.595378259108321
 40
3.595378259108321
 40
3.822271061867587
 40
3.822271061867587
 40
4.049163864626853
 40
4.049163864626853
 40
4.27605666738612
 40
4.27605666738612
 40
4.27605666738612
 40
4.27605666738612
 10
257.8910583866789
 20
483.1803482833495
 30
0.0
 10
257.7466646911887
 20
483.1803482833495
 30
0.0
 10
257.6026588110323
 20
483.1564187623026
 30
0.0
 10
257.3391244843947
 20
483.0703756144937
 30
0.0
 10
257.219760961479
 20
483.0088694608914
 30
0.0
 10
257.0136738702216
 20
482.8667192324346
 30
0.0
 10
256.9266030274202
 20
482.7863088834146
 30
0.0
 10
256.7807236915355
 20
482.6192467647705
 30
0.0
 10
256.7216934807112
 20
482.5325133542464
 30
0.0
 10
256.6253595978762
 20
482.3581383510475
 30
0.0
 10
256.5880024412613
 20
482.27039577553
 30
0.0
 10
256.5591553216842
 20
482.1829084974897
 30
0.0
  0
LINE
  5
209
330
6C
100
AcDbEntity
  8
Viditelná (ISO)
100
AcDbLine
 10
256.5591553216842
 20
482.1829084974897
 30
0.0
 11
256.0637171832486
 21
480.6803482833496
 31
0.0
  0
SPLINE
  5
20A
330
6C
100
AcDbEntity
  8
Viditelná (ISO)
100
AcDbSpline
210
0.0
220
0.0
230
1.0
 70
     8
 71
     3
 72
    16
 73
    12
 74
     0
 42
0.0000000001
 43
0.0000000001
 40
3.141592653589768
 40
3.141592653589768
 40
3.141592653589768
 40
3.141592653589768
 40
3.368485456349037
 40
3.368485456349037
 40
3.595378259108306
 40
3.595378259108306
 40
3.822271061867574
 40
3.822271061867574
 40
4.049163864626843
 40
4.049163864626843
 40
4.276056667386111
 40
4.276056667386111
 40
4.276056667386111
 40
4.276056667386111
 10
276.1137934408463
 20
483.1803482833495
 30
0.0
 10
275.9979185933666
 20
483.1803482833495
 30
0.0
 10
275.882058470331
 20
483.1666521172616
 30
0.0
 10
275.6572418375573
 20
483.1129181679967
 30
0.0
 10
275.548309075129
 20
483.0728955658234
 30
0.0
 10
275.343449983126
 20
482.9694544396887
 30
0.0
 10
275.2475341770617
 20
482.906058362269
 30
0.0
 10
275.0734454296501
 20
482.760111039839
 30
0.0
 10
274.9952701778389
 20
482.6775798124974
 30
0.0
 10
274.8599179454843
 20
482.4982255054835
 30
0.0
 10
274.8027316980948
 20
482.4014143526883
 30
0.0
 10
274.7570312702663
 20
482.2999522309795
 30
0.0
  0
LINE
  5
20B
330
6C
100
AcDbEntity
  8
Viditelná (ISO)
100
AcDbLine
 10
274.7570312702663
 20
482.2999522309795
 30
0.0
 11
274.0275315114109
 21
480.6803482833496
 31
0.0
  0
LINE
  5
20C
330
6C
100
AcDbEntity
  8
Viditelná (ISO)
100
AcDbLine
 10
193.9727481174189
 20
480.6974101463291
 30
0.0
 11
193.9728033081601
 21
480.6969528502819
 31
0.0
  0
SPLINE
  5
20D
330
6C
100
AcDbEntity
  8
Viditelná (ISO)
100
AcDbSpline
210
0.0
220
0.0
230
1.0
 70
     8
 71
     3
 72
    16
 73
    12
 74
     0
 42
0.0000000001
 43
0.0000000001
 40
3.141592653589793
 40
3.141592653589793
 40
3.141592653589793
 40
3.141592653589793
 40
3.36848545634906
 40
3.36848545634906
 40
3.595378259108327
 40
3.595378259108327
 40
3.822271061867594
 40
3.822271061867594
 40
4.049163864626861
 40
4.049163864626861
 40
4.276056667386129
 40
4.276056667386129
 40
4.276056667386129
 40
4.276056667386129
 10
143.1884099349331
 20
483.1803482833495
 30
0.0
 10
143.3042847824128
 20
483.1803482833495
 30
0.0
 10
143.4201449054484
 20
483.1666521172616
 30
0.0
 10
143.644961538222
 20
483.1129181679967
 30
0.0
 10
143.7538943006503
 20
483.0728955658234
 30
0.0
 10
143.9587533926533
 20
482.9694544396887
 30
0.0
 10
144.0546691987177
 20
482.906058362269
 30
0.0
 10
144.2287579461293
 20
482.760111039839
 30
0.0
 10
144.3069331979405
 20
482.6775798124973
 30
0.0
 10
144.442285430295
 20
482.4982255054834
 30
0.0
 10
144.4994716776846
 20
482.4014143526883
 30
0.0
 10
144.545172105513
 20
482.2999522309795
 30
0.0
  0
LINE
  5
20E
330
6C
100
AcDbEntity
  8
Viditelná (ISO)
100
AcDbLine
 10
145.2746718643685
 20
480.6803482833496
 30
0.0
 11
144.545172105513
 21
482.2999522309794
 31
0.0
  0
SPLINE
  5
20F
330
6C
100
AcDbEntity
  8
Viditelná (ISO)
100
AcDbSpline
210
0.0
220
0.0
230
1.0
 70
     8
 71
     3
 72
    16
 73
    12
 74
     0
 42
0.0000000001
 43
0.0000000001
 40
3.141592653589809
 40
3.141592653589809
 40
3.141592653589809
 40
3.141592653589809
 40
3.368485456349068
 40
3.368485456349068
 40
3.595378259108327
 40
3.595378259108327
 40
3.822271061867586
 40
3.822271061867586
 40
4.049163864626845
 40
4.049163864626845
 40
4.276056667386105
 40
4.276056667386105
 40
4.276056667386105
 40
4.276056667386105
 10
161.4111449891009
 20
483.1803482833495
 30
0.0
 10
161.5555386845911
 20
483.1803482833495
 30
0.0
 10
161.6995445647475
 20
483.1564187623026
 30
0.0
 10
161.963078891385
 20
483.0703756144937
 30
0.0
 10
162.0824424143007
 20
483.0088694608913
 30
0.0
 10
162.2885295055581
 20
482.8667192324346
 30
0.0
 10
162.3756003483595
 20
482.7863088834144
 30
0.0
 10
162.5214796842442
 20
482.6192467647704
 30
0.0
 10
162.5805098950685
 20
482.5325133542464
 30
0.0
 10
162.6768437779036
 20
482.3581383510475
 30
0.0
 10
162.7142009345184
 20
482.27039577553
 30
0.0
 10
162.7430480540955
 20
482.1829084974897
 30
0.0
  0
LINE
  5
210
330
6C
100
AcDbEntity
  8
Viditelná (ISO)
100
AcDbLine
 10
163.2384861925312
 20
480.6803482833496
 30
0.0
 11
162.7430480540955
 21
482.1829084974897
 31
0.0
  0
SPLINE
  5
211
330
6C
100
AcDbEntity
  8
Viditelná (ISO)
100
AcDbSpline
210
0.0
220
0.0
230
1.0
 70
     8
 71
     3
 72
     8
 73
     4
 74
     0
 42
0.0000000001
 43
0.0000000001
 40
0.1465017509748044
 40
0.1465017509748044
 40
0.1465017509748044
 40
0.1465017509748044
 40
0.1481075512170977
 40
0.1481075512170977
 40
0.1481075512170977
 40
0.1481075512170977
 10
225.3273748671094
 20
480.6803482804926
 30
0.0
 10
225.3281041291707
 20
480.6856546638909
 30
0.0
 10
225.3287908343813
 20
480.6909638549358
 30
0.0
 10
225.3294346788696
 20
480.6962748611542
 30
0.0
  0
SPLINE
  5
212
330
6C
100
AcDbEntity
  8
Viditelná (ISO)
100
AcDbSpline
210
0.0
220
0.0
230
1.0
 70
     8
 71
     3
 72
     8
 73
     4
 74
     0
 42
0.0000000001
 43
0.0000000001
 40
0.1467967930194779
 40
0.1467967930194779
 40
0.1467967930194779
 40
0.1467967930194779
 40
0.1479948995304841
 40
0.1479948995304841
 40
0.1479948995304841
 40
0.1479948995304841
 10
225.3273714569964
 20
480.6803482804926
 30
0.0
 10
225.3279187871013
 20
480.6843070738162
 30
0.0
 10
225.3284424176243
 20
480.6882673985353
 30
0.0
 10
225.3289422205463
 20
480.6922288429681
 30
0.0
  0
SPLINE
  5
213
330
6C
100
AcDbEntity
  8
Viditelná (ISO)
100
AcDbSpline
210
0.0
220
0.0
230
1.0
 70
     8
 71
     3
 72
     8
 73
     4
 74
     0
 42
0.0000000001
 43
0.0000000001
 40
0.000439000854188
 40
0.000439000854188
 40
0.000439000854188
 40
0.000439000854188
 40
0.0011945554472857
 40
0.0011945554472857
 40
0.0011945554472857
 40
0.0011945554472857
 10
193.9733064251905
 20
480.691919354947
 30
0.0
 10
193.9736204637036
 20
480.6894208365076
 30
0.0
 10
193.9739440437759
 20
480.6869226878012
 30
0.0
 10
193.9742771312344
 20
480.6844250126975
 30
0.0
  0
LINE
  5
214
330
6C
100
AcDbEntity
  8
Viditelná (ISO)
100
AcDbLine
 10
135.9558391975451
 20
467.1803482833495
 30
0.0
 11
283.346364178234
 21
467.1803482833495
 31
0.0
  0
LINE
  5
215
330
6C
100
AcDbEntity
  8
Viditelná tenká (ISO)
100
AcDbLine
 10
284.1314246309567
 20
466.5381558987238
 30
0.0
 11
135.1707787448223
 21
466.5381558987238
 31
0.0
  0
LINE
  5
216
330
6C
100
AcDbEntity
  8
Viditelná tenká (ISO)
100
AcDbLine
 10
286.710940216356
 20
464.9262956666354
 30
0.0
 11
132.5912631594231
 21
464.9262956666354
 31
0.0
  0
LINE
  5
217
330
6C
100
AcDbEntity
  8
Viditelná tenká (ISO)
100
AcDbLine
 10
287.6511016878895
 20
463.2301994743226
 30
0.0
 11
131.6511016878895
 21
463.2301994743226
 31
0.0
  0
LINE
  5
218
330
6C
100
AcDbEntity
  8
Viditelná (ISO)
100
AcDbLine
 10
287.6511016878895
 20
459.1803482833496
 30
0.0
 11
131.6511016878895
 21
459.1803482833496
 31
0.0
  0
ARC
  5
219
330
6C
100
AcDbEntity
  8
Viditelná (ISO)
100
AcDbCircle
 10
286.2511016878895
 20
469.9303482833495
 30
0.0
 40
3.999999999999992
100
AcDbArc
 50
223.4325365577896
 51
237.9999999999998
  0
ARC
  5
21A
330
6C
100
AcDbEntity
  8
Viditelná (ISO)
100
AcDbCircle
 10
133.0511016878895
 20
469.9303482833495
 30
0.0
 40
3.999999999999992
100
AcDbArc
 50
301.9999999999992
 51
316.5674634422102
  0
LINE
  5
21B
330
6C
100
AcDbEntity
  8
Viditelná (ISO)
100
AcDbLine
 10
284.1314246309567
 20
466.5381558987238
 30
0.0
 11
286.710940216356
 21
464.9262956666354
 31
0.0
  0
LINE
  5
21C
330
6C
100
AcDbEntity
  8
Viditelná (ISO)
100
AcDbLine
 10
135.1707787448223
 20
466.5381558987238
 30
0.0
 11
132.5912631594231
 21
464.9262956666354
 31
0.0
  0
ARC
  5
21D
330
6C
100
AcDbEntity
  8
Viditelná (ISO)
100
AcDbCircle
 10
285.6511016878895
 20
463.2301994743226
 30
0.0
 40
1.999999999999998
100
AcDbArc
 50
0.0
 51
57.99999999999923
  0
ARC
  5
21E
330
6C
100
AcDbEntity
  8
Viditelná (ISO)
100
AcDbCircle
 10
133.6511016878895
 20
463.2301994743226
 30
0.0
 40
1.999999999999998
100
AcDbArc
 50
121.9999999999997
 51
180.0
  0
LINE
  5
21F
330
6C
100
AcDbEntity
  8
Viditelná (ISO)
100
AcDbLine
 10
131.6511016878895
 20
459.1803482833496
 30
0.0
 11
131.6511016878895
 21
463.2301994743226
 31
0.0
  0
LINE
  5
220
330
6C
100
AcDbEntity
  8
Viditelná (ISO)
100
AcDbLine
 10
287.6511016878895
 20
459.1803482833496
 30
0.0
 11
287.6511016878895
 21
463.2301994743226
 31
0.0
  0
LINE
  5
221
330
6C
100
AcDbEntity
  8
Viditelná (ISO)
100
AcDbLine
 10
266.6286812902924
 20
392.9803482833495
 30
0.0
 11
152.6735220854866
 21
392.9803482833495
 31
0.0
  0
LINE
  5
222
330
6C
100
AcDbEntity
  8
Viditelná (ISO)
100
AcDbLine
 10
266.406978429919
 20
343.5381250994236
 30
0.0
 11
152.89522494586
 21
343.5381250994236
 31
0.0
  0
LINE
  5
223
330
6C
100
AcDbEntity
  8
Viditelná (ISO)
100
AcDbLine
 10
249.9011016878895
 20
321.8977696173045
 30
0.0
 11
169.4011016878895
 21
321.8977696173045
 31
0.0
  0
SPLINE
  5
224
330
6C
100
AcDbEntity
  8
Viditelná tenká (ISO)
100
AcDbSpline
210
0.0
220
0.0
230
1.0
 70
     8
 71
     4
 72
    32
 73
    27
 74
     0
 42
0.0000000001
 43
0.0000000001
 40
-0.4799163041655821
 40
-0.4799163041655821
 40
-0.4799163041655821
 40
-0.4799163041655821
 40
-0.4799163041655821
 40
-0.4635628542006599
 40
-0.4461569714140563
 40
-0.4288480859176066
 40
-0.4114743005366211
 40
-0.3940326562260507
 40
-0.37651439282188
 40
-0.3589066081351015
 40
-0.3411931299894615
 40
-0.3233563598939336
 40
-0.3053781064464841
 40
-0.2872407696986381
 40
-0.2689276479800875
 40
-0.2504232779397706
 40
-0.2317149360119908
 40
-0.2128053073271887
 40
-0.1937233601551299
 40
-0.174525267462057
 40
-0.1552937491090582
 40
-0.1361234564189087
 40
-0.1171037763495242
 40
-0.0982990756663822
 40
-0.0797481877129183
 40
-0.0648377861661532
 40
-0.0648377861661532
 40
-0.0648377861661532
 40
-0.0648377861661532
 40
-0.0648377861661532
 10
249.9011016878895
 20
321.8977696173045
 30
0.0
 10
250.1234388578311
 20
321.9318529203422
 30
0.0
 10
250.5358409278469
 20
322.0345629588729
 30
0.0
 10
251.3163978708271
 20
322.2103166382536
 30
0.0
 10
252.2311422833273
 20
322.5035220172453
 30
0.0
 10
253.189525782117
 20
322.8573473530111
 30
0.0
 10
254.1137236265391
 20
323.2692824931048
 30
0.0
 10
255.0247924736591
 20
323.7398413434193
 30
0.0
 10
255.9120834005264
 20
324.2692361502652
 30
0.0
 10
256.7764488407679
 20
324.8571217308628
 30
0.0
 10
257.6151837215806
 20
325.5031145222491
 30
0.0
 10
258.4274088933591
 20
326.20671719423
 30
0.0
 10
259.2118225881478
 20
326.9673559106731
 30
0.0
 10
259.9676355202273
 20
327.7845241276702
 30
0.0
 10
260.6937767104449
 20
328.6575574063455
 30
0.0
 10
261.3892871365774
 20
329.5859004748468
 30
0.0
 10
262.0526942990681
 20
330.5679482324491
 30
0.0
 10
262.6820780037385
 20
331.6024947669333
 30
0.0
 10
263.2750611359924
 20
332.681161955916
 30
0.0
 10
263.827014216434
 20
333.7918023741182
 30
0.0
 10
264.3330717310798
 20
334.9223469284593
 30
0.0
 10
264.7879425264544
 20
336.0598488604085
 30
0.0
 10
265.1871688686693
 20
337.1929056526373
 30
0.0
 10
265.5098347754832
 20
338.2612469281748
 30
0.0
 10
265.7126040148286
 20
339.0419700839692
 30
0.0
 10
265.8267889129472
 20
339.5417332776344
 30
0.0
 10
265.8749471727617
 20
339.7640280950203
 30
0.0
  0
LINE
  5
225
330
6C
100
AcDbEntity
  8
Viditelná tenká (ISO)
100
AcDbLine
 10
265.8749471727617
 20
339.7640280950203
 30
0.0
 11
153.4272562030174
 21
339.7640280950203
 31
0.0
  0
SPLINE
  5
226
330
6C
100
AcDbEntity
  8
Viditelná tenká (ISO)
100
AcDbSpline
210
0.0
220
0.0
230
1.0
 70
     8
 71
     4
 72
    13
 73
     8
 74
     0
 42
0.0000000001
 43
0.0000000001
 40
-0.0648377861661532
 40
-0.0648377861661532
 40
-0.0648377861661532
 40
-0.0648377861661532
 40
-0.0648377861661532
 40
-0.0614659754493897
 40
-0.043451041076062
 40
-0.0258492847240812
 40
0.0
 40
0.0
 40
0.0
 40
0.0
 40
0.0
 10
265.8749471727617
 20
339.7640280950203
 30
0.0
 10
265.8858375928509
 20
339.8142974351982
 30
0.0
 10
265.9540302867961
 20
340.1330162833685
 30
0.0
 10
266.0684582618836
 20
340.7122171310446
 30
0.0
 10
266.2369673282068
 20
341.6618035603147
 30
0.0
 10
266.3120048115057
 20
342.5891258045209
 30
0.0
 10
266.4120802405149
 20
343.1747869003217
 30
0.0
 10
266.406978429919
 20
343.5381250994236
 30
0.0
  0
LINE
  5
227
330
6C
100
AcDbEntity
  8
Viditelná (ISO)
100
AcDbLine
 10
152.89522494586
 20
343.5381250994236
 30
0.0
 11
152.6735220854866
 21
392.9803482833495
 31
0.0
  0
LINE
  5
228
330
6C
100
AcDbEntity
  8
Viditelná (ISO)
100
AcDbLine
 10
266.406978429919
 20
343.5381250994236
 30
0.0
 11
266.6286812902924
 21
392.9803482833495
 31
0.0
  0
ARC
  5
229
330
6C
100
AcDbEntity
  8
Viditelná (ISO)
100
AcDbCircle
 10
224.7746329691755
 20
572.9548319321962
 30
0.0
 40
257.0911832497236
100
AcDbArc
 50
257.5618967648992
 51
266.627597115406
  0
ARC
  5
22A
330
6C
100
AcDbEntity
  8
Viditelná (ISO)
100
AcDbCircle
 10
194.5275704066036
 20
572.9548319321962
 30
0.0
 40
257.0911832497236
100
AcDbArc
 50
273.372402884594
 51
282.4381032351008
  0
SPLINE
  5
22B
330
6C
100
AcDbEntity
  8
Viditelná (ISO)
100
AcDbSpline
210
0.0
220
0.0
230
1.0
 70
     8
 71
     3
 72
    16
 73
    12
 74
     0
 42
0.0000000001
 43
0.0000000001
 40
0.0648377861661532
 40
0.0648377861661532
 40
0.0648377861661532
 40
0.0648377861661532
 40
0.147853489766039
 40
0.147853489766039
 40
0.2308691933659247
 40
0.2308691933659247
 40
0.3138848969658105
 40
0.3138848969658105
 40
0.3969006005656963
 40
0.3969006005656963
 40
0.4799163041655821
 40
0.4799163041655821
 40
0.4799163041655821
 40
0.4799163041655821
 10
153.4272562030174
 20
339.7640280950203
 30
0.0
 10
153.7847598164163
 20
338.1138189562058
 30
0.0
 10
154.3288623416285
 20
336.440883327869
 30
0.0
 10
155.7355010479651
 20
333.1610510636122
 30
0.0
 10
156.5859225987601
 20
331.5647326629806
 30
0.0
 10
158.5339017674752
 20
328.6693637358863
 30
0.0
 10
159.6372679057082
 20
327.3615076233046
 30
0.0
 10
162.090553115896
 20
325.1062993551543
 30
0.0
 10
163.4426019300537
 20
324.1609716768677
 30
0.0
 10
166.3319603792236
 20
322.7016889511735
 30
0.0
 10
167.8962223595774
 20
322.1284609506316
 30
0.0
 10
169.4011016878895
 20
321.8977696173045
 30
0.0
  0
SPLINE
  5
22C
330
6C
100
AcDbEntity
  8
Viditelná (ISO)
100
AcDbSpline
210
0.0
220
0.0
230
1.0
 70
     8
 71
     3
 72
    16
 73
    12
 74
     0
 42
0.0000000001
 43
0.0000000001
 40
0.0648377861661532
 40
0.0648377861661532
 40
0.0648377861661532
 40
0.0648377861661532
 40
0.147853489766039
 40
0.147853489766039
 40
0.2308691933659247
 40
0.2308691933659247
 40
0.3138848969658105
 40
0.3138848969658105
 40
0.3969006005656963
 40
0.3969006005656963
 40
0.4799163041655821
 40
0.4799163041655821
 40
0.4799163041655821
 40
0.4799163041655821
 10
265.8749471727617
 20
339.7640280950203
 30
0.0
 10
265.5174435593627
 20
338.1138189562058
 30
0.0
 10
264.9733410341505
 20
336.440883327869
 30
0.0
 10
263.566702327814
 20
333.1610510636122
 30
0.0
 10
262.716280777019
 20
331.5647326629806
 30
0.0
 10
260.7683016083039
 20
328.6693637358863
 30
0.0
 10
259.6649354700708
 20
327.3615076233046
 30
0.0
 10
257.2116502598831
 20
325.1062993551543
 30
0.0
 10
255.8596014457253
 20
324.1609716768677
 30
0.0
 10
252.9702429965555
 20
322.7016889511735
 30
0.0
 10
251.4059810162017
 20
322.1284609506316
 30
0.0
 10
249.9011016878895
 20
321.8977696173045
 30
0.0
  0
SPLINE
  5
22D
330
6C
100
AcDbEntity
  8
Viditelná (ISO)
100
AcDbSpline
210
0.0
220
0.0
230
1.0
 70
     8
 71
     3
 72
    16
 73
    12
 74
     0
 42
0.0000000001
 43
0.0000000001
 40
0.0
 40
0.0
 40
0.0
 40
0.0
 40
0.0129675572332307
 40
0.0129675572332307
 40
0.0259351144664613
 40
0.0259351144664613
 40
0.0389026716996919
 40
0.0389026716996919
 40
0.0518702289329226
 40
0.0518702289329226
 40
0.0648377861661532
 40
0.0648377861661532
 40
0.0648377861661532
 40
0.0648377861661532
 10
152.8952249458601
 20
343.5381250994236
 30
0.0
 10
152.8918124454575
 20
343.2950953500042
 30
0.0
 10
152.9188203829519
 20
343.0583697135368
 30
0.0
 10
152.9769409464772
 20
342.5719717772777
 30
0.0
 10
153.0080535758597
 20
342.3222994797266
 30
0.0
 10
153.0683636667144
 20
341.8134447857188
 30
0.0
 10
153.1004644070033
 20
341.556203373564
 30
0.0
 10
153.1779440435071
 20
341.0449141650841
 30
0.0
 10
153.2227203210316
 20
340.7903068222357
 30
0.0
 10
153.3195116343462
 20
340.2788034934923
 30
0.0
 10
153.3714119667247
 20
340.021800787733
 30
0.0
 10
153.4272562030174
 20
339.7640280950203
 30
0.0
  0
SPLINE
  5
22E
330
6C
100
AcDbEntity
  8
Viditelná (ISO)
100
AcDbSpline
210
0.0
220
0.0
230
1.0
 70
     8
 71
     3
 72
    16
 73
    12
 74
     0
 42
0.0000000001
 43
0.0000000001
 40
0.0
 40
0.0
 40
0.0
 40
0.0
 40
0.0129675572332307
 40
0.0129675572332307
 40
0.0259351144664613
 40
0.0259351144664613
 40
0.0389026716996919
 40
0.0389026716996919
 40
0.0518702289329226
 40
0.0518702289329226
 40
0.0648377861661532
 40
0.0648377861661532
 40
0.0648377861661532
 40
0.0648377861661532
 10
266.406978429919
 20
343.5381250994236
 30
0.0
 10
266.4103909303216
 20
343.2950953500042
 30
0.0
 10
266.3833829928273
 20
343.0583697135368
 30
0.0
 10
266.3252624293018
 20
342.5719717772777
 30
0.0
 10
266.2941497999193
 20
342.3222994797266
 30
0.0
 10
266.2338397090647
 20
341.8134447857188
 30
0.0
 10
266.2017389687758
 20
341.556203373564
 30
0.0
 10
266.1242593322719
 20
341.0449141650841
 30
0.0
 10
266.0794830547474
 20
340.7903068222357
 30
0.0
 10
265.9826917414329
 20
340.2788034934923
 30
0.0
 10
265.9307914090544
 20
340.021800787733
 30
0.0
 10
265.8749471727617
 20
339.7640280950203
 30
0.0
  0
SPLINE
  5
22F
330
6C
100
AcDbEntity
  8
Viditelná (ISO)
100
AcDbSpline
210
0.0
220
0.0
230
1.0
 70
     8
 71
     3
 72
    20
 73
    16
 74
     0
 42
0.0000000001
 43
0.0000000001
 40
-0.7167092412979532
 40
-0.7167092412979532
 40
-0.7167092412979532
 40
-0.7167092412979532
 40
-0.6446506208650257
 40
-0.6446506208650257
 40
-0.527872527534858
 40
-0.527872527534858
 40
-0.4192816033046937
 40
-0.4192816033046937
 40
-0.3143756154517727
 40
-0.3143756154517727
 40
-0.216513227434484
 40
-0.216513227434484
 40
-0.1078111566617353
 40
-0.1078111566617353
 40
0.0
 40
0.0
 40
0.0
 40
0.0
 10
248.9442755571712
 20
405.1738684144123
 30
0.0
 10
248.9501611481042
 20
405.324117852575
 30
0.0
 10
248.9593684189537
 20
405.4976451451015
 30
0.0
 10
248.9974103229274
 20
405.9964810465761
 30
0.0
 10
249.0350587250987
 20
406.3477703380339
 30
0.0
 10
249.1445737980913
 20
407.0612402312992
 30
0.0
 10
249.2135085242979
 20
407.4182849068338
 30
0.0
 10
249.3774898203408
 20
408.11031765407
 30
0.0
 10
249.4700448341359
 20
408.4394528836612
 30
0.0
 10
249.6568839535128
 20
409.0257106930761
 30
0.0
 10
249.7484419501415
 20
409.2799760691494
 30
0.0
 10
249.9242895757939
 20
409.7361039719613
 30
0.0
 10
250.0041937194665
 20
409.9235792339274
 30
0.0
 10
250.1148059177041
 20
410.1767478549203
 30
0.0
 10
250.1445771400915
 20
410.2409574262779
 30
0.0
 10
250.1445771400915
 20
410.2409574262779
 30
0.0
  0
SPLINE
  5
230
330
6C
100
AcDbEntity
  8
Viditelná (ISO)
100
AcDbSpline
210
0.0
220
0.0
230
1.0
 70
     8
 71
     3
 72
    26
 73
    22
 74
     0
 42
0.0000000001
 43
0.0000000001
 40
-1.780614082794321
 40
-1.780614082794321
 40
-1.780614082794321
 40
-1.780614082794321
 40
-1.776383698253033
 40
-1.776383698253033
 40
-1.747756935450348
 40
-1.747756935450348
 40
-1.705242192895072
 40
-1.705242192895072
 40
-1.609204597910503
 40
-1.609204597910503
 40
-1.505155724382016
 40
-1.505155724382016
 40
-1.395594340904074
 40
-1.395594340904074
 40
-1.278317278951814
 40
-1.278317278951814
 40
-1.16547643624749
 40
-1.16547643624749
 40
-1.068189233792947
 40
-1.068189233792947
 40
-1.064145083458521
 40
-1.064145083458521
 40
-1.064145083458521
 40
-1.064145083458521
 10
169.1576262356875
 20
410.2409574262779
 30
0.0
 10
169.1576262356875
 20
410.2409574262779
 30
0.0
 10
169.1576713663777
 20
410.2408582417574
 30
0.0
 10
169.158372336192
 20
410.2393175632625
 30
0.0
 10
169.1610510614715
 20
410.2334358191191
 30
0.0
 10
169.1727732116967
 20
410.2075755562796
 30
0.0
 10
169.1842624805816
 20
410.1821832394052
 30
0.0
 10
169.2354091813418
 20
410.0675144416069
 30
0.0
 10
169.2920698237529
 20
409.9390327554555
 30
0.0
 10
169.4403588129936
 20
409.577569295542
 30
0.0
 10
169.5327312227649
 20
409.3405003227579
 30
0.0
 10
169.7296251481893
 20
408.7727408292597
 30
0.0
 10
169.831561126856
 20
408.445288199154
 30
0.0
 10
170.0216218403241
 20
407.7251615660547
 30
0.0
 10
170.1055887184051
 20
407.338842543212
 30
0.0
 10
170.2333599615743
 20
406.5976357082442
 30
0.0
 10
170.2780231517361
 20
406.2460444853298
 30
0.0
 10
170.3335927987891
 20
405.6545201164721
 30
0.0
 10
170.3484444793279
 20
405.4063483261534
 30
0.0
 10
170.3572672633472
 20
405.1908559865848
 30
0.0
 10
170.3576086179829
 20
405.1823304960434
 30
0.0
 10
170.3579395481764
 20
405.1738809038599
 30
0.0
  0
LINE
  5
231
330
6C
100
AcDbEntity
  8
Viditelná (ISO)
100
AcDbLine
 10
270.1511016878896
 20
422.4803482833496
 30
0.0
 11
149.1511016878895
 21
422.4803482833496
 31
0.0
  0
LINE
  5
232
330
6C
100
AcDbEntity
  8
Viditelná tenká (ISO)
100
AcDbLine
 10
146.1511016878895
 20
425.4803482833495
 30
0.0
 11
273.1511016878895
 21
425.4803482833495
 31
0.0
  0
ARC
  5
233
330
6C
100
AcDbEntity
  8
Viditelná (ISO)
100
AcDbCircle
 10
270.1511016878896
 20
425.4803482833495
 30
0.0
 40
3.0
100
AcDbArc
 50
270.0
 51
0.0
  0
ARC
  5
234
330
6C
100
AcDbEntity
  8
Viditelná (ISO)
100
AcDbCircle
 10
149.1511016878895
 20
425.4803482833495
 30
0.0
 40
3.0
100
AcDbArc
 50
180.0
 51
270.0
  0
LINE
  5
235
330
6C
100
AcDbEntity
  8
Viditelná (ISO)
100
AcDbLine
 10
273.1511016878895
 20
426.9803482833495
 30
0.0
 11
146.1511016878895
 21
426.9803482833495
 31
0.0
  0
LINE
  5
236
330
6C
100
AcDbEntity
  8
Viditelná tenká (ISO)
100
AcDbLine
 10
248.9011016878895
 20
403.4803482833495
 30
0.0
 11
170.4011016878895
 21
403.4803482833495
 31
0.0
  0
LINE
  5
237
330
6C
100
AcDbEntity
  8
Viditelná (ISO)
100
AcDbLine
 10
146.1511016878895
 20
425.4803482833495
 30
0.0
 11
146.1511016878895
 21
426.9803482833495
 31
0.0
  0
LINE
  5
238
330
6C
100
AcDbEntity
  8
Viditelná (ISO)
100
AcDbLine
 10
273.1511016878895
 20
425.4803482833495
 30
0.0
 11
273.1511016878895
 21
426.9803482833495
 31
0.0
  0
LINE
  5
239
330
6C
100
AcDbEntity
  8
Viditelná (ISO)
100
AcDbLine
 10
170.4011016878895
 20
392.9803482833495
 30
0.0
 11
170.4011016878895
 21
403.4803482833495
 31
0.0
  0
LINE
  5
23A
330
6C
100
AcDbEntity
  8
Viditelná (ISO)
100
AcDbLine
 10
248.9011016878895
 20
392.9803482833495
 30
0.0
 11
248.9011016878895
 21
403.4803482833495
 31
0.0
  0
ARC
  5
23B
330
6C
100
AcDbEntity
  8
Viditelná (ISO)
100
AcDbCircle
 10
267.9011016878895
 20
403.4803482833495
 30
0.0
 40
19.0
100
AcDbArc
 50
177.1180810404584
 51
180.0
  0
ARC
  5
23C
330
6C
100
AcDbEntity
  8
Viditelná (ISO)
100
AcDbCircle
 10
267.9011016878895
 20
403.4803482833495
 30
0.0
 40
19.0
100
AcDbArc
 50
90.0000000000001
 51
159.1561973126083
  0
ARC
  5
23D
330
6C
100
AcDbEntity
  8
Viditelná (ISO)
100
AcDbCircle
 10
151.4011016878895
 20
403.4803482833495
 30
0.0
 40
19.0
100
AcDbArc
 50
20.84380268739186
 51
90.00000000000005
  0
ARC
  5
23E
330
6C
100
AcDbEntity
  8
Viditelná (ISO)
100
AcDbCircle
 10
151.4011016878895
 20
403.4803482833495
 30
0.0
 40
19.0
100
AcDbArc
 50
0.0
 51
2.881918959541687
  0
ARC
  5
23F
330
6C
100
AcDbEntity
  8
Viditelná (ISO)
100
AcDbCircle
 10
209.6511016878895
 20
358.1534415858467
 30
0.0
 40
65.69999999999999
100
AcDbArc
 50
127.9218898638717
 51
147.9884705155458
  0
ARC
  5
240
330
6C
100
AcDbEntity
  8
Viditelná (ISO)
100
AcDbCircle
 10
209.6511016878895
 20
358.1534415858467
 30
0.0
 40
65.69999999999997
100
AcDbArc
 50
32.01152948445422
 51
52.07811013612833
  0
ARC
  5
241
330
6C
100
AcDbEntity
  8
Viditelná (ISO)
100
AcDbCircle
 10
209.6511016878895
 20
358.1534415858467
 30
0.0
 40
60.7
100
AcDbArc
 50
35.01246550214932
 51
49.68280660086968
  0
ARC
  5
242
330
6C
100
AcDbEntity
  8
Viditelná (ISO)
100
AcDbCircle
 10
209.6511016878895
 20
358.1534415858467
 30
0.0
 40
60.7
100
AcDbArc
 50
130.3171933991304
 51
144.9875344978507
  0
LINE
  5
243
330
6C
100
AcDbEntity
  8
Osa (ISO)
  6
Continuous
100
AcDbLine
 10
209.6511016878896
 20
70.62931416975736
 30
0.0
 11
209.6511016878896
 21
497.9272914653979
 31
0.0
  0
DIMENSION
  5
244
330
6C
100
AcDbEntity
  8
Kóta (ISO)
100
AcDbDimension
  2
*D29
 10
108.6511016878896
 20
459.1803482833496
 30
0.0
 11
108.6511016878895
 21
469.9303482833495
 31
0.0
 70
   160
  1
<>
 71
     2
 42
21.5
  3
Různé objekty (ISO)
100
AcDbAlignedDimension
 13
131.6511016878894
 23
480.6803482833496
 33
0.0
 14
131.6511016878895
 24
459.1803482833496
 34
0.0
 50
270.0
100
AcDbRotatedDimension
1001
ACAD
1000
DSTYLE
1002
{
1070
   172
1070
     0
1070
   289
1070
     1
1070
   271
1070
     2
1070
   272
1070
     2
1070
    48
1040
0.0
1070
    47
1040
0.0
1002
}
  0
DIMENSION
  5
321
330
6C
100
AcDbEntity
  8
Kóta (ISO)
100
AcDbDimension
  2
*D30
 10
287.6511016878896
 20
504.655422687863
 30
0.0
 11
209.6511016878895
 21
504.655422687863
 31
0.0
 70
   160
  1
{\U+00D8}<>
 71
     2
 42
156.0
  3
Kopie z Různé objekty (ISO)
100
AcDbAlignedDimension
 13
131.6511016878895
 23
480.6803482833496
 33
0.0
 14
287.6511016878896
 24
480.6803482833496
 34
0.0
 50
180.0
100
AcDbRotatedDimension
1001
ACAD
1000
DSTYLE
1002
{
1070
   172
1070
     0
1070
   289
1070
     1
1070
   271
1070
     2
1070
   272
1070
     2
1070
    48
1040
0.0
1070
    47
1040
0.0
1002
}
  0
DIMENSION
  5
3F7
330
6C
100
AcDbEntity
  8
Kóta (ISO)
100
AcDbDimension
  2
*D31
 10
273.1511016878895
 20
440.9803482833495
 30
0.0
 11
209.6511016878896
 21
440.9803482833495
 31
0.0
 70
   160
  1
{\fAIGDT|b0|i0;\H5.0000;\ln\fTahoma|b0|i0;\H5.0000;}<>
 71
     2
 42
127.0
  3
Kopie z Různé objekty (ISO)
100
AcDbAlignedDimension
 13
146.1511016878895
 23
426.9803482833495
 33
0.0
 14
273.1511016878895
 24
426.9803482833495
 34
0.0
 50
180.0
100
AcDbRotatedDimension
1001
ACAD
1000
DSTYLE
1002
{
1070
   172
1070
     0
1070
   289
1070
     1
1070
   271
1070
     2
1070
   272
1070
     2
1070
    48
1040
0.0
1070
    47
1040
0.0
1002
}
  0
DIMENSION
  5
4CE
330
6C
100
AcDbEntity
  8
Kóta (ISO)
100
AcDbDimension
  2
*D32
 10
111.1511016878896
 20
316.3088592259663
 30
0.0
 11
111.1511016878895
 21
371.6446037546579
 31
0.0
 70
   160
  1
<>
 71
     2
 42
110.6714890573833
  3
Kopie z Různé objekty (ISO)
100
AcDbAlignedDimension
 13
146.1511016878895
 23
426.9803482833495
 33
0.0
 14
209.6511016878896
 24
316.3088592259662
 34
0.0
 50
270.0
100
AcDbRotatedDimension
1001
ACAD
1000
DSTYLE
1002
{
1070
   172
1070
     0
1070
   289
1070
     1
1070
   271
1070
     0
1070
   272
1070
     2
1070
    48
1040
0.0
1070
    47
1040
0.0
1002
}
  0
DIMENSION
  5
5A4
330
6C
100
AcDbEntity
  8
Kóta (ISO)
100
AcDbDimension
  2
*D33
 10
321.2030244273644
 20
303.6803482833497
 30
0.0
 11
209.6511016878895
 21
303.6803482833497
 31
0.0
 70
   160
  1
{\fAIGDT|b0|i0;\H5.0000;\ln\fTahoma|b0|i0;\H5.0000;}<>
 71
     2
 42
223.1038454789498
  3
Kopie z Různé objekty (ISO)
100
AcDbAlignedDimension
 13
98.09917894841461
 23
286.6803482833496
 33
0.0
 14
321.2030244273644
 24
286.6803482833496
 34
0.0
 50
180.0
100
AcDbRotatedDimension
1001
ACAD
1000
DSTYLE
1002
{
1070
   172
1070
     0
1070
   289
1070
     1
1070
   271
1070
     0
1070
   272
1070
     2
1070
    48
1040
0.0
1070
    47
1040
0.0
1002
}
  0
DIMENSION
  5
67A
330
6C
100
AcDbEntity
  8
Kóta (ISO)
100
AcDbDimension
  2
*D34
 10
49.99791952135944
 20
80.68034828334967
 30
0.0
 11
49.99791952135943
 21
185.6803482833496
 31
0.0
 70
   160
  1
<>
 71
     2
 42
210.0
  3
Kopie z Různé objekty (ISO)
100
AcDbAlignedDimension
 13
98.09917894841461
 23
290.6803482833496
 33
0.0
 14
118.1877120932206
 24
80.68034828334965
 34
0.0
 50
270.0
100
AcDbRotatedDimension
1001
ACAD
1000
DSTYLE
1002
{
1070
   172
1070
     0
1070
   289
1070
     1
1070
   271
1070
     2
1070
   272
1070
     2
1070
    48
1040
0.0
1070
    47
1040
0.0
1002
}
  0
ENDSEC
  0
SECTION
  2
OBJECTS
  0
DICTIONARY
  5
C
330
0
100
AcDbDictionary
281
     1
  3
ACAD_CIP_PREVIOUS_PRODUCT_INFO
350
750
  3
ACAD_COLOR
350
63
  3
ACAD_GROUP
350
D
  3
ACAD_LAYOUT
350
62
  3
ACAD_MATERIAL
350
10
  3
ACAD_MLEADERSTYLE
350
66
  3
ACAD_MLINESTYLE
350
5F
  3
ACAD_PLOTSETTINGS
350
61
  3
ACAD_PLOTSTYLENAME
350
E
  3
ACAD_SCALELIST
350
42
  3
ACAD_TABLESTYLE
350
64
  3
ACAD_VISUALSTYLE
350
29
  3
ACDB_RECOMPOSE_DATA
350
75E
  3
AcDbVariableDictionary
350
751
  0
DICTIONARY
  5
794
330
CC
100
AcDbDictionary
280
     1
281
     1
  3
ACAD_MTEXT_2008_RT
360
795
  0
DICTIONARY
  5
796
330
D1
100
AcDbDictionary
280
     1
281
     1
  3
ACAD_MTEXT_2008_RT
360
797
  0
DICTIONARY
  5
798
330
D5
100
AcDbDictionary
280
     1
281
     1
  3
ACAD_MTEXT_2008_RT
360
799
  0
DICTIONARY
  5
79A
330
D9
100
AcDbDictionary
280
     1
281
     1
  3
ACAD_MTEXT_2008_RT
360
79B
  0
DICTIONARY
  5
79C
330
E5
100
AcDbDictionary
280
     1
281
     1
  3
ACAD_MTEXT_2008_RT
360
79D
  0
DICTIONARY
  5
79E
330
E9
100
AcDbDictionary
280
     1
281
     1
  3
ACAD_MTEXT_2008_RT
360
79F
  0
DICTIONARY
  5
7A0
330
ED
100
AcDbDictionary
280
     1
281
     1
  3
ACAD_MTEXT_2008_RT
360
7A1
  0
DICTIONARY
  5
7A2
330
F1
100
AcDbDictionary
280
     1
281
     1
  3
ACAD_MTEXT_2008_RT
360
7A3
  0
DICTIONARY
  5
7A4
330
FD
100
AcDbDictionary
280
     1
281
     1
  3
ACAD_MTEXT_2008_RT
360
7A5
  0
DICTIONARY
  5
7A6
330
101
100
AcDbDictionary
280
     1
281
     1
  3
ACAD_MTEXT_2008_RT
360
7A7
  0
DICTIONARY
  5
7A8
330
105
100
AcDbDictionary
280
     1
281
     1
  3
ACAD_MTEXT_2008_RT
360
7A9
  0
DICTIONARY
  5
7AA
330
109
100
AcDbDictionary
280
     1
281
     1
  3
ACAD_MTEXT_2008_RT
360
7AB
  0
DICTIONARY
  5
7AC
330
10D
100
AcDbDictionary
280
     1
281
     1
  3
ACAD_MTEXT_2008_RT
360
7AD
  0
DICTIONARY
  5
7AE
330
111
100
AcDbDictionary
280
     1
281
     1
  3
ACAD_MTEXT_2008_RT
360
7AF
  0
DICTIONARY
  5
7B0
330
115
100
AcDbDictionary
280
     1
281
     1
  3
ACAD_MTEXT_2008_RT
360
7B1
  0
DICTIONARY
  5
7B2
330
119
100
AcDbDictionary
280
     1
281
     1
  3
ACAD_MTEXT_2008_RT
360
7B3
  0
DICTIONARY
  5
7B4
330
121
100
AcDbDictionary
280
     1
281
     1
  3
ACAD_MTEXT_2008_RT
360
7B5
  0
DICTIONARY
  5
7B6
330
3F3
100
AcDbDictionary
280
     1
281
     1
  3
ACAD_MTEXT_2008_RT
360
7B7
  0
XRECORD
  5
750
102
{ACAD_REACTORS
330
C
102
}
330
C
100
AcDbXrecord
280
     1
300
INVNTOR
300
2012
300
PDSP_F_S
  0
DICTIONARY
  5
63
102
{ACAD_REACTORS
330
C
102
}
330
C
100
AcDbDictionary
281
     1
  0
DICTIONARY
  5
D
102
{ACAD_REACTORS
330
C
102
}
330
C
100
AcDbDictionary
281
     1
  0
DICTIONARY
  5
62
102
{ACAD_REACTORS
330
C
102
}
330
C
100
AcDbDictionary
281
     1
  3
Layout1
350
6B
  3
Layout2
350
73
  3
Model
350
6F
  0
DICTIONARY
  5
10
102
{ACAD_REACTORS
330
C
102
}
330
C
100
AcDbDictionary
281
     1
  3
ByBlock
350
19
  3
ByLayer
350
11
  3
Global
350
21
  0
DICTIONARY
  5
66
102
{ACAD_REACTORS
330
C
102
}
330
C
100
AcDbDictionary
281
     1
  3
Standard
350
67
  0
DICTIONARY
  5
5F
102
{ACAD_REACTORS
330
C
102
}
330
C
100
AcDbDictionary
281
     1
  3
Standard
350
60
  0
DICTIONARY
  5
61
102
{ACAD_REACTORS
330
C
102
}
330
C
100
AcDbDictionary
281
     1
  0
ACDBDICTIONARYWDFLT
  5
E
102
{ACAD_REACTORS
330
C
102
}
330
C
100
AcDbDictionary
281
     1
  3
Normal
350
F
100
AcDbDictionaryWithDefault
340
F
  0
DICTIONARY
  5
42
102
{ACAD_REACTORS
330
C
102
}
330
C
100
AcDbDictionary
281
     1
  3
A0
350
43
  3
A1
350
44
  3
A2
350
45
  3
A3
350
46
  3
A4
350
47
  3
A5
350
48
  3
A6
350
49
  3
A7
350
4A
  3
A8
350
4B
  3
A9
350
4C
  3
B0
350
4D
  3
B1
350
4E
  3
B2
350
4F
  3
B3
350
50
  3
B4
350
51
  3
B5
350
52
  3
B6
350
53
  0
DICTIONARY
  5
64
102
{ACAD_REACTORS
330
C
102
}
330
C
100
AcDbDictionary
281
     1
  3
Standard
350
65
  0
DICTIONARY
  5
29
102
{ACAD_REACTORS
330
C
102
}
330
C
100
AcDbDictionary
281
     1
  3
2dWireframe
350
2F
  3
Basic
350
2E
  3
Brighten
350
35
  3
ColorChange
350
39
  3
Conceptual
350
32
  3
Dim
350
34
  3
EdgeColorOff
350
41
  3
Facepattern
350
38
  3
Flat
350
2A
  3
FlatWithEdges
350
2B
  3
Gouraud
350
2C
  3
GouraudWithEdges
350
2D
  3
Hidden
350
31
  3
JitterOff
350
3F
  3
Linepattern
350
37
  3
OverhangOff
350
40
  3
Realistic
350
33
  3
Shaded
350
3E
  3
Shaded with edges
350
3D
  3
Shades of Gray
350
3A
  3
Sketchy
350
3B
  3
Thicken
350
36
  3
Wireframe
350
30
  3
X-Ray
350
3C
  0
XRECORD
  5
75E
102
{ACAD_REACTORS
330
C
102
}
330
C
100
AcDbXrecord
280
     1
 90
        1
330
65
  0
DICTIONARY
  5
751
102
{ACAD_REACTORS
330
C
102
}
330
C
100
AcDbDictionary
281
     1
  3
CANNOSCALE
350
755
  3
CMLEADERSTYLE
350
753
  3
CTABLESTYLE
350
752
  3
LAYEREVAL
350
757
  3
LAYERNOTIFY
350
758
  3
LIGHTINGUNITS
350
756
  3
MSLTSCALE
350
754
  3
XCLIPFRAME
350
759
  0
XRECORD
  5
795
102
{ACAD_REACTORS
330
794
102
}
330
794
100
AcDbXrecord
280
     1
 40
3087375.0
  1
WIG svařování- svary dle potřeby zabrousit.\PPohledové plochy brousit (vel. brusných zrn 240)\Pa polepit páskou.\P\PWIG Schweisung, Nahte sauber geschliffen und poliert\PSichtstege geschliffen mit 240 Korn und abgeklebt.
  0
XRECORD
  5
797
102
{ACAD_REACTORS
330
796
102
}
330
796
100
AcDbXrecord
280
     1
 40
2428738.0
  1
WIG svařování- svary dle potřeby zabrousit.\PPohledové plochy brousit (vel. brusných zrn 240)\Pa polepit páskou.\P \PWIG welding - Visible sufaces to be grinded\Pand covered by protectiv foil.
  0
XRECORD
  5
799
102
{ACAD_REACTORS
330
798
102
}
330
798
100
AcDbXrecord
280
     1
 40
2458240.0
  1
Vzdálenost nivel. šroubů ca. 1500\PVzdálenost kotev ca. 400\PVzdálenost dist. kolíků ca. 250\P \PAbstand der Nivellieschraben ca.1500\PAbstand der Maueranker ca.400\PAbstand der Distanzstege ca.250\P 
  0
XRECORD
  5
79B
102
{ACAD_REACTORS
330
79A
102
}
330
79A
100
AcDbXrecord
280
     1
 40
1069838.0
  1
Vzdálenost nivel. šroubů ca. 1500\PVzdálenost kotev ca. 400\P \PDistance of leveling feets ca.1500\PDistance of fixing tangs ca.400\P\P 
  0
XRECORD
  5
79D
102
{ACAD_REACTORS
330
79C
102
}
330
79C
100
AcDbXrecord
280
     1
 40
126939.0
  1
Mořit a pasivovat\P(Gebeitzt und passivieren)
  0
XRECORD
  5
79F
102
{ACAD_REACTORS
330
79E
102
}
330
79E
100
AcDbXrecord
280
     1
 40
109520.0
  1
Mořit a pasivovat\P(Pickled and passivate)
  0
XRECORD
  5
7A1
102
{ACAD_REACTORS
330
7A0
102
}
330
7A0
100
AcDbXrecord
280
     1
 40
93252.0
  1
Žárově zinkovat\P(Verzinkt )
  0
XRECORD
  5
7A3
102
{ACAD_REACTORS
330
7A2
102
}
330
7A2
100
AcDbXrecord
280
     1
 40
132246.0
  1
Žárově zinkovat\P(Hot-dip galvanize)
  0
XRECORD
  5
7A5
102
{ACAD_REACTORS
330
7A4
102
}
330
7A4
100
AcDbXrecord
280
     1
 40
83720.0
  1
Elektrolyt. leštit\P(Elektr. poliert)
  0
XRECORD
  5
7A7
102
{ACAD_REACTORS
330
7A6
102
}
330
7A6
100
AcDbXrecord
280
     1
 40
87333.0
  1
Elektrolyt. leštit\P(Electr. polished)
  0
XRECORD
  5
7A9
102
{ACAD_REACTORS
330
7A8
102
}
330
7A8
100
AcDbXrecord
280
     1
 40
118263.0
  1
Žlab bez spádu!\PRinne ohne Gefälle!
  0
XRECORD
  5
7AB
102
{ACAD_REACTORS
330
7AA
102
}
330
7AA
100
AcDbXrecord
280
     1
 40
119399.0
  1
Žlab bez spádu!\PChannel without slope!
  0
XRECORD
  5
7AD
102
{ACAD_REACTORS
330
7AC
102
}
330
7AC
100
AcDbXrecord
280
     1
 40
2672228.0
  1
POZOR:\PSpád žlabu je menší než 1% - nebezpečí vzniku prohlubní\Pse stojatou vodou.\PACHTUNG:\PDas Bodengefälle ist kleiner als 1%. Das Gefahr der\PSenkungsentstehung mit dem stehenden Wasser.
  0
XRECORD
  5
7AF
102
{ACAD_REACTORS
330
7AE
102
}
330
7AE
100
AcDbXrecord
280
     1
 40
2193518.0
  1
POZOR:\PSpád žlabu je menší než 1% - nebezpečí vzniku prohlubní\Pse stojatou vodou.\PAUTENTION:\PThe gradient of the bottom is minor then 1%.\PThat can be reason of slack water.
  0
XRECORD
  5
7B1
102
{ACAD_REACTORS
330
7B0
102
}
330
7B0
100
AcDbXrecord
280
     1
 40
275286.0
  1
Kartáčováno + folie\PGeburstet mit abziehbarer Schutzfolie
  0
XRECORD
  5
7B3
102
{ACAD_REACTORS
330
7B2
102
}
330
7B2
100
AcDbXrecord
280
     1
 40
175505.0
  1
Kartáčováno + fólie.\P(Brushed and foils) 
  0
XRECORD
  5
7B5
102
{ACAD_REACTORS
330
7B4
102
}
330
7B4
100
AcDbXrecord
280
     1
 40
2320136.0
  1
Povrchová úprava/Oberfläche:\PTryskat pouze vnitřek žlabu, včetně pohledových ploch!\PPříruby proti tryskání chránit!\PFlansches per strahlung behütent!
  0
XRECORD
  5
7B7
102
{ACAD_REACTORS
330
7B6
102
}
330
7B6
100
AcDbXrecord
280
     1
 40
9013.0
  1
\A1;{\U+00D8}156
  0
LAYOUT
  5
6B
102
{ACAD_REACTORS
330
62
102
}
330
62
100
AcDbPlotSettings
  1

  2

  4

  6

 40
0.0
 41
0.0
 42
0.0
 43
0.0
 44
0.0
 45
0.0
 46
0.0
 47
0.0
 48
0.0
 49
0.0
140
0.0
141
0.0
142
1.0
143
1.0
 70
   688
 72
     0
 73
     0
 74
     5
  7

 75
    16
147
1.0
 76
     0
 77
     2
 78
   300
148
0.0
149
0.0
100
AcDbLayout
  1
Layout1
 70
     1
 71
     1
 10
0.0
 20
0.0
 11
12.0
 21
9.0
 12
0.0
 22
0.0
 32
0.0
 14
0.0
 24
0.0
 34
0.0
 15
0.0
 25
0.0
 35
0.0
146
0.0
 13
0.0
 23
0.0
 33
0.0
 16
1.0
 26
0.0
 36
0.0
 17
0.0
 27
1.0
 37
0.0
 76
     0
330
68
  0
LAYOUT
  5
73
102
{ACAD_REACTORS
330
62
102
}
330
62
100
AcDbPlotSettings
  1

  2

  4

  6

 40
0.0
 41
0.0
 42
0.0
 43
0.0
 44
0.0
 45
0.0
 46
0.0
 47
0.0
 48
0.0
 49
0.0
140
0.0
141
0.0
142
1.0
143
1.0
 70
   688
 72
     0
 73
     0
 74
     5
  7

 75
    16
147
1.0
 76
     0
 77
     2
 78
   300
148
0.0
149
0.0
100
AcDbLayout
  1
Layout2
 70
     1
 71
     2
 10
0.0
 20
0.0
 11
12.0
 21
9.0
 12
0.0
 22
0.0
 32
0.0
 14
0.0
 24
0.0
 34
0.0
 15
0.0
 25
0.0
 35
0.0
146
0.0
 13
0.0
 23
0.0
 33
0.0
 16
1.0
 26
0.0
 36
0.0
 17
0.0
 27
1.0
 37
0.0
 76
     0
330
70
  0
LAYOUT
  5
6F
102
{ACAD_REACTORS
330
62
102
}
330
62
100
AcDbPlotSettings
  1

  2

  4

  6

 40
0.0
 41
0.0
 42
0.0
 43
0.0
 44
0.0
 45
0.0
 46
0.0
 47
0.0
 48
0.0
 49
0.0
140
0.0
141
0.0
142
1.0
143
1.0
 70
  1712
 72
     0
 73
     0
 74
     0
  7

 75
     0
147
1.0
 76
     0
 77
     2
 78
   300
148
0.0
149
0.0
100
AcDbLayout
  1
Model
 70
     1
 71
     0
 10
0.0
 20
0.0
 11
12.0
 21
9.0
 12
0.0
 22
0.0
 32
0.0
 14
0.0
 24
0.0
 34
0.0
 15
0.0
 25
0.0
 35
0.0
146
0.0
 13
0.0
 23
0.0
 33
0.0
 16
1.0
 26
0.0
 36
0.0
 17
0.0
 27
1.0
 37
0.0
 76
     0
330
6C
  0
MATERIAL
  5
19
102
{ACAD_XDICTIONARY
360
1A
102
}
102
{ACAD_REACTORS
330
10
102
}
330
10
100
AcDbMaterial
  1
ByBlock
 72
     0
 43
0.0208333333333333
 43
0.0
 43
0.0
 43
0.0
 43
0.0
 43
0.0208333333333333
 43
0.0
 43
0.0
 43
0.0
 43
0.0
 43
1.0
 43
0.0
 43
0.0
 43
0.0
 43
0.0
 43
1.0
 77
     0
 47
0.0208333333333333
 47
0.0
 47
0.0
 47
0.0
 47
0.0
 47
0.0208333333333333
 47
0.0
 47
0.0
 47
0.0
 47
0.0
 47
1.0
 47
0.0
 47
0.0
 47
0.0
 47
0.0
 47
1.0
171
     0
 49
0.0208333333333333
 49
0.0
 49
0.0
 49
0.0
 49
0.0
 49
0.0208333333333333
 49
0.0
 49
0.0
 49
0.0
 49
0.0
 49
1.0
 49
0.0
 49
0.0
 49
0.0
 49
0.0
 49
1.0
175
     0
142
0.0208333333333333
142
0.0
142
0.0
142
0.0
142
0.0
142
0.0208333333333333
142
0.0
142
0.0
142
0.0
142
0.0
142
1.0
142
0.0
142
0.0
142
0.0
142
0.0
142
1.0
179
     0
144
0.0208333333333333
144
0.0
144
0.0
144
0.0
144
0.0
144
0.0208333333333333
144
0.0
144
0.0
144
0.0
144
0.0
144
1.0
144
0.0
144
0.0
144
0.0
144
0.0
144
1.0
147
0.0208333333333333
147
0.0
147
0.0
147
0.0
147
0.0
147
0.0208333333333333
147
0.0
147
0.0
147
0.0
147
0.0
147
1.0
147
0.0
147
0.0
147
0.0
147
0.0
147
1.0
  0
MATERIAL
  5
11
102
{ACAD_XDICTIONARY
360
12
102
}
102
{ACAD_REACTORS
330
10
102
}
330
10
100
AcDbMaterial
  1
ByLayer
 72
     0
 43
0.0208333333333333
 43
0.0
 43
0.0
 43
0.0
 43
0.0
 43
0.0208333333333333
 43
0.0
 43
0.0
 43
0.0
 43
0.0
 43
1.0
 43
0.0
 43
0.0
 43
0.0
 43
0.0
 43
1.0
 77
     0
 47
0.0208333333333333
 47
0.0
 47
0.0
 47
0.0
 47
0.0
 47
0.0208333333333333
 47
0.0
 47
0.0
 47
0.0
 47
0.0
 47
1.0
 47
0.0
 47
0.0
 47
0.0
 47
0.0
 47
1.0
171
     0
 49
0.0208333333333333
 49
0.0
 49
0.0
 49
0.0
 49
0.0
 49
0.0208333333333333
 49
0.0
 49
0.0
 49
0.0
 49
0.0
 49
1.0
 49
0.0
 49
0.0
 49
0.0
 49
0.0
 49
1.0
175
     0
142
0.0208333333333333
142
0.0
142
0.0
142
0.0
142
0.0
142
0.0208333333333333
142
0.0
142
0.0
142
0.0
142
0.0
142
1.0
142
0.0
142
0.0
142
0.0
142
0.0
142
1.0
179
     0
144
0.0208333333333333
144
0.0
144
0.0
144
0.0
144
0.0
144
0.0208333333333333
144
0.0
144
0.0
144
0.0
144
0.0
144
1.0
144
0.0
144
0.0
144
0.0
144
0.0
144
1.0
147
0.0208333333333333
147
0.0
147
0.0
147
0.0
147
0.0
147
0.0208333333333333
147
0.0
147
0.0
147
0.0
147
0.0
147
1.0
147
0.0
147
0.0
147
0.0
147
0.0
147
1.0
  0
MATERIAL
  5
21
102
{ACAD_XDICTIONARY
360
22
102
}
102
{ACAD_REACTORS
330
10
102
}
330
10
100
AcDbMaterial
  1
Global
 72
     0
 43
0.0208333333333333
 43
0.0
 43
0.0
 43
0.0
 43
0.0
 43
0.0208333333333333
 43
0.0
 43
0.0
 43
0.0
 43
0.0
 43
1.0
 43
0.0
 43
0.0
 43
0.0
 43
0.0
 43
1.0
 77
     0
 47
0.0208333333333333
 47
0.0
 47
0.0
 47
0.0
 47
0.0
 47
0.0208333333333333
 47
0.0
 47
0.0
 47
0.0
 47
0.0
 47
1.0
 47
0.0
 47
0.0
 47
0.0
 47
0.0
 47
1.0
171
     0
 49
0.0208333333333333
 49
0.0
 49
0.0
 49
0.0
 49
0.0
 49
0.0208333333333333
 49
0.0
 49
0.0
 49
0.0
 49
0.0
 49
1.0
 49
0.0
 49
0.0
 49
0.0
 49
0.0
 49
1.0
175
     0
142
0.0208333333333333
142
0.0
142
0.0
142
0.0
142
0.0
142
0.0208333333333333
142
0.0
142
0.0
142
0.0
142
0.0
142
1.0
142
0.0
142
0.0
142
0.0
142
0.0
142
1.0
179
     0
144
0.0208333333333333
144
0.0
144
0.0
144
0.0
144
0.0
144
0.0208333333333333
144
0.0
144
0.0
144
0.0
144
0.0
144
1.0
144
0.0
144
0.0
144
0.0
144
0.0
144
1.0
147
0.0208333333333333
147
0.0
147
0.0
147
0.0
147
0.0
147
0.0208333333333333
147
0.0
147
0.0
147
0.0
147
0.0
147
1.0
147
0.0
147
0.0
147
0.0
147
0.0
147
1.0
  0
MLEADERSTYLE
  5
67
102
{ACAD_XDICTIONARY
360
75C
102
}
102
{ACAD_REACTORS
330
66
102
}
330
66
100
AcDbMLeaderStyle
170
     2
171
     1
172
     0
 90
        2
 40
0.0
 41
0.0
173
     1
 91
-1056964608
340
5B
 92
       -2
290
     1
 42
0.09
291
     1
 43
0.36
  3
Standard
 44
0.18
300

342
55
174
     1
178
     6
175
     1
176
     0
 93
-1056964608
 45
0.18
292
     0
297
     0
 46
0.18
 94
-1056964608
 47
1.0
 49
1.0
140
1.0
293
     1
141
0.0
294
     1
177
     0
142
1.0
295
     0
296
     0
143
0.125
1001
ACAD_MLEADERVER
1070
     2
  0
MLINESTYLE
  5
60
102
{ACAD_REACTORS
330
5F
102
}
330
5F
100
AcDbMlineStyle
  2
STANDARD
 70
     0
  3

 62
   256
 51
90.0
 52
90.0
 71
     2
 49
0.5
 62
   256
  6
BYLAYER
 49
-0.5
 62
   256
  6
BYLAYER
  0
ACDBPLACEHOLDER
  5
F
102
{ACAD_REACTORS
330
E
102
}
330
E
  0
SCALE
  5
43
102
{ACAD_REACTORS
330
42
102
}
330
42
100
AcDbScale
 70
     0
300
1:1
140
1.0
141
1.0
290
     1
  0
SCALE
  5
44
102
{ACAD_REACTORS
330
42
102
}
330
42
100
AcDbScale
 70
     0
300
1/128" = 1'-0"
140
0.0078125
141
12.0
290
     0
  0
SCALE
  5
45
102
{ACAD_REACTORS
330
42
102
}
330
42
100
AcDbScale
 70
     0
300
1/64" = 1'-0"
140
0.015625
141
12.0
290
     0
  0
SCALE
  5
46
102
{ACAD_REACTORS
330
42
102
}
330
42
100
AcDbScale
 70
     0
300
1/32" = 1'-0"
140
0.03125
141
12.0
290
     0
  0
SCALE
  5
47
102
{ACAD_REACTORS
330
42
102
}
330
42
100
AcDbScale
 70
     0
300
1/16" = 1'-0"
140
0.0625
141
12.0
290
     0
  0
SCALE
  5
48
102
{ACAD_REACTORS
330
42
102
}
330
42
100
AcDbScale
 70
     0
300
3/32" = 1'-0"
140
0.09375
141
12.0
290
     0
  0
SCALE
  5
49
102
{ACAD_REACTORS
330
42
102
}
330
42
100
AcDbScale
 70
     0
300
1/8" = 1'-0"
140
0.125
141
12.0
290
     0
  0
SCALE
  5
4A
102
{ACAD_REACTORS
330
42
102
}
330
42
100
AcDbScale
 70
     0
300
3/16" = 1'-0"
140
0.1875
141
12.0
290
     0
  0
SCALE
  5
4B
102
{ACAD_REACTORS
330
42
102
}
330
42
100
AcDbScale
 70
     0
300
1/4" = 1'-0"
140
0.25
141
12.0
290
     0
  0
SCALE
  5
4C
102
{ACAD_REACTORS
330
42
102
}
330
42
100
AcDbScale
 70
     0
300
3/8" = 1'-0"
140
0.375
141
12.0
290
     0
  0
SCALE
  5
4D
102
{ACAD_REACTORS
330
42
102
}
330
42
100
AcDbScale
 70
     0
300
1/2" = 1'-0"
140
0.5
141
12.0
290
     0
  0
SCALE
  5
4E
102
{ACAD_REACTORS
330
42
102
}
330
42
100
AcDbScale
 70
     0
300
3/4" = 1'-0"
140
0.75
141
12.0
290
     0
  0
SCALE
  5
4F
102
{ACAD_REACTORS
330
42
102
}
330
42
100
AcDbScale
 70
     0
300
1" = 1'-0"
140
1.0
141
12.0
290
     0
  0
SCALE
  5
50
102
{ACAD_REACTORS
330
42
102
}
330
42
100
AcDbScale
 70
     0
300
1-1/2" = 1'-0"
140
1.5
141
12.0
290
     0
  0
SCALE
  5
51
102
{ACAD_REACTORS
330
42
102
}
330
42
100
AcDbScale
 70
     0
300
3" = 1'-0"
140
3.0
141
12.0
290
     0
  0
SCALE
  5
52
102
{ACAD_REACTORS
330
42
102
}
330
42
100
AcDbScale
 70
     0
300
6" = 1'-0"
140
6.0
141
12.0
290
     0
  0
SCALE
  5
53
102
{ACAD_REACTORS
330
42
102
}
330
42
100
AcDbScale
 70
     0
300
1'-0" = 1'-0"
140
12.0
141
12.0
290
     0
  0
TABLESTYLE
  5
65
102
{ACAD_XDICTIONARY
360
75A
102
}
102
{ACAD_REACTORS
330
64
102
}
330
64
100
AcDbTableStyle
  3
Standard
 70
     0
 71
     0
 40
0.06
 41
0.06
280
     0
281
     0
  7
Standard
140
0.18
170
     2
 62
     0
 63
     7
283
     0
274
    -2
284
     1
 64
     0
275
    -2
285
     1
 65
     0
276
    -2
286
     1
 66
     0
277
    -2
287
     1
 67
     0
278
    -2
288
     1
 68
     0
279
    -2
289
     1
 69
     0
  7
Standard
140
0.25
170
     5
 62
     0
 63
     7
283
     0
274
    -2
284
     1
 64
     0
275
    -2
285
     1
 65
     0
276
    -2
286
     1
 66
     0
277
    -2
287
     1
 67
     0
278
    -2
288
     1
 68
     0
279
    -2
289
     1
 69
     0
  7
Standard
140
0.18
170
     5
 62
     0
 63
     7
283
     0
274
    -2
284
     1
 64
     0
275
    -2
285
     1
 65
     0
276
    -2
286
     1
 66
     0
277
    -2
287
     1
 67
     0
278
    -2
288
     1
 68
     0
279
    -2
289
     1
 69
     0
  0
VISUALSTYLE
  5
2F
102
{ACAD_XDICTIONARY
360
76C
102
}
102
{ACAD_REACTORS
330
29
102
}
330
29
100
AcDbVisualStyle
  2
2dWireframe
 70
     4
 71
     0
 72
     2
 73
     0
 90
        0
 40
-0.6
 41
-30.0
 62
     5
 63
     7
421
 16777215
 74
     1
 91
        4
 64
     7
 65
   257
 75
     1
175
     1
 42
1.0
 92
        0
 66
   257
 43
1.0
 76
     1
 77
     6
 78
     2
 67
     7
 79
     5
170
     0
171
     0
290
     0
174
     0
 93
        1
 44
0.0
173
     0
291
     0
 45
0.0
1001
ACAD
1000
AcDbSavedByObjectVersion
1070
     0
  0
VISUALSTYLE
  5
2E
102
{ACAD_XDICTIONARY
360
76A
102
}
102
{ACAD_REACTORS
330
29
102
}
330
29
100
AcDbVisualStyle
  2
Basic
 70
     7
 71
     1
 72
     0
 73
     1
 90
        0
 40
-0.6
 41
-30.0
 62
     5
 63
     7
421
 16777215
 74
     0
 91
        4
 64
     7
 65
   257
 75
     1
175
     1
 42
1.0
 92
        8
 66
     7
 43
1.0
 76
     1
 77
     6
 78
     2
 67
     7
 79
     5
170
     0
171
     0
290
     0
174
     0
 93
        1
 44
0.0
173
     0
291
     1
 45
0.0
1001
ACAD
1000
AcDbSavedByObjectVersion
1070
     0
  0
VISUALSTYLE
  5
35
102
{ACAD_XDICTIONARY
360
778
102
}
102
{ACAD_REACTORS
330
29
102
}
330
29
100
AcDbVisualStyle
  2
Brighten
 70
    12
 71
     2
 72
     2
 73
     0
 90
        0
 40
-0.6
 41
-30.0
 62
     5
 63
     7
421
 16777215
 74
     1
 91
        4
 64
     7
 65
   257
 75
     1
175
     1
 42
1.0
 92
        8
 66
     7
 43
1.0
 76
     1
 77
     6
 78
     2
 67
     7
 79
     5
170
     0
171
     0
290
     0
174
     0
 93
        1
 44
50.0
173
     0
291
     1
 45
0.0
1001
ACAD
1000
AcDbSavedByObjectVersion
1070
     0
  0
VISUALSTYLE
  5
39
102
{ACAD_XDICTIONARY
360
780
102
}
102
{ACAD_REACTORS
330
29
102
}
330
29
100
AcDbVisualStyle
  2
ColorChange
 70
    16
 71
     2
 72
     2
 73
     3
 90
        0
 40
-0.6
 41
-30.0
 62
     5
 63
     8
421
  8421504
 74
     1
 91
        4
 64
     7
 65
   257
 75
     1
175
     1
 42
1.0
 92
        8
 66
     8
424
  8421504
 43
1.0
 76
     1
 77
     6
 78
     2
 67
     7
 79
     5
170
     0
171
     0
290
     0
174
     0
 93
        1
 44
0.0
173
     0
291
     1
 45
0.0
1001
ACAD
1000
AcDbSavedByObjectVersion
1070
     0
  0
VISUALSTYLE
  5
32
102
{ACAD_XDICTIONARY
360
772
102
}
102
{ACAD_REACTORS
330
29
102
}
330
29
100
AcDbVisualStyle
  2
Conceptual
 70
     9
 71
     3
 72
     2
 73
     0
 90
        0
 40
-0.6
 41
-30.0
 62
     5
 63
     7
421
 16777215
 74
     2
 91
        2
 64
     7
 65
   257
 75
     1
175
     1
 42
179.0
 92
        8
 66
     7
 43
1.0
 76
     1
 77
     6
 78
     2
 67
     7
 79
     3
170
     0
171
     0
290
     0
174
     0
 93
        1
 44
0.0
173
     0
291
     0
 45
0.0
1001
ACAD
1000
AcDbSavedByObjectVersion
1070
     0
  0
VISUALSTYLE
  5
34
102
{ACAD_XDICTIONARY
360
776
102
}
102
{ACAD_REACTORS
330
29
102
}
330
29
100
AcDbVisualStyle
  2
Dim
 70
    11
 71
     2
 72
     2
 73
     0
 90
        0
 40
-0.6
 41
-30.0
 62
     5
 63
     7
421
 16777215
 74
     1
 91
        4
 64
     7
 65
   257
 75
     1
175
     1
 42
1.0
 92
        8
 66
     7
 43
1.0
 76
     1
 77
     6
 78
     2
 67
     7
 79
     5
170
     0
171
     0
290
     0
174
     0
 93
        1
 44
-50.0
173
     0
291
     1
 45
0.0
1001
ACAD
1000
AcDbSavedByObjectVersion
1070
     0
  0
VISUALSTYLE
  5
41
102
{ACAD_XDICTIONARY
360
790
102
}
102
{ACAD_REACTORS
330
29
102
}
330
29
100
AcDbVisualStyle
  2
EdgeColorOff
 70
    22
 71
     2
 72
     2
 73
     0
 90
        0
 40
-0.6
 41
-30.0
 62
     5
 63
     7
421
 16777215
 74
     1
 91
        4
 64
     7
 65
   257
 75
     1
175
     1
 42
1.0
 92
        8
 66
     7
 43
1.0
 76
     1
 77
     6
 78
     2
 67
     7
 79
     5
170
     0
171
     0
290
     0
174
     0
 93
        1
 44
0.0
173
     0
291
     1
 45
0.0
1001
ACAD
1000
AcDbSavedByObjectVersion
1070
     0
  0
VISUALSTYLE
  5
38
102
{ACAD_XDICTIONARY
360
77E
102
}
102
{ACAD_REACTORS
330
29
102
}
330
29
100
AcDbVisualStyle
  2
Facepattern
 70
    15
 71
     2
 72
     2
 73
     0
 90
        0
 40
-0.6
 41
-30.0
 62
     5
 63
     7
421
 16777215
 74
     1
 91
        4
 64
     7
 65
   257
 75
     1
175
     1
 42
1.0
 92
        8
 66
     7
 43
1.0
 76
     1
 77
     6
 78
     2
 67
     7
 79
     5
170
     0
171
     0
290
     0
174
     0
 93
        1
 44
0.0
173
     0
291
     1
 45
0.0
1001
ACAD
1000
AcDbSavedByObjectVersion
1070
     0
  0
VISUALSTYLE
  5
2A
102
{ACAD_XDICTIONARY
360
762
102
}
102
{ACAD_REACTORS
330
29
102
}
330
29
100
AcDbVisualStyle
  2
Flat
 70
     0
 71
     2
 72
     1
 73
     1
 90
        2
 40
-0.6
 41
30.0
 62
     5
 63
     7
421
 16777215
 74
     0
 91
        0
 64
     7
 65
   257
 75
     1
175
     1
 42
1.0
 92
        8
 66
     7
 43
1.0
 76
     1
 77
     6
 78
     2
 67
     7
 79
     5
170
     0
171
     0
290
     0
174
     0
 93
       13
 44
0.0
173
     0
291
     1
 45
0.0
1001
ACAD
1000
AcDbSavedByObjectVersion
1070
     0
  0
VISUALSTYLE
  5
2B
102
{ACAD_XDICTIONARY
360
764
102
}
102
{ACAD_REACTORS
330
29
102
}
330
29
100
AcDbVisualStyle
  2
FlatWithEdges
 70
     1
 71
     2
 72
     1
 73
     1
 90
        2
 40
-0.6
 41
30.0
 62
     5
 63
     7
421
 16777215
 74
     1
 91
        0
 64
     7
 65
   257
 75
     1
175
     1
 42
1.0
 92
        0
 66
   257
 43
1.0
 76
     1
 77
     6
 78
     2
 67
     7
 79
     5
170
     0
171
     0
290
     0
174
     0
 93
       13
 44
0.0
173
     0
291
     1
 45
0.0
1001
ACAD
1000
AcDbSavedByObjectVersion
1070
     0
  0
VISUALSTYLE
  5
2C
102
{ACAD_XDICTIONARY
360
766
102
}
102
{ACAD_REACTORS
330
29
102
}
330
29
100
AcDbVisualStyle
  2
Gouraud
 70
     2
 71
     2
 72
     2
 73
     1
 90
        2
 40
-0.6
 41
30.0
 62
     5
 63
     7
421
 16777215
 74
     0
 91
        0
 64
     7
 65
   257
 75
     1
175
     1
 42
1.0
 92
        0
 66
     7
 43
1.0
 76
     1
 77
     6
 78
     2
 67
     7
 79
     5
170
     0
171
     0
290
     0
174
     0
 93
       13
 44
0.0
173
     0
291
     1
 45
0.0
1001
ACAD
1000
AcDbSavedByObjectVersion
1070
     0
  0
VISUALSTYLE
  5
2D
102
{ACAD_XDICTIONARY
360
768
102
}
102
{ACAD_REACTORS
330
29
102
}
330
29
100
AcDbVisualStyle
  2
GouraudWithEdges
 70
     3
 71
     2
 72
     2
 73
     1
 90
        2
 40
-0.6
 41
30.0
 62
     5
 63
     7
421
 16777215
 74
     1
 91
        0
 64
     7
 65
   257
 75
     1
175
     1
 42
1.0
 92
        0
 66
   257
 43
1.0
 76
     1
 77
     6
 78
     2
 67
     7
 79
     5
170
     0
171
     0
290
     0
174
     0
 93
       13
 44
0.0
173
     0
291
     1
 45
0.0
1001
ACAD
1000
AcDbSavedByObjectVersion
1070
     0
  0
VISUALSTYLE
  5
31
102
{ACAD_XDICTIONARY
360
770
102
}
102
{ACAD_REACTORS
330
29
102
}
330
29
100
AcDbVisualStyle
  2
Hidden
 70
     6
 71
     1
 72
     2
 73
     2
 90
        0
 40
-0.6
 41
-30.0
 62
     5
 63
     7
421
 16777215
 74
     2
 91
        2
 64
     7
 65
   257
 75
     2
175
     1
 42
40.0
 92
        0
 66
   257
 43
1.0
 76
     1
 77
     6
 78
     2
 67
     7
 79
     3
170
     0
171
     0
290
     0
174
     0
 93
        1
 44
0.0
173
     0
291
     0
 45
0.0
1001
ACAD
1000
AcDbSavedByObjectVersion
1070
     0
  0
VISUALSTYLE
  5
3F
102
{ACAD_XDICTIONARY
360
78C
102
}
102
{ACAD_REACTORS
330
29
102
}
330
29
100
AcDbVisualStyle
  2
JitterOff
 70
    20
 71
     2
 72
     2
 73
     0
 90
        0
 40
-0.6
 41
-30.0
 62
     5
 63
     7
421
 16777215
 74
     1
 91
        4
 64
     7
 65
   257
 75
     1
175
     1
 42
1.0
 92
       10
 66
     7
 43
1.0
 76
     1
 77
     6
 78
     2
 67
     7
 79
     5
170
     0
171
     0
290
     0
174
     0
 93
        1
 44
0.0
173
     0
291
     1
 45
0.0
1001
ACAD
1000
AcDbSavedByObjectVersion
1070
     0
  0
VISUALSTYLE
  5
37
102
{ACAD_XDICTIONARY
360
77C
102
}
102
{ACAD_REACTORS
330
29
102
}
330
29
100
AcDbVisualStyle
  2
Linepattern
 70
    14
 71
     2
 72
     2
 73
     0
 90
        0
 40
-0.6
 41
-30.0
 62
     5
 63
     7
421
 16777215
 74
     1
 91
        4
 64
     7
 65
   257
 75
     7
175
     7
 42
1.0
 92
        8
 66
     7
 43
1.0
 76
     1
 77
     6
 78
     2
 67
     7
 79
     5
170
     0
171
     0
290
     0
174
     0
 93
        1
 44
0.0
173
     0
291
     1
 45
0.0
1001
ACAD
1000
AcDbSavedByObjectVersion
1070
     0
  0
VISUALSTYLE
  5
40
102
{ACAD_XDICTIONARY
360
78E
102
}
102
{ACAD_REACTORS
330
29
102
}
330
29
100
AcDbVisualStyle
  2
OverhangOff
 70
    21
 71
     2
 72
     2
 73
     0
 90
        0
 40
-0.6
 41
-30.0
 62
     5
 63
     7
421
 16777215
 74
     1
 91
        4
 64
     7
 65
   257
 75
     1
175
     1
 42
1.0
 92
        9
 66
     7
 43
1.0
 76
     1
 77
     6
 78
     2
 67
     7
 79
     5
170
     0
171
     0
290
     0
174
     0
 93
        1
 44
0.0
173
     0
291
     1
 45
0.0
1001
ACAD
1000
AcDbSavedByObjectVersion
1070
     0
  0
VISUALSTYLE
  5
33
102
{ACAD_XDICTIONARY
360
774
102
}
102
{ACAD_REACTORS
330
29
102
}
330
29
100
AcDbVisualStyle
  2
Realistic
 70
     8
 71
     2
 72
     3
 73
     0
 90
        2
 40
-0.6
 41
30.0
 62
     5
 63
     7
421
 16777215
 74
     0
 91
        0
 64
     7
 65
   257
 75
     1
175
     1
 42
1.0
 92
        8
 66
   257
 43
1.0
 76
     1
 77
     6
 78
     2
 67
     7
 79
     3
170
     0
171
     0
290
     0
174
     0
 93
       13
 44
0.0
173
     0
291
     0
 45
0.0
1001
ACAD
1000
AcDbSavedByObjectVersion
1070
     0
  0
VISUALSTYLE
  5
3E
102
{ACAD_XDICTIONARY
360
78A
102
}
102
{ACAD_REACTORS
330
29
102
}
330
29
100
AcDbVisualStyle
  2
Shaded
 70
    27
 71
     2
 72
     2
 73
     1
 90
        2
 40
-0.6
 41
30.0
 62
     5
 63
     7
421
 16777215
 74
     0
 91
        4
 64
     7
 65
   257
 75
     1
175
     1
 42
1.0
 92
        8
 66
   257
 43
1.0
 76
     1
 77
     6
 78
     2
 67
     8
425
  7895160
 79
     3
170
     0
171
     0
290
     0
174
     0
 93
        5
 44
0.0
173
     0
291
     0
 45
0.0
1001
ACAD
1000
AcDbSavedByObjectVersion
1070
     0
  0
VISUALSTYLE
  5
3D
102
{ACAD_XDICTIONARY
360
788
102
}
102
{ACAD_REACTORS
330
29
102
}
330
29
100
AcDbVisualStyle
  2
Shaded with edges
 70
    26
 71
     2
 72
     2
 73
     1
 90
        2
 40
-0.6
 41
30.0
 62
     5
 63
     7
421
 16777215
 74
     1
 91
       10
 64
     7
 65
   257
 75
     2
175
     1
 42
1.0
 92
        8
 66
   257
 43
1.0
 76
     1
 77
     6
 78
     2
 67
     7
 79
     3
170
     0
171
     0
290
     0
174
     0
 93
        5
 44
0.0
173
     0
291
     0
 45
0.0
1001
ACAD
1000
AcDbSavedByObjectVersion
1070
     0
  0
VISUALSTYLE
  5
3A
102
{ACAD_XDICTIONARY
360
782
102
}
102
{ACAD_REACTORS
330
29
102
}
330
29
100
AcDbVisualStyle
  2
Shades of Gray
 70
    23
 71
     2
 72
     2
 73
     3
 90
        0
 40
-0.6
 41
-30.0
 62
     5
 63
     7
421
 16777215
 74
     2
 91
        2
 64
     7
 65
     7
 75
     1
175
     1
 42
40.0
 92
        8
 66
     7
 43
1.0
 76
     1
 77
     6
 78
     2
 67
     7
 79
     3
170
     0
171
     0
290
     0
174
     0
 93
        1
 44
0.0
173
     0
291
     0
 45
0.0
1001
ACAD
1000
AcDbSavedByObjectVersion
1070
     0
  0
VISUALSTYLE
  5
3B
102
{ACAD_XDICTIONARY
360
784
102
}
102
{ACAD_REACTORS
330
29
102
}
330
29
100
AcDbVisualStyle
  2
Sketchy
 70
    24
 71
     1
 72
     2
 73
     2
 90
        0
 40
-0.6
 41
-30.0
 62
     5
 63
     7
421
 16777215
 74
     2
 91
        2
 64
     7
 65
     7
 75
     1
175
     1
 42
40.0
 92
       11
 66
     7
 43
1.0
 76
     1
 77
     6
 78
     2
 67
     7
 79
     6
170
     0
171
     0
290
     0
174
     0
 93
        1
 44
0.0
173
     0
291
     0
 45
0.0
1001
ACAD
1000
AcDbSavedByObjectVersion
1070
     0
  0
VISUALSTYLE
  5
36
102
{ACAD_XDICTIONARY
360
77A
102
}
102
{ACAD_REACTORS
330
29
102
}
330
29
100
AcDbVisualStyle
  2
Thicken
 70
    13
 71
     2
 72
     2
 73
     0
 90
        0
 40
-0.6
 41
-30.0
 62
     5
 63
     7
421
 16777215
 74
     1
 91
        4
 64
     7
 65
   257
 75
     1
175
     1
 42
1.0
 92
       12
 66
     7
 43
1.0
 76
     1
 77
     6
 78
     2
 67
     7
 79
     5
170
     0
171
     0
290
     0
174
     0
 93
        1
 44
0.0
173
     0
291
     1
 45
0.0
1001
ACAD
1000
AcDbSavedByObjectVersion
1070
     0
  0
VISUALSTYLE
  5
30
102
{ACAD_XDICTIONARY
360
76E
102
}
102
{ACAD_REACTORS
330
29
102
}
330
29
100
AcDbVisualStyle
  2
Wireframe
 70
     5
 71
     0
 72
     2
 73
     0
 90
        0
 40
-0.6
 41
-30.0
 62
     5
 63
     7
421
 16777215
 74
     1
 91
        4
 64
     7
 65
   257
 75
     1
175
     1
 42
1.0
 92
        0
 66
   257
 43
1.0
 76
     1
 77
     6
 78
     2
 67
     7
 79
     3
170
     0
171
     0
290
     0
174
     0
 93
        1
 44
0.0
173
     0
291
     0
 45
0.0
1001
ACAD
1000
AcDbSavedByObjectVersion
1070
     0
  0
VISUALSTYLE
  5
3C
102
{ACAD_XDICTIONARY
360
786
102
}
102
{ACAD_REACTORS
330
29
102
}
330
29
100
AcDbVisualStyle
  2
X-Ray
 70
    25
 71
     2
 72
     2
 73
     1
 90
        1
 40
0.5
 41
-30.0
 62
     5
 63
     7
421
 16777215
 74
     1
 91
        0
 64
     7
 65
   257
 75
     1
175
     1
 42
1.0
 92
        8
 66
     7
 43
1.0
 76
     1
 77
     6
 78
     2
 67
     7
 79
     3
170
     0
171
     0
290
     0
174
     0
 93
       13
 44
0.0
173
     0
291
     0
 45
0.0
1001
ACAD
1000
AcDbSavedByObjectVersion
1070
     0
  0
DICTIONARYVAR
  5
755
102
{ACAD_REACTORS
330
751
102
}
330
751
100
DictionaryVariables
280
     0
  1
1:1
  0
DICTIONARYVAR
  5
753
102
{ACAD_REACTORS
330
751
102
}
330
751
100
DictionaryVariables
280
     0
  1
STANDARD
  0
DICTIONARYVAR
  5
752
102
{ACAD_REACTORS
330
751
102
}
330
751
100
DictionaryVariables
280
     0
  1
STANDARD
  0
DICTIONARYVAR
  5
757
102
{ACAD_REACTORS
330
751
102
}
330
751
100
DictionaryVariables
280
     0
  1
0
  0
DICTIONARYVAR
  5
758
102
{ACAD_REACTORS
330
751
102
}
330
751
100
DictionaryVariables
280
     0
  1
0
  0
DICTIONARYVAR
  5
756
102
{ACAD_REACTORS
330
751
102
}
330
751
100
DictionaryVariables
280
     0
  1
2
  0
DICTIONARYVAR
  5
754
102
{ACAD_REACTORS
330
751
102
}
330
751
100
DictionaryVariables
280
     0
  1
1
  0
DICTIONARYVAR
  5
759
102
{ACAD_REACTORS
330
751
102
}
330
751
100
DictionaryVariables
280
     0
  1
2
  0
DICTIONARY
  5
1A
330
19
100
AcDbDictionary
280
     1
281
     1
  3
ACAD_XREC_ROUNDTRIP
360
760
  3
BUMPTILE
360
1C
  3
DIFFUSETILE
360
1B
  3
OPACITYTILE
360
1F
  3
REFLECTIONTILE
360
1E
  3
REFRACTIONTILE
360
20
  3
SPECULARTILE
360
1D
  0
DICTIONARY
  5
12
330
11
100
AcDbDictionary
280
     1
281
     1
  3
ACAD_XREC_ROUNDTRIP
360
75F
  3
BUMPTILE
360
14
  3
DIFFUSETILE
360
13
  3
FBXASSET
360
9C
  3
OPACITYTILE
360
17
  3
REFLECTIONTILE
360
16
  3
REFRACTIONTILE
360
18
  3
SPECULARTILE
360
15
  0
DICTIONARY
  5
22
330
21
100
AcDbDictionary
280
     1
281
     1
  3
ACAD_XREC_ROUNDTRIP
360
761
  3
BUMPTILE
360
24
  3
DIFFUSETILE
360
23
  3
OPACITYTILE
360
27
  3
REFLECTIONTILE
360
26
  3
REFRACTIONTILE
360
28
  3
SPECULARTILE
360
25
  0
DICTIONARY
  5
75C
330
67
100
AcDbDictionary
280
     1
281
     1
  3
ACAD_XREC_ROUNDTRIP
360
75D
  0
DICTIONARY
  5
75A
330
65
100
AcDbDictionary
280
     1
281
     1
  3
ACAD_ROUNDTRIP_2008_TABLESTYLE_CELLSTYLEMAP
360
75B
  3
ACAD_XREC_ROUNDTRIP
360
792
  0
DICTIONARY
  5
76C
330
2F
100
AcDbDictionary
280
     1
281
     1
  3
ACAD_XREC_ROUNDTRIP
360
76D
  0
DICTIONARY
  5
76A
330
2E
100
AcDbDictionary
280
     1
281
     1
  3
ACAD_XREC_ROUNDTRIP
360
76B
  0
DICTIONARY
  5
778
330
35
100
AcDbDictionary
280
     1
281
     1
  3
ACAD_XREC_ROUNDTRIP
360
779
  0
DICTIONARY
  5
780
330
39
100
AcDbDictionary
280
     1
281
     1
  3
ACAD_XREC_ROUNDTRIP
360
781
  0
DICTIONARY
  5
772
330
32
100
AcDbDictionary
280
     1
281
     1
  3
ACAD_XREC_ROUNDTRIP
360
773
  0
DICTIONARY
  5
776
330
34
100
AcDbDictionary
280
     1
281
     1
  3
ACAD_XREC_ROUNDTRIP
360
777
  0
DICTIONARY
  5
790
330
41
100
AcDbDictionary
280
     1
281
     1
  3
ACAD_XREC_ROUNDTRIP
360
791
  0
DICTIONARY
  5
77E
330
38
100
AcDbDictionary
280
     1
281
     1
  3
ACAD_XREC_ROUNDTRIP
360
77F
  0
DICTIONARY
  5
762
330
2A
100
AcDbDictionary
280
     1
281
     1
  3
ACAD_XREC_ROUNDTRIP
360
763
  0
DICTIONARY
  5
764
330
2B
100
AcDbDictionary
280
     1
281
     1
  3
ACAD_XREC_ROUNDTRIP
360
765
  0
DICTIONARY
  5
766
330
2C
100
AcDbDictionary
280
     1
281
     1
  3
ACAD_XREC_ROUNDTRIP
360
767
  0
DICTIONARY
  5
768
330
2D
100
AcDbDictionary
280
     1
281
     1
  3
ACAD_XREC_ROUNDTRIP
360
769
  0
DICTIONARY
  5
770
330
31
100
AcDbDictionary
280
     1
281
     1
  3
ACAD_XREC_ROUNDTRIP
360
771
  0
DICTIONARY
  5
78C
330
3F
100
AcDbDictionary
280
     1
281
     1
  3
ACAD_XREC_ROUNDTRIP
360
78D
  0
DICTIONARY
  5
77C
330
37
100
AcDbDictionary
280
     1
281
     1
  3
ACAD_XREC_ROUNDTRIP
360
77D
  0
DICTIONARY
  5
78E
330
40
100
AcDbDictionary
280
     1
281
     1
  3
ACAD_XREC_ROUNDTRIP
360
78F
  0
DICTIONARY
  5
774
330
33
100
AcDbDictionary
280
     1
281
     1
  3
ACAD_XREC_ROUNDTRIP
360
775
  0
DICTIONARY
  5
78A
330
3E
100
AcDbDictionary
280
     1
281
     1
  3
ACAD_XREC_ROUNDTRIP
360
78B
  0
DICTIONARY
  5
788
330
3D
100
AcDbDictionary
280
     1
281
     1
  3
ACAD_XREC_ROUNDTRIP
360
789
  0
DICTIONARY
  5
782
330
3A
100
AcDbDictionary
280
     1
281
     1
  3
ACAD_XREC_ROUNDTRIP
360
783
  0
DICTIONARY
  5
784
330
3B
100
AcDbDictionary
280
     1
281
     1
  3
ACAD_XREC_ROUNDTRIP
360
785
  0
DICTIONARY
  5
77A
330
36
100
AcDbDictionary
280
     1
281
     1
  3
ACAD_XREC_ROUNDTRIP
360
77B
  0
DICTIONARY
  5
76E
330
30
100
AcDbDictionary
280
     1
281
     1
  3
ACAD_XREC_ROUNDTRIP
360
76F
  0
DICTIONARY
  5
786
330
3C
100
AcDbDictionary
280
     1
281
     1
  3
ACAD_XREC_ROUNDTRIP
360
787
  0
XRECORD
  5
760
102
{ACAD_REACTORS
330
1A
102
}
330
1A
100
AcDbXrecord
280
     1
102
MATERIAL
148
0.0
149
0.0
149
0.0
 93
        0
 94
      127
282
     0
 72
     0
 77
     0
171
     0
175
     0
179
     0
273
     0
  0
XRECORD
  5
1C
102
{ACAD_REACTORS
330
1A
102
}
330
1A
100
AcDbXrecord
280
     1
270
     1
271
     1
  0
XRECORD
  5
1B
102
{ACAD_REACTORS
330
1A
102
}
330
1A
100
AcDbXrecord
280
     1
270
     1
271
     1
  0
XRECORD
  5
1F
102
{ACAD_REACTORS
330
1A
102
}
330
1A
100
AcDbXrecord
280
     1
270
     1
271
     1
  0
XRECORD
  5
1E
102
{ACAD_REACTORS
330
1A
102
}
330
1A
100
AcDbXrecord
280
     1
270
     1
271
     1
  0
XRECORD
  5
20
102
{ACAD_REACTORS
330
1A
102
}
330
1A
100
AcDbXrecord
280
     1
270
     1
271
     1
  0
XRECORD
  5
1D
102
{ACAD_REACTORS
330
1A
102
}
330
1A
100
AcDbXrecord
280
     1
270
     1
271
     1
  0
XRECORD
  5
75F
102
{ACAD_REACTORS
330
12
102
}
330
12
100
AcDbXrecord
280
     1
102
MATERIAL
148
0.0
149
0.0
149
0.0
 93
        0
 94
      127
282
     0
 72
     0
 77
     0
171
     0
175
     0
179
     0
273
     0
  0
XRECORD
  5
14
102
{ACAD_REACTORS
330
12
102
}
330
12
100
AcDbXrecord
280
     1
270
     1
271
     1
  0
XRECORD
  5
13
102
{ACAD_REACTORS
330
12
102
}
330
12
100
AcDbXrecord
280
     1
270
     1
271
     1
  0
XRECORD
  5
9C
102
{ACAD_REACTORS
330
12
102
}
330
12
100
AcDbXrecord
280
     1
 70
     1
 90
1959938040
 71
     1
  1
658EF97D-7AA1-4A5D-8174-3A63A4475BE1
311
504B03040A0000080000406189433DEE336E79000000790000001B0000006175746F6465736B2D64657369676E2D7061636B6167652E786D6C3C3F786D6C2076657273696F6E3D22312E302220656E636F64696E673D227574662D3822203F3E3C666F726D6174733E3C666F726D61743E687474703A2F2F736368656D612E
311
6175746F6465736B2E636F6D2F64657369676E2D7061636B6167652F323030393C2F666F726D61743E3C2F666F726D6174733E504B030414000608080040618943D486FD9CA0000000F4000000130000005B436F6E74656E745F54797065735D2E786D6C7D8EC10E82300C865F65E91D8A1E8C310C0EEA1BF002731658846E
311
D98AC1B77784ABF1D8FE5FBFBF75BBCE937A534CCEB38643598122B6FEE978D0B0485F9C41B54DDD7D022595594E1A469170414C76A4D9A4D207E29CF43ECE46F218070CC6BECC4078ACAA135ACF422C856C0E68EA1BF5669944DDD7BCDE7B1F8E415D77AECB980613C2E4AC91FC167A2B244592486606FC29C8FD7F045B9A
311
EF7053A7E60B504B03041400060808004061894354428798EA0000007C01000008000000636F72652E786D6C8D904D6EC3201085AF82665B6133B8697E8489E22639412F8080B828315806AA1EBF3871A476D70D337ABC6F66F4C4FE7BB8912F3B45177C0B583120D6EB609CEF5BC8E9423740F6524C21A45F36205E0DB685
311
590629FA29E4719174F0C9FA54541F8C5D4415A34D40F4AD342D44FD690755A99C8A235EAB51E9ABEA6D85CFAEC0393B431E4B9C29F3DCC5D909E419F9EAB0EE0E74FB76EAE82B624737DDAAA3C7F7336FD8E9880D5B8B7A86A5486E78EED79355C91A909C61439153B6FD40BE43B663EC856179453DDBFF407934FF84B2F3
311
A9E1CBB90F2C82C472C8FD438A7ACEA2947B50A5CEB9C91F504B03041400060808004061894355019EA25F0000007C00000007000000636E782E786D6C4DCB3B0E80201045D1AD90E915ED2CF8AC45050C11660C8261F98AB1B07AC9C97D42D718D865D3E909258CFD00CCE24AC6E326A164D74DC0B4128928FF326038472B
311
A13128B1252AC747C6BAB984FC68F0B87FE8960A5C09FE86CFB69FBA01504B030414000608080040618943B97C950666010000020300000C0000006662782F636F72652E786D6C8D52ED8E8230107C95A67F2FD016F4FC48A991539FE05EA042E588D092D2121FFF960FC37931C69094666667777680EF6E75853A65DBD2E8
311
04B39062A47466F2521709F6EE12AC31DA096E8D717FCA30D2B25609EE612C78618D6F262833DA29ED00D526571328DB56398CB20A2E096EB31F55CB507A0715ED356C647695850A590834D409DE3A0B06D038A43FB1B89C6F9C8CB8E0DE97F9C496394C2B2FA5B2589C58B4DCAFD27DB0F93CA6C182B13458A7CB34387C9D
311
A2981E0F2CA62B4E7AB1E0AEACEFEE32ABA4533916116571C0A2806EBE59B465744BE907657072D2973F887C93BF29F2A5767134D91D652D160C8C0CC4BF6D2122875AD9811F2238E94384D790F063D0100884ECE4B9BAEF7105A853993376014C6EFC4C75B2F20AA652343C9C8C2C741E1AC0664FFB442FFABCEE011F50EA
311
02AC4907D7B377FD743E4E9DA268940D3A7743DAD85A56B3B9D1E27CCE839ECA335319FB8E9A4CAB92294CD2FFBDE217504B030414000608080040618943EA0E65C57E0000009D0000000B0000006662782F636E782E786D6C4DCCD10AC2201886E15B91FFDCA6B5E51FA863A3BC8FD1DC909C866974F96DB1838E3E78F878
311
65FB593C79DBF4723128E00706C4867B1C5D9815943C5104D26A9962CC7F37206158AC828D41CB39C5F2DC69B4D3507C5ED5BBF0D8B1C1E3157B8154A0E0B4EE2E487BDE307A339D113533277316506959FD4AEB6E61FD05504B03041400060808004061894365340C1B2A01000014020000310000006662782F3538324438
311
4237382D373837312D344139382D423135302D4546414637343046334636372F636F72652E786D6C8D515B6EC32010BC0AE22B55651B1CBF1261A244AD4FD00BB8405294182C1E558EDFA576A4F62F3F2C9A9D991DEDB2C37DBAA16FE5BCB6A6C73427182923ACD4E6D2E318CE5987D18133676DF843C3C88C93EA71823167
311
1767E3BC42C29AA04C00D458A95670F45E058CC40D3E3DF6E24B4D633EC6000C7FCDE7515CC78BCA690E6DE071E68383006819925ECCEBAE7CEB4E6D97B55D4BB3EAB8EBB213AD49F63E1C87B622C376685A562C42CE62D472956B0971F4592BF7AC49127316F4F4882F9C1A83929897846E335A6664F741CB3D257B425E09
311
85971589FE4F1467F9A4286A13B6E51A779179CC292B960667D2C6CFDB238CBACFD60594E66DBC122F98931C62ED684D1B562C5458007836D5EAE98375B0E0CDF513D8B45E8C9B8AB322DD08CAEF01A1A67BF21F504B030414000608080040618943391674C44D01000033030000300000006662782F35383244384237382D
311
373837312D344139382D423135302D4546414637343046334636372F636E782E786D6CD593BB6E023110457FC5721BEDC3805082BC464A912F4891D66B0FE0E0B5577E44E1EF330643682852A619ADEEDC993B3AF2F2EDF764C9178468BC1B286B7B4AC029AF8DDB0F34A75DF34CC956F0E07DBAB351E2E404032D32157C1F
311
7C9EABA46127B34DA85AE38E550C107D0E0A22CA659258AFA4C505E09A8C224C23680D9ADC8CF8B58380A7A0389E483A00797BFD207EFC049522EFCA16C1BB922178A935E9CE4489B232C68146758049B63227AF211E5B2D936C597BCD7A70D3EF265206AE91391852C2075A2A15F5A21639F20E9B82C714905E35A5D30C54
311
C879B646C98490BBB3F1E2113C1B97D6ABEA35083EA09BAD97AB152E3BF7044F6682EA500164024DC5A267CB862D9AFEE59D2D36ACDFF4FD53CFB0F2AED8051FBDB77508D740F03351DE2570890AC6BBD27E84AFFA88360159FB70FA03480450532F746E3BFE339FEEFCBE1157C0BF40FC00504B0304140006080800406189
311
435C425550A405000081100000340000006662782F35383244384237382D373837312D344139382D423135302D4546414637343046334636372F6F626A656374732E786D6CAD575B6FDB3614FE2B82F6B23DC8B26CE736281A1C3B298C2E6D51A3C51E0C189444295CA80B482A75F6EBF751A264C9B5536FE88B2EBC1C9EF3
311
9DEF5CE8FFB1CBB8F5428564457E6B7BA3B16DD13C2A6296A7B776A512E7DAB6FE087C5114AAB7CCB67292D15B5B0FDB819F8AA22ACD504C1352717530FA70F79725239A53DB8A3891F2D696D113CDC88854AA88A97C1EC54491519AEC46DEA85938149B0A523E1D082D89A0B982A618CF21C56A94F286BF63DB0D7C57CF07
311
BE7E9A55D3D3ABDCDA9EE1F92C978AE4D177871D88997AB3E5FDE4E2C6B998CDA6CEEC72E239770F774BC7BB9A8E17978BC5CDFCFE06074B2520C96822686207EF808D6091EF3653815FB15C4D27668971902BE80BD39EB28389E5F96EB3A6B3CE18794CFDA8C8731AD558018DDA3E233AA625CD63F89C5109CD7A088D87BF
311
9EC6B1373DD5FFE6C8FEF07908F477F404B5BAB7EFBEA645F8374C90E7304848AA19D860690C6DB83ADE231C160537734C5A19515430C22DCE4241C4AB1D60A95E12F803319AC9424783B6C00EE085667A481784D18F797E4CCBA4E25CD3D80EEA28D82256A892B566EC1F2AF6DAF791814EF09566C3B53148BD96D40E6E1A
311
8A5C1FB0A901D24A3849E17298A9774E2707862E749CAE9676F0FE21DCAD75EC1E3FBC14454985D2F401B55AC7B56F8D92D1C93BCB737A837DA0CA1E94CF40FE03427DAF0AFC26D86EB69B99539420B94C0A91C137D6D872C6788C2DAF7EEAEFDE97EF769B87DE3B85279CADA1FA09780E6DE8FBB20767E0BF80F085981AD3
311
D611E1481B8F2C07409A24162F30843C9C843B3B5821CB212B6317E1810793A1EE0B3E7DD78841A2A84FEABD7360799016CF48D080AD6624D468C86F14DCFBE9BB74561F6C969D82F7E2A7D075BE5CBF5F572221117D3431BDA409CB994289DBF3A6AFD000F38145CFF4F55B216218FA3DDEEB3EDE99394A026D8DB9063E6D
311
73BAFED99F3C3820C2BEB4D0E9C6FFC109304217D69EFC472623CA39C96951B5E7BE593F50361A8875B06B267705665F58409A66E6200651A423C14A0D6257ADBAA4393A61DD97D50730D20EEE5EFF24AFFDEC15EE736F54F0426CC3D76D93968E42FD75C86D8381ABA580EE7590B4F16F40DFC62C492A89247804D7AFAB45
311
DF773A2D2045B4529B6899C17E04171186B4AD5C546B4150498B7CCB50371177470FE8CB07A48601B5C0531A4BCA932DE3BCCAB609E3A846DB8C9427E0F8FFFA8755566E495654B93A217BA03AAAC350F7017BE537A2A2273B58D76FE70EB937A6F10932E85A7204AB816B2F2FAEEF1F6EAE96CED57CEE39B3F9C5D2B9F6AE
311
66CE747E399DCF66571777F77B34EB262AF0DB52D38F687809A5CDAF0433EEFBB242FC982460078F44C9CDBB263CDBF797D508BDB0EF620FEA65B7711EBFA0EFA3F18F05EC571E15B4CA4A4E339A2BA263E8517FF0CF047DC64099667C9591949E21E5E3BBF58131183963DF271DEFF4DBC15E33BAD0017954887AAAB23027
311
8C1F6C4C1B2447659E1AFC5A9F74EFA6D0B4BFFACF38069DA92C388B9107632BA5454615B2E11945486454827AFD9E3E36778F3376BF341DA22221A7AD264F044D3297080B90BC8AD470DCFA054D9DEEAB6E6D94DBD1331E2653D81638736BA349572CA27214A240EB56A8160E2EF53B797096E42947AFDD6CEAFEBB5D1A9B
311
4149EE969CD33F19BB9A146E0C401A29D137A02182776A6502BFD6CDCC47FFC9F0561D8B287C8695EA6CD90F74C6D4C720441BA3CC6D014DCCB3397A87407DDB2C6F54AF192072D62DEB4D1234521D45445ADF14B47E46A5F9F2938B0EC55A7DB44A5EA5F0E5F9921C4141E64A073858045618992551A0EAE2F7CD2751E026
311
9B590F0C14B07EDD5D5FFEB659145956E4CDD0666EEEC3D6FA09B7DB7883E440F5B5446E26636FB2A9AF03E686B20D89A42312CB670CC0B38275400FDC0F5E36774664CE66A25BE76A571C3074B5B44C619B41A8A14B3FB76A70D078E4D4420CE92BA58E98FE82F2CD1B815B2F850A02BD7CF02F504B030414000608000040
311
618943000000000000000000000000350000006662782F35383244384237382D373837312D344139382D423135302D4546414637343046334636372F76657274696365732E62696E504B030414000608080040618943F270F1330600000004000000360000006662782F35383244384237382D373837312D344139382D4231
311
35302D4546414637343046334636372F747269616E676C65732E62696E636660600000504B030414000608000040618943000000000000000000000000370000006662782F35383244384237382D373837312D344139382D423135302D4546414637343046334636372F617474726962757465732E62696E504B0304140006
311
08080040618943D5987DFC8F00000041010000360000006662782F35383244384237382D373837312D344139382D423135302D4546414637343046334636372F6469726563746F72792E786D6C858F410EC2201045AF4266AF15DDB800BA74E7C21B903225242D6328188F2FA5C4183471359997F9FF81E89FF3C41E181647
311
5E02DF1F80A11FC8386F25A438EECEC07A250251FC3803E6F58C12560C4AD840E95E91C151A72936F496F35732D860FE635F62C8F2DA16B505C545B74125BAA2FA9E05D7CC053D063734D5C7665FD55B6B8D15D5E9BFEAFD8490FFA45E504B030414000608080040618943E98BE459FD000000A00100003B0000006662782F
311
35383244384237382D373837312D344139382D423135302D4546414637343046334636372F7265736F75726365732F636F72652E786D6C8D504B4EC33010BD4A345BE4C476286D2AC715A1ED09B880E54C83D5C68EFC411C1FBB0D12ECD8CC8CDE47F3F4C4E16BBE559FE88371B6075653A8D06A371A3BF590E285ECA03A48
311
E19D8BBF64505935630F05062926EFD2B242DAD9883666D4BA1157508580112A7DCB470F417FE0AC6A956256846BBD287D5513D6ACCE74D64911A2CF01AAC79332417A0C2E798D41340F568A94CCB86ACC987F9A8B410FF2CCF8E6753B74A47B390DE499B181EC86CD408E6F67DED2D391B5742B9A6296229AF927A3F6A822
311
8E2039652D619CD0EE9DF13DA37B4A9F28CB533445FEC79496F19FA6646C6CF91AF7610B20590E7227A4684A5F79DDCBCCBB742BBF01504B010214000A0000080000406189433DEE336E79000000790000001B00000000000000000000000000000000006175746F6465736B2D64657369676E2D7061636B6167652E786D6C
311
504B0102140014000608080040618943D486FD9CA0000000F40000001300000000000000000000000000B20000005B436F6E74656E745F54797065735D2E786D6C504B010214001400060808004061894354428798EA0000007C010000080000000000000000000000000083010000636F72652E786D6C504B010214001400
311
060808004061894355019EA25F0000007C000000070000000000000000000000000093020000636E782E786D6C504B0102140014000608080040618943B97C950666010000020300000C00000000000000000000000000170300006662782F636F72652E786D6C504B0102140014000608080040618943EA0E65C57E000000
311
9D0000000B00000000000000000000000000A70400006662782F636E782E786D6C504B010214001400060808004061894365340C1B2A0100001402000031000000000000000000000000004E0500006662782F35383244384237382D373837312D344139382D423135302D4546414637343046334636372F636F72652E786D
311
6C504B0102140014000608080040618943391674C44D010000330300003000000000000000000000000000C70600006662782F35383244384237382D373837312D344139382D423135302D4546414637343046334636372F636E782E786D6C504B01021400140006080800406189435C425550A40500008110000034000000
311
00000000000000000000620800006662782F35383244384237382D373837312D344139382D423135302D4546414637343046334636372F6F626A656374732E786D6C504B01021400140006080000406189430000000000000000000000003500000000000000000000000000580E00006662782F35383244384237382D3738
311
37312D344139382D423135302D4546414637343046334636372F76657274696365732E62696E504B0102140014000608080040618943F270F13306000000040000003600000000000000000000000000AB0E00006662782F35383244384237382D373837312D344139382D423135302D4546414637343046334636372F7472
311
69616E676C65732E62696E504B01021400140006080000406189430000000000000000000000003700000000000000000000000000050F00006662782F35383244384237382D373837312D344139382D423135302D4546414637343046334636372F617474726962757465732E62696E504B01021400140006080800406189
311
43D5987DFC8F0000004101000036000000000000000000000000005A0F00006662782F35383244384237382D373837312D344139382D423135302D4546414637343046334636372F6469726563746F72792E786D6C504B0102140014000608080040618943E98BE459FD000000A00100003B00000000000000000000000000
311
3D1000006662782F35383244384237382D373837312D344139382D423135302D4546414637343046334636372F7265736F75726365732F636F72652E786D6C504B0506000000000E000E0080040000931100000000
310
504B03040A0000080000406189433DEE336E79000000790000001B0000006175746F6465736B2D64657369676E2D7061636B6167652E786D6C3C3F786D6C2076657273696F6E3D22312E302220656E636F64696E673D227574662D3822203F3E3C666F726D6174733E3C666F726D61743E687474703A2F2F736368656D612E
310
6175746F6465736B2E636F6D2F64657369676E2D7061636B6167652F323030393C2F666F726D61743E3C2F666F726D6174733E504B030414000608080040618943D486FD9CA0000000F4000000130000005B436F6E74656E745F54797065735D2E786D6C7D8EC10E82300C865F65E91D8A1E8C310C0EEA1BF002731658846E
310
D98AC1B77784ABF1D8FE5FBFBF75BBCE937A534CCEB38643598122B6FEE978D0B0485F9C41B54DDD7D022595594E1A469170414C76A4D9A4D207E29CF43ECE46F218070CC6BECC4078ACAA135ACF422C856C0E68EA1BF5669944DDD7BCDE7B1F8E415D77AECB980613C2E4AC91FC167A2B244592486606FC29C8FD7F045B9A
310
EF7053A7E60B504B0304140006080800406189430E52BFB8EF0000007C01000008000000636F72652E786D6C6D90616E84201085AF42F8DBA0A0D6884136DAD513F40204584B760523D0F4F8C55D37E926FD359337EF9B993C76FA596EE05B6FDE38DB41926108B4954E193B7730860B6A203871B63917FED820B062D11DDC
310
65C8D9BCB9B81E927436681B926A9DD28728BCD70102794B4D07BDFCD28BC8440CC9E1AFD92AE455CC3A23CF2EC1311A051E478C4AFBCCC5E80D725C7D4CCD19F7A81EA60955C558213AF4033AD7D55853528E7D4359BEC39C05B33CEFCB4D8BA015E40526252205C2F493142DA6ED3B7DC3A4C598E5BBFD058AABFA0F2238
310
D95FA1686C288BE3DD07E62127E991FB80B37CCF22957B50A9EEB9F15F504B03041400060808004061894355019EA25F0000007C00000007000000636E782E786D6C4DCB3B0E80201045D1AD90E915ED2CF8AC45050C11660C8261F98AB1B07AC9C97D42D718D865D3E909258CFD00CCE24AC6E326A164D74DC0B4128928FF
310
326038472BA13128B1252AC747C6BAB984FC68F0B87FE8960A5C09FE86CFB69FBA01504B030414000608080040618943FACFD1F26D010000020300000C0000006662782F636F72652E786D6C8D52ED8E8320107C15C2DF0B02D66B6A8334EDB57D827B01AAD433553008A68F7FEB47E3F5D25C2E26486676766747C5EEDED4
310
A8D7AEABACC9308F1846DAE4B6A84C99E1E0AF6483D14E0A67ADFF518691518DCEF00063294A67433B43B9355E1B0FA8B1859E41D575DA6394D770C970977FE946452A78A8E86E51ABF29B2A75C423A0A14E8ACE3B3080A621C389E5F5721774C2A508A12A66B62A605A75ADB4C392251FE7CD91EDC9FA703E93243E25243D
310
EC0FE4B84E4EEB94AF4EFB4D2AE82096C257CDC35DEEB4F2BAC032667C45784C58FAC9E32D4BB7EFE91BE35BC6041DCA9F44A12D5E893883F26751A88C5FC5B3DD49D661C9C1C848FCDA1622F2A8533DF8A152D02144788D093F070D8140C85E5DEAC71E37807A9D7BEB12600A1B16AA5775D03095A1F1117462A1F3D80036
310
7BD927FEA3CFDF3DE0032A538235E5E17A097E982EA6A97314AD76A4F77764AC6B54BD989B2C2EE732E8A53CB7B575FF51D379553A874987BF577E03504B0304140006080800406189430FDAFEFF7E0000009D0000000B0000006662782F636E782E786D6C4DCCD10A83201886E15B91FFDC5AABB5043512F53E6259C84C87
310
D3D8E5AF46073BFAE0E1E3A5FD67756833F16D836750151740C63FC264FDC220A71977807A4E6308E9EF06C88FAB61703070BAC4905F274D661EB34BBB3AEB9F275E07AD146934AE48277133C83B1635B9E1566AA2652B44AD14949C96BFD2BE47987F01504B030414000608080040618943313A6A78310100001302000031
310
0000006662782F32414645453934462D313938442D344144372D423339352D3644463946443642423345452F636F72652E786D6C8D515B6EC32010BC8AC557AACA36F8951061A244B64FD00B3898A42831583CAA1CBFEBDA911AA91FFD61D1ECCCECC0B2C363BC475FD23A65748D48825124B53083D2D71A057F8977283A70
310
668DF1BF6828D2FD286B34C388B3AB35615A2161B497DA03AACD2057B0774E7A14893B5C6AE4C4A71CFBA40F1E18EE964CBDB8F557999004DAC0E3CC790B01A265C87C229E1DBBB6A5451713BA6BE2E2D86CE3534ECBB86A3ADA35D5E994B72D4B17216721A86195AB01E2A88B92F6BF26B39833AFC6677C6165EFE5007A4C
310
F2986431A61F24DB63BA2FE93B267B8C593AD35F44611AFE12110CF4575150DAE7D91A779139C4094B9706678309E7FB338C7C4CC6FA689EB77152BC218E1352EEAAB2A42C5D98F07EB0AC8AD5D27963E17F37B73390F3D5B72A384BE71541F9D91FD4799DFC1B504B03041400060808004061894377F59DBC560100003303
310
0000300000006662782F32414645453934462D313938442D344144372D423339352D3644463946443642423345452F636E782E786D6CBD93CD6E022114855F85B06DE687D11A350C265DF409BAE816E1AA540626C034F5ED7B51B46E5C3469BA2193730FE7DC7C61F8E66BB0E4134234DEF594D52D25E094D7C6ED7B3AA55D
310
B5A4642378F03EDDD9287172809E66990ABE0F7E1A8BA46127279B50B5C61D8B1820FA29288828E79BC47A252D0680AB261461D882D6A0C9CD885F3B08B80A8ADB13490720AF2FEFC46F3F40A5C89B9C2278933B04CF6769BA3351A2AC8CB1A7511D6090B59C92D7108FB59649D6ACBE763DD8E92789E40BD7CA291892CB7B
310
9A4F2ACA463572E40D0E058F2920BD624AA711A890E3688D9209213767E3C523F8645C5ACC8BD720F880EE59B7582E31EC3C133C99018A4305900934155DCB6615EBAA76F5C6BA75BB5A3FAF9E5AB66E5BDE64BBE05BEF6DB9843110FC489477095CA282F1268F1FE12B3EA24D40D63E9C7E01120194D60B9D5BC65FF2618B
310
D97CFE8F7C9AF3FB465C01FF02F10D504B0304140006080800406189431DD04564630700009A1B0000340000006662782F32414645453934462D313938442D344144372D423339352D3644463946443642423345452F6F626A656374732E786D6CED595B73A33614FE2B0C7D691F8C4D6CE7D221749C78B3E369D3EED4DD9D
310
3E78869141266A846024918DFBEB7B7401033109EEA66F7DB001211D9DF39DAB0EC14FCF19759E30172467D7AEEF4D5C07B3384F084BAFDD52EE4697AEF35318F03C978D69AEC35086AF5D35EC8641CAF3B2B04309DEA192CACEE8DDCD9F8E8831C3AE135324C4B52BE2079C210F95324FB078F412249197EE9E3DDF3313DB
310
64538E8A870ED10271CC24700AE30CA8388629BFFD3871C7613056EFC340FDDB59D341B366FDB3C65AEA369784098958FC82A50E99E92096A6FE6CF9E16C7E359ACF66D3D1ECFCCC1FDDDCDD2C47FEC574727B7E7B7BB5F87005EC6DF39C5A99125C609680FEF66EE80763F5A616DD22708CEB38670CC71A48804A8BD52548
310
B080AD1AF04DDA8FBE92A8F15A4BD8789EA9F79685C6F0B44DA56FD630205A744110BB5D2571756DCA976FFF02C1C510A3E4024BE056480EDAB5F070F00A379C0463331A06DB832E887032243127883A946C39E2A01498AAA684815960C928E7E040CA511268CD99D76DDB02CF7CDB758E71B92B29559EE186DAB122703F2C
310
85E68CFC8DF981FB2632C013485B12262F2D97725F6037BC0AC67A300CD4657A665F1A209D1D45A9D08898B71D416F95EBAF966EF8F3DDF679ADC2C1F1CD0B9E17984B65744A8F9A2F30647B5528D96DFD419A530B401803AA5D7900E57740FE57881E0756406F9C3CCF9E6776AEE488895DCE33D08D33714613F89B38BEFE
310
57F78DBB605C2F6E6BAF0F4F705305D5E5B7E3D996416365F96FC019064F60F0399FDA57EB1851B0E77BC2002065240ECD610842FB6EFBEC862B089C10E86115A2A10F2203BB4F701B8C2D9983562AF7B25EC70051BBC774889200366D91C0468F9E3E42F6E0243EA8A929621FBCF37731D7C572FDF3BAE43B14E37BEBD34B
310
BC238C48C89AC7196A61DE92E811EFBFE63C01415FE2BD6EE29DD9AD04A0AD3057C0A71508EAE1B0736B8318D6A5B90A37C11B3B80102A5737E8DF1311634A11C37959ED5B473765A8B5C7DB9AC10DCF0CC4D3B38E0973FC445455014E7398D16214F27ECC49A14074C38F46B23A687A3DD27D5EFD0A1659CFEF99B562107A
310
19A27FE8A0750487966557485B206A81B787701EE734E7D1761F9948E7422D016CB4BDE54B8B28C47AA32445053C48FB5D155252236D9490DDAE1410578FB0F86575DB34878937F5E74EF3BFE38C3388B6E0BB885BBFEBEC11910CA538DAA1A46FBBE66E356DA149F690E67847412EF244E43E42329A24383D059A93885FBD
310
2BF594E642108605E4ABA3E037D1987810488C362B9695563B4013116558227A0A028A4C0FB83AEDE81A3786D2E16D1E6BEB7D4D634DA2FF91457004B564CE2202A528E4903719F7BD39C49036BA06E50EBE606D156D2D062DA18488F7D1574CD207790AEA867C0FEE311C494A19E5058AC1AC07907DE12B4AA91DDEB7287E
310
54F9238A4BFA5E062230DD4584D2328BE047189C3C86B8761D985E45A141DCC43E893328CA902CF9904DCEE79317FB989AA11B021B1BED0885B01D65A8E841BD1510753DE2D4E05BEA3D4ADD965911A12C2FD92043F1A65D6FB2E4BB6A556407F2AB4A45281B2BC29660181026EBAC5AC56C30751D58C18D74A0DA47026505
310
35A7B037128F5F7B93A6DCBB01B77EFABE1B6450F8F568AF195167150C96C7566120BE22193FB8E15A5F4737507F273839A4FAAAD66C568080988AE4252756459F5750DED81ACD0DEF91149B8F26EB56D7CF2B0FBA1FC118D640ED522F5C29A033CC245295C9BDBAA1BF2308C12D1A667CA572EA29541649A2AB4644EF489F
310
3A5B65446BD38C78C5036679063FB6212CA665823728118FD1BDA4D19A28D6AD945E462A8C5F15F0B78FEB0E3C303240A44FAAC0C35F3B6BEDE8AD2A978E12910F65B6658840106C89961ADD78054BAD462A2DD75775A680BA0B0CCCAA78F6FFC9A2D98EF8FF64915AC3F8A693C5CDFE17B46FF6451AE93C56767DD231A0CE
310
4F8ACA7B1C0374DBA1A65A671193CCADFCD69922088A55941F5C8D5541C310ECE3F85F67EDBE2C68B6EBF07F5AD6F65F541C276595D664D5A53A52B9AE9A39EC7C7EF9E1EEEA6239BA582CFCD16C315F8E2EFD8BD968BA389F2E66B38BF9CD875A4F867818D4C14CE72E783641AD1A564F1603E8CA8A9C92044EF389936288
310
F912CEF403DAE73CC3029267B3D99DD8A6FC80D54FA6CF29D196E28A9307040D622A20AD8318652CDBE3CE77D09A9470D0BE76A169E43DC29FB54AD781CC73ED42AB4092180B6F0B6D26D5D0D3C421E5EADC6F894120432C5529D12CAA9FEB550A9B56F8AFA70C490356AE560F030AB702BA5FAD0E85E6CDF2149F2478C58E
310
8324DC6E4B09D59A91E530500BA3B739A8DFC846097BB45B3F83EBBE2E96EFE9392D44067D3278D5080CD591443CD5FD6EC5986569B1FC34863E9BB3FACD296899822E87531A710CC65CAA820AAC08ACC2D22C900453BDFD71F389E7F08927737455E47CFF7C79FEC3E636CFB29C99A1CD024E65097C2872D60FF0D927D940
310
F18055735D6CCE26FED94637B56D9F3DDA22813D5515C140554C28413A260776F9A24165DB9763A58ACEF4D5D2B141149A01C68E5EF478CD472E077C487D4E511EA3FDBC92F6D5BEF6584F059BE0D0910EFF01504B030414000608000040618943000000000000000000000000350000006662782F32414645453934462D31
310
3938442D344144372D423339352D3644463946443642423345452F76657274696365732E62696E504B030414000608080040618943F270F1330600000004000000360000006662782F32414645453934462D313938442D344144372D423339352D3644463946443642423345452F747269616E676C65732E62696E63666060
310
0000504B030414000608000040618943000000000000000000000000370000006662782F32414645453934462D313938442D344144372D423339352D3644463946443642423345452F617474726962757465732E62696E504B030414000608080040618943D5987DFC8F00000041010000360000006662782F324146454539
310
34462D313938442D344144372D423339352D3644463946443642423345452F6469726563746F72792E786D6C858F410EC2201045AF4266AF15DDB800BA74E7C21B903225242D6328188F2FA5C4183471359997F9FF81E89FF3C41E1816475E02DF1F80A11FC8386F25A438EECEC07A250251FC3803E6F58C12560C4AD840E9
310
5E91C151A72936F496F35732D860FE635F62C8F2DA16B505C545B74125BAA2FA9E05D7CC053D063734D5C7665FD55B6B8D15D5E9BFEAFD8490FFA45E504B0304140006080800406189431144027CFE000000A00100003B0000006662782F32414645453934462D313938442D344144372D423339352D364446394644364242
310
3345452F7265736F75726365732F636F72652E786D6C8D504B6E833010BD0A9A6D65B0094531328E92269CA017B0CC845A0936F2A7EAF16B122AB5BB6E6646EFA3797AE2F035DF8B4FF4C138DB032B291468B51B8D9D7A48F14AF6501CA4F0CEC55F3228AC9AB18715062926EFD2B241DAD9883666D4BA1137508580110A7D
310
CF470F417FE0AC4A956256845BB9287D531396ACCC74D64911A2CF018AE7937582F4185CF21A83A89EAC14299971D39831FF3457831E246DDE86FD9972D29E868134F5A521FC743C9173DB5C5ACE7697E39E8B6A354B11CDFC93517B5411479035653BC26A42F93BAB3BCABB57FE425947A9A856F91F535AC67F9A92B17157
310
6F719FB60092E5200F428A6AED2BAF479979AFDDCA6F504B010214000A0000080000406189433DEE336E79000000790000001B00000000000000000000000000000000006175746F6465736B2D64657369676E2D7061636B6167652E786D6C504B0102140014000608080040618943D486FD9CA0000000F400000013000000
310
00000000000000000000B20000005B436F6E74656E745F54797065735D2E786D6C504B01021400140006080800406189430E52BFB8EF0000007C010000080000000000000000000000000083010000636F72652E786D6C504B010214001400060808004061894355019EA25F0000007C000000070000000000000000000000
310
000098020000636E782E786D6C504B0102140014000608080040618943FACFD1F26D010000020300000C000000000000000000000000001C0300006662782F636F72652E786D6C504B01021400140006080800406189430FDAFEFF7E0000009D0000000B00000000000000000000000000B30400006662782F636E782E786D
310
6C504B0102140014000608080040618943313A6A78310100001302000031000000000000000000000000005A0500006662782F32414645453934462D313938442D344144372D423339352D3644463946443642423345452F636F72652E786D6C504B010214001400060808004061894377F59DBC5601000033030000300000
310
0000000000000000000000DA0600006662782F32414645453934462D313938442D344144372D423339352D3644463946443642423345452F636E782E786D6C504B01021400140006080800406189431DD04564630700009A1B000034000000000000000000000000007E0800006662782F32414645453934462D313938442D
310
344144372D423339352D3644463946443642423345452F6F626A656374732E786D6C504B01021400140006080000406189430000000000000000000000003500000000000000000000000000331000006662782F32414645453934462D313938442D344144372D423339352D3644463946443642423345452F766572746963
310
65732E62696E504B0102140014000608080040618943F270F13306000000040000003600000000000000000000000000861000006662782F32414645453934462D313938442D344144372D423339352D3644463946443642423345452F747269616E676C65732E62696E504B01021400140006080000406189430000000000
310
000000000000003700000000000000000000000000E01000006662782F32414645453934462D313938442D344144372D423339352D3644463946443642423345452F617474726962757465732E62696E504B0102140014000608080040618943D5987DFC8F0000004101000036000000000000000000000000003511000066
310
62782F32414645453934462D313938442D344144372D423339352D3644463946443642423345452F6469726563746F72792E786D6C504B01021400140006080800406189431144027CFE000000A00100003B00000000000000000000000000181200006662782F32414645453934462D313938442D344144372D423339352D
310
3644463946443642423345452F7265736F75726365732F636F72652E786D6C504B0506000000000E000E00800400006F1300000000
  0
XRECORD
  5
17
102
{ACAD_REACTORS
330
12
102
}
330
12
100
AcDbXrecord
280
     1
270
     1
271
     1
  0
XRECORD
  5
16
102
{ACAD_REACTORS
330
12
102
}
330
12
100
AcDbXrecord
280
     1
270
     1
271
     1
  0
XRECORD
  5
18
102
{ACAD_REACTORS
330
12
102
}
330
12
100
AcDbXrecord
280
     1
270
     1
271
     1
  0
XRECORD
  5
15
102
{ACAD_REACTORS
330
12
102
}
330
12
100
AcDbXrecord
280
     1
270
     1
271
     1
  0
XRECORD
  5
761
102
{ACAD_REACTORS
330
22
102
}
330
22
100
AcDbXrecord
280
     1
102
MATERIAL
148
0.0
149
0.0
149
0.0
 93
        0
 94
      127
282
     0
 72
     0
 77
     0
171
     0
175
     0
179
     0
273
     0
  0
XRECORD
  5
24
102
{ACAD_REACTORS
330
22
102
}
330
22
100
AcDbXrecord
280
     1
270
     1
271
     1
  0
XRECORD
  5
23
102
{ACAD_REACTORS
330
22
102
}
330
22
100
AcDbXrecord
280
     1
270
     1
271
     1
  0
XRECORD
  5
27
102
{ACAD_REACTORS
330
22
102
}
330
22
100
AcDbXrecord
280
     1
270
     1
271
     1
  0
XRECORD
  5
26
102
{ACAD_REACTORS
330
22
102
}
330
22
100
AcDbXrecord
280
     1
270
     1
271
     1
  0
XRECORD
  5
28
102
{ACAD_REACTORS
330
22
102
}
330
22
100
AcDbXrecord
280
     1
270
     1
271
     1
  0
XRECORD
  5
25
102
{ACAD_REACTORS
330
22
102
}
330
22
100
AcDbXrecord
280
     1
270
     1
271
     1
  0
XRECORD
  5
75D
102
{ACAD_REACTORS
330
75C
102
}
330
75C
100
AcDbXrecord
280
     1
102
ACAD_ROUNDTRIP_2012_MLEADER_STYLE
298
     1
  0
CELLSTYLEMAP
  5
75B
102
{ACAD_REACTORS
330
75A
102
}
330
75A
100
AcDbCellStyleMap
 90
        3
300
CELLSTYLE
  1
TABLEFORMAT_BEGIN
 90
        5
170
     1
 91
        0
 92
    32768
 62
   257
 93
        1
300
CONTENTFORMAT
  1
CONTENTFORMAT_BEGIN
 90
        0
 91
        0
 92
      512
 93
        0
300

 40
0.0
140
1.0
 94
        5
 62
     0
340
55
144
0.25
309
CONTENTFORMAT_END
171
     0
 94
        0
309
TABLEFORMAT_END
  1
CELLSTYLE_BEGIN
 90
        1
 91
        1
300
_TITLE
309
CELLSTYLE_END
300
CELLSTYLE
  1
TABLEFORMAT_BEGIN
 90
        5
170
     1
 91
        0
 92
        0
 62
   257
 93
        1
300
CONTENTFORMAT
  1
CONTENTFORMAT_BEGIN
 90
        0
 91
        0
 92
      512
 93
        0
300

 40
0.0
140
1.0
 94
        5
 62
     0
340
55
144
0.18
309
CONTENTFORMAT_END
171
     0
 94
        0
309
TABLEFORMAT_END
  1
CELLSTYLE_BEGIN
 90
        2
 91
        1
300
_HEADER
309
CELLSTYLE_END
300
CELLSTYLE
  1
TABLEFORMAT_BEGIN
 90
        5
170
     1
 91
        0
 92
        0
 62
   257
 93
        1
300
CONTENTFORMAT
  1
CONTENTFORMAT_BEGIN
 90
        0
 91
        0
 92
      512
 93
        0
300

 40
0.0
140
1.0
 94
        2
 62
     0
340
55
144
0.18
309
CONTENTFORMAT_END
171
     0
 94
        0
309
TABLEFORMAT_END
  1
CELLSTYLE_BEGIN
 90
        3
 91
        2
300
_DATA
309
CELLSTYLE_END
  0
XRECORD
  5
792
102
{ACAD_REACTORS
330
75A
102
}
330
75A
100
AcDbXrecord
280
     1
102
ACAD_ROUNDTRIP_PRE2007_TABLESTYLE
 90
      512
 91
        0
  1

 92
      512
 93
        0
  2

 94
      512
 95
        0
  3

  0
XRECORD
  5
76D
102
{ACAD_REACTORS
330
76C
102
}
330
76C
100
AcDbXrecord
280
     1
102
RTVSPropertyOp0
 70
     1
102
RTVSPropertyOp1
 70
     1
102
RTVSPropertyOp2
 70
     1
102
RTVSPropertyOp3
 70
     1
102
RTVSPropertyOp4
 70
     1
102
RTVSPropertyOp5
 70
     1
102
RTVSPropertyOp6
 70
     1
102
RTVSPropertyOp7
 70
     1
102
RTVSPropertyOp8
 70
     1
102
RTVSPropertyOp9
 70
     1
102
RTVSPropertyOp10
 70
     1
102
RTVSPropertyOp11
 70
     1
102
RTVSPropertyOp12
 70
     1
102
RTVSPropertyOp13
 70
     1
102
RTVSPropertyOp14
 70
     1
102
RTVSPropertyOp15
 70
     1
102
RTVSPropertyOp16
 70
     1
102
RTVSPropertyOp17
 70
     1
102
RTVSPropertyOp18
 70
     1
102
RTVSPropertyOp19
 70
     1
102
RTVSPropertyOp20
 70
     1
102
RTVSPropertyOp21
 70
     1
102
RTVSPropertyOp22
 70
     1
102
RTVSPropertyOp23
 70
     1
102
RTVSPropertyOp24
 70
     1
102
RTVSPropertyOp25
 70
     1
102
RTVSPropertyOp26
 70
     1
102
RTVSPropertyOp27
 70
     1
102
RTVSPropertyOp28
 70
     1
102
RTVSPropertyOp29
 70
     1
102
RTVSPropertyOp30
 70
     1
102
RTVSPropertyOp31
 70
     1
102
RTVSPropertyOp32
 70
     1
  0
XRECORD
  5
76B
102
{ACAD_REACTORS
330
76A
102
}
330
76A
100
AcDbXrecord
280
     1
102
RTVSPropertyOp0
 70
     1
102
RTVSPropertyOp1
 70
     1
102
RTVSPropertyOp2
 70
     1
102
RTVSPropertyOp3
 70
     1
102
RTVSPropertyOp4
 70
     1
102
RTVSPropertyOp5
 70
     1
102
RTVSPropertyOp6
 70
     1
102
RTVSPropertyOp7
 70
     1
102
RTVSPropertyOp8
 70
     1
102
RTVSPropertyOp9
 70
     1
102
RTVSPropertyOp10
 70
     1
102
RTVSPropertyOp11
 70
     1
102
RTVSPropertyOp12
 70
     1
102
RTVSPropertyOp13
 70
     1
102
RTVSPropertyOp14
 70
     1
102
RTVSPropertyOp15
 70
     1
102
RTVSPropertyOp16
 70
     1
102
RTVSPropertyOp17
 70
     1
102
RTVSPropertyOp18
 70
     1
102
RTVSPropertyOp19
 70
     1
102
RTVSPropertyOp20
 70
     1
102
RTVSPropertyOp21
 70
     1
102
RTVSPropertyOp22
 70
     1
102
RTVSPropertyOp23
 70
     1
102
RTVSPropertyOp24
 70
     1
102
RTVSPropertyOp25
 70
     1
102
RTVSPropertyOp26
 70
     1
102
RTVSPropertyOp27
 70
     1
102
RTVSPropertyOp28
 70
     1
102
RTVSPropertyOp29
 70
     1
102
RTVSPropertyOp30
 70
     1
102
RTVSPropertyOp31
 70
     1
102
RTVSPropertyOp32
 70
     1
  0
XRECORD
  5
779
102
{ACAD_REACTORS
330
778
102
}
330
778
100
AcDbXrecord
280
     1
102
RTVSPropertyOp0
 70
     1
102
RTVSPropertyOp1
 70
     1
102
RTVSPropertyOp2
 70
     1
102
RTVSPropertyOp3
 70
     1
102
RTVSPropertyOp4
 70
     1
102
RTVSPropertyOp5
 70
     1
102
RTVSPropertyOp6
 70
     1
102
RTVSPropertyOp7
 70
     1
102
RTVSPropertyOp8
 70
     1
102
RTVSPropertyOp9
 70
     1
102
RTVSPropertyOp10
 70
     1
102
RTVSPropertyOp11
 70
     1
102
RTVSPropertyOp12
 70
     1
102
RTVSPropertyOp13
 70
     1
102
RTVSPropertyOp14
 70
     1
102
RTVSPropertyOp15
 70
     1
102
RTVSPropertyOp16
 70
     1
102
RTVSPropertyOp17
 70
     1
102
RTVSPropertyOp18
 70
     1
102
RTVSPropertyOp19
 70
     1
102
RTVSPropertyOp20
 70
     1
102
RTVSPropertyOp21
 70
     1
102
RTVSPropertyOp22
 70
     1
102
RTVSPropertyOp23
 70
     1
102
RTVSPropertyOp24
 70
     1
102
RTVSPropertyOp25
 70
     1
102
RTVSPropertyOp26
 70
     1
102
RTVSPropertyOp27
 70
     1
102
RTVSPropertyOp28
 70
     1
102
RTVSPropertyOp29
 70
     1
102
RTVSPropertyOp30
 70
     1
102
RTVSPropertyOp31
 70
     1
102
RTVSPropertyOp32
 70
     1
  0
XRECORD
  5
781
102
{ACAD_REACTORS
330
780
102
}
330
780
100
AcDbXrecord
280
     1
102
RTVSPropertyOp0
 70
     1
102
RTVSPropertyOp1
 70
     1
102
RTVSPropertyOp2
 70
     1
102
RTVSPropertyOp3
 70
     1
102
RTVSPropertyOp4
 70
     1
102
RTVSPropertyOp5
 70
     1
102
RTVSPropertyOp6
 70
     1
102
RTVSPropertyOp7
 70
     1
102
RTVSPropertyOp8
 70
     1
102
RTVSPropertyOp9
 70
     1
102
RTVSPropertyOp10
 70
     1
102
RTVSPropertyOp11
 70
     1
102
RTVSPropertyOp12
 70
     1
102
RTVSPropertyOp13
 70
     1
102
RTVSPropertyOp14
 70
     1
102
RTVSPropertyOp15
 70
     1
102
RTVSPropertyOp16
 70
     1
102
RTVSPropertyOp17
 70
     1
102
RTVSPropertyOp18
 70
     1
102
RTVSPropertyOp19
 70
     1
102
RTVSPropertyOp20
 70
     1
102
RTVSPropertyOp21
 70
     1
102
RTVSPropertyOp22
 70
     1
102
RTVSPropertyOp23
 70
     1
102
RTVSPropertyOp24
 70
     1
102
RTVSPropertyOp25
 70
     1
102
RTVSPropertyOp26
 70
     1
102
RTVSPropertyOp27
 70
     1
102
RTVSPropertyOp28
 70
     1
102
RTVSPropertyOp29
 70
     1
102
RTVSPropertyOp30
 70
     1
102
RTVSPropertyOp31
 70
     1
102
RTVSPropertyOp32
 70
     1
  0
XRECORD
  5
773
102
{ACAD_REACTORS
330
772
102
}
330
772
100
AcDbXrecord
280
     1
102
RTVSPropertyOp0
 70
     1
102
RTVSPropertyOp1
 70
     1
102
RTVSPropertyOp2
 70
     1
102
RTVSPropertyOp3
 70
     1
102
RTVSPropertyOp4
 70
     1
102
RTVSPropertyOp5
 70
     1
102
RTVSPropertyOp6
 70
     1
102
RTVSPropertyOp7
 70
     1
102
RTVSPropertyOp8
 70
     1
102
RTVSPropertyOp9
 70
     1
102
RTVSPropertyOp10
 70
     1
102
RTVSPropertyOp11
 70
     1
102
RTVSPropertyOp12
 70
     1
102
RTVSPropertyOp13
 70
     1
102
RTVSPropertyOp14
 70
     1
102
RTVSPropertyOp15
 70
     1
102
RTVSPropertyOp16
 70
     1
102
RTVSPropertyOp17
 70
     1
102
RTVSPropertyOp18
 70
     1
102
RTVSPropertyOp19
 70
     1
102
RTVSPropertyOp20
 70
     1
102
RTVSPropertyOp21
 70
     1
102
RTVSPropertyOp22
 70
     1
102
RTVSPropertyOp23
 70
     1
102
RTVSPropertyOp24
 70
     1
102
RTVSPropertyOp25
 70
     1
102
RTVSPropertyOp26
 70
     1
102
RTVSPropertyOp27
 70
     1
102
RTVSPropertyOp28
 70
     1
102
RTVSPropertyOp29
 70
     1
102
RTVSPropertyOp30
 70
     1
102
RTVSPropertyOp31
 70
     1
102
RTVSPropertyOp32
 70
     1
  0
XRECORD
  5
777
102
{ACAD_REACTORS
330
776
102
}
330
776
100
AcDbXrecord
280
     1
102
RTVSPropertyOp0
 70
     1
102
RTVSPropertyOp1
 70
     1
102
RTVSPropertyOp2
 70
     1
102
RTVSPropertyOp3
 70
     1
102
RTVSPropertyOp4
 70
     1
102
RTVSPropertyOp5
 70
     1
102
RTVSPropertyOp6
 70
     1
102
RTVSPropertyOp7
 70
     1
102
RTVSPropertyOp8
 70
     1
102
RTVSPropertyOp9
 70
     1
102
RTVSPropertyOp10
 70
     1
102
RTVSPropertyOp11
 70
     1
102
RTVSPropertyOp12
 70
     1
102
RTVSPropertyOp13
 70
     1
102
RTVSPropertyOp14
 70
     1
102
RTVSPropertyOp15
 70
     1
102
RTVSPropertyOp16
 70
     1
102
RTVSPropertyOp17
 70
     1
102
RTVSPropertyOp18
 70
     1
102
RTVSPropertyOp19
 70
     1
102
RTVSPropertyOp20
 70
     1
102
RTVSPropertyOp21
 70
     1
102
RTVSPropertyOp22
 70
     1
102
RTVSPropertyOp23
 70
     1
102
RTVSPropertyOp24
 70
     1
102
RTVSPropertyOp25
 70
     1
102
RTVSPropertyOp26
 70
     1
102
RTVSPropertyOp27
 70
     1
102
RTVSPropertyOp28
 70
     1
102
RTVSPropertyOp29
 70
     1
102
RTVSPropertyOp30
 70
     1
102
RTVSPropertyOp31
 70
     1
102
RTVSPropertyOp32
 70
     1
  0
XRECORD
  5
791
102
{ACAD_REACTORS
330
790
102
}
330
790
100
AcDbXrecord
280
     1
102
RTVSPropertyOp0
 70
     0
102
RTVSPropertyOp1
 70
     0
102
RTVSPropertyOp2
 70
     0
102
RTVSPropertyOp3
 70
     0
102
RTVSPropertyOp4
 70
     0
102
RTVSPropertyOp5
 70
     0
102
RTVSPropertyOp6
 70
     0
102
RTVSPropertyOp7
 70
     0
102
RTVSPropertyOp8
 70
     0
102
RTVSPropertyOp9
 70
     0
102
RTVSPropertyOp10
 70
     0
102
RTVSPropertyOp11
 70
     0
102
RTVSPropertyOp12
 70
     0
102
RTVSPropertyOp13
 70
     0
102
RTVSPropertyOp14
 70
     2
102
RTVSPropertyOp15
 70
     0
102
RTVSPropertyOp16
 70
     0
102
RTVSPropertyOp17
 70
     0
102
RTVSPropertyOp18
 70
     0
102
RTVSPropertyOp19
 70
     0
102
RTVSPropertyOp20
 70
     0
102
RTVSPropertyOp21
 70
     0
102
RTVSPropertyOp22
 70
     0
102
RTVSPropertyOp23
 70
     0
102
RTVSPropertyOp24
 70
     0
102
RTVSPropertyOp25
 70
     0
102
RTVSPropertyOp26
 70
     0
102
RTVSPropertyOp27
 70
     0
102
RTVSPropertyOp28
 70
     0
102
RTVSPropertyOp29
 70
     0
102
RTVSPropertyOp30
 70
     0
102
RTVSPropertyOp31
 70
     0
102
RTVSPropertyOp32
 70
     0
  0
XRECORD
  5
77F
102
{ACAD_REACTORS
330
77E
102
}
330
77E
100
AcDbXrecord
280
     1
102
RTVSPropertyOp0
 70
     1
102
RTVSPropertyOp1
 70
     1
102
RTVSPropertyOp2
 70
     1
102
RTVSPropertyOp3
 70
     1
102
RTVSPropertyOp4
 70
     1
102
RTVSPropertyOp5
 70
     1
102
RTVSPropertyOp6
 70
     1
102
RTVSPropertyOp7
 70
     1
102
RTVSPropertyOp8
 70
     1
102
RTVSPropertyOp9
 70
     1
102
RTVSPropertyOp10
 70
     1
102
RTVSPropertyOp11
 70
     1
102
RTVSPropertyOp12
 70
     1
102
RTVSPropertyOp13
 70
     1
102
RTVSPropertyOp14
 70
     1
102
RTVSPropertyOp15
 70
     1
102
RTVSPropertyOp16
 70
     1
102
RTVSPropertyOp17
 70
     1
102
RTVSPropertyOp18
 70
     1
102
RTVSPropertyOp19
 70
     1
102
RTVSPropertyOp20
 70
     1
102
RTVSPropertyOp21
 70
     1
102
RTVSPropertyOp22
 70
     1
102
RTVSPropertyOp23
 70
     1
102
RTVSPropertyOp24
 70
     1
102
RTVSPropertyOp25
 70
     1
102
RTVSPropertyOp26
 70
     1
102
RTVSPropertyOp27
 70
     1
102
RTVSPropertyOp28
 70
     1
102
RTVSPropertyOp29
 70
     1
102
RTVSPropertyOp30
 70
     1
102
RTVSPropertyOp31
 70
     1
102
RTVSPropertyOp32
 70
     1
  0
XRECORD
  5
763
102
{ACAD_REACTORS
330
762
102
}
330
762
100
AcDbXrecord
280
     1
102
RTVSPropertyOp0
 70
     1
102
RTVSPropertyOp1
 70
     1
102
RTVSPropertyOp2
 70
     1
102
RTVSPropertyOp3
 70
     1
102
RTVSPropertyOp4
 70
     1
102
RTVSPropertyOp5
 70
     1
102
RTVSPropertyOp6
 70
     1
102
RTVSPropertyOp7
 70
     1
102
RTVSPropertyOp8
 70
     1
102
RTVSPropertyOp9
 70
     1
102
RTVSPropertyOp10
 70
     1
102
RTVSPropertyOp11
 70
     1
102
RTVSPropertyOp12
 70
     1
102
RTVSPropertyOp13
 70
     1
102
RTVSPropertyOp14
 70
     1
102
RTVSPropertyOp15
 70
     1
102
RTVSPropertyOp16
 70
     1
102
RTVSPropertyOp17
 70
     1
102
RTVSPropertyOp18
 70
     1
102
RTVSPropertyOp19
 70
     1
102
RTVSPropertyOp20
 70
     1
102
RTVSPropertyOp21
 70
     1
102
RTVSPropertyOp22
 70
     1
102
RTVSPropertyOp23
 70
     1
102
RTVSPropertyOp24
 70
     1
102
RTVSPropertyOp25
 70
     1
102
RTVSPropertyOp26
 70
     1
102
RTVSPropertyOp27
 70
     1
102
RTVSPropertyOp28
 70
     1
102
RTVSPropertyOp29
 70
     1
102
RTVSPropertyOp30
 70
     1
102
RTVSPropertyOp31
 70
     1
102
RTVSPropertyOp32
 70
     1
  0
XRECORD
  5
765
102
{ACAD_REACTORS
330
764
102
}
330
764
100
AcDbXrecord
280
     1
102
RTVSPropertyOp0
 70
     1
102
RTVSPropertyOp1
 70
     1
102
RTVSPropertyOp2
 70
     1
102
RTVSPropertyOp3
 70
     1
102
RTVSPropertyOp4
 70
     1
102
RTVSPropertyOp5
 70
     1
102
RTVSPropertyOp6
 70
     1
102
RTVSPropertyOp7
 70
     1
102
RTVSPropertyOp8
 70
     1
102
RTVSPropertyOp9
 70
     1
102
RTVSPropertyOp10
 70
     1
102
RTVSPropertyOp11
 70
     1
102
RTVSPropertyOp12
 70
     1
102
RTVSPropertyOp13
 70
     1
102
RTVSPropertyOp14
 70
     1
102
RTVSPropertyOp15
 70
     1
102
RTVSPropertyOp16
 70
     1
102
RTVSPropertyOp17
 70
     1
102
RTVSPropertyOp18
 70
     1
102
RTVSPropertyOp19
 70
     1
102
RTVSPropertyOp20
 70
     1
102
RTVSPropertyOp21
 70
     1
102
RTVSPropertyOp22
 70
     1
102
RTVSPropertyOp23
 70
     1
102
RTVSPropertyOp24
 70
     1
102
RTVSPropertyOp25
 70
     1
102
RTVSPropertyOp26
 70
     1
102
RTVSPropertyOp27
 70
     1
102
RTVSPropertyOp28
 70
     1
102
RTVSPropertyOp29
 70
     1
102
RTVSPropertyOp30
 70
     1
102
RTVSPropertyOp31
 70
     1
102
RTVSPropertyOp32
 70
     1
  0
XRECORD
  5
767
102
{ACAD_REACTORS
330
766
102
}
330
766
100
AcDbXrecord
280
     1
102
RTVSPropertyOp0
 70
     1
102
RTVSPropertyOp1
 70
     1
102
RTVSPropertyOp2
 70
     1
102
RTVSPropertyOp3
 70
     1
102
RTVSPropertyOp4
 70
     1
102
RTVSPropertyOp5
 70
     1
102
RTVSPropertyOp6
 70
     1
102
RTVSPropertyOp7
 70
     1
102
RTVSPropertyOp8
 70
     1
102
RTVSPropertyOp9
 70
     1
102
RTVSPropertyOp10
 70
     1
102
RTVSPropertyOp11
 70
     1
102
RTVSPropertyOp12
 70
     1
102
RTVSPropertyOp13
 70
     1
102
RTVSPropertyOp14
 70
     1
102
RTVSPropertyOp15
 70
     1
102
RTVSPropertyOp16
 70
     1
102
RTVSPropertyOp17
 70
     1
102
RTVSPropertyOp18
 70
     1
102
RTVSPropertyOp19
 70
     1
102
RTVSPropertyOp20
 70
     1
102
RTVSPropertyOp21
 70
     1
102
RTVSPropertyOp22
 70
     1
102
RTVSPropertyOp23
 70
     1
102
RTVSPropertyOp24
 70
     1
102
RTVSPropertyOp25
 70
     1
102
RTVSPropertyOp26
 70
     1
102
RTVSPropertyOp27
 70
     1
102
RTVSPropertyOp28
 70
     1
102
RTVSPropertyOp29
 70
     1
102
RTVSPropertyOp30
 70
     1
102
RTVSPropertyOp31
 70
     1
102
RTVSPropertyOp32
 70
     1
  0
XRECORD
  5
769
102
{ACAD_REACTORS
330
768
102
}
330
768
100
AcDbXrecord
280
     1
102
RTVSPropertyOp0
 70
     1
102
RTVSPropertyOp1
 70
     1
102
RTVSPropertyOp2
 70
     1
102
RTVSPropertyOp3
 70
     1
102
RTVSPropertyOp4
 70
     1
102
RTVSPropertyOp5
 70
     1
102
RTVSPropertyOp6
 70
     1
102
RTVSPropertyOp7
 70
     1
102
RTVSPropertyOp8
 70
     1
102
RTVSPropertyOp9
 70
     1
102
RTVSPropertyOp10
 70
     1
102
RTVSPropertyOp11
 70
     1
102
RTVSPropertyOp12
 70
     1
102
RTVSPropertyOp13
 70
     1
102
RTVSPropertyOp14
 70
     1
102
RTVSPropertyOp15
 70
     1
102
RTVSPropertyOp16
 70
     1
102
RTVSPropertyOp17
 70
     1
102
RTVSPropertyOp18
 70
     1
102
RTVSPropertyOp19
 70
     1
102
RTVSPropertyOp20
 70
     1
102
RTVSPropertyOp21
 70
     1
102
RTVSPropertyOp22
 70
     1
102
RTVSPropertyOp23
 70
     1
102
RTVSPropertyOp24
 70
     1
102
RTVSPropertyOp25
 70
     1
102
RTVSPropertyOp26
 70
     1
102
RTVSPropertyOp27
 70
     1
102
RTVSPropertyOp28
 70
     1
102
RTVSPropertyOp29
 70
     1
102
RTVSPropertyOp30
 70
     1
102
RTVSPropertyOp31
 70
     1
102
RTVSPropertyOp32
 70
     1
  0
XRECORD
  5
771
102
{ACAD_REACTORS
330
770
102
}
330
770
100
AcDbXrecord
280
     1
102
RTVSPropertyOp0
 70
     1
102
RTVSPropertyOp1
 70
     1
102
RTVSPropertyOp2
 70
     1
102
RTVSPropertyOp3
 70
     1
102
RTVSPropertyOp4
 70
     1
102
RTVSPropertyOp5
 70
     1
102
RTVSPropertyOp6
 70
     1
102
RTVSPropertyOp7
 70
     1
102
RTVSPropertyOp8
 70
     1
102
RTVSPropertyOp9
 70
     1
102
RTVSPropertyOp10
 70
     1
102
RTVSPropertyOp11
 70
     1
102
RTVSPropertyOp12
 70
     1
102
RTVSPropertyOp13
 70
     1
102
RTVSPropertyOp14
 70
     1
102
RTVSPropertyOp15
 70
     1
102
RTVSPropertyOp16
 70
     1
102
RTVSPropertyOp17
 70
     1
102
RTVSPropertyOp18
 70
     1
102
RTVSPropertyOp19
 70
     1
102
RTVSPropertyOp20
 70
     1
102
RTVSPropertyOp21
 70
     1
102
RTVSPropertyOp22
 70
     1
102
RTVSPropertyOp23
 70
     1
102
RTVSPropertyOp24
 70
     1
102
RTVSPropertyOp25
 70
     1
102
RTVSPropertyOp26
 70
     1
102
RTVSPropertyOp27
 70
     1
102
RTVSPropertyOp28
 70
     1
102
RTVSPropertyOp29
 70
     1
102
RTVSPropertyOp30
 70
     1
102
RTVSPropertyOp31
 70
     1
102
RTVSPropertyOp32
 70
     1
  0
XRECORD
  5
78D
102
{ACAD_REACTORS
330
78C
102
}
330
78C
100
AcDbXrecord
280
     1
102
RTVSPropertyOp0
 70
     0
102
RTVSPropertyOp1
 70
     0
102
RTVSPropertyOp2
 70
     0
102
RTVSPropertyOp3
 70
     0
102
RTVSPropertyOp4
 70
     0
102
RTVSPropertyOp5
 70
     0
102
RTVSPropertyOp6
 70
     0
102
RTVSPropertyOp7
 70
     0
102
RTVSPropertyOp8
 70
     0
102
RTVSPropertyOp9
 70
     0
102
RTVSPropertyOp10
 70
     0
102
RTVSPropertyOp11
 70
     0
102
RTVSPropertyOp12
 70
     0
102
RTVSPropertyOp13
 70
     0
102
RTVSPropertyOp14
 70
     2
102
RTVSPropertyOp15
 70
     0
102
RTVSPropertyOp16
 70
     0
102
RTVSPropertyOp17
 70
     0
102
RTVSPropertyOp18
 70
     0
102
RTVSPropertyOp19
 70
     0
102
RTVSPropertyOp20
 70
     0
102
RTVSPropertyOp21
 70
     0
102
RTVSPropertyOp22
 70
     0
102
RTVSPropertyOp23
 70
     0
102
RTVSPropertyOp24
 70
     0
102
RTVSPropertyOp25
 70
     0
102
RTVSPropertyOp26
 70
     0
102
RTVSPropertyOp27
 70
     0
102
RTVSPropertyOp28
 70
     0
102
RTVSPropertyOp29
 70
     0
102
RTVSPropertyOp30
 70
     0
102
RTVSPropertyOp31
 70
     0
102
RTVSPropertyOp32
 70
     0
  0
XRECORD
  5
77D
102
{ACAD_REACTORS
330
77C
102
}
330
77C
100
AcDbXrecord
280
     1
102
RTVSPropertyOp0
 70
     1
102
RTVSPropertyOp1
 70
     1
102
RTVSPropertyOp2
 70
     1
102
RTVSPropertyOp3
 70
     1
102
RTVSPropertyOp4
 70
     1
102
RTVSPropertyOp5
 70
     1
102
RTVSPropertyOp6
 70
     1
102
RTVSPropertyOp7
 70
     1
102
RTVSPropertyOp8
 70
     1
102
RTVSPropertyOp9
 70
     1
102
RTVSPropertyOp10
 70
     1
102
RTVSPropertyOp11
 70
     1
102
RTVSPropertyOp12
 70
     1
102
RTVSPropertyOp13
 70
     1
102
RTVSPropertyOp14
 70
     1
102
RTVSPropertyOp15
 70
     1
102
RTVSPropertyOp16
 70
     1
102
RTVSPropertyOp17
 70
     1
102
RTVSPropertyOp18
 70
     1
102
RTVSPropertyOp19
 70
     1
102
RTVSPropertyOp20
 70
     1
102
RTVSPropertyOp21
 70
     1
102
RTVSPropertyOp22
 70
     1
102
RTVSPropertyOp23
 70
     1
102
RTVSPropertyOp24
 70
     1
102
RTVSPropertyOp25
 70
     1
102
RTVSPropertyOp26
 70
     1
102
RTVSPropertyOp27
 70
     1
102
RTVSPropertyOp28
 70
     1
102
RTVSPropertyOp29
 70
     1
102
RTVSPropertyOp30
 70
     1
102
RTVSPropertyOp31
 70
     1
102
RTVSPropertyOp32
 70
     1
  0
XRECORD
  5
78F
102
{ACAD_REACTORS
330
78E
102
}
330
78E
100
AcDbXrecord
280
     1
102
RTVSPropertyOp0
 70
     0
102
RTVSPropertyOp1
 70
     0
102
RTVSPropertyOp2
 70
     0
102
RTVSPropertyOp3
 70
     0
102
RTVSPropertyOp4
 70
     0
102
RTVSPropertyOp5
 70
     0
102
RTVSPropertyOp6
 70
     0
102
RTVSPropertyOp7
 70
     0
102
RTVSPropertyOp8
 70
     0
102
RTVSPropertyOp9
 70
     0
102
RTVSPropertyOp10
 70
     0
102
RTVSPropertyOp11
 70
     0
102
RTVSPropertyOp12
 70
     0
102
RTVSPropertyOp13
 70
     0
102
RTVSPropertyOp14
 70
     2
102
RTVSPropertyOp15
 70
     0
102
RTVSPropertyOp16
 70
     0
102
RTVSPropertyOp17
 70
     0
102
RTVSPropertyOp18
 70
     0
102
RTVSPropertyOp19
 70
     0
102
RTVSPropertyOp20
 70
     0
102
RTVSPropertyOp21
 70
     0
102
RTVSPropertyOp22
 70
     0
102
RTVSPropertyOp23
 70
     0
102
RTVSPropertyOp24
 70
     0
102
RTVSPropertyOp25
 70
     0
102
RTVSPropertyOp26
 70
     0
102
RTVSPropertyOp27
 70
     0
102
RTVSPropertyOp28
 70
     0
102
RTVSPropertyOp29
 70
     0
102
RTVSPropertyOp30
 70
     0
102
RTVSPropertyOp31
 70
     0
102
RTVSPropertyOp32
 70
     0
  0
XRECORD
  5
775
102
{ACAD_REACTORS
330
774
102
}
330
774
100
AcDbXrecord
280
     1
102
RTVSPropertyOp0
 70
     1
102
RTVSPropertyOp1
 70
     1
102
RTVSPropertyOp2
 70
     1
102
RTVSPropertyOp3
 70
     1
102
RTVSPropertyOp4
 70
     1
102
RTVSPropertyOp5
 70
     1
102
RTVSPropertyOp6
 70
     1
102
RTVSPropertyOp7
 70
     1
102
RTVSPropertyOp8
 70
     1
102
RTVSPropertyOp9
 70
     1
102
RTVSPropertyOp10
 70
     1
102
RTVSPropertyOp11
 70
     1
102
RTVSPropertyOp12
 70
     1
102
RTVSPropertyOp13
 70
     1
102
RTVSPropertyOp14
 70
     1
102
RTVSPropertyOp15
 70
     1
102
RTVSPropertyOp16
 70
     1
102
RTVSPropertyOp17
 70
     1
102
RTVSPropertyOp18
 70
     1
102
RTVSPropertyOp19
 70
     1
102
RTVSPropertyOp20
 70
     1
102
RTVSPropertyOp21
 70
     1
102
RTVSPropertyOp22
 70
     1
102
RTVSPropertyOp23
 70
     1
102
RTVSPropertyOp24
 70
     1
102
RTVSPropertyOp25
 70
     1
102
RTVSPropertyOp26
 70
     1
102
RTVSPropertyOp27
 70
     1
102
RTVSPropertyOp28
 70
     1
102
RTVSPropertyOp29
 70
     1
102
RTVSPropertyOp30
 70
     1
102
RTVSPropertyOp31
 70
     1
102
RTVSPropertyOp32
 70
     1
  0
XRECORD
  5
78B
102
{ACAD_REACTORS
330
78A
102
}
330
78A
100
AcDbXrecord
280
     1
102
RTVSPropertyOp0
 70
     1
102
RTVSPropertyOp1
 70
     1
102
RTVSPropertyOp2
 70
     1
102
RTVSPropertyOp3
 70
     1
102
RTVSPropertyOp4
 70
     1
102
RTVSPropertyOp5
 70
     1
102
RTVSPropertyOp6
 70
     1
102
RTVSPropertyOp7
 70
     1
102
RTVSPropertyOp8
 70
     1
102
RTVSPropertyOp9
 70
     1
102
RTVSPropertyOp10
 70
     1
102
RTVSPropertyOp11
 70
     1
102
RTVSPropertyOp12
 70
     1
102
RTVSPropertyOp13
 70
     1
102
RTVSPropertyOp14
 70
     1
102
RTVSPropertyOp15
 70
     1
102
RTVSPropertyOp16
 70
     1
102
RTVSPropertyOp17
 70
     1
102
RTVSPropertyOp18
 70
     1
102
RTVSPropertyOp19
 70
     1
102
RTVSPropertyOp20
 70
     1
102
RTVSPropertyOp21
 70
     1
102
RTVSPropertyOp22
 70
     1
102
RTVSPropertyOp23
 70
     1
102
RTVSPropertyOp24
 70
     1
102
RTVSPropertyOp25
 70
     1
102
RTVSPropertyOp26
 70
     1
102
RTVSPropertyOp27
 70
     1
102
RTVSPropertyOp28
 70
     1
102
RTVSPropertyOp29
 70
     1
102
RTVSPropertyOp30
 70
     1
102
RTVSPropertyOp31
 70
     1
102
RTVSPropertyOp32
 70
     1
  0
XRECORD
  5
789
102
{ACAD_REACTORS
330
788
102
}
330
788
100
AcDbXrecord
280
     1
102
RTVSPropertyOp0
 70
     1
102
RTVSPropertyOp1
 70
     1
102
RTVSPropertyOp2
 70
     1
102
RTVSPropertyOp3
 70
     1
102
RTVSPropertyOp4
 70
     1
102
RTVSPropertyOp5
 70
     1
102
RTVSPropertyOp6
 70
     1
102
RTVSPropertyOp7
 70
     1
102
RTVSPropertyOp8
 70
     1
102
RTVSPropertyOp9
 70
     1
102
RTVSPropertyOp10
 70
     1
102
RTVSPropertyOp11
 70
     1
102
RTVSPropertyOp12
 70
     1
102
RTVSPropertyOp13
 70
     1
102
RTVSPropertyOp14
 70
     1
102
RTVSPropertyOp15
 70
     1
102
RTVSPropertyOp16
 70
     1
102
RTVSPropertyOp17
 70
     1
102
RTVSPropertyOp18
 70
     1
102
RTVSPropertyOp19
 70
     1
102
RTVSPropertyOp20
 70
     1
102
RTVSPropertyOp21
 70
     1
102
RTVSPropertyOp22
 70
     1
102
RTVSPropertyOp23
 70
     1
102
RTVSPropertyOp24
 70
     1
102
RTVSPropertyOp25
 70
     1
102
RTVSPropertyOp26
 70
     1
102
RTVSPropertyOp27
 70
     1
102
RTVSPropertyOp28
 70
     1
102
RTVSPropertyOp29
 70
     1
102
RTVSPropertyOp30
 70
     1
102
RTVSPropertyOp31
 70
     1
102
RTVSPropertyOp32
 70
     1
  0
XRECORD
  5
783
102
{ACAD_REACTORS
330
782
102
}
330
782
100
AcDbXrecord
280
     1
102
RTVSPropertyOp0
 70
     1
102
RTVSPropertyOp1
 70
     1
102
RTVSPropertyOp2
 70
     1
102
RTVSPropertyOp3
 70
     1
102
RTVSPropertyOp4
 70
     1
102
RTVSPropertyOp5
 70
     1
102
RTVSPropertyOp6
 70
     1
102
RTVSPropertyOp7
 70
     1
102
RTVSPropertyOp8
 70
     1
102
RTVSPropertyOp9
 70
     1
102
RTVSPropertyOp10
 70
     1
102
RTVSPropertyOp11
 70
     1
102
RTVSPropertyOp12
 70
     1
102
RTVSPropertyOp13
 70
     1
102
RTVSPropertyOp14
 70
     1
102
RTVSPropertyOp15
 70
     1
102
RTVSPropertyOp16
 70
     1
102
RTVSPropertyOp17
 70
     1
102
RTVSPropertyOp18
 70
     1
102
RTVSPropertyOp19
 70
     1
102
RTVSPropertyOp20
 70
     1
102
RTVSPropertyOp21
 70
     1
102
RTVSPropertyOp22
 70
     1
102
RTVSPropertyOp23
 70
     1
102
RTVSPropertyOp24
 70
     1
102
RTVSPropertyOp25
 70
     1
102
RTVSPropertyOp26
 70
     1
102
RTVSPropertyOp27
 70
     1
102
RTVSPropertyOp28
 70
     1
102
RTVSPropertyOp29
 70
     1
102
RTVSPropertyOp30
 70
     1
102
RTVSPropertyOp31
 70
     1
102
RTVSPropertyOp32
 70
     1
  0
XRECORD
  5
785
102
{ACAD_REACTORS
330
784
102
}
330
784
100
AcDbXrecord
280
     1
102
RTVSPropertyOp0
 70
     1
102
RTVSPropertyOp1
 70
     1
102
RTVSPropertyOp2
 70
     1
102
RTVSPropertyOp3
 70
     1
102
RTVSPropertyOp4
 70
     1
102
RTVSPropertyOp5
 70
     1
102
RTVSPropertyOp6
 70
     1
102
RTVSPropertyOp7
 70
     1
102
RTVSPropertyOp8
 70
     1
102
RTVSPropertyOp9
 70
     1
102
RTVSPropertyOp10
 70
     1
102
RTVSPropertyOp11
 70
     1
102
RTVSPropertyOp12
 70
     1
102
RTVSPropertyOp13
 70
     1
102
RTVSPropertyOp14
 70
     1
102
RTVSPropertyOp15
 70
     1
102
RTVSPropertyOp16
 70
     1
102
RTVSPropertyOp17
 70
     1
102
RTVSPropertyOp18
 70
     1
102
RTVSPropertyOp19
 70
     1
102
RTVSPropertyOp20
 70
     1
102
RTVSPropertyOp21
 70
     1
102
RTVSPropertyOp22
 70
     1
102
RTVSPropertyOp23
 70
     1
102
RTVSPropertyOp24
 70
     1
102
RTVSPropertyOp25
 70
     1
102
RTVSPropertyOp26
 70
     1
102
RTVSPropertyOp27
 70
     1
102
RTVSPropertyOp28
 70
     1
102
RTVSPropertyOp29
 70
     1
102
RTVSPropertyOp30
 70
     1
102
RTVSPropertyOp31
 70
     1
102
RTVSPropertyOp32
 70
     1
  0
XRECORD
  5
77B
102
{ACAD_REACTORS
330
77A
102
}
330
77A
100
AcDbXrecord
280
     1
102
RTVSPropertyOp0
 70
     1
102
RTVSPropertyOp1
 70
     1
102
RTVSPropertyOp2
 70
     1
102
RTVSPropertyOp3
 70
     1
102
RTVSPropertyOp4
 70
     1
102
RTVSPropertyOp5
 70
     1
102
RTVSPropertyOp6
 70
     1
102
RTVSPropertyOp7
 70
     1
102
RTVSPropertyOp8
 70
     1
102
RTVSPropertyOp9
 70
     1
102
RTVSPropertyOp10
 70
     1
102
RTVSPropertyOp11
 70
     1
102
RTVSPropertyOp12
 70
     1
102
RTVSPropertyOp13
 70
     1
102
RTVSPropertyOp14
 70
     1
102
RTVSPropertyOp15
 70
     1
102
RTVSPropertyOp16
 70
     1
102
RTVSPropertyOp17
 70
     1
102
RTVSPropertyOp18
 70
     1
102
RTVSPropertyOp19
 70
     1
102
RTVSPropertyOp20
 70
     1
102
RTVSPropertyOp21
 70
     1
102
RTVSPropertyOp22
 70
     1
102
RTVSPropertyOp23
 70
     1
102
RTVSPropertyOp24
 70
     1
102
RTVSPropertyOp25
 70
     1
102
RTVSPropertyOp26
 70
     1
102
RTVSPropertyOp27
 70
     1
102
RTVSPropertyOp28
 70
     1
102
RTVSPropertyOp29
 70
     1
102
RTVSPropertyOp30
 70
     1
102
RTVSPropertyOp31
 70
     1
102
RTVSPropertyOp32
 70
     1
  0
XRECORD
  5
76F
102
{ACAD_REACTORS
330
76E
102
}
330
76E
100
AcDbXrecord
280
     1
102
RTVSPropertyOp0
 70
     1
102
RTVSPropertyOp1
 70
     1
102
RTVSPropertyOp2
 70
     1
102
RTVSPropertyOp3
 70
     1
102
RTVSPropertyOp4
 70
     1
102
RTVSPropertyOp5
 70
     1
102
RTVSPropertyOp6
 70
     1
102
RTVSPropertyOp7
 70
     1
102
RTVSPropertyOp8
 70
     1
102
RTVSPropertyOp9
 70
     1
102
RTVSPropertyOp10
 70
     1
102
RTVSPropertyOp11
 70
     1
102
RTVSPropertyOp12
 70
     1
102
RTVSPropertyOp13
 70
     1
102
RTVSPropertyOp14
 70
     1
102
RTVSPropertyOp15
 70
     1
102
RTVSPropertyOp16
 70
     1
102
RTVSPropertyOp17
 70
     1
102
RTVSPropertyOp18
 70
     1
102
RTVSPropertyOp19
 70
     1
102
RTVSPropertyOp20
 70
     1
102
RTVSPropertyOp21
 70
     1
102
RTVSPropertyOp22
 70
     1
102
RTVSPropertyOp23
 70
     1
102
RTVSPropertyOp24
 70
     1
102
RTVSPropertyOp25
 70
     1
102
RTVSPropertyOp26
 70
     1
102
RTVSPropertyOp27
 70
     1
102
RTVSPropertyOp28
 70
     1
102
RTVSPropertyOp29
 70
     1
102
RTVSPropertyOp30
 70
     1
102
RTVSPropertyOp31
 70
     1
102
RTVSPropertyOp32
 70
     1
  0
XRECORD
  5
787
102
{ACAD_REACTORS
330
786
102
}
330
786
100
AcDbXrecord
280
     1
102
RTVSPropertyOp0
 70
     1
102
RTVSPropertyOp1
 70
     1
102
RTVSPropertyOp2
 70
     1
102
RTVSPropertyOp3
 70
     1
102
RTVSPropertyOp4
 70
     1
102
RTVSPropertyOp5
 70
     1
102
RTVSPropertyOp6
 70
     1
102
RTVSPropertyOp7
 70
     1
102
RTVSPropertyOp8
 70
     1
102
RTVSPropertyOp9
 70
     1
102
RTVSPropertyOp10
 70
     1
102
RTVSPropertyOp11
 70
     1
102
RTVSPropertyOp12
 70
     1
102
RTVSPropertyOp13
 70
     1
102
RTVSPropertyOp14
 70
     1
102
RTVSPropertyOp15
 70
     1
102
RTVSPropertyOp16
 70
     1
102
RTVSPropertyOp17
 70
     1
102
RTVSPropertyOp18
 70
     1
102
RTVSPropertyOp19
 70
     1
102
RTVSPropertyOp20
 70
     1
102
RTVSPropertyOp21
 70
     1
102
RTVSPropertyOp22
 70
     1
102
RTVSPropertyOp23
 70
     1
102
RTVSPropertyOp24
 70
     1
102
RTVSPropertyOp25
 70
     1
102
RTVSPropertyOp26
 70
     1
102
RTVSPropertyOp27
 70
     1
102
RTVSPropertyOp28
 70
     1
102
RTVSPropertyOp29
 70
     1
102
RTVSPropertyOp30
 70
     1
102
RTVSPropertyOp31
 70
     1
102
RTVSPropertyOp32
 70
     1
  0
ENDSEC
  0
EOF
