  0
SECTION
  2
HEADER
  9
$ACADVER
  1
AC1018
  9
$ACADMAINTVER
 70
   104
  9
$DWGCODEPAGE
  3
ANSI_1250
  9
$AUTHOR
  1
pmacoun
  9
$LASTSAVEDBY
  1
pfic
  9
$REVISIONNUMBER
  1
000
  9
$CUSTOMPROPERTYTAG
  1
Vedoucí
  9
$CUSTOMPROPERTY
  1

  9
$CUSTOMPROPERTYTAG
  1
Společnost
  9
$CUSTOMPROPERTY
  1

  9
$CUSTOMPROPERTYTAG
  1
Kategorie
  9
$CUSTOMPROPERTY
  1

  9
$CUSTOMPROPERTYTAG
  1
Číslo součásti
  9
$CUSTOMPROPERTY
  1
408249
  9
$CUSTOMPROPERTYTAG
  1
Popis
  9
$CUSTOMPROPERTY
  1

  9
$CUSTOMPROPERTYTAG
  1
Projekt
  9
$CUSTOMPROPERTY
  1

  9
$CUSTOMPROPERTYTAG
  1
Kreslil
  9
$CUSTOMPROPERTY
  1
pmacoun
  9
$CUSTOMPROPERTYTAG
  1
Schválil
  9
$CUSTOMPROPERTY
  1

  9
$CUSTOMPROPERTYTAG
  1
Zodpovídá
  9
$CUSTOMPROPERTY
  1

  9
$CUSTOMPROPERTYTAG
  1
Nákladové středisko
  9
$CUSTOMPROPERTY
  1

  9
$CUSTOMPROPERTYTAG
  1
Dodavatel
  9
$CUSTOMPROPERTY
  1

  9
$CUSTOMPROPERTYTAG
  1
Uživatelský stav
  9
$CUSTOMPROPERTY
  1

  9
$CUSTOMPROPERTYTAG
  1
Stav návrhu
  9
$CUSTOMPROPERTY
  1
Rozpracováno
  9
$CUSTOMPROPERTYTAG
  1
Zkontroloval
  9
$CUSTOMPROPERTY
  1

  9
$CUSTOMPROPERTYTAG
  1
Techn. kontr. schválil
  9
$CUSTOMPROPERTY
  1

  9
$CUSTOMPROPERTYTAG
  1
Výrobu schválil
  9
$CUSTOMPROPERTY
  1

  9
$CUSTOMPROPERTYTAG
  1
VS_First
  9
$CUSTOMPROPERTY
  1

  9
$CUSTOMPROPERTYTAG
  1
VS_All
  9
$CUSTOMPROPERTY
  1
1:1,
  9
$CUSTOMPROPERTYTAG
  1
Model_Mass_Value
  9
$CUSTOMPROPERTY
  1
,0
  9
$CUSTOMPROPERTYTAG
  1
Model_Mass_Units
  9
$CUSTOMPROPERTY
  1
kg
  9
$CUSTOMPROPERTYTAG
  1
Model_Area_Value
  9
$CUSTOMPROPERTY
  1
2694,0
  9
$CUSTOMPROPERTYTAG
  1
Model_Area_Units
  9
$CUSTOMPROPERTY
  1
mm˛
  9
$CUSTOMPROPERTYTAG
  1
Model_Volume_Value
  9
$CUSTOMPROPERTY
  1
5471,0
  9
$CUSTOMPROPERTYTAG
  1
Model_Volume_Units
  9
$CUSTOMPROPERTY
  1
mmł
  9
$CUSTOMPROPERTYTAG
  1
Model_CogX_Value
  9
$CUSTOMPROPERTY
  1
,0
  9
$CUSTOMPROPERTYTAG
  1
Model_CogY_Value
  9
$CUSTOMPROPERTY
  1
,0
  9
$CUSTOMPROPERTYTAG
  1
Model_CogZ_Value
  9
$CUSTOMPROPERTY
  1
,0
  9
$CUSTOMPROPERTYTAG
  1
Model_Cog_Units
  9
$CUSTOMPROPERTY
  1
mm
  9
$CUSTOMPROPERTYTAG
  1
Model_Ixx_Value
  9
$CUSTOMPROPERTY
  1
,0
  9
$CUSTOMPROPERTYTAG
  1
Model_Iyy_Value
  9
$CUSTOMPROPERTY
  1
,0
  9
$CUSTOMPROPERTYTAG
  1
Model_Izz_Value
  9
$CUSTOMPROPERTY
  1
,0
  9
$CUSTOMPROPERTYTAG
  1
Model_Ixy_Value
  9
$CUSTOMPROPERTY
  1
,0
  9
$CUSTOMPROPERTYTAG
  1
Model_Iyz_Value
  9
$CUSTOMPROPERTY
  1
,0
  9
$CUSTOMPROPERTYTAG
  1
Model_Ixz_Value
  9
$CUSTOMPROPERTY
  1
,0
  9
$CUSTOMPROPERTYTAG
  1
Model_MassMom_Units
  9
$CUSTOMPROPERTY
  1
kg mm˛
  9
$CUSTOMPROPERTYTAG
  1
FirstViewScale
  9
$CUSTOMPROPERTY
  1

  9
$CUSTOMPROPERTYTAG
  1
AllViewScales
  9
$CUSTOMPROPERTY
  1

  9
$CUSTOMPROPERTYTAG
  1
SaveDate
  9
$CUSTOMPROPERTY
  1
09/12/2007
  9
$CUSTOMPROPERTYTAG
  1
SaveTime
  9
$CUSTOMPROPERTY
  1
10:32
  9
$CUSTOMPROPERTYTAG
  1
PaperSize
  9
$CUSTOMPROPERTY
  1
A3
  9
$CUSTOMPROPERTYTAG
  1
DateSaved
  9
$CUSTOMPROPERTY
  1
12.09.2007
  9
$CUSTOMPROPERTYTAG
  1
TimeSaved
  9
$CUSTOMPROPERTY
  1
10:32 dop.
  9
$INSBASE
 10
0.0
 20
0.0
 30
0.0
  9
$EXTMIN
 10
76.00473807622325
 20
37.24475219338752
 30
-0.0015258207003583
  9
$EXTMAX
 10
281.8418346540095
 20
447.5291759124133
 30
0.0000000349246037
  9
$LIMMIN
 10
0.0
 20
0.0
  9
$LIMMAX
 10
712.8
 20
504.0
  9
$ORTHOMODE
 70
     0
  9
$REGENMODE
 70
     1
  9
$FILLMODE
 70
     1
  9
$QTEXTMODE
 70
     0
  9
$MIRRTEXT
 70
     0
  9
$LTSCALE
 40
1.199999999999999
  9
$ATTMODE
 70
     1
  9
$TEXTSIZE
 40
0.2
  9
$TRACEWID
 40
0.05
  9
$TEXTSTYLE
  7
Standard
  9
$CLAYER
  8
0
  9
$CELTYPE
  6
ByLayer
  9
$CECOLOR
 62
   256
  9
$CELTSCALE
 40
1.0
  9
$DISPSILH
 70
     0
  9
$DIMSCALE
 40
1.0
  9
$DIMASZ
 40
1.799999999999999
  9
$DIMEXO
 40
0.0625
  9
$DIMDLI
 40
0.38
  9
$DIMRND
 40
0.0
  9
$DIMDLE
 40
0.0
  9
$DIMEXE
 40
0.18
  9
$DIMTP
 40
0.0
  9
$DIMTM
 40
0.0
  9
$DIMTXT
 40
0.3499999940395355
  9
$DIMCEN
 40
0.09
  9
$DIMTSZ
 40
0.0
  9
$DIMTOL
 70
     0
  9
$DIMLIM
 70
     0
  9
$DIMTIH
 70
     1
  9
$DIMTOH
 70
     1
  9
$DIMSE1
 70
     0
  9
$DIMSE2
 70
     0
  9
$DIMTAD
 70
     0
  9
$DIMZIN
 70
     0
  9
$DIMBLK
  1

  9
$DIMASO
 70
     1
  9
$DIMSHO
 70
     1
  9
$DIMPOST
  1

  9
$DIMAPOST
  1

  9
$DIMALT
 70
     0
  9
$DIMALTD
 70
     2
  9
$DIMALTF
 40
25.4
  9
$DIMLFAC
 40
1.0
  9
$DIMTOFL
 70
     0
  9
$DIMTVP
 40
0.0
  9
$DIMTIX
 70
     0
  9
$DIMSOXD
 70
     0
  9
$DIMSAH
 70
     0
  9
$DIMBLK1
  1

  9
$DIMBLK2
  1

  9
$DIMSTYLE
  2
Standard
  9
$DIMCLRD
 70
     0
  9
$DIMCLRE
 70
     0
  9
$DIMCLRT
 70
     0
  9
$DIMTFAC
 40
1.0
  9
$DIMGAP
 40
0.09
  9
$DIMJUST
 70
     0
  9
$DIMSD1
 70
     0
  9
$DIMSD2
 70
     0
  9
$DIMTOLJ
 70
     1
  9
$DIMTZIN
 70
     0
  9
$DIMALTZ
 70
     0
  9
$DIMALTTZ
 70
     0
  9
$DIMUPT
 70
     0
  9
$DIMDEC
 70
     4
  9
$DIMTDEC
 70
     4
  9
$DIMALTU
 70
     2
  9
$DIMALTTD
 70
     2
  9
$DIMTXSTY
  7
Standard
  9
$DIMAUNIT
 70
     0
  9
$DIMADEC
 70
     0
  9
$DIMALTRND
 40
0.0
  9
$DIMAZIN
 70
     0
  9
$DIMDSEP
 70
    46
  9
$DIMATFIT
 70
     3
  9
$DIMFRAC
 70
     0
  9
$DIMLDRBLK
  1

  9
$DIMLUNIT
 70
     2
  9
$DIMLWD
 70
    -2
  9
$DIMLWE
 70
    -2
  9
$DIMTMOVE
 70
     0
  9
$LUNITS
 70
     2
  9
$LUPREC
 70
     4
  9
$SKETCHINC
 40
0.1
  9
$FILLETRAD
 40
0.0
  9
$AUNITS
 70
     0
  9
$AUPREC
 70
     0
  9
$MENU
  1
.
  9
$ELEVATION
 40
0.0
  9
$PELEVATION
 40
0.0
  9
$THICKNESS
 40
0.0
  9
$LIMCHECK
 70
     0
  9
$CHAMFERA
 40
0.0
  9
$CHAMFERB
 40
0.0
  9
$CHAMFERC
 40
0.0
  9
$CHAMFERD
 40
0.0
  9
$SKPOLY
 70
     0
  9
$TDCREATE
 40
2455804.313350567
  9
$TDUCREATE
 40
2455804.230017234
  9
$TDUPDATE
 40
2456553.479305625
  9
$TDUUPDATE
 40
2456553.395972292
  9
$TDINDWG
 40
0.0010803125
  9
$TDUSRTIMER
 40
0.0010803125
  9
$USRTIMER
 70
     1
  9
$ANGBASE
 50
0.0
  9
$ANGDIR
 70
     0
  9
$PDMODE
 70
     0
  9
$PDSIZE
 40
0.0
  9
$PLINEWID
 40
0.0
  9
$SPLFRAME
 70
     0
  9
$SPLINETYPE
 70
     6
  9
$SPLINESEGS
 70
     8
  9
$HANDSEED
  5
D5A
  9
$SURFTAB1
 70
     6
  9
$SURFTAB2
 70
     6
  9
$SURFTYPE
 70
     6
  9
$SURFU
 70
     6
  9
$SURFV
 70
     6
  9
$UCSBASE
  2

  9
$UCSNAME
  2

  9
$UCSORG
 10
0.0
 20
0.0
 30
0.0
  9
$UCSXDIR
 10
1.0
 20
0.0
 30
0.0
  9
$UCSYDIR
 10
0.0
 20
1.0
 30
0.0
  9
$UCSORTHOREF
  2

  9
$UCSORTHOVIEW
 70
     0
  9
$UCSORGTOP
 10
0.0
 20
0.0
 30
0.0
  9
$UCSORGBOTTOM
 10
0.0
 20
0.0
 30
0.0
  9
$UCSORGLEFT
 10
0.0
 20
0.0
 30
0.0
  9
$UCSORGRIGHT
 10
0.0
 20
0.0
 30
0.0
  9
$UCSORGFRONT
 10
0.0
 20
0.0
 30
0.0
  9
$UCSORGBACK
 10
0.0
 20
0.0
 30
0.0
  9
$PUCSBASE
  2

  9
$PUCSNAME
  2

  9
$PUCSORG
 10
0.0
 20
0.0
 30
0.0
  9
$PUCSXDIR
 10
1.0
 20
0.0
 30
0.0
  9
$PUCSYDIR
 10
0.0
 20
1.0
 30
0.0
  9
$PUCSORTHOREF
  2

  9
$PUCSORTHOVIEW
 70
     0
  9
$PUCSORGTOP
 10
0.0
 20
0.0
 30
0.0
  9
$PUCSORGBOTTOM
 10
0.0
 20
0.0
 30
0.0
  9
$PUCSORGLEFT
 10
0.0
 20
0.0
 30
0.0
  9
$PUCSORGRIGHT
 10
0.0
 20
0.0
 30
0.0
  9
$PUCSORGFRONT
 10
0.0
 20
0.0
 30
0.0
  9
$PUCSORGBACK
 10
0.0
 20
0.0
 30
0.0
  9
$USERI1
 70
     0
  9
$USERI2
 70
     0
  9
$USERI3
 70
     0
  9
$USERI4
 70
     0
  9
$USERI5
 70
     0
  9
$USERR1
 40
0.0
  9
$USERR2
 40
0.0
  9
$USERR3
 40
0.0
  9
$USERR4
 40
0.0
  9
$USERR5
 40
0.0
  9
$WORLDVIEW
 70
     1
  9
$SHADEDGE
 70
     3
  9
$SHADEDIF
 70
    70
  9
$TILEMODE
 70
     1
  9
$MAXACTVP
 70
    64
  9
$PINSBASE
 10
0.0
 20
0.0
 30
0.0
  9
$PLIMCHECK
 70
     0
  9
$PEXTMIN
 10
0.0
 20
0.0
 30
0.0
  9
$PEXTMAX
 10
712.8
 20
504.0
 30
0.0
  9
$PLIMMIN
 10
0.0
 20
0.0
  9
$PLIMMAX
 10
712.8
 20
504.0
  9
$UNITMODE
 70
     0
  9
$VISRETAIN
 70
     1
  9
$PLINEGEN
 70
     0
  9
$PSLTSCALE
 70
     1
  9
$TREEDEPTH
 70
  3020
  9
$CMLSTYLE
  2
Standard
  9
$CMLJUST
 70
     0
  9
$CMLSCALE
 40
1.0
  9
$PROXYGRAPHICS
 70
     1
  9
$MEASUREMENT
 70
     1
  9
$CELWEIGHT
370
    -1
  9
$ENDCAPS
280
     0
  9
$JOINSTYLE
280
     0
  9
$LWDISPLAY
290
     0
  9
$INSUNITS
 70
     4
  9
$HYPERLINKBASE
  1

  9
$STYLESHEET
  1

  9
$XEDIT
290
     1
  9
$CEPSNTYPE
380
     0
  9
$PSTYLEMODE
290
     1
  9
$FINGERPRINTGUID
  2
{B58645B9-D909-4DCB-9A99-069EB9DA025C}
  9
$VERSIONGUID
  2
{FED1B84E-1982-440E-8ABC-789F02D326EA}
  9
$EXTNAMES
290
     1
  9
$PSVPSCALE
 40
0.0
  9
$OLESTARTUP
290
     0
  9
$SORTENTS
280
   127
  9
$INDEXCTL
280
     0
  9
$HIDETEXT
280
     1
  9
$XCLIPFRAME
290
     0
  9
$HALOGAP
280
     0
  9
$OBSCOLOR
 70
   257
  9
$OBSLTYPE
280
     0
  9
$INTERSECTIONDISPLAY
280
     0
  9
$INTERSECTIONCOLOR
 70
   257
  9
$DIMASSOC
280
     1
  9
$PROJECTNAME
  1

  0
ENDSEC
  0
SECTION
  2
CLASSES
  0
CLASS
  1
ACDBDICTIONARYWDFLT
  2
AcDbDictionaryWithDefault
  3
ObjectDBX Classes
 90
        0
 91
        1
280
     0
281
     0
  0
CLASS
  1
MATERIAL
  2
AcDbMaterial
  3
ObjectDBX Classes
 90
     1153
 91
        3
280
     0
281
     0
  0
CLASS
  1
VISUALSTYLE
  2
AcDbVisualStyle
  3
ObjectDBX Classes
 90
     4095
 91
       26
280
     0
281
     0
  0
CLASS
  1
SCALE
  2
AcDbScale
  3
ObjectDBX Classes
 90
     1153
 91
       17
280
     0
281
     0
  0
CLASS
  1
TABLESTYLE
  2
AcDbTableStyle
  3
ObjectDBX Classes
 90
     4095
 91
        1
280
     0
281
     0
  0
CLASS
  1
MLEADERSTYLE
  2
AcDbMLeaderStyle
  3
ACDB_MLEADERSTYLE_CLASS
 90
     4095
 91
        1
280
     0
281
     0
  0
CLASS
  1
CELLSTYLEMAP
  2
AcDbCellStyleMap
  3
ObjectDBX Classes
 90
     1152
 91
        2
280
     0
281
     0
  0
CLASS
  1
DICTIONARYVAR
  2
AcDbDictionaryVar
  3
ObjectDBX Classes
 90
        0
 91
        9
280
     0
281
     0
  0
CLASS
  1
ACME_DOCUMENT
  2
AcMeDbDoc
  3
AcMeServices
 90
     1024
 91
        2
280
     0
281
     0
  0
CLASS
  1
AMGSETTINGSOBJ
  2
AmgSettingsObj
  3
"AcadM|Product Description: AutoCAD Mechanical|Company: Autodesk, Inc."
 90
     1024
 91
        2
280
     0
281
     0
  0
CLASS
  1
ACMESCOPE
  2
AcMeScope
  3
AcMeServices
 90
     1024
 91
        1
280
     0
281
     0
  0
CLASS
  1
ACMECOMMANDHISTORY
  2
AcMeCommandHistory
  3
AcMeServices
 90
     1024
 91
        1
280
     0
281
     0
  0
CLASS
  1
ACIMSYSVARMAN
  2
AcImSysVarManager
  3
AcMeServices
 90
     1024
 91
        5
280
     0
281
     0
  0
CLASS
  1
ACIMINTSYSVAR
  2
AcImIntSysVar
  3
AcMeServices
 90
     1024
 91
       27
280
     0
281
     0
  0
CLASS
  1
ACMEDRAWINGMAN
  2
AcMeDrawingMan
  3
AcMeServices
 90
     1024
 91
        1
280
     0
281
     0
  0
CLASS
  1
ACMEVIEW
  2
AcMeView
  3
AcMeServices
 90
     1024
 91
        1
280
     0
281
     0
  0
CLASS
  1
ACDBENTITYCACHE
  2
AcMeEntityCache
  3
AcMeServices
 90
     1024
 91
        1
280
     0
281
     0
  0
CLASS
  1
ACMESTATEMGR
  2
AcMeStateMgr
  3
AcMeServices
 90
     1024
 91
        1
280
     0
281
     0
  0
CLASS
  1
ACGREFMASTER
  2
AcGrefMaster
  3
AcAttribServices
 90
     1024
 91
        1
280
     0
281
     0
  0
CLASS
  1
AM_DRAWING_MGR
  2
AcDmDwgMgr
  3
AcMechDwgViewMgmt
 90
     1024
 91
        1
280
     0
281
     0
  0
CLASS
  1
AM_DWG_DOCUMENT
  2
AcDmDwgDocument
  3
AcMechDwgViewMgmt
 90
     1024
 91
        1
280
     0
281
     0
  0
CLASS
  1
AM_DWG_SHEET
  2
AcDmSheet
  3
AcMechDwgViewMgmt
 90
     1024
 91
        2
280
     0
281
     0
  0
CLASS
  1
AM_VIEWDIMPARMAP
  2
AcDmViewDimParMap
  3
AcMechDwgViewMgmt
 90
     1024
 91
        2
280
     0
281
     0
  0
CLASS
  1
AMDTINTERNALREACTOR
  2
AmdtInternalReactor
  3
AcMeServices
 90
     1024
 91
        1
280
     0
281
     0
  0
CLASS
  1
ACIMREALSYSVAR
  2
AcImRealSysVar
  3
AcMeServices
 90
     1024
 91
        1
280
     0
281
     0
  0
CLASS
  1
AM_DWGMGR_NAME
  2
AcDmDwgMgrName
  3
AcMechDwgViewMgmt
 90
     1024
 91
        1
280
     0
281
     0
  0
CLASS
  1
ACME_DATABASE
  2
AcMeDbDatabase
  3
AcMeServices
 90
     1024
 91
        2
280
     0
281
     0
  0
CLASS
  1
ACRFINSADJUSTERMGR
  2
AcRfInsAdjusterMgr
  3
AcMeServices
 90
     1024
 91
        1
280
     0
281
     0
  0
CLASS
  1
ACGREFACADMASTER
  2
AcGrefacadMaster
  3
AcGrefServices
 90
     1024
 91
        1
280
     0
281
     0
  0
CLASS
  1
AMDTMENUSTATEMGR
  2
AmdtMenuStateMgr
  3
McadcomServices
 90
     1024
 91
        1
280
     0
281
     0
  0
CLASS
  1
AMDTMCOMMENUSTATE
  2
AmdtMcomMenuState
  3
McadcomServices
 90
     1024
 91
        1
280
     0
281
     0
  0
CLASS
  1
AMIMASTER
  2
AmiMaster
  3
AmiServices
 90
     1024
 91
        1
280
     0
281
     0
  0
CLASS
  1
MAPIAMMOUDLE
  2
MApiAmModule
  3
MApiAmServices
 90
     1024
 91
        1
280
     0
281
     0
  0
CLASS
  1
ACIMSTRSYSVAR
  2
AcImStrSysVar
  3
AcMeServices
 90
     1024
 91
        5
280
     0
281
     0
  0
CLASS
  1
AMDTADMENUSTATE
  2
AmdtAdMenuState
  3
DesignerServices
 90
     1024
 91
        1
280
     0
281
     0
  0
CLASS
  1
ADAPPL
  2
AcAdAppl
  3
DesignerServices
 90
     1024
 91
        1
280
     0
281
     0
  0
CLASS
  1
DEPMGR
  2
AcAdDepMgr
  3
DesignerServices
 90
     1024
 91
        1
280
     0
281
     0
  0
CLASS
  1
PARAMMGR
  2
AcAdParamMgr
  3
DesignerServices
 90
     1024
 91
        1
280
     0
281
     0
  0
CLASS
  1
PARAMSCOPE
  2
AcAdParamScope
  3
DesignerServices
 90
     1024
 91
        1
280
     0
281
     0
  0
CLASS
  1
NAMEDAPPL
  2
AcAdNamedAppl
  3
DesignerServices
 90
     1024
 91
        1
280
     0
281
     0
  0
CLASS
  1
AMDTDMMENUSTATE
  2
AmdtDmMenuState
  3
AcMechDwgViewMgmt
 90
     1024
 91
        1
280
     0
281
     0
  0
CLASS
  1
AMDTAMMENUSTATE
  2
AmdtAmMenuState
  3
DesignerAssemblies
 90
     1024
 91
        1
280
     0
281
     0
  0
CLASS
  1
ACAMPROJECT
  2
AcAmProject
  3
DesignerAssemblies
 90
     1024
 91
        1
280
     0
281
     0
  0
CLASS
  1
ACAMGRCOMPDEF
  2
AcAmGrCompDef
  3
DesignerAssemblies
 90
     1024
 91
        1
280
     0
281
     0
  0
CLASS
  1
ACAMCOMPDEF
  2
AcAmCompDef
  3
DesignerAssemblies
 90
     1024
 91
        1
280
     0
281
     0
  0
CLASS
  1
ACAMCOMPDEFMGR
  2
AcAmCompDefMgr
  3
DesignerAssemblies
 90
     1024
 91
        1
280
     0
281
     0
  0
CLASS
  1
AMCONTEXTMGR
  2
AcAmContextMgr
  3
DesignerAssemblies
 90
     1024
 91
        1
280
     0
281
     0
  0
CLASS
  1
ACAMCONTEXTMODELER
  2
AcAmContextModeler
  3
DesignerAssemblies
 90
     1024
 91
        1
280
     0
281
     0
  0
CLASS
  1
ACMDATADICTIONARY
  2
AcmDataDictionary
  3
"AcmSymBB|Product Description: AutoCAD Mechanical|Company: Autodesk, Inc."
 90
     1024
 91
        1
280
     0
281
     0
  0
CLASS
  1
CATALOGSTATE
  2
AcAmCatalogState
  3
DesignerAssemblies
 90
     1024
 91
        1
280
     0
281
     0
  0
CLASS
  1
ACAMGRCOMPDEFSET
  2
AcAmGrCompDefSet
  3
DesignerAssemblies
 90
     1024
 91
        1
280
     0
281
     0
  0
CLASS
  1
AMDTBROWSERDBTAB
  2
AmdtBrowserDbTab
  3
McadcomServices
 90
     1024
 91
        1
280
     0
281
     0
  0
CLASS
  1
CBROWSERAPPOBJECT
  2
CBrowserAppObject
  3
McadcomServices
 90
     1024
 91
        2
280
     0
281
     0
  0
CLASS
  1
DM_PLACEHOLDER
  2
AcDmSelsetPlaceholder
  3
AcMechDwgViewMgmt
 90
     1024
 91
        1
280
     0
281
     0
  0
CLASS
  1
ACMSTANDARDISO
  2
AcmStandardISO
  3
"Amdt_StdImp|Product Description: AutoCAD Mechanical|Company: Autodesk, Inc."
 90
     1024
 91
        1
280
     0
281
     0
  0
CLASS
  1
AMDTEDGESTANDARDISO13715
  2
AmdtEdgeStdISO13715
  3
"Amdt_StdImp|Product Description: AutoCAD Mechanical|Company: Autodesk, Inc."
 90
     1024
 91
        1
280
     0
281
     0
  0
CLASS
  1
ACMSURFSTANDARDISO2002
  2
AcmSurfTextStdISO2002
  3
"Amdt_StdImp|Product Description: AutoCAD Mechanical|Company: Autodesk, Inc."
 90
     1024
 91
        1
280
     0
281
     0
  0
CLASS
  1
ACMFCFSTANDARDISO
  2
AcmFCFStdISO
  3
"Amdt_StdImp|Product Description: AutoCAD Mechanical|Company: Autodesk, Inc."
 90
     1024
 91
        1
280
     0
281
     0
  0
CLASS
  1
ACMWELDSTANDARDISO
  2
AcmWeldingStdISO
  3
"Amdt_StdImp|Product Description: AutoCAD Mechanical|Company: Autodesk, Inc."
 90
     1024
 91
        1
280
     0
281
     0
  0
CLASS
  1
ACMIDSTANDARDISO
  2
AcmIdStdISO
  3
"Amdt_StdImp|Product Description: AutoCAD Mechanical|Company: Autodesk, Inc."
 90
     1024
 91
        1
280
     0
281
     0
  0
CLASS
  1
ACMDATUMSTANDARDISO
  2
AcmDatumStdISO
  3
"Amdt_StdImp|Product Description: AutoCAD Mechanical|Company: Autodesk, Inc."
 90
     1024
 91
        1
280
     0
281
     0
  0
CLASS
  1
ACMBOMSTANDARDISO
  2
AcmBOMStdISO
  3
"Amdt_StdImp|Product Description: AutoCAD Mechanical|Company: Autodesk, Inc."
 90
     1024
 91
        1
280
     0
281
     0
  0
CLASS
  1
ACMDETAILSTANDARDISO
  2
AmdtDetailSymStdISO
  3
"Amdt_StdImp|Product Description: AutoCAD Mechanical|Company: Autodesk, Inc."
 90
     1024
 91
        1
280
     0
281
     0
  0
CLASS
  1
ACMSECTIONSTANDARDISO2001
  2
AmdtSectionSymStdISO2001
  3
"Amdt_StdImp|Product Description: AutoCAD Mechanical|Company: Autodesk, Inc."
 90
     1024
 91
        1
280
     0
281
     0
  0
CLASS
  1
ACMCENTERLINESTANDARDISO
  2
AmdtCenterLineStdISO
  3
"Amdt_StdImp|Product Description: AutoCAD Mechanical|Company: Autodesk, Inc."
 90
     1024
 91
        1
280
     0
281
     0
  0
CLASS
  1
ACMTHREADLINESTANDARDISO
  2
AmdtThreadLineStdISO
  3
"Amdt_StdImp|Product Description: AutoCAD Mechanical|Company: Autodesk, Inc."
 90
     1024
 91
        1
280
     0
281
     0
  0
CLASS
  1
ACMNOTESTANDARDISO
  2
AmdtNoteStdISO
  3
"Amdt_StdImp|Product Description: AutoCAD Mechanical|Company: Autodesk, Inc."
 90
     1024
 91
        1
280
     0
281
     0
  0
CLASS
  1
ACMTAPERSTANDARDISO
  2
AcmTaperStdISO
  3
"Amdt_StdImp|Product Description: AutoCAD Mechanical|Company: Autodesk, Inc."
 90
     1024
 91
        1
280
     0
281
     0
  0
CLASS
  1
ACMANOOTATIONVIEWSTANDARDISO
  2
AmdtAnViewStdISO
  3
"Amdt_StdImp|Product Description: AutoCAD Mechanical|Company: Autodesk, Inc."
 90
     1024
 91
        1
280
     0
281
     0
  0
CLASS
  1
ACAMGLAYSTD
  2
AcAmgLayStd
  3
"AmgLay|Product Description: AutoCAD Mechanical|Company: Autodesk, Inc."
 90
     1024
 91
        1
280
     0
281
     0
  0
CLASS
  1
ACAMGDIMSTD
  2
AcAmgDimStd
  3
"AmgDim|Product Description: AutoCAD Mechanical|Company: Autodesk, Inc."
 90
     1024
 91
        1
280
     0
281
     0
  0
CLASS
  1
AMGOBJPROPCFG
  2
AmgObjPropCfg
  3
"AmgLay|Product Description: AutoCAD Mechanical|Company: Autodesk, Inc."
 90
     1025
 91
        1
280
     0
281
     0
  0
CLASS
  1
ACAMGHOLECHARTSTDISO
  2
AcAmgHoleChartStdISO
  3
AmgDim|Product Description: AutoCAD Mechanical|Company: Autodesk, Inc.
 90
     1024
 91
        1
280
     0
281
     0
  0
CLASS
  1
ACAMGTITLESTD
  2
AcAmgTitleStd
  3
"AmgTitle|Product Description: AutoCAD Mechanical|Company: Autodesk, Inc."
 90
     4095
 91
        1
280
     0
281
     0
  0
CLASS
  1
AMDTNOTETEMPLATEDB
  2
AmdtNoteTemplateDB
  3
AcmSymBB|Product Description: AutoCAD Mechanical|Company: Autodesk, Inc.
 90
     1024
 91
        6
280
     0
281
     0
  0
CLASS
  1
ACAMGFILTERDAT
  2
AcAmgFilterDat
  3
"AcadM|Product Description: AutoCAD Mechanical|Company: Autodesk, Inc."
 90
     1024
 91
        6
280
     0
281
     0
  0
CLASS
  1
AEC_REFEDIT_STATUS_TRACKER
  2
AecDbRefEditStatusTracker
  3
AecArchBase60|Product Desc: Autodesk Architectural Desktop 2007 |Company: Autodesk,Inc. |WEB Address: www.autodesk.com
 90
      129
 91
        1
280
     0
281
     0
  0
CLASS
  1
NPOCOLLECTION
  2
AcDbImpNonPersistentObjectsCollection
  3
ObjectDBX Classes
 90
     1153
 91
        1
280
     0
281
     0
  0
ENDSEC
  0
SECTION
  2
TABLES
  0
TABLE
  2
VPORT
  5
8
102
{ACAD_XDICTIONARY
360
8E9
102
}
330
0
100
AcDbSymbolTable
 70
     1
  0
VPORT
  5
57
330
8
100
AcDbSymbolTableRecord
100
AcDbViewportTableRecord
  2
*Active
 70
     0
 10
0.0
 20
0.0
 11
1.0
 21
1.0
 12
178.9232863651164
 22
242.3869640529005
 13
0.0
 23
0.0
 14
1.0
 24
1.0
 15
0.0
 25
0.0
 16
0.0
 26
0.0
 36
1.0
 17
0.0
 27
0.0
 37
0.0
 40
412.7026030336764
 41
1.810226155358898
 42
50.0
 43
0.0
 44
0.0
 50
0.0
 51
0.0
 71
     0
 72
   100
 73
     1
 74
     1
 75
     0
 76
     0
 77
     0
 78
     0
281
     0
 65
     1
110
0.0
120
0.0
130
0.0
111
1.0
121
0.0
131
0.0
112
0.0
122
1.0
132
0.0
 79
     0
146
0.0
  0
ENDTAB
  0
TABLE
  2
LTYPE
  5
5
330
0
100
AcDbSymbolTable
 70
    15
  0
LTYPE
  5
5B
330
5
100
AcDbSymbolTableRecord
100
AcDbLinetypeTableRecord
  2
ByBlock
 70
     0
  3

 72
    65
 73
     0
 40
0.0
  0
LTYPE
  5
5C
330
5
100
AcDbSymbolTableRecord
100
AcDbLinetypeTableRecord
  2
ByLayer
 70
     0
  3

 72
    65
 73
     0
 40
0.0
  0
LTYPE
  5
5D
330
5
100
AcDbSymbolTableRecord
100
AcDbLinetypeTableRecord
  2
Continuous
 70
     0
  3
Solid line
 72
    65
 73
     0
 40
0.0
  0
LTYPE
  5
989
330
5
100
AcDbSymbolTableRecord
100
AcDbLinetypeTableRecord
  2
HIDDEN
 70
     0
  3
Skrytá __ __ __ __ __ __ __ __ __ __ __ __ __ __
 72
    65
 73
     2
 40
9.525
 49
6.349999999999999
 74
     0
 49
-3.174999999999999
 74
     0
  0
LTYPE
  5
98A
330
5
100
AcDbSymbolTableRecord
100
AcDbLinetypeTableRecord
  2
PHANTOM2
 70
     0
  3
Sdružená (.5x) ___ _ _ ___ _ _ ___ _ _ ___ _ _
 72
    65
 73
     6
 40
31.75
 49
15.875
 74
     0
 49
-3.174999999999999
 74
     0
 49
3.174999999999999
 74
     0
 49
-3.174999999999999
 74
     0
 49
3.174999999999999
 74
     0
 49
-3.174999999999999
 74
     0
  0
LTYPE
  5
98B
330
5
100
AcDbSymbolTableRecord
100
AcDbLinetypeTableRecord
  2
CENTER
 70
     0
  3
Středová ____ _ ____ _ ____ _ ____ _ ____ _ ____
 72
    65
 73
     4
 40
50.8
 49
31.75
 74
     0
 49
-6.349999999999999
 74
     0
 49
6.349999999999999
 74
     0
 49
-6.349999999999999
 74
     0
  0
LTYPE
  5
9D1
330
5
100
AcDbSymbolTableRecord
100
AcDbLinetypeTableRecord
  2
AM_ISO02W050
 70
     0
  3
__ __ __ __ __ __ __ __ __ __ __ __ __ __ __
 72
    65
 73
     2
 40
7.5
 49
6.0
 74
     0
 49
-1.5
 74
     0
  0
LTYPE
  5
9D2
330
5
100
AcDbSymbolTableRecord
100
AcDbLinetypeTableRecord
  2
AM_ISO08W050
 70
     0
  3
____ . ____ . ____ . ____ . ____ . ____ . ____
 72
    65
 73
     4
 40
18.0
 49
12.0
 74
     0
 49
-1.5
 74
     0
 49
3.0
 74
     0
 49
-1.5
 74
     0
  0
LTYPE
  5
9D3
330
5
100
AcDbSymbolTableRecord
100
AcDbLinetypeTableRecord
  2
AM_ISO09W050
 70
     0
  3
_____ . . _____ . . _____ . . ____ .. ____
 72
    65
 73
     6
 40
22.5
 49
12.0
 74
     0
 49
-1.5
 74
     0
 49
3.0
 74
     0
 49
-1.5
 74
     0
 49
3.0
 74
     0
 49
-1.5
 74
     0
  0
LTYPE
  5
9D4
330
5
100
AcDbSymbolTableRecord
100
AcDbLinetypeTableRecord
  2
Amconstr
 70
     0
  3
_______________________
 72
    65
 73
     2
 40
9999.0
 49
9999.0
 74
     0
 49
0.0
 74
     0
  0
LTYPE
  5
9D5
330
5
100
AcDbSymbolTableRecord
100
AcDbLinetypeTableRecord
  2
AM_ISO08W050x2
 70
     0
  3
__ . __ . __ . __ . __ . __
 72
    65
 73
     4
 40
9.0
 49
6.0
 74
     0
 49
-0.75
 74
     0
 49
1.5
 74
     0
 49
-0.75
 74
     0
  0
LTYPE
  5
9D6
330
5
100
AcDbSymbolTableRecord
100
AcDbLinetypeTableRecord
  2
AM_ISO02W050x2
 70
     0
  3
 _ _ _ _ _ _ _ _ _ _ _ _
 72
    65
 73
     2
 40
3.75
 49
3.0
 74
     0
 49
-0.75
 74
     0
  0
LTYPE
  5
9D9
330
5
100
AcDbSymbolTableRecord
100
AcDbLinetypeTableRecord
  2
Amzigzag
 70
     0
  3
/\/-/\/-/\/-/\/-/\/-/\/
 72
    65
 73
     2
 40
11.0001
 49
0.0001
 74
     4
 75
   136
340
9D8
 46
0.04
 50
0.0
 44
0.0
 45
0.0
 49
-11.0
 74
     0
  0
LTYPE
  5
9E8
330
5
100
AcDbSymbolTableRecord
100
AcDbLinetypeTableRecord
  2
ACISOWELD
 70
     0
  3
_ _ _ _ _
 72
    65
 73
     2
 40
2.0
 49
2.0
 74
     0
 49
-1.0
 74
     0
  0
LTYPE
  5
9E9
330
5
100
AcDbSymbolTableRecord
100
AcDbLinetypeTableRecord
  2
ACISOTGB
 70
     0
  3
__ . . __ . .
 72
    65
 73
     6
 40
9.0
 49
4.0
 74
     0
 49
-1.0
 74
     0
 49
1.0
 74
     0
 49
-1.0
 74
     0
 49
1.0
 74
     0
 49
-1.0
 74
     0
  0
LTYPE
  5
9EA
330
5
100
AcDbSymbolTableRecord
100
AcDbLinetypeTableRecord
  2
ACISOTGL
 70
     0
  3
_ _ _ _ _
 72
    65
 73
     2
 40
3.0
 49
2.0
 74
     0
 49
-1.0
 74
     0
  0
ENDTAB
  0
TABLE
  2
LAYER
  5
2
330
0
100
AcDbSymbolTable
 70
    15
  0
LAYER
  5
54
330
2
100
AcDbSymbolTableRecord
100
AcDbLayerTableRecord
  2
0
 70
     0
 62
     7
  6
Continuous
370
    -3
390
F
  0
LAYER
  5
78
330
2
100
AcDbSymbolTableRecord
100
AcDbLayerTableRecord
  2
Geometrie náčrtu (ISO)
 70
     0
 62
     7
  6
Continuous
370
     9
390
F
  0
LAYER
  5
79
330
2
100
AcDbSymbolTableRecord
100
AcDbLayerTableRecord
  2
KOPF
 70
     0
 62
     8
420
  8421504
  6
Continuous
370
     9
390
F
  0
LAYER
  5
7A
330
2
100
AcDbSymbolTableRecord
100
AcDbLayerTableRecord
  2
Kóta (ISO)
 70
     0
 62
     5
420
      255
  6
Continuous
370
     9
390
F
  0
LAYER
  5
7B
330
2
100
AcDbSymbolTableRecord
100
AcDbLayerTableRecord
  2
Nadpis (ISO)
 70
     0
 62
     7
  6
Continuous
370
    18
390
F
  0
LAYER
  5
7D
330
2
100
AcDbSymbolTableRecord
100
AcDbLayerTableRecord
  2
Osa (ISO)
 70
     0
 62
     1
420
 16711680
  6
Continuous
370
     9
390
F
  0
LAYER
  5
85
330
2
100
AcDbSymbolTableRecord
100
AcDbLayerTableRecord
  2
Rámeček (ISO)
 70
     0
 62
     7
  6
Continuous
370
    35
390
F
  0
LAYER
  5
88
330
2
100
AcDbSymbolTableRecord
100
AcDbLayerTableRecord
  2
Skrytá (ISO)
 70
     0
 62
   142
420
    32960
  6
Continuous
370
     9
390
F
  0
LAYER
  5
89
330
2
100
AcDbSymbolTableRecord
100
AcDbLayerTableRecord
  2
Středová značka (ISO)
 70
     0
 62
     1
420
 16711680
  6
Continuous
370
     9
390
F
  0
LAYER
  5
8B
330
2
100
AcDbSymbolTableRecord
100
AcDbLayerTableRecord
  2
TEXT35
 70
     0
 62
    12
420
 13369344
  6
Continuous
370
    20
390
F
  0
LAYER
  5
8C
330
2
100
AcDbSymbolTableRecord
100
AcDbLayerTableRecord
  2
TEXT50
 70
     0
 62
     7
  6
Continuous
370
    20
390
F
  0
LAYER
  5
8D
330
2
100
AcDbSymbolTableRecord
100
AcDbLayerTableRecord
  2
Viditelná (ISO)
 70
     0
 62
     7
  6
Continuous
370
    35
390
F
  0
LAYER
  5
8E
330
2
100
AcDbSymbolTableRecord
100
AcDbLayerTableRecord
  2
Viditelná tenká (ISO)
 70
     0
 62
     7
  6
Continuous
370
     9
390
F
  0
LAYER
  5
8F
330
2
100
AcDbSymbolTableRecord
100
AcDbLayerTableRecord
  2
Značka (ISO)
 70
     0
 62
     5
420
      255
  6
Continuous
370
     9
390
F
  0
LAYER
  5
562
330
2
100
AcDbSymbolTableRecord
100
AcDbLayerTableRecord
  2
Defpoints
 70
     0
 62
     7
  6
Continuous
290
     0
370
    -3
390
F
  0
ENDTAB
  0
TABLE
  2
STYLE
  5
3
330
0
100
AcDbSymbolTable
 70
    21
  0
STYLE
  5
55
330
3
100
AcDbSymbolTableRecord
100
AcDbTextStyleTableRecord
  2
Standard
 70
     0
 40
0.0
 41
1.0
 50
0.0
 71
     0
 42
0.2
  3
TAHOMA.TTF
  4

1001
ACAD
1000
Tahoma
1071
      256
  0
STYLE
  5
5A
330
3
100
AcDbSymbolTableRecord
100
AcDbTextStyleTableRecord
  2
Annotative
 70
     0
 40
0.0
 41
1.0
 50
0.0
 71
     0
 42
0.2
  3
txt
  4

1001
AcadAnnotative
1000
AnnotativeData
1002
{
1070
     1
1070
     1
1002
}
  0
STYLE
  5
90
330
3
100
AcDbSymbolTableRecord
100
AcDbTextStyleTableRecord
  2
ITALICC8_57
 70
     0
 40
0.0
 41
1.0
 50
0.0
 71
     0
 42
0.2
  3
TAHOMA.TTF
  4

1001
ACAD
1000
Tahoma
1071
      256
  0
STYLE
  5
91
330
3
100
AcDbSymbolTableRecord
100
AcDbTextStyleTableRecord
  2
kusovnik
 70
     0
 40
0.0
 41
1.0
 50
0.0
 71
     0
 42
0.2
  3
ARIAL.TTF
  4

1001
ACAD
1000
Arial
1071
      256
  0
STYLE
  5
92
330
3
100
AcDbSymbolTableRecord
100
AcDbTextStyleTableRecord
  2
ROMANS8_69
 70
     0
 40
0.0
 41
1.0
 50
0.0
 71
     0
 42
0.2
  3
TAHOMA.TTF
  4

1001
ACAD
1000
Tahoma
1071
      256
  0
STYLE
  5
93
330
3
100
AcDbSymbolTableRecord
100
AcDbTextStyleTableRecord
  2
Text popisu (ISO)
 70
     0
 40
0.0
 41
1.0
 50
0.0
 71
     0
 42
0.2
  3
TAHOMA.TTF
  4

1001
ACAD
1000
Tahoma
1071
      256
  0
STYLE
  5
94
330
3
100
AcDbSymbolTableRecord
100
AcDbTextStyleTableRecord
  2
Text poznámky (DIN)
 70
     0
 40
0.0
 41
1.0
 50
0.0
 71
     0
 42
0.2
  3
isocpeur.ttf
  4

1001
ACAD
1000
ISOCPEUR
1071
      256
  0
STYLE
  5
95
330
3
100
AcDbSymbolTableRecord
100
AcDbTextStyleTableRecord
  2
Text poznámky (ISO)
 70
     0
 40
0.0
 41
1.0
 50
0.0
 71
     0
 42
0.2
  3
TAHOMA.TTF
  4

1001
ACAD
1000
Tahoma
1071
      256
  0
STYLE
  5
96
330
3
100
AcDbSymbolTableRecord
100
AcDbTextStyleTableRecord
  2
TEXT20_41
 70
     0
 40
0.0
 41
1.0
 50
0.0
 71
     0
 42
0.2
  3
TAHOMA.TTF
  4

1001
ACAD
1000
Tahoma
1071
      256
  0
STYLE
  5
97
330
3
100
AcDbSymbolTableRecord
100
AcDbTextStyleTableRecord
  2
TEXT20_59
 70
     0
 40
0.0
 41
1.0
 50
0.0
 71
     0
 42
0.2
  3
TAHOMA.TTF
  4

1001
ACAD
1000
Tahoma
1071
      256
  0
STYLE
  5
1C1
330
3
100
AcDbSymbolTableRecord
100
AcDbTextStyleTableRecord
  2
Styl textu62
 70
     0
 40
0.0
 41
0.8000000119209289
 50
0.0
 71
     0
 42
0.2
  3
TAHOMA.TTF
  4

1001
ACAD
1000
Tahoma
1071
      256
  0
STYLE
  5
1C8
330
3
100
AcDbSymbolTableRecord
100
AcDbTextStyleTableRecord
  2
Styl textu58
 70
     0
 40
0.0
 41
0.8000000119209289
 50
0.0
 71
     0
 42
0.2
  3
TAHOMA.TTF
  4

1001
ACAD
1000
Tahoma
1071
      256
  0
STYLE
  5
1CA
330
3
100
AcDbSymbolTableRecord
100
AcDbTextStyleTableRecord
  2
Styl textu63
 70
     0
 40
0.0
 41
0.75
 50
0.0
 71
     0
 42
0.2
  3
TAHOMA.TTF
  4

1001
ACAD
1000
Tahoma
1071
      256
  0
STYLE
  5
1CD
330
3
100
AcDbSymbolTableRecord
100
AcDbTextStyleTableRecord
  2
Styl textu72
 70
     0
 40
0.0
 41
0.6999999880790711
 50
0.0
 71
     0
 42
0.2
  3
TAHOMA.TTF
  4

1001
ACAD
1000
Tahoma
1071
      256
  0
STYLE
  5
1D0
330
3
100
AcDbSymbolTableRecord
100
AcDbTextStyleTableRecord
  2
Styl textu75
 70
     0
 40
0.0
 41
0.8000000119209289
 50
0.0
 71
     0
 42
0.2
  3
TAHOMA.TTF
  4

1001
ACAD
1000
Tahoma
1071
      256
  0
STYLE
  5
1E7
330
3
100
AcDbSymbolTableRecord
100
AcDbTextStyleTableRecord
  2
Styl textu9
 70
     0
 40
0.0
 41
1.0
 50
0.0
 71
     0
 42
0.2
  3
ARIAL.TTF
  4

1001
ACAD
1000
Arial
1071
      256
  0
STYLE
  5
1EB
330
3
100
AcDbSymbolTableRecord
100
AcDbTextStyleTableRecord
  2
Styl textu40
 70
     0
 40
0.0
 41
1.0
 50
0.0
 71
     0
 42
0.2
  3
ARIAL.TTF
  4

1001
ACAD
1000
Arial
1071
      256
  0
STYLE
  5
1F0
330
3
100
AcDbSymbolTableRecord
100
AcDbTextStyleTableRecord
  2
Styl textu94
 70
     0
 40
0.0
 41
1.0
 50
0.0
 71
     0
 42
0.2
  3
TAHOMA.TTF
  4

1001
ACAD
1000
Tahoma
1071
      256
  0
STYLE
  5
9D8
330
3
100
AcDbSymbolTableRecord
100
AcDbTextStyleTableRecord
  2

 70
     1
 40
0.0
 41
1.0
 50
0.0
 71
     0
 42
0.2
  3
genltshp.shx
  4

  0
STYLE
  5
9E6
330
3
100
AcDbSymbolTableRecord
100
AcDbTextStyleTableRecord
  2
ACISOTS
 70
     0
 40
1.0
 41
1.0
 50
0.0
 71
     0
 42
0.2
  3
isocp.shx
  4

  0
STYLE
  5
9E7
330
3
100
AcDbSymbolTableRecord
100
AcDbTextStyleTableRecord
  2
ACISOGDT
 70
     0
 40
0.0
 41
1.0
 50
0.0
 71
     0
 42
0.2
  3
amgdt.shx
  4

  0
ENDTAB
  0
TABLE
  2
VIEW
  5
6
330
0
100
AcDbSymbolTable
 70
     0
  0
ENDTAB
  0
TABLE
  2
UCS
  5
7
330
0
100
AcDbSymbolTable
 70
     0
  0
ENDTAB
  0
TABLE
  2
APPID
  5
9
330
0
100
AcDbSymbolTable
 70
    21
  0
APPID
  5
56
330
9
100
AcDbSymbolTableRecord
100
AcDbRegAppTableRecord
  2
ACAD
 70
     0
  0
APPID
  5
5E
330
9
100
AcDbSymbolTableRecord
100
AcDbRegAppTableRecord
  2
AcadAnnotative
 70
     0
  0
APPID
  5
1EA
330
9
100
AcDbSymbolTableRecord
100
AcDbRegAppTableRecord
  2
AcadAnnoPO
 70
     0
  0
APPID
  5
7C5
330
9
100
AcDbSymbolTableRecord
100
AcDbRegAppTableRecord
  2
ACAD_DSTYLE_DIMRADIAL_EXTENSION
 70
     0
  0
APPID
  5
91F
330
9
100
AcDbSymbolTableRecord
100
AcDbRegAppTableRecord
  2
ACAD_MLEADERVER
 70
     0
  0
APPID
  5
95C
330
9
100
AcDbSymbolTableRecord
100
AcDbRegAppTableRecord
  2
MCAD_NO_VIS
 70
     0
  0
APPID
  5
95D
330
9
100
AcDbSymbolTableRecord
100
AcDbRegAppTableRecord
  2
ACAD_TEMP_GRAPHIC
 70
     0
  0
APPID
  5
98D
330
9
100
AcDbSymbolTableRecord
100
AcDbRegAppTableRecord
  2
AD_DRAW
 70
     0
  0
APPID
  5
990
330
9
100
AcDbSymbolTableRecord
100
AcDbRegAppTableRecord
  2
ACATTRIBSERVICES
 70
     0
  0
APPID
  5
9B0
330
9
100
AcDbSymbolTableRecord
100
AcDbRegAppTableRecord
  2
DESIGNERASSEMBLIES
 70
     0
  0
APPID
  5
9B6
330
9
100
AcDbSymbolTableRecord
100
AcDbRegAppTableRecord
  2
ACADM_DIM_EDIT
 70
     0
  0
APPID
  5
9B7
330
9
100
AcDbSymbolTableRecord
100
AcDbRegAppTableRecord
  2
AMDT_DM_ADJ
 70
     0
  0
APPID
  5
9CE
330
9
100
AcDbSymbolTableRecord
100
AcDbRegAppTableRecord
  2
ACAD_DSTYLE_DIMJAG
 70
     0
  0
APPID
  5
9CF
330
9
100
AcDbSymbolTableRecord
100
AcDbRegAppTableRecord
  2
ACAD_DSTYLE_DIMBREAK
 70
     0
  0
APPID
  5
A22
330
9
100
AcDbSymbolTableRecord
100
AcDbRegAppTableRecord
  2
ACAD_DSTYLE_DIMINSPECT
 70
     0
  0
APPID
  5
CFF
330
9
100
AcDbSymbolTableRecord
100
AcDbRegAppTableRecord
  2
GENIUS_GENDTOL_13
 70
     0
  0
APPID
  5
D12
330
9
100
AcDbSymbolTableRecord
100
AcDbRegAppTableRecord
  2
ACAD_EXEMPT_FROM_CAD_STANDARDS
 70
     0
  0
APPID
  5
D56
330
9
100
AcDbSymbolTableRecord
100
AcDbRegAppTableRecord
  2
ACAD_DSTYLE_DIMARC_LENGTH_SYMBOL
 70
     0
  0
APPID
  5
D57
330
9
100
AcDbSymbolTableRecord
100
AcDbRegAppTableRecord
  2
ACAD_DSTYLE_DIM_LINETYPE
 70
     0
  0
APPID
  5
D58
330
9
100
AcDbSymbolTableRecord
100
AcDbRegAppTableRecord
  2
ACAD_DSTYLE_DIM_EXT1_LINETYPE
 70
     0
  0
APPID
  5
D59
330
9
100
AcDbSymbolTableRecord
100
AcDbRegAppTableRecord
  2
ACAD_DSTYLE_DIM_EXT2_LINETYPE
 70
     0
  0
ENDTAB
  0
TABLE
  2
DIMSTYLE
  5
A
330
0
100
AcDbSymbolTable
 70
    24
100
AcDbDimStyleTable
 71
     2
340
58
340
B0
  0
DIMSTYLE
105
58
330
A
100
AcDbSymbolTableRecord
100
AcDbDimStyleTableRecord
  2
Standard
 70
     0
340
55
  0
DIMSTYLE
105
59
330
A
100
AcDbSymbolTableRecord
100
AcDbDimStyleTableRecord
  2
Annotative
 70
     0
340
55
1001
AcadAnnotative
1000
AnnotativeData
1002
{
1070
     1
1070
     1
1002
}
  0
DIMSTYLE
105
A6
330
A
100
AcDbSymbolTableRecord
100
AcDbDimStyleTableRecord
  2
Různé objekty (ISO)
 70
     0
 40
1.199999999999999
 41
2.5
 42
0.0
 43
5.999999999999999
 44
1.0
 45
0.00000001
 46
10.0
 73
     0
 74
     0
 77
     1
 78
     8
 79
     2
140
5.25
143
0.03937
146
0.6676571709769112
147
0.762
171
     3
172
     1
176
   256
177
   256
178
   256
179
     2
271
     2
272
     2
274
     3
278
    44
284
     8
340
93
341
98
371
    -1
372
    -1
  0
DIMSTYLE
105
A7
330
A
100
AcDbSymbolTableRecord
100
AcDbDimStyleTableRecord
  2
Různé objekty (ISO)$7
 70
     0
 40
1.199999999999999
 41
5.0
 42
0.0
 43
5.999999999999999
 44
1.0
 45
0.00000001
 46
10.0
 73
     0
 74
     0
 77
     1
 78
     8
 79
     2
140
5.25
143
0.03937
146
0.6676571709769112
147
0.762
171
     3
172
     1
176
   256
177
   256
178
   256
179
     2
271
     2
272
     2
274
     3
278
    44
284
     8
340
93
341
98
371
    25
372
    -1
  0
DIMSTYLE
105
A8
330
A
100
AcDbSymbolTableRecord
100
AcDbDimStyleTableRecord
  2
Výchozí - Metoda 1b (ISO)
 70
     0
 40
1.199999999999999
 41
2.5
 42
0.0
 43
5.999999999999999
 44
1.0
 45
0.00000001
 46
10.0
 73
     0
 77
     1
 78
     8
 79
     2
140
3.5
143
0.03937
147
0.762
171
     3
172
     1
176
   256
177
   256
178
   256
179
     2
271
     2
272
     2
274
     3
278
    44
284
     8
286
     8
340
95
371
    -1
372
    -1
  0
DIMSTYLE
105
A9
330
A
100
AcDbSymbolTableRecord
100
AcDbDimStyleTableRecord
  2
Výchozí - Metoda 1b (ISO)$7
 70
     0
 40
1.199999999999999
 41
2.5
 42
0.0
 43
5.999999999999999
 44
1.0
 45
0.00000001
 46
10.0
 73
     0
 77
     1
 78
     8
 79
     2
140
3.5
143
0.03937
147
0.762
171
     3
172
     1
176
   256
177
   256
178
   256
179
     2
271
     2
272
     2
274
     3
278
    44
284
     8
286
     8
340
95
371
    -1
372
    -1
  0
DIMSTYLE
105
AA
330
A
100
AcDbSymbolTableRecord
100
AcDbDimStyleTableRecord
  2
Výchozí - Metoda 2a (ISO)
 70
     0
 40
1.199999999999999
 41
2.5
 42
0.0
 43
5.999999999999999
 44
1.0
 45
0.00000001
 46
10.0
 77
     1
 78
     8
 79
     2
140
3.5
143
0.03937
147
0.762
171
     3
172
     1
176
   256
177
   256
178
   256
179
     2
271
     2
272
     2
274
     3
278
    44
284
     8
286
     8
340
95
371
    -1
372
    -1
  0
DIMSTYLE
105
AB
330
A
100
AcDbSymbolTableRecord
100
AcDbDimStyleTableRecord
  2
Výchozí - Metoda 2a (ISO)$7
 70
     0
 40
1.199999999999999
 41
2.5
 42
0.0
 43
5.999999999999999
 44
1.0
 45
0.00000001
 46
10.0
 77
     1
 78
     8
 79
     2
140
3.5
143
0.03937
147
0.762
171
     3
172
     1
176
   256
177
   256
178
   256
179
     2
271
     2
272
     2
274
     3
278
    44
284
     8
286
     8
340
95
371
    -1
372
    -1
  0
DIMSTYLE
105
AC
330
A
100
AcDbSymbolTableRecord
100
AcDbDimStyleTableRecord
  2
Výchozí - Metoda 2b (ISO)
 70
     0
 40
1.199999999999999
 41
2.5
 42
0.0
 43
5.999999999999999
 44
1.0
 45
0.00000001
 46
10.0
 77
     1
 78
     8
 79
     2
140
3.5
143
0.03937
147
0.762
171
     3
172
     1
176
   256
177
   256
178
   256
179
     2
271
     2
272
     2
274
     3
278
    44
284
     8
286
     8
340
95
371
    -1
372
    -1
  0
DIMSTYLE
105
AD
330
A
100
AcDbSymbolTableRecord
100
AcDbDimStyleTableRecord
  2
Výchozí - Metoda 2b (ISO)$7
 70
     0
 40
1.199999999999999
 41
2.5
 42
0.0
 43
5.999999999999999
 44
1.0
 45
0.00000001
 46
10.0
 77
     1
 78
     8
 79
     2
140
3.5
143
0.03937
147
0.762
171
     3
172
     1
176
   256
177
   256
178
   256
179
     2
271
     2
272
     2
274
     3
278
    44
284
     8
286
     8
340
95
371
    -1
372
    -1
  0
DIMSTYLE
105
AE
330
A
100
AcDbSymbolTableRecord
100
AcDbDimStyleTableRecord
  2
Výchozí - mm [palce] (ISO)
 70
     0
  4
 in
 40
1.199999999999999
 41
2.5
 42
0.0
 43
5.999999999999999
 44
3.174999999999999
 45
0.00000001
 46
10.0
 73
     0
 74
     0
 77
     1
 78
     8
 79
     2
140
3.5
143
0.03937
147
0.762
170
     1
171
     3
172
     1
176
   256
177
   256
178
   256
179
     3
271
     3
272
     2
274
     3
275
     1
278
    44
284
     8
285
     8
286
     8
340
95
371
    -1
372
    -1
  0
DIMSTYLE
105
AF
330
A
100
AcDbSymbolTableRecord
100
AcDbDimStyleTableRecord
  2
Výchozí - mm [palce] (ISO)$7
 70
     0
  4
 in
 40
1.199999999999999
 41
2.5
 42
0.0
 43
5.999999999999999
 44
3.174999999999999
 45
0.00000001
 46
10.0
 73
     0
 74
     0
 77
     1
 78
     8
 79
     2
140
3.5
143
0.03937
147
0.762
170
     1
171
     3
172
     1
176
   256
177
   256
178
   256
179
     3
271
     3
272
     2
274
     3
275
     1
278
    44
284
     8
285
     8
286
     8
340
95
371
    -1
372
    -1
  0
DIMSTYLE
105
B0
102
{ACAD_REACTORS
330
561
330
64F
102
}
330
A
100
AcDbSymbolTableRecord
100
AcDbDimStyleTableRecord
  2
Výchozí (ISO)
 70
     0
 40
1.199999999999999
 41
2.5
 42
0.0
 43
5.999999999999999
 44
1.0
 45
0.00000001
 46
10.0
 73
     0
 74
     0
 77
     1
 78
     8
 79
     2
140
3.5
143
0.03937
146
1.001485756465366
147
0.762
171
     3
172
     1
176
   256
177
   256
178
   256
179
     2
271
     2
272
     2
274
     3
278
    44
284
     8
340
95
371
    -1
372
    -1
  0
DIMSTYLE
105
B1
330
A
100
AcDbSymbolTableRecord
100
AcDbDimStyleTableRecord
  2
Výchozí (ISO)$7
 70
     0
 40
1.199999999999999
 41
2.5
 42
0.0
 43
5.999999999999999
 44
1.0
 45
0.00000001
 46
10.0
 73
     0
 74
     0
 77
     1
 78
     8
 79
     2
140
3.5
143
0.03937
146
1.001485756465366
147
0.762
171
     3
172
     1
176
   256
177
   256
178
   256
179
     2
271
     2
272
     2
274
     3
278
    44
284
     8
340
95
371
    -1
372
    -1
  0
DIMSTYLE
105
B2
330
A
100
AcDbSymbolTableRecord
100
AcDbDimStyleTableRecord
  2
Alternativní (ISO)
 70
     0
 40
1.199999999999999
 41
2.5
340
55
342
B3
  0
DIMSTYLE
105
C4
330
A
100
AcDbSymbolTableRecord
100
AcDbDimStyleTableRecord
  2
Základny (ISO)
 70
     0
 40
1.199999999999999
 41
2.5
340
55
342
B3
  0
DIMSTYLE
105
9CD
102
{ACAD_REACTORS
330
9BC
102
}
330
A
100
AcDbSymbolTableRecord
100
AcDbDimStyleTableRecord
  2
AM_ISO
 70
     0
  4
"
 41
3.5
 42
1.0
 43
10.0
 44
1.0
 47
0.1
 48
0.1
 73
     0
 74
     0
 77
     1
 78
     8
 79
     2
140
3.5
141
0.0
143
0.0393701
146
0.71
147
1.5
172
     1
176
   256
177
   256
178
     2
271
     2
272
     3
274
     4
283
     0
284
     8
340
55
371
    -1
372
    -1
1001
ACAD_DSTYLE_DIMJAG
1070
   388
1040
1.5
1001
ACAD_DSTYLE_DIMBREAK
1070
   391
1040
3.75
1001
ACAD_DSTYLE_DIMARC_LENGTH_SYMBOL
1070
   379
1070
     1
1001
ACAD_DSTYLE_DIM_LINETYPE
1070
   380
1005
5B
1001
ACAD_DSTYLE_DIM_EXT1_LINETYPE
1070
   381
1005
5B
1001
ACAD_DSTYLE_DIM_EXT2_LINETYPE
1070
   382
1005
5B
  0
DIMSTYLE
105
9DA
330
A
100
AcDbSymbolTableRecord
100
AcDbDimStyleTableRecord
  2
AM_ISO$3
 70
     0
  4
"
 41
3.5
 42
1.0
 43
10.0
 44
1.0
 47
0.1
 48
0.1
 73
     0
 77
     1
 78
     8
 79
     2
140
3.5
141
0.0
143
0.0393701
146
0.71
147
1.5
176
   256
177
   256
178
     2
271
     2
272
     3
274
     4
283
     0
284
     8
288
     1
289
     0
340
55
371
    -1
372
    -1
1001
ACAD_DSTYLE_DIMBREAK
1070
   391
1040
3.75
1001
ACAD_DSTYLE_DIMJAG
1070
   388
1040
1.5
1001
ACAD_DSTYLE_DIMARC_LENGTH_SYMBOL
1070
   379
1070
     1
1001
ACAD_DSTYLE_DIM_LINETYPE
1070
   380
1005
5B
1001
ACAD_DSTYLE_DIM_EXT1_LINETYPE
1070
   381
1005
5B
1001
ACAD_DSTYLE_DIM_EXT2_LINETYPE
1070
   382
1005
5B
  0
DIMSTYLE
105
9DB
330
A
100
AcDbSymbolTableRecord
100
AcDbDimStyleTableRecord
  2
AM_ISO$4
 70
     0
  4
"
 41
3.5
 42
1.0
 43
10.0
 44
1.0
 47
0.1
 48
0.1
 73
     0
 77
     1
 78
     8
 79
     2
140
3.5
141
0.0
143
0.0393701
146
0.71
147
1.5
176
   256
177
   256
178
     2
271
     2
272
     3
274
     4
283
     0
284
     8
288
     1
289
     0
340
55
371
    -1
372
    -1
1001
ACAD_DSTYLE_DIMBREAK
1070
   391
1040
3.75
1001
ACAD_DSTYLE_DIMJAG
1070
   388
1040
1.5
1001
ACAD_DSTYLE_DIMARC_LENGTH_SYMBOL
1070
   379
1070
     1
1001
ACAD_DSTYLE_DIM_LINETYPE
1070
   380
1005
5B
1001
ACAD_DSTYLE_DIM_EXT1_LINETYPE
1070
   381
1005
5B
1001
ACAD_DSTYLE_DIM_EXT2_LINETYPE
1070
   382
1005
5B
  0
DIMSTYLE
105
9DC
330
A
100
AcDbSymbolTableRecord
100
AcDbDimStyleTableRecord
  2
AM_ISO$6
 70
     0
  4
"
 41
3.5
 42
1.0
 43
10.0
 44
1.0
 47
0.1
 48
0.1
 73
     0
 74
     0
 78
     8
 79
     2
140
3.5
141
0.0
143
0.0393701
146
0.71
147
1.5
172
     1
176
   256
177
   256
178
     2
271
     2
272
     3
274
     4
283
     0
284
     8
340
55
371
    -1
372
    -1
1001
ACAD_DSTYLE_DIMBREAK
1070
   391
1040
3.75
1001
ACAD_DSTYLE_DIMJAG
1070
   388
1040
1.5
1001
ACAD_DSTYLE_DIMARC_LENGTH_SYMBOL
1070
   379
1070
     1
1001
ACAD_DSTYLE_DIM_LINETYPE
1070
   380
1005
5B
1001
ACAD_DSTYLE_DIM_EXT1_LINETYPE
1070
   381
1005
5B
1001
ACAD_DSTYLE_DIM_EXT2_LINETYPE
1070
   382
1005
5B
  0
DIMSTYLE
105
9DD
330
A
100
AcDbSymbolTableRecord
100
AcDbDimStyleTableRecord
  2
AM_ISO$7
 70
     0
  4
"
 41
3.5
 42
1.0
 43
10.0
 44
1.0
 47
0.1
 48
0.1
 73
     0
 74
     0
 77
     1
 78
     8
 79
     2
140
3.5
141
0.0
143
0.0393701
146
0.71
147
1.5
172
     1
176
   256
177
   256
178
     2
271
     2
272
     3
274
     4
283
     0
284
     8
340
55
371
    -1
372
    -1
1001
ACAD_DSTYLE_DIMBREAK
1070
   391
1040
3.75
1001
ACAD_DSTYLE_DIMJAG
1070
   388
1040
1.5
1001
ACAD_DSTYLE_DIMARC_LENGTH_SYMBOL
1070
   379
1070
     1
1001
ACAD_DSTYLE_DIM_LINETYPE
1070
   380
1005
5B
1001
ACAD_DSTYLE_DIM_EXT1_LINETYPE
1070
   381
1005
5B
1001
ACAD_DSTYLE_DIM_EXT2_LINETYPE
1070
   382
1005
5B
  0
DIMSTYLE
105
9DE
330
A
100
AcDbSymbolTableRecord
100
AcDbDimStyleTableRecord
  2
AM_ISO$SF
 70
     0
  4
"
 41
3.5
 42
1.0
 43
10.0
 44
1.0
 47
0.1
 48
0.1
 73
     0
 74
     0
 75
     1
 76
     1
 77
     1
 78
     8
 79
     2
140
3.5
141
0.0
143
0.0393701
146
0.71
147
1.5
172
     1
176
   256
177
   256
178
     2
271
     2
272
     3
274
     4
283
     0
284
     8
340
55
371
    -1
372
    -1
1001
ACAD_DSTYLE_DIMBREAK
1070
   391
1040
3.75
1001
ACAD_DSTYLE_DIMJAG
1070
   388
1040
1.5
1001
ACAD_DSTYLE_DIMARC_LENGTH_SYMBOL
1070
   379
1070
     1
1001
ACAD_DSTYLE_DIM_LINETYPE
1070
   380
1005
5B
1001
ACAD_DSTYLE_DIM_EXT1_LINETYPE
1070
   381
1005
5B
1001
ACAD_DSTYLE_DIM_EXT2_LINETYPE
1070
   382
1005
5B
  0
DIMSTYLE
105
9E3
330
A
100
AcDbSymbolTableRecord
100
AcDbDimStyleTableRecord
  2
AM_ISO$SH
 70
     0
  4
"
 41
3.5
 42
1.0
 43
10.0
 44
1.0
 47
0.1
 48
0.1
 73
     0
 74
     0
 75
     1
 76
     1
 77
     1
 78
     8
 79
     2
140
3.5
141
0.0
143
0.0393701
144
2.0
146
0.71
147
1.5
172
     1
173
     1
176
   256
177
   256
178
     2
271
     2
272
     3
274
     4
283
     0
284
     8
340
55
343
9DF
371
    -1
372
    -1
1001
ACAD_DSTYLE_DIMBREAK
1070
   391
1040
3.75
1001
ACAD_DSTYLE_DIMJAG
1070
   388
1040
1.5
1001
ACAD_DSTYLE_DIMARC_LENGTH_SYMBOL
1070
   379
1070
     1
1001
ACAD_DSTYLE_DIM_LINETYPE
1070
   380
1005
5B
1001
ACAD_DSTYLE_DIM_EXT1_LINETYPE
1070
   381
1005
5B
1001
ACAD_DSTYLE_DIM_EXT2_LINETYPE
1070
   382
1005
5B
  0
ENDTAB
  0
TABLE
  2
BLOCK_RECORD
  5
1
330
0
100
AcDbSymbolTable
 70
    38
  0
BLOCK_RECORD
  5
6C
330
1
100
AcDbSymbolTableRecord
100
AcDbBlockTableRecord
  2
*Model_Space
340
6F
  0
BLOCK_RECORD
  5
68
330
1
100
AcDbSymbolTableRecord
100
AcDbBlockTableRecord
  2
*Paper_Space
340
6B
  0
BLOCK_RECORD
  5
70
330
1
100
AcDbSymbolTableRecord
100
AcDbBlockTableRecord
  2
*Paper_Space0
340
73
  0
BLOCK_RECORD
  5
98
330
1
100
AcDbSymbolTableRecord
100
AcDbBlockTableRecord
  2
Filled-1
340
0
  0
BLOCK_RECORD
  5
B3
330
1
100
AcDbSymbolTableRecord
100
AcDbBlockTableRecord
  2
_Closed
340
0
  0
BLOCK_RECORD
  5
BA
330
1
100
AcDbSymbolTableRecord
100
AcDbBlockTableRecord
  2
DatumFilled45
340
0
  0
BLOCK_RECORD
  5
C5
330
1
100
AcDbSymbolTableRecord
100
AcDbBlockTableRecord
  2
WIG-svarovani
340
0
  0
BLOCK_RECORD
  5
CA
330
1
100
AcDbSymbolTableRecord
100
AcDbBlockTableRecord
  2
Popis kotvy_srouby
340
0
  0
BLOCK_RECORD
  5
CE
330
1
100
AcDbSymbolTableRecord
100
AcDbBlockTableRecord
  2
Mater. provedeni Art.
340
0
  0
BLOCK_RECORD
  5
F0
330
1
100
AcDbSymbolTableRecord
100
AcDbBlockTableRecord
  2
Art. s popisy
340
0
  0
BLOCK_RECORD
  5
112
330
1
100
AcDbSymbolTableRecord
100
AcDbBlockTableRecord
  2
Tryskat
340
0
  0
BLOCK_RECORD
  5
116
330
1
100
AcDbSymbolTableRecord
100
AcDbBlockTableRecord
  2
Morit
340
0
  0
BLOCK_RECORD
  5
11A
330
1
100
AcDbSymbolTableRecord
100
AcDbBlockTableRecord
  2
zinkovat
340
0
  0
BLOCK_RECORD
  5
11E
330
1
100
AcDbSymbolTableRecord
100
AcDbBlockTableRecord
  2
Nater
340
0
  0
BLOCK_RECORD
  5
122
330
1
100
AcDbSymbolTableRecord
100
AcDbBlockTableRecord
  2
Brus
340
0
  0
BLOCK_RECORD
  5
126
330
1
100
AcDbSymbolTableRecord
100
AcDbBlockTableRecord
  2
Elektroliticky lestit
340
0
  0
BLOCK_RECORD
  5
12B
330
1
100
AcDbSymbolTableRecord
100
AcDbBlockTableRecord
  2
Rámečky Default Border
340
0
  0
BLOCK_RECORD
  5
182
330
1
100
AcDbSymbolTableRecord
100
AcDbBlockTableRecord
  2
Rohová razítka ACO-razitko
340
0
  0
BLOCK_RECORD
  5
563
330
1
100
AcDbSymbolTableRecord
100
AcDbBlockTableRecord
  2
*D16
340
0
  0
BLOCK_RECORD
  5
650
330
1
100
AcDbSymbolTableRecord
100
AcDbBlockTableRecord
  2
*D17
340
0
  0
BLOCK_RECORD
  5
72D
330
1
100
AcDbSymbolTableRecord
100
AcDbBlockTableRecord
  2
*D18
340
0
  0
BLOCK_RECORD
  5
7D4
330
1
100
AcDbSymbolTableRecord
100
AcDbBlockTableRecord
  2
Pozice1
340
0
  0
BLOCK_RECORD
  5
7E6
330
1
100
AcDbSymbolTableRecord
100
AcDbBlockTableRecord
  2
KUSOVNÍK
340
0
  0
BLOCK_RECORD
  5
847
330
1
100
AcDbSymbolTableRecord
100
AcDbBlockTableRecord
  2
Pozice2
340
0
  0
BLOCK_RECORD
  5
859
330
1
100
AcDbSymbolTableRecord
100
AcDbBlockTableRecord
  2
Pozice3
340
0
  0
BLOCK_RECORD
  5
86B
330
1
100
AcDbSymbolTableRecord
100
AcDbBlockTableRecord
  2
Pozice4
340
0
  0
BLOCK_RECORD
  5
87E
330
1
100
AcDbSymbolTableRecord
100
AcDbBlockTableRecord
  2
Pozice5
340
0
  0
BLOCK_RECORD
  5
898
330
1
100
AcDbSymbolTableRecord
100
AcDbBlockTableRecord
  2
Identifikátor značky svaru1
340
0
  0
BLOCK_RECORD
  5
9DF
330
1
100
AcDbSymbolTableRecord
100
AcDbBlockTableRecord
  2
GENAXEH
340
0
  0
BLOCK_RECORD
  5
9F2
330
1
100
AcDbSymbolTableRecord
100
AcDbBlockTableRecord
  2
*D28
340
0
  0
BLOCK_RECORD
  5
9FE
330
1
100
AcDbSymbolTableRecord
100
AcDbBlockTableRecord
  2
*D29
340
0
  0
BLOCK_RECORD
  5
A0A
330
1
100
AcDbSymbolTableRecord
100
AcDbBlockTableRecord
  2
*D30
340
0
  0
BLOCK_RECORD
  5
A16
330
1
100
AcDbSymbolTableRecord
100
AcDbBlockTableRecord
  2
*D31
340
0
  0
BLOCK_RECORD
  5
C87
330
1
100
AcDbSymbolTableRecord
100
AcDbBlockTableRecord
  2
*D33
340
0
  0
BLOCK_RECORD
  5
C93
330
1
100
AcDbSymbolTableRecord
100
AcDbBlockTableRecord
  2
*D34
340
0
  0
BLOCK_RECORD
  5
C9F
330
1
100
AcDbSymbolTableRecord
100
AcDbBlockTableRecord
  2
*D35
340
0
  0
BLOCK_RECORD
  5
CAB
330
1
100
AcDbSymbolTableRecord
100
AcDbBlockTableRecord
  2
*D36
340
0
  0
ENDTAB
  0
ENDSEC
  0
SECTION
  2
BLOCKS
  0
BLOCK
  5
6D
330
6C
100
AcDbEntity
  8
0
100
AcDbBlockBegin
  2
*Model_Space
 70
     0
 10
0.0
 20
0.0
 30
0.0
  3
*Model_Space
  1

  0
ENDBLK
  5
6E
330
6C
100
AcDbEntity
  8
0
100
AcDbBlockEnd
  0
BLOCK
  5
69
330
68
100
AcDbEntity
 67
     1
  8
0
100
AcDbBlockBegin
  2
*Paper_Space
 70
     0
 10
0.0
 20
0.0
 30
0.0
  3
*Paper_Space
  1

  0
ENDBLK
  5
6A
330
68
100
AcDbEntity
 67
     1
  8
0
100
AcDbBlockEnd
  0
BLOCK
  5
71
330
70
100
AcDbEntity
 67
     1
  8
0
100
AcDbBlockBegin
  2
*Paper_Space0
 70
     0
 10
0.0
 20
0.0
 30
0.0
  3
*Paper_Space0
  1

  0
ENDBLK
  5
72
330
70
100
AcDbEntity
 67
     1
  8
0
100
AcDbBlockEnd
  0
BLOCK
  5
99
330
98
100
AcDbEntity
  8
0
100
AcDbBlockBegin
  2
Filled-1
 70
     0
 10
0.0
 20
0.0
 30
0.0
  3
Filled-1
  1

  0
LINE
  5
9B
330
98
100
AcDbEntity
  8
0
 62
     0
100
AcDbLine
 10
-1.0
 20
0.0
 30
0.0
 11
0.0
 21
0.0
 31
0.0
  0
POLYLINE
  5
9C
330
98
100
AcDbEntity
  8
0
 62
     0
100
AcDb2dPolyline
 66
     1
 10
0.0
 20
0.0
 30
0.0
 70
   128
  0
VERTEX
  5
9D
330
9C
100
AcDbEntity
  8
0
 62
     0
100
AcDbVertex
100
AcDb2dVertex
 10
-1.0
 20
-0.1
 30
0.0
  0
VERTEX
  5
9E
330
9C
100
AcDbEntity
  8
0
 62
     0
100
AcDbVertex
100
AcDb2dVertex
 10
0.0
 20
0.0
 30
0.0
  0
VERTEX
  5
A0
330
9C
100
AcDbEntity
  8
0
 62
     0
100
AcDbVertex
100
AcDb2dVertex
 10
-1.0
 20
0.1
 30
0.0
  0
VERTEX
  5
A1
330
9C
100
AcDbEntity
  8
0
 62
     0
100
AcDbVertex
100
AcDb2dVertex
 10
-1.0
 20
-0.1
 30
0.0
  0
SEQEND
  5
9F
330
9C
100
AcDbEntity
  8
0
 62
     0
  0
SOLID
  5
A2
330
98
100
AcDbEntity
  8
0
 62
     0
100
AcDbTrace
 10
-1.0
 20
-0.1
 30
0.0
 11
0.0
 21
0.0
 31
0.0
 12
-1.0
 22
0.1
 32
0.0
 13
-1.0
 23
-0.1
 33
0.0
  0
LINE
  5
A3
330
98
100
AcDbEntity
  8
0
 62
     0
100
AcDbLine
 10
-1.0
 20
-0.1
 30
0.0
 11
0.0
 21
0.0
 31
0.0
  0
LINE
  5
A4
330
98
100
AcDbEntity
  8
0
 62
     0
100
AcDbLine
 10
0.0
 20
0.0
 30
0.0
 11
-1.0
 21
0.1
 31
0.0
  0
LINE
  5
A5
330
98
100
AcDbEntity
  8
0
 62
     0
100
AcDbLine
 10
-1.0
 20
0.1
 30
0.0
 11
-1.0
 21
-0.1
 31
0.0
  0
ENDBLK
  5
9A
330
98
100
AcDbEntity
  8
0
100
AcDbBlockEnd
  0
BLOCK
  5
B8
330
B3
100
AcDbEntity
  8
0
100
AcDbBlockBegin
  2
_Closed
 70
     0
 10
0.0
 20
0.0
 30
0.0
  3
_Closed
  1

  0
LINE
  5
B4
330
B3
100
AcDbEntity
  8
0
  6
ByBlock
 62
     0
370
    -2
100
AcDbLine
 10
-1.0
 20
0.1666666666666666
 30
0.0
 11
0.0
 21
0.0
 31
0.0
  0
LINE
  5
B5
330
B3
100
AcDbEntity
  8
0
  6
ByBlock
 62
     0
370
    -2
100
AcDbLine
 10
0.0
 20
0.0
 30
0.0
 11
-1.0
 21
-0.1666666666666666
 31
0.0
  0
LINE
  5
B6
330
B3
100
AcDbEntity
  8
0
  6
ByBlock
 62
     0
370
    -2
100
AcDbLine
 10
-1.0
 20
0.1666666666666666
 30
0.0
 11
-1.0
 21
-0.1666666666666666
 31
0.0
  0
LINE
  5
B7
330
B3
100
AcDbEntity
  8
0
  6
ByBlock
 62
     0
370
    -2
100
AcDbLine
 10
0.0
 20
0.0
 30
0.0
 11
-1.0
 21
0.0
 31
0.0
  0
ENDBLK
  5
B9
330
B3
100
AcDbEntity
  8
0
100
AcDbBlockEnd
  0
BLOCK
  5
BB
330
BA
100
AcDbEntity
  8
0
100
AcDbBlockBegin
  2
DatumFilled45
 70
     0
 10
0.0
 20
0.0
 30
0.0
  3
DatumFilled45
  1

  0
POLYLINE
  5
BD
330
BA
100
AcDbEntity
  8
0
 62
     0
100
AcDb2dPolyline
 66
     1
 10
0.0
 20
0.0
 30
0.0
 70
   128
  0
VERTEX
  5
BE
330
BD
100
AcDbEntity
  8
0
 62
     0
100
AcDbVertex
100
AcDb2dVertex
 10
0.0
 20
1.0
 30
0.0
  0
VERTEX
  5
BF
330
BD
100
AcDbEntity
  8
0
 62
     0
100
AcDbVertex
100
AcDb2dVertex
 10
0.0
 20
-1.0
 30
0.0
  0
VERTEX
  5
C1
330
BD
100
AcDbEntity
  8
0
 62
     0
100
AcDbVertex
100
AcDb2dVertex
 10
-1.0
 20
0.0
 30
0.0
  0
VERTEX
  5
C2
330
BD
100
AcDbEntity
  8
0
 62
     0
100
AcDbVertex
100
AcDb2dVertex
 10
0.0
 20
1.0
 30
0.0
  0
SEQEND
  5
C0
330
BD
100
AcDbEntity
  8
0
 62
     0
  0
SOLID
  5
C3
330
BA
100
AcDbEntity
  8
0
 62
     0
100
AcDbTrace
 10
0.0
 20
1.0
 30
0.0
 11
0.0
 21
-1.0
 31
0.0
 12
-1.0
 22
0.0
 32
0.0
 13
0.0
 23
1.0
 33
0.0
  0
ENDBLK
  5
BC
330
BA
100
AcDbEntity
  8
0
100
AcDbBlockEnd
  0
BLOCK
  5
C6
330
C5
100
AcDbEntity
  8
0
100
AcDbBlockBegin
  2
WIG-svarovani
 70
     0
 10
0.0
 20
0.0
 30
0.0
  3
WIG-svarovani
  1

  0
MTEXT
  5
C8
102
{ACAD_XDICTIONARY
360
D1B
102
}
330
C5
100
AcDbEntity
  8
Značka (ISO)
100
AcDbMText
 10
-57.87338256835937
 20
16.31795931607484
 30
0.0
 40
3.499999940395355
 41
115.7467651367187
 71
     1
 72
     1
  1
WIG Schweisung, Nahte sauber geschliffen und poliert\PSichtstege geschliffen mit 240 Korn und abgeklebt.\P{\H0.85714x; \P\H1.1667x;WIG svarovani- svary dle potreby zabrousit.\PPohledove plochy brousit (vel. brusnych zrn 240)\Pa polepit paskou}
  7
Text poznámky (ISO)
 73
     1
 44
0.959658920764923
  0
ENDBLK
  5
C7
330
C5
100
AcDbEntity
  8
0
100
AcDbBlockEnd
  0
BLOCK
  5
CB
330
CA
100
AcDbEntity
  8
0
100
AcDbBlockBegin
  2
Popis kotvy_srouby
 70
     0
 10
0.0
 20
0.0
 30
0.0
  3
Popis kotvy_srouby
  1

  0
MTEXT
  5
CD
330
CA
100
AcDbEntity
  8
Značka (ISO)
100
AcDbMText
 10
-39.79761123657226
 20
21.84130281209946
 30
0.0
 40
3.499999940395355
 41
0.0
 71
     1
 72
     1
  1
Vzdalenost nivel. sroubu ca. 1500\PVzdalenost kotev ca. 400\PVzdalenost dist. koliku ca. 250\P\PAbstand der Nivellieschraben ca.1500\PAbstand der Maueranker ca.400\PAbstand der Distanzstege ca.250\P
  7
Text poznámky (ISO)
 73
     2
 44
0.9878841638565063
  0
ENDBLK
  5
CC
330
CA
100
AcDbEntity
  8
0
100
AcDbBlockEnd
  0
BLOCK
  5
CF
330
CE
100
AcDbEntity
  8
0
100
AcDbBlockBegin
  2
Mater. provedeni Art.
 70
     0
 10
0.0
 20
0.0
 30
0.0
  3
Mater. provedeni Art.
  1

  0
LINE
  5
D1
330
CE
100
AcDbEntity
  8
Geometrie náčrtu (ISO)
100
AcDbLine
 10
-35.0
 20
-22.5
 30
0.0
 11
35.0
 21
-22.5
 31
0.0
  0
LINE
  5
D2
330
CE
100
AcDbEntity
  8
Geometrie náčrtu (ISO)
100
AcDbLine
 10
35.0
 20
-22.5
 30
0.0
 11
34.99999999999996
 21
-13.49999999999998
 31
0.0
  0
LINE
  5
D3
330
CE
100
AcDbEntity
  8
Geometrie náčrtu (ISO)
100
AcDbLine
 10
34.99999999999996
 20
-13.49999999999998
 30
0.0
 11
-35.00000000000003
 21
-13.49999999999998
 31
0.0
  0
LINE
  5
D4
330
CE
100
AcDbEntity
  8
Geometrie náčrtu (ISO)
100
AcDbLine
 10
-35.00000000000003
 20
-13.49999999999998
 30
0.0
 11
-35.0
 21
-22.5
 31
0.0
  0
LINE
  5
D5
330
CE
100
AcDbEntity
  8
Geometrie náčrtu (ISO)
100
AcDbLine
 10
-35.00000000000003
 20
-13.49999999999998
 30
0.0
 11
34.99999999999996
 21
-13.49999999999998
 31
0.0
  0
LINE
  5
D6
330
CE
100
AcDbEntity
  8
Geometrie náčrtu (ISO)
100
AcDbLine
 10
34.99999999999996
 20
-13.49999999999998
 30
0.0
 11
34.99999999999996
 21
-4.499999999999992
 31
0.0
  0
LINE
  5
D7
330
CE
100
AcDbEntity
  8
Geometrie náčrtu (ISO)
100
AcDbLine
 10
34.99999999999996
 20
-4.499999999999992
 30
0.0
 11
-35.00000000000003
 21
-4.499999999999992
 31
0.0
  0
LINE
  5
D8
330
CE
100
AcDbEntity
  8
Geometrie náčrtu (ISO)
100
AcDbLine
 10
-35.00000000000003
 20
-4.499999999999992
 30
0.0
 11
-35.00000000000003
 21
-13.49999999999998
 31
0.0
  0
LINE
  5
D9
330
CE
100
AcDbEntity
  8
Geometrie náčrtu (ISO)
100
AcDbLine
 10
-35.00000000000003
 20
-4.499999999999992
 30
0.0
 11
34.99999999999996
 21
-4.499999999999992
 31
0.0
  0
LINE
  5
DA
330
CE
100
AcDbEntity
  8
Geometrie náčrtu (ISO)
100
AcDbLine
 10
34.99999999999996
 20
-4.499999999999992
 30
0.0
 11
34.99999999999996
 21
4.499999999999992
 31
0.0
  0
LINE
  5
DB
330
CE
100
AcDbEntity
  8
Geometrie náčrtu (ISO)
100
AcDbLine
 10
34.99999999999996
 20
4.499999999999992
 30
0.0
 11
-35.00000000000003
 21
4.499999999999992
 31
0.0
  0
LINE
  5
DC
330
CE
100
AcDbEntity
  8
Geometrie náčrtu (ISO)
100
AcDbLine
 10
-35.00000000000003
 20
4.499999999999992
 30
0.0
 11
-35.00000000000003
 21
-4.499999999999992
 31
0.0
  0
LINE
  5
DD
330
CE
100
AcDbEntity
  8
Geometrie náčrtu (ISO)
100
AcDbLine
 10
-35.00000000000003
 20
4.499999999999992
 30
0.0
 11
34.99999999999996
 21
4.499999999999992
 31
0.0
  0
LINE
  5
DE
330
CE
100
AcDbEntity
  8
Geometrie náčrtu (ISO)
100
AcDbLine
 10
34.99999999999996
 20
4.499999999999992
 30
0.0
 11
34.99999999999996
 21
13.50000000000001
 31
0.0
  0
LINE
  5
DF
330
CE
100
AcDbEntity
  8
Geometrie náčrtu (ISO)
100
AcDbLine
 10
34.99999999999996
 20
13.50000000000001
 30
0.0
 11
-35.00000000000003
 21
13.50000000000001
 31
0.0
  0
LINE
  5
E0
330
CE
100
AcDbEntity
  8
Geometrie náčrtu (ISO)
100
AcDbLine
 10
-35.00000000000003
 20
13.50000000000001
 30
0.0
 11
-35.00000000000003
 21
4.499999999999992
 31
0.0
  0
LINE
  5
E1
330
CE
100
AcDbEntity
  8
Geometrie náčrtu (ISO)
100
AcDbLine
 10
-35.00000000000003
 20
13.50000000000001
 30
0.0
 11
34.99999999999996
 21
13.50000000000001
 31
0.0
  0
LINE
  5
E2
330
CE
100
AcDbEntity
  8
Geometrie náčrtu (ISO)
100
AcDbLine
 10
34.99999999999996
 20
13.50000000000001
 30
0.0
 11
34.99999999999996
 21
22.5
 31
0.0
  0
LINE
  5
E3
330
CE
100
AcDbEntity
  8
Geometrie náčrtu (ISO)
100
AcDbLine
 10
34.99999999999996
 20
22.5
 30
0.0
 11
-35.00000000000003
 21
22.5
 31
0.0
  0
LINE
  5
E4
330
CE
100
AcDbEntity
  8
Geometrie náčrtu (ISO)
100
AcDbLine
 10
-35.00000000000003
 20
22.5
 30
0.0
 11
-35.00000000000003
 21
13.50000000000001
 31
0.0
  0
LINE
  5
E5
330
CE
100
AcDbEntity
  8
Geometrie náčrtu (ISO)
100
AcDbLine
 10
-6.999999999999992
 20
22.5
 30
0.0
 11
-6.999999999999992
 21
-22.5
 31
0.0
  0
MTEXT
  5
E6
330
CE
100
AcDbEntity
  8
Značka (ISO)
100
AcDbMText
 10
-5.126613448311374
 20
11.7684641726084
 30
0.0
 40
5.0
 41
0.0
 71
     1
 72
     1
  1
\fTahoma|b0|i0;\H5.0000;xxxxxxxxxxx
  7
Text poznámky (ISO)
 73
     1
 44
1.0
  0
MTEXT
  5
E7
330
CE
100
AcDbEntity
  8
Značka (ISO)
100
AcDbMText
 10
-33.0130165251342
 20
11.7684641726084
 30
0.0
 40
5.0
 41
20.42139291763306
 71
     1
 72
     1
  1
\fTahoma|b0|i0;\H5.0000;xxxxxx
  7
Text poznámky (ISO)
 73
     1
 44
1.0
  0
MTEXT
  5
E8
330
CE
100
AcDbEntity
  8
Značka (ISO)
100
AcDbMText
 10
-32.07756235018873
 20
20.30710993714994
 30
0.0
 40
5.0
 41
13.92583036716939
 71
     1
 72
     1
  1
\fTahoma|b0|i0;\H5.0000;Art.
  7
Text poznámky (ISO)
 73
     1
 44
1.0
  0
MTEXT
  5
E9
330
CE
100
AcDbEntity
  8
Značka (ISO)
100
AcDbMText
 10
4.291672002492319
 20
20.30710993714994
 30
0.0
 40
5.0
 41
0.0
 71
     1
 72
     1
  1
\fTahoma|b0|i0;\H5.0000;Mat.
  7
Text poznámky (ISO)
 73
     1
 44
1.0
  0
MTEXT
  5
EA
330
CE
100
AcDbEntity
  8
Značka (ISO)
100
AcDbMText
 10
-33.0130165251342
 20
2.473781856899819
 30
0.0
 40
5.0
 41
20.42139291763306
 71
     1
 72
     1
  1
\fTahoma|b0|i0;\H5.0000;xxxxxx
  7
Text poznámky (ISO)
 73
     1
 44
1.0
  0
MTEXT
  5
EB
330
CE
100
AcDbEntity
  8
Značka (ISO)
100
AcDbMText
 10
-5.126613448311374
 20
2.473781856899819
 30
0.0
 40
5.0
 41
0.0
 71
     1
 72
     1
  1
\fTahoma|b0|i0;\H5.0000;xxxxxxxxxxx
  7
Text poznámky (ISO)
 73
     1
 44
1.0
  0
MTEXT
  5
EC
330
CE
100
AcDbEntity
  8
Značka (ISO)
100
AcDbMText
 10
-33.0130165251342
 20
-6.862452441171491
 30
0.0
 40
5.0
 41
20.42139291763306
 71
     1
 72
     1
  1
\fTahoma|b0|i0;\H5.0000;xxxxxx
  7
Text poznámky (ISO)
 73
     1
 44
1.0
  0
MTEXT
  5
ED
330
CE
100
AcDbEntity
  8
Značka (ISO)
100
AcDbMText
 10
-5.126613448311374
 20
-6.862452441171491
 30
0.0
 40
5.0
 41
0.0
 71
     1
 72
     1
  1
\fTahoma|b0|i0;\H5.0000;xxxxxxxxxxx
  7
Text poznámky (ISO)
 73
     1
 44
1.0
  0
MTEXT
  5
EE
330
CE
100
AcDbEntity
  8
Značka (ISO)
100
AcDbMText
 10
-33.0130165251342
 20
-15.52177565039578
 30
0.0
 40
5.0
 41
20.42139291763306
 71
     1
 72
     1
  1
\fTahoma|b0|i0;\H5.0000;xxxxxx
  7
Text poznámky (ISO)
 73
     1
 44
1.0
  0
MTEXT
  5
EF
330
CE
100
AcDbEntity
  8
Značka (ISO)
100
AcDbMText
 10
-5.126613448311374
 20
-15.52177565039578
 30
0.0
 40
5.0
 41
0.0
 71
     1
 72
     1
  1
\fTahoma|b0|i0;\H5.0000;xxxxxxxxxxx
  7
Text poznámky (ISO)
 73
     1
 44
1.0
  0
ENDBLK
  5
D0
330
CE
100
AcDbEntity
  8
0
100
AcDbBlockEnd
  0
BLOCK
  5
F1
330
F0
100
AcDbEntity
  8
0
100
AcDbBlockBegin
  2
Art. s popisy
 70
     0
 10
0.0
 20
0.0
 30
0.0
  3
Art. s popisy
  1

  0
LINE
  5
F3
330
F0
100
AcDbEntity
  8
Geometrie náčrtu (ISO)
100
AcDbLine
 10
-60.00000000000081
 20
-22.5
 30
0.0
 11
59.99999999999911
 21
-22.5
 31
0.0
  0
LINE
  5
F4
330
F0
100
AcDbEntity
  8
Geometrie náčrtu (ISO)
100
AcDbLine
 10
59.99999999999911
 20
-22.5
 30
0.0
 11
60.00000000000081
 21
-13.50000000000001
 31
0.0
  0
LINE
  5
F5
330
F0
100
AcDbEntity
  8
Geometrie náčrtu (ISO)
100
AcDbLine
 10
60.00000000000081
 20
-13.50000000000001
 30
0.0
 11
-60.00000000000081
 21
-13.49999999999998
 31
0.0
  0
LINE
  5
F6
330
F0
100
AcDbEntity
  8
Geometrie náčrtu (ISO)
100
AcDbLine
 10
-60.00000000000081
 20
-13.49999999999998
 30
0.0
 11
-60.00000000000081
 21
-22.5
 31
0.0
  0
LINE
  5
F7
330
F0
100
AcDbEntity
  8
Geometrie náčrtu (ISO)
100
AcDbLine
 10
-60.00000000000081
 20
-13.49999999999998
 30
0.0
 11
60.00000000000081
 21
-13.50000000000001
 31
0.0
  0
LINE
  5
F8
330
F0
100
AcDbEntity
  8
Geometrie náčrtu (ISO)
100
AcDbLine
 10
60.00000000000081
 20
-13.50000000000001
 30
0.0
 11
59.99999999999911
 21
-4.500000000000028
 31
0.0
  0
LINE
  5
F9
330
F0
100
AcDbEntity
  8
Geometrie náčrtu (ISO)
100
AcDbLine
 10
59.99999999999911
 20
-4.500000000000028
 30
0.0
 11
-60.00000000000081
 21
-4.499999999999992
 31
0.0
  0
LINE
  5
FA
330
F0
100
AcDbEntity
  8
Geometrie náčrtu (ISO)
100
AcDbLine
 10
-60.00000000000081
 20
-4.499999999999992
 30
0.0
 11
-60.00000000000081
 21
-13.49999999999998
 31
0.0
  0
LINE
  5
FB
330
F0
100
AcDbEntity
  8
Geometrie náčrtu (ISO)
100
AcDbLine
 10
-60.00000000000081
 20
-4.499999999999992
 30
0.0
 11
59.99999999999911
 21
-4.500000000000028
 31
0.0
  0
LINE
  5
FC
330
F0
100
AcDbEntity
  8
Geometrie náčrtu (ISO)
100
AcDbLine
 10
59.99999999999911
 20
-4.500000000000028
 30
0.0
 11
59.99999999999911
 21
4.499999999999957
 31
0.0
  0
LINE
  5
FD
330
F0
100
AcDbEntity
  8
Geometrie náčrtu (ISO)
100
AcDbLine
 10
59.99999999999911
 20
4.499999999999957
 30
0.0
 11
-60.00000000000081
 21
4.499999999999992
 31
0.0
  0
LINE
  5
FE
330
F0
100
AcDbEntity
  8
Geometrie náčrtu (ISO)
100
AcDbLine
 10
-60.00000000000081
 20
4.499999999999992
 30
0.0
 11
-60.00000000000081
 21
-4.499999999999992
 31
0.0
  0
LINE
  5
FF
330
F0
100
AcDbEntity
  8
Geometrie náčrtu (ISO)
100
AcDbLine
 10
-60.00000000000081
 20
4.499999999999992
 30
0.0
 11
59.99999999999911
 21
4.499999999999957
 31
0.0
  0
LINE
  5
100
330
F0
100
AcDbEntity
  8
Geometrie náčrtu (ISO)
100
AcDbLine
 10
59.99999999999911
 20
4.499999999999957
 30
0.0
 11
59.99999999999911
 21
13.49999999999998
 31
0.0
  0
LINE
  5
101
330
F0
100
AcDbEntity
  8
Geometrie náčrtu (ISO)
100
AcDbLine
 10
59.99999999999911
 20
13.49999999999998
 30
0.0
 11
-60.00000000000081
 21
13.50000000000001
 31
0.0
  0
LINE
  5
102
330
F0
100
AcDbEntity
  8
Geometrie náčrtu (ISO)
100
AcDbLine
 10
-60.00000000000081
 20
13.50000000000001
 30
0.0
 11
-60.00000000000081
 21
4.499999999999992
 31
0.0
  0
LINE
  5
103
330
F0
100
AcDbEntity
  8
Geometrie náčrtu (ISO)
100
AcDbLine
 10
-60.00000000000081
 20
13.50000000000001
 30
0.0
 11
59.99999999999911
 21
13.49999999999998
 31
0.0
  0
LINE
  5
104
330
F0
100
AcDbEntity
  8
Geometrie náčrtu (ISO)
100
AcDbLine
 10
59.99999999999911
 20
13.49999999999998
 30
0.0
 11
59.99999999999911
 21
22.49999999999996
 31
0.0
  0
LINE
  5
105
330
F0
100
AcDbEntity
  8
Geometrie náčrtu (ISO)
100
AcDbLine
 10
59.99999999999911
 20
22.49999999999996
 30
0.0
 11
-60.00000000000081
 21
22.5
 31
0.0
  0
LINE
  5
106
330
F0
100
AcDbEntity
  8
Geometrie náčrtu (ISO)
100
AcDbLine
 10
-60.00000000000081
 20
22.5
 30
0.0
 11
-60.00000000000081
 21
13.50000000000001
 31
0.0
  0
LINE
  5
107
330
F0
100
AcDbEntity
  8
Geometrie náčrtu (ISO)
100
AcDbLine
 10
-32.00000000000081
 20
22.5
 30
0.0
 11
-32.00000000000081
 21
-22.5
 31
0.0
  0
MTEXT
  5
108
330
F0
100
AcDbEntity
  8
Značka (ISO)
100
AcDbMText
 10
-27.63552601875791
 20
11.7684641726084
 30
0.0
 40
5.0
 41
0.0
 71
     1
 72
     1
  1
\fTahoma|b0|i0;\H5.0000;xxxxxxxxxxx
  7
Text poznámky (ISO)
 73
     1
 44
1.0
  0
MTEXT
  5
109
330
F0
100
AcDbEntity
  8
Značka (ISO)
100
AcDbMText
 10
-55.52192909558073
 20
11.7684641726084
 30
0.0
 40
5.0
 41
20.42139291763306
 71
     1
 72
     1
  1
\fTahoma|b0|i0;\H5.0000;xxxxxx
  7
Text poznámky (ISO)
 73
     1
 44
1.0
  0
MTEXT
  5
10A
330
F0
100
AcDbEntity
  8
Značka (ISO)
100
AcDbMText
 10
-54.58647492063526
 20
20.30710993714994
 30
0.0
 40
5.0
 41
13.92583036716939
 71
     1
 72
     1
  1
\fTahoma|b0|i0;\H5.0000;Art.
  7
Text poznámky (ISO)
 73
     1
 44
1.0
  0
MTEXT
  5
10B
330
F0
100
AcDbEntity
  8
Značka (ISO)
100
AcDbMText
 10
-18.21724056795421
 20
20.30710993714994
 30
0.0
 40
5.0
 41
0.0
 71
     1
 72
     1
  1
\fTahoma|b0|i0;\H5.0000;Popis.
  7
Text poznámky (ISO)
 73
     1
 44
1.0
  0
MTEXT
  5
10C
330
F0
100
AcDbEntity
  8
Značka (ISO)
100
AcDbMText
 10
-55.52192909558073
 20
2.473781856899819
 30
0.0
 40
5.0
 41
20.42139291763306
 71
     1
 72
     1
  1
\fTahoma|b0|i0;\H5.0000;xxxxxx
  7
Text poznámky (ISO)
 73
     1
 44
1.0
  0
MTEXT
  5
10D
330
F0
100
AcDbEntity
  8
Značka (ISO)
100
AcDbMText
 10
-27.63552601875791
 20
2.473781856899819
 30
0.0
 40
5.0
 41
0.0
 71
     1
 72
     1
  1
\fTahoma|b0|i0;\H5.0000;xxxxxxxxxxx
  7
Text poznámky (ISO)
 73
     1
 44
1.0
  0
MTEXT
  5
10E
330
F0
100
AcDbEntity
  8
Značka (ISO)
100
AcDbMText
 10
-55.52192909558073
 20
-6.862452441171491
 30
0.0
 40
5.0
 41
20.42139291763306
 71
     1
 72
     1
  1
\fTahoma|b0|i0;\H5.0000;xxxxxx
  7
Text poznámky (ISO)
 73
     1
 44
1.0
  0
MTEXT
  5
10F
330
F0
100
AcDbEntity
  8
Značka (ISO)
100
AcDbMText
 10
-27.63552601875791
 20
-6.862452441171491
 30
0.0
 40
5.0
 41
0.0
 71
     1
 72
     1
  1
\fTahoma|b0|i0;\H5.0000;xxxxxxxxxxx
  7
Text poznámky (ISO)
 73
     1
 44
1.0
  0
MTEXT
  5
110
330
F0
100
AcDbEntity
  8
Značka (ISO)
100
AcDbMText
 10
-55.52192909558073
 20
-15.52177565039578
 30
0.0
 40
5.0
 41
20.42139291763306
 71
     1
 72
     1
  1
\fTahoma|b0|i0;\H5.0000;xxxxxx
  7
Text poznámky (ISO)
 73
     1
 44
1.0
  0
MTEXT
  5
111
330
F0
100
AcDbEntity
  8
Značka (ISO)
100
AcDbMText
 10
-27.63552601875791
 20
-15.52177565039578
 30
0.0
 40
5.0
 41
0.0
 71
     1
 72
     1
  1
\fTahoma|b0|i0;\H5.0000;xxxxxxxxxxx
  7
Text poznámky (ISO)
 73
     1
 44
1.0
  0
ENDBLK
  5
F2
330
F0
100
AcDbEntity
  8
0
100
AcDbBlockEnd
  0
BLOCK
  5
113
330
112
100
AcDbEntity
  8
0
100
AcDbBlockBegin
  2
Tryskat
 70
     0
 10
0.0
 20
0.0
 30
0.0
  3
Tryskat
  1

  0
MTEXT
  5
115
330
112
100
AcDbEntity
  8
Značka (ISO)
100
AcDbMText
 10
-30.20239114761352
 20
5.036920197308063
 30
0.0
 40
3.499999940395355
 41
0.0
 71
     1
 72
     1
  1
Tryskat \P( Blasted , Glasperlstrahken)
  7
Text poznámky (ISO)
 73
     2
 44
0.9878841638565063
  0
ENDBLK
  5
114
330
112
100
AcDbEntity
  8
0
100
AcDbBlockEnd
  0
BLOCK
  5
117
330
116
100
AcDbEntity
  8
0
100
AcDbBlockBegin
  2
Morit
 70
     0
 10
0.0
 20
0.0
 30
0.0
  3
Morit
  1

  0
MTEXT
  5
119
330
116
100
AcDbEntity
  8
Značka (ISO)
100
AcDbMText
 10
-19.08124089241028
 20
5.11633675545454
 30
0.0
 40
3.499999940395355
 41
0.0
 71
     1
 72
     1
  1
Morit a pasivovat\P(Pickled, gebeitzt)
  7
Text poznámky (ISO)
 73
     2
 44
0.9878841638565063
  0
ENDBLK
  5
118
330
116
100
AcDbEntity
  8
0
100
AcDbBlockEnd
  0
BLOCK
  5
11B
330
11A
100
AcDbEntity
  8
0
100
AcDbBlockBegin
  2
zinkovat
 70
     0
 10
0.0
 20
0.0
 30
0.0
  3
zinkovat
  1

  0
MTEXT
  5
11D
330
11A
100
AcDbEntity
  8
Značka (ISO)
100
AcDbMText
 10
-27.74189710617065
 20
5.049683563411235
 30
0.0
 40
3.499999940395355
 41
0.0
 71
     1
 72
     1
  1
Zarove zinkovat\P(hot galvanized, verzinkt )
  7
Text poznámky (ISO)
 73
     2
 44
0.9878841638565063
  0
ENDBLK
  5
11C
330
11A
100
AcDbEntity
  8
0
100
AcDbBlockEnd
  0
BLOCK
  5
11F
330
11E
100
AcDbEntity
  8
0
100
AcDbBlockBegin
  2
Nater
 70
     0
 10
0.0
 20
0.0
 30
0.0
  3
Nater
  1

  0
MTEXT
  5
121
330
11E
100
AcDbEntity
  8
Značka (ISO)
100
AcDbMText
 10
-25.88411808013916
 20
1.864870421122759
 30
0.0
 40
3.499999940395355
 41
0.0
 71
     1
 72
     1
  1
Lackiert Farbe RAL 5002
  7
Text poznámky (ISO)
 73
     1
 44
1.0
  0
ENDBLK
  5
120
330
11E
100
AcDbEntity
  8
0
100
AcDbBlockEnd
  0
BLOCK
  5
123
330
122
100
AcDbEntity
  8
0
100
AcDbBlockBegin
  2
Brus
 70
     0
 10
0.0
 20
0.0
 30
0.0
  3
Brus
  1

  0
MTEXT
  5
125
330
122
100
AcDbEntity
  8
Značka (ISO)
100
AcDbMText
 10
-23.46616744995117
 20
5.11633675545454
 30
0.0
 40
3.499999940395355
 41
0.0
 71
     1
 72
     1
  1
Brousit\P(geburstet , brushed )
  7
Text poznámky (ISO)
 73
     2
 44
0.9878841638565063
  0
ENDBLK
  5
124
330
122
100
AcDbEntity
  8
0
100
AcDbBlockEnd
  0
BLOCK
  5
127
330
126
100
AcDbEntity
  8
0
100
AcDbBlockBegin
  2
Elektroliticky lestit
 70
     0
 10
0.0
 20
0.0
 30
0.0
  3
Elektroliticky lestit
  1

  0
MTEXT
  5
129
330
126
100
AcDbEntity
  8
Značka (ISO)
100
AcDbMText
 10
-18.68841171264648
 20
5.036920197308063
 30
0.0
 40
3.499999940395355
 41
0.0
 71
     1
 72
     1
  1
Elektrolit. lestit\P(Elektropolished )
  7
Text poznámky (ISO)
 73
     2
 44
0.9878841638565063
  0
ENDBLK
  5
128
330
126
100
AcDbEntity
  8
0
100
AcDbBlockEnd
  0
BLOCK
  5
12C
330
12B
100
AcDbEntity
  8
0
100
AcDbBlockBegin
  2
Rámečky Default Border
 70
     0
 10
0.0
 20
0.0
 30
0.0
  3
Rámečky Default Border
  1

  0
POLYLINE
  5
12E
330
12B
100
AcDbEntity
  8
Rámeček (ISO)
100
AcDb2dPolyline
 66
     1
 10
0.0
 20
0.0
 30
0.0
 70
   128
  0
VERTEX
  5
12F
330
12E
100
AcDbEntity
  8
Rámeček (ISO)
100
AcDbVertex
100
AcDb2dVertex
 10
10.0
 20
10.0
 30
0.0
  0
VERTEX
  5
130
330
12E
100
AcDbEntity
  8
Rámeček (ISO)
100
AcDbVertex
100
AcDb2dVertex
 10
10.0
 20
410.0
 30
0.0
  0
VERTEX
  5
132
330
12E
100
AcDbEntity
  8
Rámeček (ISO)
100
AcDbVertex
100
AcDb2dVertex
 10
584.000015258789
 20
410.0
 30
0.0
  0
VERTEX
  5
133
330
12E
100
AcDbEntity
  8
Rámeček (ISO)
100
AcDbVertex
100
AcDb2dVertex
 10
584.000015258789
 20
10.0
 30
0.0
  0
VERTEX
  5
134
330
12E
100
AcDbEntity
  8
Rámeček (ISO)
100
AcDbVertex
100
AcDb2dVertex
 10
10.0
 20
10.0
 30
0.0
  0
SEQEND
  5
131
330
12E
100
AcDbEntity
  8
Rámeček (ISO)
  0
POLYLINE
  5
135
330
12B
100
AcDbEntity
  8
Rámeček (ISO)
100
AcDb2dPolyline
 66
     1
 10
0.0
 20
0.0
 30
0.0
 70
   128
  0
VERTEX
  5
136
330
135
100
AcDbEntity
  8
Rámeček (ISO)
100
AcDbVertex
100
AcDb2dVertex
 10
297.0000076293946
 20
0.0
 30
0.0
  0
VERTEX
  5
137
330
135
100
AcDbEntity
  8
Rámeček (ISO)
100
AcDbVertex
100
AcDb2dVertex
 10
297.0000076293946
 20
10.0
 30
0.0
  0
VERTEX
  5
139
330
135
100
AcDbEntity
  8
Rámeček (ISO)
100
AcDbVertex
100
AcDb2dVertex
 10
294.1132545471191
 20
5.0
 30
0.0
  0
VERTEX
  5
13A
330
135
100
AcDbEntity
  8
Rámeček (ISO)
100
AcDbVertex
100
AcDb2dVertex
 10
299.8867607116699
 20
5.0
 30
0.0
  0
VERTEX
  5
13B
330
135
100
AcDbEntity
  8
Rámeček (ISO)
100
AcDbVertex
100
AcDb2dVertex
 10
297.0000076293946
 20
10.0
 30
0.0
  0
SEQEND
  5
138
330
135
100
AcDbEntity
  8
Rámeček (ISO)
  0
POLYLINE
  5
13C
330
12B
100
AcDbEntity
  8
Rámeček (ISO)
100
AcDb2dPolyline
 66
     1
 10
0.0
 20
0.0
 30
0.0
 70
   128
  0
VERTEX
  5
13D
330
13C
100
AcDbEntity
  8
Rámeček (ISO)
100
AcDbVertex
100
AcDb2dVertex
 10
297.0000076293946
 20
420.0
 30
0.0
  0
VERTEX
  5
13E
330
13C
100
AcDbEntity
  8
Rámeček (ISO)
100
AcDbVertex
100
AcDb2dVertex
 10
297.0000076293946
 20
410.0
 30
0.0
  0
VERTEX
  5
140
330
13C
100
AcDbEntity
  8
Rámeček (ISO)
100
AcDbVertex
100
AcDb2dVertex
 10
294.1132545471191
 20
415.0
 30
0.0
  0
VERTEX
  5
141
330
13C
100
AcDbEntity
  8
Rámeček (ISO)
100
AcDbVertex
100
AcDb2dVertex
 10
299.8867607116699
 20
415.0
 30
0.0
  0
VERTEX
  5
142
330
13C
100
AcDbEntity
  8
Rámeček (ISO)
100
AcDbVertex
100
AcDb2dVertex
 10
297.0000076293946
 20
410.0
 30
0.0
  0
SEQEND
  5
13F
330
13C
100
AcDbEntity
  8
Rámeček (ISO)
  0
POLYLINE
  5
143
330
12B
100
AcDbEntity
  8
Rámeček (ISO)
100
AcDb2dPolyline
 66
     1
 10
0.0
 20
0.0
 30
0.0
 70
   128
  0
VERTEX
  5
144
330
143
100
AcDbEntity
  8
Rámeček (ISO)
100
AcDbVertex
100
AcDb2dVertex
 10
0.0
 20
210.0
 30
0.0
  0
VERTEX
  5
145
330
143
100
AcDbEntity
  8
Rámeček (ISO)
100
AcDbVertex
100
AcDb2dVertex
 10
10.0
 20
210.0
 30
0.0
  0
VERTEX
  5
147
330
143
100
AcDbEntity
  8
Rámeček (ISO)
100
AcDbVertex
100
AcDb2dVertex
 10
5.0
 20
212.8867530822754
 30
0.0
  0
VERTEX
  5
148
330
143
100
AcDbEntity
  8
Rámeček (ISO)
100
AcDbVertex
100
AcDb2dVertex
 10
5.0
 20
207.1132469177246
 30
0.0
  0
VERTEX
  5
149
330
143
100
AcDbEntity
  8
Rámeček (ISO)
100
AcDbVertex
100
AcDb2dVertex
 10
10.0
 20
210.0
 30
0.0
  0
SEQEND
  5
146
330
143
100
AcDbEntity
  8
Rámeček (ISO)
  0
POLYLINE
  5
14A
330
12B
100
AcDbEntity
  8
Rámeček (ISO)
100
AcDb2dPolyline
 66
     1
 10
0.0
 20
0.0
 30
0.0
 70
   128
  0
VERTEX
  5
14B
330
14A
100
AcDbEntity
  8
Rámeček (ISO)
100
AcDbVertex
100
AcDb2dVertex
 10
594.0000152587891
 20
210.0
 30
0.0
  0
VERTEX
  5
14C
330
14A
100
AcDbEntity
  8
Rámeček (ISO)
100
AcDbVertex
100
AcDb2dVertex
 10
584.000015258789
 20
210.0
 30
0.0
  0
VERTEX
  5
14E
330
14A
100
AcDbEntity
  8
Rámeček (ISO)
100
AcDbVertex
100
AcDb2dVertex
 10
589.000015258789
 20
212.8867530822754
 30
0.0
  0
VERTEX
  5
14F
330
14A
100
AcDbEntity
  8
Rámeček (ISO)
100
AcDbVertex
100
AcDb2dVertex
 10
589.000015258789
 20
207.1132469177246
 30
0.0
  0
VERTEX
  5
150
330
14A
100
AcDbEntity
  8
Rámeček (ISO)
100
AcDbVertex
100
AcDb2dVertex
 10
584.000015258789
 20
210.0
 30
0.0
  0
SEQEND
  5
14D
330
14A
100
AcDbEntity
  8
Rámeček (ISO)
  0
LINE
  5
151
330
12B
100
AcDbEntity
  8
Rámeček (ISO)
100
AcDbLine
 10
74.25000190734863
 20
10.0
 30
0.0
 11
74.25000190734863
 21
6.100000143051147
 31
0.0
  0
LINE
  5
152
330
12B
100
AcDbEntity
  8
Rámeček (ISO)
100
AcDbLine
 10
74.25000190734863
 20
410.0
 30
0.0
 11
74.25000190734863
 21
413.8999938964843
 31
0.0
  0
LINE
  5
153
330
12B
100
AcDbEntity
  8
Rámeček (ISO)
100
AcDbLine
 10
148.5000038146973
 20
10.0
 30
0.0
 11
148.5000038146973
 21
6.100000143051147
 31
0.0
  0
LINE
  5
154
330
12B
100
AcDbEntity
  8
Rámeček (ISO)
100
AcDbLine
 10
148.5000038146973
 20
410.0
 30
0.0
 11
148.5000038146973
 21
413.8999938964843
 31
0.0
  0
LINE
  5
155
330
12B
100
AcDbEntity
  8
Rámeček (ISO)
100
AcDbLine
 10
222.7499961853027
 20
10.0
 30
0.0
 11
222.7499961853027
 21
6.100000143051147
 31
0.0
  0
LINE
  5
156
330
12B
100
AcDbEntity
  8
Rámeček (ISO)
100
AcDbLine
 10
222.7499961853027
 20
410.0
 30
0.0
 11
222.7499961853027
 21
413.8999938964843
 31
0.0
  0
LINE
  5
157
330
12B
100
AcDbEntity
  8
Rámeček (ISO)
100
AcDbLine
 10
371.25
 20
10.0
 30
0.0
 11
371.25
 21
6.100000143051147
 31
0.0
  0
LINE
  5
158
330
12B
100
AcDbEntity
  8
Rámeček (ISO)
100
AcDbLine
 10
371.25
 20
410.0
 30
0.0
 11
371.25
 21
413.8999938964843
 31
0.0
  0
LINE
  5
159
330
12B
100
AcDbEntity
  8
Rámeček (ISO)
100
AcDbLine
 10
445.4999923706054
 20
10.0
 30
0.0
 11
445.4999923706054
 21
6.100000143051147
 31
0.0
  0
LINE
  5
15A
330
12B
100
AcDbEntity
  8
Rámeček (ISO)
100
AcDbLine
 10
445.4999923706054
 20
410.0
 30
0.0
 11
445.4999923706054
 21
413.8999938964843
 31
0.0
  0
LINE
  5
15B
330
12B
100
AcDbEntity
  8
Rámeček (ISO)
100
AcDbLine
 10
519.7499847412109
 20
10.0
 30
0.0
 11
519.7499847412109
 21
6.100000143051147
 31
0.0
  0
LINE
  5
15C
330
12B
100
AcDbEntity
  8
Rámeček (ISO)
100
AcDbLine
 10
519.7499847412109
 20
410.0
 30
0.0
 11
519.7499847412109
 21
413.8999938964843
 31
0.0
  0
MTEXT
  5
15D
330
12B
100
AcDbEntity
  8
Rámeček (ISO)
100
AcDbMText
 10
556.0853922448459
 20
410.4
 30
0.0
 40
3.499999940395355
 41
0.0
 71
     7
 72
     1
  1
1
  7
Text poznámky (ISO)
 73
     1
 44
1.0
  0
MTEXT
  5
15E
330
12B
100
AcDbEntity
  8
Rámeček (ISO)
100
AcDbMText
 10
556.0853922448459
 20
6.100000059604644
 30
0.0
 40
3.499999940395355
 41
0.0
 71
     7
 72
     1
  1
1
  7
Text poznámky (ISO)
 73
     1
 44
1.0
  0
MTEXT
  5
15F
330
12B
100
AcDbEntity
  8
Rámeček (ISO)
100
AcDbMText
 10
481.5637915541735
 20
410.4
 30
0.0
 40
3.499999940395355
 41
0.0
 71
     7
 72
     1
  1
2
  7
Text poznámky (ISO)
 73
     1
 44
1.0
  0
MTEXT
  5
160
330
12B
100
AcDbEntity
  8
Rámeček (ISO)
100
AcDbMText
 10
481.5637915541735
 20
6.100000059604644
 30
0.0
 40
3.499999940395355
 41
0.0
 71
     7
 72
     1
  1
2
  7
Text poznámky (ISO)
 73
     1
 44
1.0
  0
MTEXT
  5
161
330
12B
100
AcDbEntity
  8
Rámeček (ISO)
100
AcDbMText
 10
407.2857914829702
 20
410.3262560764327
 30
0.0
 40
3.499999940395355
 41
0.0
 71
     7
 72
     1
  1
3
  7
Text poznámky (ISO)
 73
     1
 44
1.0
  0
MTEXT
  5
162
330
12B
100
AcDbEntity
  8
Rámeček (ISO)
100
AcDbMText
 10
407.2857914829702
 20
6.026256136037408
 30
0.0
 40
3.499999940395355
 41
0.0
 71
     7
 72
     1
  1
3
  7
Text poznámky (ISO)
 73
     1
 44
1.0
  0
MTEXT
  5
163
330
12B
100
AcDbEntity
  8
Rámeček (ISO)
100
AcDbMText
 10
332.9041911483145
 20
410.4
 30
0.0
 40
3.499999940395355
 41
0.0
 71
     7
 72
     1
  1
4
  7
Text poznámky (ISO)
 73
     1
 44
1.0
  0
MTEXT
  5
164
330
12B
100
AcDbEntity
  8
Rámeček (ISO)
100
AcDbMText
 10
332.9041911483145
 20
6.100000059604644
 30
0.0
 40
3.499999940395355
 41
0.0
 71
     7
 72
     1
  1
4
  7
Text poznámky (ISO)
 73
     1
 44
1.0
  0
MTEXT
  5
165
330
12B
100
AcDbEntity
  8
Rámeček (ISO)
100
AcDbMText
 10
258.850191646738
 20
410.3262560764327
 30
0.0
 40
3.499999940395355
 41
0.0
 71
     7
 72
     1
  1
5
  7
Text poznámky (ISO)
 73
     1
 44
1.0
  0
MTEXT
  5
166
330
12B
100
AcDbEntity
  8
Rámeček (ISO)
100
AcDbMText
 10
258.850191646738
 20
6.026256136037408
 30
0.0
 40
3.499999940395355
 41
0.0
 71
     7
 72
     1
  1
5
  7
Text poznámky (ISO)
 73
     1
 44
1.0
  0
MTEXT
  5
167
330
12B
100
AcDbEntity
  8
Rámeček (ISO)
100
AcDbMText
 10
184.5077914117669
 20
410.3262560764327
 30
0.0
 40
3.499999940395355
 41
0.0
 71
     7
 72
     1
  1
6
  7
Text poznámky (ISO)
 73
     1
 44
1.0
  0
MTEXT
  5
168
330
12B
100
AcDbEntity
  8
Rámeček (ISO)
100
AcDbMText
 10
184.5077914117669
 20
6.026256136037408
 30
0.0
 40
3.499999940395355
 41
0.0
 71
     7
 72
     1
  1
6
  7
Text poznámky (ISO)
 73
     1
 44
1.0
  0
MTEXT
  5
169
330
12B
100
AcDbEntity
  8
Rámeček (ISO)
100
AcDbMText
 10
110.2913914972109
 20
410.4
 30
0.0
 40
3.499999940395355
 41
0.0
 71
     7
 72
     1
  1
7
  7
Text poznámky (ISO)
 73
     1
 44
1.0
  0
MTEXT
  5
16A
330
12B
100
AcDbEntity
  8
Rámeček (ISO)
100
AcDbMText
 10
110.2913914972109
 20
6.100000059604644
 30
0.0
 40
3.499999940395355
 41
0.0
 71
     7
 72
     1
  1
7
  7
Text poznámky (ISO)
 73
     1
 44
1.0
  0
MTEXT
  5
16B
330
12B
100
AcDbEntity
  8
Rámeček (ISO)
100
AcDbMText
 10
35.9825913476839
 20
410.3205834697932
 30
0.0
 40
3.499999940395355
 41
0.0
 71
     7
 72
     1
  1
8
  7
Text poznámky (ISO)
 73
     1
 44
1.0
  0
MTEXT
  5
16C
330
12B
100
AcDbEntity
  8
Rámeček (ISO)
100
AcDbMText
 10
35.9825913476839
 20
6.020583529397844
 30
0.0
 40
3.499999940395355
 41
0.0
 71
     7
 72
     1
  1
8
  7
Text poznámky (ISO)
 73
     1
 44
1.0
  0
LINE
  5
16D
330
12B
100
AcDbEntity
  8
Rámeček (ISO)
100
AcDbLine
 10
10.0
 20
70.0
 30
0.0
 11
6.100000143051147
 21
70.0
 31
0.0
  0
LINE
  5
16E
330
12B
100
AcDbEntity
  8
Rámeček (ISO)
100
AcDbLine
 10
584.000015258789
 20
70.0
 30
0.0
 11
587.9000091552734
 21
70.0
 31
0.0
  0
LINE
  5
16F
330
12B
100
AcDbEntity
  8
Rámeček (ISO)
100
AcDbLine
 10
10.0
 20
140.0
 30
0.0
 11
6.100000143051147
 21
140.0
 31
0.0
  0
LINE
  5
170
330
12B
100
AcDbEntity
  8
Rámeček (ISO)
100
AcDbLine
 10
584.000015258789
 20
140.0
 30
0.0
 11
587.9000091552734
 21
140.0
 31
0.0
  0
LINE
  5
171
330
12B
100
AcDbEntity
  8
Rámeček (ISO)
100
AcDbLine
 10
10.0
 20
280.0
 30
0.0
 11
6.100000143051147
 21
280.0
 31
0.0
  0
LINE
  5
172
330
12B
100
AcDbEntity
  8
Rámeček (ISO)
100
AcDbLine
 10
584.000015258789
 20
280.0
 30
0.0
 11
587.9000091552734
 21
280.0
 31
0.0
  0
LINE
  5
173
330
12B
100
AcDbEntity
  8
Rámeček (ISO)
100
AcDbLine
 10
10.0
 20
350.0
 30
0.0
 11
6.100000143051147
 21
350.0
 31
0.0
  0
LINE
  5
174
330
12B
100
AcDbEntity
  8
Rámeček (ISO)
100
AcDbLine
 10
584.000015258789
 20
350.0
 30
0.0
 11
587.9000091552734
 21
350.0
 31
0.0
  0
MTEXT
  5
175
330
12B
100
AcDbEntity
  8
Rámeček (ISO)
100
AcDbMText
 10
6.361230343933396
 20
33.25000002980232
 30
0.0
 40
3.499999940395355
 41
0.0
 71
     7
 72
     1
  1
A
  7
Text poznámky (ISO)
 73
     1
 44
1.0
  0
MTEXT
  5
176
330
12B
100
AcDbEntity
  8
Rámeček (ISO)
100
AcDbMText
 10
584.6612302843287
 20
33.25000002980232
 30
0.0
 40
3.499999940395355
 41
0.0
 71
     7
 72
     1
  1
A
  7
Text poznámky (ISO)
 73
     1
 44
1.0
  0
MTEXT
  5
177
330
12B
100
AcDbEntity
  8
Rámeček (ISO)
100
AcDbMText
 10
6.781848468328938
 20
103.2500000298023
 30
0.0
 40
3.499999940395355
 41
0.0
 71
     7
 72
     1
  1
B
  7
Text poznámky (ISO)
 73
     1
 44
1.0
  0
MTEXT
  5
178
330
12B
100
AcDbEntity
  8
Rámeček (ISO)
100
AcDbMText
 10
585.0818484087242
 20
103.2500000298023
 30
0.0
 40
3.499999940395355
 41
0.0
 71
     7
 72
     1
  1
B
  7
Text poznámky (ISO)
 73
     1
 44
1.0
  0
MTEXT
  5
179
330
12B
100
AcDbEntity
  8
Rámeček (ISO)
100
AcDbMText
 10
6.558903094188359
 20
173.1876013241708
 30
0.0
 40
3.499999940395355
 41
0.0
 71
     7
 72
     1
  1
C
  7
Text poznámky (ISO)
 73
     1
 44
1.0
  0
MTEXT
  5
17A
330
12B
100
AcDbEntity
  8
Rámeček (ISO)
100
AcDbMText
 10
584.8589030345837
 20
173.1876013241708
 30
0.0
 40
3.499999940395355
 41
0.0
 71
     7
 72
     1
  1
C
  7
Text poznámky (ISO)
 73
     1
 44
1.0
  0
MTEXT
  5
17B
330
12B
100
AcDbEntity
  8
Rámeček (ISO)
100
AcDbMText
 10
6.56770745709084
 20
243.2500000298023
 30
0.0
 40
3.499999940395355
 41
0.0
 71
     7
 72
     1
  1
D
  7
Text poznámky (ISO)
 73
     1
 44
1.0
  0
MTEXT
  5
17C
330
12B
100
AcDbEntity
  8
Rámeček (ISO)
100
AcDbMText
 10
584.8677073974861
 20
243.2500000298023
 30
0.0
 40
3.499999940395355
 41
0.0
 71
     7
 72
     1
  1
D
  7
Text poznámky (ISO)
 73
     1
 44
1.0
  0
MTEXT
  5
17D
330
12B
100
AcDbEntity
  8
Rámeček (ISO)
100
AcDbMText
 10
6.849919803883061
 20
313.2500000298023
 30
0.0
 40
3.499999940395355
 41
0.0
 71
     7
 72
     1
  1
E
  7
Text poznámky (ISO)
 73
     1
 44
1.0
  0
MTEXT
  5
17E
330
12B
100
AcDbEntity
  8
Rámeček (ISO)
100
AcDbMText
 10
585.1499197442783
 20
313.2500000298023
 30
0.0
 40
3.499999940395355
 41
0.0
 71
     7
 72
     1
  1
E
  7
Text poznámky (ISO)
 73
     1
 44
1.0
  0
MTEXT
  5
17F
330
12B
100
AcDbEntity
  8
Rámeček (ISO)
100
AcDbMText
 10
6.944936015154347
 20
383.2500000298023
 30
0.0
 40
3.499999940395355
 41
0.0
 71
     7
 72
     1
  1
F
  7
Text poznámky (ISO)
 73
     1
 44
1.0
  0
MTEXT
  5
180
330
12B
100
AcDbEntity
  8
Rámeček (ISO)
100
AcDbMText
 10
585.2449359555496
 20
383.2500000298023
 30
0.0
 40
3.499999940395355
 41
0.0
 71
     7
 72
     1
  1
F
  7
Text poznámky (ISO)
 73
     1
 44
1.0
  0
ENDBLK
  5
12D
330
12B
100
AcDbEntity
  8
0
100
AcDbBlockEnd
  0
BLOCK
  5
183
330
182
100
AcDbEntity
  8
0
100
AcDbBlockBegin
  2
Rohová razítka ACO-razitko
 70
     2
 10
0.0
 20
0.0
 30
0.0
  3
Rohová razítka ACO-razitko
  1

  0
LINE
  5
185
330
182
100
AcDbEntity
  8
KOPF
  6
Continuous
370
    25
100
AcDbLine
 10
264.0
 20
94.01203200000001
 30
0.0
 11
264.0
 21
74.00000000000003
 31
0.0
  0
LINE
  5
186
330
182
100
AcDbEntity
  8
KOPF
  6
Continuous
370
    25
100
AcDbLine
 10
264.0
 20
94.01203200000001
 30
0.0
 11
264.0
 21
74.00000000000003
 31
0.0
  0
CIRCLE
  5
187
330
182
100
AcDbEntity
  8
TEXT50
  6
Continuous
370
    25
100
AcDbCircle
 10
247.5054493575618
 20
83.04852954632861
 30
0.0
 40
1.979948192651899
  0
LINE
  5
188
330
182
100
AcDbEntity
  8
TEXT50
  6
Continuous
370
    25
100
AcDbLine
 10
262.4910595621649
 20
85.02847773898061
 30
0.0
 11
262.4910595621649
 21
81.06858135367653
 31
0.0
  0
LINE
  5
189
330
182
100
AcDbEntity
  8
TEXT50
  6
Continuous
370
    25
100
AcDbLine
 10
253.9413433929653
 20
87.07146289795376
 30
0.0
 11
253.9413433929653
 21
79.02559619470344
 31
0.0
  0
LINE
  5
18A
330
182
100
AcDbEntity
  8
TEXT50
  6
Continuous
370
    25
100
AcDbLine
 10
262.4910595621649
 20
85.02847773898061
 30
0.0
 11
253.9413433929653
 21
87.07146289795376
 31
0.0
  0
CIRCLE
  5
18B
330
182
100
AcDbEntity
  8
TEXT50
  6
Continuous
370
    25
100
AcDbCircle
 10
247.5054493575618
 20
83.04852954632861
 30
0.0
 40
4.022933351625178
  0
LINE
  5
18C
330
182
100
AcDbEntity
  8
TEXT50
  6
Continuous
370
    25
100
AcDbLine
 10
253.9413433929653
 20
79.02559619470344
 30
0.0
 11
262.4910595621649
 21
81.06858135367653
 31
0.0
  0
CIRCLE
  5
18D
330
182
100
AcDbEntity
  8
TEXT35
  6
Continuous
370
    25
100
AcDbCircle
 10
221.0936673107637
 20
101.9131972309053
 30
0.0
 40
2.281499999999998
  0
CIRCLE
  5
18E
330
182
100
AcDbEntity
  8
TEXT35
  6
Continuous
370
    25
100
AcDbCircle
 10
221.0936673107637
 20
101.9131972309053
 30
0.0
 40
1.579499999999999
  0
ARC
  5
18F
330
182
100
AcDbEntity
  8
TEXT35
  6
Continuous
370
    25
100
AcDbCircle
 10
214.6291610736662
 20
101.9131972309054
 30
0.0
 40
1.579500000000072
100
AcDbArc
 50
31.05580049908738
 51
329.9999999999987
  0
LINE
  5
190
330
182
100
AcDbEntity
  8
TEXT35
  6
Continuous
370
    25
100
AcDbLine
 10
215.9822639109751
 20
102.7280180465864
 30
0.0
 11
216.5902852082589
 21
103.0790593062462
 31
0.0
  0
ARC
  5
191
330
182
100
AcDbEntity
  8
TEXT35
  6
Continuous
370
    25
100
AcDbCircle
 10
214.6291610736662
 20
101.9131972309052
 30
0.0
 40
2.281500000000015
100
AcDbArc
 50
30.73091726592628
 51
330.0000000000016
  0
LINE
  5
192
330
182
100
AcDbEntity
  8
TEXT35
  6
Continuous
370
    25
100
AcDbLine
 10
216.6049980324005
 20
100.7724472309053
 30
0.0
 11
215.9970481989438
 21
101.1234472309053
 31
0.0
  0
LINE
  5
193
330
182
100
AcDbEntity
  8
TEXT35
  6
Continuous
370
    25
100
AcDbLine
 10
211.8347763192409
 20
111.6789659312995
 30
0.0
 11
211.8347763192409
 21
98.44416361029551
 31
0.0
  0
LINE
  5
194
330
182
100
AcDbEntity
  8
TEXT35
  6
Continuous
370
    25
100
AcDbLine
 10
211.8347763192409
 20
98.44416361029551
 30
0.0
 11
217.4235458280916
 21
98.44416361029551
 31
0.0
  0
LINE
  5
195
330
182
100
AcDbEntity
  8
TEXT35
  6
Continuous
370
    25
100
AcDbLine
 10
217.4235458280916
 20
98.44416361029551
 30
0.0
 11
217.4235458280916
 21
111.6789659312995
 31
0.0
  0
LINE
  5
196
330
182
100
AcDbEntity
  8
TEXT35
  6
Continuous
370
    25
100
AcDbLine
 10
217.4235458280916
 20
111.6789659312995
 30
0.0
 11
211.8347763192409
 21
111.6789659312995
 31
0.0
  0
LINE
  5
197
330
182
100
AcDbEntity
  8
TEXT35
  6
Continuous
370
    25
100
AcDbLine
 10
223.888052065189
 20
111.6789659312995
 30
0.0
 11
223.888052065189
 21
98.44416361029551
 31
0.0
  0
LINE
  5
198
330
182
100
AcDbEntity
  8
TEXT35
  6
Continuous
370
    25
100
AcDbLine
 10
223.888052065189
 20
98.44416361029551
 30
0.0
 11
218.2992825563384
 21
98.44416361029551
 31
0.0
  0
LINE
  5
199
330
182
100
AcDbEntity
  8
TEXT35
  6
Continuous
370
    25
100
AcDbLine
 10
218.2992825563384
 20
98.44416361029551
 30
0.0
 11
218.2992825563384
 21
111.6789659312995
 31
0.0
  0
LINE
  5
19A
330
182
100
AcDbEntity
  8
TEXT35
  6
Continuous
370
    25
100
AcDbLine
 10
218.2992825563384
 20
111.6789659312995
 30
0.0
 11
223.888052065189
 21
111.6789659312995
 31
0.0
  0
ARC
  5
19B
330
182
100
AcDbEntity
  8
TEXT35
  6
Continuous
370
    25
100
AcDbCircle
 10
211.499154836569
 20
99.57623034270236
 30
0.0
 40
4.914000000000251
100
AcDbArc
 50
172.305837035409
 51
179.7113029220757
  0
LINE
  5
19C
330
182
100
AcDbEntity
  8
TEXT35
  6
Continuous
370
    25
100
AcDbLine
 10
206.6293963427935
 20
100.2341423522474
 30
0.0
 11
209.6999133303443
 21
100.2341423522474
 31
0.0
  0
ARC
  5
19D
330
182
100
AcDbEntity
  8
TEXT35
  6
Continuous
370
    25
100
AcDbCircle
 10
204.8301548365688
 20
99.57623034270325
 30
0.0
 40
4.914000000000133
100
AcDbArc
 50
0.2886970779141535
 51
7.694162964580896
  0
LINE
  5
19E
330
182
100
AcDbEntity
  8
TEXT35
  6
Continuous
370
    25
100
AcDbLine
 10
209.7440924568018
 20
99.600990481233
 30
0.0
 11
210.4461002543538
 21
99.600990481233
 31
0.0
  0
ARC
  5
19F
330
182
100
AcDbEntity
  8
TEXT35
  6
Continuous
370
    25
100
AcDbCircle
 10
204.8301548365688
 20
99.5762303427033
 30
0.0
 40
5.616000000000016
100
AcDbArc
 50
0.2526096926473688
 51
53.57642635766914
  0
ARC
  5
1A0
330
182
100
AcDbEntity
  8
TEXT35
  6
Continuous
370
    25
100
AcDbCircle
 10
211.4991548365688
 20
99.57623034270325
 30
0.0
 40
5.616000000000024
100
AcDbArc
 50
126.4235736423304
 51
179.7473903073512
  0
LINE
  5
1A1
330
182
100
AcDbEntity
  8
TEXT35
  6
Continuous
370
    25
100
AcDbLine
 10
205.8832094187838
 20
99.600990481233
 30
0.0
 11
206.5852172163358
 21
99.600990481233
 31
0.0
  0
LINE
  5
1A2
330
182
100
AcDbEntity
  8
TEXT35
  6
Continuous
370
    25
100
AcDbLine
 10
205.3702700821435
 20
111.6789659312995
 30
0.0
 11
205.3702700821435
 21
98.44416361029551
 31
0.0
  0
LINE
  5
1A3
330
182
100
AcDbEntity
  8
TEXT35
  6
Continuous
370
    25
100
AcDbLine
 10
205.3702700821435
 20
98.44416361029551
 30
0.0
 11
210.9590395909941
 21
98.44416361029551
 31
0.0
  0
LINE
  5
1A4
330
182
100
AcDbEntity
  8
TEXT35
  6
Continuous
370
    25
100
AcDbLine
 10
210.9590395909941
 20
98.44416361029551
 30
0.0
 11
210.9590395909941
 21
111.6789659312995
 31
0.0
  0
LINE
  5
1A5
330
182
100
AcDbEntity
  8
TEXT35
  6
Continuous
370
    25
100
AcDbLine
 10
210.9590395909941
 20
111.6789659312995
 30
0.0
 11
205.3702700821435
 21
111.6789659312995
 31
0.0
  0
ARC
  5
1A6
330
182
100
AcDbEntity
  8
TEXT35
  6
Continuous
370
    25
100
AcDbCircle
 10
204.830154836569
 20
99.57623034270341
 30
0.0
 40
4.913999999999818
100
AcDbArc
 50
16.0658750272321
 51
47.26788995739759
  0
LINE
  5
1A7
330
182
100
AcDbEntity
  8
TEXT35
  6
Continuous
370
    25
100
AcDbLine
 10
209.5522343918387
 20
100.9361423522474
 30
0.0
 11
206.7770752812989
 21
100.9361423522474
 31
0.0
  0
ARC
  5
1A8
330
182
100
AcDbEntity
  8
TEXT35
  6
Continuous
370
    25
100
AcDbCircle
 10
211.4991548365683
 20
99.57623034270339
 30
0.0
 40
4.913999999999566
100
AcDbArc
 50
132.7321100425983
 51
163.9341249727667
  0
LINE
  5
1A9
330
182
100
AcDbEntity
  8
Nadpis (ISO)
100
AcDbLine
 10
299.0
 20
114.0
 30
0.0
 11
299.0
 21
45.0
 31
0.0
  0
LINE
  5
1AA
330
182
100
AcDbEntity
  8
Nadpis (ISO)
100
AcDbLine
 10
299.0
 20
45.0
 30
0.0
 11
117.0
 21
44.99999999999999
 31
0.0
  0
LINE
  5
1AB
330
182
100
AcDbEntity
  8
Nadpis (ISO)
100
AcDbLine
 10
117.0
 20
44.99999999999999
 30
0.0
 11
117.0
 21
114.0
 31
0.0
  0
LINE
  5
1AC
330
182
100
AcDbEntity
  8
Nadpis (ISO)
100
AcDbLine
 10
117.0
 20
114.0
 30
0.0
 11
299.0
 21
114.0
 31
0.0
  0
LINE
  5
1AD
330
182
100
AcDbEntity
  8
Nadpis (ISO)
100
AcDbLine
 10
199.0
 20
114.0
 30
0.0
 11
199.0
 21
93.99999999999998
 31
0.0
  0
LINE
  5
1AE
330
182
100
AcDbEntity
  8
KOPF
100
AcDbLine
 10
199.0
 20
104.0
 30
0.0
 11
117.0
 21
104.0
 31
0.0
  0
LINE
  5
1AF
330
182
100
AcDbEntity
  8
Nadpis (ISO)
100
AcDbLine
 10
199.0
 20
93.99999999999998
 30
0.0
 11
117.0
 21
93.99999999999996
 31
0.0
  0
LINE
  5
1B0
330
182
100
AcDbEntity
  8
KOPF
100
AcDbLine
 10
158.0
 20
93.99999999999998
 30
0.0
 11
158.0
 21
114.0
 31
0.0
  0
LINE
  5
1B1
330
182
100
AcDbEntity
  8
Nadpis (ISO)
100
AcDbLine
 10
199.0
 20
93.99999999999998
 30
0.0
 11
299.0
 21
93.99999999999998
 31
0.0
  0
LINE
  5
1B2
330
182
100
AcDbEntity
  8
Nadpis (ISO)
100
AcDbLine
 10
216.0
 20
94.00000000000003
 30
0.0
 11
216.0
 21
44.99999999999999
 31
0.0
  0
LINE
  5
1B3
330
182
100
AcDbEntity
  8
Nadpis (ISO)
100
AcDbLine
 10
299.0
 20
74.00000000000004
 30
0.0
 11
117.0
 21
73.99999999999998
 31
0.0
  0
LINE
  5
1B4
330
182
100
AcDbEntity
  8
Nadpis (ISO)
100
AcDbLine
 10
186.0
 20
94.0
 30
0.0
 11
186.0
 21
74.00000000000002
 31
0.0
  0
LINE
  5
1B5
330
182
100
AcDbEntity
  8
KOPF
100
AcDbLine
 10
137.0
 20
93.99999999999998
 30
0.0
 11
137.0
 21
74.0
 31
0.0
  0
LINE
  5
1B6
330
182
100
AcDbEntity
  8
KOPF
100
AcDbLine
 10
162.0
 20
93.99999999999998
 30
0.0
 11
162.0
 21
74.0
 31
0.0
  0
LINE
  5
1B7
330
182
100
AcDbEntity
  8
KOPF
100
AcDbLine
 10
186.0
 20
84.0
 30
0.0
 11
117.0
 21
83.99999999999996
 31
0.0
  0
LINE
  5
1B8
330
182
100
AcDbEntity
  8
KOPF
100
AcDbLine
 10
186.0
 20
79.0
 30
0.0
 11
117.0
 21
78.99999999999997
 31
0.0
  0
LINE
  5
1B9
330
182
100
AcDbEntity
  8
KOPF
100
AcDbLine
 10
186.0
 20
89.0
 30
0.0
 11
117.0
 21
88.99999999999996
 31
0.0
  0
LINE
  5
1BA
330
182
100
AcDbEntity
  8
KOPF
100
AcDbLine
 10
216.0
 20
50.0
 30
0.0
 11
299.0
 21
50.0
 31
0.0
  0
LINE
  5
1BB
330
182
100
AcDbEntity
  8
Nadpis (ISO)
100
AcDbLine
 10
216.0
 20
55.0
 30
0.0
 11
299.0
 21
55.0
 31
0.0
  0
LINE
  5
1BC
330
182
100
AcDbEntity
  8
KOPF
100
AcDbLine
 10
238.0000000000001
 20
93.99999999999998
 30
0.0
 11
238.0000000000001
 21
74.00000000000003
 31
0.0
  0
LINE
  5
1BD
330
182
100
AcDbEntity
  8
KOPF
100
AcDbLine
 10
238.0000000000001
 20
84.00000000000003
 30
0.0
 11
216.0
 21
84.00000000000003
 31
0.0
  0
LINE
  5
1BE
330
182
100
AcDbEntity
  8
Nadpis (ISO)
100
AcDbLine
 10
287.0
 20
74.00000000000004
 30
0.0
 11
287.0
 21
55.0
 31
0.0
  0
LINE
  5
1BF
330
182
100
AcDbEntity
  8
KOPF
100
AcDbLine
 10
289.0
 20
50.0
 30
0.0
 11
289.0
 21
45.0
 31
0.0
  0
LINE
  5
1C0
330
182
100
AcDbEntity
  8
Nadpis (ISO)
100
AcDbLine
 10
260.9160465310349
 20
50.0
 30
0.0
 11
260.9160465310349
 21
45.0
 31
0.0
  0
TEXT
  5
1C2
330
182
100
AcDbEntity
  8
Viditelná tenká (ISO)
100
AcDbText
 10
266.0
 20
84.97994933403729
 30
0.0
 40
1.539999991655349
  1
zum Zweck anderweitiger Benutzung
 41
0.7999999523162842
  7
Styl textu62
100
AcDbText
  0
TEXT
  5
1C4
330
182
100
AcDbEntity
  8
Viditelná tenká (ISO)
100
AcDbText
 10
266.0
 20
82.63814072439632
 30
0.0
 40
1.539999991655349
  1
mitgeteilt werden und bleibt unser
 41
0.7999999523162842
  7
Styl textu62
100
AcDbText
  0
TEXT
  5
1C5
330
182
100
AcDbEntity
  8
Viditelná tenká (ISO)
100
AcDbText
 10
266.0
 20
87.26106040199921
 30
0.0
 40
1.539999991655349
  1
noch dritten Personen, insbesondere
 41
0.7999999523162842
  7
Styl textu62
100
AcDbText
  0
TEXT
  5
1C6
330
182
100
AcDbEntity
  8
Viditelná tenká (ISO)
100
AcDbText
 10
266.0
 20
89.6282322587214
 30
0.0
 40
1.539999991655349
  1
Diese Zeichnung darf weder kopiert
 41
0.7999999523162842
  7
Styl textu62
100
AcDbText
  0
TEXT
  5
1C7
330
182
100
AcDbEntity
  8
Viditelná tenká (ISO)
100
AcDbText
 10
266.0
 20
80.37532604459599
 30
0.0
 40
1.539999991655349
  1
Eigentum.
 41
0.7999999523162842
  7
Styl textu62
100
AcDbText
  0
TEXT
  5
1C9
330
182
100
AcDbEntity
  8
Viditelná tenká (ISO)
100
AcDbText
 10
241.877559521167
 20
90.82431699999998
 30
0.0
 40
2.000000029802322
  1
Projektion: ISO-E
 41
0.7999999523162842
  7
Styl textu58
100
AcDbText
  0
TEXT
  5
1CB
330
182
100
AcDbEntity
  8
Viditelná tenká (ISO)
100
AcDbText
 10
266.0
 20
77.30982488917627
 30
0.0
 40
1.539999991655349
  1
Schutzvermerk nach DIN 34 beachten
 41
0.75
  7
Styl textu63
100
AcDbText
  0
TEXT
  5
1CC
330
182
100
AcDbEntity
  8
Viditelná tenká (ISO)
100
AcDbText
 10
236.2487793316645
 20
99.38243367792949
 30
0.0
 40
2.000000029802322
  1
582 22 Přibyslav
 41
0.7999999523162842
  7
Styl textu58
100
AcDbText
  0
TEXT
  5
1CE
330
182
100
AcDbEntity
  8
Viditelná tenká (ISO)
100
AcDbText
 10
261.6984261202779
 20
99.57784645000474
 30
0.0
 40
2.09999993443489
  1
Fax: 0451 / 482529
 41
0.7000000476837159
  7
Styl textu72
100
AcDbText
  0
TEXT
  5
1CF
330
182
100
AcDbEntity
  8
Viditelná tenká (ISO)
100
AcDbText
 10
236.5351154208068
 20
103.0087314099309
 30
0.0
 40
2.000000029802322
  1
Havličkova 260
 41
0.7999999523162842
  7
Styl textu58
100
AcDbText
  0
TEXT
  5
1D1
330
182
100
AcDbEntity
  8
TEXT35
100
AcDbText
 10
235.9801354774567
 20
108.2018007493417
 30
0.0
 40
3.000000119209289
  1
ACO Industries
 41
0.7999999523162842
  7
Styl textu75
100
AcDbText
  0
TEXT
  5
1D2
330
182
100
AcDbEntity
  8
Viditelná tenká (ISO)
100
AcDbText
 10
261.6456899832647
 20
102.9064533471121
 30
0.0
 40
2.09999993443489
  1
Tel.: 0451 / 491660
 41
0.7000000476837159
  7
Styl textu72
100
AcDbText
  0
MTEXT
  5
1D3
330
182
100
AcDbEntity
  8
Viditelná tenká (ISO)
100
AcDbMText
 10
217.3570092483237
 20
73.27889989032858
 30
0.0
 40
2.000000029802322
 41
0.0
 71
     1
 72
     1
  1
\fArial|b0|i0;\H2.0000;Zeichnung Nr.
  7
Text poznámky (ISO)
 73
     1
 44
1.0
  0
MTEXT
  5
1D4
330
182
100
AcDbEntity
  8
Viditelná tenká (ISO)
100
AcDbMText
 10
287.9433731401013
 20
72.84063462326733
 30
0.0
 40
2.000000029802322
 41
0.0
 71
     1
 72
     1
  1
\fArial|b0|i0;\H2.0000;Index
  7
Text poznámky (ISO)
 73
     1
 44
1.0
  0
MTEXT
  5
1D5
330
182
100
AcDbEntity
  8
Viditelná tenká (ISO)
100
AcDbMText
 10
217.1230582952341
 20
52.63510416823109
 30
0.0
 40
2.000000029802322
 41
0.0
 71
     1
 72
     1
  1
\fArial|b0|i0;\H2.0000;Ersatz fur\PErsatz durch
  7
Text poznámky (ISO)
 73
     2
 44
0.9442214369773864
  0
MTEXT
  5
1D6
330
182
100
AcDbEntity
  8
Viditelná tenká (ISO)
100
AcDbMText
 10
188.916108134284
 20
93.0
 30
0.0
 40
2.000000029802322
 41
0.0
 71
     1
 72
     1
  1
\fArial|b0|i0;\H2.0000;Massstab
  7
Text poznámky (ISO)
 73
     1
 44
1.0
  0
MTEXT
  5
1D7
330
182
100
AcDbEntity
  8
Viditelná tenká (ISO)
100
AcDbMText
 10
217.0
 20
93.0
 30
0.0
 40
2.000000029802322
 41
0.0
 71
     1
 72
     1
  1
\fArial|b0|i0;\H2.0000;Masseinheit
  7
Text poznámky (ISO)
 73
     1
 44
1.0
  0
MTEXT
  5
1D8
330
182
100
AcDbEntity
  8
Viditelná tenká (ISO)
100
AcDbMText
 10
118.0
 20
113.0
 30
0.0
 40
2.000000029802322
 41
0.0
 71
     1
 72
     1
  1
\fArial|b0|i0;\H2.0000;Werkstoff.
  7
Text poznámky (ISO)
 73
     1
 44
1.0
  0
MTEXT
  5
1D9
330
182
100
AcDbEntity
  8
Viditelná tenká (ISO)
100
AcDbMText
 10
159.0
 20
113.0
 30
0.0
 40
2.000000029802322
 41
0.0
 71
     1
 72
     1
  1
\fArial|b0|i0;\H2.0000;Hmotnost
  7
Text poznámky (ISO)
 73
     1
 44
1.0
  0
MTEXT
  5
1DA
330
182
100
AcDbEntity
  8
Viditelná tenká (ISO)
100
AcDbMText
 10
118.0
 20
103.0
 30
0.0
 40
2.000000029802322
 41
0.0
 71
     1
 72
     1
  1
\fArial|b0|i0;\H2.0000;zul.Abweich.
  7
Text poznámky (ISO)
 73
     1
 44
1.0
  0
MTEXT
  5
1DB
330
182
100
AcDbEntity
  8
Viditelná tenká (ISO)
100
AcDbMText
 10
159.0
 20
103.0
 30
0.0
 40
2.000000029802322
 41
0.0
 71
     1
 72
     1
  1
\fArial|b0|i0;\H2.0000;Oberflache
  7
Text poznámky (ISO)
 73
     1
 44
1.0
  0
MTEXT
  5
1DC
330
182
100
AcDbEntity
  8
Viditelná tenká (ISO)
100
AcDbMText
 10
118.2064366962235
 20
87.52498463872976
 30
0.0
 40
2.000000029802322
 41
0.0
 71
     1
 72
     1
  1
\fArial|b0|i0;\H2.0000;Gezeichnet
  7
Text poznámky (ISO)
 73
     1
 44
1.0
  0
MTEXT
  5
1DD
330
182
100
AcDbEntity
  8
Viditelná tenká (ISO)
100
AcDbMText
 10
118.2064366962235
 20
82.79398756785594
 30
0.0
 40
2.000000029802322
 41
0.0
 71
     1
 72
     1
  1
\fArial|b0|i0;\H2.0000;Gepruft
  7
Text poznámky (ISO)
 73
     1
 44
1.0
  0
MTEXT
  5
1DE
330
182
100
AcDbEntity
  8
Viditelná tenká (ISO)
100
AcDbMText
 10
118.2064366962235
 20
77.59713566222233
 30
0.0
 40
2.000000029802322
 41
0.0
 71
     1
 72
     1
  1
\fArial|b0|i0;\H2.0000;Update
  7
Text poznámky (ISO)
 73
     1
 44
1.0
  0
MTEXT
  5
1DF
330
182
100
AcDbEntity
  8
Viditelná tenká (ISO)
100
AcDbMText
 10
143.0
 20
93.0
 30
0.0
 40
2.000000029802322
 41
0.0
 71
     1
 72
     1
  1
\fArial|b0|i0;\H2.0000;Datum
  7
Text poznámky (ISO)
 73
     1
 44
1.0
  0
MTEXT
  5
1E0
330
182
100
AcDbEntity
  8
Viditelná tenká (ISO)
100
AcDbMText
 10
170.0
 20
93.0
 30
0.0
 40
2.000000029802322
 41
0.0
 71
     1
 72
     1
  1
\fArial|b0|i0;\H2.0000;Name
  7
Text poznámky (ISO)
 73
     1
 44
1.0
  0
MTEXT
  5
1E1
102
{ACAD_XDICTIONARY
360
D34
102
}
330
182
100
AcDbEntity
  8
Nadpis (ISO)
100
AcDbMText
 10
118.0
 20
71.0
 30
0.0
 40
3.499999940395355
 41
0.0
 71
     1
 72
     1
  1
Effidrain mezikus s tavnou p\U+0159\U+00EDrubou 157 AISI 304
  7
Text poznámky (ISO)
 73
     1
 44
1.0
  0
MTEXT
  5
1E2
330
182
100
AcDbEntity
  8
Nadpis (ISO)
100
AcDbMText
 10
138.6542642016321
 20
87.78242706242743
 30
0.0
 40
2.000000029802322
 41
0.0
 71
     1
 72
     1
  1
\fTahoma|b0|i0;\H2.0000;25.5.2010
  7
Text poznámky (ISO)
 73
     1
 44
1.0
  0
MTEXT
  5
1E3
330
182
100
AcDbEntity
  8
Nadpis (ISO)
100
AcDbMText
 10
118.9147684950603
 20
98.79632878646518
 30
0.0
 40
3.499999940395355
 41
0.0
 71
     1
 72
     1
  1
ISO 2768-m
  7
Text poznámky (ISO)
 73
     1
 44
1.0
  0
MTEXT
  5
1E4
330
182
100
AcDbEntity
  8
Nadpis (ISO)
100
AcDbMText
 10
162.5831033854
 20
99.20167780246005
 30
0.0
 40
3.499999940395355
 41
0.0
 71
     1
 72
     1
  1
DIN ISO 1302
  7
Text poznámky (ISO)
 73
     1
 44
1.0
  0
MTEXT
  5
1E5
330
182
100
AcDbEntity
  8
Nadpis (ISO)
100
AcDbMText
 10
262.4743825961981
 20
49.17778241269704
 30
0.0
 40
3.499999940395355
 41
0.0
 71
     1
 72
     1
  1
\fArial|b0|i0;\H3.5000;List:\fArial|b0|i0;\H3.5000;1 \fArial|b0|i0;\H3.5000;/\fArial|b0|i0;\H3.5000;1 
  7
Text poznámky (ISO)
 73
     1
 44
1.0
  0
MTEXT
  5
1E6
102
{ACAD_XDICTIONARY
360
D36
102
}
330
182
100
AcDbEntity
  8
Nadpis (ISO)
100
AcDbMText
 10
159.4396788094336
 20
109.6756657996811
 30
0.0
 40
3.499999940395355
 41
29.10098367733216
 71
     1
 72
     1
  1
nen\U+00ED
  7
Text poznámky (ISO)
 73
     1
 44
1.0
  0
ATTDEF
  5
1E8
102
{ACAD_XDICTIONARY
360
8B2
102
}
330
182
100
AcDbEntity
  8
Nadpis (ISO)
100
AcDbText
 10
287.4393862219839
 20
62.4856753668063
 30
0.0
 40
3.499999940395355
  1
000
  7
Styl textu9
100
AcDbAttributeDefinition
  3
ČÍSLO REVIZE
  2
ČÍSLO_REVIZE_001
 70
     0
  0
ATTDEF
  5
1EC
102
{ACAD_XDICTIONARY
360
8B5
102
}
330
182
100
AcDbEntity
  8
Nadpis (ISO)
100
AcDbText
 10
289.7753402652471
 20
46.32882590415591
 30
0.0
 40
2.000000029802322
  1
A2
  7
Styl textu40
100
AcDbAttributeDefinition
  3
Sheet Size
  2
Sheet_Size_001
 70
     0
  0
ATTDEF
  5
1ED
102
{ACAD_XDICTIONARY
360
8B8
102
}
330
182
100
AcDbEntity
  8
Nadpis (ISO)
100
AcDbText
 10
230.1305737493188
 20
51.10091360311345
 30
0.0
 40
2.000000029802322
  1
C:\Inventor_DATA\Projekty\Guly\Effidrain\Effidrain mezikus\408249.iam
  7
Styl textu40
100
AcDbAttributeDefinition
  3
FILENAME AND PATH
  2
FILENAME_AND_PATH_001
 70
     0
  0
ATTDEF
  5
1EE
102
{ACAD_XDICTIONARY
360
8BB
102
}
330
182
100
AcDbEntity
  8
Nadpis (ISO)
100
AcDbText
 10
217.9059771674843
 20
62.42008065196634
 30
0.0
 40
3.499999940395355
  1
408249
  7
Text poznámky (ISO)
100
AcDbAttributeDefinition
  3
PART NUMBER
  2
PART_NUMBER_001
 70
     0
  0
ATTDEF
  5
1EF
102
{ACAD_XDICTIONARY
360
8BE
102
}
330
182
100
AcDbEntity
  8
Nadpis (ISO)
100
AcDbText
 10
118.0
 20
56.50000005960464
 30
0.0
 40
3.499999940395355
  1

  7
Text poznámky (ISO)
 11
118.0
 21
60.0
 31
0.0
100
AcDbAttributeDefinition
  3
PROJECT
  2
PROJECT
 70
     0
 74
     3
  0
ATTDEF
  5
1F1
102
{ACAD_XDICTIONARY
360
8C1
102
}
330
182
100
AcDbEntity
  8
Nadpis (ISO)
100
AcDbText
 10
117.8119543349687
 20
47.73407435882506
 30
0.0
 40
6.99999988079071
  1
408249
  7
Styl textu94
100
AcDbAttributeDefinition
  3
SKLADOVÉ ČÍSLO
  2
SKLADOVÉ_ČÍSLO_001
 70
     0
  0
ATTDEF
  5
1F2
102
{ACAD_XDICTIONARY
360
8C4
102
}
330
182
100
AcDbEntity
  8
Nadpis (ISO)
100
AcDbText
 10
117.5939056808251
 20
105.1756658592858
 30
0.0
 40
3.499999940395355
  1

  7
Text poznámky (ISO)
 11
117.5939056808251
 21
108.6756657996811
 31
0.0
100
AcDbAttributeDefinition
  3
MATERIAL
  2
MATERIAL
 70
     0
 74
     3
  0
ATTDEF
  5
1F3
102
{ACAD_XDICTIONARY
360
8C7
102
}
330
182
100
AcDbEntity
  8
Nadpis (ISO)
100
AcDbText
 10
165.0470513532835
 20
85.7824270326251
 30
0.0
 40
2.000000029802322
  1
pmacoun
  7
Styl textu40
100
AcDbAttributeDefinition
  3
AUTHOR
  2
AUTHOR_001
 70
     0
  0
ATTDEF
  5
1F4
102
{ACAD_XDICTIONARY
360
8CA
102
}
330
182
100
AcDbEntity
  8
Nadpis (ISO)
100
AcDbText
 10
189.1855699863978
 20
82.50038826992806
 30
0.0
 40
3.499999940395355
  1

  7
Text poznámky (ISO)
 11
189.1855699863978
 21
86.00038821032342
 31
0.0
100
AcDbAttributeDefinition
  3
VS_First
  2
VS_First
 70
     0
 74
     3
  0
ENDBLK
  5
184
330
182
100
AcDbEntity
  8
0
100
AcDbBlockEnd
  0
BLOCK
  5
564
330
563
100
AcDbEntity
  8
0
100
AcDbBlockBegin
  2
*D16
 70
     1
 10
0.0
 20
0.0
 30
0.0
  3
*D16
  1

  0
LINE
  5
D09
330
563
100
AcDbEntity
  8
Kóta (ISO)
100
AcDbLine
 10
96.82744446482667
 20
412.1926215572232
 30
0.0
 11
81.6274444648268
 21
412.1926215572232
 31
0.0
  0
LINE
  5
D0A
330
563
100
AcDbEntity
  8
Kóta (ISO)
100
AcDbLine
 10
116.8274444648268
 20
320.1926215572237
 30
0.0
 11
81.62744446482678
 21
320.1926215572237
 31
0.0
  0
LINE
  5
D0B
330
563
100
AcDbEntity
  8
Kóta (ISO)
100
AcDbLine
 10
82.82744446482679
 20
409.1926215572232
 30
0.0
 11
82.82744446482679
 21
323.1926215572237
 31
0.0
  0
SOLID
  5
D0C
330
563
100
AcDbEntity
  8
Kóta (ISO)
100
AcDbTrace
 10
82.3274444648268
 20
409.1926215572232
 30
0.0
 11
83.3274444648268
 21
409.1926215572232
 31
0.0
 12
82.82744446482679
 22
412.1926215572232
 32
0.0
 13
82.82744446482679
 23
412.1926215572232
 33
0.0
  0
SOLID
  5
D0D
330
563
100
AcDbEntity
  8
Kóta (ISO)
100
AcDbTrace
 10
82.32744446482678
 20
323.1926215572237
 30
0.0
 11
83.32744446482678
 21
323.1926215572237
 31
0.0
 12
82.82744446482679
 22
320.1926215572237
 32
0.0
 13
82.82744446482679
 23
320.1926215572237
 33
0.0
  0
MTEXT
  5
D0E
330
563
100
AcDbEntity
  8
Kóta (ISO)
100
AcDbMText
 10
77.54380336341639
 20
363.2605194752892
 30
0.0
 40
4.2
 41
0.0
 71
     1
 72
     1
  1
\A1;92
  7
Text poznámky (ISO)
 11
0.0000000000000001
 21
1.0
 31
0.0
 73
     1
 44
1.0
  0
POINT
  5
D0F
330
563
100
AcDbEntity
  8
Defpoints
 62
     0
100
AcDbPoint
 10
96.82744446482667
 20
412.1926215572232
 30
0.0
  0
POINT
  5
D10
330
563
100
AcDbEntity
  8
Defpoints
 62
     0
100
AcDbPoint
 10
116.8274444648268
 20
320.1926215572237
 30
0.0
  0
POINT
  5
D11
330
563
100
AcDbEntity
  8
Defpoints
 62
     0
100
AcDbPoint
 10
82.82744446482679
 20
320.1926215572237
 30
0.0
  0
ENDBLK
  5
565
330
563
100
AcDbEntity
  8
0
100
AcDbBlockEnd
  0
BLOCK
  5
651
330
650
100
AcDbEntity
  8
0
100
AcDbBlockBegin
  2
*D17
 70
     1
 10
0.0
 20
0.0
 30
0.0
  3
*D17
  1

  0
LINE
  5
723
330
650
100
AcDbEntity
  8
Kóta (ISO)
440
 16777216
100
AcDbLine
 10
96.82744446482667
 20
412.1926215572233
 30
0.0
 11
96.82744446482667
 21
439.7926215572231
 31
0.0
  0
LINE
  5
724
330
650
100
AcDbEntity
  8
Kóta (ISO)
440
 16777216
100
AcDbLine
 10
278.8274444648272
 20
412.1926215572231
 30
0.0
 11
278.8274444648272
 21
439.7926215572231
 31
0.0
  0
LINE
  5
725
330
650
100
AcDbEntity
  8
Kóta (ISO)
440
 16777216
100
AcDbLine
 10
99.82744446482668
 20
438.5926215572231
 30
0.0
 11
275.8274444648272
 21
438.5926215572231
 31
0.0
  0
SOLID
  5
726
330
650
100
AcDbEntity
  8
Kóta (ISO)
440
 16777216
100
AcDbTrace
 10
99.82744446482668
 20
439.0926215572231
 30
0.0
 11
99.82744446482668
 21
438.0926215572231
 31
0.0
 12
96.82744446482667
 22
438.5926215572231
 32
0.0
 13
96.82744446482667
 23
438.5926215572231
 33
0.0
  0
SOLID
  5
727
330
650
100
AcDbEntity
  8
Kóta (ISO)
440
 16777216
100
AcDbTrace
 10
275.8274444648272
 20
439.0926215572231
 30
0.0
 11
275.8274444648272
 21
438.0926215572231
 31
0.0
 12
278.8274444648272
 22
438.5926215572231
 32
0.0
 13
278.8274444648272
 23
438.5926215572231
 33
0.0
  0
MTEXT
  5
728
330
650
100
AcDbEntity
  8
Kóta (ISO)
440
 16777216
100
AcDbMText
 10
182.9361116104378
 20
445.8263382457908
 30
0.0
 40
4.2
 41
0.0
 71
     1
 72
     1
  1
\A1;{\fAIGDT|b0|i0;\H4.2000;\ln\fTahoma|b0|i0;\H4.2000;}182
  7
Text poznámky (ISO)
 73
     1
 44
1.0
  0
POINT
  5
729
330
650
100
AcDbEntity
  8
Defpoints
 62
     0
440
 16777216
100
AcDbPoint
 10
96.82744446482667
 20
412.1926215572233
 30
0.0
  0
POINT
  5
72A
330
650
100
AcDbEntity
  8
Defpoints
 62
     0
440
 16777216
100
AcDbPoint
 10
278.8274444648272
 20
412.1926215572231
 30
0.0
  0
POINT
  5
72B
330
650
100
AcDbEntity
  8
Defpoints
 62
     0
440
 16777216
100
AcDbPoint
 10
278.8274444648272
 20
438.5926215572231
 30
0.0
  0
ENDBLK
  5
652
330
650
100
AcDbEntity
  8
0
100
AcDbBlockEnd
  0
BLOCK
  5
72E
330
72D
100
AcDbEntity
  8
0
100
AcDbBlockBegin
  2
*D18
 70
     1
 10
0.0
 20
0.0
 30
0.0
  3
*D18
  1

  0
LINE
  5
7CD
330
72D
100
AcDbEntity
  8
Kóta (ISO)
440
 16777216
100
AcDbLine
 10
120.1458996731461
 20
75.02131709277404
 30
0.0
 11
255.5089892562819
 21
187.5061337504373
 31
0.0
  0
LINE
  5
7CE
330
72D
100
AcDbEntity
  8
Kóta (ISO)
440
 16777216
100
AcDbLine
 10
257.8163146469035
 20
189.4234885798294
 30
0.0
 11
282.3421708936416
 21
209.8041289137822
 31
0.0
  0
SOLID
  5
7CF
330
72D
100
AcDbEntity
  8
Kóta (ISO)
440
 16777216
100
AcDbTrace
 10
119.8263405349141
 20
75.40587132454432
 30
0.0
 11
120.4654588113781
 21
74.63676286100377
 31
0.0
 12
117.8385742825244
 22
73.10396226338205
 32
0.0
 13
117.8385742825244
 23
73.10396226338205
 33
0.0
  0
SOLID
  5
7D0
330
72D
100
AcDbEntity
  8
Kóta (ISO)
440
 16777216
100
AcDbTrace
 10
255.1894301180499
 20
187.8906879822077
 30
0.0
 11
255.8285483945139
 21
187.1215795186671
 31
0.0
 12
257.8163146469035
 22
189.4234885798294
 32
0.0
 13
257.8163146469035
 23
189.4234885798294
 33
0.0
  0
MTEXT
  5
7D1
102
{ACAD_XDICTIONARY
360
D38
102
}
330
72D
100
AcDbEntity
  8
Kóta (ISO)
440
 16777216
100
AcDbMText
 10
267.9139583894615
 20
205.2270998078568
 30
0.0
 40
4.2
 41
0.0
 71
     1
 72
     1
  1
\A1;\U+2205182
  7
Text poznámky (ISO)
 11
0.7691084635405423
 21
0.6391182764639942
 31
0.0
 73
     1
 44
1.0
  0
POINT
  5
7D2
330
72D
100
AcDbEntity
  8
Defpoints
 62
     0
440
 16777216
100
AcDbPoint
 10
257.8163146469035
 20
189.4234885798294
 30
0.0
  0
POINT
  5
7D3
330
72D
100
AcDbEntity
  8
Defpoints
 62
     0
440
 16777216
100
AcDbPoint
 10
117.8385742825244
 20
73.10396226338205
 30
0.0
  0
ENDBLK
  5
72F
330
72D
100
AcDbEntity
  8
0
100
AcDbBlockEnd
  0
BLOCK
  5
7D5
330
7D4
100
AcDbEntity
  8
0
100
AcDbBlockBegin
  2
Pozice1
 70
     0
 10
0.0
 20
0.0
 30
0.0
  3
Pozice1
  1

  0
LINE
  5
7D7
330
7D4
100
AcDbEntity
  8
Značka (ISO)
100
AcDbLine
 10
234.3950417949736
 20
340.7970827236395
 30
0.0
 11
232.3562037206893
 21
342.2438512976859
 31
0.0
  0
POLYLINE
  5
7D8
330
7D4
100
AcDbEntity
  8
Značka (ISO)
100
AcDb2dPolyline
 66
     1
 10
0.0
 20
0.0
 30
0.0
 70
   128
  0
VERTEX
  5
7D9
330
7D8
100
AcDbEntity
  8
Značka (ISO)
100
AcDbVertex
100
AcDb2dVertex
 10
234.6843910217285
 20
341.204833984375
 30
0.0
  0
VERTEX
  5
7DA
330
7D8
100
AcDbEntity
  8
Značka (ISO)
100
AcDbVertex
100
AcDb2dVertex
 10
232.3562049865723
 20
342.2438430786133
 30
0.0
  0
VERTEX
  5
7DC
330
7D8
100
AcDbEntity
  8
Značka (ISO)
100
AcDbVertex
100
AcDb2dVertex
 10
234.1056823730469
 20
340.3893280029297
 30
0.0
  0
VERTEX
  5
7DD
330
7D8
100
AcDbEntity
  8
Značka (ISO)
100
AcDbVertex
100
AcDb2dVertex
 10
234.6843910217285
 20
341.204833984375
 30
0.0
  0
SEQEND
  5
7DB
330
7D8
100
AcDbEntity
  8
Značka (ISO)
  0
SOLID
  5
7DE
330
7D4
100
AcDbEntity
  8
Značka (ISO)
100
AcDbTrace
 10
234.6843910217285
 20
341.204833984375
 30
0.0
 11
232.3562049865723
 21
342.2438430786133
 31
0.0
 12
234.1056823730469
 22
340.3893280029297
 32
0.0
 13
234.6843910217285
 23
341.204833984375
 33
0.0
  0
LINE
  5
7DF
330
7D4
100
AcDbEntity
  8
Značka (ISO)
100
AcDbLine
 10
234.6843955097829
 20
341.2048503384963
 30
0.0
 11
232.3562037206893
 21
342.2438512976859
 31
0.0
  0
LINE
  5
7E0
330
7D4
100
AcDbEntity
  8
Značka (ISO)
100
AcDbLine
 10
232.3562037206893
 20
342.2438512976859
 30
0.0
 11
234.1056880801643
 21
340.3893151087826
 31
0.0
  0
LINE
  5
7E1
330
7D4
100
AcDbEntity
  8
Značka (ISO)
100
AcDbLine
 10
234.1056880801643
 20
340.3893151087826
 30
0.0
 11
234.6843955097829
 21
341.2048503384963
 31
0.0
  0
LINE
  5
7E2
330
7D4
100
AcDbEntity
  8
Značka (ISO)
100
AcDbLine
 10
234.3950417949736
 20
340.7970827236395
 30
0.0
 11
255.5309676052952
 21
325.7989356753578
 31
0.0
  0
MTEXT
  5
7E3
330
7D4
100
AcDbEntity
  8
Značka (ISO)
100
AcDbMText
 10
263.7139896275425
 20
332.3699442383995
 30
0.0
 40
5.24999976158142
 41
0.0
 71
     5
 72
     1
  1
1.1
  7
Text popisu (ISO)
 73
     1
 44
1.0
  0
LINE
  5
7E4
330
7D4
100
AcDbEntity
  8
Značka (ISO)
100
AcDbLine
 10
255.5309676052952
 20
325.7989356753578
 30
0.0
 11
271.8970116497899
 21
325.7989356753578
 31
0.0
  0
ENDBLK
  5
7D6
330
7D4
100
AcDbEntity
  8
0
100
AcDbBlockEnd
  0
BLOCK
  5
7E7
330
7E6
100
AcDbEntity
  8
0
100
AcDbBlockBegin
  2
KUSOVNÍK
 70
     0
 10
0.0
 20
0.0
 30
0.0
  3
KUSOVNÍK
  1

  0
LINE
  5
7E9
330
7E6
100
AcDbEntity
  8
Značka (ISO)
100
AcDbLine
 10
584.0
 20
161.5331155598164
 30
0.0
 11
355.4375937230511
 21
161.5331155598164
 31
0.0
  0
LINE
  5
7EA
330
7E6
100
AcDbEntity
  8
Značka (ISO)
100
AcDbLine
 10
584.0
 20
161.5331155598164
 30
0.0
 11
584.0
 21
155.1844143629074
 31
0.0
  0
LINE
  5
7EB
330
7E6
100
AcDbEntity
  8
Značka (ISO)
100
AcDbLine
 10
355.4375937230511
 20
161.5331155598164
 30
0.0
 11
355.4375937230511
 21
155.1844143629074
 31
0.0
  0
MTEXT
  5
7EC
102
{ACAD_XDICTIONARY
360
D3A
102
}
330
7E6
100
AcDbEntity
  8
Značka (ISO)
100
AcDbMText
 10
459.175418449995
 20
155.9090896099806
 30
0.0
 40
3.499999940395355
 41
0.0
 71
     7
 72
     1
  1
KUSOVN\U+00CDK
  7
Text poznámky (DIN)
 73
     1
 44
1.0
  0
LINE
  5
7EE
330
7E6
100
AcDbEntity
  8
Značka (ISO)
100
AcDbLine
 10
584.0
 20
155.1844143629074
 30
0.0
 11
355.4375937230511
 21
155.1844143629074
 31
0.0
  0
LINE
  5
7EF
330
7E6
100
AcDbEntity
  8
Značka (ISO)
100
AcDbLine
 10
584.0
 20
155.1844143629074
 30
0.0
 11
584.0
 21
148.8357131659984
 31
0.0
  0
MTEXT
  5
7F0
102
{ACAD_XDICTIONARY
360
D3C
102
}
330
7E6
100
AcDbEntity
  8
Značka (ISO)
100
AcDbMText
 10
561.1072709453114
 20
149.5603884130716
 30
0.0
 40
3.499999940395355
 41
0.0
 71
     7
 72
     1
  1
MATERI\U+00C1L
  7
Text poznámky (DIN)
 73
     1
 44
1.0
  0
LINE
  5
7F1
330
7E6
100
AcDbEntity
  8
Značka (ISO)
100
AcDbLine
 10
558.6
 20
155.1844143629074
 30
0.0
 11
558.6
 21
148.8357131659984
 31
0.0
  0
MTEXT
  5
7F2
330
7E6
100
AcDbEntity
  8
Značka (ISO)
100
AcDbMText
 10
534.8322711837299
 20
150.2600637942552
 30
0.0
 40
3.499999940395355
 41
0.0
 71
     7
 72
     1
  1
HMOTNOST
  7
Text poznámky (DIN)
 73
     1
 44
1.0
  0
LINE
  5
7F3
330
7E6
100
AcDbEntity
  8
Značka (ISO)
100
AcDbLine
 10
533.2
 20
155.1844143629074
 30
0.0
 11
533.2
 21
148.8357131659984
 31
0.0
  0
MTEXT
  5
7F4
102
{ACAD_XDICTIONARY
360
D3E
102
}
330
7E6
100
AcDbEntity
  8
Značka (ISO)
100
AcDbMText
 10
509.607595862151
 20
149.5603884130716
 30
0.0
 40
3.499999940395355
 41
0.0
 71
     7
 72
     1
  1
SKLADOV\U+00C9
  7
Text poznámky (DIN)
 73
     1
 44
1.0
  0
LINE
  5
7F5
330
7E6
100
AcDbEntity
  8
Značka (ISO)
100
AcDbLine
 10
507.8
 20
155.1844143629074
 30
0.0
 11
507.8
 21
148.8357131659984
 31
0.0
  0
MTEXT
  5
7F6
330
7E6
100
AcDbEntity
  8
Značka (ISO)
100
AcDbMText
 10
443.12572540821
 20
150.2600637942552
 30
0.0
 40
3.499999940395355
 41
0.0
 71
     7
 72
     1
  1
POPIS
  7
Text poznámky (DIN)
 73
     1
 44
1.0
  0
LINE
  5
7F7
330
7E6
100
AcDbEntity
  8
Značka (ISO)
100
AcDbLine
 10
390.0901549947517
 20
155.1844143629074
 30
0.0
 11
390.0901549947517
 21
148.8357131659984
 31
0.0
  0
MTEXT
  5
7F8
330
7E6
100
AcDbEntity
  8
Značka (ISO)
100
AcDbMText
 10
379.7419799187222
 20
150.2600637942552
 30
0.0
 40
3.499999940395355
 41
0.0
 71
     7
 72
     1
  1
KS
  7
Text poznámky (DIN)
 73
     1
 44
1.0
  0
LINE
  5
7F9
330
7E6
100
AcDbEntity
  8
Značka (ISO)
100
AcDbLine
 10
374.3864057581231
 20
155.1844143629074
 30
0.0
 11
374.3864057581231
 21
148.8357131659984
 31
0.0
  0
MTEXT
  5
7FA
330
7E6
100
AcDbEntity
  8
Značka (ISO)
100
AcDbMText
 10
358.0439462458961
 20
150.2600637942552
 30
0.0
 40
3.499999940395355
 41
0.0
 71
     7
 72
     1
  1
POZICE
  7
Text poznámky (DIN)
 73
     1
 44
1.0
  0
LINE
  5
7FB
330
7E6
100
AcDbEntity
  8
Značka (ISO)
100
AcDbLine
 10
355.4375937230511
 20
155.1844143629074
 30
0.0
 11
355.4375937230511
 21
148.8357131659984
 31
0.0
  0
MTEXT
  5
7FC
330
7E6
100
AcDbEntity
  8
Značka (ISO)
100
AcDbMText
 10
559.8024007689961
 20
143.9113625973463
 30
0.0
 40
3.499999940395355
 41
0.0
 71
     7
 72
     1
  1
AISI 304
  7
Text poznámky (DIN)
 73
     1
 44
1.0
  0
MTEXT
  5
7FD
330
7E6
100
AcDbEntity
  8
Značka (ISO)
100
AcDbMText
 10
534.4024007689961
 20
142.8626613408327
 30
0.0
 40
3.499999940395355
 41
0.0
 71
     7
 72
     1
  1
0,6 kg
  7
Text poznámky (DIN)
 73
     1
 44
1.0
  0
MTEXT
  5
7FE
330
7E6
100
AcDbEntity
  8
Značka (ISO)
100
AcDbMText
 10
509.0024007689961
 20
143.9113625973463
 30
0.0
 40
3.499999940395355
 41
0.0
 71
     7
 72
     1
  1
E53938
  7
Text poznámky (DIN)
 73
     1
 44
1.0
  0
MTEXT
  5
7FF
102
{ACAD_XDICTIONARY
360
D40
102
}
330
7E6
100
AcDbEntity
  8
Značka (ISO)
100
AcDbMText
 10
391.2925557637478
 20
142.6889599949122
 30
0.0
 40
3.499999940395355
 41
0.0
 71
     7
 72
     1
  1
Sva\U+0159enec mezikus 12mm p\U+0159ir
  7
Text poznámky (DIN)
 73
     1
 44
1.0
  0
MTEXT
  5
800
330
7E6
100
AcDbEntity
  8
Značka (ISO)
100
AcDbMText
 10
381.6628811532144
 20
143.9113625973463
 30
0.0
 40
3.499999940395355
 41
0.0
 71
     7
 72
     1
  1
1
  7
Text poznámky (DIN)
 73
     1
 44
1.0
  0
MTEXT
  5
801
330
7E6
100
AcDbEntity
  8
Značka (ISO)
100
AcDbMText
 10
364.3366005173641
 20
143.9113625973463
 30
0.0
 40
3.499999940395355
 41
0.0
 71
     7
 72
     1
  1
1
  7
Text poznámky (DIN)
 73
     1
 44
1.0
  0
LINE
  5
802
330
7E6
100
AcDbEntity
  8
Značka (ISO)
100
AcDbLine
 10
584.0
 20
148.8357131659984
 30
0.0
 11
355.4375937230511
 21
148.8357131659984
 31
0.0
  0
MTEXT
  5
803
330
7E6
100
AcDbEntity
  8
Značka (ISO)
100
AcDbMText
 10
559.8024007689961
 20
137.5626614004374
 30
0.0
 40
3.499999940395355
 41
0.0
 71
     7
 72
     1
  1
AISI 304
  7
Text poznámky (DIN)
 73
     1
 44
1.0
  0
MTEXT
  5
804
330
7E6
100
AcDbEntity
  8
Značka (ISO)
100
AcDbMText
 10
534.4024007689961
 20
136.5139601439238
 30
0.0
 40
3.499999940395355
 41
0.0
 71
     7
 72
     1
  1
0,249 kg
  7
Text poznámky (DIN)
 73
     1
 44
1.0
  0
MTEXT
  5
805
330
7E6
100
AcDbEntity
  8
Značka (ISO)
100
AcDbMText
 10
509.0024007689961
 20
137.5626614004374
 30
0.0
 40
3.499999940395355
 41
0.0
 71
     7
 72
     1
  1
E23477
  7
Text poznámky (DIN)
 73
     1
 44
1.0
  0
MTEXT
  5
806
330
7E6
100
AcDbEntity
  8
Značka (ISO)
100
AcDbMText
 10
391.2925557637478
 20
137.5626614004374
 30
0.0
 40
3.499999940395355
 41
0.0
 71
     7
 72
     1
  1
Effidrain mezikus krouzek
  7
Text poznámky (DIN)
 73
     1
 44
1.0
  0
MTEXT
  5
807
330
7E6
100
AcDbEntity
  8
Značka (ISO)
100
AcDbMText
 10
381.6628811532144
 20
137.5626614004374
 30
0.0
 40
3.499999940395355
 41
0.0
 71
     7
 72
     1
  1
1
  7
Text poznámky (DIN)
 73
     1
 44
1.0
  0
MTEXT
  5
808
330
7E6
100
AcDbEntity
  8
Značka (ISO)
100
AcDbMText
 10
362.9372498295027
 20
137.5626614004374
 30
0.0
 40
3.499999940395355
 41
0.0
 71
     7
 72
     1
  1
1.1
  7
Text poznámky (DIN)
 73
     1
 44
1.0
  0
LINE
  5
809
330
7E6
100
AcDbEntity
  8
Značka (ISO)
100
AcDbLine
 10
584.0
 20
142.4870119690895
 30
0.0
 11
355.4375937230511
 21
142.4870119690895
 31
0.0
  0
MTEXT
  5
80A
330
7E6
100
AcDbEntity
  8
Značka (ISO)
100
AcDbMText
 10
559.8024007689961
 20
131.2139602035284
 30
0.0
 40
3.499999940395355
 41
0.0
 71
     7
 72
     1
  1
AISI 304
  7
Text poznámky (DIN)
 73
     1
 44
1.0
  0
MTEXT
  5
80B
330
7E6
100
AcDbEntity
  8
Značka (ISO)
100
AcDbMText
 10
534.4024007689961
 20
130.1652589470148
 30
0.0
 40
3.499999940395355
 41
0.0
 71
     7
 72
     1
  1
0,007 kg
  7
Text poznámky (DIN)
 73
     1
 44
1.0
  0
MTEXT
  5
80C
330
7E6
100
AcDbEntity
  8
Značka (ISO)
100
AcDbMText
 10
509.0024007689961
 20
131.2139602035284
 30
0.0
 40
3.499999940395355
 41
0.0
 71
     7
 72
     1
  1
NM1537
  7
Text poznámky (DIN)
 73
     1
 44
1.0
  0
MTEXT
  5
80D
102
{ACAD_XDICTIONARY
360
D42
102
}
330
7E6
100
AcDbEntity
  8
Značka (ISO)
100
AcDbMText
 10
391.2925557637478
 20
130.5142848223448
 30
0.0
 40
3.499999940395355
 41
0.0
 71
     7
 72
     1
  1
\U+0160roub nava\U+0159ovac\U+00ED nerez M8x16 A2 DIN 32501
  7
Text poznámky (DIN)
 73
     1
 44
1.0
  0
MTEXT
  5
80E
330
7E6
100
AcDbEntity
  8
Značka (ISO)
100
AcDbMText
 10
381.6628811532144
 20
131.2139602035284
 30
0.0
 40
3.499999940395355
 41
0.0
 71
     7
 72
     1
  1
1
  7
Text poznámky (DIN)
 73
     1
 44
1.0
  0
MTEXT
  5
80F
330
7E6
100
AcDbEntity
  8
Značka (ISO)
100
AcDbMText
 10
362.5882239541727
 20
131.2139602035284
 30
0.0
 40
3.499999940395355
 41
0.0
 71
     7
 72
     1
  1
1.3
  7
Text poznámky (DIN)
 73
     1
 44
1.0
  0
LINE
  5
810
330
7E6
100
AcDbEntity
  8
Značka (ISO)
100
AcDbLine
 10
584.0
 20
136.1383107721806
 30
0.0
 11
355.4375937230511
 21
136.1383107721806
 31
0.0
  0
MTEXT
  5
811
330
7E6
100
AcDbEntity
  8
Značka (ISO)
100
AcDbMText
 10
559.4999999999999
 20
124.8652590066195
 30
0.0
 40
3.499999940395355
 41
0.0
 71
     7
 72
     1
  1
 
  7
Text poznámky (DIN)
 73
     1
 44
1.0
  0
MTEXT
  5
812
330
7E6
100
AcDbEntity
  8
Značka (ISO)
100
AcDbMText
 10
534.4024007689961
 20
123.8165577501059
 30
0.0
 40
3.499999940395355
 41
0.0
 71
     7
 72
     1
  1
0,489 kg
  7
Text poznámky (DIN)
 73
     1
 44
1.0
  0
MTEXT
  5
813
330
7E6
100
AcDbEntity
  8
Značka (ISO)
100
AcDbMText
 10
509.0024007689961
 20
124.8652590066195
 30
0.0
 40
3.499999940395355
 41
0.0
 71
     7
 72
     1
  1
408205
  7
Text poznámky (DIN)
 73
     1
 44
1.0
  0
MTEXT
  5
814
102
{ACAD_XDICTIONARY
360
D44
102
}
330
7E6
100
AcDbEntity
  8
Značka (ISO)
100
AcDbMText
 10
391.2925557637478
 20
123.6428564041853
 30
0.0
 40
3.499999940395355
 41
0.0
 71
     7
 72
     1
  1
Effidrain dren\U+00E1\U+017En\U+00ED krou\U+017Eek komplet 157 + karton
  7
Text poznámky (DIN)
 73
     1
 44
1.0
  0
MTEXT
  5
815
330
7E6
100
AcDbEntity
  8
Značka (ISO)
100
AcDbMText
 10
381.6628811532144
 20
124.8652590066195
 30
0.0
 40
3.499999940395355
 41
0.0
 71
     7
 72
     1
  1
1
  7
Text poznámky (DIN)
 73
     1
 44
1.0
  0
MTEXT
  5
816
330
7E6
100
AcDbEntity
  8
Značka (ISO)
100
AcDbMText
 10
363.9903745746486
 20
124.8652590066195
 30
0.0
 40
3.499999940395355
 41
0.0
 71
     7
 72
     1
  1
2
  7
Text poznámky (DIN)
 73
     1
 44
1.0
  0
LINE
  5
817
330
7E6
100
AcDbEntity
  8
Značka (ISO)
100
AcDbLine
 10
584.0
 20
129.7896095752716
 30
0.0
 11
355.4375937230511
 21
129.7896095752716
 31
0.0
  0
MTEXT
  5
818
330
7E6
100
AcDbEntity
  8
Značka (ISO)
100
AcDbMText
 10
559.8024007689961
 20
118.5165578097105
 30
0.0
 40
3.499999940395355
 41
0.0
 71
     7
 72
     1
  1
Mosaz
  7
Text poznámky (DIN)
 73
     1
 44
1.0
  0
MTEXT
  5
819
330
7E6
100
AcDbEntity
  8
Značka (ISO)
100
AcDbMText
 10
534.4024007689961
 20
117.4678565531969
 30
0.0
 40
3.499999940395355
 41
0.0
 71
     7
 72
     1
  1
0,005 kg
  7
Text poznámky (DIN)
 73
     1
 44
1.0
  0
MTEXT
  5
81A
330
7E6
100
AcDbEntity
  8
Značka (ISO)
100
AcDbMText
 10
509.0024007689961
 20
118.5165578097105
 30
0.0
 40
3.499999940395355
 41
0.0
 71
     7
 72
     1
  1
90678
  7
Text poznámky (DIN)
 73
     1
 44
1.0
  0
MTEXT
  5
81B
330
7E6
100
AcDbEntity
  8
Značka (ISO)
100
AcDbMText
 10
391.2925557637478
 20
118.5165578097105
 30
0.0
 40
3.499999940395355
 41
0.0
 71
     7
 72
     1
  1
Matice M8 mosaz DIN 934
  7
Text poznámky (DIN)
 73
     1
 44
1.0
  0
MTEXT
  5
81C
330
7E6
100
AcDbEntity
  8
Značka (ISO)
100
AcDbMText
 10
381.6628811532144
 20
118.5165578097105
 30
0.0
 40
3.499999940395355
 41
0.0
 71
     7
 72
     1
  1
1
  7
Text poznámky (DIN)
 73
     1
 44
1.0
  0
MTEXT
  5
81D
330
7E6
100
AcDbEntity
  8
Značka (ISO)
100
AcDbMText
 10
363.9903745746486
 20
118.5165578097105
 30
0.0
 40
3.499999940395355
 41
0.0
 71
     7
 72
     1
  1
3
  7
Text poznámky (DIN)
 73
     1
 44
1.0
  0
LINE
  5
81E
330
7E6
100
AcDbEntity
  8
Značka (ISO)
100
AcDbLine
 10
584.0
 20
123.4409083783627
 30
0.0
 11
355.4375937230511
 21
123.4409083783627
 31
0.0
  0
MTEXT
  5
81F
330
7E6
100
AcDbEntity
  8
Značka (ISO)
100
AcDbMText
 10
559.8024007689961
 20
112.1678566128016
 30
0.0
 40
3.499999940395355
 41
0.0
 71
     7
 72
     1
  1
Plast ABS
  7
Text poznámky (DIN)
 73
     1
 44
1.0
  0
MTEXT
  5
820
330
7E6
100
AcDbEntity
  8
Značka (ISO)
100
AcDbMText
 10
534.4024007689961
 20
111.119155356288
 30
0.0
 40
3.499999940395355
 41
0.0
 71
     7
 72
     1
  1
0,002 kg
  7
Text poznámky (DIN)
 73
     1
 44
1.0
  0
MTEXT
  5
821
330
7E6
100
AcDbEntity
  8
Značka (ISO)
100
AcDbMText
 10
509.0024007689961
 20
112.1678566128016
 30
0.0
 40
3.499999940395355
 41
0.0
 71
     7
 72
     1
  1
91024
  7
Text poznámky (DIN)
 73
     1
 44
1.0
  0
MTEXT
  5
822
102
{ACAD_XDICTIONARY
360
D46
102
}
330
7E6
100
AcDbEntity
  8
Značka (ISO)
100
AcDbMText
 10
391.2925557637478
 20
110.9454540103674
 30
0.0
 40
3.499999940395355
 41
0.0
 71
     7
 72
     1
  1
krytka zem\U+00E1ku
  7
Text poznámky (DIN)
 73
     1
 44
1.0
  0
MTEXT
  5
823
330
7E6
100
AcDbEntity
  8
Značka (ISO)
100
AcDbMText
 10
381.6628811532144
 20
112.1678566128016
 30
0.0
 40
3.499999940395355
 41
0.0
 71
     7
 72
     1
  1
1
  7
Text poznámky (DIN)
 73
     1
 44
1.0
  0
MTEXT
  5
824
330
7E6
100
AcDbEntity
  8
Značka (ISO)
100
AcDbMText
 10
363.8150498962276
 20
112.1678566128016
 30
0.0
 40
3.499999940395355
 41
0.0
 71
     7
 72
     1
  1
4
  7
Text poznámky (DIN)
 73
     1
 44
1.0
  0
LINE
  5
825
330
7E6
100
AcDbEntity
  8
Značka (ISO)
100
AcDbLine
 10
584.0
 20
117.0922071814537
 30
0.0
 11
355.4375937230511
 21
117.0922071814537
 31
0.0
  0
MTEXT
  5
826
330
7E6
100
AcDbEntity
  8
Značka (ISO)
100
AcDbMText
 10
559.8024007689961
 20
104.770454159379
 30
0.0
 40
3.499999940395355
 41
0.0
 71
     7
 72
     1
  1
Polykarbon
  7
Text poznámky (DIN)
 73
     1
 44
1.0
  0
MTEXT
  5
827
102
{ACAD_XDICTIONARY
360
D48
102
}
330
7E6
100
AcDbEntity
  8
Značka (ISO)
100
AcDbMText
 10
559.8024007689961
 20
98.76915558278566
 30
0.0
 40
3.499999940395355
 41
0.0
 71
     7
 72
     1
  1
\U+00E1t, 
  7
Text poznámky (DIN)
 73
     1
 44
1.0
  0
MTEXT
  5
828
102
{ACAD_XDICTIONARY
360
D4A
102
}
330
7E6
100
AcDbEntity
  8
Značka (ISO)
100
AcDbMText
 10
559.8024007689961
 20
92.07305192053324
 30
0.0
 40
3.499999940395355
 41
0.0
 71
     7
 72
     1
  1
kou\U+0159ov\U+00FD
  7
Text poznámky (DIN)
 73
     1
 44
1.0
  0
MTEXT
  5
829
330
7E6
100
AcDbEntity
  8
Značka (ISO)
100
AcDbMText
 10
534.4024007689961
 20
104.770454159379
 30
0.0
 40
3.499999940395355
 41
0.0
 71
     7
 72
     1
  1
0,020 kg
  7
Text poznámky (DIN)
 73
     1
 44
1.0
  0
MTEXT
  5
82A
330
7E6
100
AcDbEntity
  8
Značka (ISO)
100
AcDbMText
 10
509.0024007689961
 20
105.8191554158926
 30
0.0
 40
3.499999940395355
 41
0.0
 71
     7
 72
     1
  1
E29863
  7
Text poznámky (DIN)
 73
     1
 44
1.0
  0
MTEXT
  5
82B
102
{ACAD_XDICTIONARY
360
D4C
102
}
330
7E6
100
AcDbEntity
  8
Značka (ISO)
100
AcDbMText
 10
391.2925557637478
 20
104.5967528134585
 30
0.0
 40
3.499999940395355
 41
0.0
 71
     7
 72
     1
  1
Effidrain kryt plastov\U+00FD 157 pro balen\U+00ED PP 12mm
  7
Text poznámky (DIN)
 73
     1
 44
1.0
  0
MTEXT
  5
82C
330
7E6
100
AcDbEntity
  8
Značka (ISO)
100
AcDbMText
 10
381.6628811532144
 20
105.8191554158926
 30
0.0
 40
3.499999940395355
 41
0.0
 71
     7
 72
     1
  1
1
  7
Text poznámky (DIN)
 73
     1
 44
1.0
  0
MTEXT
  5
82D
330
7E6
100
AcDbEntity
  8
Značka (ISO)
100
AcDbMText
 10
363.9903745746486
 20
105.8191554158926
 30
0.0
 40
3.499999940395355
 41
0.0
 71
     7
 72
     1
  1
5
  7
Text poznámky (DIN)
 73
     1
 44
1.0
  0
LINE
  5
82E
330
7E6
100
AcDbEntity
  8
Značka (ISO)
100
AcDbLine
 10
584.0
 20
110.7435059845448
 30
0.0
 11
355.4375937230511
 21
110.7435059845448
 31
0.0
  0
MTEXT
  5
82F
102
{ACAD_XDICTIONARY
360
D4E
102
}
330
7E6
100
AcDbEntity
  8
Značka (ISO)
100
AcDbMText
 10
559.8024007689961
 20
85.55064922273164
 30
0.0
 40
3.499999940395355
 41
0.0
 71
     7
 72
     1
  1
Pap\U+00EDr
  7
Text poznámky (DIN)
 73
     1
 44
1.0
  0
MTEXT
  5
830
330
7E6
100
AcDbEntity
  8
Značka (ISO)
100
AcDbMText
 10
534.4024007689961
 20
85.7243505686522
 30
0.0
 40
3.499999940395355
 41
0.0
 71
     7
 72
     1
  1
0,001 kg
  7
Text poznámky (DIN)
 73
     1
 44
1.0
  0
MTEXT
  5
831
330
7E6
100
AcDbEntity
  8
Značka (ISO)
100
AcDbMText
 10
509.0024007689961
 20
86.7730518251658
 30
0.0
 40
3.499999940395355
 41
0.0
 71
     7
 72
     1
  1
91018
  7
Text poznámky (DIN)
 73
     1
 44
1.0
  0
MTEXT
  5
832
330
7E6
100
AcDbEntity
  8
Značka (ISO)
100
AcDbMText
 10
391.2925557637478
 20
86.7730518251658
 30
0.0
 40
3.499999940395355
 41
0.0
 71
     7
 72
     1
  1
Etiketa
  7
Text poznámky (DIN)
 73
     1
 44
1.0
  0
MTEXT
  5
833
330
7E6
100
AcDbEntity
  8
Značka (ISO)
100
AcDbMText
 10
381.6628811532144
 20
86.7730518251658
 30
0.0
 40
3.499999940395355
 41
0.0
 71
     7
 72
     1
  1
1
  7
Text poznámky (DIN)
 73
     1
 44
1.0
  0
MTEXT
  5
834
330
7E6
100
AcDbEntity
  8
Značka (ISO)
100
AcDbMText
 10
363.9903745746486
 20
86.7730518251658
 30
0.0
 40
3.499999940395355
 41
0.0
 71
     7
 72
     1
  1
6
  7
Text poznámky (DIN)
 73
     1
 44
1.0
  0
LINE
  5
835
330
7E6
100
AcDbEntity
  8
Značka (ISO)
100
AcDbLine
 10
584.0
 20
91.69740239381795
 30
0.0
 11
355.4375937230511
 21
91.69740239381795
 31
0.0
  0
MTEXT
  5
836
330
7E6
100
AcDbEntity
  8
Značka (ISO)
100
AcDbMText
 10
559.8024007689961
 20
80.42435062825687
 30
0.0
 40
3.499999940395355
 41
0.0
 71
     7
 72
     1
  1
AISI 304
  7
Text poznámky (DIN)
 73
     1
 44
1.0
  0
MTEXT
  5
837
330
7E6
100
AcDbEntity
  8
Značka (ISO)
100
AcDbMText
 10
534.4024007689961
 20
79.37564937174326
 30
0.0
 40
3.499999940395355
 41
0.0
 71
     7
 72
     1
  1
0,345 kg
  7
Text poznámky (DIN)
 73
     1
 44
1.0
  0
MTEXT
  5
838
330
7E6
100
AcDbEntity
  8
Značka (ISO)
100
AcDbMText
 10
509.0024007689961
 20
80.42435062825687
 30
0.0
 40
3.499999940395355
 41
0.0
 71
     7
 72
     1
  1
E55089
  7
Text poznámky (DIN)
 73
     1
 44
1.0
  0
MTEXT
  5
839
102
{ACAD_XDICTIONARY
360
D50
102
}
330
7E6
100
AcDbEntity
  8
Značka (ISO)
100
AcDbMText
 10
391.2925557637478
 20
79.2019480258227
 30
0.0
 40
3.499999940395355
 41
0.0
 71
     7
 72
     1
  1
Vypust pro \U+017Elab D157/142 snizena AISI 304
  7
Text poznámky (DIN)
 73
     1
 44
1.0
  0
MTEXT
  5
83A
330
7E6
100
AcDbEntity
  8
Značka (ISO)
100
AcDbMText
 10
381.6628811532144
 20
80.42435062825687
 30
0.0
 40
3.499999940395355
 41
0.0
 71
     7
 72
     1
  1
1
  7
Text poznámky (DIN)
 73
     1
 44
1.0
  0
MTEXT
  5
83B
330
7E6
100
AcDbEntity
  8
Značka (ISO)
100
AcDbMText
 10
362.766348639714
 20
80.42435062825687
 30
0.0
 40
3.499999940395355
 41
0.0
 71
     7
 72
     1
  1
53
  7
Text poznámky (DIN)
 73
     1
 44
1.0
  0
LINE
  5
83C
330
7E6
100
AcDbEntity
  8
Značka (ISO)
100
AcDbLine
 10
584.0
 20
85.348701196909
 30
0.0
 11
355.4375937230511
 21
85.348701196909
 31
0.0
  0
LINE
  5
83D
330
7E6
100
AcDbEntity
  8
Značka (ISO)
100
AcDbLine
 10
584.0
 20
79.00000000000005
 30
0.0
 11
355.4375937230511
 21
79.00000000000005
 31
0.0
  0
LINE
  5
83E
330
7E6
100
AcDbEntity
  8
Značka (ISO)
100
AcDbLine
 10
584.0
 20
148.8357131659984
 30
0.0
 11
584.0
 21
79.00000000000005
 31
0.0
  0
LINE
  5
83F
330
7E6
100
AcDbEntity
  8
Značka (ISO)
100
AcDbLine
 10
558.6
 20
148.8357131659984
 30
0.0
 11
558.6
 21
79.00000000000005
 31
0.0
  0
LINE
  5
840
330
7E6
100
AcDbEntity
  8
Značka (ISO)
100
AcDbLine
 10
533.2
 20
148.8357131659984
 30
0.0
 11
533.2
 21
79.00000000000005
 31
0.0
  0
LINE
  5
841
330
7E6
100
AcDbEntity
  8
Značka (ISO)
100
AcDbLine
 10
507.8
 20
148.8357131659984
 30
0.0
 11
507.8
 21
79.00000000000005
 31
0.0
  0
LINE
  5
842
330
7E6
100
AcDbEntity
  8
Značka (ISO)
100
AcDbLine
 10
390.0901549947517
 20
148.8357131659984
 30
0.0
 11
390.0901549947517
 21
79.00000000000005
 31
0.0
  0
LINE
  5
843
330
7E6
100
AcDbEntity
  8
Značka (ISO)
100
AcDbLine
 10
374.3864057581231
 20
148.8357131659984
 30
0.0
 11
374.3864057581231
 21
79.00000000000005
 31
0.0
  0
LINE
  5
844
330
7E6
100
AcDbEntity
  8
Značka (ISO)
100
AcDbLine
 10
355.4375937230511
 20
148.8357131659984
 30
0.0
 11
355.4375937230511
 21
79.00000000000005
 31
0.0
  0
ENDBLK
  5
7E8
330
7E6
100
AcDbEntity
  8
0
100
AcDbBlockEnd
  0
BLOCK
  5
848
330
847
100
AcDbEntity
  8
0
100
AcDbBlockBegin
  2
Pozice2
 70
     0
 10
0.0
 20
0.0
 30
0.0
  3
Pozice2
  1

  0
LINE
  5
84A
330
847
100
AcDbEntity
  8
Značka (ISO)
100
AcDbLine
 10
225.8526129167875
 20
344.1381790706612
 30
0.0
 11
223.4370712133651
 21
343.4938512976859
 31
0.0
  0
POLYLINE
  5
84B
330
847
100
AcDbEntity
  8
Značka (ISO)
100
AcDb2dPolyline
 66
     1
 10
0.0
 20
0.0
 30
0.0
 70
   128
  0
VERTEX
  5
84C
330
84B
100
AcDbEntity
  8
Značka (ISO)
100
AcDbVertex
100
AcDb2dVertex
 10
225.7237434387207
 20
344.6212768554687
 30
0.0
  0
VERTEX
  5
84D
330
84B
100
AcDbEntity
  8
Značka (ISO)
100
AcDbVertex
100
AcDb2dVertex
 10
223.4370803833008
 20
343.4938430786133
 30
0.0
  0
VERTEX
  5
84F
330
84B
100
AcDbEntity
  8
Značka (ISO)
100
AcDbVertex
100
AcDb2dVertex
 10
225.9814834594727
 20
343.6550521850586
 30
0.0
  0
VERTEX
  5
850
330
84B
100
AcDbEntity
  8
Značka (ISO)
100
AcDbVertex
100
AcDb2dVertex
 10
225.7237434387207
 20
344.6212768554687
 30
0.0
  0
SEQEND
  5
84E
330
84B
100
AcDbEntity
  8
Značka (ISO)
  0
SOLID
  5
851
330
847
100
AcDbEntity
  8
Značka (ISO)
100
AcDbTrace
 10
225.7237434387207
 20
344.6212768554687
 30
0.0
 11
223.4370803833008
 21
343.4938430786133
 31
0.0
 12
225.9814834594727
 22
343.6550521850586
 32
0.0
 13
225.7237434387207
 23
344.6212768554687
 33
0.0
  0
LINE
  5
852
330
847
100
AcDbEntity
  8
Značka (ISO)
100
AcDbLine
 10
225.7237473621924
 20
344.6212874113457
 30
0.0
 11
223.4370712133651
 21
343.4938512976859
 31
0.0
  0
LINE
  5
853
330
847
100
AcDbEntity
  8
Značka (ISO)
100
AcDbLine
 10
223.4370712133651
 20
343.4938512976859
 30
0.0
 11
225.9814784713825
 21
343.6550707299768
 31
0.0
  0
LINE
  5
854
330
847
100
AcDbEntity
  8
Značka (ISO)
100
AcDbLine
 10
225.9814784713825
 20
343.6550707299768
 30
0.0
 11
225.7237473621924
 21
344.6212874113457
 31
0.0
  0
LINE
  5
855
330
847
100
AcDbEntity
  8
Značka (ISO)
100
AcDbLine
 10
225.8526129167875
 20
344.1381790706612
 30
0.0
 11
254.9602896410764
 21
351.9024352181228
 31
0.0
  0
CIRCLE
  5
856
330
847
100
AcDbEntity
  8
Značka (ISO)
100
AcDbCircle
 10
262.5402960929336
 20
353.9243455289006
 30
0.0
 40
7.874999642372131
  0
MTEXT
  5
857
330
847
100
AcDbEntity
  8
Značka (ISO)
100
AcDbMText
 10
262.5402960929336
 20
353.9243455289006
 30
0.0
 40
5.24999976158142
 41
0.0
 71
     5
 72
     1
  1
1
  7
Text popisu (ISO)
 73
     1
 44
1.0
  0
ENDBLK
  5
849
330
847
100
AcDbEntity
  8
0
100
AcDbBlockEnd
  0
BLOCK
  5
85A
330
859
100
AcDbEntity
  8
0
100
AcDbBlockBegin
  2
Pozice3
 70
     0
 10
0.0
 20
0.0
 30
0.0
  3
Pozice3
  1

  0
LINE
  5
85C
330
859
100
AcDbEntity
  8
Značka (ISO)
100
AcDbLine
 10
235.5794617778774
 20
338.8673818581662
 30
0.0
 11
233.1303710036293
 21
339.3693324329173
 31
0.0
  0
POLYLINE
  5
85D
330
859
100
AcDbEntity
  8
Značka (ISO)
100
AcDb2dPolyline
 66
     1
 10
0.0
 20
0.0
 30
0.0
 70
   128
  0
VERTEX
  5
85E
330
85D
100
AcDbEntity
  8
Značka (ISO)
100
AcDbVertex
100
AcDb2dVertex
 10
235.6798553466797
 20
339.3571853637695
 30
0.0
  0
VERTEX
  5
85F
330
85D
100
AcDbEntity
  8
Značka (ISO)
100
AcDbVertex
100
AcDb2dVertex
 10
233.1303787231445
 20
339.3693161010742
 30
0.0
  0
VERTEX
  5
861
330
85D
100
AcDbEntity
  8
Značka (ISO)
100
AcDbVertex
100
AcDb2dVertex
 10
235.4790687561035
 20
338.377571105957
 30
0.0
  0
VERTEX
  5
862
330
85D
100
AcDbEntity
  8
Značka (ISO)
100
AcDbVertex
100
AcDb2dVertex
 10
235.6798553466797
 20
339.3571853637695
 30
0.0
  0
SEQEND
  5
860
330
85D
100
AcDbEntity
  8
Značka (ISO)
  0
SOLID
  5
863
330
859
100
AcDbEntity
  8
Značka (ISO)
100
AcDbTrace
 10
235.6798553466797
 20
339.3571853637695
 30
0.0
 11
233.1303787231445
 21
339.3693161010742
 31
0.0
 12
235.4790687561035
 22
338.377571105957
 32
0.0
 13
235.6798553466797
 23
339.3571853637695
 33
0.0
  0
LINE
  5
864
330
859
100
AcDbEntity
  8
Značka (ISO)
100
AcDbLine
 10
235.6798518928276
 20
339.3572000130158
 30
0.0
 11
233.1303710036293
 21
339.3693324329173
 31
0.0
  0
LINE
  5
865
330
859
100
AcDbEntity
  8
Značka (ISO)
100
AcDbLine
 10
233.1303710036293
 20
339.3693324329173
 30
0.0
 11
235.4790716629272
 21
338.3775637033165
 31
0.0
  0
LINE
  5
866
330
859
100
AcDbEntity
  8
Značka (ISO)
100
AcDbLine
 10
235.4790716629272
 20
338.3775637033165
 30
0.0
 11
235.6798518928276
 21
339.3572000130158
 31
0.0
  0
LINE
  5
867
330
859
100
AcDbEntity
  8
Značka (ISO)
100
AcDbLine
 10
235.5794617778774
 20
338.8673818581662
 30
0.0
 11
254.2303309049435
 21
335.0448144889295
 31
0.0
  0
MTEXT
  5
868
330
859
100
AcDbEntity
  8
Značka (ISO)
100
AcDbMText
 10
262.1053305473156
 20
341.7732380014703
 30
0.0
 40
5.24999976158142
 41
0.0
 71
     5
 72
     1
  1
5
  7
Text popisu (ISO)
 73
     1
 44
1.0
  0
LINE
  5
869
330
859
100
AcDbEntity
  8
Značka (ISO)
100
AcDbLine
 10
254.2303309049435
 20
335.0448144889295
 30
0.0
 11
269.9803301896878
 21
335.0448144889295
 31
0.0
  0
ENDBLK
  5
85B
330
859
100
AcDbEntity
  8
0
100
AcDbBlockEnd
  0
BLOCK
  5
86C
330
86B
100
AcDbEntity
  8
0
100
AcDbBlockBegin
  2
Pozice4
 70
     0
 10
0.0
 20
0.0
 30
0.0
  3
Pozice4
  1

  0
LINE
  5
86E
330
86B
100
AcDbEntity
  8
Značka (ISO)
100
AcDbLine
 10
230.7440120280982
 20
343.2523185057696
 30
0.0
 11
228.3291974623755
 21
343.8993661185258
 31
0.0
  0
POLYLINE
  5
86F
330
86B
100
AcDbEntity
  8
Značka (ISO)
100
AcDb2dPolyline
 66
     1
 10
0.0
 20
0.0
 30
0.0
 70
   128
  0
VERTEX
  5
870
330
86F
100
AcDbEntity
  8
Značka (ISO)
100
AcDbVertex
100
AcDb2dVertex
 10
230.8734130859375
 20
343.7352752685547
 30
0.0
  0
VERTEX
  5
871
330
86F
100
AcDbEntity
  8
Značka (ISO)
100
AcDbVertex
100
AcDb2dVertex
 10
228.3292007446289
 20
343.8993835449219
 30
0.0
  0
VERTEX
  5
873
330
86F
100
AcDbEntity
  8
Značka (ISO)
100
AcDbVertex
100
AcDb2dVertex
 10
230.6146049499512
 20
342.7693557739258
 30
0.0
  0
VERTEX
  5
874
330
86F
100
AcDbEntity
  8
Značka (ISO)
100
AcDbVertex
100
AcDb2dVertex
 10
230.8734130859375
 20
343.7352752685547
 30
0.0
  0
SEQEND
  5
872
330
86F
100
AcDbEntity
  8
Značka (ISO)
  0
SOLID
  5
875
330
86B
100
AcDbEntity
  8
Značka (ISO)
100
AcDbTrace
 10
230.8734130859375
 20
343.7352752685547
 30
0.0
 11
228.3292007446289
 21
343.8993835449219
 31
0.0
 12
230.6146049499512
 22
342.7693557739258
 32
0.0
 13
230.8734130859375
 23
343.7352752685547
 33
0.0
  0
LINE
  5
876
330
86B
100
AcDbEntity
  8
Značka (ISO)
100
AcDbLine
 10
230.8734215506495
 20
343.7352814189142
 30
0.0
 11
228.3291974623755
 21
343.8993661185258
 31
0.0
  0
LINE
  5
877
330
86B
100
AcDbEntity
  8
Značka (ISO)
100
AcDbLine
 10
228.3291974623755
 20
343.8993661185258
 30
0.0
 11
230.6146025055469
 21
342.769355592625
 31
0.0
  0
LINE
  5
878
330
86B
100
AcDbEntity
  8
Značka (ISO)
100
AcDbLine
 10
230.6146025055469
 20
342.769355592625
 30
0.0
 11
230.8734215506495
 21
343.7352814189142
 31
0.0
  0
LINE
  5
879
330
86B
100
AcDbEntity
  8
Značka (ISO)
100
AcDbLine
 10
230.7440120280982
 20
343.2523185057696
 30
0.0
 11
232.8029526691831
 21
342.7006270237273
 31
0.0
  0
LINE
  5
87A
330
86B
100
AcDbEntity
  8
Značka (ISO)
100
AcDbLine
 10
233.8272761179746
 20
342.4261603828354
 30
0.0
 11
254.2304309049438
 21
336.9591515346209
 31
0.0
  0
MTEXT
  5
87B
330
86B
100
AcDbEntity
  8
Značka (ISO)
100
AcDbMText
 10
265.7383410172386
 20
342.6035235559411
 30
0.0
 40
5.24999976158142
 41
0.0
 71
     5
 72
     1
  1
2
  7
Text popisu (ISO)
 73
     1
 44
1.0
  0
LINE
  5
87C
330
86B
100
AcDbEntity
  8
Značka (ISO)
100
AcDbLine
 10
257.8633413748665
 20
335.9857161080308
 30
0.0
 11
273.6133406596108
 21
335.9857161080308
 31
0.0
  0
ENDBLK
  5
86D
330
86B
100
AcDbEntity
  8
0
100
AcDbBlockEnd
  0
BLOCK
  5
87F
330
87E
100
AcDbEntity
  8
0
100
AcDbBlockBegin
  2
Pozice5
 70
     0
 10
0.0
 20
0.0
 30
0.0
  3
Pozice5
  1

  0
LINE
  5
881
330
87E
100
AcDbEntity
  8
Značka (ISO)
100
AcDbLine
 10
227.1073800109547
 20
359.0367070464047
 30
0.0
 11
224.7988487171724
 21
358.0771846310191
 31
0.0
  0
POLYLINE
  5
882
330
87E
100
AcDbEntity
  8
Značka (ISO)
100
AcDb2dPolyline
 66
     1
 10
0.0
 20
0.0
 30
0.0
 70
   128
  0
VERTEX
  5
883
330
882
100
AcDbEntity
  8
Značka (ISO)
100
AcDbVertex
100
AcDb2dVertex
 10
226.9154739379883
 20
359.498405456543
 30
0.0
  0
VERTEX
  5
884
330
882
100
AcDbEntity
  8
Značka (ISO)
100
AcDbVertex
100
AcDb2dVertex
 10
224.7988510131836
 20
358.0772018432617
 30
0.0
  0
VERTEX
  5
886
330
882
100
AcDbEntity
  8
Značka (ISO)
100
AcDbVertex
100
AcDb2dVertex
 10
227.2992897033692
 20
358.5750198364258
 30
0.0
  0
VERTEX
  5
887
330
882
100
AcDbEntity
  8
Značka (ISO)
100
AcDbVertex
100
AcDb2dVertex
 10
226.9154739379883
 20
359.498405456543
 30
0.0
  0
SEQEND
  5
885
330
882
100
AcDbEntity
  8
Značka (ISO)
  0
SOLID
  5
888
330
87E
100
AcDbEntity
  8
Značka (ISO)
100
AcDbTrace
 10
226.9154739379883
 20
359.498405456543
 30
0.0
 11
224.7988510131836
 21
358.0772018432617
 31
0.0
 12
227.2992897033692
 22
358.5750198364258
 32
0.0
 13
226.9154739379883
 23
359.498405456543
 33
0.0
  0
LINE
  5
889
330
87E
100
AcDbEntity
  8
Značka (ISO)
100
AcDbLine
 10
226.9154755278776
 20
359.4984133051611
 30
0.0
 11
224.7988487171724
 21
358.0771846310191
 31
0.0
  0
LINE
  5
88A
330
87E
100
AcDbEntity
  8
Značka (ISO)
100
AcDbLine
 10
224.7988487171724
 20
358.0771846310191
 30
0.0
 11
227.2992844940318
 21
358.5750007876482
 31
0.0
  0
LINE
  5
88B
330
87E
100
AcDbEntity
  8
Značka (ISO)
100
AcDbLine
 10
227.2992844940318
 20
358.5750007876482
 30
0.0
 11
226.9154755278776
 21
359.4984133051611
 31
0.0
  0
LINE
  5
88C
330
87E
100
AcDbEntity
  8
Značka (ISO)
100
AcDbLine
 10
227.1073800109547
 20
359.0367070464047
 30
0.0
 11
260.1009898397679
 21
372.7502348987219
 31
0.0
  0
MTEXT
  5
88D
330
87E
100
AcDbEntity
  8
Značka (ISO)
100
AcDbMText
 10
268.2840118620152
 20
379.5339661571962
 30
0.0
 40
5.24999976158142
 41
0.0
 71
     5
 72
     1
  1
1.3
  7
Text popisu (ISO)
 73
     1
 44
1.0
  0
LINE
  5
88E
330
87E
100
AcDbEntity
  8
Značka (ISO)
100
AcDbLine
 10
260.1009898397679
 20
372.7502348987219
 30
0.0
 11
276.4670338842626
 21
372.7502348987219
 31
0.0
  0
MTEXT
  5
88F
330
87E
100
AcDbEntity
  8
Značka (ISO)
100
AcDbMText
 10
284.3420335266347
 20
379.5339661571962
 30
0.0
 40
5.24999976158142
 41
0.0
 71
     5
 72
     1
  1
3
  7
Text popisu (ISO)
 73
     1
 44
1.0
  0
LINE
  5
890
330
87E
100
AcDbEntity
  8
Značka (ISO)
100
AcDbLine
 10
276.4670338842626
 20
372.7502348987219
 30
0.0
 11
278.0420338127369
 21
371.1752349702476
 31
0.0
  0
LINE
  5
891
330
87E
100
AcDbEntity
  8
Značka (ISO)
100
AcDbLine
 10
278.0420338127369
 20
371.1752349702476
 30
0.0
 11
279.6170337412114
 21
372.7502348987219
 31
0.0
  0
LINE
  5
892
330
87E
100
AcDbEntity
  8
Značka (ISO)
100
AcDbLine
 10
279.6170337412114
 20
372.7502348987219
 30
0.0
 11
292.2170331690068
 21
372.7502348987219
 31
0.0
  0
MTEXT
  5
893
330
87E
100
AcDbEntity
  8
Značka (ISO)
100
AcDbMText
 10
300.0920328113789
 20
379.3127346006987
 30
0.0
 40
5.24999976158142
 41
0.0
 71
     5
 72
     1
  1
4
  7
Text popisu (ISO)
 73
     1
 44
1.0
  0
LINE
  5
894
330
87E
100
AcDbEntity
  8
Značka (ISO)
100
AcDbLine
 10
292.2170331690068
 20
372.7502348987219
 30
0.0
 11
293.7920330974812
 21
371.1752349702476
 31
0.0
  0
LINE
  5
895
330
87E
100
AcDbEntity
  8
Značka (ISO)
100
AcDbLine
 10
293.7920330974812
 20
371.1752349702476
 30
0.0
 11
295.3670330259557
 21
372.7502348987219
 31
0.0
  0
LINE
  5
896
330
87E
100
AcDbEntity
  8
Značka (ISO)
100
AcDbLine
 10
295.3670330259557
 20
372.7502348987219
 30
0.0
 11
307.9670324537511
 21
372.7502348987219
 31
0.0
  0
ENDBLK
  5
880
330
87E
100
AcDbEntity
  8
0
100
AcDbBlockEnd
  0
BLOCK
  5
899
330
898
100
AcDbEntity
  8
0
100
AcDbBlockBegin
  2
Identifikátor značky svaru1
 70
     0
 10
0.0
 20
0.0
 30
0.0
  3
Identifikátor značky svaru1
  1

  0
LINE
  5
89B
330
898
100
AcDbEntity
  8
Značka (ISO)
100
AcDbLine
 10
218.6511925719911
 20
318.2746485416481
 30
0.0
 11
220.6895370540224
 21
316.8271846310193
 31
0.0
  0
POLYLINE
  5
89C
330
898
100
AcDbEntity
  8
Značka (ISO)
100
AcDb2dPolyline
 66
     1
 10
0.0
 20
0.0
 30
0.0
 70
   128
  0
VERTEX
  5
89D
330
89C
100
AcDbEntity
  8
Značka (ISO)
100
AcDbVertex
100
AcDb2dVertex
 10
218.361701965332
 20
317.8669738769531
 30
0.0
  0
VERTEX
  5
89E
330
89C
100
AcDbEntity
  8
Značka (ISO)
100
AcDbVertex
100
AcDb2dVertex
 10
220.6895446777344
 20
316.8271827697754
 30
0.0
  0
VERTEX
  5
8A0
330
89C
100
AcDbEntity
  8
Značka (ISO)
100
AcDbVertex
100
AcDb2dVertex
 10
218.9406776428223
 20
318.6823081970215
 30
0.0
  0
VERTEX
  5
8A1
330
89C
100
AcDbEntity
  8
Značka (ISO)
100
AcDbVertex
100
AcDb2dVertex
 10
218.361701965332
 20
317.8669738769531
 30
0.0
  0
SEQEND
  5
89F
330
89C
100
AcDbEntity
  8
Značka (ISO)
  0
SOLID
  5
8A2
330
898
100
AcDbEntity
  8
Značka (ISO)
100
AcDbTrace
 10
218.361701965332
 20
317.8669738769531
 30
0.0
 11
220.6895446777344
 21
316.8271827697754
 31
0.0
 12
218.9406776428223
 22
318.6823081970215
 32
0.0
 13
218.361701965332
 23
317.8669738769531
 33
0.0
  0
LINE
  5
8A3
330
898
100
AcDbEntity
  8
Značka (ISO)
100
AcDbLine
 10
218.3616997898654
 20
317.8669796452418
 30
0.0
 11
220.6895370540224
 21
316.8271846310193
 31
0.0
  0
LINE
  5
8A4
330
898
100
AcDbEntity
  8
Značka (ISO)
100
AcDbLine
 10
220.6895370540224
 20
316.8271846310193
 30
0.0
 11
218.9406853541168
 21
318.6823174380543
 31
0.0
  0
LINE
  5
8A5
330
898
100
AcDbEntity
  8
Značka (ISO)
100
AcDbLine
 10
218.9406853541168
 20
318.6823174380543
 30
0.0
 11
218.3616997898654
 21
317.8669796452418
 31
0.0
  0
LINE
  5
8A6
330
898
100
AcDbEntity
  8
Značka (ISO)
100
AcDbLine
 10
218.6511925719911
 20
318.2746485416481
 30
0.0
 11
208.5454624106937
 21
325.4509035014832
 31
0.0
  0
CIRCLE
  5
8A7
330
898
100
AcDbEntity
  8
Značka (ISO)
100
AcDbCircle
 10
208.5454624106937
 20
325.4509035014832
 30
0.0
 40
1.500000059604644
  0
LINE
  5
8A8
330
898
100
AcDbEntity
  8
Značka (ISO)
100
AcDbLine
 10
195.0454621126705
 20
326.5009035014833
 30
0.0
 11
201.0454623510891
 21
326.5009035014833
 31
0.0
  0
LINE
  5
8A9
330
898
100
AcDbEntity
  8
Značka (ISO)
100
AcDbLine
 10
201.0454623510891
 20
326.5009035014833
 30
0.0
 11
195.0454621126705
 21
332.5009037399019
 31
0.0
  0
LINE
  5
8AA
330
898
100
AcDbEntity
  8
Značka (ISO)
100
AcDbLine
 10
195.0454621126705
 20
332.5009037399019
 30
0.0
 11
195.0454621126705
 21
326.5009035014833
 31
0.0
  0
LINE
  5
8AB
330
898
100
AcDbEntity
  8
Značka (ISO)
  6
Continuous
100
AcDbLine
 10
208.5454624106937
 20
326.5009035014833
 30
0.0
 11
189.0454621126705
 21
326.5009035014833
 31
0.0
  0
LINE
  5
8AC
330
898
100
AcDbEntity
  8
Značka (ISO)
100
AcDbLine
 10
208.5454624091937
 20
325.4509035014832
 30
0.0
 11
189.0454621126705
 21
325.4509035014832
 31
0.0
  0
ENDBLK
  5
89A
330
898
100
AcDbEntity
  8
0
100
AcDbBlockEnd
  0
BLOCK
  5
9E1
330
9DF
100
AcDbEntity
  8
0
100
AcDbBlockBegin
  2
GENAXEH
 70
     0
 10
0.0
 20
0.0
 30
0.0
  3
GENAXEH
  1

  0
LINE
  5
9E0
330
9DF
100
AcDbEntity
  8
0
100
AcDbLine
 10
-1.0
 20
0.0
 30
0.0
 11
1.0
 21
0.0
 31
0.0
  0
ENDBLK
  5
9E2
330
9DF
100
AcDbEntity
  8
0
100
AcDbBlockEnd
  0
BLOCK
  5
9F3
330
9F2
100
AcDbEntity
  8
0
100
AcDbBlockBegin
  2
*D28
 70
     1
 10
0.0
 20
0.0
 30
0.0
  3
*D28
  1

  0
LINE
  5
9F4
330
9F2
100
AcDbEntity
  8
Kóta (ISO)
440
 16777216
100
AcDbLine
 10
104.9936595330007
 20
93.48974346079996
 30
0.0
 11
104.9936595330007
 21
59.65689872200105
 31
0.0
  0
LINE
  5
9F5
330
9F2
100
AcDbEntity
  8
Kóta (ISO)
440
 16777216
100
AcDbLine
 10
404.9936595330007
 20
93.48974346079995
 30
0.0
 11
404.9936595330007
 21
59.65689872200105
 31
0.0
  0
LINE
  5
9F6
330
9F2
100
AcDbEntity
  8
Kóta (ISO)
440
 16777216
100
AcDbLine
 10
111.2436595330007
 20
62.15689872200105
 30
0.0
 11
398.7436595330007
 21
62.15689872200105
 31
0.0
  0
SOLID
  5
9F7
330
9F2
100
AcDbEntity
  8
Kóta (ISO)
440
 16777216
100
AcDbTrace
 10
111.2436595330007
 20
63.19856538866772
 30
0.0
 11
111.2436595330007
 21
61.11523205533439
 31
0.0
 12
104.9936595330007
 22
62.15689872200105
 32
0.0
 13
104.9936595330007
 23
62.15689872200105
 33
0.0
  0
SOLID
  5
9F8
330
9F2
100
AcDbEntity
  8
Kóta (ISO)
440
 16777216
100
AcDbTrace
 10
398.7436595330007
 20
63.19856538866772
 30
0.0
 11
398.7436595330007
 21
61.11523205533439
 31
0.0
 12
404.9936595330007
 22
62.15689872200105
 32
0.0
 13
404.9936595330007
 23
62.15689872200105
 33
0.0
  0
MTEXT
  5
9F9
330
9F2
100
AcDbEntity
  8
Kóta (ISO)
440
 16777216
100
AcDbMText
 10
245.6677696740349
 20
73.17623720420387
 30
0.0
 40
8.75
 41
0.0
 71
     1
 72
     1
  1
\A1;300
  7
Text poznámky (ISO)
 73
     1
 44
1.0
  0
POINT
  5
9FA
330
9F2
100
AcDbEntity
  8
Defpoints
 62
     0
440
 16777216
100
AcDbPoint
 10
104.9936595330007
 20
93.48974346079996
 30
0.0
  0
POINT
  5
9FB
330
9F2
100
AcDbEntity
  8
Defpoints
 62
     0
440
 16777216
100
AcDbPoint
 10
404.9936595330007
 20
93.48974346079995
 30
0.0
  0
POINT
  5
9FC
330
9F2
100
AcDbEntity
  8
Defpoints
 62
     0
440
 16777216
100
AcDbPoint
 10
404.9936595330007
 20
62.15689872200105
 30
0.0
  0
ENDBLK
  5
9FD
330
9F2
100
AcDbEntity
  8
0
100
AcDbBlockEnd
  0
BLOCK
  5
9FF
330
9FE
100
AcDbEntity
  8
0
100
AcDbBlockBegin
  2
*D29
 70
     1
 10
0.0
 20
0.0
 30
0.0
  3
*D29
  1

  0
LINE
  5
A00
330
9FE
100
AcDbEntity
  8
Kóta (ISO)
440
 16777216
100
AcDbLine
 10
403.5436595330007
 20
392.0397434608
 30
0.0
 11
441.0333034330805
 21
392.0397434608
 31
0.0
  0
LINE
  5
A01
330
9FE
100
AcDbEntity
  8
Kóta (ISO)
440
 16777216
100
AcDbLine
 10
403.5436595330007
 20
92.03974346079995
 30
0.0
 11
441.0333034330803
 21
92.03974346079993
 31
0.0
  0
LINE
  5
A02
330
9FE
100
AcDbEntity
  8
Kóta (ISO)
440
 16777216
100
AcDbLine
 10
438.5333034330805
 20
385.7897434608
 30
0.0
 11
438.5333034330804
 21
98.28974346079995
 31
0.0
  0
SOLID
  5
A03
330
9FE
100
AcDbEntity
  8
Kóta (ISO)
440
 16777216
100
AcDbTrace
 10
437.4916367664138
 20
385.7897434608
 30
0.0
 11
439.5749700997471
 21
385.7897434608
 31
0.0
 12
438.5333034330805
 22
392.0397434608
 32
0.0
 13
438.5333034330805
 23
392.0397434608
 33
0.0
  0
SOLID
  5
A04
330
9FE
100
AcDbEntity
  8
Kóta (ISO)
440
 16777216
100
AcDbTrace
 10
437.4916367664137
 20
98.28974346079995
 30
0.0
 11
439.5749700997471
 21
98.28974346079995
 31
0.0
 12
438.5333034330804
 22
92.03974346079993
 32
0.0
 13
438.5333034330804
 23
92.03974346079993
 33
0.0
  0
MTEXT
  5
A05
330
9FE
100
AcDbEntity
  8
Kóta (ISO)
440
 16777216
100
AcDbMText
 10
427.5139649508775
 20
232.7138536018342
 30
0.0
 40
8.75
 41
0.0
 71
     1
 72
     1
  1
\A1;300
  7
Text poznámky (ISO)
 11
0.0000000000000001
 21
1.0
 31
0.0
 73
     1
 44
1.0
  0
POINT
  5
A06
330
9FE
100
AcDbEntity
  8
Defpoints
 62
     0
440
 16777216
100
AcDbPoint
 10
403.5436595330007
 20
392.0397434608
 30
0.0
  0
POINT
  5
A07
330
9FE
100
AcDbEntity
  8
Defpoints
 62
     0
440
 16777216
100
AcDbPoint
 10
403.5436595330007
 20
92.03974346079995
 30
0.0
  0
POINT
  5
A08
330
9FE
100
AcDbEntity
  8
Defpoints
 62
     0
440
 16777216
100
AcDbPoint
 10
438.5333034330804
 20
92.03974346079993
 30
0.0
  0
ENDBLK
  5
A09
330
9FE
100
AcDbEntity
  8
0
100
AcDbBlockEnd
  0
BLOCK
  5
A0B
330
A0A
100
AcDbEntity
  8
0
100
AcDbBlockBegin
  2
*D30
 70
     1
 10
0.0
 20
0.0
 30
0.0
  3
*D30
  1

  0
LINE
  5
A0C
330
A0A
100
AcDbEntity
  8
Kóta (ISO)
100
AcDbLine
 10
155.4936595333339
 20
573.0228129382029
 30
0.0
 11
81.98182509729404
 21
573.0228129382029
 31
0.0
  0
LINE
  5
A0D
330
A0A
100
AcDbEntity
  8
Kóta (ISO)
100
AcDbLine
 10
106.9936595333339
 20
675.494800824804
 30
0.0
 11
81.98182509729406
 21
675.494800824804
 31
0.0
  0
LINE
  5
A0E
330
A0A
100
AcDbEntity
  8
Kóta (ISO)
100
AcDbLine
 10
84.48182509729404
 20
579.2728129382029
 30
0.0
 11
84.48182509729404
 21
669.244800824804
 31
0.0
  0
SOLID
  5
A0F
330
A0A
100
AcDbEntity
  8
Kóta (ISO)
100
AcDbTrace
 10
83.44015843062736
 20
579.2728129382029
 30
0.0
 11
85.5234917639607
 21
579.2728129382029
 31
0.0
 12
84.48182509729404
 22
573.0228129382029
 32
0.0
 13
84.48182509729404
 23
573.0228129382029
 33
0.0
  0
SOLID
  5
A10
330
A0A
100
AcDbEntity
  8
Kóta (ISO)
100
AcDbTrace
 10
83.44015843062738
 20
669.244800824804
 30
0.0
 11
85.52349176396072
 21
669.244800824804
 31
0.0
 12
84.48182509729406
 22
675.494800824804
 32
0.0
 13
84.48182509729406
 23
675.494800824804
 33
0.0
  0
MTEXT
  5
A11
330
A0A
100
AcDbEntity
  8
Kóta (ISO)
100
AcDbMText
 10
71.47037781724022
 20
610.2758485201872
 30
0.0
 40
8.75
 41
0.0
 71
     1
 72
     1
  1
\A1;102,5
  7
Text poznámky (ISO)
 11
0.0000000000000001
 21
1.0
 31
0.0
 73
     1
 44
1.0
  0
POINT
  5
A12
330
A0A
100
AcDbEntity
  8
Defpoints
 62
     0
100
AcDbPoint
 10
155.4936595333339
 20
573.0228129382029
 30
0.0
  0
POINT
  5
A13
330
A0A
100
AcDbEntity
  8
Defpoints
 62
     0
100
AcDbPoint
 10
106.9936595333339
 20
675.494800824804
 30
0.0
  0
POINT
  5
A14
330
A0A
100
AcDbEntity
  8
Defpoints
 62
     0
100
AcDbPoint
 10
84.48182509729406
 20
675.494800824804
 30
0.0
  0
ENDBLK
  5
A15
330
A0A
100
AcDbEntity
  8
0
100
AcDbBlockEnd
  0
BLOCK
  5
A17
330
A16
100
AcDbEntity
  8
0
100
AcDbBlockBegin
  2
*D31
 70
     1
 10
0.0
 20
0.0
 30
0.0
  3
*D31
  1

  0
LINE
  5
A18
330
A16
100
AcDbEntity
  8
Kóta (ISO)
100
AcDbLine
 10
154.9936595333339
 20
583.0228129382041
 30
0.0
 11
154.9936595333339
 21
500.5638708707591
 31
0.0
  0
LINE
  5
A19
330
A16
100
AcDbEntity
  8
Kóta (ISO)
100
AcDbLine
 10
354.9936595333339
 20
583.3975788557157
 30
0.0
 11
354.9936595333339
 21
500.5638708707591
 31
0.0
  0
LINE
  5
A1A
330
A16
100
AcDbEntity
  8
Kóta (ISO)
100
AcDbLine
 10
161.2436595333339
 20
503.0638708707591
 30
0.0
 11
348.7436595333339
 21
503.0638708707591
 31
0.0
  0
SOLID
  5
A1B
330
A16
100
AcDbEntity
  8
Kóta (ISO)
100
AcDbTrace
 10
161.2436595333339
 20
504.1055375374258
 30
0.0
 11
161.2436595333339
 21
502.0222042040924
 31
0.0
 12
154.9936595333339
 22
503.0638708707591
 32
0.0
 13
154.9936595333339
 23
503.0638708707591
 33
0.0
  0
SOLID
  5
A1C
330
A16
100
AcDbEntity
  8
Kóta (ISO)
100
AcDbTrace
 10
348.7436595333339
 20
504.1055375374258
 30
0.0
 11
348.7436595333339
 21
502.0222042040924
 31
0.0
 12
354.9936595333339
 22
503.0638708707591
 32
0.0
 13
354.9936595333339
 23
503.0638708707591
 33
0.0
  0
MTEXT
  5
A1D
330
A16
100
AcDbEntity
  8
Kóta (ISO)
100
AcDbMText
 10
239.3312269990921
 20
518.1341139719418
 30
0.0
 40
8.75
 41
0.0
 71
     1
 72
     1
  1
\A1;{\fAIGDT|b0|i0;\H8.7500;\ln\fTahoma|b0|i0;\H8.7500;}200
  7
Text poznámky (ISO)
 73
     1
 44
1.0
  0
POINT
  5
A1E
330
A16
100
AcDbEntity
  8
Defpoints
 62
     0
100
AcDbPoint
 10
154.9936595333339
 20
583.0228129382041
 30
0.0
  0
POINT
  5
A1F
330
A16
100
AcDbEntity
  8
Defpoints
 62
     0
100
AcDbPoint
 10
354.9936595333339
 20
583.3975788557157
 30
0.0
  0
POINT
  5
A20
330
A16
100
AcDbEntity
  8
Defpoints
 62
     0
100
AcDbPoint
 10
354.9936595333339
 20
503.0638708707591
 30
0.0
  0
ENDBLK
  5
A21
330
A16
100
AcDbEntity
  8
0
100
AcDbBlockEnd
  0
BLOCK
  5
C88
330
C87
100
AcDbEntity
  8
0
100
AcDbBlockBegin
  2
*D33
 70
     1
 10
0.0
 20
0.0
 30
0.0
  3
*D33
  1

  0
LINE
  5
CDB
330
C87
100
AcDbEntity
  8
Kóta (ISO)
100
AcDbLine
 10
388.1149080459243
 20
-17.68412667038625
 30
0.0
 11
388.1149080459243
 21
-50.21697140918517
 31
0.0
  0
LINE
  5
CDC
330
C87
100
AcDbEntity
  8
Kóta (ISO)
100
AcDbLine
 10
688.1149080459242
 20
-17.68412667038627
 30
0.0
 11
688.1149080459242
 21
-50.21697140918517
 31
0.0
  0
LINE
  5
CDD
330
C87
100
AcDbEntity
  8
Kóta (ISO)
100
AcDbLine
 10
391.1149080459243
 20
-49.01697140918517
 30
0.0
 11
685.1149080459243
 21
-49.01697140918517
 31
0.0
  0
SOLID
  5
CDE
330
C87
100
AcDbEntity
  8
Kóta (ISO)
100
AcDbTrace
 10
391.1149080459243
 20
-48.51697140918517
 30
0.0
 11
391.1149080459243
 21
-49.51697140918517
 31
0.0
 12
388.1149080459243
 22
-49.01697140918517
 32
0.0
 13
388.1149080459243
 23
-49.01697140918517
 33
0.0
  0
SOLID
  5
CDF
330
C87
100
AcDbEntity
  8
Kóta (ISO)
100
AcDbTrace
 10
685.1149080459243
 20
-48.51697140918517
 30
0.0
 11
685.1149080459243
 21
-49.51697140918517
 31
0.0
 12
688.1149080459242
 22
-49.01697140918517
 32
0.0
 13
688.1149080459242
 23
-49.01697140918517
 33
0.0
  0
MTEXT
  5
CE0
330
C87
100
AcDbEntity
  8
Kóta (ISO)
100
AcDbMText
 10
533.6384809136206
 20
-43.72768893772781
 30
0.0
 40
4.2
 41
0.0
 71
     1
 72
     1
  1
\A1;300
  7
Text poznámky (ISO)
 73
     1
 44
1.0
  0
POINT
  5
CE1
330
C87
100
AcDbEntity
  8
Defpoints
 62
     0
100
AcDbPoint
 10
388.1149080459243
 20
-17.68412667038625
 30
0.0
  0
POINT
  5
CE2
330
C87
100
AcDbEntity
  8
Defpoints
 62
     0
100
AcDbPoint
 10
688.1149080459242
 20
-17.68412667038627
 30
0.0
  0
POINT
  5
CE3
330
C87
100
AcDbEntity
  8
Defpoints
 62
     0
100
AcDbPoint
 10
688.1149080459242
 20
-49.01697140918517
 30
0.0
  0
ENDBLK
  5
C89
330
C87
100
AcDbEntity
  8
0
100
AcDbBlockEnd
  0
BLOCK
  5
C94
330
C93
100
AcDbEntity
  8
0
100
AcDbBlockBegin
  2
*D34
 70
     1
 10
0.0
 20
0.0
 30
0.0
  3
*D34
  1

  0
LINE
  5
CE4
330
C93
100
AcDbEntity
  8
Kóta (ISO)
100
AcDbLine
 10
686.6649080459242
 20
280.8658733296137
 30
0.0
 11
722.8545519460041
 21
280.8658733296137
 31
0.0
  0
LINE
  5
CE5
330
C93
100
AcDbEntity
  8
Kóta (ISO)
100
AcDbLine
 10
686.6649080459242
 20
-19.13412667038626
 30
0.0
 11
722.8545519460039
 21
-19.13412667038628
 31
0.0
  0
LINE
  5
CE6
330
C93
100
AcDbEntity
  8
Kóta (ISO)
100
AcDbLine
 10
721.6545519460041
 20
277.8658733296138
 30
0.0
 11
721.6545519460039
 21
-16.13412667038628
 31
0.0
  0
SOLID
  5
CE7
330
C93
100
AcDbEntity
  8
Kóta (ISO)
100
AcDbTrace
 10
721.154551946004
 20
277.8658733296138
 30
0.0
 11
722.1545519460041
 21
277.8658733296138
 31
0.0
 12
721.6545519460041
 22
280.8658733296137
 32
0.0
 13
721.6545519460041
 23
280.8658733296137
 33
0.0
  0
SOLID
  5
CE8
330
C93
100
AcDbEntity
  8
Kóta (ISO)
100
AcDbTrace
 10
721.1545519460039
 20
-16.13412667038628
 30
0.0
 11
722.1545519460039
 21
-16.13412667038628
 31
0.0
 12
721.6545519460039
 22
-19.13412667038628
 32
0.0
 13
721.6545519460039
 23
-19.13412667038628
 33
0.0
  0
MTEXT
  5
CE9
330
C93
100
AcDbEntity
  8
Kóta (ISO)
100
AcDbMText
 10
716.3652694745466
 20
126.3894461973102
 30
0.0
 40
4.2
 41
0.0
 71
     1
 72
     1
  1
\A1;300
  7
Text poznámky (ISO)
 11
0.0000000000000001
 21
1.0
 31
0.0
 73
     1
 44
1.0
  0
POINT
  5
CEA
330
C93
100
AcDbEntity
  8
Defpoints
 62
     0
100
AcDbPoint
 10
686.6649080459242
 20
280.8658733296137
 30
0.0
  0
POINT
  5
CEB
330
C93
100
AcDbEntity
  8
Defpoints
 62
     0
100
AcDbPoint
 10
686.6649080459242
 20
-19.13412667038626
 30
0.0
  0
POINT
  5
CEC
330
C93
100
AcDbEntity
  8
Defpoints
 62
     0
100
AcDbPoint
 10
721.6545519460039
 20
-19.13412667038628
 30
0.0
  0
ENDBLK
  5
C95
330
C93
100
AcDbEntity
  8
0
100
AcDbBlockEnd
  0
BLOCK
  5
CA0
330
C9F
100
AcDbEntity
  8
0
100
AcDbBlockBegin
  2
*D35
 70
     1
 10
0.0
 20
0.0
 30
0.0
  3
*D35
  1

  0
LINE
  5
CED
330
C9F
100
AcDbEntity
  8
Kóta (ISO)
100
AcDbLine
 10
438.6149080462574
 20
461.8489428070167
 30
0.0
 11
366.4030736102176
 21
461.8489428070168
 31
0.0
  0
LINE
  5
CEE
330
C9F
100
AcDbEntity
  8
Kóta (ISO)
100
AcDbLine
 10
390.1149080462575
 20
564.3209306936178
 30
0.0
 11
366.4030736102176
 21
564.3209306936178
 31
0.0
  0
LINE
  5
CEF
330
C9F
100
AcDbEntity
  8
Kóta (ISO)
100
AcDbLine
 10
367.6030736102176
 20
464.8489428070168
 30
0.0
 11
367.6030736102176
 21
561.3209306936178
 31
0.0
  0
SOLID
  5
CF0
330
C9F
100
AcDbEntity
  8
Kóta (ISO)
100
AcDbTrace
 10
367.1030736102176
 20
464.8489428070168
 30
0.0
 11
368.1030736102176
 21
464.8489428070168
 31
0.0
 12
367.6030736102176
 22
461.8489428070168
 32
0.0
 13
367.6030736102176
 23
461.8489428070168
 33
0.0
  0
SOLID
  5
CF1
330
C9F
100
AcDbEntity
  8
Kóta (ISO)
100
AcDbTrace
 10
367.1030736102176
 20
561.3209306936178
 30
0.0
 11
368.1030736102176
 21
561.3209306936178
 31
0.0
 12
367.6030736102176
 22
564.3209306936178
 32
0.0
 13
367.6030736102176
 23
564.3209306936178
 33
0.0
  0
MTEXT
  5
CF2
330
C9F
100
AcDbEntity
  8
Kóta (ISO)
100
AcDbMText
 10
361.3575789157917
 20
506.3731167368853
 30
0.0
 40
4.2
 41
0.0
 71
     1
 72
     1
  1
\A1;102,5
  7
Text poznámky (ISO)
 11
0.0000000000000001
 21
1.0
 31
0.0
 73
     1
 44
1.0
  0
POINT
  5
CF3
330
C9F
100
AcDbEntity
  8
Defpoints
 62
     0
100
AcDbPoint
 10
438.6149080462574
 20
461.8489428070167
 30
0.0
  0
POINT
  5
CF4
330
C9F
100
AcDbEntity
  8
Defpoints
 62
     0
100
AcDbPoint
 10
390.1149080462575
 20
564.3209306936178
 30
0.0
  0
POINT
  5
CF5
330
C9F
100
AcDbEntity
  8
Defpoints
 62
     0
100
AcDbPoint
 10
367.6030736102176
 20
564.3209306936178
 30
0.0
  0
ENDBLK
  5
CA1
330
C9F
100
AcDbEntity
  8
0
100
AcDbBlockEnd
  0
BLOCK
  5
CAC
330
CAB
100
AcDbEntity
  8
0
100
AcDbBlockBegin
  2
*D36
 70
     1
 10
0.0
 20
0.0
 30
0.0
  3
*D36
  1

  0
LINE
  5
CF6
330
CAB
100
AcDbEntity
  8
Kóta (ISO)
100
AcDbLine
 10
438.1149080462575
 20
471.8489428070178
 30
0.0
 11
438.1149080462575
 21
390.690000739573
 31
0.0
  0
LINE
  5
CF7
330
CAB
100
AcDbEntity
  8
Kóta (ISO)
100
AcDbLine
 10
638.1149080462574
 20
472.2237087245294
 30
0.0
 11
638.1149080462574
 21
390.690000739573
 31
0.0
  0
LINE
  5
CF8
330
CAB
100
AcDbEntity
  8
Kóta (ISO)
100
AcDbLine
 10
441.1149080462575
 20
391.890000739573
 30
0.0
 11
635.1149080462573
 21
391.890000739573
 31
0.0
  0
SOLID
  5
CF9
330
CAB
100
AcDbEntity
  8
Kóta (ISO)
100
AcDbTrace
 10
441.1149080462575
 20
392.3900007395729
 30
0.0
 11
441.1149080462575
 21
391.3900007395729
 31
0.0
 12
438.1149080462575
 22
391.890000739573
 32
0.0
 13
438.1149080462575
 23
391.890000739573
 33
0.0
  0
SOLID
  5
CFA
330
CAB
100
AcDbEntity
  8
Kóta (ISO)
100
AcDbTrace
 10
635.1149080462573
 20
392.3900007395729
 30
0.0
 11
635.1149080462573
 21
391.3900007395729
 31
0.0
 12
638.1149080462574
 22
391.890000739573
 32
0.0
 13
638.1149080462574
 23
391.890000739573
 33
0.0
  0
MTEXT
  5
CFB
330
CAB
100
AcDbEntity
  8
Kóta (ISO)
100
AcDbMText
 10
527.4501417309545
 20
405.9696438407556
 30
0.0
 40
4.2
 41
0.0
 71
     1
 72
     1
  1
\A1;{\fAIGDT|b0|i0;\H8.7500;\ln\fTahoma|b0|i0;\H8.7500;}200
  7
Text poznámky (ISO)
 73
     1
 44
1.0
  0
POINT
  5
CFC
330
CAB
100
AcDbEntity
  8
Defpoints
 62
     0
100
AcDbPoint
 10
438.1149080462575
 20
471.8489428070178
 30
0.0
  0
POINT
  5
CFD
330
CAB
100
AcDbEntity
  8
Defpoints
 62
     0
100
AcDbPoint
 10
638.1149080462574
 20
472.2237087245294
 30
0.0
  0
POINT
  5
CFE
330
CAB
100
AcDbEntity
  8
Defpoints
 62
     0
100
AcDbPoint
 10
638.1149080462574
 20
391.890000739573
 30
0.0
  0
ENDBLK
  5
CAD
330
CAB
100
AcDbEntity
  8
0
100
AcDbBlockEnd
  0
ENDSEC
  0
SECTION
  2
ENTITIES
  0
LINE
  5
201
330
6C
100
AcDbEntity
  8
Viditelná (ISO)
100
AcDbLine
 10
266.3274444648271
 20
380.1926215572231
 30
0.0
 11
109.3274444648267
 21
380.1926215572233
 31
0.0
  0
LINE
  5
202
330
6C
100
AcDbEntity
  8
Viditelná (ISO)
100
AcDbLine
 10
278.8274444648271
 20
410.692621557223
 30
0.0
 11
96.82744446482672
 21
410.6926215572232
 31
0.0
  0
LINE
  5
203
330
6C
100
AcDbEntity
  8
Viditelná (ISO)
100
AcDbLine
 10
104.3106141675027
 20
412.1926215572235
 30
0.0
 11
101.0042632492186
 21
412.1926215572234
 31
0.0
  0
LINE
  5
204
330
6C
100
AcDbEntity
  8
Viditelná (ISO)
100
AcDbLine
 10
156.2375220051379
 20
412.1926215572237
 30
0.0
 11
145.7050846520321
 21
412.1926215572237
 31
0.0
  0
LINE
  5
205
330
6C
100
AcDbEntity
  8
Viditelná (ISO)
100
AcDbLine
 10
226.2679547168304
 20
412.1926215572237
 30
0.0
 11
215.4820364225354
 21
412.1926215572237
 31
0.0
  0
LINE
  5
206
330
6C
100
AcDbEntity
  8
Viditelná (ISO)
100
AcDbLine
 10
273.332772270624
 20
412.1926215572233
 30
0.0
 11
269.5069888829242
 21
412.1926215572234
 31
0.0
  0
LINE
  5
207
330
6C
100
AcDbEntity
  8
Viditelná (ISO)
100
AcDbLine
 10
109.3274444648267
 20
380.1926215572233
 30
0.0
 11
109.3274444648267
 21
398.3161555605983
 31
0.0
  0
LINE
  5
208
330
6C
100
AcDbEntity
  8
Viditelná (ISO)
100
AcDbLine
 10
109.3274444648267
 20
401.0290875538483
 30
0.0
 11
109.3274444648267
 21
404.6926215572232
 31
0.0
  0
LINE
  5
209
330
6C
100
AcDbEntity
  8
Viditelná (ISO)
100
AcDbLine
 10
266.3274444648271
 20
380.1926215572231
 30
0.0
 11
266.3274444648271
 21
398.3161555605982
 31
0.0
  0
LINE
  5
20A
330
6C
100
AcDbEntity
  8
Viditelná (ISO)
100
AcDbLine
 10
266.3274444648271
 20
401.0290875538482
 30
0.0
 11
266.3274444648271
 21
404.6926215572232
 31
0.0
  0
ARC
  5
20B
330
6C
100
AcDbEntity
  8
Viditelná (ISO)
100
AcDbCircle
 10
272.3274444648271
 20
404.6926215572232
 30
0.0
 40
6.00000000000001
100
AcDbArc
 50
175.2198081527979
 51
180.0
  0
ARC
  5
20C
330
6C
100
AcDbEntity
  8
Viditelná (ISO)
100
AcDbCircle
 10
272.3274444648271
 20
404.6926215572232
 30
0.0
 40
6.000000000000008
100
AcDbArc
 50
90.0
 51
105.0126796900632
  0
ARC
  5
20D
330
6C
100
AcDbEntity
  8
Viditelná (ISO)
100
AcDbCircle
 10
103.3274444648267
 20
404.6926215572232
 30
0.0
 40
6.00000000000001
100
AcDbArc
 50
74.98732030993635
 51
89.9999999999998
  0
ARC
  5
20E
330
6C
100
AcDbEntity
  8
Viditelná (ISO)
100
AcDbCircle
 10
103.3274444648267
 20
404.6926215572232
 30
0.0
 40
6.00000000000001
100
AcDbArc
 50
0.0
 51
4.780191847202094
  0
LINE
  5
20F
330
6C
100
AcDbEntity
  8
Viditelná (ISO)
100
AcDbLine
 10
96.8274444648267
 20
410.6926215572232
 30
0.0
 11
96.8274444648267
 21
412.1926215572233
 31
0.0
  0
LINE
  5
210
330
6C
100
AcDbEntity
  8
Viditelná (ISO)
100
AcDbLine
 10
278.8274444648272
 20
410.6926215572232
 30
0.0
 11
278.8274444648272
 21
412.1926215572231
 31
0.0
  0
SPLINE
  5
29F
330
6C
100
AcDbEntity
  8
Viditelná (ISO)
100
AcDbSpline
210
0.0
220
0.0
230
1.0
 70
    12
 71
     2
 72
     6
 73
     3
 74
     0
 42
0.0000000001
 43
0.0000000001
 40
0.0
 40
0.0
 40
0.0
 40
0.9930568185648994
 40
0.9930568185648994
 40
0.9930568185648994
 10
269.1538697397489
 20
412.6792393422308
 30
0.0
 41
1.0
 10
264.3025308004221
 20
413.9285054669523
 30
0.0
 41
1.002768203947979
 10
259.9801958921694
 20
415.0409265811616
 30
0.0
 41
1.002184193662304
  0
SPLINE
  5
2A0
330
6C
100
AcDbEntity
  8
Viditelná (ISO)
100
AcDbSpline
210
0.0
220
0.0
230
1.0
 70
     8
 71
     3
 72
    14
 73
    10
 74
     0
 42
0.0000000001
 43
0.0000000001
 40
0.0
 40
0.0
 40
0.0
 40
0.0
 40
0.0185094234429819
 40
0.0185094234429819
 40
0.0370389815922797
 40
0.0370389815922797
 40
0.0555729829704506
 40
0.0555729829704506
 40
0.0632195108339372
 40
0.0632195108339372
 40
0.0632195108339372
 40
0.0632195108339372
 10
269.5069888829242
 20
412.1926215572234
 30
0.0
 10
269.5069888829242
 20
412.2543196353667
 30
0.0
 10
269.4937454845857
 20
412.3269288494822
 30
0.0
 10
269.4504459993114
 20
412.4409633747915
 30
0.0
 10
269.4127083553846
 20
412.5025469643291
 30
0.0
 10
269.3326881773503
 20
412.58981339292
 30
0.0
 10
269.2762454719315
 20
412.6309359883463
 30
0.0
 10
269.2024524379979
 20
412.6642797236802
 30
0.0
 10
269.178558298692
 20
412.6728818024379
 30
0.0
 10
269.1538697397488
 20
412.6792393422308
 30
0.0
  0
SPLINE
  5
2A1
330
6C
100
AcDbEntity
  8
Viditelná (ISO)
100
AcDbSpline
210
0.0
220
0.0
230
1.0
 70
    12
 71
     2
 72
     6
 73
     3
 74
     0
 42
0.0000000001
 43
0.0000000001
 40
0.6470434937772939
 40
0.6470434937772939
 40
0.6470434937772939
 40
1.640100312277748
 40
1.640100312277748
 40
1.640100312277748
 10
264.8213631072711
 20
415.0409265811616
 30
0.0
 41
1.002184193678046
 10
269.1436980150413
 20
413.9285054670764
 30
0.0
 41
1.002768203967654
 10
273.9950369548507
 20
412.6792393422308
 30
0.0
 41
1.0
  0
LINE
  5
2A2
330
6C
100
AcDbEntity
  8
Viditelná (ISO)
100
AcDbLine
 10
274.348156098026
 20
412.1926215572233
 30
0.0
 11
273.3327722706241
 21
412.1926215572233
 31
0.0
  0
SPLINE
  5
2A3
330
6C
100
AcDbEntity
  8
Viditelná (ISO)
100
AcDbSpline
210
0.0
220
0.0
230
1.0
 70
     8
 71
     3
 72
    14
 73
    10
 74
     0
 42
0.0000000001
 43
0.0000000001
 40
-0.0632195108339375
 40
-0.0632195108339375
 40
-0.0632195108339375
 40
-0.0632195108339375
 40
-0.0555729829704518
 40
-0.0555729829704518
 40
-0.0370389815922794
 40
-0.0370389815922794
 40
-0.018509423442982
 40
-0.018509423442982
 40
0.0
 40
0.0
 40
0.0
 40
0.0
 10
273.9950369548506
 20
412.6792393422308
 30
0.0
 10
274.0197255137937
 20
412.6728818024379
 30
0.0
 10
274.0436196530998
 20
412.6642797236801
 30
0.0
 10
274.1174126870333
 20
412.6309359883463
 30
0.0
 10
274.1738553924521
 20
412.5898133929199
 30
0.0
 10
274.2538755704863
 20
412.502546964329
 30
0.0
 10
274.2916132144132
 20
412.4409633747915
 30
0.0
 10
274.3349126996875
 20
412.3269288494821
 30
0.0
 10
274.348156098026
 20
412.2543196353666
 30
0.0
 10
274.348156098026
 20
412.1926215572233
 30
0.0
  0
SPLINE
  5
2A4
330
6C
100
AcDbEntity
  8
Viditelná (ISO)
100
AcDbSpline
210
0.0
220
0.0
230
1.0
 70
     8
 71
     3
 72
    16
 73
    12
 74
     0
 42
0.0000000001
 43
0.0000000001
 40
1.048441171135186
 40
1.048441171135186
 40
1.048441171135186
 40
1.048441171135186
 40
1.086504981307775
 40
1.086504981307775
 40
1.301098566461269
 40
1.301098566461269
 40
1.522460679384916
 40
1.522460679384916
 40
1.743822792308562
 40
1.743822792308562
 40
1.788737016213636
 40
1.788737016213636
 40
1.788737016213636
 40
1.788737016213636
 10
257.8931186443273
 20
416.4390926972534
 30
0.0
 10
257.9818422498334
 20
416.4288259215369
 30
0.0
 10
258.0740679957781
 20
416.417460350693
 30
0.0
 10
258.7069878029396
 20
416.3350675267531
 30
0.0
 10
259.3494637757063
 20
416.2300560630747
 30
0.0
 10
260.6622436221696
 20
415.988347035999
 30
0.0
 10
261.4272850638561
 20
415.8334249825613
 30
0.0
 10
262.9631420971672
 20
415.496590109052
 30
0.0
 10
263.7339810932374
 20
415.3148002038098
 30
0.0
 10
264.5479075222553
 20
415.1108238679727
 30
0.0
 10
264.6851100374512
 20
415.075993459356
 30
0.0
 10
264.8213631072711
 20
415.0409265811616
 30
0.0
  0
SPLINE
  5
2A5
330
6C
100
AcDbEntity
  8
Viditelná (ISO)
100
AcDbSpline
210
0.0
220
0.0
230
1.0
 70
     8
 71
     3
 72
    22
 73
    18
 74
     0
 42
0.0000000001
 43
0.0000000001
 40
-0.3758378556204014
 40
-0.3758378556204014
 40
-0.3758378556204014
 40
-0.3758378556204014
 40
-0.350085111669696
 40
-0.350085111669696
 40
-0.2787811903577883
 40
-0.2787811903577883
 40
-0.2429056216474441
 40
-0.2429056216474441
 40
-0.2212957302590156
 40
-0.2212957302590156
 40
-0.2020859491250041
 40
-0.2020859491250041
 40
-0.1781005695308152
 40
-0.1781005695308152
 40
-0.131615856366946
 40
-0.131615856366946
 40
-0.0503847250464196
 40
-0.0503847250464196
 40
-0.0503847250464196
 40
-0.0503847250464196
 10
256.4368615071724
 20
416.4390926972534
 30
0.0
 10
256.4474980220651
 20
416.4465109047062
 30
0.0
 10
256.4604997797932
 20
416.4525773813564
 30
0.0
 10
256.5183735423182
 20
416.4716052630277
 30
0.0
 10
256.5790013235403
 20
416.4780416688485
 30
0.0
 10
256.6967021906783
 20
416.4836234075329
 30
0.0
 10
256.7405461056968
 20
416.4847486694647
 30
0.0
 10
256.8177650451905
 20
416.4858244702854
 30
0.0
 10
256.8483680241725
 20
416.4860598871014
 30
0.0
 10
256.9091025127485
 20
416.4862306666736
 30
0.0
 10
256.9389080432268
 20
416.4861960403436
 30
0.0
 10
257.0086370139011
 20
416.4858532233843
 30
0.0
 10
257.0492323211258
 20
416.4854805102528
 30
0.0
 10
257.1738930564095
 20
416.4837144281981
 30
0.0
 10
257.2629989958108
 20
416.4817300093952
 30
0.0
 10
257.5256770214994
 20
416.4717985617942
 30
0.0
 10
257.705886048247
 20
416.4607585781628
 30
0.0
 10
257.8931186443273
 20
416.4390926972534
 30
0.0
  0
SPLINE
  5
2A6
330
6C
100
AcDbEntity
  8
Viditelná (ISO)
100
AcDbSpline
210
0.0
220
0.0
230
1.0
 70
     8
 71
     3
 72
    17
 73
    13
 74
     0
 42
0.0000000001
 43
0.0000000001
 40
-0.0449142239652444
 40
-0.0449142239652444
 40
-0.0449142239652444
 40
-0.0449142239652444
 40
0.0
 40
0.0
 40
0.0
 40
0.2213621129236468
 40
0.2213621129236468
 40
0.4427242258472936
 40
0.4427242258472936
 40
0.6573178110007878
 40
0.6573178110007878
 40
0.6953816211733792
 40
0.6953816211733792
 40
0.6953816211733792
 40
0.6953816211733792
 10
259.9801958921694
 20
415.0409265811616
 30
0.0
 10
259.8439428224893
 20
415.07599345932
 30
0.0
 10
259.7112222122511
 20
415.1108238679268
 30
0.0
 10
259.5825880997211
 20
415.1452296245197
 30
0.0
 10
258.9486081167709
 20
415.3148002038099
 30
0.0
 10
258.3335333360275
 20
415.4965901090521
 30
0.0
 10
257.3364883670223
 20
415.8334249825615
 30
0.0
 10
256.9545788076772
 20
415.988347035999
 30
0.0
 10
256.4931962158315
 20
416.2300560630748
 30
0.0
 10
256.3739964265618
 20
416.3350675267531
 30
0.0
 10
256.4119008548981
 20
416.417460350693
 30
0.0
 10
256.4221406041104
 20
416.4288259215369
 30
0.0
 10
256.4368615071724
 20
416.4390926972534
 30
0.0
  0
SPLINE
  5
2A7
330
6C
100
AcDbEntity
  8
Viditelná (ISO)
100
AcDbSpline
210
0.0
220
0.0
230
1.0
 70
    12
 71
     2
 72
     6
 73
     3
 74
     0
 42
0.0000000001
 43
0.0000000001
 40
0.0
 40
0.0
 40
0.0
 40
0.9930568192873703
 40
0.9930568192873703
 40
0.9930568192873703
 10
215.342433804488
 20
412.6792393422313
 30
0.0
 41
1.0
 10
213.4244986561973
 20
413.9285054655978
 30
0.0
 41
1.002768203760905
 10
211.7157007004167
 20
415.0409265811619
 30
0.0
 41
1.002184193512258
  0
SPLINE
  5
2A8
330
6C
100
AcDbEntity
  8
Viditelná (ISO)
100
AcDbSpline
210
0.0
220
0.0
230
1.0
 70
     8
 71
     3
 72
    14
 73
    10
 74
     0
 42
0.0000000001
 43
0.0000000001
 40
0.0
 40
0.0
 40
0.0
 40
0.0
 40
0.0185094234429813
 40
0.0185094234429813
 40
0.03703898159228
 40
0.03703898159228
 40
0.0555729829704506
 40
0.0555729829704506
 40
0.0632195108339372
 40
0.0632195108339372
 40
0.0632195108339372
 40
0.0632195108339372
 10
215.4820364225355
 20
412.1926215572237
 30
0.0
 10
215.4820364225355
 20
412.2543196353671
 30
0.0
 10
215.4768007588349
 20
412.3269288494825
 30
0.0
 10
215.4596826795089
 20
412.4409633747919
 30
0.0
 10
215.4447634263533
 20
412.5025469643294
 30
0.0
 10
215.4131281367744
 20
412.5898133929203
 30
0.0
 10
215.3908139983357
 20
412.6309359883467
 30
0.0
 10
215.3616405566521
 20
412.6642797236805
 30
0.0
 10
215.3521942140577
 20
412.6728818024384
 30
0.0
 10
215.342433804488
 20
412.6792393422313
 30
0.0
  0
SPLINE
  5
2A9
330
6C
100
AcDbEntity
  8
Viditelná (ISO)
100
AcDbSpline
210
0.0
220
0.0
230
1.0
 70
    12
 71
     2
 72
     6
 73
     3
 74
     0
 42
0.0000000001
 43
0.0000000001
 40
0.6470434927920515
 40
0.6470434927920515
 40
0.6470434927920515
 40
1.640100312277744
 40
1.640100312277744
 40
1.640100312277744
 10
222.9030422632257
 20
415.0409265811619
 30
0.0
 41
1.002184193449095
 10
224.6118402196253
 20
413.9285054651948
 30
0.0
 41
1.002768203681701
 10
226.529775367297
 20
412.6792393422312
 30
0.0
 41
1.0
  0
LINE
  5
2AA
330
6C
100
AcDbEntity
  8
Viditelná (ISO)
100
AcDbLine
 10
226.6693779853444
 20
412.1926215572237
 30
0.0
 11
226.2679547168304
 21
412.1926215572237
 31
0.0
  0
SPLINE
  5
2AB
330
6C
100
AcDbEntity
  8
Viditelná (ISO)
100
AcDbSpline
210
0.0
220
0.0
230
1.0
 70
     8
 71
     3
 72
    14
 73
    10
 74
     0
 42
0.0000000001
 43
0.0000000001
 40
-0.0632195108339386
 40
-0.0632195108339386
 40
-0.0632195108339386
 40
-0.0632195108339386
 40
-0.0555729829704505
 40
-0.0555729829704505
 40
-0.0370389815922798
 40
-0.0370389815922798
 40
-0.0185094234429819
 40
-0.0185094234429819
 40
0.0
 40
0.0
 40
0.0
 40
0.0
 10
226.529775367297
 20
412.6792393422312
 30
0.0
 10
226.5395357768666
 20
412.6728818024382
 30
0.0
 10
226.5489821194611
 20
412.6642797236804
 30
0.0
 10
226.5781555611447
 20
412.6309359883467
 30
0.0
 10
226.6004696995833
 20
412.5898133929203
 30
0.0
 10
226.6321049891622
 20
412.5025469643294
 30
0.0
 10
226.6470242423178
 20
412.4409633747919
 30
0.0
 10
226.6641423216439
 20
412.3269288494825
 30
0.0
 10
226.6693779853444
 20
412.2543196353671
 30
0.0
 10
226.6693779853444
 20
412.1926215572237
 30
0.0
  0
SPLINE
  5
2AC
330
6C
100
AcDbEntity
  8
Viditelná (ISO)
100
AcDbSpline
210
0.0
220
0.0
230
1.0
 70
     8
 71
     3
 72
    16
 73
    12
 74
     0
 42
0.0000000001
 43
0.0000000001
 40
1.048441171135185
 40
1.048441171135185
 40
1.048441171135185
 40
1.048441171135185
 40
1.086504981307774
 40
1.086504981307774
 40
1.301098566461268
 40
1.301098566461268
 40
1.522460679384915
 40
1.522460679384915
 40
1.743822792308562
 40
1.743822792308562
 40
1.788737016213636
 40
1.788737016213636
 40
1.788737016213636
 40
1.788737016213636
 10
216.922062637703
 20
416.4390926972536
 30
0.0
 10
217.0562145673237
 20
416.4288259215372
 30
0.0
 10
217.1908133705869
 20
416.4174603506934
 30
0.0
 10
218.083526598572
 20
416.3350675267535
 30
0.0
 10
218.8387010078816
 20
416.230056063075
 30
0.0
 10
220.1731380739667
 20
415.9883470359994
 30
0.0
 10
220.8425419951344
 20
415.8334249825617
 30
0.0
 10
221.9657866934398
 20
415.4965901090524
 30
0.0
 10
222.4197172077682
 20
415.3148002038101
 30
0.0
 10
222.7906413241339
 20
415.1108238679731
 30
0.0
 10
222.8491757832245
 20
415.0759934593564
 30
0.0
 10
222.9030422632257
 20
415.0409265811619
 30
0.0
  0
SPLINE
  5
2AD
330
6C
100
AcDbEntity
  8
Viditelná (ISO)
100
AcDbSpline
210
0.0
220
0.0
230
1.0
 70
     8
 71
     3
 72
    24
 73
    20
 74
     0
 42
0.0000000001
 43
0.0000000001
 40
-0.4188666172552637
 40
-0.4188666172552637
 40
-0.4188666172552637
 40
-0.4188666172552637
 40
-0.3293785765217446
 40
-0.3293785765217446
 40
-0.2783437283737742
 40
-0.2783437283737742
 40
-0.2534120682244852
 40
-0.2534120682244852
 40
-0.239167923318211
 40
-0.239167923318211
 40
-0.2269103270270815
 40
-0.2269103270270815
 40
-0.2120584193816232
 40
-0.2120584193816232
 40
-0.1843653870246873
 40
-0.1843653870246873
 40
-0.0680044100022365
 40
-0.0680044100022365
 40
-0.0515883383068586
 40
-0.0515883383068586
 40
-0.0515883383068586
 40
-0.0515883383068586
 10
213.5568316360123
 20
416.4390926972536
 30
0.0
 10
213.7734355508214
 20
416.4602930514154
 30
0.0
 10
214.0112298983553
 20
416.4713121553224
 30
0.0
 10
214.4188979707918
 20
416.4813441720019
 30
0.0
 10
214.5707535980664
 20
416.4833996517719
 30
0.0
 10
214.8015853448336
 20
416.4852526591876
 30
0.0
 10
214.8781027632529
 20
416.4856588094546
 30
0.0
 10
214.9994262428925
 20
416.4860452665052
 30
0.0
 10
215.0437645083179
 20
416.4861328908537
 30
0.0
 10
215.1266539739703
 20
416.4862031739334
 30
0.0
 10
215.165149577074
 20
416.4861987116209
 30
0.0
 10
215.25061902024
 20
416.4861068232136
 30
0.0
 10
215.297662403625
 20
416.4860021469479
 30
0.0
 10
215.4330096610537
 20
416.4855353501851
 30
0.0
 10
215.5218172844109
 20
416.4850318265385
 30
0.0
 10
215.9869630520443
 20
416.4810438640635
 30
0.0
 10
216.3720141559603
 20
416.4743335129912
 30
0.0
 10
216.812935579278
 20
416.4470144758186
 30
0.0
 10
216.8674964166366
 20
416.4432687024365
 30
0.0
 10
216.922062637703
 20
416.4390926972536
 30
0.0
  0
SPLINE
  5
2AE
330
6C
100
AcDbEntity
  8
Viditelná (ISO)
100
AcDbSpline
210
0.0
220
0.0
230
1.0
 70
     8
 71
     3
 72
    17
 73
    13
 74
     0
 42
0.0000000001
 43
0.0000000001
 40
-0.0449142239652471
 40
-0.0449142239652471
 40
-0.0449142239652471
 40
-0.0449142239652471
 40
0.0
 40
0.0
 40
0.0
 40
0.221362112923646
 40
0.221362112923646
 40
0.4427242258472921
 40
0.4427242258472921
 40
0.6573178110007864
 40
0.6573178110007864
 40
0.6953816211733776
 40
0.6953816211733776
 40
0.6953816211733776
 40
0.6953816211733776
 10
211.7157007004167
 20
415.0409265811619
 30
0.0
 10
211.6618342204709
 20
415.0759934593204
 30
0.0
 10
211.6136568920124
 20
415.1108238679271
 30
0.0
 10
211.5710920961447
 20
415.1452296245199
 30
0.0
 10
211.361309263055
 20
415.3148002038101
 30
0.0
 10
211.2673306782296
 20
415.4965901090524
 30
0.0
 10
211.3892143412729
 20
415.8334249825617
 30
0.0
 10
211.605181042707
 20
415.9883470359994
 30
0.0
 10
212.238218238476
 20
416.230056063075
 30
0.0
 10
212.6922706821868
 20
416.3350675267535
 30
0.0
 10
213.3497496945596
 20
416.4174603506934
 30
0.0
 10
213.4519360387187
 20
416.4288259215372
 30
0.0
 10
213.5568316360123
 20
416.4390926972536
 30
0.0
  0
LINE
  5
2AF
330
6C
100
AcDbEntity
  8
Viditelná (ISO)
100
AcDbLine
 10
145.7050846520321
 20
412.1926215572237
 30
0.0
 11
145.2573990552149
 21
412.1926215572237
 31
0.0
  0
SPLINE
  5
2B0
330
6C
100
AcDbEntity
  8
Viditelná (ISO)
100
AcDbSpline
210
0.0
220
0.0
230
1.0
 70
    12
 71
     2
 72
     6
 73
     3
 74
     0
 42
0.0000000001
 43
0.0000000001
 40
0.0
 40
0.0
 40
0.0
 40
0.9930568184995813
 40
0.9930568184995813
 40
0.9930568184995813
 10
145.4130902826048
 20
412.6792393422313
 30
0.0
 41
1.0
 10
147.5520593207401
 20
413.9285054670795
 30
0.0
 41
1.002768203968888
 10
149.4577889872992
 20
415.0409265811619
 30
0.0
 41
1.002184193679023
  0
SPLINE
  5
2B1
330
6C
100
AcDbEntity
  8
Viditelná (ISO)
100
AcDbSpline
210
0.0
220
0.0
230
1.0
 70
     8
 71
     3
 72
    14
 73
    10
 74
     0
 42
0.0000000001
 43
0.0000000001
 40
0.0
 40
0.0
 40
0.0
 40
0.0
 40
0.0185094234429819
 40
0.0185094234429819
 40
0.0370389815922797
 40
0.0370389815922797
 40
0.0555729829704506
 40
0.0555729829704506
 40
0.0632195108339375
 40
0.0632195108339375
 40
0.0632195108339375
 40
0.0632195108339375
 10
145.2573990552149
 20
412.1926215572237
 30
0.0
 10
145.2573990552149
 20
412.2543196353671
 30
0.0
 10
145.26323810694
 20
412.3269288494825
 30
0.0
 10
145.2823289722697
 20
412.4409633747919
 30
0.0
 10
145.2989676060434
 20
412.5025469643294
 30
0.0
 10
145.3342487285056
 20
412.5898133929203
 30
0.0
 10
145.3591344767119
 20
412.6309359883467
 30
0.0
 10
145.3916700337553
 20
412.6642797236805
 30
0.0
 10
145.4022050272494
 20
412.6728818024384
 30
0.0
 10
145.4130902826048
 20
412.6792393422313
 30
0.0
  0
SPLINE
  5
2B2
330
6C
100
AcDbEntity
  8
Viditelná (ISO)
100
AcDbSpline
210
0.0
220
0.0
230
1.0
 70
    12
 71
     2
 72
     6
 73
     3
 74
     0
 42
0.0000000001
 43
0.0000000001
 40
0.647043493877383
 40
0.647043493877383
 40
0.647043493877383
 40
1.640100312277745
 40
1.640100312277745
 40
1.640100312277745
 10
160.4379119372221
 20
415.0409265811619
 30
0.0
 41
1.002184193704208
 10
158.5321822709929
 20
413.9285054672722
 30
0.0
 41
1.002768204000384
 10
156.3932132325277
 20
412.6792393422313
 30
0.0
 41
1.0
  0
SPLINE
  5
2B3
330
6C
100
AcDbEntity
  8
Viditelná (ISO)
100
AcDbSpline
210
0.0
220
0.0
230
1.0
 70
     8
 71
     3
 72
    14
 73
    10
 74
     0
 42
0.0000000001
 43
0.0000000001
 40
-0.0632193148591164
 40
-0.0632193148591164
 40
-0.0632193148591164
 40
-0.0632193148591164
 40
-0.0555629513814802
 40
-0.0555629513814802
 40
-0.037018947476912
 40
-0.037018947476912
 40
-0.0184994205372586
 40
-0.0184994205372586
 40
0.0
 40
0.0
 40
0.0
 40
0.0
 10
156.3932132325277
 20
412.6792393422313
 30
0.0
 10
156.382313876475
 20
412.6728735669177
 30
0.0
 10
156.3717651603614
 20
412.6642569887854
 30
0.0
 10
156.3392077735526
 20
412.6308710627532
 30
0.0
 10
156.3143138162234
 20
412.5897068666804
 30
0.0
 10
156.2790475024839
 20
412.5024038034886
 30
0.0
 10
156.2624257031178
 20
412.4408405646139
 30
0.0
 10
156.2433548226947
 20
412.3268577875422
 30
0.0
 10
156.2375220051379
 20
412.254286292348
 30
0.0
 10
156.2375220051379
 20
412.1926215572239
 30
0.0
  0
SPLINE
  5
2B4
330
6C
100
AcDbEntity
  8
Viditelná (ISO)
100
AcDbSpline
210
0.0
220
0.0
230
1.0
 70
     8
 71
     3
 72
    16
 73
    12
 74
     0
 42
0.0000000001
 43
0.0000000001
 40
1.048441171135187
 40
1.048441171135187
 40
1.048441171135187
 40
1.048441171135187
 40
1.086504981307776
 40
1.086504981307776
 40
1.301098566461269
 40
1.301098566461269
 40
1.522460679384915
 40
1.522460679384915
 40
1.743822792308562
 40
1.743822792308562
 40
1.788737016213636
 40
1.788737016213636
 40
1.788737016213636
 40
1.788737016213636
 10
158.9077738974747
 20
416.4390926972536
 30
0.0
 10
159.0087697702566
 20
416.4288259215372
 30
0.0
 10
159.1068954773659
 20
416.4174603506934
 30
0.0
 10
159.7364628245307
 20
416.3350675267535
 30
0.0
 10
160.1619647433668
 20
416.2300560630751
 30
0.0
 10
160.7363638938944
 20
415.9883470359994
 30
0.0
 10
160.9180025562291
 20
415.8334249825618
 30
0.0
 10
160.9706534091251
 20
415.4965901090524
 30
0.0
 10
160.8417691027931
 20
415.3148002038102
 30
0.0
 10
160.5524085897509
 20
415.1108238679731
 30
0.0
 10
160.4979863004672
 20
415.0759934593565
 30
0.0
 10
160.4379119372221
 20
415.0409265811619
 30
0.0
  0
SPLINE
  5
2B5
330
6C
100
AcDbEntity
  8
Viditelná (ISO)
100
AcDbSpline
210
0.0
220
0.0
230
1.0
 70
     8
 71
     3
 72
    22
 73
    18
 74
     0
 42
0.0000000001
 43
0.0000000001
 40
-0.3758378556193031
 40
-0.3758378556193031
 40
-0.3758378556193031
 40
-0.3758378556193031
 40
-0.3500851116688011
 40
-0.3500851116688011
 40
-0.2787811903573746
 40
-0.2787811903573746
 40
-0.2429056216472766
 40
-0.2429056216472766
 40
-0.2212957302590799
 40
-0.2212957302590799
 40
-0.2020859491252269
 40
-0.2020859491252269
 40
-0.1781005695310251
 40
-0.1781005695310251
 40
-0.1316158563670515
 40
-0.1316158563670515
 40
-0.0503847250464355
 40
-0.0503847250464355
 40
-0.0503847250464355
 40
-0.0503847250464355
 10
155.60487571152
 20
416.4390926972536
 30
0.0
 10
155.7014249729346
 20
416.4465109047066
 30
0.0
 10
155.7978851243659
 20
416.4525773813568
 30
0.0
 10
156.1602825636673
 20
416.471605263028
 30
0.0
 10
156.4243906479072
 20
416.4780416688489
 30
0.0
 10
156.8138758013873
 20
416.4836234075332
 30
0.0
 10
156.9429234584373
 20
416.484748669465
 30
0.0
 10
157.1470965124435
 20
416.4858244702856
 30
0.0
 10
157.2232538899676
 20
416.4860598871017
 30
0.0
 10
157.3658672265676
 20
416.486230666674
 30
0.0
 10
157.4324593566584
 20
416.486196040344
 30
0.0
 10
157.5809275884195
 20
416.4858532233846
 30
0.0
 10
157.6624844557235
 20
416.4854805102532
 30
0.0
 10
157.8992592699917
 20
416.4837144281984
 30
0.0
 10
158.0517712592189
 20
416.4817300093956
 30
0.0
 10
158.4590304176257
 20
416.4717985617945
 30
0.0
 10
158.6946432503769
 20
416.4607585781632
 30
0.0
 10
158.9077738974747
 20
416.4390926972536
 30
0.0
  0
SPLINE
  5
2B6
330
6C
100
AcDbEntity
  8
Viditelná (ISO)
100
AcDbSpline
210
0.0
220
0.0
230
1.0
 70
     8
 71
     3
 72
    17
 73
    13
 74
     0
 42
0.0000000001
 43
0.0000000001
 40
-0.0449142239652441
 40
-0.0449142239652441
 40
-0.0449142239652441
 40
-0.0449142239652441
 40
0.0
 40
0.0
 40
0.0
 40
0.2213621129236468
 40
0.2213621129236468
 40
0.4427242258472936
 40
0.4427242258472936
 40
0.6573178110007881
 40
0.6573178110007881
 40
0.6953816211733771
 40
0.6953816211733771
 40
0.6953816211733771
 40
0.6953816211733771
 10
149.4577889872992
 20
415.0409265811619
 30
0.0
 10
149.5178633504826
 20
415.0759934593204
 30
0.0
 10
149.5824509294158
 20
415.1108238679271
 30
0.0
 10
149.6508893303501
 20
415.1452296245199
 30
0.0
 10
149.9881915855919
 20
415.3148002038101
 30
0.0
 10
150.4703605771026
 20
415.4965901090524
 30
0.0
 10
151.6397750754151
 20
415.8334249825617
 30
0.0
 10
152.3271076729495
 20
415.9883470359994
 30
0.0
 10
153.6837400525382
 20
416.230056063075
 30
0.0
 10
154.4450669657324
 20
416.3350675267535
 30
0.0
 10
155.3369782736695
 20
416.4174603506934
 30
0.0
 10
155.4712518382562
 20
416.4288259215372
 30
0.0
 10
155.60487571152
 20
416.4390926972536
 30
0.0
  0
LINE
  5
2B7
330
6C
100
AcDbEntity
  8
Viditelná (ISO)
100
AcDbLine
 10
101.0042632492186
 20
412.1926215572234
 30
0.0
 11
99.96971693800663
 21
412.1926215572234
 31
0.0
  0
SPLINE
  5
2B8
330
6C
100
AcDbEntity
  8
Viditelná (ISO)
100
AcDbSpline
210
0.0
220
0.0
230
1.0
 70
    12
 71
     2
 72
     6
 73
     3
 74
     0
 42
0.0000000001
 43
0.0000000001
 40
0.0
 40
0.0
 40
0.0
 40
0.9930568192857297
 40
0.9930568192857297
 40
0.9930568192857297
 10
100.3295002013713
 20
412.6792393422308
 30
0.0
 41
1.0
 10
105.2723943692513
 20
413.9285054655856
 30
0.0
 41
1.002768203747979
 10
109.6763010693343
 20
415.0409265811616
 30
0.0
 41
1.002184193502065
  0
SPLINE
  5
2B9
330
6C
100
AcDbEntity
  8
Viditelná (ISO)
100
AcDbSpline
210
0.0
220
0.0
230
1.0
 70
     8
 71
     3
 72
    14
 73
    10
 74
     0
 42
0.0000000001
 43
0.0000000001
 40
0.0
 40
0.0
 40
0.0
 40
0.0
 40
0.0185094234429819
 40
0.0185094234429819
 40
0.0370389815922798
 40
0.0370389815922798
 40
0.0555729829704504
 40
0.0555729829704504
 40
0.063219510833937
 40
0.063219510833937
 40
0.063219510833937
 40
0.063219510833937
 10
99.96971693800663
 20
412.1926215572234
 30
0.0
 10
99.96971693800663
 20
412.2543196353667
 30
0.0
 10
99.9832102678482
 20
412.3269288494822
 30
0.0
 10
100.0273269078409
 20
412.4409633747915
 30
0.0
 10
100.0657767425386
 20
412.5025469643291
 30
0.0
 10
100.1473070739993
 20
412.58981339292
 30
0.0
 10
100.204814975061
 20
412.6309359883463
 30
0.0
 10
100.2800006427749
 20
412.6642797236802
 30
0.0
 10
100.3043457160482
 20
412.6728818024379
 30
0.0
 10
100.3295002013713
 20
412.6792393422308
 30
0.0
  0
SPLINE
  5
2BA
330
6C
100
AcDbEntity
  8
Viditelná (ISO)
100
AcDbSpline
210
0.0
220
0.0
230
1.0
 70
    12
 71
     2
 72
     6
 73
     3
 74
     0
 42
0.0000000001
 43
0.0000000001
 40
0.6470434929914273
 40
0.6470434929914273
 40
0.6470434929914273
 40
1.640100312277743
 40
1.640100312277743
 40
1.640100312277743
 10
114.0171982988304
 20
415.0409265811616
 30
0.0
 41
1.002184193504441
 10
109.6132915987569
 20
413.9285054655882
 30
0.0
 41
1.002768203750993
 10
104.6703974308674
 20
412.6792393422309
 30
0.0
 41
1.0
  0
SPLINE
  5
2BB
330
6C
100
AcDbEntity
  8
Viditelná (ISO)
100
AcDbSpline
210
0.0
220
0.0
230
1.0
 70
     8
 71
     3
 72
    14
 73
    10
 74
     0
 42
0.0000000001
 43
0.0000000001
 40
-0.0632195108339386
 40
-0.0632195108339386
 40
-0.0632195108339386
 40
-0.0632195108339386
 40
-0.0555729829704505
 40
-0.0555729829704505
 40
-0.0370389815922798
 40
-0.0370389815922798
 40
-0.0185094234429819
 40
-0.0185094234429819
 40
0.0
 40
0.0
 40
0.0
 40
0.0
 10
104.6703974308674
 20
412.6792393422309
 30
0.0
 10
104.6452429455443
 20
412.672881802438
 30
0.0
 10
104.620897872271
 20
412.6642797236803
 30
0.0
 10
104.5457122045571
 20
412.6309359883464
 30
0.0
 10
104.4882043034954
 20
412.58981339292
 30
0.0
 10
104.4066739720347
 20
412.5025469643292
 30
0.0
 10
104.368224137337
 20
412.4409633747916
 30
0.0
 10
104.3241074973442
 20
412.3269288494823
 30
0.0
 10
104.3106141675026
 20
412.2543196353667
 30
0.0
 10
104.3106141675026
 20
412.1926215572235
 30
0.0
  0
SPLINE
  5
2BC
330
6C
100
AcDbEntity
  8
Viditelná (ISO)
100
AcDbSpline
210
0.0
220
0.0
230
1.0
 70
     8
 71
     3
 72
    16
 73
    12
 74
     0
 42
0.0000000001
 43
0.0000000001
 40
1.048441171135185
 40
1.048441171135185
 40
1.048441171135185
 40
1.048441171135185
 40
1.086504981307775
 40
1.086504981307775
 40
1.301098566461269
 40
1.301098566461269
 40
1.522460679384915
 40
1.522460679384915
 40
1.743822792308562
 40
1.743822792308562
 40
1.788737016213636
 40
1.788737016213636
 40
1.788737016213636
 40
1.788737016213636
 10
117.8342359562393
 20
416.4390926972534
 30
0.0
 10
117.8429137596506
 20
416.428825921537
 30
0.0
 10
117.8470856621987
 20
416.417460350693
 30
0.0
 10
117.8447151150013
 20
416.3350675267531
 30
0.0
 10
117.6912912901256
 20
416.2300560630748
 30
0.0
 10
117.1691772929322
 20
415.9883470359991
 30
0.0
 10
116.7566492314894
 20
415.8334249825616
 30
0.0
 10
115.70786408342
 20
415.4965901090522
 30
0.0
 10
115.0716636351
 20
415.3148002038099
 30
0.0
 10
114.2915219567746
 20
415.1108238679729
 30
0.0
 10
114.1560227580836
 20
415.0759934593561
 30
0.0
 10
114.0171982988304
 20
415.0409265811616
 30
0.0
  0
SPLINE
  5
2BD
330
6C
100
AcDbEntity
  8
Viditelná (ISO)
100
AcDbSpline
210
0.0
220
0.0
230
1.0
 70
     8
 71
     3
 72
    24
 73
    20
 74
     0
 42
0.0000000001
 43
0.0000000001
 40
-0.4188666172580346
 40
-0.4188666172580346
 40
-0.4188666172580346
 40
-0.4188666172580346
 40
-0.3293785765231435
 40
-0.3293785765231435
 40
-0.2783437283744359
 40
-0.2783437283744359
 40
-0.2534120682247762
 40
-0.2534120682247762
 40
-0.2391679233182998
 40
-0.2391679233182998
 40
-0.2269103270270532
 40
-0.2269103270270532
 40
-0.2120584193815033
 40
-0.2120584193815033
 40
-0.1843653870245355
 40
-0.1843653870245355
 40
-0.0680044100022132
 40
-0.0680044100022132
 40
-0.0515883383068502
 40
-0.0515883383068502
 40
-0.0515883383068502
 40
-0.0515883383068502
 10
116.5284635482155
 20
416.4390926972534
 30
0.0
 10
116.7020783492622
 20
416.4602930514152
 30
0.0
 10
116.8679953129924
 20
416.471312155322
 30
0.0
 10
117.1074192638164
 20
416.4813441720016
 30
0.0
 10
117.1880504358267
 20
416.4833996517717
 30
0.0
 10
117.2981764833278
 20
416.4852526591873
 30
0.0
 10
117.3327298665075
 20
416.4856588094544
 30
0.0
 10
117.3844796306928
 20
416.486045266505
 30
0.0
 10
117.4027666960615
 20
416.4861328908536
 30
0.0
 10
117.4357967833644
 20
416.4862031739331
 30
0.0
 10
117.4506782720776
 20
416.4861987116207
 30
0.0
 10
117.4827091191666
 20
416.4861068232133
 30
0.0
 10
117.4996716718616
 20
416.4860021469477
 30
0.0
 10
117.5465707074021
 20
416.4855353501848
 30
0.0
 10
117.575042812962
 20
416.4850318265382
 30
0.0
 10
117.7123015309438
 20
416.4810438640632
 30
0.0
 10
117.7857682619656
 20
416.4743335129911
 30
0.0
 10
117.8264276380257
 20
416.4470144758184
 30
0.0
 10
117.8307062646377
 20
416.4432687024362
 30
0.0
 10
117.8342359562393
 20
416.4390926972534
 30
0.0
  0
SPLINE
  5
2BE
330
6C
100
AcDbEntity
  8
Viditelná (ISO)
100
AcDbSpline
210
0.0
220
0.0
230
1.0
 70
     8
 71
     3
 72
    17
 73
    13
 74
     0
 42
0.0000000001
 43
0.0000000001
 40
-0.0449142239652474
 40
-0.0449142239652474
 40
-0.0449142239652474
 40
-0.0449142239652474
 40
0.0
 40
0.0
 40
0.0
 40
0.2213621129236467
 40
0.2213621129236467
 40
0.4427242258472934
 40
0.4427242258472934
 40
0.6573178110007872
 40
0.6573178110007872
 40
0.6953816211733766
 40
0.6953816211733766
 40
0.6953816211733766
 40
0.6953816211733766
 10
109.6763010693343
 20
415.0409265811616
 30
0.0
 10
109.8151255284449
 20
415.07599345932
 30
0.0
 10
109.9546434869918
 20
415.1108238679268
 30
0.0
 10
110.0939947976478
 20
415.1452296245196
 30
0.0
 10
110.7807950547194
 20
415.3148002038098
 30
0.0
 10
111.556663566695
 20
415.4965901090521
 30
0.0
 10
113.0885817472012
 20
415.8334249825615
 30
0.0
 10
113.8446501270611
 20
415.988347035999
 30
0.0
 10
115.1301808416612
 20
416.2300560630748
 30
0.0
 10
115.7528072439892
 20
416.3350675267531
 30
0.0
 10
116.3566812997348
 20
416.417460350693
 30
0.0
 10
116.4443864516825
 20
416.4288259215369
 30
0.0
 10
116.5284635482155
 20
416.4390926972534
 30
0.0
  0
LINE
  5
2EF
330
6C
100
AcDbEntity
  8
Viditelná (ISO)
100
AcDbLine
 10
95.72013344922755
 20
412.1926215572233
 30
0.0
 11
99.96971693800663
 21
412.1926215572234
 31
0.0
  0
LINE
  5
2F0
330
6C
100
AcDbEntity
  8
Viditelná (ISO)
100
AcDbLine
 10
104.3106141675027
 20
412.1926215572235
 30
0.0
 11
145.2573990552149
 21
412.1926215572237
 31
0.0
  0
LINE
  5
2F1
330
6C
100
AcDbEntity
  8
Viditelná (ISO)
100
AcDbLine
 10
156.2375220051379
 20
412.1926215572239
 30
0.0
 11
215.4820364225355
 21
412.1926215572237
 31
0.0
  0
LINE
  5
2F2
330
6C
100
AcDbEntity
  8
Viditelná (ISO)
100
AcDbLine
 10
226.6693779853444
 20
412.1926215572236
 30
0.0
 11
269.5069888829242
 21
412.1926215572234
 31
0.0
  0
LINE
  5
2F3
330
6C
100
AcDbEntity
  8
Viditelná (ISO)
100
AcDbLine
 10
274.348156098026
 20
412.1926215572233
 30
0.0
 11
279.9347554804263
 21
412.1926215572231
 31
0.0
  0
ARC
  5
2F4
330
6C
100
AcDbEntity
  8
Viditelná (ISO)
100
AcDbCircle
 10
112.4876837478875
 20
414.4926215572231
 30
0.0
 40
2.000000000000041
100
AcDbArc
 50
90.0
 51
103.2858717175412
  0
ARC
  5
2F5
330
6C
100
AcDbEntity
  8
Viditelná (ISO)
100
AcDbCircle
 10
263.1672051817663
 20
414.4926215572231
 30
0.0
 40
2.000000000000042
100
AcDbArc
 50
76.71412828245876
 51
90.0
  0
LINE
  5
2F6
330
6C
100
AcDbEntity
  8
Viditelná (ISO)
100
AcDbLine
 10
263.1672051817663
 20
416.4926215572231
 30
0.0
 11
112.4876837478875
 21
416.4926215572233
 31
0.0
  0
LINE
  5
2F7
330
6C
100
AcDbEntity
  8
Viditelná (ISO)
100
AcDbLine
 10
112.0280642302097
 20
416.4390926972532
 30
0.0
 11
96.10522856980811
 21
412.6792393422307
 31
0.0
  0
LINE
  5
2F8
330
6C
100
AcDbEntity
  8
Viditelná (ISO)
100
AcDbLine
 10
263.6268246994441
 20
416.439092697253
 30
0.0
 11
279.5496603598457
 21
412.6792393422306
 31
0.0
  0
ARC
  5
2F9
330
6C
100
AcDbEntity
  8
Viditelná (ISO)
100
AcDbCircle
 10
96.22013344922756
 20
412.1926215572233
 30
0.0
 40
0.5000000000000014
100
AcDbArc
 50
103.2858717175423
 51
180.0
  0
ARC
  5
2FA
330
6C
100
AcDbEntity
  8
Viditelná (ISO)
100
AcDbCircle
 10
279.4347554804263
 20
412.1926215572231
 30
0.0
 40
0.5000000000000014
100
AcDbArc
 50
0.0
 51
76.71412828246002
  0
ARC
  5
306
330
6C
100
AcDbEntity
  8
Viditelná (ISO)
100
AcDbCircle
 10
264.2274444648271
 20
399.6726215572232
 30
0.0
 40
2.500000000000003
100
AcDbArc
 50
327.1401196211095
 51
32.85988037888891
  0
ARC
  5
307
330
6C
100
AcDbEntity
  8
Viditelná (ISO)
100
AcDbCircle
 10
111.4274444648266
 20
399.6726215572234
 30
0.0
 40
2.500000000000003
100
AcDbArc
 50
147.1401196211108
 51
212.8598803788889
  0
LINE
  5
366
330
6C
100
AcDbEntity
  8
Viditelná (ISO)
100
AcDbLine
 10
277.204963793309
 20
415.1926215572229
 30
0.0
 11
268.9055824711058
 21
415.1926215572229
 31
0.0
  0
LINE
  5
367
330
6C
100
AcDbEntity
  8
Viditelná (ISO)
100
AcDbLine
 10
276.704963793309
 20
416.1926215572229
 30
0.0
 11
264.670620583794
 21
416.192621557223
 31
0.0
  0
LINE
  5
368
330
6C
100
AcDbEntity
  8
Viditelná (ISO)
100
AcDbLine
 10
276.704963793309
 20
433.1926215572229
 30
0.0
 11
259.7049637933089
 21
433.1926215572229
 31
0.0
  0
LINE
  5
369
330
6C
100
AcDbEntity
  8
Viditelná (ISO)
100
AcDbLine
 10
275.704963793309
 20
435.1926215572229
 30
0.0
 11
260.7049637933089
 21
435.1926215572229
 31
0.0
  0
LINE
  5
36A
330
6C
100
AcDbEntity
  8
Viditelná (ISO)
100
AcDbLine
 10
276.704963793309
 20
416.1926215572229
 30
0.0
 11
277.204963793309
 21
415.1926215572229
 31
0.0
  0
LINE
  5
36B
330
6C
100
AcDbEntity
  8
Viditelná (ISO)
100
AcDbLine
 10
259.7049637933089
 20
416.4926215572234
 30
0.0
 11
259.7049637933089
 21
433.1926215572229
 31
0.0
  0
LINE
  5
36C
330
6C
100
AcDbEntity
  8
Viditelná (ISO)
100
AcDbLine
 10
276.704963793309
 20
416.1926215572229
 30
0.0
 11
276.704963793309
 21
433.1926215572229
 31
0.0
  0
LINE
  5
36D
330
6C
100
AcDbEntity
  8
Viditelná (ISO)
100
AcDbLine
 10
275.7049637933091
 20
435.1926215572229
 30
0.0
 11
276.704963793309
 21
433.1926215572229
 31
0.0
  0
LINE
  5
36E
330
6C
100
AcDbEntity
  8
Viditelná (ISO)
100
AcDbLine
 10
260.7049637933089
 20
435.1926215572229
 30
0.0
 11
259.7049637933089
 21
433.1926215572229
 31
0.0
  0
LINE
  5
375
330
6C
100
AcDbEntity
  8
Viditelná (ISO)
100
AcDbLine
 10
273.1405443584177
 20
414.1926215572229
 30
0.0
 11
273.854963793309
 21
414.1926215572229
 31
0.0
  0
SPLINE
  5
376
330
6C
100
AcDbEntity
  8
Viditelná (ISO)
100
AcDbSpline
210
0.0
220
0.0
230
1.0
 70
    12
 71
     2
 72
     6
 73
     3
 74
     0
 42
0.0000000001
 43
0.0000000001
 40
0.0225052040996258
 40
0.0225052040996258
 40
0.0225052040996258
 40
0.0400846544782569
 40
0.0400846544782569
 40
0.0400846544782569
 10
275.5849946678745
 20
415.1926215572229
 30
0.0
 41
1.008896573972259
 10
275.5408184640875
 20
415.1659502052114
 30
0.0
 41
1.012265149694369
 10
275.4971798558961
 20
415.140755443025
 30
0.0
 41
1.015467959311968
  0
SPLINE
  5
377
330
6C
100
AcDbEntity
  8
Viditelná (ISO)
100
AcDbSpline
210
0.0
220
0.0
230
1.0
 70
    12
 71
     2
 72
     6
 73
     3
 74
     0
 42
0.0000000001
 43
0.0000000001
 40
0.022505204099631
 40
0.022505204099631
 40
0.022505204099631
 40
0.736978285651026
 40
0.736978285651026
 40
0.736978285651026
 10
271.7454338796397
 20
415.1926215572229
 30
0.0
 41
1.008896573972261
 10
273.6535513323541
 20
414.2349654685835
 30
0.0
 41
1.145803964406991
 10
275.5616687850685
 20
415.1926215572229
 30
0.0
 41
1.008896573972257
  0
SPLINE
  5
378
330
6C
100
AcDbEntity
  8
Viditelná (ISO)
100
AcDbSpline
210
0.0
220
0.0
230
1.0
 70
    12
 71
     2
 72
     6
 73
     3
 74
     0
 42
0.0000000001
 43
0.0000000001
 40
0.6197847758057895
 40
0.6197847758057895
 40
0.6197847758057895
 40
0.7369782856510126
 40
0.7369782856510126
 40
0.7369782856510126
 10
270.1234312921541
 20
414.9050513609722
 30
0.0
 41
1.046442806771856
 10
270.7172341334637
 20
415.0181076014736
 30
0.0
 41
1.031353203932284
 10
271.3540013146098
 20
415.1926215572229
 30
0.0
 41
1.008896573972262
  0
LINE
  5
379
330
6C
100
AcDbEntity
  8
Viditelná (ISO)
100
AcDbLine
 10
273.854963793309
 20
414.1926215572229
 30
0.0
 11
275.4971798558961
 21
415.140755443025
 31
0.0
  0
LINE
  5
39C
330
6C
100
AcDbEntity
  8
Viditelná (ISO)
100
AcDbLine
 10
280.3274444648266
 20
405.1926215572234
 30
0.0
 11
95.32744446482722
 21
405.1926215572235
 31
0.0
  0
LINE
  5
39D
330
6C
100
AcDbEntity
  8
Viditelná (ISO)
100
AcDbLine
 10
95.32744446482723
 20
405.1926215572235
 30
0.0
 11
95.32744446482723
 21
407.2216839920852
 31
0.0
  0
LINE
  5
39E
330
6C
100
AcDbEntity
  8
Viditelná (ISO)
100
AcDbLine
 10
280.3274444648266
 20
405.1926215572235
 30
0.0
 11
280.3274444648266
 21
407.2216839920851
 31
0.0
  0
ARC
  5
39F
330
6C
100
AcDbEntity
  8
Viditelná (ISO)
100
AcDbCircle
 10
279.8274444648265
 20
407.2216839920851
 30
0.0
 40
0.5000000000000073
100
AcDbArc
 50
0.0
 51
73.14160123226087
  0
ARC
  5
3A0
330
6C
100
AcDbEntity
  8
Viditelná (ISO)
100
AcDbCircle
 10
95.82744446482726
 20
407.2216839920852
 30
0.0
 40
0.5000000000000075
100
AcDbArc
 50
106.8583987677379
 51
180.0
  0
LINE
  5
3A1
330
6C
100
AcDbEntity
  8
Viditelná (ISO)
100
AcDbLine
 10
270.7732476623765
 20
410.487832709481
 30
0.0
 11
279.972448162468
 21
407.7001961943018
 31
0.0
  0
LINE
  5
3A2
330
6C
100
AcDbEntity
  8
Viditelná (ISO)
100
AcDbLine
 10
104.8816412672773
 20
410.4878327094811
 30
0.0
 11
95.68244076718583
 21
407.7001961943019
 31
0.0
  0
LINE
  5
3C4
330
6C
100
AcDbEntity
  8
Viditelná (ISO)
100
AcDbLine
 10
189.0202690852607
 20
417.5926215572228
 30
0.0
 11
207.0202690852606
 21
417.5926215572228
 31
0.0
  0
ARC
  5
3C5
330
6C
100
AcDbEntity
  8
Viditelná (ISO)
100
AcDbCircle
 10
189.0202690852607
 20
416.5926215572227
 30
0.0
 40
1.0
100
AcDbArc
 50
90.0
 51
180.0
  0
ARC
  5
3C6
330
6C
100
AcDbEntity
  8
Viditelná (ISO)
100
AcDbCircle
 10
207.0202690852607
 20
416.5926215572227
 30
0.0
 40
1.0
100
AcDbArc
 50
0.0
 51
90.0
  0
LINE
  5
3C9
330
6C
100
AcDbEntity
  8
Viditelná (ISO)
100
AcDbLine
 10
208.0202690852607
 20
416.5926215572227
 30
0.0
 11
208.0202690852607
 21
416.4926215572237
 31
0.0
  0
LINE
  5
3CA
330
6C
100
AcDbEntity
  8
Viditelná (ISO)
100
AcDbLine
 10
188.0202690852607
 20
416.5926215572227
 30
0.0
 11
188.0202690852607
 21
416.4926215572237
 31
0.0
  0
LINE
  5
3CD
330
6C
100
AcDbEntity
  8
Viditelná (ISO)
100
AcDbLine
 10
266.3274444648267
 20
378.6926215572232
 30
0.0
 11
109.327444464827
 21
378.6926215572233
 31
0.0
  0
LINE
  5
3CE
330
6C
100
AcDbEntity
  8
Viditelná (ISO)
100
AcDbLine
 10
266.3274444648267
 20
380.1926215572231
 30
0.0
 11
109.327444464827
 21
380.1926215572233
 31
0.0
  0
LINE
  5
3CF
330
6C
100
AcDbEntity
  8
Viditelná (ISO)
100
AcDbLine
 10
258.8274444648269
 20
320.1926215572237
 30
0.0
 11
116.8274444648268
 21
320.1926215572238
 31
0.0
  0
ARC
  5
3D0
330
6C
100
AcDbEntity
  8
Viditelná (ISO)
100
AcDbCircle
 10
263.3274444648269
 20
374.0097454158104
 30
0.0
 40
4.499999999999995
100
AcDbArc
 50
94.99999999999976
 51
180.0
  0
ARC
  5
3D1
330
6C
100
AcDbEntity
  8
Viditelná (ISO)
100
AcDbCircle
 10
112.3274444648268
 20
374.0097454158104
 30
0.0
 40
4.499999999999996
100
AcDbArc
 50
0.0
 51
84.99999999999994
  0
LINE
  5
3D2
330
6C
100
AcDbEntity
  8
Viditelná (ISO)
100
AcDbLine
 10
112.7196453071913
 20
378.4926215572233
 30
0.0
 11
110.433634846639
 21
378.6926215572233
 31
0.0
  0
LINE
  5
3D3
330
6C
100
AcDbEntity
  8
Viditelná (ISO)
100
AcDbLine
 10
262.9352436224625
 20
378.4926215572232
 30
0.0
 11
265.2212540830147
 21
378.6926215572232
 31
0.0
  0
LINE
  5
3D4
330
6C
100
AcDbEntity
  8
Viditelná (ISO)
100
AcDbLine
 10
109.327444464827
 20
378.6926215572233
 30
0.0
 11
109.327444464827
 21
380.1926215572233
 31
0.0
  0
LINE
  5
3D5
330
6C
100
AcDbEntity
  8
Viditelná (ISO)
100
AcDbLine
 10
266.3274444648267
 20
378.6926215572232
 30
0.0
 11
266.3274444648267
 21
380.1926215572232
 31
0.0
  0
LINE
  5
3D6
330
6C
100
AcDbEntity
  8
Viditelná (ISO)
100
AcDbLine
 10
116.8274444648268
 20
320.1926215572237
 30
0.0
 11
116.8274444648268
 21
374.0097454158104
 31
0.0
  0
LINE
  5
3D7
330
6C
100
AcDbEntity
  8
Viditelná (ISO)
100
AcDbLine
 10
258.8274444648269
 20
320.1926215572237
 30
0.0
 11
258.8274444648269
 21
374.0097454158104
 31
0.0
  0
ARC
  5
3E7
330
6C
100
AcDbEntity
  8
Viditelná (ISO)
100
AcDbCircle
 10
187.8274444647097
 20
131.2637254216041
 30
0.0
 40
90.9999999999956
100
AcDbArc
 50
197.4266958966622
 51
204.9876683718521
  0
ARC
  5
3E8
330
6C
100
AcDbEntity
  8
Viditelná (ISO)
100
AcDbCircle
 10
187.8274444647155
 20
131.2637254216095
 30
0.0
 40
91.00000000000433
100
AcDbArc
 50
242.4266958966625
 51
249.9876683718517
  0
ARC
  5
3E9
330
6C
100
AcDbEntity
  8
Viditelná (ISO)
100
AcDbCircle
 10
187.8274444647145
 20
131.2637254216042
 30
0.0
 40
90.99999999999864
100
AcDbArc
 50
287.4266958966623
 51
294.987668371852
  0
ARC
  5
3EA
330
6C
100
AcDbEntity
  8
Viditelná (ISO)
100
AcDbCircle
 10
187.8274444647126
 20
131.2637254216062
 30
0.0
 40
91.00000000000163
100
AcDbArc
 50
332.4266958966625
 51
339.9876683718519
  0
ARC
  5
3EB
330
6C
100
AcDbEntity
  8
Viditelná (ISO)
100
AcDbCircle
 10
187.8274444647157
 20
131.2637254216096
 30
0.0
 40
90.99999999999596
100
AcDbArc
 50
62.42669589666216
 51
69.98766837185204
  0
ARC
  5
3EC
330
6C
100
AcDbEntity
  8
Viditelná (ISO)
100
AcDbCircle
 10
187.8274444647136
 20
131.2637254216066
 30
0.0
 40
90.99999999999928
100
AcDbArc
 50
107.4266958966624
 51
114.9876683718519
  0
ARC
  5
3ED
330
6C
100
AcDbEntity
  8
Viditelná (ISO)
100
AcDbCircle
 10
187.8274444647124
 20
131.2637254216064
 30
0.0
 40
90.99999999999853
100
AcDbArc
 50
152.4266958966622
 51
159.9876683718518
  0
SPLINE
  5
3EE
330
6C
100
AcDbEntity
  8
Viditelná (ISO)
100
AcDbSpline
210
0.0
220
0.0
230
1.0
 70
    28
 71
     2
 72
     6
 73
     3
 74
     0
 42
0.0000000001
 43
0.0000000001
 40
0.0
 40
0.0
 40
0.0
 40
0.9930568192867669
 40
0.9930568192867669
 40
0.9930568192867669
 10
160.3124551250529
 20
218.7616696850616
 30
0.0
 41
1.0
 10
162.2303902733353
 20
213.8187755171568
 30
0.0
 41
1.002768203755205
 10
163.9391882291242
 20
209.4148688170994
 30
0.0
 41
1.002184193507763
  0
SPLINE
  5
3EF
330
6C
100
AcDbEntity
  8
Viditelná (ISO)
100
AcDbSpline
210
0.0
220
0.0
230
1.0
 70
    24
 71
     3
 72
    14
 73
    10
 74
     0
 42
0.0000000001
 43
0.0000000001
 40
0.0
 40
0.0
 40
0.0
 40
0.0
 40
0.0185094234429819
 40
0.0185094234429819
 40
0.0370389815922798
 40
0.0370389815922798
 40
0.0555729829704504
 40
0.0555729829704504
 40
0.063219510833937
 40
0.063219510833937
 40
0.063219510833937
 40
0.063219510833937
 10
160.1728525070055
 20
219.1214529484262
 30
0.0
 10
160.1728525070055
 20
219.1214529484263
 30
0.0
 10
160.178088170706
 20
219.1079596185847
 30
0.0
 10
160.195206250032
 20
219.063842978592
 30
0.0
 10
160.2101255031876
 20
219.0253931438942
 30
0.0
 10
160.2417607927665
 20
218.9438628124336
 30
0.0
 10
160.2640749312052
 20
218.8863549113719
 30
0.0
 10
160.2932483728887
 20
218.8111692436581
 30
0.0
 10
160.3026947154833
 20
218.7868241703847
 30
0.0
 10
160.3124551250529
 20
218.7616696850616
 30
0.0
  0
SPLINE
  5
3F0
330
6C
100
AcDbEntity
  8
Viditelná (ISO)
100
AcDbSpline
210
0.0
220
0.0
230
1.0
 70
    28
 71
     2
 72
     6
 73
     3
 74
     0
 42
0.0000000001
 43
0.0000000001
 40
0.6470434929909763
 40
0.6470434929909763
 40
0.6470434929909763
 40
1.640100312277743
 40
1.640100312277743
 40
1.640100312277743
 10
152.7518466663152
 20
205.0739715876033
 30
0.0
 41
1.002184193507763
 10
151.0430487105263
 20
209.4778782876606
 30
0.0
 41
1.002768203755205
 10
149.1251135622439
 20
214.4207724555656
 30
0.0
 41
1.0
  0
SPLINE
  5
3F1
330
6C
100
AcDbEntity
  8
Viditelná (ISO)
100
AcDbSpline
210
0.0
220
0.0
230
1.0
 70
    24
 71
     3
 72
    14
 73
    10
 74
     0
 42
0.0000000001
 43
0.0000000001
 40
-0.0632195108339386
 40
-0.0632195108339386
 40
-0.0632195108339386
 40
-0.0632195108339386
 40
-0.0555729829704505
 40
-0.0555729829704505
 40
-0.0370389815922798
 40
-0.0370389815922798
 40
-0.0185094234429819
 40
-0.0185094234429819
 40
0.0
 40
0.0
 40
0.0
 40
0.0
 10
149.1251135622439
 20
214.4207724555655
 30
0.0
 10
149.1153531526742
 20
214.4459269408887
 30
0.0
 10
149.1059068100797
 20
214.470272014162
 30
0.0
 10
149.0767333683962
 20
214.5454576818758
 30
0.0
 10
149.0544192299575
 20
214.6029655829375
 30
0.0
 10
149.0227839403786
 20
214.6844959143982
 30
0.0
 10
149.007864687223
 20
214.7229457490959
 30
0.0
 10
148.990746607897
 20
214.7670623890886
 30
0.0
 10
148.9855109441965
 20
214.7805557189301
 30
0.0
 10
148.9855109441965
 20
214.7805557189301
 30
0.0
  0
SPLINE
  5
3F2
330
6C
100
AcDbEntity
  8
Viditelná (ISO)
100
AcDbSpline
210
0.0
220
0.0
230
1.0
 70
     8
 71
     3
 72
    16
 73
    12
 74
     0
 42
0.0000000001
 43
0.0000000001
 40
1.04844117113522
 40
1.04844117113522
 40
1.04844117113522
 40
1.04844117113522
 40
1.086504981307775
 40
1.086504981307775
 40
1.301098566461269
 40
1.301098566461269
 40
1.522460679384915
 40
1.522460679384915
 40
1.743822792308562
 40
1.743822792308562
 40
1.788737016213638
 40
1.788737016213638
 40
1.788737016213638
 40
1.788737016213638
 10
158.7328262918375
 20
201.2569339301947
 30
0.0
 10
158.5986743622169
 20
201.2482561267833
 30
0.0
 10
158.4640755589538
 20
201.2440842242353
 30
0.0
 10
157.571362330969
 20
201.2464547714327
 30
0.0
 10
156.8161879216593
 20
201.3998785963084
 30
0.0
 10
155.4817508555742
 20
201.9219925935018
 30
0.0
 10
154.8123469344064
 20
202.3345206549444
 30
0.0
 10
153.6891022361011
 20
203.3833058030138
 30
0.0
 10
153.2351717217727
 20
204.0195062513337
 30
0.0
 10
152.864247605407
 20
204.7996479296591
 30
0.0
 10
152.8057131463163
 20
204.9351471283501
 30
0.0
 10
152.7518466663152
 20
205.0739715876033
 30
0.0
  0
SPLINE
  5
3F3
330
6C
100
AcDbEntity
  8
Viditelná (ISO)
100
AcDbSpline
210
0.0
220
0.0
230
1.0
 70
     8
 71
     3
 72
    24
 73
    20
 74
     0
 42
0.0000000001
 43
0.0000000001
 40
-0.4188666172507822
 40
-0.4188666172507822
 40
-0.4188666172507822
 40
-0.4188666172507822
 40
-0.3293785765193433
 40
-0.3293785765193433
 40
-0.2783437283726274
 40
-0.2783437283726274
 40
-0.2534120682240181
 40
-0.2534120682240181
 40
-0.2391679233181056
 40
-0.2391679233181056
 40
-0.226910327026849
 40
-0.226910327026849
 40
-0.212058419381298
 40
-0.212058419381298
 40
-0.1843653870244063
 40
-0.1843653870244063
 40
-0.0680044100021882
 40
-0.0680044100021882
 40
-0.0515883383068049
 40
-0.0515883383068049
 40
-0.0515883383068049
 40
-0.0515883383068049
 10
162.0980572935289
 20
202.5627063382188
 30
0.0
 10
161.8814533787199
 20
202.389091537172
 30
0.0
 10
161.6436590311859
 20
202.223174573442
 30
0.0
 10
161.2359909587491
 20
201.9837506226177
 30
0.0
 10
161.0841353314745
 20
201.9031194506074
 30
0.0
 10
160.8533035847075
 20
201.7929934031064
 30
0.0
 10
160.7767861662884
 20
201.7584400199268
 30
0.0
 10
160.6554626866481
 20
201.7066902557411
 30
0.0
 10
160.6111244212224
 20
201.6884031903722
 30
0.0
 10
160.5282349555698
 20
201.6553731030693
 30
0.0
 10
160.4897393524664
 20
201.6404916143564
 30
0.0
 10
160.4042699093016
 20
201.6084607672677
 30
0.0
 10
160.3572265259163
 20
201.5914982145726
 30
0.0
 10
160.2218792684872
 20
201.5445991790319
 30
0.0
 10
160.13307164513
 20
201.516127073472
 30
0.0
 10
159.6679258774966
 20
201.3788683554903
 30
0.0
 10
159.2828747735805
 20
201.3054016244685
 30
0.0
 10
158.8419533502626
 20
201.2647422484083
 30
0.0
 10
158.787392512904
 20
201.2604636217962
 30
0.0
 10
158.7328262918375
 20
201.2569339301947
 30
0.0
  0
SPLINE
  5
3F4
330
6C
100
AcDbEntity
  8
Viditelná (ISO)
100
AcDbSpline
210
0.0
220
0.0
230
1.0
 70
     8
 71
     3
 72
    17
 73
    13
 74
     0
 42
0.0000000001
 43
0.0000000001
 40
-0.0449142239652457
 40
-0.0449142239652457
 40
-0.0449142239652457
 40
-0.0449142239652457
 40
0.0
 40
0.0
 40
0.0
 40
0.2213621129236465
 40
0.2213621129236465
 40
0.4427242258472931
 40
0.4427242258472931
 40
0.6573178110007872
 40
0.6573178110007872
 40
0.6953816211733419
 40
0.6953816211733419
 40
0.6953816211733419
 40
0.6953816211733419
 10
163.9391882291242
 20
209.4148688170994
 30
0.0
 10
163.99305470907
 20
209.2760443579887
 30
0.0
 10
164.0412320375285
 20
209.1365263994419
 30
0.0
 10
164.0837968333962
 20
208.9971750887858
 30
0.0
 10
164.2935796664858
 20
208.3103748317142
 30
0.0
 10
164.3875582513113
 20
207.5345063197388
 30
0.0
 10
164.265674588268
 20
206.0025881392327
 30
0.0
 10
164.0497078868338
 20
205.2465197593728
 30
0.0
 10
163.4166706910649
 20
203.9609890447728
 30
0.0
 10
162.9626182473541
 20
203.3383626424448
 30
0.0
 10
162.3051392349813
 20
202.7344885866993
 30
0.0
 10
162.2029528908225
 20
202.6467834347516
 30
0.0
 10
162.0980572935289
 20
202.5627063382188
 30
0.0
  0
SPLINE
  5
3F5
330
6C
100
AcDbEntity
  8
Viditelná (ISO)
100
AcDbSpline
210
0.0
220
0.0
230
1.0
 70
    28
 71
     2
 72
     6
 73
     3
 74
     0
 42
0.0000000001
 43
0.0000000001
 40
0.0
 40
0.0
 40
0.0
 40
0.9930568187646517
 40
0.9930568187646517
 40
0.9930568187646517
 10
230.2417986469361
 20
212.5901506965279
 30
0.0
 41
1.0
 10
228.1028296096607
 20
207.7388117586583
 30
0.0
 41
1.002768203896082
 10
226.1970999422417
 20
203.4164768489491
 30
0.0
 41
1.002184193620682
  0
SPLINE
  5
3F6
330
6C
100
AcDbEntity
  8
Viditelná (ISO)
100
AcDbSpline
210
0.0
220
0.0
230
1.0
 70
    24
 71
     3
 72
    14
 73
    10
 74
     0
 42
0.0000000001
 43
0.0000000001
 40
0.0
 40
0.0
 40
0.0
 40
0.0
 40
0.0185094234429817
 40
0.0185094234429817
 40
0.0370389815922799
 40
0.0370389815922799
 40
0.0555729829704523
 40
0.0555729829704523
 40
0.0632195108339386
 40
0.0632195108339386
 40
0.0632195108339386
 40
0.0632195108339386
 10
230.397489874326
 20
212.9432698397031
 30
0.0
 10
230.397489874326
 20
212.9432698397031
 30
0.0
 10
230.3916508226009
 20
212.9300264413647
 30
0.0
 10
230.3725599572711
 20
212.8867269560904
 30
0.0
 10
230.3559213234975
 20
212.8489893121636
 30
0.0
 10
230.3206402010352
 20
212.7689691341294
 30
0.0
 10
230.2957544528291
 20
212.7125264287105
 30
0.0
 10
230.2632188957855
 20
212.638733394777
 30
0.0
 10
230.2526839022915
 20
212.614839255471
 30
0.0
 10
230.2417986469361
 20
212.5901506965279
 30
0.0
  0
SPLINE
  5
3F7
330
6C
100
AcDbEntity
  8
Viditelná (ISO)
100
AcDbSpline
210
0.0
220
0.0
230
1.0
 70
    28
 71
     2
 72
     6
 73
     3
 74
     0
 42
0.0000000001
 43
0.0000000001
 40
0.6470434939435413
 40
0.6470434939435413
 40
0.6470434939435413
 40
1.640100312277742
 40
1.640100312277742
 40
1.640100312277742
 10
215.2169769923188
 20
208.2576440640509
 30
0.0
 41
1.002184193722109
 10
217.1227066583254
 20
212.5799789705568
 30
0.0
 41
1.002768204022788
 10
219.2616756970132
 20
217.4313179116297
 30
0.0
 41
1.0
  0
SPLINE
  5
3F8
330
6C
100
AcDbEntity
  8
Viditelná (ISO)
100
AcDbSpline
210
0.0
220
0.0
230
1.0
 70
    24
 71
     3
 72
    14
 73
    10
 74
     0
 42
0.0000000001
 43
0.0000000001
 40
-0.0632195108339385
 40
-0.0632195108339385
 40
-0.0632195108339385
 40
-0.0632195108339385
 40
-0.0555729829704516
 40
-0.0555729829704516
 40
-0.0370389815922797
 40
-0.0370389815922797
 40
-0.0185094234429819
 40
-0.0185094234429819
 40
0.0
 40
0.0
 40
0.0
 40
0.0
 10
219.2616756970132
 20
217.4313179116297
 30
0.0
 10
219.2725609523686
 20
217.4560064705728
 30
0.0
 10
219.2830959458626
 20
217.4799006098788
 30
0.0
 10
219.3156315029061
 20
217.5536936438123
 30
0.0
 10
219.3405172511123
 20
217.6101363492311
 30
0.0
 10
219.3757983735745
 20
217.6901565272654
 30
0.0
 10
219.3924370073482
 20
217.7278941711922
 30
0.0
 10
219.4115278726779
 20
217.7711936564665
 30
0.0
 10
219.4173669244031
 20
217.7844370548049
 30
0.0
 10
219.4173669244031
 20
217.7844370548049
 30
0.0
  0
SPLINE
  5
3F9
330
6C
100
AcDbEntity
  8
Viditelná (ISO)
100
AcDbSpline
210
0.0
220
0.0
230
1.0
 70
     8
 71
     3
 72
    16
 73
    12
 74
     0
 42
0.0000000001
 43
0.0000000001
 40
1.048441171135221
 40
1.048441171135221
 40
1.048441171135221
 40
1.048441171135221
 40
1.086504981307774
 40
1.086504981307774
 40
1.301098566461269
 40
1.301098566461269
 40
1.522460679384915
 40
1.522460679384915
 40
1.743822792308561
 40
1.743822792308561
 40
1.788737016213635
 40
1.788737016213635
 40
1.788737016213635
 40
1.788737016213635
 10
216.7471150320658
 20
201.3293996011076
 30
0.0
 10
216.646119159284
 20
201.4181232066136
 30
0.0
 10
216.5479934521748
 20
201.5103489525584
 30
0.0
 10
215.9184261050102
 20
202.1432687597198
 30
0.0
 10
215.492924186174
 20
202.7857447324865
 30
0.0
 10
214.9185250356465
 20
204.0985245789497
 30
0.0
 10
214.7368863733117
 20
204.8635660206361
 30
0.0
 10
214.6842355204158
 20
206.3994230539472
 30
0.0
 10
214.8131198267478
 20
207.1702620500172
 30
0.0
 10
215.10248033979
 20
207.9841884790351
 30
0.0
 10
215.1569026290736
 20
208.121390994231
 30
0.0
 10
215.2169769923188
 20
208.2576440640509
 30
0.0
  0
SPLINE
  5
3FA
330
6C
100
AcDbEntity
  8
Viditelná (ISO)
100
AcDbSpline
210
0.0
220
0.0
230
1.0
 70
     8
 71
     3
 72
    22
 73
    18
 74
     0
 42
0.0000000001
 43
0.0000000001
 40
-0.3758378556194544
 40
-0.3758378556194544
 40
-0.3758378556194544
 40
-0.3758378556194544
 40
-0.350085111668783
 40
-0.350085111668783
 40
-0.2787811903570856
 40
-0.2787811903570856
 40
-0.2429056216467759
 40
-0.2429056216467759
 40
-0.2212957302584698
 40
-0.2212957302584698
 40
-0.2020859491247586
 40
-0.2020859491247586
 40
-0.1781005695306777
 40
-0.1781005695306777
 40
-0.1316158563668494
 40
-0.1316158563668494
 40
-0.0503847250463702
 40
-0.0503847250463702
 40
-0.0503847250463702
 40
-0.0503847250463702
 10
220.0500132180212
 20
199.8731424639524
 30
0.0
 10
219.9534639566065
 20
199.8837789788452
 30
0.0
 10
219.8570038051749
 20
199.8967807365733
 30
0.0
 10
219.4946063658735
 20
199.9546544990984
 30
0.0
 10
219.2304982816338
 20
200.0152822803205
 30
0.0
 10
218.8410131281532
 20
200.1329831474586
 30
0.0
 10
218.7119654711028
 20
200.1768270624772
 30
0.0
 10
218.5077924170978
 20
200.2540460019706
 30
0.0
 10
218.4316350395741
 20
200.2846489809522
 30
0.0
 10
218.2890217029733
 20
200.3453834695288
 30
0.0
 10
218.2224295728825
 20
200.375189000007
 30
0.0
 10
218.0739613411212
 20
200.4449179706816
 30
0.0
 10
217.9924044738172
 20
200.4855132779063
 30
0.0
 10
217.7556296595489
 20
200.6101740131897
 30
0.0
 10
217.6031176703218
 20
200.699279952591
 30
0.0
 10
217.1958585119148
 20
200.9619579782798
 30
0.0
 10
216.9602456791635
 20
201.1421670050274
 30
0.0
 10
216.7471150320658
 20
201.3293996011076
 30
0.0
  0
SPLINE
  5
3FB
330
6C
100
AcDbEntity
  8
Viditelná (ISO)
100
AcDbSpline
210
0.0
220
0.0
230
1.0
 70
     8
 71
     3
 72
    17
 73
    13
 74
     0
 42
0.0000000001
 43
0.0000000001
 40
-0.0449142239652449
 40
-0.0449142239652449
 40
-0.0449142239652449
 40
-0.0449142239652449
 40
0.0
 40
0.0
 40
0.0
 40
0.2213621129236463
 40
0.2213621129236463
 40
0.4427242258472926
 40
0.4427242258472926
 40
0.6573178110007864
 40
0.6573178110007864
 40
0.6953816211733403
 40
0.6953816211733403
 40
0.6953816211733403
 40
0.6953816211733403
 10
226.1970999422417
 20
203.4164768489491
 30
0.0
 10
226.1370255790584
 20
203.2802237792691
 30
0.0
 10
226.072438000125
 20
203.1475031690309
 30
0.0
 10
226.0039995991908
 20
203.0188690565009
 30
0.0
 10
225.6666973439489
 20
202.3848890735508
 30
0.0
 10
225.1845283524383
 20
201.7698142928074
 30
0.0
 10
224.0151138541257
 20
200.7727693238024
 30
0.0
 10
223.3277812565914
 20
200.3908597644573
 30
0.0
 10
221.9711488770026
 20
199.9294771726116
 30
0.0
 10
221.2098219638084
 20
199.8102773833419
 30
0.0
 10
220.3179106558715
 20
199.8481818116784
 30
0.0
 10
220.1836370912849
 20
199.8584215608904
 30
0.0
 10
220.0500132180212
 20
199.8731424639524
 30
0.0
  0
SPLINE
  5
3FC
330
6C
100
AcDbEntity
  8
Viditelná (ISO)
100
AcDbSpline
210
0.0
220
0.0
230
1.0
 70
    28
 71
     2
 72
     6
 73
     3
 74
     0
 42
0.0000000001
 43
0.0000000001
 40
0.0
 40
0.0
 40
0.0
 40
0.0330889780470372
 40
0.0330889780470372
 40
0.0330889780470372
 10
275.3253887281696
 20
158.7787147612669
 30
0.0
 41
1.0
 10
275.1602491897523
 20
158.7146375396347
 30
0.0
 41
1.000092237454425
 10
274.9957448960221
 20
158.6508068047917
 30
0.0
 41
1.000180753132711
  0
SPLINE
  5
3FD
330
6C
100
AcDbEntity
  8
Viditelná (ISO)
100
AcDbSpline
210
0.0
220
0.0
230
1.0
 70
    28
 71
     2
 72
     6
 73
     3
 74
     0
 42
0.0000000001
 43
0.0000000001
 40
0.8592579157181539
 40
0.8592579157181539
 40
0.8592579157181539
 40
0.9930568192860716
 40
0.9930568192860716
 40
0.9930568192860716
 10
267.1752009742716
 20
155.6162898686208
 30
0.0
 41
1.002280712098306
 10
266.5722446985745
 20
155.3823315853248
 30
0.0
 41
1.002262879767178
 10
265.9785878602066
 20
155.1519816571963
 30
0.0
 41
1.002184193503599
  0
SPLINE
  5
3FE
330
6C
100
AcDbEntity
  8
Viditelná (ISO)
100
AcDbSpline
210
0.0
220
0.0
230
1.0
 70
    24
 71
     3
 72
    14
 73
    10
 74
     0
 42
0.0000000001
 43
0.0000000001
 40
0.0
 40
0.0
 40
0.0
 40
0.0
 40
0.0185094234429813
 40
0.0185094234429813
 40
0.03703898159228
 40
0.03703898159228
 40
0.0555729829704506
 40
0.0555729829704506
 40
0.0632195108339372
 40
0.0632195108339372
 40
0.0632195108339372
 40
0.0632195108339372
 10
275.6851719915343
 20
158.9183173793142
 30
0.0
 10
275.6851719915343
 20
158.9183173793142
 30
0.0
 10
275.6716786616927
 20
158.9130817156137
 30
0.0
 10
275.6275620217
 20
158.8959636362877
 30
0.0
 10
275.5891121870022
 20
158.8810443831321
 30
0.0
 10
275.5075818555416
 20
158.8494090935532
 30
0.0
 10
275.4500739544799
 20
158.8270949551146
 30
0.0
 10
275.374888286766
 20
158.797921513431
 30
0.0
 10
275.3505432134927
 20
158.7884751708366
 30
0.0
 10
275.3253887281696
 20
158.7787147612669
 30
0.0
  0
SPLINE
  5
3FF
330
6C
100
AcDbEntity
  8
Viditelná (ISO)
100
AcDbSpline
210
0.0
220
0.0
230
1.0
 70
     8
 71
     3
 72
    14
 73
    10
 74
     0
 42
0.0000000001
 43
0.0000000001
 40
1.048441171135185
 40
1.048441171135185
 40
1.048441171135185
 40
1.048441171135185
 40
1.086504981307775
 40
1.086504981307775
 40
1.301098566461269
 40
1.301098566461269
 40
1.522460679384915
 40
1.522460679384915
 40
1.525343737768337
 40
1.525343737768337
 40
1.525343737768337
 40
1.525343737768337
 10
257.8206529733016
 20
160.3583435944831
 30
0.0
 10
257.8119751698903
 20
160.4924955241038
 30
0.0
 10
257.8078032673421
 20
160.627094327367
 30
0.0
 10
257.8101738145396
 20
161.519807555352
 30
0.0
 10
257.9635976394154
 20
162.2749819646616
 30
0.0
 10
258.4857116366087
 20
163.6094190307466
 30
0.0
 10
258.8982396980514
 20
164.2788229519144
 30
0.0
 10
259.4294620515222
 20
164.847759967523
 30
0.0
 10
259.4363107968245
 20
164.8550563663128
 30
0.0
 10
259.4431782882643
 20
164.8623344137484
 30
0.0
  0
SPLINE
  5
400
330
6C
100
AcDbEntity
  8
Viditelná (ISO)
100
AcDbSpline
210
0.0
220
0.0
230
1.0
 70
     8
 71
     3
 72
    24
 73
    20
 74
     0
 42
0.0000000001
 43
0.0000000001
 40
-0.4188666172500904
 40
-0.4188666172500904
 40
-0.4188666172500904
 40
-0.4188666172500904
 40
-0.3293785765189632
 40
-0.3293785765189632
 40
-0.2783437283723695
 40
-0.2783437283723695
 40
-0.2534120682237877
 40
-0.2534120682237877
 40
-0.2391679233178454
 40
-0.2391679233178454
 40
-0.2269103270267879
 40
-0.2269103270267879
 40
-0.2120584193813937
 40
-0.2120584193813937
 40
-0.1843653870245146
 40
-0.1843653870245146
 40
-0.0680044100022063
 40
-0.0680044100022063
 40
-0.0515883383068486
 40
-0.0515883383068486
 40
-0.0515883383068486
 40
-0.0515883383068486
 10
259.1264253813254
 20
156.9931125927923
 30
0.0
 10
258.9528105802788
 20
157.2097165076013
 30
0.0
 10
258.7868936165488
 20
157.4475108551351
 30
0.0
 10
258.5474696657247
 20
157.8551789275717
 30
0.0
 10
258.4668384937143
 20
158.0070345548463
 30
0.0
 10
258.3567124462132
 20
158.2378663016134
 30
0.0
 10
258.3221590630336
 20
158.3143837200327
 30
0.0
 10
258.270409298848
 20
158.4357071996729
 30
0.0
 10
258.2521222334791
 20
158.4800454650986
 30
0.0
 10
258.2190921461765
 20
158.5629349307504
 30
0.0
 10
258.2042106574633
 20
158.6014305338541
 30
0.0
 10
258.1721798103743
 20
158.6868999770201
 30
0.0
 10
258.1552172576793
 20
158.733943360405
 30
0.0
 10
258.1083182221387
 20
158.8692906178339
 30
0.0
 10
258.0798461165789
 20
158.958098241191
 30
0.0
 10
257.9425873985972
 20
159.4232440088243
 30
0.0
 10
257.8691206675753
 20
159.8082951127403
 30
0.0
 10
257.8284612915151
 20
160.2492165360581
 30
0.0
 10
257.8241826649032
 20
160.3037773734167
 30
0.0
 10
257.8206529733016
 20
160.3583435944831
 30
0.0
  0
SPLINE
  5
401
330
6C
100
AcDbEntity
  8
Viditelná (ISO)
100
AcDbSpline
210
0.0
220
0.0
230
1.0
 70
     8
 71
     3
 72
    17
 73
    13
 74
     0
 42
0.0000000001
 43
0.0000000001
 40
-0.0449142239652473
 40
-0.0449142239652473
 40
-0.0449142239652473
 40
-0.0449142239652473
 40
0.0
 40
0.0
 40
0.0
 40
0.2213621129236466
 40
0.2213621129236466
 40
0.4427242258472932
 40
0.4427242258472932
 40
0.6573178110007873
 40
0.6573178110007873
 40
0.6953816211733772
 40
0.6953816211733772
 40
0.6953816211733772
 40
0.6953816211733772
 10
265.9785878602066
 20
155.1519816571963
 30
0.0
 10
265.839763401096
 20
155.0981151772506
 30
0.0
 10
265.7002454425491
 20
155.049937848792
 30
0.0
 10
265.5608941318931
 20
155.0073730529243
 30
0.0
 10
264.8740938748215
 20
154.7975902198347
 30
0.0
 10
264.0982253628459
 20
154.7036116350094
 30
0.0
 10
262.5663071823398
 20
154.8254952980527
 30
0.0
 10
261.8102388024798
 20
155.0414619994869
 30
0.0
 10
260.5247080878797
 20
155.6744991952559
 30
0.0
 10
259.9020816855517
 20
156.1285516389668
 30
0.0
 10
259.2982076298061
 20
156.7860306513397
 30
0.0
 10
259.2105024778584
 20
156.8882169954987
 30
0.0
 10
259.1264253813254
 20
156.9931125927923
 30
0.0
  0
SPLINE
  5
402
330
6C
100
AcDbEntity
  8
Viditelná (ISO)
100
AcDbSpline
210
0.0
220
0.0
230
1.0
 70
    28
 71
     2
 72
     6
 73
     3
 74
     0
 42
0.0000000001
 43
0.0000000001
 40
0.0
 40
0.0
 40
0.0
 40
0.9930568185648994
 40
0.9930568185648994
 40
0.9930568185648994
 10
269.153869739636
 20
88.84937123938366
 30
0.0
 41
1.0
 10
264.3025308003092
 20
90.9883402773018
 30
0.0
 41
1.002768203947979
 10
259.9801958920564
 20
92.89406994407878
 30
0.0
 41
1.002184193662304
  0
SPLINE
  5
403
330
6C
100
AcDbEntity
  8
Viditelná (ISO)
100
AcDbSpline
210
0.0
220
0.0
230
1.0
 70
    24
 71
     3
 72
    14
 73
    10
 74
     0
 42
0.0000000001
 43
0.0000000001
 40
0.0
 40
0.0
 40
0.0
 40
0.0
 40
0.0185094234429819
 40
0.0185094234429819
 40
0.0370389815922797
 40
0.0370389815922797
 40
0.0555729829704506
 40
0.0555729829704506
 40
0.0632195108339372
 40
0.0632195108339372
 40
0.0632195108339372
 40
0.0632195108339372
 10
269.5069888828113
 20
88.69368001199363
 30
0.0
 10
269.5069888828113
 20
88.69368001199365
 30
0.0
 10
269.4937454844728
 20
88.69951906371877
 30
0.0
 10
269.4504459991985
 20
88.71860992904856
 30
0.0
 10
269.4127083552717
 20
88.73524856282225
 30
0.0
 10
269.3326881772374
 20
88.77052968528449
 30
0.0
 10
269.2762454718186
 20
88.79541543349072
 30
0.0
 10
269.202452437885
 20
88.82795099053423
 30
0.0
 10
269.1785582985791
 20
88.83848598402828
 30
0.0
 10
269.1538697396359
 20
88.84937123938367
 30
0.0
  0
SPLINE
  5
404
330
6C
100
AcDbEntity
  8
Viditelná (ISO)
100
AcDbSpline
210
0.0
220
0.0
230
1.0
 70
    28
 71
     2
 72
     6
 73
     3
 74
     0
 42
0.0000000001
 43
0.0000000001
 40
0.6470434937772939
 40
0.6470434937772939
 40
0.6470434937772939
 40
1.640100312277748
 40
1.640100312277748
 40
1.640100312277748
 10
264.8213631071582
 20
103.8741928940017
 30
0.0
 41
1.002184193678046
 10
269.1436980149283
 20
101.9684632274375
 30
0.0
 41
1.002768203967654
 10
273.9950369547377
 20
99.82949418930658
 30
0.0
 41
1.0
  0
SPLINE
  5
405
330
6C
100
AcDbEntity
  8
Viditelná (ISO)
100
AcDbSpline
210
0.0
220
0.0
230
1.0
 70
    24
 71
     3
 72
    14
 73
    10
 74
     0
 42
0.0000000001
 43
0.0000000001
 40
-0.0632195108339375
 40
-0.0632195108339375
 40
-0.0632195108339375
 40
-0.0632195108339375
 40
-0.0555729829704518
 40
-0.0555729829704518
 40
-0.0370389815922794
 40
-0.0370389815922794
 40
-0.018509423442982
 40
-0.018509423442982
 40
0.0
 40
0.0
 40
0.0
 40
0.0
 10
273.9950369547377
 20
99.82949418930662
 30
0.0
 10
274.0197255136808
 20
99.81860893395122
 30
0.0
 10
274.0436196529869
 20
99.80807394045719
 30
0.0
 10
274.1174126869204
 20
99.77553838341364
 30
0.0
 10
274.1738553923392
 20
99.7506526352074
 30
0.0
 10
274.2538755703734
 20
99.71537151274517
 30
0.0
 10
274.2916132143002
 20
99.69873287897149
 30
0.0
 10
274.3349126995746
 20
99.67964201364171
 30
0.0
 10
274.3481560979131
 20
99.67380296191658
 30
0.0
 10
274.3481560979131
 20
99.67380296191656
 30
0.0
  0
SPLINE
  5
406
330
6C
100
AcDbEntity
  8
Viditelná (ISO)
100
AcDbSpline
210
0.0
220
0.0
230
1.0
 70
     8
 71
     3
 72
    16
 73
    12
 74
     0
 42
0.0000000001
 43
0.0000000001
 40
1.048441171135186
 40
1.048441171135186
 40
1.048441171135186
 40
1.048441171135186
 40
1.086504981307775
 40
1.086504981307775
 40
1.301098566461269
 40
1.301098566461269
 40
1.522460679384916
 40
1.522460679384916
 40
1.743822792308562
 40
1.743822792308562
 40
1.788737016213636
 40
1.788737016213636
 40
1.788737016213636
 40
1.788737016213636
 10
257.8931186442144
 20
102.3440548542547
 30
0.0
 10
257.9818422497204
 20
102.4450507270366
 30
0.0
 10
258.0740679956652
 20
102.5431764341459
 30
0.0
 10
258.7069878028267
 20
103.1727437813106
 30
0.0
 10
259.3494637755934
 20
103.5982457001468
 30
0.0
 10
260.6622436220567
 20
104.1726448506743
 30
0.0
 10
261.4272850637432
 20
104.354283513009
 30
0.0
 10
262.9631420970543
 20
104.4069343659048
 30
0.0
 10
263.7339810931244
 20
104.2780500595728
 30
0.0
 10
264.5479075221424
 20
103.9886895465305
 30
0.0
 10
264.6851100373383
 20
103.9342672572467
 30
0.0
 10
264.8213631071582
 20
103.8741928940017
 30
0.0
  0
SPLINE
  5
407
330
6C
100
AcDbEntity
  8
Viditelná (ISO)
100
AcDbSpline
210
0.0
220
0.0
230
1.0
 70
     8
 71
     3
 72
    22
 73
    18
 74
     0
 42
0.0000000001
 43
0.0000000001
 40
-0.3758378556204014
 40
-0.3758378556204014
 40
-0.3758378556204014
 40
-0.3758378556204014
 40
-0.350085111669696
 40
-0.350085111669696
 40
-0.2787811903577883
 40
-0.2787811903577883
 40
-0.2429056216474441
 40
-0.2429056216474441
 40
-0.2212957302590156
 40
-0.2212957302590156
 40
-0.2020859491250041
 40
-0.2020859491250041
 40
-0.1781005695308152
 40
-0.1781005695308152
 40
-0.131615856366946
 40
-0.131615856366946
 40
-0.0503847250464196
 40
-0.0503847250464196
 40
-0.0503847250464196
 40
-0.0503847250464196
 10
256.4368615070595
 20
99.04115666830008
 30
0.0
 10
256.4474980219523
 20
99.13770592971472
 30
0.0
 10
256.4604997796803
 20
99.23416608114616
 30
0.0
 10
256.5183735422053
 20
99.59656352044735
 30
0.0
 10
256.5790013234274
 20
99.86067160468701
 30
0.0
 10
256.6967021905654
 20
100.2501567581675
 30
0.0
 10
256.7405461055839
 20
100.3792044152177
 30
0.0
 10
256.8177650450776
 20
100.5833774692237
 30
0.0
 10
256.8483680240596
 20
100.6595348467479
 30
0.0
 10
256.9091025126355
 20
100.8021481833473
 30
0.0
 10
256.9389080431139
 20
100.8687403134383
 30
0.0
 10
257.0086370137881
 20
101.017208545199
 30
0.0
 10
257.0492323210129
 20
101.0987654125033
 30
0.0
 10
257.1738930562966
 20
101.335540226772
 30
0.0
 10
257.2629989956979
 20
101.488052215999
 30
0.0
 10
257.5256770213865
 20
101.8953113744058
 30
0.0
 10
257.7058860481341
 20
102.130924207157
 30
0.0
 10
257.8931186442144
 20
102.3440548542547
 30
0.0
  0
SPLINE
  5
408
330
6C
100
AcDbEntity
  8
Viditelná (ISO)
100
AcDbSpline
210
0.0
220
0.0
230
1.0
 70
     8
 71
     3
 72
    17
 73
    13
 74
     0
 42
0.0000000001
 43
0.0000000001
 40
-0.0449142239652444
 40
-0.0449142239652444
 40
-0.0449142239652444
 40
-0.0449142239652444
 40
0.0
 40
0.0
 40
0.0
 40
0.2213621129236468
 40
0.2213621129236468
 40
0.4427242258472936
 40
0.4427242258472936
 40
0.6573178110007878
 40
0.6573178110007878
 40
0.6953816211733792
 40
0.6953816211733792
 40
0.6953816211733792
 40
0.6953816211733792
 10
259.9801958920564
 20
92.89406994407878
 30
0.0
 10
259.8439428223764
 20
92.95414430726216
 30
0.0
 10
259.7112222121382
 20
93.01873188619548
 30
0.0
 10
259.5825880996082
 20
93.08717028712971
 30
0.0
 10
258.948608116658
 20
93.42447254237161
 30
0.0
 10
258.3335333359146
 20
93.90664153388229
 30
0.0
 10
257.3364883669094
 20
95.076056032195
 30
0.0
 10
256.9545788075643
 20
95.76338862972935
 30
0.0
 10
256.4931962157185
 20
97.12002100931821
 30
0.0
 10
256.3739964264489
 20
97.88134792251245
 30
0.0
 10
256.4119008547852
 20
98.77325923044949
 30
0.0
 10
256.4221406039975
 20
98.90753279503623
 30
0.0
 10
256.4368615070595
 20
99.04115666830008
 30
0.0
  0
SPLINE
  5
409
330
6C
100
AcDbEntity
  8
Viditelná (ISO)
100
AcDbSpline
210
0.0
220
0.0
230
1.0
 70
    28
 71
     2
 72
     6
 73
     3
 74
     0
 42
0.0000000001
 43
0.0000000001
 40
0.0
 40
0.0
 40
0.0
 40
0.9930568192873703
 40
0.9930568192873703
 40
0.9930568192873703
 10
215.3424338043751
 20
43.76578115815017
 30
0.0
 41
1.0
 10
213.4244986560844
 20
48.70867532607704
 30
0.0
 41
1.002768203760905
 10
211.7157007003038
 20
53.11258202611391
 30
0.0
 41
1.002184193512258
  0
SPLINE
  5
40A
330
6C
100
AcDbEntity
  8
Viditelná (ISO)
100
AcDbSpline
210
0.0
220
0.0
230
1.0
 70
    24
 71
     3
 72
    14
 73
    10
 74
     0
 42
0.0000000001
 43
0.0000000001
 40
0.0
 40
0.0
 40
0.0
 40
0.0
 40
0.0185094234429813
 40
0.0185094234429813
 40
0.03703898159228
 40
0.03703898159228
 40
0.0555729829704506
 40
0.0555729829704506
 40
0.0632195108339372
 40
0.0632195108339372
 40
0.0632195108339372
 40
0.0632195108339372
 10
215.4820364224225
 20
43.40599789478532
 30
0.0
 10
215.4820364224225
 20
43.40599789478533
 30
0.0
 10
215.4768007587219
 20
43.41949122462694
 30
0.0
 10
215.459682679396
 20
43.46360786461974
 30
0.0
 10
215.4447634262404
 20
43.50205769931746
 30
0.0
 10
215.4131281366614
 20
43.58358803077821
 30
0.0
 10
215.3908139982228
 20
43.64109593183989
 30
0.0
 10
215.3616405565392
 20
43.71628159955377
 30
0.0
 10
215.3521942139448
 20
43.74062667282703
 30
0.0
 10
215.3424338043751
 20
43.76578115815017
 30
0.0
  0
SPLINE
  5
40B
330
6C
100
AcDbEntity
  8
Viditelná (ISO)
100
AcDbSpline
210
0.0
220
0.0
230
1.0
 70
    28
 71
     2
 72
     6
 73
     3
 74
     0
 42
0.0000000001
 43
0.0000000001
 40
0.6470434927920515
 40
0.6470434927920515
 40
0.6470434927920515
 40
1.640100312277744
 40
1.640100312277744
 40
1.640100312277744
 10
222.9030422631128
 20
57.45347925560998
 30
0.0
 41
1.002184193449095
 10
224.6118402195124
 20
53.04957255397794
 30
0.0
 41
1.002768203681701
 10
226.5297753671841
 20
48.10667838764624
 30
0.0
 41
1.0
  0
SPLINE
  5
40C
330
6C
100
AcDbEntity
  8
Viditelná (ISO)
100
AcDbSpline
210
0.0
220
0.0
230
1.0
 70
    24
 71
     3
 72
    14
 73
    10
 74
     0
 42
0.0000000001
 43
0.0000000001
 40
-0.0632195108339386
 40
-0.0632195108339386
 40
-0.0632195108339386
 40
-0.0632195108339386
 40
-0.0555729829704505
 40
-0.0555729829704505
 40
-0.0370389815922798
 40
-0.0370389815922798
 40
-0.0185094234429819
 40
-0.0185094234429819
 40
0.0
 40
0.0
 40
0.0
 40
0.0
 10
226.5297753671841
 20
48.10667838764627
 30
0.0
 10
226.5395357767537
 20
48.08152390232312
 30
0.0
 10
226.5489821193482
 20
48.05717882904985
 30
0.0
 10
226.5781555610318
 20
47.98199316133596
 30
0.0
 10
226.6004696994704
 20
47.92448526027428
 30
0.0
 10
226.6321049890493
 20
47.84295492881354
 30
0.0
 10
226.6470242422049
 20
47.80450509411582
 30
0.0
 10
226.6641423215309
 20
47.76038845412301
 30
0.0
 10
226.6693779852315
 20
47.74689512428142
 30
0.0
 10
226.6693779852315
 20
47.74689512428141
 30
0.0
  0
SPLINE
  5
40D
330
6C
100
AcDbEntity
  8
Viditelná (ISO)
100
AcDbSpline
210
0.0
220
0.0
230
1.0
 70
     8
 71
     3
 72
    16
 73
    12
 74
     0
 42
0.0000000001
 43
0.0000000001
 40
1.048441171135185
 40
1.048441171135185
 40
1.048441171135185
 40
1.048441171135185
 40
1.086504981307774
 40
1.086504981307774
 40
1.301098566461268
 40
1.301098566461268
 40
1.522460679384915
 40
1.522460679384915
 40
1.743822792308562
 40
1.743822792308562
 40
1.788737016213636
 40
1.788737016213636
 40
1.788737016213636
 40
1.788737016213636
 10
216.9220626375901
 20
61.27051691301932
 30
0.0
 10
217.0562145672108
 20
61.2791947164306
 30
0.0
 10
217.190813370474
 20
61.28336661897877
 30
0.0
 10
218.083526598459
 20
61.28099607178135
 30
0.0
 10
218.8387010077687
 20
61.12757224690552
 30
0.0
 10
220.1731380738538
 20
60.60545824971208
 30
0.0
 10
220.8425419950216
 20
60.19293018826932
 30
0.0
 10
221.9657866933269
 20
59.14414504019976
 30
0.0
 10
222.4197172076553
 20
58.5079445918797
 30
0.0
 10
222.790641324021
 20
57.72780291355425
 30
0.0
 10
222.8491757831116
 20
57.59230371486321
 30
0.0
 10
222.9030422631128
 20
57.45347925560998
 30
0.0
  0
SPLINE
  5
40E
330
6C
100
AcDbEntity
  8
Viditelná (ISO)
100
AcDbSpline
210
0.0
220
0.0
230
1.0
 70
     8
 71
     3
 72
    24
 73
    20
 74
     0
 42
0.0000000001
 43
0.0000000001
 40
-0.4188666172552637
 40
-0.4188666172552637
 40
-0.4188666172552637
 40
-0.4188666172552637
 40
-0.3293785765217446
 40
-0.3293785765217446
 40
-0.2783437283737742
 40
-0.2783437283737742
 40
-0.2534120682244852
 40
-0.2534120682244852
 40
-0.239167923318211
 40
-0.239167923318211
 40
-0.2269103270270815
 40
-0.2269103270270815
 40
-0.2120584193816232
 40
-0.2120584193816232
 40
-0.1843653870246873
 40
-0.1843653870246873
 40
-0.0680044100022365
 40
-0.0680044100022365
 40
-0.0515883383068586
 40
-0.0515883383068586
 40
-0.0515883383068586
 40
-0.0515883383068586
 10
213.5568316358994
 20
59.96474450499553
 30
0.0
 10
213.7734355507085
 20
60.13835930604229
 30
0.0
 10
214.0112298982423
 20
60.30427626977233
 30
0.0
 10
214.4188979706789
 20
60.54370022059639
 30
0.0
 10
214.5707535979534
 20
60.62433139260669
 30
0.0
 10
214.8015853447207
 20
60.73445744010786
 30
0.0
 10
214.87810276314
 20
60.76901082328754
 30
0.0
 10
214.9994262427795
 20
60.82076058747285
 30
0.0
 10
215.043764508205
 20
60.83904765284161
 30
0.0
 10
215.1266539738574
 20
60.87207774014448
 30
0.0
 10
215.1651495769611
 20
60.88695922885764
 30
0.0
 10
215.250619020127
 20
60.91899007594665
 30
0.0
 10
215.297662403512
 20
60.93595262864164
 30
0.0
 10
215.4330096609408
 20
60.98285166418225
 30
0.0
 10
215.521817284298
 20
61.01132376974209
 30
0.0
 10
215.9869630519314
 20
61.14858248772382
 30
0.0
 10
216.3720141558474
 20
61.22204921874564
 30
0.0
 10
216.8129355791651
 20
61.26270859480579
 30
0.0
 10
216.8674964165237
 20
61.26698722141779
 30
0.0
 10
216.9220626375901
 20
61.27051691301932
 30
0.0
  0
SPLINE
  5
40F
330
6C
100
AcDbEntity
  8
Viditelná (ISO)
100
AcDbSpline
210
0.0
220
0.0
230
1.0
 70
     8
 71
     3
 72
    17
 73
    13
 74
     0
 42
0.0000000001
 43
0.0000000001
 40
-0.0449142239652471
 40
-0.0449142239652471
 40
-0.0449142239652471
 40
-0.0449142239652471
 40
0.0
 40
0.0
 40
0.0
 40
0.221362112923646
 40
0.221362112923646
 40
0.4427242258472921
 40
0.4427242258472921
 40
0.6573178110007864
 40
0.6573178110007864
 40
0.6953816211733776
 40
0.6953816211733776
 40
0.6953816211733776
 40
0.6953816211733776
 10
211.7157007003038
 20
53.11258202611391
 30
0.0
 10
211.661834220358
 20
53.25140648522456
 30
0.0
 10
211.6136568918995
 20
53.3909244437714
 30
0.0
 10
211.5710920960317
 20
53.53027575442748
 30
0.0
 10
211.3613092629421
 20
54.21707601149917
 30
0.0
 10
211.2673306781167
 20
54.99294452347477
 30
0.0
 10
211.3892143411599
 20
56.52486270398101
 30
0.0
 10
211.6051810425941
 20
57.28093108384104
 30
0.0
 10
212.238218238363
 20
58.56646179844116
 30
0.0
 10
212.6922706820738
 20
59.18908820076927
 30
0.0
 10
213.3497496944467
 20
59.79296225651483
 30
0.0
 10
213.4519360386057
 20
59.88066740846258
 30
0.0
 10
213.5568316358994
 20
59.96474450499553
 30
0.0
  0
SPLINE
  5
410
330
6C
100
AcDbEntity
  8
Viditelná (ISO)
100
AcDbSpline
210
0.0
220
0.0
230
1.0
 70
    28
 71
     2
 72
     6
 73
     3
 74
     0
 42
0.0000000001
 43
0.0000000001
 40
0.0
 40
0.0
 40
0.0
 40
0.9930568184995813
 40
0.9930568184995813
 40
0.9930568184995813
 10
145.4130902824919
 20
49.9373001466839
 30
0.0
 41
1.0
 10
147.5520593206271
 20
54.78863908650438
 30
0.0
 41
1.002768203968888
 10
149.4577889871863
 20
59.11097399426414
 30
0.0
 41
1.002184193679023
  0
SPLINE
  5
411
330
6C
100
AcDbEntity
  8
Viditelná (ISO)
100
AcDbSpline
210
0.0
220
0.0
230
1.0
 70
    24
 71
     3
 72
    14
 73
    10
 74
     0
 42
0.0000000001
 43
0.0000000001
 40
0.0
 40
0.0
 40
0.0
 40
0.0
 40
0.0185094234429819
 40
0.0185094234429819
 40
0.0370389815922797
 40
0.0370389815922797
 40
0.0555729829704506
 40
0.0555729829704506
 40
0.0632195108339375
 40
0.0632195108339375
 40
0.0632195108339375
 40
0.0632195108339375
 10
145.257399055102
 20
49.58418100350844
 30
0.0
 10
145.257399055102
 20
49.58418100350845
 30
0.0
 10
145.2632381068271
 20
49.5974244018469
 30
0.0
 10
145.2823289721568
 20
49.64072388712129
 30
0.0
 10
145.2989676059305
 20
49.67846153104812
 30
0.0
 10
145.3342487283928
 20
49.75848170908245
 30
0.0
 10
145.3591344765989
 20
49.81492441450128
 30
0.0
 10
145.3916700336424
 20
49.88871744843481
 30
0.0
 10
145.4022050271365
 20
49.91261158774083
 30
0.0
 10
145.4130902824919
 20
49.93730014668394
 30
0.0
  0
SPLINE
  5
412
330
6C
100
AcDbEntity
  8
Viditelná (ISO)
100
AcDbSpline
210
0.0
220
0.0
230
1.0
 70
    28
 71
     2
 72
     6
 73
     3
 74
     0
 42
0.0000000001
 43
0.0000000001
 40
0.647043493877383
 40
0.647043493877383
 40
0.647043493877383
 40
1.640100312277745
 40
1.640100312277745
 40
1.640100312277745
 10
160.4379119371092
 20
54.26980677916235
 30
0.0
 41
1.002184193704208
 10
158.5321822708799
 20
49.94747187215081
 30
0.0
 41
1.002768204000384
 10
156.3932132324148
 20
45.0961329315821
 30
0.0
 41
1.0
  0
SPLINE
  5
413
330
6C
100
AcDbEntity
  8
Viditelná (ISO)
100
AcDbSpline
210
0.0
220
0.0
230
1.0
 70
    24
 71
     3
 72
    14
 73
    10
 74
     0
 42
0.0000000001
 43
0.0000000001
 40
-0.0632193148591164
 40
-0.0632193148591164
 40
-0.0632193148591164
 40
-0.0632193148591164
 40
-0.0555629513814802
 40
-0.0555629513814802
 40
-0.037018947476912
 40
-0.037018947476912
 40
-0.0184994205372586
 40
-0.0184994205372586
 40
0.0
 40
0.0
 40
0.0
 40
0.0
 10
156.3932132324148
 20
45.09613293158214
 30
0.0
 10
156.3823138763621
 20
45.07141239122141
 30
0.0
 10
156.3717651602485
 20
45.04748712800611
 30
0.0
 10
156.3392077734397
 20
44.97364458256078
 30
0.0
 10
156.3143138161104
 20
44.91718325824784
 30
0.0
 10
156.279047502371
 20
44.83719666748477
 30
0.0
 10
156.2624257030049
 20
44.79949720523132
 30
0.0
 10
156.2433548225818
 20
44.75624304719352
 30
0.0
 10
156.2375220050249
 20
44.74301378840666
 30
0.0
 10
156.2375220050249
 20
44.74301378840664
 30
0.0
  0
SPLINE
  5
414
330
6C
100
AcDbEntity
  8
Viditelná (ISO)
100
AcDbSpline
210
0.0
220
0.0
230
1.0
 70
     8
 71
     3
 72
    16
 73
    12
 74
     0
 42
0.0000000001
 43
0.0000000001
 40
1.048441171135187
 40
1.048441171135187
 40
1.048441171135187
 40
1.048441171135187
 40
1.086504981307776
 40
1.086504981307776
 40
1.301098566461269
 40
1.301098566461269
 40
1.522460679384915
 40
1.522460679384915
 40
1.743822792308562
 40
1.743822792308562
 40
1.788737016213636
 40
1.788737016213636
 40
1.788737016213636
 40
1.788737016213636
 10
158.9077738973618
 20
61.19805124210667
 30
0.0
 10
159.0087697701437
 20
61.10932763660056
 30
0.0
 10
159.106895477253
 20
61.01710189065581
 30
0.0
 10
159.7364628244178
 20
60.38418208349424
 30
0.0
 10
160.1619647432539
 20
59.74170611072755
 30
0.0
 10
160.7363638937816
 20
58.42892626426415
 30
0.0
 10
160.9180025561162
 20
57.66388482257763
 30
0.0
 10
160.9706534090121
 20
56.12802778926634
 30
0.0
 10
160.8417691026802
 20
55.35718879319625
 30
0.0
 10
160.5524085896379
 20
54.54326236417817
 30
0.0
 10
160.4979863003543
 20
54.40605984898229
 30
0.0
 10
160.4379119371092
 20
54.26980677916235
 30
0.0
  0
SPLINE
  5
415
330
6C
100
AcDbEntity
  8
Viditelná (ISO)
100
AcDbSpline
210
0.0
220
0.0
230
1.0
 70
     8
 71
     3
 72
    22
 73
    18
 74
     0
 42
0.0000000001
 43
0.0000000001
 40
-0.3758378556193031
 40
-0.3758378556193031
 40
-0.3758378556193031
 40
-0.3758378556193031
 40
-0.3500851116688011
 40
-0.3500851116688011
 40
-0.2787811903573746
 40
-0.2787811903573746
 40
-0.2429056216472766
 40
-0.2429056216472766
 40
-0.2212957302590799
 40
-0.2212957302590799
 40
-0.2020859491252269
 40
-0.2020859491252269
 40
-0.1781005695310251
 40
-0.1781005695310251
 40
-0.1316158563670515
 40
-0.1316158563670515
 40
-0.0503847250464355
 40
-0.0503847250464355
 40
-0.0503847250464355
 40
-0.0503847250464355
 10
155.6048757114071
 20
62.6543083792615
 30
0.0
 10
155.7014249728216
 20
62.64367186436877
 30
0.0
 10
155.797885124253
 20
62.63067010664079
 30
0.0
 10
156.1602825635544
 20
62.57279634411578
 30
0.0
 10
156.4243906477942
 20
62.51216856289357
 30
0.0
 10
156.8138758012743
 20
62.39446769575568
 30
0.0
 10
156.9429234583244
 20
62.35062378073725
 30
0.0
 10
157.1470965123306
 20
62.27340484124346
 30
0.0
 10
157.2232538898547
 20
62.24280186226154
 30
0.0
 10
157.3658672264547
 20
62.18206737368532
 30
0.0
 10
157.4324593565455
 20
62.15226184320709
 30
0.0
 10
157.5809275883066
 20
62.08253287253262
 30
0.0
 10
157.6624844556106
 20
62.04193756530794
 30
0.0
 10
157.8992592698789
 20
61.91727683002458
 30
0.0
 10
158.051771259106
 20
61.82817089062318
 30
0.0
 10
158.4590304175128
 20
61.56549286493458
 30
0.0
 10
158.694643250264
 20
61.385283838187
 30
0.0
 10
158.9077738973618
 20
61.19805124210667
 30
0.0
  0
SPLINE
  5
416
330
6C
100
AcDbEntity
  8
Viditelná (ISO)
100
AcDbSpline
210
0.0
220
0.0
230
1.0
 70
     8
 71
     3
 72
    17
 73
    13
 74
     0
 42
0.0000000001
 43
0.0000000001
 40
-0.0449142239652441
 40
-0.0449142239652441
 40
-0.0449142239652441
 40
-0.0449142239652441
 40
0.0
 40
0.0
 40
0.0
 40
0.2213621129236468
 40
0.2213621129236468
 40
0.4427242258472936
 40
0.4427242258472936
 40
0.6573178110007881
 40
0.6573178110007881
 40
0.6953816211733771
 40
0.6953816211733771
 40
0.6953816211733771
 40
0.6953816211733771
 10
149.4577889871863
 20
59.11097399426414
 30
0.0
 10
149.5178633503696
 20
59.24722706394416
 30
0.0
 10
149.5824509293029
 20
59.37994767418241
 30
0.0
 10
149.6508893302372
 20
59.50858178671244
 30
0.0
 10
149.988191585479
 20
60.14256176966269
 30
0.0
 10
150.4703605769896
 20
60.75763655040617
 30
0.0
 10
151.6397750753022
 20
61.75468151941138
 30
0.0
 10
152.3271076728365
 20
62.13659107875655
 30
0.0
 10
153.6837400524253
 20
62.59797367060239
 30
0.0
 10
154.4450669656195
 20
62.71717345987214
 30
0.0
 10
155.3369782735566
 20
62.67926903153572
 30
0.0
 10
155.4712518381433
 20
62.66902928232352
 30
0.0
 10
155.6048757114071
 20
62.6543083792615
 30
0.0
  0
SPLINE
  5
417
330
6C
100
AcDbEntity
  8
Viditelná (ISO)
100
AcDbSpline
210
0.0
220
0.0
230
1.0
 70
    28
 71
     2
 72
     6
 73
     3
 74
     0
 42
0.0000000001
 43
0.0000000001
 40
0.0
 40
0.0
 40
0.0
 40
0.9930568192857297
 40
0.9930568192857297
 40
0.9930568192857297
 10
100.3295002012584
 20
103.7487360819449
 30
0.0
 41
1.0
 10
105.2723943691384
 20
105.6666712302179
 30
0.0
 41
1.002768203747979
 10
109.6763010692214
 20
107.3754691860169
 30
0.0
 41
1.002184193502065
  0
SPLINE
  5
418
330
6C
100
AcDbEntity
  8
Viditelná (ISO)
100
AcDbSpline
210
0.0
220
0.0
230
1.0
 70
    24
 71
     3
 72
    14
 73
    10
 74
     0
 42
0.0000000001
 43
0.0000000001
 40
0.0
 40
0.0
 40
0.0
 40
0.0
 40
0.0185094234429819
 40
0.0185094234429819
 40
0.0370389815922798
 40
0.0370389815922798
 40
0.0555729829704504
 40
0.0555729829704504
 40
0.063219510833937
 40
0.063219510833937
 40
0.063219510833937
 40
0.063219510833937
 10
99.96971693789369
 20
103.6091334638973
 30
0.0
 10
99.96971693789369
 20
103.6091334638973
 30
0.0
 10
99.98321026773528
 20
103.6143691275979
 30
0.0
 10
100.027326907728
 20
103.6314872069239
 30
0.0
 10
100.0657767424257
 20
103.6464064600795
 30
0.0
 10
100.1473070738864
 20
103.6780417496585
 30
0.0
 10
100.2048149749481
 20
103.7003558880971
 30
0.0
 10
100.280000642662
 20
103.7295293297807
 30
0.0
 10
100.3043457159353
 20
103.7389756723752
 30
0.0
 10
100.3295002012584
 20
103.7487360819449
 30
0.0
  0
SPLINE
  5
419
330
6C
100
AcDbEntity
  8
Viditelná (ISO)
100
AcDbSpline
210
0.0
220
0.0
230
1.0
 70
    28
 71
     2
 72
     6
 73
     3
 74
     0
 42
0.0000000001
 43
0.0000000001
 40
0.6470434929914273
 40
0.6470434929914273
 40
0.6470434929914273
 40
1.640100312277743
 40
1.640100312277743
 40
1.640100312277743
 10
114.0171982987175
 20
96.18812762320789
 30
0.0
 41
1.002184193504441
 10
109.6132915986441
 20
94.47932966741261
 30
0.0
 41
1.002768203750993
 10
104.6703974307545
 20
92.56139451913588
 30
0.0
 41
1.0
  0
SPLINE
  5
41A
330
6C
100
AcDbEntity
  8
Viditelná (ISO)
100
AcDbSpline
210
0.0
220
0.0
230
1.0
 70
    24
 71
     3
 72
    14
 73
    10
 74
     0
 42
0.0000000001
 43
0.0000000001
 40
-0.0632195108339386
 40
-0.0632195108339386
 40
-0.0632195108339386
 40
-0.0632195108339386
 40
-0.0555729829704505
 40
-0.0555729829704505
 40
-0.0370389815922798
 40
-0.0370389815922798
 40
-0.0185094234429819
 40
-0.0185094234429819
 40
0.0
 40
0.0
 40
0.0
 40
0.0
 10
104.6703974307545
 20
92.56139451913588
 30
0.0
 10
104.6452429454313
 20
92.55163410956624
 30
0.0
 10
104.620897872158
 20
92.54218776697173
 30
0.0
 10
104.5457122044442
 20
92.51301432528814
 30
0.0
 10
104.4882043033825
 20
92.49070018684951
 30
0.0
 10
104.4066739719218
 20
92.45906489727056
 30
0.0
 10
104.3682241372241
 20
92.44414564411494
 30
0.0
 10
104.3241074972313
 20
92.42702756478889
 30
0.0
 10
104.3106141673898
 20
92.42179190108833
 30
0.0
 10
104.3106141673898
 20
92.42179190108831
 30
0.0
  0
SPLINE
  5
41B
330
6C
100
AcDbEntity
  8
Viditelná (ISO)
100
AcDbSpline
210
0.0
220
0.0
230
1.0
 70
     8
 71
     3
 72
    16
 73
    12
 74
     0
 42
0.0000000001
 43
0.0000000001
 40
1.048441171135185
 40
1.048441171135185
 40
1.048441171135185
 40
1.048441171135185
 40
1.086504981307775
 40
1.086504981307775
 40
1.301098566461269
 40
1.301098566461269
 40
1.522460679384915
 40
1.522460679384915
 40
1.743822792308562
 40
1.743822792308562
 40
1.788737016213636
 40
1.788737016213636
 40
1.788737016213636
 40
1.788737016213636
 10
117.8342359561264
 20
102.169107248731
 30
0.0
 10
117.8429137595376
 20
102.0349553191103
 30
0.0
 10
117.8470856620858
 20
101.9003565158471
 30
0.0
 10
117.8447151148884
 20
101.007643287862
 30
0.0
 10
117.6912912900126
 20
100.2524688785523
 30
0.0
 10
117.1691772928193
 20
98.91803181246716
 30
0.0
 10
116.7566492313765
 20
98.24862789129936
 30
0.0
 10
115.7078640833071
 20
97.12538319299392
 30
0.0
 10
115.0716636349871
 20
96.67145267866553
 30
0.0
 10
114.2915219566617
 20
96.30052856229971
 30
0.0
 10
114.1560227579707
 20
96.24199410320901
 30
0.0
 10
114.0171982987175
 20
96.18812762320789
 30
0.0
  0
SPLINE
  5
41C
330
6C
100
AcDbEntity
  8
Viditelná (ISO)
100
AcDbSpline
210
0.0
220
0.0
230
1.0
 70
     8
 71
     3
 72
    24
 73
    20
 74
     0
 42
0.0000000001
 43
0.0000000001
 40
-0.4188666172580346
 40
-0.4188666172580346
 40
-0.4188666172580346
 40
-0.4188666172580346
 40
-0.3293785765231435
 40
-0.3293785765231435
 40
-0.2783437283744359
 40
-0.2783437283744359
 40
-0.2534120682247762
 40
-0.2534120682247762
 40
-0.2391679233182998
 40
-0.2391679233182998
 40
-0.2269103270270532
 40
-0.2269103270270532
 40
-0.2120584193815033
 40
-0.2120584193815033
 40
-0.1843653870245355
 40
-0.1843653870245355
 40
-0.0680044100022132
 40
-0.0680044100022132
 40
-0.0515883383068502
 40
-0.0515883383068502
 40
-0.0515883383068502
 40
-0.0515883383068502
 10
116.5284635481026
 20
105.5343382504217
 30
0.0
 10
116.7020783491494
 20
105.3177343356126
 30
0.0
 10
116.8679953128795
 20
105.0799399880786
 30
0.0
 10
117.1074192637036
 20
104.672271915642
 30
0.0
 10
117.1880504357138
 20
104.5204162883675
 30
0.0
 10
117.2981764832149
 20
104.2895845416003
 30
0.0
 10
117.3327298663946
 20
104.213067123181
 30
0.0
 10
117.3844796305798
 20
104.0917436435415
 30
0.0
 10
117.4027666959486
 20
104.0474053781162
 30
0.0
 10
117.4357967832515
 20
103.9645159124638
 30
0.0
 10
117.4506782719647
 20
103.9260203093599
 30
0.0
 10
117.4827091190536
 20
103.8405508661941
 30
0.0
 10
117.4996716717487
 20
103.7935074828091
 30
0.0
 10
117.5465707072892
 20
103.6581602253806
 30
0.0
 10
117.5750428128491
 20
103.5693526020232
 30
0.0
 10
117.7123015308309
 20
103.1042068343896
 30
0.0
 10
117.7857682618527
 20
102.7191557304736
 30
0.0
 10
117.8264276379129
 20
102.2782343071559
 30
0.0
 10
117.8307062645248
 20
102.2236734697973
 30
0.0
 10
117.8342359561264
 20
102.169107248731
 30
0.0
  0
SPLINE
  5
41D
330
6C
100
AcDbEntity
  8
Viditelná (ISO)
100
AcDbSpline
210
0.0
220
0.0
230
1.0
 70
     8
 71
     3
 72
    17
 73
    13
 74
     0
 42
0.0000000001
 43
0.0000000001
 40
-0.0449142239652474
 40
-0.0449142239652474
 40
-0.0449142239652474
 40
-0.0449142239652474
 40
0.0
 40
0.0
 40
0.0
 40
0.2213621129236467
 40
0.2213621129236467
 40
0.4427242258472934
 40
0.4427242258472934
 40
0.6573178110007872
 40
0.6573178110007872
 40
0.6953816211733766
 40
0.6953816211733766
 40
0.6953816211733766
 40
0.6953816211733766
 10
109.6763010692214
 20
107.3754691860169
 30
0.0
 10
109.815125528332
 20
107.4293356659627
 30
0.0
 10
109.9546434868788
 20
107.4775129944212
 30
0.0
 10
110.0939947975349
 20
107.520077790289
 30
0.0
 10
110.7807950546065
 20
107.7298606233786
 30
0.0
 10
111.5566635665821
 20
107.8238392082041
 30
0.0
 10
113.0885817470883
 20
107.701955545161
 30
0.0
 10
113.8446501269482
 20
107.4859888437268
 30
0.0
 10
115.1301808415483
 20
106.852951647958
 30
0.0
 10
115.7528072438763
 20
106.3988992042472
 30
0.0
 10
116.3566812996219
 20
105.7414201918743
 30
0.0
 10
116.4443864515696
 20
105.6392338477153
 30
0.0
 10
116.5284635481026
 20
105.5343382504217
 30
0.0
  0
SPLINE
  5
41E
330
6C
100
AcDbEntity
  8
Viditelná (ISO)
100
AcDbSpline
210
0.0
220
0.0
230
1.0
 70
    28
 71
     2
 72
     6
 73
     3
 74
     0
 42
0.0000000001
 43
0.0000000001
 40
0.0
 40
0.0
 40
0.0
 40
0.9930568182993228
 40
0.9930568182993228
 40
0.9930568182993228
 10
106.501019189792
 20
173.6780796038281
 30
0.0
 41
1.0
 10
111.3523581310893
 20
171.539110565042
 30
0.0
 41
1.002768204024793
 10
115.6746930373716
 20
169.6333808991345
 30
0.0
 41
1.002184193723809
  0
SPLINE
  5
41F
330
6C
100
AcDbEntity
  8
Viditelná (ISO)
100
AcDbSpline
210
0.0
220
0.0
230
1.0
 70
    24
 71
     3
 72
    14
 73
    10
 74
     0
 42
0.0000000001
 43
0.0000000001
 40
0.0
 40
0.0
 40
0.0
 40
0.0
 40
0.0185094234429819
 40
0.0185094234429819
 40
0.0370389815922797
 40
0.0370389815922797
 40
0.0555729829704506
 40
0.0555729829704506
 40
0.0632195108339386
 40
0.0632195108339386
 40
0.0632195108339386
 40
0.0632195108339386
 10
106.1479000466167
 20
173.8337708312179
 30
0.0
 10
106.1479000466167
 20
173.8337708312179
 30
0.0
 10
106.1611434449551
 20
173.8279317794928
 30
0.0
 10
106.2044429302295
 20
173.8088409141631
 30
0.0
 10
106.2421805741563
 20
173.7922022803894
 30
0.0
 10
106.3222007521906
 20
173.7569211579273
 30
0.0
 10
106.3786434576094
 20
173.7320354097211
 30
0.0
 10
106.4524364915429
 20
173.6994998526776
 30
0.0
 10
106.4763306308489
 20
173.6889648591835
 30
0.0
 10
106.5010191897921
 20
173.6780796038281
 30
0.0
  0
SPLINE
  5
420
330
6C
100
AcDbEntity
  8
Viditelná (ISO)
100
AcDbSpline
210
0.0
220
0.0
230
1.0
 70
    28
 71
     2
 72
     6
 73
     3
 74
     0
 42
0.0000000001
 43
0.0000000001
 40
0.6470434939786467
 40
0.6470434939786467
 40
0.6470434939786467
 40
1.640100312277743
 40
1.640100312277743
 40
1.640100312277743
 10
110.8335258222697
 20
158.6532579492115
 30
0.0
 41
1.002184193724632
 10
106.5111909159934
 20
160.5589876151164
 30
0.0
 41
1.002768204025836
 10
101.6598519746903
 20
162.6979566539052
 30
0.0
 41
1.0
  0
SPLINE
  5
421
330
6C
100
AcDbEntity
  8
Viditelná (ISO)
100
AcDbSpline
210
0.0
220
0.0
230
1.0
 70
    24
 71
     3
 72
    14
 73
    10
 74
     0
 42
0.0000000001
 43
0.0000000001
 40
-0.0632195108339378
 40
-0.0632195108339378
 40
-0.0632195108339378
 40
-0.0632195108339378
 40
-0.0555729829704509
 40
-0.0555729829704509
 40
-0.0370389815922795
 40
-0.0370389815922795
 40
-0.018509423442982
 40
-0.018509423442982
 40
0.0
 40
0.0
 40
0.0
 40
0.0
 10
101.6598519746903
 20
162.6979566539052
 30
0.0
 10
101.6351634157472
 20
162.7088419092606
 30
0.0
 10
101.6112692764412
 20
162.7193769027547
 30
0.0
 10
101.5374762425076
 20
162.7519124597982
 30
0.0
 10
101.4810335370888
 20
162.7767982080044
 30
0.0
 10
101.4010133590545
 20
162.8120793304665
 30
0.0
 10
101.3632757151277
 20
162.8287179642402
 30
0.0
 10
101.3199762298534
 20
162.8478088295699
 30
0.0
 10
101.3067328315149
 20
162.853647881295
 30
0.0
 10
101.3067328315149
 20
162.8536478812949
 30
0.0
  0
SPLINE
  5
422
330
6C
100
AcDbEntity
  8
Viditelná (ISO)
100
AcDbSpline
210
0.0
220
0.0
230
1.0
 70
     8
 71
     3
 72
    16
 73
    12
 74
     0
 42
0.0000000001
 43
0.0000000001
 40
1.048441171135221
 40
1.048441171135221
 40
1.048441171135221
 40
1.048441171135221
 40
1.086504981307775
 40
1.086504981307775
 40
1.301098566461269
 40
1.301098566461269
 40
1.522460679384915
 40
1.522460679384915
 40
1.743822792308561
 40
1.743822792308561
 40
1.788737016213636
 40
1.788737016213636
 40
1.788737016213636
 40
1.788737016213636
 10
117.7617702852135
 20
160.183395988959
 30
0.0
 10
117.6730466797075
 20
160.0824001161771
 30
0.0
 10
117.5808209337627
 20
159.984274409068
 30
0.0
 10
116.9479011266012
 20
159.3547070619033
 30
0.0
 10
116.3054251538346
 20
158.9292051430671
 30
0.0
 10
114.9926453073713
 20
158.3548059925395
 30
0.0
 10
114.2276038656848
 20
158.1731673302047
 30
0.0
 10
112.6917468323736
 20
158.1205164773087
 30
0.0
 10
111.9209078363036
 20
158.2494007836406
 30
0.0
 10
111.1069814072856
 20
158.5387612966828
 30
0.0
 10
110.9697788920897
 20
158.5931835859665
 30
0.0
 10
110.8335258222697
 20
158.6532579492115
 30
0.0
  0
SPLINE
  5
423
330
6C
100
AcDbEntity
  8
Viditelná (ISO)
100
AcDbSpline
210
0.0
220
0.0
230
1.0
 70
     8
 71
     3
 72
    22
 73
    18
 74
     0
 42
0.0000000001
 43
0.0000000001
 40
-0.3758378556214286
 40
-0.3758378556214286
 40
-0.3758378556214286
 40
-0.3758378556214286
 40
-0.3500851116704344
 40
-0.3500851116704344
 40
-0.2787811903578646
 40
-0.2787811903578646
 40
-0.2429056216471035
 40
-0.2429056216471035
 40
-0.2212957302585431
 40
-0.2212957302585431
 40
-0.2020859491246428
 40
-0.2020859491246428
 40
-0.17810056953049
 40
-0.17810056953049
 40
-0.1316158563667241
 40
-0.1316158563667241
 40
-0.0503847250463543
 40
-0.0503847250463543
 40
-0.0503847250463543
 40
-0.0503847250463543
 10
119.2180274223686
 20
163.4862941749143
 30
0.0
 10
119.2073909074759
 20
163.3897449134996
 30
0.0
 10
119.1943891497477
 20
163.293284762068
 30
0.0
 10
119.1365153872227
 20
162.9308873227665
 30
0.0
 10
119.0758876060005
 20
162.6667792385267
 30
0.0
 10
118.9581867388625
 20
162.2772940850464
 30
0.0
 10
118.9143428238439
 20
162.1482464279961
 30
0.0
 10
118.8371238843506
 20
161.944073373991
 30
0.0
 10
118.8065209053689
 20
161.8679159964673
 30
0.0
 10
118.7457864167923
 20
161.7253026598665
 30
0.0
 10
118.715980886314
 20
161.6587105297756
 30
0.0
 10
118.6462519156397
 20
161.5102422980149
 30
0.0
 10
118.605656608415
 20
161.4286854307106
 30
0.0
 10
118.4809958731315
 20
161.1919106164422
 30
0.0
 10
118.3918899337301
 20
161.0393986272151
 30
0.0
 10
118.1292119080412
 20
160.6321394688078
 30
0.0
 10
117.9490028812936
 20
160.3965266360565
 30
0.0
 10
117.7617702852135
 20
160.183395988959
 30
0.0
  0
SPLINE
  5
424
330
6C
100
AcDbEntity
  8
Viditelná (ISO)
100
AcDbSpline
210
0.0
220
0.0
230
1.0
 70
     8
 71
     3
 72
    17
 73
    13
 74
     0
 42
0.0000000001
 43
0.0000000001
 40
-0.0449142239652471
 40
-0.0449142239652471
 40
-0.0449142239652471
 40
-0.0449142239652471
 40
0.0
 40
0.0
 40
0.0
 40
0.2213621129236463
 40
0.2213621129236463
 40
0.4427242258472927
 40
0.4427242258472927
 40
0.657317811000787
 40
0.657317811000787
 40
0.6953816211733413
 40
0.6953816211733413
 40
0.6953816211733413
 40
0.6953816211733413
 10
115.6746930373716
 20
169.6333808991345
 30
0.0
 10
115.8109461070516
 20
169.5733065359511
 30
0.0
 10
115.9436667172898
 20
169.5087189570178
 30
0.0
 10
116.0723008298198
 20
169.4402805560836
 30
0.0
 10
116.70628081277
 20
169.1029783008418
 30
0.0
 10
117.3213555935134
 20
168.6208093093312
 30
0.0
 10
118.3184005625186
 20
167.4513948110187
 30
0.0
 10
118.7003101218636
 20
166.7640622134844
 30
0.0
 10
119.1616927137094
 20
165.4074298338957
 30
0.0
 10
119.2808925029791
 20
164.6461029207016
 30
0.0
 10
119.2429880746427
 20
163.7541916127647
 30
0.0
 10
119.2327483254306
 20
163.6199180481781
 30
0.0
 10
119.2180274223686
 20
163.4862941749143
 30
0.0
  0
ARC
  5
43E
330
6C
100
AcDbEntity
  8
Viditelná (ISO)
100
AcDbCircle
 10
187.827444464714
 20
131.2637254216058
 30
0.0
 40
92.10731101559952
100
AcDbArc
 50
159.9421546116276
 51
197.4722096568866
  0
ARC
  5
43F
330
6C
100
AcDbEntity
  8
Viditelná (ISO)
100
AcDbCircle
 10
187.8274444647139
 20
131.2637254216057
 30
0.0
 40
92.10731101559934
100
AcDbArc
 50
204.9421546116278
 51
242.4722096568868
  0
ARC
  5
440
330
6C
100
AcDbEntity
  8
Viditelná (ISO)
100
AcDbCircle
 10
187.8274444647139
 20
131.2637254216056
 30
0.0
 40
92.10731101559934
100
AcDbArc
 50
249.9421546116277
 51
287.4722096568866
  0
ARC
  5
441
330
6C
100
AcDbEntity
  8
Viditelná (ISO)
100
AcDbCircle
 10
187.8274444647139
 20
131.2637254216058
 30
0.0
 40
92.10731101559956
100
AcDbArc
 50
294.9421546116275
 51
332.4722096568864
  0
ARC
  5
442
330
6C
100
AcDbEntity
  8
Viditelná (ISO)
100
AcDbCircle
 10
187.8274444647141
 20
131.2637254216057
 30
0.0
 40
92.10731101559938
100
AcDbArc
 50
339.9421546116276
 51
17.47220965688664
  0
ARC
  5
443
330
6C
100
AcDbEntity
  8
Viditelná (ISO)
100
AcDbCircle
 10
187.8274444647141
 20
131.2637254216059
 30
0.0
 40
92.10731101559924
100
AcDbArc
 50
27.24446246312138
 51
62.47220965688677
  0
ARC
  5
444
330
6C
100
AcDbEntity
  8
Viditelná (ISO)
100
AcDbCircle
 10
187.8274444647139
 20
131.2637254216058
 30
0.0
 40
92.10731101559938
100
AcDbArc
 50
114.9421546116275
 51
152.4722096568865
  0
ARC
  5
445
330
6C
100
AcDbEntity
  8
Viditelná (ISO)
100
AcDbCircle
 10
187.8274444647139
 20
131.2637254216063
 30
0.0
 40
92.10731101559897
100
AcDbArc
 50
88.97724046473566
 51
107.4722096568866
  0
ARC
  5
446
330
6C
100
AcDbEntity
  8
Viditelná (ISO)
100
AcDbCircle
 10
187.8274444647141
 20
131.2637254216059
 30
0.0
 40
92.10731101559931
100
AcDbArc
 50
69.94215461162783
 51
77.6436791036233
  0
CIRCLE
  5
447
330
6C
100
AcDbEntity
  8
Viditelná (ISO)
100
AcDbCircle
 10
187.827444464714
 20
131.2637254216064
 30
0.0
 40
70.00000000000031
  0
LINE
  5
460
330
6C
100
AcDbEntity
  8
Viditelná (ISO)
100
AcDbLine
 10
140.0929461527615
 20
182.4635073635857
 30
0.0
 11
188.535556123792
 21
201.2601437433914
 31
0.0
  0
LINE
  5
461
330
6C
100
AcDbEntity
  8
Viditelná (ISO)
100
AcDbLine
 10
136.6276625227346
 20
83.52922710965364
 30
0.0
 11
117.8310261429291
 21
131.9718370806842
 31
0.0
  0
LINE
  5
462
330
6C
100
AcDbEntity
  8
Viditelná (ISO)
100
AcDbLine
 10
235.5619427766664
 20
80.06394347962663
 30
0.0
 11
187.1193328056358
 21
61.26730709982107
 31
0.0
  0
LINE
  5
463
330
6C
100
AcDbEntity
  8
Viditelná (ISO)
100
AcDbLine
 10
239.0272264066933
 20
178.9982237335588
 30
0.0
 11
257.8238627864989
 21
130.5556137625281
 31
0.0
  0
ARC
  5
48A
330
6C
100
AcDbEntity
  8
Viditelná (ISO)
100
AcDbCircle
 10
268.204963793196
 20
164.5571840373694
 30
0.0
 40
9.000000000000049
100
AcDbArc
 50
179.7642168892736
 51
155.9179543237058
  0
CIRCLE
  5
48B
330
6C
100
AcDbEntity
  8
Viditelná (ISO)
100
AcDbCircle
 10
268.204963793196
 20
164.5571840373749
 30
0.0
 40
8.500000000000055
  0
CIRCLE
  5
48C
330
6C
100
AcDbEntity
  8
Viditelná (ISO)
100
AcDbCircle
 10
268.204963793196
 20
164.5571840373755
 30
0.0
 40
7.50000000000005
  0
ARC
  5
49C
330
6C
100
AcDbEntity
  8
Viditelná (ISO)
100
AcDbCircle
 10
207.4605307922051
 20
221.758487265908
 30
0.0
 40
0.1000000000000673
100
AcDbArc
 50
200.8235923314378
 51
257.7592225387296
  0
ARC
  5
49D
330
6C
100
AcDbEntity
  8
Viditelná (ISO)
100
AcDbCircle
 10
189.6670201196526
 20
223.8454512718482
 30
0.0
 40
0.099999999999961
100
AcDbArc
 50
268.8616970296441
 51
325.7973272369313
  0
CIRCLE
  5
49E
330
6C
100
AcDbEntity
  8
Viditelná (ISO)
100
AcDbCircle
 10
198.0202690851477
 20
218.1680194827008
 30
0.0
 40
9.999999999999978
  0
ARC
  5
4A2
330
6C
100
AcDbEntity
  8
Viditelná (ISO)
100
AcDbCircle
 10
187.827444464714
 20
131.2637254216042
 30
0.0
 40
92.4999999999998
100
AcDbArc
 50
88.86169702965572
 51
17.94881650829529
  0
ARC
  5
4A3
330
6C
100
AcDbEntity
  8
Viditelná (ISO)
100
AcDbCircle
 10
187.827444464714
 20
131.2637254216042
 30
0.0
 40
92.49999999999976
100
AcDbArc
 50
27.05118349170478
 51
77.75922253870309
  0
LINE
  5
55E
330
6C
100
AcDbEntity
  8
Osa (ISO)
  6
Continuous
100
AcDbLine
 10
187.8274444648269
 20
310.485923771268
 30
0.0
 11
187.8274444648269
 21
425.6595900577123
 31
0.0
  0
LINE
  5
55F
330
6C
100
AcDbEntity
  8
Osa (ISO)
  6
Continuous
100
AcDbLine
 10
281.8274444647142
 20
131.2637254216057
 30
0.0
 11
93.82744446471377
 21
131.2637254216057
 31
0.0
  0
LINE
  5
560
330
6C
100
AcDbEntity
  8
Osa (ISO)
  6
Continuous
100
AcDbLine
 10
187.827444464714
 20
225.263725421606
 30
0.0
 11
187.827444464714
 21
37.26372542160552
 31
0.0
  0
DIMENSION
  5
561
330
6C
100
AcDbEntity
  8
Kóta (ISO)
100
AcDbDimension
  2
*D16
 10
82.82744446482679
 20
320.1926215572237
 30
0.0
 11
82.82744446482674
 21
366.1926215572234
 31
0.0
 70
   160
  1
<>
 42
91.99999999999949
  3
Výchozí (ISO)
100
AcDbAlignedDimension
 13
96.82744446482667
 23
412.1926215572232
 33
0.0
 14
116.8274444648268
 24
320.1926215572237
 34
0.0
 50
90.0
100
AcDbRotatedDimension
1001
ACAD_DSTYLE_DIMINSPECT
1070
   396
1000
100%
1070
   395
1000

1070
   394
1070
    33
1070
   393
1070
     0
1001
ACAD
1000
DSTYLE
1002
{
1070
    47
1040
2.0
1070
    48
1040
2.0
1070
   172
1070
     0
1070
   289
1070
     1
1002
}
  0
DIMENSION
  5
64F
330
6C
100
AcDbEntity
  8
Kóta (ISO)
100
AcDbDimension
  2
*D17
 10
278.8274444648272
 20
438.5926215572231
 30
0.0
 11
189.8078007120317
 21
438.5926215572231
 31
0.0
 70
   160
  1
{\fAIGDT|b0|i0;\H4.2000;\ln\fTahoma|b0|i0;\H4.2000;}<>
 42
182.0000000000005
  3
Výchozí (ISO)
100
AcDbAlignedDimension
 13
96.82744446482667
 23
412.1926215572233
 33
0.0
 14
278.8274444648272
 24
412.1926215572231
 34
0.0
 50
180.0
100
AcDbRotatedDimension
1001
ACAD
1000
DSTYLE
1002
{
1070
   172
1070
     0
1070
   289
1070
     1
1070
   271
1070
     2
1070
   272
1070
     2
1070
    48
1040
0.0
1070
    47
1040
0.0
1002
}
  0
ENDSEC
  0
SECTION
  2
OBJECTS
  0
DICTIONARY
  5
C
330
0
100
AcDbDictionary
281
     1
  3
ACAD_COLOR
350
63
  3
ACAD_GROUP
350
D
  3
ACAD_LAYOUT
350
62
  3
ACAD_MATERIAL
350
10
  3
ACAD_MLEADERSTYLE
350
66
  3
ACAD_MLINESTYLE
350
5F
  3
ACAD_PLOTSETTINGS
350
61
  3
ACAD_PLOTSTYLENAME
350
E
  3
ACAD_SCALELIST
350
42
  3
ACAD_TABLESTYLE
350
64
  3
ACAD_VISUALSTYLE
350
29
  3
ACDB_RECOMPOSE_DATA
350
D2F
  3
AcDbVariableDictionary
350
940
  3
AcmDictionary
350
9B1
  3
AEC_PROPERTY_SET_DEFS
350
B50
  3
AMG
350
957
  3
AMGSNAPSETTINGS
350
B53
  0
DICTIONARY
  5
8E9
330
8
100
AcDbDictionary
280
     1
281
     1
  0
DICTIONARY
  5
D1B
330
C8
100
AcDbDictionary
280
     1
281
     1
  3
ACAD_MTEXT_2008_RT
360
D1C
  0
DICTIONARY
  5
D34
330
1E1
100
AcDbDictionary
280
     1
281
     1
  3
ACAD_MTEXT_2008_RT
360
D35
  0
DICTIONARY
  5
D36
330
1E6
100
AcDbDictionary
280
     1
281
     1
  3
ACAD_MTEXT_2008_RT
360
D37
  0
DICTIONARY
  5
8B2
330
1E8
100
AcDbDictionary
280
     1
281
     1
  3
ACAD_MLATT
360
D1E
  3
ACAD_XREC_ROUNDTRIP
360
D1D
  0
DICTIONARY
  5
8B5
330
1EC
100
AcDbDictionary
280
     1
281
     1
  3
ACAD_MLATT
360
D20
  3
ACAD_XREC_ROUNDTRIP
360
D1F
  0
DICTIONARY
  5
8B8
330
1ED
100
AcDbDictionary
280
     1
281
     1
  3
ACAD_MLATT
360
D22
  3
ACAD_XREC_ROUNDTRIP
360
D21
  0
DICTIONARY
  5
8BB
330
1EE
100
AcDbDictionary
280
     1
281
     1
  3
ACAD_MLATT
360
D24
  3
ACAD_XREC_ROUNDTRIP
360
D23
  0
DICTIONARY
  5
8BE
330
1EF
100
AcDbDictionary
280
     1
281
     1
  3
ACAD_MLATT
360
D26
  3
ACAD_XREC_ROUNDTRIP
360
D25
  0
DICTIONARY
  5
8C1
330
1F1
100
AcDbDictionary
280
     1
281
     1
  3
ACAD_MLATT
360
D28
  3
ACAD_XREC_ROUNDTRIP
360
D27
  0
DICTIONARY
  5
8C4
330
1F2
100
AcDbDictionary
280
     1
281
     1
  3
ACAD_MLATT
360
D2A
  3
ACAD_XREC_ROUNDTRIP
360
D29
  0
DICTIONARY
  5
8C7
330
1F3
100
AcDbDictionary
280
     1
281
     1
  3
ACAD_MLATT
360
D2C
  3
ACAD_XREC_ROUNDTRIP
360
D2B
  0
DICTIONARY
  5
8CA
330
1F4
100
AcDbDictionary
280
     1
281
     1
  3
ACAD_MLATT
360
D2E
  3
ACAD_XREC_ROUNDTRIP
360
D2D
  0
DICTIONARY
  5
D38
330
7D1
100
AcDbDictionary
280
     1
281
     1
  3
ACAD_MTEXT_2008_RT
360
D39
  0
DICTIONARY
  5
D3A
330
7EC
100
AcDbDictionary
280
     1
281
     1
  3
ACAD_MTEXT_2008_RT
360
D3B
  0
DICTIONARY
  5
D3C
330
7F0
100
AcDbDictionary
280
     1
281
     1
  3
ACAD_MTEXT_2008_RT
360
D3D
  0
DICTIONARY
  5
D3E
330
7F4
100
AcDbDictionary
280
     1
281
     1
  3
ACAD_MTEXT_2008_RT
360
D3F
  0
DICTIONARY
  5
D40
330
7FF
100
AcDbDictionary
280
     1
281
     1
  3
ACAD_MTEXT_2008_RT
360
D41
  0
DICTIONARY
  5
D42
330
80D
100
AcDbDictionary
280
     1
281
     1
  3
ACAD_MTEXT_2008_RT
360
D43
  0
DICTIONARY
  5
D44
330
814
100
AcDbDictionary
280
     1
281
     1
  3
ACAD_MTEXT_2008_RT
360
D45
  0
DICTIONARY
  5
D46
330
822
100
AcDbDictionary
280
     1
281
     1
  3
ACAD_MTEXT_2008_RT
360
D47
  0
DICTIONARY
  5
D48
330
827
100
AcDbDictionary
280
     1
281
     1
  3
ACAD_MTEXT_2008_RT
360
D49
  0
DICTIONARY
  5
D4A
330
828
100
AcDbDictionary
280
     1
281
     1
  3
ACAD_MTEXT_2008_RT
360
D4B
  0
DICTIONARY
  5
D4C
330
82B
100
AcDbDictionary
280
     1
281
     1
  3
ACAD_MTEXT_2008_RT
360
D4D
  0
DICTIONARY
  5
D4E
330
82F
100
AcDbDictionary
280
     1
281
     1
  3
ACAD_MTEXT_2008_RT
360
D4F
  0
DICTIONARY
  5
D50
330
839
100
AcDbDictionary
280
     1
281
     1
  3
ACAD_MTEXT_2008_RT
360
D51
  0
DICTIONARY
  5
63
102
{ACAD_REACTORS
330
C
102
}
330
C
100
AcDbDictionary
281
     1
  0
DICTIONARY
  5
D
102
{ACAD_REACTORS
330
C
102
}
330
C
100
AcDbDictionary
281
     1
  0
DICTIONARY
  5
62
102
{ACAD_REACTORS
330
C
102
}
330
C
100
AcDbDictionary
281
     1
  3
Layout1
350
6B
  3
Layout2
350
73
  3
Model
350
6F
  0
DICTIONARY
  5
10
102
{ACAD_REACTORS
330
C
102
}
330
C
100
AcDbDictionary
281
     1
  3
ByBlock
350
19
  3
ByLayer
350
11
  3
Global
350
21
  0
DICTIONARY
  5
66
102
{ACAD_REACTORS
330
C
102
}
330
C
100
AcDbDictionary
281
     1
  3
Standard
350
67
  0
DICTIONARY
  5
5F
102
{ACAD_REACTORS
330
C
102
}
330
C
100
AcDbDictionary
281
     1
  3
Standard
350
60
  0
DICTIONARY
  5
61
102
{ACAD_REACTORS
330
C
102
}
330
C
100
AcDbDictionary
281
     1
  0
ACDBDICTIONARYWDFLT
  5
E
102
{ACAD_REACTORS
330
C
102
}
330
C
100
AcDbDictionary
281
     1
  3
Normal
350
F
100
AcDbDictionaryWithDefault
340
F
  0
DICTIONARY
  5
42
102
{ACAD_REACTORS
330
C
102
}
330
C
100
AcDbDictionary
281
     1
  3
A0
350
43
  3
A1
350
44
  3
A2
350
45
  3
A3
350
46
  3
A4
350
47
  3
A5
350
48
  3
A6
350
49
  3
A7
350
4A
  3
A8
350
4B
  3
A9
350
4C
  3
B0
350
4D
  3
B1
350
4E
  3
B2
350
4F
  3
B3
350
50
  3
B4
350
51
  3
B5
350
52
  3
B6
350
53
  0
DICTIONARY
  5
64
102
{ACAD_REACTORS
330
C
102
}
330
C
100
AcDbDictionary
281
     1
  3
Standard
350
65
  0
DICTIONARY
  5
29
102
{ACAD_REACTORS
330
C
102
}
330
C
100
AcDbDictionary
281
     1
  3
2dWireframe
350
2F
  3
3D Hidden
350
94B
  3
3dWireframe
350
94A
  3
Basic
350
2E
  3
Brighten
350
35
  3
ColorChange
350
39
  3
Conceptual
350
32
  3
Dim
350
34
  3
EdgeColorOff
350
41
  3
Facepattern
350
38
  3
Flat
350
2A
  3
FlatWithEdges
350
2B
  3
Gouraud
350
2C
  3
GouraudWithEdges
350
2D
  3
Hidden
350
31
  3
JitterOff
350
3F
  3
Linepattern
350
37
  3
OverhangOff
350
40
  3
Realistic
350
33
  3
Shaded
350
3E
  3
Shaded with edges
350
3D
  3
Shades of Gray
350
3A
  3
Sketchy
350
3B
  3
Thicken
350
36
  3
Wireframe
350
30
  3
X-Ray
350
3C
  0
XRECORD
  5
D2F
102
{ACAD_REACTORS
330
C
102
}
330
C
100
AcDbXrecord
280
     1
 90
        1
330
65
330
C8
330
1E8
330
1EC
330
1ED
330
1EE
330
1EF
330
1F1
330
1F2
330
1F3
330
1F4
  0
DICTIONARY
  5
940
102
{ACAD_REACTORS
330
C
102
}
330
C
100
AcDbDictionary
281
     1
  3
CANNOSCALE
350
944
  3
CMLEADERSTYLE
350
942
  3
CTABLESTYLE
350
941
  3
LAYEREVAL
350
946
  3
LAYERNOTIFY
350
947
  3
LIGHTINGUNITS
350
945
  3
MSLTSCALE
350
943
  3
XCLIPFRAME
350
D19
  0
DICTIONARY
  5
9B1
102
{ACAD_REACTORS
330
C
102
}
330
C
100
AcDbDictionary
281
     1
  3
AcmStdDictionary
350
9BB
  0
DICTIONARY
  5
B50
102
{ACAD_REACTORS
330
C
102
}
330
C
100
AcDbDictionary
281
     1
  0
DICTIONARY
  5
957
102
{ACAD_REACTORS
330
C
102
}
330
C
100
AcDbDictionary
281
     1
  0
DICTIONARY
  5
B53
102
{ACAD_REACTORS
330
C
102
}
330
C
100
AcDbDictionary
281
     1
  0
XRECORD
  5
D1C
102
{ACAD_REACTORS
330
D1B
102
}
330
D1B
100
AcDbXrecord
280
     1
 40
2697178.0
  1
\pxsm0,94;WIG Schweisung, Nahte sauber geschliffen und poliert\PSichtstege geschliffen mit 240 Korn und abgeklebt.\P\fTahoma|b0|i0;\H3.0000; \P\fTahoma|b0|i0;\H3.5000;WIG svarovani- svary dle potreby zabrousit.\PPohledove plochy brousit (vel. brusnyc
  1
h zrn 240)\Pa polepit paskou
  0
XRECORD
  5
D35
102
{ACAD_REACTORS
330
D34
102
}
330
D34
100
AcDbXrecord
280
     1
 40
133017.0
  1
Effidrain mezikus s tavnou přírubou 157 AISI 304
  0
XRECORD
  5
D37
102
{ACAD_REACTORS
330
D36
102
}
330
D36
100
AcDbXrecord
280
     1
 40
3714.0
  1
není
  0
XRECORD
  5
D1E
102
{ACAD_REACTORS
330
8B2
102
}
330
8B2
100
AcDbXrecord
280
     1
 70
     4
 70
     0
 70
     0
 40
1.0
  2
ČÍSLO_REVIZE
  1
Embedded Object
 10
287.6423193699604
 20
66.0
 30
0.0
 40
3.499999940395355
 41
0.0
 46
0.0
 71
     1
 72
     5
  1
000
  7
Styl textu9
 73
     1
 44
1.0
  0
XRECORD
  5
D1D
102
{ACAD_REACTORS
330
8B2
102
}
330
8B2
100
AcDbXrecord
280
     1
102
ACAD_MATT_HEIGHT
140
3.499999940395355
  0
XRECORD
  5
D20
102
{ACAD_REACTORS
330
8B5
102
}
330
8B5
100
AcDbXrecord
280
     1
 70
     4
 70
     0
 70
     0
 40
1.0
  2
Sheet_Size
  1
Embedded Object
 10
289.7753402652471
 20
48.33701147296152
 30
0.0
 40
2.000000029802322
 41
0.0
 46
0.0
 71
     1
 72
     5
  1
A2
  7
Styl textu40
 73
     1
 44
1.0
  0
XRECORD
  5
D1F
102
{ACAD_REACTORS
330
8B5
102
}
330
8B5
100
AcDbXrecord
280
     1
102
ACAD_MATT_HEIGHT
140
2.000000029802322
  0
XRECORD
  5
D22
102
{ACAD_REACTORS
330
8B8
102
}
330
8B8
100
AcDbXrecord
280
     1
 70
     4
 70
     0
 70
     0
 40
1.0
  2
FILENAME_AND_PATH
  1
Embedded Object
 10
230.2697279123746
 20
53.13502004542946
 30
0.0
 40
2.000000029802322
 41
0.0
 46
0.0
 71
     1
 72
     5
  1
C:\\Inventor_DATA\\Projekty\\Guly\\Effidrain\\Effidrain mezikus\\408249.iam
  7
Styl textu40
 73
     1
 44
1.0
  0
XRECORD
  5
D21
102
{ACAD_REACTORS
330
8B8
102
}
330
8B8
100
AcDbXrecord
280
     1
102
ACAD_MATT_HEIGHT
140
2.000000029802322
  0
XRECORD
  5
D24
102
{ACAD_REACTORS
330
8BB
102
}
330
8BB
100
AcDbXrecord
280
     1
 70
     4
 70
     0
 70
     0
 40
1.0
  2
PART_NUMBER
  1
Embedded Object
 10
218.0
 20
66.0
 30
0.0
 40
3.499999940395355
 41
0.0
 46
0.0
 71
     1
 72
     5
  1
408249
  7
Text poznámky (ISO)
 73
     1
 44
1.0
  0
XRECORD
  5
D23
102
{ACAD_REACTORS
330
8BB
102
}
330
8BB
100
AcDbXrecord
280
     1
102
ACAD_MATT_HEIGHT
140
3.499999940395355
  0
XRECORD
  5
D26
102
{ACAD_REACTORS
330
8BE
102
}
330
8BE
100
AcDbXrecord
280
     1
 70
     4
 70
     0
 70
     0
 40
1.0
  2
PROJECT
  1
Embedded Object
 10
118.0
 20
60.0
 30
0.0
 40
3.499999940395355
 41
0.0
 46
0.0
 71
     1
 72
     5
  1

  7
Text poznámky (ISO)
 73
     1
 44
1.0
  0
XRECORD
  5
D25
102
{ACAD_REACTORS
330
8BE
102
}
330
8BE
100
AcDbXrecord
280
     1
102
ACAD_MATT_HEIGHT
140
3.499999940395355
  0
XRECORD
  5
D28
102
{ACAD_REACTORS
330
8C1
102
}
330
8C1
100
AcDbXrecord
280
     1
 70
     4
 70
     0
 70
     0
 40
1.0
  2
SKLADOVÉ_ČÍSLO
  1
Embedded Object
 10
118.0
 20
54.89391305489239
 30
0.0
 40
6.99999988079071
 41
153.2966041564941
 46
0.0
 71
     1
 72
     5
  1
408249
  7
Styl textu94
 73
     1
 44
1.0
  0
XRECORD
  5
D27
102
{ACAD_REACTORS
330
8C1
102
}
330
8C1
100
AcDbXrecord
280
     1
102
ACAD_MATT_HEIGHT
140
6.99999988079071
  0
XRECORD
  5
D2A
102
{ACAD_REACTORS
330
8C4
102
}
330
8C4
100
AcDbXrecord
280
     1
 70
     4
 70
     0
 70
     0
 40
1.0
  2
MATERIAL
  1
Embedded Object
 10
117.5939056808251
 20
108.6756657996811
 30
0.0
 40
3.499999940395355
 41
0.0
 46
0.0
 71
     1
 72
     5
  1

  7
Text poznámky (ISO)
 73
     1
 44
1.0
  0
XRECORD
  5
D29
102
{ACAD_REACTORS
330
8C4
102
}
330
8C4
100
AcDbXrecord
280
     1
102
ACAD_MATT_HEIGHT
140
3.499999940395355
  0
XRECORD
  5
D2C
102
{ACAD_REACTORS
330
8C7
102
}
330
8C7
100
AcDbXrecord
280
     1
 70
     4
 70
     0
 70
     0
 40
1.0
  2
AUTHOR
  1
Embedded Object
 10
165.2312259808574
 20
87.78242706242743
 30
0.0
 40
2.000000029802322
 41
15.06250023841858
 46
0.0
 71
     1
 72
     5
  1
pmacoun
  7
Styl textu40
 73
     1
 44
1.0
  0
XRECORD
  5
D2B
102
{ACAD_REACTORS
330
8C7
102
}
330
8C7
100
AcDbXrecord
280
     1
102
ACAD_MATT_HEIGHT
140
2.000000029802322
  0
XRECORD
  5
D2E
102
{ACAD_REACTORS
330
8CA
102
}
330
8CA
100
AcDbXrecord
280
     1
 70
     4
 70
     0
 70
     0
 40
1.0
  2
VS_First
  1
Embedded Object
 10
189.1855699863978
 20
86.00038821032342
 30
0.0
 40
3.499999940395355
 41
24.15597186978378
 46
0.0
 71
     1
 72
     5
  1

  7
Text poznámky (ISO)
 73
     1
 44
1.0
  0
XRECORD
  5
D2D
102
{ACAD_REACTORS
330
8CA
102
}
330
8CA
100
AcDbXrecord
280
     1
102
ACAD_MATT_HEIGHT
140
3.499999940395355
  0
XRECORD
  5
D39
102
{ACAD_REACTORS
330
D38
102
}
330
D38
100
AcDbXrecord
280
     1
 40
5805.0
  1
\A1;\U+2205182
  0
XRECORD
  5
D3B
102
{ACAD_REACTORS
330
D3A
102
}
330
D3A
100
AcDbXrecord
280
     1
 40
7165.0
  1
KUSOVNÍK
  0
XRECORD
  5
D3D
102
{ACAD_REACTORS
330
D3C
102
}
330
D3C
100
AcDbXrecord
280
     1
 40
6807.0
  1
MATERIÁL
  0
XRECORD
  5
D3F
102
{ACAD_REACTORS
330
D3E
102
}
330
D3E
100
AcDbXrecord
280
     1
 40
6841.0
  1
SKLADOVÉ
  0
XRECORD
  5
D41
102
{ACAD_REACTORS
330
D40
102
}
330
D40
100
AcDbXrecord
280
     1
 40
59053.0
  1
Svařenec mezikus 12mm přir
  0
XRECORD
  5
D43
102
{ACAD_REACTORS
330
D42
102
}
330
D42
100
AcDbXrecord
280
     1
 40
120263.0
  1
Šroub navařovací nerez M8x16 A2 DIN 32501
  0
XRECORD
  5
D45
102
{ACAD_REACTORS
330
D44
102
}
330
D44
100
AcDbXrecord
280
     1
 40
202759.0
  1
Effidrain drenážní kroužek komplet 157 + karton
  0
XRECORD
  5
D47
102
{ACAD_REACTORS
330
D46
102
}
330
D46
100
AcDbXrecord
280
     1
 40
15547.0
  1
krytka zemáku
  0
XRECORD
  5
D49
102
{ACAD_REACTORS
330
D48
102
}
330
D48
100
AcDbXrecord
280
     1
 40
3224.0
  1
át, 
  0
XRECORD
  5
D4B
102
{ACAD_REACTORS
330
D4A
102
}
330
D4A
100
AcDbXrecord
280
     1
 40
13310.0
  1
kouřový
  0
XRECORD
  5
D4D
102
{ACAD_REACTORS
330
D4C
102
}
330
D4C
100
AcDbXrecord
280
     1
 40
130256.0
  1
Effidrain kryt plastový 157 pro balení PP 12mm
  0
XRECORD
  5
D4F
102
{ACAD_REACTORS
330
D4E
102
}
330
D4E
100
AcDbXrecord
280
     1
 40
4936.0
  1
Papír
  0
XRECORD
  5
D51
102
{ACAD_REACTORS
330
D50
102
}
330
D50
100
AcDbXrecord
280
     1
 40
79756.0
  1
Vypust pro žlab D157/142 snizena AISI 304
  0
LAYOUT
  5
6B
102
{ACAD_REACTORS
330
62
102
}
330
62
100
AcDbPlotSettings
  1

  2

  4

  6

 40
0.0
 41
0.0
 42
0.0
 43
0.0
 44
0.0
 45
0.0
 46
0.0
 47
0.0
 48
0.0
 49
0.0
140
0.0
141
0.0
142
1.0
143
1.0
 70
   688
 72
     0
 73
     0
 74
     5
  7

 75
    16
147
1.0
 76
     0
 77
     2
 78
   300
148
0.0
149
0.0
100
AcDbLayout
  1
Layout1
 70
     1
 71
     1
 10
0.0
 20
0.0
 11
712.8
 21
504.0
 12
0.0
 22
0.0
 32
0.0
 14
0.0
 24
0.0
 34
0.0
 15
712.8
 25
504.0
 35
0.0
146
0.0
 13
0.0
 23
0.0
 33
0.0
 16
1.0
 26
0.0
 36
0.0
 17
0.0
 27
1.0
 37
0.0
 76
     0
330
68
  0
LAYOUT
  5
73
102
{ACAD_REACTORS
330
62
102
}
330
62
100
AcDbPlotSettings
  1

  2

  4

  6

 40
0.0
 41
0.0
 42
0.0
 43
0.0
 44
0.0
 45
0.0
 46
0.0
 47
0.0
 48
0.0
 49
0.0
140
0.0
141
0.0
142
1.0
143
1.0
 70
   688
 72
     0
 73
     0
 74
     5
  7

 75
    16
147
1.0
 76
     0
 77
     2
 78
   300
148
0.0
149
0.0
100
AcDbLayout
  1
Layout2
 70
     1
 71
     2
 10
0.0
 20
0.0
 11
12.0
 21
9.0
 12
0.0
 22
0.0
 32
0.0
 14
0.0
 24
0.0
 34
0.0
 15
0.0
 25
0.0
 35
0.0
146
0.0
 13
0.0
 23
0.0
 33
0.0
 16
1.0
 26
0.0
 36
0.0
 17
0.0
 27
1.0
 37
0.0
 76
     0
330
70
  0
LAYOUT
  5
6F
102
{ACAD_REACTORS
330
62
102
}
330
62
100
AcDbPlotSettings
  1

  2

  4

  6

 40
0.0
 41
0.0
 42
0.0
 43
0.0
 44
0.0
 45
0.0
 46
0.0
 47
0.0
 48
0.0
 49
0.0
140
0.0
141
0.0
142
1.0
143
1.0
 70
  1712
 72
     0
 73
     0
 74
     0
  7

 75
     0
147
1.0
 76
     0
 77
     2
 78
   300
148
0.0
149
0.0
100
AcDbLayout
  1
Model
 70
     1
 71
     0
 10
0.0
 20
0.0
 11
12.0
 21
9.0
 12
0.0
 22
0.0
 32
0.0
 14
0.0
 24
0.0
 34
0.0
 15
0.0
 25
0.0
 35
0.0
146
0.0
 13
0.0
 23
0.0
 33
0.0
 16
1.0
 26
0.0
 36
0.0
 17
0.0
 27
1.0
 37
0.0
 76
     0
330
6C
331
57
  0
MATERIAL
  5
19
102
{ACAD_XDICTIONARY
360
1A
102
}
102
{ACAD_REACTORS
330
10
102
}
330
10
100
AcDbMaterial
  1
ByBlock
 72
     0
 43
0.0208333333333333
 43
0.0
 43
0.0
 43
0.0
 43
0.0
 43
0.0208333333333333
 43
0.0
 43
0.0
 43
0.0
 43
0.0
 43
1.0
 43
0.0
 43
0.0
 43
0.0
 43
0.0
 43
1.0
 77
     0
 47
0.0208333333333333
 47
0.0
 47
0.0
 47
0.0
 47
0.0
 47
0.0208333333333333
 47
0.0
 47
0.0
 47
0.0
 47
0.0
 47
1.0
 47
0.0
 47
0.0
 47
0.0
 47
0.0
 47
1.0
171
     0
 49
0.0208333333333333
 49
0.0
 49
0.0
 49
0.0
 49
0.0
 49
0.0208333333333333
 49
0.0
 49
0.0
 49
0.0
 49
0.0
 49
1.0
 49
0.0
 49
0.0
 49
0.0
 49
0.0
 49
1.0
175
     0
142
0.0208333333333333
142
0.0
142
0.0
142
0.0
142
0.0
142
0.0208333333333333
142
0.0
142
0.0
142
0.0
142
0.0
142
1.0
142
0.0
142
0.0
142
0.0
142
0.0
142
1.0
179
     0
144
0.0208333333333333
144
0.0
144
0.0
144
0.0
144
0.0
144
0.0208333333333333
144
0.0
144
0.0
144
0.0
144
0.0
144
1.0
144
0.0
144
0.0
144
0.0
144
0.0
144
1.0
147
0.0208333333333333
147
0.0
147
0.0
147
0.0
147
0.0
147
0.0208333333333333
147
0.0
147
0.0
147
0.0
147
0.0
147
1.0
147
0.0
147
0.0
147
0.0
147
0.0
147
1.0
  0
MATERIAL
  5
11
102
{ACAD_XDICTIONARY
360
12
102
}
102
{ACAD_REACTORS
330
10
102
}
330
10
100
AcDbMaterial
  1
ByLayer
 72
     0
 43
0.0208333333333333
 43
0.0
 43
0.0
 43
0.0
 43
0.0
 43
0.0208333333333333
 43
0.0
 43
0.0
 43
0.0
 43
0.0
 43
1.0
 43
0.0
 43
0.0
 43
0.0
 43
0.0
 43
1.0
 77
     0
 47
0.0208333333333333
 47
0.0
 47
0.0
 47
0.0
 47
0.0
 47
0.0208333333333333
 47
0.0
 47
0.0
 47
0.0
 47
0.0
 47
1.0
 47
0.0
 47
0.0
 47
0.0
 47
0.0
 47
1.0
171
     0
 49
0.0208333333333333
 49
0.0
 49
0.0
 49
0.0
 49
0.0
 49
0.0208333333333333
 49
0.0
 49
0.0
 49
0.0
 49
0.0
 49
1.0
 49
0.0
 49
0.0
 49
0.0
 49
0.0
 49
1.0
175
     0
142
0.0208333333333333
142
0.0
142
0.0
142
0.0
142
0.0
142
0.0208333333333333
142
0.0
142
0.0
142
0.0
142
0.0
142
1.0
142
0.0
142
0.0
142
0.0
142
0.0
142
1.0
179
     0
144
0.0208333333333333
144
0.0
144
0.0
144
0.0
144
0.0
144
0.0208333333333333
144
0.0
144
0.0
144
0.0
144
0.0
144
1.0
144
0.0
144
0.0
144
0.0
144
0.0
144
1.0
147
0.0208333333333333
147
0.0
147
0.0
147
0.0
147
0.0
147
0.0208333333333333
147
0.0
147
0.0
147
0.0
147
0.0
147
1.0
147
0.0
147
0.0
147
0.0
147
0.0
147
1.0
  0
MATERIAL
  5
21
102
{ACAD_XDICTIONARY
360
22
102
}
102
{ACAD_REACTORS
330
10
102
}
330
10
100
AcDbMaterial
  1
Global
 72
     0
 43
0.0208333333333333
 43
0.0
 43
0.0
 43
0.0
 43
0.0
 43
0.0208333333333333
 43
0.0
 43
0.0
 43
0.0
 43
0.0
 43
1.0
 43
0.0
 43
0.0
 43
0.0
 43
0.0
 43
1.0
 77
     0
 47
0.0208333333333333
 47
0.0
 47
0.0
 47
0.0
 47
0.0
 47
0.0208333333333333
 47
0.0
 47
0.0
 47
0.0
 47
0.0
 47
1.0
 47
0.0
 47
0.0
 47
0.0
 47
0.0
 47
1.0
171
     0
 49
0.0208333333333333
 49
0.0
 49
0.0
 49
0.0
 49
0.0
 49
0.0208333333333333
 49
0.0
 49
0.0
 49
0.0
 49
0.0
 49
1.0
 49
0.0
 49
0.0
 49
0.0
 49
0.0
 49
1.0
175
     0
142
0.0208333333333333
142
0.0
142
0.0
142
0.0
142
0.0
142
0.0208333333333333
142
0.0
142
0.0
142
0.0
142
0.0
142
1.0
142
0.0
142
0.0
142
0.0
142
0.0
142
1.0
179
     0
144
0.0208333333333333
144
0.0
144
0.0
144
0.0
144
0.0
144
0.0208333333333333
144
0.0
144
0.0
144
0.0
144
0.0
144
1.0
144
0.0
144
0.0
144
0.0
144
0.0
144
1.0
147
0.0208333333333333
147
0.0
147
0.0
147
0.0
147
0.0
147
0.0208333333333333
147
0.0
147
0.0
147
0.0
147
0.0
147
1.0
147
0.0
147
0.0
147
0.0
147
0.0
147
1.0
  0
MLEADERSTYLE
  5
67
102
{ACAD_REACTORS
330
66
102
}
330
66
100
AcDbMLeaderStyle
170
     2
171
     1
172
     0
 90
        2
 40
0.0
 41
0.0
173
     1
 91
-1056964608
340
5B
 92
       -2
290
     1
 42
0.09
291
     1
 43
0.36
  3
Standard
 44
0.18
300

342
55
174
     1
178
     6
175
     1
176
     0
 93
-1056964608
 45
0.18
292
     0
297
     0
 46
0.18
 94
-1056964608
 47
1.0
 49
1.0
140
1.0
293
     1
141
0.0
294
     1
177
     0
142
1.0
295
     0
296
     0
143
0.125
1001
ACAD_MLEADERVER
1070
     2
  0
MLINESTYLE
  5
60
102
{ACAD_REACTORS
330
5F
102
}
330
5F
100
AcDbMlineStyle
  2
STANDARD
 70
     0
  3

 62
   256
 51
90.0
 52
90.0
 71
     2
 49
0.5
 62
   256
  6
BYLAYER
 49
-0.5
 62
   256
  6
BYLAYER
  0
ACDBPLACEHOLDER
  5
F
102
{ACAD_REACTORS
330
E
102
}
330
E
  0
SCALE
  5
43
102
{ACAD_REACTORS
330
42
102
}
330
42
100
AcDbScale
 70
     0
300
1:1
140
1.0
141
1.0
290
     1
  0
SCALE
  5
44
102
{ACAD_REACTORS
330
42
102
}
330
42
100
AcDbScale
 70
     0
300
1/128" = 1'-0"
140
0.0078125
141
12.0
290
     0
  0
SCALE
  5
45
102
{ACAD_REACTORS
330
42
102
}
330
42
100
AcDbScale
 70
     0
300
1/64" = 1'-0"
140
0.015625
141
12.0
290
     0
  0
SCALE
  5
46
102
{ACAD_REACTORS
330
42
102
}
330
42
100
AcDbScale
 70
     0
300
1/32" = 1'-0"
140
0.03125
141
12.0
290
     0
  0
SCALE
  5
47
102
{ACAD_REACTORS
330
42
102
}
330
42
100
AcDbScale
 70
     0
300
1/16" = 1'-0"
140
0.0625
141
12.0
290
     0
  0
SCALE
  5
48
102
{ACAD_REACTORS
330
42
102
}
330
42
100
AcDbScale
 70
     0
300
3/32" = 1'-0"
140
0.09375
141
12.0
290
     0
  0
SCALE
  5
49
102
{ACAD_REACTORS
330
42
102
}
330
42
100
AcDbScale
 70
     0
300
1/8" = 1'-0"
140
0.125
141
12.0
290
     0
  0
SCALE
  5
4A
102
{ACAD_REACTORS
330
42
102
}
330
42
100
AcDbScale
 70
     0
300
3/16" = 1'-0"
140
0.1875
141
12.0
290
     0
  0
SCALE
  5
4B
102
{ACAD_REACTORS
330
42
102
}
330
42
100
AcDbScale
 70
     0
300
1/4" = 1'-0"
140
0.25
141
12.0
290
     0
  0
SCALE
  5
4C
102
{ACAD_REACTORS
330
42
102
}
330
42
100
AcDbScale
 70
     0
300
3/8" = 1'-0"
140
0.375
141
12.0
290
     0
  0
SCALE
  5
4D
102
{ACAD_REACTORS
330
42
102
}
330
42
100
AcDbScale
 70
     0
300
1/2" = 1'-0"
140
0.5
141
12.0
290
     0
  0
SCALE
  5
4E
102
{ACAD_REACTORS
330
42
102
}
330
42
100
AcDbScale
 70
     0
300
3/4" = 1'-0"
140
0.75
141
12.0
290
     0
  0
SCALE
  5
4F
102
{ACAD_REACTORS
330
42
102
}
330
42
100
AcDbScale
 70
     0
300
1" = 1'-0"
140
1.0
141
12.0
290
     0
  0
SCALE
  5
50
102
{ACAD_REACTORS
330
42
102
}
330
42
100
AcDbScale
 70
     0
300
1-1/2" = 1'-0"
140
1.5
141
12.0
290
     0
  0
SCALE
  5
51
102
{ACAD_REACTORS
330
42
102
}
330
42
100
AcDbScale
 70
     0
300
3" = 1'-0"
140
3.0
141
12.0
290
     0
  0
SCALE
  5
52
102
{ACAD_REACTORS
330
42
102
}
330
42
100
AcDbScale
 70
     0
300
6" = 1'-0"
140
6.0
141
12.0
290
     0
  0
SCALE
  5
53
102
{ACAD_REACTORS
330
42
102
}
330
42
100
AcDbScale
 70
     0
300
1'-0" = 1'-0"
140
12.0
141
12.0
290
     0
  0
TABLESTYLE
  5
65
102
{ACAD_XDICTIONARY
360
8AE
102
}
102
{ACAD_REACTORS
330
64
102
}
330
64
100
AcDbTableStyle
  3
Standard
 70
     0
 71
     0
 40
0.06
 41
0.06
280
     0
281
     0
  7
Standard
140
0.18
170
     2
 62
     0
 63
     7
283
     0
274
    -2
284
     1
 64
     0
275
    -2
285
     1
 65
     0
276
    -2
286
     1
 66
     0
277
    -2
287
     1
 67
     0
278
    -2
288
     1
 68
     0
279
    -2
289
     1
 69
     0
  7
Standard
140
0.25
170
     5
 62
     0
 63
     7
283
     0
274
    -2
284
     1
 64
     0
275
    -2
285
     1
 65
     0
276
    -2
286
     1
 66
     0
277
    -2
287
     1
 67
     0
278
    -2
288
     1
 68
     0
279
    -2
289
     1
 69
     0
  7
Standard
140
0.18
170
     5
 62
     0
 63
     7
283
     0
274
    -2
284
     1
 64
     0
275
    -2
285
     1
 65
     0
276
    -2
286
     1
 66
     0
277
    -2
287
     1
 67
     0
278
    -2
288
     1
 68
     0
279
    -2
289
     1
 69
     0
  0
VISUALSTYLE
  5
2F
102
{ACAD_XDICTIONARY
360
8F8
102
}
102
{ACAD_REACTORS
330
29
102
}
330
29
100
AcDbVisualStyle
  2
2dWireframe
 70
     4
 71
     0
 72
     2
 73
     0
 90
        0
 40
-0.6
 41
-30.0
 62
     5
 63
     7
421
 16777215
 74
     1
 91
        4
 64
     7
 65
   257
 75
     1
175
     1
 42
1.0
 92
        0
 66
   257
 43
1.0
 76
     1
 77
     6
 78
     2
 67
     7
 79
     5
170
     0
171
     0
290
     0
174
     0
 93
        1
 44
0.0
173
     0
291
     0
 45
0.0
1001
ACAD
1000
AcDbSavedByObjectVersion
1070
     0
  0
VISUALSTYLE
  5
94B
102
{ACAD_XDICTIONARY
360
D54
102
}
102
{ACAD_REACTORS
330
29
102
}
330
29
100
AcDbVisualStyle
  2
3D Hidden
 70
     6
 71
     1
 72
     2
 73
     2
 90
        0
 40
-0.6
 41
-30.0
 62
     5
 63
     7
421
 16777215
 74
     2
 91
        2
 64
     7
 65
   257
 75
     2
175
     1
 42
179.0
 92
        0
 66
   257
 43
1.0
 76
     1
 77
     6
 78
     2
 67
     7
 79
     3
170
     0
171
     0
290
     0
174
     0
 93
        1
 44
0.0
173
     0
291
     0
 45
0.0
1001
ACAD
1000
AcDbSavedByObjectVersion
1070
     0
  0
VISUALSTYLE
  5
94A
102
{ACAD_XDICTIONARY
360
D52
102
}
102
{ACAD_REACTORS
330
29
102
}
330
29
100
AcDbVisualStyle
  2
3dWireframe
 70
     5
 71
     0
 72
     2
 73
     0
 90
        0
 40
-0.6
 41
-30.0
 62
     5
 63
     7
421
 16777215
 74
     1
 91
        4
 64
     7
 65
   257
 75
     1
175
     1
 42
1.0
 92
        0
 66
   257
 43
1.0
 76
     1
 77
     6
 78
     2
 67
     7
 79
     5
170
     0
171
     0
290
     0
174
     0
 93
        1
 44
0.0
173
     0
291
     0
 45
0.0
1001
ACAD
1000
AcDbSavedByObjectVersion
1070
     0
  0
VISUALSTYLE
  5
2E
102
{ACAD_XDICTIONARY
360
8F6
102
}
102
{ACAD_REACTORS
330
29
102
}
330
29
100
AcDbVisualStyle
  2
Basic
 70
     7
 71
     1
 72
     0
 73
     1
 90
        0
 40
-0.6
 41
-30.0
 62
     5
 63
     7
421
 16777215
 74
     0
 91
        4
 64
     7
 65
   257
 75
     1
175
     1
 42
1.0
 92
        8
 66
     7
 43
1.0
 76
     1
 77
     6
 78
     2
 67
     7
 79
     5
170
     0
171
     0
290
     0
174
     0
 93
        1
 44
0.0
173
     0
291
     1
 45
0.0
1001
ACAD
1000
AcDbSavedByObjectVersion
1070
     0
  0
VISUALSTYLE
  5
35
102
{ACAD_XDICTIONARY
360
904
102
}
102
{ACAD_REACTORS
330
29
102
}
330
29
100
AcDbVisualStyle
  2
Brighten
 70
    12
 71
     2
 72
     2
 73
     0
 90
        0
 40
-0.6
 41
-30.0
 62
     5
 63
     7
421
 16777215
 74
     1
 91
        4
 64
     7
 65
   257
 75
     1
175
     1
 42
1.0
 92
        8
 66
     7
 43
1.0
 76
     1
 77
     6
 78
     2
 67
     7
 79
     5
170
     0
171
     0
290
     0
174
     0
 93
        1
 44
50.0
173
     0
291
     1
 45
0.0
1001
ACAD
1000
AcDbSavedByObjectVersion
1070
     0
  0
VISUALSTYLE
  5
39
102
{ACAD_XDICTIONARY
360
90C
102
}
102
{ACAD_REACTORS
330
29
102
}
330
29
100
AcDbVisualStyle
  2
ColorChange
 70
    16
 71
     2
 72
     2
 73
     3
 90
        0
 40
-0.6
 41
-30.0
 62
     5
 63
     8
421
  8421504
 74
     1
 91
        4
 64
     7
 65
   257
 75
     1
175
     1
 42
1.0
 92
        8
 66
     8
424
  8421504
 43
1.0
 76
     1
 77
     6
 78
     2
 67
     7
 79
     5
170
     0
171
     0
290
     0
174
     0
 93
        1
 44
0.0
173
     0
291
     1
 45
0.0
1001
ACAD
1000
AcDbSavedByObjectVersion
1070
     0
  0
VISUALSTYLE
  5
32
102
{ACAD_XDICTIONARY
360
8FE
102
}
102
{ACAD_REACTORS
330
29
102
}
330
29
100
AcDbVisualStyle
  2
Conceptual
 70
     9
 71
     3
 72
     2
 73
     0
 90
        0
 40
-0.6
 41
-30.0
 62
     5
 63
     7
421
 16777215
 74
     2
 91
        2
 64
     7
 65
   257
 75
     1
175
     1
 42
179.0
 92
        8
 66
     7
 43
1.0
 76
     1
 77
     6
 78
     2
 67
     7
 79
     3
170
     0
171
     0
290
     0
174
     0
 93
        1
 44
0.0
173
     0
291
     0
 45
0.0
1001
ACAD
1000
AcDbSavedByObjectVersion
1070
     0
  0
VISUALSTYLE
  5
34
102
{ACAD_XDICTIONARY
360
902
102
}
102
{ACAD_REACTORS
330
29
102
}
330
29
100
AcDbVisualStyle
  2
Dim
 70
    11
 71
     2
 72
     2
 73
     0
 90
        0
 40
-0.6
 41
-30.0
 62
     5
 63
     7
421
 16777215
 74
     1
 91
        4
 64
     7
 65
   257
 75
     1
175
     1
 42
1.0
 92
        8
 66
     7
 43
1.0
 76
     1
 77
     6
 78
     2
 67
     7
 79
     5
170
     0
171
     0
290
     0
174
     0
 93
        1
 44
-50.0
173
     0
291
     1
 45
0.0
1001
ACAD
1000
AcDbSavedByObjectVersion
1070
     0
  0
VISUALSTYLE
  5
41
102
{ACAD_XDICTIONARY
360
91C
102
}
102
{ACAD_REACTORS
330
29
102
}
330
29
100
AcDbVisualStyle
  2
EdgeColorOff
 70
    22
 71
     2
 72
     2
 73
     0
 90
        0
 40
-0.6
 41
-30.0
 62
     5
 63
     7
421
 16777215
 74
     1
 91
        4
 64
     7
 65
   257
 75
     1
175
     1
 42
1.0
 92
        8
 66
     7
 43
1.0
 76
     1
 77
     6
 78
     2
 67
     7
 79
     5
170
     0
171
     0
290
     0
174
     0
 93
        1
 44
0.0
173
     0
291
     1
 45
0.0
1001
ACAD
1000
AcDbSavedByObjectVersion
1070
     0
  0
VISUALSTYLE
  5
38
102
{ACAD_XDICTIONARY
360
90A
102
}
102
{ACAD_REACTORS
330
29
102
}
330
29
100
AcDbVisualStyle
  2
Facepattern
 70
    15
 71
     2
 72
     2
 73
     0
 90
        0
 40
-0.6
 41
-30.0
 62
     5
 63
     7
421
 16777215
 74
     1
 91
        4
 64
     7
 65
   257
 75
     1
175
     1
 42
1.0
 92
        8
 66
     7
 43
1.0
 76
     1
 77
     6
 78
     2
 67
     7
 79
     5
170
     0
171
     0
290
     0
174
     0
 93
        1
 44
0.0
173
     0
291
     1
 45
0.0
1001
ACAD
1000
AcDbSavedByObjectVersion
1070
     0
  0
VISUALSTYLE
  5
2A
102
{ACAD_XDICTIONARY
360
8EE
102
}
102
{ACAD_REACTORS
330
29
102
}
330
29
100
AcDbVisualStyle
  2
Flat
 70
     0
 71
     2
 72
     1
 73
     1
 90
        2
 40
-0.6
 41
30.0
 62
     5
 63
     7
421
 16777215
 74
     0
 91
        0
 64
     7
 65
   257
 75
     1
175
     1
 42
1.0
 92
        8
 66
     7
 43
1.0
 76
     1
 77
     6
 78
     2
 67
     7
 79
     5
170
     0
171
     0
290
     0
174
     0
 93
       13
 44
0.0
173
     0
291
     1
 45
0.0
1001
ACAD
1000
AcDbSavedByObjectVersion
1070
     0
  0
VISUALSTYLE
  5
2B
102
{ACAD_XDICTIONARY
360
8F0
102
}
102
{ACAD_REACTORS
330
29
102
}
330
29
100
AcDbVisualStyle
  2
FlatWithEdges
 70
     1
 71
     2
 72
     1
 73
     1
 90
        2
 40
-0.6
 41
30.0
 62
     5
 63
     7
421
 16777215
 74
     1
 91
        0
 64
     7
 65
   257
 75
     1
175
     1
 42
1.0
 92
        0
 66
   257
 43
1.0
 76
     1
 77
     6
 78
     2
 67
     7
 79
     5
170
     0
171
     0
290
     0
174
     0
 93
       13
 44
0.0
173
     0
291
     1
 45
0.0
1001
ACAD
1000
AcDbSavedByObjectVersion
1070
     0
  0
VISUALSTYLE
  5
2C
102
{ACAD_XDICTIONARY
360
8F2
102
}
102
{ACAD_REACTORS
330
29
102
}
330
29
100
AcDbVisualStyle
  2
Gouraud
 70
     2
 71
     2
 72
     2
 73
     1
 90
        2
 40
-0.6
 41
30.0
 62
     5
 63
     7
421
 16777215
 74
     0
 91
        0
 64
     7
 65
   257
 75
     1
175
     1
 42
1.0
 92
        0
 66
     7
 43
1.0
 76
     1
 77
     6
 78
     2
 67
     7
 79
     5
170
     0
171
     0
290
     0
174
     0
 93
       13
 44
0.0
173
     0
291
     1
 45
0.0
1001
ACAD
1000
AcDbSavedByObjectVersion
1070
     0
  0
VISUALSTYLE
  5
2D
102
{ACAD_XDICTIONARY
360
8F4
102
}
102
{ACAD_REACTORS
330
29
102
}
330
29
100
AcDbVisualStyle
  2
GouraudWithEdges
 70
     3
 71
     2
 72
     2
 73
     1
 90
        2
 40
-0.6
 41
30.0
 62
     5
 63
     7
421
 16777215
 74
     1
 91
        0
 64
     7
 65
   257
 75
     1
175
     1
 42
1.0
 92
        0
 66
   257
 43
1.0
 76
     1
 77
     6
 78
     2
 67
     7
 79
     5
170
     0
171
     0
290
     0
174
     0
 93
       13
 44
0.0
173
     0
291
     1
 45
0.0
1001
ACAD
1000
AcDbSavedByObjectVersion
1070
     0
  0
VISUALSTYLE
  5
31
102
{ACAD_XDICTIONARY
360
8FC
102
}
102
{ACAD_REACTORS
330
29
102
}
330
29
100
AcDbVisualStyle
  2
Hidden
 70
     6
 71
     1
 72
     2
 73
     2
 90
        0
 40
-0.6
 41
-30.0
 62
     5
 63
     7
421
 16777215
 74
     2
 91
        2
 64
     7
 65
   257
 75
     2
175
     1
 42
40.0
 92
        0
 66
   257
 43
1.0
 76
     1
 77
     6
 78
     2
 67
     7
 79
     3
170
     0
171
     0
290
     0
174
     0
 93
        1
 44
0.0
173
     0
291
     0
 45
0.0
1001
ACAD
1000
AcDbSavedByObjectVersion
1070
     0
  0
VISUALSTYLE
  5
3F
102
{ACAD_XDICTIONARY
360
918
102
}
102
{ACAD_REACTORS
330
29
102
}
330
29
100
AcDbVisualStyle
  2
JitterOff
 70
    20
 71
     2
 72
     2
 73
     0
 90
        0
 40
-0.6
 41
-30.0
 62
     5
 63
     7
421
 16777215
 74
     1
 91
        4
 64
     7
 65
   257
 75
     1
175
     1
 42
1.0
 92
       10
 66
     7
 43
1.0
 76
     1
 77
     6
 78
     2
 67
     7
 79
     5
170
     0
171
     0
290
     0
174
     0
 93
        1
 44
0.0
173
     0
291
     1
 45
0.0
1001
ACAD
1000
AcDbSavedByObjectVersion
1070
     0
  0
VISUALSTYLE
  5
37
102
{ACAD_XDICTIONARY
360
908
102
}
102
{ACAD_REACTORS
330
29
102
}
330
29
100
AcDbVisualStyle
  2
Linepattern
 70
    14
 71
     2
 72
     2
 73
     0
 90
        0
 40
-0.6
 41
-30.0
 62
     5
 63
     7
421
 16777215
 74
     1
 91
        4
 64
     7
 65
   257
 75
     7
175
     7
 42
1.0
 92
        8
 66
     7
 43
1.0
 76
     1
 77
     6
 78
     2
 67
     7
 79
     5
170
     0
171
     0
290
     0
174
     0
 93
        1
 44
0.0
173
     0
291
     1
 45
0.0
1001
ACAD
1000
AcDbSavedByObjectVersion
1070
     0
  0
VISUALSTYLE
  5
40
102
{ACAD_XDICTIONARY
360
91A
102
}
102
{ACAD_REACTORS
330
29
102
}
330
29
100
AcDbVisualStyle
  2
OverhangOff
 70
    21
 71
     2
 72
     2
 73
     0
 90
        0
 40
-0.6
 41
-30.0
 62
     5
 63
     7
421
 16777215
 74
     1
 91
        4
 64
     7
 65
   257
 75
     1
175
     1
 42
1.0
 92
        9
 66
     7
 43
1.0
 76
     1
 77
     6
 78
     2
 67
     7
 79
     5
170
     0
171
     0
290
     0
174
     0
 93
        1
 44
0.0
173
     0
291
     1
 45
0.0
1001
ACAD
1000
AcDbSavedByObjectVersion
1070
     0
  0
VISUALSTYLE
  5
33
102
{ACAD_XDICTIONARY
360
900
102
}
102
{ACAD_REACTORS
330
29
102
}
330
29
100
AcDbVisualStyle
  2
Realistic
 70
     8
 71
     2
 72
     2
 73
     0
 90
        2
 40
-0.6
 41
30.0
 62
     5
 63
     7
421
 16777215
 74
     0
 91
        0
 64
     7
 65
   257
 75
     1
175
     1
 42
1.0
 92
        8
 66
   257
 43
1.0
 76
     1
 77
     6
 78
     2
 67
     7
 79
     3
170
     0
171
     0
290
     0
174
     0
 93
       13
 44
0.0
173
     0
291
     0
 45
0.0
1001
ACAD
1000
AcDbSavedByObjectVersion
1070
     0
  0
VISUALSTYLE
  5
3E
102
{ACAD_XDICTIONARY
360
916
102
}
102
{ACAD_REACTORS
330
29
102
}
330
29
100
AcDbVisualStyle
  2
Shaded
 70
    27
 71
     2
 72
     2
 73
     1
 90
        2
 40
-0.6
 41
30.0
 62
     5
 63
     7
421
 16777215
 74
     0
 91
        4
 64
     7
 65
   257
 75
     1
175
     1
 42
1.0
 92
        8
 66
   257
 43
1.0
 76
     1
 77
     6
 78
     2
 67
     8
425
  7895160
 79
     3
170
     0
171
     0
290
     0
174
     0
 93
        5
 44
0.0
173
     0
291
     0
 45
0.0
1001
ACAD
1000
AcDbSavedByObjectVersion
1070
     0
  0
VISUALSTYLE
  5
3D
102
{ACAD_XDICTIONARY
360
914
102
}
102
{ACAD_REACTORS
330
29
102
}
330
29
100
AcDbVisualStyle
  2
Shaded with edges
 70
    26
 71
     2
 72
     2
 73
     1
 90
        2
 40
-0.6
 41
30.0
 62
     5
 63
     7
421
 16777215
 74
     1
 91
       10
 64
     7
 65
   257
 75
     2
175
     1
 42
1.0
 92
        8
 66
   257
 43
1.0
 76
     1
 77
     6
 78
     2
 67
     7
 79
     3
170
     0
171
     0
290
     0
174
     0
 93
        5
 44
0.0
173
     0
291
     0
 45
0.0
1001
ACAD
1000
AcDbSavedByObjectVersion
1070
     0
  0
VISUALSTYLE
  5
3A
102
{ACAD_XDICTIONARY
360
90E
102
}
102
{ACAD_REACTORS
330
29
102
}
330
29
100
AcDbVisualStyle
  2
Shades of Gray
 70
    23
 71
     2
 72
     2
 73
     3
 90
        0
 40
-0.6
 41
-30.0
 62
     5
 63
     7
421
 16777215
 74
     2
 91
        2
 64
     7
 65
     7
 75
     1
175
     1
 42
40.0
 92
        8
 66
     7
 43
1.0
 76
     1
 77
     6
 78
     2
 67
     7
 79
     3
170
     0
171
     0
290
     0
174
     0
 93
        1
 44
0.0
173
     0
291
     0
 45
0.0
1001
ACAD
1000
AcDbSavedByObjectVersion
1070
     0
  0
VISUALSTYLE
  5
3B
102
{ACAD_XDICTIONARY
360
910
102
}
102
{ACAD_REACTORS
330
29
102
}
330
29
100
AcDbVisualStyle
  2
Sketchy
 70
    24
 71
     1
 72
     2
 73
     2
 90
        0
 40
-0.6
 41
-30.0
 62
     5
 63
     7
421
 16777215
 74
     2
 91
        2
 64
     7
 65
     7
 75
     1
175
     1
 42
40.0
 92
       11
 66
     7
 43
1.0
 76
     1
 77
     6
 78
     2
 67
     7
 79
     6
170
     0
171
     0
290
     0
174
     0
 93
        1
 44
0.0
173
     0
291
     0
 45
0.0
1001
ACAD
1000
AcDbSavedByObjectVersion
1070
     0
  0
VISUALSTYLE
  5
36
102
{ACAD_XDICTIONARY
360
906
102
}
102
{ACAD_REACTORS
330
29
102
}
330
29
100
AcDbVisualStyle
  2
Thicken
 70
    13
 71
     2
 72
     2
 73
     0
 90
        0
 40
-0.6
 41
-30.0
 62
     5
 63
     7
421
 16777215
 74
     1
 91
        4
 64
     7
 65
   257
 75
     1
175
     1
 42
1.0
 92
       12
 66
     7
 43
1.0
 76
     1
 77
     6
 78
     2
 67
     7
 79
     5
170
     0
171
     0
290
     0
174
     0
 93
        1
 44
0.0
173
     0
291
     1
 45
0.0
1001
ACAD
1000
AcDbSavedByObjectVersion
1070
     0
  0
VISUALSTYLE
  5
30
102
{ACAD_XDICTIONARY
360
8FA
102
}
102
{ACAD_REACTORS
330
29
102
}
330
29
100
AcDbVisualStyle
  2
Wireframe
 70
     5
 71
     0
 72
     2
 73
     0
 90
        0
 40
-0.6
 41
-30.0
 62
     5
 63
     7
421
 16777215
 74
     1
 91
        4
 64
     7
 65
   257
 75
     1
175
     1
 42
1.0
 92
        0
 66
   257
 43
1.0
 76
     1
 77
     6
 78
     2
 67
     7
 79
     3
170
     0
171
     0
290
     0
174
     0
 93
        1
 44
0.0
173
     0
291
     0
 45
0.0
1001
ACAD
1000
AcDbSavedByObjectVersion
1070
     0
  0
VISUALSTYLE
  5
3C
102
{ACAD_XDICTIONARY
360
912
102
}
102
{ACAD_REACTORS
330
29
102
}
330
29
100
AcDbVisualStyle
  2
X-Ray
 70
    25
 71
     2
 72
     2
 73
     1
 90
        1
 40
0.5
 41
-30.0
 62
     5
 63
     7
421
 16777215
 74
     1
 91
        0
 64
     7
 65
   257
 75
     1
175
     1
 42
1.0
 92
        8
 66
     7
 43
1.0
 76
     1
 77
     6
 78
     2
 67
     7
 79
     3
170
     0
171
     0
290
     0
174
     0
 93
       13
 44
0.0
173
     0
291
     0
 45
0.0
1001
ACAD
1000
AcDbSavedByObjectVersion
1070
     0
  0
DICTIONARYVAR
  5
944
102
{ACAD_REACTORS
330
940
102
}
330
940
100
DictionaryVariables
280
     0
  1
1:1
  0
DICTIONARYVAR
  5
942
102
{ACAD_REACTORS
330
940
102
}
330
940
100
DictionaryVariables
280
     0
  1
STANDARD
  0
DICTIONARYVAR
  5
941
102
{ACAD_REACTORS
330
940
102
}
330
940
100
DictionaryVariables
280
     0
  1
STANDARD
  0
DICTIONARYVAR
  5
946
102
{ACAD_REACTORS
330
940
102
}
330
940
100
DictionaryVariables
280
     0
  1
0
  0
DICTIONARYVAR
  5
947
102
{ACAD_REACTORS
330
940
102
}
330
940
100
DictionaryVariables
280
     0
  1
0
  0
DICTIONARYVAR
  5
945
102
{ACAD_REACTORS
330
940
102
}
330
940
100
DictionaryVariables
280
     0
  1
2
  0
DICTIONARYVAR
  5
943
102
{ACAD_REACTORS
330
940
102
}
330
940
100
DictionaryVariables
280
     0
  1
1
  0
DICTIONARYVAR
  5
D19
102
{ACAD_REACTORS
330
940
102
}
330
940
100
DictionaryVariables
280
     0
  1
2
  0
DICTIONARY
  5
9BB
102
{ACAD_REACTORS
330
9B1
102
}
330
9B1
100
AcDbDictionary
281
     1
  0
DICTIONARY
  5
1A
330
19
100
AcDbDictionary
280
     1
281
     1
  3
ACAD_XREC_ROUNDTRIP
360
D31
  3
BUMPTILE
360
1C
  3
DIFFUSETILE
360
1B
  3
OPACITYTILE
360
1F
  3
REFLECTIONTILE
360
1E
  3
REFRACTIONTILE
360
20
  3
SPECULARTILE
360
1D
  0
DICTIONARY
  5
12
330
11
100
AcDbDictionary
280
     1
281
     1
  3
ACAD_XREC_ROUNDTRIP
360
D30
  3
BUMPTILE
360
14
  3
DIFFUSETILE
360
13
  3
OPACITYTILE
360
17
  3
REFLECTIONTILE
360
16
  3
REFRACTIONTILE
360
18
  3
SPECULARTILE
360
15
  0
DICTIONARY
  5
22
330
21
100
AcDbDictionary
280
     1
281
     1
  3
ACAD_XREC_ROUNDTRIP
360
D32
  3
BUMPTILE
360
24
  3
DIFFUSETILE
360
23
  3
OPACITYTILE
360
27
  3
REFLECTIONTILE
360
26
  3
REFRACTIONTILE
360
28
  3
SPECULARTILE
360
25
  0
DICTIONARY
  5
8AE
330
65
100
AcDbDictionary
280
     1
281
     1
  3
ACAD_ROUNDTRIP_2008_TABLESTYLE_CELLSTYLEMAP
360
D1A
  3
ACAD_XREC_ROUNDTRIP
360
D33
  0
DICTIONARY
  5
8F8
330
2F
100
AcDbDictionary
280
     1
281
     1
  3
ACAD_XREC_ROUNDTRIP
360
8F9
  0
DICTIONARY
  5
D54
330
94B
100
AcDbDictionary
280
     1
281
     1
  3
ACAD_XREC_ROUNDTRIP
360
D55
  0
DICTIONARY
  5
D52
330
94A
100
AcDbDictionary
280
     1
281
     1
  3
ACAD_XREC_ROUNDTRIP
360
D53
  0
DICTIONARY
  5
8F6
330
2E
100
AcDbDictionary
280
     1
281
     1
  3
ACAD_XREC_ROUNDTRIP
360
8F7
  0
DICTIONARY
  5
904
330
35
100
AcDbDictionary
280
     1
281
     1
  3
ACAD_XREC_ROUNDTRIP
360
905
  0
DICTIONARY
  5
90C
330
39
100
AcDbDictionary
280
     1
281
     1
  3
ACAD_XREC_ROUNDTRIP
360
90D
  0
DICTIONARY
  5
8FE
330
32
100
AcDbDictionary
280
     1
281
     1
  3
ACAD_XREC_ROUNDTRIP
360
8FF
  0
DICTIONARY
  5
902
330
34
100
AcDbDictionary
280
     1
281
     1
  3
ACAD_XREC_ROUNDTRIP
360
903
  0
DICTIONARY
  5
91C
330
41
100
AcDbDictionary
280
     1
281
     1
  3
ACAD_XREC_ROUNDTRIP
360
91D
  0
DICTIONARY
  5
90A
330
38
100
AcDbDictionary
280
     1
281
     1
  3
ACAD_XREC_ROUNDTRIP
360
90B
  0
DICTIONARY
  5
8EE
330
2A
100
AcDbDictionary
280
     1
281
     1
  3
ACAD_XREC_ROUNDTRIP
360
8EF
  0
DICTIONARY
  5
8F0
330
2B
100
AcDbDictionary
280
     1
281
     1
  3
ACAD_XREC_ROUNDTRIP
360
8F1
  0
DICTIONARY
  5
8F2
330
2C
100
AcDbDictionary
280
     1
281
     1
  3
ACAD_XREC_ROUNDTRIP
360
8F3
  0
DICTIONARY
  5
8F4
330
2D
100
AcDbDictionary
280
     1
281
     1
  3
ACAD_XREC_ROUNDTRIP
360
8F5
  0
DICTIONARY
  5
8FC
330
31
100
AcDbDictionary
280
     1
281
     1
  3
ACAD_XREC_ROUNDTRIP
360
8FD
  0
DICTIONARY
  5
918
330
3F
100
AcDbDictionary
280
     1
281
     1
  3
ACAD_XREC_ROUNDTRIP
360
919
  0
DICTIONARY
  5
908
330
37
100
AcDbDictionary
280
     1
281
     1
  3
ACAD_XREC_ROUNDTRIP
360
909
  0
DICTIONARY
  5
91A
330
40
100
AcDbDictionary
280
     1
281
     1
  3
ACAD_XREC_ROUNDTRIP
360
91B
  0
DICTIONARY
  5
900
330
33
100
AcDbDictionary
280
     1
281
     1
  3
ACAD_XREC_ROUNDTRIP
360
901
  0
DICTIONARY
  5
916
330
3E
100
AcDbDictionary
280
     1
281
     1
  3
ACAD_XREC_ROUNDTRIP
360
917
  0
DICTIONARY
  5
914
330
3D
100
AcDbDictionary
280
     1
281
     1
  3
ACAD_XREC_ROUNDTRIP
360
915
  0
DICTIONARY
  5
90E
330
3A
100
AcDbDictionary
280
     1
281
     1
  3
ACAD_XREC_ROUNDTRIP
360
90F
  0
DICTIONARY
  5
910
330
3B
100
AcDbDictionary
280
     1
281
     1
  3
ACAD_XREC_ROUNDTRIP
360
911
  0
DICTIONARY
  5
906
330
36
100
AcDbDictionary
280
     1
281
     1
  3
ACAD_XREC_ROUNDTRIP
360
907
  0
DICTIONARY
  5
8FA
330
30
100
AcDbDictionary
280
     1
281
     1
  3
ACAD_XREC_ROUNDTRIP
360
8FB
  0
DICTIONARY
  5
912
330
3C
100
AcDbDictionary
280
     1
281
     1
  3
ACAD_XREC_ROUNDTRIP
360
913
  0
XRECORD
  5
D31
102
{ACAD_REACTORS
330
1A
102
}
330
1A
100
AcDbXrecord
280
     1
102
MATERIAL
148
0.0
149
0.0
149
0.0
 93
        0
 94
      127
282
     0
 72
     0
 77
     0
171
     0
175
     0
179
     0
273
     0
  0
XRECORD
  5
1C
102
{ACAD_REACTORS
330
1A
102
}
330
1A
100
AcDbXrecord
280
     1
270
     1
271
     1
  0
XRECORD
  5
1B
102
{ACAD_REACTORS
330
1A
102
}
330
1A
100
AcDbXrecord
280
     1
270
     1
271
     1
  0
XRECORD
  5
1F
102
{ACAD_REACTORS
330
1A
102
}
330
1A
100
AcDbXrecord
280
     1
270
     1
271
     1
  0
XRECORD
  5
1E
102
{ACAD_REACTORS
330
1A
102
}
330
1A
100
AcDbXrecord
280
     1
270
     1
271
     1
  0
XRECORD
  5
20
102
{ACAD_REACTORS
330
1A
102
}
330
1A
100
AcDbXrecord
280
     1
270
     1
271
     1
  0
XRECORD
  5
1D
102
{ACAD_REACTORS
330
1A
102
}
330
1A
100
AcDbXrecord
280
     1
270
     1
271
     1
  0
XRECORD
  5
D30
102
{ACAD_REACTORS
330
12
102
}
330
12
100
AcDbXrecord
280
     1
102
MATERIAL
148
0.0
149
0.0
149
0.0
 93
        0
 94
      127
282
     0
 72
     0
 77
     0
171
     0
175
     0
179
     0
273
     0
  0
XRECORD
  5
14
102
{ACAD_REACTORS
330
12
102
}
330
12
100
AcDbXrecord
280
     1
270
     1
271
     1
  0
XRECORD
  5
13
102
{ACAD_REACTORS
330
12
102
}
330
12
100
AcDbXrecord
280
     1
270
     1
271
     1
  0
XRECORD
  5
17
102
{ACAD_REACTORS
330
12
102
}
330
12
100
AcDbXrecord
280
     1
270
     1
271
     1
  0
XRECORD
  5
16
102
{ACAD_REACTORS
330
12
102
}
330
12
100
AcDbXrecord
280
     1
270
     1
271
     1
  0
XRECORD
  5
18
102
{ACAD_REACTORS
330
12
102
}
330
12
100
AcDbXrecord
280
     1
270
     1
271
     1
  0
XRECORD
  5
15
102
{ACAD_REACTORS
330
12
102
}
330
12
100
AcDbXrecord
280
     1
270
     1
271
     1
  0
XRECORD
  5
D32
102
{ACAD_REACTORS
330
22
102
}
330
22
100
AcDbXrecord
280
     1
102
MATERIAL
148
0.0
149
0.0
149
0.0
 93
        0
 94
      127
282
     0
 72
     0
 77
     0
171
     0
175
     0
179
     0
273
     0
  0
XRECORD
  5
24
102
{ACAD_REACTORS
330
22
102
}
330
22
100
AcDbXrecord
280
     1
270
     1
271
     1
  0
XRECORD
  5
23
102
{ACAD_REACTORS
330
22
102
}
330
22
100
AcDbXrecord
280
     1
270
     1
271
     1
  0
XRECORD
  5
27
102
{ACAD_REACTORS
330
22
102
}
330
22
100
AcDbXrecord
280
     1
270
     1
271
     1
  0
XRECORD
  5
26
102
{ACAD_REACTORS
330
22
102
}
330
22
100
AcDbXrecord
280
     1
270
     1
271
     1
  0
XRECORD
  5
28
102
{ACAD_REACTORS
330
22
102
}
330
22
100
AcDbXrecord
280
     1
270
     1
271
     1
  0
XRECORD
  5
25
102
{ACAD_REACTORS
330
22
102
}
330
22
100
AcDbXrecord
280
     1
270
     1
271
     1
  0
CELLSTYLEMAP
  5
D1A
102
{ACAD_REACTORS
330
8AE
102
}
330
8AE
100
AcDbCellStyleMap
 90
        3
300
CELLSTYLE
  1
TABLEFORMAT_BEGIN
 90
        5
170
     1
 91
        0
 92
    32768
 62
   257
 93
        1
300
CONTENTFORMAT
  1
CONTENTFORMAT_BEGIN
 90
        0
 91
        0
 92
      512
 93
        0
300

 40
0.0
140
1.0
 94
        5
 62
     0
340
55
144
0.25
309
CONTENTFORMAT_END
171
     0
 94
        0
309
TABLEFORMAT_END
  1
CELLSTYLE_BEGIN
 90
        1
 91
        1
300
_TITLE
309
CELLSTYLE_END
300
CELLSTYLE
  1
TABLEFORMAT_BEGIN
 90
        5
170
     1
 91
        0
 92
        0
 62
   257
 93
        1
300
CONTENTFORMAT
  1
CONTENTFORMAT_BEGIN
 90
        0
 91
        0
 92
      512
 93
        0
300

 40
0.0
140
1.0
 94
        5
 62
     0
340
55
144
0.18
309
CONTENTFORMAT_END
171
     0
 94
        0
309
TABLEFORMAT_END
  1
CELLSTYLE_BEGIN
 90
        2
 91
        1
300
_HEADER
309
CELLSTYLE_END
300
CELLSTYLE
  1
TABLEFORMAT_BEGIN
 90
        5
170
     1
 91
        0
 92
        0
 62
   257
 93
        1
300
CONTENTFORMAT
  1
CONTENTFORMAT_BEGIN
 90
        0
 91
        0
 92
      512
 93
        0
300

 40
0.0
140
1.0
 94
        2
 62
     0
340
55
144
0.18
309
CONTENTFORMAT_END
171
     0
 94
        0
309
TABLEFORMAT_END
  1
CELLSTYLE_BEGIN
 90
        3
 91
        2
300
_DATA
309
CELLSTYLE_END
  0
XRECORD
  5
D33
102
{ACAD_REACTORS
330
8AE
102
}
330
8AE
100
AcDbXrecord
280
     1
102
ACAD_ROUNDTRIP_PRE2007_TABLESTYLE
 90
      512
 91
        0
  1

 92
      512
 93
        0
  2

 94
      512
 95
        0
  3

  0
XRECORD
  5
8F9
102
{ACAD_REACTORS
330
8F8
102
}
330
8F8
100
AcDbXrecord
280
     1
102
RTVSPropertyOp28
 70
     1
102
RTVSPropertyOp29
 70
     1
102
RTVSPropertyOp30
 70
     1
102
RTVSPropertyOp31
 70
     1
102
RTVSPropertyOp32
 70
     1
102
RTVSPropertyOp0
 70
     1
102
RTVSPropertyOp1
 70
     1
102
RTVSPropertyOp2
 70
     1
102
RTVSPropertyOp3
 70
     1
102
RTVSPropertyOp4
 70
     1
102
RTVSPropertyOp5
 70
     1
102
RTVSPropertyOp6
 70
     1
102
RTVSPropertyOp7
 70
     1
102
RTVSPropertyOp8
 70
     1
102
RTVSPropertyOp9
 70
     1
102
RTVSPropertyOp10
 70
     1
102
RTVSPropertyOp11
 70
     1
102
RTVSPropertyOp12
 70
     1
102
RTVSPropertyOp13
 70
     1
102
RTVSPropertyOp14
 70
     1
102
RTVSPropertyOp15
 70
     1
102
RTVSPropertyOp16
 70
     1
102
RTVSPropertyOp17
 70
     1
102
RTVSPropertyOp18
 70
     1
102
RTVSPropertyOp19
 70
     1
102
RTVSPropertyOp20
 70
     1
102
RTVSPropertyOp21
 70
     1
102
RTVSPropertyOp22
 70
     1
102
RTVSPropertyOp23
 70
     1
102
RTVSPropertyOp24
 70
     1
102
RTVSPropertyOp25
 70
     1
102
RTVSPropertyOp26
 70
     1
102
RTVSPropertyOp27
 70
     1
  0
XRECORD
  5
D55
102
{ACAD_REACTORS
330
D54
102
}
330
D54
100
AcDbXrecord
280
     1
102
RTVSPropertyOp0
 70
     1
102
RTVSPropertyOp1
 70
     1
102
RTVSPropertyOp2
 70
     1
102
RTVSPropertyOp3
 70
     1
102
RTVSPropertyOp4
 70
     1
102
RTVSPropertyOp5
 70
     1
102
RTVSPropertyOp6
 70
     1
102
RTVSPropertyOp7
 70
     1
102
RTVSPropertyOp8
 70
     1
102
RTVSPropertyOp9
 70
     1
102
RTVSPropertyOp10
 70
     1
102
RTVSPropertyOp11
 70
     1
102
RTVSPropertyOp12
 70
     1
102
RTVSPropertyOp13
 70
     1
102
RTVSPropertyOp14
 70
     1
102
RTVSPropertyOp15
 70
     1
102
RTVSPropertyOp16
 70
     1
102
RTVSPropertyOp17
 70
     1
102
RTVSPropertyOp18
 70
     1
102
RTVSPropertyOp19
 70
     1
102
RTVSPropertyOp20
 70
     1
102
RTVSPropertyOp21
 70
     1
102
RTVSPropertyOp22
 70
     1
102
RTVSPropertyOp23
 70
     1
102
RTVSPropertyOp24
 70
     1
102
RTVSPropertyOp25
 70
     1
102
RTVSPropertyOp26
 70
     1
102
RTVSPropertyOp27
 70
     1
  0
XRECORD
  5
D53
102
{ACAD_REACTORS
330
D52
102
}
330
D52
100
AcDbXrecord
280
     1
102
RTVSPropertyOp0
 70
     1
102
RTVSPropertyOp1
 70
     1
102
RTVSPropertyOp2
 70
     1
102
RTVSPropertyOp3
 70
     1
102
RTVSPropertyOp4
 70
     1
102
RTVSPropertyOp5
 70
     1
102
RTVSPropertyOp6
 70
     1
102
RTVSPropertyOp7
 70
     1
102
RTVSPropertyOp8
 70
     1
102
RTVSPropertyOp9
 70
     1
102
RTVSPropertyOp10
 70
     1
102
RTVSPropertyOp11
 70
     1
102
RTVSPropertyOp12
 70
     1
102
RTVSPropertyOp13
 70
     1
102
RTVSPropertyOp14
 70
     1
102
RTVSPropertyOp15
 70
     1
102
RTVSPropertyOp16
 70
     1
102
RTVSPropertyOp17
 70
     1
102
RTVSPropertyOp18
 70
     1
102
RTVSPropertyOp19
 70
     1
102
RTVSPropertyOp20
 70
     1
102
RTVSPropertyOp21
 70
     1
102
RTVSPropertyOp22
 70
     1
102
RTVSPropertyOp23
 70
     1
102
RTVSPropertyOp24
 70
     1
102
RTVSPropertyOp25
 70
     1
102
RTVSPropertyOp26
 70
     1
102
RTVSPropertyOp27
 70
     1
  0
XRECORD
  5
8F7
102
{ACAD_REACTORS
330
8F6
102
}
330
8F6
100
AcDbXrecord
280
     1
102
RTVSPropertyOp28
 70
     1
102
RTVSPropertyOp29
 70
     1
102
RTVSPropertyOp30
 70
     1
102
RTVSPropertyOp31
 70
     1
102
RTVSPropertyOp32
 70
     1
102
RTVSPropertyOp0
 70
     1
102
RTVSPropertyOp1
 70
     1
102
RTVSPropertyOp2
 70
     1
102
RTVSPropertyOp3
 70
     1
102
RTVSPropertyOp4
 70
     1
102
RTVSPropertyOp5
 70
     1
102
RTVSPropertyOp6
 70
     1
102
RTVSPropertyOp7
 70
     1
102
RTVSPropertyOp8
 70
     1
102
RTVSPropertyOp9
 70
     1
102
RTVSPropertyOp10
 70
     1
102
RTVSPropertyOp11
 70
     1
102
RTVSPropertyOp12
 70
     1
102
RTVSPropertyOp13
 70
     1
102
RTVSPropertyOp14
 70
     1
102
RTVSPropertyOp15
 70
     1
102
RTVSPropertyOp16
 70
     1
102
RTVSPropertyOp17
 70
     1
102
RTVSPropertyOp18
 70
     1
102
RTVSPropertyOp19
 70
     1
102
RTVSPropertyOp20
 70
     1
102
RTVSPropertyOp21
 70
     1
102
RTVSPropertyOp22
 70
     1
102
RTVSPropertyOp23
 70
     1
102
RTVSPropertyOp24
 70
     1
102
RTVSPropertyOp25
 70
     1
102
RTVSPropertyOp26
 70
     1
102
RTVSPropertyOp27
 70
     1
  0
XRECORD
  5
905
102
{ACAD_REACTORS
330
904
102
}
330
904
100
AcDbXrecord
280
     1
102
RTVSPropertyOp28
 70
     1
102
RTVSPropertyOp29
 70
     1
102
RTVSPropertyOp30
 70
     1
102
RTVSPropertyOp31
 70
     1
102
RTVSPropertyOp32
 70
     1
102
RTVSPropertyOp0
 70
     1
102
RTVSPropertyOp1
 70
     1
102
RTVSPropertyOp2
 70
     1
102
RTVSPropertyOp3
 70
     1
102
RTVSPropertyOp4
 70
     1
102
RTVSPropertyOp5
 70
     1
102
RTVSPropertyOp6
 70
     1
102
RTVSPropertyOp7
 70
     1
102
RTVSPropertyOp8
 70
     1
102
RTVSPropertyOp9
 70
     1
102
RTVSPropertyOp10
 70
     1
102
RTVSPropertyOp11
 70
     1
102
RTVSPropertyOp12
 70
     1
102
RTVSPropertyOp13
 70
     1
102
RTVSPropertyOp14
 70
     1
102
RTVSPropertyOp15
 70
     1
102
RTVSPropertyOp16
 70
     1
102
RTVSPropertyOp17
 70
     1
102
RTVSPropertyOp18
 70
     1
102
RTVSPropertyOp19
 70
     1
102
RTVSPropertyOp20
 70
     1
102
RTVSPropertyOp21
 70
     1
102
RTVSPropertyOp22
 70
     1
102
RTVSPropertyOp23
 70
     1
102
RTVSPropertyOp24
 70
     1
102
RTVSPropertyOp25
 70
     1
102
RTVSPropertyOp26
 70
     1
102
RTVSPropertyOp27
 70
     1
  0
XRECORD
  5
90D
102
{ACAD_REACTORS
330
90C
102
}
330
90C
100
AcDbXrecord
280
     1
102
RTVSPropertyOp28
 70
     1
102
RTVSPropertyOp29
 70
     1
102
RTVSPropertyOp30
 70
     1
102
RTVSPropertyOp31
 70
     1
102
RTVSPropertyOp32
 70
     1
102
RTVSPropertyOp0
 70
     1
102
RTVSPropertyOp1
 70
     1
102
RTVSPropertyOp2
 70
     1
102
RTVSPropertyOp3
 70
     1
102
RTVSPropertyOp4
 70
     1
102
RTVSPropertyOp5
 70
     1
102
RTVSPropertyOp6
 70
     1
102
RTVSPropertyOp7
 70
     1
102
RTVSPropertyOp8
 70
     1
102
RTVSPropertyOp9
 70
     1
102
RTVSPropertyOp10
 70
     1
102
RTVSPropertyOp11
 70
     1
102
RTVSPropertyOp12
 70
     1
102
RTVSPropertyOp13
 70
     1
102
RTVSPropertyOp14
 70
     1
102
RTVSPropertyOp15
 70
     1
102
RTVSPropertyOp16
 70
     1
102
RTVSPropertyOp17
 70
     1
102
RTVSPropertyOp18
 70
     1
102
RTVSPropertyOp19
 70
     1
102
RTVSPropertyOp20
 70
     1
102
RTVSPropertyOp21
 70
     1
102
RTVSPropertyOp22
 70
     1
102
RTVSPropertyOp23
 70
     1
102
RTVSPropertyOp24
 70
     1
102
RTVSPropertyOp25
 70
     1
102
RTVSPropertyOp26
 70
     1
102
RTVSPropertyOp27
 70
     1
  0
XRECORD
  5
8FF
102
{ACAD_REACTORS
330
8FE
102
}
330
8FE
100
AcDbXrecord
280
     1
102
RTVSPropertyOp28
 70
     1
102
RTVSPropertyOp29
 70
     1
102
RTVSPropertyOp30
 70
     1
102
RTVSPropertyOp31
 70
     1
102
RTVSPropertyOp32
 70
     1
102
RTVSPropertyOp0
 70
     1
102
RTVSPropertyOp1
 70
     1
102
RTVSPropertyOp2
 70
     1
102
RTVSPropertyOp3
 70
     1
102
RTVSPropertyOp4
 70
     1
102
RTVSPropertyOp5
 70
     1
102
RTVSPropertyOp6
 70
     1
102
RTVSPropertyOp7
 70
     1
102
RTVSPropertyOp8
 70
     1
102
RTVSPropertyOp9
 70
     1
102
RTVSPropertyOp10
 70
     1
102
RTVSPropertyOp11
 70
     1
102
RTVSPropertyOp12
 70
     1
102
RTVSPropertyOp13
 70
     1
102
RTVSPropertyOp14
 70
     1
102
RTVSPropertyOp15
 70
     1
102
RTVSPropertyOp16
 70
     1
102
RTVSPropertyOp17
 70
     1
102
RTVSPropertyOp18
 70
     1
102
RTVSPropertyOp19
 70
     1
102
RTVSPropertyOp20
 70
     1
102
RTVSPropertyOp21
 70
     1
102
RTVSPropertyOp22
 70
     1
102
RTVSPropertyOp23
 70
     1
102
RTVSPropertyOp24
 70
     1
102
RTVSPropertyOp25
 70
     1
102
RTVSPropertyOp26
 70
     1
102
RTVSPropertyOp27
 70
     1
  0
XRECORD
  5
903
102
{ACAD_REACTORS
330
902
102
}
330
902
100
AcDbXrecord
280
     1
102
RTVSPropertyOp28
 70
     1
102
RTVSPropertyOp29
 70
     1
102
RTVSPropertyOp30
 70
     1
102
RTVSPropertyOp31
 70
     1
102
RTVSPropertyOp32
 70
     1
102
RTVSPropertyOp0
 70
     1
102
RTVSPropertyOp1
 70
     1
102
RTVSPropertyOp2
 70
     1
102
RTVSPropertyOp3
 70
     1
102
RTVSPropertyOp4
 70
     1
102
RTVSPropertyOp5
 70
     1
102
RTVSPropertyOp6
 70
     1
102
RTVSPropertyOp7
 70
     1
102
RTVSPropertyOp8
 70
     1
102
RTVSPropertyOp9
 70
     1
102
RTVSPropertyOp10
 70
     1
102
RTVSPropertyOp11
 70
     1
102
RTVSPropertyOp12
 70
     1
102
RTVSPropertyOp13
 70
     1
102
RTVSPropertyOp14
 70
     1
102
RTVSPropertyOp15
 70
     1
102
RTVSPropertyOp16
 70
     1
102
RTVSPropertyOp17
 70
     1
102
RTVSPropertyOp18
 70
     1
102
RTVSPropertyOp19
 70
     1
102
RTVSPropertyOp20
 70
     1
102
RTVSPropertyOp21
 70
     1
102
RTVSPropertyOp22
 70
     1
102
RTVSPropertyOp23
 70
     1
102
RTVSPropertyOp24
 70
     1
102
RTVSPropertyOp25
 70
     1
102
RTVSPropertyOp26
 70
     1
102
RTVSPropertyOp27
 70
     1
  0
XRECORD
  5
91D
102
{ACAD_REACTORS
330
91C
102
}
330
91C
100
AcDbXrecord
280
     1
102
RTVSPropertyOp28
 70
     0
102
RTVSPropertyOp29
 70
     0
102
RTVSPropertyOp30
 70
     0
102
RTVSPropertyOp31
 70
     0
102
RTVSPropertyOp32
 70
     0
102
RTVSPropertyOp0
 70
     0
102
RTVSPropertyOp1
 70
     0
102
RTVSPropertyOp2
 70
     0
102
RTVSPropertyOp3
 70
     0
102
RTVSPropertyOp4
 70
     0
102
RTVSPropertyOp5
 70
     0
102
RTVSPropertyOp6
 70
     0
102
RTVSPropertyOp7
 70
     0
102
RTVSPropertyOp8
 70
     0
102
RTVSPropertyOp9
 70
     0
102
RTVSPropertyOp10
 70
     0
102
RTVSPropertyOp11
 70
     0
102
RTVSPropertyOp12
 70
     0
102
RTVSPropertyOp13
 70
     0
102
RTVSPropertyOp14
 70
     2
102
RTVSPropertyOp15
 70
     0
102
RTVSPropertyOp16
 70
     0
102
RTVSPropertyOp17
 70
     0
102
RTVSPropertyOp18
 70
     0
102
RTVSPropertyOp19
 70
     0
102
RTVSPropertyOp20
 70
     0
102
RTVSPropertyOp21
 70
     0
102
RTVSPropertyOp22
 70
     0
102
RTVSPropertyOp23
 70
     0
102
RTVSPropertyOp24
 70
     0
102
RTVSPropertyOp25
 70
     0
102
RTVSPropertyOp26
 70
     0
102
RTVSPropertyOp27
 70
     0
  0
XRECORD
  5
90B
102
{ACAD_REACTORS
330
90A
102
}
330
90A
100
AcDbXrecord
280
     1
102
RTVSPropertyOp28
 70
     1
102
RTVSPropertyOp29
 70
     1
102
RTVSPropertyOp30
 70
     1
102
RTVSPropertyOp31
 70
     1
102
RTVSPropertyOp32
 70
     1
102
RTVSPropertyOp0
 70
     1
102
RTVSPropertyOp1
 70
     1
102
RTVSPropertyOp2
 70
     1
102
RTVSPropertyOp3
 70
     1
102
RTVSPropertyOp4
 70
     1
102
RTVSPropertyOp5
 70
     1
102
RTVSPropertyOp6
 70
     1
102
RTVSPropertyOp7
 70
     1
102
RTVSPropertyOp8
 70
     1
102
RTVSPropertyOp9
 70
     1
102
RTVSPropertyOp10
 70
     1
102
RTVSPropertyOp11
 70
     1
102
RTVSPropertyOp12
 70
     1
102
RTVSPropertyOp13
 70
     1
102
RTVSPropertyOp14
 70
     1
102
RTVSPropertyOp15
 70
     1
102
RTVSPropertyOp16
 70
     1
102
RTVSPropertyOp17
 70
     1
102
RTVSPropertyOp18
 70
     1
102
RTVSPropertyOp19
 70
     1
102
RTVSPropertyOp20
 70
     1
102
RTVSPropertyOp21
 70
     1
102
RTVSPropertyOp22
 70
     1
102
RTVSPropertyOp23
 70
     1
102
RTVSPropertyOp24
 70
     1
102
RTVSPropertyOp25
 70
     1
102
RTVSPropertyOp26
 70
     1
102
RTVSPropertyOp27
 70
     1
  0
XRECORD
  5
8EF
102
{ACAD_REACTORS
330
8EE
102
}
330
8EE
100
AcDbXrecord
280
     1
102
RTVSPropertyOp28
 70
     1
102
RTVSPropertyOp29
 70
     1
102
RTVSPropertyOp30
 70
     1
102
RTVSPropertyOp31
 70
     1
102
RTVSPropertyOp32
 70
     1
102
RTVSPropertyOp0
 70
     1
102
RTVSPropertyOp1
 70
     1
102
RTVSPropertyOp2
 70
     1
102
RTVSPropertyOp3
 70
     1
102
RTVSPropertyOp4
 70
     1
102
RTVSPropertyOp5
 70
     1
102
RTVSPropertyOp6
 70
     1
102
RTVSPropertyOp7
 70
     1
102
RTVSPropertyOp8
 70
     1
102
RTVSPropertyOp9
 70
     1
102
RTVSPropertyOp10
 70
     1
102
RTVSPropertyOp11
 70
     1
102
RTVSPropertyOp12
 70
     1
102
RTVSPropertyOp13
 70
     1
102
RTVSPropertyOp14
 70
     1
102
RTVSPropertyOp15
 70
     1
102
RTVSPropertyOp16
 70
     1
102
RTVSPropertyOp17
 70
     1
102
RTVSPropertyOp18
 70
     1
102
RTVSPropertyOp19
 70
     1
102
RTVSPropertyOp20
 70
     1
102
RTVSPropertyOp21
 70
     1
102
RTVSPropertyOp22
 70
     1
102
RTVSPropertyOp23
 70
     1
102
RTVSPropertyOp24
 70
     1
102
RTVSPropertyOp25
 70
     1
102
RTVSPropertyOp26
 70
     1
102
RTVSPropertyOp27
 70
     1
  0
XRECORD
  5
8F1
102
{ACAD_REACTORS
330
8F0
102
}
330
8F0
100
AcDbXrecord
280
     1
102
RTVSPropertyOp28
 70
     1
102
RTVSPropertyOp29
 70
     1
102
RTVSPropertyOp30
 70
     1
102
RTVSPropertyOp31
 70
     1
102
RTVSPropertyOp32
 70
     1
102
RTVSPropertyOp0
 70
     1
102
RTVSPropertyOp1
 70
     1
102
RTVSPropertyOp2
 70
     1
102
RTVSPropertyOp3
 70
     1
102
RTVSPropertyOp4
 70
     1
102
RTVSPropertyOp5
 70
     1
102
RTVSPropertyOp6
 70
     1
102
RTVSPropertyOp7
 70
     1
102
RTVSPropertyOp8
 70
     1
102
RTVSPropertyOp9
 70
     1
102
RTVSPropertyOp10
 70
     1
102
RTVSPropertyOp11
 70
     1
102
RTVSPropertyOp12
 70
     1
102
RTVSPropertyOp13
 70
     1
102
RTVSPropertyOp14
 70
     1
102
RTVSPropertyOp15
 70
     1
102
RTVSPropertyOp16
 70
     1
102
RTVSPropertyOp17
 70
     1
102
RTVSPropertyOp18
 70
     1
102
RTVSPropertyOp19
 70
     1
102
RTVSPropertyOp20
 70
     1
102
RTVSPropertyOp21
 70
     1
102
RTVSPropertyOp22
 70
     1
102
RTVSPropertyOp23
 70
     1
102
RTVSPropertyOp24
 70
     1
102
RTVSPropertyOp25
 70
     1
102
RTVSPropertyOp26
 70
     1
102
RTVSPropertyOp27
 70
     1
  0
XRECORD
  5
8F3
102
{ACAD_REACTORS
330
8F2
102
}
330
8F2
100
AcDbXrecord
280
     1
102
RTVSPropertyOp28
 70
     1
102
RTVSPropertyOp29
 70
     1
102
RTVSPropertyOp30
 70
     1
102
RTVSPropertyOp31
 70
     1
102
RTVSPropertyOp32
 70
     1
102
RTVSPropertyOp0
 70
     1
102
RTVSPropertyOp1
 70
     1
102
RTVSPropertyOp2
 70
     1
102
RTVSPropertyOp3
 70
     1
102
RTVSPropertyOp4
 70
     1
102
RTVSPropertyOp5
 70
     1
102
RTVSPropertyOp6
 70
     1
102
RTVSPropertyOp7
 70
     1
102
RTVSPropertyOp8
 70
     1
102
RTVSPropertyOp9
 70
     1
102
RTVSPropertyOp10
 70
     1
102
RTVSPropertyOp11
 70
     1
102
RTVSPropertyOp12
 70
     1
102
RTVSPropertyOp13
 70
     1
102
RTVSPropertyOp14
 70
     1
102
RTVSPropertyOp15
 70
     1
102
RTVSPropertyOp16
 70
     1
102
RTVSPropertyOp17
 70
     1
102
RTVSPropertyOp18
 70
     1
102
RTVSPropertyOp19
 70
     1
102
RTVSPropertyOp20
 70
     1
102
RTVSPropertyOp21
 70
     1
102
RTVSPropertyOp22
 70
     1
102
RTVSPropertyOp23
 70
     1
102
RTVSPropertyOp24
 70
     1
102
RTVSPropertyOp25
 70
     1
102
RTVSPropertyOp26
 70
     1
102
RTVSPropertyOp27
 70
     1
  0
XRECORD
  5
8F5
102
{ACAD_REACTORS
330
8F4
102
}
330
8F4
100
AcDbXrecord
280
     1
102
RTVSPropertyOp28
 70
     1
102
RTVSPropertyOp29
 70
     1
102
RTVSPropertyOp30
 70
     1
102
RTVSPropertyOp31
 70
     1
102
RTVSPropertyOp32
 70
     1
102
RTVSPropertyOp0
 70
     1
102
RTVSPropertyOp1
 70
     1
102
RTVSPropertyOp2
 70
     1
102
RTVSPropertyOp3
 70
     1
102
RTVSPropertyOp4
 70
     1
102
RTVSPropertyOp5
 70
     1
102
RTVSPropertyOp6
 70
     1
102
RTVSPropertyOp7
 70
     1
102
RTVSPropertyOp8
 70
     1
102
RTVSPropertyOp9
 70
     1
102
RTVSPropertyOp10
 70
     1
102
RTVSPropertyOp11
 70
     1
102
RTVSPropertyOp12
 70
     1
102
RTVSPropertyOp13
 70
     1
102
RTVSPropertyOp14
 70
     1
102
RTVSPropertyOp15
 70
     1
102
RTVSPropertyOp16
 70
     1
102
RTVSPropertyOp17
 70
     1
102
RTVSPropertyOp18
 70
     1
102
RTVSPropertyOp19
 70
     1
102
RTVSPropertyOp20
 70
     1
102
RTVSPropertyOp21
 70
     1
102
RTVSPropertyOp22
 70
     1
102
RTVSPropertyOp23
 70
     1
102
RTVSPropertyOp24
 70
     1
102
RTVSPropertyOp25
 70
     1
102
RTVSPropertyOp26
 70
     1
102
RTVSPropertyOp27
 70
     1
  0
XRECORD
  5
8FD
102
{ACAD_REACTORS
330
8FC
102
}
330
8FC
100
AcDbXrecord
280
     1
102
RTVSPropertyOp28
 70
     1
102
RTVSPropertyOp29
 70
     1
102
RTVSPropertyOp30
 70
     1
102
RTVSPropertyOp31
 70
     1
102
RTVSPropertyOp32
 70
     1
102
RTVSPropertyOp0
 70
     1
102
RTVSPropertyOp1
 70
     1
102
RTVSPropertyOp2
 70
     1
102
RTVSPropertyOp3
 70
     1
102
RTVSPropertyOp4
 70
     1
102
RTVSPropertyOp5
 70
     1
102
RTVSPropertyOp6
 70
     1
102
RTVSPropertyOp7
 70
     1
102
RTVSPropertyOp8
 70
     1
102
RTVSPropertyOp9
 70
     1
102
RTVSPropertyOp10
 70
     1
102
RTVSPropertyOp11
 70
     1
102
RTVSPropertyOp12
 70
     1
102
RTVSPropertyOp13
 70
     1
102
RTVSPropertyOp14
 70
     1
102
RTVSPropertyOp15
 70
     1
102
RTVSPropertyOp16
 70
     1
102
RTVSPropertyOp17
 70
     1
102
RTVSPropertyOp18
 70
     1
102
RTVSPropertyOp19
 70
     1
102
RTVSPropertyOp20
 70
     1
102
RTVSPropertyOp21
 70
     1
102
RTVSPropertyOp22
 70
     1
102
RTVSPropertyOp23
 70
     1
102
RTVSPropertyOp24
 70
     1
102
RTVSPropertyOp25
 70
     1
102
RTVSPropertyOp26
 70
     1
102
RTVSPropertyOp27
 70
     1
  0
XRECORD
  5
919
102
{ACAD_REACTORS
330
918
102
}
330
918
100
AcDbXrecord
280
     1
102
RTVSPropertyOp28
 70
     0
102
RTVSPropertyOp29
 70
     0
102
RTVSPropertyOp30
 70
     0
102
RTVSPropertyOp31
 70
     0
102
RTVSPropertyOp32
 70
     0
102
RTVSPropertyOp0
 70
     0
102
RTVSPropertyOp1
 70
     0
102
RTVSPropertyOp2
 70
     0
102
RTVSPropertyOp3
 70
     0
102
RTVSPropertyOp4
 70
     0
102
RTVSPropertyOp5
 70
     0
102
RTVSPropertyOp6
 70
     0
102
RTVSPropertyOp7
 70
     0
102
RTVSPropertyOp8
 70
     0
102
RTVSPropertyOp9
 70
     0
102
RTVSPropertyOp10
 70
     0
102
RTVSPropertyOp11
 70
     0
102
RTVSPropertyOp12
 70
     0
102
RTVSPropertyOp13
 70
     0
102
RTVSPropertyOp14
 70
     2
102
RTVSPropertyOp15
 70
     0
102
RTVSPropertyOp16
 70
     0
102
RTVSPropertyOp17
 70
     0
102
RTVSPropertyOp18
 70
     0
102
RTVSPropertyOp19
 70
     0
102
RTVSPropertyOp20
 70
     0
102
RTVSPropertyOp21
 70
     0
102
RTVSPropertyOp22
 70
     0
102
RTVSPropertyOp23
 70
     0
102
RTVSPropertyOp24
 70
     0
102
RTVSPropertyOp25
 70
     0
102
RTVSPropertyOp26
 70
     0
102
RTVSPropertyOp27
 70
     0
  0
XRECORD
  5
909
102
{ACAD_REACTORS
330
908
102
}
330
908
100
AcDbXrecord
280
     1
102
RTVSPropertyOp28
 70
     1
102
RTVSPropertyOp29
 70
     1
102
RTVSPropertyOp30
 70
     1
102
RTVSPropertyOp31
 70
     1
102
RTVSPropertyOp32
 70
     1
102
RTVSPropertyOp0
 70
     1
102
RTVSPropertyOp1
 70
     1
102
RTVSPropertyOp2
 70
     1
102
RTVSPropertyOp3
 70
     1
102
RTVSPropertyOp4
 70
     1
102
RTVSPropertyOp5
 70
     1
102
RTVSPropertyOp6
 70
     1
102
RTVSPropertyOp7
 70
     1
102
RTVSPropertyOp8
 70
     1
102
RTVSPropertyOp9
 70
     1
102
RTVSPropertyOp10
 70
     1
102
RTVSPropertyOp11
 70
     1
102
RTVSPropertyOp12
 70
     1
102
RTVSPropertyOp13
 70
     1
102
RTVSPropertyOp14
 70
     1
102
RTVSPropertyOp15
 70
     1
102
RTVSPropertyOp16
 70
     1
102
RTVSPropertyOp17
 70
     1
102
RTVSPropertyOp18
 70
     1
102
RTVSPropertyOp19
 70
     1
102
RTVSPropertyOp20
 70
     1
102
RTVSPropertyOp21
 70
     1
102
RTVSPropertyOp22
 70
     1
102
RTVSPropertyOp23
 70
     1
102
RTVSPropertyOp24
 70
     1
102
RTVSPropertyOp25
 70
     1
102
RTVSPropertyOp26
 70
     1
102
RTVSPropertyOp27
 70
     1
  0
XRECORD
  5
91B
102
{ACAD_REACTORS
330
91A
102
}
330
91A
100
AcDbXrecord
280
     1
102
RTVSPropertyOp28
 70
     0
102
RTVSPropertyOp29
 70
     0
102
RTVSPropertyOp30
 70
     0
102
RTVSPropertyOp31
 70
     0
102
RTVSPropertyOp32
 70
     0
102
RTVSPropertyOp0
 70
     0
102
RTVSPropertyOp1
 70
     0
102
RTVSPropertyOp2
 70
     0
102
RTVSPropertyOp3
 70
     0
102
RTVSPropertyOp4
 70
     0
102
RTVSPropertyOp5
 70
     0
102
RTVSPropertyOp6
 70
     0
102
RTVSPropertyOp7
 70
     0
102
RTVSPropertyOp8
 70
     0
102
RTVSPropertyOp9
 70
     0
102
RTVSPropertyOp10
 70
     0
102
RTVSPropertyOp11
 70
     0
102
RTVSPropertyOp12
 70
     0
102
RTVSPropertyOp13
 70
     0
102
RTVSPropertyOp14
 70
     2
102
RTVSPropertyOp15
 70
     0
102
RTVSPropertyOp16
 70
     0
102
RTVSPropertyOp17
 70
     0
102
RTVSPropertyOp18
 70
     0
102
RTVSPropertyOp19
 70
     0
102
RTVSPropertyOp20
 70
     0
102
RTVSPropertyOp21
 70
     0
102
RTVSPropertyOp22
 70
     0
102
RTVSPropertyOp23
 70
     0
102
RTVSPropertyOp24
 70
     0
102
RTVSPropertyOp25
 70
     0
102
RTVSPropertyOp26
 70
     0
102
RTVSPropertyOp27
 70
     0
  0
XRECORD
  5
901
102
{ACAD_REACTORS
330
900
102
}
330
900
100
AcDbXrecord
280
     1
102
RTVSPropertyOp28
 70
     1
102
RTVSPropertyOp29
 70
     1
102
RTVSPropertyOp30
 70
     1
102
RTVSPropertyOp31
 70
     1
102
RTVSPropertyOp32
 70
     1
102
RTVSPropertyOp0
 70
     1
102
RTVSPropertyOp1
 70
     1
102
RTVSPropertyOp2
 70
     1
102
RTVSPropertyOp3
 70
     1
102
RTVSPropertyOp4
 70
     1
102
RTVSPropertyOp5
 70
     1
102
RTVSPropertyOp6
 70
     1
102
RTVSPropertyOp7
 70
     1
102
RTVSPropertyOp8
 70
     1
102
RTVSPropertyOp9
 70
     1
102
RTVSPropertyOp10
 70
     1
102
RTVSPropertyOp11
 70
     1
102
RTVSPropertyOp12
 70
     1
102
RTVSPropertyOp13
 70
     1
102
RTVSPropertyOp14
 70
     1
102
RTVSPropertyOp15
 70
     1
102
RTVSPropertyOp16
 70
     1
102
RTVSPropertyOp17
 70
     1
102
RTVSPropertyOp18
 70
     1
102
RTVSPropertyOp19
 70
     1
102
RTVSPropertyOp20
 70
     1
102
RTVSPropertyOp21
 70
     1
102
RTVSPropertyOp22
 70
     1
102
RTVSPropertyOp23
 70
     1
102
RTVSPropertyOp24
 70
     1
102
RTVSPropertyOp25
 70
     1
102
RTVSPropertyOp26
 70
     1
102
RTVSPropertyOp27
 70
     1
  0
XRECORD
  5
917
102
{ACAD_REACTORS
330
916
102
}
330
916
100
AcDbXrecord
280
     1
102
RTVSPropertyOp28
 70
     1
102
RTVSPropertyOp29
 70
     1
102
RTVSPropertyOp30
 70
     1
102
RTVSPropertyOp31
 70
     1
102
RTVSPropertyOp32
 70
     1
102
RTVSPropertyOp0
 70
     1
102
RTVSPropertyOp1
 70
     1
102
RTVSPropertyOp2
 70
     1
102
RTVSPropertyOp3
 70
     1
102
RTVSPropertyOp4
 70
     1
102
RTVSPropertyOp5
 70
     1
102
RTVSPropertyOp6
 70
     1
102
RTVSPropertyOp7
 70
     1
102
RTVSPropertyOp8
 70
     1
102
RTVSPropertyOp9
 70
     1
102
RTVSPropertyOp10
 70
     1
102
RTVSPropertyOp11
 70
     1
102
RTVSPropertyOp12
 70
     1
102
RTVSPropertyOp13
 70
     1
102
RTVSPropertyOp14
 70
     1
102
RTVSPropertyOp15
 70
     1
102
RTVSPropertyOp16
 70
     1
102
RTVSPropertyOp17
 70
     1
102
RTVSPropertyOp18
 70
     1
102
RTVSPropertyOp19
 70
     1
102
RTVSPropertyOp20
 70
     1
102
RTVSPropertyOp21
 70
     1
102
RTVSPropertyOp22
 70
     1
102
RTVSPropertyOp23
 70
     1
102
RTVSPropertyOp24
 70
     1
102
RTVSPropertyOp25
 70
     1
102
RTVSPropertyOp26
 70
     1
102
RTVSPropertyOp27
 70
     1
  0
XRECORD
  5
915
102
{ACAD_REACTORS
330
914
102
}
330
914
100
AcDbXrecord
280
     1
102
RTVSPropertyOp28
 70
     1
102
RTVSPropertyOp29
 70
     1
102
RTVSPropertyOp30
 70
     1
102
RTVSPropertyOp31
 70
     1
102
RTVSPropertyOp32
 70
     1
102
RTVSPropertyOp0
 70
     1
102
RTVSPropertyOp1
 70
     1
102
RTVSPropertyOp2
 70
     1
102
RTVSPropertyOp3
 70
     1
102
RTVSPropertyOp4
 70
     1
102
RTVSPropertyOp5
 70
     1
102
RTVSPropertyOp6
 70
     1
102
RTVSPropertyOp7
 70
     1
102
RTVSPropertyOp8
 70
     1
102
RTVSPropertyOp9
 70
     1
102
RTVSPropertyOp10
 70
     1
102
RTVSPropertyOp11
 70
     1
102
RTVSPropertyOp12
 70
     1
102
RTVSPropertyOp13
 70
     1
102
RTVSPropertyOp14
 70
     1
102
RTVSPropertyOp15
 70
     1
102
RTVSPropertyOp16
 70
     1
102
RTVSPropertyOp17
 70
     1
102
RTVSPropertyOp18
 70
     1
102
RTVSPropertyOp19
 70
     1
102
RTVSPropertyOp20
 70
     1
102
RTVSPropertyOp21
 70
     1
102
RTVSPropertyOp22
 70
     1
102
RTVSPropertyOp23
 70
     1
102
RTVSPropertyOp24
 70
     1
102
RTVSPropertyOp25
 70
     1
102
RTVSPropertyOp26
 70
     1
102
RTVSPropertyOp27
 70
     1
  0
XRECORD
  5
90F
102
{ACAD_REACTORS
330
90E
102
}
330
90E
100
AcDbXrecord
280
     1
102
RTVSPropertyOp28
 70
     1
102
RTVSPropertyOp29
 70
     1
102
RTVSPropertyOp30
 70
     1
102
RTVSPropertyOp31
 70
     1
102
RTVSPropertyOp32
 70
     1
102
RTVSPropertyOp0
 70
     1
102
RTVSPropertyOp1
 70
     1
102
RTVSPropertyOp2
 70
     1
102
RTVSPropertyOp3
 70
     1
102
RTVSPropertyOp4
 70
     1
102
RTVSPropertyOp5
 70
     1
102
RTVSPropertyOp6
 70
     1
102
RTVSPropertyOp7
 70
     1
102
RTVSPropertyOp8
 70
     1
102
RTVSPropertyOp9
 70
     1
102
RTVSPropertyOp10
 70
     1
102
RTVSPropertyOp11
 70
     1
102
RTVSPropertyOp12
 70
     1
102
RTVSPropertyOp13
 70
     1
102
RTVSPropertyOp14
 70
     1
102
RTVSPropertyOp15
 70
     1
102
RTVSPropertyOp16
 70
     1
102
RTVSPropertyOp17
 70
     1
102
RTVSPropertyOp18
 70
     1
102
RTVSPropertyOp19
 70
     1
102
RTVSPropertyOp20
 70
     1
102
RTVSPropertyOp21
 70
     1
102
RTVSPropertyOp22
 70
     1
102
RTVSPropertyOp23
 70
     1
102
RTVSPropertyOp24
 70
     1
102
RTVSPropertyOp25
 70
     1
102
RTVSPropertyOp26
 70
     1
102
RTVSPropertyOp27
 70
     1
  0
XRECORD
  5
911
102
{ACAD_REACTORS
330
910
102
}
330
910
100
AcDbXrecord
280
     1
102
RTVSPropertyOp28
 70
     1
102
RTVSPropertyOp29
 70
     1
102
RTVSPropertyOp30
 70
     1
102
RTVSPropertyOp31
 70
     1
102
RTVSPropertyOp32
 70
     1
102
RTVSPropertyOp0
 70
     1
102
RTVSPropertyOp1
 70
     1
102
RTVSPropertyOp2
 70
     1
102
RTVSPropertyOp3
 70
     1
102
RTVSPropertyOp4
 70
     1
102
RTVSPropertyOp5
 70
     1
102
RTVSPropertyOp6
 70
     1
102
RTVSPropertyOp7
 70
     1
102
RTVSPropertyOp8
 70
     1
102
RTVSPropertyOp9
 70
     1
102
RTVSPropertyOp10
 70
     1
102
RTVSPropertyOp11
 70
     1
102
RTVSPropertyOp12
 70
     1
102
RTVSPropertyOp13
 70
     1
102
RTVSPropertyOp14
 70
     1
102
RTVSPropertyOp15
 70
     1
102
RTVSPropertyOp16
 70
     1
102
RTVSPropertyOp17
 70
     1
102
RTVSPropertyOp18
 70
     1
102
RTVSPropertyOp19
 70
     1
102
RTVSPropertyOp20
 70
     1
102
RTVSPropertyOp21
 70
     1
102
RTVSPropertyOp22
 70
     1
102
RTVSPropertyOp23
 70
     1
102
RTVSPropertyOp24
 70
     1
102
RTVSPropertyOp25
 70
     1
102
RTVSPropertyOp26
 70
     1
102
RTVSPropertyOp27
 70
     1
  0
XRECORD
  5
907
102
{ACAD_REACTORS
330
906
102
}
330
906
100
AcDbXrecord
280
     1
102
RTVSPropertyOp28
 70
     1
102
RTVSPropertyOp29
 70
     1
102
RTVSPropertyOp30
 70
     1
102
RTVSPropertyOp31
 70
     1
102
RTVSPropertyOp32
 70
     1
102
RTVSPropertyOp0
 70
     1
102
RTVSPropertyOp1
 70
     1
102
RTVSPropertyOp2
 70
     1
102
RTVSPropertyOp3
 70
     1
102
RTVSPropertyOp4
 70
     1
102
RTVSPropertyOp5
 70
     1
102
RTVSPropertyOp6
 70
     1
102
RTVSPropertyOp7
 70
     1
102
RTVSPropertyOp8
 70
     1
102
RTVSPropertyOp9
 70
     1
102
RTVSPropertyOp10
 70
     1
102
RTVSPropertyOp11
 70
     1
102
RTVSPropertyOp12
 70
     1
102
RTVSPropertyOp13
 70
     1
102
RTVSPropertyOp14
 70
     1
102
RTVSPropertyOp15
 70
     1
102
RTVSPropertyOp16
 70
     1
102
RTVSPropertyOp17
 70
     1
102
RTVSPropertyOp18
 70
     1
102
RTVSPropertyOp19
 70
     1
102
RTVSPropertyOp20
 70
     1
102
RTVSPropertyOp21
 70
     1
102
RTVSPropertyOp22
 70
     1
102
RTVSPropertyOp23
 70
     1
102
RTVSPropertyOp24
 70
     1
102
RTVSPropertyOp25
 70
     1
102
RTVSPropertyOp26
 70
     1
102
RTVSPropertyOp27
 70
     1
  0
XRECORD
  5
8FB
102
{ACAD_REACTORS
330
8FA
102
}
330
8FA
100
AcDbXrecord
280
     1
102
RTVSPropertyOp28
 70
     1
102
RTVSPropertyOp29
 70
     1
102
RTVSPropertyOp30
 70
     1
102
RTVSPropertyOp31
 70
     1
102
RTVSPropertyOp32
 70
     1
102
RTVSPropertyOp0
 70
     1
102
RTVSPropertyOp1
 70
     1
102
RTVSPropertyOp2
 70
     1
102
RTVSPropertyOp3
 70
     1
102
RTVSPropertyOp4
 70
     1
102
RTVSPropertyOp5
 70
     1
102
RTVSPropertyOp6
 70
     1
102
RTVSPropertyOp7
 70
     1
102
RTVSPropertyOp8
 70
     1
102
RTVSPropertyOp9
 70
     1
102
RTVSPropertyOp10
 70
     1
102
RTVSPropertyOp11
 70
     1
102
RTVSPropertyOp12
 70
     1
102
RTVSPropertyOp13
 70
     1
102
RTVSPropertyOp14
 70
     1
102
RTVSPropertyOp15
 70
     1
102
RTVSPropertyOp16
 70
     1
102
RTVSPropertyOp17
 70
     1
102
RTVSPropertyOp18
 70
     1
102
RTVSPropertyOp19
 70
     1
102
RTVSPropertyOp20
 70
     1
102
RTVSPropertyOp21
 70
     1
102
RTVSPropertyOp22
 70
     1
102
RTVSPropertyOp23
 70
     1
102
RTVSPropertyOp24
 70
     1
102
RTVSPropertyOp25
 70
     1
102
RTVSPropertyOp26
 70
     1
102
RTVSPropertyOp27
 70
     1
  0
XRECORD
  5
913
102
{ACAD_REACTORS
330
912
102
}
330
912
100
AcDbXrecord
280
     1
102
RTVSPropertyOp28
 70
     1
102
RTVSPropertyOp29
 70
     1
102
RTVSPropertyOp30
 70
     1
102
RTVSPropertyOp31
 70
     1
102
RTVSPropertyOp32
 70
     1
102
RTVSPropertyOp0
 70
     1
102
RTVSPropertyOp1
 70
     1
102
RTVSPropertyOp2
 70
     1
102
RTVSPropertyOp3
 70
     1
102
RTVSPropertyOp4
 70
     1
102
RTVSPropertyOp5
 70
     1
102
RTVSPropertyOp6
 70
     1
102
RTVSPropertyOp7
 70
     1
102
RTVSPropertyOp8
 70
     1
102
RTVSPropertyOp9
 70
     1
102
RTVSPropertyOp10
 70
     1
102
RTVSPropertyOp11
 70
     1
102
RTVSPropertyOp12
 70
     1
102
RTVSPropertyOp13
 70
     1
102
RTVSPropertyOp14
 70
     1
102
RTVSPropertyOp15
 70
     1
102
RTVSPropertyOp16
 70
     1
102
RTVSPropertyOp17
 70
     1
102
RTVSPropertyOp18
 70
     1
102
RTVSPropertyOp19
 70
     1
102
RTVSPropertyOp20
 70
     1
102
RTVSPropertyOp21
 70
     1
102
RTVSPropertyOp22
 70
     1
102
RTVSPropertyOp23
 70
     1
102
RTVSPropertyOp24
 70
     1
102
RTVSPropertyOp25
 70
     1
102
RTVSPropertyOp26
 70
     1
102
RTVSPropertyOp27
 70
     1
  0
ENDSEC
  0
EOF
