  0
SECTION
  2
HEADER
  9
$ACADVER
  1
AC1018
  9
$ACADMAINTVER
 70
   104
  9
$DWGCODEPAGE
  3
ANSI_1250
  9
$AUTHOR
  1
pmacoun
  9
$LASTSAVEDBY
  1
pfic
  9
$REVISIONNUMBER
  1
000
  9
$CUSTOMPROPERTYTAG
  1
Vedoucí
  9
$CUSTOMPROPERTY
  1

  9
$CUSTOMPROPERTYTAG
  1
Společnost
  9
$CUSTOMPROPERTY
  1

  9
$CUSTOMPROPERTYTAG
  1
Kategorie
  9
$CUSTOMPROPERTY
  1

  9
$CUSTOMPROPERTYTAG
  1
Číslo součásti
  9
$CUSTOMPROPERTY
  1
408240
  9
$CUSTOMPROPERTYTAG
  1
Popis
  9
$CUSTOMPROPERTY
  1

  9
$CUSTOMPROPERTYTAG
  1
Projekt
  9
$CUSTOMPROPERTY
  1

  9
$CUSTOMPROPERTYTAG
  1
Kreslil
  9
$CUSTOMPROPERTY
  1
pmacoun
  9
$CUSTOMPROPERTYTAG
  1
Schválil
  9
$CUSTOMPROPERTY
  1

  9
$CUSTOMPROPERTYTAG
  1
Zodpovídá
  9
$CUSTOMPROPERTY
  1

  9
$CUSTOMPROPERTYTAG
  1
Nákladové středisko
  9
$CUSTOMPROPERTY
  1

  9
$CUSTOMPROPERTYTAG
  1
Dodavatel
  9
$CUSTOMPROPERTY
  1

  9
$CUSTOMPROPERTYTAG
  1
Uživatelský stav
  9
$CUSTOMPROPERTY
  1

  9
$CUSTOMPROPERTYTAG
  1
Stav návrhu
  9
$CUSTOMPROPERTY
  1
Rozpracováno
  9
$CUSTOMPROPERTYTAG
  1
Zkontroloval
  9
$CUSTOMPROPERTY
  1

  9
$CUSTOMPROPERTYTAG
  1
Techn. kontr. schválil
  9
$CUSTOMPROPERTY
  1

  9
$CUSTOMPROPERTYTAG
  1
Výrobu schválil
  9
$CUSTOMPROPERTY
  1

  9
$CUSTOMPROPERTYTAG
  1
VS_First
  9
$CUSTOMPROPERTY
  1

  9
$CUSTOMPROPERTYTAG
  1
VS_All
  9
$CUSTOMPROPERTY
  1
1:1,
  9
$CUSTOMPROPERTYTAG
  1
Model_Mass_Value
  9
$CUSTOMPROPERTY
  1
,0
  9
$CUSTOMPROPERTYTAG
  1
Model_Mass_Units
  9
$CUSTOMPROPERTY
  1
kg
  9
$CUSTOMPROPERTYTAG
  1
Model_Area_Value
  9
$CUSTOMPROPERTY
  1
2694,0
  9
$CUSTOMPROPERTYTAG
  1
Model_Area_Units
  9
$CUSTOMPROPERTY
  1
mm˛
  9
$CUSTOMPROPERTYTAG
  1
Model_Volume_Value
  9
$CUSTOMPROPERTY
  1
5471,0
  9
$CUSTOMPROPERTYTAG
  1
Model_Volume_Units
  9
$CUSTOMPROPERTY
  1
mmł
  9
$CUSTOMPROPERTYTAG
  1
Model_CogX_Value
  9
$CUSTOMPROPERTY
  1
,0
  9
$CUSTOMPROPERTYTAG
  1
Model_CogY_Value
  9
$CUSTOMPROPERTY
  1
,0
  9
$CUSTOMPROPERTYTAG
  1
Model_CogZ_Value
  9
$CUSTOMPROPERTY
  1
,0
  9
$CUSTOMPROPERTYTAG
  1
Model_Cog_Units
  9
$CUSTOMPROPERTY
  1
mm
  9
$CUSTOMPROPERTYTAG
  1
Model_Ixx_Value
  9
$CUSTOMPROPERTY
  1
,0
  9
$CUSTOMPROPERTYTAG
  1
Model_Iyy_Value
  9
$CUSTOMPROPERTY
  1
,0
  9
$CUSTOMPROPERTYTAG
  1
Model_Izz_Value
  9
$CUSTOMPROPERTY
  1
,0
  9
$CUSTOMPROPERTYTAG
  1
Model_Ixy_Value
  9
$CUSTOMPROPERTY
  1
,0
  9
$CUSTOMPROPERTYTAG
  1
Model_Iyz_Value
  9
$CUSTOMPROPERTY
  1
,0
  9
$CUSTOMPROPERTYTAG
  1
Model_Ixz_Value
  9
$CUSTOMPROPERTY
  1
,0
  9
$CUSTOMPROPERTYTAG
  1
Model_MassMom_Units
  9
$CUSTOMPROPERTY
  1
kg mm˛
  9
$CUSTOMPROPERTYTAG
  1
FirstViewScale
  9
$CUSTOMPROPERTY
  1

  9
$CUSTOMPROPERTYTAG
  1
AllViewScales
  9
$CUSTOMPROPERTY
  1

  9
$CUSTOMPROPERTYTAG
  1
SaveDate
  9
$CUSTOMPROPERTY
  1
09/12/2007
  9
$CUSTOMPROPERTYTAG
  1
SaveTime
  9
$CUSTOMPROPERTY
  1
10:32
  9
$CUSTOMPROPERTYTAG
  1
PaperSize
  9
$CUSTOMPROPERTY
  1
A3
  9
$CUSTOMPROPERTYTAG
  1
DateSaved
  9
$CUSTOMPROPERTY
  1
12.09.2007
  9
$CUSTOMPROPERTYTAG
  1
TimeSaved
  9
$CUSTOMPROPERTY
  1
10:32 dop.
  9
$INSBASE
 10
0.0
 20
0.0
 30
0.0
  9
$EXTMIN
 10
86.22619869446635
 20
86.6561906955394
 30
-0.0015258207003583
  9
$EXTMAX
 10
396.5075699734825
 20
592.8360000402153
 30
0.0000000349246037
  9
$LIMMIN
 10
0.0
 20
0.0
  9
$LIMMAX
 10
990.0
 20
700.0
  9
$ORTHOMODE
 70
     0
  9
$REGENMODE
 70
     1
  9
$FILLMODE
 70
     1
  9
$QTEXTMODE
 70
     0
  9
$MIRRTEXT
 70
     0
  9
$LTSCALE
 40
1.666666666666666
  9
$ATTMODE
 70
     1
  9
$TEXTSIZE
 40
0.2
  9
$TRACEWID
 40
0.05
  9
$TEXTSTYLE
  7
Standard
  9
$CLAYER
  8
0
  9
$CELTYPE
  6
ByLayer
  9
$CECOLOR
 62
   256
  9
$CELTSCALE
 40
1.0
  9
$DISPSILH
 70
     0
  9
$DIMSCALE
 40
1.0
  9
$DIMASZ
 40
1.799999999999999
  9
$DIMEXO
 40
0.0625
  9
$DIMDLI
 40
0.38
  9
$DIMRND
 40
0.0
  9
$DIMDLE
 40
0.0
  9
$DIMEXE
 40
0.18
  9
$DIMTP
 40
0.0
  9
$DIMTM
 40
0.0
  9
$DIMTXT
 40
0.3499999940395355
  9
$DIMCEN
 40
0.09
  9
$DIMTSZ
 40
0.0
  9
$DIMTOL
 70
     0
  9
$DIMLIM
 70
     0
  9
$DIMTIH
 70
     1
  9
$DIMTOH
 70
     1
  9
$DIMSE1
 70
     0
  9
$DIMSE2
 70
     0
  9
$DIMTAD
 70
     0
  9
$DIMZIN
 70
     0
  9
$DIMBLK
  1

  9
$DIMASO
 70
     1
  9
$DIMSHO
 70
     1
  9
$DIMPOST
  1

  9
$DIMAPOST
  1

  9
$DIMALT
 70
     0
  9
$DIMALTD
 70
     2
  9
$DIMALTF
 40
25.4
  9
$DIMLFAC
 40
1.0
  9
$DIMTOFL
 70
     0
  9
$DIMTVP
 40
0.0
  9
$DIMTIX
 70
     0
  9
$DIMSOXD
 70
     0
  9
$DIMSAH
 70
     0
  9
$DIMBLK1
  1

  9
$DIMBLK2
  1

  9
$DIMSTYLE
  2
Standard
  9
$DIMCLRD
 70
     0
  9
$DIMCLRE
 70
     0
  9
$DIMCLRT
 70
     0
  9
$DIMTFAC
 40
1.0
  9
$DIMGAP
 40
0.09
  9
$DIMJUST
 70
     0
  9
$DIMSD1
 70
     0
  9
$DIMSD2
 70
     0
  9
$DIMTOLJ
 70
     1
  9
$DIMTZIN
 70
     0
  9
$DIMALTZ
 70
     0
  9
$DIMALTTZ
 70
     0
  9
$DIMUPT
 70
     0
  9
$DIMDEC
 70
     4
  9
$DIMTDEC
 70
     4
  9
$DIMALTU
 70
     2
  9
$DIMALTTD
 70
     2
  9
$DIMTXSTY
  7
Standard
  9
$DIMAUNIT
 70
     0
  9
$DIMADEC
 70
     0
  9
$DIMALTRND
 40
0.0
  9
$DIMAZIN
 70
     0
  9
$DIMDSEP
 70
    46
  9
$DIMATFIT
 70
     3
  9
$DIMFRAC
 70
     0
  9
$DIMLDRBLK
  1

  9
$DIMLUNIT
 70
     2
  9
$DIMLWD
 70
    -2
  9
$DIMLWE
 70
    -2
  9
$DIMTMOVE
 70
     0
  9
$LUNITS
 70
     2
  9
$LUPREC
 70
     4
  9
$SKETCHINC
 40
0.1
  9
$FILLETRAD
 40
0.0
  9
$AUNITS
 70
     0
  9
$AUPREC
 70
     0
  9
$MENU
  1
.
  9
$ELEVATION
 40
0.0
  9
$PELEVATION
 40
0.0
  9
$THICKNESS
 40
0.0
  9
$LIMCHECK
 70
     0
  9
$CHAMFERA
 40
0.0
  9
$CHAMFERB
 40
0.0
  9
$CHAMFERC
 40
0.0
  9
$CHAMFERD
 40
0.0
  9
$SKPOLY
 70
     0
  9
$TDCREATE
 40
2455804.308248565
  9
$TDUCREATE
 40
2455804.224915232
  9
$TDUPDATE
 40
2456553.548315081
  9
$TDUUPDATE
 40
2456553.464981748
  9
$TDINDWG
 40
0.0017811921
  9
$TDUSRTIMER
 40
0.0017811921
  9
$USRTIMER
 70
     1
  9
$ANGBASE
 50
0.0
  9
$ANGDIR
 70
     0
  9
$PDMODE
 70
     0
  9
$PDSIZE
 40
0.0
  9
$PLINEWID
 40
0.0
  9
$SPLFRAME
 70
     0
  9
$SPLINETYPE
 70
     6
  9
$SPLINESEGS
 70
     8
  9
$HANDSEED
  5
2976
  9
$SURFTAB1
 70
     6
  9
$SURFTAB2
 70
     6
  9
$SURFTYPE
 70
     6
  9
$SURFU
 70
     6
  9
$SURFV
 70
     6
  9
$UCSBASE
  2

  9
$UCSNAME
  2

  9
$UCSORG
 10
0.0
 20
0.0
 30
0.0
  9
$UCSXDIR
 10
1.0
 20
0.0
 30
0.0
  9
$UCSYDIR
 10
0.0
 20
1.0
 30
0.0
  9
$UCSORTHOREF
  2

  9
$UCSORTHOVIEW
 70
     0
  9
$UCSORGTOP
 10
0.0
 20
0.0
 30
0.0
  9
$UCSORGBOTTOM
 10
0.0
 20
0.0
 30
0.0
  9
$UCSORGLEFT
 10
0.0
 20
0.0
 30
0.0
  9
$UCSORGRIGHT
 10
0.0
 20
0.0
 30
0.0
  9
$UCSORGFRONT
 10
0.0
 20
0.0
 30
0.0
  9
$UCSORGBACK
 10
0.0
 20
0.0
 30
0.0
  9
$PUCSBASE
  2

  9
$PUCSNAME
  2

  9
$PUCSORG
 10
0.0
 20
0.0
 30
0.0
  9
$PUCSXDIR
 10
1.0
 20
0.0
 30
0.0
  9
$PUCSYDIR
 10
0.0
 20
1.0
 30
0.0
  9
$PUCSORTHOREF
  2

  9
$PUCSORTHOVIEW
 70
     0
  9
$PUCSORGTOP
 10
0.0
 20
0.0
 30
0.0
  9
$PUCSORGBOTTOM
 10
0.0
 20
0.0
 30
0.0
  9
$PUCSORGLEFT
 10
0.0
 20
0.0
 30
0.0
  9
$PUCSORGRIGHT
 10
0.0
 20
0.0
 30
0.0
  9
$PUCSORGFRONT
 10
0.0
 20
0.0
 30
0.0
  9
$PUCSORGBACK
 10
0.0
 20
0.0
 30
0.0
  9
$USERI1
 70
     0
  9
$USERI2
 70
     0
  9
$USERI3
 70
     0
  9
$USERI4
 70
     0
  9
$USERI5
 70
     0
  9
$USERR1
 40
0.0
  9
$USERR2
 40
0.0
  9
$USERR3
 40
0.0
  9
$USERR4
 40
0.0
  9
$USERR5
 40
0.0
  9
$WORLDVIEW
 70
     1
  9
$SHADEDGE
 70
     3
  9
$SHADEDIF
 70
    70
  9
$TILEMODE
 70
     1
  9
$MAXACTVP
 70
    64
  9
$PINSBASE
 10
0.0
 20
0.0
 30
0.0
  9
$PLIMCHECK
 70
     0
  9
$PEXTMIN
 10
0.0
 20
0.0
 30
0.0
  9
$PEXTMAX
 10
990.0
 20
700.0
 30
0.0
  9
$PLIMMIN
 10
0.0
 20
0.0
  9
$PLIMMAX
 10
990.0
 20
700.0
  9
$UNITMODE
 70
     0
  9
$VISRETAIN
 70
     1
  9
$PLINEGEN
 70
     0
  9
$PSLTSCALE
 70
     1
  9
$TREEDEPTH
 70
  3020
  9
$CMLSTYLE
  2
Standard
  9
$CMLJUST
 70
     0
  9
$CMLSCALE
 40
1.0
  9
$PROXYGRAPHICS
 70
     1
  9
$MEASUREMENT
 70
     1
  9
$CELWEIGHT
370
    -1
  9
$ENDCAPS
280
     0
  9
$JOINSTYLE
280
     0
  9
$LWDISPLAY
290
     0
  9
$INSUNITS
 70
     4
  9
$HYPERLINKBASE
  1

  9
$STYLESHEET
  1

  9
$XEDIT
290
     1
  9
$CEPSNTYPE
380
     0
  9
$PSTYLEMODE
290
     1
  9
$FINGERPRINTGUID
  2
{5A7B5202-3AD3-4B01-BCFF-724226D30433}
  9
$VERSIONGUID
  2
{58FB827B-25C3-4C7F-8B47-A01154510091}
  9
$EXTNAMES
290
     1
  9
$PSVPSCALE
 40
0.0
  9
$OLESTARTUP
290
     0
  9
$SORTENTS
280
   127
  9
$INDEXCTL
280
     0
  9
$HIDETEXT
280
     1
  9
$XCLIPFRAME
290
     0
  9
$HALOGAP
280
     0
  9
$OBSCOLOR
 70
   257
  9
$OBSLTYPE
280
     0
  9
$INTERSECTIONDISPLAY
280
     0
  9
$INTERSECTIONCOLOR
 70
   257
  9
$DIMASSOC
280
     1
  9
$PROJECTNAME
  1

  0
ENDSEC
  0
SECTION
  2
CLASSES
  0
CLASS
  1
ACDBDICTIONARYWDFLT
  2
AcDbDictionaryWithDefault
  3
ObjectDBX Classes
 90
        0
 91
        1
280
     0
281
     0
  0
CLASS
  1
MATERIAL
  2
AcDbMaterial
  3
ObjectDBX Classes
 90
     1153
 91
        3
280
     0
281
     0
  0
CLASS
  1
VISUALSTYLE
  2
AcDbVisualStyle
  3
ObjectDBX Classes
 90
     4095
 91
       26
280
     0
281
     0
  0
CLASS
  1
SCALE
  2
AcDbScale
  3
ObjectDBX Classes
 90
     1153
 91
       17
280
     0
281
     0
  0
CLASS
  1
TABLESTYLE
  2
AcDbTableStyle
  3
ObjectDBX Classes
 90
     4095
 91
        1
280
     0
281
     0
  0
CLASS
  1
MLEADERSTYLE
  2
AcDbMLeaderStyle
  3
ACDB_MLEADERSTYLE_CLASS
 90
     4095
 91
        1
280
     0
281
     0
  0
CLASS
  1
CELLSTYLEMAP
  2
AcDbCellStyleMap
  3
ObjectDBX Classes
 90
     1152
 91
        2
280
     0
281
     0
  0
CLASS
  1
DICTIONARYVAR
  2
AcDbDictionaryVar
  3
ObjectDBX Classes
 90
        0
 91
        9
280
     0
281
     0
  0
CLASS
  1
ACME_DOCUMENT
  2
AcMeDbDoc
  3
AcMeServices
 90
     1024
 91
        2
280
     0
281
     0
  0
CLASS
  1
AMGSETTINGSOBJ
  2
AmgSettingsObj
  3
"AcadM|Product Description: AutoCAD Mechanical|Company: Autodesk, Inc."
 90
     1024
 91
        2
280
     0
281
     0
  0
CLASS
  1
ACMESCOPE
  2
AcMeScope
  3
AcMeServices
 90
     1024
 91
        1
280
     0
281
     0
  0
CLASS
  1
ACMECOMMANDHISTORY
  2
AcMeCommandHistory
  3
AcMeServices
 90
     1024
 91
        1
280
     0
281
     0
  0
CLASS
  1
ACIMSYSVARMAN
  2
AcImSysVarManager
  3
AcMeServices
 90
     1024
 91
        5
280
     0
281
     0
  0
CLASS
  1
ACIMINTSYSVAR
  2
AcImIntSysVar
  3
AcMeServices
 90
     1024
 91
       27
280
     0
281
     0
  0
CLASS
  1
ACMEDRAWINGMAN
  2
AcMeDrawingMan
  3
AcMeServices
 90
     1024
 91
        1
280
     0
281
     0
  0
CLASS
  1
ACMEVIEW
  2
AcMeView
  3
AcMeServices
 90
     1024
 91
        1
280
     0
281
     0
  0
CLASS
  1
ACDBENTITYCACHE
  2
AcMeEntityCache
  3
AcMeServices
 90
     1024
 91
        1
280
     0
281
     0
  0
CLASS
  1
ACMESTATEMGR
  2
AcMeStateMgr
  3
AcMeServices
 90
     1024
 91
        1
280
     0
281
     0
  0
CLASS
  1
ACGREFMASTER
  2
AcGrefMaster
  3
AcAttribServices
 90
     1024
 91
        1
280
     0
281
     0
  0
CLASS
  1
AM_DRAWING_MGR
  2
AcDmDwgMgr
  3
AcMechDwgViewMgmt
 90
     1024
 91
        1
280
     0
281
     0
  0
CLASS
  1
AM_DWG_DOCUMENT
  2
AcDmDwgDocument
  3
AcMechDwgViewMgmt
 90
     1024
 91
        1
280
     0
281
     0
  0
CLASS
  1
AM_DWG_SHEET
  2
AcDmSheet
  3
AcMechDwgViewMgmt
 90
     1024
 91
        2
280
     0
281
     0
  0
CLASS
  1
AM_VIEWDIMPARMAP
  2
AcDmViewDimParMap
  3
AcMechDwgViewMgmt
 90
     1024
 91
        2
280
     0
281
     0
  0
CLASS
  1
AMDTINTERNALREACTOR
  2
AmdtInternalReactor
  3
AcMeServices
 90
     1024
 91
        1
280
     0
281
     0
  0
CLASS
  1
ACIMREALSYSVAR
  2
AcImRealSysVar
  3
AcMeServices
 90
     1024
 91
        1
280
     0
281
     0
  0
CLASS
  1
AM_DWGMGR_NAME
  2
AcDmDwgMgrName
  3
AcMechDwgViewMgmt
 90
     1024
 91
        1
280
     0
281
     0
  0
CLASS
  1
ACME_DATABASE
  2
AcMeDbDatabase
  3
AcMeServices
 90
     1024
 91
        2
280
     0
281
     0
  0
CLASS
  1
ACRFINSADJUSTERMGR
  2
AcRfInsAdjusterMgr
  3
AcMeServices
 90
     1024
 91
        1
280
     0
281
     0
  0
CLASS
  1
ACGREFACADMASTER
  2
AcGrefacadMaster
  3
AcGrefServices
 90
     1024
 91
        1
280
     0
281
     0
  0
CLASS
  1
AMDTMENUSTATEMGR
  2
AmdtMenuStateMgr
  3
McadcomServices
 90
     1024
 91
        1
280
     0
281
     0
  0
CLASS
  1
AMDTMCOMMENUSTATE
  2
AmdtMcomMenuState
  3
McadcomServices
 90
     1024
 91
        1
280
     0
281
     0
  0
CLASS
  1
AMIMASTER
  2
AmiMaster
  3
AmiServices
 90
     1024
 91
        1
280
     0
281
     0
  0
CLASS
  1
MAPIAMMOUDLE
  2
MApiAmModule
  3
MApiAmServices
 90
     1024
 91
        1
280
     0
281
     0
  0
CLASS
  1
ACIMSTRSYSVAR
  2
AcImStrSysVar
  3
AcMeServices
 90
     1024
 91
        5
280
     0
281
     0
  0
CLASS
  1
AMDTADMENUSTATE
  2
AmdtAdMenuState
  3
DesignerServices
 90
     1024
 91
        1
280
     0
281
     0
  0
CLASS
  1
ADAPPL
  2
AcAdAppl
  3
DesignerServices
 90
     1024
 91
        1
280
     0
281
     0
  0
CLASS
  1
DEPMGR
  2
AcAdDepMgr
  3
DesignerServices
 90
     1024
 91
        1
280
     0
281
     0
  0
CLASS
  1
PARAMMGR
  2
AcAdParamMgr
  3
DesignerServices
 90
     1024
 91
        1
280
     0
281
     0
  0
CLASS
  1
PARAMSCOPE
  2
AcAdParamScope
  3
DesignerServices
 90
     1024
 91
        1
280
     0
281
     0
  0
CLASS
  1
NAMEDAPPL
  2
AcAdNamedAppl
  3
DesignerServices
 90
     1024
 91
        1
280
     0
281
     0
  0
CLASS
  1
AMDTDMMENUSTATE
  2
AmdtDmMenuState
  3
AcMechDwgViewMgmt
 90
     1024
 91
        1
280
     0
281
     0
  0
CLASS
  1
AMDTAMMENUSTATE
  2
AmdtAmMenuState
  3
DesignerAssemblies
 90
     1024
 91
        1
280
     0
281
     0
  0
CLASS
  1
ACAMPROJECT
  2
AcAmProject
  3
DesignerAssemblies
 90
     1024
 91
        1
280
     0
281
     0
  0
CLASS
  1
ACAMGRCOMPDEF
  2
AcAmGrCompDef
  3
DesignerAssemblies
 90
     1024
 91
        1
280
     0
281
     0
  0
CLASS
  1
ACAMCOMPDEF
  2
AcAmCompDef
  3
DesignerAssemblies
 90
     1024
 91
        1
280
     0
281
     0
  0
CLASS
  1
ACAMCOMPDEFMGR
  2
AcAmCompDefMgr
  3
DesignerAssemblies
 90
     1024
 91
        1
280
     0
281
     0
  0
CLASS
  1
AMCONTEXTMGR
  2
AcAmContextMgr
  3
DesignerAssemblies
 90
     1024
 91
        1
280
     0
281
     0
  0
CLASS
  1
ACAMCONTEXTMODELER
  2
AcAmContextModeler
  3
DesignerAssemblies
 90
     1024
 91
        1
280
     0
281
     0
  0
CLASS
  1
ACMDATADICTIONARY
  2
AcmDataDictionary
  3
"AcmSymBB|Product Description: AutoCAD Mechanical|Company: Autodesk, Inc."
 90
     1024
 91
        1
280
     0
281
     0
  0
CLASS
  1
CATALOGSTATE
  2
AcAmCatalogState
  3
DesignerAssemblies
 90
     1024
 91
        1
280
     0
281
     0
  0
CLASS
  1
ACAMGRCOMPDEFSET
  2
AcAmGrCompDefSet
  3
DesignerAssemblies
 90
     1024
 91
        1
280
     0
281
     0
  0
CLASS
  1
AMDTBROWSERDBTAB
  2
AmdtBrowserDbTab
  3
McadcomServices
 90
     1024
 91
        1
280
     0
281
     0
  0
CLASS
  1
CBROWSERAPPOBJECT
  2
CBrowserAppObject
  3
McadcomServices
 90
     1024
 91
        2
280
     0
281
     0
  0
CLASS
  1
DM_PLACEHOLDER
  2
AcDmSelsetPlaceholder
  3
AcMechDwgViewMgmt
 90
     1024
 91
        1
280
     0
281
     0
  0
CLASS
  1
ACMSTANDARDISO
  2
AcmStandardISO
  3
"Amdt_StdImp|Product Description: AutoCAD Mechanical|Company: Autodesk, Inc."
 90
     1024
 91
        1
280
     0
281
     0
  0
CLASS
  1
AMDTEDGESTANDARDISO13715
  2
AmdtEdgeStdISO13715
  3
"Amdt_StdImp|Product Description: AutoCAD Mechanical|Company: Autodesk, Inc."
 90
     1024
 91
        1
280
     0
281
     0
  0
CLASS
  1
ACMSURFSTANDARDISO2002
  2
AcmSurfTextStdISO2002
  3
"Amdt_StdImp|Product Description: AutoCAD Mechanical|Company: Autodesk, Inc."
 90
     1024
 91
        1
280
     0
281
     0
  0
CLASS
  1
ACMFCFSTANDARDISO
  2
AcmFCFStdISO
  3
"Amdt_StdImp|Product Description: AutoCAD Mechanical|Company: Autodesk, Inc."
 90
     1024
 91
        1
280
     0
281
     0
  0
CLASS
  1
ACMWELDSTANDARDISO
  2
AcmWeldingStdISO
  3
"Amdt_StdImp|Product Description: AutoCAD Mechanical|Company: Autodesk, Inc."
 90
     1024
 91
        1
280
     0
281
     0
  0
CLASS
  1
ACMIDSTANDARDISO
  2
AcmIdStdISO
  3
"Amdt_StdImp|Product Description: AutoCAD Mechanical|Company: Autodesk, Inc."
 90
     1024
 91
        1
280
     0
281
     0
  0
CLASS
  1
ACMDATUMSTANDARDISO
  2
AcmDatumStdISO
  3
"Amdt_StdImp|Product Description: AutoCAD Mechanical|Company: Autodesk, Inc."
 90
     1024
 91
        1
280
     0
281
     0
  0
CLASS
  1
ACMBOMSTANDARDISO
  2
AcmBOMStdISO
  3
"Amdt_StdImp|Product Description: AutoCAD Mechanical|Company: Autodesk, Inc."
 90
     1024
 91
        1
280
     0
281
     0
  0
CLASS
  1
ACMDETAILSTANDARDISO
  2
AmdtDetailSymStdISO
  3
"Amdt_StdImp|Product Description: AutoCAD Mechanical|Company: Autodesk, Inc."
 90
     1024
 91
        1
280
     0
281
     0
  0
CLASS
  1
ACMSECTIONSTANDARDISO2001
  2
AmdtSectionSymStdISO2001
  3
"Amdt_StdImp|Product Description: AutoCAD Mechanical|Company: Autodesk, Inc."
 90
     1024
 91
        1
280
     0
281
     0
  0
CLASS
  1
ACMCENTERLINESTANDARDISO
  2
AmdtCenterLineStdISO
  3
"Amdt_StdImp|Product Description: AutoCAD Mechanical|Company: Autodesk, Inc."
 90
     1024
 91
        1
280
     0
281
     0
  0
CLASS
  1
ACMTHREADLINESTANDARDISO
  2
AmdtThreadLineStdISO
  3
"Amdt_StdImp|Product Description: AutoCAD Mechanical|Company: Autodesk, Inc."
 90
     1024
 91
        1
280
     0
281
     0
  0
CLASS
  1
ACMNOTESTANDARDISO
  2
AmdtNoteStdISO
  3
"Amdt_StdImp|Product Description: AutoCAD Mechanical|Company: Autodesk, Inc."
 90
     1024
 91
        1
280
     0
281
     0
  0
CLASS
  1
ACMTAPERSTANDARDISO
  2
AcmTaperStdISO
  3
"Amdt_StdImp|Product Description: AutoCAD Mechanical|Company: Autodesk, Inc."
 90
     1024
 91
        1
280
     0
281
     0
  0
CLASS
  1
ACMANOOTATIONVIEWSTANDARDISO
  2
AmdtAnViewStdISO
  3
"Amdt_StdImp|Product Description: AutoCAD Mechanical|Company: Autodesk, Inc."
 90
     1024
 91
        1
280
     0
281
     0
  0
CLASS
  1
ACAMGLAYSTD
  2
AcAmgLayStd
  3
"AmgLay|Product Description: AutoCAD Mechanical|Company: Autodesk, Inc."
 90
     1024
 91
        1
280
     0
281
     0
  0
CLASS
  1
ACAMGDIMSTD
  2
AcAmgDimStd
  3
"AmgDim|Product Description: AutoCAD Mechanical|Company: Autodesk, Inc."
 90
     1024
 91
        1
280
     0
281
     0
  0
CLASS
  1
AMGOBJPROPCFG
  2
AmgObjPropCfg
  3
"AmgLay|Product Description: AutoCAD Mechanical|Company: Autodesk, Inc."
 90
     1025
 91
        1
280
     0
281
     0
  0
CLASS
  1
ACAMGHOLECHARTSTDISO
  2
AcAmgHoleChartStdISO
  3
AmgDim|Product Description: AutoCAD Mechanical|Company: Autodesk, Inc.
 90
     1024
 91
        1
280
     0
281
     0
  0
CLASS
  1
ACAMGTITLESTD
  2
AcAmgTitleStd
  3
"AmgTitle|Product Description: AutoCAD Mechanical|Company: Autodesk, Inc."
 90
     4095
 91
        1
280
     0
281
     0
  0
CLASS
  1
AMDTNOTETEMPLATEDB
  2
AmdtNoteTemplateDB
  3
AcmSymBB|Product Description: AutoCAD Mechanical|Company: Autodesk, Inc.
 90
     1024
 91
        6
280
     0
281
     0
  0
CLASS
  1
ACAMGFILTERDAT
  2
AcAmgFilterDat
  3
"AcadM|Product Description: AutoCAD Mechanical|Company: Autodesk, Inc."
 90
     1024
 91
        6
280
     0
281
     0
  0
CLASS
  1
AEC_REFEDIT_STATUS_TRACKER
  2
AecDbRefEditStatusTracker
  3
AecArchBase60|Product Desc: Autodesk Architectural Desktop 2007 |Company: Autodesk,Inc. |WEB Address: www.autodesk.com
 90
      129
 91
        1
280
     0
281
     0
  0
CLASS
  1
NPOCOLLECTION
  2
AcDbImpNonPersistentObjectsCollection
  3
ObjectDBX Classes
 90
     1153
 91
        1
280
     0
281
     0
  0
ENDSEC
  0
SECTION
  2
TABLES
  0
TABLE
  2
VPORT
  5
8
102
{ACAD_XDICTIONARY
360
A38
102
}
330
0
100
AcDbSymbolTable
 70
     1
  0
VPORT
  5
57
330
8
100
AcDbSymbolTableRecord
100
AcDbViewportTableRecord
  2
*Active
 70
     0
 10
0.0
 20
0.0
 11
1.0
 21
1.0
 12
241.3668843339745
 22
339.7460953678774
 13
0.0
 23
0.0
 14
1.0
 24
1.0
 15
0.0
 25
0.0
 16
0.0
 26
0.0
 36
1.0
 17
0.0
 27
0.0
 37
0.0
 40
509.1631873958233
 41
1.810226155358898
 42
50.0
 43
0.0
 44
0.0
 50
0.0
 51
0.0
 71
     0
 72
   100
 73
     1
 74
     1
 75
     0
 76
     0
 77
     0
 78
     0
281
     0
 65
     1
110
0.0
120
0.0
130
0.0
111
1.0
121
0.0
131
0.0
112
0.0
122
1.0
132
0.0
 79
     0
146
0.0
  0
ENDTAB
  0
TABLE
  2
LTYPE
  5
5
330
0
100
AcDbSymbolTable
 70
    15
  0
LTYPE
  5
5B
330
5
100
AcDbSymbolTableRecord
100
AcDbLinetypeTableRecord
  2
ByBlock
 70
     0
  3

 72
    65
 73
     0
 40
0.0
  0
LTYPE
  5
5C
330
5
100
AcDbSymbolTableRecord
100
AcDbLinetypeTableRecord
  2
ByLayer
 70
     0
  3

 72
    65
 73
     0
 40
0.0
  0
LTYPE
  5
5D
330
5
100
AcDbSymbolTableRecord
100
AcDbLinetypeTableRecord
  2
Continuous
 70
     0
  3
Solid line
 72
    65
 73
     0
 40
0.0
  0
LTYPE
  5
ADA
330
5
100
AcDbSymbolTableRecord
100
AcDbLinetypeTableRecord
  2
HIDDEN
 70
     0
  3
Skrytá __ __ __ __ __ __ __ __ __ __ __ __ __ __
 72
    65
 73
     2
 40
9.525
 49
6.349999999999999
 74
     0
 49
-3.174999999999999
 74
     0
  0
LTYPE
  5
ADB
330
5
100
AcDbSymbolTableRecord
100
AcDbLinetypeTableRecord
  2
PHANTOM2
 70
     0
  3
Sdružená (.5x) ___ _ _ ___ _ _ ___ _ _ ___ _ _
 72
    65
 73
     6
 40
31.75
 49
15.875
 74
     0
 49
-3.174999999999999
 74
     0
 49
3.174999999999999
 74
     0
 49
-3.174999999999999
 74
     0
 49
3.174999999999999
 74
     0
 49
-3.174999999999999
 74
     0
  0
LTYPE
  5
ADC
330
5
100
AcDbSymbolTableRecord
100
AcDbLinetypeTableRecord
  2
CENTER
 70
     0
  3
Středová ____ _ ____ _ ____ _ ____ _ ____ _ ____
 72
    65
 73
     4
 40
50.8
 49
31.75
 74
     0
 49
-6.349999999999999
 74
     0
 49
6.349999999999999
 74
     0
 49
-6.349999999999999
 74
     0
  0
LTYPE
  5
B22
330
5
100
AcDbSymbolTableRecord
100
AcDbLinetypeTableRecord
  2
AM_ISO02W050
 70
     0
  3
__ __ __ __ __ __ __ __ __ __ __ __ __ __ __
 72
    65
 73
     2
 40
7.5
 49
6.0
 74
     0
 49
-1.5
 74
     0
  0
LTYPE
  5
B23
330
5
100
AcDbSymbolTableRecord
100
AcDbLinetypeTableRecord
  2
AM_ISO08W050
 70
     0
  3
____ . ____ . ____ . ____ . ____ . ____ . ____
 72
    65
 73
     4
 40
18.0
 49
12.0
 74
     0
 49
-1.5
 74
     0
 49
3.0
 74
     0
 49
-1.5
 74
     0
  0
LTYPE
  5
B24
330
5
100
AcDbSymbolTableRecord
100
AcDbLinetypeTableRecord
  2
AM_ISO09W050
 70
     0
  3
_____ . . _____ . . _____ . . ____ .. ____
 72
    65
 73
     6
 40
22.5
 49
12.0
 74
     0
 49
-1.5
 74
     0
 49
3.0
 74
     0
 49
-1.5
 74
     0
 49
3.0
 74
     0
 49
-1.5
 74
     0
  0
LTYPE
  5
B25
330
5
100
AcDbSymbolTableRecord
100
AcDbLinetypeTableRecord
  2
Amconstr
 70
     0
  3
_______________________
 72
    65
 73
     2
 40
9999.0
 49
9999.0
 74
     0
 49
0.0
 74
     0
  0
LTYPE
  5
B26
330
5
100
AcDbSymbolTableRecord
100
AcDbLinetypeTableRecord
  2
AM_ISO08W050x2
 70
     0
  3
__ . __ . __ . __ . __ . __
 72
    65
 73
     4
 40
9.0
 49
6.0
 74
     0
 49
-0.75
 74
     0
 49
1.5
 74
     0
 49
-0.75
 74
     0
  0
LTYPE
  5
B27
330
5
100
AcDbSymbolTableRecord
100
AcDbLinetypeTableRecord
  2
AM_ISO02W050x2
 70
     0
  3
 _ _ _ _ _ _ _ _ _ _ _ _
 72
    65
 73
     2
 40
3.75
 49
3.0
 74
     0
 49
-0.75
 74
     0
  0
LTYPE
  5
B2A
330
5
100
AcDbSymbolTableRecord
100
AcDbLinetypeTableRecord
  2
Amzigzag
 70
     0
  3
/\/-/\/-/\/-/\/-/\/-/\/
 72
    65
 73
     2
 40
11.0001
 49
0.0001
 74
     4
 75
   136
340
B29
 46
0.04
 50
0.0
 44
0.0
 45
0.0
 49
-11.0
 74
     0
  0
LTYPE
  5
B39
330
5
100
AcDbSymbolTableRecord
100
AcDbLinetypeTableRecord
  2
ACISOWELD
 70
     0
  3
_ _ _ _ _
 72
    65
 73
     2
 40
2.0
 49
2.0
 74
     0
 49
-1.0
 74
     0
  0
LTYPE
  5
B3A
330
5
100
AcDbSymbolTableRecord
100
AcDbLinetypeTableRecord
  2
ACISOTGB
 70
     0
  3
__ . . __ . .
 72
    65
 73
     6
 40
9.0
 49
4.0
 74
     0
 49
-1.0
 74
     0
 49
1.0
 74
     0
 49
-1.0
 74
     0
 49
1.0
 74
     0
 49
-1.0
 74
     0
  0
LTYPE
  5
B3B
330
5
100
AcDbSymbolTableRecord
100
AcDbLinetypeTableRecord
  2
ACISOTGL
 70
     0
  3
_ _ _ _ _
 72
    65
 73
     2
 40
3.0
 49
2.0
 74
     0
 49
-1.0
 74
     0
  0
ENDTAB
  0
TABLE
  2
LAYER
  5
2
330
0
100
AcDbSymbolTable
 70
    14
  0
LAYER
  5
54
330
2
100
AcDbSymbolTableRecord
100
AcDbLayerTableRecord
  2
0
 70
     0
 62
     7
  6
Continuous
370
    -3
390
F
  0
LAYER
  5
78
330
2
100
AcDbSymbolTableRecord
100
AcDbLayerTableRecord
  2
Geometrie náčrtu (ISO)
 70
     0
 62
     7
  6
Continuous
370
     9
390
F
  0
LAYER
  5
79
330
2
100
AcDbSymbolTableRecord
100
AcDbLayerTableRecord
  2
KOPF
 70
     0
 62
     8
420
  8421504
  6
Continuous
370
     9
390
F
  0
LAYER
  5
7A
330
2
100
AcDbSymbolTableRecord
100
AcDbLayerTableRecord
  2
Kóta (ISO)
 70
     0
 62
     5
420
      255
  6
Continuous
370
     9
390
F
  0
LAYER
  5
7B
330
2
100
AcDbSymbolTableRecord
100
AcDbLayerTableRecord
  2
Nadpis (ISO)
 70
     0
 62
     7
  6
Continuous
370
    18
390
F
  0
LAYER
  5
85
330
2
100
AcDbSymbolTableRecord
100
AcDbLayerTableRecord
  2
Rámeček (ISO)
 70
     0
 62
     7
  6
Continuous
370
    35
390
F
  0
LAYER
  5
88
330
2
100
AcDbSymbolTableRecord
100
AcDbLayerTableRecord
  2
Skrytá (ISO)
 70
     0
 62
   142
420
    32960
  6
Continuous
370
     9
390
F
  0
LAYER
  5
8B
330
2
100
AcDbSymbolTableRecord
100
AcDbLayerTableRecord
  2
TEXT35
 70
     0
 62
    12
420
 13369344
  6
Continuous
370
    20
390
F
  0
LAYER
  5
8C
330
2
100
AcDbSymbolTableRecord
100
AcDbLayerTableRecord
  2
TEXT50
 70
     0
 62
     7
  6
Continuous
370
    20
390
F
  0
LAYER
  5
8D
330
2
100
AcDbSymbolTableRecord
100
AcDbLayerTableRecord
  2
Viditelná (ISO)
 70
     0
 62
     7
  6
Continuous
370
    35
390
F
  0
LAYER
  5
8E
330
2
100
AcDbSymbolTableRecord
100
AcDbLayerTableRecord
  2
Viditelná tenká (ISO)
 70
     0
 62
     7
  6
Continuous
370
     9
390
F
  0
LAYER
  5
8F
330
2
100
AcDbSymbolTableRecord
100
AcDbLayerTableRecord
  2
Značka (ISO)
 70
     0
 62
     5
420
      255
  6
Continuous
370
     9
390
F
  0
LAYER
  5
6F1
330
2
100
AcDbSymbolTableRecord
100
AcDbLayerTableRecord
  2
Defpoints
 70
     0
 62
     7
  6
Continuous
290
     0
370
    -3
390
F
  0
LAYER
  5
B7E
330
2
100
AcDbSymbolTableRecord
100
AcDbLayerTableRecord
  2
Osa (ISO)
 70
     0
 62
     1
420
 16711680
  6
Continuous
370
     9
390
F
  0
ENDTAB
  0
TABLE
  2
STYLE
  5
3
330
0
100
AcDbSymbolTable
 70
    21
  0
STYLE
  5
55
330
3
100
AcDbSymbolTableRecord
100
AcDbTextStyleTableRecord
  2
Standard
 70
     0
 40
0.0
 41
1.0
 50
0.0
 71
     0
 42
0.2
  3
TAHOMA.TTF
  4

1001
ACAD
1000
Tahoma
1071
      256
  0
STYLE
  5
5A
330
3
100
AcDbSymbolTableRecord
100
AcDbTextStyleTableRecord
  2
Annotative
 70
     0
 40
0.0
 41
1.0
 50
0.0
 71
     0
 42
0.2
  3
txt
  4

1001
AcadAnnotative
1000
AnnotativeData
1002
{
1070
     1
1070
     1
1002
}
  0
STYLE
  5
90
330
3
100
AcDbSymbolTableRecord
100
AcDbTextStyleTableRecord
  2
ITALICC8_57
 70
     0
 40
0.0
 41
1.0
 50
0.0
 71
     0
 42
0.2
  3
TAHOMA.TTF
  4

1001
ACAD
1000
Tahoma
1071
      256
  0
STYLE
  5
91
330
3
100
AcDbSymbolTableRecord
100
AcDbTextStyleTableRecord
  2
kusovnik
 70
     0
 40
0.0
 41
1.0
 50
0.0
 71
     0
 42
0.2
  3
ARIAL.TTF
  4

1001
ACAD
1000
Arial
1071
      256
  0
STYLE
  5
92
330
3
100
AcDbSymbolTableRecord
100
AcDbTextStyleTableRecord
  2
ROMANS8_69
 70
     0
 40
0.0
 41
1.0
 50
0.0
 71
     0
 42
0.2
  3
TAHOMA.TTF
  4

1001
ACAD
1000
Tahoma
1071
      256
  0
STYLE
  5
93
330
3
100
AcDbSymbolTableRecord
100
AcDbTextStyleTableRecord
  2
Text popisu (ISO)
 70
     0
 40
0.0
 41
1.0
 50
0.0
 71
     0
 42
0.2
  3
TAHOMA.TTF
  4

1001
ACAD
1000
Tahoma
1071
      256
  0
STYLE
  5
94
330
3
100
AcDbSymbolTableRecord
100
AcDbTextStyleTableRecord
  2
Text poznámky (DIN)
 70
     0
 40
0.0
 41
1.0
 50
0.0
 71
     0
 42
0.2
  3
isocpeur.ttf
  4

1001
ACAD
1000
ISOCPEUR
1071
      256
  0
STYLE
  5
95
330
3
100
AcDbSymbolTableRecord
100
AcDbTextStyleTableRecord
  2
Text poznámky (ISO)
 70
     0
 40
0.0
 41
1.0
 50
0.0
 71
     0
 42
0.2
  3
TAHOMA.TTF
  4

1001
ACAD
1000
Tahoma
1071
      256
  0
STYLE
  5
96
330
3
100
AcDbSymbolTableRecord
100
AcDbTextStyleTableRecord
  2
TEXT20_41
 70
     0
 40
0.0
 41
1.0
 50
0.0
 71
     0
 42
0.2
  3
TAHOMA.TTF
  4

1001
ACAD
1000
Tahoma
1071
      256
  0
STYLE
  5
97
330
3
100
AcDbSymbolTableRecord
100
AcDbTextStyleTableRecord
  2
TEXT20_59
 70
     0
 40
0.0
 41
1.0
 50
0.0
 71
     0
 42
0.2
  3
TAHOMA.TTF
  4

1001
ACAD
1000
Tahoma
1071
      256
  0
STYLE
  5
1C1
330
3
100
AcDbSymbolTableRecord
100
AcDbTextStyleTableRecord
  2
Styl textu62
 70
     0
 40
0.0
 41
0.8000000119209289
 50
0.0
 71
     0
 42
0.2
  3
TAHOMA.TTF
  4

1001
ACAD
1000
Tahoma
1071
      256
  0
STYLE
  5
1C8
330
3
100
AcDbSymbolTableRecord
100
AcDbTextStyleTableRecord
  2
Styl textu58
 70
     0
 40
0.0
 41
0.8000000119209289
 50
0.0
 71
     0
 42
0.2
  3
TAHOMA.TTF
  4

1001
ACAD
1000
Tahoma
1071
      256
  0
STYLE
  5
1CA
330
3
100
AcDbSymbolTableRecord
100
AcDbTextStyleTableRecord
  2
Styl textu63
 70
     0
 40
0.0
 41
0.75
 50
0.0
 71
     0
 42
0.2
  3
TAHOMA.TTF
  4

1001
ACAD
1000
Tahoma
1071
      256
  0
STYLE
  5
1CD
330
3
100
AcDbSymbolTableRecord
100
AcDbTextStyleTableRecord
  2
Styl textu72
 70
     0
 40
0.0
 41
0.6999999880790711
 50
0.0
 71
     0
 42
0.2
  3
TAHOMA.TTF
  4

1001
ACAD
1000
Tahoma
1071
      256
  0
STYLE
  5
1D0
330
3
100
AcDbSymbolTableRecord
100
AcDbTextStyleTableRecord
  2
Styl textu75
 70
     0
 40
0.0
 41
0.8000000119209289
 50
0.0
 71
     0
 42
0.2
  3
TAHOMA.TTF
  4

1001
ACAD
1000
Tahoma
1071
      256
  0
STYLE
  5
1E7
330
3
100
AcDbSymbolTableRecord
100
AcDbTextStyleTableRecord
  2
Styl textu9
 70
     0
 40
0.0
 41
1.0
 50
0.0
 71
     0
 42
0.2
  3
ARIAL.TTF
  4

1001
ACAD
1000
Arial
1071
      256
  0
STYLE
  5
1EB
330
3
100
AcDbSymbolTableRecord
100
AcDbTextStyleTableRecord
  2
Styl textu40
 70
     0
 40
0.0
 41
1.0
 50
0.0
 71
     0
 42
0.2
  3
ARIAL.TTF
  4

1001
ACAD
1000
Arial
1071
      256
  0
STYLE
  5
1F0
330
3
100
AcDbSymbolTableRecord
100
AcDbTextStyleTableRecord
  2
Styl textu94
 70
     0
 40
0.0
 41
1.0
 50
0.0
 71
     0
 42
0.2
  3
TAHOMA.TTF
  4

1001
ACAD
1000
Tahoma
1071
      256
  0
STYLE
  5
B29
330
3
100
AcDbSymbolTableRecord
100
AcDbTextStyleTableRecord
  2

 70
     1
 40
0.0
 41
1.0
 50
0.0
 71
     0
 42
0.2
  3
genltshp.shx
  4

  0
STYLE
  5
B37
330
3
100
AcDbSymbolTableRecord
100
AcDbTextStyleTableRecord
  2
ACISOTS
 70
     0
 40
1.0
 41
1.0
 50
0.0
 71
     0
 42
0.2
  3
isocp.shx
  4

  0
STYLE
  5
B38
330
3
100
AcDbSymbolTableRecord
100
AcDbTextStyleTableRecord
  2
ACISOGDT
 70
     0
 40
0.0
 41
1.0
 50
0.0
 71
     0
 42
0.2
  3
amgdt.shx
  4

  0
ENDTAB
  0
TABLE
  2
VIEW
  5
6
330
0
100
AcDbSymbolTable
 70
     0
  0
ENDTAB
  0
TABLE
  2
UCS
  5
7
330
0
100
AcDbSymbolTable
 70
     0
  0
ENDTAB
  0
TABLE
  2
APPID
  5
9
330
0
100
AcDbSymbolTable
 70
    20
  0
APPID
  5
56
330
9
100
AcDbSymbolTableRecord
100
AcDbRegAppTableRecord
  2
ACAD
 70
     0
  0
APPID
  5
5E
330
9
100
AcDbSymbolTableRecord
100
AcDbRegAppTableRecord
  2
AcadAnnotative
 70
     0
  0
APPID
  5
1EA
330
9
100
AcDbSymbolTableRecord
100
AcDbRegAppTableRecord
  2
AcadAnnoPO
 70
     0
  0
APPID
  5
A6E
330
9
100
AcDbSymbolTableRecord
100
AcDbRegAppTableRecord
  2
ACAD_MLEADERVER
 70
     0
  0
APPID
  5
AAD
330
9
100
AcDbSymbolTableRecord
100
AcDbRegAppTableRecord
  2
MCAD_NO_VIS
 70
     0
  0
APPID
  5
AAE
330
9
100
AcDbSymbolTableRecord
100
AcDbRegAppTableRecord
  2
ACAD_TEMP_GRAPHIC
 70
     0
  0
APPID
  5
ADE
330
9
100
AcDbSymbolTableRecord
100
AcDbRegAppTableRecord
  2
AD_DRAW
 70
     0
  0
APPID
  5
AE1
330
9
100
AcDbSymbolTableRecord
100
AcDbRegAppTableRecord
  2
ACATTRIBSERVICES
 70
     0
  0
APPID
  5
B01
330
9
100
AcDbSymbolTableRecord
100
AcDbRegAppTableRecord
  2
DESIGNERASSEMBLIES
 70
     0
  0
APPID
  5
B07
330
9
100
AcDbSymbolTableRecord
100
AcDbRegAppTableRecord
  2
ACADM_DIM_EDIT
 70
     0
  0
APPID
  5
B08
330
9
100
AcDbSymbolTableRecord
100
AcDbRegAppTableRecord
  2
AMDT_DM_ADJ
 70
     0
  0
APPID
  5
B1F
330
9
100
AcDbSymbolTableRecord
100
AcDbRegAppTableRecord
  2
ACAD_DSTYLE_DIMJAG
 70
     0
  0
APPID
  5
B20
330
9
100
AcDbSymbolTableRecord
100
AcDbRegAppTableRecord
  2
ACAD_DSTYLE_DIMBREAK
 70
     0
  0
APPID
  5
B7F
330
9
100
AcDbSymbolTableRecord
100
AcDbRegAppTableRecord
  2
ACAD_DSTYLE_DIMINSPECT
 70
     0
  0
APPID
  5
28F4
330
9
100
AcDbSymbolTableRecord
100
AcDbRegAppTableRecord
  2
ACAD_EXEMPT_FROM_CAD_STANDARDS
 70
     0
  0
APPID
  5
2917
330
9
100
AcDbSymbolTableRecord
100
AcDbRegAppTableRecord
  2
GENIUS_GENDTOL_13
 70
     0
  0
APPID
  5
2972
330
9
100
AcDbSymbolTableRecord
100
AcDbRegAppTableRecord
  2
ACAD_DSTYLE_DIMARC_LENGTH_SYMBOL
 70
     0
  0
APPID
  5
2973
330
9
100
AcDbSymbolTableRecord
100
AcDbRegAppTableRecord
  2
ACAD_DSTYLE_DIM_LINETYPE
 70
     0
  0
APPID
  5
2974
330
9
100
AcDbSymbolTableRecord
100
AcDbRegAppTableRecord
  2
ACAD_DSTYLE_DIM_EXT1_LINETYPE
 70
     0
  0
APPID
  5
2975
330
9
100
AcDbSymbolTableRecord
100
AcDbRegAppTableRecord
  2
ACAD_DSTYLE_DIM_EXT2_LINETYPE
 70
     0
  0
ENDTAB
  0
TABLE
  2
DIMSTYLE
  5
A
330
0
100
AcDbSymbolTable
 70
    24
100
AcDbDimStyleTable
 71
     2
340
58
340
B0
  0
DIMSTYLE
105
58
330
A
100
AcDbSymbolTableRecord
100
AcDbDimStyleTableRecord
  2
Standard
 70
     0
340
55
  0
DIMSTYLE
105
59
330
A
100
AcDbSymbolTableRecord
100
AcDbDimStyleTableRecord
  2
Annotative
 70
     0
340
55
1001
AcadAnnotative
1000
AnnotativeData
1002
{
1070
     1
1070
     1
1002
}
  0
DIMSTYLE
105
A6
330
A
100
AcDbSymbolTableRecord
100
AcDbDimStyleTableRecord
  2
Různé objekty (ISO)
 70
     0
 40
1.666666666666666
 41
2.5
 42
0.0
 43
5.999999999999999
 44
1.0
 45
0.00000001
 46
10.0
 73
     0
 74
     0
 77
     1
 78
     8
 79
     2
140
5.25
143
0.03937
146
0.6676571709769112
147
0.762
171
     3
172
     1
176
   256
177
   256
178
   256
179
     2
271
     2
272
     2
274
     3
278
    44
284
     8
340
93
341
98
371
    -1
372
    -1
  0
DIMSTYLE
105
A7
330
A
100
AcDbSymbolTableRecord
100
AcDbDimStyleTableRecord
  2
Různé objekty (ISO)$7
 70
     0
 40
1.666666666666666
 41
5.0
 42
0.0
 43
5.999999999999999
 44
1.0
 45
0.00000001
 46
10.0
 73
     0
 74
     0
 77
     1
 78
     8
 79
     2
140
5.25
143
0.03937
146
0.6676571709769112
147
0.762
171
     3
172
     1
176
   256
177
   256
178
   256
179
     2
271
     2
272
     2
274
     3
278
    44
284
     8
340
93
341
98
371
    25
372
    -1
  0
DIMSTYLE
105
A8
330
A
100
AcDbSymbolTableRecord
100
AcDbDimStyleTableRecord
  2
Výchozí - Metoda 1b (ISO)
 70
     0
 40
1.666666666666666
 41
2.5
 42
0.0
 43
5.999999999999999
 44
1.0
 45
0.00000001
 46
10.0
 73
     0
 77
     1
 78
     8
 79
     2
140
3.5
143
0.03937
147
0.762
171
     3
172
     1
176
   256
177
   256
178
   256
179
     2
271
     2
272
     2
274
     3
278
    44
284
     8
286
     8
340
95
371
    -1
372
    -1
  0
DIMSTYLE
105
A9
330
A
100
AcDbSymbolTableRecord
100
AcDbDimStyleTableRecord
  2
Výchozí - Metoda 1b (ISO)$7
 70
     0
 40
1.666666666666666
 41
2.5
 42
0.0
 43
5.999999999999999
 44
1.0
 45
0.00000001
 46
10.0
 73
     0
 77
     1
 78
     8
 79
     2
140
3.5
143
0.03937
147
0.762
171
     3
172
     1
176
   256
177
   256
178
   256
179
     2
271
     2
272
     2
274
     3
278
    44
284
     8
286
     8
340
95
371
    -1
372
    -1
  0
DIMSTYLE
105
AA
330
A
100
AcDbSymbolTableRecord
100
AcDbDimStyleTableRecord
  2
Výchozí - Metoda 2a (ISO)
 70
     0
 40
1.666666666666666
 41
2.5
 42
0.0
 43
5.999999999999999
 44
1.0
 45
0.00000001
 46
10.0
 77
     1
 78
     8
 79
     2
140
3.5
143
0.03937
147
0.762
171
     3
172
     1
176
   256
177
   256
178
   256
179
     2
271
     2
272
     2
274
     3
278
    44
284
     8
286
     8
340
95
371
    -1
372
    -1
  0
DIMSTYLE
105
AB
330
A
100
AcDbSymbolTableRecord
100
AcDbDimStyleTableRecord
  2
Výchozí - Metoda 2a (ISO)$7
 70
     0
 40
1.666666666666666
 41
2.5
 42
0.0
 43
5.999999999999999
 44
1.0
 45
0.00000001
 46
10.0
 77
     1
 78
     8
 79
     2
140
3.5
143
0.03937
147
0.762
171
     3
172
     1
176
   256
177
   256
178
   256
179
     2
271
     2
272
     2
274
     3
278
    44
284
     8
286
     8
340
95
371
    -1
372
    -1
  0
DIMSTYLE
105
AC
330
A
100
AcDbSymbolTableRecord
100
AcDbDimStyleTableRecord
  2
Výchozí - Metoda 2b (ISO)
 70
     0
 40
1.666666666666666
 41
2.5
 42
0.0
 43
5.999999999999999
 44
1.0
 45
0.00000001
 46
10.0
 77
     1
 78
     8
 79
     2
140
3.5
143
0.03937
147
0.762
171
     3
172
     1
176
   256
177
   256
178
   256
179
     2
271
     2
272
     2
274
     3
278
    44
284
     8
286
     8
340
95
371
    -1
372
    -1
  0
DIMSTYLE
105
AD
330
A
100
AcDbSymbolTableRecord
100
AcDbDimStyleTableRecord
  2
Výchozí - Metoda 2b (ISO)$7
 70
     0
 40
1.666666666666666
 41
2.5
 42
0.0
 43
5.999999999999999
 44
1.0
 45
0.00000001
 46
10.0
 77
     1
 78
     8
 79
     2
140
3.5
143
0.03937
147
0.762
171
     3
172
     1
176
   256
177
   256
178
   256
179
     2
271
     2
272
     2
274
     3
278
    44
284
     8
286
     8
340
95
371
    -1
372
    -1
  0
DIMSTYLE
105
AE
330
A
100
AcDbSymbolTableRecord
100
AcDbDimStyleTableRecord
  2
Výchozí - mm [palce] (ISO)
 70
     0
  4
 in
 40
1.666666666666666
 41
2.5
 42
0.0
 43
5.999999999999999
 44
3.174999999999999
 45
0.00000001
 46
10.0
 73
     0
 74
     0
 77
     1
 78
     8
 79
     2
140
3.5
143
0.03937
147
0.762
170
     1
171
     3
172
     1
176
   256
177
   256
178
   256
179
     3
271
     3
272
     2
274
     3
275
     1
278
    44
284
     8
285
     8
286
     8
340
95
371
    -1
372
    -1
  0
DIMSTYLE
105
AF
330
A
100
AcDbSymbolTableRecord
100
AcDbDimStyleTableRecord
  2
Výchozí - mm [palce] (ISO)$7
 70
     0
  4
 in
 40
1.666666666666666
 41
2.5
 42
0.0
 43
5.999999999999999
 44
3.174999999999999
 45
0.00000001
 46
10.0
 73
     0
 74
     0
 77
     1
 78
     8
 79
     2
140
3.5
143
0.03937
147
0.762
170
     1
171
     3
172
     1
176
   256
177
   256
178
   256
179
     3
271
     3
272
     2
274
     3
275
     1
278
    44
284
     8
285
     8
286
     8
340
95
371
    -1
372
    -1
  0
DIMSTYLE
105
B0
102
{ACAD_REACTORS
330
6F0
330
8BD
102
}
330
A
100
AcDbSymbolTableRecord
100
AcDbDimStyleTableRecord
  2
Výchozí (ISO)
 70
     0
 40
1.666666666666666
 41
2.5
 42
0.0
 43
5.999999999999999
 44
1.0
 45
0.00000001
 46
10.0
 73
     0
 74
     0
 77
     1
 78
     8
 79
     2
140
3.5
143
0.03937
146
1.001485756465366
147
0.762
171
     3
172
     1
176
   256
177
   256
178
   256
179
     2
271
     2
272
     2
274
     3
278
    44
284
     8
340
95
371
    -1
372
    -1
  0
DIMSTYLE
105
B1
330
A
100
AcDbSymbolTableRecord
100
AcDbDimStyleTableRecord
  2
Výchozí (ISO)$7
 70
     0
 40
1.666666666666666
 41
2.5
 42
0.0
 43
5.999999999999999
 44
1.0
 45
0.00000001
 46
10.0
 73
     0
 74
     0
 77
     1
 78
     8
 79
     2
140
3.5
143
0.03937
146
1.001485756465366
147
0.762
171
     3
172
     1
176
   256
177
   256
178
   256
179
     2
271
     2
272
     2
274
     3
278
    44
284
     8
340
95
371
    -1
372
    -1
  0
DIMSTYLE
105
B2
330
A
100
AcDbSymbolTableRecord
100
AcDbDimStyleTableRecord
  2
Alternativní (ISO)
 70
     0
 40
1.666666666666666
 41
2.5
340
55
342
B3
  0
DIMSTYLE
105
C4
330
A
100
AcDbSymbolTableRecord
100
AcDbDimStyleTableRecord
  2
Základny (ISO)
 70
     0
 40
1.666666666666666
 41
2.5
340
55
342
B3
  0
DIMSTYLE
105
B1E
102
{ACAD_REACTORS
330
B0D
102
}
330
A
100
AcDbSymbolTableRecord
100
AcDbDimStyleTableRecord
  2
AM_ISO
 70
     0
  4
"
 41
3.5
 42
1.0
 43
10.0
 44
1.0
 47
0.1
 48
0.1
 73
     0
 74
     0
 77
     1
 78
     8
 79
     2
140
3.5
141
0.0
143
0.0393701
146
0.71
147
1.5
172
     1
176
   256
177
   256
178
     2
271
     2
272
     3
274
     4
283
     0
284
     8
340
55
371
    -1
372
    -1
1001
ACAD_DSTYLE_DIMJAG
1070
   388
1040
1.5
1001
ACAD_DSTYLE_DIMBREAK
1070
   391
1040
3.75
1001
ACAD_DSTYLE_DIMARC_LENGTH_SYMBOL
1070
   379
1070
     1
1001
ACAD_DSTYLE_DIM_LINETYPE
1070
   380
1005
5B
1001
ACAD_DSTYLE_DIM_EXT1_LINETYPE
1070
   381
1005
5B
1001
ACAD_DSTYLE_DIM_EXT2_LINETYPE
1070
   382
1005
5B
  0
DIMSTYLE
105
B2B
330
A
100
AcDbSymbolTableRecord
100
AcDbDimStyleTableRecord
  2
AM_ISO$3
 70
     0
  4
"
 41
3.5
 42
1.0
 43
10.0
 44
1.0
 47
0.1
 48
0.1
 73
     0
 77
     1
 78
     8
 79
     2
140
3.5
141
0.0
143
0.0393701
146
0.71
147
1.5
176
   256
177
   256
178
     2
271
     2
272
     3
274
     4
283
     0
284
     8
288
     1
289
     0
340
55
371
    -1
372
    -1
1001
ACAD_DSTYLE_DIMBREAK
1070
   391
1040
3.75
1001
ACAD_DSTYLE_DIMJAG
1070
   388
1040
1.5
1001
ACAD_DSTYLE_DIMARC_LENGTH_SYMBOL
1070
   379
1070
     1
1001
ACAD_DSTYLE_DIM_LINETYPE
1070
   380
1005
5B
1001
ACAD_DSTYLE_DIM_EXT1_LINETYPE
1070
   381
1005
5B
1001
ACAD_DSTYLE_DIM_EXT2_LINETYPE
1070
   382
1005
5B
  0
DIMSTYLE
105
B2C
330
A
100
AcDbSymbolTableRecord
100
AcDbDimStyleTableRecord
  2
AM_ISO$4
 70
     0
  4
"
 41
3.5
 42
1.0
 43
10.0
 44
1.0
 47
0.1
 48
0.1
 73
     0
 77
     1
 78
     8
 79
     2
140
3.5
141
0.0
143
0.0393701
146
0.71
147
1.5
176
   256
177
   256
178
     2
271
     2
272
     3
274
     4
283
     0
284
     8
288
     1
289
     0
340
55
371
    -1
372
    -1
1001
ACAD_DSTYLE_DIMBREAK
1070
   391
1040
3.75
1001
ACAD_DSTYLE_DIMJAG
1070
   388
1040
1.5
1001
ACAD_DSTYLE_DIMARC_LENGTH_SYMBOL
1070
   379
1070
     1
1001
ACAD_DSTYLE_DIM_LINETYPE
1070
   380
1005
5B
1001
ACAD_DSTYLE_DIM_EXT1_LINETYPE
1070
   381
1005
5B
1001
ACAD_DSTYLE_DIM_EXT2_LINETYPE
1070
   382
1005
5B
  0
DIMSTYLE
105
B2D
330
A
100
AcDbSymbolTableRecord
100
AcDbDimStyleTableRecord
  2
AM_ISO$6
 70
     0
  4
"
 41
3.5
 42
1.0
 43
10.0
 44
1.0
 47
0.1
 48
0.1
 73
     0
 74
     0
 78
     8
 79
     2
140
3.5
141
0.0
143
0.0393701
146
0.71
147
1.5
172
     1
176
   256
177
   256
178
     2
271
     2
272
     3
274
     4
283
     0
284
     8
340
55
371
    -1
372
    -1
1001
ACAD_DSTYLE_DIMBREAK
1070
   391
1040
3.75
1001
ACAD_DSTYLE_DIMJAG
1070
   388
1040
1.5
1001
ACAD_DSTYLE_DIMARC_LENGTH_SYMBOL
1070
   379
1070
     1
1001
ACAD_DSTYLE_DIM_LINETYPE
1070
   380
1005
5B
1001
ACAD_DSTYLE_DIM_EXT1_LINETYPE
1070
   381
1005
5B
1001
ACAD_DSTYLE_DIM_EXT2_LINETYPE
1070
   382
1005
5B
  0
DIMSTYLE
105
B2E
330
A
100
AcDbSymbolTableRecord
100
AcDbDimStyleTableRecord
  2
AM_ISO$7
 70
     0
  4
"
 41
3.5
 42
1.0
 43
10.0
 44
1.0
 47
0.1
 48
0.1
 73
     0
 74
     0
 77
     1
 78
     8
 79
     2
140
3.5
141
0.0
143
0.0393701
146
0.71
147
1.5
172
     1
176
   256
177
   256
178
     2
271
     2
272
     3
274
     4
283
     0
284
     8
340
55
371
    -1
372
    -1
1001
ACAD_DSTYLE_DIMBREAK
1070
   391
1040
3.75
1001
ACAD_DSTYLE_DIMJAG
1070
   388
1040
1.5
1001
ACAD_DSTYLE_DIMARC_LENGTH_SYMBOL
1070
   379
1070
     1
1001
ACAD_DSTYLE_DIM_LINETYPE
1070
   380
1005
5B
1001
ACAD_DSTYLE_DIM_EXT1_LINETYPE
1070
   381
1005
5B
1001
ACAD_DSTYLE_DIM_EXT2_LINETYPE
1070
   382
1005
5B
  0
DIMSTYLE
105
B2F
330
A
100
AcDbSymbolTableRecord
100
AcDbDimStyleTableRecord
  2
AM_ISO$SF
 70
     0
  4
"
 41
3.5
 42
1.0
 43
10.0
 44
1.0
 47
0.1
 48
0.1
 73
     0
 74
     0
 75
     1
 76
     1
 77
     1
 78
     8
 79
     2
140
3.5
141
0.0
143
0.0393701
146
0.71
147
1.5
172
     1
176
   256
177
   256
178
     2
271
     2
272
     3
274
     4
283
     0
284
     8
340
55
371
    -1
372
    -1
1001
ACAD_DSTYLE_DIMBREAK
1070
   391
1040
3.75
1001
ACAD_DSTYLE_DIMJAG
1070
   388
1040
1.5
1001
ACAD_DSTYLE_DIMARC_LENGTH_SYMBOL
1070
   379
1070
     1
1001
ACAD_DSTYLE_DIM_LINETYPE
1070
   380
1005
5B
1001
ACAD_DSTYLE_DIM_EXT1_LINETYPE
1070
   381
1005
5B
1001
ACAD_DSTYLE_DIM_EXT2_LINETYPE
1070
   382
1005
5B
  0
DIMSTYLE
105
B34
330
A
100
AcDbSymbolTableRecord
100
AcDbDimStyleTableRecord
  2
AM_ISO$SH
 70
     0
  4
"
 41
3.5
 42
1.0
 43
10.0
 44
1.0
 47
0.1
 48
0.1
 73
     0
 74
     0
 75
     1
 76
     1
 77
     1
 78
     8
 79
     2
140
3.5
141
0.0
143
0.0393701
144
2.0
146
0.71
147
1.5
172
     1
173
     1
176
   256
177
   256
178
     2
271
     2
272
     3
274
     4
283
     0
284
     8
340
55
343
B30
371
    -1
372
    -1
1001
ACAD_DSTYLE_DIMBREAK
1070
   391
1040
3.75
1001
ACAD_DSTYLE_DIMJAG
1070
   388
1040
1.5
1001
ACAD_DSTYLE_DIMARC_LENGTH_SYMBOL
1070
   379
1070
     1
1001
ACAD_DSTYLE_DIM_LINETYPE
1070
   380
1005
5B
1001
ACAD_DSTYLE_DIM_EXT1_LINETYPE
1070
   381
1005
5B
1001
ACAD_DSTYLE_DIM_EXT2_LINETYPE
1070
   382
1005
5B
  0
ENDTAB
  0
TABLE
  2
BLOCK_RECORD
  5
1
330
0
100
AcDbSymbolTable
 70
    44
  0
BLOCK_RECORD
  5
6C
330
1
100
AcDbSymbolTableRecord
100
AcDbBlockTableRecord
  2
*Model_Space
340
6F
  0
BLOCK_RECORD
  5
68
330
1
100
AcDbSymbolTableRecord
100
AcDbBlockTableRecord
  2
*Paper_Space
340
6B
  0
BLOCK_RECORD
  5
70
330
1
100
AcDbSymbolTableRecord
100
AcDbBlockTableRecord
  2
*Paper_Space0
340
73
  0
BLOCK_RECORD
  5
98
330
1
100
AcDbSymbolTableRecord
100
AcDbBlockTableRecord
  2
Filled-1
340
0
  0
BLOCK_RECORD
  5
B3
330
1
100
AcDbSymbolTableRecord
100
AcDbBlockTableRecord
  2
_Closed
340
0
  0
BLOCK_RECORD
  5
BA
330
1
100
AcDbSymbolTableRecord
100
AcDbBlockTableRecord
  2
DatumFilled45
340
0
  0
BLOCK_RECORD
  5
C5
330
1
100
AcDbSymbolTableRecord
100
AcDbBlockTableRecord
  2
WIG-svarovani
340
0
  0
BLOCK_RECORD
  5
CA
330
1
100
AcDbSymbolTableRecord
100
AcDbBlockTableRecord
  2
Popis kotvy_srouby
340
0
  0
BLOCK_RECORD
  5
CE
330
1
100
AcDbSymbolTableRecord
100
AcDbBlockTableRecord
  2
Mater. provedeni Art.
340
0
  0
BLOCK_RECORD
  5
F0
330
1
100
AcDbSymbolTableRecord
100
AcDbBlockTableRecord
  2
Art. s popisy
340
0
  0
BLOCK_RECORD
  5
112
330
1
100
AcDbSymbolTableRecord
100
AcDbBlockTableRecord
  2
Tryskat
340
0
  0
BLOCK_RECORD
  5
116
330
1
100
AcDbSymbolTableRecord
100
AcDbBlockTableRecord
  2
Morit
340
0
  0
BLOCK_RECORD
  5
11A
330
1
100
AcDbSymbolTableRecord
100
AcDbBlockTableRecord
  2
zinkovat
340
0
  0
BLOCK_RECORD
  5
11E
330
1
100
AcDbSymbolTableRecord
100
AcDbBlockTableRecord
  2
Nater
340
0
  0
BLOCK_RECORD
  5
122
330
1
100
AcDbSymbolTableRecord
100
AcDbBlockTableRecord
  2
Brus
340
0
  0
BLOCK_RECORD
  5
126
330
1
100
AcDbSymbolTableRecord
100
AcDbBlockTableRecord
  2
Elektroliticky lestit
340
0
  0
BLOCK_RECORD
  5
12B
330
1
100
AcDbSymbolTableRecord
100
AcDbBlockTableRecord
  2
Rámečky Default Border
340
0
  0
BLOCK_RECORD
  5
182
330
1
100
AcDbSymbolTableRecord
100
AcDbBlockTableRecord
  2
Rohová razítka ACO-razitko
340
0
  0
BLOCK_RECORD
  5
6F2
330
1
100
AcDbSymbolTableRecord
100
AcDbBlockTableRecord
  2
*D16
340
0
  0
BLOCK_RECORD
  5
7D3
330
1
100
AcDbSymbolTableRecord
100
AcDbBlockTableRecord
  2
KUSOVNÍK
340
0
  0
BLOCK_RECORD
  5
850
330
1
100
AcDbSymbolTableRecord
100
AcDbBlockTableRecord
  2
Pozice1
340
0
  0
BLOCK_RECORD
  5
862
330
1
100
AcDbSymbolTableRecord
100
AcDbBlockTableRecord
  2
Pozice2
340
0
  0
BLOCK_RECORD
  5
874
330
1
100
AcDbSymbolTableRecord
100
AcDbBlockTableRecord
  2
Pozice3
340
0
  0
BLOCK_RECORD
  5
886
330
1
100
AcDbSymbolTableRecord
100
AcDbBlockTableRecord
  2
Pozice4
340
0
  0
BLOCK_RECORD
  5
898
330
1
100
AcDbSymbolTableRecord
100
AcDbBlockTableRecord
  2
Pozice5
340
0
  0
BLOCK_RECORD
  5
8AA
330
1
100
AcDbSymbolTableRecord
100
AcDbBlockTableRecord
  2
Pozice6
340
0
  0
BLOCK_RECORD
  5
8BE
330
1
100
AcDbSymbolTableRecord
100
AcDbBlockTableRecord
  2
*D24
340
0
  0
BLOCK_RECORD
  5
9A0
330
1
100
AcDbSymbolTableRecord
100
AcDbBlockTableRecord
  2
Pozice7
340
0
  0
BLOCK_RECORD
  5
9B2
330
1
100
AcDbSymbolTableRecord
100
AcDbBlockTableRecord
  2
Pozice8
340
0
  0
BLOCK_RECORD
  5
9C4
330
1
100
AcDbSymbolTableRecord
100
AcDbBlockTableRecord
  2
Pozice9
340
0
  0
BLOCK_RECORD
  5
9D8
330
1
100
AcDbSymbolTableRecord
100
AcDbBlockTableRecord
  2
Pozice10
340
0
  0
BLOCK_RECORD
  5
9EA
330
1
100
AcDbSymbolTableRecord
100
AcDbBlockTableRecord
  2
Pozice11
340
0
  0
BLOCK_RECORD
  5
B30
330
1
100
AcDbSymbolTableRecord
100
AcDbBlockTableRecord
  2
GENAXEH
340
0
  0
BLOCK_RECORD
  5
B43
330
1
100
AcDbSymbolTableRecord
100
AcDbBlockTableRecord
  2
*D32
340
0
  0
BLOCK_RECORD
  5
B4F
330
1
100
AcDbSymbolTableRecord
100
AcDbBlockTableRecord
  2
*D33
340
0
  0
BLOCK_RECORD
  5
B5B
330
1
100
AcDbSymbolTableRecord
100
AcDbBlockTableRecord
  2
*D34
340
0
  0
BLOCK_RECORD
  5
B67
330
1
100
AcDbSymbolTableRecord
100
AcDbBlockTableRecord
  2
*D35
340
0
  0
BLOCK_RECORD
  5
B72
330
1
100
AcDbSymbolTableRecord
100
AcDbBlockTableRecord
  2
*D36
340
0
  0
BLOCK_RECORD
  5
2860
330
1
100
AcDbSymbolTableRecord
100
AcDbBlockTableRecord
  2
*D38
340
0
  0
BLOCK_RECORD
  5
286C
330
1
100
AcDbSymbolTableRecord
100
AcDbBlockTableRecord
  2
*D39
340
0
  0
BLOCK_RECORD
  5
2878
330
1
100
AcDbSymbolTableRecord
100
AcDbBlockTableRecord
  2
*D40
340
0
  0
BLOCK_RECORD
  5
2884
330
1
100
AcDbSymbolTableRecord
100
AcDbBlockTableRecord
  2
*D41
340
0
  0
BLOCK_RECORD
  5
288F
330
1
100
AcDbSymbolTableRecord
100
AcDbBlockTableRecord
  2
*D42
340
0
  0
ENDTAB
  0
ENDSEC
  0
SECTION
  2
BLOCKS
  0
BLOCK
  5
6D
330
6C
100
AcDbEntity
  8
0
100
AcDbBlockBegin
  2
*Model_Space
 70
     0
 10
0.0
 20
0.0
 30
0.0
  3
*Model_Space
  1

  0
ENDBLK
  5
6E
330
6C
100
AcDbEntity
  8
0
100
AcDbBlockEnd
  0
BLOCK
  5
69
330
68
100
AcDbEntity
 67
     1
  8
0
100
AcDbBlockBegin
  2
*Paper_Space
 70
     0
 10
0.0
 20
0.0
 30
0.0
  3
*Paper_Space
  1

  0
ENDBLK
  5
6A
330
68
100
AcDbEntity
 67
     1
  8
0
100
AcDbBlockEnd
  0
BLOCK
  5
71
330
70
100
AcDbEntity
 67
     1
  8
0
100
AcDbBlockBegin
  2
*Paper_Space0
 70
     0
 10
0.0
 20
0.0
 30
0.0
  3
*Paper_Space0
  1

  0
ENDBLK
  5
72
330
70
100
AcDbEntity
 67
     1
  8
0
100
AcDbBlockEnd
  0
BLOCK
  5
99
330
98
100
AcDbEntity
  8
0
100
AcDbBlockBegin
  2
Filled-1
 70
     0
 10
0.0
 20
0.0
 30
0.0
  3
Filled-1
  1

  0
LINE
  5
9B
330
98
100
AcDbEntity
  8
0
 62
     0
100
AcDbLine
 10
-1.0
 20
0.0
 30
0.0
 11
0.0
 21
0.0
 31
0.0
  0
POLYLINE
  5
9C
330
98
100
AcDbEntity
  8
0
 62
     0
100
AcDb2dPolyline
 66
     1
 10
0.0
 20
0.0
 30
0.0
 70
   128
  0
VERTEX
  5
9D
330
9C
100
AcDbEntity
  8
0
 62
     0
100
AcDbVertex
100
AcDb2dVertex
 10
-1.0
 20
-0.1
 30
0.0
  0
VERTEX
  5
9E
330
9C
100
AcDbEntity
  8
0
 62
     0
100
AcDbVertex
100
AcDb2dVertex
 10
0.0
 20
0.0
 30
0.0
  0
VERTEX
  5
A0
330
9C
100
AcDbEntity
  8
0
 62
     0
100
AcDbVertex
100
AcDb2dVertex
 10
-1.0
 20
0.1
 30
0.0
  0
VERTEX
  5
A1
330
9C
100
AcDbEntity
  8
0
 62
     0
100
AcDbVertex
100
AcDb2dVertex
 10
-1.0
 20
-0.1
 30
0.0
  0
SEQEND
  5
9F
330
9C
100
AcDbEntity
  8
0
 62
     0
  0
SOLID
  5
A2
330
98
100
AcDbEntity
  8
0
 62
     0
100
AcDbTrace
 10
-1.0
 20
-0.1
 30
0.0
 11
0.0
 21
0.0
 31
0.0
 12
-1.0
 22
0.1
 32
0.0
 13
-1.0
 23
-0.1
 33
0.0
  0
LINE
  5
A3
330
98
100
AcDbEntity
  8
0
 62
     0
100
AcDbLine
 10
-1.0
 20
-0.1
 30
0.0
 11
0.0
 21
0.0
 31
0.0
  0
LINE
  5
A4
330
98
100
AcDbEntity
  8
0
 62
     0
100
AcDbLine
 10
0.0
 20
0.0
 30
0.0
 11
-1.0
 21
0.1
 31
0.0
  0
LINE
  5
A5
330
98
100
AcDbEntity
  8
0
 62
     0
100
AcDbLine
 10
-1.0
 20
0.1
 30
0.0
 11
-1.0
 21
-0.1
 31
0.0
  0
ENDBLK
  5
9A
330
98
100
AcDbEntity
  8
0
100
AcDbBlockEnd
  0
BLOCK
  5
B8
330
B3
100
AcDbEntity
  8
0
100
AcDbBlockBegin
  2
_Closed
 70
     0
 10
0.0
 20
0.0
 30
0.0
  3
_Closed
  1

  0
LINE
  5
B4
330
B3
100
AcDbEntity
  8
0
  6
ByBlock
 62
     0
370
    -2
100
AcDbLine
 10
-1.0
 20
0.1666666666666666
 30
0.0
 11
0.0
 21
0.0
 31
0.0
  0
LINE
  5
B5
330
B3
100
AcDbEntity
  8
0
  6
ByBlock
 62
     0
370
    -2
100
AcDbLine
 10
0.0
 20
0.0
 30
0.0
 11
-1.0
 21
-0.1666666666666666
 31
0.0
  0
LINE
  5
B6
330
B3
100
AcDbEntity
  8
0
  6
ByBlock
 62
     0
370
    -2
100
AcDbLine
 10
-1.0
 20
0.1666666666666666
 30
0.0
 11
-1.0
 21
-0.1666666666666666
 31
0.0
  0
LINE
  5
B7
330
B3
100
AcDbEntity
  8
0
  6
ByBlock
 62
     0
370
    -2
100
AcDbLine
 10
0.0
 20
0.0
 30
0.0
 11
-1.0
 21
0.0
 31
0.0
  0
ENDBLK
  5
B9
330
B3
100
AcDbEntity
  8
0
100
AcDbBlockEnd
  0
BLOCK
  5
BB
330
BA
100
AcDbEntity
  8
0
100
AcDbBlockBegin
  2
DatumFilled45
 70
     0
 10
0.0
 20
0.0
 30
0.0
  3
DatumFilled45
  1

  0
POLYLINE
  5
BD
330
BA
100
AcDbEntity
  8
0
 62
     0
100
AcDb2dPolyline
 66
     1
 10
0.0
 20
0.0
 30
0.0
 70
   128
  0
VERTEX
  5
BE
330
BD
100
AcDbEntity
  8
0
 62
     0
100
AcDbVertex
100
AcDb2dVertex
 10
0.0
 20
1.0
 30
0.0
  0
VERTEX
  5
BF
330
BD
100
AcDbEntity
  8
0
 62
     0
100
AcDbVertex
100
AcDb2dVertex
 10
0.0
 20
-1.0
 30
0.0
  0
VERTEX
  5
C1
330
BD
100
AcDbEntity
  8
0
 62
     0
100
AcDbVertex
100
AcDb2dVertex
 10
-1.0
 20
0.0
 30
0.0
  0
VERTEX
  5
C2
330
BD
100
AcDbEntity
  8
0
 62
     0
100
AcDbVertex
100
AcDb2dVertex
 10
0.0
 20
1.0
 30
0.0
  0
SEQEND
  5
C0
330
BD
100
AcDbEntity
  8
0
 62
     0
  0
SOLID
  5
C3
330
BA
100
AcDbEntity
  8
0
 62
     0
100
AcDbTrace
 10
0.0
 20
1.0
 30
0.0
 11
0.0
 21
-1.0
 31
0.0
 12
-1.0
 22
0.0
 32
0.0
 13
0.0
 23
1.0
 33
0.0
  0
ENDBLK
  5
BC
330
BA
100
AcDbEntity
  8
0
100
AcDbBlockEnd
  0
BLOCK
  5
C6
330
C5
100
AcDbEntity
  8
0
100
AcDbBlockBegin
  2
WIG-svarovani
 70
     0
 10
0.0
 20
0.0
 30
0.0
  3
WIG-svarovani
  1

  0
MTEXT
  5
C8
102
{ACAD_XDICTIONARY
360
2937
102
}
330
C5
100
AcDbEntity
  8
Značka (ISO)
100
AcDbMText
 10
-57.87338256835937
 20
16.31795931607484
 30
0.0
 40
3.499999940395355
 41
115.7467651367187
 71
     1
 72
     1
  1
WIG Schweisung, Nahte sauber geschliffen und poliert\PSichtstege geschliffen mit 240 Korn und abgeklebt.\P{\H0.85714x; \P\H1.1667x;WIG svarovani- svary dle potreby zabrousit.\PPohledove plochy brousit (vel. brusnych zrn 240)\Pa polepit paskou}
  7
Text poznámky (ISO)
 73
     1
 44
0.959658920764923
  0
ENDBLK
  5
C7
330
C5
100
AcDbEntity
  8
0
100
AcDbBlockEnd
  0
BLOCK
  5
CB
330
CA
100
AcDbEntity
  8
0
100
AcDbBlockBegin
  2
Popis kotvy_srouby
 70
     0
 10
0.0
 20
0.0
 30
0.0
  3
Popis kotvy_srouby
  1

  0
MTEXT
  5
CD
330
CA
100
AcDbEntity
  8
Značka (ISO)
100
AcDbMText
 10
-39.79761123657226
 20
21.84130281209946
 30
0.0
 40
3.499999940395355
 41
0.0
 71
     1
 72
     1
  1
Vzdalenost nivel. sroubu ca. 1500\PVzdalenost kotev ca. 400\PVzdalenost dist. koliku ca. 250\P\PAbstand der Nivellieschraben ca.1500\PAbstand der Maueranker ca.400\PAbstand der Distanzstege ca.250\P
  7
Text poznámky (ISO)
 73
     2
 44
0.9878841638565063
  0
ENDBLK
  5
CC
330
CA
100
AcDbEntity
  8
0
100
AcDbBlockEnd
  0
BLOCK
  5
CF
330
CE
100
AcDbEntity
  8
0
100
AcDbBlockBegin
  2
Mater. provedeni Art.
 70
     0
 10
0.0
 20
0.0
 30
0.0
  3
Mater. provedeni Art.
  1

  0
LINE
  5
D1
330
CE
100
AcDbEntity
  8
Geometrie náčrtu (ISO)
100
AcDbLine
 10
-35.0
 20
-22.5
 30
0.0
 11
35.0
 21
-22.5
 31
0.0
  0
LINE
  5
D2
330
CE
100
AcDbEntity
  8
Geometrie náčrtu (ISO)
100
AcDbLine
 10
35.0
 20
-22.5
 30
0.0
 11
34.99999999999996
 21
-13.49999999999998
 31
0.0
  0
LINE
  5
D3
330
CE
100
AcDbEntity
  8
Geometrie náčrtu (ISO)
100
AcDbLine
 10
34.99999999999996
 20
-13.49999999999998
 30
0.0
 11
-35.00000000000003
 21
-13.49999999999998
 31
0.0
  0
LINE
  5
D4
330
CE
100
AcDbEntity
  8
Geometrie náčrtu (ISO)
100
AcDbLine
 10
-35.00000000000003
 20
-13.49999999999998
 30
0.0
 11
-35.0
 21
-22.5
 31
0.0
  0
LINE
  5
D5
330
CE
100
AcDbEntity
  8
Geometrie náčrtu (ISO)
100
AcDbLine
 10
-35.00000000000003
 20
-13.49999999999998
 30
0.0
 11
34.99999999999996
 21
-13.49999999999998
 31
0.0
  0
LINE
  5
D6
330
CE
100
AcDbEntity
  8
Geometrie náčrtu (ISO)
100
AcDbLine
 10
34.99999999999996
 20
-13.49999999999998
 30
0.0
 11
34.99999999999996
 21
-4.499999999999992
 31
0.0
  0
LINE
  5
D7
330
CE
100
AcDbEntity
  8
Geometrie náčrtu (ISO)
100
AcDbLine
 10
34.99999999999996
 20
-4.499999999999992
 30
0.0
 11
-35.00000000000003
 21
-4.499999999999992
 31
0.0
  0
LINE
  5
D8
330
CE
100
AcDbEntity
  8
Geometrie náčrtu (ISO)
100
AcDbLine
 10
-35.00000000000003
 20
-4.499999999999992
 30
0.0
 11
-35.00000000000003
 21
-13.49999999999998
 31
0.0
  0
LINE
  5
D9
330
CE
100
AcDbEntity
  8
Geometrie náčrtu (ISO)
100
AcDbLine
 10
-35.00000000000003
 20
-4.499999999999992
 30
0.0
 11
34.99999999999996
 21
-4.499999999999992
 31
0.0
  0
LINE
  5
DA
330
CE
100
AcDbEntity
  8
Geometrie náčrtu (ISO)
100
AcDbLine
 10
34.99999999999996
 20
-4.499999999999992
 30
0.0
 11
34.99999999999996
 21
4.499999999999992
 31
0.0
  0
LINE
  5
DB
330
CE
100
AcDbEntity
  8
Geometrie náčrtu (ISO)
100
AcDbLine
 10
34.99999999999996
 20
4.499999999999992
 30
0.0
 11
-35.00000000000003
 21
4.499999999999992
 31
0.0
  0
LINE
  5
DC
330
CE
100
AcDbEntity
  8
Geometrie náčrtu (ISO)
100
AcDbLine
 10
-35.00000000000003
 20
4.499999999999992
 30
0.0
 11
-35.00000000000003
 21
-4.499999999999992
 31
0.0
  0
LINE
  5
DD
330
CE
100
AcDbEntity
  8
Geometrie náčrtu (ISO)
100
AcDbLine
 10
-35.00000000000003
 20
4.499999999999992
 30
0.0
 11
34.99999999999996
 21
4.499999999999992
 31
0.0
  0
LINE
  5
DE
330
CE
100
AcDbEntity
  8
Geometrie náčrtu (ISO)
100
AcDbLine
 10
34.99999999999996
 20
4.499999999999992
 30
0.0
 11
34.99999999999996
 21
13.50000000000001
 31
0.0
  0
LINE
  5
DF
330
CE
100
AcDbEntity
  8
Geometrie náčrtu (ISO)
100
AcDbLine
 10
34.99999999999996
 20
13.50000000000001
 30
0.0
 11
-35.00000000000003
 21
13.50000000000001
 31
0.0
  0
LINE
  5
E0
330
CE
100
AcDbEntity
  8
Geometrie náčrtu (ISO)
100
AcDbLine
 10
-35.00000000000003
 20
13.50000000000001
 30
0.0
 11
-35.00000000000003
 21
4.499999999999992
 31
0.0
  0
LINE
  5
E1
330
CE
100
AcDbEntity
  8
Geometrie náčrtu (ISO)
100
AcDbLine
 10
-35.00000000000003
 20
13.50000000000001
 30
0.0
 11
34.99999999999996
 21
13.50000000000001
 31
0.0
  0
LINE
  5
E2
330
CE
100
AcDbEntity
  8
Geometrie náčrtu (ISO)
100
AcDbLine
 10
34.99999999999996
 20
13.50000000000001
 30
0.0
 11
34.99999999999996
 21
22.5
 31
0.0
  0
LINE
  5
E3
330
CE
100
AcDbEntity
  8
Geometrie náčrtu (ISO)
100
AcDbLine
 10
34.99999999999996
 20
22.5
 30
0.0
 11
-35.00000000000003
 21
22.5
 31
0.0
  0
LINE
  5
E4
330
CE
100
AcDbEntity
  8
Geometrie náčrtu (ISO)
100
AcDbLine
 10
-35.00000000000003
 20
22.5
 30
0.0
 11
-35.00000000000003
 21
13.50000000000001
 31
0.0
  0
LINE
  5
E5
330
CE
100
AcDbEntity
  8
Geometrie náčrtu (ISO)
100
AcDbLine
 10
-6.999999999999992
 20
22.5
 30
0.0
 11
-6.999999999999992
 21
-22.5
 31
0.0
  0
MTEXT
  5
E6
330
CE
100
AcDbEntity
  8
Značka (ISO)
100
AcDbMText
 10
-5.126613448311374
 20
11.7684641726084
 30
0.0
 40
5.0
 41
0.0
 71
     1
 72
     1
  1
\fTahoma|b0|i0;\H5.0000;xxxxxxxxxxx
  7
Text poznámky (ISO)
 73
     1
 44
1.0
  0
MTEXT
  5
E7
330
CE
100
AcDbEntity
  8
Značka (ISO)
100
AcDbMText
 10
-33.0130165251342
 20
11.7684641726084
 30
0.0
 40
5.0
 41
20.42139291763306
 71
     1
 72
     1
  1
\fTahoma|b0|i0;\H5.0000;xxxxxx
  7
Text poznámky (ISO)
 73
     1
 44
1.0
  0
MTEXT
  5
E8
330
CE
100
AcDbEntity
  8
Značka (ISO)
100
AcDbMText
 10
-32.07756235018873
 20
20.30710993714994
 30
0.0
 40
5.0
 41
13.92583036716939
 71
     1
 72
     1
  1
\fTahoma|b0|i0;\H5.0000;Art.
  7
Text poznámky (ISO)
 73
     1
 44
1.0
  0
MTEXT
  5
E9
330
CE
100
AcDbEntity
  8
Značka (ISO)
100
AcDbMText
 10
4.291672002492319
 20
20.30710993714994
 30
0.0
 40
5.0
 41
0.0
 71
     1
 72
     1
  1
\fTahoma|b0|i0;\H5.0000;Mat.
  7
Text poznámky (ISO)
 73
     1
 44
1.0
  0
MTEXT
  5
EA
330
CE
100
AcDbEntity
  8
Značka (ISO)
100
AcDbMText
 10
-33.0130165251342
 20
2.473781856899819
 30
0.0
 40
5.0
 41
20.42139291763306
 71
     1
 72
     1
  1
\fTahoma|b0|i0;\H5.0000;xxxxxx
  7
Text poznámky (ISO)
 73
     1
 44
1.0
  0
MTEXT
  5
EB
330
CE
100
AcDbEntity
  8
Značka (ISO)
100
AcDbMText
 10
-5.126613448311374
 20
2.473781856899819
 30
0.0
 40
5.0
 41
0.0
 71
     1
 72
     1
  1
\fTahoma|b0|i0;\H5.0000;xxxxxxxxxxx
  7
Text poznámky (ISO)
 73
     1
 44
1.0
  0
MTEXT
  5
EC
330
CE
100
AcDbEntity
  8
Značka (ISO)
100
AcDbMText
 10
-33.0130165251342
 20
-6.862452441171491
 30
0.0
 40
5.0
 41
20.42139291763306
 71
     1
 72
     1
  1
\fTahoma|b0|i0;\H5.0000;xxxxxx
  7
Text poznámky (ISO)
 73
     1
 44
1.0
  0
MTEXT
  5
ED
330
CE
100
AcDbEntity
  8
Značka (ISO)
100
AcDbMText
 10
-5.126613448311374
 20
-6.862452441171491
 30
0.0
 40
5.0
 41
0.0
 71
     1
 72
     1
  1
\fTahoma|b0|i0;\H5.0000;xxxxxxxxxxx
  7
Text poznámky (ISO)
 73
     1
 44
1.0
  0
MTEXT
  5
EE
330
CE
100
AcDbEntity
  8
Značka (ISO)
100
AcDbMText
 10
-33.0130165251342
 20
-15.52177565039578
 30
0.0
 40
5.0
 41
20.42139291763306
 71
     1
 72
     1
  1
\fTahoma|b0|i0;\H5.0000;xxxxxx
  7
Text poznámky (ISO)
 73
     1
 44
1.0
  0
MTEXT
  5
EF
330
CE
100
AcDbEntity
  8
Značka (ISO)
100
AcDbMText
 10
-5.126613448311374
 20
-15.52177565039578
 30
0.0
 40
5.0
 41
0.0
 71
     1
 72
     1
  1
\fTahoma|b0|i0;\H5.0000;xxxxxxxxxxx
  7
Text poznámky (ISO)
 73
     1
 44
1.0
  0
ENDBLK
  5
D0
330
CE
100
AcDbEntity
  8
0
100
AcDbBlockEnd
  0
BLOCK
  5
F1
330
F0
100
AcDbEntity
  8
0
100
AcDbBlockBegin
  2
Art. s popisy
 70
     0
 10
0.0
 20
0.0
 30
0.0
  3
Art. s popisy
  1

  0
LINE
  5
F3
330
F0
100
AcDbEntity
  8
Geometrie náčrtu (ISO)
100
AcDbLine
 10
-60.00000000000081
 20
-22.5
 30
0.0
 11
59.99999999999911
 21
-22.5
 31
0.0
  0
LINE
  5
F4
330
F0
100
AcDbEntity
  8
Geometrie náčrtu (ISO)
100
AcDbLine
 10
59.99999999999911
 20
-22.5
 30
0.0
 11
60.00000000000081
 21
-13.50000000000001
 31
0.0
  0
LINE
  5
F5
330
F0
100
AcDbEntity
  8
Geometrie náčrtu (ISO)
100
AcDbLine
 10
60.00000000000081
 20
-13.50000000000001
 30
0.0
 11
-60.00000000000081
 21
-13.49999999999998
 31
0.0
  0
LINE
  5
F6
330
F0
100
AcDbEntity
  8
Geometrie náčrtu (ISO)
100
AcDbLine
 10
-60.00000000000081
 20
-13.49999999999998
 30
0.0
 11
-60.00000000000081
 21
-22.5
 31
0.0
  0
LINE
  5
F7
330
F0
100
AcDbEntity
  8
Geometrie náčrtu (ISO)
100
AcDbLine
 10
-60.00000000000081
 20
-13.49999999999998
 30
0.0
 11
60.00000000000081
 21
-13.50000000000001
 31
0.0
  0
LINE
  5
F8
330
F0
100
AcDbEntity
  8
Geometrie náčrtu (ISO)
100
AcDbLine
 10
60.00000000000081
 20
-13.50000000000001
 30
0.0
 11
59.99999999999911
 21
-4.500000000000028
 31
0.0
  0
LINE
  5
F9
330
F0
100
AcDbEntity
  8
Geometrie náčrtu (ISO)
100
AcDbLine
 10
59.99999999999911
 20
-4.500000000000028
 30
0.0
 11
-60.00000000000081
 21
-4.499999999999992
 31
0.0
  0
LINE
  5
FA
330
F0
100
AcDbEntity
  8
Geometrie náčrtu (ISO)
100
AcDbLine
 10
-60.00000000000081
 20
-4.499999999999992
 30
0.0
 11
-60.00000000000081
 21
-13.49999999999998
 31
0.0
  0
LINE
  5
FB
330
F0
100
AcDbEntity
  8
Geometrie náčrtu (ISO)
100
AcDbLine
 10
-60.00000000000081
 20
-4.499999999999992
 30
0.0
 11
59.99999999999911
 21
-4.500000000000028
 31
0.0
  0
LINE
  5
FC
330
F0
100
AcDbEntity
  8
Geometrie náčrtu (ISO)
100
AcDbLine
 10
59.99999999999911
 20
-4.500000000000028
 30
0.0
 11
59.99999999999911
 21
4.499999999999957
 31
0.0
  0
LINE
  5
FD
330
F0
100
AcDbEntity
  8
Geometrie náčrtu (ISO)
100
AcDbLine
 10
59.99999999999911
 20
4.499999999999957
 30
0.0
 11
-60.00000000000081
 21
4.499999999999992
 31
0.0
  0
LINE
  5
FE
330
F0
100
AcDbEntity
  8
Geometrie náčrtu (ISO)
100
AcDbLine
 10
-60.00000000000081
 20
4.499999999999992
 30
0.0
 11
-60.00000000000081
 21
-4.499999999999992
 31
0.0
  0
LINE
  5
FF
330
F0
100
AcDbEntity
  8
Geometrie náčrtu (ISO)
100
AcDbLine
 10
-60.00000000000081
 20
4.499999999999992
 30
0.0
 11
59.99999999999911
 21
4.499999999999957
 31
0.0
  0
LINE
  5
100
330
F0
100
AcDbEntity
  8
Geometrie náčrtu (ISO)
100
AcDbLine
 10
59.99999999999911
 20
4.499999999999957
 30
0.0
 11
59.99999999999911
 21
13.49999999999998
 31
0.0
  0
LINE
  5
101
330
F0
100
AcDbEntity
  8
Geometrie náčrtu (ISO)
100
AcDbLine
 10
59.99999999999911
 20
13.49999999999998
 30
0.0
 11
-60.00000000000081
 21
13.50000000000001
 31
0.0
  0
LINE
  5
102
330
F0
100
AcDbEntity
  8
Geometrie náčrtu (ISO)
100
AcDbLine
 10
-60.00000000000081
 20
13.50000000000001
 30
0.0
 11
-60.00000000000081
 21
4.499999999999992
 31
0.0
  0
LINE
  5
103
330
F0
100
AcDbEntity
  8
Geometrie náčrtu (ISO)
100
AcDbLine
 10
-60.00000000000081
 20
13.50000000000001
 30
0.0
 11
59.99999999999911
 21
13.49999999999998
 31
0.0
  0
LINE
  5
104
330
F0
100
AcDbEntity
  8
Geometrie náčrtu (ISO)
100
AcDbLine
 10
59.99999999999911
 20
13.49999999999998
 30
0.0
 11
59.99999999999911
 21
22.49999999999996
 31
0.0
  0
LINE
  5
105
330
F0
100
AcDbEntity
  8
Geometrie náčrtu (ISO)
100
AcDbLine
 10
59.99999999999911
 20
22.49999999999996
 30
0.0
 11
-60.00000000000081
 21
22.5
 31
0.0
  0
LINE
  5
106
330
F0
100
AcDbEntity
  8
Geometrie náčrtu (ISO)
100
AcDbLine
 10
-60.00000000000081
 20
22.5
 30
0.0
 11
-60.00000000000081
 21
13.50000000000001
 31
0.0
  0
LINE
  5
107
330
F0
100
AcDbEntity
  8
Geometrie náčrtu (ISO)
100
AcDbLine
 10
-32.00000000000081
 20
22.5
 30
0.0
 11
-32.00000000000081
 21
-22.5
 31
0.0
  0
MTEXT
  5
108
330
F0
100
AcDbEntity
  8
Značka (ISO)
100
AcDbMText
 10
-27.63552601875791
 20
11.7684641726084
 30
0.0
 40
5.0
 41
0.0
 71
     1
 72
     1
  1
\fTahoma|b0|i0;\H5.0000;xxxxxxxxxxx
  7
Text poznámky (ISO)
 73
     1
 44
1.0
  0
MTEXT
  5
109
330
F0
100
AcDbEntity
  8
Značka (ISO)
100
AcDbMText
 10
-55.52192909558073
 20
11.7684641726084
 30
0.0
 40
5.0
 41
20.42139291763306
 71
     1
 72
     1
  1
\fTahoma|b0|i0;\H5.0000;xxxxxx
  7
Text poznámky (ISO)
 73
     1
 44
1.0
  0
MTEXT
  5
10A
330
F0
100
AcDbEntity
  8
Značka (ISO)
100
AcDbMText
 10
-54.58647492063526
 20
20.30710993714994
 30
0.0
 40
5.0
 41
13.92583036716939
 71
     1
 72
     1
  1
\fTahoma|b0|i0;\H5.0000;Art.
  7
Text poznámky (ISO)
 73
     1
 44
1.0
  0
MTEXT
  5
10B
330
F0
100
AcDbEntity
  8
Značka (ISO)
100
AcDbMText
 10
-18.21724056795421
 20
20.30710993714994
 30
0.0
 40
5.0
 41
0.0
 71
     1
 72
     1
  1
\fTahoma|b0|i0;\H5.0000;Popis.
  7
Text poznámky (ISO)
 73
     1
 44
1.0
  0
MTEXT
  5
10C
330
F0
100
AcDbEntity
  8
Značka (ISO)
100
AcDbMText
 10
-55.52192909558073
 20
2.473781856899819
 30
0.0
 40
5.0
 41
20.42139291763306
 71
     1
 72
     1
  1
\fTahoma|b0|i0;\H5.0000;xxxxxx
  7
Text poznámky (ISO)
 73
     1
 44
1.0
  0
MTEXT
  5
10D
330
F0
100
AcDbEntity
  8
Značka (ISO)
100
AcDbMText
 10
-27.63552601875791
 20
2.473781856899819
 30
0.0
 40
5.0
 41
0.0
 71
     1
 72
     1
  1
\fTahoma|b0|i0;\H5.0000;xxxxxxxxxxx
  7
Text poznámky (ISO)
 73
     1
 44
1.0
  0
MTEXT
  5
10E
330
F0
100
AcDbEntity
  8
Značka (ISO)
100
AcDbMText
 10
-55.52192909558073
 20
-6.862452441171491
 30
0.0
 40
5.0
 41
20.42139291763306
 71
     1
 72
     1
  1
\fTahoma|b0|i0;\H5.0000;xxxxxx
  7
Text poznámky (ISO)
 73
     1
 44
1.0
  0
MTEXT
  5
10F
330
F0
100
AcDbEntity
  8
Značka (ISO)
100
AcDbMText
 10
-27.63552601875791
 20
-6.862452441171491
 30
0.0
 40
5.0
 41
0.0
 71
     1
 72
     1
  1
\fTahoma|b0|i0;\H5.0000;xxxxxxxxxxx
  7
Text poznámky (ISO)
 73
     1
 44
1.0
  0
MTEXT
  5
110
330
F0
100
AcDbEntity
  8
Značka (ISO)
100
AcDbMText
 10
-55.52192909558073
 20
-15.52177565039578
 30
0.0
 40
5.0
 41
20.42139291763306
 71
     1
 72
     1
  1
\fTahoma|b0|i0;\H5.0000;xxxxxx
  7
Text poznámky (ISO)
 73
     1
 44
1.0
  0
MTEXT
  5
111
330
F0
100
AcDbEntity
  8
Značka (ISO)
100
AcDbMText
 10
-27.63552601875791
 20
-15.52177565039578
 30
0.0
 40
5.0
 41
0.0
 71
     1
 72
     1
  1
\fTahoma|b0|i0;\H5.0000;xxxxxxxxxxx
  7
Text poznámky (ISO)
 73
     1
 44
1.0
  0
ENDBLK
  5
F2
330
F0
100
AcDbEntity
  8
0
100
AcDbBlockEnd
  0
BLOCK
  5
113
330
112
100
AcDbEntity
  8
0
100
AcDbBlockBegin
  2
Tryskat
 70
     0
 10
0.0
 20
0.0
 30
0.0
  3
Tryskat
  1

  0
MTEXT
  5
115
330
112
100
AcDbEntity
  8
Značka (ISO)
100
AcDbMText
 10
-30.20239114761352
 20
5.036920197308063
 30
0.0
 40
3.499999940395355
 41
0.0
 71
     1
 72
     1
  1
Tryskat \P( Blasted , Glasperlstrahken)
  7
Text poznámky (ISO)
 73
     2
 44
0.9878841638565063
  0
ENDBLK
  5
114
330
112
100
AcDbEntity
  8
0
100
AcDbBlockEnd
  0
BLOCK
  5
117
330
116
100
AcDbEntity
  8
0
100
AcDbBlockBegin
  2
Morit
 70
     0
 10
0.0
 20
0.0
 30
0.0
  3
Morit
  1

  0
MTEXT
  5
119
330
116
100
AcDbEntity
  8
Značka (ISO)
100
AcDbMText
 10
-19.08124089241028
 20
5.11633675545454
 30
0.0
 40
3.499999940395355
 41
0.0
 71
     1
 72
     1
  1
Morit a pasivovat\P(Pickled, gebeitzt)
  7
Text poznámky (ISO)
 73
     2
 44
0.9878841638565063
  0
ENDBLK
  5
118
330
116
100
AcDbEntity
  8
0
100
AcDbBlockEnd
  0
BLOCK
  5
11B
330
11A
100
AcDbEntity
  8
0
100
AcDbBlockBegin
  2
zinkovat
 70
     0
 10
0.0
 20
0.0
 30
0.0
  3
zinkovat
  1

  0
MTEXT
  5
11D
330
11A
100
AcDbEntity
  8
Značka (ISO)
100
AcDbMText
 10
-27.74189710617065
 20
5.049683563411235
 30
0.0
 40
3.499999940395355
 41
0.0
 71
     1
 72
     1
  1
Zarove zinkovat\P(hot galvanized, verzinkt )
  7
Text poznámky (ISO)
 73
     2
 44
0.9878841638565063
  0
ENDBLK
  5
11C
330
11A
100
AcDbEntity
  8
0
100
AcDbBlockEnd
  0
BLOCK
  5
11F
330
11E
100
AcDbEntity
  8
0
100
AcDbBlockBegin
  2
Nater
 70
     0
 10
0.0
 20
0.0
 30
0.0
  3
Nater
  1

  0
MTEXT
  5
121
330
11E
100
AcDbEntity
  8
Značka (ISO)
100
AcDbMText
 10
-25.88411808013916
 20
1.864870421122759
 30
0.0
 40
3.499999940395355
 41
0.0
 71
     1
 72
     1
  1
Lackiert Farbe RAL 5002
  7
Text poznámky (ISO)
 73
     1
 44
1.0
  0
ENDBLK
  5
120
330
11E
100
AcDbEntity
  8
0
100
AcDbBlockEnd
  0
BLOCK
  5
123
330
122
100
AcDbEntity
  8
0
100
AcDbBlockBegin
  2
Brus
 70
     0
 10
0.0
 20
0.0
 30
0.0
  3
Brus
  1

  0
MTEXT
  5
125
330
122
100
AcDbEntity
  8
Značka (ISO)
100
AcDbMText
 10
-23.46616744995117
 20
5.11633675545454
 30
0.0
 40
3.499999940395355
 41
0.0
 71
     1
 72
     1
  1
Brousit\P(geburstet , brushed )
  7
Text poznámky (ISO)
 73
     2
 44
0.9878841638565063
  0
ENDBLK
  5
124
330
122
100
AcDbEntity
  8
0
100
AcDbBlockEnd
  0
BLOCK
  5
127
330
126
100
AcDbEntity
  8
0
100
AcDbBlockBegin
  2
Elektroliticky lestit
 70
     0
 10
0.0
 20
0.0
 30
0.0
  3
Elektroliticky lestit
  1

  0
MTEXT
  5
129
330
126
100
AcDbEntity
  8
Značka (ISO)
100
AcDbMText
 10
-18.68841171264648
 20
5.036920197308063
 30
0.0
 40
3.499999940395355
 41
0.0
 71
     1
 72
     1
  1
Elektrolit. lestit\P(Elektropolished )
  7
Text poznámky (ISO)
 73
     2
 44
0.9878841638565063
  0
ENDBLK
  5
128
330
126
100
AcDbEntity
  8
0
100
AcDbBlockEnd
  0
BLOCK
  5
12C
330
12B
100
AcDbEntity
  8
0
100
AcDbBlockBegin
  2
Rámečky Default Border
 70
     0
 10
0.0
 20
0.0
 30
0.0
  3
Rámečky Default Border
  1

  0
POLYLINE
  5
12E
330
12B
100
AcDbEntity
  8
Rámeček (ISO)
100
AcDb2dPolyline
 66
     1
 10
0.0
 20
0.0
 30
0.0
 70
   128
  0
VERTEX
  5
12F
330
12E
100
AcDbEntity
  8
Rámeček (ISO)
100
AcDbVertex
100
AcDb2dVertex
 10
10.0
 20
10.0
 30
0.0
  0
VERTEX
  5
130
330
12E
100
AcDbEntity
  8
Rámeček (ISO)
100
AcDbVertex
100
AcDb2dVertex
 10
10.0
 20
410.0
 30
0.0
  0
VERTEX
  5
132
330
12E
100
AcDbEntity
  8
Rámeček (ISO)
100
AcDbVertex
100
AcDb2dVertex
 10
584.000015258789
 20
410.0
 30
0.0
  0
VERTEX
  5
133
330
12E
100
AcDbEntity
  8
Rámeček (ISO)
100
AcDbVertex
100
AcDb2dVertex
 10
584.000015258789
 20
10.0
 30
0.0
  0
VERTEX
  5
134
330
12E
100
AcDbEntity
  8
Rámeček (ISO)
100
AcDbVertex
100
AcDb2dVertex
 10
10.0
 20
10.0
 30
0.0
  0
SEQEND
  5
131
330
12E
100
AcDbEntity
  8
Rámeček (ISO)
  0
POLYLINE
  5
135
330
12B
100
AcDbEntity
  8
Rámeček (ISO)
100
AcDb2dPolyline
 66
     1
 10
0.0
 20
0.0
 30
0.0
 70
   128
  0
VERTEX
  5
136
330
135
100
AcDbEntity
  8
Rámeček (ISO)
100
AcDbVertex
100
AcDb2dVertex
 10
297.0000076293946
 20
0.0
 30
0.0
  0
VERTEX
  5
137
330
135
100
AcDbEntity
  8
Rámeček (ISO)
100
AcDbVertex
100
AcDb2dVertex
 10
297.0000076293946
 20
10.0
 30
0.0
  0
VERTEX
  5
139
330
135
100
AcDbEntity
  8
Rámeček (ISO)
100
AcDbVertex
100
AcDb2dVertex
 10
294.1132545471191
 20
5.0
 30
0.0
  0
VERTEX
  5
13A
330
135
100
AcDbEntity
  8
Rámeček (ISO)
100
AcDbVertex
100
AcDb2dVertex
 10
299.8867607116699
 20
5.0
 30
0.0
  0
VERTEX
  5
13B
330
135
100
AcDbEntity
  8
Rámeček (ISO)
100
AcDbVertex
100
AcDb2dVertex
 10
297.0000076293946
 20
10.0
 30
0.0
  0
SEQEND
  5
138
330
135
100
AcDbEntity
  8
Rámeček (ISO)
  0
POLYLINE
  5
13C
330
12B
100
AcDbEntity
  8
Rámeček (ISO)
100
AcDb2dPolyline
 66
     1
 10
0.0
 20
0.0
 30
0.0
 70
   128
  0
VERTEX
  5
13D
330
13C
100
AcDbEntity
  8
Rámeček (ISO)
100
AcDbVertex
100
AcDb2dVertex
 10
297.0000076293946
 20
420.0
 30
0.0
  0
VERTEX
  5
13E
330
13C
100
AcDbEntity
  8
Rámeček (ISO)
100
AcDbVertex
100
AcDb2dVertex
 10
297.0000076293946
 20
410.0
 30
0.0
  0
VERTEX
  5
140
330
13C
100
AcDbEntity
  8
Rámeček (ISO)
100
AcDbVertex
100
AcDb2dVertex
 10
294.1132545471191
 20
415.0
 30
0.0
  0
VERTEX
  5
141
330
13C
100
AcDbEntity
  8
Rámeček (ISO)
100
AcDbVertex
100
AcDb2dVertex
 10
299.8867607116699
 20
415.0
 30
0.0
  0
VERTEX
  5
142
330
13C
100
AcDbEntity
  8
Rámeček (ISO)
100
AcDbVertex
100
AcDb2dVertex
 10
297.0000076293946
 20
410.0
 30
0.0
  0
SEQEND
  5
13F
330
13C
100
AcDbEntity
  8
Rámeček (ISO)
  0
POLYLINE
  5
143
330
12B
100
AcDbEntity
  8
Rámeček (ISO)
100
AcDb2dPolyline
 66
     1
 10
0.0
 20
0.0
 30
0.0
 70
   128
  0
VERTEX
  5
144
330
143
100
AcDbEntity
  8
Rámeček (ISO)
100
AcDbVertex
100
AcDb2dVertex
 10
0.0
 20
210.0
 30
0.0
  0
VERTEX
  5
145
330
143
100
AcDbEntity
  8
Rámeček (ISO)
100
AcDbVertex
100
AcDb2dVertex
 10
10.0
 20
210.0
 30
0.0
  0
VERTEX
  5
147
330
143
100
AcDbEntity
  8
Rámeček (ISO)
100
AcDbVertex
100
AcDb2dVertex
 10
5.0
 20
212.8867530822754
 30
0.0
  0
VERTEX
  5
148
330
143
100
AcDbEntity
  8
Rámeček (ISO)
100
AcDbVertex
100
AcDb2dVertex
 10
5.0
 20
207.1132469177246
 30
0.0
  0
VERTEX
  5
149
330
143
100
AcDbEntity
  8
Rámeček (ISO)
100
AcDbVertex
100
AcDb2dVertex
 10
10.0
 20
210.0
 30
0.0
  0
SEQEND
  5
146
330
143
100
AcDbEntity
  8
Rámeček (ISO)
  0
POLYLINE
  5
14A
330
12B
100
AcDbEntity
  8
Rámeček (ISO)
100
AcDb2dPolyline
 66
     1
 10
0.0
 20
0.0
 30
0.0
 70
   128
  0
VERTEX
  5
14B
330
14A
100
AcDbEntity
  8
Rámeček (ISO)
100
AcDbVertex
100
AcDb2dVertex
 10
594.0000152587891
 20
210.0
 30
0.0
  0
VERTEX
  5
14C
330
14A
100
AcDbEntity
  8
Rámeček (ISO)
100
AcDbVertex
100
AcDb2dVertex
 10
584.000015258789
 20
210.0
 30
0.0
  0
VERTEX
  5
14E
330
14A
100
AcDbEntity
  8
Rámeček (ISO)
100
AcDbVertex
100
AcDb2dVertex
 10
589.000015258789
 20
212.8867530822754
 30
0.0
  0
VERTEX
  5
14F
330
14A
100
AcDbEntity
  8
Rámeček (ISO)
100
AcDbVertex
100
AcDb2dVertex
 10
589.000015258789
 20
207.1132469177246
 30
0.0
  0
VERTEX
  5
150
330
14A
100
AcDbEntity
  8
Rámeček (ISO)
100
AcDbVertex
100
AcDb2dVertex
 10
584.000015258789
 20
210.0
 30
0.0
  0
SEQEND
  5
14D
330
14A
100
AcDbEntity
  8
Rámeček (ISO)
  0
LINE
  5
151
330
12B
100
AcDbEntity
  8
Rámeček (ISO)
100
AcDbLine
 10
74.25000190734863
 20
10.0
 30
0.0
 11
74.25000190734863
 21
6.100000143051147
 31
0.0
  0
LINE
  5
152
330
12B
100
AcDbEntity
  8
Rámeček (ISO)
100
AcDbLine
 10
74.25000190734863
 20
410.0
 30
0.0
 11
74.25000190734863
 21
413.8999938964843
 31
0.0
  0
LINE
  5
153
330
12B
100
AcDbEntity
  8
Rámeček (ISO)
100
AcDbLine
 10
148.5000038146973
 20
10.0
 30
0.0
 11
148.5000038146973
 21
6.100000143051147
 31
0.0
  0
LINE
  5
154
330
12B
100
AcDbEntity
  8
Rámeček (ISO)
100
AcDbLine
 10
148.5000038146973
 20
410.0
 30
0.0
 11
148.5000038146973
 21
413.8999938964843
 31
0.0
  0
LINE
  5
155
330
12B
100
AcDbEntity
  8
Rámeček (ISO)
100
AcDbLine
 10
222.7499961853027
 20
10.0
 30
0.0
 11
222.7499961853027
 21
6.100000143051147
 31
0.0
  0
LINE
  5
156
330
12B
100
AcDbEntity
  8
Rámeček (ISO)
100
AcDbLine
 10
222.7499961853027
 20
410.0
 30
0.0
 11
222.7499961853027
 21
413.8999938964843
 31
0.0
  0
LINE
  5
157
330
12B
100
AcDbEntity
  8
Rámeček (ISO)
100
AcDbLine
 10
371.25
 20
10.0
 30
0.0
 11
371.25
 21
6.100000143051147
 31
0.0
  0
LINE
  5
158
330
12B
100
AcDbEntity
  8
Rámeček (ISO)
100
AcDbLine
 10
371.25
 20
410.0
 30
0.0
 11
371.25
 21
413.8999938964843
 31
0.0
  0
LINE
  5
159
330
12B
100
AcDbEntity
  8
Rámeček (ISO)
100
AcDbLine
 10
445.4999923706054
 20
10.0
 30
0.0
 11
445.4999923706054
 21
6.100000143051147
 31
0.0
  0
LINE
  5
15A
330
12B
100
AcDbEntity
  8
Rámeček (ISO)
100
AcDbLine
 10
445.4999923706054
 20
410.0
 30
0.0
 11
445.4999923706054
 21
413.8999938964843
 31
0.0
  0
LINE
  5
15B
330
12B
100
AcDbEntity
  8
Rámeček (ISO)
100
AcDbLine
 10
519.7499847412109
 20
10.0
 30
0.0
 11
519.7499847412109
 21
6.100000143051147
 31
0.0
  0
LINE
  5
15C
330
12B
100
AcDbEntity
  8
Rámeček (ISO)
100
AcDbLine
 10
519.7499847412109
 20
410.0
 30
0.0
 11
519.7499847412109
 21
413.8999938964843
 31
0.0
  0
MTEXT
  5
15D
330
12B
100
AcDbEntity
  8
Rámeček (ISO)
100
AcDbMText
 10
556.0853922448459
 20
410.4
 30
0.0
 40
3.499999940395355
 41
0.0
 71
     7
 72
     1
  1
1
  7
Text poznámky (ISO)
 73
     1
 44
1.0
  0
MTEXT
  5
15E
330
12B
100
AcDbEntity
  8
Rámeček (ISO)
100
AcDbMText
 10
556.0853922448459
 20
6.100000059604644
 30
0.0
 40
3.499999940395355
 41
0.0
 71
     7
 72
     1
  1
1
  7
Text poznámky (ISO)
 73
     1
 44
1.0
  0
MTEXT
  5
15F
330
12B
100
AcDbEntity
  8
Rámeček (ISO)
100
AcDbMText
 10
481.5637915541735
 20
410.4
 30
0.0
 40
3.499999940395355
 41
0.0
 71
     7
 72
     1
  1
2
  7
Text poznámky (ISO)
 73
     1
 44
1.0
  0
MTEXT
  5
160
330
12B
100
AcDbEntity
  8
Rámeček (ISO)
100
AcDbMText
 10
481.5637915541735
 20
6.100000059604644
 30
0.0
 40
3.499999940395355
 41
0.0
 71
     7
 72
     1
  1
2
  7
Text poznámky (ISO)
 73
     1
 44
1.0
  0
MTEXT
  5
161
330
12B
100
AcDbEntity
  8
Rámeček (ISO)
100
AcDbMText
 10
407.2857914829702
 20
410.3262560764327
 30
0.0
 40
3.499999940395355
 41
0.0
 71
     7
 72
     1
  1
3
  7
Text poznámky (ISO)
 73
     1
 44
1.0
  0
MTEXT
  5
162
330
12B
100
AcDbEntity
  8
Rámeček (ISO)
100
AcDbMText
 10
407.2857914829702
 20
6.026256136037408
 30
0.0
 40
3.499999940395355
 41
0.0
 71
     7
 72
     1
  1
3
  7
Text poznámky (ISO)
 73
     1
 44
1.0
  0
MTEXT
  5
163
330
12B
100
AcDbEntity
  8
Rámeček (ISO)
100
AcDbMText
 10
332.9041911483145
 20
410.4
 30
0.0
 40
3.499999940395355
 41
0.0
 71
     7
 72
     1
  1
4
  7
Text poznámky (ISO)
 73
     1
 44
1.0
  0
MTEXT
  5
164
330
12B
100
AcDbEntity
  8
Rámeček (ISO)
100
AcDbMText
 10
332.9041911483145
 20
6.100000059604644
 30
0.0
 40
3.499999940395355
 41
0.0
 71
     7
 72
     1
  1
4
  7
Text poznámky (ISO)
 73
     1
 44
1.0
  0
MTEXT
  5
165
330
12B
100
AcDbEntity
  8
Rámeček (ISO)
100
AcDbMText
 10
258.850191646738
 20
410.3262560764327
 30
0.0
 40
3.499999940395355
 41
0.0
 71
     7
 72
     1
  1
5
  7
Text poznámky (ISO)
 73
     1
 44
1.0
  0
MTEXT
  5
166
330
12B
100
AcDbEntity
  8
Rámeček (ISO)
100
AcDbMText
 10
258.850191646738
 20
6.026256136037408
 30
0.0
 40
3.499999940395355
 41
0.0
 71
     7
 72
     1
  1
5
  7
Text poznámky (ISO)
 73
     1
 44
1.0
  0
MTEXT
  5
167
330
12B
100
AcDbEntity
  8
Rámeček (ISO)
100
AcDbMText
 10
184.5077914117669
 20
410.3262560764327
 30
0.0
 40
3.499999940395355
 41
0.0
 71
     7
 72
     1
  1
6
  7
Text poznámky (ISO)
 73
     1
 44
1.0
  0
MTEXT
  5
168
330
12B
100
AcDbEntity
  8
Rámeček (ISO)
100
AcDbMText
 10
184.5077914117669
 20
6.026256136037408
 30
0.0
 40
3.499999940395355
 41
0.0
 71
     7
 72
     1
  1
6
  7
Text poznámky (ISO)
 73
     1
 44
1.0
  0
MTEXT
  5
169
330
12B
100
AcDbEntity
  8
Rámeček (ISO)
100
AcDbMText
 10
110.2913914972109
 20
410.4
 30
0.0
 40
3.499999940395355
 41
0.0
 71
     7
 72
     1
  1
7
  7
Text poznámky (ISO)
 73
     1
 44
1.0
  0
MTEXT
  5
16A
330
12B
100
AcDbEntity
  8
Rámeček (ISO)
100
AcDbMText
 10
110.2913914972109
 20
6.100000059604644
 30
0.0
 40
3.499999940395355
 41
0.0
 71
     7
 72
     1
  1
7
  7
Text poznámky (ISO)
 73
     1
 44
1.0
  0
MTEXT
  5
16B
330
12B
100
AcDbEntity
  8
Rámeček (ISO)
100
AcDbMText
 10
35.9825913476839
 20
410.3205834697932
 30
0.0
 40
3.499999940395355
 41
0.0
 71
     7
 72
     1
  1
8
  7
Text poznámky (ISO)
 73
     1
 44
1.0
  0
MTEXT
  5
16C
330
12B
100
AcDbEntity
  8
Rámeček (ISO)
100
AcDbMText
 10
35.9825913476839
 20
6.020583529397844
 30
0.0
 40
3.499999940395355
 41
0.0
 71
     7
 72
     1
  1
8
  7
Text poznámky (ISO)
 73
     1
 44
1.0
  0
LINE
  5
16D
330
12B
100
AcDbEntity
  8
Rámeček (ISO)
100
AcDbLine
 10
10.0
 20
70.0
 30
0.0
 11
6.100000143051147
 21
70.0
 31
0.0
  0
LINE
  5
16E
330
12B
100
AcDbEntity
  8
Rámeček (ISO)
100
AcDbLine
 10
584.000015258789
 20
70.0
 30
0.0
 11
587.9000091552734
 21
70.0
 31
0.0
  0
LINE
  5
16F
330
12B
100
AcDbEntity
  8
Rámeček (ISO)
100
AcDbLine
 10
10.0
 20
140.0
 30
0.0
 11
6.100000143051147
 21
140.0
 31
0.0
  0
LINE
  5
170
330
12B
100
AcDbEntity
  8
Rámeček (ISO)
100
AcDbLine
 10
584.000015258789
 20
140.0
 30
0.0
 11
587.9000091552734
 21
140.0
 31
0.0
  0
LINE
  5
171
330
12B
100
AcDbEntity
  8
Rámeček (ISO)
100
AcDbLine
 10
10.0
 20
280.0
 30
0.0
 11
6.100000143051147
 21
280.0
 31
0.0
  0
LINE
  5
172
330
12B
100
AcDbEntity
  8
Rámeček (ISO)
100
AcDbLine
 10
584.000015258789
 20
280.0
 30
0.0
 11
587.9000091552734
 21
280.0
 31
0.0
  0
LINE
  5
173
330
12B
100
AcDbEntity
  8
Rámeček (ISO)
100
AcDbLine
 10
10.0
 20
350.0
 30
0.0
 11
6.100000143051147
 21
350.0
 31
0.0
  0
LINE
  5
174
330
12B
100
AcDbEntity
  8
Rámeček (ISO)
100
AcDbLine
 10
584.000015258789
 20
350.0
 30
0.0
 11
587.9000091552734
 21
350.0
 31
0.0
  0
MTEXT
  5
175
330
12B
100
AcDbEntity
  8
Rámeček (ISO)
100
AcDbMText
 10
6.361230343933396
 20
33.25000002980232
 30
0.0
 40
3.499999940395355
 41
0.0
 71
     7
 72
     1
  1
A
  7
Text poznámky (ISO)
 73
     1
 44
1.0
  0
MTEXT
  5
176
330
12B
100
AcDbEntity
  8
Rámeček (ISO)
100
AcDbMText
 10
584.6612302843287
 20
33.25000002980232
 30
0.0
 40
3.499999940395355
 41
0.0
 71
     7
 72
     1
  1
A
  7
Text poznámky (ISO)
 73
     1
 44
1.0
  0
MTEXT
  5
177
330
12B
100
AcDbEntity
  8
Rámeček (ISO)
100
AcDbMText
 10
6.781848468328938
 20
103.2500000298023
 30
0.0
 40
3.499999940395355
 41
0.0
 71
     7
 72
     1
  1
B
  7
Text poznámky (ISO)
 73
     1
 44
1.0
  0
MTEXT
  5
178
330
12B
100
AcDbEntity
  8
Rámeček (ISO)
100
AcDbMText
 10
585.0818484087242
 20
103.2500000298023
 30
0.0
 40
3.499999940395355
 41
0.0
 71
     7
 72
     1
  1
B
  7
Text poznámky (ISO)
 73
     1
 44
1.0
  0
MTEXT
  5
179
330
12B
100
AcDbEntity
  8
Rámeček (ISO)
100
AcDbMText
 10
6.558903094188359
 20
173.1876013241708
 30
0.0
 40
3.499999940395355
 41
0.0
 71
     7
 72
     1
  1
C
  7
Text poznámky (ISO)
 73
     1
 44
1.0
  0
MTEXT
  5
17A
330
12B
100
AcDbEntity
  8
Rámeček (ISO)
100
AcDbMText
 10
584.8589030345837
 20
173.1876013241708
 30
0.0
 40
3.499999940395355
 41
0.0
 71
     7
 72
     1
  1
C
  7
Text poznámky (ISO)
 73
     1
 44
1.0
  0
MTEXT
  5
17B
330
12B
100
AcDbEntity
  8
Rámeček (ISO)
100
AcDbMText
 10
6.56770745709084
 20
243.2500000298023
 30
0.0
 40
3.499999940395355
 41
0.0
 71
     7
 72
     1
  1
D
  7
Text poznámky (ISO)
 73
     1
 44
1.0
  0
MTEXT
  5
17C
330
12B
100
AcDbEntity
  8
Rámeček (ISO)
100
AcDbMText
 10
584.8677073974861
 20
243.2500000298023
 30
0.0
 40
3.499999940395355
 41
0.0
 71
     7
 72
     1
  1
D
  7
Text poznámky (ISO)
 73
     1
 44
1.0
  0
MTEXT
  5
17D
330
12B
100
AcDbEntity
  8
Rámeček (ISO)
100
AcDbMText
 10
6.849919803883061
 20
313.2500000298023
 30
0.0
 40
3.499999940395355
 41
0.0
 71
     7
 72
     1
  1
E
  7
Text poznámky (ISO)
 73
     1
 44
1.0
  0
MTEXT
  5
17E
330
12B
100
AcDbEntity
  8
Rámeček (ISO)
100
AcDbMText
 10
585.1499197442783
 20
313.2500000298023
 30
0.0
 40
3.499999940395355
 41
0.0
 71
     7
 72
     1
  1
E
  7
Text poznámky (ISO)
 73
     1
 44
1.0
  0
MTEXT
  5
17F
330
12B
100
AcDbEntity
  8
Rámeček (ISO)
100
AcDbMText
 10
6.944936015154347
 20
383.2500000298023
 30
0.0
 40
3.499999940395355
 41
0.0
 71
     7
 72
     1
  1
F
  7
Text poznámky (ISO)
 73
     1
 44
1.0
  0
MTEXT
  5
180
330
12B
100
AcDbEntity
  8
Rámeček (ISO)
100
AcDbMText
 10
585.2449359555496
 20
383.2500000298023
 30
0.0
 40
3.499999940395355
 41
0.0
 71
     7
 72
     1
  1
F
  7
Text poznámky (ISO)
 73
     1
 44
1.0
  0
ENDBLK
  5
12D
330
12B
100
AcDbEntity
  8
0
100
AcDbBlockEnd
  0
BLOCK
  5
183
330
182
100
AcDbEntity
  8
0
100
AcDbBlockBegin
  2
Rohová razítka ACO-razitko
 70
     2
 10
0.0
 20
0.0
 30
0.0
  3
Rohová razítka ACO-razitko
  1

  0
LINE
  5
185
330
182
100
AcDbEntity
  8
KOPF
  6
Continuous
370
    25
100
AcDbLine
 10
264.0
 20
94.01203200000001
 30
0.0
 11
264.0
 21
74.00000000000003
 31
0.0
  0
LINE
  5
186
330
182
100
AcDbEntity
  8
KOPF
  6
Continuous
370
    25
100
AcDbLine
 10
264.0
 20
94.01203200000001
 30
0.0
 11
264.0
 21
74.00000000000003
 31
0.0
  0
CIRCLE
  5
187
330
182
100
AcDbEntity
  8
TEXT50
  6
Continuous
370
    25
100
AcDbCircle
 10
247.5054493575618
 20
83.04852954632861
 30
0.0
 40
1.979948192651899
  0
LINE
  5
188
330
182
100
AcDbEntity
  8
TEXT50
  6
Continuous
370
    25
100
AcDbLine
 10
262.4910595621649
 20
85.02847773898061
 30
0.0
 11
262.4910595621649
 21
81.06858135367653
 31
0.0
  0
LINE
  5
189
330
182
100
AcDbEntity
  8
TEXT50
  6
Continuous
370
    25
100
AcDbLine
 10
253.9413433929653
 20
87.07146289795376
 30
0.0
 11
253.9413433929653
 21
79.02559619470344
 31
0.0
  0
LINE
  5
18A
330
182
100
AcDbEntity
  8
TEXT50
  6
Continuous
370
    25
100
AcDbLine
 10
262.4910595621649
 20
85.02847773898061
 30
0.0
 11
253.9413433929653
 21
87.07146289795376
 31
0.0
  0
CIRCLE
  5
18B
330
182
100
AcDbEntity
  8
TEXT50
  6
Continuous
370
    25
100
AcDbCircle
 10
247.5054493575618
 20
83.04852954632861
 30
0.0
 40
4.022933351625178
  0
LINE
  5
18C
330
182
100
AcDbEntity
  8
TEXT50
  6
Continuous
370
    25
100
AcDbLine
 10
253.9413433929653
 20
79.02559619470344
 30
0.0
 11
262.4910595621649
 21
81.06858135367653
 31
0.0
  0
CIRCLE
  5
18D
330
182
100
AcDbEntity
  8
TEXT35
  6
Continuous
370
    25
100
AcDbCircle
 10
221.0936673107637
 20
101.9131972309053
 30
0.0
 40
2.281499999999998
  0
CIRCLE
  5
18E
330
182
100
AcDbEntity
  8
TEXT35
  6
Continuous
370
    25
100
AcDbCircle
 10
221.0936673107637
 20
101.9131972309053
 30
0.0
 40
1.579499999999999
  0
ARC
  5
18F
330
182
100
AcDbEntity
  8
TEXT35
  6
Continuous
370
    25
100
AcDbCircle
 10
214.6291610736662
 20
101.9131972309054
 30
0.0
 40
1.579500000000072
100
AcDbArc
 50
31.05580049908738
 51
329.9999999999987
  0
LINE
  5
190
330
182
100
AcDbEntity
  8
TEXT35
  6
Continuous
370
    25
100
AcDbLine
 10
215.9822639109751
 20
102.7280180465864
 30
0.0
 11
216.5902852082589
 21
103.0790593062462
 31
0.0
  0
ARC
  5
191
330
182
100
AcDbEntity
  8
TEXT35
  6
Continuous
370
    25
100
AcDbCircle
 10
214.6291610736662
 20
101.9131972309052
 30
0.0
 40
2.281500000000015
100
AcDbArc
 50
30.73091726592628
 51
330.0000000000016
  0
LINE
  5
192
330
182
100
AcDbEntity
  8
TEXT35
  6
Continuous
370
    25
100
AcDbLine
 10
216.6049980324005
 20
100.7724472309053
 30
0.0
 11
215.9970481989438
 21
101.1234472309053
 31
0.0
  0
LINE
  5
193
330
182
100
AcDbEntity
  8
TEXT35
  6
Continuous
370
    25
100
AcDbLine
 10
211.8347763192409
 20
111.6789659312995
 30
0.0
 11
211.8347763192409
 21
98.44416361029551
 31
0.0
  0
LINE
  5
194
330
182
100
AcDbEntity
  8
TEXT35
  6
Continuous
370
    25
100
AcDbLine
 10
211.8347763192409
 20
98.44416361029551
 30
0.0
 11
217.4235458280916
 21
98.44416361029551
 31
0.0
  0
LINE
  5
195
330
182
100
AcDbEntity
  8
TEXT35
  6
Continuous
370
    25
100
AcDbLine
 10
217.4235458280916
 20
98.44416361029551
 30
0.0
 11
217.4235458280916
 21
111.6789659312995
 31
0.0
  0
LINE
  5
196
330
182
100
AcDbEntity
  8
TEXT35
  6
Continuous
370
    25
100
AcDbLine
 10
217.4235458280916
 20
111.6789659312995
 30
0.0
 11
211.8347763192409
 21
111.6789659312995
 31
0.0
  0
LINE
  5
197
330
182
100
AcDbEntity
  8
TEXT35
  6
Continuous
370
    25
100
AcDbLine
 10
223.888052065189
 20
111.6789659312995
 30
0.0
 11
223.888052065189
 21
98.44416361029551
 31
0.0
  0
LINE
  5
198
330
182
100
AcDbEntity
  8
TEXT35
  6
Continuous
370
    25
100
AcDbLine
 10
223.888052065189
 20
98.44416361029551
 30
0.0
 11
218.2992825563384
 21
98.44416361029551
 31
0.0
  0
LINE
  5
199
330
182
100
AcDbEntity
  8
TEXT35
  6
Continuous
370
    25
100
AcDbLine
 10
218.2992825563384
 20
98.44416361029551
 30
0.0
 11
218.2992825563384
 21
111.6789659312995
 31
0.0
  0
LINE
  5
19A
330
182
100
AcDbEntity
  8
TEXT35
  6
Continuous
370
    25
100
AcDbLine
 10
218.2992825563384
 20
111.6789659312995
 30
0.0
 11
223.888052065189
 21
111.6789659312995
 31
0.0
  0
ARC
  5
19B
330
182
100
AcDbEntity
  8
TEXT35
  6
Continuous
370
    25
100
AcDbCircle
 10
211.499154836569
 20
99.57623034270236
 30
0.0
 40
4.914000000000251
100
AcDbArc
 50
172.305837035409
 51
179.7113029220757
  0
LINE
  5
19C
330
182
100
AcDbEntity
  8
TEXT35
  6
Continuous
370
    25
100
AcDbLine
 10
206.6293963427935
 20
100.2341423522474
 30
0.0
 11
209.6999133303443
 21
100.2341423522474
 31
0.0
  0
ARC
  5
19D
330
182
100
AcDbEntity
  8
TEXT35
  6
Continuous
370
    25
100
AcDbCircle
 10
204.8301548365688
 20
99.57623034270325
 30
0.0
 40
4.914000000000133
100
AcDbArc
 50
0.2886970779141535
 51
7.694162964580896
  0
LINE
  5
19E
330
182
100
AcDbEntity
  8
TEXT35
  6
Continuous
370
    25
100
AcDbLine
 10
209.7440924568018
 20
99.600990481233
 30
0.0
 11
210.4461002543538
 21
99.600990481233
 31
0.0
  0
ARC
  5
19F
330
182
100
AcDbEntity
  8
TEXT35
  6
Continuous
370
    25
100
AcDbCircle
 10
204.8301548365688
 20
99.5762303427033
 30
0.0
 40
5.616000000000016
100
AcDbArc
 50
0.2526096926473688
 51
53.57642635766914
  0
ARC
  5
1A0
330
182
100
AcDbEntity
  8
TEXT35
  6
Continuous
370
    25
100
AcDbCircle
 10
211.4991548365688
 20
99.57623034270325
 30
0.0
 40
5.616000000000024
100
AcDbArc
 50
126.4235736423304
 51
179.7473903073512
  0
LINE
  5
1A1
330
182
100
AcDbEntity
  8
TEXT35
  6
Continuous
370
    25
100
AcDbLine
 10
205.8832094187838
 20
99.600990481233
 30
0.0
 11
206.5852172163358
 21
99.600990481233
 31
0.0
  0
LINE
  5
1A2
330
182
100
AcDbEntity
  8
TEXT35
  6
Continuous
370
    25
100
AcDbLine
 10
205.3702700821435
 20
111.6789659312995
 30
0.0
 11
205.3702700821435
 21
98.44416361029551
 31
0.0
  0
LINE
  5
1A3
330
182
100
AcDbEntity
  8
TEXT35
  6
Continuous
370
    25
100
AcDbLine
 10
205.3702700821435
 20
98.44416361029551
 30
0.0
 11
210.9590395909941
 21
98.44416361029551
 31
0.0
  0
LINE
  5
1A4
330
182
100
AcDbEntity
  8
TEXT35
  6
Continuous
370
    25
100
AcDbLine
 10
210.9590395909941
 20
98.44416361029551
 30
0.0
 11
210.9590395909941
 21
111.6789659312995
 31
0.0
  0
LINE
  5
1A5
330
182
100
AcDbEntity
  8
TEXT35
  6
Continuous
370
    25
100
AcDbLine
 10
210.9590395909941
 20
111.6789659312995
 30
0.0
 11
205.3702700821435
 21
111.6789659312995
 31
0.0
  0
ARC
  5
1A6
330
182
100
AcDbEntity
  8
TEXT35
  6
Continuous
370
    25
100
AcDbCircle
 10
204.830154836569
 20
99.57623034270341
 30
0.0
 40
4.913999999999818
100
AcDbArc
 50
16.0658750272321
 51
47.26788995739759
  0
LINE
  5
1A7
330
182
100
AcDbEntity
  8
TEXT35
  6
Continuous
370
    25
100
AcDbLine
 10
209.5522343918387
 20
100.9361423522474
 30
0.0
 11
206.7770752812989
 21
100.9361423522474
 31
0.0
  0
ARC
  5
1A8
330
182
100
AcDbEntity
  8
TEXT35
  6
Continuous
370
    25
100
AcDbCircle
 10
211.4991548365683
 20
99.57623034270339
 30
0.0
 40
4.913999999999566
100
AcDbArc
 50
132.7321100425983
 51
163.9341249727667
  0
LINE
  5
1A9
330
182
100
AcDbEntity
  8
Nadpis (ISO)
100
AcDbLine
 10
299.0
 20
114.0
 30
0.0
 11
299.0
 21
45.0
 31
0.0
  0
LINE
  5
1AA
330
182
100
AcDbEntity
  8
Nadpis (ISO)
100
AcDbLine
 10
299.0
 20
45.0
 30
0.0
 11
117.0
 21
44.99999999999999
 31
0.0
  0
LINE
  5
1AB
330
182
100
AcDbEntity
  8
Nadpis (ISO)
100
AcDbLine
 10
117.0
 20
44.99999999999999
 30
0.0
 11
117.0
 21
114.0
 31
0.0
  0
LINE
  5
1AC
330
182
100
AcDbEntity
  8
Nadpis (ISO)
100
AcDbLine
 10
117.0
 20
114.0
 30
0.0
 11
299.0
 21
114.0
 31
0.0
  0
LINE
  5
1AD
330
182
100
AcDbEntity
  8
Nadpis (ISO)
100
AcDbLine
 10
199.0
 20
114.0
 30
0.0
 11
199.0
 21
93.99999999999998
 31
0.0
  0
LINE
  5
1AE
330
182
100
AcDbEntity
  8
KOPF
100
AcDbLine
 10
199.0
 20
104.0
 30
0.0
 11
117.0
 21
104.0
 31
0.0
  0
LINE
  5
1AF
330
182
100
AcDbEntity
  8
Nadpis (ISO)
100
AcDbLine
 10
199.0
 20
93.99999999999998
 30
0.0
 11
117.0
 21
93.99999999999996
 31
0.0
  0
LINE
  5
1B0
330
182
100
AcDbEntity
  8
KOPF
100
AcDbLine
 10
158.0
 20
93.99999999999998
 30
0.0
 11
158.0
 21
114.0
 31
0.0
  0
LINE
  5
1B1
330
182
100
AcDbEntity
  8
Nadpis (ISO)
100
AcDbLine
 10
199.0
 20
93.99999999999998
 30
0.0
 11
299.0
 21
93.99999999999998
 31
0.0
  0
LINE
  5
1B2
330
182
100
AcDbEntity
  8
Nadpis (ISO)
100
AcDbLine
 10
216.0
 20
94.00000000000003
 30
0.0
 11
216.0
 21
44.99999999999999
 31
0.0
  0
LINE
  5
1B3
330
182
100
AcDbEntity
  8
Nadpis (ISO)
100
AcDbLine
 10
299.0
 20
74.00000000000004
 30
0.0
 11
117.0
 21
73.99999999999998
 31
0.0
  0
LINE
  5
1B4
330
182
100
AcDbEntity
  8
Nadpis (ISO)
100
AcDbLine
 10
186.0
 20
94.0
 30
0.0
 11
186.0
 21
74.00000000000002
 31
0.0
  0
LINE
  5
1B5
330
182
100
AcDbEntity
  8
KOPF
100
AcDbLine
 10
137.0
 20
93.99999999999998
 30
0.0
 11
137.0
 21
74.0
 31
0.0
  0
LINE
  5
1B6
330
182
100
AcDbEntity
  8
KOPF
100
AcDbLine
 10
162.0
 20
93.99999999999998
 30
0.0
 11
162.0
 21
74.0
 31
0.0
  0
LINE
  5
1B7
330
182
100
AcDbEntity
  8
KOPF
100
AcDbLine
 10
186.0
 20
84.0
 30
0.0
 11
117.0
 21
83.99999999999996
 31
0.0
  0
LINE
  5
1B8
330
182
100
AcDbEntity
  8
KOPF
100
AcDbLine
 10
186.0
 20
79.0
 30
0.0
 11
117.0
 21
78.99999999999997
 31
0.0
  0
LINE
  5
1B9
330
182
100
AcDbEntity
  8
KOPF
100
AcDbLine
 10
186.0
 20
89.0
 30
0.0
 11
117.0
 21
88.99999999999996
 31
0.0
  0
LINE
  5
1BA
330
182
100
AcDbEntity
  8
KOPF
100
AcDbLine
 10
216.0
 20
50.0
 30
0.0
 11
299.0
 21
50.0
 31
0.0
  0
LINE
  5
1BB
330
182
100
AcDbEntity
  8
Nadpis (ISO)
100
AcDbLine
 10
216.0
 20
55.0
 30
0.0
 11
299.0
 21
55.0
 31
0.0
  0
LINE
  5
1BC
330
182
100
AcDbEntity
  8
KOPF
100
AcDbLine
 10
238.0000000000001
 20
93.99999999999998
 30
0.0
 11
238.0000000000001
 21
74.00000000000003
 31
0.0
  0
LINE
  5
1BD
330
182
100
AcDbEntity
  8
KOPF
100
AcDbLine
 10
238.0000000000001
 20
84.00000000000003
 30
0.0
 11
216.0
 21
84.00000000000003
 31
0.0
  0
LINE
  5
1BE
330
182
100
AcDbEntity
  8
Nadpis (ISO)
100
AcDbLine
 10
287.0
 20
74.00000000000004
 30
0.0
 11
287.0
 21
55.0
 31
0.0
  0
LINE
  5
1BF
330
182
100
AcDbEntity
  8
KOPF
100
AcDbLine
 10
289.0
 20
50.0
 30
0.0
 11
289.0
 21
45.0
 31
0.0
  0
LINE
  5
1C0
330
182
100
AcDbEntity
  8
Nadpis (ISO)
100
AcDbLine
 10
260.9160465310349
 20
50.0
 30
0.0
 11
260.9160465310349
 21
45.0
 31
0.0
  0
TEXT
  5
1C2
330
182
100
AcDbEntity
  8
Viditelná tenká (ISO)
100
AcDbText
 10
266.0
 20
84.97994933403729
 30
0.0
 40
1.539999991655349
  1
zum Zweck anderweitiger Benutzung
 41
0.7999999523162842
  7
Styl textu62
100
AcDbText
  0
TEXT
  5
1C4
330
182
100
AcDbEntity
  8
Viditelná tenká (ISO)
100
AcDbText
 10
266.0
 20
82.63814072439632
 30
0.0
 40
1.539999991655349
  1
mitgeteilt werden und bleibt unser
 41
0.7999999523162842
  7
Styl textu62
100
AcDbText
  0
TEXT
  5
1C5
330
182
100
AcDbEntity
  8
Viditelná tenká (ISO)
100
AcDbText
 10
266.0
 20
87.26106040199921
 30
0.0
 40
1.539999991655349
  1
noch dritten Personen, insbesondere
 41
0.7999999523162842
  7
Styl textu62
100
AcDbText
  0
TEXT
  5
1C6
330
182
100
AcDbEntity
  8
Viditelná tenká (ISO)
100
AcDbText
 10
266.0
 20
89.6282322587214
 30
0.0
 40
1.539999991655349
  1
Diese Zeichnung darf weder kopiert
 41
0.7999999523162842
  7
Styl textu62
100
AcDbText
  0
TEXT
  5
1C7
330
182
100
AcDbEntity
  8
Viditelná tenká (ISO)
100
AcDbText
 10
266.0
 20
80.37532604459599
 30
0.0
 40
1.539999991655349
  1
Eigentum.
 41
0.7999999523162842
  7
Styl textu62
100
AcDbText
  0
TEXT
  5
1C9
330
182
100
AcDbEntity
  8
Viditelná tenká (ISO)
100
AcDbText
 10
241.877559521167
 20
90.82431699999998
 30
0.0
 40
2.000000029802322
  1
Projektion: ISO-E
 41
0.7999999523162842
  7
Styl textu58
100
AcDbText
  0
TEXT
  5
1CB
330
182
100
AcDbEntity
  8
Viditelná tenká (ISO)
100
AcDbText
 10
266.0
 20
77.30982488917627
 30
0.0
 40
1.539999991655349
  1
Schutzvermerk nach DIN 34 beachten
 41
0.75
  7
Styl textu63
100
AcDbText
  0
TEXT
  5
1CC
330
182
100
AcDbEntity
  8
Viditelná tenká (ISO)
100
AcDbText
 10
236.2487793316645
 20
99.38243367792949
 30
0.0
 40
2.000000029802322
  1
582 22 Přibyslav
 41
0.7999999523162842
  7
Styl textu58
100
AcDbText
  0
TEXT
  5
1CE
330
182
100
AcDbEntity
  8
Viditelná tenká (ISO)
100
AcDbText
 10
261.6984261202779
 20
99.57784645000474
 30
0.0
 40
2.09999993443489
  1
Fax: 0451 / 482529
 41
0.7000000476837159
  7
Styl textu72
100
AcDbText
  0
TEXT
  5
1CF
330
182
100
AcDbEntity
  8
Viditelná tenká (ISO)
100
AcDbText
 10
236.5351154208068
 20
103.0087314099309
 30
0.0
 40
2.000000029802322
  1
Havličkova 260
 41
0.7999999523162842
  7
Styl textu58
100
AcDbText
  0
TEXT
  5
1D1
330
182
100
AcDbEntity
  8
TEXT35
100
AcDbText
 10
235.9801354774567
 20
108.2018007493417
 30
0.0
 40
3.000000119209289
  1
ACO Industries
 41
0.7999999523162842
  7
Styl textu75
100
AcDbText
  0
TEXT
  5
1D2
330
182
100
AcDbEntity
  8
Viditelná tenká (ISO)
100
AcDbText
 10
261.6456899832647
 20
102.9064533471121
 30
0.0
 40
2.09999993443489
  1
Tel.: 0451 / 491660
 41
0.7000000476837159
  7
Styl textu72
100
AcDbText
  0
MTEXT
  5
1D3
330
182
100
AcDbEntity
  8
Viditelná tenká (ISO)
100
AcDbMText
 10
217.3570092483237
 20
73.27889989032858
 30
0.0
 40
2.000000029802322
 41
0.0
 71
     1
 72
     1
  1
\fArial|b0|i0;\H2.0000;Zeichnung Nr.
  7
Text poznámky (ISO)
 73
     1
 44
1.0
  0
MTEXT
  5
1D4
330
182
100
AcDbEntity
  8
Viditelná tenká (ISO)
100
AcDbMText
 10
287.9433731401013
 20
72.84063462326733
 30
0.0
 40
2.000000029802322
 41
0.0
 71
     1
 72
     1
  1
\fArial|b0|i0;\H2.0000;Index
  7
Text poznámky (ISO)
 73
     1
 44
1.0
  0
MTEXT
  5
1D5
330
182
100
AcDbEntity
  8
Viditelná tenká (ISO)
100
AcDbMText
 10
217.1230582952341
 20
52.63510416823109
 30
0.0
 40
2.000000029802322
 41
0.0
 71
     1
 72
     1
  1
\fArial|b0|i0;\H2.0000;Ersatz fur\PErsatz durch
  7
Text poznámky (ISO)
 73
     2
 44
0.9442214369773864
  0
MTEXT
  5
1D6
330
182
100
AcDbEntity
  8
Viditelná tenká (ISO)
100
AcDbMText
 10
188.916108134284
 20
93.0
 30
0.0
 40
2.000000029802322
 41
0.0
 71
     1
 72
     1
  1
\fArial|b0|i0;\H2.0000;Massstab
  7
Text poznámky (ISO)
 73
     1
 44
1.0
  0
MTEXT
  5
1D7
330
182
100
AcDbEntity
  8
Viditelná tenká (ISO)
100
AcDbMText
 10
217.0
 20
93.0
 30
0.0
 40
2.000000029802322
 41
0.0
 71
     1
 72
     1
  1
\fArial|b0|i0;\H2.0000;Masseinheit
  7
Text poznámky (ISO)
 73
     1
 44
1.0
  0
MTEXT
  5
1D8
330
182
100
AcDbEntity
  8
Viditelná tenká (ISO)
100
AcDbMText
 10
118.0
 20
113.0
 30
0.0
 40
2.000000029802322
 41
0.0
 71
     1
 72
     1
  1
\fArial|b0|i0;\H2.0000;Werkstoff.
  7
Text poznámky (ISO)
 73
     1
 44
1.0
  0
MTEXT
  5
1D9
330
182
100
AcDbEntity
  8
Viditelná tenká (ISO)
100
AcDbMText
 10
159.0
 20
113.0
 30
0.0
 40
2.000000029802322
 41
0.0
 71
     1
 72
     1
  1
\fArial|b0|i0;\H2.0000;Hmotnost
  7
Text poznámky (ISO)
 73
     1
 44
1.0
  0
MTEXT
  5
1DA
330
182
100
AcDbEntity
  8
Viditelná tenká (ISO)
100
AcDbMText
 10
118.0
 20
103.0
 30
0.0
 40
2.000000029802322
 41
0.0
 71
     1
 72
     1
  1
\fArial|b0|i0;\H2.0000;zul.Abweich.
  7
Text poznámky (ISO)
 73
     1
 44
1.0
  0
MTEXT
  5
1DB
330
182
100
AcDbEntity
  8
Viditelná tenká (ISO)
100
AcDbMText
 10
159.0
 20
103.0
 30
0.0
 40
2.000000029802322
 41
0.0
 71
     1
 72
     1
  1
\fArial|b0|i0;\H2.0000;Oberflache
  7
Text poznámky (ISO)
 73
     1
 44
1.0
  0
MTEXT
  5
1DC
330
182
100
AcDbEntity
  8
Viditelná tenká (ISO)
100
AcDbMText
 10
118.2064366962235
 20
87.52498463872976
 30
0.0
 40
2.000000029802322
 41
0.0
 71
     1
 72
     1
  1
\fArial|b0|i0;\H2.0000;Gezeichnet
  7
Text poznámky (ISO)
 73
     1
 44
1.0
  0
MTEXT
  5
1DD
330
182
100
AcDbEntity
  8
Viditelná tenká (ISO)
100
AcDbMText
 10
118.2064366962235
 20
82.79398756785594
 30
0.0
 40
2.000000029802322
 41
0.0
 71
     1
 72
     1
  1
\fArial|b0|i0;\H2.0000;Gepruft
  7
Text poznámky (ISO)
 73
     1
 44
1.0
  0
MTEXT
  5
1DE
330
182
100
AcDbEntity
  8
Viditelná tenká (ISO)
100
AcDbMText
 10
118.2064366962235
 20
77.59713566222233
 30
0.0
 40
2.000000029802322
 41
0.0
 71
     1
 72
     1
  1
\fArial|b0|i0;\H2.0000;Update
  7
Text poznámky (ISO)
 73
     1
 44
1.0
  0
MTEXT
  5
1DF
330
182
100
AcDbEntity
  8
Viditelná tenká (ISO)
100
AcDbMText
 10
143.0
 20
93.0
 30
0.0
 40
2.000000029802322
 41
0.0
 71
     1
 72
     1
  1
\fArial|b0|i0;\H2.0000;Datum
  7
Text poznámky (ISO)
 73
     1
 44
1.0
  0
MTEXT
  5
1E0
330
182
100
AcDbEntity
  8
Viditelná tenká (ISO)
100
AcDbMText
 10
170.0
 20
93.0
 30
0.0
 40
2.000000029802322
 41
0.0
 71
     1
 72
     1
  1
\fArial|b0|i0;\H2.0000;Name
  7
Text poznámky (ISO)
 73
     1
 44
1.0
  0
MTEXT
  5
1E1
330
182
100
AcDbEntity
  8
Nadpis (ISO)
100
AcDbMText
 10
118.0
 20
71.0
 30
0.0
 40
3.499999940395355
 41
0.0
 71
     1
 72
     1
  1
Effidrain rostova nastavba pro vinyl 157 V2A
  7
Text poznámky (ISO)
 73
     1
 44
1.0
  0
MTEXT
  5
1E2
330
182
100
AcDbEntity
  8
Nadpis (ISO)
100
AcDbMText
 10
138.6542642016321
 20
87.78242706242743
 30
0.0
 40
2.000000029802322
 41
0.0
 71
     1
 72
     1
  1
\fTahoma|b0|i0;\H2.0000;24.5.2010
  7
Text poznámky (ISO)
 73
     1
 44
1.0
  0
MTEXT
  5
1E3
330
182
100
AcDbEntity
  8
Nadpis (ISO)
100
AcDbMText
 10
118.9147684950603
 20
98.79632878646518
 30
0.0
 40
3.499999940395355
 41
0.0
 71
     1
 72
     1
  1
ISO 2768-m
  7
Text poznámky (ISO)
 73
     1
 44
1.0
  0
MTEXT
  5
1E4
330
182
100
AcDbEntity
  8
Nadpis (ISO)
100
AcDbMText
 10
162.5831033854
 20
99.20167780246005
 30
0.0
 40
3.499999940395355
 41
0.0
 71
     1
 72
     1
  1
DIN ISO 1302
  7
Text poznámky (ISO)
 73
     1
 44
1.0
  0
MTEXT
  5
1E5
330
182
100
AcDbEntity
  8
Nadpis (ISO)
100
AcDbMText
 10
262.4743825961981
 20
49.17778241269704
 30
0.0
 40
3.499999940395355
 41
0.0
 71
     1
 72
     1
  1
\fArial|b0|i0;\H3.5000;List:\fArial|b0|i0;\H3.5000;1 \fArial|b0|i0;\H3.5000;/\fArial|b0|i0;\H3.5000;1 
  7
Text poznámky (ISO)
 73
     1
 44
1.0
  0
MTEXT
  5
1E6
330
182
100
AcDbEntity
  8
Nadpis (ISO)
100
AcDbMText
 10
159.4396788094336
 20
109.6756657996811
 30
0.0
 40
3.499999940395355
 41
29.10098367733216
 71
     1
 72
     1
  1
1,78 kg
  7
Text poznámky (ISO)
 73
     1
 44
1.0
  0
ATTDEF
  5
1E8
102
{ACAD_XDICTIONARY
360
A01
102
}
330
182
100
AcDbEntity
  8
Nadpis (ISO)
100
AcDbText
 10
287.4393862219839
 20
62.4856753668063
 30
0.0
 40
3.499999940395355
  1
000
  7
Styl textu9
100
AcDbAttributeDefinition
  3
ČÍSLO REVIZE
  2
ČÍSLO_REVIZE_001
 70
     0
  0
ATTDEF
  5
1EC
102
{ACAD_XDICTIONARY
360
A04
102
}
330
182
100
AcDbEntity
  8
Nadpis (ISO)
100
AcDbText
 10
289.7753402652471
 20
46.32882590415591
 30
0.0
 40
2.000000029802322
  1
A2
  7
Styl textu40
100
AcDbAttributeDefinition
  3
Sheet Size
  2
Sheet_Size_001
 70
     0
  0
ATTDEF
  5
1ED
102
{ACAD_XDICTIONARY
360
A07
102
}
330
182
100
AcDbEntity
  8
Nadpis (ISO)
100
AcDbText
 10
230.1305737493188
 20
51.10091360311345
 30
0.0
 40
2.000000029802322
  1
C:\Inventor_DATA\Projekty\Guly\Effidrain\Effidrain rostova nastavba pro vinyl\408240.iam
  7
Styl textu40
100
AcDbAttributeDefinition
  3
FILENAME AND PATH
  2
FILENAME_AND_PATH_001
 70
     0
  0
ATTDEF
  5
1EE
102
{ACAD_XDICTIONARY
360
A0A
102
}
330
182
100
AcDbEntity
  8
Nadpis (ISO)
100
AcDbText
 10
217.9059771674843
 20
62.42008065196634
 30
0.0
 40
3.499999940395355
  1
408240
  7
Text poznámky (ISO)
100
AcDbAttributeDefinition
  3
PART NUMBER
  2
PART_NUMBER_001
 70
     0
  0
ATTDEF
  5
1EF
102
{ACAD_XDICTIONARY
360
A0D
102
}
330
182
100
AcDbEntity
  8
Nadpis (ISO)
100
AcDbText
 10
118.0
 20
56.50000005960464
 30
0.0
 40
3.499999940395355
  1

  7
Text poznámky (ISO)
 11
118.0
 21
60.0
 31
0.0
100
AcDbAttributeDefinition
  3
PROJECT
  2
PROJECT
 70
     0
 74
     3
  0
ATTDEF
  5
1F1
102
{ACAD_XDICTIONARY
360
A10
102
}
330
182
100
AcDbEntity
  8
Nadpis (ISO)
100
AcDbText
 10
117.8119543349687
 20
47.73407435882506
 30
0.0
 40
6.99999988079071
  1
408240
  7
Styl textu94
100
AcDbAttributeDefinition
  3
SKLADOVÉ ČÍSLO
  2
SKLADOVÉ_ČÍSLO_001
 70
     0
  0
ATTDEF
  5
1F2
102
{ACAD_XDICTIONARY
360
A13
102
}
330
182
100
AcDbEntity
  8
Nadpis (ISO)
100
AcDbText
 10
117.5939056808251
 20
105.1756658592858
 30
0.0
 40
3.499999940395355
  1

  7
Text poznámky (ISO)
 11
117.5939056808251
 21
108.6756657996811
 31
0.0
100
AcDbAttributeDefinition
  3
MATERIAL
  2
MATERIAL
 70
     0
 74
     3
  0
ATTDEF
  5
1F3
102
{ACAD_XDICTIONARY
360
A16
102
}
330
182
100
AcDbEntity
  8
Nadpis (ISO)
100
AcDbText
 10
165.0470513532835
 20
85.7824270326251
 30
0.0
 40
2.000000029802322
  1
pmacoun
  7
Styl textu40
100
AcDbAttributeDefinition
  3
AUTHOR
  2
AUTHOR_001
 70
     0
  0
ATTDEF
  5
1F4
102
{ACAD_XDICTIONARY
360
A19
102
}
330
182
100
AcDbEntity
  8
Nadpis (ISO)
100
AcDbText
 10
189.1855699863978
 20
82.50038826992806
 30
0.0
 40
3.499999940395355
  1

  7
Text poznámky (ISO)
 11
189.1855699863978
 21
86.00038821032342
 31
0.0
100
AcDbAttributeDefinition
  3
VS_First
  2
VS_First
 70
     0
 74
     3
  0
ENDBLK
  5
184
330
182
100
AcDbEntity
  8
0
100
AcDbBlockEnd
  0
BLOCK
  5
6F3
330
6F2
100
AcDbEntity
  8
0
100
AcDbBlockBegin
  2
*D16
 70
     1
 10
0.0
 20
0.0
 30
0.0
  3
*D16
  1

  0
LINE
  5
292A
330
6F2
100
AcDbEntity
  8
Kóta (ISO)
100
AcDbLine
 10
180.7387897419597
 20
492.8330883214571
 30
0.0
 11
94.04727566991484
 21
492.8330883214572
 31
0.0
  0
LINE
  5
292B
330
6F2
100
AcDbEntity
  8
Kóta (ISO)
100
AcDbLine
 10
107.038789741966
 20
592.8330883214616
 30
0.0
 11
94.04727566991486
 21
592.8330883214616
 31
0.0
  0
LINE
  5
292C
330
6F2
100
AcDbEntity
  8
Kóta (ISO)
100
AcDbLine
 10
95.71394233658152
 20
496.9997549881239
 30
0.0
 11
95.71394233658152
 21
588.666421654795
 31
0.0
  0
SOLID
  5
292D
330
6F2
100
AcDbEntity
  8
Kóta (ISO)
100
AcDbTrace
 10
95.01949789213707
 20
496.9997549881239
 30
0.0
 11
96.40838678102596
 21
496.9997549881239
 31
0.0
 12
95.71394233658152
 22
492.8330883214572
 32
0.0
 13
95.71394233658152
 23
492.8330883214572
 33
0.0
  0
SOLID
  5
292E
330
6F2
100
AcDbEntity
  8
Kóta (ISO)
100
AcDbTrace
 10
95.01949789213709
 20
588.666421654795
 30
0.0
 11
96.40838678102596
 21
588.666421654795
 31
0.0
 12
95.71394233658152
 22
592.8330883214616
 32
0.0
 13
95.71394233658152
 23
592.8330883214616
 33
0.0
  0
MTEXT
  5
292F
330
6F2
100
AcDbEntity
  8
Kóta (ISO)
100
AcDbMText
 10
88.37163429986775
 20
534.7082969951538
 30
0.0
 40
5.833333333333333
 41
0.0
 71
     1
 72
     1
  1
\A1;100
  7
Text poznámky (ISO)
 11
0.0000000000000001
 21
1.0
 31
0.0
 73
     1
 44
1.0
  0
POINT
  5
2930
330
6F2
100
AcDbEntity
  8
Defpoints
 62
     0
100
AcDbPoint
 10
180.7387897419597
 20
492.8330883214571
 30
0.0
  0
POINT
  5
2931
330
6F2
100
AcDbEntity
  8
Defpoints
 62
     0
100
AcDbPoint
 10
107.038789741966
 20
592.8330883214616
 30
0.0
  0
POINT
  5
2932
330
6F2
100
AcDbEntity
  8
Defpoints
 62
     0
100
AcDbPoint
 10
95.71394233658152
 20
592.8330883214616
 30
0.0
  0
ENDBLK
  5
6F4
330
6F2
100
AcDbEntity
  8
0
100
AcDbBlockEnd
  0
BLOCK
  5
7D4
330
7D3
100
AcDbEntity
  8
0
100
AcDbBlockBegin
  2
KUSOVNÍK
 70
     0
 10
0.0
 20
0.0
 30
0.0
  3
KUSOVNÍK
  1

  0
LINE
  5
7D6
330
7D3
100
AcDbEntity
  8
Značka (ISO)
100
AcDbLine
 10
584.0
 20
193.2766215443611
 30
0.0
 11
402.681095287577
 21
193.2766215443611
 31
0.0
  0
LINE
  5
7D7
330
7D3
100
AcDbEntity
  8
Značka (ISO)
100
AcDbLine
 10
584.0
 20
193.2766215443611
 30
0.0
 11
584.0
 21
186.9279203474522
 31
0.0
  0
LINE
  5
7D8
330
7D3
100
AcDbEntity
  8
Značka (ISO)
100
AcDbLine
 10
402.681095287577
 20
193.2766215443611
 30
0.0
 11
402.681095287577
 21
186.9279203474522
 31
0.0
  0
MTEXT
  5
7D9
102
{ACAD_XDICTIONARY
360
2950
102
}
330
7D3
100
AcDbEntity
  8
Značka (ISO)
100
AcDbMText
 10
482.7971692322579
 20
187.6525955945253
 30
0.0
 40
3.499999940395355
 41
0.0
 71
     7
 72
     1
  1
KUSOVN\U+00CDK
  7
Text poznámky (DIN)
 73
     1
 44
1.0
  0
LINE
  5
7DB
330
7D3
100
AcDbEntity
  8
Značka (ISO)
100
AcDbLine
 10
584.0
 20
186.9279203474522
 30
0.0
 11
402.681095287577
 21
186.9279203474522
 31
0.0
  0
LINE
  5
7DC
330
7D3
100
AcDbEntity
  8
Značka (ISO)
100
AcDbLine
 10
584.0
 20
186.9279203474522
 30
0.0
 11
584.0
 21
180.5792191505432
 31
0.0
  0
MTEXT
  5
7DD
102
{ACAD_XDICTIONARY
360
2952
102
}
330
7D3
100
AcDbEntity
  8
Značka (ISO)
100
AcDbMText
 10
561.1072709453114
 20
181.3038943976164
 30
0.0
 40
3.499999940395355
 41
0.0
 71
     7
 72
     1
  1
MATERI\U+00C1L
  7
Text poznámky (DIN)
 73
     1
 44
1.0
  0
LINE
  5
7DE
330
7D3
100
AcDbEntity
  8
Značka (ISO)
100
AcDbLine
 10
558.6
 20
186.9279203474522
 30
0.0
 11
558.6
 21
180.5792191505432
 31
0.0
  0
MTEXT
  5
7DF
330
7D3
100
AcDbEntity
  8
Značka (ISO)
100
AcDbMText
 10
534.8322711837299
 20
182.0035697788
 30
0.0
 40
3.499999940395355
 41
0.0
 71
     7
 72
     1
  1
HMOTNOST
  7
Text poznámky (DIN)
 73
     1
 44
1.0
  0
LINE
  5
7E0
330
7D3
100
AcDbEntity
  8
Značka (ISO)
100
AcDbLine
 10
533.2
 20
186.9279203474522
 30
0.0
 11
533.2
 21
180.5792191505432
 31
0.0
  0
MTEXT
  5
7E1
102
{ACAD_XDICTIONARY
360
2954
102
}
330
7D3
100
AcDbEntity
  8
Značka (ISO)
100
AcDbMText
 10
509.607595862151
 20
181.3038943976164
 30
0.0
 40
3.499999940395355
 41
0.0
 71
     7
 72
     1
  1
SKLADOV\U+00C9
  7
Text poznámky (DIN)
 73
     1
 44
1.0
  0
LINE
  5
7E2
330
7D3
100
AcDbEntity
  8
Značka (ISO)
100
AcDbLine
 10
507.8
 20
186.9279203474522
 30
0.0
 11
507.8
 21
180.5792191505432
 31
0.0
  0
MTEXT
  5
7E3
330
7D3
100
AcDbEntity
  8
Značka (ISO)
100
AcDbMText
 10
465.3685651513865
 20
182.0035697788
 30
0.0
 40
3.499999940395355
 41
0.0
 71
     7
 72
     1
  1
POPIS
  7
Text poznámky (DIN)
 73
     1
 44
1.0
  0
LINE
  5
7E4
330
7D3
100
AcDbEntity
  8
Značka (ISO)
100
AcDbLine
 10
434.5758344811046
 20
186.9279203474522
 30
0.0
 11
434.5758344811046
 21
180.5792191505432
 31
0.0
  0
MTEXT
  5
7E5
330
7D3
100
AcDbEntity
  8
Značka (ISO)
100
AcDbMText
 10
424.2026186903127
 20
182.0035697788
 30
0.0
 40
3.499999940395355
 41
0.0
 71
     7
 72
     1
  1
KS
  7
Text poznámky (DIN)
 73
     1
 44
1.0
  0
LINE
  5
7E6
330
7D3
100
AcDbEntity
  8
Značka (ISO)
100
AcDbLine
 10
418.8220038149513
 20
186.9279203474522
 30
0.0
 11
418.8220038149513
 21
180.5792191505432
 31
0.0
  0
MTEXT
  5
7E7
330
7D3
100
AcDbEntity
  8
Značka (ISO)
100
AcDbMText
 10
403.8834960565731
 20
182.0035697788
 30
0.0
 40
3.499999940395355
 41
0.0
 71
     7
 72
     1
  1
POZICE
  7
Text poznámky (DIN)
 73
     1
 44
1.0
  0
LINE
  5
7E8
330
7D3
100
AcDbEntity
  8
Značka (ISO)
100
AcDbLine
 10
402.681095287577
 20
186.9279203474522
 30
0.0
 11
402.681095287577
 21
180.5792191505432
 31
0.0
  0
MTEXT
  5
7E9
330
7D3
100
AcDbEntity
  8
Značka (ISO)
100
AcDbMText
 10
559.8024007689961
 20
175.654868581891
 30
0.0
 40
3.499999940395355
 41
0.0
 71
     7
 72
     1
  1
AISI 304
  7
Text poznámky (DIN)
 73
     1
 44
1.0
  0
MTEXT
  5
7EA
330
7D3
100
AcDbEntity
  8
Značka (ISO)
100
AcDbMText
 10
534.3996007618758
 20
174.6061673253775
 30
0.0
 40
3.499999940395355
 41
0.0
 71
     7
 72
     1
  1
1,2 kg
  7
Text poznámky (DIN)
 73
     1
 44
1.0
  0
MTEXT
  5
7EB
330
7D3
100
AcDbEntity
  8
Značka (ISO)
100
AcDbMText
 10
509.0024007689961
 20
175.654868581891
 30
0.0
 40
3.499999940395355
 41
0.0
 71
     7
 72
     1
  1
E53975
  7
Text poznámky (DIN)
 73
     1
 44
1.0
  0
MTEXT
  5
7EC
102
{ACAD_XDICTIONARY
360
2956
102
}
330
7D3
100
AcDbEntity
  8
Značka (ISO)
100
AcDbMText
 10
435.7782352501007
 20
174.4324659794569
 30
0.0
 40
3.499999940395355
 41
0.0
 71
     7
 72
     1
  1
Sva\U+0159enec ro\U+0161t nastavb. vinyl
  7
Text poznámky (DIN)
 73
     1
 44
1.0
  0
MTEXT
  5
7ED
330
7D3
100
AcDbEntity
  8
Značka (ISO)
100
AcDbMText
 10
426.1235199248049
 20
175.654868581891
 30
0.0
 40
3.499999940395355
 41
0.0
 71
     7
 72
     1
  1
1
  7
Text poznámky (DIN)
 73
     1
 44
1.0
  0
MTEXT
  5
7EE
330
7D3
100
AcDbEntity
  8
Značka (ISO)
100
AcDbMText
 10
410.1761503280411
 20
175.654868581891
 30
0.0
 40
3.499999940395355
 41
0.0
 71
     7
 72
     1
  1
1
  7
Text poznámky (DIN)
 73
     1
 44
1.0
  0
LINE
  5
7EF
330
7D3
100
AcDbEntity
  8
Značka (ISO)
100
AcDbLine
 10
584.0
 20
180.5792191505432
 30
0.0
 11
402.681095287577
 21
180.5792191505432
 31
0.0
  0
MTEXT
  5
7F0
330
7D3
100
AcDbEntity
  8
Značka (ISO)
100
AcDbMText
 10
559.8024007689961
 20
169.3061673849821
 30
0.0
 40
3.499999940395355
 41
0.0
 71
     7
 72
     1
  1
AISI 304
  7
Text poznámky (DIN)
 73
     1
 44
1.0
  0
MTEXT
  5
7F1
330
7D3
100
AcDbEntity
  8
Značka (ISO)
100
AcDbMText
 10
534.4024007689961
 20
168.2574661284685
 30
0.0
 40
3.499999940395355
 41
0.0
 71
     7
 72
     1
  1
0,345 kg
  7
Text poznámky (DIN)
 73
     1
 44
1.0
  0
MTEXT
  5
7F2
330
7D3
100
AcDbEntity
  8
Značka (ISO)
100
AcDbMText
 10
509.0024007689961
 20
169.3061673849821
 30
0.0
 40
3.499999940395355
 41
0.0
 71
     7
 72
     1
  1
E55089
  7
Text poznámky (DIN)
 73
     1
 44
1.0
  0
MTEXT
  5
7F3
102
{ACAD_XDICTIONARY
360
2958
102
}
330
7D3
100
AcDbEntity
  8
Značka (ISO)
100
AcDbMText
 10
435.7782352501007
 20
168.083764782548
 30
0.0
 40
3.499999940395355
 41
0.0
 71
     7
 72
     1
  1
Vypust pro \U+017Elab D157/142 
  7
Text poznámky (DIN)
 73
     1
 44
1.0
  0
MTEXT
  5
7F4
330
7D3
100
AcDbEntity
  8
Značka (ISO)
100
AcDbMText
 10
435.7782352501007
 20
162.7837649196386
 30
0.0
 40
3.499999940395355
 41
0.0
 71
     7
 72
     1
  1
snizena AISI 304
  7
Text poznámky (DIN)
 73
     1
 44
1.0
  0
MTEXT
  5
7F5
330
7D3
100
AcDbEntity
  8
Značka (ISO)
100
AcDbMText
 10
426.1235199248049
 20
169.3061673849821
 30
0.0
 40
3.499999940395355
 41
0.0
 71
     7
 72
     1
  1
1
  7
Text poznámky (DIN)
 73
     1
 44
1.0
  0
MTEXT
  5
7F6
330
7D3
100
AcDbEntity
  8
Značka (ISO)
100
AcDbMText
 10
408.7767996401796
 20
169.3061673849821
 30
0.0
 40
3.499999940395355
 41
0.0
 71
     7
 72
     1
  1
1.1
  7
Text poznámky (DIN)
 73
     1
 44
1.0
  0
LINE
  5
7F7
330
7D3
100
AcDbEntity
  8
Značka (ISO)
100
AcDbLine
 10
584.0
 20
174.2305179536342
 30
0.0
 11
402.681095287577
 21
174.2305179536342
 31
0.0
  0
MTEXT
  5
7F8
330
7D3
100
AcDbEntity
  8
Značka (ISO)
100
AcDbMText
 10
559.8024007689961
 20
156.6087649911642
 30
0.0
 40
3.499999940395355
 41
0.0
 71
     7
 72
     1
  1
AISI 304
  7
Text poznámky (DIN)
 73
     1
 44
1.0
  0
MTEXT
  5
7F9
330
7D3
100
AcDbEntity
  8
Značka (ISO)
100
AcDbMText
 10
534.4024007689961
 20
155.5600637346506
 30
0.0
 40
3.499999940395355
 41
0.0
 71
     7
 72
     1
  1
0,242 kg
  7
Text poznámky (DIN)
 73
     1
 44
1.0
  0
MTEXT
  5
7FA
330
7D3
100
AcDbEntity
  8
Značka (ISO)
100
AcDbMText
 10
509.0024007689961
 20
156.6087649911642
 30
0.0
 40
3.499999940395355
 41
0.0
 71
     7
 72
     1
  1
E1757
  7
Text poznámky (DIN)
 73
     1
 44
1.0
  0
MTEXT
  5
7FB
102
{ACAD_XDICTIONARY
360
295A
102
}
330
7D3
100
AcDbEntity
  8
Značka (ISO)
100
AcDbMText
 10
435.7782352501007
 20
156.4350636452436
 30
0.0
 40
3.499999940395355
 41
0.0
 71
     7
 72
     1
  1
P\U+0159echod 200/157-30
  7
Text poznámky (DIN)
 73
     1
 44
1.0
  0
MTEXT
  5
7FC
330
7D3
100
AcDbEntity
  8
Značka (ISO)
100
AcDbMText
 10
426.1235199248049
 20
156.6087649911642
 30
0.0
 40
3.499999940395355
 41
0.0
 71
     7
 72
     1
  1
1
  7
Text poznámky (DIN)
 73
     1
 44
1.0
  0
MTEXT
  5
7FD
330
7D3
100
AcDbEntity
  8
Značka (ISO)
100
AcDbMText
 10
408.4277737648497
 20
156.6087649911642
 30
0.0
 40
3.499999940395355
 41
0.0
 71
     7
 72
     1
  1
1.2
  7
Text poznámky (DIN)
 73
     1
 44
1.0
  0
LINE
  5
7FE
330
7D3
100
AcDbEntity
  8
Značka (ISO)
100
AcDbLine
 10
584.0
 20
161.5331155598164
 30
0.0
 11
402.681095287577
 21
161.5331155598164
 31
0.0
  0
MTEXT
  5
7FF
330
7D3
100
AcDbEntity
  8
Značka (ISO)
100
AcDbMText
 10
559.8024007689961
 20
150.2600637942552
 30
0.0
 40
3.499999940395355
 41
0.0
 71
     7
 72
     1
  1
AISI 304
  7
Text poznámky (DIN)
 73
     1
 44
1.0
  0
MTEXT
  5
800
330
7D3
100
AcDbEntity
  8
Značka (ISO)
100
AcDbMText
 10
534.4024007689961
 20
149.2113625377417
 30
0.0
 40
3.499999940395355
 41
0.0
 71
     7
 72
     1
  1
0,528 kg
  7
Text poznámky (DIN)
 73
     1
 44
1.0
  0
MTEXT
  5
801
330
7D3
100
AcDbEntity
  8
Značka (ISO)
100
AcDbMText
 10
509.0024007689961
 20
150.2600637942552
 30
0.0
 40
3.499999940395355
 41
0.0
 71
     7
 72
     1
  1
E1756
  7
Text poznámky (DIN)
 73
     1
 44
1.0
  0
MTEXT
  5
802
102
{ACAD_XDICTIONARY
360
295C
102
}
330
7D3
100
AcDbEntity
  8
Značka (ISO)
100
AcDbMText
 10
435.7782352501007
 20
149.0376611918211
 30
0.0
 40
3.499999940395355
 41
0.0
 71
     7
 72
     1
  1
p\U+0159\U+00EDruba pro lino
  7
Text poznámky (DIN)
 73
     1
 44
1.0
  0
MTEXT
  5
803
330
7D3
100
AcDbEntity
  8
Značka (ISO)
100
AcDbMText
 10
426.1235199248049
 20
150.2600637942552
 30
0.0
 40
3.499999940395355
 41
0.0
 71
     7
 72
     1
  1
1
  7
Text poznámky (DIN)
 73
     1
 44
1.0
  0
MTEXT
  5
804
330
7D3
100
AcDbEntity
  8
Značka (ISO)
100
AcDbMText
 10
408.4277737648497
 20
150.2600637942552
 30
0.0
 40
3.499999940395355
 41
0.0
 71
     7
 72
     1
  1
1.3
  7
Text poznámky (DIN)
 73
     1
 44
1.0
  0
LINE
  5
805
330
7D3
100
AcDbEntity
  8
Značka (ISO)
100
AcDbLine
 10
584.0
 20
155.1844143629074
 30
0.0
 11
402.681095287577
 21
155.1844143629074
 31
0.0
  0
MTEXT
  5
806
330
7D3
100
AcDbEntity
  8
Značka (ISO)
100
AcDbMText
 10
559.8024007689961
 20
143.9113625973463
 30
0.0
 40
3.499999940395355
 41
0.0
 71
     7
 72
     1
  1
AISI 304
  7
Text poznámky (DIN)
 73
     1
 44
1.0
  0
MTEXT
  5
807
330
7D3
100
AcDbEntity
  8
Značka (ISO)
100
AcDbMText
 10
534.4024007689961
 20
142.8626613408327
 30
0.0
 40
3.499999940395355
 41
0.0
 71
     7
 72
     1
  1
0,005 kg
  7
Text poznámky (DIN)
 73
     1
 44
1.0
  0
MTEXT
  5
808
330
7D3
100
AcDbEntity
  8
Značka (ISO)
100
AcDbMText
 10
509.0024007689961
 20
143.9113625973463
 30
0.0
 40
3.499999940395355
 41
0.0
 71
     7
 72
     1
  1
90576
  7
Text poznámky (DIN)
 73
     1
 44
1.0
  0
MTEXT
  5
809
102
{ACAD_XDICTIONARY
360
295E
102
}
330
7D3
100
AcDbEntity
  8
Značka (ISO)
100
AcDbMText
 10
435.7782352501007
 20
142.6889599949122
 30
0.0
 40
3.499999940395355
 41
0.0
 71
     7
 72
     1
  1
Matice n\U+00FDtovac\U+00ED nerez  M5
  7
Text poznámky (DIN)
 73
     1
 44
1.0
  0
MTEXT
  5
80A
330
7D3
100
AcDbEntity
  8
Značka (ISO)
100
AcDbMText
 10
425.7772939820894
 20
143.9113625973463
 30
0.0
 40
3.499999940395355
 41
0.0
 71
     7
 72
     1
  1
8
  7
Text poznámky (DIN)
 73
     1
 44
1.0
  0
MTEXT
  5
80B
330
7D3
100
AcDbEntity
  8
Značka (ISO)
100
AcDbMText
 10
408.2524490864287
 20
143.9113625973463
 30
0.0
 40
3.499999940395355
 41
0.0
 71
     7
 72
     1
  1
1.4
  7
Text poznámky (DIN)
 73
     1
 44
1.0
  0
LINE
  5
80C
330
7D3
100
AcDbEntity
  8
Značka (ISO)
100
AcDbLine
 10
584.0
 20
148.8357131659984
 30
0.0
 11
402.681095287577
 21
148.8357131659984
 31
0.0
  0
MTEXT
  5
80D
330
7D3
100
AcDbEntity
  8
Značka (ISO)
100
AcDbMText
 10
559.8024007689961
 20
137.5626614004374
 30
0.0
 40
3.499999940395355
 41
0.0
 71
     7
 72
     1
  1
AISI 304
  7
Text poznámky (DIN)
 73
     1
 44
1.0
  0
MTEXT
  5
80E
330
7D3
100
AcDbEntity
  8
Značka (ISO)
100
AcDbMText
 10
534.4024007689961
 20
136.5139601439238
 30
0.0
 40
3.499999940395355
 41
0.0
 71
     7
 72
     1
  1
0,007 kg
  7
Text poznámky (DIN)
 73
     1
 44
1.0
  0
MTEXT
  5
80F
330
7D3
100
AcDbEntity
  8
Značka (ISO)
100
AcDbMText
 10
509.0024007689961
 20
137.5626614004374
 30
0.0
 40
3.499999940395355
 41
0.0
 71
     7
 72
     1
  1
90507
  7
Text poznámky (DIN)
 73
     1
 44
1.0
  0
MTEXT
  5
810
102
{ACAD_XDICTIONARY
360
2960
102
}
330
7D3
100
AcDbEntity
  8
Značka (ISO)
100
AcDbMText
 10
435.7782352501007
 20
136.8629860192537
 30
0.0
 40
3.499999940395355
 41
0.0
 71
     7
 72
     1
  1
\U+0160roub nava\U+0159ovac\U+00ED nerez M8x20 
  7
Text poznámky (DIN)
 73
     1
 44
1.0
  0
MTEXT
  5
811
330
7D3
100
AcDbEntity
  8
Značka (ISO)
100
AcDbMText
 10
435.7782352501007
 20
130.5142848998308
 30
0.0
 40
3.499999940395355
 41
0.0
 71
     7
 72
     1
  1
A2 DIN 32501
  7
Text poznámky (DIN)
 73
     1
 44
1.0
  0
MTEXT
  5
812
330
7D3
100
AcDbEntity
  8
Značka (ISO)
100
AcDbMText
 10
426.1235199248049
 20
137.5626614004374
 30
0.0
 40
3.499999940395355
 41
0.0
 71
     7
 72
     1
  1
1
  7
Text poznámky (DIN)
 73
     1
 44
1.0
  0
MTEXT
  5
813
330
7D3
100
AcDbEntity
  8
Značka (ISO)
100
AcDbMText
 10
408.4277737648497
 20
137.5626614004374
 30
0.0
 40
3.499999940395355
 41
0.0
 71
     7
 72
     1
  1
1.5
  7
Text poznámky (DIN)
 73
     1
 44
1.0
  0
LINE
  5
814
330
7D3
100
AcDbEntity
  8
Značka (ISO)
100
AcDbLine
 10
584.0
 20
142.4870119690895
 30
0.0
 11
402.681095287577
 21
142.4870119690895
 31
0.0
  0
MTEXT
  5
815
330
7D3
100
AcDbEntity
  8
Značka (ISO)
100
AcDbMText
 10
559.8024007689961
 20
124.8652590066195
 30
0.0
 40
3.499999940395355
 41
0.0
 71
     7
 72
     1
  1
AISI 304
  7
Text poznámky (DIN)
 73
     1
 44
1.0
  0
MTEXT
  5
816
330
7D3
100
AcDbEntity
  8
Značka (ISO)
100
AcDbMText
 10
534.4024007689961
 20
123.8165577501059
 30
0.0
 40
3.499999940395355
 41
0.0
 71
     7
 72
     1
  1
0,518 kg
  7
Text poznámky (DIN)
 73
     1
 44
1.0
  0
MTEXT
  5
817
330
7D3
100
AcDbEntity
  8
Značka (ISO)
100
AcDbMText
 10
509.0024007689961
 20
124.8652590066195
 30
0.0
 40
3.499999940395355
 41
0.0
 71
     7
 72
     1
  1
E1755
  7
Text poznámky (DIN)
 73
     1
 44
1.0
  0
MTEXT
  5
818
330
7D3
100
AcDbEntity
  8
Značka (ISO)
100
AcDbMText
 10
435.7782352501007
 20
123.8165577501059
 30
0.0
 40
3.499999940395355
 41
0.0
 71
     7
 72
     1
  1
pritlacna_priruba_pro_vinyl
  7
Text poznámky (DIN)
 73
     1
 44
1.0
  0
MTEXT
  5
819
330
7D3
100
AcDbEntity
  8
Značka (ISO)
100
AcDbMText
 10
426.1235199248049
 20
124.8652590066195
 30
0.0
 40
3.499999940395355
 41
0.0
 71
     7
 72
     1
  1
1
  7
Text poznámky (DIN)
 73
     1
 44
1.0
  0
MTEXT
  5
81A
330
7D3
100
AcDbEntity
  8
Značka (ISO)
100
AcDbMText
 10
409.8299243853256
 20
124.8652590066195
 30
0.0
 40
3.499999940395355
 41
0.0
 71
     7
 72
     1
  1
2
  7
Text poznámky (DIN)
 73
     1
 44
1.0
  0
LINE
  5
81B
330
7D3
100
AcDbEntity
  8
Značka (ISO)
100
AcDbLine
 10
584.0
 20
129.7896095752716
 30
0.0
 11
402.681095287577
 21
129.7896095752716
 31
0.0
  0
MTEXT
  5
81C
330
7D3
100
AcDbEntity
  8
Značka (ISO)
100
AcDbMText
 10
559.8024007689961
 20
117.8152590960264
 30
0.0
 40
3.499999940395355
 41
0.0
 71
     7
 72
     1
  1
Steel, Mild
  7
Text poznámky (DIN)
 73
     1
 44
1.0
  0
MTEXT
  5
81D
330
7D3
100
AcDbEntity
  8
Značka (ISO)
100
AcDbMText
 10
534.4024007689961
 20
117.4678565531969
 30
0.0
 40
3.499999940395355
 41
0.0
 71
     7
 72
     1
  1
0,002 kg
  7
Text poznámky (DIN)
 73
     1
 44
1.0
  0
MTEXT
  5
81E
330
7D3
100
AcDbEntity
  8
Značka (ISO)
100
AcDbMText
 10
509.0024007689961
 20
118.5165578097105
 30
0.0
 40
3.499999940395355
 41
0.0
 71
     7
 72
     1
  1
90560
  7
Text poznámky (DIN)
 73
     1
 44
1.0
  0
MTEXT
  5
81F
102
{ACAD_XDICTIONARY
360
2962
102
}
330
7D3
100
AcDbEntity
  8
Značka (ISO)
100
AcDbMText
 10
435.7782352501007
 20
116.7681811720133
 30
0.0
 40
3.499999940395355
 41
0.0
 71
     7
 72
     1
  1
\U+0160roub se z\U+00E1pustnou hlavou
  7
Text poznámky (DIN)
 73
     1
 44
1.0
  0
MTEXT
  5
820
330
7D3
100
AcDbEntity
  8
Značka (ISO)
100
AcDbMText
 10
425.7772939820894
 20
118.5165578097105
 30
0.0
 40
3.499999940395355
 41
0.0
 71
     7
 72
     1
  1
8
  7
Text poznámky (DIN)
 73
     1
 44
1.0
  0
MTEXT
  5
821
330
7D3
100
AcDbEntity
  8
Značka (ISO)
100
AcDbMText
 10
409.8299243853256
 20
118.5165578097105
 30
0.0
 40
3.499999940395355
 41
0.0
 71
     7
 72
     1
  1
3
  7
Text poznámky (DIN)
 73
     1
 44
1.0
  0
LINE
  5
822
330
7D3
100
AcDbEntity
  8
Značka (ISO)
100
AcDbLine
 10
584.0
 20
123.4409083783627
 30
0.0
 11
402.681095287577
 21
123.4409083783627
 31
0.0
  0
MTEXT
  5
823
330
7D3
100
AcDbEntity
  8
Značka (ISO)
100
AcDbMText
 10
559.8024007689961
 20
112.1678566128016
 30
0.0
 40
3.499999940395355
 41
0.0
 71
     7
 72
     1
  1
Plast ABS
  7
Text poznámky (DIN)
 73
     1
 44
1.0
  0
MTEXT
  5
824
330
7D3
100
AcDbEntity
  8
Značka (ISO)
100
AcDbMText
 10
534.4024007689961
 20
111.119155356288
 30
0.0
 40
3.499999940395355
 41
0.0
 71
     7
 72
     1
  1
0,001 kg
  7
Text poznámky (DIN)
 73
     1
 44
1.0
  0
MTEXT
  5
825
330
7D3
100
AcDbEntity
  8
Značka (ISO)
100
AcDbMText
 10
509.0024007689961
 20
112.1678566128016
 30
0.0
 40
3.499999940395355
 41
0.0
 71
     7
 72
     1
  1
91365
  7
Text poznámky (DIN)
 73
     1
 44
1.0
  0
MTEXT
  5
826
102
{ACAD_XDICTIONARY
360
2964
102
}
330
7D3
100
AcDbEntity
  8
Značka (ISO)
100
AcDbMText
 10
435.7782352501007
 20
110.9454540103674
 30
0.0
 40
3.499999940395355
 41
0.0
 71
     7
 72
     1
  1
Krytka n\U+00FDtovac\U+00ED matice M5
  7
Text poznámky (DIN)
 73
     1
 44
1.0
  0
MTEXT
  5
827
330
7D3
100
AcDbEntity
  8
Značka (ISO)
100
AcDbMText
 10
425.7772939820894
 20
112.1678566128016
 30
0.0
 40
3.499999940395355
 41
0.0
 71
     7
 72
     1
  1
8
  7
Text poznámky (DIN)
 73
     1
 44
1.0
  0
MTEXT
  5
828
330
7D3
100
AcDbEntity
  8
Značka (ISO)
100
AcDbMText
 10
409.6545997069046
 20
112.1678566128016
 30
0.0
 40
3.499999940395355
 41
0.0
 71
     7
 72
     1
  1
4
  7
Text poznámky (DIN)
 73
     1
 44
1.0
  0
LINE
  5
829
330
7D3
100
AcDbEntity
  8
Značka (ISO)
100
AcDbLine
 10
584.0
 20
117.0922071814537
 30
0.0
 11
402.681095287577
 21
117.0922071814537
 31
0.0
  0
MTEXT
  5
82A
330
7D3
100
AcDbEntity
  8
Značka (ISO)
100
AcDbMText
 10
559.8024007689961
 20
105.8191554158926
 30
0.0
 40
3.499999940395355
 41
0.0
 71
     7
 72
     1
  1
AISI 304
  7
Text poznámky (DIN)
 73
     1
 44
1.0
  0
MTEXT
  5
82B
330
7D3
100
AcDbEntity
  8
Značka (ISO)
100
AcDbMText
 10
534.4024007689961
 20
104.770454159379
 30
0.0
 40
3.499999940395355
 41
0.0
 71
     7
 72
     1
  1
0,025 kg
  7
Text poznámky (DIN)
 73
     1
 44
1.0
  0
MTEXT
  5
82C
330
7D3
100
AcDbEntity
  8
Značka (ISO)
100
AcDbMText
 10
509.0024007689961
 20
105.8191554158926
 30
0.0
 40
3.499999940395355
 41
0.0
 71
     7
 72
     1
  1
05598
  7
Text poznámky (DIN)
 73
     1
 44
1.0
  0
MTEXT
  5
82D
330
7D3
100
AcDbEntity
  8
Značka (ISO)
100
AcDbMText
 10
435.7782352501007
 20
105.8191554158926
 30
0.0
 40
3.499999940395355
 41
0.0
 71
     7
 72
     1
  1
Kotva 
  7
Text poznámky (DIN)
 73
     1
 44
1.0
  0
MTEXT
  5
82E
330
7D3
100
AcDbEntity
  8
Značka (ISO)
100
AcDbMText
 10
425.7772939820894
 20
105.8191554158926
 30
0.0
 40
3.499999940395355
 41
0.0
 71
     7
 72
     1
  1
3
  7
Text poznámky (DIN)
 73
     1
 44
1.0
  0
MTEXT
  5
82F
330
7D3
100
AcDbEntity
  8
Značka (ISO)
100
AcDbMText
 10
409.8299243853256
 20
105.8191554158926
 30
0.0
 40
3.499999940395355
 41
0.0
 71
     7
 72
     1
  1
5
  7
Text poznámky (DIN)
 73
     1
 44
1.0
  0
LINE
  5
830
330
7D3
100
AcDbEntity
  8
Značka (ISO)
100
AcDbLine
 10
584.0
 20
110.7435059845448
 30
0.0
 11
402.681095287577
 21
110.7435059845448
 31
0.0
  0
MTEXT
  5
831
102
{ACAD_XDICTIONARY
360
2966
102
}
330
7D3
100
AcDbEntity
  8
Značka (ISO)
100
AcDbMText
 10
559.8024007689961
 20
99.29675287306313
 30
0.0
 40
3.499999940395355
 41
0.0
 71
     7
 72
     1
  1
M\U+011Bkk\U+00E1 ocel
  7
Text poznámky (DIN)
 73
     1
 44
1.0
  0
MTEXT
  5
832
330
7D3
100
AcDbEntity
  8
Značka (ISO)
100
AcDbMText
 10
534.4024007689961
 20
98.4217529624701
 30
0.0
 40
3.499999940395355
 41
0.0
 71
     7
 72
     1
  1
0,005 kg
  7
Text poznámky (DIN)
 73
     1
 44
1.0
  0
MTEXT
  5
833
330
7D3
100
AcDbEntity
  8
Značka (ISO)
100
AcDbMText
 10
509.0024007689961
 20
99.47045421898369
 30
0.0
 40
3.499999940395355
 41
0.0
 71
     7
 72
     1
  1
90503
  7
Text poznámky (DIN)
 73
     1
 44
1.0
  0
MTEXT
  5
834
102
{ACAD_XDICTIONARY
360
2968
102
}
330
7D3
100
AcDbEntity
  8
Značka (ISO)
100
AcDbMText
 10
435.7782352501007
 20
98.77077883780007
 30
0.0
 40
3.499999940395355
 41
0.0
 71
     7
 72
     1
  1
\U+0160estihrann\U+00E1 matice
  7
Text poznámky (DIN)
 73
     1
 44
1.0
  0
MTEXT
  5
835
330
7D3
100
AcDbEntity
  8
Značka (ISO)
100
AcDbMText
 10
426.1235199248049
 20
99.47045421898369
 30
0.0
 40
3.499999940395355
 41
0.0
 71
     7
 72
     1
  1
1
  7
Text poznámky (DIN)
 73
     1
 44
1.0
  0
MTEXT
  5
836
330
7D3
100
AcDbEntity
  8
Značka (ISO)
100
AcDbMText
 10
409.8299243853256
 20
99.47045421898369
 30
0.0
 40
3.499999940395355
 41
0.0
 71
     7
 72
     1
  1
6
  7
Text poznámky (DIN)
 73
     1
 44
1.0
  0
LINE
  5
837
330
7D3
100
AcDbEntity
  8
Značka (ISO)
100
AcDbLine
 10
584.0
 20
104.3948047876358
 30
0.0
 11
402.681095287577
 21
104.3948047876358
 31
0.0
  0
MTEXT
  5
838
330
7D3
100
AcDbEntity
  8
Značka (ISO)
100
AcDbMText
 10
559.8024007689961
 20
93.12175302207476
 30
0.0
 40
3.499999940395355
 41
0.0
 71
     7
 72
     1
  1
Plast ABS
  7
Text poznámky (DIN)
 73
     1
 44
1.0
  0
MTEXT
  5
839
330
7D3
100
AcDbEntity
  8
Značka (ISO)
100
AcDbMText
 10
534.4024007689961
 20
92.07305176556117
 30
0.0
 40
3.499999940395355
 41
0.0
 71
     7
 72
     1
  1
0,002 kg
  7
Text poznámky (DIN)
 73
     1
 44
1.0
  0
MTEXT
  5
83A
330
7D3
100
AcDbEntity
  8
Značka (ISO)
100
AcDbMText
 10
509.0024007689961
 20
93.12175302207476
 30
0.0
 40
3.499999940395355
 41
0.0
 71
     7
 72
     1
  1
91024
  7
Text poznámky (DIN)
 73
     1
 44
1.0
  0
MTEXT
  5
83B
330
7D3
100
AcDbEntity
  8
Značka (ISO)
100
AcDbMText
 10
435.7782352501007
 20
92.07305176556117
 30
0.0
 40
3.499999940395355
 41
0.0
 71
     7
 72
     1
  1
Krytka  matic 130-034-148 
  7
Text poznámky (DIN)
 73
     1
 44
1.0
  0
MTEXT
  5
83C
102
{ACAD_XDICTIONARY
360
296A
102
}
330
7D3
100
AcDbEntity
  8
Značka (ISO)
100
AcDbMText
 10
435.7782352501007
 20
86.07175318896777
 30
0.0
 40
3.499999940395355
 41
0.0
 71
     7
 72
     1
  1
\U+0161estihrann\U+00E1, \U+010Dern\U+00E1
  7
Text poznámky (DIN)
 73
     1
 44
1.0
  0
MTEXT
  5
83D
330
7D3
100
AcDbEntity
  8
Značka (ISO)
100
AcDbMText
 10
426.1235199248049
 20
93.12175302207476
 30
0.0
 40
3.499999940395355
 41
0.0
 71
     7
 72
     1
  1
1
  7
Text poznámky (DIN)
 73
     1
 44
1.0
  0
MTEXT
  5
83E
330
7D3
100
AcDbEntity
  8
Značka (ISO)
100
AcDbMText
 10
409.8271243782053
 20
93.12175302207476
 30
0.0
 40
3.499999940395355
 41
0.0
 71
     7
 72
     1
  1
7
  7
Text poznámky (DIN)
 73
     1
 44
1.0
  0
LINE
  5
83F
330
7D3
100
AcDbEntity
  8
Značka (ISO)
100
AcDbLine
 10
584.0
 20
98.0461035907269
 30
0.0
 11
402.681095287577
 21
98.0461035907269
 31
0.0
  0
MTEXT
  5
840
102
{ACAD_XDICTIONARY
360
296C
102
}
330
7D3
100
AcDbEntity
  8
Značka (ISO)
100
AcDbMText
 10
559.8024007689961
 20
79.2019480258227
 30
0.0
 40
3.499999940395355
 41
0.0
 71
     7
 72
     1
  1
Pap\U+00EDr
  7
Text poznámky (DIN)
 73
     1
 44
1.0
  0
MTEXT
  5
841
330
7D3
100
AcDbEntity
  8
Značka (ISO)
100
AcDbMText
 10
534.4024007689961
 20
79.37564937174326
 30
0.0
 40
3.499999940395355
 41
0.0
 71
     7
 72
     1
  1
0,001 kg
  7
Text poznámky (DIN)
 73
     1
 44
1.0
  0
MTEXT
  5
842
330
7D3
100
AcDbEntity
  8
Značka (ISO)
100
AcDbMText
 10
509.0024007689961
 20
80.42435062825687
 30
0.0
 40
3.499999940395355
 41
0.0
 71
     7
 72
     1
  1
91018
  7
Text poznámky (DIN)
 73
     1
 44
1.0
  0
MTEXT
  5
843
330
7D3
100
AcDbEntity
  8
Značka (ISO)
100
AcDbMText
 10
435.7782352501007
 20
80.42435062825687
 30
0.0
 40
3.499999940395355
 41
0.0
 71
     7
 72
     1
  1
Etiketa
  7
Text poznámky (DIN)
 73
     1
 44
1.0
  0
MTEXT
  5
844
330
7D3
100
AcDbEntity
  8
Značka (ISO)
100
AcDbMText
 10
426.1235199248049
 20
80.42435062825687
 30
0.0
 40
3.499999940395355
 41
0.0
 71
     7
 72
     1
  1
1
  7
Text poznámky (DIN)
 73
     1
 44
1.0
  0
MTEXT
  5
845
330
7D3
100
AcDbEntity
  8
Značka (ISO)
100
AcDbMText
 10
409.8299243853256
 20
80.42435062825687
 30
0.0
 40
3.499999940395355
 41
0.0
 71
     7
 72
     1
  1
8
  7
Text poznámky (DIN)
 73
     1
 44
1.0
  0
LINE
  5
846
330
7D3
100
AcDbEntity
  8
Značka (ISO)
100
AcDbLine
 10
584.0
 20
85.348701196909
 30
0.0
 11
402.681095287577
 21
85.348701196909
 31
0.0
  0
LINE
  5
847
330
7D3
100
AcDbEntity
  8
Značka (ISO)
100
AcDbLine
 10
584.0
 20
79.00000000000005
 30
0.0
 11
402.681095287577
 21
79.00000000000005
 31
0.0
  0
LINE
  5
848
330
7D3
100
AcDbEntity
  8
Značka (ISO)
100
AcDbLine
 10
584.0
 20
180.5792191505432
 30
0.0
 11
584.0
 21
79.00000000000005
 31
0.0
  0
LINE
  5
849
330
7D3
100
AcDbEntity
  8
Značka (ISO)
100
AcDbLine
 10
558.6
 20
180.5792191505432
 30
0.0
 11
558.6
 21
79.00000000000005
 31
0.0
  0
LINE
  5
84A
330
7D3
100
AcDbEntity
  8
Značka (ISO)
100
AcDbLine
 10
533.2
 20
180.5792191505432
 30
0.0
 11
533.2
 21
79.00000000000005
 31
0.0
  0
LINE
  5
84B
330
7D3
100
AcDbEntity
  8
Značka (ISO)
100
AcDbLine
 10
507.8
 20
180.5792191505432
 30
0.0
 11
507.8
 21
79.00000000000005
 31
0.0
  0
LINE
  5
84C
330
7D3
100
AcDbEntity
  8
Značka (ISO)
100
AcDbLine
 10
434.5758344811046
 20
180.5792191505432
 30
0.0
 11
434.5758344811046
 21
79.00000000000005
 31
0.0
  0
LINE
  5
84D
330
7D3
100
AcDbEntity
  8
Značka (ISO)
100
AcDbLine
 10
418.8220038149513
 20
180.5792191505432
 30
0.0
 11
418.8220038149513
 21
79.00000000000005
 31
0.0
  0
LINE
  5
84E
330
7D3
100
AcDbEntity
  8
Značka (ISO)
100
AcDbLine
 10
402.681095287577
 20
180.5792191505432
 30
0.0
 11
402.681095287577
 21
79.00000000000005
 31
0.0
  0
ENDBLK
  5
7D5
330
7D3
100
AcDbEntity
  8
0
100
AcDbBlockEnd
  0
BLOCK
  5
851
330
850
100
AcDbEntity
  8
0
100
AcDbBlockBegin
  2
Pozice1
 70
     0
 10
0.0
 20
0.0
 30
0.0
  3
Pozice1
  1

  0
LINE
  5
853
330
850
100
AcDbEntity
  8
Značka (ISO)
100
AcDbLine
 10
125.1940915076002
 20
285.393301267506
 30
0.0
 11
123.5769766327403
 21
287.2998529928749
 31
0.0
  0
POLYLINE
  5
854
330
850
100
AcDbEntity
  8
Značka (ISO)
100
AcDb2dPolyline
 66
     1
 10
0.0
 20
0.0
 30
0.0
 70
   128
  0
VERTEX
  5
855
330
854
100
AcDbEntity
  8
Značka (ISO)
100
AcDbVertex
100
AcDb2dVertex
 10
125.5753993988037
 20
285.7167243957519
 30
0.0
  0
VERTEX
  5
856
330
854
100
AcDbEntity
  8
Značka (ISO)
100
AcDbVertex
100
AcDb2dVertex
 10
123.5769748687744
 20
287.299861907959
 30
0.0
  0
VERTEX
  5
858
330
854
100
AcDbEntity
  8
Značka (ISO)
100
AcDbVertex
100
AcDb2dVertex
 10
124.8127841949463
 20
285.0698852539062
 30
0.0
  0
VERTEX
  5
859
330
854
100
AcDbEntity
  8
Značka (ISO)
100
AcDbVertex
100
AcDb2dVertex
 10
125.5753993988037
 20
285.7167243957519
 30
0.0
  0
SEQEND
  5
857
330
854
100
AcDbEntity
  8
Značka (ISO)
  0
SOLID
  5
85A
330
850
100
AcDbEntity
  8
Značka (ISO)
100
AcDbTrace
 10
125.5753993988037
 20
285.7167243957519
 30
0.0
 11
123.5769748687744
 21
287.299861907959
 31
0.0
 12
124.8127841949463
 22
285.0698852539062
 32
0.0
 13
125.5753993988037
 23
285.7167243957519
 33
0.0
  0
LINE
  5
85B
330
850
100
AcDbEntity
  8
Značka (ISO)
100
AcDbLine
 10
125.575401852674
 20
285.716724242478
 30
0.0
 11
123.5769766327403
 21
287.2998529928749
 31
0.0
  0
LINE
  5
85C
330
850
100
AcDbEntity
  8
Značka (ISO)
100
AcDbLine
 10
123.5769766327403
 20
287.2998529928749
 30
0.0
 11
124.8127811625264
 21
285.069878292534
 31
0.0
  0
LINE
  5
85D
330
850
100
AcDbEntity
  8
Značka (ISO)
100
AcDbLine
 10
124.8127811625264
 20
285.069878292534
 30
0.0
 11
125.575401852674
 21
285.716724242478
 31
0.0
  0
LINE
  5
85E
330
850
100
AcDbEntity
  8
Značka (ISO)
100
AcDbLine
 10
125.1940915076002
 20
285.393301267506
 30
0.0
 11
144.5792453938949
 21
262.5385250465785
 31
0.0
  0
MTEXT
  5
85F
330
850
100
AcDbEntity
  8
Značka (ISO)
100
AcDbMText
 10
152.454245036267
 20
269.2669485591192
 30
0.0
 40
5.24999976158142
 41
0.0
 71
     5
 72
     1
  1
5
  7
Text popisu (ISO)
 73
     1
 44
1.0
  0
LINE
  5
860
330
850
100
AcDbEntity
  8
Značka (ISO)
100
AcDbLine
 10
144.5792453938949
 20
262.5385250465785
 30
0.0
 11
160.3292446786392
 21
262.5385250465785
 31
0.0
  0
ENDBLK
  5
852
330
850
100
AcDbEntity
  8
0
100
AcDbBlockEnd
  0
BLOCK
  5
863
330
862
100
AcDbEntity
  8
0
100
AcDbBlockBegin
  2
Pozice2
 70
     0
 10
0.0
 20
0.0
 30
0.0
  3
Pozice2
  1

  0
LINE
  5
865
330
862
100
AcDbEntity
  8
Značka (ISO)
100
AcDbLine
 10
197.767458106719
 20
356.9645160841088
 30
0.0
 11
199.2186906101434
 21
354.9288529928768
 31
0.0
  0
POLYLINE
  5
866
330
862
100
AcDbEntity
  8
Značka (ISO)
100
AcDb2dPolyline
 66
     1
 10
0.0
 20
0.0
 30
0.0
 70
   128
  0
VERTEX
  5
867
330
866
100
AcDbEntity
  8
Značka (ISO)
100
AcDbVertex
100
AcDb2dVertex
 10
197.3603248596191
 20
356.6742706298828
 30
0.0
  0
VERTEX
  5
868
330
866
100
AcDbEntity
  8
Značka (ISO)
100
AcDbVertex
100
AcDb2dVertex
 10
199.218692779541
 20
354.9288558959961
 30
0.0
  0
VERTEX
  5
86A
330
866
100
AcDbEntity
  8
Značka (ISO)
100
AcDbVertex
100
AcDb2dVertex
 10
198.1745910644531
 20
357.254753112793
 30
0.0
  0
VERTEX
  5
86B
330
866
100
AcDbEntity
  8
Značka (ISO)
100
AcDbVertex
100
AcDb2dVertex
 10
197.3603248596191
 20
356.6742706298828
 30
0.0
  0
SEQEND
  5
869
330
866
100
AcDbEntity
  8
Značka (ISO)
  0
SOLID
  5
86C
330
862
100
AcDbEntity
  8
Značka (ISO)
100
AcDbTrace
 10
197.3603248596191
 20
356.6742706298828
 30
0.0
 11
199.218692779541
 21
354.9288558959961
 31
0.0
 12
198.1745910644531
 22
357.254753112793
 32
0.0
 13
197.3603248596191
 23
356.6742706298828
 33
0.0
  0
LINE
  5
86D
330
862
100
AcDbEntity
  8
Značka (ISO)
100
AcDbLine
 10
197.3603254884726
 20
356.674269583424
 30
0.0
 11
199.2186906101434
 21
354.9288529928768
 31
0.0
  0
LINE
  5
86E
330
862
100
AcDbEntity
  8
Značka (ISO)
100
AcDbLine
 10
199.2186906101434
 20
354.9288529928768
 30
0.0
 11
198.1745907249654
 21
357.2547625847938
 31
0.0
  0
LINE
  5
86F
330
862
100
AcDbEntity
  8
Značka (ISO)
100
AcDbLine
 10
198.1745907249654
 20
357.2547625847938
 30
0.0
 11
197.3603254884726
 21
356.674269583424
 31
0.0
  0
LINE
  5
870
330
862
100
AcDbEntity
  8
Značka (ISO)
100
AcDbLine
 10
197.767458106719
 20
356.9645160841088
 30
0.0
 11
189.7187957976743
 21
368.2544815153209
 31
0.0
  0
MTEXT
  5
871
330
862
100
AcDbEntity
  8
Značka (ISO)
100
AcDbMText
 10
181.8437961553021
 20
375.0382127737952
 30
0.0
 40
5.24999976158142
 41
0.0
 71
     5
 72
     1
  1
3
  7
Text popisu (ISO)
 73
     1
 44
1.0
  0
LINE
  5
872
330
862
100
AcDbEntity
  8
Značka (ISO)
100
AcDbLine
 10
189.7187957976743
 20
368.2544815153209
 30
0.0
 11
173.96879651293
 21
368.2544815153209
 31
0.0
  0
ENDBLK
  5
864
330
862
100
AcDbEntity
  8
0
100
AcDbBlockEnd
  0
BLOCK
  5
875
330
874
100
AcDbEntity
  8
0
100
AcDbBlockBegin
  2
Pozice3
 70
     0
 10
0.0
 20
0.0
 30
0.0
  3
Pozice3
  1

  0
LINE
  5
877
330
874
100
AcDbEntity
  8
Značka (ISO)
100
AcDbLine
 10
194.1314839340714
 20
348.4287766993232
 30
0.0
 11
195.5608495409129
 21
350.479852992877
 31
0.0
  0
POLYLINE
  5
878
330
874
100
AcDbEntity
  8
Značka (ISO)
100
AcDb2dPolyline
 66
     1
 10
0.0
 20
0.0
 30
0.0
 70
   128
  0
VERTEX
  5
879
330
878
100
AcDbEntity
  8
Značka (ISO)
100
AcDbVertex
100
AcDb2dVertex
 10
194.5417022705078
 20
348.1428909301758
 30
0.0
  0
VERTEX
  5
87A
330
878
100
AcDbEntity
  8
Značka (ISO)
100
AcDbVertex
100
AcDb2dVertex
 10
195.5608558654785
 20
350.479850769043
 30
0.0
  0
VERTEX
  5
87C
330
878
100
AcDbEntity
  8
Značka (ISO)
100
AcDbVertex
100
AcDb2dVertex
 10
193.7212753295898
 20
348.7146377563477
 30
0.0
  0
VERTEX
  5
87D
330
878
100
AcDbEntity
  8
Značka (ISO)
100
AcDbVertex
100
AcDb2dVertex
 10
194.5417022705078
 20
348.1428909301758
 30
0.0
  0
SEQEND
  5
87B
330
878
100
AcDbEntity
  8
Značka (ISO)
  0
SOLID
  5
87E
330
874
100
AcDbEntity
  8
Značka (ISO)
100
AcDbTrace
 10
194.5417022705078
 20
348.1428909301758
 30
0.0
 11
195.5608558654785
 21
350.479850769043
 31
0.0
 12
193.7212753295898
 22
348.7146377563477
 32
0.0
 13
194.5417022705078
 23
348.1428909301758
 33
0.0
  0
LINE
  5
87F
330
874
100
AcDbEntity
  8
Značka (ISO)
100
AcDbLine
 10
194.5416991927821
 20
348.1429035779548
 30
0.0
 11
195.5608495409129
 21
350.479852992877
 31
0.0
  0
LINE
  5
880
330
874
100
AcDbEntity
  8
Značka (ISO)
100
AcDbLine
 10
195.5608495409129
 20
350.479852992877
 30
0.0
 11
193.7212686753606
 21
348.7146498206915
 31
0.0
  0
LINE
  5
881
330
874
100
AcDbEntity
  8
Značka (ISO)
100
AcDbLine
 10
193.7212686753606
 20
348.7146498206915
 30
0.0
 11
194.5416991927821
 21
348.1429035779548
 31
0.0
  0
LINE
  5
882
330
874
100
AcDbEntity
  8
Značka (ISO)
100
AcDbLine
 10
194.1314839340714
 20
348.4287766993232
 30
0.0
 11
172.3819946046902
 21
317.2192234913297
 31
0.0
  0
MTEXT
  5
883
330
874
100
AcDbEntity
  8
Značka (ISO)
100
AcDbMText
 10
164.1989725824429
 20
323.7902320543714
 30
0.0
 40
5.24999976158142
 41
0.0
 71
     5
 72
     1
  1
1.4
  7
Text popisu (ISO)
 73
     1
 44
1.0
  0
LINE
  5
884
330
874
100
AcDbEntity
  8
Značka (ISO)
100
AcDbLine
 10
172.3819946046902
 20
317.2192234913297
 30
0.0
 11
156.0159505601956
 21
317.2192234913297
 31
0.0
  0
ENDBLK
  5
876
330
874
100
AcDbEntity
  8
0
100
AcDbBlockEnd
  0
BLOCK
  5
887
330
886
100
AcDbEntity
  8
0
100
AcDbBlockBegin
  2
Pozice4
 70
     0
 10
0.0
 20
0.0
 30
0.0
  3
Pozice4
  1

  0
LINE
  5
889
330
886
100
AcDbEntity
  8
Značka (ISO)
100
AcDbLine
 10
139.9661784498529
 20
74.24182314158904
 30
0.0
 11
142.2233986421325
 21
75.31651240066121
 31
0.0
  0
POLYLINE
  5
88A
330
886
100
AcDbEntity
  8
Značka (ISO)
100
AcDb2dPolyline
 66
     1
 10
0.0
 20
0.0
 30
0.0
 70
   128
  0
VERTEX
  5
88B
330
88A
100
AcDbEntity
  8
Značka (ISO)
100
AcDbVertex
100
AcDb2dVertex
 10
140.1811122894287
 20
73.79037857055664
 30
0.0
  0
VERTEX
  5
88C
330
88A
100
AcDbEntity
  8
Značka (ISO)
100
AcDbVertex
100
AcDb2dVertex
 10
142.2233963012695
 20
75.31651020050048
 30
0.0
  0
VERTEX
  5
88E
330
88A
100
AcDbEntity
  8
Značka (ISO)
100
AcDbVertex
100
AcDb2dVertex
 10
139.7512435913086
 20
74.69326496124267
 30
0.0
  0
VERTEX
  5
88F
330
88A
100
AcDbEntity
  8
Značka (ISO)
100
AcDbVertex
100
AcDb2dVertex
 10
140.1811122894287
 20
73.79037857055664
 30
0.0
  0
SEQEND
  5
88D
330
88A
100
AcDbEntity
  8
Značka (ISO)
  0
SOLID
  5
890
330
886
100
AcDbEntity
  8
Značka (ISO)
100
AcDbTrace
 10
140.1811122894287
 20
73.79037857055664
 30
0.0
 11
142.2233963012695
 21
75.31651020050048
 31
0.0
 12
139.7512435913086
 22
74.69326496124267
 32
0.0
 13
140.1811122894287
 23
73.79037857055664
 33
0.0
  0
LINE
  5
891
330
886
100
AcDbEntity
  8
Značka (ISO)
100
AcDbLine
 10
140.1811163016674
 20
73.79037910313312
 30
0.0
 11
142.2233986421325
 21
75.31651240066121
 31
0.0
  0
LINE
  5
892
330
886
100
AcDbEntity
  8
Značka (ISO)
100
AcDbLine
 10
142.2233986421325
 20
75.31651240066121
 30
0.0
 11
139.7512405980385
 21
74.69326718004497
 31
0.0
  0
LINE
  5
893
330
886
100
AcDbEntity
  8
Značka (ISO)
100
AcDbLine
 10
139.7512405980385
 20
74.69326718004497
 30
0.0
 11
140.1811163016674
 21
73.79037910313312
 31
0.0
  0
LINE
  5
894
330
886
100
AcDbEntity
  8
Značka (ISO)
100
AcDbLine
 10
139.9661784498529
 20
74.24182314158904
 30
0.0
 11
99.83366934439573
 21
55.13426038684849
 31
0.0
  0
MTEXT
  5
895
330
886
100
AcDbEntity
  8
Značka (ISO)
100
AcDbMText
 10
91.95866970202358
 20
61.69676008882526
 30
0.0
 40
5.24999976158142
 41
0.0
 71
     5
 72
     1
  1
7
  7
Text popisu (ISO)
 73
     1
 44
1.0
  0
LINE
  5
896
330
886
100
AcDbEntity
  8
Značka (ISO)
100
AcDbLine
 10
99.83366934439573
 20
55.13426038684849
 30
0.0
 11
84.08367005965144
 21
55.13426038684849
 31
0.0
  0
ENDBLK
  5
888
330
886
100
AcDbEntity
  8
0
100
AcDbBlockEnd
  0
BLOCK
  5
899
330
898
100
AcDbEntity
  8
0
100
AcDbBlockBegin
  2
Pozice5
 70
     0
 10
0.0
 20
0.0
 30
0.0
  3
Pozice5
  1

  0
LINE
  5
89B
330
898
100
AcDbEntity
  8
Značka (ISO)
100
AcDbLine
 10
145.2309278441968
 20
68.08471740146638
 30
0.0
 11
147.395991353658
 21
69.33471740146616
 31
0.0
  0
POLYLINE
  5
89C
330
898
100
AcDbEntity
  8
Značka (ISO)
100
AcDb2dPolyline
 66
     1
 10
0.0
 20
0.0
 30
0.0
 70
   128
  0
VERTEX
  5
89D
330
89C
100
AcDbEntity
  8
Značka (ISO)
100
AcDbVertex
100
AcDb2dVertex
 10
145.4809284210205
 20
67.65170574188232
 30
0.0
  0
VERTEX
  5
89E
330
89C
100
AcDbEntity
  8
Značka (ISO)
100
AcDbVertex
100
AcDb2dVertex
 10
147.3959922790527
 20
69.334716796875
 30
0.0
  0
VERTEX
  5
8A0
330
89C
100
AcDbEntity
  8
Značka (ISO)
100
AcDbVertex
100
AcDb2dVertex
 10
144.9809265136718
 20
68.51772785186767
 30
0.0
  0
VERTEX
  5
8A1
330
89C
100
AcDbEntity
  8
Značka (ISO)
100
AcDbVertex
100
AcDb2dVertex
 10
145.4809284210205
 20
67.65170574188232
 30
0.0
  0
SEQEND
  5
89F
330
89C
100
AcDbEntity
  8
Značka (ISO)
  0
SOLID
  5
8A2
330
898
100
AcDbEntity
  8
Značka (ISO)
100
AcDbTrace
 10
145.4809284210205
 20
67.65170574188232
 30
0.0
 11
147.3959922790527
 21
69.334716796875
 31
0.0
 12
144.9809265136718
 22
68.51772785186767
 32
0.0
 13
145.4809284210205
 23
67.65170574188232
 33
0.0
  0
LINE
  5
8A3
330
898
100
AcDbEntity
  8
Značka (ISO)
100
AcDbLine
 10
145.4809278441967
 20
67.65170469957414
 30
0.0
 11
147.395991353658
 21
69.33471740146616
 31
0.0
  0
LINE
  5
8A4
330
898
100
AcDbEntity
  8
Značka (ISO)
100
AcDbLine
 10
147.395991353658
 20
69.33471740146616
 30
0.0
 11
144.9809278441968
 21
68.51773010335863
 31
0.0
  0
LINE
  5
8A5
330
898
100
AcDbEntity
  8
Značka (ISO)
100
AcDbLine
 10
144.9809278441968
 20
68.51773010335863
 30
0.0
 11
145.4809278441967
 21
67.65170469957414
 31
0.0
  0
LINE
  5
8A6
330
898
100
AcDbEntity
  8
Značka (ISO)
100
AcDbLine
 10
145.2309278441968
 20
68.08471740146638
 30
0.0
 11
98.450132893814
 21
41.07581284396434
 31
0.0
  0
MTEXT
  5
8A7
330
898
100
AcDbEntity
  8
Značka (ISO)
100
AcDbMText
 10
90.26711087156668
 20
47.81274521757001
 30
0.0
 40
5.24999976158142
 41
0.0
 71
     5
 72
     1
  1
1.5
  7
Text popisu (ISO)
 73
     1
 44
1.0
  0
LINE
  5
8A8
330
898
100
AcDbEntity
  8
Značka (ISO)
100
AcDbLine
 10
98.450132893814
 20
41.07581284396434
 30
0.0
 11
82.08408884931939
 21
41.07581284396434
 31
0.0
  0
ENDBLK
  5
89A
330
898
100
AcDbEntity
  8
0
100
AcDbBlockEnd
  0
BLOCK
  5
8AB
330
8AA
100
AcDbEntity
  8
0
100
AcDbBlockBegin
  2
Pozice6
 70
     0
 10
0.0
 20
0.0
 30
0.0
  3
Pozice6
  1

  0
LINE
  5
8AD
330
8AA
100
AcDbEntity
  8
Značka (ISO)
100
AcDbLine
 10
149.4570515146517
 20
72.90321073831285
 30
0.0
 11
151.3320299488682
 21
74.55682976070675
 31
0.0
  0
POLYLINE
  5
8AE
330
8AA
100
AcDbEntity
  8
Značka (ISO)
100
AcDb2dPolyline
 66
     1
 10
0.0
 20
0.0
 30
0.0
 70
   128
  0
VERTEX
  5
8AF
330
8AE
100
AcDbEntity
  8
Značka (ISO)
100
AcDbVertex
100
AcDb2dVertex
 10
149.7877788543701
 20
72.52821445465087
 30
0.0
  0
VERTEX
  5
8B0
330
8AE
100
AcDbEntity
  8
Značka (ISO)
100
AcDbVertex
100
AcDb2dVertex
 10
151.3320255279541
 20
74.55682754516601
 30
0.0
  0
VERTEX
  5
8B2
330
8AE
100
AcDbEntity
  8
Značka (ISO)
100
AcDbVertex
100
AcDb2dVertex
 10
149.1263294219971
 20
73.27820777893066
 30
0.0
  0
VERTEX
  5
8B3
330
8AE
100
AcDbEntity
  8
Značka (ISO)
100
AcDbVertex
100
AcDb2dVertex
 10
149.7877788543701
 20
72.52821445465087
 30
0.0
  0
SEQEND
  5
8B1
330
8AE
100
AcDbEntity
  8
Značka (ISO)
  0
SOLID
  5
8B4
330
8AA
100
AcDbEntity
  8
Značka (ISO)
100
AcDbTrace
 10
149.7877788543701
 20
72.52821445465087
 30
0.0
 11
151.3320255279541
 21
74.55682754516601
 31
0.0
 12
149.1263294219971
 22
73.27820777893066
 32
0.0
 13
149.7877788543701
 23
72.52821445465087
 33
0.0
  0
LINE
  5
8B5
330
8AA
100
AcDbEntity
  8
Značka (ISO)
100
AcDbLine
 10
149.7877753191305
 20
72.52821505146954
 30
0.0
 11
151.3320299488682
 21
74.55682976070675
 31
0.0
  0
LINE
  5
8B6
330
8AA
100
AcDbEntity
  8
Značka (ISO)
100
AcDbLine
 10
151.3320299488682
 20
74.55682976070675
 30
0.0
 11
149.126327710173
 21
73.27820642515615
 31
0.0
  0
LINE
  5
8B7
330
8AA
100
AcDbEntity
  8
Značka (ISO)
100
AcDbLine
 10
149.126327710173
 20
73.27820642515615
 30
0.0
 11
149.7877753191305
 21
72.52821505146954
 31
0.0
  0
LINE
  5
8B8
330
8AA
100
AcDbEntity
  8
Značka (ISO)
100
AcDbLine
 10
149.4570515146517
 20
72.90321073831285
 30
0.0
 11
145.4390631665103
 21
69.35958493281384
 31
0.0
  0
LINE
  5
8B9
330
8AA
100
AcDbEntity
  8
Značka (ISO)
100
AcDbLine
 10
144.8899532302697
 20
68.87530275687916
 30
0.0
 11
98.45013289381405
 21
27.91815418199031
 31
0.0
  0
MTEXT
  5
8BA
330
8AA
100
AcDbEntity
  8
Značka (ISO)
100
AcDbMText
 10
90.57513325144192
 20
34.69550386917172
 30
0.0
 40
5.24999976158142
 41
0.0
 71
     5
 72
     1
  1
6
  7
Text popisu (ISO)
 73
     1
 44
1.0
  0
LINE
  5
8BB
330
8AA
100
AcDbEntity
  8
Značka (ISO)
100
AcDbLine
 10
98.45013289381405
 20
27.91815418199031
 30
0.0
 11
82.70013360906979
 21
27.91815418199031
 31
0.0
  0
ENDBLK
  5
8AC
330
8AA
100
AcDbEntity
  8
0
100
AcDbBlockEnd
  0
BLOCK
  5
8BF
330
8BE
100
AcDbEntity
  8
0
100
AcDbBlockBegin
  2
*D24
 70
     1
 10
0.0
 20
0.0
 30
0.0
  3
*D24
  1

  0
LINE
  5
28FC
330
8BE
100
AcDbEntity
  8
Kóta (ISO)
100
AcDbLine
 10
180.7387897419596
 20
492.8330883214571
 30
0.0
 11
180.7387897419596
 21
448.6209367575325
 31
0.0
  0
LINE
  5
28FD
330
8BE
100
AcDbEntity
  8
Kóta (ISO)
100
AcDbLine
 10
322.7387897419623
 20
492.833088321456
 30
0.0
 11
322.7387897419623
 21
448.6209367575325
 31
0.0
  0
LINE
  5
28FE
330
8BE
100
AcDbEntity
  8
Kóta (ISO)
100
AcDbLine
 10
184.9054564086263
 20
450.2876034241992
 30
0.0
 11
318.5721230752956
 21
450.2876034241992
 31
0.0
  0
SOLID
  5
28FF
330
8BE
100
AcDbEntity
  8
Kóta (ISO)
100
AcDbTrace
 10
184.9054564086263
 20
450.9820478686436
 30
0.0
 11
184.9054564086263
 21
449.5931589797548
 31
0.0
 12
180.7387897419596
 22
450.2876034241992
 32
0.0
 13
180.7387897419596
 23
450.2876034241992
 33
0.0
  0
SOLID
  5
2900
330
8BE
100
AcDbEntity
  8
Kóta (ISO)
100
AcDbTrace
 10
318.5721230752956
 20
450.9820478686436
 30
0.0
 11
318.5721230752956
 21
449.5931589797548
 31
0.0
 12
322.7387897419623
 22
450.2876034241992
 32
0.0
 13
322.7387897419623
 23
450.2876034241992
 33
0.0
  0
MTEXT
  5
2901
330
8BE
100
AcDbEntity
  8
Kóta (ISO)
100
AcDbMText
 10
242.1947951034713
 20
460.3343820050139
 30
0.0
 40
5.833333333333333
 41
0.0
 71
     1
 72
     1
  1
\A1;{\fAIGDT|b0|i0;\H5.8333;\ln\fTahoma|b0|i0;\H5.8333;}142
  7
Text poznámky (ISO)
 73
     1
 44
1.0
  0
POINT
  5
2902
330
8BE
100
AcDbEntity
  8
Defpoints
 62
     0
100
AcDbPoint
 10
180.7387897419596
 20
492.8330883214571
 30
0.0
  0
POINT
  5
2903
330
8BE
100
AcDbEntity
  8
Defpoints
 62
     0
100
AcDbPoint
 10
322.7387897419623
 20
492.833088321456
 30
0.0
  0
POINT
  5
2904
330
8BE
100
AcDbEntity
  8
Defpoints
 62
     0
100
AcDbPoint
 10
322.7387897419623
 20
450.2876034241992
 30
0.0
  0
ENDBLK
  5
8C0
330
8BE
100
AcDbEntity
  8
0
100
AcDbBlockEnd
  0
BLOCK
  5
9A1
330
9A0
100
AcDbEntity
  8
0
100
AcDbBlockBegin
  2
Pozice7
 70
     0
 10
0.0
 20
0.0
 30
0.0
  3
Pozice7
  1

  0
LINE
  5
9A3
330
9A0
100
AcDbEntity
  8
Značka (ISO)
100
AcDbLine
 10
190.2681977175937
 20
302.1633384788287
 30
0.0
 11
192.7432738451767
 21
301.8112047504402
 31
0.0
  0
POLYLINE
  5
9A4
330
9A0
100
AcDbEntity
  8
Značka (ISO)
100
AcDb2dPolyline
 66
     1
 10
0.0
 20
0.0
 30
0.0
 70
   128
  0
VERTEX
  5
9A5
330
9A4
100
AcDbEntity
  8
Značka (ISO)
100
AcDbVertex
100
AcDb2dVertex
 10
190.1977729797363
 20
301.6683197021484
 30
0.0
  0
VERTEX
  5
9A6
330
9A4
100
AcDbEntity
  8
Značka (ISO)
100
AcDbVertex
100
AcDb2dVertex
 10
192.7432823181152
 20
301.8111991882324
 30
0.0
  0
VERTEX
  5
9A8
330
9A4
100
AcDbEntity
  8
Značka (ISO)
100
AcDbVertex
100
AcDb2dVertex
 10
190.3386306762695
 20
302.6583480834961
 30
0.0
  0
VERTEX
  5
9A9
330
9A4
100
AcDbEntity
  8
Značka (ISO)
100
AcDbVertex
100
AcDb2dVertex
 10
190.1977729797363
 20
301.6683197021484
 30
0.0
  0
SEQEND
  5
9A7
330
9A4
100
AcDbEntity
  8
Značka (ISO)
  0
SOLID
  5
9AA
330
9A0
100
AcDbEntity
  8
Značka (ISO)
100
AcDbTrace
 10
190.1977729797363
 20
301.6683197021484
 30
0.0
 11
192.7432823181152
 21
301.8111991882324
 31
0.0
 12
190.3386306762695
 22
302.6583480834961
 32
0.0
 13
190.1977729797363
 23
301.6683197021484
 33
0.0
  0
LINE
  5
9AB
330
9A0
100
AcDbEntity
  8
Značka (ISO)
100
AcDbLine
 10
190.1977709719161
 20
301.6683232533121
 30
0.0
 11
192.7432738451767
 21
301.8112047504402
 31
0.0
  0
LINE
  5
9AC
330
9A0
100
AcDbEntity
  8
Značka (ISO)
100
AcDbLine
 10
192.7432738451767
 20
301.8112047504402
 30
0.0
 11
190.3386244632715
 21
302.6583537043453
 31
0.0
  0
LINE
  5
9AD
330
9A0
100
AcDbEntity
  8
Značka (ISO)
100
AcDbLine
 10
190.3386244632715
 20
302.6583537043453
 30
0.0
 11
190.1977709719161
 21
301.6683232533121
 31
0.0
  0
LINE
  5
9AE
330
9A0
100
AcDbEntity
  8
Značka (ISO)
100
AcDbLine
 10
190.2681977175937
 20
302.1633384788287
 30
0.0
 11
172.3819946046903
 21
304.7080421825533
 31
0.0
  0
MTEXT
  5
9AF
330
9A0
100
AcDbEntity
  8
Značka (ISO)
100
AcDbMText
 10
164.198972582443
 20
311.279050745595
 30
0.0
 40
5.24999976158142
 41
0.0
 71
     5
 72
     1
  1
1.1
  7
Text popisu (ISO)
 73
     1
 44
1.0
  0
LINE
  5
9B0
330
9A0
100
AcDbEntity
  8
Značka (ISO)
100
AcDbLine
 10
172.3819946046903
 20
304.7080421825533
 30
0.0
 11
156.0159505601957
 21
304.7080421825533
 31
0.0
  0
ENDBLK
  5
9A2
330
9A0
100
AcDbEntity
  8
0
100
AcDbBlockEnd
  0
BLOCK
  5
9B3
330
9B2
100
AcDbEntity
  8
0
100
AcDbBlockBegin
  2
Pozice8
 70
     0
 10
0.0
 20
0.0
 30
0.0
  3
Pozice8
  1

  0
LINE
  5
9B5
330
9B2
100
AcDbEntity
  8
Značka (ISO)
100
AcDbLine
 10
202.0044457760187
 20
336.4498529928761
 30
0.0
 11
199.8393822665575
 21
337.6998529928759
 31
0.0
  0
POLYLINE
  5
9B6
330
9B2
100
AcDbEntity
  8
Značka (ISO)
100
AcDb2dPolyline
 66
     1
 10
0.0
 20
0.0
 30
0.0
 70
   128
  0
VERTEX
  5
9B7
330
9B6
100
AcDbEntity
  8
Značka (ISO)
100
AcDbVertex
100
AcDb2dVertex
 10
202.2544479370117
 20
336.8828582763672
 30
0.0
  0
VERTEX
  5
9B8
330
9B6
100
AcDbEntity
  8
Značka (ISO)
100
AcDbVertex
100
AcDb2dVertex
 10
199.8393821716308
 20
337.6998519897461
 30
0.0
  0
VERTEX
  5
9BA
330
9B6
100
AcDbEntity
  8
Značka (ISO)
100
AcDbVertex
100
AcDb2dVertex
 10
201.7544364929199
 20
336.016845703125
 30
0.0
  0
VERTEX
  5
9BB
330
9B6
100
AcDbEntity
  8
Značka (ISO)
100
AcDbVertex
100
AcDb2dVertex
 10
202.2544479370117
 20
336.8828582763672
 30
0.0
  0
SEQEND
  5
9B9
330
9B6
100
AcDbEntity
  8
Značka (ISO)
  0
SOLID
  5
9BC
330
9B2
100
AcDbEntity
  8
Značka (ISO)
100
AcDbTrace
 10
202.2544479370117
 20
336.8828582763672
 30
0.0
 11
199.8393821716308
 21
337.6998519897461
 31
0.0
 12
201.7544364929199
 22
336.016845703125
 32
0.0
 13
202.2544479370117
 23
336.8828582763672
 33
0.0
  0
LINE
  5
9BD
330
9B2
100
AcDbEntity
  8
Značka (ISO)
100
AcDbLine
 10
202.2544457760187
 20
336.8828656947684
 30
0.0
 11
199.8393822665575
 21
337.6998529928759
 31
0.0
  0
LINE
  5
9BE
330
9B2
100
AcDbEntity
  8
Značka (ISO)
100
AcDbLine
 10
199.8393822665575
 20
337.6998529928759
 30
0.0
 11
201.7544457760188
 21
336.0168402909839
 31
0.0
  0
LINE
  5
9BF
330
9B2
100
AcDbEntity
  8
Značka (ISO)
100
AcDbLine
 10
201.7544457760188
 20
336.0168402909839
 30
0.0
 11
202.2544457760187
 21
336.8828656947684
 31
0.0
  0
LINE
  5
9C0
330
9B2
100
AcDbEntity
  8
Značka (ISO)
100
AcDbLine
 10
202.0044457760187
 20
336.4498529928761
 30
0.0
 11
227.283485494657
 21
321.8549926064684
 31
0.0
  0
MTEXT
  5
9C1
330
9B2
100
AcDbEntity
  8
Značka (ISO)
100
AcDbMText
 10
235.4665075169042
 20
328.4728000543787
 30
0.0
 40
5.24999976158142
 41
0.0
 71
     5
 72
     1
  1
1.2
  7
Text popisu (ISO)
 73
     1
 44
1.0
  0
LINE
  5
9C2
330
9B2
100
AcDbEntity
  8
Značka (ISO)
100
AcDbLine
 10
227.283485494657
 20
321.8549926064684
 30
0.0
 11
243.6495295391515
 21
321.8549926064684
 31
0.0
  0
ENDBLK
  5
9B4
330
9B2
100
AcDbEntity
  8
0
100
AcDbBlockEnd
  0
BLOCK
  5
9C5
330
9C4
100
AcDbEntity
  8
0
100
AcDbBlockBegin
  2
Pozice9
 70
     0
 10
0.0
 20
0.0
 30
0.0
  3
Pozice9
  1

  0
LINE
  5
9C7
330
9C4
100
AcDbEntity
  8
Značka (ISO)
100
AcDbLine
 10
233.1680527019077
 20
356.9649165023379
 30
0.0
 11
234.418052701908
 21
354.799852992877
 31
0.0
  0
POLYLINE
  5
9C8
330
9C4
100
AcDbEntity
  8
Značka (ISO)
100
AcDb2dPolyline
 66
     1
 10
0.0
 20
0.0
 30
0.0
 70
   128
  0
VERTEX
  5
9C9
330
9C8
100
AcDbEntity
  8
Značka (ISO)
100
AcDbVertex
100
AcDb2dVertex
 10
232.7350425720215
 20
356.7149353027344
 30
0.0
  0
VERTEX
  5
9CA
330
9C8
100
AcDbEntity
  8
Značka (ISO)
100
AcDbVertex
100
AcDb2dVertex
 10
234.4180488586426
 20
354.7998428344727
 30
0.0
  0
VERTEX
  5
9CC
330
9C8
100
AcDbEntity
  8
Značka (ISO)
100
AcDbVertex
100
AcDb2dVertex
 10
233.60107421875
 20
357.2149276733398
 30
0.0
  0
VERTEX
  5
9CD
330
9C8
100
AcDbEntity
  8
Značka (ISO)
100
AcDbVertex
100
AcDb2dVertex
 10
232.7350425720215
 20
356.7149353027344
 30
0.0
  0
SEQEND
  5
9CB
330
9C8
100
AcDbEntity
  8
Značka (ISO)
  0
SOLID
  5
9CE
330
9C4
100
AcDbEntity
  8
Značka (ISO)
100
AcDbTrace
 10
232.7350425720215
 20
356.7149353027344
 30
0.0
 11
234.4180488586426
 21
354.7998428344727
 31
0.0
 12
233.60107421875
 22
357.2149276733398
 32
0.0
 13
232.7350425720215
 23
356.7149353027344
 33
0.0
  0
LINE
  5
9CF
330
9C4
100
AcDbEntity
  8
Značka (ISO)
100
AcDbLine
 10
232.7350400000155
 20
356.7149165023378
 30
0.0
 11
234.418052701908
 21
354.799852992877
 31
0.0
  0
LINE
  5
9D0
330
9C4
100
AcDbEntity
  8
Značka (ISO)
100
AcDbLine
 10
234.418052701908
 20
354.799852992877
 30
0.0
 11
233.6010654037999
 21
357.2149165023379
 31
0.0
  0
LINE
  5
9D1
330
9C4
100
AcDbEntity
  8
Značka (ISO)
100
AcDbLine
 10
233.6010654037999
 20
357.2149165023379
 30
0.0
 11
232.7350400000155
 21
356.7149165023378
 31
0.0
  0
LINE
  5
9D2
330
9C4
100
AcDbEntity
  8
Značka (ISO)
100
AcDbLine
 10
233.1680527019077
 20
356.9649165023379
 30
0.0
 11
226.6500193026256
 21
368.2544815153209
 31
0.0
  0
MTEXT
  5
9D3
330
9C4
100
AcDbEntity
  8
Značka (ISO)
100
AcDbMText
 10
218.4669972803783
 20
375.0382127737952
 30
0.0
 40
5.24999976158142
 41
0.0
 71
     5
 72
     1
  1
1.3
  7
Text popisu (ISO)
 73
     1
 44
1.0
  0
LINE
  5
9D4
330
9C4
100
AcDbEntity
  8
Značka (ISO)
100
AcDbLine
 10
226.6500193026256
 20
368.2544815153209
 30
0.0
 11
210.283975258131
 21
368.2544815153209
 31
0.0
  0
ENDBLK
  5
9C6
330
9C4
100
AcDbEntity
  8
0
100
AcDbBlockEnd
  0
BLOCK
  5
9D9
330
9D8
100
AcDbEntity
  8
0
100
AcDbBlockBegin
  2
Pozice10
 70
     0
 10
0.0
 20
0.0
 30
0.0
  3
Pozice10
  1

  0
LINE
  5
9DB
330
9D8
100
AcDbEntity
  8
Značka (ISO)
100
AcDbLine
 10
216.471692539609
 20
176.6258595042852
 30
0.0
 11
214.8403197154156
 21
174.7314934603319
 31
0.0
  0
POLYLINE
  5
9DC
330
9D8
100
AcDbEntity
  8
Značka (ISO)
100
AcDb2dPolyline
 66
     1
 10
0.0
 20
0.0
 30
0.0
 70
   128
  0
VERTEX
  5
9DD
330
9DC
100
AcDbEntity
  8
Značka (ISO)
100
AcDbVertex
100
AcDb2dVertex
 10
216.0928153991699
 20
176.9521331787109
 30
0.0
  0
VERTEX
  5
9DE
330
9DC
100
AcDbEntity
  8
Značka (ISO)
100
AcDbVertex
100
AcDb2dVertex
 10
214.8403167724609
 20
174.731502532959
 30
0.0
  0
VERTEX
  5
9E0
330
9DC
100
AcDbEntity
  8
Značka (ISO)
100
AcDbVertex
100
AcDb2dVertex
 10
216.8505668640137
 20
176.2995910644531
 30
0.0
  0
VERTEX
  5
9E1
330
9DC
100
AcDbEntity
  8
Značka (ISO)
100
AcDbVertex
100
AcDb2dVertex
 10
216.0928153991699
 20
176.9521331787109
 30
0.0
  0
SEQEND
  5
9DF
330
9DC
100
AcDbEntity
  8
Značka (ISO)
  0
SOLID
  5
9E2
330
9D8
100
AcDbEntity
  8
Značka (ISO)
100
AcDbTrace
 10
216.0928153991699
 20
176.9521331787109
 30
0.0
 11
214.8403167724609
 21
174.731502532959
 31
0.0
 12
216.8505668640137
 22
176.2995910644531
 32
0.0
 13
216.0928153991699
 23
176.9521331787109
 33
0.0
  0
LINE
  5
9E3
330
9D8
100
AcDbEntity
  8
Značka (ISO)
100
AcDbLine
 10
216.0928193308183
 20
176.9521340691239
 30
0.0
 11
214.8403197154156
 21
174.7314934603319
 31
0.0
  0
LINE
  5
9E4
330
9D8
100
AcDbEntity
  8
Značka (ISO)
100
AcDbLine
 10
214.8403197154156
 20
174.7314934603319
 30
0.0
 11
216.8505657483997
 21
176.2995849394465
 31
0.0
  0
LINE
  5
9E5
330
9D8
100
AcDbEntity
  8
Značka (ISO)
100
AcDbLine
 10
216.8505657483997
 20
176.2995849394465
 30
0.0
 11
216.0928193308183
 21
176.9521340691239
 31
0.0
  0
LINE
  5
9E6
330
9D8
100
AcDbEntity
  8
Značka (ISO)
100
AcDbLine
 10
216.471692539609
 20
176.6258595042852
 30
0.0
 11
236.9030258469237
 21
200.3509231292746
 31
0.0
  0
MTEXT
  5
9E7
330
9D8
100
AcDbEntity
  8
Značka (ISO)
100
AcDbMText
 10
244.7780254892959
 20
206.9687305771849
 30
0.0
 40
5.24999976158142
 41
0.0
 71
     5
 72
     1
  1
2
  7
Text popisu (ISO)
 73
     1
 44
1.0
  0
LINE
  5
9E8
330
9D8
100
AcDbEntity
  8
Značka (ISO)
100
AcDbLine
 10
236.9030258469237
 20
200.3509231292746
 30
0.0
 11
252.653025131668
 21
200.3509231292746
 31
0.0
  0
ENDBLK
  5
9DA
330
9D8
100
AcDbEntity
  8
0
100
AcDbBlockEnd
  0
BLOCK
  5
9EB
330
9EA
100
AcDbEntity
  8
0
100
AcDbBlockBegin
  2
Pozice11
 70
     0
 10
0.0
 20
0.0
 30
0.0
  3
Pozice11
  1

  0
LINE
  5
9ED
330
9EA
100
AcDbEntity
  8
Značka (ISO)
100
AcDbLine
 10
223.4418175384501
 20
338.6533438952301
 30
0.0
 11
221.5432738451759
 21
340.2798529928771
 31
0.0
  0
POLYLINE
  5
9EE
330
9EA
100
AcDbEntity
  8
Značka (ISO)
100
AcDb2dPolyline
 66
     1
 10
0.0
 20
0.0
 30
0.0
 70
   128
  0
VERTEX
  5
9EF
330
9EE
100
AcDbEntity
  8
Značka (ISO)
100
AcDbVertex
100
AcDb2dVertex
 10
223.7671279907226
 20
339.0330505371094
 30
0.0
  0
VERTEX
  5
9F0
330
9EE
100
AcDbEntity
  8
Značka (ISO)
100
AcDbVertex
100
AcDb2dVertex
 10
221.5432739257813
 20
340.2798461914063
 30
0.0
  0
VERTEX
  5
9F2
330
9EE
100
AcDbEntity
  8
Značka (ISO)
100
AcDbVertex
100
AcDb2dVertex
 10
223.116512298584
 20
338.2736206054687
 30
0.0
  0
VERTEX
  5
9F3
330
9EE
100
AcDbEntity
  8
Značka (ISO)
100
AcDbVertex
100
AcDb2dVertex
 10
223.7671279907226
 20
339.0330505371094
 30
0.0
  0
SEQEND
  5
9F1
330
9EE
100
AcDbEntity
  8
Značka (ISO)
  0
SOLID
  5
9F4
330
9EA
100
AcDbEntity
  8
Značka (ISO)
100
AcDbTrace
 10
223.7671279907226
 20
339.0330505371094
 30
0.0
 11
221.5432739257813
 21
340.2798461914063
 31
0.0
 12
223.116512298584
 22
338.2736206054687
 32
0.0
 13
223.7671279907226
 23
339.0330505371094
 33
0.0
  0
LINE
  5
9F5
330
9EA
100
AcDbEntity
  8
Značka (ISO)
100
AcDbLine
 10
223.7671193579795
 20
339.0330526338849
 30
0.0
 11
221.5432738451759
 21
340.2798529928771
 31
0.0
  0
LINE
  5
9F6
330
9EA
100
AcDbEntity
  8
Značka (ISO)
100
AcDbLine
 10
221.5432738451759
 20
340.2798529928771
 30
0.0
 11
223.1165157189207
 21
338.2736351565752
 31
0.0
  0
LINE
  5
9F7
330
9EA
100
AcDbEntity
  8
Značka (ISO)
100
AcDbLine
 10
223.1165157189207
 20
338.2736351565752
 30
0.0
 11
223.7671193579795
 21
339.0330526338849
 31
0.0
  0
LINE
  5
9F8
330
9EA
100
AcDbEntity
  8
Značka (ISO)
100
AcDbLine
 10
223.4418175384501
 20
338.6533438952301
 30
0.0
 11
226.8561453086165
 21
335.728241249345
 31
0.0
  0
MTEXT
  5
9F9
330
9EA
100
AcDbEntity
  8
Značka (ISO)
100
AcDbMText
 10
234.7311449509887
 20
342.2907409513218
 30
0.0
 40
5.24999976158142
 41
0.0
 71
     5
 72
     1
  1
4
  7
Text popisu (ISO)
 73
     1
 44
1.0
  0
LINE
  5
9FA
330
9EA
100
AcDbEntity
  8
Značka (ISO)
100
AcDbLine
 10
226.8561453086165
 20
335.728241249345
 30
0.0
 11
242.6061445933608
 21
335.728241249345
 31
0.0
  0
ENDBLK
  5
9EC
330
9EA
100
AcDbEntity
  8
0
100
AcDbBlockEnd
  0
BLOCK
  5
B32
330
B30
100
AcDbEntity
  8
0
100
AcDbBlockBegin
  2
GENAXEH
 70
     0
 10
0.0
 20
0.0
 30
0.0
  3
GENAXEH
  1

  0
LINE
  5
B31
330
B30
100
AcDbEntity
  8
0
100
AcDbLine
 10
-1.0
 20
0.0
 30
0.0
 11
1.0
 21
0.0
 31
0.0
  0
ENDBLK
  5
B33
330
B30
100
AcDbEntity
  8
0
100
AcDbBlockEnd
  0
BLOCK
  5
B44
330
B43
100
AcDbEntity
  8
0
100
AcDbBlockBegin
  2
*D32
 70
     1
 10
0.0
 20
0.0
 30
0.0
  3
*D32
  1

  0
LINE
  5
B45
330
B43
100
AcDbEntity
  8
Kóta (ISO)
100
AcDbLine
 10
126.7605939454295
 20
404.4238461767551
 30
0.0
 11
40.81747929280845
 21
404.4238461767551
 31
0.0
  0
LINE
  5
B46
330
B43
100
AcDbEntity
  8
Kóta (ISO)
100
AcDbLine
 10
99.7605939454295
 20
499.9238461767545
 30
0.0
 11
40.81747929280846
 21
499.9238461767545
 31
0.0
  0
LINE
  5
B47
330
B43
100
AcDbEntity
  8
Kóta (ISO)
100
AcDbLine
 10
42.81747929280845
 20
409.4238461767551
 30
0.0
 11
42.81747929280846
 21
494.9238461767545
 31
0.0
  0
SOLID
  5
B48
330
B43
100
AcDbEntity
  8
Kóta (ISO)
100
AcDbTrace
 10
41.98414595947511
 20
409.4238461767551
 30
0.0
 11
43.65081262614178
 21
409.4238461767551
 31
0.0
 12
42.81747929280845
 22
404.4238461767551
 32
0.0
 13
42.81747929280845
 23
404.4238461767551
 33
0.0
  0
SOLID
  5
B49
330
B43
100
AcDbEntity
  8
Kóta (ISO)
100
AcDbTrace
 10
41.98414595947513
 20
494.9238461767545
 30
0.0
 11
43.6508126261418
 21
494.9238461767545
 31
0.0
 12
42.81747929280847
 22
499.9238461767545
 32
0.0
 13
42.81747929280847
 23
499.9238461767545
 33
0.0
  0
MTEXT
  5
B4A
330
B43
100
AcDbEntity
  8
Kóta (ISO)
100
AcDbMText
 10
32.41302261047124
 20
445.5408365814102
 30
0.0
 40
7.0
 41
0.0
 71
     1
 72
     1
  1
\A1;95,5
  7
Text poznámky (ISO)
 11
0.0000000000000001
 21
1.0
 31
0.0
 73
     1
 44
1.0
  0
POINT
  5
B4B
330
B43
100
AcDbEntity
  8
Defpoints
 62
     0
100
AcDbPoint
 10
126.7605939454295
 20
404.4238461767551
 30
0.0
  0
POINT
  5
B4C
330
B43
100
AcDbEntity
  8
Defpoints
 62
     0
100
AcDbPoint
 10
99.7605939454295
 20
499.9238461767545
 30
0.0
  0
POINT
  5
B4D
330
B43
100
AcDbEntity
  8
Defpoints
 62
     0
100
AcDbPoint
 10
42.81747929280847
 20
499.9238461767545
 30
0.0
  0
ENDBLK
  5
B4E
330
B43
100
AcDbEntity
  8
0
100
AcDbBlockEnd
  0
BLOCK
  5
B50
330
B4F
100
AcDbEntity
  8
0
100
AcDbBlockBegin
  2
*D33
 70
     1
 10
0.0
 20
0.0
 30
0.0
  3
*D33
  1

  0
LINE
  5
B51
330
B4F
100
AcDbEntity
  8
Kóta (ISO)
440
 16777216
100
AcDbLine
 10
345.7605939452025
 20
330.7477835899489
 30
0.0
 11
380.4411874460769
 21
330.7477835899489
 31
0.0
  0
LINE
  5
B52
330
B4F
100
AcDbEntity
  8
Kóta (ISO)
440
 16777216
100
AcDbLine
 10
345.7605939452025
 20
30.74778358994887
 30
0.0
 11
380.4411874460768
 21
30.74778358994886
 31
0.0
  0
LINE
  5
B53
330
B4F
100
AcDbEntity
  8
Kóta (ISO)
440
 16777216
100
AcDbLine
 10
378.4411874460769
 20
325.7477835899489
 30
0.0
 11
378.4411874460768
 21
35.74778358994887
 31
0.0
  0
SOLID
  5
B54
330
B4F
100
AcDbEntity
  8
Kóta (ISO)
440
 16777216
100
AcDbTrace
 10
377.6078541127436
 20
325.7477835899489
 30
0.0
 11
379.2745207794102
 21
325.7477835899489
 31
0.0
 12
378.4411874460769
 22
330.7477835899489
 32
0.0
 13
378.4411874460769
 23
330.7477835899489
 33
0.0
  0
SOLID
  5
B55
330
B4F
100
AcDbEntity
  8
Kóta (ISO)
440
 16777216
100
AcDbTrace
 10
377.6078541127435
 20
35.74778358994887
 30
0.0
 11
379.2745207794101
 21
35.74778358994887
 31
0.0
 12
378.4411874460768
 22
30.74778358994886
 32
0.0
 13
378.4411874460768
 23
30.74778358994886
 33
0.0
  0
MTEXT
  5
B56
330
B4F
100
AcDbEntity
  8
Kóta (ISO)
440
 16777216
100
AcDbMText
 10
369.6257166603146
 20
173.2870717027762
 30
0.0
 40
7.0
 41
0.0
 71
     1
 72
     1
  1
\A1;300
  7
Text poznámky (ISO)
 11
0.0000000000000001
 21
1.0
 31
0.0
 73
     1
 44
1.0
  0
POINT
  5
B57
330
B4F
100
AcDbEntity
  8
Defpoints
 62
     0
440
 16777216
100
AcDbPoint
 10
345.7605939452025
 20
330.7477835899489
 30
0.0
  0
POINT
  5
B58
330
B4F
100
AcDbEntity
  8
Defpoints
 62
     0
440
 16777216
100
AcDbPoint
 10
345.7605939452025
 20
30.74778358994887
 30
0.0
  0
POINT
  5
B59
330
B4F
100
AcDbEntity
  8
Defpoints
 62
     0
440
 16777216
100
AcDbPoint
 10
378.4411874460768
 20
30.74778358994886
 30
0.0
  0
ENDBLK
  5
B5A
330
B4F
100
AcDbEntity
  8
0
100
AcDbBlockEnd
  0
BLOCK
  5
B5C
330
B5B
100
AcDbEntity
  8
0
100
AcDbBlockBegin
  2
*D34
 70
     1
 10
0.0
 20
0.0
 30
0.0
  3
*D34
  1

  0
LINE
  5
B5D
330
B5B
100
AcDbEntity
  8
Kóta (ISO)
100
AcDbLine
 10
47.76059394520242
 20
328.7477835899489
 30
0.0
 11
47.76059394520242
 21
356.9280340815226
 31
0.0
  0
LINE
  5
B5E
330
B5B
100
AcDbEntity
  8
Kóta (ISO)
100
AcDbLine
 10
347.7605939452025
 20
328.7477835899489
 30
0.0
 11
347.7605939452025
 21
356.9280340815226
 31
0.0
  0
LINE
  5
B5F
330
B5B
100
AcDbEntity
  8
Kóta (ISO)
100
AcDbLine
 10
52.76059394520242
 20
354.9280340815226
 30
0.0
 11
342.7605939452025
 21
354.9280340815226
 31
0.0
  0
SOLID
  5
B60
330
B5B
100
AcDbEntity
  8
Kóta (ISO)
100
AcDbTrace
 10
52.76059394520242
 20
355.7613674148559
 30
0.0
 11
52.76059394520242
 21
354.0947007481893
 31
0.0
 12
47.76059394520242
 22
354.9280340815226
 32
0.0
 13
47.76059394520242
 23
354.9280340815226
 33
0.0
  0
SOLID
  5
B61
330
B5B
100
AcDbEntity
  8
Kóta (ISO)
100
AcDbTrace
 10
342.7605939452025
 20
355.7613674148559
 30
0.0
 11
342.7605939452025
 21
354.0947007481893
 31
0.0
 12
347.7605939452025
 22
354.9280340815226
 32
0.0
 13
347.7605939452025
 23
354.9280340815226
 33
0.0
  0
MTEXT
  5
B62
330
B5B
100
AcDbEntity
  8
Kóta (ISO)
100
AcDbMText
 10
190.2998820580298
 20
363.7435048672849
 30
0.0
 40
7.0
 41
0.0
 71
     1
 72
     1
  1
\A1;300
  7
Text poznámky (ISO)
 73
     1
 44
1.0
  0
POINT
  5
B63
330
B5B
100
AcDbEntity
  8
Defpoints
 62
     0
100
AcDbPoint
 10
47.76059394520242
 20
328.7477835899489
 30
0.0
  0
POINT
  5
B64
330
B5B
100
AcDbEntity
  8
Defpoints
 62
     0
100
AcDbPoint
 10
347.7605939452025
 20
328.7477835899489
 30
0.0
  0
POINT
  5
B65
330
B5B
100
AcDbEntity
  8
Defpoints
 62
     0
100
AcDbPoint
 10
347.7605939452025
 20
354.9280340815226
 30
0.0
  0
ENDBLK
  5
B66
330
B5B
100
AcDbEntity
  8
0
100
AcDbBlockEnd
  0
BLOCK
  5
B68
330
B67
100
AcDbEntity
  8
0
100
AcDbBlockBegin
  2
*D35
 70
     1
 10
0.0
 20
0.0
 30
0.0
  3
*D35
  1

  0
LINE
  5
B69
330
B67
100
AcDbEntity
  8
Kóta (ISO)
100
AcDbLine
 10
295.7605939454295
 20
499.9238461767545
 30
0.0
 11
321.0862108764502
 21
499.9238461767545
 31
0.0
  0
LINE
  5
B6A
330
B67
100
AcDbEntity
  8
Kóta (ISO)
100
AcDbLine
 10
319.0862108764502
 20
484.9238461767545
 30
0.0
 11
319.0862108764502
 21
494.9238461767545
 31
0.0
  0
SOLID
  5
B6B
330
B67
100
AcDbEntity
  8
Kóta (ISO)
100
AcDbTrace
 10
318.2528775431169
 20
484.9238461767545
 30
0.0
 11
319.9195442097836
 21
484.9238461767545
 31
0.0
 12
319.0862108764502
 22
479.9238461767544
 32
0.0
 13
319.0862108764502
 23
479.9238461767544
 33
0.0
  0
SOLID
  5
B6C
330
B67
100
AcDbEntity
  8
Kóta (ISO)
100
AcDbTrace
 10
318.2528775431169
 20
494.9238461767545
 30
0.0
 11
319.9195442097836
 21
494.9238461767545
 31
0.0
 12
319.0862108764502
 22
499.9238461767545
 32
0.0
 13
319.0862108764502
 23
499.9238461767545
 33
0.0
  0
MTEXT
  5
B6D
330
B67
100
AcDbEntity
  8
Kóta (ISO)
100
AcDbMText
 10
310.2707400906879
 20
485.1192793533831
 30
0.0
 40
7.0
 41
0.0
 71
     1
 72
     1
  1
\A1;20
  7
Text poznámky (ISO)
 11
0.0000000000000001
 21
1.0
 31
0.0
 73
     1
 44
1.0
  0
POINT
  5
B6E
330
B67
100
AcDbEntity
  8
Defpoints
 62
     0
100
AcDbPoint
 10
319.0862108764502
 20
479.9238461767544
 30
0.0
  0
POINT
  5
B6F
330
B67
100
AcDbEntity
  8
Defpoints
 62
     0
100
AcDbPoint
 10
295.7605939454295
 20
499.9238461767545
 30
0.0
  0
POINT
  5
B70
330
B67
100
AcDbEntity
  8
Defpoints
 62
     0
100
AcDbPoint
 10
319.0862108764502
 20
499.9238461767545
 30
0.0
  0
ENDBLK
  5
B71
330
B67
100
AcDbEntity
  8
0
100
AcDbBlockEnd
  0
BLOCK
  5
B73
330
B72
100
AcDbEntity
  8
0
100
AcDbBlockBegin
  2
*D36
 70
     1
 10
0.0
 20
0.0
 30
0.0
  3
*D36
  1

  0
LINE
  5
B74
330
B72
100
AcDbEntity
  8
Kóta (ISO)
100
AcDbLine
 10
126.7605939454295
 20
404.4238461767551
 30
0.0
 11
126.7605939454295
 21
375.8188242289644
 31
0.0
  0
LINE
  5
B75
330
B72
100
AcDbEntity
  8
Kóta (ISO)
100
AcDbLine
 10
268.7605939454296
 20
404.4238461767548
 30
0.0
 11
268.7605939454296
 21
375.8188242289644
 31
0.0
  0
LINE
  5
B76
330
B72
100
AcDbEntity
  8
Kóta (ISO)
100
AcDbLine
 10
131.7605939454295
 20
377.8188242289644
 30
0.0
 11
263.7605939454295
 21
377.8188242289644
 31
0.0
  0
SOLID
  5
B77
330
B72
100
AcDbEntity
  8
Kóta (ISO)
100
AcDbTrace
 10
131.7605939454295
 20
378.6521575622978
 30
0.0
 11
131.7605939454295
 21
376.9854908956312
 31
0.0
 12
126.7605939454295
 22
377.8188242289644
 32
0.0
 13
126.7605939454295
 23
377.8188242289644
 33
0.0
  0
SOLID
  5
B78
330
B72
100
AcDbEntity
  8
Kóta (ISO)
100
AcDbTrace
 10
263.7605939454295
 20
378.6521575622978
 30
0.0
 11
263.7605939454295
 21
376.9854908956312
 31
0.0
 12
268.7605939454296
 22
377.8188242289644
 32
0.0
 13
268.7605939454296
 23
377.8188242289644
 33
0.0
  0
MTEXT
  5
B79
330
B72
100
AcDbEntity
  8
Kóta (ISO)
100
AcDbMText
 10
186.3077787761063
 20
389.8750187099106
 30
0.0
 40
7.0
 41
0.0
 71
     1
 72
     1
  1
\A1;{\fAIGDT|b0|i0;\H7.0000;\ln\fTahoma|b0|i0;\H7.0000;}142
  7
Text poznámky (ISO)
 73
     1
 44
1.0
  0
POINT
  5
B7A
330
B72
100
AcDbEntity
  8
Defpoints
 62
     0
100
AcDbPoint
 10
126.7605939454295
 20
404.4238461767551
 30
0.0
  0
POINT
  5
B7B
330
B72
100
AcDbEntity
  8
Defpoints
 62
     0
100
AcDbPoint
 10
268.7605939454296
 20
404.4238461767548
 30
0.0
  0
POINT
  5
B7C
330
B72
100
AcDbEntity
  8
Defpoints
 62
     0
100
AcDbPoint
 10
268.7605939454296
 20
377.8188242289644
 30
0.0
  0
ENDBLK
  5
B7D
330
B72
100
AcDbEntity
  8
0
100
AcDbBlockEnd
  0
BLOCK
  5
2861
330
2860
100
AcDbEntity
  8
0
100
AcDbBlockBegin
  2
*D38
 70
     1
 10
0.0
 20
0.0
 30
0.0
  3
*D38
  1

  0
LINE
  5
28C7
330
2860
100
AcDbEntity
  8
Kóta (ISO)
100
AcDbLine
 10
644.5178084966785
 20
451.6835194189886
 30
0.0
 11
558.908027177391
 21
451.6835194189886
 31
0.0
  0
LINE
  5
28C8
330
2860
100
AcDbEntity
  8
Kóta (ISO)
100
AcDbLine
 10
617.5178084966785
 20
547.1835194189879
 30
0.0
 11
558.908027177391
 21
547.1835194189879
 31
0.0
  0
LINE
  5
28C9
330
2860
100
AcDbEntity
  8
Kóta (ISO)
100
AcDbLine
 10
560.5746938440575
 20
455.8501860856553
 30
0.0
 11
560.5746938440575
 21
543.0168527523213
 31
0.0
  0
SOLID
  5
28CA
330
2860
100
AcDbEntity
  8
Kóta (ISO)
100
AcDbTrace
 10
559.8802493996131
 20
455.8501860856553
 30
0.0
 11
561.269138288502
 21
455.8501860856553
 31
0.0
 12
560.5746938440575
 22
451.6835194189886
 32
0.0
 13
560.5746938440575
 23
451.6835194189886
 33
0.0
  0
SOLID
  5
28CB
330
2860
100
AcDbEntity
  8
Kóta (ISO)
100
AcDbTrace
 10
559.8802493996131
 20
543.0168527523213
 30
0.0
 11
561.269138288502
 21
543.0168527523213
 31
0.0
 12
560.5746938440575
 22
547.1835194189879
 32
0.0
 13
560.5746938440575
 23
547.1835194189879
 33
0.0
  0
MTEXT
  5
28CC
330
2860
100
AcDbEntity
  8
Kóta (ISO)
100
AcDbMText
 10
551.9043132754432
 20
494.2892046971606
 30
0.0
 40
5.833333333333333
 41
0.0
 71
     1
 72
     1
  1
\A1;95,5
  7
Text poznámky (ISO)
 11
0.0000000000000001
 21
1.0
 31
0.0
 73
     1
 44
1.0
  0
POINT
  5
28CD
330
2860
100
AcDbEntity
  8
Defpoints
 62
     0
100
AcDbPoint
 10
644.5178084966785
 20
451.6835194189886
 30
0.0
  0
POINT
  5
28CE
330
2860
100
AcDbEntity
  8
Defpoints
 62
     0
100
AcDbPoint
 10
617.5178084966785
 20
547.1835194189879
 30
0.0
  0
POINT
  5
28CF
330
2860
100
AcDbEntity
  8
Defpoints
 62
     0
100
AcDbPoint
 10
560.5746938440575
 20
547.1835194189879
 30
0.0
  0
ENDBLK
  5
2862
330
2860
100
AcDbEntity
  8
0
100
AcDbBlockEnd
  0
BLOCK
  5
286D
330
286C
100
AcDbEntity
  8
0
100
AcDbBlockBegin
  2
*D39
 70
     1
 10
0.0
 20
0.0
 30
0.0
  3
*D39
  1

  0
LINE
  5
28D0
330
286C
100
AcDbEntity
  8
Kóta (ISO)
100
AcDbLine
 10
863.5178084964513
 20
378.0074568321824
 30
0.0
 11
897.8650686639925
 21
378.0074568321823
 31
0.0
  0
LINE
  5
28D1
330
286C
100
AcDbEntity
  8
Kóta (ISO)
100
AcDbLine
 10
863.5178084964516
 20
78.00745683218235
 30
0.0
 11
897.8650686639925
 21
78.00745683218234
 31
0.0
  0
LINE
  5
28D2
330
286C
100
AcDbEntity
  8
Kóta (ISO)
100
AcDbLine
 10
896.1984019973259
 20
373.8407901655156
 30
0.0
 11
896.1984019973257
 21
82.174123498849
 31
0.0
  0
SOLID
  5
28D3
330
286C
100
AcDbEntity
  8
Kóta (ISO)
100
AcDbTrace
 10
895.5039575528815
 20
373.8407901655157
 30
0.0
 11
896.8928464417704
 21
373.8407901655156
 31
0.0
 12
896.1984019973259
 22
378.0074568321823
 32
0.0
 13
896.1984019973259
 23
378.0074568321823
 33
0.0
  0
SOLID
  5
28D4
330
286C
100
AcDbEntity
  8
Kóta (ISO)
100
AcDbTrace
 10
895.5039575528813
 20
82.174123498849
 30
0.0
 11
896.8928464417702
 21
82.174123498849
 31
0.0
 12
896.1984019973257
 22
78.00745683218234
 32
0.0
 13
896.1984019973257
 23
78.00745683218234
 33
0.0
  0
MTEXT
  5
28D5
330
286C
100
AcDbEntity
  8
Kóta (ISO)
100
AcDbMText
 10
888.852176342524
 20
221.7901969262051
 30
0.0
 40
5.833333333333333
 41
0.0
 71
     1
 72
     1
  1
\A1;300
  7
Text poznámky (ISO)
 11
0.0000000000000001
 21
1.0
 31
0.0
 73
     1
 44
1.0
  0
POINT
  5
28D6
330
286C
100
AcDbEntity
  8
Defpoints
 62
     0
100
AcDbPoint
 10
863.5178084964513
 20
378.0074568321824
 30
0.0
  0
POINT
  5
28D7
330
286C
100
AcDbEntity
  8
Defpoints
 62
     0
100
AcDbPoint
 10
863.5178084964516
 20
78.00745683218235
 30
0.0
  0
POINT
  5
28D8
330
286C
100
AcDbEntity
  8
Defpoints
 62
     0
100
AcDbPoint
 10
896.1984019973257
 20
78.00745683218234
 30
0.0
  0
ENDBLK
  5
286E
330
286C
100
AcDbEntity
  8
0
100
AcDbBlockEnd
  0
BLOCK
  5
2879
330
2878
100
AcDbEntity
  8
0
100
AcDbBlockBegin
  2
*D40
 70
     1
 10
0.0
 20
0.0
 30
0.0
  3
*D40
  1

  0
LINE
  5
28D9
330
2878
100
AcDbEntity
  8
Kóta (ISO)
100
AcDbLine
 10
565.5178084964513
 20
376.0074568321824
 30
0.0
 11
565.5178084964513
 21
403.8543739904227
 31
0.0
  0
LINE
  5
28DA
330
2878
100
AcDbEntity
  8
Kóta (ISO)
100
AcDbLine
 10
865.5178084964514
 20
376.0074568321824
 30
0.0
 11
865.5178084964514
 21
403.8543739904227
 31
0.0
  0
LINE
  5
28DB
330
2878
100
AcDbEntity
  8
Kóta (ISO)
100
AcDbLine
 10
569.6844751631179
 20
402.187707323756
 30
0.0
 11
861.3511418297846
 21
402.187707323756
 31
0.0
  0
SOLID
  5
28DC
330
2878
100
AcDbEntity
  8
Kóta (ISO)
100
AcDbTrace
 10
569.6844751631179
 20
402.8821517682005
 30
0.0
 11
569.6844751631179
 21
401.4932628793116
 31
0.0
 12
565.5178084964513
 22
402.187707323756
 32
0.0
 13
565.5178084964513
 23
402.187707323756
 33
0.0
  0
SOLID
  5
28DD
330
2878
100
AcDbEntity
  8
Kóta (ISO)
100
AcDbTrace
 10
861.3511418297846
 20
402.8821517682005
 30
0.0
 11
861.3511418297846
 21
401.4932628793116
 31
0.0
 12
865.5178084964514
 22
402.187707323756
 32
0.0
 13
865.5178084964514
 23
402.187707323756
 33
0.0
  0
MTEXT
  5
28DE
330
2878
100
AcDbEntity
  8
Kóta (ISO)
100
AcDbMText
 10
709.3005485904742
 20
409.5339329785579
 30
0.0
 40
5.833333333333333
 41
0.0
 71
     1
 72
     1
  1
\A1;300
  7
Text poznámky (ISO)
 73
     1
 44
1.0
  0
POINT
  5
28DF
330
2878
100
AcDbEntity
  8
Defpoints
 62
     0
100
AcDbPoint
 10
565.5178084964513
 20
376.0074568321824
 30
0.0
  0
POINT
  5
28E0
330
2878
100
AcDbEntity
  8
Defpoints
 62
     0
100
AcDbPoint
 10
865.5178084964514
 20
376.0074568321824
 30
0.0
  0
POINT
  5
28E1
330
2878
100
AcDbEntity
  8
Defpoints
 62
     0
100
AcDbPoint
 10
865.5178084964514
 20
402.187707323756
 30
0.0
  0
ENDBLK
  5
287A
330
2878
100
AcDbEntity
  8
0
100
AcDbBlockEnd
  0
BLOCK
  5
2885
330
2884
100
AcDbEntity
  8
0
100
AcDbBlockBegin
  2
*D41
 70
     1
 10
0.0
 20
0.0
 30
0.0
  3
*D41
  1

  0
LINE
  5
28E2
330
2884
100
AcDbEntity
  8
Kóta (ISO)
100
AcDbLine
 10
813.5178084966785
 20
547.1835194189879
 30
0.0
 11
838.510092094366
 21
547.1835194189879
 31
0.0
  0
LINE
  5
28E3
330
2884
100
AcDbEntity
  8
Kóta (ISO)
100
AcDbLine
 10
836.8434254276992
 20
531.3501860856546
 30
0.0
 11
836.8434254276992
 21
543.0168527523213
 31
0.0
  0
SOLID
  5
28E4
330
2884
100
AcDbEntity
  8
Kóta (ISO)
100
AcDbTrace
 10
836.1489809832548
 20
531.3501860856546
 30
0.0
 11
837.5378698721437
 21
531.3501860856546
 31
0.0
 12
836.8434254276992
 22
527.183519418988
 32
0.0
 13
836.8434254276992
 23
527.183519418988
 33
0.0
  0
SOLID
  5
28E5
330
2884
100
AcDbEntity
  8
Kóta (ISO)
100
AcDbTrace
 10
836.1489809832548
 20
543.0168527523213
 30
0.0
 11
837.5378698721437
 21
543.0168527523213
 31
0.0
 12
836.8434254276992
 22
547.1835194189879
 32
0.0
 13
836.8434254276992
 23
547.1835194189879
 33
0.0
  0
MTEXT
  5
28E6
330
2884
100
AcDbEntity
  8
Kóta (ISO)
100
AcDbMText
 10
829.4971997728973
 20
533.1797137328451
 30
0.0
 40
5.833333333333333
 41
0.0
 71
     1
 72
     1
  1
\A1;20
  7
Text poznámky (ISO)
 11
0.0000000000000001
 21
1.0
 31
0.0
 73
     1
 44
1.0
  0
POINT
  5
28E7
330
2884
100
AcDbEntity
  8
Defpoints
 62
     0
100
AcDbPoint
 10
836.8434254276992
 20
527.183519418988
 30
0.0
  0
POINT
  5
28E8
330
2884
100
AcDbEntity
  8
Defpoints
 62
     0
100
AcDbPoint
 10
813.5178084966785
 20
547.1835194189879
 30
0.0
  0
POINT
  5
28E9
330
2884
100
AcDbEntity
  8
Defpoints
 62
     0
100
AcDbPoint
 10
836.8434254276992
 20
547.1835194189879
 30
0.0
  0
ENDBLK
  5
2886
330
2884
100
AcDbEntity
  8
0
100
AcDbBlockEnd
  0
BLOCK
  5
2890
330
288F
100
AcDbEntity
  8
0
100
AcDbBlockBegin
  2
*D42
 70
     1
 10
0.0
 20
0.0
 30
0.0
  3
*D42
  1

  0
LINE
  5
28EA
330
288F
100
AcDbEntity
  8
Kóta (ISO)
100
AcDbLine
 10
644.5178084966785
 20
451.6835194189886
 30
0.0
 11
644.5178084966785
 21
423.4118308045312
 31
0.0
  0
LINE
  5
28EB
330
288F
100
AcDbEntity
  8
Kóta (ISO)
100
AcDbLine
 10
786.5178084966785
 20
451.6835194189883
 30
0.0
 11
786.5178084966785
 21
423.4118308045312
 31
0.0
  0
LINE
  5
28EC
330
288F
100
AcDbEntity
  8
Kóta (ISO)
100
AcDbLine
 10
648.6844751633451
 20
425.0784974711979
 30
0.0
 11
782.3511418300118
 21
425.0784974711979
 31
0.0
  0
SOLID
  5
28ED
330
288F
100
AcDbEntity
  8
Kóta (ISO)
100
AcDbTrace
 10
648.6844751633451
 20
425.7729419156423
 30
0.0
 11
648.6844751633451
 21
424.3840530267534
 31
0.0
 12
644.5178084966785
 22
425.0784974711979
 32
0.0
 13
644.5178084966785
 23
425.0784974711979
 33
0.0
  0
SOLID
  5
28EE
330
288F
100
AcDbEntity
  8
Kóta (ISO)
100
AcDbTrace
 10
782.3511418300118
 20
425.7729419156423
 30
0.0
 11
782.3511418300118
 21
424.3840530267534
 31
0.0
 12
786.5178084966785
 22
425.0784974711979
 32
0.0
 13
786.5178084966785
 23
425.0784974711979
 33
0.0
  0
MTEXT
  5
28EF
330
288F
100
AcDbEntity
  8
Kóta (ISO)
100
AcDbMText
 10
705.3437038713446
 20
436.880691952144
 30
0.0
 40
5.833333333333333
 41
0.0
 71
     1
 72
     1
  1
\A1;{\fAIGDT|b0|i0;\H7.0000;\ln\fTahoma|b0|i0;\H7.0000;}142
  7
Text poznámky (ISO)
 73
     1
 44
1.0
  0
POINT
  5
28F0
330
288F
100
AcDbEntity
  8
Defpoints
 62
     0
100
AcDbPoint
 10
644.5178084966785
 20
451.6835194189886
 30
0.0
  0
POINT
  5
28F1
330
288F
100
AcDbEntity
  8
Defpoints
 62
     0
100
AcDbPoint
 10
786.5178084966785
 20
451.6835194189883
 30
0.0
  0
POINT
  5
28F2
330
288F
100
AcDbEntity
  8
Defpoints
 62
     0
100
AcDbPoint
 10
786.5178084966785
 20
425.0784974711979
 30
0.0
  0
ENDBLK
  5
2891
330
288F
100
AcDbEntity
  8
0
100
AcDbBlockEnd
  0
ENDSEC
  0
SECTION
  2
ENTITIES
  0
LINE
  5
20B
330
6C
100
AcDbEntity
  8
Viditelná (ISO)
100
AcDbLine
 10
134.7387897419619
 20
584.1330883214608
 30
0.0
 11
144.7387897419612
 21
584.1330883214608
 31
0.0
  0
ARC
  5
20C
330
6C
100
AcDbEntity
  8
Viditelná (ISO)
100
AcDbCircle
 10
134.7387897419619
 20
585.7330883214607
 30
0.0
 40
1.600000000000017
100
AcDbArc
 50
89.99999999999895
 51
270.0
  0
ARC
  5
20D
330
6C
100
AcDbEntity
  8
Viditelná (ISO)
100
AcDbCircle
 10
144.7387897419612
 20
585.7330883214608
 30
0.0
 40
1.600000000000017
100
AcDbArc
 50
269.9999999999989
 51
89.99999999999785
  0
LINE
  5
21A
330
6C
100
AcDbEntity
  8
Viditelná (ISO)
100
AcDbLine
 10
167.5428302490655
 20
584.1330883214608
 30
0.0
 11
177.5428302490647
 21
584.1330883214608
 31
0.0
  0
ARC
  5
21B
330
6C
100
AcDbEntity
  8
Viditelná (ISO)
100
AcDbCircle
 10
167.5428302490655
 20
585.7330883214607
 30
0.0
 40
1.600000000000017
100
AcDbArc
 50
89.99999999999788
 51
269.9999999999978
  0
ARC
  5
21C
330
6C
100
AcDbEntity
  8
Viditelná (ISO)
100
AcDbCircle
 10
177.5428302490647
 20
585.7330883214608
 30
0.0
 40
1.600000000000017
100
AcDbArc
 50
269.9999999999978
 51
89.99999999999785
  0
LINE
  5
229
330
6C
100
AcDbEntity
  8
Viditelná (ISO)
100
AcDbLine
 10
246.7387897419571
 20
584.133088321461
 30
0.0
 11
256.7387897419564
 21
584.133088321461
 31
0.0
  0
ARC
  5
22A
330
6C
100
AcDbEntity
  8
Viditelná (ISO)
100
AcDbCircle
 10
246.7387897419571
 20
585.733088321461
 30
0.0
 40
1.600000000000017
100
AcDbArc
 50
90.0
 51
270.0
  0
ARC
  5
22B
330
6C
100
AcDbEntity
  8
Viditelná (ISO)
100
AcDbCircle
 10
256.7387897419564
 20
585.733088321461
 30
0.0
 40
1.600000000000017
100
AcDbArc
 50
270.0
 51
90.0
  0
LINE
  5
238
330
6C
100
AcDbEntity
  8
Viditelná (ISO)
100
AcDbLine
 10
325.9347492348512
 20
584.1330883214611
 30
0.0
 11
335.9347492348505
 21
584.1330883214611
 31
0.0
  0
ARC
  5
239
330
6C
100
AcDbEntity
  8
Viditelná (ISO)
100
AcDbCircle
 10
325.9347492348512
 20
585.7330883214611
 30
0.0
 40
1.600000000000017
100
AcDbArc
 50
90.0
 51
270.0
  0
ARC
  5
23A
330
6C
100
AcDbEntity
  8
Viditelná (ISO)
100
AcDbCircle
 10
335.9347492348505
 20
585.7330883214611
 30
0.0
 40
1.600000000000017
100
AcDbArc
 50
270.0
 51
90.0
  0
LINE
  5
247
330
6C
100
AcDbEntity
  8
Viditelná (ISO)
100
AcDbLine
 10
358.7387897419607
 20
584.1330883214611
 30
0.0
 11
368.73878974196
 21
584.1330883214611
 31
0.0
  0
ARC
  5
248
330
6C
100
AcDbEntity
  8
Viditelná (ISO)
100
AcDbCircle
 10
358.7387897419607
 20
585.7330883214611
 30
0.0
 40
1.600000000000017
100
AcDbArc
 50
90.0
 51
270.0
  0
ARC
  5
249
330
6C
100
AcDbEntity
  8
Viditelná (ISO)
100
AcDbCircle
 10
368.7387897419599
 20
585.7330883214611
 30
0.0
 40
1.600000000000017
100
AcDbArc
 50
270.0
 51
90.0
  0
LINE
  5
24C
330
6C
100
AcDbEntity
  8
Viditelná (ISO)
100
AcDbLine
 10
145.2387897419608
 20
567.1330883214615
 30
0.0
 11
134.2387897419621
 21
567.1330883214615
 31
0.0
  0
LINE
  5
24D
330
6C
100
AcDbEntity
  8
Viditelná (ISO)
100
AcDbLine
 10
145.2387897419608
 20
568.1330883214614
 30
0.0
 11
134.2387897419621
 21
568.1330883214614
 31
0.0
  0
LINE
  5
24E
330
6C
100
AcDbEntity
  8
Viditelná (ISO)
100
AcDbLine
 10
134.2387897419621
 20
567.1330883214615
 30
0.0
 11
134.2387897419621
 21
568.1330883214614
 31
0.0
  0
LINE
  5
24F
330
6C
100
AcDbEntity
  8
Viditelná (ISO)
100
AcDbLine
 10
145.2387897419608
 20
567.1330883214615
 30
0.0
 11
145.2387897419608
 21
568.1330883214614
 31
0.0
  0
LINE
  5
250
330
6C
100
AcDbEntity
  8
Viditelná (ISO)
100
AcDbLine
 10
135.238789741962
 20
568.1330883214614
 30
0.0
 11
135.2387897419621
 21
584.1330883214607
 31
0.0
  0
LINE
  5
251
330
6C
100
AcDbEntity
  8
Viditelná (ISO)
100
AcDbLine
 10
144.2387897419609
 20
568.1330883214614
 30
0.0
 11
144.238789741961
 21
584.1330883214607
 31
0.0
  0
LINE
  5
254
330
6C
100
AcDbEntity
  8
Viditelná (ISO)
100
AcDbLine
 10
178.0428302490646
 20
567.1330883214616
 30
0.0
 11
167.0428302490655
 21
567.1330883214616
 31
0.0
  0
LINE
  5
255
330
6C
100
AcDbEntity
  8
Viditelná (ISO)
100
AcDbLine
 10
178.0428302490646
 20
568.1330883214615
 30
0.0
 11
167.0428302490655
 21
568.1330883214615
 31
0.0
  0
LINE
  5
256
330
6C
100
AcDbEntity
  8
Viditelná (ISO)
100
AcDbLine
 10
167.0428302490655
 20
567.1330883214616
 30
0.0
 11
167.0428302490655
 21
568.1330883214615
 31
0.0
  0
LINE
  5
257
330
6C
100
AcDbEntity
  8
Viditelná (ISO)
100
AcDbLine
 10
178.0428302490646
 20
567.1330883214616
 30
0.0
 11
178.0428302490646
 21
568.1330883214615
 31
0.0
  0
LINE
  5
258
330
6C
100
AcDbEntity
  8
Viditelná (ISO)
100
AcDbLine
 10
168.0428302490655
 20
568.1330883214615
 30
0.0
 11
168.0428302490655
 21
584.1330883214608
 31
0.0
  0
LINE
  5
259
330
6C
100
AcDbEntity
  8
Viditelná (ISO)
100
AcDbLine
 10
177.0428302490647
 20
568.1330883214615
 30
0.0
 11
177.0428302490647
 21
584.1330883214608
 31
0.0
  0
LINE
  5
262
330
6C
100
AcDbEntity
  8
Viditelná (ISO)
100
AcDbLine
 10
257.2387897419567
 20
567.1330883214617
 30
0.0
 11
248.540280472452
 21
567.1330883214617
 31
0.0
  0
LINE
  5
263
330
6C
100
AcDbEntity
  8
Viditelná (ISO)
100
AcDbLine
 10
257.2387897419567
 20
568.1330883214616
 30
0.0
 11
250.1279084193891
 21
568.1330883214616
 31
0.0
  0
LINE
  5
264
330
6C
100
AcDbEntity
  8
Viditelná (ISO)
100
AcDbLine
 10
257.2387897419567
 20
567.1330883214617
 30
0.0
 11
257.2387897419567
 21
568.1330883214616
 31
0.0
  0
LINE
  5
265
330
6C
100
AcDbEntity
  8
Viditelná (ISO)
100
AcDbLine
 10
247.238789741957
 20
583.0847143608855
 30
0.0
 11
247.238789741957
 21
584.1330883214609
 31
0.0
  0
LINE
  5
266
330
6C
100
AcDbEntity
  8
Viditelná (ISO)
100
AcDbLine
 10
256.2387897419567
 20
568.1330883214616
 30
0.0
 11
256.2387897419567
 21
584.1330883214609
 31
0.0
  0
LINE
  5
267
330
6C
100
AcDbEntity
  8
Viditelná (ISO)
100
AcDbLine
 10
336.4347492348507
 20
567.1330883214619
 30
0.0
 11
325.4347492348513
 21
567.1330883214619
 31
0.0
  0
LINE
  5
268
330
6C
100
AcDbEntity
  8
Viditelná (ISO)
100
AcDbLine
 10
336.4347492348507
 20
568.1330883214618
 30
0.0
 11
325.4347492348513
 21
568.1330883214618
 31
0.0
  0
LINE
  5
269
330
6C
100
AcDbEntity
  8
Viditelná (ISO)
100
AcDbLine
 10
325.4347492348514
 20
567.1330883214619
 30
0.0
 11
325.4347492348514
 21
568.1330883214618
 31
0.0
  0
LINE
  5
26A
330
6C
100
AcDbEntity
  8
Viditelná (ISO)
100
AcDbLine
 10
336.4347492348507
 20
567.1330883214619
 30
0.0
 11
336.4347492348507
 21
568.1330883214618
 31
0.0
  0
LINE
  5
26B
330
6C
100
AcDbEntity
  8
Viditelná (ISO)
100
AcDbLine
 10
326.4347492348513
 20
568.1330883214618
 30
0.0
 11
326.4347492348512
 21
584.1330883214611
 31
0.0
  0
LINE
  5
26C
330
6C
100
AcDbEntity
  8
Viditelná (ISO)
100
AcDbLine
 10
335.4347492348507
 20
568.1330883214618
 30
0.0
 11
335.4347492348507
 21
584.1330883214611
 31
0.0
  0
LINE
  5
26F
330
6C
100
AcDbEntity
  8
Viditelná (ISO)
100
AcDbLine
 10
369.2387897419599
 20
567.1330883214619
 30
0.0
 11
358.2387897419611
 21
567.1330883214619
 31
0.0
  0
LINE
  5
270
330
6C
100
AcDbEntity
  8
Viditelná (ISO)
100
AcDbLine
 10
369.2387897419599
 20
568.1330883214618
 30
0.0
 11
358.2387897419611
 21
568.1330883214618
 31
0.0
  0
LINE
  5
271
330
6C
100
AcDbEntity
  8
Viditelná (ISO)
100
AcDbLine
 10
358.2387897419611
 20
567.1330883214619
 30
0.0
 11
358.2387897419611
 21
568.1330883214618
 31
0.0
  0
LINE
  5
272
330
6C
100
AcDbEntity
  8
Viditelná (ISO)
100
AcDbLine
 10
369.2387897419598
 20
567.1330883214619
 30
0.0
 11
369.2387897419598
 21
568.1330883214618
 31
0.0
  0
LINE
  5
273
330
6C
100
AcDbEntity
  8
Viditelná (ISO)
100
AcDbLine
 10
359.238789741961
 20
568.1330883214618
 30
0.0
 11
359.2387897419608
 21
584.1330883214611
 31
0.0
  0
LINE
  5
274
330
6C
100
AcDbEntity
  8
Viditelná (ISO)
100
AcDbLine
 10
368.2387897419599
 20
568.1330883214618
 30
0.0
 11
368.2387897419598
 21
584.1330883214611
 31
0.0
  0
ELLIPSE
  5
354
330
6C
100
AcDbEntity
  8
Viditelná (ISO)
100
AcDbEllipse
 10
206.0289027896653
 20
489.0861366486634
 30
0.0
 11
-0.0000000000001886
 21
-5.500000000000227
 31
0.0
210
0.0
220
0.0
230
1.0
 40
0.3420201433256645
 41
0.7853981633982077
 42
2.320284182694143
  0
LINE
  5
355
330
6C
100
AcDbEntity
  8
Viditelná (ISO)
100
AcDbLine
 10
207.3590489842292
 20
485.1970493521372
 30
0.0
 11
206.5125923149612
 21
482.7221756179842
 31
0.0
  0
ELLIPSE
  5
356
330
6C
100
AcDbEntity
  8
Viditelná (ISO)
100
AcDbEllipse
 10
207.8427385095251
 20
478.8330883214581
 30
0.0
 11
0.0000000000002001
 21
-5.500000000000151
 31
0.0
210
0.0
220
0.0
230
1.0
 40
0.3420201433256644
 41
3.926990816986442
 42
4.712388980384332
  0
LINE
  5
357
330
6C
100
AcDbEntity
  8
Viditelná (ISO)
100
AcDbLine
 10
205.9616277212339
 20
478.8330883214581
 30
0.0
 11
205.9616277212339
 21
462.3455961437385
 31
0.0
  0
LINE
  5
358
330
6C
100
AcDbEntity
  8
Viditelná (ISO)
100
AcDbLine
 10
206.3036478645596
 20
462.3455961437385
 30
0.0
 11
206.3036478645596
 21
478.8330883214581
 31
0.0
  0
ELLIPSE
  5
359
330
6C
100
AcDbEntity
  8
Viditelná (ISO)
100
AcDbEllipse
 10
207.8427385095251
 20
478.8330883214581
 30
0.0
 11
-0.0000000000000099
 21
4.500000000000111
 31
0.0
210
0.0
220
0.0
230
1.0
 40
0.3420201433256644
 41
0.7853981633974243
 42
1.570796326794895
  0
LINE
  5
35A
330
6C
100
AcDbEntity
  8
Viditelná (ISO)
100
AcDbLine
 10
206.7544370776092
 20
482.0150688367977
 30
0.0
 11
207.6008937468772
 21
484.4899425709506
 31
0.0
  0
ELLIPSE
  5
35B
330
6C
100
AcDbEntity
  8
Viditelná (ISO)
100
AcDbEllipse
 10
206.0289027896653
 20
489.0861366486634
 30
0.0
 11
-0.0000000000002362
 21
6.500000000000243
 31
0.0
210
0.0
220
0.0
230
1.0
 40
0.3420201433256644
 41
3.926990816986446
 42
5.326771540094499
  0
ELLIPSE
  5
35C
330
6C
100
AcDbEntity
  8
Viditelná (ISO)
100
AcDbEllipse
 10
229.5212183093143
 20
489.0861366486634
 30
0.0
 11
-0.0000000000002366
 21
6.50000000000023
 31
0.0
210
0.0
220
0.0
230
1.0
 40
0.3420201433256644
 41
3.926990816986446
 42
5.32677154009449
  0
LINE
  5
35D
330
6C
100
AcDbEntity
  8
Viditelná (ISO)
100
AcDbLine
 10
230.2467525972582
 20
482.0150688367977
 30
0.0
 11
231.0932092665262
 21
484.4899425709506
 31
0.0
  0
ELLIPSE
  5
35E
330
6C
100
AcDbEntity
  8
Viditelná (ISO)
100
AcDbEllipse
 10
231.3350540291741
 20
478.8330883214581
 30
0.0
 11
-0.0000000000000099
 21
4.500000000000111
 31
0.0
210
0.0
220
0.0
230
1.0
 40
0.3420201433256644
 41
0.7853981633974243
 42
1.570796326794895
  0
LINE
  5
35F
330
6C
100
AcDbEntity
  8
Viditelná (ISO)
100
AcDbLine
 10
229.7959633842086
 20
462.3455961437385
 30
0.0
 11
229.7959633842086
 21
478.8330883214581
 31
0.0
  0
LINE
  5
360
330
6C
100
AcDbEntity
  8
Viditelná (ISO)
100
AcDbLine
 10
205.9616277212339
 20
462.3455961437385
 30
0.0
 11
206.3036478645596
 21
462.3455961437385
 31
0.0
  0
ELLIPSE
  5
361
330
6C
100
AcDbEntity
  8
Viditelná (ISO)
100
AcDbEllipse
 10
217.7077854810584
 20
472.3330883214579
 30
0.0
 11
0.0000000000000283
 21
-16.00000000000051
 31
0.0
210
0.0
220
0.0
230
1.0
 40
0.9396926207859312
 41
5.386519487052005
 42
6.283185307179587
  0
ELLIPSE
  5
362
330
6C
100
AcDbEntity
  8
Viditelná (ISO)
100
AcDbEllipse
 10
218.0498056243841
 20
472.3330883214579
 30
0.0
 11
0.0000000000001305
 21
-16.00000000000049
 31
0.0
210
0.0
220
0.0
230
1.0
 40
0.939692620785931
 41
5.386519487051997
 42
7.179851127307157
  0
LINE
  5
363
330
6C
100
AcDbEntity
  8
Viditelná (ISO)
100
AcDbLine
 10
217.7077854810585
 20
456.3330883214574
 30
0.0
 11
218.0498056243841
 21
456.3330883214574
 31
0.0
  0
ELLIPSE
  5
366
330
6C
100
AcDbEntity
  8
Viditelná (ISO)
100
AcDbEllipse
 10
218.0498056243841
 20
468.8330883214578
 30
0.0
 11
-0.0000000000000051
 21
6.000000000000181
 31
0.0
210
0.0
220
0.0
230
1.0
 40
0.9396926207859312
 41
0.0
 42
6.283185307179586
  0
ELLIPSE
  5
367
330
6C
100
AcDbEntity
  8
Viditelná (ISO)
100
AcDbEllipse
 10
217.7077854810585
 20
468.8330883214578
 30
0.0
 11
0.0000000000000472
 21
-6.000000000000178
 31
0.0
210
0.0
220
0.0
230
1.0
 40
0.9396926207859312
 41
0.0303355053135743
 42
3.111257148276207
  0
LINE
  5
36B
330
6C
100
AcDbEntity
  8
Viditelná (ISO)
100
AcDbLine
 10
197.3569781171365
 20
572.3330883214609
 30
0.0
 11
197.5483594102071
 21
572.3330883214609
 31
0.0
  0
ELLIPSE
  5
36C
330
6C
100
AcDbEntity
  8
Viditelná (ISO)
100
AcDbEllipse
 10
197.3569781171365
 20
566.3330883214607
 30
0.0
 11
0.0000000000000189
 21
-6.000000000000181
 31
0.0
210
0.0
220
0.0
230
1.0
 40
0.7660444431189923
 41
3.141592653589793
 42
6.283185307179586
  0
LINE
  5
36D
330
6C
100
AcDbEntity
  8
Viditelná (ISO)
100
AcDbLine
 10
197.9997657268231
 20
560.3330883214606
 30
0.0
 11
197.3569781171365
 21
560.3330883214606
 31
0.0
  0
ELLIPSE
  5
36E
330
6C
100
AcDbEntity
  8
Viditelná (ISO)
100
AcDbEllipse
 10
197.9997657268231
 20
566.3330883214607
 30
0.0
 11
0.0000000000004797
 21
-6.000000000000178
 31
0.0
210
0.0
220
0.0
230
1.0
 40
0.7660444431189922
 41
4.244414777758226
 42
6.283185307179421
  0
ELLIPSE
  5
36F
330
6C
100
AcDbEntity
  8
Viditelná (ISO)
100
AcDbEllipse
 10
178.2058670391611
 20
566.3330883214607
 30
0.0
 11
-0.0000000000000189
 21
6.000000000000181
 31
0.0
210
0.0
220
0.0
230
1.0
 40
0.7660444431189923
 41
3.141592653589793
 42
6.283185307179586
  0
LINE
  5
375
330
6C
100
AcDbEntity
  8
Viditelná (ISO)
100
AcDbLine
 10
197.3569781171365
 20
560.3330883214606
 30
0.0
 11
197.3569781171366
 21
540.3513782846896
 31
0.0
  0
ELLIPSE
  5
376
330
6C
100
AcDbEntity
  8
Viditelná (ISO)
100
AcDbEllipse
 10
200.8923099704129
 20
540.3513782846896
 30
0.0
 11
0.0000000000000173
 21
-5.500000000000166
 31
0.0
210
0.0
220
0.0
230
1.0
 40
0.6427876096865743
 41
4.712388980384687
 42
5.497787143782134
  0
LINE
  5
377
330
6C
100
AcDbEntity
  8
Viditelná (ISO)
100
AcDbLine
 10
198.3924528432164
 20
536.4622909881634
 30
0.0
 11
199.9832710150687
 21
533.9874172540104
 31
0.0
  0
ELLIPSE
  5
378
330
6C
100
AcDbEntity
  8
Viditelná (ISO)
100
AcDbEllipse
 10
197.4834138878722
 20
530.0983299574843
 30
0.0
 11
-0.0000000000003388
 21
-5.500000000000177
 31
0.0
210
0.0
220
0.0
230
1.0
 40
0.6427876096865744
 41
0.7853981633976304
 42
2.356194490192537
  0
LINE
  5
379
330
6C
100
AcDbEntity
  8
Viditelná (ISO)
100
AcDbLine
 10
199.9832710150687
 20
526.2092426609582
 30
0.0
 11
198.3924528432164
 21
523.7343689268052
 31
0.0
  0
ELLIPSE
  5
37A
330
6C
100
AcDbEntity
  8
Viditelná (ISO)
100
AcDbEllipse
 10
200.8923099704129
 20
519.845281630279
 30
0.0
 11
0.0000000000003914
 21
-5.500000000000158
 31
0.0
210
0.0
220
0.0
230
1.0
 40
0.6427876096865743
 41
3.926990816987045
 42
5.497787143781943
  0
LINE
  5
37B
330
6C
100
AcDbEntity
  8
Viditelná (ISO)
100
AcDbLine
 10
198.3924528432164
 20
515.9561943337529
 30
0.0
 11
199.9832710150687
 21
513.4813205995999
 31
0.0
  0
ELLIPSE
  5
37C
330
6C
100
AcDbEntity
  8
Viditelná (ISO)
100
AcDbEllipse
 10
197.4834138878723
 20
509.5922333030738
 30
0.0
 11
-0.0000000000003398
 21
-5.500000000000177
 31
0.0
210
0.0
220
0.0
230
1.0
 40
0.6427876096865743
 41
0.7853981633976393
 42
2.35619449019253
  0
LINE
  5
37D
330
6C
100
AcDbEntity
  8
Viditelná (ISO)
100
AcDbLine
 10
199.9832710150688
 20
505.7031460065476
 30
0.0
 11
198.3924528432165
 21
503.2282722723947
 31
0.0
  0
ELLIPSE
  5
37E
330
6C
100
AcDbEntity
  8
Viditelná (ISO)
100
AcDbEllipse
 10
200.892309970413
 20
499.3391849758686
 30
0.0
 11
0.000000000000392
 21
-5.500000000000177
 31
0.0
210
0.0
220
0.0
230
1.0
 40
0.642787609686574
 41
3.926990816987045
 42
5.497787143781937
  0
LINE
  5
37F
330
6C
100
AcDbEntity
  8
Viditelná (ISO)
100
AcDbLine
 10
198.3924528432165
 20
495.4500976793424
 30
0.0
 11
199.9832710150688
 21
492.9752239451895
 31
0.0
  0
ELLIPSE
  5
380
330
6C
100
AcDbEntity
  8
Viditelná (ISO)
100
AcDbEllipse
 10
197.4834138878724
 20
489.0861366486634
 30
0.0
 11
-0.0000000000003388
 21
-5.500000000000206
 31
0.0
210
0.0
220
0.0
230
1.0
 40
0.6427876096865744
 41
0.7853981633976366
 42
2.35619449019253
  0
LINE
  5
381
330
6C
100
AcDbEntity
  8
Viditelná (ISO)
100
AcDbLine
 10
199.9832710150688
 20
485.1970493521371
 30
0.0
 11
198.3924528432165
 21
482.7221756179842
 31
0.0
  0
ELLIPSE
  5
382
330
6C
100
AcDbEntity
  8
Viditelná (ISO)
100
AcDbEllipse
 10
200.892309970413
 20
478.833088321458
 30
0.0
 11
0.0000000000003937
 21
-5.500000000000151
 31
0.0
210
0.0
220
0.0
230
1.0
 40
0.6427876096865743
 41
3.926990816987045
 42
4.7123889803846
  0
LINE
  5
383
330
6C
100
AcDbEntity
  8
Viditelná (ISO)
100
AcDbLine
 10
197.3569781171367
 20
478.833088321458
 30
0.0
 11
197.3569781171368
 21
462.3455961437384
 31
0.0
  0
LINE
  5
384
330
6C
100
AcDbEntity
  8
Viditelná (ISO)
100
AcDbLine
 10
197.9997657268234
 20
462.3455961437384
 30
0.0
 11
197.9997657268233
 21
478.833088321458
 31
0.0
  0
ELLIPSE
  5
385
330
6C
100
AcDbEntity
  8
Viditelná (ISO)
100
AcDbEllipse
 10
200.892309970413
 20
478.833088321458
 30
0.0
 11
-0.0000000000000256
 21
4.500000000000111
 31
0.0
210
0.0
220
0.0
230
1.0
 40
0.6427876096865742
 41
0.7853981633974403
 42
1.570796326794893
  0
LINE
  5
386
330
6C
100
AcDbEntity
  8
Viditelná (ISO)
100
AcDbLine
 10
198.8469723208886
 20
482.0150688367976
 30
0.0
 11
200.437790492741
 21
484.4899425709506
 31
0.0
  0
ELLIPSE
  5
387
330
6C
100
AcDbEntity
  8
Viditelná (ISO)
100
AcDbEllipse
 10
197.4834138878724
 20
489.0861366486633
 30
0.0
 11
-0.0000000000004631
 21
6.500000000000232
 31
0.0
210
0.0
220
0.0
230
0.9999999999999998
 40
0.6427876096865742
 41
3.926990816987053
 42
5.497787143781941
  0
LINE
  5
388
330
6C
100
AcDbEntity
  8
Viditelná (ISO)
100
AcDbLine
 10
200.4377904927409
 20
493.682330726376
 30
0.0
 11
198.8469723208886
 21
496.157204460529
 31
0.0
  0
ELLIPSE
  5
389
330
6C
100
AcDbEntity
  8
Viditelná (ISO)
100
AcDbEllipse
 10
200.892309970413
 20
499.3391849758686
 30
0.0
 11
0.0000000000002769
 21
4.500000000000131
 31
0.0
210
0.0
220
0.0
230
1.0
 40
0.6427876096865743
 41
0.7853981633976375
 42
2.356194490192528
  0
LINE
  5
38A
330
6C
100
AcDbEntity
  8
Viditelná (ISO)
100
AcDbLine
 10
198.8469723208886
 20
502.5211654912081
 30
0.0
 11
200.4377904927409
 21
504.9960392253611
 31
0.0
  0
ELLIPSE
  5
38B
330
6C
100
AcDbEntity
  8
Viditelná (ISO)
100
AcDbEllipse
 10
197.4834138878723
 20
509.5922333030738
 30
0.0
 11
-0.0000000000004621
 21
6.500000000000203
 31
0.0
210
0.0
220
0.0
230
0.9999999999999998
 40
0.6427876096865742
 41
3.926990816987048
 42
5.497787143781946
  0
LINE
  5
38C
330
6C
100
AcDbEntity
  8
Viditelná (ISO)
100
AcDbLine
 10
200.4377904927408
 20
514.1884273807865
 30
0.0
 11
198.8469723208885
 21
516.6633011149395
 31
0.0
  0
ELLIPSE
  5
38D
330
6C
100
AcDbEntity
  8
Viditelná (ISO)
100
AcDbEllipse
 10
200.8923099704129
 20
519.845281630279
 30
0.0
 11
0.0000000000002776
 21
4.500000000000135
 31
0.0
210
0.0
220
0.0
230
1.0
 40
0.6427876096865742
 41
0.7853981633976384
 42
2.356194490192537
  0
LINE
  5
38E
330
6C
100
AcDbEntity
  8
Viditelná (ISO)
100
AcDbLine
 10
198.8469723208885
 20
523.0272621456187
 30
0.0
 11
200.4377904927408
 21
525.5021358797717
 31
0.0
  0
ELLIPSE
  5
38F
330
6C
100
AcDbEntity
  8
Viditelná (ISO)
100
AcDbEllipse
 10
197.4834138878722
 20
530.0983299574843
 30
0.0
 11
-0.0000000000004644
 21
6.500000000000206
 31
0.0
210
0.0
220
0.0
230
0.9999999999999998
 40
0.6427876096865743
 41
3.926990816987048
 42
5.497787143781939
  0
LINE
  5
390
330
6C
100
AcDbEntity
  8
Viditelná (ISO)
100
AcDbLine
 10
200.4377904927407
 20
534.694524035197
 30
0.0
 11
198.8469723208885
 21
537.1693977693499
 31
0.0
  0
ELLIPSE
  5
391
330
6C
100
AcDbEntity
  8
Viditelná (ISO)
100
AcDbEllipse
 10
200.8923099704129
 20
540.3513782846896
 30
0.0
 11
0.0000000000002764
 21
4.500000000000153
 31
0.0
210
0.0
220
0.0
230
0.9999999999999998
 40
0.6427876096865742
 41
1.570796326794988
 42
2.356194490192526
  0
LINE
  5
392
330
6C
100
AcDbEntity
  8
Viditelná (ISO)
100
AcDbLine
 10
197.9997657268232
 20
540.3513782846896
 30
0.0
 11
197.9997657268231
 21
560.3330883214606
 31
0.0
  0
LINE
  5
393
330
6C
100
AcDbEntity
  8
Viditelná (ISO)
100
AcDbLine
 10
197.9997657268231
 20
574.8330883214597
 30
0.0
 11
197.999765726823
 21
582.3330883214612
 31
0.0
  0
LINE
  5
394
330
6C
100
AcDbEntity
  8
Viditelná (ISO)
100
AcDbLine
 10
178.205867039161
 20
582.3330883214612
 30
0.0
 11
178.2058670391611
 21
572.3330883214608
 31
0.0
  0
LINE
  5
395
330
6C
100
AcDbEntity
  8
Viditelná (ISO)
100
AcDbLine
 10
178.2058670391613
 20
478.8330883214579
 30
0.0
 11
178.2058670391614
 21
462.3455961437383
 31
0.0
  0
ELLIPSE
  5
396
330
6C
100
AcDbEntity
  8
Viditelná (ISO)
100
AcDbEllipse
 10
181.7411988924376
 20
478.8330883214579
 30
0.0
 11
0.0000000000003937
 21
-5.500000000000151
 31
0.0
210
0.0
220
0.0
230
1.0
 40
0.6427876096865743
 41
3.926990816987045
 42
4.7123889803846
  0
LINE
  5
397
330
6C
100
AcDbEntity
  8
Viditelná (ISO)
100
AcDbLine
 10
180.8321599370934
 20
485.197049352137
 30
0.0
 11
179.2413417652412
 21
482.7221756179841
 31
0.0
  0
ELLIPSE
  5
398
330
6C
100
AcDbEntity
  8
Viditelná (ISO)
100
AcDbEllipse
 10
178.332302809897
 20
489.0861366486633
 30
0.0
 11
-0.0000000000003388
 21
-5.500000000000206
 31
0.0
210
0.0
220
0.0
230
1.0
 40
0.6427876096865744
 41
0.7853981633976366
 42
2.35619449019253
  0
LINE
  5
399
330
6C
100
AcDbEntity
  8
Viditelná (ISO)
100
AcDbLine
 10
179.2413417652411
 20
495.4500976793424
 30
0.0
 11
180.8321599370934
 21
492.9752239451893
 31
0.0
  0
ELLIPSE
  5
39A
330
6C
100
AcDbEntity
  8
Viditelná (ISO)
100
AcDbEllipse
 10
181.7411988924376
 20
499.3391849758685
 30
0.0
 11
0.000000000000392
 21
-5.500000000000177
 31
0.0
210
0.0
220
0.0
230
1.0
 40
0.642787609686574
 41
3.926990816987045
 42
5.497787143781937
  0
LINE
  5
39B
330
6C
100
AcDbEntity
  8
Viditelná (ISO)
100
AcDbLine
 10
180.8321599370934
 20
505.7031460065476
 30
0.0
 11
179.2413417652411
 21
503.2282722723946
 31
0.0
  0
ELLIPSE
  5
39C
330
6C
100
AcDbEntity
  8
Viditelná (ISO)
100
AcDbEllipse
 10
178.3323028098969
 20
509.5922333030737
 30
0.0
 11
-0.0000000000003398
 21
-5.500000000000177
 31
0.0
210
0.0
220
0.0
230
1.0
 40
0.6427876096865743
 41
0.7853981633976313
 42
2.356194490192523
  0
LINE
  5
39D
330
6C
100
AcDbEntity
  8
Viditelná (ISO)
100
AcDbLine
 10
179.2413417652411
 20
515.9561943337529
 30
0.0
 11
180.8321599370933
 21
513.4813205995998
 31
0.0
  0
ELLIPSE
  5
39E
330
6C
100
AcDbEntity
  8
Viditelná (ISO)
100
AcDbEllipse
 10
181.7411988924375
 20
519.845281630279
 30
0.0
 11
0.0000000000003914
 21
-5.500000000000158
 31
0.0
210
0.0
220
0.0
230
1.0
 40
0.6427876096865743
 41
3.926990816987045
 42
5.497787143781943
  0
LINE
  5
39F
330
6C
100
AcDbEntity
  8
Viditelná (ISO)
100
AcDbLine
 10
180.8321599370933
 20
526.2092426609581
 30
0.0
 11
179.241341765241
 21
523.7343689268051
 31
0.0
  0
ELLIPSE
  5
3A0
330
6C
100
AcDbEntity
  8
Viditelná (ISO)
100
AcDbEllipse
 10
178.3323028098969
 20
530.0983299574842
 30
0.0
 11
-0.0000000000003388
 21
-5.500000000000177
 31
0.0
210
0.0
220
0.0
230
1.0
 40
0.6427876096865744
 41
0.7853981633976304
 42
2.356194490192537
  0
LINE
  5
3A1
330
6C
100
AcDbEntity
  8
Viditelná (ISO)
100
AcDbLine
 10
179.241341765241
 20
536.4622909881632
 30
0.0
 11
180.8321599370933
 21
533.9874172540103
 31
0.0
  0
ELLIPSE
  5
3A2
330
6C
100
AcDbEntity
  8
Viditelná (ISO)
100
AcDbEllipse
 10
181.7411988924374
 20
540.3513782846895
 30
0.0
 11
0.0000000000000173
 21
-5.500000000000166
 31
0.0
210
0.0
220
0.0
230
1.0
 40
0.6427876096865743
 41
4.712388980384687
 42
5.497787143782134
  0
LINE
  5
3A3
330
6C
100
AcDbEntity
  8
Viditelná (ISO)
100
AcDbLine
 10
178.2058670391611
 20
560.3330883214605
 30
0.0
 11
178.2058670391612
 21
540.3513782846895
 31
0.0
  0
LINE
  5
3A4
330
6C
100
AcDbEntity
  8
Viditelná (ISO)
100
AcDbLine
 10
197.3569781171364
 20
582.3330883214612
 30
0.0
 11
178.205867039161
 21
582.3330883214612
 31
0.0
  0
LINE
  5
3A5
330
6C
100
AcDbEntity
  8
Viditelná (ISO)
100
AcDbLine
 10
197.999765726823
 20
582.3330883214612
 30
0.0
 11
197.3569781171364
 21
582.3330883214612
 31
0.0
  0
LINE
  5
3A6
330
6C
100
AcDbEntity
  8
Viditelná (ISO)
100
AcDbLine
 10
197.3569781171364
 20
582.3330883214612
 30
0.0
 11
197.3569781171365
 21
572.3330883214609
 31
0.0
  0
LINE
  5
3B8
330
6C
100
AcDbEntity
  8
Viditelná (ISO)
100
AcDbLine
 10
197.3569781171368
 20
462.3455961437384
 30
0.0
 11
197.9997657268234
 21
462.3455961437384
 31
0.0
  0
ELLIPSE
  5
3B9
330
6C
100
AcDbEntity
  8
Viditelná (ISO)
100
AcDbEllipse
 10
187.7814225781491
 20
472.3330883214578
 30
0.0
 11
0.0000000000000093
 21
-16.00000000000049
 31
0.0
210
0.0
220
0.0
230
1.0
 40
0.7660444431189923
 41
5.386519487052011
 42
7.179851127307169
  0
ELLIPSE
  5
3BA
330
6C
100
AcDbEntity
  8
Viditelná (ISO)
100
AcDbEllipse
 10
188.4242101878357
 20
472.3330883214578
 30
0.0
 11
0.0000000000000148
 21
-16.00000000000049
 31
0.0
210
0.0
220
0.0
230
1.0
 40
0.7660444431189922
 41
0.0
 42
0.8966658201275823
  0
LINE
  5
3BB
330
6C
100
AcDbEntity
  8
Viditelná (ISO)
100
AcDbLine
 10
187.7814225781491
 20
456.3330883214574
 30
0.0
 11
188.4242101878357
 21
456.3330883214574
 31
0.0
  0
ELLIPSE
  5
3BE
330
6C
100
AcDbEntity
  8
Viditelná (ISO)
100
AcDbEllipse
 10
188.4242101878357
 20
468.8330883214577
 30
0.0
 11
-0.0000000000000039
 21
6.000000000000179
 31
0.0
210
0.0
220
0.0
230
1.0
 40
0.7660444431189921
 41
0.0699820780476177
 42
3.071610575542167
  0
ELLIPSE
  5
3BF
330
6C
100
AcDbEntity
  8
Viditelná (ISO)
100
AcDbEllipse
 10
187.7814225781491
 20
468.8330883214577
 30
0.0
 11
0.0000000000000189
 21
-6.000000000000181
 31
0.0
210
0.0
220
0.0
230
1.0
 40
0.7660444431189923
 41
0.0
 42
6.283185307179586
  0
ELLIPSE
  5
3C8
330
6C
100
AcDbEntity
  8
Viditelná (ISO)
100
AcDbEllipse
 10
351.8977633875124
 20
566.333088321461
 30
0.0
 11
0.000000000000015
 21
-6.000000000000181
 31
0.0
210
0.0
220
0.0
230
1.0
 40
0.1736481776669392
 41
3.141592653589654
 42
6.283185307179447
  0
LINE
  5
3C9
330
6C
100
AcDbEntity
  8
Viditelná (ISO)
100
AcDbLine
 10
347.5565589458389
 20
560.3330883214608
 30
0.0
 11
346.5717511928267
 21
560.3330883214608
 31
0.0
  0
ELLIPSE
  5
3CA
330
6C
100
AcDbEntity
  8
Viditelná (ISO)
100
AcDbEllipse
 10
347.5565589458388
 20
566.333088321461
 30
0.0
 11
-0.000000000000015
 21
6.000000000000181
 31
0.0
210
0.0
220
0.0
230
1.0
 40
0.1736481776669392
 41
3.141592653589654
 42
6.283185307179447
  0
LINE
  5
3CB
330
6C
100
AcDbEntity
  8
Viditelná (ISO)
100
AcDbLine
 10
347.2633457936917
 20
572.3330883214612
 30
0.0
 11
347.5565589458388
 21
572.3330883214612
 31
0.0
  0
ELLIPSE
  5
3CC
330
6C
100
AcDbEntity
  8
Viditelná (ISO)
100
AcDbEllipse
 10
346.5717511928266
 20
566.333088321461
 30
0.0
 11
0.0000000000000146
 21
-6.000000000000183
 31
0.0
210
0.0
220
0.0
230
0.9999999999999998
 40
0.1736481776669392
 41
0.0
 42
2.038770529421192
  0
LINE
  5
3CD
330
6C
100
AcDbEntity
  8
Viditelná (ISO)
100
AcDbLine
 10
351.8977633875124
 20
560.3330883214609
 30
0.0
 11
351.8977633875125
 21
540.3513782846899
 31
0.0
  0
ELLIPSE
  5
3CE
330
6C
100
AcDbEntity
  8
Viditelná (ISO)
100
AcDbEllipse
 10
346.4813207459451
 20
540.3513782846899
 30
0.0
 11
0.0000000000000137
 21
-5.500000000000166
 31
0.0
210
0.0
220
0.0
230
1.0
 40
0.9848077530122381
 41
0.7853981633974421
 42
1.570796326794893
  0
LINE
  5
3CF
330
6C
100
AcDbEntity
  8
Viditelná (ISO)
100
AcDbLine
 10
350.3113240677054
 20
536.4622909881639
 30
0.0
 11
347.8740492265852
 21
533.9874172540107
 31
0.0
  0
ELLIPSE
  5
3D0
330
6C
100
AcDbEntity
  8
Viditelná (ISO)
100
AcDbEllipse
 10
351.7040525483456
 20
530.0983299574847
 30
0.0
 11
0.0000000000004348
 21
-5.500000000000178
 31
0.0
210
0.0
220
0.0
230
1.0
 40
0.9848077530122381
 41
3.926990816987164
 42
5.497787143782053
  0
LINE
  5
3D1
330
6C
100
AcDbEntity
  8
Viditelná (ISO)
100
AcDbLine
 10
347.8740492265852
 20
526.2092426609585
 30
0.0
 11
350.3113240677055
 21
523.7343689268056
 31
0.0
  0
ELLIPSE
  5
3D2
330
6C
100
AcDbEntity
  8
Viditelná (ISO)
100
AcDbEllipse
 10
346.4813207459451
 20
519.8452816302793
 30
0.0
 11
-0.0000000000006999
 21
-5.50000000000016
 31
0.0
210
0.0
220
0.0
230
1.0
 40
0.9848077530122379
 41
0.7853981633975887
 42
2.356194490192486
  0
LINE
  5
3D3
330
6C
100
AcDbEntity
  8
Viditelná (ISO)
100
AcDbLine
 10
350.3113240677055
 20
515.9561943337532
 30
0.0
 11
347.8740492265853
 21
513.4813205996002
 31
0.0
  0
ELLIPSE
  5
3D4
330
6C
100
AcDbEntity
  8
Viditelná (ISO)
100
AcDbEllipse
 10
351.7040525483456
 20
509.5922333030741
 30
0.0
 11
0.0000000000004325
 21
-5.500000000000177
 31
0.0
210
0.0
220
0.0
230
1.0
 40
0.9848077530122377
 41
3.926990816987164
 42
5.497787143782053
  0
LINE
  5
3D5
330
6C
100
AcDbEntity
  8
Viditelná (ISO)
100
AcDbLine
 10
347.8740492265853
 20
505.703146006548
 30
0.0
 11
350.3113240677055
 21
503.2282722723951
 31
0.0
  0
ELLIPSE
  5
3D6
330
6C
100
AcDbEntity
  8
Viditelná (ISO)
100
AcDbEllipse
 10
346.4813207459451
 20
499.3391849758689
 30
0.0
 11
-0.0000000000006832
 21
-5.500000000000177
 31
0.0
210
0.0
220
0.0
230
1.0
 40
0.9848077530122377
 41
0.785398163397578
 42
2.356194490192466
  0
LINE
  5
3D7
330
6C
100
AcDbEntity
  8
Viditelná (ISO)
100
AcDbLine
 10
350.3113240677056
 20
495.4500976793428
 30
0.0
 11
347.8740492265853
 21
492.9752239451897
 31
0.0
  0
ELLIPSE
  5
3D8
330
6C
100
AcDbEntity
  8
Viditelná (ISO)
100
AcDbEllipse
 10
351.7040525483457
 20
489.0861366486636
 30
0.0
 11
0.0000000000004385
 21
-5.500000000000206
 31
0.0
210
0.0
220
0.0
230
1.0
 40
0.9848077530122381
 41
3.926990816987164
 42
5.497787143782052
  0
LINE
  5
3D9
330
6C
100
AcDbEntity
  8
Viditelná (ISO)
100
AcDbLine
 10
347.8740492265853
 20
485.1970493521375
 30
0.0
 11
350.3113240677056
 21
482.7221756179845
 31
0.0
  0
ELLIPSE
  5
3DA
330
6C
100
AcDbEntity
  8
Viditelná (ISO)
100
AcDbEllipse
 10
346.4813207459452
 20
478.8330883214584
 30
0.0
 11
-0.000000000000692
 21
-5.500000000000151
 31
0.0
210
0.0
220
0.0
230
1.0
 40
0.9848077530122379
 41
1.57079632679502
 42
2.356194490192484
  0
LINE
  5
3DB
330
6C
100
AcDbEntity
  8
Viditelná (ISO)
100
AcDbLine
 10
351.8977633875127
 20
478.8330883214585
 30
0.0
 11
351.8977633875128
 21
462.3455961437388
 31
0.0
  0
LINE
  5
3DC
330
6C
100
AcDbEntity
  8
Viditelná (ISO)
100
AcDbLine
 10
346.5717511928267
 20
540.3513782846898
 30
0.0
 11
346.5717511928267
 21
560.3330883214608
 31
0.0
  0
LINE
  5
3DD
330
6C
100
AcDbEntity
  8
Viditelná (ISO)
100
AcDbLine
 10
346.5717511928266
 20
574.8330883214601
 30
0.0
 11
346.5717511928266
 21
582.3330883214615
 31
0.0
  0
LINE
  5
3DE
330
6C
100
AcDbEntity
  8
Viditelná (ISO)
100
AcDbLine
 10
347.5565589458388
 20
582.3330883214615
 30
0.0
 11
347.5565589458388
 21
572.3330883214612
 31
0.0
  0
LINE
  5
3DF
330
6C
100
AcDbEntity
  8
Viditelná (ISO)
100
AcDbLine
 10
346.5717511928266
 20
582.3330883214615
 30
0.0
 11
347.5565589458388
 21
582.3330883214615
 31
0.0
  0
ELLIPSE
  5
3E0
330
6C
100
AcDbEntity
  8
Viditelná (ISO)
100
AcDbEllipse
 10
342.1401163042714
 20
540.3513782846898
 30
0.0
 11
-0.000000000000358
 21
4.500000000000153
 31
0.0
210
0.0
220
0.0
230
0.9999999999999998
 40
0.9848077530122379
 41
3.926990816987157
 42
4.712388980384611
  0
LINE
  5
3E1
330
6C
100
AcDbEntity
  8
Viditelná (ISO)
100
AcDbLine
 10
342.8364805445915
 20
534.6945240351971
 30
0.0
 11
345.2737553857117
 21
537.1693977693503
 31
0.0
  0
ELLIPSE
  5
3E2
330
6C
100
AcDbEntity
  8
Viditelná (ISO)
100
AcDbEllipse
 10
347.3628481066719
 20
530.0983299574847
 30
0.0
 11
0.0000000000007605
 21
6.500000000000206
 31
0.0
210
0.0
220
0.0
230
0.9999999999999998
 40
0.9848077530122381
 41
0.78539816339757
 42
2.356194490192468
  0
LINE
  5
3E3
330
6C
100
AcDbEntity
  8
Viditelná (ISO)
100
AcDbLine
 10
345.2737553857117
 20
523.0272621456188
 30
0.0
 11
342.8364805445915
 21
525.5021358797718
 31
0.0
  0
ELLIPSE
  5
3E4
330
6C
100
AcDbEntity
  8
Viditelná (ISO)
100
AcDbEllipse
 10
342.1401163042715
 20
519.8452816302793
 30
0.0
 11
-0.0000000000003793
 21
4.500000000000135
 31
0.0
210
0.0
220
0.0
230
1.0
 40
0.9848077530122377
 41
3.926990816987152
 42
5.497787143782055
  0
LINE
  5
3E5
330
6C
100
AcDbEntity
  8
Viditelná (ISO)
100
AcDbLine
 10
342.8364805445915
 20
514.1884273807868
 30
0.0
 11
345.2737553857117
 21
516.6633011149398
 31
0.0
  0
ELLIPSE
  5
3E6
330
6C
100
AcDbEntity
  8
Viditelná (ISO)
100
AcDbEllipse
 10
347.362848106672
 20
509.5922333030741
 30
0.0
 11
0.0000000000008095
 21
6.500000000000203
 31
0.0
210
0.0
220
0.0
230
0.9999999999999998
 40
0.9848077530122377
 41
0.7853981633975762
 42
2.356194490192462
  0
LINE
  5
3E7
330
6C
100
AcDbEntity
  8
Viditelná (ISO)
100
AcDbLine
 10
345.2737553857118
 20
502.5211654912085
 30
0.0
 11
342.8364805445916
 21
504.9960392253614
 31
0.0
  0
ELLIPSE
  5
3E8
330
6C
100
AcDbEntity
  8
Viditelná (ISO)
100
AcDbEllipse
 10
342.1401163042716
 20
499.3391849758689
 30
0.0
 11
-0.0000000000003752
 21
4.500000000000131
 31
0.0
210
0.0
220
0.0
230
1.0
 40
0.9848077530122381
 41
3.926990816987142
 42
5.497787143782046
  0
LINE
  5
3E9
330
6C
100
AcDbEntity
  8
Viditelná (ISO)
100
AcDbLine
 10
342.8364805445916
 20
493.6823307263763
 30
0.0
 11
345.2737553857118
 21
496.1572044605293
 31
0.0
  0
ELLIPSE
  5
3EA
330
6C
100
AcDbEntity
  8
Viditelná (ISO)
100
AcDbEllipse
 10
347.3628481066721
 20
489.0861366486636
 30
0.0
 11
0.0000000000007873
 21
6.500000000000231
 31
0.0
210
0.0
220
0.0
230
1.0
 40
0.9848077530122385
 41
0.785398163397586
 42
2.356194490192466
  0
LINE
  5
3EB
330
6C
100
AcDbEntity
  8
Viditelná (ISO)
100
AcDbLine
 10
345.2737553857119
 20
482.0150688367979
 30
0.0
 11
342.8364805445917
 21
484.4899425709509
 31
0.0
  0
ELLIPSE
  5
3EC
330
6C
100
AcDbEntity
  8
Viditelná (ISO)
100
AcDbEllipse
 10
342.1401163042716
 20
478.8330883214583
 30
0.0
 11
0.0000000000000063
 21
4.500000000000111
 31
0.0
210
0.0
220
0.0
230
1.0
 40
0.9848077530122379
 41
4.712388980384691
 42
5.497787143782142
  0
LINE
  5
3ED
330
6C
100
AcDbEntity
  8
Viditelná (ISO)
100
AcDbLine
 10
346.5717511928269
 20
462.3455961437388
 30
0.0
 11
346.5717511928268
 21
478.8330883214584
 31
0.0
  0
LINE
  5
3EE
330
6C
100
AcDbEntity
  8
Viditelná (ISO)
100
AcDbLine
 10
347.5565589458391
 20
478.8330883214583
 30
0.0
 11
347.5565589458391
 21
462.3455961437388
 31
0.0
  0
ELLIPSE
  5
3EF
330
6C
100
AcDbEntity
  8
Viditelná (ISO)
100
AcDbEllipse
 10
342.1401163042716
 20
478.8330883214583
 30
0.0
 11
-0.000000000000692
 21
-5.500000000000151
 31
0.0
210
0.0
220
0.0
230
1.0
 40
0.9848077530122379
 41
1.57079632679502
 42
2.356194490192484
  0
LINE
  5
3F0
330
6C
100
AcDbEntity
  8
Viditelná (ISO)
100
AcDbLine
 10
343.5328447849117
 20
485.1970493521374
 30
0.0
 11
345.9701196260319
 21
482.7221756179845
 31
0.0
  0
ELLIPSE
  5
3F1
330
6C
100
AcDbEntity
  8
Viditelná (ISO)
100
AcDbEllipse
 10
347.3628481066721
 20
489.0861366486636
 30
0.0
 11
0.0000000000004385
 21
-5.500000000000206
 31
0.0
210
0.0
220
0.0
230
1.0
 40
0.9848077530122381
 41
3.926990816987164
 42
5.497787143782052
  0
LINE
  5
3F2
330
6C
100
AcDbEntity
  8
Viditelná (ISO)
100
AcDbLine
 10
345.9701196260319
 20
495.4500976793427
 30
0.0
 11
343.5328447849117
 21
492.9752239451897
 31
0.0
  0
ELLIPSE
  5
3F3
330
6C
100
AcDbEntity
  8
Viditelná (ISO)
100
AcDbEllipse
 10
342.1401163042716
 20
499.3391849758689
 30
0.0
 11
-0.0000000000006832
 21
-5.500000000000177
 31
0.0
210
0.0
220
0.0
230
1.0
 40
0.9848077530122377
 41
0.785398163397578
 42
2.356194490192466
  0
LINE
  5
3F4
330
6C
100
AcDbEntity
  8
Viditelná (ISO)
100
AcDbLine
 10
343.5328447849117
 20
505.703146006548
 30
0.0
 11
345.9701196260319
 21
503.228272272395
 31
0.0
  0
ELLIPSE
  5
3F5
330
6C
100
AcDbEntity
  8
Viditelná (ISO)
100
AcDbEllipse
 10
347.362848106672
 20
509.5922333030741
 30
0.0
 11
0.0000000000004325
 21
-5.500000000000177
 31
0.0
210
0.0
220
0.0
230
1.0
 40
0.9848077530122377
 41
3.926990816987164
 42
5.497787143782053
  0
LINE
  5
3F6
330
6C
100
AcDbEntity
  8
Viditelná (ISO)
100
AcDbLine
 10
345.9701196260319
 20
515.9561943337532
 30
0.0
 11
343.5328447849116
 21
513.4813205996002
 31
0.0
  0
ELLIPSE
  5
3F7
330
6C
100
AcDbEntity
  8
Viditelná (ISO)
100
AcDbEllipse
 10
342.1401163042715
 20
519.8452816302793
 30
0.0
 11
-0.0000000000006999
 21
-5.50000000000016
 31
0.0
210
0.0
220
0.0
230
1.0
 40
0.9848077530122379
 41
0.7853981633975887
 42
2.356194490192486
  0
LINE
  5
3F8
330
6C
100
AcDbEntity
  8
Viditelná (ISO)
100
AcDbLine
 10
343.5328447849116
 20
526.2092426609584
 30
0.0
 11
345.9701196260319
 21
523.7343689268055
 31
0.0
  0
ELLIPSE
  5
3F9
330
6C
100
AcDbEntity
  8
Viditelná (ISO)
100
AcDbEllipse
 10
347.3628481066719
 20
530.0983299574847
 30
0.0
 11
0.0000000000004348
 21
-5.500000000000178
 31
0.0
210
0.0
220
0.0
230
1.0
 40
0.9848077530122381
 41
3.926990816987171
 42
5.497787143782069
  0
LINE
  5
3FA
330
6C
100
AcDbEntity
  8
Viditelná (ISO)
100
AcDbLine
 10
345.9701196260318
 20
536.4622909881638
 30
0.0
 11
343.5328447849116
 21
533.9874172540106
 31
0.0
  0
ELLIPSE
  5
3FB
330
6C
100
AcDbEntity
  8
Viditelná (ISO)
100
AcDbEllipse
 10
342.1401163042714
 20
540.3513782846898
 30
0.0
 11
0.0000000000000137
 21
-5.500000000000166
 31
0.0
210
0.0
220
0.0
230
1.0
 40
0.9848077530122381
 41
0.7853981633974421
 42
1.570796326794893
  0
LINE
  5
3FC
330
6C
100
AcDbEntity
  8
Viditelná (ISO)
100
AcDbLine
 10
347.5565589458389
 20
560.3330883214608
 30
0.0
 11
347.556558945839
 21
540.3513782846898
 31
0.0
  0
LINE
  5
3FD
330
6C
100
AcDbEntity
  8
Viditelná (ISO)
100
AcDbLine
 10
351.8977633875124
 20
582.3330883214615
 30
0.0
 11
347.5565589458388
 21
582.3330883214615
 31
0.0
  0
LINE
  5
3FE
330
6C
100
AcDbEntity
  8
Viditelná (ISO)
100
AcDbLine
 10
351.8977633875124
 20
582.3330883214615
 30
0.0
 11
351.8977633875124
 21
572.3330883214613
 31
0.0
  0
LINE
  5
412
330
6C
100
AcDbEntity
  8
Viditelná (ISO)
100
AcDbLine
 10
346.5717511928269
 20
462.3455961437388
 30
0.0
 11
347.5565589458391
 21
462.3455961437388
 31
0.0
  0
ELLIPSE
  5
413
330
6C
100
AcDbEntity
  8
Viditelná (ISO)
100
AcDbEllipse
 10
349.7271611666759
 20
472.3330883214582
 30
0.0
 11
0.0000000000000338
 21
-16.00000000000049
 31
0.0
210
0.0
220
0.0
230
1.0
 40
0.1736481776669392
 41
5.386519487052005
 42
7.179851127307157
  0
ELLIPSE
  5
414
330
6C
100
AcDbEntity
  8
Viditelná (ISO)
100
AcDbEllipse
 10
348.7423534136636
 20
472.3330883214582
 30
0.0
 11
0.0000000000000376
 21
-16.00000000000049
 31
0.0
210
0.0
220
0.0
230
1.0
 40
0.1736481776669392
 41
5.386519487051959
 42
6.283185307179511
  0
LINE
  5
415
330
6C
100
AcDbEntity
  8
Viditelná (ISO)
100
AcDbLine
 10
349.7271611666759
 20
456.3330883214577
 30
0.0
 11
348.7423534136636
 21
456.3330883214577
 31
0.0
  0
ELLIPSE
  5
416
330
6C
100
AcDbEntity
  8
Viditelná (ISO)
100
AcDbEllipse
 10
348.7423534136636
 20
468.8330883214581
 30
0.0
 11
-0.0000000000001202
 21
6.000000000000174
 31
0.0
210
0.0
220
0.0
230
1.0
 40
0.1736481776669392
 41
3.633839106605552
 42
5.790938854153387
  0
ELLIPSE
  5
417
330
6C
100
AcDbEntity
  8
Viditelná (ISO)
100
AcDbEllipse
 10
349.7271611666759
 20
468.8330883214581
 30
0.0
 11
0.000000000000015
 21
-6.000000000000181
 31
0.0
210
0.0
220
0.0
230
1.0
 40
0.1736481776669392
 41
0.0
 42
6.283185307179584
  0
ELLIPSE
  5
428
330
6C
100
AcDbEntity
  8
Viditelná (ISO)
100
AcDbEllipse
 10
245.81906362483
 20
574.8330883214617
 30
0.0
 11
-0.0000000000024971
 21
-9.000000000000005
 31
0.0
210
0.0
220
0.0
230
1.0
 40
0.9982977986380255
 41
5.735534291720404
 42
6.827358644267071
  0
ELLIPSE
  5
429
330
6C
100
AcDbEntity
  8
Viditelná (ISO)
100
AcDbEllipse
 10
245.81906362483
 20
574.8330883214617
 30
0.0
 11
0.0000000000020574
 21
9.000000000000003
 31
0.0
210
0.0
220
0.0
230
1.0
 40
0.9982977986380259
 41
6.124503895681376
 42
6.83083632263871
  0
ELLIPSE
  5
42A
330
6C
100
AcDbEntity
  8
Viditelná (ISO)
100
AcDbEllipse
 10
245.7607412000307
 20
574.8330883214617
 30
0.0
 11
-0.0000000000024202
 21
-8.499999999999978
 31
0.0
210
0.0
220
0.0
230
1.0
 40
0.9982977986380257
 41
0.0
 42
0.4373378917479603
  0
ELLIPSE
  5
42B
330
6C
100
AcDbEntity
  8
Viditelná (ISO)
100
AcDbEllipse
 10
245.7607412000307
 20
574.8330883214618
 30
0.0
 11
0.0000000000020879
 21
8.499999999999863
 31
0.0
210
0.0
220
0.0
230
1.0
 40
0.9982977986380262
 41
6.108107697934311
 42
6.283185307179549
  0
ELLIPSE
  5
42C
330
6C
100
AcDbEntity
  8
Viditelná (ISO)
100
AcDbEllipse
 10
244.7692599784424
 20
574.8330883214619
 30
0.0
 11
-0.0000000000020655
 21
-8.500000000000008
 31
0.0
210
0.0
220
0.0
230
1.0
 40
0.9982977986380261
 41
0.0
 42
6.283185307179586
  0
ELLIPSE
  5
42D
330
6C
100
AcDbEntity
  8
Viditelná (ISO)
100
AcDbEllipse
 10
244.6526151288437
 20
574.8330883214619
 30
0.0
 11
-0.0000000000018804
 21
-7.500000000000007
 31
0.0
210
0.0
220
0.0
230
0.9999999999999998
 40
0.9982977986380261
 41
0.0
 42
6.283185307179586
  0
LINE
  5
42E
330
6C
100
AcDbEntity
  8
Viditelná (ISO)
100
AcDbLine
 10
245.7607412000283
 20
566.3330883214617
 30
0.0
 11
244.76925997844
 21
566.3330883214618
 31
0.0
  0
LINE
  5
42F
330
6C
100
AcDbEntity
  8
Viditelná (ISO)
100
AcDbLine
 10
245.7607412000331
 20
583.3330883214615
 30
0.0
 11
244.7692599784448
 21
583.333088321462
 31
0.0
  0
LINE
  5
451
330
6C
100
AcDbEntity
  8
Viditelná (ISO)
100
AcDbLine
 10
178.2058670391579
 20
552.8330883214595
 30
0.0
 11
173.2387897419567
 21
552.8330883214595
 31
0.0
  0
LINE
  5
452
330
6C
100
AcDbEntity
  8
Viditelná (ISO)
100
AcDbLine
 10
330.2387897419653
 20
552.8330883214595
 30
0.0
 11
197.9997657268198
 21
552.8330883214595
 31
0.0
  0
LINE
  5
453
330
6C
100
AcDbEntity
  8
Viditelná (ISO)
100
AcDbLine
 10
181.9391058621896
 20
562.8330883214597
 30
0.0
 11
163.4887897419562
 21
562.8330883214597
 31
0.0
  0
LINE
  5
454
330
6C
100
AcDbEntity
  8
Viditelná (ISO)
100
AcDbLine
 10
339.9887897419658
 20
562.8330883214597
 30
0.0
 11
194.266526903788
 21
562.8330883214597
 31
0.0
  0
LINE
  5
455
330
6C
100
AcDbEntity
  8
Viditelná (ISO)
100
AcDbLine
 10
347.5246959768959
 20
574.8330883214602
 30
0.0
 11
335.4347492348557
 21
574.8330883214602
 31
0.0
  0
LINE
  5
456
330
6C
100
AcDbEntity
  8
Viditelná (ISO)
100
AcDbLine
 10
351.8525786843126
 20
574.8330883214602
 30
0.0
 11
347.6017436490494
 21
574.8330883214602
 31
0.0
  0
LINE
  5
457
330
6C
100
AcDbEntity
  8
Viditelná (ISO)
100
AcDbLine
 10
351.9887897419664
 20
574.8330883214602
 30
0.0
 11
351.8977633875179
 21
574.8330883214602
 31
0.0
  0
LINE
  5
458
330
6C
100
AcDbEntity
  8
Viditelná (ISO)
100
AcDbLine
 10
168.0428302490609
 20
574.8330883214602
 30
0.0
 11
151.4887897419555
 21
574.8330883214602
 31
0.0
  0
LINE
  5
459
330
6C
100
AcDbEntity
  8
Viditelná (ISO)
100
AcDbLine
 10
178.2058670391586
 20
574.8330883214602
 30
0.0
 11
177.0428302490614
 21
574.8330883214602
 31
0.0
  0
LINE
  5
45A
330
6C
100
AcDbEntity
  8
Viditelná (ISO)
100
AcDbLine
 10
197.1576469679697
 20
574.8330883214602
 30
0.0
 11
178.4051981883214
 21
574.8330883214602
 31
0.0
  0
LINE
  5
45B
330
6C
100
AcDbEntity
  8
Viditelná (ISO)
100
AcDbLine
 10
236.2837286900187
 20
574.8330883214602
 30
0.0
 11
197.3777751930957
 21
574.8330883214602
 31
0.0
  0
LINE
  5
45C
330
6C
100
AcDbEntity
  8
Viditelná (ISO)
100
AcDbLine
 10
326.4347492348552
 20
574.8330883214602
 30
0.0
 11
256.2387897419575
 21
574.8330883214602
 31
0.0
  0
LINE
  5
45D
330
6C
100
AcDbEntity
  8
Viditelná (ISO)
100
AcDbLine
 10
173.2387897419567
 20
552.8330883214595
 30
0.0
 11
173.2387897419567
 21
558.8330883214597
 31
0.0
  0
LINE
  5
45E
330
6C
100
AcDbEntity
  8
Viditelná (ISO)
100
AcDbLine
 10
330.2387897419653
 20
552.8330883214595
 30
0.0
 11
330.2387897419653
 21
558.8330883214597
 31
0.0
  0
ARC
  5
45F
330
6C
100
AcDbEntity
  8
Viditelná (ISO)
100
AcDbCircle
 10
334.2387897419655
 20
558.8330883214597
 30
0.0
 40
4.000000000000216
100
AcDbArc
 50
90.0
 51
180.0
  0
ARC
  5
460
330
6C
100
AcDbEntity
  8
Viditelná (ISO)
100
AcDbCircle
 10
169.2387897419565
 20
558.8330883214597
 30
0.0
 40
4.000000000000217
100
AcDbArc
 50
0.0
 51
90.0
  0
ARC
  5
461
330
6C
100
AcDbEntity
  8
Viditelná (ISO)
100
AcDbCircle
 10
339.9887897419656
 20
574.8330883214602
 30
0.0
 40
12.00000000000065
100
AcDbArc
 50
352.9383612913162
 51
0.0
  0
ARC
  5
462
330
6C
100
AcDbEntity
  8
Viditelná (ISO)
100
AcDbCircle
 10
339.9887897419656
 20
574.8330883214602
 30
0.0
 40
12.00000000000064
100
AcDbArc
 50
338.1448996114297
 51
347.4546220543914
  0
ARC
  5
463
330
6C
100
AcDbEntity
  8
Viditelná (ISO)
100
AcDbCircle
 10
339.9887897419656
 20
574.8330883214602
 30
0.0
 40
12.00000000000053
100
AcDbArc
 50
270.0000000000017
 51
309.3962603612327
  0
ARC
  5
464
330
6C
100
AcDbEntity
  8
Viditelná (ISO)
100
AcDbCircle
 10
163.4887897419562
 20
574.8330883214602
 30
0.0
 40
12.00000000000065
100
AcDbArc
 50
180.0
 51
270.0000000000003
  0
LINE
  5
47B
330
6C
100
AcDbEntity
  8
Viditelná (ISO)
100
AcDbLine
 10
396.4387897419652
 20
592.8330883214619
 30
0.0
 11
107.0387897419562
 21
592.8330883214619
 31
0.0
  0
LINE
  5
47C
330
6C
100
AcDbEntity
  8
Viditelná (ISO)
100
AcDbLine
 10
396.4387897419653
 20
591.3330883214617
 30
0.0
 11
107.0387897419563
 21
591.3330883214617
 31
0.0
  0
LINE
  5
47D
330
6C
100
AcDbEntity
  8
Viditelná (ISO)
100
AcDbLine
 10
153.2387897419579
 20
574.8330883214602
 30
0.0
 11
153.2387897419577
 21
585.8330883214612
 31
0.0
  0
LINE
  5
47E
330
6C
100
AcDbEntity
  8
Viditelná (ISO)
100
AcDbLine
 10
350.238789741964
 20
582.3330883214596
 30
0.0
 11
350.2387897419638
 21
585.8330883214612
 31
0.0
  0
LINE
  5
47F
330
6C
100
AcDbEntity
  8
Viditelná (ISO)
100
AcDbLine
 10
129.5601100855166
 20
588.2117679779017
 30
0.0
 11
126.8781295701771
 21
590.8937484932415
 31
0.0
  0
LINE
  5
480
330
6C
100
AcDbEntity
  8
Viditelná (ISO)
100
AcDbLine
 10
373.917469398405
 20
588.2117679779017
 30
0.0
 11
376.5994499137445
 21
590.8937484932415
 31
0.0
  0
LINE
  5
481
330
6C
100
AcDbEntity
  8
Viditelná (ISO)
100
AcDbLine
 10
107.0387897419562
 20
591.3330883214617
 30
0.0
 11
107.0387897419562
 21
592.8330883214619
 31
0.0
  0
LINE
  5
482
330
6C
100
AcDbEntity
  8
Viditelná (ISO)
100
AcDbLine
 10
396.4387897419653
 20
591.3330883214617
 30
0.0
 11
396.4387897419652
 21
592.8330883214619
 31
0.0
  0
LINE
  5
484
330
6C
100
AcDbEntity
  8
Viditelná (ISO)
100
AcDbLine
 10
371.7961490548453
 20
587.3330883214614
 30
0.0
 11
131.6814304290763
 21
587.3330883214614
 31
0.0
  0
ARC
  5
485
330
6C
100
AcDbEntity
  8
Viditelná (ISO)
100
AcDbCircle
 10
351.7387897419639
 20
585.8330883214612
 30
0.0
 40
1.50000000000013
100
AcDbArc
 50
90.0
 51
180.0
  0
ARC
  5
486
330
6C
100
AcDbEntity
  8
Viditelná (ISO)
100
AcDbCircle
 10
151.7387897419577
 20
585.8330883214612
 30
0.0
 40
1.50000000000013
100
AcDbArc
 50
0.0
 51
90.00000000000225
  0
ARC
  5
487
330
6C
100
AcDbEntity
  8
Viditelná (ISO)
100
AcDbCircle
 10
371.7961490548452
 20
590.3330883214616
 30
0.0
 40
3.000000000000193
100
AcDbArc
 50
269.9999999999978
 51
314.9999999999959
  0
ARC
  5
488
330
6C
100
AcDbEntity
  8
Viditelná (ISO)
100
AcDbCircle
 10
131.6814304290763
 20
590.3330883214616
 30
0.0
 40
3.000000000000261
100
AcDbArc
 50
225.0000000000035
 51
270.0000000000011
  0
ARC
  5
489
330
6C
100
AcDbEntity
  8
Viditelná (ISO)
100
AcDbCircle
 10
377.6601100855243
 20
589.8330883214614
 30
0.0
 40
1.500000000000096
100
AcDbArc
 50
89.99999999999548
 51
134.9999999999936
  0
ARC
  5
48A
330
6C
100
AcDbEntity
  8
Viditelná (ISO)
100
AcDbCircle
 10
125.8174693983972
 20
589.8330883214615
 30
0.0
 40
1.50000000000013
100
AcDbArc
 50
45.00000000000159
 51
90.00000000000058
  0
LINE
  5
4B3
330
6C
100
AcDbEntity
  8
Viditelná (ISO)
100
AcDbLine
 10
178.2058670391556
 20
551.3330883214601
 30
0.0
 11
173.2387897419552
 21
551.33308832146
 31
0.0
  0
LINE
  5
4B4
330
6C
100
AcDbEntity
  8
Viditelná (ISO)
100
AcDbLine
 10
330.2387897419667
 20
551.3330883214588
 30
0.0
 11
197.9997657268172
 21
551.33308832146
 31
0.0
  0
LINE
  5
4B5
330
6C
100
AcDbEntity
  8
Viditelná (ISO)
100
AcDbLine
 10
178.2058670391556
 20
552.8330883214602
 30
0.0
 11
173.2387897419552
 21
552.83308832146
 31
0.0
  0
LINE
  5
4B6
330
6C
100
AcDbEntity
  8
Viditelná (ISO)
100
AcDbLine
 10
330.2387897419667
 20
552.8330883214589
 30
0.0
 11
197.9997657268172
 21
552.83308832146
 31
0.0
  0
LINE
  5
4B7
330
6C
100
AcDbEntity
  8
Viditelná (ISO)
100
AcDbLine
 10
180.9202996101117
 20
492.8330883214571
 30
0.0
 11
180.7387897419555
 21
492.8330883214571
 31
0.0
  0
LINE
  5
4B8
330
6C
100
AcDbEntity
  8
Viditelná (ISO)
100
AcDbLine
 10
322.7387897419664
 20
492.833088321456
 30
0.0
 11
200.8974786751763
 21
492.8330883214571
 31
0.0
  0
ARC
  5
4B9
330
6C
100
AcDbEntity
  8
Viditelná (ISO)
100
AcDbCircle
 10
327.2387897419668
 20
546.6502121800457
 30
0.0
 40
4.500000000000331
100
AcDbArc
 50
95.00000000000033
 51
180.0
  0
ARC
  5
4BA
330
6C
100
AcDbEntity
  8
Viditelná (ISO)
100
AcDbCircle
 10
176.2387897419553
 20
546.650212180047
 30
0.0
 40
4.500000000000334
100
AcDbArc
 50
64.07920231934294
 51
85.00000000000039
  0
LINE
  5
4BB
330
6C
100
AcDbEntity
  8
Viditelná (ISO)
100
AcDbLine
 10
176.6309905843197
 20
551.13308832146
 30
0.0
 11
174.3449801237673
 21
551.33308832146
 31
0.0
  0
LINE
  5
4BC
330
6C
100
AcDbEntity
  8
Viditelná (ISO)
100
AcDbLine
 10
326.8465888996022
 20
551.1330883214589
 30
0.0
 11
329.1325993601546
 21
551.3330883214588
 31
0.0
  0
LINE
  5
4BD
330
6C
100
AcDbEntity
  8
Viditelná (ISO)
100
AcDbLine
 10
173.2387897419552
 20
551.33308832146
 30
0.0
 11
173.2387897419552
 21
552.83308832146
 31
0.0
  0
LINE
  5
4BE
330
6C
100
AcDbEntity
  8
Viditelná (ISO)
100
AcDbLine
 10
330.2387897419667
 20
551.3330883214588
 30
0.0
 11
330.2387897419667
 21
552.8330883214589
 31
0.0
  0
LINE
  5
4BF
330
6C
100
AcDbEntity
  8
Viditelná (ISO)
100
AcDbLine
 10
180.7387897419556
 20
492.8330883214571
 30
0.0
 11
180.7387897419556
 21
493.1204821824796
 31
0.0
  0
LINE
  5
4C0
330
6C
100
AcDbEntity
  8
Viditelná (ISO)
100
AcDbLine
 10
180.7387897419556
 20
505.5578877692643
 30
0.0
 11
180.7387897419556
 21
513.6265788368905
 31
0.0
  0
LINE
  5
4C1
330
6C
100
AcDbEntity
  8
Viditelná (ISO)
100
AcDbLine
 10
180.7387897419556
 20
526.0639844236753
 30
0.0
 11
180.7387897419556
 21
534.1326754913013
 31
0.0
  0
LINE
  5
4C2
330
6C
100
AcDbEntity
  8
Viditelná (ISO)
100
AcDbLine
 10
322.7387897419664
 20
492.833088321456
 30
0.0
 11
322.7387897419664
 21
546.6502121800457
 31
0.0
  0
CIRCLE
  5
502
330
6C
100
AcDbEntity
  8
Viditelná (ISO)
100
AcDbCircle
 10
330.9347492347861
 20
310.5964787590224
 30
0.0
 40
4.714999999999801
  0
LINE
  5
503
330
6C
100
AcDbEntity
  8
Viditelná (ISO)
100
AcDbLine
 10
331.9962829121251
 20
309.2278494257568
 30
0.0
 11
330.2802483024831
 21
308.9928489608413
 31
0.0
  0
LINE
  5
504
330
6C
100
AcDbEntity
  8
Viditelná (ISO)
100
AcDbLine
 10
330.2802483024831
 20
308.9928489608413
 30
0.0
 11
329.218714625144
 21
310.3614782941069
 31
0.0
  0
LINE
  5
505
330
6C
100
AcDbEntity
  8
Viditelná (ISO)
100
AcDbLine
 10
329.218714625144
 20
310.3614782941069
 30
0.0
 11
329.873215557447
 21
311.9651080922879
 31
0.0
  0
LINE
  5
506
330
6C
100
AcDbEntity
  8
Viditelná (ISO)
100
AcDbLine
 10
329.873215557447
 20
311.9651080922879
 30
0.0
 11
331.5892501670891
 21
312.2001085572035
 31
0.0
  0
LINE
  5
507
330
6C
100
AcDbEntity
  8
Viditelná (ISO)
100
AcDbLine
 10
332.6507838444281
 20
310.8314792239379
 30
0.0
 11
331.996282912125
 21
309.2278494257568
 31
0.0
  0
LINE
  5
508
330
6C
100
AcDbEntity
  8
Viditelná (ISO)
100
AcDbLine
 10
331.5892501670891
 20
312.2001085572035
 30
0.0
 11
332.6507838444281
 21
310.8314792239379
 31
0.0
  0
CIRCLE
  5
50B
330
6C
100
AcDbEntity
  8
Viditelná (ISO)
100
AcDbCircle
 10
251.7387897418944
 20
343.4005192661317
 30
0.0
 40
4.714999999999802
  0
LINE
  5
50C
330
6C
100
AcDbEntity
  8
Viditelná (ISO)
100
AcDbLine
 10
253.4571744860816
 20
343.1833698453531
 30
0.0
 11
252.4099251991767
 21
341.8037797138007
 31
0.0
  0
LINE
  5
50D
330
6C
100
AcDbEntity
  8
Viditelná (ISO)
100
AcDbLine
 10
252.4099251991767
 20
341.8037797138007
 30
0.0
 11
250.6915404549895
 21
342.0209291345793
 31
0.0
  0
LINE
  5
50E
330
6C
100
AcDbEntity
  8
Viditelná (ISO)
100
AcDbLine
 10
250.6915404549895
 20
342.0209291345793
 30
0.0
 11
250.0204049977072
 21
343.6176686869103
 31
0.0
  0
LINE
  5
50F
330
6C
100
AcDbEntity
  8
Viditelná (ISO)
100
AcDbLine
 10
250.0204049977072
 20
343.6176686869103
 30
0.0
 11
251.0676542846121
 21
344.9972588184627
 31
0.0
  0
LINE
  5
510
330
6C
100
AcDbEntity
  8
Viditelná (ISO)
100
AcDbLine
 10
252.7860390287993
 20
344.7801093976841
 30
0.0
 11
253.4571744860816
 21
343.1833698453531
 31
0.0
  0
LINE
  5
511
330
6C
100
AcDbEntity
  8
Viditelná (ISO)
100
AcDbLine
 10
251.0676542846121
 20
344.9972588184627
 30
0.0
 11
252.7860390287993
 21
344.7801093976841
 31
0.0
  0
CIRCLE
  5
514
330
6C
100
AcDbEntity
  8
Viditelná (ISO)
100
AcDbCircle
 10
172.5428302490004
 20
310.5964787590281
 30
0.0
 40
4.714999999999801
  0
LINE
  5
515
330
6C
100
AcDbEntity
  8
Viditelná (ISO)
100
AcDbLine
 10
173.9114595822659
 20
311.6580124363671
 30
0.0
 11
174.1464600471815
 21
309.9419778267251
 31
0.0
  0
LINE
  5
516
330
6C
100
AcDbEntity
  8
Viditelná (ISO)
100
AcDbLine
 10
174.1464600471815
 20
309.9419778267251
 30
0.0
 11
172.7778307139159
 21
308.8804441493861
 31
0.0
  0
LINE
  5
517
330
6C
100
AcDbEntity
  8
Viditelná (ISO)
100
AcDbLine
 10
172.7778307139159
 20
308.8804441493861
 30
0.0
 11
171.1742009157349
 21
309.5349450816891
 31
0.0
  0
LINE
  5
518
330
6C
100
AcDbEntity
  8
Viditelná (ISO)
100
AcDbLine
 10
171.1742009157349
 20
309.5349450816891
 30
0.0
 11
170.9392004508194
 21
311.2509796913311
 31
0.0
  0
LINE
  5
519
330
6C
100
AcDbEntity
  8
Viditelná (ISO)
100
AcDbLine
 10
172.3078297840849
 20
312.3125133686701
 30
0.0
 11
173.9114595822659
 21
311.6580124363671
 31
0.0
  0
LINE
  5
51A
330
6C
100
AcDbEntity
  8
Viditelná (ISO)
100
AcDbLine
 10
170.9392004508194
 20
311.2509796913311
 30
0.0
 11
172.3078297840849
 21
312.3125133686701
 31
0.0
  0
CIRCLE
  5
51D
330
6C
100
AcDbEntity
  8
Viditelná (ISO)
100
AcDbCircle
 10
139.7387897418911
 20
231.4005192661365
 30
0.0
 40
4.714999999999802
  0
LINE
  5
51E
330
6C
100
AcDbEntity
  8
Viditelná (ISO)
100
AcDbLine
 10
139.9559391626697
 20
233.1189040103236
 30
0.0
 11
141.3355292942221
 21
232.0716547234188
 31
0.0
  0
LINE
  5
51F
330
6C
100
AcDbEntity
  8
Viditelná (ISO)
100
AcDbLine
 10
141.3355292942221
 20
232.0716547234187
 30
0.0
 11
141.1183798734435
 21
230.3532699792316
 31
0.0
  0
LINE
  5
520
330
6C
100
AcDbEntity
  8
Viditelná (ISO)
100
AcDbLine
 10
141.1183798734435
 20
230.3532699792316
 30
0.0
 11
139.5216403211125
 21
229.6821345219493
 31
0.0
  0
LINE
  5
521
330
6C
100
AcDbEntity
  8
Viditelná (ISO)
100
AcDbLine
 10
139.5216403211125
 20
229.6821345219493
 30
0.0
 11
138.14205018956
 21
230.7293838088542
 31
0.0
  0
LINE
  5
522
330
6C
100
AcDbEntity
  8
Viditelná (ISO)
100
AcDbLine
 10
138.3591996103387
 20
232.4477685530414
 30
0.0
 11
139.9559391626697
 21
233.1189040103236
 31
0.0
  0
LINE
  5
523
330
6C
100
AcDbEntity
  8
Viditelná (ISO)
100
AcDbLine
 10
138.14205018956
 20
230.7293838088542
 30
0.0
 11
138.3591996103387
 21
232.4477685530414
 31
0.0
  0
CIRCLE
  5
526
330
6C
100
AcDbEntity
  8
Viditelná (ISO)
100
AcDbCircle
 10
172.5428302489947
 20
152.2045597732425
 30
0.0
 40
4.7149999999998
  0
LINE
  5
527
330
6C
100
AcDbEntity
  8
Viditelná (ISO)
100
AcDbLine
 10
171.4812965716557
 20
153.573189106508
 30
0.0
 11
173.1973311812977
 21
153.8081895714235
 31
0.0
  0
LINE
  5
528
330
6C
100
AcDbEntity
  8
Viditelná (ISO)
100
AcDbLine
 10
173.1973311812977
 20
153.8081895714235
 30
0.0
 11
174.2588648586367
 21
152.439560238158
 31
0.0
  0
LINE
  5
529
330
6C
100
AcDbEntity
  8
Viditelná (ISO)
100
AcDbLine
 10
174.2588648586367
 20
152.439560238158
 30
0.0
 11
173.6043639263337
 21
150.835930439977
 31
0.0
  0
LINE
  5
52A
330
6C
100
AcDbEntity
  8
Viditelná (ISO)
100
AcDbLine
 10
173.6043639263337
 20
150.835930439977
 30
0.0
 11
171.8883293166917
 21
150.6009299750614
 31
0.0
  0
LINE
  5
52B
330
6C
100
AcDbEntity
  8
Viditelná (ISO)
100
AcDbLine
 10
170.8267956393527
 20
151.9695593083269
 30
0.0
 11
171.4812965716557
 21
153.573189106508
 31
0.0
  0
LINE
  5
52C
330
6C
100
AcDbEntity
  8
Viditelná (ISO)
100
AcDbLine
 10
171.8883293166917
 20
150.6009299750614
 30
0.0
 11
170.8267956393527
 21
151.969559308327
 31
0.0
  0
CIRCLE
  5
52F
330
6C
100
AcDbEntity
  8
Viditelná (ISO)
100
AcDbCircle
 10
251.7387897418863
 20
119.4005192661331
 30
0.0
 40
4.714999999999801
  0
LINE
  5
530
330
6C
100
AcDbEntity
  8
Viditelná (ISO)
100
AcDbLine
 10
250.0204049976991
 20
119.6176686869117
 30
0.0
 11
251.0676542846041
 21
120.9972588184642
 31
0.0
  0
LINE
  5
531
330
6C
100
AcDbEntity
  8
Viditelná (ISO)
100
AcDbLine
 10
251.0676542846041
 20
120.9972588184642
 30
0.0
 11
252.7860390287913
 21
120.7801093976856
 31
0.0
  0
LINE
  5
532
330
6C
100
AcDbEntity
  8
Viditelná (ISO)
100
AcDbLine
 10
252.7860390287913
 20
120.7801093976856
 30
0.0
 11
253.4571744860735
 21
119.1833698453546
 31
0.0
  0
LINE
  5
533
330
6C
100
AcDbEntity
  8
Viditelná (ISO)
100
AcDbLine
 10
253.4571744860735
 20
119.1833698453546
 30
0.0
 11
252.4099251991686
 21
117.8037797138021
 31
0.0
  0
LINE
  5
534
330
6C
100
AcDbEntity
  8
Viditelná (ISO)
100
AcDbLine
 10
250.6915404549815
 20
118.0209291345807
 30
0.0
 11
250.0204049976991
 21
119.6176686869117
 31
0.0
  0
LINE
  5
535
330
6C
100
AcDbEntity
  8
Viditelná (ISO)
100
AcDbLine
 10
252.4099251991686
 20
117.8037797138021
 30
0.0
 11
250.6915404549815
 21
118.0209291345807
 31
0.0
  0
CIRCLE
  5
538
330
6C
100
AcDbEntity
  8
Viditelná (ISO)
100
AcDbCircle
 10
330.9347492347803
 20
152.2045597732368
 30
0.0
 40
4.714999999999801
  0
LINE
  5
539
330
6C
100
AcDbEntity
  8
Viditelná (ISO)
100
AcDbLine
 10
329.5661199015147
 20
151.1430260958977
 30
0.0
 11
329.3311194365992
 21
152.8590607055398
 31
0.0
  0
LINE
  5
53A
330
6C
100
AcDbEntity
  8
Viditelná (ISO)
100
AcDbLine
 10
329.3311194365992
 20
152.8590607055398
 30
0.0
 11
330.6997487698648
 21
153.9205943828787
 31
0.0
  0
LINE
  5
53B
330
6C
100
AcDbEntity
  8
Viditelná (ISO)
100
AcDbLine
 10
330.6997487698648
 20
153.9205943828787
 30
0.0
 11
332.3033785680459
 21
153.2660934505758
 31
0.0
  0
LINE
  5
53C
330
6C
100
AcDbEntity
  8
Viditelná (ISO)
100
AcDbLine
 10
332.3033785680459
 20
153.2660934505758
 30
0.0
 11
332.5383790329614
 21
151.5500588409337
 31
0.0
  0
LINE
  5
53D
330
6C
100
AcDbEntity
  8
Viditelná (ISO)
100
AcDbLine
 10
331.1697496996958
 20
150.4885251635947
 30
0.0
 11
329.5661199015148
 21
151.1430260958977
 31
0.0
  0
LINE
  5
53E
330
6C
100
AcDbEntity
  8
Viditelná (ISO)
100
AcDbLine
 10
332.5383790329614
 20
151.5500588409337
 30
0.0
 11
331.1697496996958
 21
150.4885251635947
 31
0.0
  0
CIRCLE
  5
541
330
6C
100
AcDbEntity
  8
Viditelná (ISO)
100
AcDbCircle
 10
363.7387897418897
 20
231.4005192661284
 30
0.0
 40
4.714999999999802
  0
LINE
  5
542
330
6C
100
AcDbEntity
  8
Viditelná (ISO)
100
AcDbLine
 10
363.5216403211111
 20
229.6821345219412
 30
0.0
 11
362.1420501895587
 21
230.7293838088461
 31
0.0
  0
LINE
  5
543
330
6C
100
AcDbEntity
  8
Viditelná (ISO)
100
AcDbLine
 10
362.1420501895587
 20
230.7293838088461
 30
0.0
 11
362.3591996103372
 21
232.4477685530333
 31
0.0
  0
LINE
  5
544
330
6C
100
AcDbEntity
  8
Viditelná (ISO)
100
AcDbLine
 10
362.3591996103372
 20
232.4477685530333
 30
0.0
 11
363.9559391626682
 21
233.1189040103156
 31
0.0
  0
LINE
  5
545
330
6C
100
AcDbEntity
  8
Viditelná (ISO)
100
AcDbLine
 10
363.9559391626682
 20
233.1189040103156
 30
0.0
 11
365.3355292942206
 21
232.0716547234106
 31
0.0
  0
LINE
  5
546
330
6C
100
AcDbEntity
  8
Viditelná (ISO)
100
AcDbLine
 10
365.118379873442
 20
230.3532699792234
 30
0.0
 11
363.5216403211111
 21
229.6821345219412
 31
0.0
  0
LINE
  5
547
330
6C
100
AcDbEntity
  8
Viditelná (ISO)
100
AcDbLine
 10
365.3355292942206
 20
232.0716547234106
 30
0.0
 11
365.118379873442
 21
230.3532699792234
 31
0.0
  0
CIRCLE
  5
5AC
330
6C
100
AcDbEntity
  8
Viditelná (ISO)
100
AcDbCircle
 10
251.7387897418905
 20
231.4005192661225
 30
0.0
 40
77.00000000000493
  0
CIRCLE
  5
5B0
330
6C
100
AcDbEntity
  8
Viditelná (ISO)
100
AcDbCircle
 10
251.7387897418903
 20
231.4005192661328
 30
0.0
 40
144.7000000000045
  0
CIRCLE
  5
5B3
330
6C
100
AcDbEntity
  8
Viditelná (ISO)
100
AcDbCircle
 10
251.7387897418902
 20
231.4005192661325
 30
0.0
 40
122.0000000000159
  0
CIRCLE
  5
5B4
330
6C
100
AcDbEntity
  8
Viditelná (ISO)
100
AcDbCircle
 10
330.9347492347896
 20
310.5964787590355
 30
0.0
 40
5.300000000000689
  0
CIRCLE
  5
5B5
330
6C
100
AcDbEntity
  8
Viditelná (ISO)
100
AcDbCircle
 10
251.7387897418933
 20
343.4005192661471
 30
0.0
 40
5.300000000000689
  0
CIRCLE
  5
5B6
330
6C
100
AcDbEntity
  8
Viditelná (ISO)
100
AcDbCircle
 10
172.5428302489952
 20
310.5964787590369
 30
0.0
 40
5.300000000000689
  0
CIRCLE
  5
5B7
330
6C
100
AcDbEntity
  8
Viditelná (ISO)
100
AcDbCircle
 10
139.7387897418848
 20
231.4005192661334
 30
0.0
 40
5.300000000000689
  0
CIRCLE
  5
5B8
330
6C
100
AcDbEntity
  8
Viditelná (ISO)
100
AcDbCircle
 10
172.5428302489908
 20
152.2045597732295
 30
0.0
 40
5.300000000000689
  0
CIRCLE
  5
5B9
330
6C
100
AcDbEntity
  8
Viditelná (ISO)
100
AcDbCircle
 10
251.7387897418871
 20
119.4005192661179
 30
0.0
 40
5.300000000000689
  0
CIRCLE
  5
5BA
330
6C
100
AcDbEntity
  8
Viditelná (ISO)
100
AcDbCircle
 10
330.9347492347852
 20
152.2045597732282
 30
0.0
 40
5.300000000000689
  0
CIRCLE
  5
5BB
330
6C
100
AcDbEntity
  8
Viditelná (ISO)
100
AcDbCircle
 10
363.7387897418956
 20
231.4005192661316
 30
0.0
 40
5.300000000000689
  0
CIRCLE
  5
5C4
330
6C
100
AcDbEntity
  8
Viditelná (ISO)
100
AcDbCircle
 10
251.7387897418902
 20
231.4005192661325
 30
0.0
 40
86.50000000001126
  0
CIRCLE
  5
5C8
330
6C
100
AcDbEntity
  8
Viditelná (ISO)
100
AcDbCircle
 10
251.7387897418905
 20
231.4005192661188
 30
0.0
 40
69.50000000000599
  0
DIMENSION
  5
6F0
330
6C
100
AcDbEntity
  8
Kóta (ISO)
100
AcDbDimension
  2
*D16
 10
95.71394233658152
 20
592.8330883214616
 30
0.0
 11
95.71394233658143
 21
540.6728705344419
 31
0.0
 70
   160
  1
<>
 42
100.0000000000044
  3
Výchozí (ISO)
100
AcDbAlignedDimension
 13
180.7387897419597
 23
492.8330883214571
 33
0.0
 14
107.038789741966
 24
592.8330883214616
 34
0.0
 50
90.0
100
AcDbRotatedDimension
1001
ACAD_DSTYLE_DIMINSPECT
1070
   396
1000
100%
1070
   395
1000

1070
   394
1070
    33
1070
   393
1070
     0
1001
ACAD
1000
DSTYLE
1002
{
1070
   286
1070
     0
1070
   284
1070
     8
1070
   274
1070
     3
1070
   272
1070
     2
1070
    48
1040
0.0
1070
    47
1040
0.0
1070
   172
1070
     0
1070
   289
1070
     1
1002
}
  0
DIMENSION
  5
8BD
330
6C
100
AcDbEntity
  8
Kóta (ISO)
100
AcDbDimension
  2
*D24
 10
322.7387897419623
 20
450.2876034241992
 30
0.0
 11
251.7387897419459
 21
450.2876034241992
 31
0.0
 70
   160
  1
{\fAIGDT|b0|i0;\H5.8333;\ln\fTahoma|b0|i0;\H5.8333;}<>
 42
142.0000000000027
  3
Výchozí (ISO)
100
AcDbAlignedDimension
 13
180.7387897419596
 23
492.8330883214571
 33
0.0
 14
322.7387897419623
 24
492.833088321456
 34
0.0
 50
180.0
100
AcDbRotatedDimension
1001
ACAD
1000
DSTYLE
1002
{
1070
   172
1070
     0
1070
   289
1070
     1
1070
   271
1070
     2
1070
   272
1070
     2
1070
    48
1040
0.0
1070
    47
1040
0.0
1002
}
  0
LINE
  5
28F3
330
6C
100
AcDbEntity
  8
Osa (ISO)
100
AcDbLine
 10
244.6526151288437
 20
585.6188892020099
 30
0.0
 11
244.6526151288437
 21
541.7961156617823
 31
0.0
  0
LINE
  5
28FB
330
6C
100
AcDbEntity
  8
Osa (ISO)
100
AcDbLine
 10
261.6451265896762
 20
574.8330883214619
 30
0.0
 11
231.9094387342107
 21
574.8330883214619
 31
0.0
  0
LINE
  5
2933
330
6C
100
AcDbEntity
  8
Osa (ISO)
100
AcDbLine
 10
251.7387897418905
 20
169.3689025420401
 30
0.0
 11
251.7387897418902
 21
291.8505808029795
 31
0.0
  0
LINE
  5
2934
330
6C
100
AcDbEntity
  8
Osa (ISO)
100
AcDbLine
 10
195.2817438398565
 20
228.9912539166634
 30
0.0
 11
313.3288155133842
 21
228.9912539166634
 31
0.0
  0
ENDSEC
  0
SECTION
  2
OBJECTS
  0
DICTIONARY
  5
C
330
0
100
AcDbDictionary
281
     1
  3
ACAD_COLOR
350
63
  3
ACAD_GROUP
350
D
  3
ACAD_LAYOUT
350
62
  3
ACAD_MATERIAL
350
10
  3
ACAD_MLEADERSTYLE
350
66
  3
ACAD_MLINESTYLE
350
5F
  3
ACAD_PLOTSETTINGS
350
61
  3
ACAD_PLOTSTYLENAME
350
E
  3
ACAD_SCALELIST
350
42
  3
ACAD_TABLESTYLE
350
64
  3
ACAD_VISUALSTYLE
350
29
  3
ACDB_RECOMPOSE_DATA
350
294B
  3
AcDbVariableDictionary
350
A91
  3
AcmDictionary
350
B02
  3
AEC_PROPERTY_SET_DEFS
350
19EB
  3
AMG
350
AA8
  3
AMGSNAPSETTINGS
350
19EE
  0
DICTIONARY
  5
A38
330
8
100
AcDbDictionary
280
     1
281
     1
  0
DICTIONARY
  5
2937
330
C8
100
AcDbDictionary
280
     1
281
     1
  3
ACAD_MTEXT_2008_RT
360
2938
  0
DICTIONARY
  5
A01
330
1E8
100
AcDbDictionary
280
     1
281
     1
  3
ACAD_MLATT
360
293A
  3
ACAD_XREC_ROUNDTRIP
360
2939
  0
DICTIONARY
  5
A04
330
1EC
100
AcDbDictionary
280
     1
281
     1
  3
ACAD_MLATT
360
293C
  3
ACAD_XREC_ROUNDTRIP
360
293B
  0
DICTIONARY
  5
A07
330
1ED
100
AcDbDictionary
280
     1
281
     1
  3
ACAD_MLATT
360
293E
  3
ACAD_XREC_ROUNDTRIP
360
293D
  0
DICTIONARY
  5
A0A
330
1EE
100
AcDbDictionary
280
     1
281
     1
  3
ACAD_MLATT
360
2940
  3
ACAD_XREC_ROUNDTRIP
360
293F
  0
DICTIONARY
  5
A0D
330
1EF
100
AcDbDictionary
280
     1
281
     1
  3
ACAD_MLATT
360
2942
  3
ACAD_XREC_ROUNDTRIP
360
2941
  0
DICTIONARY
  5
A10
330
1F1
100
AcDbDictionary
280
     1
281
     1
  3
ACAD_MLATT
360
2944
  3
ACAD_XREC_ROUNDTRIP
360
2943
  0
DICTIONARY
  5
A13
330
1F2
100
AcDbDictionary
280
     1
281
     1
  3
ACAD_MLATT
360
2946
  3
ACAD_XREC_ROUNDTRIP
360
2945
  0
DICTIONARY
  5
A16
330
1F3
100
AcDbDictionary
280
     1
281
     1
  3
ACAD_MLATT
360
2948
  3
ACAD_XREC_ROUNDTRIP
360
2947
  0
DICTIONARY
  5
A19
330
1F4
100
AcDbDictionary
280
     1
281
     1
  3
ACAD_MLATT
360
294A
  3
ACAD_XREC_ROUNDTRIP
360
2949
  0
DICTIONARY
  5
2950
330
7D9
100
AcDbDictionary
280
     1
281
     1
  3
ACAD_MTEXT_2008_RT
360
2951
  0
DICTIONARY
  5
2952
330
7DD
100
AcDbDictionary
280
     1
281
     1
  3
ACAD_MTEXT_2008_RT
360
2953
  0
DICTIONARY
  5
2954
330
7E1
100
AcDbDictionary
280
     1
281
     1
  3
ACAD_MTEXT_2008_RT
360
2955
  0
DICTIONARY
  5
2956
330
7EC
100
AcDbDictionary
280
     1
281
     1
  3
ACAD_MTEXT_2008_RT
360
2957
  0
DICTIONARY
  5
2958
330
7F3
100
AcDbDictionary
280
     1
281
     1
  3
ACAD_MTEXT_2008_RT
360
2959
  0
DICTIONARY
  5
295A
330
7FB
100
AcDbDictionary
280
     1
281
     1
  3
ACAD_MTEXT_2008_RT
360
295B
  0
DICTIONARY
  5
295C
330
802
100
AcDbDictionary
280
     1
281
     1
  3
ACAD_MTEXT_2008_RT
360
295D
  0
DICTIONARY
  5
295E
330
809
100
AcDbDictionary
280
     1
281
     1
  3
ACAD_MTEXT_2008_RT
360
295F
  0
DICTIONARY
  5
2960
330
810
100
AcDbDictionary
280
     1
281
     1
  3
ACAD_MTEXT_2008_RT
360
2961
  0
DICTIONARY
  5
2962
330
81F
100
AcDbDictionary
280
     1
281
     1
  3
ACAD_MTEXT_2008_RT
360
2963
  0
DICTIONARY
  5
2964
330
826
100
AcDbDictionary
280
     1
281
     1
  3
ACAD_MTEXT_2008_RT
360
2965
  0
DICTIONARY
  5
2966
330
831
100
AcDbDictionary
280
     1
281
     1
  3
ACAD_MTEXT_2008_RT
360
2967
  0
DICTIONARY
  5
2968
330
834
100
AcDbDictionary
280
     1
281
     1
  3
ACAD_MTEXT_2008_RT
360
2969
  0
DICTIONARY
  5
296A
330
83C
100
AcDbDictionary
280
     1
281
     1
  3
ACAD_MTEXT_2008_RT
360
296B
  0
DICTIONARY
  5
296C
330
840
100
AcDbDictionary
280
     1
281
     1
  3
ACAD_MTEXT_2008_RT
360
296D
  0
DICTIONARY
  5
63
102
{ACAD_REACTORS
330
C
102
}
330
C
100
AcDbDictionary
281
     1
  0
DICTIONARY
  5
D
102
{ACAD_REACTORS
330
C
102
}
330
C
100
AcDbDictionary
281
     1
  0
DICTIONARY
  5
62
102
{ACAD_REACTORS
330
C
102
}
330
C
100
AcDbDictionary
281
     1
  3
Layout1
350
6B
  3
Layout2
350
73
  3
Model
350
6F
  0
DICTIONARY
  5
10
102
{ACAD_REACTORS
330
C
102
}
330
C
100
AcDbDictionary
281
     1
  3
ByBlock
350
19
  3
ByLayer
350
11
  3
Global
350
21
  0
DICTIONARY
  5
66
102
{ACAD_REACTORS
330
C
102
}
330
C
100
AcDbDictionary
281
     1
  3
Standard
350
67
  0
DICTIONARY
  5
5F
102
{ACAD_REACTORS
330
C
102
}
330
C
100
AcDbDictionary
281
     1
  3
Standard
350
60
  0
DICTIONARY
  5
61
102
{ACAD_REACTORS
330
C
102
}
330
C
100
AcDbDictionary
281
     1
  0
ACDBDICTIONARYWDFLT
  5
E
102
{ACAD_REACTORS
330
C
102
}
330
C
100
AcDbDictionary
281
     1
  3
Normal
350
F
100
AcDbDictionaryWithDefault
340
F
  0
DICTIONARY
  5
42
102
{ACAD_REACTORS
330
C
102
}
330
C
100
AcDbDictionary
281
     1
  3
A0
350
43
  3
A1
350
44
  3
A2
350
45
  3
A3
350
46
  3
A4
350
47
  3
A5
350
48
  3
A6
350
49
  3
A7
350
4A
  3
A8
350
4B
  3
A9
350
4C
  3
B0
350
4D
  3
B1
350
4E
  3
B2
350
4F
  3
B3
350
50
  3
B4
350
51
  3
B5
350
52
  3
B6
350
53
  0
DICTIONARY
  5
64
102
{ACAD_REACTORS
330
C
102
}
330
C
100
AcDbDictionary
281
     1
  3
Standard
350
65
  0
DICTIONARY
  5
29
102
{ACAD_REACTORS
330
C
102
}
330
C
100
AcDbDictionary
281
     1
  3
2dWireframe
350
2F
  3
3D Hidden
350
A9C
  3
3dWireframe
350
A9B
  3
Basic
350
2E
  3
Brighten
350
35
  3
ColorChange
350
39
  3
Conceptual
350
32
  3
Dim
350
34
  3
EdgeColorOff
350
41
  3
Facepattern
350
38
  3
Flat
350
2A
  3
FlatWithEdges
350
2B
  3
Gouraud
350
2C
  3
GouraudWithEdges
350
2D
  3
Hidden
350
31
  3
JitterOff
350
3F
  3
Linepattern
350
37
  3
OverhangOff
350
40
  3
Realistic
350
33
  3
Shaded
350
3E
  3
Shaded with edges
350
3D
  3
Shades of Gray
350
3A
  3
Sketchy
350
3B
  3
Thicken
350
36
  3
Wireframe
350
30
  3
X-Ray
350
3C
  0
XRECORD
  5
294B
102
{ACAD_REACTORS
330
C
102
}
330
C
100
AcDbXrecord
280
     1
 90
        1
330
65
330
C8
330
1E8
330
1EC
330
1ED
330
1EE
330
1EF
330
1F1
330
1F2
330
1F3
330
1F4
  0
DICTIONARY
  5
A91
102
{ACAD_REACTORS
330
C
102
}
330
C
100
AcDbDictionary
281
     1
  3
CANNOSCALE
350
A95
  3
CMLEADERSTYLE
350
A93
  3
CTABLESTYLE
350
A92
  3
LAYEREVAL
350
A97
  3
LAYERNOTIFY
350
A98
  3
LIGHTINGUNITS
350
A96
  3
MSLTSCALE
350
A94
  3
XCLIPFRAME
350
2935
  0
DICTIONARY
  5
B02
102
{ACAD_REACTORS
330
C
102
}
330
C
100
AcDbDictionary
281
     1
  3
AcmStdDictionary
350
B0C
  0
DICTIONARY
  5
19EB
102
{ACAD_REACTORS
330
C
102
}
330
C
100
AcDbDictionary
281
     1
  0
DICTIONARY
  5
AA8
102
{ACAD_REACTORS
330
C
102
}
330
C
100
AcDbDictionary
281
     1
  0
DICTIONARY
  5
19EE
102
{ACAD_REACTORS
330
C
102
}
330
C
100
AcDbDictionary
281
     1
  0
XRECORD
  5
2938
102
{ACAD_REACTORS
330
2937
102
}
330
2937
100
AcDbXrecord
280
     1
 40
2697178.0
  1
\pxsm0,94;WIG Schweisung, Nahte sauber geschliffen und poliert\PSichtstege geschliffen mit 240 Korn und abgeklebt.\P\fTahoma|b0|i0;\H3.0000; \P\fTahoma|b0|i0;\H3.5000;WIG svarovani- svary dle potreby zabrousit.\PPohledove plochy brousit (vel. brusnyc
  1
h zrn 240)\Pa polepit paskou
  0
XRECORD
  5
293A
102
{ACAD_REACTORS
330
A01
102
}
330
A01
100
AcDbXrecord
280
     1
 70
     4
 70
     0
 70
     0
 40
1.0
  2
ČÍSLO_REVIZE
  1
Embedded Object
 10
287.6423193699604
 20
66.0
 30
0.0
 40
3.499999940395355
 41
0.0
 46
0.0
 71
     1
 72
     5
  1
000
  7
Styl textu9
 73
     1
 44
1.0
  0
XRECORD
  5
2939
102
{ACAD_REACTORS
330
A01
102
}
330
A01
100
AcDbXrecord
280
     1
102
ACAD_MATT_HEIGHT
140
3.499999940395355
  0
XRECORD
  5
293C
102
{ACAD_REACTORS
330
A04
102
}
330
A04
100
AcDbXrecord
280
     1
 70
     4
 70
     0
 70
     0
 40
1.0
  2
Sheet_Size
  1
Embedded Object
 10
289.7753402652471
 20
48.33701147296152
 30
0.0
 40
2.000000029802322
 41
0.0
 46
0.0
 71
     1
 72
     5
  1
A2
  7
Styl textu40
 73
     1
 44
1.0
  0
XRECORD
  5
293B
102
{ACAD_REACTORS
330
A04
102
}
330
A04
100
AcDbXrecord
280
     1
102
ACAD_MATT_HEIGHT
140
2.000000029802322
  0
XRECORD
  5
293E
102
{ACAD_REACTORS
330
A07
102
}
330
A07
100
AcDbXrecord
280
     1
 70
     4
 70
     0
 70
     0
 40
1.0
  2
FILENAME_AND_PATH
  1
Embedded Object
 10
230.2697279123746
 20
53.13502004542946
 30
0.0
 40
2.000000029802322
 41
0.0
 46
0.0
 71
     1
 72
     5
  1
C:\\Inventor_DATA\\Projekty\\Guly\\Effidrain\\Effidrain rostova nastavba pro vinyl\\408240.iam
  7
Styl textu40
 73
     1
 44
1.0
  0
XRECORD
  5
293D
102
{ACAD_REACTORS
330
A07
102
}
330
A07
100
AcDbXrecord
280
     1
102
ACAD_MATT_HEIGHT
140
2.000000029802322
  0
XRECORD
  5
2940
102
{ACAD_REACTORS
330
A0A
102
}
330
A0A
100
AcDbXrecord
280
     1
 70
     4
 70
     0
 70
     0
 40
1.0
  2
PART_NUMBER
  1
Embedded Object
 10
218.0
 20
66.0
 30
0.0
 40
3.499999940395355
 41
0.0
 46
0.0
 71
     1
 72
     5
  1
408240
  7
Text poznámky (ISO)
 73
     1
 44
1.0
  0
XRECORD
  5
293F
102
{ACAD_REACTORS
330
A0A
102
}
330
A0A
100
AcDbXrecord
280
     1
102
ACAD_MATT_HEIGHT
140
3.499999940395355
  0
XRECORD
  5
2942
102
{ACAD_REACTORS
330
A0D
102
}
330
A0D
100
AcDbXrecord
280
     1
 70
     4
 70
     0
 70
     0
 40
1.0
  2
PROJECT
  1
Embedded Object
 10
118.0
 20
60.0
 30
0.0
 40
3.499999940395355
 41
0.0
 46
0.0
 71
     1
 72
     5
  1

  7
Text poznámky (ISO)
 73
     1
 44
1.0
  0
XRECORD
  5
2941
102
{ACAD_REACTORS
330
A0D
102
}
330
A0D
100
AcDbXrecord
280
     1
102
ACAD_MATT_HEIGHT
140
3.499999940395355
  0
XRECORD
  5
2944
102
{ACAD_REACTORS
330
A10
102
}
330
A10
100
AcDbXrecord
280
     1
 70
     4
 70
     0
 70
     0
 40
1.0
  2
SKLADOVÉ_ČÍSLO
  1
Embedded Object
 10
118.0
 20
54.89391305489239
 30
0.0
 40
6.99999988079071
 41
153.2966041564941
 46
0.0
 71
     1
 72
     5
  1
408240
  7
Styl textu94
 73
     1
 44
1.0
  0
XRECORD
  5
2943
102
{ACAD_REACTORS
330
A10
102
}
330
A10
100
AcDbXrecord
280
     1
102
ACAD_MATT_HEIGHT
140
6.99999988079071
  0
XRECORD
  5
2946
102
{ACAD_REACTORS
330
A13
102
}
330
A13
100
AcDbXrecord
280
     1
 70
     4
 70
     0
 70
     0
 40
1.0
  2
MATERIAL
  1
Embedded Object
 10
117.5939056808251
 20
108.6756657996811
 30
0.0
 40
3.499999940395355
 41
0.0
 46
0.0
 71
     1
 72
     5
  1

  7
Text poznámky (ISO)
 73
     1
 44
1.0
  0
XRECORD
  5
2945
102
{ACAD_REACTORS
330
A13
102
}
330
A13
100
AcDbXrecord
280
     1
102
ACAD_MATT_HEIGHT
140
3.499999940395355
  0
XRECORD
  5
2948
102
{ACAD_REACTORS
330
A16
102
}
330
A16
100
AcDbXrecord
280
     1
 70
     4
 70
     0
 70
     0
 40
1.0
  2
AUTHOR
  1
Embedded Object
 10
165.2312259808574
 20
87.78242706242743
 30
0.0
 40
2.000000029802322
 41
15.06250023841858
 46
0.0
 71
     1
 72
     5
  1
pmacoun
  7
Styl textu40
 73
     1
 44
1.0
  0
XRECORD
  5
2947
102
{ACAD_REACTORS
330
A16
102
}
330
A16
100
AcDbXrecord
280
     1
102
ACAD_MATT_HEIGHT
140
2.000000029802322
  0
XRECORD
  5
294A
102
{ACAD_REACTORS
330
A19
102
}
330
A19
100
AcDbXrecord
280
     1
 70
     4
 70
     0
 70
     0
 40
1.0
  2
VS_First
  1
Embedded Object
 10
189.1855699863978
 20
86.00038821032342
 30
0.0
 40
3.499999940395355
 41
24.15597186978378
 46
0.0
 71
     1
 72
     5
  1

  7
Text poznámky (ISO)
 73
     1
 44
1.0
  0
XRECORD
  5
2949
102
{ACAD_REACTORS
330
A19
102
}
330
A19
100
AcDbXrecord
280
     1
102
ACAD_MATT_HEIGHT
140
3.499999940395355
  0
XRECORD
  5
2951
102
{ACAD_REACTORS
330
2950
102
}
330
2950
100
AcDbXrecord
280
     1
 40
7165.0
  1
KUSOVNÍK
  0
XRECORD
  5
2953
102
{ACAD_REACTORS
330
2952
102
}
330
2952
100
AcDbXrecord
280
     1
 40
6807.0
  1
MATERIÁL
  0
XRECORD
  5
2955
102
{ACAD_REACTORS
330
2954
102
}
330
2954
100
AcDbXrecord
280
     1
 40
6841.0
  1
SKLADOVÉ
  0
XRECORD
  5
2957
102
{ACAD_REACTORS
330
2956
102
}
330
2956
100
AcDbXrecord
280
     1
 40
71678.0
  1
Svařenec rošt nastavb. vinyl
  0
XRECORD
  5
2959
102
{ACAD_REACTORS
330
2958
102
}
330
2958
100
AcDbXrecord
280
     1
 40
31393.0
  1
Vypust pro žlab D157/142 
  0
XRECORD
  5
295B
102
{ACAD_REACTORS
330
295A
102
}
330
295A
100
AcDbXrecord
280
     1
 40
17816.0
  1
Přechod 200/157-30
  0
XRECORD
  5
295D
102
{ACAD_REACTORS
330
295C
102
}
330
295C
100
AcDbXrecord
280
     1
 40
35170.0
  1
příruba pro lino
  0
XRECORD
  5
295F
102
{ACAD_REACTORS
330
295E
102
}
330
295E
100
AcDbXrecord
280
     1
 40
53907.0
  1
Matice nýtovací nerez  M5
  0
XRECORD
  5
2961
102
{ACAD_REACTORS
330
2960
102
}
330
2960
100
AcDbXrecord
280
     1
 40
85435.0
  1
Šroub navařovací nerez M8x20 
  0
XRECORD
  5
2963
102
{ACAD_REACTORS
330
2962
102
}
330
2962
100
AcDbXrecord
280
     1
 40
65077.0
  1
Šroub se zápustnou hlavou
  0
XRECORD
  5
2965
102
{ACAD_REACTORS
330
2964
102
}
330
2964
100
AcDbXrecord
280
     1
 40
55642.0
  1
Krytka nýtovací matice M5
  0
XRECORD
  5
2967
102
{ACAD_REACTORS
330
2966
102
}
330
2966
100
AcDbXrecord
280
     1
 40
19208.0
  1
Měkká ocel
  0
XRECORD
  5
2969
102
{ACAD_REACTORS
330
2968
102
}
330
2968
100
AcDbXrecord
280
     1
 40
39656.0
  1
Šestihranná matice
  0
XRECORD
  5
296B
102
{ACAD_REACTORS
330
296A
102
}
330
296A
100
AcDbXrecord
280
     1
 40
63777.0
  1
šestihranná, černá
  0
XRECORD
  5
296D
102
{ACAD_REACTORS
330
296C
102
}
330
296C
100
AcDbXrecord
280
     1
 40
4936.0
  1
Papír
  0
LAYOUT
  5
6B
102
{ACAD_REACTORS
330
62
102
}
330
62
100
AcDbPlotSettings
  1

  2

  4

  6

 40
0.0
 41
0.0
 42
0.0
 43
0.0
 44
0.0
 45
0.0
 46
0.0
 47
0.0
 48
0.0
 49
0.0
140
0.0
141
0.0
142
1.0
143
1.0
 70
   688
 72
     0
 73
     0
 74
     5
  7

 75
    16
147
1.0
 76
     0
 77
     2
 78
   300
148
0.0
149
0.0
100
AcDbLayout
  1
Layout1
 70
     1
 71
     1
 10
0.0
 20
0.0
 11
990.0
 21
700.0
 12
0.0
 22
0.0
 32
0.0
 14
0.0
 24
0.0
 34
0.0
 15
990.0
 25
700.0
 35
0.0
146
0.0
 13
0.0
 23
0.0
 33
0.0
 16
1.0
 26
0.0
 36
0.0
 17
0.0
 27
1.0
 37
0.0
 76
     0
330
68
  0
LAYOUT
  5
73
102
{ACAD_REACTORS
330
62
102
}
330
62
100
AcDbPlotSettings
  1

  2

  4

  6

 40
0.0
 41
0.0
 42
0.0
 43
0.0
 44
0.0
 45
0.0
 46
0.0
 47
0.0
 48
0.0
 49
0.0
140
0.0
141
0.0
142
1.0
143
1.0
 70
   688
 72
     0
 73
     0
 74
     5
  7

 75
    16
147
1.0
 76
     0
 77
     2
 78
   300
148
0.0
149
0.0
100
AcDbLayout
  1
Layout2
 70
     1
 71
     2
 10
0.0
 20
0.0
 11
12.0
 21
9.0
 12
0.0
 22
0.0
 32
0.0
 14
0.0
 24
0.0
 34
0.0
 15
0.0
 25
0.0
 35
0.0
146
0.0
 13
0.0
 23
0.0
 33
0.0
 16
1.0
 26
0.0
 36
0.0
 17
0.0
 27
1.0
 37
0.0
 76
     0
330
70
  0
LAYOUT
  5
6F
102
{ACAD_REACTORS
330
62
102
}
330
62
100
AcDbPlotSettings
  1

  2

  4

  6

 40
0.0
 41
0.0
 42
0.0
 43
0.0
 44
0.0
 45
0.0
 46
0.0
 47
0.0
 48
0.0
 49
0.0
140
0.0
141
0.0
142
1.0
143
1.0
 70
  1712
 72
     0
 73
     0
 74
     0
  7

 75
     0
147
1.0
 76
     0
 77
     2
 78
   300
148
0.0
149
0.0
100
AcDbLayout
  1
Model
 70
     1
 71
     0
 10
0.0
 20
0.0
 11
12.0
 21
9.0
 12
0.0
 22
0.0
 32
0.0
 14
0.0
 24
0.0
 34
0.0
 15
0.0
 25
0.0
 35
0.0
146
0.0
 13
0.0
 23
0.0
 33
0.0
 16
1.0
 26
0.0
 36
0.0
 17
0.0
 27
1.0
 37
0.0
 76
     0
330
6C
331
57
  0
MATERIAL
  5
19
102
{ACAD_XDICTIONARY
360
1A
102
}
102
{ACAD_REACTORS
330
10
102
}
330
10
100
AcDbMaterial
  1
ByBlock
 72
     0
 43
0.0208333333333333
 43
0.0
 43
0.0
 43
0.0
 43
0.0
 43
0.0208333333333333
 43
0.0
 43
0.0
 43
0.0
 43
0.0
 43
1.0
 43
0.0
 43
0.0
 43
0.0
 43
0.0
 43
1.0
 77
     0
 47
0.0208333333333333
 47
0.0
 47
0.0
 47
0.0
 47
0.0
 47
0.0208333333333333
 47
0.0
 47
0.0
 47
0.0
 47
0.0
 47
1.0
 47
0.0
 47
0.0
 47
0.0
 47
0.0
 47
1.0
171
     0
 49
0.0208333333333333
 49
0.0
 49
0.0
 49
0.0
 49
0.0
 49
0.0208333333333333
 49
0.0
 49
0.0
 49
0.0
 49
0.0
 49
1.0
 49
0.0
 49
0.0
 49
0.0
 49
0.0
 49
1.0
175
     0
142
0.0208333333333333
142
0.0
142
0.0
142
0.0
142
0.0
142
0.0208333333333333
142
0.0
142
0.0
142
0.0
142
0.0
142
1.0
142
0.0
142
0.0
142
0.0
142
0.0
142
1.0
179
     0
144
0.0208333333333333
144
0.0
144
0.0
144
0.0
144
0.0
144
0.0208333333333333
144
0.0
144
0.0
144
0.0
144
0.0
144
1.0
144
0.0
144
0.0
144
0.0
144
0.0
144
1.0
147
0.0208333333333333
147
0.0
147
0.0
147
0.0
147
0.0
147
0.0208333333333333
147
0.0
147
0.0
147
0.0
147
0.0
147
1.0
147
0.0
147
0.0
147
0.0
147
0.0
147
1.0
  0
MATERIAL
  5
11
102
{ACAD_XDICTIONARY
360
12
102
}
102
{ACAD_REACTORS
330
10
102
}
330
10
100
AcDbMaterial
  1
ByLayer
 72
     0
 43
0.0208333333333333
 43
0.0
 43
0.0
 43
0.0
 43
0.0
 43
0.0208333333333333
 43
0.0
 43
0.0
 43
0.0
 43
0.0
 43
1.0
 43
0.0
 43
0.0
 43
0.0
 43
0.0
 43
1.0
 77
     0
 47
0.0208333333333333
 47
0.0
 47
0.0
 47
0.0
 47
0.0
 47
0.0208333333333333
 47
0.0
 47
0.0
 47
0.0
 47
0.0
 47
1.0
 47
0.0
 47
0.0
 47
0.0
 47
0.0
 47
1.0
171
     0
 49
0.0208333333333333
 49
0.0
 49
0.0
 49
0.0
 49
0.0
 49
0.0208333333333333
 49
0.0
 49
0.0
 49
0.0
 49
0.0
 49
1.0
 49
0.0
 49
0.0
 49
0.0
 49
0.0
 49
1.0
175
     0
142
0.0208333333333333
142
0.0
142
0.0
142
0.0
142
0.0
142
0.0208333333333333
142
0.0
142
0.0
142
0.0
142
0.0
142
1.0
142
0.0
142
0.0
142
0.0
142
0.0
142
1.0
179
     0
144
0.0208333333333333
144
0.0
144
0.0
144
0.0
144
0.0
144
0.0208333333333333
144
0.0
144
0.0
144
0.0
144
0.0
144
1.0
144
0.0
144
0.0
144
0.0
144
0.0
144
1.0
147
0.0208333333333333
147
0.0
147
0.0
147
0.0
147
0.0
147
0.0208333333333333
147
0.0
147
0.0
147
0.0
147
0.0
147
1.0
147
0.0
147
0.0
147
0.0
147
0.0
147
1.0
  0
MATERIAL
  5
21
102
{ACAD_XDICTIONARY
360
22
102
}
102
{ACAD_REACTORS
330
10
102
}
330
10
100
AcDbMaterial
  1
Global
 72
     0
 43
0.0208333333333333
 43
0.0
 43
0.0
 43
0.0
 43
0.0
 43
0.0208333333333333
 43
0.0
 43
0.0
 43
0.0
 43
0.0
 43
1.0
 43
0.0
 43
0.0
 43
0.0
 43
0.0
 43
1.0
 77
     0
 47
0.0208333333333333
 47
0.0
 47
0.0
 47
0.0
 47
0.0
 47
0.0208333333333333
 47
0.0
 47
0.0
 47
0.0
 47
0.0
 47
1.0
 47
0.0
 47
0.0
 47
0.0
 47
0.0
 47
1.0
171
     0
 49
0.0208333333333333
 49
0.0
 49
0.0
 49
0.0
 49
0.0
 49
0.0208333333333333
 49
0.0
 49
0.0
 49
0.0
 49
0.0
 49
1.0
 49
0.0
 49
0.0
 49
0.0
 49
0.0
 49
1.0
175
     0
142
0.0208333333333333
142
0.0
142
0.0
142
0.0
142
0.0
142
0.0208333333333333
142
0.0
142
0.0
142
0.0
142
0.0
142
1.0
142
0.0
142
0.0
142
0.0
142
0.0
142
1.0
179
     0
144
0.0208333333333333
144
0.0
144
0.0
144
0.0
144
0.0
144
0.0208333333333333
144
0.0
144
0.0
144
0.0
144
0.0
144
1.0
144
0.0
144
0.0
144
0.0
144
0.0
144
1.0
147
0.0208333333333333
147
0.0
147
0.0
147
0.0
147
0.0
147
0.0208333333333333
147
0.0
147
0.0
147
0.0
147
0.0
147
1.0
147
0.0
147
0.0
147
0.0
147
0.0
147
1.0
  0
MLEADERSTYLE
  5
67
102
{ACAD_REACTORS
330
66
102
}
330
66
100
AcDbMLeaderStyle
170
     2
171
     1
172
     0
 90
        2
 40
0.0
 41
0.0
173
     1
 91
-1056964608
340
5B
 92
       -2
290
     1
 42
0.09
291
     1
 43
0.36
  3
Standard
 44
0.18
300

342
55
174
     1
178
     6
175
     1
176
     0
 93
-1056964608
 45
0.18
292
     0
297
     0
 46
0.18
 94
-1056964608
 47
1.0
 49
1.0
140
1.0
293
     1
141
0.0
294
     1
177
     0
142
1.0
295
     0
296
     0
143
0.125
1001
ACAD_MLEADERVER
1070
     2
  0
MLINESTYLE
  5
60
102
{ACAD_REACTORS
330
5F
102
}
330
5F
100
AcDbMlineStyle
  2
STANDARD
 70
     0
  3

 62
   256
 51
90.0
 52
90.0
 71
     2
 49
0.5
 62
   256
  6
BYLAYER
 49
-0.5
 62
   256
  6
BYLAYER
  0
ACDBPLACEHOLDER
  5
F
102
{ACAD_REACTORS
330
E
102
}
330
E
  0
SCALE
  5
43
102
{ACAD_REACTORS
330
42
102
}
330
42
100
AcDbScale
 70
     0
300
1:1
140
1.0
141
1.0
290
     1
  0
SCALE
  5
44
102
{ACAD_REACTORS
330
42
102
}
330
42
100
AcDbScale
 70
     0
300
1/128" = 1'-0"
140
0.0078125
141
12.0
290
     0
  0
SCALE
  5
45
102
{ACAD_REACTORS
330
42
102
}
330
42
100
AcDbScale
 70
     0
300
1/64" = 1'-0"
140
0.015625
141
12.0
290
     0
  0
SCALE
  5
46
102
{ACAD_REACTORS
330
42
102
}
330
42
100
AcDbScale
 70
     0
300
1/32" = 1'-0"
140
0.03125
141
12.0
290
     0
  0
SCALE
  5
47
102
{ACAD_REACTORS
330
42
102
}
330
42
100
AcDbScale
 70
     0
300
1/16" = 1'-0"
140
0.0625
141
12.0
290
     0
  0
SCALE
  5
48
102
{ACAD_REACTORS
330
42
102
}
330
42
100
AcDbScale
 70
     0
300
3/32" = 1'-0"
140
0.09375
141
12.0
290
     0
  0
SCALE
  5
49
102
{ACAD_REACTORS
330
42
102
}
330
42
100
AcDbScale
 70
     0
300
1/8" = 1'-0"
140
0.125
141
12.0
290
     0
  0
SCALE
  5
4A
102
{ACAD_REACTORS
330
42
102
}
330
42
100
AcDbScale
 70
     0
300
3/16" = 1'-0"
140
0.1875
141
12.0
290
     0
  0
SCALE
  5
4B
102
{ACAD_REACTORS
330
42
102
}
330
42
100
AcDbScale
 70
     0
300
1/4" = 1'-0"
140
0.25
141
12.0
290
     0
  0
SCALE
  5
4C
102
{ACAD_REACTORS
330
42
102
}
330
42
100
AcDbScale
 70
     0
300
3/8" = 1'-0"
140
0.375
141
12.0
290
     0
  0
SCALE
  5
4D
102
{ACAD_REACTORS
330
42
102
}
330
42
100
AcDbScale
 70
     0
300
1/2" = 1'-0"
140
0.5
141
12.0
290
     0
  0
SCALE
  5
4E
102
{ACAD_REACTORS
330
42
102
}
330
42
100
AcDbScale
 70
     0
300
3/4" = 1'-0"
140
0.75
141
12.0
290
     0
  0
SCALE
  5
4F
102
{ACAD_REACTORS
330
42
102
}
330
42
100
AcDbScale
 70
     0
300
1" = 1'-0"
140
1.0
141
12.0
290
     0
  0
SCALE
  5
50
102
{ACAD_REACTORS
330
42
102
}
330
42
100
AcDbScale
 70
     0
300
1-1/2" = 1'-0"
140
1.5
141
12.0
290
     0
  0
SCALE
  5
51
102
{ACAD_REACTORS
330
42
102
}
330
42
100
AcDbScale
 70
     0
300
3" = 1'-0"
140
3.0
141
12.0
290
     0
  0
SCALE
  5
52
102
{ACAD_REACTORS
330
42
102
}
330
42
100
AcDbScale
 70
     0
300
6" = 1'-0"
140
6.0
141
12.0
290
     0
  0
SCALE
  5
53
102
{ACAD_REACTORS
330
42
102
}
330
42
100
AcDbScale
 70
     0
300
1'-0" = 1'-0"
140
12.0
141
12.0
290
     0
  0
TABLESTYLE
  5
65
102
{ACAD_XDICTIONARY
360
9FD
102
}
102
{ACAD_REACTORS
330
64
102
}
330
64
100
AcDbTableStyle
  3
Standard
 70
     0
 71
     0
 40
0.06
 41
0.06
280
     0
281
     0
  7
Standard
140
0.18
170
     2
 62
     0
 63
     7
283
     0
274
    -2
284
     1
 64
     0
275
    -2
285
     1
 65
     0
276
    -2
286
     1
 66
     0
277
    -2
287
     1
 67
     0
278
    -2
288
     1
 68
     0
279
    -2
289
     1
 69
     0
  7
Standard
140
0.25
170
     5
 62
     0
 63
     7
283
     0
274
    -2
284
     1
 64
     0
275
    -2
285
     1
 65
     0
276
    -2
286
     1
 66
     0
277
    -2
287
     1
 67
     0
278
    -2
288
     1
 68
     0
279
    -2
289
     1
 69
     0
  7
Standard
140
0.18
170
     5
 62
     0
 63
     7
283
     0
274
    -2
284
     1
 64
     0
275
    -2
285
     1
 65
     0
276
    -2
286
     1
 66
     0
277
    -2
287
     1
 67
     0
278
    -2
288
     1
 68
     0
279
    -2
289
     1
 69
     0
  0
VISUALSTYLE
  5
2F
102
{ACAD_XDICTIONARY
360
A47
102
}
102
{ACAD_REACTORS
330
29
102
}
330
29
100
AcDbVisualStyle
  2
2dWireframe
 70
     4
 71
     0
 72
     2
 73
     0
 90
        0
 40
-0.6
 41
-30.0
 62
     5
 63
     7
421
 16777215
 74
     1
 91
        4
 64
     7
 65
   257
 75
     1
175
     1
 42
1.0
 92
        0
 66
   257
 43
1.0
 76
     1
 77
     6
 78
     2
 67
     7
 79
     5
170
     0
171
     0
290
     0
174
     0
 93
        1
 44
0.0
173
     0
291
     0
 45
0.0
1001
ACAD
1000
AcDbSavedByObjectVersion
1070
     0
  0
VISUALSTYLE
  5
A9C
102
{ACAD_XDICTIONARY
360
2970
102
}
102
{ACAD_REACTORS
330
29
102
}
330
29
100
AcDbVisualStyle
  2
3D Hidden
 70
     6
 71
     1
 72
     2
 73
     2
 90
        0
 40
-0.6
 41
-30.0
 62
     5
 63
     7
421
 16777215
 74
     2
 91
        2
 64
     7
 65
   257
 75
     2
175
     1
 42
179.0
 92
        0
 66
   257
 43
1.0
 76
     1
 77
     6
 78
     2
 67
     7
 79
     3
170
     0
171
     0
290
     0
174
     0
 93
        1
 44
0.0
173
     0
291
     0
 45
0.0
1001
ACAD
1000
AcDbSavedByObjectVersion
1070
     0
  0
VISUALSTYLE
  5
A9B
102
{ACAD_XDICTIONARY
360
296E
102
}
102
{ACAD_REACTORS
330
29
102
}
330
29
100
AcDbVisualStyle
  2
3dWireframe
 70
     5
 71
     0
 72
     2
 73
     0
 90
        0
 40
-0.6
 41
-30.0
 62
     5
 63
     7
421
 16777215
 74
     1
 91
        4
 64
     7
 65
   257
 75
     1
175
     1
 42
1.0
 92
        0
 66
   257
 43
1.0
 76
     1
 77
     6
 78
     2
 67
     7
 79
     5
170
     0
171
     0
290
     0
174
     0
 93
        1
 44
0.0
173
     0
291
     0
 45
0.0
1001
ACAD
1000
AcDbSavedByObjectVersion
1070
     0
  0
VISUALSTYLE
  5
2E
102
{ACAD_XDICTIONARY
360
A45
102
}
102
{ACAD_REACTORS
330
29
102
}
330
29
100
AcDbVisualStyle
  2
Basic
 70
     7
 71
     1
 72
     0
 73
     1
 90
        0
 40
-0.6
 41
-30.0
 62
     5
 63
     7
421
 16777215
 74
     0
 91
        4
 64
     7
 65
   257
 75
     1
175
     1
 42
1.0
 92
        8
 66
     7
 43
1.0
 76
     1
 77
     6
 78
     2
 67
     7
 79
     5
170
     0
171
     0
290
     0
174
     0
 93
        1
 44
0.0
173
     0
291
     1
 45
0.0
1001
ACAD
1000
AcDbSavedByObjectVersion
1070
     0
  0
VISUALSTYLE
  5
35
102
{ACAD_XDICTIONARY
360
A53
102
}
102
{ACAD_REACTORS
330
29
102
}
330
29
100
AcDbVisualStyle
  2
Brighten
 70
    12
 71
     2
 72
     2
 73
     0
 90
        0
 40
-0.6
 41
-30.0
 62
     5
 63
     7
421
 16777215
 74
     1
 91
        4
 64
     7
 65
   257
 75
     1
175
     1
 42
1.0
 92
        8
 66
     7
 43
1.0
 76
     1
 77
     6
 78
     2
 67
     7
 79
     5
170
     0
171
     0
290
     0
174
     0
 93
        1
 44
50.0
173
     0
291
     1
 45
0.0
1001
ACAD
1000
AcDbSavedByObjectVersion
1070
     0
  0
VISUALSTYLE
  5
39
102
{ACAD_XDICTIONARY
360
A5B
102
}
102
{ACAD_REACTORS
330
29
102
}
330
29
100
AcDbVisualStyle
  2
ColorChange
 70
    16
 71
     2
 72
     2
 73
     3
 90
        0
 40
-0.6
 41
-30.0
 62
     5
 63
     8
421
  8421504
 74
     1
 91
        4
 64
     7
 65
   257
 75
     1
175
     1
 42
1.0
 92
        8
 66
     8
424
  8421504
 43
1.0
 76
     1
 77
     6
 78
     2
 67
     7
 79
     5
170
     0
171
     0
290
     0
174
     0
 93
        1
 44
0.0
173
     0
291
     1
 45
0.0
1001
ACAD
1000
AcDbSavedByObjectVersion
1070
     0
  0
VISUALSTYLE
  5
32
102
{ACAD_XDICTIONARY
360
A4D
102
}
102
{ACAD_REACTORS
330
29
102
}
330
29
100
AcDbVisualStyle
  2
Conceptual
 70
     9
 71
     3
 72
     2
 73
     0
 90
        0
 40
-0.6
 41
-30.0
 62
     5
 63
     7
421
 16777215
 74
     2
 91
        2
 64
     7
 65
   257
 75
     1
175
     1
 42
179.0
 92
        8
 66
     7
 43
1.0
 76
     1
 77
     6
 78
     2
 67
     7
 79
     3
170
     0
171
     0
290
     0
174
     0
 93
        1
 44
0.0
173
     0
291
     0
 45
0.0
1001
ACAD
1000
AcDbSavedByObjectVersion
1070
     0
  0
VISUALSTYLE
  5
34
102
{ACAD_XDICTIONARY
360
A51
102
}
102
{ACAD_REACTORS
330
29
102
}
330
29
100
AcDbVisualStyle
  2
Dim
 70
    11
 71
     2
 72
     2
 73
     0
 90
        0
 40
-0.6
 41
-30.0
 62
     5
 63
     7
421
 16777215
 74
     1
 91
        4
 64
     7
 65
   257
 75
     1
175
     1
 42
1.0
 92
        8
 66
     7
 43
1.0
 76
     1
 77
     6
 78
     2
 67
     7
 79
     5
170
     0
171
     0
290
     0
174
     0
 93
        1
 44
-50.0
173
     0
291
     1
 45
0.0
1001
ACAD
1000
AcDbSavedByObjectVersion
1070
     0
  0
VISUALSTYLE
  5
41
102
{ACAD_XDICTIONARY
360
A6B
102
}
102
{ACAD_REACTORS
330
29
102
}
330
29
100
AcDbVisualStyle
  2
EdgeColorOff
 70
    22
 71
     2
 72
     2
 73
     0
 90
        0
 40
-0.6
 41
-30.0
 62
     5
 63
     7
421
 16777215
 74
     1
 91
        4
 64
     7
 65
   257
 75
     1
175
     1
 42
1.0
 92
        8
 66
     7
 43
1.0
 76
     1
 77
     6
 78
     2
 67
     7
 79
     5
170
     0
171
     0
290
     0
174
     0
 93
        1
 44
0.0
173
     0
291
     1
 45
0.0
1001
ACAD
1000
AcDbSavedByObjectVersion
1070
     0
  0
VISUALSTYLE
  5
38
102
{ACAD_XDICTIONARY
360
A59
102
}
102
{ACAD_REACTORS
330
29
102
}
330
29
100
AcDbVisualStyle
  2
Facepattern
 70
    15
 71
     2
 72
     2
 73
     0
 90
        0
 40
-0.6
 41
-30.0
 62
     5
 63
     7
421
 16777215
 74
     1
 91
        4
 64
     7
 65
   257
 75
     1
175
     1
 42
1.0
 92
        8
 66
     7
 43
1.0
 76
     1
 77
     6
 78
     2
 67
     7
 79
     5
170
     0
171
     0
290
     0
174
     0
 93
        1
 44
0.0
173
     0
291
     1
 45
0.0
1001
ACAD
1000
AcDbSavedByObjectVersion
1070
     0
  0
VISUALSTYLE
  5
2A
102
{ACAD_XDICTIONARY
360
A3D
102
}
102
{ACAD_REACTORS
330
29
102
}
330
29
100
AcDbVisualStyle
  2
Flat
 70
     0
 71
     2
 72
     1
 73
     1
 90
        2
 40
-0.6
 41
30.0
 62
     5
 63
     7
421
 16777215
 74
     0
 91
        0
 64
     7
 65
   257
 75
     1
175
     1
 42
1.0
 92
        8
 66
     7
 43
1.0
 76
     1
 77
     6
 78
     2
 67
     7
 79
     5
170
     0
171
     0
290
     0
174
     0
 93
       13
 44
0.0
173
     0
291
     1
 45
0.0
1001
ACAD
1000
AcDbSavedByObjectVersion
1070
     0
  0
VISUALSTYLE
  5
2B
102
{ACAD_XDICTIONARY
360
A3F
102
}
102
{ACAD_REACTORS
330
29
102
}
330
29
100
AcDbVisualStyle
  2
FlatWithEdges
 70
     1
 71
     2
 72
     1
 73
     1
 90
        2
 40
-0.6
 41
30.0
 62
     5
 63
     7
421
 16777215
 74
     1
 91
        0
 64
     7
 65
   257
 75
     1
175
     1
 42
1.0
 92
        0
 66
   257
 43
1.0
 76
     1
 77
     6
 78
     2
 67
     7
 79
     5
170
     0
171
     0
290
     0
174
     0
 93
       13
 44
0.0
173
     0
291
     1
 45
0.0
1001
ACAD
1000
AcDbSavedByObjectVersion
1070
     0
  0
VISUALSTYLE
  5
2C
102
{ACAD_XDICTIONARY
360
A41
102
}
102
{ACAD_REACTORS
330
29
102
}
330
29
100
AcDbVisualStyle
  2
Gouraud
 70
     2
 71
     2
 72
     2
 73
     1
 90
        2
 40
-0.6
 41
30.0
 62
     5
 63
     7
421
 16777215
 74
     0
 91
        0
 64
     7
 65
   257
 75
     1
175
     1
 42
1.0
 92
        0
 66
     7
 43
1.0
 76
     1
 77
     6
 78
     2
 67
     7
 79
     5
170
     0
171
     0
290
     0
174
     0
 93
       13
 44
0.0
173
     0
291
     1
 45
0.0
1001
ACAD
1000
AcDbSavedByObjectVersion
1070
     0
  0
VISUALSTYLE
  5
2D
102
{ACAD_XDICTIONARY
360
A43
102
}
102
{ACAD_REACTORS
330
29
102
}
330
29
100
AcDbVisualStyle
  2
GouraudWithEdges
 70
     3
 71
     2
 72
     2
 73
     1
 90
        2
 40
-0.6
 41
30.0
 62
     5
 63
     7
421
 16777215
 74
     1
 91
        0
 64
     7
 65
   257
 75
     1
175
     1
 42
1.0
 92
        0
 66
   257
 43
1.0
 76
     1
 77
     6
 78
     2
 67
     7
 79
     5
170
     0
171
     0
290
     0
174
     0
 93
       13
 44
0.0
173
     0
291
     1
 45
0.0
1001
ACAD
1000
AcDbSavedByObjectVersion
1070
     0
  0
VISUALSTYLE
  5
31
102
{ACAD_XDICTIONARY
360
A4B
102
}
102
{ACAD_REACTORS
330
29
102
}
330
29
100
AcDbVisualStyle
  2
Hidden
 70
     6
 71
     1
 72
     2
 73
     2
 90
        0
 40
-0.6
 41
-30.0
 62
     5
 63
     7
421
 16777215
 74
     2
 91
        2
 64
     7
 65
   257
 75
     2
175
     1
 42
40.0
 92
        0
 66
   257
 43
1.0
 76
     1
 77
     6
 78
     2
 67
     7
 79
     3
170
     0
171
     0
290
     0
174
     0
 93
        1
 44
0.0
173
     0
291
     0
 45
0.0
1001
ACAD
1000
AcDbSavedByObjectVersion
1070
     0
  0
VISUALSTYLE
  5
3F
102
{ACAD_XDICTIONARY
360
A67
102
}
102
{ACAD_REACTORS
330
29
102
}
330
29
100
AcDbVisualStyle
  2
JitterOff
 70
    20
 71
     2
 72
     2
 73
     0
 90
        0
 40
-0.6
 41
-30.0
 62
     5
 63
     7
421
 16777215
 74
     1
 91
        4
 64
     7
 65
   257
 75
     1
175
     1
 42
1.0
 92
       10
 66
     7
 43
1.0
 76
     1
 77
     6
 78
     2
 67
     7
 79
     5
170
     0
171
     0
290
     0
174
     0
 93
        1
 44
0.0
173
     0
291
     1
 45
0.0
1001
ACAD
1000
AcDbSavedByObjectVersion
1070
     0
  0
VISUALSTYLE
  5
37
102
{ACAD_XDICTIONARY
360
A57
102
}
102
{ACAD_REACTORS
330
29
102
}
330
29
100
AcDbVisualStyle
  2
Linepattern
 70
    14
 71
     2
 72
     2
 73
     0
 90
        0
 40
-0.6
 41
-30.0
 62
     5
 63
     7
421
 16777215
 74
     1
 91
        4
 64
     7
 65
   257
 75
     7
175
     7
 42
1.0
 92
        8
 66
     7
 43
1.0
 76
     1
 77
     6
 78
     2
 67
     7
 79
     5
170
     0
171
     0
290
     0
174
     0
 93
        1
 44
0.0
173
     0
291
     1
 45
0.0
1001
ACAD
1000
AcDbSavedByObjectVersion
1070
     0
  0
VISUALSTYLE
  5
40
102
{ACAD_XDICTIONARY
360
A69
102
}
102
{ACAD_REACTORS
330
29
102
}
330
29
100
AcDbVisualStyle
  2
OverhangOff
 70
    21
 71
     2
 72
     2
 73
     0
 90
        0
 40
-0.6
 41
-30.0
 62
     5
 63
     7
421
 16777215
 74
     1
 91
        4
 64
     7
 65
   257
 75
     1
175
     1
 42
1.0
 92
        9
 66
     7
 43
1.0
 76
     1
 77
     6
 78
     2
 67
     7
 79
     5
170
     0
171
     0
290
     0
174
     0
 93
        1
 44
0.0
173
     0
291
     1
 45
0.0
1001
ACAD
1000
AcDbSavedByObjectVersion
1070
     0
  0
VISUALSTYLE
  5
33
102
{ACAD_XDICTIONARY
360
A4F
102
}
102
{ACAD_REACTORS
330
29
102
}
330
29
100
AcDbVisualStyle
  2
Realistic
 70
     8
 71
     2
 72
     2
 73
     0
 90
        2
 40
-0.6
 41
30.0
 62
     5
 63
     7
421
 16777215
 74
     0
 91
        0
 64
     7
 65
   257
 75
     1
175
     1
 42
1.0
 92
        8
 66
   257
 43
1.0
 76
     1
 77
     6
 78
     2
 67
     7
 79
     3
170
     0
171
     0
290
     0
174
     0
 93
       13
 44
0.0
173
     0
291
     0
 45
0.0
1001
ACAD
1000
AcDbSavedByObjectVersion
1070
     0
  0
VISUALSTYLE
  5
3E
102
{ACAD_XDICTIONARY
360
A65
102
}
102
{ACAD_REACTORS
330
29
102
}
330
29
100
AcDbVisualStyle
  2
Shaded
 70
    27
 71
     2
 72
     2
 73
     1
 90
        2
 40
-0.6
 41
30.0
 62
     5
 63
     7
421
 16777215
 74
     0
 91
        4
 64
     7
 65
   257
 75
     1
175
     1
 42
1.0
 92
        8
 66
   257
 43
1.0
 76
     1
 77
     6
 78
     2
 67
     8
425
  7895160
 79
     3
170
     0
171
     0
290
     0
174
     0
 93
        5
 44
0.0
173
     0
291
     0
 45
0.0
1001
ACAD
1000
AcDbSavedByObjectVersion
1070
     0
  0
VISUALSTYLE
  5
3D
102
{ACAD_XDICTIONARY
360
A63
102
}
102
{ACAD_REACTORS
330
29
102
}
330
29
100
AcDbVisualStyle
  2
Shaded with edges
 70
    26
 71
     2
 72
     2
 73
     1
 90
        2
 40
-0.6
 41
30.0
 62
     5
 63
     7
421
 16777215
 74
     1
 91
       10
 64
     7
 65
   257
 75
     2
175
     1
 42
1.0
 92
        8
 66
   257
 43
1.0
 76
     1
 77
     6
 78
     2
 67
     7
 79
     3
170
     0
171
     0
290
     0
174
     0
 93
        5
 44
0.0
173
     0
291
     0
 45
0.0
1001
ACAD
1000
AcDbSavedByObjectVersion
1070
     0
  0
VISUALSTYLE
  5
3A
102
{ACAD_XDICTIONARY
360
A5D
102
}
102
{ACAD_REACTORS
330
29
102
}
330
29
100
AcDbVisualStyle
  2
Shades of Gray
 70
    23
 71
     2
 72
     2
 73
     3
 90
        0
 40
-0.6
 41
-30.0
 62
     5
 63
     7
421
 16777215
 74
     2
 91
        2
 64
     7
 65
     7
 75
     1
175
     1
 42
40.0
 92
        8
 66
     7
 43
1.0
 76
     1
 77
     6
 78
     2
 67
     7
 79
     3
170
     0
171
     0
290
     0
174
     0
 93
        1
 44
0.0
173
     0
291
     0
 45
0.0
1001
ACAD
1000
AcDbSavedByObjectVersion
1070
     0
  0
VISUALSTYLE
  5
3B
102
{ACAD_XDICTIONARY
360
A5F
102
}
102
{ACAD_REACTORS
330
29
102
}
330
29
100
AcDbVisualStyle
  2
Sketchy
 70
    24
 71
     1
 72
     2
 73
     2
 90
        0
 40
-0.6
 41
-30.0
 62
     5
 63
     7
421
 16777215
 74
     2
 91
        2
 64
     7
 65
     7
 75
     1
175
     1
 42
40.0
 92
       11
 66
     7
 43
1.0
 76
     1
 77
     6
 78
     2
 67
     7
 79
     6
170
     0
171
     0
290
     0
174
     0
 93
        1
 44
0.0
173
     0
291
     0
 45
0.0
1001
ACAD
1000
AcDbSavedByObjectVersion
1070
     0
  0
VISUALSTYLE
  5
36
102
{ACAD_XDICTIONARY
360
A55
102
}
102
{ACAD_REACTORS
330
29
102
}
330
29
100
AcDbVisualStyle
  2
Thicken
 70
    13
 71
     2
 72
     2
 73
     0
 90
        0
 40
-0.6
 41
-30.0
 62
     5
 63
     7
421
 16777215
 74
     1
 91
        4
 64
     7
 65
   257
 75
     1
175
     1
 42
1.0
 92
       12
 66
     7
 43
1.0
 76
     1
 77
     6
 78
     2
 67
     7
 79
     5
170
     0
171
     0
290
     0
174
     0
 93
        1
 44
0.0
173
     0
291
     1
 45
0.0
1001
ACAD
1000
AcDbSavedByObjectVersion
1070
     0
  0
VISUALSTYLE
  5
30
102
{ACAD_XDICTIONARY
360
A49
102
}
102
{ACAD_REACTORS
330
29
102
}
330
29
100
AcDbVisualStyle
  2
Wireframe
 70
     5
 71
     0
 72
     2
 73
     0
 90
        0
 40
-0.6
 41
-30.0
 62
     5
 63
     7
421
 16777215
 74
     1
 91
        4
 64
     7
 65
   257
 75
     1
175
     1
 42
1.0
 92
        0
 66
   257
 43
1.0
 76
     1
 77
     6
 78
     2
 67
     7
 79
     3
170
     0
171
     0
290
     0
174
     0
 93
        1
 44
0.0
173
     0
291
     0
 45
0.0
1001
ACAD
1000
AcDbSavedByObjectVersion
1070
     0
  0
VISUALSTYLE
  5
3C
102
{ACAD_XDICTIONARY
360
A61
102
}
102
{ACAD_REACTORS
330
29
102
}
330
29
100
AcDbVisualStyle
  2
X-Ray
 70
    25
 71
     2
 72
     2
 73
     1
 90
        1
 40
0.5
 41
-30.0
 62
     5
 63
     7
421
 16777215
 74
     1
 91
        0
 64
     7
 65
   257
 75
     1
175
     1
 42
1.0
 92
        8
 66
     7
 43
1.0
 76
     1
 77
     6
 78
     2
 67
     7
 79
     3
170
     0
171
     0
290
     0
174
     0
 93
       13
 44
0.0
173
     0
291
     0
 45
0.0
1001
ACAD
1000
AcDbSavedByObjectVersion
1070
     0
  0
DICTIONARYVAR
  5
A95
102
{ACAD_REACTORS
330
A91
102
}
330
A91
100
DictionaryVariables
280
     0
  1
1:1
  0
DICTIONARYVAR
  5
A93
102
{ACAD_REACTORS
330
A91
102
}
330
A91
100
DictionaryVariables
280
     0
  1
STANDARD
  0
DICTIONARYVAR
  5
A92
102
{ACAD_REACTORS
330
A91
102
}
330
A91
100
DictionaryVariables
280
     0
  1
STANDARD
  0
DICTIONARYVAR
  5
A97
102
{ACAD_REACTORS
330
A91
102
}
330
A91
100
DictionaryVariables
280
     0
  1
0
  0
DICTIONARYVAR
  5
A98
102
{ACAD_REACTORS
330
A91
102
}
330
A91
100
DictionaryVariables
280
     0
  1
0
  0
DICTIONARYVAR
  5
A96
102
{ACAD_REACTORS
330
A91
102
}
330
A91
100
DictionaryVariables
280
     0
  1
2
  0
DICTIONARYVAR
  5
A94
102
{ACAD_REACTORS
330
A91
102
}
330
A91
100
DictionaryVariables
280
     0
  1
1
  0
DICTIONARYVAR
  5
2935
102
{ACAD_REACTORS
330
A91
102
}
330
A91
100
DictionaryVariables
280
     0
  1
2
  0
DICTIONARY
  5
B0C
102
{ACAD_REACTORS
330
B02
102
}
330
B02
100
AcDbDictionary
281
     1
  0
DICTIONARY
  5
1A
330
19
100
AcDbDictionary
280
     1
281
     1
  3
ACAD_XREC_ROUNDTRIP
360
294D
  3
BUMPTILE
360
1C
  3
DIFFUSETILE
360
1B
  3
OPACITYTILE
360
1F
  3
REFLECTIONTILE
360
1E
  3
REFRACTIONTILE
360
20
  3
SPECULARTILE
360
1D
  0
DICTIONARY
  5
12
330
11
100
AcDbDictionary
280
     1
281
     1
  3
ACAD_XREC_ROUNDTRIP
360
294C
  3
BUMPTILE
360
14
  3
DIFFUSETILE
360
13
  3
OPACITYTILE
360
17
  3
REFLECTIONTILE
360
16
  3
REFRACTIONTILE
360
18
  3
SPECULARTILE
360
15
  0
DICTIONARY
  5
22
330
21
100
AcDbDictionary
280
     1
281
     1
  3
ACAD_XREC_ROUNDTRIP
360
294E
  3
BUMPTILE
360
24
  3
DIFFUSETILE
360
23
  3
OPACITYTILE
360
27
  3
REFLECTIONTILE
360
26
  3
REFRACTIONTILE
360
28
  3
SPECULARTILE
360
25
  0
DICTIONARY
  5
9FD
330
65
100
AcDbDictionary
280
     1
281
     1
  3
ACAD_ROUNDTRIP_2008_TABLESTYLE_CELLSTYLEMAP
360
2936
  3
ACAD_XREC_ROUNDTRIP
360
294F
  0
DICTIONARY
  5
A47
330
2F
100
AcDbDictionary
280
     1
281
     1
  3
ACAD_XREC_ROUNDTRIP
360
A48
  0
DICTIONARY
  5
2970
330
A9C
100
AcDbDictionary
280
     1
281
     1
  3
ACAD_XREC_ROUNDTRIP
360
2971
  0
DICTIONARY
  5
296E
330
A9B
100
AcDbDictionary
280
     1
281
     1
  3
ACAD_XREC_ROUNDTRIP
360
296F
  0
DICTIONARY
  5
A45
330
2E
100
AcDbDictionary
280
     1
281
     1
  3
ACAD_XREC_ROUNDTRIP
360
A46
  0
DICTIONARY
  5
A53
330
35
100
AcDbDictionary
280
     1
281
     1
  3
ACAD_XREC_ROUNDTRIP
360
A54
  0
DICTIONARY
  5
A5B
330
39
100
AcDbDictionary
280
     1
281
     1
  3
ACAD_XREC_ROUNDTRIP
360
A5C
  0
DICTIONARY
  5
A4D
330
32
100
AcDbDictionary
280
     1
281
     1
  3
ACAD_XREC_ROUNDTRIP
360
A4E
  0
DICTIONARY
  5
A51
330
34
100
AcDbDictionary
280
     1
281
     1
  3
ACAD_XREC_ROUNDTRIP
360
A52
  0
DICTIONARY
  5
A6B
330
41
100
AcDbDictionary
280
     1
281
     1
  3
ACAD_XREC_ROUNDTRIP
360
A6C
  0
DICTIONARY
  5
A59
330
38
100
AcDbDictionary
280
     1
281
     1
  3
ACAD_XREC_ROUNDTRIP
360
A5A
  0
DICTIONARY
  5
A3D
330
2A
100
AcDbDictionary
280
     1
281
     1
  3
ACAD_XREC_ROUNDTRIP
360
A3E
  0
DICTIONARY
  5
A3F
330
2B
100
AcDbDictionary
280
     1
281
     1
  3
ACAD_XREC_ROUNDTRIP
360
A40
  0
DICTIONARY
  5
A41
330
2C
100
AcDbDictionary
280
     1
281
     1
  3
ACAD_XREC_ROUNDTRIP
360
A42
  0
DICTIONARY
  5
A43
330
2D
100
AcDbDictionary
280
     1
281
     1
  3
ACAD_XREC_ROUNDTRIP
360
A44
  0
DICTIONARY
  5
A4B
330
31
100
AcDbDictionary
280
     1
281
     1
  3
ACAD_XREC_ROUNDTRIP
360
A4C
  0
DICTIONARY
  5
A67
330
3F
100
AcDbDictionary
280
     1
281
     1
  3
ACAD_XREC_ROUNDTRIP
360
A68
  0
DICTIONARY
  5
A57
330
37
100
AcDbDictionary
280
     1
281
     1
  3
ACAD_XREC_ROUNDTRIP
360
A58
  0
DICTIONARY
  5
A69
330
40
100
AcDbDictionary
280
     1
281
     1
  3
ACAD_XREC_ROUNDTRIP
360
A6A
  0
DICTIONARY
  5
A4F
330
33
100
AcDbDictionary
280
     1
281
     1
  3
ACAD_XREC_ROUNDTRIP
360
A50
  0
DICTIONARY
  5
A65
330
3E
100
AcDbDictionary
280
     1
281
     1
  3
ACAD_XREC_ROUNDTRIP
360
A66
  0
DICTIONARY
  5
A63
330
3D
100
AcDbDictionary
280
     1
281
     1
  3
ACAD_XREC_ROUNDTRIP
360
A64
  0
DICTIONARY
  5
A5D
330
3A
100
AcDbDictionary
280
     1
281
     1
  3
ACAD_XREC_ROUNDTRIP
360
A5E
  0
DICTIONARY
  5
A5F
330
3B
100
AcDbDictionary
280
     1
281
     1
  3
ACAD_XREC_ROUNDTRIP
360
A60
  0
DICTIONARY
  5
A55
330
36
100
AcDbDictionary
280
     1
281
     1
  3
ACAD_XREC_ROUNDTRIP
360
A56
  0
DICTIONARY
  5
A49
330
30
100
AcDbDictionary
280
     1
281
     1
  3
ACAD_XREC_ROUNDTRIP
360
A4A
  0
DICTIONARY
  5
A61
330
3C
100
AcDbDictionary
280
     1
281
     1
  3
ACAD_XREC_ROUNDTRIP
360
A62
  0
XRECORD
  5
294D
102
{ACAD_REACTORS
330
1A
102
}
330
1A
100
AcDbXrecord
280
     1
102
MATERIAL
148
0.0
149
0.0
149
0.0
 93
        0
 94
      127
282
     0
 72
     0
 77
     0
171
     0
175
     0
179
     0
273
     0
  0
XRECORD
  5
1C
102
{ACAD_REACTORS
330
1A
102
}
330
1A
100
AcDbXrecord
280
     1
270
     1
271
     1
  0
XRECORD
  5
1B
102
{ACAD_REACTORS
330
1A
102
}
330
1A
100
AcDbXrecord
280
     1
270
     1
271
     1
  0
XRECORD
  5
1F
102
{ACAD_REACTORS
330
1A
102
}
330
1A
100
AcDbXrecord
280
     1
270
     1
271
     1
  0
XRECORD
  5
1E
102
{ACAD_REACTORS
330
1A
102
}
330
1A
100
AcDbXrecord
280
     1
270
     1
271
     1
  0
XRECORD
  5
20
102
{ACAD_REACTORS
330
1A
102
}
330
1A
100
AcDbXrecord
280
     1
270
     1
271
     1
  0
XRECORD
  5
1D
102
{ACAD_REACTORS
330
1A
102
}
330
1A
100
AcDbXrecord
280
     1
270
     1
271
     1
  0
XRECORD
  5
294C
102
{ACAD_REACTORS
330
12
102
}
330
12
100
AcDbXrecord
280
     1
102
MATERIAL
148
0.0
149
0.0
149
0.0
 93
        0
 94
      127
282
     0
 72
     0
 77
     0
171
     0
175
     0
179
     0
273
     0
  0
XRECORD
  5
14
102
{ACAD_REACTORS
330
12
102
}
330
12
100
AcDbXrecord
280
     1
270
     1
271
     1
  0
XRECORD
  5
13
102
{ACAD_REACTORS
330
12
102
}
330
12
100
AcDbXrecord
280
     1
270
     1
271
     1
  0
XRECORD
  5
17
102
{ACAD_REACTORS
330
12
102
}
330
12
100
AcDbXrecord
280
     1
270
     1
271
     1
  0
XRECORD
  5
16
102
{ACAD_REACTORS
330
12
102
}
330
12
100
AcDbXrecord
280
     1
270
     1
271
     1
  0
XRECORD
  5
18
102
{ACAD_REACTORS
330
12
102
}
330
12
100
AcDbXrecord
280
     1
270
     1
271
     1
  0
XRECORD
  5
15
102
{ACAD_REACTORS
330
12
102
}
330
12
100
AcDbXrecord
280
     1
270
     1
271
     1
  0
XRECORD
  5
294E
102
{ACAD_REACTORS
330
22
102
}
330
22
100
AcDbXrecord
280
     1
102
MATERIAL
148
0.0
149
0.0
149
0.0
 93
        0
 94
      127
282
     0
 72
     0
 77
     0
171
     0
175
     0
179
     0
273
     0
  0
XRECORD
  5
24
102
{ACAD_REACTORS
330
22
102
}
330
22
100
AcDbXrecord
280
     1
270
     1
271
     1
  0
XRECORD
  5
23
102
{ACAD_REACTORS
330
22
102
}
330
22
100
AcDbXrecord
280
     1
270
     1
271
     1
  0
XRECORD
  5
27
102
{ACAD_REACTORS
330
22
102
}
330
22
100
AcDbXrecord
280
     1
270
     1
271
     1
  0
XRECORD
  5
26
102
{ACAD_REACTORS
330
22
102
}
330
22
100
AcDbXrecord
280
     1
270
     1
271
     1
  0
XRECORD
  5
28
102
{ACAD_REACTORS
330
22
102
}
330
22
100
AcDbXrecord
280
     1
270
     1
271
     1
  0
XRECORD
  5
25
102
{ACAD_REACTORS
330
22
102
}
330
22
100
AcDbXrecord
280
     1
270
     1
271
     1
  0
CELLSTYLEMAP
  5
2936
102
{ACAD_REACTORS
330
9FD
102
}
330
9FD
100
AcDbCellStyleMap
 90
        3
300
CELLSTYLE
  1
TABLEFORMAT_BEGIN
 90
        5
170
     1
 91
        0
 92
    32768
 62
   257
 93
        1
300
CONTENTFORMAT
  1
CONTENTFORMAT_BEGIN
 90
        0
 91
        0
 92
      512
 93
        0
300

 40
0.0
140
1.0
 94
        5
 62
     0
340
55
144
0.25
309
CONTENTFORMAT_END
171
     0
 94
        0
309
TABLEFORMAT_END
  1
CELLSTYLE_BEGIN
 90
        1
 91
        1
300
_TITLE
309
CELLSTYLE_END
300
CELLSTYLE
  1
TABLEFORMAT_BEGIN
 90
        5
170
     1
 91
        0
 92
        0
 62
   257
 93
        1
300
CONTENTFORMAT
  1
CONTENTFORMAT_BEGIN
 90
        0
 91
        0
 92
      512
 93
        0
300

 40
0.0
140
1.0
 94
        5
 62
     0
340
55
144
0.18
309
CONTENTFORMAT_END
171
     0
 94
        0
309
TABLEFORMAT_END
  1
CELLSTYLE_BEGIN
 90
        2
 91
        1
300
_HEADER
309
CELLSTYLE_END
300
CELLSTYLE
  1
TABLEFORMAT_BEGIN
 90
        5
170
     1
 91
        0
 92
        0
 62
   257
 93
        1
300
CONTENTFORMAT
  1
CONTENTFORMAT_BEGIN
 90
        0
 91
        0
 92
      512
 93
        0
300

 40
0.0
140
1.0
 94
        2
 62
     0
340
55
144
0.18
309
CONTENTFORMAT_END
171
     0
 94
        0
309
TABLEFORMAT_END
  1
CELLSTYLE_BEGIN
 90
        3
 91
        2
300
_DATA
309
CELLSTYLE_END
  0
XRECORD
  5
294F
102
{ACAD_REACTORS
330
9FD
102
}
330
9FD
100
AcDbXrecord
280
     1
102
ACAD_ROUNDTRIP_PRE2007_TABLESTYLE
 90
      512
 91
        0
  1

 92
      512
 93
        0
  2

 94
      512
 95
        0
  3

  0
XRECORD
  5
A48
102
{ACAD_REACTORS
330
A47
102
}
330
A47
100
AcDbXrecord
280
     1
102
RTVSPropertyOp28
 70
     1
102
RTVSPropertyOp29
 70
     1
102
RTVSPropertyOp30
 70
     1
102
RTVSPropertyOp31
 70
     1
102
RTVSPropertyOp32
 70
     1
102
RTVSPropertyOp0
 70
     1
102
RTVSPropertyOp1
 70
     1
102
RTVSPropertyOp2
 70
     1
102
RTVSPropertyOp3
 70
     1
102
RTVSPropertyOp4
 70
     1
102
RTVSPropertyOp5
 70
     1
102
RTVSPropertyOp6
 70
     1
102
RTVSPropertyOp7
 70
     1
102
RTVSPropertyOp8
 70
     1
102
RTVSPropertyOp9
 70
     1
102
RTVSPropertyOp10
 70
     1
102
RTVSPropertyOp11
 70
     1
102
RTVSPropertyOp12
 70
     1
102
RTVSPropertyOp13
 70
     1
102
RTVSPropertyOp14
 70
     1
102
RTVSPropertyOp15
 70
     1
102
RTVSPropertyOp16
 70
     1
102
RTVSPropertyOp17
 70
     1
102
RTVSPropertyOp18
 70
     1
102
RTVSPropertyOp19
 70
     1
102
RTVSPropertyOp20
 70
     1
102
RTVSPropertyOp21
 70
     1
102
RTVSPropertyOp22
 70
     1
102
RTVSPropertyOp23
 70
     1
102
RTVSPropertyOp24
 70
     1
102
RTVSPropertyOp25
 70
     1
102
RTVSPropertyOp26
 70
     1
102
RTVSPropertyOp27
 70
     1
  0
XRECORD
  5
2971
102
{ACAD_REACTORS
330
2970
102
}
330
2970
100
AcDbXrecord
280
     1
102
RTVSPropertyOp0
 70
     1
102
RTVSPropertyOp1
 70
     1
102
RTVSPropertyOp2
 70
     1
102
RTVSPropertyOp3
 70
     1
102
RTVSPropertyOp4
 70
     1
102
RTVSPropertyOp5
 70
     1
102
RTVSPropertyOp6
 70
     1
102
RTVSPropertyOp7
 70
     1
102
RTVSPropertyOp8
 70
     1
102
RTVSPropertyOp9
 70
     1
102
RTVSPropertyOp10
 70
     1
102
RTVSPropertyOp11
 70
     1
102
RTVSPropertyOp12
 70
     1
102
RTVSPropertyOp13
 70
     1
102
RTVSPropertyOp14
 70
     1
102
RTVSPropertyOp15
 70
     1
102
RTVSPropertyOp16
 70
     1
102
RTVSPropertyOp17
 70
     1
102
RTVSPropertyOp18
 70
     1
102
RTVSPropertyOp19
 70
     1
102
RTVSPropertyOp20
 70
     1
102
RTVSPropertyOp21
 70
     1
102
RTVSPropertyOp22
 70
     1
102
RTVSPropertyOp23
 70
     1
102
RTVSPropertyOp24
 70
     1
102
RTVSPropertyOp25
 70
     1
102
RTVSPropertyOp26
 70
     1
102
RTVSPropertyOp27
 70
     1
  0
XRECORD
  5
296F
102
{ACAD_REACTORS
330
296E
102
}
330
296E
100
AcDbXrecord
280
     1
102
RTVSPropertyOp0
 70
     1
102
RTVSPropertyOp1
 70
     1
102
RTVSPropertyOp2
 70
     1
102
RTVSPropertyOp3
 70
     1
102
RTVSPropertyOp4
 70
     1
102
RTVSPropertyOp5
 70
     1
102
RTVSPropertyOp6
 70
     1
102
RTVSPropertyOp7
 70
     1
102
RTVSPropertyOp8
 70
     1
102
RTVSPropertyOp9
 70
     1
102
RTVSPropertyOp10
 70
     1
102
RTVSPropertyOp11
 70
     1
102
RTVSPropertyOp12
 70
     1
102
RTVSPropertyOp13
 70
     1
102
RTVSPropertyOp14
 70
     1
102
RTVSPropertyOp15
 70
     1
102
RTVSPropertyOp16
 70
     1
102
RTVSPropertyOp17
 70
     1
102
RTVSPropertyOp18
 70
     1
102
RTVSPropertyOp19
 70
     1
102
RTVSPropertyOp20
 70
     1
102
RTVSPropertyOp21
 70
     1
102
RTVSPropertyOp22
 70
     1
102
RTVSPropertyOp23
 70
     1
102
RTVSPropertyOp24
 70
     1
102
RTVSPropertyOp25
 70
     1
102
RTVSPropertyOp26
 70
     1
102
RTVSPropertyOp27
 70
     1
  0
XRECORD
  5
A46
102
{ACAD_REACTORS
330
A45
102
}
330
A45
100
AcDbXrecord
280
     1
102
RTVSPropertyOp28
 70
     1
102
RTVSPropertyOp29
 70
     1
102
RTVSPropertyOp30
 70
     1
102
RTVSPropertyOp31
 70
     1
102
RTVSPropertyOp32
 70
     1
102
RTVSPropertyOp0
 70
     1
102
RTVSPropertyOp1
 70
     1
102
RTVSPropertyOp2
 70
     1
102
RTVSPropertyOp3
 70
     1
102
RTVSPropertyOp4
 70
     1
102
RTVSPropertyOp5
 70
     1
102
RTVSPropertyOp6
 70
     1
102
RTVSPropertyOp7
 70
     1
102
RTVSPropertyOp8
 70
     1
102
RTVSPropertyOp9
 70
     1
102
RTVSPropertyOp10
 70
     1
102
RTVSPropertyOp11
 70
     1
102
RTVSPropertyOp12
 70
     1
102
RTVSPropertyOp13
 70
     1
102
RTVSPropertyOp14
 70
     1
102
RTVSPropertyOp15
 70
     1
102
RTVSPropertyOp16
 70
     1
102
RTVSPropertyOp17
 70
     1
102
RTVSPropertyOp18
 70
     1
102
RTVSPropertyOp19
 70
     1
102
RTVSPropertyOp20
 70
     1
102
RTVSPropertyOp21
 70
     1
102
RTVSPropertyOp22
 70
     1
102
RTVSPropertyOp23
 70
     1
102
RTVSPropertyOp24
 70
     1
102
RTVSPropertyOp25
 70
     1
102
RTVSPropertyOp26
 70
     1
102
RTVSPropertyOp27
 70
     1
  0
XRECORD
  5
A54
102
{ACAD_REACTORS
330
A53
102
}
330
A53
100
AcDbXrecord
280
     1
102
RTVSPropertyOp28
 70
     1
102
RTVSPropertyOp29
 70
     1
102
RTVSPropertyOp30
 70
     1
102
RTVSPropertyOp31
 70
     1
102
RTVSPropertyOp32
 70
     1
102
RTVSPropertyOp0
 70
     1
102
RTVSPropertyOp1
 70
     1
102
RTVSPropertyOp2
 70
     1
102
RTVSPropertyOp3
 70
     1
102
RTVSPropertyOp4
 70
     1
102
RTVSPropertyOp5
 70
     1
102
RTVSPropertyOp6
 70
     1
102
RTVSPropertyOp7
 70
     1
102
RTVSPropertyOp8
 70
     1
102
RTVSPropertyOp9
 70
     1
102
RTVSPropertyOp10
 70
     1
102
RTVSPropertyOp11
 70
     1
102
RTVSPropertyOp12
 70
     1
102
RTVSPropertyOp13
 70
     1
102
RTVSPropertyOp14
 70
     1
102
RTVSPropertyOp15
 70
     1
102
RTVSPropertyOp16
 70
     1
102
RTVSPropertyOp17
 70
     1
102
RTVSPropertyOp18
 70
     1
102
RTVSPropertyOp19
 70
     1
102
RTVSPropertyOp20
 70
     1
102
RTVSPropertyOp21
 70
     1
102
RTVSPropertyOp22
 70
     1
102
RTVSPropertyOp23
 70
     1
102
RTVSPropertyOp24
 70
     1
102
RTVSPropertyOp25
 70
     1
102
RTVSPropertyOp26
 70
     1
102
RTVSPropertyOp27
 70
     1
  0
XRECORD
  5
A5C
102
{ACAD_REACTORS
330
A5B
102
}
330
A5B
100
AcDbXrecord
280
     1
102
RTVSPropertyOp28
 70
     1
102
RTVSPropertyOp29
 70
     1
102
RTVSPropertyOp30
 70
     1
102
RTVSPropertyOp31
 70
     1
102
RTVSPropertyOp32
 70
     1
102
RTVSPropertyOp0
 70
     1
102
RTVSPropertyOp1
 70
     1
102
RTVSPropertyOp2
 70
     1
102
RTVSPropertyOp3
 70
     1
102
RTVSPropertyOp4
 70
     1
102
RTVSPropertyOp5
 70
     1
102
RTVSPropertyOp6
 70
     1
102
RTVSPropertyOp7
 70
     1
102
RTVSPropertyOp8
 70
     1
102
RTVSPropertyOp9
 70
     1
102
RTVSPropertyOp10
 70
     1
102
RTVSPropertyOp11
 70
     1
102
RTVSPropertyOp12
 70
     1
102
RTVSPropertyOp13
 70
     1
102
RTVSPropertyOp14
 70
     1
102
RTVSPropertyOp15
 70
     1
102
RTVSPropertyOp16
 70
     1
102
RTVSPropertyOp17
 70
     1
102
RTVSPropertyOp18
 70
     1
102
RTVSPropertyOp19
 70
     1
102
RTVSPropertyOp20
 70
     1
102
RTVSPropertyOp21
 70
     1
102
RTVSPropertyOp22
 70
     1
102
RTVSPropertyOp23
 70
     1
102
RTVSPropertyOp24
 70
     1
102
RTVSPropertyOp25
 70
     1
102
RTVSPropertyOp26
 70
     1
102
RTVSPropertyOp27
 70
     1
  0
XRECORD
  5
A4E
102
{ACAD_REACTORS
330
A4D
102
}
330
A4D
100
AcDbXrecord
280
     1
102
RTVSPropertyOp28
 70
     1
102
RTVSPropertyOp29
 70
     1
102
RTVSPropertyOp30
 70
     1
102
RTVSPropertyOp31
 70
     1
102
RTVSPropertyOp32
 70
     1
102
RTVSPropertyOp0
 70
     1
102
RTVSPropertyOp1
 70
     1
102
RTVSPropertyOp2
 70
     1
102
RTVSPropertyOp3
 70
     1
102
RTVSPropertyOp4
 70
     1
102
RTVSPropertyOp5
 70
     1
102
RTVSPropertyOp6
 70
     1
102
RTVSPropertyOp7
 70
     1
102
RTVSPropertyOp8
 70
     1
102
RTVSPropertyOp9
 70
     1
102
RTVSPropertyOp10
 70
     1
102
RTVSPropertyOp11
 70
     1
102
RTVSPropertyOp12
 70
     1
102
RTVSPropertyOp13
 70
     1
102
RTVSPropertyOp14
 70
     1
102
RTVSPropertyOp15
 70
     1
102
RTVSPropertyOp16
 70
     1
102
RTVSPropertyOp17
 70
     1
102
RTVSPropertyOp18
 70
     1
102
RTVSPropertyOp19
 70
     1
102
RTVSPropertyOp20
 70
     1
102
RTVSPropertyOp21
 70
     1
102
RTVSPropertyOp22
 70
     1
102
RTVSPropertyOp23
 70
     1
102
RTVSPropertyOp24
 70
     1
102
RTVSPropertyOp25
 70
     1
102
RTVSPropertyOp26
 70
     1
102
RTVSPropertyOp27
 70
     1
  0
XRECORD
  5
A52
102
{ACAD_REACTORS
330
A51
102
}
330
A51
100
AcDbXrecord
280
     1
102
RTVSPropertyOp28
 70
     1
102
RTVSPropertyOp29
 70
     1
102
RTVSPropertyOp30
 70
     1
102
RTVSPropertyOp31
 70
     1
102
RTVSPropertyOp32
 70
     1
102
RTVSPropertyOp0
 70
     1
102
RTVSPropertyOp1
 70
     1
102
RTVSPropertyOp2
 70
     1
102
RTVSPropertyOp3
 70
     1
102
RTVSPropertyOp4
 70
     1
102
RTVSPropertyOp5
 70
     1
102
RTVSPropertyOp6
 70
     1
102
RTVSPropertyOp7
 70
     1
102
RTVSPropertyOp8
 70
     1
102
RTVSPropertyOp9
 70
     1
102
RTVSPropertyOp10
 70
     1
102
RTVSPropertyOp11
 70
     1
102
RTVSPropertyOp12
 70
     1
102
RTVSPropertyOp13
 70
     1
102
RTVSPropertyOp14
 70
     1
102
RTVSPropertyOp15
 70
     1
102
RTVSPropertyOp16
 70
     1
102
RTVSPropertyOp17
 70
     1
102
RTVSPropertyOp18
 70
     1
102
RTVSPropertyOp19
 70
     1
102
RTVSPropertyOp20
 70
     1
102
RTVSPropertyOp21
 70
     1
102
RTVSPropertyOp22
 70
     1
102
RTVSPropertyOp23
 70
     1
102
RTVSPropertyOp24
 70
     1
102
RTVSPropertyOp25
 70
     1
102
RTVSPropertyOp26
 70
     1
102
RTVSPropertyOp27
 70
     1
  0
XRECORD
  5
A6C
102
{ACAD_REACTORS
330
A6B
102
}
330
A6B
100
AcDbXrecord
280
     1
102
RTVSPropertyOp28
 70
     0
102
RTVSPropertyOp29
 70
     0
102
RTVSPropertyOp30
 70
     0
102
RTVSPropertyOp31
 70
     0
102
RTVSPropertyOp32
 70
     0
102
RTVSPropertyOp0
 70
     0
102
RTVSPropertyOp1
 70
     0
102
RTVSPropertyOp2
 70
     0
102
RTVSPropertyOp3
 70
     0
102
RTVSPropertyOp4
 70
     0
102
RTVSPropertyOp5
 70
     0
102
RTVSPropertyOp6
 70
     0
102
RTVSPropertyOp7
 70
     0
102
RTVSPropertyOp8
 70
     0
102
RTVSPropertyOp9
 70
     0
102
RTVSPropertyOp10
 70
     0
102
RTVSPropertyOp11
 70
     0
102
RTVSPropertyOp12
 70
     0
102
RTVSPropertyOp13
 70
     0
102
RTVSPropertyOp14
 70
     2
102
RTVSPropertyOp15
 70
     0
102
RTVSPropertyOp16
 70
     0
102
RTVSPropertyOp17
 70
     0
102
RTVSPropertyOp18
 70
     0
102
RTVSPropertyOp19
 70
     0
102
RTVSPropertyOp20
 70
     0
102
RTVSPropertyOp21
 70
     0
102
RTVSPropertyOp22
 70
     0
102
RTVSPropertyOp23
 70
     0
102
RTVSPropertyOp24
 70
     0
102
RTVSPropertyOp25
 70
     0
102
RTVSPropertyOp26
 70
     0
102
RTVSPropertyOp27
 70
     0
  0
XRECORD
  5
A5A
102
{ACAD_REACTORS
330
A59
102
}
330
A59
100
AcDbXrecord
280
     1
102
RTVSPropertyOp28
 70
     1
102
RTVSPropertyOp29
 70
     1
102
RTVSPropertyOp30
 70
     1
102
RTVSPropertyOp31
 70
     1
102
RTVSPropertyOp32
 70
     1
102
RTVSPropertyOp0
 70
     1
102
RTVSPropertyOp1
 70
     1
102
RTVSPropertyOp2
 70
     1
102
RTVSPropertyOp3
 70
     1
102
RTVSPropertyOp4
 70
     1
102
RTVSPropertyOp5
 70
     1
102
RTVSPropertyOp6
 70
     1
102
RTVSPropertyOp7
 70
     1
102
RTVSPropertyOp8
 70
     1
102
RTVSPropertyOp9
 70
     1
102
RTVSPropertyOp10
 70
     1
102
RTVSPropertyOp11
 70
     1
102
RTVSPropertyOp12
 70
     1
102
RTVSPropertyOp13
 70
     1
102
RTVSPropertyOp14
 70
     1
102
RTVSPropertyOp15
 70
     1
102
RTVSPropertyOp16
 70
     1
102
RTVSPropertyOp17
 70
     1
102
RTVSPropertyOp18
 70
     1
102
RTVSPropertyOp19
 70
     1
102
RTVSPropertyOp20
 70
     1
102
RTVSPropertyOp21
 70
     1
102
RTVSPropertyOp22
 70
     1
102
RTVSPropertyOp23
 70
     1
102
RTVSPropertyOp24
 70
     1
102
RTVSPropertyOp25
 70
     1
102
RTVSPropertyOp26
 70
     1
102
RTVSPropertyOp27
 70
     1
  0
XRECORD
  5
A3E
102
{ACAD_REACTORS
330
A3D
102
}
330
A3D
100
AcDbXrecord
280
     1
102
RTVSPropertyOp28
 70
     1
102
RTVSPropertyOp29
 70
     1
102
RTVSPropertyOp30
 70
     1
102
RTVSPropertyOp31
 70
     1
102
RTVSPropertyOp32
 70
     1
102
RTVSPropertyOp0
 70
     1
102
RTVSPropertyOp1
 70
     1
102
RTVSPropertyOp2
 70
     1
102
RTVSPropertyOp3
 70
     1
102
RTVSPropertyOp4
 70
     1
102
RTVSPropertyOp5
 70
     1
102
RTVSPropertyOp6
 70
     1
102
RTVSPropertyOp7
 70
     1
102
RTVSPropertyOp8
 70
     1
102
RTVSPropertyOp9
 70
     1
102
RTVSPropertyOp10
 70
     1
102
RTVSPropertyOp11
 70
     1
102
RTVSPropertyOp12
 70
     1
102
RTVSPropertyOp13
 70
     1
102
RTVSPropertyOp14
 70
     1
102
RTVSPropertyOp15
 70
     1
102
RTVSPropertyOp16
 70
     1
102
RTVSPropertyOp17
 70
     1
102
RTVSPropertyOp18
 70
     1
102
RTVSPropertyOp19
 70
     1
102
RTVSPropertyOp20
 70
     1
102
RTVSPropertyOp21
 70
     1
102
RTVSPropertyOp22
 70
     1
102
RTVSPropertyOp23
 70
     1
102
RTVSPropertyOp24
 70
     1
102
RTVSPropertyOp25
 70
     1
102
RTVSPropertyOp26
 70
     1
102
RTVSPropertyOp27
 70
     1
  0
XRECORD
  5
A40
102
{ACAD_REACTORS
330
A3F
102
}
330
A3F
100
AcDbXrecord
280
     1
102
RTVSPropertyOp28
 70
     1
102
RTVSPropertyOp29
 70
     1
102
RTVSPropertyOp30
 70
     1
102
RTVSPropertyOp31
 70
     1
102
RTVSPropertyOp32
 70
     1
102
RTVSPropertyOp0
 70
     1
102
RTVSPropertyOp1
 70
     1
102
RTVSPropertyOp2
 70
     1
102
RTVSPropertyOp3
 70
     1
102
RTVSPropertyOp4
 70
     1
102
RTVSPropertyOp5
 70
     1
102
RTVSPropertyOp6
 70
     1
102
RTVSPropertyOp7
 70
     1
102
RTVSPropertyOp8
 70
     1
102
RTVSPropertyOp9
 70
     1
102
RTVSPropertyOp10
 70
     1
102
RTVSPropertyOp11
 70
     1
102
RTVSPropertyOp12
 70
     1
102
RTVSPropertyOp13
 70
     1
102
RTVSPropertyOp14
 70
     1
102
RTVSPropertyOp15
 70
     1
102
RTVSPropertyOp16
 70
     1
102
RTVSPropertyOp17
 70
     1
102
RTVSPropertyOp18
 70
     1
102
RTVSPropertyOp19
 70
     1
102
RTVSPropertyOp20
 70
     1
102
RTVSPropertyOp21
 70
     1
102
RTVSPropertyOp22
 70
     1
102
RTVSPropertyOp23
 70
     1
102
RTVSPropertyOp24
 70
     1
102
RTVSPropertyOp25
 70
     1
102
RTVSPropertyOp26
 70
     1
102
RTVSPropertyOp27
 70
     1
  0
XRECORD
  5
A42
102
{ACAD_REACTORS
330
A41
102
}
330
A41
100
AcDbXrecord
280
     1
102
RTVSPropertyOp28
 70
     1
102
RTVSPropertyOp29
 70
     1
102
RTVSPropertyOp30
 70
     1
102
RTVSPropertyOp31
 70
     1
102
RTVSPropertyOp32
 70
     1
102
RTVSPropertyOp0
 70
     1
102
RTVSPropertyOp1
 70
     1
102
RTVSPropertyOp2
 70
     1
102
RTVSPropertyOp3
 70
     1
102
RTVSPropertyOp4
 70
     1
102
RTVSPropertyOp5
 70
     1
102
RTVSPropertyOp6
 70
     1
102
RTVSPropertyOp7
 70
     1
102
RTVSPropertyOp8
 70
     1
102
RTVSPropertyOp9
 70
     1
102
RTVSPropertyOp10
 70
     1
102
RTVSPropertyOp11
 70
     1
102
RTVSPropertyOp12
 70
     1
102
RTVSPropertyOp13
 70
     1
102
RTVSPropertyOp14
 70
     1
102
RTVSPropertyOp15
 70
     1
102
RTVSPropertyOp16
 70
     1
102
RTVSPropertyOp17
 70
     1
102
RTVSPropertyOp18
 70
     1
102
RTVSPropertyOp19
 70
     1
102
RTVSPropertyOp20
 70
     1
102
RTVSPropertyOp21
 70
     1
102
RTVSPropertyOp22
 70
     1
102
RTVSPropertyOp23
 70
     1
102
RTVSPropertyOp24
 70
     1
102
RTVSPropertyOp25
 70
     1
102
RTVSPropertyOp26
 70
     1
102
RTVSPropertyOp27
 70
     1
  0
XRECORD
  5
A44
102
{ACAD_REACTORS
330
A43
102
}
330
A43
100
AcDbXrecord
280
     1
102
RTVSPropertyOp28
 70
     1
102
RTVSPropertyOp29
 70
     1
102
RTVSPropertyOp30
 70
     1
102
RTVSPropertyOp31
 70
     1
102
RTVSPropertyOp32
 70
     1
102
RTVSPropertyOp0
 70
     1
102
RTVSPropertyOp1
 70
     1
102
RTVSPropertyOp2
 70
     1
102
RTVSPropertyOp3
 70
     1
102
RTVSPropertyOp4
 70
     1
102
RTVSPropertyOp5
 70
     1
102
RTVSPropertyOp6
 70
     1
102
RTVSPropertyOp7
 70
     1
102
RTVSPropertyOp8
 70
     1
102
RTVSPropertyOp9
 70
     1
102
RTVSPropertyOp10
 70
     1
102
RTVSPropertyOp11
 70
     1
102
RTVSPropertyOp12
 70
     1
102
RTVSPropertyOp13
 70
     1
102
RTVSPropertyOp14
 70
     1
102
RTVSPropertyOp15
 70
     1
102
RTVSPropertyOp16
 70
     1
102
RTVSPropertyOp17
 70
     1
102
RTVSPropertyOp18
 70
     1
102
RTVSPropertyOp19
 70
     1
102
RTVSPropertyOp20
 70
     1
102
RTVSPropertyOp21
 70
     1
102
RTVSPropertyOp22
 70
     1
102
RTVSPropertyOp23
 70
     1
102
RTVSPropertyOp24
 70
     1
102
RTVSPropertyOp25
 70
     1
102
RTVSPropertyOp26
 70
     1
102
RTVSPropertyOp27
 70
     1
  0
XRECORD
  5
A4C
102
{ACAD_REACTORS
330
A4B
102
}
330
A4B
100
AcDbXrecord
280
     1
102
RTVSPropertyOp28
 70
     1
102
RTVSPropertyOp29
 70
     1
102
RTVSPropertyOp30
 70
     1
102
RTVSPropertyOp31
 70
     1
102
RTVSPropertyOp32
 70
     1
102
RTVSPropertyOp0
 70
     1
102
RTVSPropertyOp1
 70
     1
102
RTVSPropertyOp2
 70
     1
102
RTVSPropertyOp3
 70
     1
102
RTVSPropertyOp4
 70
     1
102
RTVSPropertyOp5
 70
     1
102
RTVSPropertyOp6
 70
     1
102
RTVSPropertyOp7
 70
     1
102
RTVSPropertyOp8
 70
     1
102
RTVSPropertyOp9
 70
     1
102
RTVSPropertyOp10
 70
     1
102
RTVSPropertyOp11
 70
     1
102
RTVSPropertyOp12
 70
     1
102
RTVSPropertyOp13
 70
     1
102
RTVSPropertyOp14
 70
     1
102
RTVSPropertyOp15
 70
     1
102
RTVSPropertyOp16
 70
     1
102
RTVSPropertyOp17
 70
     1
102
RTVSPropertyOp18
 70
     1
102
RTVSPropertyOp19
 70
     1
102
RTVSPropertyOp20
 70
     1
102
RTVSPropertyOp21
 70
     1
102
RTVSPropertyOp22
 70
     1
102
RTVSPropertyOp23
 70
     1
102
RTVSPropertyOp24
 70
     1
102
RTVSPropertyOp25
 70
     1
102
RTVSPropertyOp26
 70
     1
102
RTVSPropertyOp27
 70
     1
  0
XRECORD
  5
A68
102
{ACAD_REACTORS
330
A67
102
}
330
A67
100
AcDbXrecord
280
     1
102
RTVSPropertyOp28
 70
     0
102
RTVSPropertyOp29
 70
     0
102
RTVSPropertyOp30
 70
     0
102
RTVSPropertyOp31
 70
     0
102
RTVSPropertyOp32
 70
     0
102
RTVSPropertyOp0
 70
     0
102
RTVSPropertyOp1
 70
     0
102
RTVSPropertyOp2
 70
     0
102
RTVSPropertyOp3
 70
     0
102
RTVSPropertyOp4
 70
     0
102
RTVSPropertyOp5
 70
     0
102
RTVSPropertyOp6
 70
     0
102
RTVSPropertyOp7
 70
     0
102
RTVSPropertyOp8
 70
     0
102
RTVSPropertyOp9
 70
     0
102
RTVSPropertyOp10
 70
     0
102
RTVSPropertyOp11
 70
     0
102
RTVSPropertyOp12
 70
     0
102
RTVSPropertyOp13
 70
     0
102
RTVSPropertyOp14
 70
     2
102
RTVSPropertyOp15
 70
     0
102
RTVSPropertyOp16
 70
     0
102
RTVSPropertyOp17
 70
     0
102
RTVSPropertyOp18
 70
     0
102
RTVSPropertyOp19
 70
     0
102
RTVSPropertyOp20
 70
     0
102
RTVSPropertyOp21
 70
     0
102
RTVSPropertyOp22
 70
     0
102
RTVSPropertyOp23
 70
     0
102
RTVSPropertyOp24
 70
     0
102
RTVSPropertyOp25
 70
     0
102
RTVSPropertyOp26
 70
     0
102
RTVSPropertyOp27
 70
     0
  0
XRECORD
  5
A58
102
{ACAD_REACTORS
330
A57
102
}
330
A57
100
AcDbXrecord
280
     1
102
RTVSPropertyOp28
 70
     1
102
RTVSPropertyOp29
 70
     1
102
RTVSPropertyOp30
 70
     1
102
RTVSPropertyOp31
 70
     1
102
RTVSPropertyOp32
 70
     1
102
RTVSPropertyOp0
 70
     1
102
RTVSPropertyOp1
 70
     1
102
RTVSPropertyOp2
 70
     1
102
RTVSPropertyOp3
 70
     1
102
RTVSPropertyOp4
 70
     1
102
RTVSPropertyOp5
 70
     1
102
RTVSPropertyOp6
 70
     1
102
RTVSPropertyOp7
 70
     1
102
RTVSPropertyOp8
 70
     1
102
RTVSPropertyOp9
 70
     1
102
RTVSPropertyOp10
 70
     1
102
RTVSPropertyOp11
 70
     1
102
RTVSPropertyOp12
 70
     1
102
RTVSPropertyOp13
 70
     1
102
RTVSPropertyOp14
 70
     1
102
RTVSPropertyOp15
 70
     1
102
RTVSPropertyOp16
 70
     1
102
RTVSPropertyOp17
 70
     1
102
RTVSPropertyOp18
 70
     1
102
RTVSPropertyOp19
 70
     1
102
RTVSPropertyOp20
 70
     1
102
RTVSPropertyOp21
 70
     1
102
RTVSPropertyOp22
 70
     1
102
RTVSPropertyOp23
 70
     1
102
RTVSPropertyOp24
 70
     1
102
RTVSPropertyOp25
 70
     1
102
RTVSPropertyOp26
 70
     1
102
RTVSPropertyOp27
 70
     1
  0
XRECORD
  5
A6A
102
{ACAD_REACTORS
330
A69
102
}
330
A69
100
AcDbXrecord
280
     1
102
RTVSPropertyOp28
 70
     0
102
RTVSPropertyOp29
 70
     0
102
RTVSPropertyOp30
 70
     0
102
RTVSPropertyOp31
 70
     0
102
RTVSPropertyOp32
 70
     0
102
RTVSPropertyOp0
 70
     0
102
RTVSPropertyOp1
 70
     0
102
RTVSPropertyOp2
 70
     0
102
RTVSPropertyOp3
 70
     0
102
RTVSPropertyOp4
 70
     0
102
RTVSPropertyOp5
 70
     0
102
RTVSPropertyOp6
 70
     0
102
RTVSPropertyOp7
 70
     0
102
RTVSPropertyOp8
 70
     0
102
RTVSPropertyOp9
 70
     0
102
RTVSPropertyOp10
 70
     0
102
RTVSPropertyOp11
 70
     0
102
RTVSPropertyOp12
 70
     0
102
RTVSPropertyOp13
 70
     0
102
RTVSPropertyOp14
 70
     2
102
RTVSPropertyOp15
 70
     0
102
RTVSPropertyOp16
 70
     0
102
RTVSPropertyOp17
 70
     0
102
RTVSPropertyOp18
 70
     0
102
RTVSPropertyOp19
 70
     0
102
RTVSPropertyOp20
 70
     0
102
RTVSPropertyOp21
 70
     0
102
RTVSPropertyOp22
 70
     0
102
RTVSPropertyOp23
 70
     0
102
RTVSPropertyOp24
 70
     0
102
RTVSPropertyOp25
 70
     0
102
RTVSPropertyOp26
 70
     0
102
RTVSPropertyOp27
 70
     0
  0
XRECORD
  5
A50
102
{ACAD_REACTORS
330
A4F
102
}
330
A4F
100
AcDbXrecord
280
     1
102
RTVSPropertyOp28
 70
     1
102
RTVSPropertyOp29
 70
     1
102
RTVSPropertyOp30
 70
     1
102
RTVSPropertyOp31
 70
     1
102
RTVSPropertyOp32
 70
     1
102
RTVSPropertyOp0
 70
     1
102
RTVSPropertyOp1
 70
     1
102
RTVSPropertyOp2
 70
     1
102
RTVSPropertyOp3
 70
     1
102
RTVSPropertyOp4
 70
     1
102
RTVSPropertyOp5
 70
     1
102
RTVSPropertyOp6
 70
     1
102
RTVSPropertyOp7
 70
     1
102
RTVSPropertyOp8
 70
     1
102
RTVSPropertyOp9
 70
     1
102
RTVSPropertyOp10
 70
     1
102
RTVSPropertyOp11
 70
     1
102
RTVSPropertyOp12
 70
     1
102
RTVSPropertyOp13
 70
     1
102
RTVSPropertyOp14
 70
     1
102
RTVSPropertyOp15
 70
     1
102
RTVSPropertyOp16
 70
     1
102
RTVSPropertyOp17
 70
     1
102
RTVSPropertyOp18
 70
     1
102
RTVSPropertyOp19
 70
     1
102
RTVSPropertyOp20
 70
     1
102
RTVSPropertyOp21
 70
     1
102
RTVSPropertyOp22
 70
     1
102
RTVSPropertyOp23
 70
     1
102
RTVSPropertyOp24
 70
     1
102
RTVSPropertyOp25
 70
     1
102
RTVSPropertyOp26
 70
     1
102
RTVSPropertyOp27
 70
     1
  0
XRECORD
  5
A66
102
{ACAD_REACTORS
330
A65
102
}
330
A65
100
AcDbXrecord
280
     1
102
RTVSPropertyOp28
 70
     1
102
RTVSPropertyOp29
 70
     1
102
RTVSPropertyOp30
 70
     1
102
RTVSPropertyOp31
 70
     1
102
RTVSPropertyOp32
 70
     1
102
RTVSPropertyOp0
 70
     1
102
RTVSPropertyOp1
 70
     1
102
RTVSPropertyOp2
 70
     1
102
RTVSPropertyOp3
 70
     1
102
RTVSPropertyOp4
 70
     1
102
RTVSPropertyOp5
 70
     1
102
RTVSPropertyOp6
 70
     1
102
RTVSPropertyOp7
 70
     1
102
RTVSPropertyOp8
 70
     1
102
RTVSPropertyOp9
 70
     1
102
RTVSPropertyOp10
 70
     1
102
RTVSPropertyOp11
 70
     1
102
RTVSPropertyOp12
 70
     1
102
RTVSPropertyOp13
 70
     1
102
RTVSPropertyOp14
 70
     1
102
RTVSPropertyOp15
 70
     1
102
RTVSPropertyOp16
 70
     1
102
RTVSPropertyOp17
 70
     1
102
RTVSPropertyOp18
 70
     1
102
RTVSPropertyOp19
 70
     1
102
RTVSPropertyOp20
 70
     1
102
RTVSPropertyOp21
 70
     1
102
RTVSPropertyOp22
 70
     1
102
RTVSPropertyOp23
 70
     1
102
RTVSPropertyOp24
 70
     1
102
RTVSPropertyOp25
 70
     1
102
RTVSPropertyOp26
 70
     1
102
RTVSPropertyOp27
 70
     1
  0
XRECORD
  5
A64
102
{ACAD_REACTORS
330
A63
102
}
330
A63
100
AcDbXrecord
280
     1
102
RTVSPropertyOp28
 70
     1
102
RTVSPropertyOp29
 70
     1
102
RTVSPropertyOp30
 70
     1
102
RTVSPropertyOp31
 70
     1
102
RTVSPropertyOp32
 70
     1
102
RTVSPropertyOp0
 70
     1
102
RTVSPropertyOp1
 70
     1
102
RTVSPropertyOp2
 70
     1
102
RTVSPropertyOp3
 70
     1
102
RTVSPropertyOp4
 70
     1
102
RTVSPropertyOp5
 70
     1
102
RTVSPropertyOp6
 70
     1
102
RTVSPropertyOp7
 70
     1
102
RTVSPropertyOp8
 70
     1
102
RTVSPropertyOp9
 70
     1
102
RTVSPropertyOp10
 70
     1
102
RTVSPropertyOp11
 70
     1
102
RTVSPropertyOp12
 70
     1
102
RTVSPropertyOp13
 70
     1
102
RTVSPropertyOp14
 70
     1
102
RTVSPropertyOp15
 70
     1
102
RTVSPropertyOp16
 70
     1
102
RTVSPropertyOp17
 70
     1
102
RTVSPropertyOp18
 70
     1
102
RTVSPropertyOp19
 70
     1
102
RTVSPropertyOp20
 70
     1
102
RTVSPropertyOp21
 70
     1
102
RTVSPropertyOp22
 70
     1
102
RTVSPropertyOp23
 70
     1
102
RTVSPropertyOp24
 70
     1
102
RTVSPropertyOp25
 70
     1
102
RTVSPropertyOp26
 70
     1
102
RTVSPropertyOp27
 70
     1
  0
XRECORD
  5
A5E
102
{ACAD_REACTORS
330
A5D
102
}
330
A5D
100
AcDbXrecord
280
     1
102
RTVSPropertyOp28
 70
     1
102
RTVSPropertyOp29
 70
     1
102
RTVSPropertyOp30
 70
     1
102
RTVSPropertyOp31
 70
     1
102
RTVSPropertyOp32
 70
     1
102
RTVSPropertyOp0
 70
     1
102
RTVSPropertyOp1
 70
     1
102
RTVSPropertyOp2
 70
     1
102
RTVSPropertyOp3
 70
     1
102
RTVSPropertyOp4
 70
     1
102
RTVSPropertyOp5
 70
     1
102
RTVSPropertyOp6
 70
     1
102
RTVSPropertyOp7
 70
     1
102
RTVSPropertyOp8
 70
     1
102
RTVSPropertyOp9
 70
     1
102
RTVSPropertyOp10
 70
     1
102
RTVSPropertyOp11
 70
     1
102
RTVSPropertyOp12
 70
     1
102
RTVSPropertyOp13
 70
     1
102
RTVSPropertyOp14
 70
     1
102
RTVSPropertyOp15
 70
     1
102
RTVSPropertyOp16
 70
     1
102
RTVSPropertyOp17
 70
     1
102
RTVSPropertyOp18
 70
     1
102
RTVSPropertyOp19
 70
     1
102
RTVSPropertyOp20
 70
     1
102
RTVSPropertyOp21
 70
     1
102
RTVSPropertyOp22
 70
     1
102
RTVSPropertyOp23
 70
     1
102
RTVSPropertyOp24
 70
     1
102
RTVSPropertyOp25
 70
     1
102
RTVSPropertyOp26
 70
     1
102
RTVSPropertyOp27
 70
     1
  0
XRECORD
  5
A60
102
{ACAD_REACTORS
330
A5F
102
}
330
A5F
100
AcDbXrecord
280
     1
102
RTVSPropertyOp28
 70
     1
102
RTVSPropertyOp29
 70
     1
102
RTVSPropertyOp30
 70
     1
102
RTVSPropertyOp31
 70
     1
102
RTVSPropertyOp32
 70
     1
102
RTVSPropertyOp0
 70
     1
102
RTVSPropertyOp1
 70
     1
102
RTVSPropertyOp2
 70
     1
102
RTVSPropertyOp3
 70
     1
102
RTVSPropertyOp4
 70
     1
102
RTVSPropertyOp5
 70
     1
102
RTVSPropertyOp6
 70
     1
102
RTVSPropertyOp7
 70
     1
102
RTVSPropertyOp8
 70
     1
102
RTVSPropertyOp9
 70
     1
102
RTVSPropertyOp10
 70
     1
102
RTVSPropertyOp11
 70
     1
102
RTVSPropertyOp12
 70
     1
102
RTVSPropertyOp13
 70
     1
102
RTVSPropertyOp14
 70
     1
102
RTVSPropertyOp15
 70
     1
102
RTVSPropertyOp16
 70
     1
102
RTVSPropertyOp17
 70
     1
102
RTVSPropertyOp18
 70
     1
102
RTVSPropertyOp19
 70
     1
102
RTVSPropertyOp20
 70
     1
102
RTVSPropertyOp21
 70
     1
102
RTVSPropertyOp22
 70
     1
102
RTVSPropertyOp23
 70
     1
102
RTVSPropertyOp24
 70
     1
102
RTVSPropertyOp25
 70
     1
102
RTVSPropertyOp26
 70
     1
102
RTVSPropertyOp27
 70
     1
  0
XRECORD
  5
A56
102
{ACAD_REACTORS
330
A55
102
}
330
A55
100
AcDbXrecord
280
     1
102
RTVSPropertyOp28
 70
     1
102
RTVSPropertyOp29
 70
     1
102
RTVSPropertyOp30
 70
     1
102
RTVSPropertyOp31
 70
     1
102
RTVSPropertyOp32
 70
     1
102
RTVSPropertyOp0
 70
     1
102
RTVSPropertyOp1
 70
     1
102
RTVSPropertyOp2
 70
     1
102
RTVSPropertyOp3
 70
     1
102
RTVSPropertyOp4
 70
     1
102
RTVSPropertyOp5
 70
     1
102
RTVSPropertyOp6
 70
     1
102
RTVSPropertyOp7
 70
     1
102
RTVSPropertyOp8
 70
     1
102
RTVSPropertyOp9
 70
     1
102
RTVSPropertyOp10
 70
     1
102
RTVSPropertyOp11
 70
     1
102
RTVSPropertyOp12
 70
     1
102
RTVSPropertyOp13
 70
     1
102
RTVSPropertyOp14
 70
     1
102
RTVSPropertyOp15
 70
     1
102
RTVSPropertyOp16
 70
     1
102
RTVSPropertyOp17
 70
     1
102
RTVSPropertyOp18
 70
     1
102
RTVSPropertyOp19
 70
     1
102
RTVSPropertyOp20
 70
     1
102
RTVSPropertyOp21
 70
     1
102
RTVSPropertyOp22
 70
     1
102
RTVSPropertyOp23
 70
     1
102
RTVSPropertyOp24
 70
     1
102
RTVSPropertyOp25
 70
     1
102
RTVSPropertyOp26
 70
     1
102
RTVSPropertyOp27
 70
     1
  0
XRECORD
  5
A4A
102
{ACAD_REACTORS
330
A49
102
}
330
A49
100
AcDbXrecord
280
     1
102
RTVSPropertyOp28
 70
     1
102
RTVSPropertyOp29
 70
     1
102
RTVSPropertyOp30
 70
     1
102
RTVSPropertyOp31
 70
     1
102
RTVSPropertyOp32
 70
     1
102
RTVSPropertyOp0
 70
     1
102
RTVSPropertyOp1
 70
     1
102
RTVSPropertyOp2
 70
     1
102
RTVSPropertyOp3
 70
     1
102
RTVSPropertyOp4
 70
     1
102
RTVSPropertyOp5
 70
     1
102
RTVSPropertyOp6
 70
     1
102
RTVSPropertyOp7
 70
     1
102
RTVSPropertyOp8
 70
     1
102
RTVSPropertyOp9
 70
     1
102
RTVSPropertyOp10
 70
     1
102
RTVSPropertyOp11
 70
     1
102
RTVSPropertyOp12
 70
     1
102
RTVSPropertyOp13
 70
     1
102
RTVSPropertyOp14
 70
     1
102
RTVSPropertyOp15
 70
     1
102
RTVSPropertyOp16
 70
     1
102
RTVSPropertyOp17
 70
     1
102
RTVSPropertyOp18
 70
     1
102
RTVSPropertyOp19
 70
     1
102
RTVSPropertyOp20
 70
     1
102
RTVSPropertyOp21
 70
     1
102
RTVSPropertyOp22
 70
     1
102
RTVSPropertyOp23
 70
     1
102
RTVSPropertyOp24
 70
     1
102
RTVSPropertyOp25
 70
     1
102
RTVSPropertyOp26
 70
     1
102
RTVSPropertyOp27
 70
     1
  0
XRECORD
  5
A62
102
{ACAD_REACTORS
330
A61
102
}
330
A61
100
AcDbXrecord
280
     1
102
RTVSPropertyOp28
 70
     1
102
RTVSPropertyOp29
 70
     1
102
RTVSPropertyOp30
 70
     1
102
RTVSPropertyOp31
 70
     1
102
RTVSPropertyOp32
 70
     1
102
RTVSPropertyOp0
 70
     1
102
RTVSPropertyOp1
 70
     1
102
RTVSPropertyOp2
 70
     1
102
RTVSPropertyOp3
 70
     1
102
RTVSPropertyOp4
 70
     1
102
RTVSPropertyOp5
 70
     1
102
RTVSPropertyOp6
 70
     1
102
RTVSPropertyOp7
 70
     1
102
RTVSPropertyOp8
 70
     1
102
RTVSPropertyOp9
 70
     1
102
RTVSPropertyOp10
 70
     1
102
RTVSPropertyOp11
 70
     1
102
RTVSPropertyOp12
 70
     1
102
RTVSPropertyOp13
 70
     1
102
RTVSPropertyOp14
 70
     1
102
RTVSPropertyOp15
 70
     1
102
RTVSPropertyOp16
 70
     1
102
RTVSPropertyOp17
 70
     1
102
RTVSPropertyOp18
 70
     1
102
RTVSPropertyOp19
 70
     1
102
RTVSPropertyOp20
 70
     1
102
RTVSPropertyOp21
 70
     1
102
RTVSPropertyOp22
 70
     1
102
RTVSPropertyOp23
 70
     1
102
RTVSPropertyOp24
 70
     1
102
RTVSPropertyOp25
 70
     1
102
RTVSPropertyOp26
 70
     1
102
RTVSPropertyOp27
 70
     1
  0
ENDSEC
  0
EOF
