  0
SECTION
  2
HEADER
  9
$ACADVER
  1
AC1018
  9
$ACADMAINTVER
 70
   104
  9
$DWGCODEPAGE
  3
ANSI_1250
  9
$AUTHOR
  1
tmrtka
  9
$LASTSAVEDBY
  1
onovak
  9
$REVISIONNUMBER
  1
001
  9
$CUSTOMPROPERTYTAG
  1
Vedoucí
  9
$CUSTOMPROPERTY
  1

  9
$CUSTOMPROPERTYTAG
  1
Společnost
  9
$CUSTOMPROPERTY
  1

  9
$CUSTOMPROPERTYTAG
  1
Kategorie
  9
$CUSTOMPROPERTY
  1

  9
$CUSTOMPROPERTYTAG
  1
Číslo součásti
  9
$CUSTOMPROPERTY
  1
408072
  9
$CUSTOMPROPERTYTAG
  1
Popis
  9
$CUSTOMPROPERTY
  1

  9
$CUSTOMPROPERTYTAG
  1
Projekt
  9
$CUSTOMPROPERTY
  1

  9
$CUSTOMPROPERTYTAG
  1
Kreslil
  9
$CUSTOMPROPERTY
  1
tmrtka
  9
$CUSTOMPROPERTYTAG
  1
Schválil
  9
$CUSTOMPROPERTY
  1

  9
$CUSTOMPROPERTYTAG
  1
Zodpovídá
  9
$CUSTOMPROPERTY
  1

  9
$CUSTOMPROPERTYTAG
  1
Nákladové středisko
  9
$CUSTOMPROPERTY
  1

  9
$CUSTOMPROPERTYTAG
  1
Dodavatel
  9
$CUSTOMPROPERTY
  1

  9
$CUSTOMPROPERTYTAG
  1
Uživatelský stav
  9
$CUSTOMPROPERTY
  1

  9
$CUSTOMPROPERTYTAG
  1
Stav návrhu
  9
$CUSTOMPROPERTY
  1
Rozpracováno
  9
$CUSTOMPROPERTYTAG
  1
Zkontroloval
  9
$CUSTOMPROPERTY
  1

  9
$CUSTOMPROPERTYTAG
  1
Techn. kontr. schválil
  9
$CUSTOMPROPERTY
  1

  9
$CUSTOMPROPERTYTAG
  1
Výrobu schválil
  9
$CUSTOMPROPERTY
  1

  9
$CUSTOMPROPERTYTAG
  1
VS_First
  9
$CUSTOMPROPERTY
  1

  9
$CUSTOMPROPERTYTAG
  1
VS_All
  9
$CUSTOMPROPERTY
  1
1:1,
  9
$CUSTOMPROPERTYTAG
  1
Model_Mass_Value
  9
$CUSTOMPROPERTY
  1
,0
  9
$CUSTOMPROPERTYTAG
  1
Model_Mass_Units
  9
$CUSTOMPROPERTY
  1
kg
  9
$CUSTOMPROPERTYTAG
  1
Model_Area_Value
  9
$CUSTOMPROPERTY
  1
2694,0
  9
$CUSTOMPROPERTYTAG
  1
Model_Area_Units
  9
$CUSTOMPROPERTY
  1
mm˛
  9
$CUSTOMPROPERTYTAG
  1
Model_Volume_Value
  9
$CUSTOMPROPERTY
  1
5471,0
  9
$CUSTOMPROPERTYTAG
  1
Model_Volume_Units
  9
$CUSTOMPROPERTY
  1
mmł
  9
$CUSTOMPROPERTYTAG
  1
Model_CogX_Value
  9
$CUSTOMPROPERTY
  1
,0
  9
$CUSTOMPROPERTYTAG
  1
Model_CogY_Value
  9
$CUSTOMPROPERTY
  1
,0
  9
$CUSTOMPROPERTYTAG
  1
Model_CogZ_Value
  9
$CUSTOMPROPERTY
  1
,0
  9
$CUSTOMPROPERTYTAG
  1
Model_Cog_Units
  9
$CUSTOMPROPERTY
  1
mm
  9
$CUSTOMPROPERTYTAG
  1
Model_Ixx_Value
  9
$CUSTOMPROPERTY
  1
,0
  9
$CUSTOMPROPERTYTAG
  1
Model_Iyy_Value
  9
$CUSTOMPROPERTY
  1
,0
  9
$CUSTOMPROPERTYTAG
  1
Model_Izz_Value
  9
$CUSTOMPROPERTY
  1
,0
  9
$CUSTOMPROPERTYTAG
  1
Model_Ixy_Value
  9
$CUSTOMPROPERTY
  1
,0
  9
$CUSTOMPROPERTYTAG
  1
Model_Iyz_Value
  9
$CUSTOMPROPERTY
  1
,0
  9
$CUSTOMPROPERTYTAG
  1
Model_Ixz_Value
  9
$CUSTOMPROPERTY
  1
,0
  9
$CUSTOMPROPERTYTAG
  1
Model_MassMom_Units
  9
$CUSTOMPROPERTY
  1
kg mm˛
  9
$CUSTOMPROPERTYTAG
  1
FirstViewScale
  9
$CUSTOMPROPERTY
  1

  9
$CUSTOMPROPERTYTAG
  1
AllViewScales
  9
$CUSTOMPROPERTY
  1

  9
$CUSTOMPROPERTYTAG
  1
SaveDate
  9
$CUSTOMPROPERTY
  1
09/12/2007
  9
$CUSTOMPROPERTYTAG
  1
SaveTime
  9
$CUSTOMPROPERTY
  1
10:32
  9
$CUSTOMPROPERTYTAG
  1
PaperSize
  9
$CUSTOMPROPERTY
  1
A3
  9
$CUSTOMPROPERTYTAG
  1
DateSaved
  9
$CUSTOMPROPERTY
  1
12.09.2007
  9
$CUSTOMPROPERTYTAG
  1
TimeSaved
  9
$CUSTOMPROPERTY
  1
10:32 dop.
  9
$INSBASE
 10
0.0
 20
0.0
 30
0.0
  9
$EXTMIN
 10
96.29750279697782
 20
96.5917984542807
 30
-0.0000000349181948
  9
$EXTMAX
 10
425.174607855471
 20
547.92389053144
 30
0.0000000814935747
  9
$LIMMIN
 10
0.0
 20
0.0
  9
$LIMMAX
 10
891.0
 20
630.0
  9
$ORTHOMODE
 70
     0
  9
$REGENMODE
 70
     1
  9
$FILLMODE
 70
     1
  9
$QTEXTMODE
 70
     0
  9
$MIRRTEXT
 70
     0
  9
$LTSCALE
 40
1.5
  9
$ATTMODE
 70
     1
  9
$TEXTSIZE
 40
0.2
  9
$TRACEWID
 40
0.05
  9
$TEXTSTYLE
  7
Standard
  9
$CLAYER
  8
0
  9
$CELTYPE
  6
ByLayer
  9
$CECOLOR
 62
   256
  9
$CELTSCALE
 40
1.0
  9
$DISPSILH
 70
     0
  9
$DIMSCALE
 40
1.0
  9
$DIMASZ
 40
1.799999999999999
  9
$DIMEXO
 40
0.0625
  9
$DIMDLI
 40
0.38
  9
$DIMRND
 40
0.0
  9
$DIMDLE
 40
0.0
  9
$DIMEXE
 40
0.18
  9
$DIMTP
 40
0.0
  9
$DIMTM
 40
0.0
  9
$DIMTXT
 40
0.3499999940395355
  9
$DIMCEN
 40
0.09
  9
$DIMTSZ
 40
0.0
  9
$DIMTOL
 70
     0
  9
$DIMLIM
 70
     0
  9
$DIMTIH
 70
     1
  9
$DIMTOH
 70
     1
  9
$DIMSE1
 70
     0
  9
$DIMSE2
 70
     0
  9
$DIMTAD
 70
     0
  9
$DIMZIN
 70
     0
  9
$DIMBLK
  1

  9
$DIMASO
 70
     1
  9
$DIMSHO
 70
     1
  9
$DIMPOST
  1

  9
$DIMAPOST
  1

  9
$DIMALT
 70
     0
  9
$DIMALTD
 70
     2
  9
$DIMALTF
 40
25.4
  9
$DIMLFAC
 40
1.0
  9
$DIMTOFL
 70
     0
  9
$DIMTVP
 40
0.0
  9
$DIMTIX
 70
     0
  9
$DIMSOXD
 70
     0
  9
$DIMSAH
 70
     0
  9
$DIMBLK1
  1

  9
$DIMBLK2
  1

  9
$DIMSTYLE
  2
Standard
  9
$DIMCLRD
 70
     0
  9
$DIMCLRE
 70
     0
  9
$DIMCLRT
 70
     0
  9
$DIMTFAC
 40
1.0
  9
$DIMGAP
 40
0.09
  9
$DIMJUST
 70
     0
  9
$DIMSD1
 70
     0
  9
$DIMSD2
 70
     0
  9
$DIMTOLJ
 70
     1
  9
$DIMTZIN
 70
     0
  9
$DIMALTZ
 70
     0
  9
$DIMALTTZ
 70
     0
  9
$DIMUPT
 70
     0
  9
$DIMDEC
 70
     4
  9
$DIMTDEC
 70
     4
  9
$DIMALTU
 70
     2
  9
$DIMALTTD
 70
     2
  9
$DIMTXSTY
  7
Standard
  9
$DIMAUNIT
 70
     0
  9
$DIMADEC
 70
     0
  9
$DIMALTRND
 40
0.0
  9
$DIMAZIN
 70
     0
  9
$DIMDSEP
 70
    46
  9
$DIMATFIT
 70
     3
  9
$DIMFRAC
 70
     0
  9
$DIMLDRBLK
  1

  9
$DIMLUNIT
 70
     2
  9
$DIMLWD
 70
    -2
  9
$DIMLWE
 70
    -2
  9
$DIMTMOVE
 70
     0
  9
$LUNITS
 70
     2
  9
$LUPREC
 70
     2
  9
$SKETCHINC
 40
0.1
  9
$FILLETRAD
 40
0.0
  9
$AUNITS
 70
     0
  9
$AUPREC
 70
     0
  9
$MENU
  1
.
  9
$ELEVATION
 40
0.0
  9
$PELEVATION
 40
0.0
  9
$THICKNESS
 40
0.0
  9
$LIMCHECK
 70
     0
  9
$CHAMFERA
 40
0.0
  9
$CHAMFERB
 40
0.0
  9
$CHAMFERC
 40
0.0
  9
$CHAMFERD
 40
0.0
  9
$SKPOLY
 70
     0
  9
$TDCREATE
 40
2456105.543393345
  9
$TDUCREATE
 40
2456105.460060012
  9
$TDUPDATE
 40
2456113.344289768
  9
$TDUUPDATE
 40
2456113.260956435
  9
$TDINDWG
 40
0.0333479398
  9
$TDUSRTIMER
 40
0.0333479398
  9
$USRTIMER
 70
     1
  9
$ANGBASE
 50
0.0
  9
$ANGDIR
 70
     0
  9
$PDMODE
 70
     0
  9
$PDSIZE
 40
0.0
  9
$PLINEWID
 40
0.0
  9
$SPLFRAME
 70
     0
  9
$SPLINETYPE
 70
     6
  9
$SPLINESEGS
 70
     8
  9
$HANDSEED
  5
2DBE
  9
$SURFTAB1
 70
     6
  9
$SURFTAB2
 70
     6
  9
$SURFTYPE
 70
     6
  9
$SURFU
 70
     6
  9
$SURFV
 70
     6
  9
$UCSBASE
  2

  9
$UCSNAME
  2

  9
$UCSORG
 10
0.0
 20
0.0
 30
0.0
  9
$UCSXDIR
 10
1.0
 20
0.0
 30
0.0
  9
$UCSYDIR
 10
0.0
 20
1.0
 30
0.0
  9
$UCSORTHOREF
  2

  9
$UCSORTHOVIEW
 70
     0
  9
$UCSORGTOP
 10
0.0
 20
0.0
 30
0.0
  9
$UCSORGBOTTOM
 10
0.0
 20
0.0
 30
0.0
  9
$UCSORGLEFT
 10
0.0
 20
0.0
 30
0.0
  9
$UCSORGRIGHT
 10
0.0
 20
0.0
 30
0.0
  9
$UCSORGFRONT
 10
0.0
 20
0.0
 30
0.0
  9
$UCSORGBACK
 10
0.0
 20
0.0
 30
0.0
  9
$PUCSBASE
  2

  9
$PUCSNAME
  2

  9
$PUCSORG
 10
0.0
 20
0.0
 30
0.0
  9
$PUCSXDIR
 10
1.0
 20
0.0
 30
0.0
  9
$PUCSYDIR
 10
0.0
 20
1.0
 30
0.0
  9
$PUCSORTHOREF
  2

  9
$PUCSORTHOVIEW
 70
     0
  9
$PUCSORGTOP
 10
0.0
 20
0.0
 30
0.0
  9
$PUCSORGBOTTOM
 10
0.0
 20
0.0
 30
0.0
  9
$PUCSORGLEFT
 10
0.0
 20
0.0
 30
0.0
  9
$PUCSORGRIGHT
 10
0.0
 20
0.0
 30
0.0
  9
$PUCSORGFRONT
 10
0.0
 20
0.0
 30
0.0
  9
$PUCSORGBACK
 10
0.0
 20
0.0
 30
0.0
  9
$USERI1
 70
     0
  9
$USERI2
 70
     0
  9
$USERI3
 70
     0
  9
$USERI4
 70
     0
  9
$USERI5
 70
     0
  9
$USERR1
 40
0.0
  9
$USERR2
 40
0.0
  9
$USERR3
 40
0.0
  9
$USERR4
 40
0.0
  9
$USERR5
 40
0.0
  9
$WORLDVIEW
 70
     1
  9
$SHADEDGE
 70
     3
  9
$SHADEDIF
 70
    70
  9
$TILEMODE
 70
     1
  9
$MAXACTVP
 70
    64
  9
$PINSBASE
 10
0.0
 20
0.0
 30
0.0
  9
$PLIMCHECK
 70
     0
  9
$PEXTMIN
 10
0.0
 20
0.0
 30
0.0
  9
$PEXTMAX
 10
891.0
 20
630.0
 30
0.0
  9
$PLIMMIN
 10
0.0
 20
0.0
  9
$PLIMMAX
 10
891.0
 20
630.0
  9
$UNITMODE
 70
     0
  9
$VISRETAIN
 70
     1
  9
$PLINEGEN
 70
     0
  9
$PSLTSCALE
 70
     1
  9
$TREEDEPTH
 70
  3020
  9
$CMLSTYLE
  2
Standard
  9
$CMLJUST
 70
     0
  9
$CMLSCALE
 40
1.0
  9
$PROXYGRAPHICS
 70
     1
  9
$MEASUREMENT
 70
     1
  9
$CELWEIGHT
370
    -1
  9
$ENDCAPS
280
     0
  9
$JOINSTYLE
280
     0
  9
$LWDISPLAY
290
     0
  9
$INSUNITS
 70
     4
  9
$HYPERLINKBASE
  1

  9
$STYLESHEET
  1

  9
$XEDIT
290
     1
  9
$CEPSNTYPE
380
     0
  9
$PSTYLEMODE
290
     1
  9
$FINGERPRINTGUID
  2
{6815B521-09C7-4E05-BED7-CACD2BBAC99E}
  9
$VERSIONGUID
  2
{A4C26CD0-87D1-402C-BCD1-0103C3315F34}
  9
$EXTNAMES
290
     1
  9
$PSVPSCALE
 40
0.0
  9
$OLESTARTUP
290
     0
  9
$SORTENTS
280
   127
  9
$INDEXCTL
280
     0
  9
$HIDETEXT
280
     1
  9
$XCLIPFRAME
290
     0
  9
$HALOGAP
280
     0
  9
$OBSCOLOR
 70
   257
  9
$OBSLTYPE
280
     0
  9
$INTERSECTIONDISPLAY
280
     0
  9
$INTERSECTIONCOLOR
 70
   257
  9
$DIMASSOC
280
     1
  9
$PROJECTNAME
  1

  0
ENDSEC
  0
SECTION
  2
CLASSES
  0
CLASS
  1
ACDBDICTIONARYWDFLT
  2
AcDbDictionaryWithDefault
  3
ObjectDBX Classes
 90
        0
 91
        1
280
     0
281
     0
  0
CLASS
  1
MATERIAL
  2
AcDbMaterial
  3
ObjectDBX Classes
 90
     1153
 91
        3
280
     0
281
     0
  0
CLASS
  1
VISUALSTYLE
  2
AcDbVisualStyle
  3
ObjectDBX Classes
 90
     4095
 91
       26
280
     0
281
     0
  0
CLASS
  1
SCALE
  2
AcDbScale
  3
ObjectDBX Classes
 90
     1153
 91
       17
280
     0
281
     0
  0
CLASS
  1
TABLESTYLE
  2
AcDbTableStyle
  3
ObjectDBX Classes
 90
     4095
 91
        1
280
     0
281
     0
  0
CLASS
  1
MLEADERSTYLE
  2
AcDbMLeaderStyle
  3
ACDB_MLEADERSTYLE_CLASS
 90
     4095
 91
        1
280
     0
281
     0
  0
CLASS
  1
DICTIONARYVAR
  2
AcDbDictionaryVar
  3
ObjectDBX Classes
 90
        0
 91
       10
280
     0
281
     0
  0
CLASS
  1
ACME_DOCUMENT
  2
AcMeDbDoc
  3
AcMeServices
 90
     1024
 91
        1
280
     0
281
     0
  0
CLASS
  1
AMGSETTINGSOBJ
  2
AmgSettingsObj
  3
"AcadM|Product Description: AutoCAD Mechanical|Company: Autodesk, Inc."
 90
     1024
 91
        2
280
     0
281
     0
  0
CLASS
  1
ACMESCOPE
  2
AcMeScope
  3
AcMeServices
 90
     1024
 91
        1
280
     0
281
     0
  0
CLASS
  1
ACMECOMMANDHISTORY
  2
AcMeCommandHistory
  3
AcMeServices
 90
     1024
 91
        1
280
     0
281
     0
  0
CLASS
  1
ACIMSYSVARMAN
  2
AcImSysVarManager
  3
AcMeServices
 90
     1024
 91
        5
280
     0
281
     0
  0
CLASS
  1
ACIMINTSYSVAR
  2
AcImIntSysVar
  3
AcMeServices
 90
     1024
 91
       27
280
     0
281
     0
  0
CLASS
  1
ACMEDRAWINGMAN
  2
AcMeDrawingMan
  3
AcMeServices
 90
     1024
 91
        1
280
     0
281
     0
  0
CLASS
  1
ACMEVIEW
  2
AcMeView
  3
AcMeServices
 90
     1024
 91
        1
280
     0
281
     0
  0
CLASS
  1
ACDBENTITYCACHE
  2
AcMeEntityCache
  3
AcMeServices
 90
     1024
 91
        1
280
     0
281
     0
  0
CLASS
  1
ACMESTATEMGR
  2
AcMeStateMgr
  3
AcMeServices
 90
     1024
 91
        1
280
     0
281
     0
  0
CLASS
  1
ACGREFMASTER
  2
AcGrefMaster
  3
AcAttribServices
 90
     1024
 91
        1
280
     0
281
     0
  0
CLASS
  1
AM_DRAWING_MGR
  2
AcDmDwgMgr
  3
AcMechDwgViewMgmt
 90
     1024
 91
        1
280
     0
281
     0
  0
CLASS
  1
AM_DWG_DOCUMENT
  2
AcDmDwgDocument
  3
AcMechDwgViewMgmt
 90
     1024
 91
        1
280
     0
281
     0
  0
CLASS
  1
AM_DWG_SHEET
  2
AcDmSheet
  3
AcMechDwgViewMgmt
 90
     1024
 91
        2
280
     0
281
     0
  0
CLASS
  1
AM_VIEWDIMPARMAP
  2
AcDmViewDimParMap
  3
AcMechDwgViewMgmt
 90
     1024
 91
        2
280
     0
281
     0
  0
CLASS
  1
AMDTINTERNALREACTOR
  2
AmdtInternalReactor
  3
AcMeServices
 90
     1024
 91
        1
280
     0
281
     0
  0
CLASS
  1
ACIMREALSYSVAR
  2
AcImRealSysVar
  3
AcMeServices
 90
     1024
 91
        1
280
     0
281
     0
  0
CLASS
  1
AM_DWGMGR_NAME
  2
AcDmDwgMgrName
  3
AcMechDwgViewMgmt
 90
     1024
 91
        1
280
     0
281
     0
  0
CLASS
  1
ACME_DATABASE
  2
AcMeDbDatabase
  3
AcMeServices
 90
     1024
 91
        1
280
     0
281
     0
  0
CLASS
  1
ACRFINSADJUSTERMGR
  2
AcRfInsAdjusterMgr
  3
AcMeServices
 90
     1024
 91
        1
280
     0
281
     0
  0
CLASS
  1
ACGREFACADMASTER
  2
AcGrefacadMaster
  3
AcGrefServices
 90
     1024
 91
        1
280
     0
281
     0
  0
CLASS
  1
AMDTMENUSTATEMGR
  2
AmdtMenuStateMgr
  3
McadcomServices
 90
     1024
 91
        1
280
     0
281
     0
  0
CLASS
  1
AMDTMCOMMENUSTATE
  2
AmdtMcomMenuState
  3
McadcomServices
 90
     1024
 91
        1
280
     0
281
     0
  0
CLASS
  1
AMIMASTER
  2
AmiMaster
  3
AmiServices
 90
     1024
 91
        1
280
     0
281
     0
  0
CLASS
  1
MAPIAMMOUDLE
  2
MApiAmModule
  3
MApiAmServices
 90
     1024
 91
        1
280
     0
281
     0
  0
CLASS
  1
ACIMSTRSYSVAR
  2
AcImStrSysVar
  3
AcMeServices
 90
     1024
 91
        5
280
     0
281
     0
  0
CLASS
  1
AMDTADMENUSTATE
  2
AmdtAdMenuState
  3
DesignerServices
 90
     1024
 91
        1
280
     0
281
     0
  0
CLASS
  1
ADAPPL
  2
AcAdAppl
  3
DesignerServices
 90
     1024
 91
        1
280
     0
281
     0
  0
CLASS
  1
DEPMGR
  2
AcAdDepMgr
  3
DesignerServices
 90
     1024
 91
        1
280
     0
281
     0
  0
CLASS
  1
PARAMMGR
  2
AcAdParamMgr
  3
DesignerServices
 90
     1024
 91
        1
280
     0
281
     0
  0
CLASS
  1
PARAMSCOPE
  2
AcAdParamScope
  3
DesignerServices
 90
     1024
 91
        1
280
     0
281
     0
  0
CLASS
  1
NAMEDAPPL
  2
AcAdNamedAppl
  3
DesignerServices
 90
     1024
 91
        1
280
     0
281
     0
  0
CLASS
  1
AMDTDMMENUSTATE
  2
AmdtDmMenuState
  3
AcMechDwgViewMgmt
 90
     1024
 91
        1
280
     0
281
     0
  0
CLASS
  1
AMDTAMMENUSTATE
  2
AmdtAmMenuState
  3
DesignerAssemblies
 90
     1024
 91
        1
280
     0
281
     0
  0
CLASS
  1
ACAMPROJECT
  2
AcAmProject
  3
DesignerAssemblies
 90
     1024
 91
        1
280
     0
281
     0
  0
CLASS
  1
ACAMGRCOMPDEF
  2
AcAmGrCompDef
  3
DesignerAssemblies
 90
     1024
 91
        1
280
     0
281
     0
  0
CLASS
  1
ACAMCOMPDEF
  2
AcAmCompDef
  3
DesignerAssemblies
 90
     1024
 91
        1
280
     0
281
     0
  0
CLASS
  1
ACAMCOMPDEFMGR
  2
AcAmCompDefMgr
  3
DesignerAssemblies
 90
     1024
 91
        1
280
     0
281
     0
  0
CLASS
  1
AMCONTEXTMGR
  2
AcAmContextMgr
  3
DesignerAssemblies
 90
     1024
 91
        1
280
     0
281
     0
  0
CLASS
  1
ACAMCONTEXTMODELER
  2
AcAmContextModeler
  3
DesignerAssemblies
 90
     1024
 91
        1
280
     0
281
     0
  0
CLASS
  1
ACMDATADICTIONARY
  2
AcmDataDictionary
  3
"AcmSymBB|Product Description: AutoCAD Mechanical|Company: Autodesk, Inc."
 90
     1024
 91
        1
280
     0
281
     0
  0
CLASS
  1
CATALOGSTATE
  2
AcAmCatalogState
  3
DesignerAssemblies
 90
     1024
 91
        1
280
     0
281
     0
  0
CLASS
  1
ACAMGRCOMPDEFSET
  2
AcAmGrCompDefSet
  3
DesignerAssemblies
 90
     1024
 91
        1
280
     0
281
     0
  0
CLASS
  1
AMDTBROWSERDBTAB
  2
AmdtBrowserDbTab
  3
McadcomServices
 90
     1024
 91
        1
280
     0
281
     0
  0
CLASS
  1
CBROWSERAPPOBJECT
  2
CBrowserAppObject
  3
McadcomServices
 90
     1024
 91
        2
280
     0
281
     0
  0
CLASS
  1
DM_PLACEHOLDER
  2
AcDmSelsetPlaceholder
  3
AcMechDwgViewMgmt
 90
     1024
 91
        1
280
     0
281
     0
  0
CLASS
  1
ACMSTANDARDISO
  2
AcmStandardISO
  3
"Amdt_StdImp|Product Description: AutoCAD Mechanical|Company: Autodesk, Inc."
 90
     1024
 91
        1
280
     0
281
     0
  0
CLASS
  1
AMDTEDGESTANDARDISO13715
  2
AmdtEdgeStdISO13715
  3
"Amdt_StdImp|Product Description: AutoCAD Mechanical|Company: Autodesk, Inc."
 90
     1024
 91
        1
280
     0
281
     0
  0
CLASS
  1
ACMSURFSTANDARDISO2002
  2
AcmSurfTextStdISO2002
  3
"Amdt_StdImp|Product Description: AutoCAD Mechanical|Company: Autodesk, Inc."
 90
     1024
 91
        1
280
     0
281
     0
  0
CLASS
  1
ACMFCFSTANDARDISO
  2
AcmFCFStdISO
  3
"Amdt_StdImp|Product Description: AutoCAD Mechanical|Company: Autodesk, Inc."
 90
     1024
 91
        1
280
     0
281
     0
  0
CLASS
  1
ACMWELDSTANDARDISO
  2
AcmWeldingStdISO
  3
"Amdt_StdImp|Product Description: AutoCAD Mechanical|Company: Autodesk, Inc."
 90
     1024
 91
        1
280
     0
281
     0
  0
CLASS
  1
ACMIDSTANDARDISO
  2
AcmIdStdISO
  3
"Amdt_StdImp|Product Description: AutoCAD Mechanical|Company: Autodesk, Inc."
 90
     1024
 91
        1
280
     0
281
     0
  0
CLASS
  1
ACMDATUMSTANDARDISO
  2
AcmDatumStdISO
  3
"Amdt_StdImp|Product Description: AutoCAD Mechanical|Company: Autodesk, Inc."
 90
     1024
 91
        1
280
     0
281
     0
  0
CLASS
  1
ACMBOMSTANDARDISO
  2
AcmBOMStdISO
  3
"Amdt_StdImp|Product Description: AutoCAD Mechanical|Company: Autodesk, Inc."
 90
     1024
 91
        1
280
     0
281
     0
  0
CLASS
  1
ACMDETAILSTANDARDISO
  2
AmdtDetailSymStdISO
  3
"Amdt_StdImp|Product Description: AutoCAD Mechanical|Company: Autodesk, Inc."
 90
     1024
 91
        1
280
     0
281
     0
  0
CLASS
  1
ACMSECTIONSTANDARDISO2001
  2
AmdtSectionSymStdISO2001
  3
"Amdt_StdImp|Product Description: AutoCAD Mechanical|Company: Autodesk, Inc."
 90
     1024
 91
        1
280
     0
281
     0
  0
CLASS
  1
ACMCENTERLINESTANDARDISO
  2
AmdtCenterLineStdISO
  3
"Amdt_StdImp|Product Description: AutoCAD Mechanical|Company: Autodesk, Inc."
 90
     1024
 91
        1
280
     0
281
     0
  0
CLASS
  1
ACMTHREADLINESTANDARDISO
  2
AmdtThreadLineStdISO
  3
"Amdt_StdImp|Product Description: AutoCAD Mechanical|Company: Autodesk, Inc."
 90
     1024
 91
        1
280
     0
281
     0
  0
CLASS
  1
ACMNOTESTANDARDISO
  2
AmdtNoteStdISO
  3
"Amdt_StdImp|Product Description: AutoCAD Mechanical|Company: Autodesk, Inc."
 90
     1024
 91
        1
280
     0
281
     0
  0
CLASS
  1
ACMTAPERSTANDARDISO
  2
AcmTaperStdISO
  3
"Amdt_StdImp|Product Description: AutoCAD Mechanical|Company: Autodesk, Inc."
 90
     1024
 91
        1
280
     0
281
     0
  0
CLASS
  1
ACMANOOTATIONVIEWSTANDARDISO
  2
AmdtAnViewStdISO
  3
"Amdt_StdImp|Product Description: AutoCAD Mechanical|Company: Autodesk, Inc."
 90
     1024
 91
        1
280
     0
281
     0
  0
CLASS
  1
ACAMGLAYSTD
  2
AcAmgLayStd
  3
"AmgLay|Product Description: AutoCAD Mechanical|Company: Autodesk, Inc."
 90
     1024
 91
        1
280
     0
281
     0
  0
CLASS
  1
ACAMGDIMSTD
  2
AcAmgDimStd
  3
"AmgDim|Product Description: AutoCAD Mechanical|Company: Autodesk, Inc."
 90
     1024
 91
        1
280
     0
281
     0
  0
CLASS
  1
AMGOBJPROPCFG
  2
AmgObjPropCfg
  3
"AmgLay|Product Description: AutoCAD Mechanical|Company: Autodesk, Inc."
 90
     1025
 91
        1
280
     0
281
     0
  0
CLASS
  1
ACAMGHOLECHARTSTDISO
  2
AcAmgHoleChartStdISO
  3
AmgDim|Product Description: AutoCAD Mechanical|Company: Autodesk, Inc.
 90
     1024
 91
        1
280
     0
281
     0
  0
CLASS
  1
ACAMGTITLESTD
  2
AcAmgTitleStd
  3
"AmgTitle|Product Description: AutoCAD Mechanical|Company: Autodesk, Inc."
 90
     4095
 91
        1
280
     0
281
     0
  0
CLASS
  1
AMDTNOTETEMPLATEDB
  2
AmdtNoteTemplateDB
  3
AcmSymBB|Product Description: AutoCAD Mechanical|Company: Autodesk, Inc.
 90
     1024
 91
        6
280
     0
281
     0
  0
CLASS
  1
ACAMGFILTERDAT
  2
AcAmgFilterDat
  3
"AcadM|Product Description: AutoCAD Mechanical|Company: Autodesk, Inc."
 90
     1024
 91
        0
280
     0
281
     0
  0
CLASS
  1
AEC_REFEDIT_STATUS_TRACKER
  2
AecDbRefEditStatusTracker
  3
AecArchBase60|Product Desc: Autodesk Architectural Desktop 2007 |Company: Autodesk,Inc. |WEB Address: www.autodesk.com
 90
      129
 91
        0
280
     0
281
     0
  0
CLASS
  1
NPOCOLLECTION
  2
AcDbImpNonPersistentObjectsCollection
  3
ObjectDBX Classes
 90
     1153
 91
        0
280
     0
281
     0
  0
CLASS
  1
CAMSSTRUCTBTNSTATE
  2
StructBtnState
  3
DesignerAssemblies
 90
     1024
 91
        0
280
     0
281
     0
  0
CLASS
  1
CELLSTYLEMAP
  2
AcDbCellStyleMap
  3
ObjectDBX Classes
 90
     1152
 91
        2
280
     0
281
     0
  0
ENDSEC
  0
SECTION
  2
TABLES
  0
TABLE
  2
VPORT
  5
8
330
0
100
AcDbSymbolTable
 70
     1
  0
VPORT
  5
57
330
8
100
AcDbSymbolTableRecord
100
AcDbViewportTableRecord
  2
*Active
 70
     0
 10
0.0
 20
0.0
 11
1.0
 21
1.0
 12
260.7360553262245
 22
322.2578444928604
 13
0.0
 23
0.0
 14
1.0
 24
1.0
 15
0.0
 25
0.0
 16
0.0
 26
0.0
 36
1.0
 17
0.0
 27
0.0
 37
0.0
 40
454.2283407963711
 41
1.576017130620984
 42
50.0
 43
0.0
 44
0.0
 50
0.0
 51
0.0
 71
     0
 72
   100
 73
     1
 74
     1
 75
     0
 76
     0
 77
     0
 78
     0
281
     0
 65
     0
110
0.0
120
0.0
130
0.0
111
1.0
121
0.0
131
0.0
112
0.0
122
1.0
132
0.0
 79
     0
146
0.0
  0
ENDTAB
  0
TABLE
  2
LTYPE
  5
5
330
0
100
AcDbSymbolTable
 70
    16
  0
LTYPE
  5
5B
330
5
100
AcDbSymbolTableRecord
100
AcDbLinetypeTableRecord
  2
ByBlock
 70
     0
  3

 72
    65
 73
     0
 40
0.0
  0
LTYPE
  5
5C
330
5
100
AcDbSymbolTableRecord
100
AcDbLinetypeTableRecord
  2
ByLayer
 70
     0
  3

 72
    65
 73
     0
 40
0.0
  0
LTYPE
  5
5D
330
5
100
AcDbSymbolTableRecord
100
AcDbLinetypeTableRecord
  2
Continuous
 70
     0
  3
Solid line
 72
    65
 73
     0
 40
0.0
  0
LTYPE
  5
2799
330
5
100
AcDbSymbolTableRecord
100
AcDbLinetypeTableRecord
  2
HIDDEN
 70
     0
  3
Skrytá __ __ __ __ __ __ __ __ __ __ __ __ __ __
 72
    65
 73
     2
 40
9.525
 49
6.349999999999998
 74
     0
 49
-3.174999999999998
 74
     0
  0
LTYPE
  5
279A
330
5
100
AcDbSymbolTableRecord
100
AcDbLinetypeTableRecord
  2
PHANTOM2
 70
     0
  3
Sdružená (.5x) ___ _ _ ___ _ _ ___ _ _ ___ _ _
 72
    65
 73
     6
 40
31.75
 49
15.875
 74
     0
 49
-3.174999999999998
 74
     0
 49
3.174999999999998
 74
     0
 49
-3.174999999999998
 74
     0
 49
3.174999999999998
 74
     0
 49
-3.174999999999998
 74
     0
  0
LTYPE
  5
279B
330
5
100
AcDbSymbolTableRecord
100
AcDbLinetypeTableRecord
  2
CENTER
 70
     0
  3
Středová ____ _ ____ _ ____ _ ____ _ ____ _ ____
 72
    65
 73
     4
 40
50.8
 49
31.75
 74
     0
 49
-6.349999999999998
 74
     0
 49
6.349999999999998
 74
     0
 49
-6.349999999999998
 74
     0
  0
LTYPE
  5
27E1
330
5
100
AcDbSymbolTableRecord
100
AcDbLinetypeTableRecord
  2
AM_ISO02W050
 70
     0
  3
__ __ __ __ __ __ __ __ __ __ __ __ __ __ __
 72
    65
 73
     2
 40
7.5
 49
6.0
 74
     0
 49
-1.5
 74
     0
  0
LTYPE
  5
27E2
330
5
100
AcDbSymbolTableRecord
100
AcDbLinetypeTableRecord
  2
AM_ISO08W050
 70
     0
  3
____ . ____ . ____ . ____ . ____ . ____ . ____
 72
    65
 73
     4
 40
18.0
 49
12.0
 74
     0
 49
-1.5
 74
     0
 49
3.0
 74
     0
 49
-1.5
 74
     0
  0
LTYPE
  5
27E3
330
5
100
AcDbSymbolTableRecord
100
AcDbLinetypeTableRecord
  2
AM_ISO09W050
 70
     0
  3
_____ . . _____ . . _____ . . ____ .. ____
 72
    65
 73
     6
 40
22.5
 49
12.0
 74
     0
 49
-1.5
 74
     0
 49
3.0
 74
     0
 49
-1.5
 74
     0
 49
3.0
 74
     0
 49
-1.5
 74
     0
  0
LTYPE
  5
27E4
330
5
100
AcDbSymbolTableRecord
100
AcDbLinetypeTableRecord
  2
Amconstr
 70
     0
  3
_______________________
 72
    65
 73
     2
 40
9999.0
 49
9999.0
 74
     0
 49
0.0
 74
     0
  0
LTYPE
  5
27E5
330
5
100
AcDbSymbolTableRecord
100
AcDbLinetypeTableRecord
  2
AM_ISO08W050x2
 70
     0
  3
__ . __ . __ . __ . __ . __
 72
    65
 73
     4
 40
9.0
 49
6.0
 74
     0
 49
-0.75
 74
     0
 49
1.5
 74
     0
 49
-0.75
 74
     0
  0
LTYPE
  5
27E6
330
5
100
AcDbSymbolTableRecord
100
AcDbLinetypeTableRecord
  2
AM_ISO02W050x2
 70
     0
  3
 _ _ _ _ _ _ _ _ _ _ _ _
 72
    65
 73
     2
 40
3.75
 49
3.0
 74
     0
 49
-0.75
 74
     0
  0
LTYPE
  5
27E9
330
5
100
AcDbSymbolTableRecord
100
AcDbLinetypeTableRecord
  2
Amzigzag
 70
     0
  3
/\/-/\/-/\/-/\/-/\/-/\/
 72
    65
 73
     2
 40
11.0001
 49
0.0001
 74
     4
 75
   136
340
27E8
 46
0.04
 50
0.0
 44
0.0
 45
0.0
 49
-11.0
 74
     0
  0
LTYPE
  5
27F8
330
5
100
AcDbSymbolTableRecord
100
AcDbLinetypeTableRecord
  2
ACISOWELD
 70
     0
  3
_ _ _ _ _
 72
    65
 73
     2
 40
2.0
 49
2.0
 74
     0
 49
-1.0
 74
     0
  0
LTYPE
  5
27F9
330
5
100
AcDbSymbolTableRecord
100
AcDbLinetypeTableRecord
  2
ACISOTGB
 70
     0
  3
__ . . __ . .
 72
    65
 73
     6
 40
9.0
 49
4.0
 74
     0
 49
-1.0
 74
     0
 49
1.0
 74
     0
 49
-1.0
 74
     0
 49
1.0
 74
     0
 49
-1.0
 74
     0
  0
LTYPE
  5
27FA
330
5
100
AcDbSymbolTableRecord
100
AcDbLinetypeTableRecord
  2
ACISOTGL
 70
     0
  3
_ _ _ _ _
 72
    65
 73
     2
 40
3.0
 49
2.0
 74
     0
 49
-1.0
 74
     0
  0
LTYPE
  5
2868
330
5
100
AcDbSymbolTableRecord
100
AcDbLinetypeTableRecord
  2
GEN7
 70
     0
  3
____ . ____ . ____ . ____ . ____ . ____ . ____
 72
    65
 73
     4
 40
13.75
 49
10.0
 74
     0
 49
-1.25
 74
     0
 49
1.25
 74
     0
 49
-1.25
 74
     0
  0
ENDTAB
  0
TABLE
  2
LAYER
  5
2
102
{ACAD_XDICTIONARY
360
2870
102
}
330
0
100
AcDbSymbolTable
 70
    18
  0
LAYER
  5
54
330
2
100
AcDbSymbolTableRecord
100
AcDbLayerTableRecord
  2
0
 70
     0
 62
     7
  6
Continuous
370
    -3
390
F
  0
LAYER
  5
78
330
2
100
AcDbSymbolTableRecord
100
AcDbLayerTableRecord
  2
Geometrie náčrtu (ISO)
 70
     0
 62
     7
  6
Continuous
370
     9
390
F
  0
LAYER
  5
79
330
2
100
AcDbSymbolTableRecord
100
AcDbLayerTableRecord
  2
KOPF
 70
     0
 62
     8
420
  8421504
  6
Continuous
370
     9
390
F
  0
LAYER
  5
7A
330
2
100
AcDbSymbolTableRecord
100
AcDbLayerTableRecord
  2
Kóta (ISO)
 70
     0
 62
     5
420
      255
  6
Continuous
370
     9
390
F
  0
LAYER
  5
7B
330
2
100
AcDbSymbolTableRecord
100
AcDbLayerTableRecord
  2
Nadpis (ISO)
 70
     0
 62
     7
  6
Continuous
370
    18
390
F
  0
LAYER
  5
7D
330
2
100
AcDbSymbolTableRecord
100
AcDbLayerTableRecord
  2
Osa (ISO)
 70
     0
 62
     1
420
 16711680
  6
Continuous
370
     9
390
F
  0
LAYER
  5
85
330
2
100
AcDbSymbolTableRecord
100
AcDbLayerTableRecord
  2
Rámeček (ISO)
 70
     0
 62
     7
  6
Continuous
370
    35
390
F
  0
LAYER
  5
88
330
2
100
AcDbSymbolTableRecord
100
AcDbLayerTableRecord
  2
Skrytá (ISO)
 70
     0
 62
   142
420
    32960
  6
Continuous
370
     9
390
F
  0
LAYER
  5
89
330
2
100
AcDbSymbolTableRecord
100
AcDbLayerTableRecord
  2
Středová značka (ISO)
 70
     0
 62
     1
420
 16711680
  6
Continuous
370
     9
390
F
  0
LAYER
  5
8B
330
2
100
AcDbSymbolTableRecord
100
AcDbLayerTableRecord
  2
TEXT35
 70
     0
 62
    12
420
 13369344
  6
Continuous
370
    20
390
F
  0
LAYER
  5
8C
330
2
100
AcDbSymbolTableRecord
100
AcDbLayerTableRecord
  2
TEXT50
 70
     0
 62
     7
  6
Continuous
370
    20
390
F
  0
LAYER
  5
8D
330
2
100
AcDbSymbolTableRecord
100
AcDbLayerTableRecord
  2
Viditelná (ISO)
 70
     0
 62
     7
  6
Continuous
370
    35
390
F
  0
LAYER
  5
8E
330
2
100
AcDbSymbolTableRecord
100
AcDbLayerTableRecord
  2
Viditelná tenká (ISO)
 70
     0
 62
     7
  6
Continuous
370
     9
390
F
  0
LAYER
  5
8F
330
2
100
AcDbSymbolTableRecord
100
AcDbLayerTableRecord
  2
Značka (ISO)
 70
     0
 62
     5
420
      255
  6
Continuous
370
     9
390
F
  0
LAYER
  5
2151
330
2
100
AcDbSymbolTableRecord
100
AcDbLayerTableRecord
  2
Defpoints
 70
     0
 62
     7
  6
Continuous
290
     0
370
    -3
390
F
  0
LAYER
  5
2869
102
{ACAD_XDICTIONARY
360
286A
102
}
330
2
100
AcDbSymbolTableRecord
100
AcDbLayerTableRecord
  2
7
 70
     0
 62
     4
  6
GEN7
370
    -3
390
F
  0
LAYER
  5
286B
102
{ACAD_XDICTIONARY
360
286C
102
}
330
2
100
AcDbSymbolTableRecord
100
AcDbLayerTableRecord
  2
5
 70
     0
 62
     3
  6
Continuous
370
    -3
390
F
  0
LAYER
  5
29EE
330
2
100
AcDbSymbolTableRecord
100
AcDbLayerTableRecord
  2
AM_5
 70
     0
 62
    92
  6
Continuous
370
    25
390
F
1001
AcAecLayerStandard
1000

1000

  0
ENDTAB
  0
TABLE
  2
STYLE
  5
3
330
0
100
AcDbSymbolTable
 70
    21
  0
STYLE
  5
55
330
3
100
AcDbSymbolTableRecord
100
AcDbTextStyleTableRecord
  2
Standard
 70
     0
 40
0.0
 41
1.0
 50
0.0
 71
     0
 42
0.2
  3
TAHOMA.TTF
  4

1001
ACAD
1000
Tahoma
1071
      256
  0
STYLE
  5
5A
330
3
100
AcDbSymbolTableRecord
100
AcDbTextStyleTableRecord
  2
Annotative
 70
     0
 40
0.0
 41
1.0
 50
0.0
 71
     0
 42
0.2
  3
txt
  4

1001
AcadAnnotative
1000
AnnotativeData
1002
{
1070
     1
1070
     1
1002
}
  0
STYLE
  5
90
330
3
100
AcDbSymbolTableRecord
100
AcDbTextStyleTableRecord
  2
ITALICC8_57
 70
     0
 40
0.0
 41
1.0
 50
0.0
 71
     0
 42
0.2
  3
TAHOMA.TTF
  4

1001
ACAD
1000
Tahoma
1071
      256
  0
STYLE
  5
91
330
3
100
AcDbSymbolTableRecord
100
AcDbTextStyleTableRecord
  2
kusovnik
 70
     0
 40
0.0
 41
1.0
 50
0.0
 71
     0
 42
0.2
  3
ARIAL.TTF
  4

1001
ACAD
1000
Arial
1071
      256
  0
STYLE
  5
92
330
3
100
AcDbSymbolTableRecord
100
AcDbTextStyleTableRecord
  2
ROMANS8_69
 70
     0
 40
0.0
 41
1.0
 50
0.0
 71
     0
 42
0.2
  3
TAHOMA.TTF
  4

1001
ACAD
1000
Tahoma
1071
      256
  0
STYLE
  5
93
330
3
100
AcDbSymbolTableRecord
100
AcDbTextStyleTableRecord
  2
Text popisu (ISO)
 70
     0
 40
0.0
 41
1.0
 50
0.0
 71
     0
 42
0.2
  3
TAHOMA.TTF
  4

1001
ACAD
1000
Tahoma
1071
      256
  0
STYLE
  5
94
330
3
100
AcDbSymbolTableRecord
100
AcDbTextStyleTableRecord
  2
Text poznámky (DIN)
 70
     0
 40
0.0
 41
1.0
 50
0.0
 71
     0
 42
0.2
  3
isocpeur.ttf
  4

1001
ACAD
1000
ISOCPEUR
1071
      256
  0
STYLE
  5
95
330
3
100
AcDbSymbolTableRecord
100
AcDbTextStyleTableRecord
  2
Text poznámky (ISO)
 70
     0
 40
0.0
 41
1.0
 50
0.0
 71
     0
 42
0.2
  3
TAHOMA.TTF
  4

1001
ACAD
1000
Tahoma
1071
      256
  0
STYLE
  5
96
330
3
100
AcDbSymbolTableRecord
100
AcDbTextStyleTableRecord
  2
TEXT20_41
 70
     0
 40
0.0
 41
1.0
 50
0.0
 71
     0
 42
0.2
  3
TAHOMA.TTF
  4

1001
ACAD
1000
Tahoma
1071
      256
  0
STYLE
  5
97
330
3
100
AcDbSymbolTableRecord
100
AcDbTextStyleTableRecord
  2
TEXT20_59
 70
     0
 40
0.0
 41
1.0
 50
0.0
 71
     0
 42
0.2
  3
TAHOMA.TTF
  4

1001
ACAD
1000
Tahoma
1071
      256
  0
STYLE
  5
1C2
330
3
100
AcDbSymbolTableRecord
100
AcDbTextStyleTableRecord
  2
Styl textu62
 70
     0
 40
0.0
 41
0.8000000119209289
 50
0.0
 71
     0
 42
0.2
  3
TAHOMA.TTF
  4

1001
ACAD
1000
Tahoma
1071
      256
  0
STYLE
  5
1C9
330
3
100
AcDbSymbolTableRecord
100
AcDbTextStyleTableRecord
  2
Styl textu58
 70
     0
 40
0.0
 41
0.8000000119209289
 50
0.0
 71
     0
 42
0.2
  3
TAHOMA.TTF
  4

1001
ACAD
1000
Tahoma
1071
      256
  0
STYLE
  5
1CB
330
3
100
AcDbSymbolTableRecord
100
AcDbTextStyleTableRecord
  2
Styl textu63
 70
     0
 40
0.0
 41
0.75
 50
0.0
 71
     0
 42
0.2
  3
TAHOMA.TTF
  4

1001
ACAD
1000
Tahoma
1071
      256
  0
STYLE
  5
1CE
330
3
100
AcDbSymbolTableRecord
100
AcDbTextStyleTableRecord
  2
Styl textu72
 70
     0
 40
0.0
 41
0.6999999880790711
 50
0.0
 71
     0
 42
0.2
  3
TAHOMA.TTF
  4

1001
ACAD
1000
Tahoma
1071
      256
  0
STYLE
  5
1D1
330
3
100
AcDbSymbolTableRecord
100
AcDbTextStyleTableRecord
  2
Styl textu75
 70
     0
 40
0.0
 41
0.8000000119209289
 50
0.0
 71
     0
 42
0.2
  3
TAHOMA.TTF
  4

1001
ACAD
1000
Tahoma
1071
      256
  0
STYLE
  5
1E8
330
3
100
AcDbSymbolTableRecord
100
AcDbTextStyleTableRecord
  2
Styl textu9
 70
     0
 40
0.0
 41
1.0
 50
0.0
 71
     0
 42
0.2
  3
ARIAL.TTF
  4

1001
ACAD
1000
Arial
1071
      256
  0
STYLE
  5
1EC
330
3
100
AcDbSymbolTableRecord
100
AcDbTextStyleTableRecord
  2
Styl textu40
 70
     0
 40
0.0
 41
1.0
 50
0.0
 71
     0
 42
0.2
  3
ARIAL.TTF
  4

1001
ACAD
1000
Arial
1071
      256
  0
STYLE
  5
1F1
330
3
100
AcDbSymbolTableRecord
100
AcDbTextStyleTableRecord
  2
Styl textu94
 70
     0
 40
0.0
 41
1.0
 50
0.0
 71
     0
 42
0.2
  3
TAHOMA.TTF
  4

1001
ACAD
1000
Tahoma
1071
      256
  0
STYLE
  5
27E8
330
3
100
AcDbSymbolTableRecord
100
AcDbTextStyleTableRecord
  2

 70
     1
 40
0.0
 41
1.0
 50
0.0
 71
     0
 42
0.2
  3
genltshp.shx
  4

  0
STYLE
  5
27F6
330
3
100
AcDbSymbolTableRecord
100
AcDbTextStyleTableRecord
  2
ACISOTS
 70
     0
 40
1.0
 41
1.0
 50
0.0
 71
     0
 42
0.2
  3
isocp.shx
  4

  0
STYLE
  5
27F7
330
3
100
AcDbSymbolTableRecord
100
AcDbTextStyleTableRecord
  2
ACISOGDT
 70
     0
 40
0.0
 41
1.0
 50
0.0
 71
     0
 42
0.2
  3
amgdt.shx
  4

  0
ENDTAB
  0
TABLE
  2
VIEW
  5
6
330
0
100
AcDbSymbolTable
 70
     0
  0
ENDTAB
  0
TABLE
  2
UCS
  5
7
330
0
100
AcDbSymbolTable
 70
     0
  0
ENDTAB
  0
TABLE
  2
APPID
  5
9
330
0
100
AcDbSymbolTable
 70
    21
  0
APPID
  5
56
330
9
100
AcDbSymbolTableRecord
100
AcDbRegAppTableRecord
  2
ACAD
 70
     0
  0
APPID
  5
5E
330
9
100
AcDbSymbolTableRecord
100
AcDbRegAppTableRecord
  2
AcadAnnotative
 70
     0
  0
APPID
  5
1EB
330
9
100
AcDbSymbolTableRecord
100
AcDbRegAppTableRecord
  2
AcadAnnoPO
 70
     0
  0
APPID
  5
276C
330
9
100
AcDbSymbolTableRecord
100
AcDbRegAppTableRecord
  2
MCAD_NO_VIS
 70
     0
  0
APPID
  5
276D
330
9
100
AcDbSymbolTableRecord
100
AcDbRegAppTableRecord
  2
ACAD_TEMP_GRAPHIC
 70
     0
  0
APPID
  5
279D
330
9
100
AcDbSymbolTableRecord
100
AcDbRegAppTableRecord
  2
AD_DRAW
 70
     0
  0
APPID
  5
27A0
330
9
100
AcDbSymbolTableRecord
100
AcDbRegAppTableRecord
  2
ACATTRIBSERVICES
 70
     0
  0
APPID
  5
27C0
330
9
100
AcDbSymbolTableRecord
100
AcDbRegAppTableRecord
  2
DESIGNERASSEMBLIES
 70
     0
  0
APPID
  5
27C6
330
9
100
AcDbSymbolTableRecord
100
AcDbRegAppTableRecord
  2
ACADM_DIM_EDIT
 70
     0
  0
APPID
  5
27C7
330
9
100
AcDbSymbolTableRecord
100
AcDbRegAppTableRecord
  2
AMDT_DM_ADJ
 70
     0
  0
APPID
  5
27DE
330
9
100
AcDbSymbolTableRecord
100
AcDbRegAppTableRecord
  2
ACAD_DSTYLE_DIMJAG
 70
     0
  0
APPID
  5
27DF
330
9
100
AcDbSymbolTableRecord
100
AcDbRegAppTableRecord
  2
ACAD_DSTYLE_DIMBREAK
 70
     0
  0
APPID
  5
2808
330
9
100
AcDbSymbolTableRecord
100
AcDbRegAppTableRecord
  2
ACAD_EXEMPT_FROM_CAD_STANDARDS
 70
     0
  0
APPID
  5
286E
330
9
100
AcDbSymbolTableRecord
100
AcDbRegAppTableRecord
  2
ACAD_DSTYLE_DIMINSPECT
 70
     0
  0
APPID
  5
286F
330
9
100
AcDbSymbolTableRecord
100
AcDbRegAppTableRecord
  2
ACAD_DSTYLE_DIMTALN
 70
     0
  0
APPID
  5
29EF
330
9
100
AcDbSymbolTableRecord
100
AcDbRegAppTableRecord
  2
AcAecLayerStandard
 70
     0
  0
APPID
  5
2C89
330
9
100
AcDbSymbolTableRecord
100
AcDbRegAppTableRecord
  2
ACAD_MLEADERVER
 70
     0
  0
APPID
  5
2CB4
330
9
100
AcDbSymbolTableRecord
100
AcDbRegAppTableRecord
  2
ACAD_DSTYLE_DIMARC_LENGTH_SYMBOL
 70
     0
  0
APPID
  5
2CB5
330
9
100
AcDbSymbolTableRecord
100
AcDbRegAppTableRecord
  2
ACAD_DSTYLE_DIM_LINETYPE
 70
     0
  0
APPID
  5
2CB6
330
9
100
AcDbSymbolTableRecord
100
AcDbRegAppTableRecord
  2
ACAD_DSTYLE_DIM_EXT1_LINETYPE
 70
     0
  0
APPID
  5
2CB7
330
9
100
AcDbSymbolTableRecord
100
AcDbRegAppTableRecord
  2
ACAD_DSTYLE_DIM_EXT2_LINETYPE
 70
     0
  0
ENDTAB
  0
TABLE
  2
DIMSTYLE
  5
A
330
0
100
AcDbSymbolTable
 70
    26
100
AcDbDimStyleTable
 71
     3
340
58
340
286D
340
B1
  0
DIMSTYLE
105
58
330
A
100
AcDbSymbolTableRecord
100
AcDbDimStyleTableRecord
  2
Standard
 70
     0
340
55
  0
DIMSTYLE
105
59
330
A
100
AcDbSymbolTableRecord
100
AcDbDimStyleTableRecord
  2
Annotative
 70
     0
340
55
1001
AcadAnnotative
1000
AnnotativeData
1002
{
1070
     1
1070
     1
1002
}
  0
DIMSTYLE
105
A7
330
A
100
AcDbSymbolTableRecord
100
AcDbDimStyleTableRecord
  2
Různé objekty (ISO)
 70
     0
 40
1.5
 41
2.5
 42
0.0
 43
5.999999999999999
 44
1.0
 45
0.00000001
 46
10.0
 73
     0
 74
     0
 77
     1
 78
     8
 79
     2
140
5.25
143
0.03937
146
0.6676571709769112
147
0.762
171
     3
172
     1
176
   256
177
   256
178
   256
179
     2
271
     2
272
     2
274
     3
278
    44
284
     8
340
93
341
98
371
    -1
372
    -1
  0
DIMSTYLE
105
A8
330
A
100
AcDbSymbolTableRecord
100
AcDbDimStyleTableRecord
  2
Různé objekty (ISO)$7
 70
     0
 40
1.5
 41
5.0
 42
0.0
 43
5.999999999999999
 44
1.0
 45
0.00000001
 46
10.0
 73
     0
 74
     0
 77
     1
 78
     8
 79
     2
140
5.25
143
0.03937
146
0.6676571709769112
147
0.762
171
     3
172
     1
176
   256
177
   256
178
   256
179
     2
271
     2
272
     2
274
     3
278
    44
284
     8
340
93
341
98
371
    25
372
    -1
  0
DIMSTYLE
105
A9
330
A
100
AcDbSymbolTableRecord
100
AcDbDimStyleTableRecord
  2
Výchozí - Metoda 1b (ISO)
 70
     0
 40
1.5
 41
2.5
 42
0.0
 43
5.999999999999999
 44
1.0
 45
0.00000001
 46
10.0
 73
     0
 77
     1
 78
     8
 79
     2
140
3.5
143
0.03937
147
0.762
171
     3
172
     1
176
   256
177
   256
178
   256
179
     2
271
     2
272
     2
274
     3
278
    44
284
     8
286
     8
340
95
371
    -1
372
    -1
  0
DIMSTYLE
105
AA
330
A
100
AcDbSymbolTableRecord
100
AcDbDimStyleTableRecord
  2
Výchozí - Metoda 1b (ISO)$7
 70
     0
 40
1.5
 41
2.5
 42
0.0
 43
5.999999999999999
 44
1.0
 45
0.00000001
 46
10.0
 73
     0
 77
     1
 78
     8
 79
     2
140
3.5
143
0.03937
147
0.762
171
     3
172
     1
176
   256
177
   256
178
   256
179
     2
271
     2
272
     2
274
     3
278
    44
284
     8
286
     8
340
95
371
    -1
372
    -1
  0
DIMSTYLE
105
AB
330
A
100
AcDbSymbolTableRecord
100
AcDbDimStyleTableRecord
  2
Výchozí - Metoda 2a (ISO)
 70
     0
 40
1.5
 41
2.5
 42
0.0
 43
5.999999999999999
 44
1.0
 45
0.00000001
 46
10.0
 77
     1
 78
     8
 79
     2
140
3.5
143
0.03937
147
0.762
171
     3
172
     1
176
   256
177
   256
178
   256
179
     2
271
     2
272
     2
274
     3
278
    44
284
     8
286
     8
340
95
371
    -1
372
    -1
  0
DIMSTYLE
105
AC
330
A
100
AcDbSymbolTableRecord
100
AcDbDimStyleTableRecord
  2
Výchozí - Metoda 2a (ISO)$7
 70
     0
 40
1.5
 41
2.5
 42
0.0
 43
5.999999999999999
 44
1.0
 45
0.00000001
 46
10.0
 77
     1
 78
     8
 79
     2
140
3.5
143
0.03937
147
0.762
171
     3
172
     1
176
   256
177
   256
178
   256
179
     2
271
     2
272
     2
274
     3
278
    44
284
     8
286
     8
340
95
371
    -1
372
    -1
  0
DIMSTYLE
105
AD
330
A
100
AcDbSymbolTableRecord
100
AcDbDimStyleTableRecord
  2
Výchozí - Metoda 2b (ISO)
 70
     0
 40
1.5
 41
2.5
 42
0.0
 43
5.999999999999999
 44
1.0
 45
0.00000001
 46
10.0
 77
     1
 78
     8
 79
     2
140
3.5
143
0.03937
147
0.762
171
     3
172
     1
176
   256
177
   256
178
   256
179
     2
271
     2
272
     2
274
     3
278
    44
284
     8
286
     8
340
95
371
    -1
372
    -1
  0
DIMSTYLE
105
AE
330
A
100
AcDbSymbolTableRecord
100
AcDbDimStyleTableRecord
  2
Výchozí - Metoda 2b (ISO)$7
 70
     0
 40
1.5
 41
2.5
 42
0.0
 43
5.999999999999999
 44
1.0
 45
0.00000001
 46
10.0
 77
     1
 78
     8
 79
     2
140
3.5
143
0.03937
147
0.762
171
     3
172
     1
176
   256
177
   256
178
   256
179
     2
271
     2
272
     2
274
     3
278
    44
284
     8
286
     8
340
95
371
    -1
372
    -1
  0
DIMSTYLE
105
AF
330
A
100
AcDbSymbolTableRecord
100
AcDbDimStyleTableRecord
  2
Výchozí - mm [palce] (ISO)
 70
     0
  4
 in
 40
1.5
 41
2.5
 42
0.0
 43
5.999999999999999
 44
3.174999999999998
 45
0.00000001
 46
10.0
 73
     0
 74
     0
 77
     1
 78
     8
 79
     2
140
3.5
143
0.03937
147
0.762
170
     1
171
     3
172
     1
176
   256
177
   256
178
   256
179
     3
271
     3
272
     2
274
     3
275
     1
278
    44
284
     8
285
     8
286
     8
340
95
371
    -1
372
    -1
  0
DIMSTYLE
105
B0
330
A
100
AcDbSymbolTableRecord
100
AcDbDimStyleTableRecord
  2
Výchozí - mm [palce] (ISO)$7
 70
     0
  4
 in
 40
1.5
 41
2.5
 42
0.0
 43
5.999999999999999
 44
3.174999999999998
 45
0.00000001
 46
10.0
 73
     0
 74
     0
 77
     1
 78
     8
 79
     2
140
3.5
143
0.03937
147
0.762
170
     1
171
     3
172
     1
176
   256
177
   256
178
   256
179
     3
271
     3
272
     2
274
     3
275
     1
278
    44
284
     8
285
     8
286
     8
340
95
371
    -1
372
    -1
  0
DIMSTYLE
105
B1
330
A
100
AcDbSymbolTableRecord
100
AcDbDimStyleTableRecord
  2
Výchozí (ISO)
 70
     0
 40
1.5
 41
2.5
 42
0.0
 43
5.999999999999999
 44
1.0
 45
0.00000001
 46
10.0
 73
     0
 74
     0
 77
     1
 78
     8
 79
     2
140
3.5
143
0.03937
146
1.001485756465366
147
0.762
171
     3
172
     1
176
   256
177
   256
178
   256
179
     2
271
     2
272
     2
274
     3
278
    44
284
     8
340
95
371
    -1
372
    -1
  0
DIMSTYLE
105
B2
330
A
100
AcDbSymbolTableRecord
100
AcDbDimStyleTableRecord
  2
Výchozí (ISO)$7
 70
     0
 40
1.5
 41
2.5
 42
0.0
 43
5.999999999999999
 44
1.0
 45
0.00000001
 46
10.0
 73
     0
 74
     0
 77
     1
 78
     8
 79
     2
140
3.5
143
0.03937
146
1.001485756465366
147
0.762
171
     3
172
     1
176
   256
177
   256
178
   256
179
     2
271
     2
272
     2
274
     3
278
    44
284
     8
340
95
371
    -1
372
    -1
  0
DIMSTYLE
105
B3
330
A
100
AcDbSymbolTableRecord
100
AcDbDimStyleTableRecord
  2
Alternativní (ISO)
 70
     0
 40
1.5
 41
2.5
340
55
342
B4
  0
DIMSTYLE
105
C5
330
A
100
AcDbSymbolTableRecord
100
AcDbDimStyleTableRecord
  2
Základny (ISO)
 70
     0
 40
1.5
 41
2.5
340
55
342
B4
  0
DIMSTYLE
105
27DD
102
{ACAD_REACTORS
330
2D1D
102
}
330
A
100
AcDbSymbolTableRecord
100
AcDbDimStyleTableRecord
  2
AM_ISO
 70
     0
  4
"
 41
3.5
 42
1.0
 43
10.0
 44
1.0
 47
0.1
 48
0.1
 73
     0
 74
     0
 77
     1
 78
     8
 79
     2
140
3.5
141
0.0
143
0.0393701
146
0.71
147
1.5
172
     1
176
   256
177
   256
178
   140
271
     2
272
     3
274
     4
283
     0
284
     8
340
55
371
    -1
372
    -1
1001
ACAD_DSTYLE_DIMJAG
1070
   388
1040
1.5
1001
ACAD_DSTYLE_DIMBREAK
1070
   391
1040
3.75
1001
ACAD_DSTYLE_DIMARC_LENGTH_SYMBOL
1070
   379
1070
     1
1001
ACAD_DSTYLE_DIM_LINETYPE
1070
   380
1005
5B
1001
ACAD_DSTYLE_DIM_EXT1_LINETYPE
1070
   381
1005
5B
1001
ACAD_DSTYLE_DIM_EXT2_LINETYPE
1070
   382
1005
5B
  0
DIMSTYLE
105
27EA
330
A
100
AcDbSymbolTableRecord
100
AcDbDimStyleTableRecord
  2
AM_ISO$3
 70
     0
  4
"
 41
3.5
 42
1.0
 43
10.0
 44
1.0
 47
0.1
 48
0.1
 73
     0
 77
     1
 78
     8
 79
     2
140
3.5
141
0.0
143
0.0393701
146
0.71
147
1.5
176
   256
177
   256
178
   140
271
     2
272
     3
274
     4
283
     0
284
     8
288
     1
289
     0
340
55
371
    -1
372
    -1
1001
ACAD_DSTYLE_DIMBREAK
1070
   391
1040
3.75
1001
ACAD_DSTYLE_DIMJAG
1070
   388
1040
1.5
1001
ACAD_DSTYLE_DIMARC_LENGTH_SYMBOL
1070
   379
1070
     1
1001
ACAD_DSTYLE_DIM_LINETYPE
1070
   380
1005
5B
1001
ACAD_DSTYLE_DIM_EXT1_LINETYPE
1070
   381
1005
5B
1001
ACAD_DSTYLE_DIM_EXT2_LINETYPE
1070
   382
1005
5B
  0
DIMSTYLE
105
27EB
330
A
100
AcDbSymbolTableRecord
100
AcDbDimStyleTableRecord
  2
AM_ISO$4
 70
     0
  4
"
 41
3.5
 42
1.0
 43
10.0
 44
1.0
 47
0.1
 48
0.1
 73
     0
 77
     1
 78
     8
 79
     2
140
3.5
141
0.0
143
0.0393701
146
0.71
147
1.5
176
   256
177
   256
178
   140
271
     2
272
     3
274
     4
283
     0
284
     8
288
     1
289
     0
340
55
371
    -1
372
    -1
1001
ACAD_DSTYLE_DIMBREAK
1070
   391
1040
3.75
1001
ACAD_DSTYLE_DIMJAG
1070
   388
1040
1.5
1001
ACAD_DSTYLE_DIMARC_LENGTH_SYMBOL
1070
   379
1070
     1
1001
ACAD_DSTYLE_DIM_LINETYPE
1070
   380
1005
5B
1001
ACAD_DSTYLE_DIM_EXT1_LINETYPE
1070
   381
1005
5B
1001
ACAD_DSTYLE_DIM_EXT2_LINETYPE
1070
   382
1005
5B
  0
DIMSTYLE
105
27EC
330
A
100
AcDbSymbolTableRecord
100
AcDbDimStyleTableRecord
  2
AM_ISO$6
 70
     0
  4
"
 41
3.5
 42
1.0
 43
10.0
 44
1.0
 47
0.1
 48
0.1
 73
     0
 74
     0
 78
     8
 79
     2
140
3.5
141
0.0
143
0.0393701
146
0.71
147
1.5
172
     1
176
   256
177
   256
178
   140
271
     2
272
     3
274
     4
283
     0
284
     8
340
55
371
    -1
372
    -1
1001
ACAD_DSTYLE_DIMBREAK
1070
   391
1040
3.75
1001
ACAD_DSTYLE_DIMJAG
1070
   388
1040
1.5
1001
ACAD_DSTYLE_DIMARC_LENGTH_SYMBOL
1070
   379
1070
     1
1001
ACAD_DSTYLE_DIM_LINETYPE
1070
   380
1005
5B
1001
ACAD_DSTYLE_DIM_EXT1_LINETYPE
1070
   381
1005
5B
1001
ACAD_DSTYLE_DIM_EXT2_LINETYPE
1070
   382
1005
5B
  0
DIMSTYLE
105
27ED
330
A
100
AcDbSymbolTableRecord
100
AcDbDimStyleTableRecord
  2
AM_ISO$7
 70
     0
  4
"
 41
3.5
 42
1.0
 43
10.0
 44
1.0
 47
0.1
 48
0.1
 73
     0
 74
     0
 77
     1
 78
     8
 79
     2
140
3.5
141
0.0
143
0.0393701
146
0.71
147
1.5
172
     1
176
   256
177
   256
178
   140
271
     2
272
     3
274
     4
283
     0
284
     8
340
55
371
    -1
372
    -1
1001
ACAD_DSTYLE_DIMBREAK
1070
   391
1040
3.75
1001
ACAD_DSTYLE_DIMJAG
1070
   388
1040
1.5
1001
ACAD_DSTYLE_DIMARC_LENGTH_SYMBOL
1070
   379
1070
     1
1001
ACAD_DSTYLE_DIM_LINETYPE
1070
   380
1005
5B
1001
ACAD_DSTYLE_DIM_EXT1_LINETYPE
1070
   381
1005
5B
1001
ACAD_DSTYLE_DIM_EXT2_LINETYPE
1070
   382
1005
5B
  0
DIMSTYLE
105
27EE
330
A
100
AcDbSymbolTableRecord
100
AcDbDimStyleTableRecord
  2
AM_ISO$SF
 70
     0
  4
"
 41
3.5
 42
1.0
 43
10.0
 44
1.0
 47
0.1
 48
0.1
 73
     0
 74
     0
 75
     1
 76
     1
 77
     1
 78
     8
 79
     2
140
3.5
141
0.0
143
0.0393701
146
0.71
147
1.5
172
     1
176
   256
177
   256
178
   140
271
     2
272
     3
274
     4
283
     0
284
     8
340
55
371
    -1
372
    -1
1001
ACAD_DSTYLE_DIMBREAK
1070
   391
1040
3.75
1001
ACAD_DSTYLE_DIMJAG
1070
   388
1040
1.5
1001
ACAD_DSTYLE_DIMARC_LENGTH_SYMBOL
1070
   379
1070
     1
1001
ACAD_DSTYLE_DIM_LINETYPE
1070
   380
1005
5B
1001
ACAD_DSTYLE_DIM_EXT1_LINETYPE
1070
   381
1005
5B
1001
ACAD_DSTYLE_DIM_EXT2_LINETYPE
1070
   382
1005
5B
  0
DIMSTYLE
105
27F3
330
A
100
AcDbSymbolTableRecord
100
AcDbDimStyleTableRecord
  2
AM_ISO$SH
 70
     0
  4
"
 41
3.5
 42
1.0
 43
10.0
 44
1.0
 47
0.1
 48
0.1
 73
     0
 74
     0
 75
     1
 76
     1
 77
     1
 78
     8
 79
     2
140
3.5
141
0.0
143
0.0393701
144
2.0
146
0.71
147
1.5
172
     1
173
     1
176
   256
177
   256
178
   140
271
     2
272
     3
274
     4
283
     0
284
     8
340
55
343
27EF
371
    -1
372
    -1
1001
ACAD_DSTYLE_DIMBREAK
1070
   391
1040
3.75
1001
ACAD_DSTYLE_DIMJAG
1070
   388
1040
1.5
1001
ACAD_DSTYLE_DIMARC_LENGTH_SYMBOL
1070
   379
1070
     1
1001
ACAD_DSTYLE_DIM_LINETYPE
1070
   380
1005
5B
1001
ACAD_DSTYLE_DIM_EXT1_LINETYPE
1070
   381
1005
5B
1001
ACAD_DSTYLE_DIM_EXT2_LINETYPE
1070
   382
1005
5B
  0
DIMSTYLE
105
286D
102
{ACAD_REACTORS
330
2A62
330
2A40
330
2A84
330
2AA6
330
2A1E
330
29F2
102
}
330
A
100
AcDbSymbolTableRecord
100
AcDbDimStyleTableRecord
  2
GEN-ISO
 70
     0
  3
<>
  4
"
 40
2.0
 41
2.5
 42
1.0
 43
7.0
 44
1.0
 47
0.1
 48
0.1
 73
     0
 74
     0
 77
     1
 78
     8
140
7.0
141
0.0
143
0.0393701
146
0.71
147
0.6
172
     1
176
   256
177
   256
178
     7
271
     2
272
     2
283
     0
340
55
1001
ACAD_DSTYLE_DIMJAG
1070
   388
1040
1.5
1001
ACAD_DSTYLE_DIMTALN
1070
   392
1070
     0
  0
DIMSTYLE
105
29F0
330
A
100
AcDbSymbolTableRecord
100
AcDbDimStyleTableRecord
  2
Standard$0
 70
     0
340
55
1001
ACAD_DSTYLE_DIMBREAK
1070
   391
1040
3.75
1001
ACAD_DSTYLE_DIMJAG
1070
   388
1040
1.5
  0
ENDTAB
  0
TABLE
  2
BLOCK_RECORD
  5
1
330
0
100
AcDbSymbolTable
 70
    53
  0
BLOCK_RECORD
  5
6C
330
1
100
AcDbSymbolTableRecord
100
AcDbBlockTableRecord
  2
*Model_Space
340
6F
  0
BLOCK_RECORD
  5
68
330
1
100
AcDbSymbolTableRecord
100
AcDbBlockTableRecord
  2
*Paper_Space
340
6B
  0
BLOCK_RECORD
  5
70
330
1
100
AcDbSymbolTableRecord
100
AcDbBlockTableRecord
  2
*Paper_Space0
340
73
  0
BLOCK_RECORD
  5
98
330
1
100
AcDbSymbolTableRecord
100
AcDbBlockTableRecord
  2
Filled-1
340
0
  0
BLOCK_RECORD
  5
B4
330
1
100
AcDbSymbolTableRecord
100
AcDbBlockTableRecord
  2
_Closed
340
0
  0
BLOCK_RECORD
  5
BB
330
1
100
AcDbSymbolTableRecord
100
AcDbBlockTableRecord
  2
DatumFilled45
340
0
  0
BLOCK_RECORD
  5
C6
330
1
100
AcDbSymbolTableRecord
100
AcDbBlockTableRecord
  2
WIG-svarovani
340
0
  0
BLOCK_RECORD
  5
CB
330
1
100
AcDbSymbolTableRecord
100
AcDbBlockTableRecord
  2
Popis kotvy_srouby
340
0
  0
BLOCK_RECORD
  5
CF
330
1
100
AcDbSymbolTableRecord
100
AcDbBlockTableRecord
  2
Mater. provedeni Art.
340
0
  0
BLOCK_RECORD
  5
F1
330
1
100
AcDbSymbolTableRecord
100
AcDbBlockTableRecord
  2
Art. s popisy
340
0
  0
BLOCK_RECORD
  5
113
330
1
100
AcDbSymbolTableRecord
100
AcDbBlockTableRecord
  2
Tryskat
340
0
  0
BLOCK_RECORD
  5
117
330
1
100
AcDbSymbolTableRecord
100
AcDbBlockTableRecord
  2
Morit
340
0
  0
BLOCK_RECORD
  5
11B
330
1
100
AcDbSymbolTableRecord
100
AcDbBlockTableRecord
  2
zinkovat
340
0
  0
BLOCK_RECORD
  5
11F
330
1
100
AcDbSymbolTableRecord
100
AcDbBlockTableRecord
  2
Nater
340
0
  0
BLOCK_RECORD
  5
123
330
1
100
AcDbSymbolTableRecord
100
AcDbBlockTableRecord
  2
Brus
340
0
  0
BLOCK_RECORD
  5
127
330
1
100
AcDbSymbolTableRecord
100
AcDbBlockTableRecord
  2
Elektroliticky lestit
340
0
  0
BLOCK_RECORD
  5
12C
330
1
100
AcDbSymbolTableRecord
100
AcDbBlockTableRecord
  2
Rámečky Default Border
340
0
  0
BLOCK_RECORD
  5
183
330
1
100
AcDbSymbolTableRecord
100
AcDbBlockTableRecord
  2
Rohová razítka ACO-razitko
340
0
  0
BLOCK_RECORD
  5
20FF
330
1
100
AcDbSymbolTableRecord
100
AcDbBlockTableRecord
  2
KUSOVNÍK
340
0
  0
BLOCK_RECORD
  5
2152
330
1
100
AcDbSymbolTableRecord
100
AcDbBlockTableRecord
  2
*D17
340
0
  0
BLOCK_RECORD
  5
2238
330
1
100
AcDbSymbolTableRecord
100
AcDbBlockTableRecord
  2
*D18
340
0
  0
BLOCK_RECORD
  5
2314
330
1
100
AcDbSymbolTableRecord
100
AcDbBlockTableRecord
  2
*D19
340
0
  0
BLOCK_RECORD
  5
23F9
330
1
100
AcDbSymbolTableRecord
100
AcDbBlockTableRecord
  2
Pozice1
340
0
  0
BLOCK_RECORD
  5
240C
330
1
100
AcDbSymbolTableRecord
100
AcDbBlockTableRecord
  2
*D21
340
0
  0
BLOCK_RECORD
  5
24EE
330
1
100
AcDbSymbolTableRecord
100
AcDbBlockTableRecord
  2
*D22
340
0
  0
BLOCK_RECORD
  5
25CB
330
1
100
AcDbSymbolTableRecord
100
AcDbBlockTableRecord
  2
*D23
340
0
  0
BLOCK_RECORD
  5
26AE
330
1
100
AcDbSymbolTableRecord
100
AcDbBlockTableRecord
  2
Pozice2
340
0
  0
BLOCK_RECORD
  5
26C0
330
1
100
AcDbSymbolTableRecord
100
AcDbBlockTableRecord
  2
Pozice3
340
0
  0
BLOCK_RECORD
  5
26D4
330
1
100
AcDbSymbolTableRecord
100
AcDbBlockTableRecord
  2
Pozice4
340
0
  0
BLOCK_RECORD
  5
26E6
330
1
100
AcDbSymbolTableRecord
100
AcDbBlockTableRecord
  2
Pozice5
340
0
  0
BLOCK_RECORD
  5
26FC
330
1
100
AcDbSymbolTableRecord
100
AcDbBlockTableRecord
  2
HISTORIE REVIZÍ
340
0
  0
BLOCK_RECORD
  5
27EF
330
1
100
AcDbSymbolTableRecord
100
AcDbBlockTableRecord
  2
GENAXEH
340
0
  0
BLOCK_RECORD
  5
2814
330
1
100
AcDbSymbolTableRecord
100
AcDbBlockTableRecord
  2
*D30
340
0
  0
BLOCK_RECORD
  5
2820
330
1
100
AcDbSymbolTableRecord
100
AcDbBlockTableRecord
  2
*D31
340
0
  0
BLOCK_RECORD
  5
282C
330
1
100
AcDbSymbolTableRecord
100
AcDbBlockTableRecord
  2
*D32
340
0
  0
BLOCK_RECORD
  5
2838
330
1
100
AcDbSymbolTableRecord
100
AcDbBlockTableRecord
  2
*D33
340
0
  0
BLOCK_RECORD
  5
2844
330
1
100
AcDbSymbolTableRecord
100
AcDbBlockTableRecord
  2
*D34
340
0
  0
BLOCK_RECORD
  5
2850
330
1
100
AcDbSymbolTableRecord
100
AcDbBlockTableRecord
  2
*D35
340
0
  0
BLOCK_RECORD
  5
285C
330
1
100
AcDbSymbolTableRecord
100
AcDbBlockTableRecord
  2
*D36
340
0
  0
BLOCK_RECORD
  5
2943
330
1
100
AcDbSymbolTableRecord
100
AcDbBlockTableRecord
  2
*D37
340
0
  0
BLOCK_RECORD
  5
294F
330
1
100
AcDbSymbolTableRecord
100
AcDbBlockTableRecord
  2
*D38
340
0
  0
BLOCK_RECORD
  5
295B
330
1
100
AcDbSymbolTableRecord
100
AcDbBlockTableRecord
  2
*D39
340
0
  0
BLOCK_RECORD
  5
2967
330
1
100
AcDbSymbolTableRecord
100
AcDbBlockTableRecord
  2
*D40
340
0
  0
BLOCK_RECORD
  5
2973
330
1
100
AcDbSymbolTableRecord
100
AcDbBlockTableRecord
  2
*D41
340
0
  0
BLOCK_RECORD
  5
297F
330
1
100
AcDbSymbolTableRecord
100
AcDbBlockTableRecord
  2
*D42
340
0
  0
BLOCK_RECORD
  5
298B
330
1
100
AcDbSymbolTableRecord
100
AcDbBlockTableRecord
  2
*D43
340
0
  0
BLOCK_RECORD
  5
29F3
330
1
100
AcDbSymbolTableRecord
100
AcDbBlockTableRecord
  2
*D44
340
0
  0
BLOCK_RECORD
  5
2A1F
330
1
100
AcDbSymbolTableRecord
100
AcDbBlockTableRecord
  2
*D45
340
0
  0
BLOCK_RECORD
  5
2A41
330
1
100
AcDbSymbolTableRecord
100
AcDbBlockTableRecord
  2
*D46
340
0
  0
BLOCK_RECORD
  5
2A63
330
1
100
AcDbSymbolTableRecord
100
AcDbBlockTableRecord
  2
*D47
340
0
  0
BLOCK_RECORD
  5
2A85
330
1
100
AcDbSymbolTableRecord
100
AcDbBlockTableRecord
  2
*D48
340
0
  0
BLOCK_RECORD
  5
2AA7
330
1
100
AcDbSymbolTableRecord
100
AcDbBlockTableRecord
  2
*D49
340
0
  0
BLOCK_RECORD
  5
2B5D
330
1
100
AcDbSymbolTableRecord
100
AcDbBlockTableRecord
  2
*D50
340
0
  0
ENDTAB
  0
ENDSEC
  0
SECTION
  2
BLOCKS
  0
BLOCK
  5
6D
330
6C
100
AcDbEntity
  8
0
100
AcDbBlockBegin
  2
*Model_Space
 70
     0
 10
0.0
 20
0.0
 30
0.0
  3
*Model_Space
  1

  0
ENDBLK
  5
6E
330
6C
100
AcDbEntity
  8
0
100
AcDbBlockEnd
  0
BLOCK
  5
69
330
68
100
AcDbEntity
 67
     1
  8
0
100
AcDbBlockBegin
  2
*Paper_Space
 70
     0
 10
0.0
 20
0.0
 30
0.0
  3
*Paper_Space
  1

  0
ENDBLK
  5
6A
330
68
100
AcDbEntity
 67
     1
  8
0
100
AcDbBlockEnd
  0
BLOCK
  5
71
330
70
100
AcDbEntity
 67
     1
  8
0
100
AcDbBlockBegin
  2
*Paper_Space0
 70
     0
 10
0.0
 20
0.0
 30
0.0
  3
*Paper_Space0
  1

  0
ENDBLK
  5
72
330
70
100
AcDbEntity
 67
     1
  8
0
100
AcDbBlockEnd
  0
BLOCK
  5
99
330
98
100
AcDbEntity
  8
0
100
AcDbBlockBegin
  2
Filled-1
 70
     0
 10
0.0
 20
0.0
 30
0.0
  3
Filled-1
  1

  0
LINE
  5
9B
330
98
100
AcDbEntity
  8
0
 62
     0
100
AcDbLine
 10
-1.0
 20
0.0
 30
0.0
 11
0.0
 21
0.0
 31
0.0
  0
POLYLINE
  5
9D
330
98
100
AcDbEntity
  8
0
 62
     0
100
AcDb2dPolyline
 66
     1
 10
0.0
 20
0.0
 30
0.0
 70
   128
  0
VERTEX
  5
9E
330
9D
100
AcDbEntity
  8
0
 62
     0
100
AcDbVertex
100
AcDb2dVertex
 10
-1.0
 20
-0.1
 30
0.0
  0
VERTEX
  5
9F
330
9D
100
AcDbEntity
  8
0
 62
     0
100
AcDbVertex
100
AcDb2dVertex
 10
0.0
 20
0.0
 30
0.0
  0
VERTEX
  5
A1
330
9D
100
AcDbEntity
  8
0
 62
     0
100
AcDbVertex
100
AcDb2dVertex
 10
-1.0
 20
0.1
 30
0.0
  0
VERTEX
  5
A2
330
9D
100
AcDbEntity
  8
0
 62
     0
100
AcDbVertex
100
AcDb2dVertex
 10
-1.0
 20
-0.1
 30
0.0
  0
SEQEND
  5
A0
330
9D
100
AcDbEntity
  8
0
 62
     0
  0
SOLID
  5
A3
330
98
100
AcDbEntity
  8
0
 62
     0
100
AcDbTrace
 10
-1.0
 20
-0.1
 30
0.0
 11
0.0
 21
0.0
 31
0.0
 12
-1.0
 22
0.1
 32
0.0
 13
-1.0
 23
-0.1
 33
0.0
  0
LINE
  5
A4
330
98
100
AcDbEntity
  8
0
 62
     0
100
AcDbLine
 10
-1.0
 20
-0.1
 30
0.0
 11
0.0
 21
0.0
 31
0.0
  0
LINE
  5
A5
330
98
100
AcDbEntity
  8
0
 62
     0
100
AcDbLine
 10
0.0
 20
0.0
 30
0.0
 11
-1.0
 21
0.1
 31
0.0
  0
LINE
  5
A6
330
98
100
AcDbEntity
  8
0
 62
     0
100
AcDbLine
 10
-1.0
 20
0.1
 30
0.0
 11
-1.0
 21
-0.1
 31
0.0
  0
ENDBLK
  5
9A
330
98
100
AcDbEntity
  8
0
100
AcDbBlockEnd
  0
BLOCK
  5
B9
330
B4
100
AcDbEntity
  8
0
100
AcDbBlockBegin
  2
_Closed
 70
     0
 10
0.0
 20
0.0
 30
0.0
  3
_Closed
  1

  0
LINE
  5
B5
330
B4
100
AcDbEntity
  8
0
  6
ByBlock
 62
     0
370
    -2
100
AcDbLine
 10
-1.0
 20
0.1666666666666666
 30
0.0
 11
0.0
 21
0.0
 31
0.0
  0
LINE
  5
B6
330
B4
100
AcDbEntity
  8
0
  6
ByBlock
 62
     0
370
    -2
100
AcDbLine
 10
0.0
 20
0.0
 30
0.0
 11
-1.0
 21
-0.1666666666666666
 31
0.0
  0
LINE
  5
B7
330
B4
100
AcDbEntity
  8
0
  6
ByBlock
 62
     0
370
    -2
100
AcDbLine
 10
-1.0
 20
0.1666666666666666
 30
0.0
 11
-1.0
 21
-0.1666666666666666
 31
0.0
  0
LINE
  5
B8
330
B4
100
AcDbEntity
  8
0
  6
ByBlock
 62
     0
370
    -2
100
AcDbLine
 10
0.0
 20
0.0
 30
0.0
 11
-1.0
 21
0.0
 31
0.0
  0
ENDBLK
  5
BA
330
B4
100
AcDbEntity
  8
0
100
AcDbBlockEnd
  0
BLOCK
  5
BC
330
BB
100
AcDbEntity
  8
0
100
AcDbBlockBegin
  2
DatumFilled45
 70
     0
 10
0.0
 20
0.0
 30
0.0
  3
DatumFilled45
  1

  0
POLYLINE
  5
BE
330
BB
100
AcDbEntity
  8
0
 62
     0
100
AcDb2dPolyline
 66
     1
 10
0.0
 20
0.0
 30
0.0
 70
   128
  0
VERTEX
  5
BF
330
BE
100
AcDbEntity
  8
0
 62
     0
100
AcDbVertex
100
AcDb2dVertex
 10
0.0
 20
1.0
 30
0.0
  0
VERTEX
  5
C0
330
BE
100
AcDbEntity
  8
0
 62
     0
100
AcDbVertex
100
AcDb2dVertex
 10
0.0
 20
-1.0
 30
0.0
  0
VERTEX
  5
C2
330
BE
100
AcDbEntity
  8
0
 62
     0
100
AcDbVertex
100
AcDb2dVertex
 10
-1.0
 20
0.0
 30
0.0
  0
VERTEX
  5
C3
330
BE
100
AcDbEntity
  8
0
 62
     0
100
AcDbVertex
100
AcDb2dVertex
 10
0.0
 20
1.0
 30
0.0
  0
SEQEND
  5
C1
330
BE
100
AcDbEntity
  8
0
 62
     0
  0
SOLID
  5
C4
330
BB
100
AcDbEntity
  8
0
 62
     0
100
AcDbTrace
 10
0.0
 20
1.0
 30
0.0
 11
0.0
 21
-1.0
 31
0.0
 12
-1.0
 22
0.0
 32
0.0
 13
0.0
 23
1.0
 33
0.0
  0
ENDBLK
  5
BD
330
BB
100
AcDbEntity
  8
0
100
AcDbBlockEnd
  0
BLOCK
  5
C7
330
C6
100
AcDbEntity
  8
0
100
AcDbBlockBegin
  2
WIG-svarovani
 70
     0
 10
0.0
 20
0.0
 30
0.0
  3
WIG-svarovani
  1

  0
MTEXT
  5
C9
102
{ACAD_XDICTIONARY
360
2D48
102
}
330
C6
100
AcDbEntity
  8
Značka (ISO)
100
AcDbMText
 10
-57.87338256835937
 20
16.31795931607484
 30
0.0
 40
3.499999940395355
 41
115.7467651367187
 71
     1
 72
     1
  1
WIG Schweisung, Nahte sauber geschliffen und poliert\PSichtstege geschliffen mit 240 Korn und abgeklebt.\P{\H0.85714x; \P\H1.1667x;WIG svarovani- svary dle potreby zabrousit.\PPohledove plochy brousit (vel. brusnych zrn 240)\Pa polepit paskou}
  7
Text poznámky (ISO)
 73
     1
 44
0.9596589207649229
  0
ENDBLK
  5
C8
330
C6
100
AcDbEntity
  8
0
100
AcDbBlockEnd
  0
BLOCK
  5
CC
330
CB
100
AcDbEntity
  8
0
100
AcDbBlockBegin
  2
Popis kotvy_srouby
 70
     0
 10
0.0
 20
0.0
 30
0.0
  3
Popis kotvy_srouby
  1

  0
MTEXT
  5
CE
330
CB
100
AcDbEntity
  8
Značka (ISO)
100
AcDbMText
 10
-39.79761123657226
 20
21.84130281209946
 30
0.0
 40
3.499999940395355
 41
0.0
 71
     1
 72
     1
  1
Vzdalenost nivel. sroubu ca. 1500\PVzdalenost kotev ca. 400\PVzdalenost dist. koliku ca. 250\P\PAbstand der Nivellieschraben ca.1500\PAbstand der Maueranker ca.400\PAbstand der Distanzstege ca.250\P
  7
Text poznámky (ISO)
 73
     2
 44
0.9878841638565063
  0
ENDBLK
  5
CD
330
CB
100
AcDbEntity
  8
0
100
AcDbBlockEnd
  0
BLOCK
  5
D0
330
CF
100
AcDbEntity
  8
0
100
AcDbBlockBegin
  2
Mater. provedeni Art.
 70
     0
 10
0.0
 20
0.0
 30
0.0
  3
Mater. provedeni Art.
  1

  0
LINE
  5
D2
330
CF
100
AcDbEntity
  8
Geometrie náčrtu (ISO)
100
AcDbLine
 10
-35.0
 20
-22.5
 30
0.0
 11
35.0
 21
-22.5
 31
0.0
  0
LINE
  5
D3
330
CF
100
AcDbEntity
  8
Geometrie náčrtu (ISO)
100
AcDbLine
 10
35.0
 20
-22.5
 30
0.0
 11
34.99999999999996
 21
-13.49999999999998
 31
0.0
  0
LINE
  5
D4
330
CF
100
AcDbEntity
  8
Geometrie náčrtu (ISO)
100
AcDbLine
 10
34.99999999999996
 20
-13.49999999999998
 30
0.0
 11
-35.00000000000003
 21
-13.49999999999998
 31
0.0
  0
LINE
  5
D5
330
CF
100
AcDbEntity
  8
Geometrie náčrtu (ISO)
100
AcDbLine
 10
-35.00000000000003
 20
-13.49999999999998
 30
0.0
 11
-35.0
 21
-22.5
 31
0.0
  0
LINE
  5
D6
330
CF
100
AcDbEntity
  8
Geometrie náčrtu (ISO)
100
AcDbLine
 10
-35.00000000000003
 20
-13.49999999999998
 30
0.0
 11
34.99999999999996
 21
-13.49999999999998
 31
0.0
  0
LINE
  5
D7
330
CF
100
AcDbEntity
  8
Geometrie náčrtu (ISO)
100
AcDbLine
 10
34.99999999999996
 20
-13.49999999999998
 30
0.0
 11
34.99999999999996
 21
-4.499999999999992
 31
0.0
  0
LINE
  5
D8
330
CF
100
AcDbEntity
  8
Geometrie náčrtu (ISO)
100
AcDbLine
 10
34.99999999999996
 20
-4.499999999999992
 30
0.0
 11
-35.00000000000003
 21
-4.499999999999992
 31
0.0
  0
LINE
  5
D9
330
CF
100
AcDbEntity
  8
Geometrie náčrtu (ISO)
100
AcDbLine
 10
-35.00000000000003
 20
-4.499999999999992
 30
0.0
 11
-35.00000000000003
 21
-13.49999999999998
 31
0.0
  0
LINE
  5
DA
330
CF
100
AcDbEntity
  8
Geometrie náčrtu (ISO)
100
AcDbLine
 10
-35.00000000000003
 20
-4.499999999999992
 30
0.0
 11
34.99999999999996
 21
-4.499999999999992
 31
0.0
  0
LINE
  5
DB
330
CF
100
AcDbEntity
  8
Geometrie náčrtu (ISO)
100
AcDbLine
 10
34.99999999999996
 20
-4.499999999999992
 30
0.0
 11
34.99999999999996
 21
4.499999999999992
 31
0.0
  0
LINE
  5
DC
330
CF
100
AcDbEntity
  8
Geometrie náčrtu (ISO)
100
AcDbLine
 10
34.99999999999996
 20
4.499999999999992
 30
0.0
 11
-35.00000000000003
 21
4.499999999999992
 31
0.0
  0
LINE
  5
DD
330
CF
100
AcDbEntity
  8
Geometrie náčrtu (ISO)
100
AcDbLine
 10
-35.00000000000003
 20
4.499999999999992
 30
0.0
 11
-35.00000000000003
 21
-4.499999999999992
 31
0.0
  0
LINE
  5
DE
330
CF
100
AcDbEntity
  8
Geometrie náčrtu (ISO)
100
AcDbLine
 10
-35.00000000000003
 20
4.499999999999992
 30
0.0
 11
34.99999999999996
 21
4.499999999999992
 31
0.0
  0
LINE
  5
DF
330
CF
100
AcDbEntity
  8
Geometrie náčrtu (ISO)
100
AcDbLine
 10
34.99999999999996
 20
4.499999999999992
 30
0.0
 11
34.99999999999996
 21
13.50000000000001
 31
0.0
  0
LINE
  5
E0
330
CF
100
AcDbEntity
  8
Geometrie náčrtu (ISO)
100
AcDbLine
 10
34.99999999999996
 20
13.50000000000001
 30
0.0
 11
-35.00000000000003
 21
13.50000000000001
 31
0.0
  0
LINE
  5
E1
330
CF
100
AcDbEntity
  8
Geometrie náčrtu (ISO)
100
AcDbLine
 10
-35.00000000000003
 20
13.50000000000001
 30
0.0
 11
-35.00000000000003
 21
4.499999999999992
 31
0.0
  0
LINE
  5
E2
330
CF
100
AcDbEntity
  8
Geometrie náčrtu (ISO)
100
AcDbLine
 10
-35.00000000000003
 20
13.50000000000001
 30
0.0
 11
34.99999999999996
 21
13.50000000000001
 31
0.0
  0
LINE
  5
E3
330
CF
100
AcDbEntity
  8
Geometrie náčrtu (ISO)
100
AcDbLine
 10
34.99999999999996
 20
13.50000000000001
 30
0.0
 11
34.99999999999996
 21
22.5
 31
0.0
  0
LINE
  5
E4
330
CF
100
AcDbEntity
  8
Geometrie náčrtu (ISO)
100
AcDbLine
 10
34.99999999999996
 20
22.5
 30
0.0
 11
-35.00000000000003
 21
22.5
 31
0.0
  0
LINE
  5
E5
330
CF
100
AcDbEntity
  8
Geometrie náčrtu (ISO)
100
AcDbLine
 10
-35.00000000000003
 20
22.5
 30
0.0
 11
-35.00000000000003
 21
13.50000000000001
 31
0.0
  0
LINE
  5
E6
330
CF
100
AcDbEntity
  8
Geometrie náčrtu (ISO)
100
AcDbLine
 10
-6.999999999999992
 20
22.5
 30
0.0
 11
-6.999999999999992
 21
-22.5
 31
0.0
  0
MTEXT
  5
E7
330
CF
100
AcDbEntity
  8
Značka (ISO)
100
AcDbMText
 10
-5.126613448311374
 20
11.7684641726084
 30
0.0
 40
5.0
 41
0.0
 71
     1
 72
     1
  1
\fTahoma|b0|i0;\H5.0000;xxxxxxxxxxx
  7
Text poznámky (ISO)
 73
     1
 44
1.0
  0
MTEXT
  5
E8
330
CF
100
AcDbEntity
  8
Značka (ISO)
100
AcDbMText
 10
-33.0130165251342
 20
11.7684641726084
 30
0.0
 40
5.0
 41
20.42139291763306
 71
     1
 72
     1
  1
\fTahoma|b0|i0;\H5.0000;xxxxxx
  7
Text poznámky (ISO)
 73
     1
 44
1.0
  0
MTEXT
  5
E9
330
CF
100
AcDbEntity
  8
Značka (ISO)
100
AcDbMText
 10
-32.07756235018873
 20
20.30710993714994
 30
0.0
 40
5.0
 41
13.92583036716939
 71
     1
 72
     1
  1
\fTahoma|b0|i0;\H5.0000;Art.
  7
Text poznámky (ISO)
 73
     1
 44
1.0
  0
MTEXT
  5
EA
330
CF
100
AcDbEntity
  8
Značka (ISO)
100
AcDbMText
 10
4.291672002492318
 20
20.30710993714994
 30
0.0
 40
5.0
 41
0.0
 71
     1
 72
     1
  1
\fTahoma|b0|i0;\H5.0000;Mat.
  7
Text poznámky (ISO)
 73
     1
 44
1.0
  0
MTEXT
  5
EB
330
CF
100
AcDbEntity
  8
Značka (ISO)
100
AcDbMText
 10
-33.0130165251342
 20
2.473781856899818
 30
0.0
 40
5.0
 41
20.42139291763306
 71
     1
 72
     1
  1
\fTahoma|b0|i0;\H5.0000;xxxxxx
  7
Text poznámky (ISO)
 73
     1
 44
1.0
  0
MTEXT
  5
EC
330
CF
100
AcDbEntity
  8
Značka (ISO)
100
AcDbMText
 10
-5.126613448311374
 20
2.473781856899818
 30
0.0
 40
5.0
 41
0.0
 71
     1
 72
     1
  1
\fTahoma|b0|i0;\H5.0000;xxxxxxxxxxx
  7
Text poznámky (ISO)
 73
     1
 44
1.0
  0
MTEXT
  5
ED
330
CF
100
AcDbEntity
  8
Značka (ISO)
100
AcDbMText
 10
-33.0130165251342
 20
-6.862452441171491
 30
0.0
 40
5.0
 41
20.42139291763306
 71
     1
 72
     1
  1
\fTahoma|b0|i0;\H5.0000;xxxxxx
  7
Text poznámky (ISO)
 73
     1
 44
1.0
  0
MTEXT
  5
EE
330
CF
100
AcDbEntity
  8
Značka (ISO)
100
AcDbMText
 10
-5.126613448311374
 20
-6.862452441171491
 30
0.0
 40
5.0
 41
0.0
 71
     1
 72
     1
  1
\fTahoma|b0|i0;\H5.0000;xxxxxxxxxxx
  7
Text poznámky (ISO)
 73
     1
 44
1.0
  0
MTEXT
  5
EF
330
CF
100
AcDbEntity
  8
Značka (ISO)
100
AcDbMText
 10
-33.0130165251342
 20
-15.52177565039578
 30
0.0
 40
5.0
 41
20.42139291763306
 71
     1
 72
     1
  1
\fTahoma|b0|i0;\H5.0000;xxxxxx
  7
Text poznámky (ISO)
 73
     1
 44
1.0
  0
MTEXT
  5
F0
330
CF
100
AcDbEntity
  8
Značka (ISO)
100
AcDbMText
 10
-5.126613448311374
 20
-15.52177565039578
 30
0.0
 40
5.0
 41
0.0
 71
     1
 72
     1
  1
\fTahoma|b0|i0;\H5.0000;xxxxxxxxxxx
  7
Text poznámky (ISO)
 73
     1
 44
1.0
  0
ENDBLK
  5
D1
330
CF
100
AcDbEntity
  8
0
100
AcDbBlockEnd
  0
BLOCK
  5
F2
330
F1
100
AcDbEntity
  8
0
100
AcDbBlockBegin
  2
Art. s popisy
 70
     0
 10
0.0
 20
0.0
 30
0.0
  3
Art. s popisy
  1

  0
LINE
  5
F4
330
F1
100
AcDbEntity
  8
Geometrie náčrtu (ISO)
100
AcDbLine
 10
-60.00000000000081
 20
-22.5
 30
0.0
 11
59.99999999999911
 21
-22.5
 31
0.0
  0
LINE
  5
F5
330
F1
100
AcDbEntity
  8
Geometrie náčrtu (ISO)
100
AcDbLine
 10
59.99999999999911
 20
-22.5
 30
0.0
 11
60.00000000000081
 21
-13.50000000000001
 31
0.0
  0
LINE
  5
F6
330
F1
100
AcDbEntity
  8
Geometrie náčrtu (ISO)
100
AcDbLine
 10
60.00000000000081
 20
-13.50000000000001
 30
0.0
 11
-60.00000000000081
 21
-13.49999999999998
 31
0.0
  0
LINE
  5
F7
330
F1
100
AcDbEntity
  8
Geometrie náčrtu (ISO)
100
AcDbLine
 10
-60.00000000000081
 20
-13.49999999999998
 30
0.0
 11
-60.00000000000081
 21
-22.5
 31
0.0
  0
LINE
  5
F8
330
F1
100
AcDbEntity
  8
Geometrie náčrtu (ISO)
100
AcDbLine
 10
-60.00000000000081
 20
-13.49999999999998
 30
0.0
 11
60.00000000000081
 21
-13.50000000000001
 31
0.0
  0
LINE
  5
F9
330
F1
100
AcDbEntity
  8
Geometrie náčrtu (ISO)
100
AcDbLine
 10
60.00000000000081
 20
-13.50000000000001
 30
0.0
 11
59.99999999999911
 21
-4.500000000000028
 31
0.0
  0
LINE
  5
FA
330
F1
100
AcDbEntity
  8
Geometrie náčrtu (ISO)
100
AcDbLine
 10
59.99999999999911
 20
-4.500000000000028
 30
0.0
 11
-60.00000000000081
 21
-4.499999999999992
 31
0.0
  0
LINE
  5
FB
330
F1
100
AcDbEntity
  8
Geometrie náčrtu (ISO)
100
AcDbLine
 10
-60.00000000000081
 20
-4.499999999999992
 30
0.0
 11
-60.00000000000081
 21
-13.49999999999998
 31
0.0
  0
LINE
  5
FC
330
F1
100
AcDbEntity
  8
Geometrie náčrtu (ISO)
100
AcDbLine
 10
-60.00000000000081
 20
-4.499999999999992
 30
0.0
 11
59.99999999999911
 21
-4.500000000000028
 31
0.0
  0
LINE
  5
FD
330
F1
100
AcDbEntity
  8
Geometrie náčrtu (ISO)
100
AcDbLine
 10
59.99999999999911
 20
-4.500000000000028
 30
0.0
 11
59.99999999999911
 21
4.499999999999957
 31
0.0
  0
LINE
  5
FE
330
F1
100
AcDbEntity
  8
Geometrie náčrtu (ISO)
100
AcDbLine
 10
59.99999999999911
 20
4.499999999999957
 30
0.0
 11
-60.00000000000081
 21
4.499999999999992
 31
0.0
  0
LINE
  5
FF
330
F1
100
AcDbEntity
  8
Geometrie náčrtu (ISO)
100
AcDbLine
 10
-60.00000000000081
 20
4.499999999999992
 30
0.0
 11
-60.00000000000081
 21
-4.499999999999992
 31
0.0
  0
LINE
  5
100
330
F1
100
AcDbEntity
  8
Geometrie náčrtu (ISO)
100
AcDbLine
 10
-60.00000000000081
 20
4.499999999999992
 30
0.0
 11
59.99999999999911
 21
4.499999999999957
 31
0.0
  0
LINE
  5
101
330
F1
100
AcDbEntity
  8
Geometrie náčrtu (ISO)
100
AcDbLine
 10
59.99999999999911
 20
4.499999999999957
 30
0.0
 11
59.99999999999911
 21
13.49999999999998
 31
0.0
  0
LINE
  5
102
330
F1
100
AcDbEntity
  8
Geometrie náčrtu (ISO)
100
AcDbLine
 10
59.99999999999911
 20
13.49999999999998
 30
0.0
 11
-60.00000000000081
 21
13.50000000000001
 31
0.0
  0
LINE
  5
103
330
F1
100
AcDbEntity
  8
Geometrie náčrtu (ISO)
100
AcDbLine
 10
-60.00000000000081
 20
13.50000000000001
 30
0.0
 11
-60.00000000000081
 21
4.499999999999992
 31
0.0
  0
LINE
  5
104
330
F1
100
AcDbEntity
  8
Geometrie náčrtu (ISO)
100
AcDbLine
 10
-60.00000000000081
 20
13.50000000000001
 30
0.0
 11
59.99999999999911
 21
13.49999999999998
 31
0.0
  0
LINE
  5
105
330
F1
100
AcDbEntity
  8
Geometrie náčrtu (ISO)
100
AcDbLine
 10
59.99999999999911
 20
13.49999999999998
 30
0.0
 11
59.99999999999911
 21
22.49999999999996
 31
0.0
  0
LINE
  5
106
330
F1
100
AcDbEntity
  8
Geometrie náčrtu (ISO)
100
AcDbLine
 10
59.99999999999911
 20
22.49999999999996
 30
0.0
 11
-60.00000000000081
 21
22.5
 31
0.0
  0
LINE
  5
107
330
F1
100
AcDbEntity
  8
Geometrie náčrtu (ISO)
100
AcDbLine
 10
-60.00000000000081
 20
22.5
 30
0.0
 11
-60.00000000000081
 21
13.50000000000001
 31
0.0
  0
LINE
  5
108
330
F1
100
AcDbEntity
  8
Geometrie náčrtu (ISO)
100
AcDbLine
 10
-32.00000000000081
 20
22.5
 30
0.0
 11
-32.00000000000081
 21
-22.5
 31
0.0
  0
MTEXT
  5
109
330
F1
100
AcDbEntity
  8
Značka (ISO)
100
AcDbMText
 10
-27.63552601875791
 20
11.7684641726084
 30
0.0
 40
5.0
 41
0.0
 71
     1
 72
     1
  1
\fTahoma|b0|i0;\H5.0000;xxxxxxxxxxx
  7
Text poznámky (ISO)
 73
     1
 44
1.0
  0
MTEXT
  5
10A
330
F1
100
AcDbEntity
  8
Značka (ISO)
100
AcDbMText
 10
-55.52192909558073
 20
11.7684641726084
 30
0.0
 40
5.0
 41
20.42139291763306
 71
     1
 72
     1
  1
\fTahoma|b0|i0;\H5.0000;xxxxxx
  7
Text poznámky (ISO)
 73
     1
 44
1.0
  0
MTEXT
  5
10B
330
F1
100
AcDbEntity
  8
Značka (ISO)
100
AcDbMText
 10
-54.58647492063526
 20
20.30710993714994
 30
0.0
 40
5.0
 41
13.92583036716939
 71
     1
 72
     1
  1
\fTahoma|b0|i0;\H5.0000;Art.
  7
Text poznámky (ISO)
 73
     1
 44
1.0
  0
MTEXT
  5
10C
330
F1
100
AcDbEntity
  8
Značka (ISO)
100
AcDbMText
 10
-18.21724056795421
 20
20.30710993714994
 30
0.0
 40
5.0
 41
0.0
 71
     1
 72
     1
  1
\fTahoma|b0|i0;\H5.0000;Popis.
  7
Text poznámky (ISO)
 73
     1
 44
1.0
  0
MTEXT
  5
10D
330
F1
100
AcDbEntity
  8
Značka (ISO)
100
AcDbMText
 10
-55.52192909558073
 20
2.473781856899818
 30
0.0
 40
5.0
 41
20.42139291763306
 71
     1
 72
     1
  1
\fTahoma|b0|i0;\H5.0000;xxxxxx
  7
Text poznámky (ISO)
 73
     1
 44
1.0
  0
MTEXT
  5
10E
330
F1
100
AcDbEntity
  8
Značka (ISO)
100
AcDbMText
 10
-27.63552601875791
 20
2.473781856899818
 30
0.0
 40
5.0
 41
0.0
 71
     1
 72
     1
  1
\fTahoma|b0|i0;\H5.0000;xxxxxxxxxxx
  7
Text poznámky (ISO)
 73
     1
 44
1.0
  0
MTEXT
  5
10F
330
F1
100
AcDbEntity
  8
Značka (ISO)
100
AcDbMText
 10
-55.52192909558073
 20
-6.862452441171491
 30
0.0
 40
5.0
 41
20.42139291763306
 71
     1
 72
     1
  1
\fTahoma|b0|i0;\H5.0000;xxxxxx
  7
Text poznámky (ISO)
 73
     1
 44
1.0
  0
MTEXT
  5
110
330
F1
100
AcDbEntity
  8
Značka (ISO)
100
AcDbMText
 10
-27.63552601875791
 20
-6.862452441171491
 30
0.0
 40
5.0
 41
0.0
 71
     1
 72
     1
  1
\fTahoma|b0|i0;\H5.0000;xxxxxxxxxxx
  7
Text poznámky (ISO)
 73
     1
 44
1.0
  0
MTEXT
  5
111
330
F1
100
AcDbEntity
  8
Značka (ISO)
100
AcDbMText
 10
-55.52192909558073
 20
-15.52177565039578
 30
0.0
 40
5.0
 41
20.42139291763306
 71
     1
 72
     1
  1
\fTahoma|b0|i0;\H5.0000;xxxxxx
  7
Text poznámky (ISO)
 73
     1
 44
1.0
  0
MTEXT
  5
112
330
F1
100
AcDbEntity
  8
Značka (ISO)
100
AcDbMText
 10
-27.63552601875791
 20
-15.52177565039578
 30
0.0
 40
5.0
 41
0.0
 71
     1
 72
     1
  1
\fTahoma|b0|i0;\H5.0000;xxxxxxxxxxx
  7
Text poznámky (ISO)
 73
     1
 44
1.0
  0
ENDBLK
  5
F3
330
F1
100
AcDbEntity
  8
0
100
AcDbBlockEnd
  0
BLOCK
  5
114
330
113
100
AcDbEntity
  8
0
100
AcDbBlockBegin
  2
Tryskat
 70
     0
 10
0.0
 20
0.0
 30
0.0
  3
Tryskat
  1

  0
MTEXT
  5
116
330
113
100
AcDbEntity
  8
Značka (ISO)
100
AcDbMText
 10
-30.20239114761352
 20
5.036920197308063
 30
0.0
 40
3.499999940395355
 41
0.0
 71
     1
 72
     1
  1
Tryskat \P( Blasted , Glasperlstrahken)
  7
Text poznámky (ISO)
 73
     2
 44
0.9878841638565063
  0
ENDBLK
  5
115
330
113
100
AcDbEntity
  8
0
100
AcDbBlockEnd
  0
BLOCK
  5
118
330
117
100
AcDbEntity
  8
0
100
AcDbBlockBegin
  2
Morit
 70
     0
 10
0.0
 20
0.0
 30
0.0
  3
Morit
  1

  0
MTEXT
  5
11A
330
117
100
AcDbEntity
  8
Značka (ISO)
100
AcDbMText
 10
-19.08124089241028
 20
5.11633675545454
 30
0.0
 40
3.499999940395355
 41
0.0
 71
     1
 72
     1
  1
Morit a pasivovat\P(Pickled, gebeitzt)
  7
Text poznámky (ISO)
 73
     2
 44
0.9878841638565063
  0
ENDBLK
  5
119
330
117
100
AcDbEntity
  8
0
100
AcDbBlockEnd
  0
BLOCK
  5
11C
330
11B
100
AcDbEntity
  8
0
100
AcDbBlockBegin
  2
zinkovat
 70
     0
 10
0.0
 20
0.0
 30
0.0
  3
zinkovat
  1

  0
MTEXT
  5
11E
330
11B
100
AcDbEntity
  8
Značka (ISO)
100
AcDbMText
 10
-27.74189710617065
 20
5.049683563411234
 30
0.0
 40
3.499999940395355
 41
0.0
 71
     1
 72
     1
  1
Zarove zinkovat\P(hot galvanized, verzinkt )
  7
Text poznámky (ISO)
 73
     2
 44
0.9878841638565063
  0
ENDBLK
  5
11D
330
11B
100
AcDbEntity
  8
0
100
AcDbBlockEnd
  0
BLOCK
  5
120
330
11F
100
AcDbEntity
  8
0
100
AcDbBlockBegin
  2
Nater
 70
     0
 10
0.0
 20
0.0
 30
0.0
  3
Nater
  1

  0
MTEXT
  5
122
330
11F
100
AcDbEntity
  8
Značka (ISO)
100
AcDbMText
 10
-25.88411808013916
 20
1.864870421122758
 30
0.0
 40
3.499999940395355
 41
0.0
 71
     1
 72
     1
  1
Lackiert Farbe RAL 5002
  7
Text poznámky (ISO)
 73
     1
 44
1.0
  0
ENDBLK
  5
121
330
11F
100
AcDbEntity
  8
0
100
AcDbBlockEnd
  0
BLOCK
  5
124
330
123
100
AcDbEntity
  8
0
100
AcDbBlockBegin
  2
Brus
 70
     0
 10
0.0
 20
0.0
 30
0.0
  3
Brus
  1

  0
MTEXT
  5
126
330
123
100
AcDbEntity
  8
Značka (ISO)
100
AcDbMText
 10
-23.46616744995117
 20
5.11633675545454
 30
0.0
 40
3.499999940395355
 41
0.0
 71
     1
 72
     1
  1
Brousit\P(geburstet , brushed )
  7
Text poznámky (ISO)
 73
     2
 44
0.9878841638565063
  0
ENDBLK
  5
125
330
123
100
AcDbEntity
  8
0
100
AcDbBlockEnd
  0
BLOCK
  5
128
330
127
100
AcDbEntity
  8
0
100
AcDbBlockBegin
  2
Elektroliticky lestit
 70
     0
 10
0.0
 20
0.0
 30
0.0
  3
Elektroliticky lestit
  1

  0
MTEXT
  5
12A
330
127
100
AcDbEntity
  8
Značka (ISO)
100
AcDbMText
 10
-18.68841171264648
 20
5.036920197308063
 30
0.0
 40
3.499999940395355
 41
0.0
 71
     1
 72
     1
  1
Elektrolit. lestit\P(Elektropolished )
  7
Text poznámky (ISO)
 73
     2
 44
0.9878841638565063
  0
ENDBLK
  5
129
330
127
100
AcDbEntity
  8
0
100
AcDbBlockEnd
  0
BLOCK
  5
12D
330
12C
100
AcDbEntity
  8
0
100
AcDbBlockBegin
  2
Rámečky Default Border
 70
     0
 10
0.0
 20
0.0
 30
0.0
  3
Rámečky Default Border
  1

  0
POLYLINE
  5
12F
330
12C
100
AcDbEntity
  8
Rámeček (ISO)
100
AcDb2dPolyline
 66
     1
 10
0.0
 20
0.0
 30
0.0
 70
   128
  0
VERTEX
  5
130
330
12F
100
AcDbEntity
  8
Rámeček (ISO)
100
AcDbVertex
100
AcDb2dVertex
 10
10.0
 20
10.0
 30
0.0
  0
VERTEX
  5
131
330
12F
100
AcDbEntity
  8
Rámeček (ISO)
100
AcDbVertex
100
AcDb2dVertex
 10
10.0
 20
410.0
 30
0.0
  0
VERTEX
  5
133
330
12F
100
AcDbEntity
  8
Rámeček (ISO)
100
AcDbVertex
100
AcDb2dVertex
 10
584.0000152587889
 20
410.0
 30
0.0
  0
VERTEX
  5
134
330
12F
100
AcDbEntity
  8
Rámeček (ISO)
100
AcDbVertex
100
AcDb2dVertex
 10
584.0000152587889
 20
10.0
 30
0.0
  0
VERTEX
  5
135
330
12F
100
AcDbEntity
  8
Rámeček (ISO)
100
AcDbVertex
100
AcDb2dVertex
 10
10.0
 20
10.0
 30
0.0
  0
SEQEND
  5
132
330
12F
100
AcDbEntity
  8
Rámeček (ISO)
  0
POLYLINE
  5
136
330
12C
100
AcDbEntity
  8
Rámeček (ISO)
100
AcDb2dPolyline
 66
     1
 10
0.0
 20
0.0
 30
0.0
 70
   128
  0
VERTEX
  5
137
330
136
100
AcDbEntity
  8
Rámeček (ISO)
100
AcDbVertex
100
AcDb2dVertex
 10
297.0000076293946
 20
0.0
 30
0.0
  0
VERTEX
  5
138
330
136
100
AcDbEntity
  8
Rámeček (ISO)
100
AcDbVertex
100
AcDb2dVertex
 10
297.0000076293946
 20
10.0
 30
0.0
  0
VERTEX
  5
13A
330
136
100
AcDbEntity
  8
Rámeček (ISO)
100
AcDbVertex
100
AcDb2dVertex
 10
294.1132545471191
 20
5.0
 30
0.0
  0
VERTEX
  5
13B
330
136
100
AcDbEntity
  8
Rámeček (ISO)
100
AcDbVertex
100
AcDb2dVertex
 10
299.8867607116699
 20
5.0
 30
0.0
  0
VERTEX
  5
13C
330
136
100
AcDbEntity
  8
Rámeček (ISO)
100
AcDbVertex
100
AcDb2dVertex
 10
297.0000076293946
 20
10.0
 30
0.0
  0
SEQEND
  5
139
330
136
100
AcDbEntity
  8
Rámeček (ISO)
  0
POLYLINE
  5
13D
330
12C
100
AcDbEntity
  8
Rámeček (ISO)
100
AcDb2dPolyline
 66
     1
 10
0.0
 20
0.0
 30
0.0
 70
   128
  0
VERTEX
  5
13E
330
13D
100
AcDbEntity
  8
Rámeček (ISO)
100
AcDbVertex
100
AcDb2dVertex
 10
297.0000076293946
 20
420.0
 30
0.0
  0
VERTEX
  5
13F
330
13D
100
AcDbEntity
  8
Rámeček (ISO)
100
AcDbVertex
100
AcDb2dVertex
 10
297.0000076293946
 20
410.0
 30
0.0
  0
VERTEX
  5
141
330
13D
100
AcDbEntity
  8
Rámeček (ISO)
100
AcDbVertex
100
AcDb2dVertex
 10
294.1132545471191
 20
415.0
 30
0.0
  0
VERTEX
  5
142
330
13D
100
AcDbEntity
  8
Rámeček (ISO)
100
AcDbVertex
100
AcDb2dVertex
 10
299.8867607116699
 20
415.0
 30
0.0
  0
VERTEX
  5
143
330
13D
100
AcDbEntity
  8
Rámeček (ISO)
100
AcDbVertex
100
AcDb2dVertex
 10
297.0000076293946
 20
410.0
 30
0.0
  0
SEQEND
  5
140
330
13D
100
AcDbEntity
  8
Rámeček (ISO)
  0
POLYLINE
  5
144
330
12C
100
AcDbEntity
  8
Rámeček (ISO)
100
AcDb2dPolyline
 66
     1
 10
0.0
 20
0.0
 30
0.0
 70
   128
  0
VERTEX
  5
145
330
144
100
AcDbEntity
  8
Rámeček (ISO)
100
AcDbVertex
100
AcDb2dVertex
 10
0.0
 20
210.0
 30
0.0
  0
VERTEX
  5
146
330
144
100
AcDbEntity
  8
Rámeček (ISO)
100
AcDbVertex
100
AcDb2dVertex
 10
10.0
 20
210.0
 30
0.0
  0
VERTEX
  5
148
330
144
100
AcDbEntity
  8
Rámeček (ISO)
100
AcDbVertex
100
AcDb2dVertex
 10
5.0
 20
212.8867530822754
 30
0.0
  0
VERTEX
  5
149
330
144
100
AcDbEntity
  8
Rámeček (ISO)
100
AcDbVertex
100
AcDb2dVertex
 10
5.0
 20
207.1132469177246
 30
0.0
  0
VERTEX
  5
14A
330
144
100
AcDbEntity
  8
Rámeček (ISO)
100
AcDbVertex
100
AcDb2dVertex
 10
10.0
 20
210.0
 30
0.0
  0
SEQEND
  5
147
330
144
100
AcDbEntity
  8
Rámeček (ISO)
  0
POLYLINE
  5
14B
330
12C
100
AcDbEntity
  8
Rámeček (ISO)
100
AcDb2dPolyline
 66
     1
 10
0.0
 20
0.0
 30
0.0
 70
   128
  0
VERTEX
  5
14C
330
14B
100
AcDbEntity
  8
Rámeček (ISO)
100
AcDbVertex
100
AcDb2dVertex
 10
594.0000152587892
 20
210.0
 30
0.0
  0
VERTEX
  5
14D
330
14B
100
AcDbEntity
  8
Rámeček (ISO)
100
AcDbVertex
100
AcDb2dVertex
 10
584.0000152587889
 20
210.0
 30
0.0
  0
VERTEX
  5
14F
330
14B
100
AcDbEntity
  8
Rámeček (ISO)
100
AcDbVertex
100
AcDb2dVertex
 10
589.0000152587889
 20
212.8867530822754
 30
0.0
  0
VERTEX
  5
150
330
14B
100
AcDbEntity
  8
Rámeček (ISO)
100
AcDbVertex
100
AcDb2dVertex
 10
589.0000152587889
 20
207.1132469177246
 30
0.0
  0
VERTEX
  5
151
330
14B
100
AcDbEntity
  8
Rámeček (ISO)
100
AcDbVertex
100
AcDb2dVertex
 10
584.0000152587889
 20
210.0
 30
0.0
  0
SEQEND
  5
14E
330
14B
100
AcDbEntity
  8
Rámeček (ISO)
  0
LINE
  5
152
330
12C
100
AcDbEntity
  8
Rámeček (ISO)
100
AcDbLine
 10
74.25000190734862
 20
10.0
 30
0.0
 11
74.25000190734862
 21
6.100000143051147
 31
0.0
  0
LINE
  5
153
330
12C
100
AcDbEntity
  8
Rámeček (ISO)
100
AcDbLine
 10
74.25000190734862
 20
410.0
 30
0.0
 11
74.25000190734862
 21
413.8999938964842
 31
0.0
  0
LINE
  5
154
330
12C
100
AcDbEntity
  8
Rámeček (ISO)
100
AcDbLine
 10
148.5000038146973
 20
10.0
 30
0.0
 11
148.5000038146973
 21
6.100000143051147
 31
0.0
  0
LINE
  5
155
330
12C
100
AcDbEntity
  8
Rámeček (ISO)
100
AcDbLine
 10
148.5000038146973
 20
410.0
 30
0.0
 11
148.5000038146973
 21
413.8999938964842
 31
0.0
  0
LINE
  5
156
330
12C
100
AcDbEntity
  8
Rámeček (ISO)
100
AcDbLine
 10
222.7499961853027
 20
10.0
 30
0.0
 11
222.7499961853027
 21
6.100000143051147
 31
0.0
  0
LINE
  5
157
330
12C
100
AcDbEntity
  8
Rámeček (ISO)
100
AcDbLine
 10
222.7499961853027
 20
410.0
 30
0.0
 11
222.7499961853027
 21
413.8999938964842
 31
0.0
  0
LINE
  5
158
330
12C
100
AcDbEntity
  8
Rámeček (ISO)
100
AcDbLine
 10
371.25
 20
10.0
 30
0.0
 11
371.25
 21
6.100000143051147
 31
0.0
  0
LINE
  5
159
330
12C
100
AcDbEntity
  8
Rámeček (ISO)
100
AcDbLine
 10
371.25
 20
410.0
 30
0.0
 11
371.25
 21
413.8999938964842
 31
0.0
  0
LINE
  5
15A
330
12C
100
AcDbEntity
  8
Rámeček (ISO)
100
AcDbLine
 10
445.4999923706053
 20
10.0
 30
0.0
 11
445.4999923706053
 21
6.100000143051147
 31
0.0
  0
LINE
  5
15B
330
12C
100
AcDbEntity
  8
Rámeček (ISO)
100
AcDbLine
 10
445.4999923706053
 20
410.0
 30
0.0
 11
445.4999923706053
 21
413.8999938964842
 31
0.0
  0
LINE
  5
15C
330
12C
100
AcDbEntity
  8
Rámeček (ISO)
100
AcDbLine
 10
519.7499847412108
 20
10.0
 30
0.0
 11
519.7499847412108
 21
6.100000143051147
 31
0.0
  0
LINE
  5
15D
330
12C
100
AcDbEntity
  8
Rámeček (ISO)
100
AcDbLine
 10
519.7499847412108
 20
410.0
 30
0.0
 11
519.7499847412108
 21
413.8999938964842
 31
0.0
  0
MTEXT
  5
15E
330
12C
100
AcDbEntity
  8
Rámeček (ISO)
100
AcDbMText
 10
556.0853922448459
 20
410.4
 30
0.0
 40
3.499999940395355
 41
0.0
 71
     7
 72
     1
  1
1
  7
Text poznámky (ISO)
 73
     1
 44
1.0
  0
MTEXT
  5
15F
330
12C
100
AcDbEntity
  8
Rámeček (ISO)
100
AcDbMText
 10
556.0853922448459
 20
6.100000059604643
 30
0.0
 40
3.499999940395355
 41
0.0
 71
     7
 72
     1
  1
1
  7
Text poznámky (ISO)
 73
     1
 44
1.0
  0
MTEXT
  5
160
330
12C
100
AcDbEntity
  8
Rámeček (ISO)
100
AcDbMText
 10
481.5637915541735
 20
410.4
 30
0.0
 40
3.499999940395355
 41
0.0
 71
     7
 72
     1
  1
2
  7
Text poznámky (ISO)
 73
     1
 44
1.0
  0
MTEXT
  5
161
330
12C
100
AcDbEntity
  8
Rámeček (ISO)
100
AcDbMText
 10
481.5637915541735
 20
6.100000059604643
 30
0.0
 40
3.499999940395355
 41
0.0
 71
     7
 72
     1
  1
2
  7
Text poznámky (ISO)
 73
     1
 44
1.0
  0
MTEXT
  5
162
330
12C
100
AcDbEntity
  8
Rámeček (ISO)
100
AcDbMText
 10
407.2857914829701
 20
410.3262560764327
 30
0.0
 40
3.499999940395355
 41
0.0
 71
     7
 72
     1
  1
3
  7
Text poznámky (ISO)
 73
     1
 44
1.0
  0
MTEXT
  5
163
330
12C
100
AcDbEntity
  8
Rámeček (ISO)
100
AcDbMText
 10
407.2857914829701
 20
6.026256136037407
 30
0.0
 40
3.499999940395355
 41
0.0
 71
     7
 72
     1
  1
3
  7
Text poznámky (ISO)
 73
     1
 44
1.0
  0
MTEXT
  5
164
330
12C
100
AcDbEntity
  8
Rámeček (ISO)
100
AcDbMText
 10
332.9041911483145
 20
410.4
 30
0.0
 40
3.499999940395355
 41
0.0
 71
     7
 72
     1
  1
4
  7
Text poznámky (ISO)
 73
     1
 44
1.0
  0
MTEXT
  5
165
330
12C
100
AcDbEntity
  8
Rámeček (ISO)
100
AcDbMText
 10
332.9041911483145
 20
6.100000059604643
 30
0.0
 40
3.499999940395355
 41
0.0
 71
     7
 72
     1
  1
4
  7
Text poznámky (ISO)
 73
     1
 44
1.0
  0
MTEXT
  5
166
330
12C
100
AcDbEntity
  8
Rámeček (ISO)
100
AcDbMText
 10
258.8501916467381
 20
410.3262560764327
 30
0.0
 40
3.499999940395355
 41
0.0
 71
     7
 72
     1
  1
5
  7
Text poznámky (ISO)
 73
     1
 44
1.0
  0
MTEXT
  5
167
330
12C
100
AcDbEntity
  8
Rámeček (ISO)
100
AcDbMText
 10
258.8501916467381
 20
6.026256136037407
 30
0.0
 40
3.499999940395355
 41
0.0
 71
     7
 72
     1
  1
5
  7
Text poznámky (ISO)
 73
     1
 44
1.0
  0
MTEXT
  5
168
330
12C
100
AcDbEntity
  8
Rámeček (ISO)
100
AcDbMText
 10
184.5077914117669
 20
410.3262560764327
 30
0.0
 40
3.499999940395355
 41
0.0
 71
     7
 72
     1
  1
6
  7
Text poznámky (ISO)
 73
     1
 44
1.0
  0
MTEXT
  5
169
330
12C
100
AcDbEntity
  8
Rámeček (ISO)
100
AcDbMText
 10
184.5077914117669
 20
6.026256136037407
 30
0.0
 40
3.499999940395355
 41
0.0
 71
     7
 72
     1
  1
6
  7
Text poznámky (ISO)
 73
     1
 44
1.0
  0
MTEXT
  5
16A
330
12C
100
AcDbEntity
  8
Rámeček (ISO)
100
AcDbMText
 10
110.2913914972109
 20
410.4
 30
0.0
 40
3.499999940395355
 41
0.0
 71
     7
 72
     1
  1
7
  7
Text poznámky (ISO)
 73
     1
 44
1.0
  0
MTEXT
  5
16B
330
12C
100
AcDbEntity
  8
Rámeček (ISO)
100
AcDbMText
 10
110.2913914972109
 20
6.100000059604643
 30
0.0
 40
3.499999940395355
 41
0.0
 71
     7
 72
     1
  1
7
  7
Text poznámky (ISO)
 73
     1
 44
1.0
  0
MTEXT
  5
16C
330
12C
100
AcDbEntity
  8
Rámeček (ISO)
100
AcDbMText
 10
35.9825913476839
 20
410.3205834697932
 30
0.0
 40
3.499999940395355
 41
0.0
 71
     7
 72
     1
  1
8
  7
Text poznámky (ISO)
 73
     1
 44
1.0
  0
MTEXT
  5
16D
330
12C
100
AcDbEntity
  8
Rámeček (ISO)
100
AcDbMText
 10
35.9825913476839
 20
6.020583529397844
 30
0.0
 40
3.499999940395355
 41
0.0
 71
     7
 72
     1
  1
8
  7
Text poznámky (ISO)
 73
     1
 44
1.0
  0
LINE
  5
16E
330
12C
100
AcDbEntity
  8
Rámeček (ISO)
100
AcDbLine
 10
10.0
 20
70.0
 30
0.0
 11
6.100000143051147
 21
70.0
 31
0.0
  0
LINE
  5
16F
330
12C
100
AcDbEntity
  8
Rámeček (ISO)
100
AcDbLine
 10
584.0000152587889
 20
70.0
 30
0.0
 11
587.9000091552732
 21
70.0
 31
0.0
  0
LINE
  5
170
330
12C
100
AcDbEntity
  8
Rámeček (ISO)
100
AcDbLine
 10
10.0
 20
140.0
 30
0.0
 11
6.100000143051147
 21
140.0
 31
0.0
  0
LINE
  5
171
330
12C
100
AcDbEntity
  8
Rámeček (ISO)
100
AcDbLine
 10
584.0000152587889
 20
140.0
 30
0.0
 11
587.9000091552732
 21
140.0
 31
0.0
  0
LINE
  5
172
330
12C
100
AcDbEntity
  8
Rámeček (ISO)
100
AcDbLine
 10
10.0
 20
280.0
 30
0.0
 11
6.100000143051147
 21
280.0
 31
0.0
  0
LINE
  5
173
330
12C
100
AcDbEntity
  8
Rámeček (ISO)
100
AcDbLine
 10
584.0000152587889
 20
280.0
 30
0.0
 11
587.9000091552732
 21
280.0
 31
0.0
  0
LINE
  5
174
330
12C
100
AcDbEntity
  8
Rámeček (ISO)
100
AcDbLine
 10
10.0
 20
350.0
 30
0.0
 11
6.100000143051147
 21
350.0
 31
0.0
  0
LINE
  5
175
330
12C
100
AcDbEntity
  8
Rámeček (ISO)
100
AcDbLine
 10
584.0000152587889
 20
350.0
 30
0.0
 11
587.9000091552732
 21
350.0
 31
0.0
  0
MTEXT
  5
176
330
12C
100
AcDbEntity
  8
Rámeček (ISO)
100
AcDbMText
 10
6.361230343933396
 20
33.25000002980232
 30
0.0
 40
3.499999940395355
 41
0.0
 71
     7
 72
     1
  1
A
  7
Text poznámky (ISO)
 73
     1
 44
1.0
  0
MTEXT
  5
177
330
12C
100
AcDbEntity
  8
Rámeček (ISO)
100
AcDbMText
 10
584.6612302843287
 20
33.25000002980232
 30
0.0
 40
3.499999940395355
 41
0.0
 71
     7
 72
     1
  1
A
  7
Text poznámky (ISO)
 73
     1
 44
1.0
  0
MTEXT
  5
178
330
12C
100
AcDbEntity
  8
Rámeček (ISO)
100
AcDbMText
 10
6.781848468328937
 20
103.2500000298023
 30
0.0
 40
3.499999940395355
 41
0.0
 71
     7
 72
     1
  1
B
  7
Text poznámky (ISO)
 73
     1
 44
1.0
  0
MTEXT
  5
179
330
12C
100
AcDbEntity
  8
Rámeček (ISO)
100
AcDbMText
 10
585.0818484087242
 20
103.2500000298023
 30
0.0
 40
3.499999940395355
 41
0.0
 71
     7
 72
     1
  1
B
  7
Text poznámky (ISO)
 73
     1
 44
1.0
  0
MTEXT
  5
17A
330
12C
100
AcDbEntity
  8
Rámeček (ISO)
100
AcDbMText
 10
6.558903094188358
 20
173.1876013241708
 30
0.0
 40
3.499999940395355
 41
0.0
 71
     7
 72
     1
  1
C
  7
Text poznámky (ISO)
 73
     1
 44
1.0
  0
MTEXT
  5
17B
330
12C
100
AcDbEntity
  8
Rámeček (ISO)
100
AcDbMText
 10
584.8589030345837
 20
173.1876013241708
 30
0.0
 40
3.499999940395355
 41
0.0
 71
     7
 72
     1
  1
C
  7
Text poznámky (ISO)
 73
     1
 44
1.0
  0
MTEXT
  5
17C
330
12C
100
AcDbEntity
  8
Rámeček (ISO)
100
AcDbMText
 10
6.56770745709084
 20
243.2500000298023
 30
0.0
 40
3.499999940395355
 41
0.0
 71
     7
 72
     1
  1
D
  7
Text poznámky (ISO)
 73
     1
 44
1.0
  0
MTEXT
  5
17D
330
12C
100
AcDbEntity
  8
Rámeček (ISO)
100
AcDbMText
 10
584.8677073974861
 20
243.2500000298023
 30
0.0
 40
3.499999940395355
 41
0.0
 71
     7
 72
     1
  1
D
  7
Text poznámky (ISO)
 73
     1
 44
1.0
  0
MTEXT
  5
17E
330
12C
100
AcDbEntity
  8
Rámeček (ISO)
100
AcDbMText
 10
6.849919803883061
 20
313.2500000298023
 30
0.0
 40
3.499999940395355
 41
0.0
 71
     7
 72
     1
  1
E
  7
Text poznámky (ISO)
 73
     1
 44
1.0
  0
MTEXT
  5
17F
330
12C
100
AcDbEntity
  8
Rámeček (ISO)
100
AcDbMText
 10
585.1499197442782
 20
313.2500000298023
 30
0.0
 40
3.499999940395355
 41
0.0
 71
     7
 72
     1
  1
E
  7
Text poznámky (ISO)
 73
     1
 44
1.0
  0
MTEXT
  5
180
330
12C
100
AcDbEntity
  8
Rámeček (ISO)
100
AcDbMText
 10
6.944936015154347
 20
383.2500000298023
 30
0.0
 40
3.499999940395355
 41
0.0
 71
     7
 72
     1
  1
F
  7
Text poznámky (ISO)
 73
     1
 44
1.0
  0
MTEXT
  5
181
330
12C
100
AcDbEntity
  8
Rámeček (ISO)
100
AcDbMText
 10
585.2449359555496
 20
383.2500000298023
 30
0.0
 40
3.499999940395355
 41
0.0
 71
     7
 72
     1
  1
F
  7
Text poznámky (ISO)
 73
     1
 44
1.0
  0
ENDBLK
  5
12E
330
12C
100
AcDbEntity
  8
0
100
AcDbBlockEnd
  0
BLOCK
  5
184
330
183
100
AcDbEntity
  8
0
100
AcDbBlockBegin
  2
Rohová razítka ACO-razitko
 70
     2
 10
0.0
 20
0.0
 30
0.0
  3
Rohová razítka ACO-razitko
  1

  0
LINE
  5
186
330
183
100
AcDbEntity
  8
KOPF
  6
Continuous
370
    25
100
AcDbLine
 10
264.0
 20
94.01203200000001
 30
0.0
 11
264.0
 21
74.00000000000003
 31
0.0
  0
LINE
  5
187
330
183
100
AcDbEntity
  8
KOPF
  6
Continuous
370
    25
100
AcDbLine
 10
264.0
 20
94.01203200000001
 30
0.0
 11
264.0
 21
74.00000000000003
 31
0.0
  0
CIRCLE
  5
188
330
183
100
AcDbEntity
  8
TEXT50
  6
Continuous
370
    25
100
AcDbCircle
 10
247.5054493575618
 20
83.04852954632861
 30
0.0
 40
1.979948192651899
  0
LINE
  5
189
330
183
100
AcDbEntity
  8
TEXT50
  6
Continuous
370
    25
100
AcDbLine
 10
262.4910595621649
 20
85.02847773898061
 30
0.0
 11
262.4910595621649
 21
81.06858135367653
 31
0.0
  0
LINE
  5
18A
330
183
100
AcDbEntity
  8
TEXT50
  6
Continuous
370
    25
100
AcDbLine
 10
253.9413433929653
 20
87.07146289795376
 30
0.0
 11
253.9413433929653
 21
79.02559619470344
 31
0.0
  0
LINE
  5
18B
330
183
100
AcDbEntity
  8
TEXT50
  6
Continuous
370
    25
100
AcDbLine
 10
262.4910595621649
 20
85.02847773898061
 30
0.0
 11
253.9413433929653
 21
87.07146289795376
 31
0.0
  0
CIRCLE
  5
18C
330
183
100
AcDbEntity
  8
TEXT50
  6
Continuous
370
    25
100
AcDbCircle
 10
247.5054493575618
 20
83.04852954632861
 30
0.0
 40
4.022933351625178
  0
LINE
  5
18D
330
183
100
AcDbEntity
  8
TEXT50
  6
Continuous
370
    25
100
AcDbLine
 10
253.9413433929653
 20
79.02559619470344
 30
0.0
 11
262.4910595621649
 21
81.06858135367653
 31
0.0
  0
CIRCLE
  5
18E
330
183
100
AcDbEntity
  8
TEXT35
  6
Continuous
370
    25
100
AcDbCircle
 10
221.0936673107637
 20
101.9131972309053
 30
0.0
 40
2.281499999999998
  0
CIRCLE
  5
18F
330
183
100
AcDbEntity
  8
TEXT35
  6
Continuous
370
    25
100
AcDbCircle
 10
221.0936673107637
 20
101.9131972309053
 30
0.0
 40
1.579499999999999
  0
ARC
  5
190
330
183
100
AcDbEntity
  8
TEXT35
  6
Continuous
370
    25
100
AcDbCircle
 10
214.6291610736662
 20
101.9131972309054
 30
0.0
 40
1.579500000000071
100
AcDbArc
 50
31.05580049908738
 51
329.9999999999987
  0
LINE
  5
191
330
183
100
AcDbEntity
  8
TEXT35
  6
Continuous
370
    25
100
AcDbLine
 10
215.9822639109751
 20
102.7280180465864
 30
0.0
 11
216.5902852082589
 21
103.0790593062462
 31
0.0
  0
ARC
  5
192
330
183
100
AcDbEntity
  8
TEXT35
  6
Continuous
370
    25
100
AcDbCircle
 10
214.6291610736662
 20
101.9131972309052
 30
0.0
 40
2.281500000000015
100
AcDbArc
 50
30.73091726592628
 51
330.0000000000017
  0
LINE
  5
193
330
183
100
AcDbEntity
  8
TEXT35
  6
Continuous
370
    25
100
AcDbLine
 10
216.6049980324005
 20
100.7724472309053
 30
0.0
 11
215.9970481989438
 21
101.1234472309053
 31
0.0
  0
LINE
  5
194
330
183
100
AcDbEntity
  8
TEXT35
  6
Continuous
370
    25
100
AcDbLine
 10
211.8347763192409
 20
111.6789659312995
 30
0.0
 11
211.8347763192409
 21
98.44416361029551
 31
0.0
  0
LINE
  5
195
330
183
100
AcDbEntity
  8
TEXT35
  6
Continuous
370
    25
100
AcDbLine
 10
211.8347763192409
 20
98.44416361029551
 30
0.0
 11
217.4235458280916
 21
98.44416361029551
 31
0.0
  0
LINE
  5
196
330
183
100
AcDbEntity
  8
TEXT35
  6
Continuous
370
    25
100
AcDbLine
 10
217.4235458280916
 20
98.44416361029551
 30
0.0
 11
217.4235458280916
 21
111.6789659312995
 31
0.0
  0
LINE
  5
197
330
183
100
AcDbEntity
  8
TEXT35
  6
Continuous
370
    25
100
AcDbLine
 10
217.4235458280916
 20
111.6789659312995
 30
0.0
 11
211.8347763192409
 21
111.6789659312995
 31
0.0
  0
LINE
  5
198
330
183
100
AcDbEntity
  8
TEXT35
  6
Continuous
370
    25
100
AcDbLine
 10
223.888052065189
 20
111.6789659312995
 30
0.0
 11
223.888052065189
 21
98.44416361029551
 31
0.0
  0
LINE
  5
199
330
183
100
AcDbEntity
  8
TEXT35
  6
Continuous
370
    25
100
AcDbLine
 10
223.888052065189
 20
98.44416361029551
 30
0.0
 11
218.2992825563384
 21
98.44416361029551
 31
0.0
  0
LINE
  5
19A
330
183
100
AcDbEntity
  8
TEXT35
  6
Continuous
370
    25
100
AcDbLine
 10
218.2992825563384
 20
98.44416361029551
 30
0.0
 11
218.2992825563384
 21
111.6789659312995
 31
0.0
  0
LINE
  5
19B
330
183
100
AcDbEntity
  8
TEXT35
  6
Continuous
370
    25
100
AcDbLine
 10
218.2992825563384
 20
111.6789659312995
 30
0.0
 11
223.888052065189
 21
111.6789659312995
 31
0.0
  0
ARC
  5
19C
330
183
100
AcDbEntity
  8
TEXT35
  6
Continuous
370
    25
100
AcDbCircle
 10
211.499154836569
 20
99.57623034270234
 30
0.0
 40
4.914000000000251
100
AcDbArc
 50
172.305837035409
 51
179.7113029220757
  0
LINE
  5
19D
330
183
100
AcDbEntity
  8
TEXT35
  6
Continuous
370
    25
100
AcDbLine
 10
206.6293963427935
 20
100.2341423522474
 30
0.0
 11
209.6999133303443
 21
100.2341423522474
 31
0.0
  0
ARC
  5
19E
330
183
100
AcDbEntity
  8
TEXT35
  6
Continuous
370
    25
100
AcDbCircle
 10
204.8301548365688
 20
99.57623034270323
 30
0.0
 40
4.914000000000132
100
AcDbArc
 50
0.2886970779141535
 51
7.694162964580896
  0
LINE
  5
19F
330
183
100
AcDbEntity
  8
TEXT35
  6
Continuous
370
    25
100
AcDbLine
 10
209.7440924568018
 20
99.60099048123302
 30
0.0
 11
210.4461002543538
 21
99.60099048123302
 31
0.0
  0
ARC
  5
1A0
330
183
100
AcDbEntity
  8
TEXT35
  6
Continuous
370
    25
100
AcDbCircle
 10
204.8301548365688
 20
99.5762303427033
 30
0.0
 40
5.616000000000016
100
AcDbArc
 50
0.2526096926473688
 51
53.57642635766914
  0
ARC
  5
1A1
330
183
100
AcDbEntity
  8
TEXT35
  6
Continuous
370
    25
100
AcDbCircle
 10
211.4991548365688
 20
99.57623034270323
 30
0.0
 40
5.616000000000023
100
AcDbArc
 50
126.4235736423304
 51
179.7473903073512
  0
LINE
  5
1A2
330
183
100
AcDbEntity
  8
TEXT35
  6
Continuous
370
    25
100
AcDbLine
 10
205.8832094187838
 20
99.60099048123302
 30
0.0
 11
206.5852172163358
 21
99.60099048123302
 31
0.0
  0
LINE
  5
1A3
330
183
100
AcDbEntity
  8
TEXT35
  6
Continuous
370
    25
100
AcDbLine
 10
205.3702700821435
 20
111.6789659312995
 30
0.0
 11
205.3702700821435
 21
98.44416361029551
 31
0.0
  0
LINE
  5
1A4
330
183
100
AcDbEntity
  8
TEXT35
  6
Continuous
370
    25
100
AcDbLine
 10
205.3702700821435
 20
98.44416361029551
 30
0.0
 11
210.9590395909941
 21
98.44416361029551
 31
0.0
  0
LINE
  5
1A5
330
183
100
AcDbEntity
  8
TEXT35
  6
Continuous
370
    25
100
AcDbLine
 10
210.9590395909941
 20
98.44416361029551
 30
0.0
 11
210.9590395909941
 21
111.6789659312995
 31
0.0
  0
LINE
  5
1A6
330
183
100
AcDbEntity
  8
TEXT35
  6
Continuous
370
    25
100
AcDbLine
 10
210.9590395909941
 20
111.6789659312995
 30
0.0
 11
205.3702700821435
 21
111.6789659312995
 31
0.0
  0
ARC
  5
1A7
330
183
100
AcDbEntity
  8
TEXT35
  6
Continuous
370
    25
100
AcDbCircle
 10
204.830154836569
 20
99.57623034270341
 30
0.0
 40
4.913999999999818
100
AcDbArc
 50
16.0658750272321
 51
47.26788995739759
  0
LINE
  5
1A8
330
183
100
AcDbEntity
  8
TEXT35
  6
Continuous
370
    25
100
AcDbLine
 10
209.5522343918387
 20
100.9361423522474
 30
0.0
 11
206.7770752812989
 21
100.9361423522474
 31
0.0
  0
ARC
  5
1A9
330
183
100
AcDbEntity
  8
TEXT35
  6
Continuous
370
    25
100
AcDbCircle
 10
211.4991548365683
 20
99.57623034270341
 30
0.0
 40
4.913999999999566
100
AcDbArc
 50
132.7321100425983
 51
163.9341249727667
  0
LINE
  5
1AA
330
183
100
AcDbEntity
  8
Nadpis (ISO)
100
AcDbLine
 10
299.0
 20
114.0
 30
0.0
 11
299.0
 21
45.0
 31
0.0
  0
LINE
  5
1AB
330
183
100
AcDbEntity
  8
Nadpis (ISO)
100
AcDbLine
 10
299.0
 20
45.0
 30
0.0
 11
117.0
 21
44.99999999999999
 31
0.0
  0
LINE
  5
1AC
330
183
100
AcDbEntity
  8
Nadpis (ISO)
100
AcDbLine
 10
117.0
 20
44.99999999999999
 30
0.0
 11
117.0
 21
114.0
 31
0.0
  0
LINE
  5
1AD
330
183
100
AcDbEntity
  8
Nadpis (ISO)
100
AcDbLine
 10
117.0
 20
114.0
 30
0.0
 11
299.0
 21
114.0
 31
0.0
  0
LINE
  5
1AE
330
183
100
AcDbEntity
  8
Nadpis (ISO)
100
AcDbLine
 10
199.0
 20
114.0
 30
0.0
 11
199.0
 21
93.99999999999998
 31
0.0
  0
LINE
  5
1AF
330
183
100
AcDbEntity
  8
KOPF
100
AcDbLine
 10
199.0
 20
104.0
 30
0.0
 11
117.0
 21
104.0
 31
0.0
  0
LINE
  5
1B0
330
183
100
AcDbEntity
  8
Nadpis (ISO)
100
AcDbLine
 10
199.0
 20
93.99999999999998
 30
0.0
 11
117.0
 21
93.99999999999996
 31
0.0
  0
LINE
  5
1B1
330
183
100
AcDbEntity
  8
KOPF
100
AcDbLine
 10
158.0
 20
93.99999999999998
 30
0.0
 11
158.0
 21
114.0
 31
0.0
  0
LINE
  5
1B2
330
183
100
AcDbEntity
  8
Nadpis (ISO)
100
AcDbLine
 10
199.0
 20
93.99999999999998
 30
0.0
 11
299.0
 21
93.99999999999998
 31
0.0
  0
LINE
  5
1B3
330
183
100
AcDbEntity
  8
Nadpis (ISO)
100
AcDbLine
 10
216.0
 20
94.00000000000003
 30
0.0
 11
216.0
 21
44.99999999999999
 31
0.0
  0
LINE
  5
1B4
330
183
100
AcDbEntity
  8
Nadpis (ISO)
100
AcDbLine
 10
299.0
 20
74.00000000000004
 30
0.0
 11
117.0
 21
73.99999999999998
 31
0.0
  0
LINE
  5
1B5
330
183
100
AcDbEntity
  8
Nadpis (ISO)
100
AcDbLine
 10
186.0
 20
94.0
 30
0.0
 11
186.0
 21
74.00000000000002
 31
0.0
  0
LINE
  5
1B6
330
183
100
AcDbEntity
  8
KOPF
100
AcDbLine
 10
137.0
 20
93.99999999999998
 30
0.0
 11
137.0
 21
74.0
 31
0.0
  0
LINE
  5
1B7
330
183
100
AcDbEntity
  8
KOPF
100
AcDbLine
 10
162.0
 20
93.99999999999998
 30
0.0
 11
162.0
 21
74.0
 31
0.0
  0
LINE
  5
1B8
330
183
100
AcDbEntity
  8
KOPF
100
AcDbLine
 10
186.0
 20
84.0
 30
0.0
 11
117.0
 21
83.99999999999996
 31
0.0
  0
LINE
  5
1B9
330
183
100
AcDbEntity
  8
KOPF
100
AcDbLine
 10
186.0
 20
79.0
 30
0.0
 11
117.0
 21
78.99999999999997
 31
0.0
  0
LINE
  5
1BA
330
183
100
AcDbEntity
  8
KOPF
100
AcDbLine
 10
186.0
 20
89.0
 30
0.0
 11
117.0
 21
88.99999999999996
 31
0.0
  0
LINE
  5
1BB
330
183
100
AcDbEntity
  8
KOPF
100
AcDbLine
 10
216.0
 20
50.0
 30
0.0
 11
299.0
 21
50.0
 31
0.0
  0
LINE
  5
1BC
330
183
100
AcDbEntity
  8
Nadpis (ISO)
100
AcDbLine
 10
216.0
 20
55.0
 30
0.0
 11
299.0
 21
55.0
 31
0.0
  0
LINE
  5
1BD
330
183
100
AcDbEntity
  8
KOPF
100
AcDbLine
 10
238.0000000000001
 20
93.99999999999998
 30
0.0
 11
238.0000000000001
 21
74.00000000000003
 31
0.0
  0
LINE
  5
1BE
330
183
100
AcDbEntity
  8
KOPF
100
AcDbLine
 10
238.0000000000001
 20
84.00000000000003
 30
0.0
 11
216.0
 21
84.00000000000003
 31
0.0
  0
LINE
  5
1BF
330
183
100
AcDbEntity
  8
Nadpis (ISO)
100
AcDbLine
 10
287.0
 20
74.00000000000004
 30
0.0
 11
287.0
 21
55.0
 31
0.0
  0
LINE
  5
1C0
330
183
100
AcDbEntity
  8
KOPF
100
AcDbLine
 10
289.0
 20
50.0
 30
0.0
 11
289.0
 21
45.0
 31
0.0
  0
LINE
  5
1C1
330
183
100
AcDbEntity
  8
Nadpis (ISO)
100
AcDbLine
 10
260.9160465310349
 20
50.0
 30
0.0
 11
260.9160465310349
 21
45.0
 31
0.0
  0
TEXT
  5
1C3
330
183
100
AcDbEntity
  8
Viditelná tenká (ISO)
100
AcDbText
 10
266.0
 20
84.97994933403729
 30
0.0
 40
1.539999991655349
  1
zum Zweck anderweitiger Benutzung
 41
0.7999999523162842
  7
Styl textu62
100
AcDbText
  0
TEXT
  5
1C5
330
183
100
AcDbEntity
  8
Viditelná tenká (ISO)
100
AcDbText
 10
266.0
 20
82.63814072439631
 30
0.0
 40
1.539999991655349
  1
mitgeteilt werden und bleibt unser
 41
0.7999999523162842
  7
Styl textu62
100
AcDbText
  0
TEXT
  5
1C6
330
183
100
AcDbEntity
  8
Viditelná tenká (ISO)
100
AcDbText
 10
266.0
 20
87.26106040199921
 30
0.0
 40
1.539999991655349
  1
noch dritten Personen, insbesondere
 41
0.7999999523162842
  7
Styl textu62
100
AcDbText
  0
TEXT
  5
1C7
330
183
100
AcDbEntity
  8
Viditelná tenká (ISO)
100
AcDbText
 10
266.0
 20
89.6282322587214
 30
0.0
 40
1.539999991655349
  1
Diese Zeichnung darf weder kopiert
 41
0.7999999523162842
  7
Styl textu62
100
AcDbText
  0
TEXT
  5
1C8
330
183
100
AcDbEntity
  8
Viditelná tenká (ISO)
100
AcDbText
 10
266.0
 20
80.37532604459597
 30
0.0
 40
1.539999991655349
  1
Eigentum.
 41
0.7999999523162842
  7
Styl textu62
100
AcDbText
  0
TEXT
  5
1CA
330
183
100
AcDbEntity
  8
Viditelná tenká (ISO)
100
AcDbText
 10
241.877559521167
 20
90.82431699999998
 30
0.0
 40
2.000000029802321
  1
Projektion: ISO-E
 41
0.7999999523162842
  7
Styl textu58
100
AcDbText
  0
TEXT
  5
1CC
330
183
100
AcDbEntity
  8
Viditelná tenká (ISO)
100
AcDbText
 10
266.0
 20
77.30982488917627
 30
0.0
 40
1.539999991655349
  1
Schutzvermerk nach DIN 34 beachten
 41
0.75
  7
Styl textu63
100
AcDbText
  0
TEXT
  5
1CD
330
183
100
AcDbEntity
  8
Viditelná tenká (ISO)
100
AcDbText
 10
236.2487793316645
 20
99.38243367792949
 30
0.0
 40
2.000000029802321
  1
582 22 Přibyslav
 41
0.7999999523162842
  7
Styl textu58
100
AcDbText
  0
TEXT
  5
1CF
330
183
100
AcDbEntity
  8
Viditelná tenká (ISO)
100
AcDbText
 10
261.6984261202779
 20
99.57784645000472
 30
0.0
 40
2.099999934434889
  1
Fax: 0451 / 482529
 41
0.7000000476837159
  7
Styl textu72
100
AcDbText
  0
TEXT
  5
1D0
330
183
100
AcDbEntity
  8
Viditelná tenká (ISO)
100
AcDbText
 10
236.5351154208068
 20
103.0087314099309
 30
0.0
 40
2.000000029802321
  1
Havličkova 260
 41
0.7999999523162842
  7
Styl textu58
100
AcDbText
  0
TEXT
  5
1D2
330
183
100
AcDbEntity
  8
TEXT35
100
AcDbText
 10
235.9801354774567
 20
108.2018007493417
 30
0.0
 40
3.000000119209288
  1
ACO Stavebni prvky k.s
 41
0.7999999523162842
  7
Styl textu75
100
AcDbText
  0
TEXT
  5
1D3
330
183
100
AcDbEntity
  8
Viditelná tenká (ISO)
100
AcDbText
 10
261.6456899832647
 20
102.9064533471121
 30
0.0
 40
2.099999934434889
  1
Tel.: 0451 / 491660
 41
0.7000000476837159
  7
Styl textu72
100
AcDbText
  0
MTEXT
  5
1D4
330
183
100
AcDbEntity
  8
Viditelná tenká (ISO)
100
AcDbMText
 10
217.3570092483237
 20
73.27889989032858
 30
0.0
 40
2.000000029802321
 41
0.0
 71
     1
 72
     1
  1
\fArial|b0|i0;\H2.0000;Zeichnung Nr.
  7
Text poznámky (ISO)
 73
     1
 44
1.0
  0
MTEXT
  5
1D5
330
183
100
AcDbEntity
  8
Viditelná tenká (ISO)
100
AcDbMText
 10
287.9433731401013
 20
72.84063462326732
 30
0.0
 40
2.000000029802321
 41
0.0
 71
     1
 72
     1
  1
\fArial|b0|i0;\H2.0000;Index
  7
Text poznámky (ISO)
 73
     1
 44
1.0
  0
MTEXT
  5
1D6
330
183
100
AcDbEntity
  8
Viditelná tenká (ISO)
100
AcDbMText
 10
217.1230582952341
 20
52.63510416823109
 30
0.0
 40
2.000000029802321
 41
0.0
 71
     1
 72
     1
  1
\fArial|b0|i0;\H2.0000;Ersatz fur\PErsatz durch
  7
Text poznámky (ISO)
 73
     2
 44
0.9442214369773862
  0
MTEXT
  5
1D7
330
183
100
AcDbEntity
  8
Viditelná tenká (ISO)
100
AcDbMText
 10
188.9161081342839
 20
93.0
 30
0.0
 40
2.000000029802321
 41
0.0
 71
     1
 72
     1
  1
\fArial|b0|i0;\H2.0000;Massstab
  7
Text poznámky (ISO)
 73
     1
 44
1.0
  0
MTEXT
  5
1D8
330
183
100
AcDbEntity
  8
Viditelná tenká (ISO)
100
AcDbMText
 10
217.0
 20
93.0
 30
0.0
 40
2.000000029802321
 41
0.0
 71
     1
 72
     1
  1
\fArial|b0|i0;\H2.0000;Masseinheit
  7
Text poznámky (ISO)
 73
     1
 44
1.0
  0
MTEXT
  5
1D9
330
183
100
AcDbEntity
  8
Viditelná tenká (ISO)
100
AcDbMText
 10
118.0
 20
113.0
 30
0.0
 40
2.000000029802321
 41
0.0
 71
     1
 72
     1
  1
\fArial|b0|i0;\H2.0000;Werkstoff.
  7
Text poznámky (ISO)
 73
     1
 44
1.0
  0
MTEXT
  5
1DA
330
183
100
AcDbEntity
  8
Viditelná tenká (ISO)
100
AcDbMText
 10
159.0
 20
113.0
 30
0.0
 40
2.000000029802321
 41
0.0
 71
     1
 72
     1
  1
\fArial|b0|i0;\H2.0000;Hmotnost
  7
Text poznámky (ISO)
 73
     1
 44
1.0
  0
MTEXT
  5
1DB
330
183
100
AcDbEntity
  8
Viditelná tenká (ISO)
100
AcDbMText
 10
118.0
 20
103.0
 30
0.0
 40
2.000000029802321
 41
0.0
 71
     1
 72
     1
  1
\fArial|b0|i0;\H2.0000;zul.Abweich.
  7
Text poznámky (ISO)
 73
     1
 44
1.0
  0
MTEXT
  5
1DC
330
183
100
AcDbEntity
  8
Viditelná tenká (ISO)
100
AcDbMText
 10
159.0
 20
103.0
 30
0.0
 40
2.000000029802321
 41
0.0
 71
     1
 72
     1
  1
\fArial|b0|i0;\H2.0000;Oberflache
  7
Text poznámky (ISO)
 73
     1
 44
1.0
  0
MTEXT
  5
1DD
330
183
100
AcDbEntity
  8
Viditelná tenká (ISO)
100
AcDbMText
 10
118.2064366962235
 20
87.52498463872976
 30
0.0
 40
2.000000029802321
 41
0.0
 71
     1
 72
     1
  1
\fArial|b0|i0;\H2.0000;Gezeichnet
  7
Text poznámky (ISO)
 73
     1
 44
1.0
  0
MTEXT
  5
1DE
330
183
100
AcDbEntity
  8
Viditelná tenká (ISO)
100
AcDbMText
 10
118.2064366962235
 20
82.79398756785594
 30
0.0
 40
2.000000029802321
 41
0.0
 71
     1
 72
     1
  1
\fArial|b0|i0;\H2.0000;Gepruft
  7
Text poznámky (ISO)
 73
     1
 44
1.0
  0
MTEXT
  5
1DF
330
183
100
AcDbEntity
  8
Viditelná tenká (ISO)
100
AcDbMText
 10
118.2064366962235
 20
77.59713566222233
 30
0.0
 40
2.000000029802321
 41
0.0
 71
     1
 72
     1
  1
\fArial|b0|i0;\H2.0000;Update
  7
Text poznámky (ISO)
 73
     1
 44
1.0
  0
MTEXT
  5
1E0
330
183
100
AcDbEntity
  8
Viditelná tenká (ISO)
100
AcDbMText
 10
143.0
 20
93.0
 30
0.0
 40
2.000000029802321
 41
0.0
 71
     1
 72
     1
  1
\fArial|b0|i0;\H2.0000;Datum
  7
Text poznámky (ISO)
 73
     1
 44
1.0
  0
MTEXT
  5
1E1
330
183
100
AcDbEntity
  8
Viditelná tenká (ISO)
100
AcDbMText
 10
170.0
 20
93.0
 30
0.0
 40
2.000000029802321
 41
0.0
 71
     1
 72
     1
  1
\fArial|b0|i0;\H2.0000;Name
  7
Text poznámky (ISO)
 73
     1
 44
1.0
  0
MTEXT
  5
1E2
102
{ACAD_XDICTIONARY
360
2D94
102
}
330
183
100
AcDbEntity
  8
Nadpis (ISO)
100
AcDbMText
 10
118.0
 20
71.0
 30
0.0
 40
3.499999940395355
 41
0.0
 71
     1
 72
     1
  1
Effidrain sestava dvoud\U+00EDln\U+00E1  157 vodorovn\U+00E1
  7
Text poznámky (ISO)
 73
     1
 44
1.0
  0
MTEXT
  5
1E3
330
183
100
AcDbEntity
  8
Nadpis (ISO)
100
AcDbMText
 10
138.6542642016321
 20
87.78242706242744
 30
0.0
 40
2.000000029802321
 41
0.0
 71
     1
 72
     1
  1
\fTahoma|b0|i0;\H2.0000;11.8.2009
  7
Text poznámky (ISO)
 73
     1
 44
1.0
  0
MTEXT
  5
1E4
330
183
100
AcDbEntity
  8
Nadpis (ISO)
100
AcDbMText
 10
118.9147684950603
 20
98.79632878646518
 30
0.0
 40
3.499999940395355
 41
0.0
 71
     1
 72
     1
  1
ISO 2768-m
  7
Text poznámky (ISO)
 73
     1
 44
1.0
  0
MTEXT
  5
1E5
330
183
100
AcDbEntity
  8
Nadpis (ISO)
100
AcDbMText
 10
162.5831033854
 20
99.20167780246003
 30
0.0
 40
3.499999940395355
 41
0.0
 71
     1
 72
     1
  1
DIN ISO 1302
  7
Text poznámky (ISO)
 73
     1
 44
1.0
  0
MTEXT
  5
1E6
330
183
100
AcDbEntity
  8
Nadpis (ISO)
100
AcDbMText
 10
262.4743825961981
 20
49.17778241269704
 30
0.0
 40
3.499999940395355
 41
0.0
 71
     1
 72
     1
  1
\fArial|b0|i0;\H3.5000;List:\fArial|b0|i0;\H3.5000;1 \fArial|b0|i0;\H3.5000;/\fArial|b0|i0;\H3.5000;1 
  7
Text poznámky (ISO)
 73
     1
 44
1.0
  0
MTEXT
  5
1E7
102
{ACAD_XDICTIONARY
360
2D96
102
}
330
183
100
AcDbEntity
  8
Nadpis (ISO)
100
AcDbMText
 10
159.4396788094336
 20
109.2360383310952
 30
0.0
 40
3.499999940395355
 41
29.10098367733216
 71
     1
 72
     1
  1
Nen\U+00ED k dispozici
  7
Text poznámky (ISO)
 73
     2
 44
0.9878841638565063
  0
ATTDEF
  5
1E9
102
{ACAD_XDICTIONARY
360
271E
102
}
330
183
100
AcDbEntity
  8
Nadpis (ISO)
100
AcDbText
 10
287.4393862219839
 20
62.4856753668063
 30
0.0
 40
3.499999940395355
  1
001
  7
Styl textu9
100
AcDbAttributeDefinition
  3
ČÍSLO REVIZE
  2
ČÍSLO_REVIZE_001
 70
     0
  0
ATTDEF
  5
1ED
102
{ACAD_XDICTIONARY
360
2721
102
}
330
183
100
AcDbEntity
  8
Nadpis (ISO)
100
AcDbText
 10
289.7753402652471
 20
46.32882590415591
 30
0.0
 40
2.000000029802321
  1
A2
  7
Styl textu40
100
AcDbAttributeDefinition
  3
Sheet Size
  2
Sheet_Size_001
 70
     0
  0
ATTDEF
  5
1EE
102
{ACAD_XDICTIONARY
360
2724
102
}
330
183
100
AcDbEntity
  8
Nadpis (ISO)
100
AcDbText
 10
230.1305737493188
 20
51.10091360311345
 30
0.0
 40
2.000000029802321
  1
C:\Inventor_DATA\Projekty\Guly\Effidrain\Effidrain sestava dvoudílná  157 vodorovná\408072.iam
  7
Styl textu40
100
AcDbAttributeDefinition
  3
FILENAME AND PATH
  2
FILENAME_AND_PATH_001
 70
     0
  0
ATTDEF
  5
1EF
102
{ACAD_XDICTIONARY
360
2727
102
}
330
183
100
AcDbEntity
  8
Nadpis (ISO)
100
AcDbText
 10
217.9059771674843
 20
62.42008065196634
 30
0.0
 40
3.499999940395355
  1
408072
  7
Text poznámky (ISO)
100
AcDbAttributeDefinition
  3
PART NUMBER
  2
PART_NUMBER_001
 70
     0
  0
ATTDEF
  5
1F0
102
{ACAD_XDICTIONARY
360
272A
102
}
330
183
100
AcDbEntity
  8
Nadpis (ISO)
100
AcDbText
 10
118.0
 20
56.50000005960464
 30
0.0
 40
3.499999940395355
  1

  7
Text poznámky (ISO)
 11
118.0
 21
60.0
 31
0.0
100
AcDbAttributeDefinition
  3
PROJECT
  2
PROJECT
 70
     0
 74
     3
  0
ATTDEF
  5
1F2
102
{ACAD_XDICTIONARY
360
272D
102
}
330
183
100
AcDbEntity
  8
Nadpis (ISO)
100
AcDbText
 10
117.8119543349687
 20
47.73407435882505
 30
0.0
 40
6.99999988079071
  1
408072
  7
Styl textu94
100
AcDbAttributeDefinition
  3
SKLADOVÉ ČÍSLO
  2
SKLADOVÉ_ČÍSLO_001
 70
     0
  0
ATTDEF
  5
1F3
102
{ACAD_XDICTIONARY
360
2730
102
}
330
183
100
AcDbEntity
  8
Nadpis (ISO)
100
AcDbText
 10
117.5939056808251
 20
105.1756658592857
 30
0.0
 40
3.499999940395355
  1

  7
Text poznámky (ISO)
 11
117.5939056808251
 21
108.6756657996811
 31
0.0
100
AcDbAttributeDefinition
  3
MATERIAL
  2
MATERIAL
 70
     0
 74
     3
  0
ATTDEF
  5
1F4
102
{ACAD_XDICTIONARY
360
2733
102
}
330
183
100
AcDbEntity
  8
Nadpis (ISO)
100
AcDbText
 10
165.0470513532835
 20
85.78242703262512
 30
0.0
 40
2.000000029802321
  1
pmacoun
  7
Styl textu40
100
AcDbAttributeDefinition
  3
AUTHOR
  2
AUTHOR_001
 70
     0
  0
ATTDEF
  5
1F5
102
{ACAD_XDICTIONARY
360
2736
102
}
330
183
100
AcDbEntity
  8
Nadpis (ISO)
100
AcDbText
 10
189.1855699863978
 20
82.50038826992808
 30
0.0
 40
3.499999940395355
  1

  7
Text poznámky (ISO)
 11
189.1855699863978
 21
86.00038821032343
 31
0.0
100
AcDbAttributeDefinition
  3
VS_First
  2
VS_First
 70
     0
 74
     3
  0
ENDBLK
  5
185
330
183
100
AcDbEntity
  8
0
100
AcDbBlockEnd
  0
BLOCK
  5
2100
330
20FF
100
AcDbEntity
  8
0
100
AcDbBlockBegin
  2
KUSOVNÍK
 70
     0
 10
0.0
 20
0.0
 30
0.0
  3
KUSOVNÍK
  1

  0
LINE
  5
2102
330
20FF
100
AcDbEntity
  8
Značka (ISO)
100
AcDbLine
 10
584.0
 20
142.4870119690895
 30
0.0
 11
345.7677052420901
 21
142.4870119690895
 31
0.0
  0
LINE
  5
2103
330
20FF
100
AcDbEntity
  8
Značka (ISO)
100
AcDbLine
 10
584.0
 20
142.4870119690895
 30
0.0
 11
584.0
 21
136.1383107721806
 31
0.0
  0
LINE
  5
2104
330
20FF
100
AcDbEntity
  8
Značka (ISO)
100
AcDbLine
 10
345.7677052420901
 20
142.4870119690895
 30
0.0
 11
345.7677052420901
 21
136.1383107721806
 31
0.0
  0
MTEXT
  5
2105
102
{ACAD_XDICTIONARY
360
2D98
102
}
330
20FF
100
AcDbEntity
  8
Značka (ISO)
100
AcDbMText
 10
454.3404742095145
 20
136.8629860192537
 30
0.0
 40
3.499999940395355
 41
0.0
 71
     7
 72
     1
  1
KUSOVN\U+00CDK
  7
Text poznámky (DIN)
 73
     1
 44
1.0
  0
LINE
  5
2107
330
20FF
100
AcDbEntity
  8
Značka (ISO)
100
AcDbLine
 10
584.0
 20
136.1383107721806
 30
0.0
 11
345.7677052420901
 21
136.1383107721806
 31
0.0
  0
LINE
  5
2108
330
20FF
100
AcDbEntity
  8
Značka (ISO)
100
AcDbLine
 10
584.0
 20
136.1383107721806
 30
0.0
 11
584.0
 21
129.7896095752717
 31
0.0
  0
MTEXT
  5
2109
102
{ACAD_XDICTIONARY
360
2D9A
102
}
330
20FF
100
AcDbEntity
  8
Značka (ISO)
100
AcDbMText
 10
546.5358532480402
 20
130.5142848223448
 30
0.0
 40
3.499999940395355
 41
0.0
 71
     7
 72
     1
  1
MATERI\U+00C1L
  7
Text poznámky (DIN)
 73
     1
 44
1.0
  0
LINE
  5
210A
330
20FF
100
AcDbEntity
  8
Značka (ISO)
100
AcDbLine
 10
529.4571646054572
 20
136.1383107721806
 30
0.0
 11
529.4571646054572
 21
129.7896095752717
 31
0.0
  0
MTEXT
  5
210B
330
20FF
100
AcDbEntity
  8
Značka (ISO)
100
AcDbMText
 10
505.6894357891874
 20
131.2139602035284
 30
0.0
 40
3.499999940395355
 41
0.0
 71
     7
 72
     1
  1
HMOTNOST
  7
Text poznámky (DIN)
 73
     1
 44
1.0
  0
LINE
  5
210C
330
20FF
100
AcDbEntity
  8
Značka (ISO)
100
AcDbLine
 10
504.0571646054574
 20
136.1383107721806
 30
0.0
 11
504.0571646054574
 21
129.7896095752717
 31
0.0
  0
MTEXT
  5
210D
102
{ACAD_XDICTIONARY
360
2D9C
102
}
330
20FF
100
AcDbEntity
  8
Značka (ISO)
100
AcDbMText
 10
480.4647604676083
 20
130.5142848223448
 30
0.0
 40
3.499999940395355
 41
0.0
 71
     7
 72
     1
  1
SKLADOV\U+00C9
  7
Text poznámky (DIN)
 73
     1
 44
1.0
  0
LINE
  5
210E
330
20FF
100
AcDbEntity
  8
Značka (ISO)
100
AcDbLine
 10
478.6571646054574
 20
136.1383107721806
 30
0.0
 11
478.6571646054574
 21
129.7896095752717
 31
0.0
  0
MTEXT
  5
210F
330
20FF
100
AcDbEntity
  8
Značka (ISO)
100
AcDbMText
 10
418.1622383250063
 20
131.2139602035284
 30
0.0
 40
3.499999940395355
 41
0.0
 71
     7
 72
     1
  1
POPIS
  7
Text poznámky (DIN)
 73
     1
 44
1.0
  0
LINE
  5
2110
330
20FF
100
AcDbEntity
  8
Značka (ISO)
100
AcDbLine
 10
369.3060162228869
 20
136.1383107721806
 30
0.0
 11
369.3060162228869
 21
129.7896095752717
 31
0.0
  0
MTEXT
  5
2111
330
20FF
100
AcDbEntity
  8
Značka (ISO)
100
AcDbMText
 10
363.1110145384604
 20
131.2139602035284
 30
0.0
 40
3.499999940395355
 41
0.0
 71
     7
 72
     1
  1
KS
  7
Text poznámky (DIN)
 73
     1
 44
1.0
  0
LINE
  5
2112
330
20FF
100
AcDbEntity
  8
Značka (ISO)
100
AcDbLine
 10
361.9086137694643
 20
136.1383107721806
 30
0.0
 11
361.9086137694643
 21
129.7896095752717
 31
0.0
  0
MTEXT
  5
2113
330
20FF
100
AcDbEntity
  8
Značka (ISO)
100
AcDbMText
 10
346.9701060110862
 20
131.2139602035284
 30
0.0
 40
3.499999940395355
 41
0.0
 71
     7
 72
     1
  1
POZICE
  7
Text poznámky (DIN)
 73
     1
 44
1.0
  0
LINE
  5
2114
330
20FF
100
AcDbEntity
  8
Značka (ISO)
100
AcDbLine
 10
345.7677052420901
 20
136.1383107721806
 30
0.0
 11
345.7677052420901
 21
129.7896095752717
 31
0.0
  0
MTEXT
  5
2115
330
20FF
100
AcDbEntity
  8
Značka (ISO)
100
AcDbMText
 10
530.6595653744534
 20
124.8652590066195
 30
0.0
 40
3.499999940395355
 41
0.0
 71
     7
 72
     1
  1
AISI 304
  7
Text poznámky (DIN)
 73
     1
 44
1.0
  0
MTEXT
  5
2116
330
20FF
100
AcDbEntity
  8
Značka (ISO)
100
AcDbMText
 10
505.2567653673332
 20
123.8165577501059
 30
0.0
 40
3.499999940395355
 41
0.0
 71
     7
 72
     1
  1
1,259 kg
  7
Text poznámky (DIN)
 73
     1
 44
1.0
  0
MTEXT
  5
2117
330
20FF
100
AcDbEntity
  8
Značka (ISO)
100
AcDbMText
 10
479.8595653744534
 20
124.8652590066195
 30
0.0
 40
3.499999940395355
 41
0.0
 71
     7
 72
     1
  1
E23614
  7
Text poznámky (DIN)
 73
     1
 44
1.0
  0
MTEXT
  5
2118
102
{ACAD_XDICTIONARY
360
2D9E
102
}
330
20FF
100
AcDbEntity
  8
Značka (ISO)
100
AcDbMText
 10
370.508416991883
 20
124.6915576606989
 30
0.0
 40
3.499999940395355
 41
0.0
 71
     7
 72
     1
  1
Effidrai dvoud\U+00EDln\U+00E1  157/DN70 vodorovn\U+00E1 12mm 
  7
Text poznámky (DIN)
 73
     1
 44
1.0
  0
MTEXT
  5
2119
102
{ACAD_XDICTIONARY
360
2DA0
102
}
330
20FF
100
AcDbEntity
  8
Značka (ISO)
100
AcDbMText
 10
370.508416991883
 20
117.2941552847624
 30
0.0
 40
3.499999940395355
 41
0.0
 71
     7
 72
     1
  1
p\U+0159\U+00EDruba AISI 304
  7
Text poznámky (DIN)
 73
     1
 44
1.0
  0
MTEXT
  5
211A
330
20FF
100
AcDbEntity
  8
Značka (ISO)
100
AcDbMText
 10
365.0319157729526
 20
124.8652590066195
 30
0.0
 40
3.499999940395355
 41
0.0
 71
     7
 72
     1
  1
1
  7
Text poznámky (DIN)
 73
     1
 44
1.0
  0
MTEXT
  5
211B
330
20FF
100
AcDbEntity
  8
Značka (ISO)
100
AcDbMText
 10
353.2627602825542
 20
124.8652590066195
 30
0.0
 40
3.499999940395355
 41
0.0
 71
     7
 72
     1
  1
1
  7
Text poznámky (DIN)
 73
     1
 44
1.0
  0
LINE
  5
211C
330
20FF
100
AcDbEntity
  8
Značka (ISO)
100
AcDbLine
 10
584.0
 20
129.7896095752717
 30
0.0
 11
345.7677052420901
 21
129.7896095752717
 31
0.0
  0
MTEXT
  5
211D
330
20FF
100
AcDbEntity
  8
Značka (ISO)
100
AcDbMText
 10
530.6595653744534
 20
112.1678566128016
 30
0.0
 40
3.499999940395355
 41
0.0
 71
     7
 72
     1
  1
PVC-U
  7
Text poznámky (DIN)
 73
     1
 44
1.0
  0
MTEXT
  5
211E
330
20FF
100
AcDbEntity
  8
Značka (ISO)
100
AcDbMText
 10
505.2595653744535
 20
111.119155356288
 30
0.0
 40
3.499999940395355
 41
0.0
 71
     7
 72
     1
  1
0,042 kg
  7
Text poznámky (DIN)
 73
     1
 44
1.0
  0
MTEXT
  5
211F
330
20FF
100
AcDbEntity
  8
Značka (ISO)
100
AcDbMText
 10
479.8595653744534
 20
112.1678566128016
 30
0.0
 40
3.499999940395355
 41
0.0
 71
     7
 72
     1
  1
NM 6701
  7
Text poznámky (DIN)
 73
     1
 44
1.0
  0
MTEXT
  5
2120
102
{ACAD_XDICTIONARY
360
2DA2
102
}
330
20FF
100
AcDbEntity
  8
Značka (ISO)
100
AcDbMText
 10
370.508416991883
 20
110.9454540103674
 30
0.0
 40
3.499999940395355
 41
0.0
 71
     7
 72
     1
  1
n\U+00E1vlek sunap-DN70
  7
Text poznámky (DIN)
 73
     1
 44
1.0
  0
MTEXT
  5
2121
330
20FF
100
AcDbEntity
  8
Značka (ISO)
100
AcDbMText
 10
365.0319157729526
 20
112.1678566128016
 30
0.0
 40
3.499999940395355
 41
0.0
 71
     7
 72
     1
  1
1
  7
Text poznámky (DIN)
 73
     1
 44
1.0
  0
MTEXT
  5
2122
330
20FF
100
AcDbEntity
  8
Značka (ISO)
100
AcDbMText
 10
352.9165343398387
 20
112.1678566128016
 30
0.0
 40
3.499999940395355
 41
0.0
 71
     7
 72
     1
  1
2
  7
Text poznámky (DIN)
 73
     1
 44
1.0
  0
LINE
  5
2123
330
20FF
100
AcDbEntity
  8
Značka (ISO)
100
AcDbLine
 10
584.0
 20
117.0922071814537
 30
0.0
 11
345.7677052420901
 21
117.0922071814537
 31
0.0
  0
MTEXT
  5
2124
330
20FF
100
AcDbEntity
  8
Značka (ISO)
100
AcDbMText
 10
530.3571646054573
 20
105.8191554158926
 30
0.0
 40
3.499999940395355
 41
0.0
 71
     7
 72
     1
  1
 
  7
Text poznámky (DIN)
 73
     1
 44
1.0
  0
MTEXT
  5
2125
330
20FF
100
AcDbEntity
  8
Značka (ISO)
100
AcDbMText
 10
505.2595653744535
 20
104.770454159379
 30
0.0
 40
3.499999940395355
 41
0.0
 71
     7
 72
     1
  1
0,476 kg
  7
Text poznámky (DIN)
 73
     1
 44
1.0
  0
MTEXT
  5
2126
330
20FF
100
AcDbEntity
  8
Značka (ISO)
100
AcDbMText
 10
479.8595653744534
 20
105.8191554158926
 30
0.0
 40
3.499999940395355
 41
0.0
 71
     7
 72
     1
  1
408205
  7
Text poznámky (DIN)
 73
     1
 44
1.0
  0
MTEXT
  5
2127
102
{ACAD_XDICTIONARY
360
2DA4
102
}
330
20FF
100
AcDbEntity
  8
Značka (ISO)
100
AcDbMText
 10
370.508416991883
 20
104.5967528134585
 30
0.0
 40
3.499999940395355
 41
0.0
 71
     7
 72
     1
  1
Effidrain dren\U+00E1\U+017En\U+00ED krou\U+017Eek komplet 157 + karton
  7
Text poznámky (DIN)
 73
     1
 44
1.0
  0
MTEXT
  5
2128
330
20FF
100
AcDbEntity
  8
Značka (ISO)
100
AcDbMText
 10
365.0319157729526
 20
105.8191554158926
 30
0.0
 40
3.499999940395355
 41
0.0
 71
     7
 72
     1
  1
1
  7
Text poznámky (DIN)
 73
     1
 44
1.0
  0
MTEXT
  5
2129
330
20FF
100
AcDbEntity
  8
Značka (ISO)
100
AcDbMText
 10
352.9165343398387
 20
105.8191554158926
 30
0.0
 40
3.499999940395355
 41
0.0
 71
     7
 72
     1
  1
3
  7
Text poznámky (DIN)
 73
     1
 44
1.0
  0
LINE
  5
212A
330
20FF
100
AcDbEntity
  8
Značka (ISO)
100
AcDbLine
 10
584.0
 20
110.7435059845448
 30
0.0
 11
345.7677052420901
 21
110.7435059845448
 31
0.0
  0
MTEXT
  5
212B
102
{ACAD_XDICTIONARY
360
2DA6
102
}
330
20FF
100
AcDbEntity
  8
Značka (ISO)
100
AcDbMText
 10
530.6595653744534
 20
98.24805161654957
 30
0.0
 40
3.499999940395355
 41
0.0
 71
     7
 72
     1
  1
Polykarbon\U+00E1t, kou\U+0159ov\U+00FD
  7
Text poznámky (DIN)
 73
     1
 44
1.0
  0
MTEXT
  5
212C
330
20FF
100
AcDbEntity
  8
Značka (ISO)
100
AcDbMText
 10
505.2595653744535
 20
98.42175296247013
 30
0.0
 40
3.499999940395355
 41
0.0
 71
     7
 72
     1
  1
0,020 kg
  7
Text poznámky (DIN)
 73
     1
 44
1.0
  0
MTEXT
  5
212D
330
20FF
100
AcDbEntity
  8
Značka (ISO)
100
AcDbMText
 10
479.8595653744534
 20
99.47045421898373
 30
0.0
 40
3.499999940395355
 41
0.0
 71
     7
 72
     1
  1
E29863
  7
Text poznámky (DIN)
 73
     1
 44
1.0
  0
MTEXT
  5
212E
102
{ACAD_XDICTIONARY
360
2DA8
102
}
330
20FF
100
AcDbEntity
  8
Značka (ISO)
100
AcDbMText
 10
370.508416991883
 20
98.24805161654957
 30
0.0
 40
3.499999940395355
 41
0.0
 71
     7
 72
     1
  1
Effidrain kryt plastov\U+00FD 157 pro balen\U+00ED PP 12mm
  7
Text poznámky (DIN)
 73
     1
 44
1.0
  0
MTEXT
  5
212F
330
20FF
100
AcDbEntity
  8
Značka (ISO)
100
AcDbMText
 10
365.0319157729526
 20
99.47045421898373
 30
0.0
 40
3.499999940395355
 41
0.0
 71
     7
 72
     1
  1
1
  7
Text poznámky (DIN)
 73
     1
 44
1.0
  0
MTEXT
  5
2130
330
20FF
100
AcDbEntity
  8
Značka (ISO)
100
AcDbMText
 10
352.7412096614177
 20
99.47045421898373
 30
0.0
 40
3.499999940395355
 41
0.0
 71
     7
 72
     1
  1
4
  7
Text poznámky (DIN)
 73
     1
 44
1.0
  0
LINE
  5
2131
330
20FF
100
AcDbEntity
  8
Značka (ISO)
100
AcDbLine
 10
584.0
 20
104.3948047876358
 30
0.0
 11
345.7677052420901
 21
104.3948047876358
 31
0.0
  0
MTEXT
  5
2132
330
20FF
100
AcDbEntity
  8
Značka (ISO)
100
AcDbMText
 10
530.6595653744534
 20
93.12175302207476
 30
0.0
 40
3.499999940395355
 41
0.0
 71
     7
 72
     1
  1
Plast ABS
  7
Text poznámky (DIN)
 73
     1
 44
1.0
  0
MTEXT
  5
2133
330
20FF
100
AcDbEntity
  8
Značka (ISO)
100
AcDbMText
 10
505.2595653744535
 20
92.07305176556117
 30
0.0
 40
3.499999940395355
 41
0.0
 71
     7
 72
     1
  1
0,002 kg
  7
Text poznámky (DIN)
 73
     1
 44
1.0
  0
MTEXT
  5
2134
330
20FF
100
AcDbEntity
  8
Značka (ISO)
100
AcDbMText
 10
479.8595653744534
 20
93.12175302207476
 30
0.0
 40
3.499999940395355
 41
0.0
 71
     7
 72
     1
  1
91024
  7
Text poznámky (DIN)
 73
     1
 44
1.0
  0
MTEXT
  5
2135
102
{ACAD_XDICTIONARY
360
2DAA
102
}
330
20FF
100
AcDbEntity
  8
Značka (ISO)
100
AcDbMText
 10
370.508416991883
 20
91.8993504196406
 30
0.0
 40
3.499999940395355
 41
0.0
 71
     7
 72
     1
  1
Krytka  matic 130-034-148 \U+0161estihrann\U+00E1, \U+010Dern\U+00E1
  7
Text poznámky (DIN)
 73
     1
 44
1.0
  0
MTEXT
  5
2136
330
20FF
100
AcDbEntity
  8
Značka (ISO)
100
AcDbMText
 10
365.0319157729526
 20
93.12175302207476
 30
0.0
 40
3.499999940395355
 41
0.0
 71
     7
 72
     1
  1
1
  7
Text poznámky (DIN)
 73
     1
 44
1.0
  0
MTEXT
  5
2137
330
20FF
100
AcDbEntity
  8
Značka (ISO)
100
AcDbMText
 10
352.9165343398387
 20
93.12175302207476
 30
0.0
 40
3.499999940395355
 41
0.0
 71
     7
 72
     1
  1
5
  7
Text poznámky (DIN)
 73
     1
 44
1.0
  0
LINE
  5
2138
330
20FF
100
AcDbEntity
  8
Značka (ISO)
100
AcDbLine
 10
584.0
 20
98.04610359072693
 30
0.0
 11
345.7677052420901
 21
98.04610359072693
 31
0.0
  0
MTEXT
  5
2139
330
20FF
100
AcDbEntity
  8
Značka (ISO)
100
AcDbMText
 10
530.6595653744534
 20
86.77305182516581
 30
0.0
 40
3.499999940395355
 41
0.0
 71
     7
 72
     1
  1
Mosaz
  7
Text poznámky (DIN)
 73
     1
 44
1.0
  0
MTEXT
  5
213A
330
20FF
100
AcDbEntity
  8
Značka (ISO)
100
AcDbMText
 10
505.2595653744535
 20
85.72435056865222
 30
0.0
 40
3.499999940395355
 41
0.0
 71
     7
 72
     1
  1
0,005 kg
  7
Text poznámky (DIN)
 73
     1
 44
1.0
  0
MTEXT
  5
213B
330
20FF
100
AcDbEntity
  8
Značka (ISO)
100
AcDbMText
 10
479.8595653744534
 20
86.77305182516581
 30
0.0
 40
3.499999940395355
 41
0.0
 71
     7
 72
     1
  1
90678
  7
Text poznámky (DIN)
 73
     1
 44
1.0
  0
MTEXT
  5
213C
102
{ACAD_XDICTIONARY
360
2DAC
102
}
330
20FF
100
AcDbEntity
  8
Značka (ISO)
100
AcDbMText
 10
370.508416991883
 20
86.07337644398219
 30
0.0
 40
3.499999940395355
 41
0.0
 71
     7
 72
     1
  1
\U+0160estihrann\U+00E1 matice M8 DIN 934
  7
Text poznámky (DIN)
 73
     1
 44
1.0
  0
MTEXT
  5
213D
330
20FF
100
AcDbEntity
  8
Značka (ISO)
100
AcDbMText
 10
365.0319157729526
 20
86.77305182516581
 30
0.0
 40
3.499999940395355
 41
0.0
 71
     7
 72
     1
  1
1
  7
Text poznámky (DIN)
 73
     1
 44
1.0
  0
MTEXT
  5
213E
330
20FF
100
AcDbEntity
  8
Značka (ISO)
100
AcDbMText
 10
352.9165343398387
 20
86.77305182516581
 30
0.0
 40
3.499999940395355
 41
0.0
 71
     7
 72
     1
  1
6
  7
Text poznámky (DIN)
 73
     1
 44
1.0
  0
LINE
  5
213F
330
20FF
100
AcDbEntity
  8
Značka (ISO)
100
AcDbLine
 10
584.0
 20
91.69740239381795
 30
0.0
 11
345.7677052420901
 21
91.69740239381795
 31
0.0
  0
MTEXT
  5
2140
102
{ACAD_XDICTIONARY
360
2DAE
102
}
330
20FF
100
AcDbEntity
  8
Značka (ISO)
100
AcDbMText
 10
530.6595653744534
 20
79.20194802582272
 30
0.0
 40
3.499999940395355
 41
0.0
 71
     7
 72
     1
  1
Pap\U+00EDr
  7
Text poznámky (DIN)
 73
     1
 44
1.0
  0
MTEXT
  5
2141
330
20FF
100
AcDbEntity
  8
Značka (ISO)
100
AcDbMText
 10
505.2595653744535
 20
79.37564937174328
 30
0.0
 40
3.499999940395355
 41
0.0
 71
     7
 72
     1
  1
0,001 kg
  7
Text poznámky (DIN)
 73
     1
 44
1.0
  0
MTEXT
  5
2142
330
20FF
100
AcDbEntity
  8
Značka (ISO)
100
AcDbMText
 10
479.8595653744534
 20
80.42435062825687
 30
0.0
 40
3.499999940395355
 41
0.0
 71
     7
 72
     1
  1
91018
  7
Text poznámky (DIN)
 73
     1
 44
1.0
  0
MTEXT
  5
2143
330
20FF
100
AcDbEntity
  8
Značka (ISO)
100
AcDbMText
 10
370.508416991883
 20
80.42435062825687
 30
0.0
 40
3.499999940395355
 41
0.0
 71
     7
 72
     1
  1
Etiketa
  7
Text poznámky (DIN)
 73
     1
 44
1.0
  0
MTEXT
  5
2144
330
20FF
100
AcDbEntity
  8
Značka (ISO)
100
AcDbMText
 10
365.0319157729526
 20
80.42435062825687
 30
0.0
 40
3.499999940395355
 41
0.0
 71
     7
 72
     1
  1
1
  7
Text poznámky (DIN)
 73
     1
 44
1.0
  0
MTEXT
  5
2145
330
20FF
100
AcDbEntity
  8
Značka (ISO)
100
AcDbMText
 10
352.9137343327184
 20
80.42435062825687
 30
0.0
 40
3.499999940395355
 41
0.0
 71
     7
 72
     1
  1
7
  7
Text poznámky (DIN)
 73
     1
 44
1.0
  0
LINE
  5
2146
330
20FF
100
AcDbEntity
  8
Značka (ISO)
100
AcDbLine
 10
584.0
 20
85.34870119690902
 30
0.0
 11
345.7677052420901
 21
85.34870119690902
 31
0.0
  0
LINE
  5
2147
330
20FF
100
AcDbEntity
  8
Značka (ISO)
100
AcDbLine
 10
584.0
 20
79.00000000000007
 30
0.0
 11
345.7677052420901
 21
79.00000000000007
 31
0.0
  0
LINE
  5
2148
330
20FF
100
AcDbEntity
  8
Značka (ISO)
100
AcDbLine
 10
584.0
 20
129.7896095752717
 30
0.0
 11
584.0
 21
79.00000000000007
 31
0.0
  0
LINE
  5
2149
330
20FF
100
AcDbEntity
  8
Značka (ISO)
100
AcDbLine
 10
529.4571646054572
 20
129.7896095752717
 30
0.0
 11
529.4571646054572
 21
79.00000000000007
 31
0.0
  0
LINE
  5
214A
330
20FF
100
AcDbEntity
  8
Značka (ISO)
100
AcDbLine
 10
504.0571646054574
 20
129.7896095752717
 30
0.0
 11
504.0571646054574
 21
79.00000000000007
 31
0.0
  0
LINE
  5
214B
330
20FF
100
AcDbEntity
  8
Značka (ISO)
100
AcDbLine
 10
478.6571646054574
 20
129.7896095752717
 30
0.0
 11
478.6571646054574
 21
79.00000000000007
 31
0.0
  0
LINE
  5
214C
330
20FF
100
AcDbEntity
  8
Značka (ISO)
100
AcDbLine
 10
369.3060162228869
 20
129.7896095752717
 30
0.0
 11
369.3060162228869
 21
79.00000000000007
 31
0.0
  0
LINE
  5
214D
330
20FF
100
AcDbEntity
  8
Značka (ISO)
100
AcDbLine
 10
361.9086137694643
 20
129.7896095752717
 30
0.0
 11
361.9086137694643
 21
79.00000000000007
 31
0.0
  0
LINE
  5
214E
330
20FF
100
AcDbEntity
  8
Značka (ISO)
100
AcDbLine
 10
345.7677052420901
 20
129.7896095752717
 30
0.0
 11
345.7677052420901
 21
79.00000000000007
 31
0.0
  0
ENDBLK
  5
2101
330
20FF
100
AcDbEntity
  8
0
100
AcDbBlockEnd
  0
BLOCK
  5
2153
330
2152
100
AcDbEntity
  8
0
100
AcDbBlockBegin
  2
*D17
 70
     1
 10
0.0
 20
0.0
 30
0.0
  3
*D17
  1

  0
LINE
  5
222E
330
2152
100
AcDbEntity
  8
Kóta (ISO)
440
 16777216
100
AcDbLine
 10
359.5863987569874
 20
368.8489651327008
 30
0.0
 11
359.5863987569874
 21
320.3533141148808
 31
0.0
  0
LINE
  5
222F
330
2152
100
AcDbEntity
  8
Kóta (ISO)
440
 16777216
100
AcDbLine
 10
112.5863987569874
 20
383.8489651327007
 30
0.0
 11
112.5863987569874
 21
320.3533141148808
 31
0.0
  0
LINE
  5
2230
330
2152
100
AcDbEntity
  8
Kóta (ISO)
440
 16777216
100
AcDbLine
 10
355.8363987569874
 20
321.8533141148808
 30
0.0
 11
116.3363987569874
 21
321.8533141148808
 31
0.0
  0
SOLID
  5
2231
330
2152
100
AcDbEntity
  8
Kóta (ISO)
440
 16777216
100
AcDbTrace
 10
355.8363987569874
 20
322.4783141148809
 30
0.0
 11
355.8363987569874
 21
321.2283141148808
 31
0.0
 12
359.5863987569874
 22
321.8533141148808
 32
0.0
 13
359.5863987569874
 23
321.8533141148808
 33
0.0
  0
SOLID
  5
2232
330
2152
100
AcDbEntity
  8
Kóta (ISO)
440
 16777216
100
AcDbTrace
 10
116.3363987569874
 20
322.4783141148809
 30
0.0
 11
116.3363987569874
 21
321.2283141148808
 31
0.0
 12
112.5863987569874
 22
321.8533141148808
 32
0.0
 13
112.5863987569874
 23
321.8533141148808
 33
0.0
  0
MTEXT
  5
2233
102
{ACAD_XDICTIONARY
360
2DB0
102
}
330
2152
100
AcDbEntity
  8
Kóta (ISO)
440
 16777216
100
AcDbMText
 10
213.4200487234079
 20
328.363578050408
 30
0.0
 40
5.25
 41
0.0
 71
     1
 72
     1
  1
\A1;247{\H5.257800;\U+00B12}
  7
Text poznámky (ISO)
 73
     1
 44
1.0
  0
POINT
  5
2234
330
2152
100
AcDbEntity
  8
Defpoints
 62
     0
440
 16777216
100
AcDbPoint
 10
359.5863987569874
 20
368.8489651327008
 30
0.0
  0
POINT
  5
2235
330
2152
100
AcDbEntity
  8
Defpoints
 62
     0
440
 16777216
100
AcDbPoint
 10
112.5863987569874
 20
383.8489651327007
 30
0.0
  0
POINT
  5
2236
330
2152
100
AcDbEntity
  8
Defpoints
 62
     0
440
 16777216
100
AcDbPoint
 10
112.5863987569874
 20
321.8533141148808
 30
0.0
  0
ENDBLK
  5
2154
330
2152
100
AcDbEntity
  8
0
100
AcDbBlockEnd
  0
BLOCK
  5
2239
330
2238
100
AcDbEntity
  8
0
100
AcDbBlockBegin
  2
*D18
 70
     1
 10
0.0
 20
0.0
 30
0.0
  3
*D18
  1

  0
LINE
  5
230A
330
2238
100
AcDbEntity
  8
Kóta (ISO)
440
 16777216
100
AcDbLine
 10
112.5863987569874
 20
383.8489651327007
 30
0.0
 11
112.5863987569874
 21
342.9673989183548
 31
0.0
  0
LINE
  5
230B
330
2238
100
AcDbEntity
  8
Kóta (ISO)
440
 16777216
100
AcDbLine
 10
269.5863987569874
 20
478.445783975343
 30
0.0
 11
269.5863987569874
 21
342.9673989183548
 31
0.0
  0
LINE
  5
230C
330
2238
100
AcDbEntity
  8
Kóta (ISO)
440
 16777216
100
AcDbLine
 10
116.3363987569874
 20
344.4673989183548
 30
0.0
 11
265.8363987569874
 21
344.4673989183548
 31
0.0
  0
SOLID
  5
230D
330
2238
100
AcDbEntity
  8
Kóta (ISO)
440
 16777216
100
AcDbTrace
 10
116.3363987569874
 20
345.0923989183548
 30
0.0
 11
116.3363987569874
 21
343.8423989183548
 31
0.0
 12
112.5863987569874
 22
344.4673989183548
 32
0.0
 13
112.5863987569874
 23
344.4673989183548
 33
0.0
  0
SOLID
  5
230E
330
2238
100
AcDbEntity
  8
Kóta (ISO)
440
 16777216
100
AcDbTrace
 10
265.8363987569874
 20
345.0923989183548
 30
0.0
 11
265.8363987569874
 21
343.8423989183548
 31
0.0
 12
269.5863987569874
 22
344.4673989183548
 32
0.0
 13
269.5863987569874
 23
344.4673989183548
 33
0.0
  0
MTEXT
  5
230F
102
{ACAD_XDICTIONARY
360
2DB2
102
}
330
2238
100
AcDbEntity
  8
Kóta (ISO)
440
 16777216
100
AcDbMText
 10
182.865864841608
 20
351.5937770244662
 30
0.0
 40
5.25
 41
0.0
 71
     1
 72
     1
  1
\A1;{\U+00D8}157
  7
Text poznámky (ISO)
 73
     1
 44
1.0
  0
POINT
  5
2310
330
2238
100
AcDbEntity
  8
Defpoints
 62
     0
440
 16777216
100
AcDbPoint
 10
112.5863987569874
 20
383.8489651327007
 30
0.0
  0
POINT
  5
2311
330
2238
100
AcDbEntity
  8
Defpoints
 62
     0
440
 16777216
100
AcDbPoint
 10
269.5863987569874
 20
478.445783975343
 30
0.0
  0
POINT
  5
2312
330
2238
100
AcDbEntity
  8
Defpoints
 62
     0
440
 16777216
100
AcDbPoint
 10
269.5863987569874
 20
344.4673989183548
 30
0.0
  0
ENDBLK
  5
223A
330
2238
100
AcDbEntity
  8
0
100
AcDbBlockEnd
  0
BLOCK
  5
2315
330
2314
100
AcDbEntity
  8
0
100
AcDbBlockBegin
  2
*D19
 70
     1
 10
0.0
 20
0.0
 30
0.0
  3
*D19
  1

  0
LINE
  5
23F0
330
2314
100
AcDbEntity
  8
Kóta (ISO)
440
 16777216
100
AcDbLine
 10
351.4922816754307
 20
367.3489651327008
 30
0.0
 11
394.9922816754309
 21
367.3489651327006
 31
0.0
  0
LINE
  5
23F1
330
2314
100
AcDbEntity
  8
Kóta (ISO)
440
 16777216
100
AcDbLine
 10
282.0863987569875
 20
514.3489651327008
 30
0.0
 11
394.9922816754309
 21
514.3489651327008
 31
0.0
  0
LINE
  5
23F2
330
2314
100
AcDbEntity
  8
Kóta (ISO)
440
 16777216
100
AcDbLine
 10
393.4922816754308
 20
371.0989651327007
 30
0.0
 11
393.4922816754308
 21
510.5989651327006
 31
0.0
  0
SOLID
  5
23F3
330
2314
100
AcDbEntity
  8
Kóta (ISO)
440
 16777216
100
AcDbTrace
 10
392.8672816754308
 20
371.0989651327007
 30
0.0
 11
394.1172816754308
 21
371.0989651327007
 31
0.0
 12
393.4922816754308
 22
367.3489651327006
 32
0.0
 13
393.4922816754308
 23
367.3489651327006
 33
0.0
  0
SOLID
  5
23F4
330
2314
100
AcDbEntity
  8
Kóta (ISO)
440
 16777216
100
AcDbTrace
 10
392.8672816754308
 20
510.5989651327006
 30
0.0
 11
394.1172816754308
 21
510.5989651327006
 31
0.0
 12
393.4922816754308
 22
514.3489651327008
 32
0.0
 13
393.4922816754308
 23
514.3489651327008
 33
0.0
  0
MTEXT
  5
23F5
102
{ACAD_XDICTIONARY
360
2DB4
102
}
330
2314
100
AcDbEntity
  8
Kóta (ISO)
440
 16777216
100
AcDbMText
 10
386.9820177399035
 20
426.0932662498245
 30
0.0
 40
5.25
 41
0.0
 71
     1
 72
     1
  1
\A1;147{\H5.257800;\U+00B12}
  7
Text poznámky (ISO)
 11
0.0000000000000001
 21
1.0
 31
0.0
 73
     1
 44
1.0
  0
POINT
  5
23F6
330
2314
100
AcDbEntity
  8
Defpoints
 62
     0
440
 16777216
100
AcDbPoint
 10
351.4922816754307
 20
367.3489651327008
 30
0.0
  0
POINT
  5
23F7
330
2314
100
AcDbEntity
  8
Defpoints
 62
     0
440
 16777216
100
AcDbPoint
 10
282.0863987569875
 20
514.3489651327008
 30
0.0
  0
POINT
  5
23F8
330
2314
100
AcDbEntity
  8
Defpoints
 62
     0
440
 16777216
100
AcDbPoint
 10
393.4922816754308
 20
514.3489651327008
 30
0.0
  0
ENDBLK
  5
2316
330
2314
100
AcDbEntity
  8
0
100
AcDbBlockEnd
  0
BLOCK
  5
23FA
330
23F9
100
AcDbEntity
  8
0
100
AcDbBlockBegin
  2
Pozice1
 70
     0
 10
0.0
 20
0.0
 30
0.0
  3
Pozice1
  1

  0
LINE
  5
23FC
330
23F9
100
AcDbEntity
  8
Značka (ISO)
100
AcDbLine
 10
73.3776704772783
 20
281.5155945728344
 30
0.0
 11
75.05759917132495
 21
283.3670371409197
 31
0.0
  0
POLYLINE
  5
23FD
330
23F9
100
AcDbEntity
  8
Značka (ISO)
100
AcDb2dPolyline
 66
     1
 10
0.0
 20
0.0
 30
0.0
 70
   128
  0
VERTEX
  5
23FE
330
23FD
100
AcDbEntity
  8
Značka (ISO)
100
AcDbVertex
100
AcDb2dVertex
 10
73.74795913696289
 20
281.1795997619629
 30
0.0
  0
VERTEX
  5
23FF
330
23FD
100
AcDbEntity
  8
Značka (ISO)
100
AcDbVertex
100
AcDb2dVertex
 10
75.05759716033934
 20
283.3670425415038
 30
0.0
  0
VERTEX
  5
2401
330
23FD
100
AcDbEntity
  8
Značka (ISO)
100
AcDbVertex
100
AcDb2dVertex
 10
73.0073833465576
 20
281.851577758789
 30
0.0
  0
VERTEX
  5
2402
330
23FD
100
AcDbEntity
  8
Značka (ISO)
100
AcDbVertex
100
AcDb2dVertex
 10
73.74795913696289
 20
281.1795997619629
 30
0.0
  0
SEQEND
  5
2400
330
23FD
100
AcDbEntity
  8
Značka (ISO)
  0
SOLID
  5
2403
330
23F9
100
AcDbEntity
  8
Značka (ISO)
100
AcDbTrace
 10
73.74795913696289
 20
281.1795997619629
 30
0.0
 11
75.05759716033934
 21
283.3670425415038
 31
0.0
 12
73.0073833465576
 22
281.851577758789
 32
0.0
 13
73.74795913696289
 23
281.1795997619629
 33
0.0
  0
LINE
  5
2404
330
23F9
100
AcDbEntity
  8
Značka (ISO)
100
AcDbLine
 10
73.74795899089537
 20
281.179608834025
 30
0.0
 11
75.05759917132495
 21
283.3670371409197
 31
0.0
  0
LINE
  5
2405
330
23F9
100
AcDbEntity
  8
Značka (ISO)
100
AcDbLine
 10
75.05759917132495
 20
283.3670371409197
 30
0.0
 11
73.0073819636612
 21
281.8515803116437
 31
0.0
  0
LINE
  5
2406
330
23F9
100
AcDbEntity
  8
Značka (ISO)
100
AcDbLine
 10
73.0073819636612
 20
281.8515803116437
 30
0.0
 11
73.74795899089537
 21
281.179608834025
 31
0.0
  0
LINE
  5
2407
330
23F9
100
AcDbEntity
  8
Značka (ISO)
100
AcDbLine
 10
73.3776704772783
 20
281.5155945728344
 30
0.0
 11
63.42574172218236
 21
270.5476144454433
 31
0.0
  0
MTEXT
  5
2408
330
23F9
100
AcDbEntity
  8
Značka (ISO)
100
AcDbMText
 10
55.55074207981022
 20
277.118623008485
 30
0.0
 40
5.24999976158142
 41
0.0
 71
     5
 72
     1
  1
1
  7
Text popisu (ISO)
 73
     1
 44
1.0
  0
LINE
  5
2409
330
23F9
100
AcDbEntity
  8
Značka (ISO)
100
AcDbLine
 10
63.42574172218236
 20
270.5476144454433
 30
0.0
 11
47.67574243743809
 21
270.5476144454433
 31
0.0
  0
ENDBLK
  5
23FB
330
23F9
100
AcDbEntity
  8
0
100
AcDbBlockEnd
  0
BLOCK
  5
240D
330
240C
100
AcDbEntity
  8
0
100
AcDbBlockBegin
  2
*D21
 70
     1
 10
0.0
 20
0.0
 30
0.0
  3
*D21
  1

  0
LINE
  5
24E4
330
240C
100
AcDbEntity
  8
Kóta (ISO)
440
 16777216
100
AcDbLine
 10
100.0863987569874
 20
512.8489651327006
 30
0.0
 11
61.34211639589481
 21
512.8489651327006
 31
0.0
  0
LINE
  5
24E5
330
240C
100
AcDbEntity
  8
Kóta (ISO)
440
 16777216
100
AcDbLine
 10
129.0863987569874
 20
367.3489651327008
 30
0.0
 11
61.34211639589477
 21
367.3489651327009
 31
0.0
  0
LINE
  5
24E6
330
240C
100
AcDbEntity
  8
Kóta (ISO)
440
 16777216
100
AcDbLine
 10
62.84211639589481
 20
509.0989651327006
 30
0.0
 11
62.84211639589479
 21
371.0989651327009
 31
0.0
  0
SOLID
  5
24E7
330
240C
100
AcDbEntity
  8
Kóta (ISO)
440
 16777216
100
AcDbTrace
 10
62.21711639589481
 20
509.0989651327006
 30
0.0
 11
63.46711639589481
 21
509.0989651327006
 31
0.0
 12
62.84211639589481
 22
512.8489651327006
 32
0.0
 13
62.84211639589481
 23
512.8489651327006
 33
0.0
  0
SOLID
  5
24E8
330
240C
100
AcDbEntity
  8
Kóta (ISO)
440
 16777216
100
AcDbTrace
 10
62.21711639589479
 20
371.0989651327009
 30
0.0
 11
63.46711639589479
 21
371.0989651327009
 31
0.0
 12
62.84211639589479
 22
367.3489651327009
 32
0.0
 13
62.84211639589479
 23
367.3489651327009
 33
0.0
  0
MTEXT
  5
24E9
330
240C
100
AcDbEntity
  8
Kóta (ISO)
440
 16777216
100
AcDbMText
 10
55.12692029112643
 20
431.7091901159108
 30
0.0
 40
5.25
 41
0.0
 71
     1
 72
     1
  1
\A1;145,5
  7
Text poznámky (ISO)
 11
0.0000000000000001
 21
1.0
 31
0.0
 73
     1
 44
1.0
  0
POINT
  5
24EA
330
240C
100
AcDbEntity
  8
Defpoints
 62
     0
440
 16777216
100
AcDbPoint
 10
100.0863987569874
 20
512.8489651327006
 30
0.0
  0
POINT
  5
24EB
330
240C
100
AcDbEntity
  8
Defpoints
 62
     0
440
 16777216
100
AcDbPoint
 10
129.0863987569874
 20
367.3489651327008
 30
0.0
  0
POINT
  5
24EC
330
240C
100
AcDbEntity
  8
Defpoints
 62
     0
440
 16777216
100
AcDbPoint
 10
62.84211639589479
 20
367.3489651327009
 30
0.0
  0
ENDBLK
  5
240E
330
240C
100
AcDbEntity
  8
0
100
AcDbBlockEnd
  0
BLOCK
  5
24EF
330
24EE
100
AcDbEntity
  8
0
100
AcDbBlockBegin
  2
*D22
 70
     1
 10
0.0
 20
0.0
 30
0.0
  3
*D22
  1

  0
LINE
  5
25C1
330
24EE
100
AcDbEntity
  8
Kóta (ISO)
440
 16777216
100
AcDbLine
 10
282.0863987569875
 20
514.3489651327008
 30
0.0
 11
282.0863987569875
 21
492.026783093405
 31
0.0
  0
LINE
  5
25C2
330
24EE
100
AcDbEntity
  8
Kóta (ISO)
440
 16777216
100
AcDbLine
 10
100.0863987569874
 20
514.3489651327008
 30
0.0
 11
100.0863987569874
 21
492.026783093405
 31
0.0
  0
LINE
  5
25C3
330
24EE
100
AcDbEntity
  8
Kóta (ISO)
440
 16777216
100
AcDbLine
 10
278.3363987569875
 20
493.526783093405
 30
0.0
 11
103.8363987569874
 21
493.526783093405
 31
0.0
  0
SOLID
  5
25C4
330
24EE
100
AcDbEntity
  8
Kóta (ISO)
440
 16777216
100
AcDbTrace
 10
278.3363987569875
 20
494.151783093405
 30
0.0
 11
278.3363987569875
 21
492.901783093405
 31
0.0
 12
282.0863987569875
 22
493.526783093405
 32
0.0
 13
282.0863987569875
 23
493.526783093405
 33
0.0
  0
SOLID
  5
25C5
330
24EE
100
AcDbEntity
  8
Kóta (ISO)
440
 16777216
100
AcDbTrace
 10
103.8363987569874
 20
494.151783093405
 30
0.0
 11
103.8363987569874
 21
492.901783093405
 31
0.0
 12
100.0863987569874
 22
493.526783093405
 32
0.0
 13
100.0863987569874
 23
493.526783093405
 33
0.0
  0
MTEXT
  5
25C6
330
24EE
100
AcDbEntity
  8
Kóta (ISO)
440
 16777216
100
AcDbMText
 10
193.943741430253
 20
502.5689289541146
 30
0.0
 40
5.25
 41
0.0
 71
     1
 72
     1
  1
\A1;{\fAIGDT|b0|i0;\H5.2500;\ln\fTahoma|b0|i0;\H5.2500;}182
  7
Text poznámky (ISO)
 73
     1
 44
1.0
  0
POINT
  5
25C7
330
24EE
100
AcDbEntity
  8
Defpoints
 62
     0
440
 16777216
100
AcDbPoint
 10
282.0863987569875
 20
514.3489651327008
 30
0.0
  0
POINT
  5
25C8
330
24EE
100
AcDbEntity
  8
Defpoints
 62
     0
440
 16777216
100
AcDbPoint
 10
100.0863987569874
 20
514.3489651327008
 30
0.0
  0
POINT
  5
25C9
330
24EE
100
AcDbEntity
  8
Defpoints
 62
     0
440
 16777216
100
AcDbPoint
 10
100.0863987569874
 20
493.526783093405
 30
0.0
  0
ENDBLK
  5
24F0
330
24EE
100
AcDbEntity
  8
0
100
AcDbBlockEnd
  0
BLOCK
  5
25CC
330
25CB
100
AcDbEntity
  8
0
100
AcDbBlockBegin
  2
*D23
 70
     1
 10
0.0
 20
0.0
 30
0.0
  3
*D23
  1

  0
LINE
  5
26A3
330
25CB
100
AcDbEntity
  8
Kóta (ISO)
440
 16777216
100
AcDbLine
 10
351.4922816754307
 20
367.3489651327008
 30
0.0
 11
381.7162514189669
 21
367.3489651327008
 31
0.0
  0
LINE
  5
26A4
330
25CB
100
AcDbEntity
  8
Kóta (ISO)
440
 16777216
100
AcDbLine
 10
351.4922816754307
 20
442.3489651327008
 30
0.0
 11
381.716251418967
 21
442.3489651327008
 31
0.0
  0
LINE
  5
26A5
330
25CB
100
AcDbEntity
  8
Kóta (ISO)
440
 16777216
100
AcDbLine
 10
380.2162514189669
 20
371.0989651327008
 30
0.0
 11
380.216251418967
 21
438.5989651327006
 31
0.0
  0
SOLID
  5
26A6
330
25CB
100
AcDbEntity
  8
Kóta (ISO)
440
 16777216
100
AcDbTrace
 10
379.5912514189669
 20
371.0989651327008
 30
0.0
 11
380.8412514189669
 21
371.0989651327008
 31
0.0
 12
380.2162514189669
 22
367.3489651327008
 32
0.0
 13
380.2162514189669
 23
367.3489651327008
 33
0.0
  0
SOLID
  5
26A7
330
25CB
100
AcDbEntity
  8
Kóta (ISO)
440
 16777216
100
AcDbTrace
 10
379.591251418967
 20
438.5989651327006
 30
0.0
 11
380.841251418967
 21
438.5989651327006
 31
0.0
 12
380.216251418967
 22
442.3489651327008
 32
0.0
 13
380.216251418967
 23
442.3489651327008
 33
0.0
  0
MTEXT
  5
26A8
330
25CB
100
AcDbEntity
  8
Kóta (ISO)
440
 16777216
100
AcDbMText
 10
371.1741055582573
 20
398.2602771942578
 30
0.0
 40
5.25
 41
0.0
 71
     1
 72
     1
  1
\A1;{\fAIGDT|b0|i0;\H5.2500;\ln\fTahoma|b0|i0;\H5.2500;}75
  7
Text poznámky (ISO)
 11
0.0000000000000001
 21
1.0
 31
0.0
 73
     1
 44
1.0
  0
POINT
  5
26A9
330
25CB
100
AcDbEntity
  8
Defpoints
 62
     0
440
 16777216
100
AcDbPoint
 10
351.4922816754307
 20
367.3489651327008
 30
0.0
  0
POINT
  5
26AA
330
25CB
100
AcDbEntity
  8
Defpoints
 62
     0
440
 16777216
100
AcDbPoint
 10
351.4922816754307
 20
442.3489651327008
 30
0.0
  0
POINT
  5
26AB
330
25CB
100
AcDbEntity
  8
Defpoints
 62
     0
440
 16777216
100
AcDbPoint
 10
380.216251418967
 20
442.3489651327008
 30
0.0
  0
ENDBLK
  5
25CD
330
25CB
100
AcDbEntity
  8
0
100
AcDbBlockEnd
  0
BLOCK
  5
26AF
330
26AE
100
AcDbEntity
  8
0
100
AcDbBlockBegin
  2
Pozice2
 70
     0
 10
0.0
 20
0.0
 30
0.0
  3
Pozice2
  1

  0
LINE
  5
26B1
330
26AE
100
AcDbEntity
  8
Značka (ISO)
100
AcDbLine
 10
178.2755929081623
 20
355.4322624757109
 30
0.0
 11
175.8607783424396
 21
356.0793100884672
 31
0.0
  0
POLYLINE
  5
26B2
330
26AE
100
AcDbEntity
  8
Značka (ISO)
100
AcDb2dPolyline
 66
     1
 10
0.0
 20
0.0
 30
0.0
 70
   128
  0
VERTEX
  5
26B3
330
26B2
100
AcDbEntity
  8
Značka (ISO)
100
AcDbVertex
100
AcDb2dVertex
 10
178.4049987792968
 20
355.9152221679688
 30
0.0
  0
VERTEX
  5
26B4
330
26B2
100
AcDbEntity
  8
Značka (ISO)
100
AcDbVertex
100
AcDb2dVertex
 10
175.8607864379882
 20
356.0792922973633
 30
0.0
  0
VERTEX
  5
26B6
330
26B2
100
AcDbEntity
  8
Značka (ISO)
100
AcDbVertex
100
AcDb2dVertex
 10
178.1461906433105
 20
354.9493026733399
 30
0.0
  0
VERTEX
  5
26B7
330
26B2
100
AcDbEntity
  8
Značka (ISO)
100
AcDbVertex
100
AcDb2dVertex
 10
178.4049987792968
 20
355.9152221679688
 30
0.0
  0
SEQEND
  5
26B5
330
26B2
100
AcDbEntity
  8
Značka (ISO)
  0
SOLID
  5
26B8
330
26AE
100
AcDbEntity
  8
Značka (ISO)
100
AcDbTrace
 10
178.4049987792968
 20
355.9152221679688
 30
0.0
 11
175.8607864379882
 21
356.0792922973633
 31
0.0
 12
178.1461906433105
 22
354.9493026733399
 32
0.0
 13
178.4049987792968
 23
355.9152221679688
 33
0.0
  0
LINE
  5
26B9
330
26AE
100
AcDbEntity
  8
Značka (ISO)
100
AcDbLine
 10
178.4050024307135
 20
355.9152253888555
 30
0.0
 11
175.8607783424396
 21
356.0793100884672
 31
0.0
  0
LINE
  5
26BA
330
26AE
100
AcDbEntity
  8
Značka (ISO)
100
AcDbLine
 10
175.8607783424396
 20
356.0793100884672
 30
0.0
 11
178.146183385611
 21
354.9492995625664
 31
0.0
  0
LINE
  5
26BB
330
26AE
100
AcDbEntity
  8
Značka (ISO)
100
AcDbLine
 10
178.146183385611
 20
354.9492995625664
 30
0.0
 11
178.4050024307135
 21
355.9152253888555
 31
0.0
  0
LINE
  5
26BC
330
26AE
100
AcDbEntity
  8
Značka (ISO)
100
AcDbLine
 10
178.2755929081623
 20
355.4322624757109
 30
0.0
 11
200.5561560868016
 21
349.4622035650851
 31
0.0
  0
MTEXT
  5
26BD
330
26AE
100
AcDbEntity
  8
Značka (ISO)
100
AcDbMText
 10
208.4311557291737
 20
356.2459348235594
 30
0.0
 40
5.24999976158142
 41
0.0
 71
     5
 72
     1
  1
3
  7
Text popisu (ISO)
 73
     1
 44
1.0
  0
LINE
  5
26BE
330
26AE
100
AcDbEntity
  8
Značka (ISO)
100
AcDbLine
 10
200.5561560868016
 20
349.4622035650851
 30
0.0
 11
216.3061553715458
 21
349.4622035650851
 31
0.0
  0
ENDBLK
  5
26B0
330
26AE
100
AcDbEntity
  8
0
100
AcDbBlockEnd
  0
BLOCK
  5
26C1
330
26C0
100
AcDbEntity
  8
0
100
AcDbBlockBegin
  2
Pozice3
 70
     0
 10
0.0
 20
0.0
 30
0.0
  3
Pozice3
  1

  0
LINE
  5
26C3
330
26C0
100
AcDbEntity
  8
Značka (ISO)
100
AcDbLine
 10
223.9936860318184
 20
298.1010618959672
 30
0.0
 11
222.3326585168769
 21
296.2326434218006
 31
0.0
  0
POLYLINE
  5
26C4
330
26C0
100
AcDbEntity
  8
Značka (ISO)
100
AcDb2dPolyline
 66
     1
 10
0.0
 20
0.0
 30
0.0
 70
   128
  0
VERTEX
  5
26C5
330
26C4
100
AcDbEntity
  8
Značka (ISO)
100
AcDbVertex
100
AcDb2dVertex
 10
223.6199951171875
 20
298.4332656860352
 30
0.0
  0
VERTEX
  5
26C6
330
26C4
100
AcDbEntity
  8
Značka (ISO)
100
AcDbVertex
100
AcDb2dVertex
 10
222.3326492309571
 20
296.2326431274414
 30
0.0
  0
VERTEX
  5
26C8
330
26C4
100
AcDbEntity
  8
Značka (ISO)
100
AcDbVertex
100
AcDb2dVertex
 10
224.3673706054686
 20
297.7688598632813
 30
0.0
  0
VERTEX
  5
26C9
330
26C4
100
AcDbEntity
  8
Značka (ISO)
100
AcDbVertex
100
AcDb2dVertex
 10
223.6199951171875
 20
298.4332656860352
 30
0.0
  0
SEQEND
  5
26C7
330
26C4
100
AcDbEntity
  8
Značka (ISO)
  0
SOLID
  5
26CA
330
26C0
100
AcDbEntity
  8
Značka (ISO)
100
AcDbTrace
 10
223.6199951171875
 20
298.4332656860352
 30
0.0
 11
222.3326492309571
 21
296.2326431274414
 31
0.0
 12
224.3673706054686
 22
297.7688598632813
 32
0.0
 13
223.6199951171875
 23
298.4332656860352
 33
0.0
  0
LINE
  5
26CB
330
26C0
100
AcDbEntity
  8
Značka (ISO)
100
AcDbLine
 10
223.6200023369851
 20
298.4332673989555
 30
0.0
 11
222.3326585168769
 21
296.2326434218006
 31
0.0
  0
LINE
  5
26CC
330
26C0
100
AcDbEntity
  8
Značka (ISO)
100
AcDbLine
 10
222.3326585168769
 20
296.2326434218006
 30
0.0
 11
224.3673697266517
 21
297.7688563929789
 31
0.0
  0
LINE
  5
26CD
330
26C0
100
AcDbEntity
  8
Značka (ISO)
100
AcDbLine
 10
224.3673697266517
 20
297.7688563929789
 30
0.0
 11
223.6200023369851
 21
298.4332673989555
 31
0.0
  0
LINE
  5
26CE
330
26C0
100
AcDbEntity
  8
Značka (ISO)
100
AcDbLine
 10
223.9936860318184
 20
298.1010618959672
 30
0.0
 11
231.1388347156819
 21
306.1383326103345
 31
0.0
  0
MTEXT
  5
26CF
330
26C0
100
AcDbEntity
  8
Značka (ISO)
100
AcDbMText
 10
239.013834358054
 20
312.7561400582448
 30
0.0
 40
5.24999976158142
 41
0.0
 71
     5
 72
     1
  1
2
  7
Text popisu (ISO)
 73
     1
 44
1.0
  0
LINE
  5
26D0
330
26C0
100
AcDbEntity
  8
Značka (ISO)
100
AcDbLine
 10
231.1388347156819
 20
306.1383326103345
 30
0.0
 11
246.8888340004261
 21
306.1383326103345
 31
0.0
  0
ENDBLK
  5
26C2
330
26C0
100
AcDbEntity
  8
0
100
AcDbBlockEnd
  0
BLOCK
  5
26D5
330
26D4
100
AcDbEntity
  8
0
100
AcDbBlockBegin
  2
Pozice4
 70
     0
 10
0.0
 20
0.0
 30
0.0
  3
Pozice4
  1

  0
LINE
  5
26D7
330
26D4
100
AcDbEntity
  8
Značka (ISO)
100
AcDbLine
 10
190.9851097913443
 20
374.5328391230098
 30
0.0
 11
189.0575991713251
 21
372.940764121726
 31
0.0
  0
POLYLINE
  5
26D8
330
26D4
100
AcDbEntity
  8
Značka (ISO)
100
AcDb2dPolyline
 66
     1
 10
0.0
 20
0.0
 30
0.0
 70
   128
  0
VERTEX
  5
26D9
330
26D8
100
AcDbEntity
  8
Značka (ISO)
100
AcDbVertex
100
AcDb2dVertex
 10
190.6666946411132
 20
374.918327331543
 30
0.0
  0
VERTEX
  5
26DA
330
26D8
100
AcDbEntity
  8
Značka (ISO)
100
AcDbVertex
100
AcDb2dVertex
 10
189.0575981140137
 20
372.9407501220703
 30
0.0
  0
VERTEX
  5
26DC
330
26D8
100
AcDbEntity
  8
Značka (ISO)
100
AcDbVertex
100
AcDb2dVertex
 10
191.3035202026367
 20
374.1473388671875
 30
0.0
  0
VERTEX
  5
26DD
330
26D8
100
AcDbEntity
  8
Značka (ISO)
100
AcDbVertex
100
AcDb2dVertex
 10
190.6666946411132
 20
374.918327331543
 30
0.0
  0
SEQEND
  5
26DB
330
26D8
100
AcDbEntity
  8
Značka (ISO)
  0
SOLID
  5
26DE
330
26D4
100
AcDbEntity
  8
Značka (ISO)
100
AcDbTrace
 10
190.6666946411132
 20
374.918327331543
 30
0.0
 11
189.0575981140137
 21
372.9407501220703
 31
0.0
 12
191.3035202026367
 22
374.1473388671875
 32
0.0
 13
190.6666946411132
 23
374.918327331543
 33
0.0
  0
LINE
  5
26DF
330
26D4
100
AcDbEntity
  8
Značka (ISO)
100
AcDbLine
 10
190.6666947910876
 20
374.9183412470137
 30
0.0
 11
189.0575991713251
 21
372.940764121726
 31
0.0
  0
LINE
  5
26E0
330
26D4
100
AcDbEntity
  8
Značka (ISO)
100
AcDbLine
 10
189.0575991713251
 20
372.940764121726
 30
0.0
 11
191.3035247916011
 21
374.147336999006
 31
0.0
  0
LINE
  5
26E1
330
26D4
100
AcDbEntity
  8
Značka (ISO)
100
AcDbLine
 10
191.3035247916011
 20
374.147336999006
 30
0.0
 11
190.6666947910876
 21
374.9183412470137
 31
0.0
  0
LINE
  5
26E2
330
26D4
100
AcDbEntity
  8
Značka (ISO)
100
AcDbLine
 10
190.9851097913443
 20
374.5328391230098
 30
0.0
 11
204.0854760407036
 21
385.3534101728643
 31
0.0
  0
MTEXT
  5
26E3
330
26D4
100
AcDbEntity
  8
Značka (ISO)
100
AcDbMText
 10
211.9604756830758
 20
391.9159098748411
 30
0.0
 40
5.24999976158142
 41
0.0
 71
     5
 72
     1
  1
4
  7
Text popisu (ISO)
 73
     1
 44
1.0
  0
LINE
  5
26E4
330
26D4
100
AcDbEntity
  8
Značka (ISO)
100
AcDbLine
 10
204.0854760407036
 20
385.3534101728643
 30
0.0
 11
219.8354753254479
 21
385.3534101728643
 31
0.0
  0
ENDBLK
  5
26D6
330
26D4
100
AcDbEntity
  8
0
100
AcDbBlockEnd
  0
BLOCK
  5
26E7
330
26E6
100
AcDbEntity
  8
0
100
AcDbBlockBegin
  2
Pozice5
 70
     0
 10
0.0
 20
0.0
 30
0.0
  3
Pozice5
  1

  0
LINE
  5
26E9
330
26E6
100
AcDbEntity
  8
Značka (ISO)
100
AcDbLine
 10
133.0379801174151
 20
362.9807913208563
 30
0.0
 11
132.3909325046582
 21
360.5659767551338
 31
0.0
  0
POLYLINE
  5
26EA
330
26E6
100
AcDbEntity
  8
Značka (ISO)
100
AcDb2dPolyline
 66
     1
 10
0.0
 20
0.0
 30
0.0
 70
   128
  0
VERTEX
  5
26EB
330
26EA
100
AcDbEntity
  8
Značka (ISO)
100
AcDbVertex
100
AcDb2dVertex
 10
132.5550174713135
 20
363.1101989746094
 30
0.0
  0
VERTEX
  5
26EC
330
26EA
100
AcDbEntity
  8
Značka (ISO)
100
AcDbVertex
100
AcDb2dVertex
 10
132.3909282684326
 20
360.5659866333008
 30
0.0
  0
VERTEX
  5
26EE
330
26EA
100
AcDbEntity
  8
Značka (ISO)
100
AcDbVertex
100
AcDb2dVertex
 10
133.5209465026855
 20
362.8513717651367
 30
0.0
  0
VERTEX
  5
26EF
330
26EA
100
AcDbEntity
  8
Značka (ISO)
100
AcDbVertex
100
AcDb2dVertex
 10
132.5550174713135
 20
363.1101989746094
 30
0.0
  0
SEQEND
  5
26ED
330
26EA
100
AcDbEntity
  8
Značka (ISO)
  0
SOLID
  5
26F0
330
26E6
100
AcDbEntity
  8
Značka (ISO)
100
AcDbTrace
 10
132.5550174713135
 20
363.1101989746094
 30
0.0
 11
132.3909282684326
 21
360.5659866333008
 31
0.0
 12
133.5209465026855
 22
362.8513717651367
 32
0.0
 13
132.5550174713135
 23
363.1101989746094
 33
0.0
  0
LINE
  5
26F1
330
26E6
100
AcDbEntity
  8
Značka (ISO)
100
AcDbLine
 10
132.5550172042706
 20
363.1102008434077
 30
0.0
 11
132.3909325046582
 21
360.5659767551338
 31
0.0
  0
LINE
  5
26F2
330
26E6
100
AcDbEntity
  8
Značka (ISO)
100
AcDbLine
 10
132.3909325046582
 20
360.5659767551338
 30
0.0
 11
133.5209430305596
 21
362.8513817983049
 31
0.0
  0
LINE
  5
26F3
330
26E6
100
AcDbEntity
  8
Značka (ISO)
100
AcDbLine
 10
133.5209430305596
 20
362.8513817983049
 30
0.0
 11
132.5550172042706
 21
363.1102008434077
 31
0.0
  0
LINE
  5
26F4
330
26E6
100
AcDbEntity
  8
Značka (ISO)
100
AcDbLine
 10
133.0379801174151
 20
362.9807913208563
 30
0.0
 11
140.185175299722
 21
389.6544868728108
 31
0.0
  0
MTEXT
  5
26F5
330
26E6
100
AcDbEntity
  8
Značka (ISO)
100
AcDbMText
 10
148.0601749420941
 20
396.3829103853515
 30
0.0
 40
5.24999976158142
 41
0.0
 71
     5
 72
     1
  1
5
  7
Text popisu (ISO)
 73
     1
 44
1.0
  0
LINE
  5
26F6
330
26E6
100
AcDbEntity
  8
Značka (ISO)
100
AcDbLine
 10
140.185175299722
 20
389.6544868728108
 30
0.0
 11
155.9351745844663
 21
389.6544868728108
 31
0.0
  0
MTEXT
  5
26F7
330
26E6
100
AcDbEntity
  8
Značka (ISO)
100
AcDbMText
 10
163.8101742268384
 20
396.4318365599922
 30
0.0
 40
5.24999976158142
 41
0.0
 71
     5
 72
     1
  1
6
  7
Text popisu (ISO)
 73
     1
 44
1.0
  0
LINE
  5
26F8
330
26E6
100
AcDbEntity
  8
Značka (ISO)
100
AcDbLine
 10
155.9351745844663
 20
389.6544868728108
 30
0.0
 11
157.5101745129407
 21
388.0794869443363
 31
0.0
  0
LINE
  5
26F9
330
26E6
100
AcDbEntity
  8
Značka (ISO)
100
AcDbLine
 10
157.5101745129407
 20
388.0794869443363
 30
0.0
 11
159.0851744414151
 21
389.6544868728108
 31
0.0
  0
LINE
  5
26FA
330
26E6
100
AcDbEntity
  8
Značka (ISO)
100
AcDbLine
 10
159.0851744414151
 20
389.6544868728108
 30
0.0
 11
171.6851738692105
 21
389.6544868728108
 31
0.0
  0
ENDBLK
  5
26E8
330
26E6
100
AcDbEntity
  8
0
100
AcDbBlockEnd
  0
BLOCK
  5
26FD
330
26FC
100
AcDbEntity
  8
0
100
AcDbBlockBegin
  2
HISTORIE REVIZÍ
 70
     0
 10
0.0
 20
0.0
 30
0.0
  3
HISTORIE REVIZÍ
  1

  0
LINE
  5
26FF
330
26FC
100
AcDbEntity
  8
Značka (ISO)
100
AcDbLine
 10
473.0300455866198
 20
410.0
 30
0.0
 11
584.0000152587889
 21
410.0
 31
0.0
  0
LINE
  5
2700
330
26FC
100
AcDbEntity
  8
Značka (ISO)
100
AcDbLine
 10
473.0300455866198
 20
410.0
 30
0.0
 11
473.0300455866198
 21
404.7200000596046
 31
0.0
  0
LINE
  5
2701
330
26FC
100
AcDbEntity
  8
Značka (ISO)
100
AcDbLine
 10
584.0000152587889
 20
410.0
 30
0.0
 11
584.0000152587889
 21
404.7200000596046
 31
0.0
  0
MTEXT
  5
2702
102
{ACAD_XDICTIONARY
360
2DB6
102
}
330
26FC
100
AcDbEntity
  8
Značka (ISO)
100
AcDbMText
 10
509.9794963109915
 20
404.9151053364761
 30
0.0
 40
3.499999940395355
 41
0.0
 71
     7
 72
     1
  1
HISTORIE REVIZ\U+00CD
  7
Text poznámky (ISO)
 73
     1
 44
1.0
  0
LINE
  5
2703
330
26FC
100
AcDbEntity
  8
Značka (ISO)
100
AcDbLine
 10
473.0300455866198
 20
404.7200000596046
 30
0.0
 11
584.0000152587889
 21
404.7200000596046
 31
0.0
  0
LINE
  5
2704
330
26FC
100
AcDbEntity
  8
Značka (ISO)
100
AcDbLine
 10
473.0300455866198
 20
404.7200000596046
 30
0.0
 11
473.0300455866198
 21
399.4400001192094
 31
0.0
  0
MTEXT
  5
2705
330
26FC
100
AcDbEntity
  8
Značka (ISO)
100
AcDbMText
 10
474.2700464766616
 20
400.3299999701976
 30
0.0
 40
3.499999940395355
 41
0.0
 71
     7
 72
     1
  1
REV
  7
Text poznámky (ISO)
 73
     1
 44
1.0
  0
LINE
  5
2706
330
26FC
100
AcDbEntity
  8
Značka (ISO)
100
AcDbLine
 10
483.4097214804033
 20
404.7200000596046
 30
0.0
 11
483.4097214804033
 21
399.4400001192094
 31
0.0
  0
MTEXT
  5
2707
330
26FC
100
AcDbEntity
  8
Značka (ISO)
100
AcDbMText
 10
507.4047304952566
 20
400.2562561281211
 30
0.0
 40
3.499999940395355
 41
0.0
 71
     7
 72
     1
  1
POPIS
  7
Text poznámky (ISO)
 73
     1
 44
1.0
  0
LINE
  5
2708
330
26FC
100
AcDbEntity
  8
Značka (ISO)
100
AcDbLine
 10
543.8913912200927
 20
404.7200000596046
 30
0.0
 11
543.8913912200927
 21
399.4400001192094
 31
0.0
  0
MTEXT
  5
2709
330
26FC
100
AcDbEntity
  8
Značka (ISO)
100
AcDbMText
 10
547.8670086748851
 20
400.2931280084141
 30
0.0
 40
3.499999940395355
 41
0.0
 71
     7
 72
     1
  1
DATUM
  7
Text poznámky (ISO)
 73
     1
 44
1.0
  0
LINE
  5
270A
330
26FC
100
AcDbEntity
  8
Značka (ISO)
100
AcDbLine
 10
566.972040863037
 20
404.7200000596046
 30
0.0
 11
566.972040863037
 21
399.4400001192094
 31
0.0
  0
MTEXT
  5
270B
330
26FC
100
AcDbEntity
  8
Značka (ISO)
100
AcDbMText
 10
567.8396408060742
 20
400.2562561281211
 30
0.0
 40
3.499999940395355
 41
0.0
 71
     7
 72
     1
  1
AUTOR
  7
Text poznámky (ISO)
 73
     1
 44
1.0
  0
LINE
  5
270C
330
26FC
100
AcDbEntity
  8
Značka (ISO)
100
AcDbLine
 10
584.0000152587889
 20
404.7200000596046
 30
0.0
 11
584.0000152587889
 21
399.4400001192094
 31
0.0
  0
MTEXT
  5
270D
330
26FC
100
AcDbEntity
  8
Značka (ISO)
100
AcDbMText
 10
474.4734566158333
 20
394.9776743312367
 30
0.0
 40
3.499999940395355
 41
0.0
 71
     7
 72
     1
  1
001
  7
Text poznámky (ISO)
 73
     1
 44
1.0
  0
MTEXT
  5
270E
102
{ACAD_XDICTIONARY
360
2DB8
102
}
330
26FC
100
AcDbEntity
  8
Značka (ISO)
100
AcDbMText
 10
489.1755050565332
 20
394.4501215994359
 30
0.0
 40
3.499999940395355
 41
0.0
 71
     7
 72
     1
  1
Odebr\U+00E1n excentr 98/75
  7
Text poznámky (ISO)
 73
     1
 44
1.0
  0
MTEXT
  5
270F
330
26FC
100
AcDbEntity
  8
Značka (ISO)
100
AcDbMText
 10
545.0053917897195
 20
394.9762561877259
 30
0.0
 40
3.499999940395355
 41
0.0
 71
     7
 72
     1
  1
31.1.2011
  7
Text poznámky (ISO)
 73
     1
 44
1.0
  0
MTEXT
  5
2710
330
26FC
100
AcDbEntity
  8
Značka (ISO)
100
AcDbMText
 10
567.9124409912032
 20
394.9351297278889
 30
0.0
 40
3.499999940395355
 41
0.0
 71
     7
 72
     1
  1
tmrtka
  7
Text poznámky (ISO)
 73
     1
 44
1.0
  0
LINE
  5
2711
330
26FC
100
AcDbEntity
  8
Značka (ISO)
100
AcDbLine
 10
473.0300455866198
 20
399.4400001192094
 30
0.0
 11
584.0000152587889
 21
399.4400001192094
 31
0.0
  0
LINE
  5
2712
330
26FC
100
AcDbEntity
  8
Značka (ISO)
100
AcDbLine
 10
473.0300455866198
 20
394.160000178814
 30
0.0
 11
584.0000152587889
 21
394.160000178814
 31
0.0
  0
LINE
  5
2713
330
26FC
100
AcDbEntity
  8
Značka (ISO)
100
AcDbLine
 10
473.0300455866198
 20
399.4400001192094
 30
0.0
 11
473.0300455866198
 21
394.160000178814
 31
0.0
  0
LINE
  5
2714
330
26FC
100
AcDbEntity
  8
Značka (ISO)
100
AcDbLine
 10
483.4097214804033
 20
399.4400001192094
 30
0.0
 11
483.4097214804033
 21
394.160000178814
 31
0.0
  0
LINE
  5
2715
330
26FC
100
AcDbEntity
  8
Značka (ISO)
100
AcDbLine
 10
543.8913912200927
 20
399.4400001192094
 30
0.0
 11
543.8913912200927
 21
394.160000178814
 31
0.0
  0
LINE
  5
2716
330
26FC
100
AcDbEntity
  8
Značka (ISO)
100
AcDbLine
 10
566.972040863037
 20
399.4400001192094
 30
0.0
 11
566.972040863037
 21
394.160000178814
 31
0.0
  0
LINE
  5
2717
330
26FC
100
AcDbEntity
  8
Značka (ISO)
100
AcDbLine
 10
584.0000152587889
 20
399.4400001192094
 30
0.0
 11
584.0000152587889
 21
394.160000178814
 31
0.0
  0
ENDBLK
  5
26FE
330
26FC
100
AcDbEntity
  8
0
100
AcDbBlockEnd
  0
BLOCK
  5
27F1
330
27EF
100
AcDbEntity
  8
0
100
AcDbBlockBegin
  2
GENAXEH
 70
     0
 10
0.0
 20
0.0
 30
0.0
  3
GENAXEH
  1

  0
LINE
  5
27F0
330
27EF
100
AcDbEntity
  8
0
100
AcDbLine
 10
-1.0
 20
0.0
 30
0.0
 11
1.0
 21
0.0
 31
0.0
  0
ENDBLK
  5
27F2
330
27EF
100
AcDbEntity
  8
0
100
AcDbBlockEnd
  0
BLOCK
  5
2815
330
2814
100
AcDbEntity
  8
0
100
AcDbBlockBegin
  2
*D30
 70
     1
 10
0.0
 20
0.0
 30
0.0
  3
*D30
  1

  0
LINE
  5
2816
330
2814
100
AcDbEntity
  8
5
370
    -2
100
AcDbLine
 10
210.189710020923
 20
384.6645528637292
 30
0.0
 11
210.189710020923
 21
412.9626457198456
 31
0.0
  0
LINE
  5
2817
330
2814
100
AcDbEntity
  8
5
370
    -2
100
AcDbLine
 10
46.18971002092297
 20
384.6645528637291
 30
0.0
 11
46.18971002092297
 21
412.9626457198456
 31
0.0
  0
LINE
  5
2818
330
2814
100
AcDbEntity
  8
5
370
    -2
100
AcDbLine
 10
205.189710020923
 20
410.9626457198455
 30
0.0
 11
51.18971002092298
 21
410.9626457198455
 31
0.0
  0
SOLID
  5
2819
330
2814
100
AcDbEntity
  8
5
100
AcDbTrace
 10
205.189710020923
 20
411.7959790531789
 30
0.0
 11
205.189710020923
 21
410.1293123865121
 31
0.0
 12
210.189710020923
 22
410.9626457198455
 32
0.0
 13
210.189710020923
 23
410.9626457198455
 33
0.0
  0
SOLID
  5
281A
330
2814
100
AcDbEntity
  8
5
100
AcDbTrace
 10
51.18971002092298
 20
411.7959790531789
 30
0.0
 11
51.18971002092298
 21
410.1293123865121
 31
0.0
 12
46.18971002092297
 22
410.9626457198455
 32
0.0
 13
46.18971002092297
 23
410.9626457198455
 33
0.0
  0
MTEXT
  5
281B
330
2814
100
AcDbEntity
  8
5
 62
     7
100
AcDbMText
 10
128.189710020923
 20
420.1404831946608
 30
0.0
 40
14.0
 41
0.0
 71
     5
 72
     1
  1
%%c164
 73
     1
 44
1.0
  0
POINT
  5
281C
330
2814
100
AcDbEntity
  8
Defpoints
 62
     0
100
AcDbPoint
 10
210.189710020923
 20
382.6645528637292
 30
0.0
  0
POINT
  5
281D
330
2814
100
AcDbEntity
  8
Defpoints
 62
     0
100
AcDbPoint
 10
46.18971002092297
 20
382.6645528637291
 30
0.0
  0
POINT
  5
281E
330
2814
100
AcDbEntity
  8
Defpoints
 62
     0
100
AcDbPoint
 10
46.18971002092297
 20
410.9626457198455
 30
0.0
  0
ENDBLK
  5
281F
330
2814
100
AcDbEntity
  8
0
100
AcDbBlockEnd
  0
BLOCK
  5
2821
330
2820
100
AcDbEntity
  8
0
100
AcDbBlockBegin
  2
*D31
 70
     1
 10
0.0
 20
0.0
 30
0.0
  3
*D31
  1

  0
LINE
  5
2822
330
2820
100
AcDbEntity
  8
5
370
    -2
100
AcDbLine
 10
199.439710020923
 20
336.909704663739
 30
0.0
 11
199.439710020923
 21
252.2311734848925
 31
0.0
  0
LINE
  5
2823
330
2820
100
AcDbEntity
  8
5
370
    -2
100
AcDbLine
 10
56.939710020923
 20
289.9532757847305
 30
0.0
 11
56.939710020923
 21
252.2311734848925
 31
0.0
  0
LINE
  5
2824
330
2820
100
AcDbEntity
  8
5
370
    -2
100
AcDbLine
 10
194.439710020923
 20
254.2311734848925
 30
0.0
 11
61.939710020923
 21
254.2311734848925
 31
0.0
  0
SOLID
  5
2825
330
2820
100
AcDbEntity
  8
5
100
AcDbTrace
 10
194.439710020923
 20
255.0645068182259
 30
0.0
 11
194.439710020923
 21
253.3978401515592
 31
0.0
 12
199.439710020923
 22
254.2311734848925
 32
0.0
 13
199.439710020923
 23
254.2311734848925
 33
0.0
  0
SOLID
  5
2826
330
2820
100
AcDbEntity
  8
5
100
AcDbTrace
 10
61.939710020923
 20
255.0645068182259
 30
0.0
 11
61.939710020923
 21
253.3978401515592
 31
0.0
 12
56.939710020923
 22
254.2311734848925
 32
0.0
 13
56.939710020923
 23
254.2311734848925
 33
0.0
  0
MTEXT
  5
2827
330
2820
100
AcDbEntity
  8
5
 62
     7
100
AcDbMText
 10
128.189710020923
 20
262.5769088777736
 30
0.0
 40
14.0
 41
0.0
 71
     5
 72
     1
  1
142
 73
     1
 44
1.0
  0
POINT
  5
2828
330
2820
100
AcDbEntity
  8
Defpoints
 62
     0
100
AcDbPoint
 10
199.439710020923
 20
338.909704663739
 30
0.0
  0
POINT
  5
2829
330
2820
100
AcDbEntity
  8
Defpoints
 62
     0
100
AcDbPoint
 10
56.939710020923
 20
291.9532757847305
 30
0.0
  0
POINT
  5
282A
330
2820
100
AcDbEntity
  8
Defpoints
 62
     0
100
AcDbPoint
 10
56.939710020923
 20
254.2311734848925
 30
0.0
  0
ENDBLK
  5
282B
330
2820
100
AcDbEntity
  8
0
100
AcDbBlockEnd
  0
BLOCK
  5
282D
330
282C
100
AcDbEntity
  8
0
100
AcDbBlockBegin
  2
*D32
 70
     1
 10
0.0
 20
0.0
 30
0.0
  3
*D32
  1

  0
LINE
  5
282E
330
282C
100
AcDbEntity
  8
5
370
    -2
100
AcDbLine
 10
278.689710020923
 20
266.6647169741374
 30
0.0
 11
278.689710020923
 21
234.016847792112
 31
0.0
  0
LINE
  5
282F
330
282C
100
AcDbEntity
  8
5
370
    -2
100
AcDbLine
 10
128.189710020923
 20
246.237270872276
 30
0.0
 11
128.189710020923
 21
234.016847792112
 31
0.0
  0
LINE
  5
2830
330
282C
100
AcDbEntity
  8
5
370
    -2
100
AcDbLine
 10
273.689710020923
 20
236.016847792112
 30
0.0
 11
133.1897100209229
 21
236.016847792112
 31
0.0
  0
SOLID
  5
2831
330
282C
100
AcDbEntity
  8
5
100
AcDbTrace
 10
273.689710020923
 20
236.8501811254454
 30
0.0
 11
273.689710020923
 21
235.1835144587786
 31
0.0
 12
278.689710020923
 22
236.016847792112
 32
0.0
 13
278.689710020923
 23
236.016847792112
 33
0.0
  0
SOLID
  5
2832
330
282C
100
AcDbEntity
  8
5
100
AcDbTrace
 10
133.1897100209229
 20
236.8501811254454
 30
0.0
 11
133.1897100209229
 21
235.1835144587786
 31
0.0
 12
128.189710020923
 22
236.016847792112
 32
0.0
 13
128.189710020923
 23
236.016847792112
 33
0.0
  0
MTEXT
  5
2833
330
282C
100
AcDbEntity
  8
5
 62
     7
100
AcDbMText
 10
203.439710020923
 20
244.3860888935224
 30
0.0
 40
14.0
 41
0.0
 71
     5
 72
     1
  1
151
 73
     1
 44
1.0
  0
POINT
  5
2834
330
282C
100
AcDbEntity
  8
Defpoints
 62
     0
100
AcDbPoint
 10
278.689710020923
 20
268.6647169741374
 30
0.0
  0
POINT
  5
2835
330
282C
100
AcDbEntity
  8
Defpoints
 62
     0
100
AcDbPoint
 10
128.189710020923
 20
248.237270872276
 30
0.0
  0
POINT
  5
2836
330
282C
100
AcDbEntity
  8
Defpoints
 62
     0
100
AcDbPoint
 10
128.189710020923
 20
236.016847792112
 30
0.0
  0
ENDBLK
  5
2837
330
282C
100
AcDbEntity
  8
0
100
AcDbBlockEnd
  0
BLOCK
  5
2839
330
2838
100
AcDbEntity
  8
0
100
AcDbBlockBegin
  2
*D33
 70
     1
 10
0.0
 20
0.0
 30
0.0
  3
*D33
  1

  0
LINE
  5
283A
330
2838
100
AcDbEntity
  8
5
370
    -2
100
AcDbLine
 10
270.689710020923
 20
342.6597046637391
 30
0.0
 11
308.9623291161493
 21
342.6597046637391
 31
0.0
  0
LINE
  5
283B
330
2838
100
AcDbEntity
  8
5
370
    -2
100
AcDbLine
 10
270.689710020923
 20
267.6597046637391
 30
0.0
 11
308.9623291161493
 21
267.6597046637391
 31
0.0
  0
LINE
  5
283C
330
2838
100
AcDbEntity
  8
5
370
    -2
100
AcDbLine
 10
306.9623291161493
 20
337.6597046637392
 30
0.0
 11
306.9623291161493
 21
272.6597046637391
 31
0.0
  0
SOLID
  5
283D
330
2838
100
AcDbEntity
  8
5
100
AcDbTrace
 10
306.128995782816
 20
337.6597046637392
 30
0.0
 11
307.7956624494826
 21
337.6597046637392
 31
0.0
 12
306.9623291161493
 22
342.6597046637391
 32
0.0
 13
306.9623291161493
 23
342.6597046637391
 33
0.0
  0
SOLID
  5
283E
330
2838
100
AcDbEntity
  8
5
100
AcDbTrace
 10
306.128995782816
 20
272.6597046637391
 30
0.0
 11
307.7956624494826
 21
272.6597046637391
 31
0.0
 12
306.9623291161493
 22
267.6597046637391
 32
0.0
 13
306.9623291161493
 23
267.6597046637391
 33
0.0
  0
MTEXT
  5
283F
330
2838
100
AcDbEntity
  8
5
 62
     7
100
AcDbMText
 10
297.784491641334
 20
305.1597046637391
 30
0.0
 40
14.0
 41
0.0
 71
     5
 72
     1
  1
%%c75
 11
0.0000000000000001
 21
1.0
 31
0.0
 73
     1
 44
1.0
  0
POINT
  5
2840
330
2838
100
AcDbEntity
  8
Defpoints
 62
     0
100
AcDbPoint
 10
268.689710020923
 20
342.6597046637391
 30
0.0
  0
POINT
  5
2841
330
2838
100
AcDbEntity
  8
Defpoints
 62
     0
100
AcDbPoint
 10
268.689710020923
 20
267.6597046637391
 30
0.0
  0
POINT
  5
2842
330
2838
100
AcDbEntity
  8
Defpoints
 62
     0
100
AcDbPoint
 10
306.9623291161493
 20
267.6597046637391
 30
0.0
  0
ENDBLK
  5
2843
330
2838
100
AcDbEntity
  8
0
100
AcDbBlockEnd
  0
BLOCK
  5
2845
330
2844
100
AcDbEntity
  8
0
100
AcDbBlockBegin
  2
*D34
 70
     1
 10
0.0
 20
0.0
 30
0.0
  3
*D34
  1

  0
LINE
  5
2846
330
2844
100
AcDbEntity
  8
5
370
    -2
100
AcDbLine
 10
44.18971002092296
 20
382.6645528637291
 30
0.0
 11
24.79781234757663
 21
382.6645528637291
 31
0.0
  0
LINE
  5
2847
330
2844
100
AcDbEntity
  8
5
370
    -2
100
AcDbLine
 10
83.16449748473393
 20
273.4097046637291
 30
0.0
 11
24.7978123475766
 21
273.4097046637291
 31
0.0
  0
LINE
  5
2848
330
2844
100
AcDbEntity
  8
5
370
    -2
100
AcDbLine
 10
26.79781234757662
 20
377.6645528637291
 30
0.0
 11
26.79781234757661
 21
278.4097046637291
 31
0.0
  0
SOLID
  5
2849
330
2844
100
AcDbEntity
  8
5
100
AcDbTrace
 10
25.96447901424329
 20
377.6645528637291
 30
0.0
 11
27.63114568090995
 21
377.6645528637291
 31
0.0
 12
26.79781234757662
 22
382.6645528637291
 32
0.0
 13
26.79781234757662
 23
382.6645528637291
 33
0.0
  0
SOLID
  5
284A
330
2844
100
AcDbEntity
  8
5
100
AcDbTrace
 10
25.96447901424327
 20
278.4097046637291
 30
0.0
 11
27.63114568090993
 21
278.4097046637291
 31
0.0
 12
26.79781234757661
 22
273.4097046637291
 32
0.0
 13
26.79781234757661
 23
273.4097046637291
 33
0.0
  0
MTEXT
  5
284B
330
2844
100
AcDbEntity
  8
5
 62
     7
100
AcDbMText
 10
18.31104270352014
 20
328.0371287637291
 30
0.0
 40
14.0
 41
0.0
 71
     5
 72
     1
  1
109
 11
0.0000000000000001
 21
1.0
 31
0.0
 73
     1
 44
1.0
  0
POINT
  5
284C
330
2844
100
AcDbEntity
  8
Defpoints
 62
     0
100
AcDbPoint
 10
46.18971002092297
 20
382.6645528637291
 30
0.0
  0
POINT
  5
284D
330
2844
100
AcDbEntity
  8
Defpoints
 62
     0
100
AcDbPoint
 10
85.16449748473389
 20
273.4097046637291
 30
0.0
  0
POINT
  5
284E
330
2844
100
AcDbEntity
  8
Defpoints
 62
     0
100
AcDbPoint
 10
26.79781234757661
 20
273.4097046637291
 30
0.0
  0
ENDBLK
  5
284F
330
2844
100
AcDbEntity
  8
0
100
AcDbBlockEnd
  0
BLOCK
  5
2851
330
2850
100
AcDbEntity
  8
0
100
AcDbBlockBegin
  2
*D35
 70
     1
 10
0.0
 20
0.0
 30
0.0
  3
*D35
  1

  0
LINE
  5
2852
330
2850
100
AcDbEntity
  8
5
370
    -2
100
AcDbLine
 10
270.689710020923
 20
267.6597046637391
 30
0.0
 11
353.5194822419617
 21
267.6597046637391
 31
0.0
  0
LINE
  5
2853
330
2850
100
AcDbEntity
  8
5
370
    -2
100
AcDbLine
 10
211.9854513458442
 20
382.6645528637291
 30
0.0
 11
353.5194822419617
 21
382.6645528637291
 31
0.0
  0
LINE
  5
2854
330
2850
100
AcDbEntity
  8
5
370
    -2
100
AcDbLine
 10
351.5194822419617
 20
272.6597046637391
 30
0.0
 11
351.5194822419617
 21
377.6645528637291
 31
0.0
  0
SOLID
  5
2855
330
2850
100
AcDbEntity
  8
5
100
AcDbTrace
 10
350.6861489086284
 20
272.6597046637391
 30
0.0
 11
352.352815575295
 21
272.6597046637391
 31
0.0
 12
351.5194822419617
 22
267.6597046637391
 32
0.0
 13
351.5194822419617
 23
267.6597046637391
 33
0.0
  0
SOLID
  5
2856
330
2850
100
AcDbEntity
  8
5
100
AcDbTrace
 10
350.6861489086284
 20
377.6645528637291
 30
0.0
 11
352.352815575295
 21
377.6645528637291
 31
0.0
 12
351.5194822419617
 22
382.6645528637291
 32
0.0
 13
351.5194822419617
 23
382.6645528637291
 33
0.0
  0
MTEXT
  5
2857
330
2850
100
AcDbEntity
  8
5
 62
     7
100
AcDbMText
 10
343.1502411405513
 20
325.1621287637342
 30
0.0
 40
14.0
 41
0.0
 71
     5
 72
     1
  1
115
 11
0.0000000000000001
 21
1.0
 31
0.0
 73
     1
 44
1.0
  0
POINT
  5
2858
330
2850
100
AcDbEntity
  8
Defpoints
 62
     0
100
AcDbPoint
 10
268.689710020923
 20
267.6597046637391
 30
0.0
  0
POINT
  5
2859
330
2850
100
AcDbEntity
  8
Defpoints
 62
     0
100
AcDbPoint
 10
209.9854513458442
 20
382.6645528637291
 30
0.0
  0
POINT
  5
285A
330
2850
100
AcDbEntity
  8
Defpoints
 62
     0
100
AcDbPoint
 10
351.5194822419617
 20
382.6645528637291
 30
0.0
  0
ENDBLK
  5
285B
330
2850
100
AcDbEntity
  8
0
100
AcDbBlockEnd
  0
BLOCK
  5
285D
330
285C
100
AcDbEntity
  8
0
100
AcDbBlockBegin
  2
*D36
 70
     1
 10
0.0
 20
0.0
 30
0.0
  3
*D36
  1

  0
LINE
  5
285E
330
285C
100
AcDbEntity
  8
5
370
    -2
100
AcDbLine
 10
212.189710020923
 20
382.6645528637291
 30
0.0
 11
331.6675054702606
 21
382.6645528637291
 31
0.0
  0
LINE
  5
285F
330
285C
100
AcDbEntity
  8
5
370
    -2
100
AcDbLine
 10
308.9623291161493
 20
305.159704663739
 30
0.0
 11
331.6675054702606
 21
305.159704663739
 31
0.0
  0
LINE
  5
2860
330
285C
100
AcDbEntity
  8
5
370
    -2
100
AcDbLine
 10
329.6675054702606
 20
377.6645528637291
 30
0.0
 11
329.6675054702606
 21
310.159704663739
 31
0.0
  0
SOLID
  5
2861
330
285C
100
AcDbEntity
  8
5
100
AcDbTrace
 10
328.8341721369272
 20
377.6645528637291
 30
0.0
 11
330.5008388035939
 21
377.6645528637291
 31
0.0
 12
329.6675054702606
 22
382.6645528637291
 32
0.0
 13
329.6675054702606
 23
382.6645528637291
 33
0.0
  0
SOLID
  5
2862
330
285C
100
AcDbEntity
  8
5
100
AcDbTrace
 10
328.8341721369272
 20
310.159704663739
 30
0.0
 11
330.5008388035939
 21
310.159704663739
 31
0.0
 12
329.6675054702606
 22
305.159704663739
 32
0.0
 13
329.6675054702606
 23
305.159704663739
 33
0.0
  0
MTEXT
  5
2863
330
285C
100
AcDbEntity
  8
5
 62
     7
100
AcDbMText
 10
321.4675054702605
 20
343.9121287637342
 30
0.0
 40
14.0
 41
0.0
 71
     5
 72
     1
  1
77
 11
0.0000000000000001
 21
1.0
 31
0.0
 73
     1
 44
1.0
  0
POINT
  5
2864
330
285C
100
AcDbEntity
  8
Defpoints
 62
     0
100
AcDbPoint
 10
210.189710020923
 20
382.6645528637291
 30
0.0
  0
POINT
  5
2865
330
285C
100
AcDbEntity
  8
Defpoints
 62
     0
100
AcDbPoint
 10
306.9623291161493
 20
305.159704663739
 30
0.0
  0
POINT
  5
2866
330
285C
100
AcDbEntity
  8
Defpoints
 62
     0
100
AcDbPoint
 10
329.6675054702606
 20
305.159704663739
 30
0.0
  0
ENDBLK
  5
2867
330
285C
100
AcDbEntity
  8
0
100
AcDbBlockEnd
  0
BLOCK
  5
2944
330
2943
100
AcDbEntity
  8
0
100
AcDbBlockBegin
  2
*D37
 70
     1
 10
0.0
 20
0.0
 30
0.0
  3
*D37
  1

  0
LINE
  5
2997
330
2943
100
AcDbEntity
  8
5
370
    -2
100
AcDbLine
 10
684.0882568458496
 20
463.4766456095118
 30
0.0
 11
684.0882568458496
 21
491.7747384656283
 31
0.0
  0
LINE
  5
2998
330
2943
100
AcDbEntity
  8
5
370
    -2
100
AcDbLine
 10
520.0882568458495
 20
463.4766456095118
 30
0.0
 11
520.0882568458495
 21
491.7747384656283
 31
0.0
  0
LINE
  5
2999
330
2943
100
AcDbEntity
  8
5
370
    -2
100
AcDbLine
 10
679.0882568458496
 20
489.7747384656282
 30
0.0
 11
525.0882568458495
 21
489.7747384656282
 31
0.0
  0
SOLID
  5
299A
330
2943
100
AcDbEntity
  8
5
100
AcDbTrace
 10
679.0882568458496
 20
490.6080717989616
 30
0.0
 11
679.0882568458496
 21
488.941405132295
 31
0.0
 12
684.0882568458496
 22
489.7747384656282
 32
0.0
 13
684.0882568458496
 23
489.7747384656282
 33
0.0
  0
SOLID
  5
299B
330
2943
100
AcDbEntity
  8
5
100
AcDbTrace
 10
525.0882568458495
 20
490.6080717989616
 30
0.0
 11
525.0882568458495
 21
488.941405132295
 31
0.0
 12
520.0882568458495
 22
489.7747384656282
 32
0.0
 13
520.0882568458495
 23
489.7747384656282
 33
0.0
  0
MTEXT
  5
299C
330
2943
100
AcDbEntity
  8
5
 62
     7
100
AcDbMText
 10
602.0882568458496
 20
498.9525759404436
 30
0.0
 40
14.0
 41
0.0
 71
     5
 72
     1
  1
%%c164
 73
     1
 44
1.0
  0
POINT
  5
299D
330
2943
100
AcDbEntity
  8
Defpoints
 62
     0
100
AcDbPoint
 10
684.0882568458496
 20
461.476645609512
 30
0.0
  0
POINT
  5
299E
330
2943
100
AcDbEntity
  8
Defpoints
 62
     0
100
AcDbPoint
 10
520.0882568458495
 20
461.4766456095118
 30
0.0
  0
POINT
  5
299F
330
2943
100
AcDbEntity
  8
Defpoints
 62
     0
100
AcDbPoint
 10
520.0882568458495
 20
489.7747384656282
 30
0.0
  0
ENDBLK
  5
2945
330
2943
100
AcDbEntity
  8
0
100
AcDbBlockEnd
  0
BLOCK
  5
2950
330
294F
100
AcDbEntity
  8
0
100
AcDbBlockBegin
  2
*D38
 70
     1
 10
0.0
 20
0.0
 30
0.0
  3
*D38
  1

  0
LINE
  5
29A0
330
294F
100
AcDbEntity
  8
5
370
    -2
100
AcDbLine
 10
673.3382568458496
 20
415.7217974095217
 30
0.0
 11
673.3382568458496
 21
331.0432662306753
 31
0.0
  0
LINE
  5
29A1
330
294F
100
AcDbEntity
  8
5
370
    -2
100
AcDbLine
 10
530.8382568458496
 20
368.7653685305133
 30
0.0
 11
530.8382568458496
 21
331.0432662306753
 31
0.0
  0
LINE
  5
29A2
330
294F
100
AcDbEntity
  8
5
370
    -2
100
AcDbLine
 10
668.3382568458496
 20
333.0432662306753
 30
0.0
 11
535.8382568458496
 21
333.0432662306753
 31
0.0
  0
SOLID
  5
29A3
330
294F
100
AcDbEntity
  8
5
100
AcDbTrace
 10
668.3382568458496
 20
333.8765995640086
 30
0.0
 11
668.3382568458496
 21
332.209932897342
 31
0.0
 12
673.3382568458496
 22
333.0432662306753
 32
0.0
 13
673.3382568458496
 23
333.0432662306753
 33
0.0
  0
SOLID
  5
29A4
330
294F
100
AcDbEntity
  8
5
100
AcDbTrace
 10
535.8382568458496
 20
333.8765995640086
 30
0.0
 11
535.8382568458496
 21
332.209932897342
 31
0.0
 12
530.8382568458496
 22
333.0432662306753
 32
0.0
 13
530.8382568458496
 23
333.0432662306753
 33
0.0
  0
MTEXT
  5
29A5
330
294F
100
AcDbEntity
  8
5
 62
     7
100
AcDbMText
 10
602.0882568458496
 20
341.3890016235565
 30
0.0
 40
14.0
 41
0.0
 71
     5
 72
     1
  1
142
 73
     1
 44
1.0
  0
POINT
  5
29A6
330
294F
100
AcDbEntity
  8
Defpoints
 62
     0
100
AcDbPoint
 10
673.3382568458496
 20
417.7217974095218
 30
0.0
  0
POINT
  5
29A7
330
294F
100
AcDbEntity
  8
Defpoints
 62
     0
100
AcDbPoint
 10
530.8382568458496
 20
370.7653685305133
 30
0.0
  0
POINT
  5
29A8
330
294F
100
AcDbEntity
  8
Defpoints
 62
     0
100
AcDbPoint
 10
530.8382568458496
 20
333.0432662306753
 30
0.0
  0
ENDBLK
  5
2951
330
294F
100
AcDbEntity
  8
0
100
AcDbBlockEnd
  0
BLOCK
  5
295C
330
295B
100
AcDbEntity
  8
0
100
AcDbBlockBegin
  2
*D39
 70
     1
 10
0.0
 20
0.0
 30
0.0
  3
*D39
  1

  0
LINE
  5
29A9
330
295B
100
AcDbEntity
  8
5
370
    -2
100
AcDbLine
 10
752.5882568458496
 20
345.4768097199202
 30
0.0
 11
752.5882568458496
 21
312.8289405378948
 31
0.0
  0
LINE
  5
29AA
330
295B
100
AcDbEntity
  8
5
370
    -2
100
AcDbLine
 10
602.0882568458496
 20
325.0493636180588
 30
0.0
 11
602.0882568458496
 21
312.8289405378948
 31
0.0
  0
LINE
  5
29AB
330
295B
100
AcDbEntity
  8
5
370
    -2
100
AcDbLine
 10
747.5882568458496
 20
314.8289405378948
 30
0.0
 11
607.0882568458496
 21
314.8289405378948
 31
0.0
  0
SOLID
  5
29AC
330
295B
100
AcDbEntity
  8
5
100
AcDbTrace
 10
747.5882568458496
 20
315.6622738712282
 30
0.0
 11
747.5882568458496
 21
313.9956072045615
 31
0.0
 12
752.5882568458496
 22
314.8289405378948
 32
0.0
 13
752.5882568458496
 23
314.8289405378948
 33
0.0
  0
SOLID
  5
29AD
330
295B
100
AcDbEntity
  8
5
100
AcDbTrace
 10
607.0882568458496
 20
315.6622738712282
 30
0.0
 11
607.0882568458496
 21
313.9956072045615
 31
0.0
 12
602.0882568458496
 22
314.8289405378948
 32
0.0
 13
602.0882568458496
 23
314.8289405378948
 33
0.0
  0
MTEXT
  5
29AE
330
295B
100
AcDbEntity
  8
5
 62
     7
100
AcDbMText
 10
677.3382568458496
 20
323.1981816393052
 30
0.0
 40
14.0
 41
0.0
 71
     5
 72
     1
  1
151
 73
     1
 44
1.0
  0
POINT
  5
29AF
330
295B
100
AcDbEntity
  8
Defpoints
 62
     0
100
AcDbPoint
 10
752.5882568458496
 20
347.4768097199202
 30
0.0
  0
POINT
  5
29B0
330
295B
100
AcDbEntity
  8
Defpoints
 62
     0
100
AcDbPoint
 10
602.0882568458496
 20
327.0493636180588
 30
0.0
  0
POINT
  5
29B1
330
295B
100
AcDbEntity
  8
Defpoints
 62
     0
100
AcDbPoint
 10
602.0882568458496
 20
314.8289405378948
 30
0.0
  0
ENDBLK
  5
295D
330
295B
100
AcDbEntity
  8
0
100
AcDbBlockEnd
  0
BLOCK
  5
2968
330
2967
100
AcDbEntity
  8
0
100
AcDbBlockBegin
  2
*D40
 70
     1
 10
0.0
 20
0.0
 30
0.0
  3
*D40
  1

  0
LINE
  5
29B2
330
2967
100
AcDbEntity
  8
5
370
    -2
100
AcDbLine
 10
744.5882568458496
 20
421.4717974095218
 30
0.0
 11
782.860875941076
 21
421.4717974095218
 31
0.0
  0
LINE
  5
29B3
330
2967
100
AcDbEntity
  8
5
370
    -2
100
AcDbLine
 10
744.5882568458496
 20
346.4717974095218
 30
0.0
 11
782.860875941076
 21
346.4717974095218
 31
0.0
  0
LINE
  5
29B4
330
2967
100
AcDbEntity
  8
5
370
    -2
100
AcDbLine
 10
780.8608759410758
 20
416.471797409522
 30
0.0
 11
780.8608759410758
 21
351.4717974095219
 31
0.0
  0
SOLID
  5
29B5
330
2967
100
AcDbEntity
  8
5
100
AcDbTrace
 10
780.0275426077424
 20
416.471797409522
 30
0.0
 11
781.6942092744092
 21
416.471797409522
 31
0.0
 12
780.8608759410758
 22
421.4717974095218
 32
0.0
 13
780.8608759410758
 23
421.4717974095218
 33
0.0
  0
SOLID
  5
29B6
330
2967
100
AcDbEntity
  8
5
100
AcDbTrace
 10
780.0275426077424
 20
351.4717974095219
 30
0.0
 11
781.6942092744092
 21
351.4717974095219
 31
0.0
 12
780.8608759410758
 22
346.4717974095218
 32
0.0
 13
780.8608759410758
 23
346.4717974095218
 33
0.0
  0
MTEXT
  5
29B7
330
2967
100
AcDbEntity
  8
5
 62
     7
100
AcDbMText
 10
771.6830384662605
 20
383.971797409522
 30
0.0
 40
14.0
 41
0.0
 71
     5
 72
     1
  1
%%c75
 11
0.0000000000000001
 21
1.0
 31
0.0
 73
     1
 44
1.0
  0
POINT
  5
29B8
330
2967
100
AcDbEntity
  8
Defpoints
 62
     0
100
AcDbPoint
 10
742.5882568458496
 20
421.4717974095218
 30
0.0
  0
POINT
  5
29B9
330
2967
100
AcDbEntity
  8
Defpoints
 62
     0
100
AcDbPoint
 10
742.5882568458496
 20
346.4717974095218
 30
0.0
  0
POINT
  5
29BA
330
2967
100
AcDbEntity
  8
Defpoints
 62
     0
100
AcDbPoint
 10
780.8608759410758
 20
346.4717974095218
 30
0.0
  0
ENDBLK
  5
2969
330
2967
100
AcDbEntity
  8
0
100
AcDbBlockEnd
  0
BLOCK
  5
2974
330
2973
100
AcDbEntity
  8
0
100
AcDbBlockBegin
  2
*D41
 70
     1
 10
0.0
 20
0.0
 30
0.0
  3
*D41
  1

  0
LINE
  5
29BB
330
2973
100
AcDbEntity
  8
5
370
    -2
100
AcDbLine
 10
518.0882568458494
 20
461.4766456095118
 30
0.0
 11
498.6963591725031
 21
461.4766456095118
 31
0.0
  0
LINE
  5
29BC
330
2973
100
AcDbEntity
  8
5
370
    -2
100
AcDbLine
 10
557.0630443096603
 20
352.2217974095119
 30
0.0
 11
498.6963591725031
 21
352.2217974095119
 31
0.0
  0
LINE
  5
29BD
330
2973
100
AcDbEntity
  8
5
370
    -2
100
AcDbLine
 10
500.6963591725032
 20
456.4766456095118
 30
0.0
 11
500.6963591725032
 21
357.2217974095118
 31
0.0
  0
SOLID
  5
29BE
330
2973
100
AcDbEntity
  8
5
100
AcDbTrace
 10
499.8630258391698
 20
456.4766456095118
 30
0.0
 11
501.5296925058366
 21
456.4766456095118
 31
0.0
 12
500.6963591725032
 22
461.4766456095118
 32
0.0
 13
500.6963591725032
 23
461.4766456095118
 33
0.0
  0
SOLID
  5
29BF
330
2973
100
AcDbEntity
  8
5
100
AcDbTrace
 10
499.8630258391698
 20
357.2217974095118
 30
0.0
 11
501.5296925058364
 21
357.2217974095118
 31
0.0
 12
500.6963591725032
 22
352.2217974095119
 32
0.0
 13
500.6963591725032
 23
352.2217974095119
 33
0.0
  0
MTEXT
  5
29C0
330
2973
100
AcDbEntity
  8
5
 62
     7
100
AcDbMText
 10
492.2095895284466
 20
406.849221509512
 30
0.0
 40
14.0
 41
0.0
 71
     5
 72
     1
  1
109
 11
0.0000000000000001
 21
1.0
 31
0.0
 73
     1
 44
1.0
  0
POINT
  5
29C1
330
2973
100
AcDbEntity
  8
Defpoints
 62
     0
100
AcDbPoint
 10
520.0882568458495
 20
461.4766456095118
 30
0.0
  0
POINT
  5
29C2
330
2973
100
AcDbEntity
  8
Defpoints
 62
     0
100
AcDbPoint
 10
559.0630443096602
 20
352.2217974095119
 30
0.0
  0
POINT
  5
29C3
330
2973
100
AcDbEntity
  8
Defpoints
 62
     0
100
AcDbPoint
 10
500.6963591725032
 20
352.2217974095119
 30
0.0
  0
ENDBLK
  5
2975
330
2973
100
AcDbEntity
  8
0
100
AcDbBlockEnd
  0
BLOCK
  5
2980
330
297F
100
AcDbEntity
  8
0
100
AcDbBlockBegin
  2
*D42
 70
     1
 10
0.0
 20
0.0
 30
0.0
  3
*D42
  1

  0
LINE
  5
29C4
330
297F
100
AcDbEntity
  8
5
370
    -2
100
AcDbLine
 10
744.5882568458496
 20
346.4717974095218
 30
0.0
 11
827.4180290668882
 21
346.4717974095218
 31
0.0
  0
LINE
  5
29C5
330
297F
100
AcDbEntity
  8
5
370
    -2
100
AcDbLine
 10
685.8839981707707
 20
461.4766456095118
 30
0.0
 11
827.4180290668882
 21
461.4766456095118
 31
0.0
  0
LINE
  5
29C6
330
297F
100
AcDbEntity
  8
5
370
    -2
100
AcDbLine
 10
825.4180290668884
 20
351.4717974095219
 30
0.0
 11
825.4180290668884
 21
456.4766456095118
 31
0.0
  0
SOLID
  5
29C7
330
297F
100
AcDbEntity
  8
5
100
AcDbTrace
 10
824.5846957335549
 20
351.4717974095219
 30
0.0
 11
826.2513624002217
 21
351.4717974095219
 31
0.0
 12
825.4180290668884
 22
346.4717974095218
 32
0.0
 13
825.4180290668884
 23
346.4717974095218
 33
0.0
  0
SOLID
  5
29C8
330
297F
100
AcDbEntity
  8
5
100
AcDbTrace
 10
824.5846957335549
 20
456.4766456095118
 30
0.0
 11
826.2513624002217
 21
456.4766456095118
 31
0.0
 12
825.4180290668884
 22
461.4766456095118
 32
0.0
 13
825.4180290668884
 23
461.4766456095118
 33
0.0
  0
MTEXT
  5
29C9
330
297F
100
AcDbEntity
  8
5
 62
     7
100
AcDbMText
 10
817.0487879654778
 20
403.974221509517
 30
0.0
 40
14.0
 41
0.0
 71
     5
 72
     1
  1
115
 11
0.0000000000000001
 21
1.0
 31
0.0
 73
     1
 44
1.0
  0
POINT
  5
29CA
330
297F
100
AcDbEntity
  8
Defpoints
 62
     0
100
AcDbPoint
 10
742.5882568458496
 20
346.4717974095218
 30
0.0
  0
POINT
  5
29CB
330
297F
100
AcDbEntity
  8
Defpoints
 62
     0
100
AcDbPoint
 10
683.8839981707707
 20
461.4766456095118
 30
0.0
  0
POINT
  5
29CC
330
297F
100
AcDbEntity
  8
Defpoints
 62
     0
100
AcDbPoint
 10
825.4180290668884
 20
461.4766456095118
 30
0.0
  0
ENDBLK
  5
2981
330
297F
100
AcDbEntity
  8
0
100
AcDbBlockEnd
  0
BLOCK
  5
298C
330
298B
100
AcDbEntity
  8
0
100
AcDbBlockBegin
  2
*D43
 70
     1
 10
0.0
 20
0.0
 30
0.0
  3
*D43
  1

  0
LINE
  5
29CD
330
298B
100
AcDbEntity
  8
5
370
    -2
100
AcDbLine
 10
686.0882568458496
 20
461.4766456095118
 30
0.0
 11
805.5660522951871
 21
461.4766456095118
 31
0.0
  0
LINE
  5
29CE
330
298B
100
AcDbEntity
  8
5
370
    -2
100
AcDbLine
 10
782.8608759410757
 20
383.9717974095218
 30
0.0
 11
805.5660522951871
 21
383.9717974095218
 31
0.0
  0
LINE
  5
29CF
330
298B
100
AcDbEntity
  8
5
370
    -2
100
AcDbLine
 10
803.5660522951872
 20
456.4766456095118
 30
0.0
 11
803.5660522951872
 21
388.9717974095219
 31
0.0
  0
SOLID
  5
29D0
330
298B
100
AcDbEntity
  8
5
100
AcDbTrace
 10
802.7327189618539
 20
456.4766456095118
 30
0.0
 11
804.3993856285206
 21
456.4766456095118
 31
0.0
 12
803.5660522951872
 22
461.4766456095118
 32
0.0
 13
803.5660522951872
 23
461.4766456095118
 33
0.0
  0
SOLID
  5
29D1
330
298B
100
AcDbEntity
  8
5
100
AcDbTrace
 10
802.7327189618539
 20
388.9717974095219
 30
0.0
 11
804.3993856285206
 21
388.9717974095219
 31
0.0
 12
803.5660522951872
 22
383.9717974095218
 32
0.0
 13
803.5660522951872
 23
383.9717974095218
 33
0.0
  0
MTEXT
  5
29D2
330
298B
100
AcDbEntity
  8
5
 62
     7
100
AcDbMText
 10
795.366052295187
 20
422.724221509517
 30
0.0
 40
14.0
 41
0.0
 71
     5
 72
     1
  1
77
 11
0.0000000000000001
 21
1.0
 31
0.0
 73
     1
 44
1.0
  0
POINT
  5
29D3
330
298B
100
AcDbEntity
  8
Defpoints
 62
     0
100
AcDbPoint
 10
684.0882568458496
 20
461.4766456095118
 30
0.0
  0
POINT
  5
29D4
330
298B
100
AcDbEntity
  8
Defpoints
 62
     0
100
AcDbPoint
 10
780.8608759410757
 20
383.9717974095218
 30
0.0
  0
POINT
  5
29D5
330
298B
100
AcDbEntity
  8
Defpoints
 62
     0
100
AcDbPoint
 10
803.5660522951872
 20
383.9717974095218
 30
0.0
  0
ENDBLK
  5
298D
330
298B
100
AcDbEntity
  8
0
100
AcDbBlockEnd
  0
BLOCK
  5
29F4
330
29F3
100
AcDbEntity
  8
0
100
AcDbBlockBegin
  2
*D44
 70
     1
 10
0.0
 20
0.0
 30
0.0
  3
*D44
  1

  0
LINE
  5
2B9A
330
29F3
100
AcDbEntity
  8
5
370
    -2
100
AcDbLine
 10
282.0863987569875
 20
516.3489651327006
 30
0.0
 11
282.0863987569875
 21
528.3489651327006
 31
0.0
  0
LINE
  5
2B9B
330
29F3
100
AcDbEntity
  8
5
370
    -2
100
AcDbLine
 10
100.0863987569874
 20
516.3489651327006
 30
0.0
 11
100.0863987569874
 21
528.3489651327006
 31
0.0
  0
LINE
  5
2B9C
330
29F3
100
AcDbEntity
  8
5
370
    -2
100
AcDbLine
 10
277.0863987569875
 20
526.3489651327006
 30
0.0
 11
105.0863987569874
 21
526.3489651327006
 31
0.0
  0
SOLID
  5
2B9D
330
29F3
100
AcDbEntity
  8
5
100
AcDbTrace
 10
277.0863987569875
 20
527.1822984660341
 30
0.0
 11
277.0863987569875
 21
525.5156317993672
 31
0.0
 12
282.0863987569875
 22
526.3489651327006
 32
0.0
 13
282.0863987569875
 23
526.3489651327006
 33
0.0
  0
SOLID
  5
2B9E
330
29F3
100
AcDbEntity
  8
5
100
AcDbTrace
 10
105.0863987569874
 20
527.1822984660341
 30
0.0
 11
105.0863987569874
 21
525.5156317993672
 31
0.0
 12
100.0863987569874
 22
526.3489651327006
 32
0.0
 13
100.0863987569874
 23
526.3489651327006
 33
0.0
  0
MTEXT
  5
2B9F
330
29F3
100
AcDbEntity
  8
5
 62
     7
100
AcDbMText
 10
191.0863987569874
 20
535.526802607516
 30
0.0
 40
14.0
 41
0.0
 71
     5
 72
     1
  1
%%c182
 73
     1
 44
1.0
  0
POINT
  5
2BA0
330
29F3
100
AcDbEntity
  8
Defpoints
 62
     0
100
AcDbPoint
 10
282.0863987569875
 20
514.3489651327008
 30
0.0
  0
POINT
  5
2BA1
330
29F3
100
AcDbEntity
  8
Defpoints
 62
     0
100
AcDbPoint
 10
100.0863987569874
 20
514.3489651327008
 30
0.0
  0
POINT
  5
2BA2
330
29F3
100
AcDbEntity
  8
Defpoints
 62
     0
100
AcDbPoint
 10
100.0863987569874
 20
526.3489651327006
 30
0.0
  0
ENDBLK
  5
29F5
330
29F3
100
AcDbEntity
  8
0
100
AcDbBlockEnd
  0
BLOCK
  5
2A20
330
2A1F
100
AcDbEntity
  8
0
100
AcDbBlockBegin
  2
*D45
 70
     1
 10
0.0
 20
0.0
 30
0.0
  3
*D45
  1

  0
LINE
  5
2B0B
330
2A1F
100
AcDbEntity
  8
5
370
    -2
100
AcDbLine
 10
112.5863987569874
 20
381.8489651327007
 30
0.0
 11
112.5863987569874
 21
341.9537230892609
 31
0.0
  0
LINE
  5
2B0C
330
2A1F
100
AcDbEntity
  8
5
370
    -2
100
AcDbLine
 10
269.5863987569874
 20
445.3489651327008
 30
0.0
 11
269.5863987569874
 21
341.9537230892609
 31
0.0
  0
LINE
  5
2B0D
330
2A1F
100
AcDbEntity
  8
5
370
    -2
100
AcDbLine
 10
117.5863987569874
 20
343.9537230892609
 30
0.0
 11
264.5863987569874
 21
343.9537230892609
 31
0.0
  0
SOLID
  5
2B0E
330
2A1F
100
AcDbEntity
  8
5
100
AcDbTrace
 10
117.5863987569874
 20
344.7870564225941
 30
0.0
 11
117.5863987569874
 21
343.1203897559275
 31
0.0
 12
112.5863987569874
 22
343.9537230892609
 32
0.0
 13
112.5863987569874
 23
343.9537230892609
 33
0.0
  0
SOLID
  5
2B0F
330
2A1F
100
AcDbEntity
  8
5
100
AcDbTrace
 10
264.5863987569874
 20
344.7870564225941
 30
0.0
 11
264.5863987569874
 21
343.1203897559275
 31
0.0
 12
269.5863987569874
 22
343.9537230892609
 32
0.0
 13
269.5863987569874
 23
343.9537230892609
 33
0.0
  0
MTEXT
  5
2B10
330
2A1F
100
AcDbEntity
  8
5
 62
     7
100
AcDbMText
 10
191.0863987569874
 20
352.3229641906711
 30
0.0
 40
14.0
 41
0.0
 71
     5
 72
     1
  1
157
 73
     1
 44
1.0
  0
POINT
  5
2B11
330
2A1F
100
AcDbEntity
  8
Defpoints
 62
     0
100
AcDbPoint
 10
112.5863987569874
 20
383.8489651327007
 30
0.0
  0
POINT
  5
2B12
330
2A1F
100
AcDbEntity
  8
Defpoints
 62
     0
100
AcDbPoint
 10
269.5863987569874
 20
447.3489651327008
 30
0.0
  0
POINT
  5
2B13
330
2A1F
100
AcDbEntity
  8
Defpoints
 62
     0
100
AcDbPoint
 10
269.5863987569874
 20
343.9537230892609
 30
0.0
  0
ENDBLK
  5
2A21
330
2A1F
100
AcDbEntity
  8
0
100
AcDbBlockEnd
  0
BLOCK
  5
2A42
330
2A41
100
AcDbEntity
  8
0
100
AcDbBlockBegin
  2
*D46
 70
     1
 10
0.0
 20
0.0
 30
0.0
  3
*D46
  1

  0
LINE
  5
2B53
330
2A41
100
AcDbEntity
  8
5
370
    -2
100
AcDbLine
 10
353.4922816754307
 20
442.3489651327008
 30
0.0
 11
385.2039252826484
 21
442.3489651327006
 31
0.0
  0
LINE
  5
2B54
330
2A41
100
AcDbEntity
  8
5
370
    -2
100
AcDbLine
 10
353.4922816754307
 20
367.3489651327008
 30
0.0
 11
385.2039252826483
 21
367.3489651327006
 31
0.0
  0
LINE
  5
2B55
330
2A41
100
AcDbEntity
  8
5
370
    -2
100
AcDbLine
 10
383.2039252826484
 20
437.3489651327008
 30
0.0
 11
383.2039252826483
 21
372.3489651327008
 31
0.0
  0
SOLID
  5
2B56
330
2A41
100
AcDbEntity
  8
5
100
AcDbTrace
 10
382.370591949315
 20
437.3489651327008
 30
0.0
 11
384.0372586159817
 21
437.3489651327006
 31
0.0
 12
383.2039252826484
 22
442.3489651327008
 32
0.0
 13
383.2039252826484
 23
442.3489651327008
 33
0.0
  0
SOLID
  5
2B57
330
2A41
100
AcDbEntity
  8
5
100
AcDbTrace
 10
382.370591949315
 20
372.3489651327008
 30
0.0
 11
384.0372586159816
 21
372.3489651327008
 31
0.0
 12
383.2039252826483
 22
367.3489651327008
 32
0.0
 13
383.2039252826483
 23
367.3489651327008
 33
0.0
  0
MTEXT
  5
2B58
330
2A41
100
AcDbEntity
  8
5
 62
     7
100
AcDbMText
 10
374.0260878078329
 20
404.8489651327008
 30
0.0
 40
14.0
 41
0.0
 71
     5
 72
     1
  1
%%c75
 11
0.0000000000000001
 21
1.0
 31
0.0
 73
     1
 44
1.0
  0
POINT
  5
2B59
330
2A41
100
AcDbEntity
  8
Defpoints
 62
     0
100
AcDbPoint
 10
351.4922816754307
 20
442.3489651327008
 30
0.0
  0
POINT
  5
2B5A
330
2A41
100
AcDbEntity
  8
Defpoints
 62
     0
100
AcDbPoint
 10
351.4922816754307
 20
367.3489651327008
 30
0.0
  0
POINT
  5
2B5B
330
2A41
100
AcDbEntity
  8
Defpoints
 62
     0
100
AcDbPoint
 10
383.2039252826483
 20
367.3489651327008
 30
0.0
  0
ENDBLK
  5
2A43
330
2A41
100
AcDbEntity
  8
0
100
AcDbBlockEnd
  0
BLOCK
  5
2A64
330
2A63
100
AcDbEntity
  8
0
100
AcDbBlockBegin
  2
*D47
 70
     1
 10
0.0
 20
0.0
 30
0.0
  3
*D47
  1

  0
LINE
  5
2B1D
330
2A63
100
AcDbEntity
  8
5
370
    -2
100
AcDbLine
 10
284.0863987569875
 20
514.3489651327008
 30
0.0
 11
424.3677640177851
 21
514.3489651327008
 31
0.0
  0
LINE
  5
2B1E
330
2A63
100
AcDbEntity
  8
5
370
    -2
100
AcDbLine
 10
353.4922816754307
 20
367.3489651327008
 30
0.0
 11
424.3677640177851
 21
367.3489651327006
 31
0.0
  0
LINE
  5
2B1F
330
2A63
100
AcDbEntity
  8
5
370
    -2
100
AcDbLine
 10
422.3677640177851
 20
509.3489651327006
 30
0.0
 11
422.367764017785
 21
372.3489651327008
 31
0.0
  0
SOLID
  5
2B20
330
2A63
100
AcDbEntity
  8
5
100
AcDbTrace
 10
421.5344306844518
 20
509.3489651327006
 30
0.0
 11
423.2010973511184
 21
509.3489651327006
 31
0.0
 12
422.3677640177851
 22
514.3489651327008
 32
0.0
 13
422.3677640177851
 23
514.3489651327008
 33
0.0
  0
SOLID
  5
2B21
330
2A63
100
AcDbEntity
  8
5
100
AcDbTrace
 10
421.5344306844516
 20
372.3489651327008
 30
0.0
 11
423.2010973511184
 21
372.3489651327008
 31
0.0
 12
422.367764017785
 22
367.3489651327006
 32
0.0
 13
422.367764017785
 23
367.3489651327006
 33
0.0
  0
MTEXT
  5
2B22
330
2A63
100
AcDbEntity
  8
5
 62
     7
100
AcDbMText
 10
414.1442583092556
 20
440.8489651327008
 30
0.0
 40
14.0
 41
0.0
 71
     5
 72
     1
  1
147
 11
0.0000000000000001
 21
1.0
 31
0.0
 73
     1
 44
1.0
  0
POINT
  5
2B23
330
2A63
100
AcDbEntity
  8
Defpoints
 62
     0
100
AcDbPoint
 10
282.0863987569875
 20
514.3489651327008
 30
0.0
  0
POINT
  5
2B24
330
2A63
100
AcDbEntity
  8
Defpoints
 62
     0
100
AcDbPoint
 10
351.4922816754307
 20
367.3489651327008
 30
0.0
  0
POINT
  5
2B25
330
2A63
100
AcDbEntity
  8
Defpoints
 62
     0
100
AcDbPoint
 10
422.367764017785
 20
367.3489651327006
 30
0.0
  0
ENDBLK
  5
2A65
330
2A63
100
AcDbEntity
  8
0
100
AcDbBlockEnd
  0
BLOCK
  5
2A86
330
2A85
100
AcDbEntity
  8
0
100
AcDbBlockBegin
  2
*D48
 70
     1
 10
0.0
 20
0.0
 30
0.0
  3
*D48
  1

  0
LINE
  5
2D3D
330
2A85
100
AcDbEntity
  8
5
370
    -2
100
AcDbLine
 10
387.0807945542328
 20
404.8489651327008
 30
0.0
 11
405.5660766599287
 21
404.8489651327008
 31
0.0
  0
LINE
  5
2D3E
330
2A85
100
AcDbEntity
  8
5
370
    -2
100
AcDbLine
 10
284.0863987569875
 20
514.3489651327008
 30
0.0
 11
405.5660766599287
 21
514.3489651327008
 31
0.0
  0
LINE
  5
2D3F
330
2A85
100
AcDbEntity
  8
5
370
    -2
100
AcDbLine
 10
403.5660766599288
 20
409.8489651327008
 30
0.0
 11
403.5660766599288
 21
509.3489651327007
 31
0.0
  0
SOLID
  5
2D40
330
2A85
100
AcDbEntity
  8
5
100
AcDbTrace
 10
402.7327433265955
 20
409.8489651327008
 30
0.0
 11
404.399409993262
 21
409.8489651327008
 31
0.0
 12
403.5660766599288
 22
404.8489651327008
 32
0.0
 13
403.5660766599288
 23
404.8489651327008
 33
0.0
  0
SOLID
  5
2D41
330
2A85
100
AcDbEntity
  8
5
100
AcDbTrace
 10
402.7327433265955
 20
509.3489651327007
 30
0.0
 11
404.399409993262
 21
509.3489651327007
 31
0.0
 12
403.5660766599288
 22
514.3489651327008
 32
0.0
 13
403.5660766599288
 23
514.3489651327008
 33
0.0
  0
MTEXT
  5
2D42
330
2A85
100
AcDbEntity
  8
5
 62
     7
100
AcDbMText
 10
395.0793070158722
 20
459.5989651327008
 30
0.0
 40
14.0
 41
0.0
 71
     5
 72
     1
  1
110
 11
0.0000000000000001
 21
1.0
 31
0.0
 73
     1
 44
1.0
  0
POINT
  5
2D43
330
2A85
100
AcDbEntity
  8
Defpoints
 62
     0
100
AcDbPoint
 10
385.0807945542328
 20
404.8489651327008
 30
0.0
  0
POINT
  5
2D44
330
2A85
100
AcDbEntity
  8
Defpoints
 62
     0
100
AcDbPoint
 10
282.0863987569875
 20
514.3489651327008
 30
0.0
  0
POINT
  5
2D45
330
2A85
100
AcDbEntity
  8
Defpoints
 62
     0
100
AcDbPoint
 10
403.5660766599288
 20
514.3489651327008
 30
0.0
  0
ENDBLK
  5
2A87
330
2A85
100
AcDbEntity
  8
0
100
AcDbBlockEnd
  0
BLOCK
  5
2AA8
330
2AA7
100
AcDbEntity
  8
0
100
AcDbBlockBegin
  2
*D49
 70
     1
 10
0.0
 20
0.0
 30
0.0
  3
*D49
  1

  0
LINE
  5
2B02
330
2AA7
100
AcDbEntity
  8
5
370
    -2
100
AcDbLine
 10
191.0863987569874
 20
334.4105810354563
 30
0.0
 11
191.0863987569874
 21
322.4105810354565
 31
0.0
  0
LINE
  5
2B03
330
2AA7
100
AcDbEntity
  8
5
370
    -2
100
AcDbLine
 10
359.5863987569874
 20
366.8489651327008
 30
0.0
 11
359.5863987569874
 21
322.4105810354565
 31
0.0
  0
LINE
  5
2B04
330
2AA7
100
AcDbEntity
  8
5
370
    -2
100
AcDbLine
 10
196.0863987569874
 20
324.4105810354565
 30
0.0
 11
354.5863987569874
 21
324.4105810354565
 31
0.0
  0
SOLID
  5
2B05
330
2AA7
100
AcDbEntity
  8
5
100
AcDbTrace
 10
196.0863987569874
 20
325.2439143687898
 30
0.0
 11
196.0863987569874
 21
323.5772477021232
 31
0.0
 12
191.0863987569874
 22
324.4105810354565
 32
0.0
 13
191.0863987569874
 23
324.4105810354565
 33
0.0
  0
SOLID
  5
2B06
330
2AA7
100
AcDbEntity
  8
5
100
AcDbTrace
 10
354.5863987569874
 20
325.2439143687898
 30
0.0
 11
354.5863987569874
 21
323.5772477021232
 31
0.0
 12
359.5863987569874
 22
324.4105810354565
 32
0.0
 13
359.5863987569874
 23
324.4105810354565
 33
0.0
  0
MTEXT
  5
2B07
330
2AA7
100
AcDbEntity
  8
5
 62
     7
100
AcDbMText
 10
275.3363987569874
 20
332.8973506795128
 30
0.0
 40
14.0
 41
0.0
 71
     5
 72
     1
  1
169
 73
     1
 44
1.0
  0
POINT
  5
2B08
330
2AA7
100
AcDbEntity
  8
Defpoints
 62
     0
100
AcDbPoint
 10
191.0863987569874
 20
336.4105810354563
 30
0.0
  0
POINT
  5
2B09
330
2AA7
100
AcDbEntity
  8
Defpoints
 62
     0
100
AcDbPoint
 10
359.5863987569874
 20
368.8489651327008
 30
0.0
  0
POINT
  5
2B0A
330
2AA7
100
AcDbEntity
  8
Defpoints
 62
     0
100
AcDbPoint
 10
359.5863987569874
 20
324.4105810354565
 30
0.0
  0
ENDBLK
  5
2AA9
330
2AA7
100
AcDbEntity
  8
0
100
AcDbBlockEnd
  0
BLOCK
  5
2B5E
330
2B5D
100
AcDbEntity
  8
0
100
AcDbBlockBegin
  2
*D50
 70
     1
 10
0.0
 20
0.0
 30
0.0
  3
*D50
  1

  0
LINE
  5
2B88
330
2B5D
100
AcDbEntity
  8
5
370
    -2
100
AcDbLine
 10
127.0863987569874
 20
367.3489651327009
 30
0.0
 11
86.08639875698747
 21
367.3489651327009
 31
0.0
  0
LINE
  5
2B89
330
2B5D
100
AcDbEntity
  8
5
370
    -2
100
AcDbLine
 10
98.08639875698744
 20
514.3489651327008
 30
0.0
 11
86.08639875698747
 21
514.3489651327008
 31
0.0
  0
LINE
  5
2B8A
330
2B5D
100
AcDbEntity
  8
5
370
    -2
100
AcDbLine
 10
88.08639875698746
 20
372.3489651327009
 30
0.0
 11
88.0863987569875
 21
509.3489651327006
 31
0.0
  0
SOLID
  5
2B8B
330
2B5D
100
AcDbEntity
  8
5
100
AcDbTrace
 10
87.25306542365414
 20
372.3489651327009
 30
0.0
 11
88.91973209032078
 21
372.3489651327009
 31
0.0
 12
88.08639875698746
 22
367.3489651327009
 32
0.0
 13
88.08639875698746
 23
367.3489651327009
 33
0.0
  0
SOLID
  5
2B8C
330
2B5D
100
AcDbEntity
  8
5
100
AcDbTrace
 10
87.25306542365414
 20
509.3489651327006
 30
0.0
 11
88.91973209032082
 21
509.3489651327006
 31
0.0
 12
88.0863987569875
 22
514.3489651327008
 32
0.0
 13
88.0863987569875
 23
514.3489651327008
 33
0.0
  0
MTEXT
  5
2B8D
330
2B5D
100
AcDbEntity
  8
5
 62
     7
100
AcDbMText
 10
79.86289304845819
 20
440.8489651327008
 30
0.0
 40
14.0
 41
0.0
 71
     5
 72
     1
  1
147
 11
0.0000000000000001
 21
1.0
 31
0.0
 73
     1
 44
1.0
  0
POINT
  5
2B8E
330
2B5D
100
AcDbEntity
  8
Defpoints
 62
     0
100
AcDbPoint
 10
129.0863987569874
 20
367.3489651327008
 30
0.0
  0
POINT
  5
2B8F
330
2B5D
100
AcDbEntity
  8
Defpoints
 62
     0
100
AcDbPoint
 10
100.0863987569874
 20
514.3489651327008
 30
0.0
  0
POINT
  5
2B90
330
2B5D
100
AcDbEntity
  8
Defpoints
 62
     0
100
AcDbPoint
 10
88.0863987569875
 20
514.3489651327008
 30
0.0
  0
ENDBLK
  5
2B5F
330
2B5D
100
AcDbEntity
  8
0
100
AcDbBlockEnd
  0
ENDSEC
  0
SECTION
  2
ENTITIES
  0
LINE
  5
202
330
6C
100
AcDbEntity
  8
0
100
AcDbLine
 10
100.0863987569874
 20
514.3489651327008
 30
0.0
 11
282.0863987569875
 21
514.3489651327008
 31
0.0
  0
LINE
  5
203
330
6C
100
AcDbEntity
  8
0
100
AcDbLine
 10
100.0863987569874
 20
512.8489651327006
 30
0.0
 11
282.0863987569875
 21
512.8489651327006
 31
0.0
  0
LINE
  5
204
330
6C
100
AcDbEntity
  8
0
100
AcDbLine
 10
282.0863987569875
 20
514.3489651327008
 30
0.0
 11
282.0863987569875
 21
512.8489651327006
 31
0.0
  0
LINE
  5
205
330
6C
100
AcDbEntity
  8
0
100
AcDbLine
 10
100.0863987569874
 20
514.3489651327008
 30
0.0
 11
100.0863987569874
 21
512.8489651327006
 31
0.0
  0
LINE
  5
218
330
6C
100
AcDbEntity
  8
0
100
AcDbLine
 10
253.0863987569874
 20
367.3489651327008
 30
0.0
 11
129.0863987569874
 21
367.3489651327008
 31
0.0
  0
LINE
  5
219
330
6C
100
AcDbEntity
  8
0
100
AcDbLine
 10
112.5863987569874
 20
478.4457839753431
 30
0.0
 11
112.5863987569874
 21
506.8489651327006
 31
0.0
  0
LINE
  5
21A
330
6C
100
AcDbEntity
  8
0
100
AcDbLine
 10
269.5863987569874
 20
478.445783975343
 30
0.0
 11
269.5863987569874
 21
506.8489651327006
 31
0.0
  0
ARC
  5
21B
330
6C
100
AcDbEntity
  8
0
100
AcDbCircle
 10
129.0863987569874
 20
383.8489651327007
 30
0.0
 40
16.49999999999999
100
AcDbArc
 50
180.0
 51
270.0
  0
LINE
  5
21C
330
6C
100
AcDbEntity
  8
0
100
AcDbLine
 10
112.5863987569874
 20
383.8489651327007
 30
0.0
 11
112.5863987569874
 21
466.2521462900583
 31
0.0
  0
LINE
  5
21D
330
6C
100
AcDbEntity
  8
0
100
AcDbLine
 10
269.5863987569874
 20
447.3489651327008
 30
0.0
 11
269.5863987569874
 21
466.2521462900583
 31
0.0
  0
ARC
  5
21E
330
6C
100
AcDbEntity
  8
0
100
AcDbCircle
 10
266.0863987569874
 20
466.2521462900583
 30
0.0
 40
3.5
100
AcDbArc
 50
0.0
 51
59.99999999999975
  0
ARC
  5
21F
330
6C
100
AcDbEntity
  8
0
100
AcDbCircle
 10
116.0863987569874
 20
466.2521462900583
 30
0.0
 40
3.5
100
AcDbArc
 50
120.0000000000002
 51
180.0
  0
LINE
  5
220
330
6C
100
AcDbEntity
  8
0
100
AcDbLine
 10
266.2763987569874
 20
470.1839016232396
 30
0.0
 11
267.8363987569874
 21
469.2832352033039
 31
0.0
  0
LINE
  5
221
330
6C
100
AcDbEntity
  8
0
100
AcDbLine
 10
115.8963987569874
 20
470.1839016232396
 30
0.0
 11
114.3363987569874
 21
469.2832352033039
 31
0.0
  0
ARC
  5
222
330
6C
100
AcDbEntity
  8
0
100
AcDbCircle
 10
267.5263987569875
 20
472.3489651327008
 30
0.0
 40
2.5
100
AcDbArc
 50
119.9999999999998
 51
240.0000000000002
  0
ARC
  5
223
330
6C
100
AcDbEntity
  8
0
100
AcDbCircle
 10
114.6463987569874
 20
472.3489651327008
 30
0.0
 40
2.5
100
AcDbArc
 50
300.0
 51
59.99999999999992
  0
LINE
  5
224
330
6C
100
AcDbEntity
  8
0
100
AcDbLine
 10
115.8963987569874
 20
474.5140286421619
 30
0.0
 11
114.3363987569874
 21
475.4146950620977
 31
0.0
  0
LINE
  5
225
330
6C
100
AcDbEntity
  8
0
100
AcDbLine
 10
266.2763987569874
 20
474.5140286421619
 30
0.0
 11
267.8363987569874
 21
475.4146950620977
 31
0.0
  0
ARC
  5
226
330
6C
100
AcDbEntity
  8
0
100
AcDbCircle
 10
266.0863987569874
 20
478.4457839753431
 30
0.0
 40
3.5
100
AcDbArc
 50
300.0000000000002
 51
0.0
  0
ARC
  5
227
330
6C
100
AcDbEntity
  8
0
100
AcDbCircle
 10
116.0863987569874
 20
478.4457839753431
 30
0.0
 40
3.5
100
AcDbArc
 50
180.0
 51
239.9999999999999
  0
LINE
  5
228
330
6C
100
AcDbEntity
  8
0
100
AcDbLine
 10
274.5863987569875
 20
442.3489651327008
 30
0.0
 11
274.5863987569875
 21
367.3489651327008
 31
0.0
  0
LINE
  5
229
330
6C
100
AcDbEntity
  8
0
100
AcDbLine
 10
274.5863987569875
 20
367.3489651327008
 30
0.0
 11
253.0863987569874
 21
367.3489651327008
 31
0.0
  0
ARC
  5
22C
330
6C
100
AcDbEntity
  8
0
100
AcDbCircle
 10
106.5863987569874
 20
506.8489651327006
 30
0.0
 40
6.0
100
AcDbArc
 50
0.0
 51
90.0
  0
ARC
  5
22D
330
6C
100
AcDbEntity
  8
0
100
AcDbCircle
 10
275.5863987569875
 20
506.8489651327006
 30
0.0
 40
6.0
100
AcDbArc
 50
90.0
 51
180.0
  0
ARC
  5
22E
330
6C
100
AcDbEntity
  8
0
100
AcDbCircle
 10
274.5863987569875
 20
447.3489651327008
 30
0.0
 40
5.0
100
AcDbArc
 50
180.0
 51
270.0
  0
LINE
  5
22F
330
6C
100
AcDbEntity
  8
0
100
AcDbLine
 10
274.5863987569875
 20
442.3489651327008
 30
0.0
 11
274.5863987569875
 21
367.3489651327008
 31
0.0
  0
LINE
  5
230
330
6C
100
AcDbEntity
  8
0
100
AcDbLine
 10
321.5863987569874
 20
367.3489651327008
 30
0.0
 11
274.5863987569875
 21
367.3489651327008
 31
0.0
  0
LINE
  5
231
330
6C
100
AcDbEntity
  8
0
100
AcDbLine
 10
321.5863987569874
 20
442.3489651327008
 30
0.0
 11
274.5863987569875
 21
442.3489651327006
 31
0.0
  0
LINE
  5
233
330
6C
100
AcDbEntity
  8
0
100
AcDbLine
 10
359.5863987569874
 20
440.8489651327008
 30
0.0
 11
359.5863987569874
 21
368.8489651327008
 31
0.0
  0
ARC
  5
234
330
6C
100
AcDbEntity
  8
0
100
AcDbCircle
 10
351.4922816754307
 20
436.3489651327006
 30
0.0
 40
6.000000000000027
100
AcDbArc
 50
78.69006752597968
 51
90.0
  0
ARC
  5
235
330
6C
100
AcDbEntity
  8
0
100
AcDbCircle
 10
351.4922816754307
 20
373.3489651327009
 30
0.0
 40
6.000000000000028
100
AcDbArc
 50
270.0
 51
281.3099324740208
  0
LINE
  5
236
330
6C
100
AcDbEntity
  8
0
100
AcDbLine
 10
351.4922816754307
 20
367.3489651327008
 30
0.0
 11
321.5863987569874
 21
367.3489651327008
 31
0.0
  0
LINE
  5
237
330
6C
100
AcDbEntity
  8
0
100
AcDbLine
 10
351.4922816754307
 20
442.3489651327008
 30
0.0
 11
321.5863987569874
 21
442.3489651327008
 31
0.0
  0
LINE
  5
240
330
6C
100
AcDbEntity
  8
0
100
AcDbLine
 10
359.5863987569874
 20
368.8489651327008
 30
0.0
 11
352.6689784862599
 21
367.4654810785553
 31
0.0
  0
LINE
  5
241
330
6C
100
AcDbEntity
  8
0
100
AcDbLine
 10
359.5863987569874
 20
440.8489651327008
 30
0.0
 11
352.6689784862599
 21
442.2324491868462
 31
0.0
  0
LINE
  5
259
330
6C
100
AcDbEntity
  8
0
100
AcDbLine
 10
337.3503307794876
 20
442.3489651327008
 30
0.0
 11
333.8224667344872
 21
442.3489651327008
 31
0.0
  0
LINE
  5
25C
330
6C
100
AcDbEntity
  8
0
100
AcDbLine
 10
347.3503307794877
 20
367.3489651327008
 30
0.0
 11
341.8224667344873
 21
367.3489651327008
 31
0.0
  0
LINE
  5
11CD
330
6C
100
AcDbEntity
  8
0
100
AcDbLine
 10
359.5863987566878
 20
227.359824561832
 30
0.0
 11
359.5863987566878
 21
155.359824561832
 31
0.0
  0
ARC
  5
11CE
330
6C
100
AcDbEntity
  8
0
100
AcDbCircle
 10
351.4922816751312
 20
222.859824561832
 30
0.0
 40
6.000000000000031
100
AcDbArc
 50
78.69006752597918
 51
90.0
  0
ARC
  5
11CF
330
6C
100
AcDbEntity
  8
0
100
AcDbCircle
 10
351.4922816751312
 20
159.859824561832
 30
0.0
 40
6.000000000000031
100
AcDbArc
 50
270.0
 51
281.3099324740208
  0
LINE
  5
11D0
330
6C
100
AcDbEntity
  8
0
100
AcDbLine
 10
351.4922816751312
 20
153.859824561832
 30
0.0
 11
321.5863987566879
 21
153.859824561832
 31
0.0
  0
LINE
  5
11D2
330
6C
100
AcDbEntity
  8
0
100
AcDbLine
 10
351.4922816751312
 20
228.859824561832
 30
0.0
 11
321.5863987566879
 21
228.859824561832
 31
0.0
  0
LINE
  5
11DC
330
6C
100
AcDbEntity
  8
0
100
AcDbLine
 10
359.5863987566878
 20
155.359824561832
 30
0.0
 11
352.6689784859603
 21
153.9763405076865
 31
0.0
  0
LINE
  5
11DD
330
6C
100
AcDbEntity
  8
0
100
AcDbLine
 10
359.5863987566878
 20
227.359824561832
 30
0.0
 11
352.6689784859603
 21
228.7433086159775
 31
0.0
  0
LINE
  5
11DE
330
6C
100
AcDbEntity
  8
0
100
AcDbLine
 10
321.5863987566879
 20
153.859824561832
 30
0.0
 11
275.6440713831269
 21
153.859824561832
 31
0.0
  0
LINE
  5
11DF
330
6C
100
AcDbEntity
  8
0
100
AcDbLine
 10
321.5863987566879
 20
228.859824561832
 30
0.0
 11
275.6440713831269
 21
228.859824561832
 31
0.0
  0
LINE
  5
11F6
330
6C
100
AcDbEntity
  8
0
100
AcDbLine
 10
347.3503307791881
 20
153.859824561832
 30
0.0
 11
341.8224667341877
 21
153.859824561832
 31
0.0
  0
LINE
  5
11F7
330
6C
100
AcDbEntity
  8
0
100
AcDbLine
 10
347.3503307791881
 20
228.859824561832
 30
0.0
 11
341.8224667341877
 21
228.859824561832
 31
0.0
  0
ARC
  5
16AB
330
6C
100
AcDbEntity
  8
0
100
AcDbCircle
 10
200.0441389965075
 20
283.5255388475927
 30
0.0
 40
0.1000000000000675
100
AcDbArc
 50
207.5131325472578
 51
264.4487627545296
  0
ARC
  5
16AC
330
6C
100
AcDbEntity
  8
0
100
AcDbCircle
 10
182.1286585168684
 20
283.5255388475927
 30
0.0
 40
0.0999999999999611
100
AcDbArc
 50
275.5512372454581
 51
332.486867452741
  0
CIRCLE
  5
16AD
330
6C
100
AcDbEntity
  8
0
100
AcDbCircle
 10
191.0863987566879
 20
278.8598245618812
 30
0.0
 40
9.999999999999991
  0
ARC
  5
16B0
330
6C
100
AcDbEntity
  8
0
100
AcDbCircle
 10
191.0863987566879
 20
191.3598245618785
 30
0.0
 40
92.49999999999992
100
AcDbArc
 50
95.55123724547639
 51
84.44876275452354
  0
LINE
  5
20FB
330
6C
100
AcDbEntity
  8
7
  6
Continuous
100
AcDbLine
 10
191.0863987569874
 20
379.2214917065198
 30
0.0
 11
191.0863987569874
 21
510.5989651327006
 31
0.0
  0
LINE
  5
20FC
330
6C
100
AcDbEntity
  8
7
  6
Continuous
100
AcDbLine
 10
285.836398756688
 20
191.3598245618645
 30
0.0
 11
96.33639875668793
 21
191.3598245618645
 31
0.0
  0
LINE
  5
20FD
330
6C
100
AcDbEntity
  8
7
  6
Continuous
100
AcDbLine
 10
191.0863987566879
 20
286.1098245618645
 30
0.0
 11
191.0863987566879
 21
96.60982456186452
 31
0.0
  0
LINE
  5
26AC
330
6C
100
AcDbEntity
  8
7
  6
Continuous
100
AcDbLine
 10
363.1359429711956
 20
404.8489651327008
 30
0.0
 11
270.8363987569874
 21
404.8489651327006
 31
0.0
  0
LINE
  5
26AD
330
6C
100
AcDbEntity
  8
7
  6
Continuous
100
AcDbLine
 10
370.7558749795471
 20
191.359824561832
 30
0.0
 11
270.8363987566879
 21
191.359824561832
 31
0.0
  0
CIRCLE
  5
29EC
330
6C
100
AcDbEntity
  8
0
100
AcDbCircle
 10
191.0863987566879
 20
191.3598245618645
 30
0.0
 40
76.99999999970049
  0
CIRCLE
  5
29ED
330
6C
100
AcDbEntity
  8
0
100
AcDbCircle
 10
191.0863987566879
 20
191.3598245618645
 30
0.0
 40
72.43999999970045
  0
DIMENSION
  5
29F2
330
6C
100
AcDbEntity
  8
5
100
AcDbDimension
  2
*D44
 10
100.0863987569874
 20
526.3489651327006
 30
0.0
 11
191.0863987569874
 21
535.526802607516
 31
0.0
 70
    32
  1
%%c<>
 71
     5
 42
182.0
  3
GEN-ISO
100
AcDbAlignedDimension
 13
282.0863987569875
 23
514.3489651327008
 33
0.0
 14
100.0863987569874
 24
514.3489651327008
 34
0.0
100
AcDbRotatedDimension
1001
ACAD
1000
DSTYLE
1002
{
1070
     3
1000

1070
   271
1070
     0
1002
}
1001
ACAD_DSTYLE_DIMINSPECT
1070
   396
1000
100%
1070
   395
1000

1070
   394
1070
    33
1070
   393
1070
     0
  0
DIMENSION
  5
2A1E
330
6C
100
AcDbEntity
  8
5
100
AcDbDimension
  2
*D45
 10
269.5863987569874
 20
343.9537230892609
 30
0.0
 11
191.0863987569874
 21
352.3229641906711
 31
0.0
 70
    32
 71
     5
 42
157.0
  3
GEN-ISO
100
AcDbAlignedDimension
 13
112.5863987569874
 23
383.8489651327007
 33
0.0
 14
269.5863987569874
 24
447.3489651327008
 34
0.0
 50
0.0000000000001132
100
AcDbRotatedDimension
1001
ACAD_DSTYLE_DIMINSPECT
1070
   396
1000
100%
1070
   395
1000

1070
   394
1070
    33
1070
   393
1070
     0
1001
ACAD
1000
DSTYLE
1002
{
1070
     3
1000

1070
   271
1070
     0
1002
}
  0
DIMENSION
  5
2A40
330
6C
100
AcDbEntity
  8
5
100
AcDbDimension
  2
*D46
 10
383.2039252826483
 20
367.3489651327008
 30
0.0
 11
383.2039252826482
 21
404.8489651327008
 31
0.0
 70
   160
  1
%%c<>
 71
     5
 42
75.0
  3
GEN-ISO
100
AcDbAlignedDimension
 13
351.4922816754307
 23
442.3489651327008
 33
0.0
 14
351.4922816754307
 24
367.3489651327008
 34
0.0
 50
90.00000000000005
100
AcDbRotatedDimension
1001
ACAD
1000
DSTYLE
1002
{
1070
     3
1000

1070
   271
1070
     0
1002
}
1001
ACAD_DSTYLE_DIMINSPECT
1070
   396
1000
100%
1070
   395
1000

1070
   394
1070
    33
1070
   393
1070
     0
  0
DIMENSION
  5
2A62
330
6C
100
AcDbEntity
  8
5
100
AcDbDimension
  2
*D47
 10
422.367764017785
 20
367.3489651327006
 30
0.0
 11
422.367764017785
 21
440.8489651327008
 31
0.0
 70
   160
 71
     5
 42
147.0
  3
GEN-ISO
100
AcDbAlignedDimension
 13
282.0863987569875
 23
514.3489651327008
 33
0.0
 14
351.4922816754307
 24
367.3489651327008
 34
0.0
 50
90.0
100
AcDbRotatedDimension
1001
ACAD_DSTYLE_DIMINSPECT
1070
   396
1000
100%
1070
   395
1000

1070
   394
1070
    33
1070
   393
1070
     0
1001
ACAD
1000
DSTYLE
1002
{
1070
     3
1000

1070
   271
1070
     0
1002
}
  0
DIMENSION
  5
2A84
330
6C
100
AcDbEntity
  8
5
100
AcDbDimension
  2
*D48
 10
403.5660766599288
 20
514.3489651327008
 30
0.0
 11
403.5660766599287
 21
459.5989651327008
 31
0.0
 70
   160
 71
     5
 42
109.4999999999999
  3
GEN-ISO
100
AcDbAlignedDimension
 13
385.0807945542328
 23
404.8489651327008
 33
0.0
 14
282.0863987569875
 24
514.3489651327008
 34
0.0
 50
90.00000000000005
100
AcDbRotatedDimension
1001
ACAD_DSTYLE_DIMINSPECT
1070
   396
1000
100%
1070
   395
1000

1070
   394
1070
    33
1070
   393
1070
     0
1001
ACAD
1000
DSTYLE
1002
{
1070
     3
1000

1070
   271
1070
     0
1002
}
  0
DIMENSION
  5
2AA6
330
6C
100
AcDbEntity
  8
5
100
AcDbDimension
  2
*D49
 10
359.5863987569874
 20
324.4105810354565
 30
0.0
 11
275.3363987569874
 21
332.8973506795128
 31
0.0
 70
    32
 71
     5
 42
168.4999999999999
  3
GEN-ISO
100
AcDbAlignedDimension
 13
191.0863987569874
 23
336.4105810354563
 33
0.0
 14
359.5863987569874
 24
368.8489651327008
 34
0.0
 50
0.0000000000001132
100
AcDbRotatedDimension
1001
ACAD_DSTYLE_DIMINSPECT
1070
   396
1000
100%
1070
   395
1000

1070
   394
1070
    33
1070
   393
1070
     0
1001
ACAD
1000
DSTYLE
1002
{
1070
     3
1000

1070
   271
1070
     0
1002
}
  0
ENDSEC
  0
SECTION
  2
OBJECTS
  0
DICTIONARY
  5
C
330
0
100
AcDbDictionary
281
     1
  3
ACAD_2007HEADERVARS_RT
350
2D5E
  3
ACAD_CIP_PREVIOUS_PRODUCT_INFO
350
2719
  3
ACAD_COLOR
350
63
  3
ACAD_GROUP
350
D
  3
ACAD_LAYOUT
350
62
  3
ACAD_MATERIAL
350
10
  3
ACAD_MLEADERSTYLE
350
66
  3
ACAD_MLINESTYLE
350
5F
  3
ACAD_PLOTSETTINGS
350
61
  3
ACAD_PLOTSTYLENAME
350
E
  3
ACAD_SCALELIST
350
42
  3
ACAD_TABLESTYLE
350
64
  3
ACAD_VISUALSTYLE
350
29
  3
ACDB_RECOMPOSE_DATA
350
2D5D
  3
AcDbVariableDictionary
350
2755
  3
AcmDictionary
350
27C1
  3
AEC_PROPERTY_SET_DEFS
350
28DA
  3
AMG
350
2767
  3
AMGSNAPSETTINGS
350
2801
  0
DICTIONARY
  5
2870
330
2
100
AcDbDictionary
280
     1
281
     1
  3
ACAD_LAYERSTATES
360
2871
  0
DICTIONARY
  5
286A
330
2869
100
AcDbDictionary
280
     1
281
     1
  0
DICTIONARY
  5
286C
330
286B
100
AcDbDictionary
280
     1
281
     1
  0
DICTIONARY
  5
2D48
330
C9
100
AcDbDictionary
280
     1
281
     1
  3
ACAD_MTEXT_2008_RT
360
2D49
  0
DICTIONARY
  5
2D94
330
1E2
100
AcDbDictionary
280
     1
281
     1
  3
ACAD_MTEXT_2008_RT
360
2D95
  0
DICTIONARY
  5
2D96
330
1E7
100
AcDbDictionary
280
     1
281
     1
  3
ACAD_MTEXT_2008_RT
360
2D97
  0
DICTIONARY
  5
271E
330
1E9
100
AcDbDictionary
280
     1
281
     1
  3
ACAD_MLATT
360
2D4B
  3
ACAD_XREC_ROUNDTRIP
360
2D4A
  0
DICTIONARY
  5
2721
330
1ED
100
AcDbDictionary
280
     1
281
     1
  3
ACAD_MLATT
360
2D4D
  3
ACAD_XREC_ROUNDTRIP
360
2D4C
  0
DICTIONARY
  5
2724
330
1EE
100
AcDbDictionary
280
     1
281
     1
  3
ACAD_MLATT
360
2D4F
  3
ACAD_XREC_ROUNDTRIP
360
2D4E
  0
DICTIONARY
  5
2727
330
1EF
100
AcDbDictionary
280
     1
281
     1
  3
ACAD_MLATT
360
2D51
  3
ACAD_XREC_ROUNDTRIP
360
2D50
  0
DICTIONARY
  5
272A
330
1F0
100
AcDbDictionary
280
     1
281
     1
  3
ACAD_MLATT
360
2D53
  3
ACAD_XREC_ROUNDTRIP
360
2D52
  0
DICTIONARY
  5
272D
330
1F2
100
AcDbDictionary
280
     1
281
     1
  3
ACAD_MLATT
360
2D55
  3
ACAD_XREC_ROUNDTRIP
360
2D54
  0
DICTIONARY
  5
2730
330
1F3
100
AcDbDictionary
280
     1
281
     1
  3
ACAD_MLATT
360
2D57
  3
ACAD_XREC_ROUNDTRIP
360
2D56
  0
DICTIONARY
  5
2733
330
1F4
100
AcDbDictionary
280
     1
281
     1
  3
ACAD_MLATT
360
2D59
  3
ACAD_XREC_ROUNDTRIP
360
2D58
  0
DICTIONARY
  5
2736
330
1F5
100
AcDbDictionary
280
     1
281
     1
  3
ACAD_MLATT
360
2D5B
  3
ACAD_XREC_ROUNDTRIP
360
2D5A
  0
DICTIONARY
  5
2D98
330
2105
100
AcDbDictionary
280
     1
281
     1
  3
ACAD_MTEXT_2008_RT
360
2D99
  0
DICTIONARY
  5
2D9A
330
2109
100
AcDbDictionary
280
     1
281
     1
  3
ACAD_MTEXT_2008_RT
360
2D9B
  0
DICTIONARY
  5
2D9C
330
210D
100
AcDbDictionary
280
     1
281
     1
  3
ACAD_MTEXT_2008_RT
360
2D9D
  0
DICTIONARY
  5
2D9E
330
2118
100
AcDbDictionary
280
     1
281
     1
  3
ACAD_MTEXT_2008_RT
360
2D9F
  0
DICTIONARY
  5
2DA0
330
2119
100
AcDbDictionary
280
     1
281
     1
  3
ACAD_MTEXT_2008_RT
360
2DA1
  0
DICTIONARY
  5
2DA2
330
2120
100
AcDbDictionary
280
     1
281
     1
  3
ACAD_MTEXT_2008_RT
360
2DA3
  0
DICTIONARY
  5
2DA4
330
2127
100
AcDbDictionary
280
     1
281
     1
  3
ACAD_MTEXT_2008_RT
360
2DA5
  0
DICTIONARY
  5
2DA6
330
212B
100
AcDbDictionary
280
     1
281
     1
  3
ACAD_MTEXT_2008_RT
360
2DA7
  0
DICTIONARY
  5
2DA8
330
212E
100
AcDbDictionary
280
     1
281
     1
  3
ACAD_MTEXT_2008_RT
360
2DA9
  0
DICTIONARY
  5
2DAA
330
2135
100
AcDbDictionary
280
     1
281
     1
  3
ACAD_MTEXT_2008_RT
360
2DAB
  0
DICTIONARY
  5
2DAC
330
213C
100
AcDbDictionary
280
     1
281
     1
  3
ACAD_MTEXT_2008_RT
360
2DAD
  0
DICTIONARY
  5
2DAE
330
2140
100
AcDbDictionary
280
     1
281
     1
  3
ACAD_MTEXT_2008_RT
360
2DAF
  0
DICTIONARY
  5
2DB0
330
2233
100
AcDbDictionary
280
     1
281
     1
  3
ACAD_MTEXT_2008_RT
360
2DB1
  0
DICTIONARY
  5
2DB2
330
230F
100
AcDbDictionary
280
     1
281
     1
  3
ACAD_MTEXT_2008_RT
360
2DB3
  0
DICTIONARY
  5
2DB4
330
23F5
100
AcDbDictionary
280
     1
281
     1
  3
ACAD_MTEXT_2008_RT
360
2DB5
  0
DICTIONARY
  5
2DB6
330
2702
100
AcDbDictionary
280
     1
281
     1
  3
ACAD_MTEXT_2008_RT
360
2DB7
  0
DICTIONARY
  5
2DB8
330
270E
100
AcDbDictionary
280
     1
281
     1
  3
ACAD_MTEXT_2008_RT
360
2DB9
  0
DICTIONARY
  5
2D5E
102
{ACAD_REACTORS
330
C
102
}
330
C
100
AcDbDictionary
281
     1
  3
DIMARCSYM
350
2D5F
  3
DIMLTEX1
350
2D61
  3
DIMLTEX2
350
2D62
  3
DIMLTYPE
350
2D60
  0
XRECORD
  5
2719
102
{ACAD_REACTORS
330
C
102
}
330
C
100
AcDbXrecord
280
     1
300
INVNTOR
300
2012
300
PDSP_F_S
  0
DICTIONARY
  5
63
102
{ACAD_REACTORS
330
C
102
}
330
C
100
AcDbDictionary
281
     1
  0
DICTIONARY
  5
D
102
{ACAD_REACTORS
330
C
102
}
330
C
100
AcDbDictionary
281
     1
  0
DICTIONARY
  5
62
102
{ACAD_REACTORS
330
C
102
}
330
C
100
AcDbDictionary
281
     1
  3
Layout1
350
6B
  3
Layout2
350
73
  3
Model
350
6F
  0
DICTIONARY
  5
10
102
{ACAD_REACTORS
330
C
102
}
330
C
100
AcDbDictionary
281
     1
  3
ByBlock
350
19
  3
ByLayer
350
11
  3
Global
350
21
  0
DICTIONARY
  5
66
102
{ACAD_REACTORS
330
C
102
}
330
C
100
AcDbDictionary
281
     1
  3
Standard
350
67
  0
DICTIONARY
  5
5F
102
{ACAD_REACTORS
330
C
102
}
330
C
100
AcDbDictionary
281
     1
  3
Standard
350
60
  0
DICTIONARY
  5
61
102
{ACAD_REACTORS
330
C
102
}
330
C
100
AcDbDictionary
281
     1
  0
ACDBDICTIONARYWDFLT
  5
E
102
{ACAD_REACTORS
330
C
102
}
330
C
100
AcDbDictionary
281
     1
  3
Normal
350
F
100
AcDbDictionaryWithDefault
340
F
  0
DICTIONARY
  5
42
102
{ACAD_REACTORS
330
C
102
}
330
C
100
AcDbDictionary
281
     1
  3
A0
350
43
  3
A1
350
44
  3
A2
350
45
  3
A3
350
46
  3
A4
350
47
  3
A5
350
48
  3
A6
350
49
  3
A7
350
4A
  3
A8
350
4B
  3
A9
350
4C
  3
B0
350
4D
  3
B1
350
4E
  3
B2
350
4F
  3
B3
350
50
  3
B4
350
51
  3
B5
350
52
  3
B6
350
53
  0
DICTIONARY
  5
64
102
{ACAD_REACTORS
330
C
102
}
330
C
100
AcDbDictionary
281
     1
  3
Standard
350
65
  0
DICTIONARY
  5
29
102
{ACAD_REACTORS
330
C
102
}
330
C
100
AcDbDictionary
281
     1
  3
2dWireframe
350
2F
  3
3D Hidden
350
275B
  3
3dWireframe
350
275A
  3
Basic
350
2E
  3
Brighten
350
35
  3
ColorChange
350
39
  3
Conceptual
350
32
  3
Dim
350
34
  3
EdgeColorOff
350
41
  3
Facepattern
350
38
  3
Flat
350
2A
  3
FlatWithEdges
350
2B
  3
Gouraud
350
2C
  3
GouraudWithEdges
350
2D
  3
Hidden
350
31
  3
JitterOff
350
3F
  3
Linepattern
350
37
  3
OverhangOff
350
40
  3
Realistic
350
33
  3
Shaded
350
3E
  3
Shaded with edges
350
3D
  3
Shades of Gray
350
3A
  3
Sketchy
350
3B
  3
Thicken
350
36
  3
Wireframe
350
30
  3
X-Ray
350
3C
  0
XRECORD
  5
2D5D
102
{ACAD_REACTORS
330
C
102
}
330
C
100
AcDbXrecord
280
     1
 90
        1
330
65
330
C9
330
1E9
330
1ED
330
1EE
330
1EF
330
1F0
330
1F2
330
1F3
330
1F4
330
1F5
  0
DICTIONARY
  5
2755
102
{ACAD_REACTORS
330
C
102
}
330
C
100
AcDbDictionary
281
     1
  3
CANNOSCALE
350
2758
  3
CMLEADERSTYLE
350
2757
  3
CTABLESTYLE
350
2756
  3
LAYEREVAL
350
2C3A
  3
LAYERNOTIFY
350
2C3B
  3
LIGHTINGUNITS
350
2C39
  3
MSLTSCALE
350
2C38
  3
SOLIDHIST
350
2C3C
  3
XCLIPFRAME
350
2D46
  0
DICTIONARY
  5
27C1
102
{ACAD_REACTORS
330
C
102
}
330
C
100
AcDbDictionary
281
     1
  3
AcmStdDictionary
350
27CB
  0
DICTIONARY
  5
28DA
102
{ACAD_REACTORS
330
C
102
}
330
C
100
AcDbDictionary
281
     1
  0
DICTIONARY
  5
2767
102
{ACAD_REACTORS
330
C
102
}
330
C
100
AcDbDictionary
281
     1
  0
DICTIONARY
  5
2801
102
{ACAD_REACTORS
330
C
102
}
330
C
100
AcDbDictionary
281
     1
  0
DICTIONARY
  5
2871
102
{ACAD_REACTORS
330
2870
102
}
330
2870
100
AcDbDictionary
281
     1
  0
XRECORD
  5
2D49
102
{ACAD_REACTORS
330
2D48
102
}
330
2D48
100
AcDbXrecord
280
     1
 40
2697178.0
  1
\pxsm0.94;WIG Schweisung, Nahte sauber geschliffen und poliert\PSichtstege geschliffen mit 240 Korn und abgeklebt.\P\fTahoma|b0|i0;\H3.0000; \P\fTahoma|b0|i0;\H3.5000;WIG svarovani- svary dle potreby zabrousit.\PPohledove plochy brousit (vel. brusnyc
  1
h zrn 240)\Pa polepit paskou
  0
XRECORD
  5
2D95
102
{ACAD_REACTORS
330
2D94
102
}
330
2D94
100
AcDbXrecord
280
     1
 40
141691.0
  1
Effidrain sestava dvoudílná  157 vodorovná
  0
XRECORD
  5
2D97
102
{ACAD_REACTORS
330
2D96
102
}
330
2D96
100
AcDbXrecord
280
     1
 40
23258.0
  1
Není k dispozici
  0
XRECORD
  5
2D4B
102
{ACAD_REACTORS
330
271E
102
}
330
271E
100
AcDbXrecord
280
     1
 70
     4
 70
     0
 70
     0
 40
1.0
  2
ČÍSLO_REVIZE
  1
Embedded Object
 10
287.6423193699604
 20
66.0
 30
0.0
 40
3.499999940395355
 41
0.0
 46
0.0
 71
     1
 72
     5
  1
001
  7
Styl textu9
 73
     1
 44
1.0
  0
XRECORD
  5
2D4A
102
{ACAD_REACTORS
330
271E
102
}
330
271E
100
AcDbXrecord
280
     1
102
ACAD_MATT_HEIGHT
140
3.499999940395355
  0
XRECORD
  5
2D4D
102
{ACAD_REACTORS
330
2721
102
}
330
2721
100
AcDbXrecord
280
     1
 70
     4
 70
     0
 70
     0
 40
1.0
  2
Sheet_Size
  1
Embedded Object
 10
289.7753402652471
 20
48.33701147296152
 30
0.0
 40
2.000000029802321
 41
0.0
 46
0.0
 71
     1
 72
     5
  1
A2
  7
Styl textu40
 73
     1
 44
1.0
  0
XRECORD
  5
2D4C
102
{ACAD_REACTORS
330
2721
102
}
330
2721
100
AcDbXrecord
280
     1
102
ACAD_MATT_HEIGHT
140
2.000000029802321
  0
XRECORD
  5
2D4F
102
{ACAD_REACTORS
330
2724
102
}
330
2724
100
AcDbXrecord
280
     1
 70
     4
 70
     0
 70
     0
 40
1.0
  2
FILENAME_AND_PATH
  1
Embedded Object
 10
230.2697279123746
 20
53.13502004542946
 30
0.0
 40
2.000000029802321
 41
0.0
 46
0.0
 71
     1
 72
     5
  1
C:\\Inventor_DATA\\Projekty\\Guly\\Effidrain\\Effidrain sestava dvoudílná  157 vodorovná\\408072.iam
  7
Styl textu40
 73
     1
 44
1.0
  0
XRECORD
  5
2D4E
102
{ACAD_REACTORS
330
2724
102
}
330
2724
100
AcDbXrecord
280
     1
102
ACAD_MATT_HEIGHT
140
2.000000029802321
  0
XRECORD
  5
2D51
102
{ACAD_REACTORS
330
2727
102
}
330
2727
100
AcDbXrecord
280
     1
 70
     4
 70
     0
 70
     0
 40
1.0
  2
PART_NUMBER
  1
Embedded Object
 10
218.0
 20
66.0
 30
0.0
 40
3.499999940395355
 41
0.0
 46
0.0
 71
     1
 72
     5
  1
408072
  7
Text poznámky (ISO)
 73
     1
 44
1.0
  0
XRECORD
  5
2D50
102
{ACAD_REACTORS
330
2727
102
}
330
2727
100
AcDbXrecord
280
     1
102
ACAD_MATT_HEIGHT
140
3.499999940395355
  0
XRECORD
  5
2D53
102
{ACAD_REACTORS
330
272A
102
}
330
272A
100
AcDbXrecord
280
     1
 70
     4
 70
     0
 70
     0
 40
1.0
  2
PROJECT
  1
Embedded Object
 10
118.0
 20
60.0
 30
0.0
 40
3.499999940395355
 41
0.0
 46
0.0
 71
     1
 72
     5
  1

  7
Text poznámky (ISO)
 73
     1
 44
1.0
  0
XRECORD
  5
2D52
102
{ACAD_REACTORS
330
272A
102
}
330
272A
100
AcDbXrecord
280
     1
102
ACAD_MATT_HEIGHT
140
3.499999940395355
  0
XRECORD
  5
2D55
102
{ACAD_REACTORS
330
272D
102
}
330
272D
100
AcDbXrecord
280
     1
 70
     4
 70
     0
 70
     0
 40
1.0
  2
SKLADOVÉ_ČÍSLO
  1
Embedded Object
 10
118.0
 20
54.89391305489238
 30
0.0
 40
6.99999988079071
 41
153.2966041564941
 46
0.0
 71
     1
 72
     5
  1
408072
  7
Styl textu94
 73
     1
 44
1.0
  0
XRECORD
  5
2D54
102
{ACAD_REACTORS
330
272D
102
}
330
272D
100
AcDbXrecord
280
     1
102
ACAD_MATT_HEIGHT
140
6.99999988079071
  0
XRECORD
  5
2D57
102
{ACAD_REACTORS
330
2730
102
}
330
2730
100
AcDbXrecord
280
     1
 70
     4
 70
     0
 70
     0
 40
1.0
  2
MATERIAL
  1
Embedded Object
 10
117.5939056808251
 20
108.6756657996811
 30
0.0
 40
3.499999940395355
 41
0.0
 46
0.0
 71
     1
 72
     5
  1

  7
Text poznámky (ISO)
 73
     1
 44
1.0
  0
XRECORD
  5
2D56
102
{ACAD_REACTORS
330
2730
102
}
330
2730
100
AcDbXrecord
280
     1
102
ACAD_MATT_HEIGHT
140
3.499999940395355
  0
XRECORD
  5
2D59
102
{ACAD_REACTORS
330
2733
102
}
330
2733
100
AcDbXrecord
280
     1
 70
     4
 70
     0
 70
     0
 40
1.0
  2
AUTHOR
  1
Embedded Object
 10
165.2312259808574
 20
87.78242706242744
 30
0.0
 40
2.000000029802321
 41
15.06250023841858
 46
0.0
 71
     1
 72
     5
  1
pmacoun
  7
Styl textu40
 73
     1
 44
1.0
  0
XRECORD
  5
2D58
102
{ACAD_REACTORS
330
2733
102
}
330
2733
100
AcDbXrecord
280
     1
102
ACAD_MATT_HEIGHT
140
2.000000029802321
  0
XRECORD
  5
2D5B
102
{ACAD_REACTORS
330
2736
102
}
330
2736
100
AcDbXrecord
280
     1
 70
     4
 70
     0
 70
     0
 40
1.0
  2
VS_First
  1
Embedded Object
 10
189.1855699863978
 20
86.00038821032343
 30
0.0
 40
3.499999940395355
 41
24.15597186978378
 46
0.0
 71
     1
 72
     5
  1

  7
Text poznámky (ISO)
 73
     1
 44
1.0
  0
XRECORD
  5
2D5A
102
{ACAD_REACTORS
330
2736
102
}
330
2736
100
AcDbXrecord
280
     1
102
ACAD_MATT_HEIGHT
140
3.499999940395355
  0
XRECORD
  5
2D99
102
{ACAD_REACTORS
330
2D98
102
}
330
2D98
100
AcDbXrecord
280
     1
 40
7165.0
  1
KUSOVNÍK
  0
XRECORD
  5
2D9B
102
{ACAD_REACTORS
330
2D9A
102
}
330
2D9A
100
AcDbXrecord
280
     1
 40
6807.0
  1
MATERIÁL
  0
XRECORD
  5
2D9D
102
{ACAD_REACTORS
330
2D9C
102
}
330
2D9C
100
AcDbXrecord
280
     1
 40
6841.0
  1
SKLADOVÉ
  0
XRECORD
  5
2D9F
102
{ACAD_REACTORS
330
2D9E
102
}
330
2D9E
100
AcDbXrecord
280
     1
 40
141247.0
  1
Effidrai dvoudílná  157/DN70 vodorovná 12mm 
  0
XRECORD
  5
2DA1
102
{ACAD_REACTORS
330
2DA0
102
}
330
2DA0
100
AcDbXrecord
280
     1
 40
26991.0
  1
příruba AISI 304
  0
XRECORD
  5
2DA3
102
{ACAD_REACTORS
330
2DA2
102
}
330
2DA2
100
AcDbXrecord
280
     1
 40
22034.0
  1
návlek sunap-DN70
  0
XRECORD
  5
2DA5
102
{ACAD_REACTORS
330
2DA4
102
}
330
2DA4
100
AcDbXrecord
280
     1
 40
202759.0
  1
Effidrain drenážní kroužek komplet 157 + karton
  0
XRECORD
  5
2DA7
102
{ACAD_REACTORS
330
2DA6
102
}
330
2DA6
100
AcDbXrecord
280
     1
 40
57602.0
  1
Polykarbonát, kouřový
  0
XRECORD
  5
2DA9
102
{ACAD_REACTORS
330
2DA8
102
}
330
2DA8
100
AcDbXrecord
280
     1
 40
130256.0
  1
Effidrain kryt plastový 157 pro balení PP 12mm
  0
XRECORD
  5
2DAB
102
{ACAD_REACTORS
330
2DAA
102
}
330
2DAA
100
AcDbXrecord
280
     1
 40
164968.0
  1
Krytka  matic 130-034-148 šestihranná, černá
  0
XRECORD
  5
2DAD
102
{ACAD_REACTORS
330
2DAC
102
}
330
2DAC
100
AcDbXrecord
280
     1
 40
61553.0
  1
Šestihranná matice M8 DIN 934
  0
XRECORD
  5
2DAF
102
{ACAD_REACTORS
330
2DAE
102
}
330
2DAE
100
AcDbXrecord
280
     1
 40
4936.0
  1
Papír
  0
XRECORD
  5
2DB1
102
{ACAD_REACTORS
330
2DB0
102
}
330
2DB0
100
AcDbXrecord
280
     1
 40
25734.0
  1
\A1;247{\H5.257800;±2}
  0
XRECORD
  5
2DB3
102
{ACAD_REACTORS
330
2DB2
102
}
330
2DB2
100
AcDbXrecord
280
     1
 40
9029.0
  1
\A1;{\U+00D8}157
  0
XRECORD
  5
2DB5
102
{ACAD_REACTORS
330
2DB4
102
}
330
2DB4
100
AcDbXrecord
280
     1
 40
25729.0
  1
\A1;147{\H5.257800;±2}
  0
XRECORD
  5
2DB7
102
{ACAD_REACTORS
330
2DB6
102
}
330
2DB6
100
AcDbXrecord
280
     1
 40
15876.0
  1
HISTORIE REVIZÍ
  0
XRECORD
  5
2DB9
102
{ACAD_REACTORS
330
2DB8
102
}
330
2DB8
100
AcDbXrecord
280
     1
 40
28307.0
  1
Odebrán excentr 98/75
  0
XRECORD
  5
2D5F
102
{ACAD_REACTORS
330
2D5E
102
}
330
2D5E
100
AcDbXrecord
280
     1
 70
     1
  0
XRECORD
  5
2D61
102
{ACAD_REACTORS
330
2D5E
102
}
330
2D5E
100
AcDbXrecord
280
     1
340
5B
  0
XRECORD
  5
2D62
102
{ACAD_REACTORS
330
2D5E
102
}
330
2D5E
100
AcDbXrecord
280
     1
340
5B
  0
XRECORD
  5
2D60
102
{ACAD_REACTORS
330
2D5E
102
}
330
2D5E
100
AcDbXrecord
280
     1
340
5B
  0
LAYOUT
  5
6B
102
{ACAD_REACTORS
330
62
102
}
330
62
100
AcDbPlotSettings
  1

  2

  4

  6

 40
0.0
 41
0.0
 42
0.0
 43
0.0
 44
0.0
 45
0.0
 46
0.0
 47
0.0
 48
0.0
 49
0.0
140
0.0
141
0.0
142
1.0
143
1.0
 70
   688
 72
     0
 73
     0
 74
     5
  7

 75
    16
147
1.0
 76
     0
 77
     2
 78
   300
148
0.0
149
0.0
100
AcDbLayout
  1
Layout1
 70
     1
 71
     1
 10
0.0
 20
0.0
 11
891.0
 21
630.0
 12
0.0
 22
0.0
 32
0.0
 14
0.0
 24
0.0
 34
0.0
 15
891.0
 25
630.0
 35
0.0
146
0.0
 13
0.0
 23
0.0
 33
0.0
 16
1.0
 26
0.0
 36
0.0
 17
0.0
 27
1.0
 37
0.0
 76
     0
330
68
  0
LAYOUT
  5
73
102
{ACAD_REACTORS
330
62
102
}
330
62
100
AcDbPlotSettings
  1

  2

  4

  6

 40
0.0
 41
0.0
 42
0.0
 43
0.0
 44
0.0
 45
0.0
 46
0.0
 47
0.0
 48
0.0
 49
0.0
140
0.0
141
0.0
142
1.0
143
1.0
 70
   688
 72
     0
 73
     0
 74
     5
  7

 75
    16
147
1.0
 76
     0
 77
     2
 78
   300
148
0.0
149
0.0
100
AcDbLayout
  1
Layout2
 70
     1
 71
     2
 10
0.0
 20
0.0
 11
12.0
 21
9.0
 12
0.0
 22
0.0
 32
0.0
 14
0.0
 24
0.0
 34
0.0
 15
0.0
 25
0.0
 35
0.0
146
0.0
 13
0.0
 23
0.0
 33
0.0
 16
1.0
 26
0.0
 36
0.0
 17
0.0
 27
1.0
 37
0.0
 76
     0
330
70
  0
LAYOUT
  5
6F
102
{ACAD_REACTORS
330
62
102
}
330
62
100
AcDbPlotSettings
  1

  2

  4

  6

 40
0.0
 41
0.0
 42
0.0
 43
0.0
 44
0.0
 45
0.0
 46
0.0
 47
0.0
 48
0.0
 49
0.0
140
0.0
141
0.0
142
1.0
143
1.0
 70
  1712
 72
     0
 73
     0
 74
     0
  7

 75
     0
147
1.0
 76
     0
 77
     2
 78
   300
148
0.0
149
0.0
100
AcDbLayout
  1
Model
 70
     1
 71
     0
 10
0.0
 20
0.0
 11
12.0
 21
9.0
 12
0.0
 22
0.0
 32
0.0
 14
0.0
 24
0.0
 34
0.0
 15
0.0
 25
0.0
 35
0.0
146
0.0
 13
0.0
 23
0.0
 33
0.0
 16
1.0
 26
0.0
 36
0.0
 17
0.0
 27
1.0
 37
0.0
 76
     0
330
6C
331
57
  0
MATERIAL
  5
19
102
{ACAD_XDICTIONARY
360
1A
102
}
102
{ACAD_REACTORS
330
10
102
}
330
10
100
AcDbMaterial
  1
ByBlock
 72
     0
 43
0.0208333333333333
 43
0.0
 43
0.0
 43
0.0
 43
0.0
 43
0.0208333333333333
 43
0.0
 43
0.0
 43
0.0
 43
0.0
 43
1.0
 43
0.0
 43
0.0
 43
0.0
 43
0.0
 43
1.0
 77
     0
 47
0.0208333333333333
 47
0.0
 47
0.0
 47
0.0
 47
0.0
 47
0.0208333333333333
 47
0.0
 47
0.0
 47
0.0
 47
0.0
 47
1.0
 47
0.0
 47
0.0
 47
0.0
 47
0.0
 47
1.0
171
     0
 49
0.0208333333333333
 49
0.0
 49
0.0
 49
0.0
 49
0.0
 49
0.0208333333333333
 49
0.0
 49
0.0
 49
0.0
 49
0.0
 49
1.0
 49
0.0
 49
0.0
 49
0.0
 49
0.0
 49
1.0
175
     0
142
0.0208333333333333
142
0.0
142
0.0
142
0.0
142
0.0
142
0.0208333333333333
142
0.0
142
0.0
142
0.0
142
0.0
142
1.0
142
0.0
142
0.0
142
0.0
142
0.0
142
1.0
179
     0
144
0.0208333333333333
144
0.0
144
0.0
144
0.0
144
0.0
144
0.0208333333333333
144
0.0
144
0.0
144
0.0
144
0.0
144
1.0
144
0.0
144
0.0
144
0.0
144
0.0
144
1.0
147
0.0208333333333333
147
0.0
147
0.0
147
0.0
147
0.0
147
0.0208333333333333
147
0.0
147
0.0
147
0.0
147
0.0
147
1.0
147
0.0
147
0.0
147
0.0
147
0.0
147
1.0
  0
MATERIAL
  5
11
102
{ACAD_XDICTIONARY
360
12
102
}
102
{ACAD_REACTORS
330
10
102
}
330
10
100
AcDbMaterial
  1
ByLayer
 72
     0
 43
0.0208333333333333
 43
0.0
 43
0.0
 43
0.0
 43
0.0
 43
0.0208333333333333
 43
0.0
 43
0.0
 43
0.0
 43
0.0
 43
1.0
 43
0.0
 43
0.0
 43
0.0
 43
0.0
 43
1.0
 77
     0
 47
0.0208333333333333
 47
0.0
 47
0.0
 47
0.0
 47
0.0
 47
0.0208333333333333
 47
0.0
 47
0.0
 47
0.0
 47
0.0
 47
1.0
 47
0.0
 47
0.0
 47
0.0
 47
0.0
 47
1.0
171
     0
 49
0.0208333333333333
 49
0.0
 49
0.0
 49
0.0
 49
0.0
 49
0.0208333333333333
 49
0.0
 49
0.0
 49
0.0
 49
0.0
 49
1.0
 49
0.0
 49
0.0
 49
0.0
 49
0.0
 49
1.0
175
     0
142
0.0208333333333333
142
0.0
142
0.0
142
0.0
142
0.0
142
0.0208333333333333
142
0.0
142
0.0
142
0.0
142
0.0
142
1.0
142
0.0
142
0.0
142
0.0
142
0.0
142
1.0
179
     0
144
0.0208333333333333
144
0.0
144
0.0
144
0.0
144
0.0
144
0.0208333333333333
144
0.0
144
0.0
144
0.0
144
0.0
144
1.0
144
0.0
144
0.0
144
0.0
144
0.0
144
1.0
147
0.0208333333333333
147
0.0
147
0.0
147
0.0
147
0.0
147
0.0208333333333333
147
0.0
147
0.0
147
0.0
147
0.0
147
1.0
147
0.0
147
0.0
147
0.0
147
0.0
147
1.0
  0
MATERIAL
  5
21
102
{ACAD_XDICTIONARY
360
22
102
}
102
{ACAD_REACTORS
330
10
102
}
330
10
100
AcDbMaterial
  1
Global
 72
     0
 43
0.0208333333333333
 43
0.0
 43
0.0
 43
0.0
 43
0.0
 43
0.0208333333333333
 43
0.0
 43
0.0
 43
0.0
 43
0.0
 43
1.0
 43
0.0
 43
0.0
 43
0.0
 43
0.0
 43
1.0
 77
     0
 47
0.0208333333333333
 47
0.0
 47
0.0
 47
0.0
 47
0.0
 47
0.0208333333333333
 47
0.0
 47
0.0
 47
0.0
 47
0.0
 47
1.0
 47
0.0
 47
0.0
 47
0.0
 47
0.0
 47
1.0
171
     0
 49
0.0208333333333333
 49
0.0
 49
0.0
 49
0.0
 49
0.0
 49
0.0208333333333333
 49
0.0
 49
0.0
 49
0.0
 49
0.0
 49
1.0
 49
0.0
 49
0.0
 49
0.0
 49
0.0
 49
1.0
175
     0
142
0.0208333333333333
142
0.0
142
0.0
142
0.0
142
0.0
142
0.0208333333333333
142
0.0
142
0.0
142
0.0
142
0.0
142
1.0
142
0.0
142
0.0
142
0.0
142
0.0
142
1.0
179
     0
144
0.0208333333333333
144
0.0
144
0.0
144
0.0
144
0.0
144
0.0208333333333333
144
0.0
144
0.0
144
0.0
144
0.0
144
1.0
144
0.0
144
0.0
144
0.0
144
0.0
144
1.0
147
0.0208333333333333
147
0.0
147
0.0
147
0.0
147
0.0
147
0.0208333333333333
147
0.0
147
0.0
147
0.0
147
0.0
147
1.0
147
0.0
147
0.0
147
0.0
147
0.0
147
1.0
  0
MLEADERSTYLE
  5
67
102
{ACAD_XDICTIONARY
360
271A
102
}
102
{ACAD_REACTORS
330
66
102
}
330
66
100
AcDbMLeaderStyle
170
     2
171
     1
172
     0
 90
        2
 40
0.0
 41
0.0
173
     1
 91
-1056964608
340
5B
 92
       -2
290
     1
 42
0.09
291
     1
 43
0.36
  3
Standard
 44
0.18
300

342
55
174
     1
178
     6
175
     1
176
     0
 93
-1056964608
 45
0.18
292
     0
297
     0
 46
0.18
 94
-1056964608
 47
1.0
 49
1.0
140
1.0
293
     1
141
0.0
294
     1
177
     0
142
1.0
295
     0
296
     0
143
0.125
1001
ACAD_MLEADERVER
1070
     2
  0
MLINESTYLE
  5
60
102
{ACAD_REACTORS
330
5F
102
}
330
5F
100
AcDbMlineStyle
  2
STANDARD
 70
     0
  3

 62
   256
 51
90.0
 52
90.0
 71
     2
 49
0.5
 62
   256
  6
BYLAYER
 49
-0.5
 62
   256
  6
BYLAYER
  0
ACDBPLACEHOLDER
  5
F
102
{ACAD_REACTORS
330
E
102
}
330
E
  0
SCALE
  5
43
102
{ACAD_REACTORS
330
42
102
}
330
42
100
AcDbScale
 70
     0
300
1:1
140
1.0
141
1.0
290
     1
  0
SCALE
  5
44
102
{ACAD_REACTORS
330
42
102
}
330
42
100
AcDbScale
 70
     0
300
1/128" = 1'-0"
140
0.0078125
141
12.0
290
     0
  0
SCALE
  5
45
102
{ACAD_REACTORS
330
42
102
}
330
42
100
AcDbScale
 70
     0
300
1/64" = 1'-0"
140
0.015625
141
12.0
290
     0
  0
SCALE
  5
46
102
{ACAD_REACTORS
330
42
102
}
330
42
100
AcDbScale
 70
     0
300
1/32" = 1'-0"
140
0.03125
141
12.0
290
     0
  0
SCALE
  5
47
102
{ACAD_REACTORS
330
42
102
}
330
42
100
AcDbScale
 70
     0
300
1/16" = 1'-0"
140
0.0625
141
12.0
290
     0
  0
SCALE
  5
48
102
{ACAD_REACTORS
330
42
102
}
330
42
100
AcDbScale
 70
     0
300
3/32" = 1'-0"
140
0.09375
141
12.0
290
     0
  0
SCALE
  5
49
102
{ACAD_REACTORS
330
42
102
}
330
42
100
AcDbScale
 70
     0
300
1/8" = 1'-0"
140
0.125
141
12.0
290
     0
  0
SCALE
  5
4A
102
{ACAD_REACTORS
330
42
102
}
330
42
100
AcDbScale
 70
     0
300
3/16" = 1'-0"
140
0.1875
141
12.0
290
     0
  0
SCALE
  5
4B
102
{ACAD_REACTORS
330
42
102
}
330
42
100
AcDbScale
 70
     0
300
1/4" = 1'-0"
140
0.25
141
12.0
290
     0
  0
SCALE
  5
4C
102
{ACAD_REACTORS
330
42
102
}
330
42
100
AcDbScale
 70
     0
300
3/8" = 1'-0"
140
0.375
141
12.0
290
     0
  0
SCALE
  5
4D
102
{ACAD_REACTORS
330
42
102
}
330
42
100
AcDbScale
 70
     0
300
1/2" = 1'-0"
140
0.5
141
12.0
290
     0
  0
SCALE
  5
4E
102
{ACAD_REACTORS
330
42
102
}
330
42
100
AcDbScale
 70
     0
300
3/4" = 1'-0"
140
0.75
141
12.0
290
     0
  0
SCALE
  5
4F
102
{ACAD_REACTORS
330
42
102
}
330
42
100
AcDbScale
 70
     0
300
1" = 1'-0"
140
1.0
141
12.0
290
     0
  0
SCALE
  5
50
102
{ACAD_REACTORS
330
42
102
}
330
42
100
AcDbScale
 70
     0
300
1-1/2" = 1'-0"
140
1.5
141
12.0
290
     0
  0
SCALE
  5
51
102
{ACAD_REACTORS
330
42
102
}
330
42
100
AcDbScale
 70
     0
300
3" = 1'-0"
140
3.0
141
12.0
290
     0
  0
SCALE
  5
52
102
{ACAD_REACTORS
330
42
102
}
330
42
100
AcDbScale
 70
     0
300
6" = 1'-0"
140
6.0
141
12.0
290
     0
  0
SCALE
  5
53
102
{ACAD_REACTORS
330
42
102
}
330
42
100
AcDbScale
 70
     0
300
1'-0" = 1'-0"
140
12.0
141
12.0
290
     0
  0
TABLESTYLE
  5
65
102
{ACAD_XDICTIONARY
360
2C3E
102
}
102
{ACAD_REACTORS
330
64
102
}
330
64
100
AcDbTableStyle
  3
Standard
 70
     0
 71
     0
 40
0.06
 41
0.06
280
     0
281
     0
  7
Standard
140
0.18
170
     2
 62
     0
 63
     7
283
     0
274
    -2
284
     1
 64
     0
275
    -2
285
     1
 65
     0
276
    -2
286
     1
 66
     0
277
    -2
287
     1
 67
     0
278
    -2
288
     1
 68
     0
279
    -2
289
     1
 69
     0
  7
Standard
140
0.25
170
     5
 62
     0
 63
     7
283
     0
274
    -2
284
     1
 64
     0
275
    -2
285
     1
 65
     0
276
    -2
286
     1
 66
     0
277
    -2
287
     1
 67
     0
278
    -2
288
     1
 68
     0
279
    -2
289
     1
 69
     0
  7
Standard
140
0.18
170
     5
 62
     0
 63
     7
283
     0
274
    -2
284
     1
 64
     0
275
    -2
285
     1
 65
     0
276
    -2
286
     1
 66
     0
277
    -2
287
     1
 67
     0
278
    -2
288
     1
 68
     0
279
    -2
289
     1
 69
     0
  0
VISUALSTYLE
  5
2F
102
{ACAD_XDICTIONARY
360
2D6D
102
}
102
{ACAD_REACTORS
330
29
102
}
330
29
100
AcDbVisualStyle
  2

 70
     4
 71
     0
 72
     2
 73
     0
 90
        0
 40
-0.6
 41
-30.0
 62
     5
 63
     7
421
 16777215
 74
     1
 91
        4
 64
     7
 65
   257
 75
     1
175
     1
 42
1.0
 92
        0
 66
   257
 43
1.0
 76
     1
 77
     6
 78
     2
 67
     7
 79
     5
170
     0
171
     0
290
     0
174
     0
 93
        1
 44
0.0
173
     0
291
     0
 45
0.0
1001
ACAD
1000
AcDbSavedByObjectVersion
1070
     0
  0
VISUALSTYLE
  5
275B
102
{ACAD_XDICTIONARY
360
2DBC
102
}
102
{ACAD_REACTORS
330
29
102
}
330
29
100
AcDbVisualStyle
  2

 70
     6
 71
     1
 72
     2
 73
     2
 90
        0
 40
-0.6
 41
-30.0
 62
     5
 63
     7
421
 16777215
 74
     2
 91
        2
 64
     7
 65
   257
 75
     2
175
     1
 42
179.0
 92
        0
 66
   257
 43
1.0
 76
     1
 77
     6
 78
     2
 67
     7
 79
     3
170
     0
171
     0
290
     0
174
     0
 93
        1
 44
0.0
173
     0
291
     0
 45
0.0
1001
ACAD
1000
AcDbSavedByObjectVersion
1070
     0
  0
VISUALSTYLE
  5
275A
102
{ACAD_XDICTIONARY
360
2DBA
102
}
102
{ACAD_REACTORS
330
29
102
}
330
29
100
AcDbVisualStyle
  2

 70
     5
 71
     0
 72
     2
 73
     0
 90
        0
 40
-0.6
 41
-30.0
 62
     5
 63
     7
421
 16777215
 74
     1
 91
        4
 64
     7
 65
   257
 75
     1
175
     1
 42
1.0
 92
        0
 66
   257
 43
1.0
 76
     1
 77
     6
 78
     2
 67
     7
 79
     5
170
     0
171
     0
290
     0
174
     0
 93
        1
 44
0.0
173
     0
291
     0
 45
0.0
1001
ACAD
1000
AcDbSavedByObjectVersion
1070
     0
  0
VISUALSTYLE
  5
2E
102
{ACAD_XDICTIONARY
360
2D6B
102
}
102
{ACAD_REACTORS
330
29
102
}
330
29
100
AcDbVisualStyle
  2

 70
     7
 71
     1
 72
     0
 73
     1
 90
        0
 40
-0.6
 41
-30.0
 62
     5
 63
     7
421
 16777215
 74
     0
 91
        4
 64
     7
 65
   257
 75
     1
175
     1
 42
1.0
 92
        8
 66
     7
 43
1.0
 76
     1
 77
     6
 78
     2
 67
     7
 79
     5
170
     0
171
     0
290
     0
174
     0
 93
        1
 44
0.0
173
     0
291
     1
 45
0.0
1001
ACAD
1000
AcDbSavedByObjectVersion
1070
     0
  0
VISUALSTYLE
  5
35
102
{ACAD_XDICTIONARY
360
2D79
102
}
102
{ACAD_REACTORS
330
29
102
}
330
29
100
AcDbVisualStyle
  2

 70
    12
 71
     2
 72
     2
 73
     0
 90
        0
 40
-0.6
 41
-30.0
 62
     5
 63
     7
421
 16777215
 74
     1
 91
        4
 64
     7
 65
   257
 75
     1
175
     1
 42
1.0
 92
        8
 66
     7
 43
1.0
 76
     1
 77
     6
 78
     2
 67
     7
 79
     5
170
     0
171
     0
290
     0
174
     0
 93
        1
 44
50.0
173
     0
291
     1
 45
0.0
1001
ACAD
1000
AcDbSavedByObjectVersion
1070
     0
  0
VISUALSTYLE
  5
39
102
{ACAD_XDICTIONARY
360
2D81
102
}
102
{ACAD_REACTORS
330
29
102
}
330
29
100
AcDbVisualStyle
  2

 70
    16
 71
     2
 72
     2
 73
     3
 90
        0
 40
-0.6
 41
-30.0
 62
     5
 63
     8
421
  8421504
 74
     1
 91
        4
 64
     7
 65
   257
 75
     1
175
     1
 42
1.0
 92
        8
 66
     8
424
  8421504
 43
1.0
 76
     1
 77
     6
 78
     2
 67
     7
 79
     5
170
     0
171
     0
290
     0
174
     0
 93
        1
 44
0.0
173
     0
291
     1
 45
0.0
1001
ACAD
1000
AcDbSavedByObjectVersion
1070
     0
  0
VISUALSTYLE
  5
32
102
{ACAD_XDICTIONARY
360
2D73
102
}
102
{ACAD_REACTORS
330
29
102
}
330
29
100
AcDbVisualStyle
  2

 70
     9
 71
     3
 72
     2
 73
     0
 90
        0
 40
-0.6
 41
-30.0
 62
     5
 63
     7
421
 16777215
 74
     2
 91
        2
 64
     7
 65
   257
 75
     1
175
     1
 42
179.0
 92
        8
 66
     7
 43
1.0
 76
     1
 77
     6
 78
     2
 67
     7
 79
     3
170
     0
171
     0
290
     0
174
     0
 93
        1
 44
0.0
173
     0
291
     0
 45
0.0
1001
ACAD
1000
AcDbSavedByObjectVersion
1070
     0
  0
VISUALSTYLE
  5
34
102
{ACAD_XDICTIONARY
360
2D77
102
}
102
{ACAD_REACTORS
330
29
102
}
330
29
100
AcDbVisualStyle
  2

 70
    11
 71
     2
 72
     2
 73
     0
 90
        0
 40
-0.6
 41
-30.0
 62
     5
 63
     7
421
 16777215
 74
     1
 91
        4
 64
     7
 65
   257
 75
     1
175
     1
 42
1.0
 92
        8
 66
     7
 43
1.0
 76
     1
 77
     6
 78
     2
 67
     7
 79
     5
170
     0
171
     0
290
     0
174
     0
 93
        1
 44
-50.0
173
     0
291
     1
 45
0.0
1001
ACAD
1000
AcDbSavedByObjectVersion
1070
     0
  0
VISUALSTYLE
  5
41
102
{ACAD_XDICTIONARY
360
2D91
102
}
102
{ACAD_REACTORS
330
29
102
}
330
29
100
AcDbVisualStyle
  2

 70
    22
 71
     2
 72
     2
 73
     0
 90
        0
 40
-0.6
 41
-30.0
 62
     5
 63
     7
421
 16777215
 74
     1
 91
        4
 64
     7
 65
   257
 75
     1
175
     1
 42
1.0
 92
        8
 66
     7
 43
1.0
 76
     1
 77
     6
 78
     2
 67
     7
 79
     5
170
     0
171
     0
290
     0
174
     0
 93
        1
 44
0.0
173
     0
291
     1
 45
0.0
1001
ACAD
1000
AcDbSavedByObjectVersion
1070
     0
  0
VISUALSTYLE
  5
38
102
{ACAD_XDICTIONARY
360
2D7F
102
}
102
{ACAD_REACTORS
330
29
102
}
330
29
100
AcDbVisualStyle
  2

 70
    15
 71
     2
 72
     2
 73
     0
 90
        0
 40
-0.6
 41
-30.0
 62
     5
 63
     7
421
 16777215
 74
     1
 91
        4
 64
     7
 65
   257
 75
     1
175
     1
 42
1.0
 92
        8
 66
     7
 43
1.0
 76
     1
 77
     6
 78
     2
 67
     7
 79
     5
170
     0
171
     0
290
     0
174
     0
 93
        1
 44
0.0
173
     0
291
     1
 45
0.0
1001
ACAD
1000
AcDbSavedByObjectVersion
1070
     0
  0
VISUALSTYLE
  5
2A
102
{ACAD_XDICTIONARY
360
2D63
102
}
102
{ACAD_REACTORS
330
29
102
}
330
29
100
AcDbVisualStyle
  2

 70
     0
 71
     2
 72
     1
 73
     1
 90
        2
 40
-0.6
 41
30.0
 62
     5
 63
     7
421
 16777215
 74
     0
 91
        0
 64
     7
 65
   257
 75
     1
175
     1
 42
1.0
 92
        8
 66
     7
 43
1.0
 76
     1
 77
     6
 78
     2
 67
     7
 79
     5
170
     0
171
     0
290
     0
174
     0
 93
       13
 44
0.0
173
     0
291
     1
 45
0.0
1001
ACAD
1000
AcDbSavedByObjectVersion
1070
     0
  0
VISUALSTYLE
  5
2B
102
{ACAD_XDICTIONARY
360
2D65
102
}
102
{ACAD_REACTORS
330
29
102
}
330
29
100
AcDbVisualStyle
  2

 70
     1
 71
     2
 72
     1
 73
     1
 90
        2
 40
-0.6
 41
30.0
 62
     5
 63
     7
421
 16777215
 74
     1
 91
        0
 64
     7
 65
   257
 75
     1
175
     1
 42
1.0
 92
        0
 66
   257
 43
1.0
 76
     1
 77
     6
 78
     2
 67
     7
 79
     5
170
     0
171
     0
290
     0
174
     0
 93
       13
 44
0.0
173
     0
291
     1
 45
0.0
1001
ACAD
1000
AcDbSavedByObjectVersion
1070
     0
  0
VISUALSTYLE
  5
2C
102
{ACAD_XDICTIONARY
360
2D67
102
}
102
{ACAD_REACTORS
330
29
102
}
330
29
100
AcDbVisualStyle
  2

 70
     2
 71
     2
 72
     2
 73
     1
 90
        2
 40
-0.6
 41
30.0
 62
     5
 63
     7
421
 16777215
 74
     0
 91
        0
 64
     7
 65
   257
 75
     1
175
     1
 42
1.0
 92
        0
 66
     7
 43
1.0
 76
     1
 77
     6
 78
     2
 67
     7
 79
     5
170
     0
171
     0
290
     0
174
     0
 93
       13
 44
0.0
173
     0
291
     1
 45
0.0
1001
ACAD
1000
AcDbSavedByObjectVersion
1070
     0
  0
VISUALSTYLE
  5
2D
102
{ACAD_XDICTIONARY
360
2D69
102
}
102
{ACAD_REACTORS
330
29
102
}
330
29
100
AcDbVisualStyle
  2

 70
     3
 71
     2
 72
     2
 73
     1
 90
        2
 40
-0.6
 41
30.0
 62
     5
 63
     7
421
 16777215
 74
     1
 91
        0
 64
     7
 65
   257
 75
     1
175
     1
 42
1.0
 92
        0
 66
   257
 43
1.0
 76
     1
 77
     6
 78
     2
 67
     7
 79
     5
170
     0
171
     0
290
     0
174
     0
 93
       13
 44
0.0
173
     0
291
     1
 45
0.0
1001
ACAD
1000
AcDbSavedByObjectVersion
1070
     0
  0
VISUALSTYLE
  5
31
102
{ACAD_XDICTIONARY
360
2D71
102
}
102
{ACAD_REACTORS
330
29
102
}
330
29
100
AcDbVisualStyle
  2

 70
     6
 71
     1
 72
     2
 73
     2
 90
        0
 40
-0.6
 41
-30.0
 62
     5
 63
     7
421
 16777215
 74
     2
 91
        2
 64
     7
 65
   257
 75
     2
175
     1
 42
40.0
 92
        0
 66
   257
 43
1.0
 76
     1
 77
     6
 78
     2
 67
     7
 79
     3
170
     0
171
     0
290
     0
174
     0
 93
        1
 44
0.0
173
     0
291
     0
 45
0.0
1001
ACAD
1000
AcDbSavedByObjectVersion
1070
     0
  0
VISUALSTYLE
  5
3F
102
{ACAD_XDICTIONARY
360
2D8D
102
}
102
{ACAD_REACTORS
330
29
102
}
330
29
100
AcDbVisualStyle
  2

 70
    20
 71
     2
 72
     2
 73
     0
 90
        0
 40
-0.6
 41
-30.0
 62
     5
 63
     7
421
 16777215
 74
     1
 91
        4
 64
     7
 65
   257
 75
     1
175
     1
 42
1.0
 92
       10
 66
     7
 43
1.0
 76
     1
 77
     6
 78
     2
 67
     7
 79
     5
170
     0
171
     0
290
     0
174
     0
 93
        1
 44
0.0
173
     0
291
     1
 45
0.0
1001
ACAD
1000
AcDbSavedByObjectVersion
1070
     0
  0
VISUALSTYLE
  5
37
102
{ACAD_XDICTIONARY
360
2D7D
102
}
102
{ACAD_REACTORS
330
29
102
}
330
29
100
AcDbVisualStyle
  2

 70
    14
 71
     2
 72
     2
 73
     0
 90
        0
 40
-0.6
 41
-30.0
 62
     5
 63
     7
421
 16777215
 74
     1
 91
        4
 64
     7
 65
   257
 75
     7
175
     7
 42
1.0
 92
        8
 66
     7
 43
1.0
 76
     1
 77
     6
 78
     2
 67
     7
 79
     5
170
     0
171
     0
290
     0
174
     0
 93
        1
 44
0.0
173
     0
291
     1
 45
0.0
1001
ACAD
1000
AcDbSavedByObjectVersion
1070
     0
  0
VISUALSTYLE
  5
40
102
{ACAD_XDICTIONARY
360
2D8F
102
}
102
{ACAD_REACTORS
330
29
102
}
330
29
100
AcDbVisualStyle
  2

 70
    21
 71
     2
 72
     2
 73
     0
 90
        0
 40
-0.6
 41
-30.0
 62
     5
 63
     7
421
 16777215
 74
     1
 91
        4
 64
     7
 65
   257
 75
     1
175
     1
 42
1.0
 92
        9
 66
     7
 43
1.0
 76
     1
 77
     6
 78
     2
 67
     7
 79
     5
170
     0
171
     0
290
     0
174
     0
 93
        1
 44
0.0
173
     0
291
     1
 45
0.0
1001
ACAD
1000
AcDbSavedByObjectVersion
1070
     0
  0
VISUALSTYLE
  5
33
102
{ACAD_XDICTIONARY
360
2D75
102
}
102
{ACAD_REACTORS
330
29
102
}
330
29
100
AcDbVisualStyle
  2

 70
     8
 71
     2
 72
     3
 73
     0
 90
        2
 40
-0.6
 41
30.0
 62
     5
 63
     7
421
 16777215
 74
     0
 91
        0
 64
     7
 65
   257
 75
     1
175
     1
 42
1.0
 92
        8
 66
   257
 43
1.0
 76
     1
 77
     6
 78
     2
 67
     7
 79
     3
170
     0
171
     0
290
     0
174
     0
 93
       13
 44
0.0
173
     0
291
     0
 45
0.0
1001
ACAD
1000
AcDbSavedByObjectVersion
1070
     0
  0
VISUALSTYLE
  5
3E
102
{ACAD_XDICTIONARY
360
2D8B
102
}
102
{ACAD_REACTORS
330
29
102
}
330
29
100
AcDbVisualStyle
  2

 70
    27
 71
     2
 72
     2
 73
     1
 90
        2
 40
-0.6
 41
30.0
 62
     5
 63
     7
421
 16777215
 74
     0
 91
        4
 64
     7
 65
   257
 75
     1
175
     1
 42
1.0
 92
        8
 66
   257
 43
1.0
 76
     1
 77
     6
 78
     2
 67
     8
425
  7895160
 79
     3
170
     0
171
     0
290
     0
174
     0
 93
        5
 44
0.0
173
     0
291
     0
 45
0.0
1001
ACAD
1000
AcDbSavedByObjectVersion
1070
     0
  0
VISUALSTYLE
  5
3D
102
{ACAD_XDICTIONARY
360
2D89
102
}
102
{ACAD_REACTORS
330
29
102
}
330
29
100
AcDbVisualStyle
  2

 70
    26
 71
     2
 72
     2
 73
     1
 90
        2
 40
-0.6
 41
30.0
 62
     5
 63
     7
421
 16777215
 74
     1
 91
       10
 64
     7
 65
   257
 75
     2
175
     1
 42
1.0
 92
        8
 66
   257
 43
1.0
 76
     1
 77
     6
 78
     2
 67
     7
 79
     3
170
     0
171
     0
290
     0
174
     0
 93
        5
 44
0.0
173
     0
291
     0
 45
0.0
1001
ACAD
1000
AcDbSavedByObjectVersion
1070
     0
  0
VISUALSTYLE
  5
3A
102
{ACAD_XDICTIONARY
360
2D83
102
}
102
{ACAD_REACTORS
330
29
102
}
330
29
100
AcDbVisualStyle
  2

 70
    23
 71
     2
 72
     2
 73
     3
 90
        0
 40
-0.6
 41
-30.0
 62
     5
 63
     7
421
 16777215
 74
     2
 91
        2
 64
     7
 65
     7
 75
     1
175
     1
 42
40.0
 92
        8
 66
     7
 43
1.0
 76
     1
 77
     6
 78
     2
 67
     7
 79
     3
170
     0
171
     0
290
     0
174
     0
 93
        1
 44
0.0
173
     0
291
     0
 45
0.0
1001
ACAD
1000
AcDbSavedByObjectVersion
1070
     0
  0
VISUALSTYLE
  5
3B
102
{ACAD_XDICTIONARY
360
2D85
102
}
102
{ACAD_REACTORS
330
29
102
}
330
29
100
AcDbVisualStyle
  2

 70
    24
 71
     1
 72
     2
 73
     2
 90
        0
 40
-0.6
 41
-30.0
 62
     5
 63
     7
421
 16777215
 74
     2
 91
        2
 64
     7
 65
     7
 75
     1
175
     1
 42
40.0
 92
       11
 66
     7
 43
1.0
 76
     1
 77
     6
 78
     2
 67
     7
 79
     6
170
     0
171
     0
290
     0
174
     0
 93
        1
 44
0.0
173
     0
291
     0
 45
0.0
1001
ACAD
1000
AcDbSavedByObjectVersion
1070
     0
  0
VISUALSTYLE
  5
36
102
{ACAD_XDICTIONARY
360
2D7B
102
}
102
{ACAD_REACTORS
330
29
102
}
330
29
100
AcDbVisualStyle
  2

 70
    13
 71
     2
 72
     2
 73
     0
 90
        0
 40
-0.6
 41
-30.0
 62
     5
 63
     7
421
 16777215
 74
     1
 91
        4
 64
     7
 65
   257
 75
     1
175
     1
 42
1.0
 92
       12
 66
     7
 43
1.0
 76
     1
 77
     6
 78
     2
 67
     7
 79
     5
170
     0
171
     0
290
     0
174
     0
 93
        1
 44
0.0
173
     0
291
     1
 45
0.0
1001
ACAD
1000
AcDbSavedByObjectVersion
1070
     0
  0
VISUALSTYLE
  5
30
102
{ACAD_XDICTIONARY
360
2D6F
102
}
102
{ACAD_REACTORS
330
29
102
}
330
29
100
AcDbVisualStyle
  2

 70
     5
 71
     0
 72
     2
 73
     0
 90
        0
 40
-0.6
 41
-30.0
 62
     5
 63
     7
421
 16777215
 74
     1
 91
        4
 64
     7
 65
   257
 75
     1
175
     1
 42
1.0
 92
        0
 66
   257
 43
1.0
 76
     1
 77
     6
 78
     2
 67
     7
 79
     3
170
     0
171
     0
290
     0
174
     0
 93
        1
 44
0.0
173
     0
291
     0
 45
0.0
1001
ACAD
1000
AcDbSavedByObjectVersion
1070
     0
  0
VISUALSTYLE
  5
3C
102
{ACAD_XDICTIONARY
360
2D87
102
}
102
{ACAD_REACTORS
330
29
102
}
330
29
100
AcDbVisualStyle
  2

 70
    25
 71
     2
 72
     2
 73
     1
 90
        1
 40
0.5
 41
-30.0
 62
     5
 63
     7
421
 16777215
 74
     1
 91
        0
 64
     7
 65
   257
 75
     1
175
     1
 42
1.0
 92
        8
 66
     7
 43
1.0
 76
     1
 77
     6
 78
     2
 67
     7
 79
     3
170
     0
171
     0
290
     0
174
     0
 93
       13
 44
0.0
173
     0
291
     0
 45
0.0
1001
ACAD
1000
AcDbSavedByObjectVersion
1070
     0
  0
DICTIONARYVAR
  5
2758
102
{ACAD_REACTORS
330
2755
102
}
330
2755
100
DictionaryVariables
280
     0
  1
1:1
  0
DICTIONARYVAR
  5
2757
102
{ACAD_REACTORS
330
2755
102
}
330
2755
100
DictionaryVariables
280
     0
  1
STANDARD
  0
DICTIONARYVAR
  5
2756
102
{ACAD_REACTORS
330
2755
102
}
330
2755
100
DictionaryVariables
280
     0
  1
STANDARD
  0
DICTIONARYVAR
  5
2C3A
102
{ACAD_REACTORS
330
2755
102
}
330
2755
100
DictionaryVariables
280
     0
  1
0
  0
DICTIONARYVAR
  5
2C3B
102
{ACAD_REACTORS
330
2755
102
}
330
2755
100
DictionaryVariables
280
     0
  1
0
  0
DICTIONARYVAR
  5
2C39
102
{ACAD_REACTORS
330
2755
102
}
330
2755
100
DictionaryVariables
280
     0
  1
2
  0
DICTIONARYVAR
  5
2C38
102
{ACAD_REACTORS
330
2755
102
}
330
2755
100
DictionaryVariables
280
     0
  1
1
  0
DICTIONARYVAR
  5
2C3C
102
{ACAD_REACTORS
330
2755
102
}
330
2755
100
DictionaryVariables
280
     0
  1
0
  0
DICTIONARYVAR
  5
2D46
102
{ACAD_REACTORS
330
2755
102
}
330
2755
100
DictionaryVariables
280
     0
  1
2
  0
DICTIONARY
  5
27CB
102
{ACAD_REACTORS
330
27C1
102
}
330
27C1
100
AcDbDictionary
281
     1
  0
DICTIONARY
  5
1A
330
19
100
AcDbDictionary
280
     1
281
     1
  3
ACAD_XREC_ROUNDTRIP
360
2C56
  3
BUMPTILE
360
1C
  3
DIFFUSETILE
360
1B
  3
OPACITYTILE
360
1F
  3
REFLECTIONTILE
360
1E
  3
REFRACTIONTILE
360
20
  3
SPECULARTILE
360
1D
  0
DICTIONARY
  5
12
330
11
100
AcDbDictionary
280
     1
281
     1
  3
ACAD_XREC_ROUNDTRIP
360
2C55
  3
BUMPTILE
360
14
  3
DIFFUSETILE
360
13
  3
FBXASSET
360
9C
  3
OPACITYTILE
360
17
  3
REFLECTIONTILE
360
16
  3
REFRACTIONTILE
360
18
  3
SPECULARTILE
360
15
  0
DICTIONARY
  5
22
330
21
100
AcDbDictionary
280
     1
281
     1
  3
ACAD_XREC_ROUNDTRIP
360
2C57
  3
BUMPTILE
360
24
  3
DIFFUSETILE
360
23
  3
OPACITYTILE
360
27
  3
REFLECTIONTILE
360
26
  3
REFRACTIONTILE
360
28
  3
SPECULARTILE
360
25
  0
DICTIONARY
  5
271A
330
67
100
AcDbDictionary
280
     1
281
     1
  3
ACAD_XREC_ROUNDTRIP
360
271B
  0
DICTIONARY
  5
2C3E
330
65
100
AcDbDictionary
280
     1
281
     1
  3
ACAD_ROUNDTRIP_2008_TABLESTYLE_CELLSTYLEMAP
360
2D47
  3
ACAD_XREC_ROUNDTRIP
360
2D93
  0
DICTIONARY
  5
2D6D
330
2F
100
AcDbDictionary
280
     1
281
     1
  3
ACAD_XREC_ROUNDTRIP
360
2D6E
  0
DICTIONARY
  5
2DBC
330
275B
100
AcDbDictionary
280
     1
281
     1
  3
ACAD_XREC_ROUNDTRIP
360
2DBD
  0
DICTIONARY
  5
2DBA
330
275A
100
AcDbDictionary
280
     1
281
     1
  3
ACAD_XREC_ROUNDTRIP
360
2DBB
  0
DICTIONARY
  5
2D6B
330
2E
100
AcDbDictionary
280
     1
281
     1
  3
ACAD_XREC_ROUNDTRIP
360
2D6C
  0
DICTIONARY
  5
2D79
330
35
100
AcDbDictionary
280
     1
281
     1
  3
ACAD_XREC_ROUNDTRIP
360
2D7A
  0
DICTIONARY
  5
2D81
330
39
100
AcDbDictionary
280
     1
281
     1
  3
ACAD_XREC_ROUNDTRIP
360
2D82
  0
DICTIONARY
  5
2D73
330
32
100
AcDbDictionary
280
     1
281
     1
  3
ACAD_XREC_ROUNDTRIP
360
2D74
  0
DICTIONARY
  5
2D77
330
34
100
AcDbDictionary
280
     1
281
     1
  3
ACAD_XREC_ROUNDTRIP
360
2D78
  0
DICTIONARY
  5
2D91
330
41
100
AcDbDictionary
280
     1
281
     1
  3
ACAD_XREC_ROUNDTRIP
360
2D92
  0
DICTIONARY
  5
2D7F
330
38
100
AcDbDictionary
280
     1
281
     1
  3
ACAD_XREC_ROUNDTRIP
360
2D80
  0
DICTIONARY
  5
2D63
330
2A
100
AcDbDictionary
280
     1
281
     1
  3
ACAD_XREC_ROUNDTRIP
360
2D64
  0
DICTIONARY
  5
2D65
330
2B
100
AcDbDictionary
280
     1
281
     1
  3
ACAD_XREC_ROUNDTRIP
360
2D66
  0
DICTIONARY
  5
2D67
330
2C
100
AcDbDictionary
280
     1
281
     1
  3
ACAD_XREC_ROUNDTRIP
360
2D68
  0
DICTIONARY
  5
2D69
330
2D
100
AcDbDictionary
280
     1
281
     1
  3
ACAD_XREC_ROUNDTRIP
360
2D6A
  0
DICTIONARY
  5
2D71
330
31
100
AcDbDictionary
280
     1
281
     1
  3
ACAD_XREC_ROUNDTRIP
360
2D72
  0
DICTIONARY
  5
2D8D
330
3F
100
AcDbDictionary
280
     1
281
     1
  3
ACAD_XREC_ROUNDTRIP
360
2D8E
  0
DICTIONARY
  5
2D7D
330
37
100
AcDbDictionary
280
     1
281
     1
  3
ACAD_XREC_ROUNDTRIP
360
2D7E
  0
DICTIONARY
  5
2D8F
330
40
100
AcDbDictionary
280
     1
281
     1
  3
ACAD_XREC_ROUNDTRIP
360
2D90
  0
DICTIONARY
  5
2D75
330
33
100
AcDbDictionary
280
     1
281
     1
  3
ACAD_XREC_ROUNDTRIP
360
2D76
  0
DICTIONARY
  5
2D8B
330
3E
100
AcDbDictionary
280
     1
281
     1
  3
ACAD_XREC_ROUNDTRIP
360
2D8C
  0
DICTIONARY
  5
2D89
330
3D
100
AcDbDictionary
280
     1
281
     1
  3
ACAD_XREC_ROUNDTRIP
360
2D8A
  0
DICTIONARY
  5
2D83
330
3A
100
AcDbDictionary
280
     1
281
     1
  3
ACAD_XREC_ROUNDTRIP
360
2D84
  0
DICTIONARY
  5
2D85
330
3B
100
AcDbDictionary
280
     1
281
     1
  3
ACAD_XREC_ROUNDTRIP
360
2D86
  0
DICTIONARY
  5
2D7B
330
36
100
AcDbDictionary
280
     1
281
     1
  3
ACAD_XREC_ROUNDTRIP
360
2D7C
  0
DICTIONARY
  5
2D6F
330
30
100
AcDbDictionary
280
     1
281
     1
  3
ACAD_XREC_ROUNDTRIP
360
2D70
  0
DICTIONARY
  5
2D87
330
3C
100
AcDbDictionary
280
     1
281
     1
  3
ACAD_XREC_ROUNDTRIP
360
2D88
  0
XRECORD
  5
2C56
102
{ACAD_REACTORS
330
1A
102
}
330
1A
100
AcDbXrecord
280
     1
102
MATERIAL
148
0.0
149
0.0
149
0.0
 93
        0
 94
      127
282
     0
 72
     0
 77
     0
171
     0
175
     0
179
     0
273
     0
  0
XRECORD
  5
1C
102
{ACAD_REACTORS
330
1A
102
}
330
1A
100
AcDbXrecord
280
     1
270
     1
271
     1
  0
XRECORD
  5
1B
102
{ACAD_REACTORS
330
1A
102
}
330
1A
100
AcDbXrecord
280
     1
270
     1
271
     1
  0
XRECORD
  5
1F
102
{ACAD_REACTORS
330
1A
102
}
330
1A
100
AcDbXrecord
280
     1
270
     1
271
     1
  0
XRECORD
  5
1E
102
{ACAD_REACTORS
330
1A
102
}
330
1A
100
AcDbXrecord
280
     1
270
     1
271
     1
  0
XRECORD
  5
20
102
{ACAD_REACTORS
330
1A
102
}
330
1A
100
AcDbXrecord
280
     1
270
     1
271
     1
  0
XRECORD
  5
1D
102
{ACAD_REACTORS
330
1A
102
}
330
1A
100
AcDbXrecord
280
     1
270
     1
271
     1
  0
XRECORD
  5
2C55
102
{ACAD_REACTORS
330
12
102
}
330
12
100
AcDbXrecord
280
     1
102
MATERIAL
148
0.0
149
0.0
149
0.0
 93
        0
 94
      127
282
     0
 72
     0
 77
     0
171
     0
175
     0
179
     0
273
     0
  0
XRECORD
  5
14
102
{ACAD_REACTORS
330
12
102
}
330
12
100
AcDbXrecord
280
     1
270
     1
271
     1
  0
XRECORD
  5
13
102
{ACAD_REACTORS
330
12
102
}
330
12
100
AcDbXrecord
280
     1
270
     1
271
     1
  0
XRECORD
  5
9C
102
{ACAD_REACTORS
330
12
102
}
330
12
100
AcDbXrecord
280
     1
 70
     1
 90
1959938040
 71
     1
  1
673F254E-5ACB-4023-BD8E-BAC72C522E8E
311
504B03040A00000800005068DA403DEE336E79000000790000001B0000006175746F6465736B2D64657369676E2D7061636B6167652E786D6C3C3F786D6C2076657273696F6E3D22312E302220656E636F64696E673D227574662D3822203F3E3C666F726D6174733E3C666F726D61743E687474703A2F2F736368656D612E
311
6175746F6465736B2E636F6D2F64657369676E2D7061636B6167652F323030393C2F666F726D61743E3C2F666F726D6174733E504B03041400060808005068DA40D486FD9CA0000000F4000000130000005B436F6E74656E745F54797065735D2E786D6C7D8EC10E82300C865F65E91D8A1E8C310C0EEA1BF002731658846E
311
D98AC1B77784ABF1D8FE5FBFBF75BBCE937A534CCEB38643598122B6FEE978D0B0485F9C41B54DDD7D022595594E1A469170414C76A4D9A4D207E29CF43ECE46F218070CC6BECC4078ACAA135ACF422C856C0E68EA1BF5669944DDD7BCDE7B1F8E415D77AECB980613C2E4AC91FC167A2B244592486606FC29C8FD7F045B9A
311
EF7053A7E60B504B03041400060808005068DA403598BDD9EB0000007C01000008000000636F72652E786D6C8D90416EC3201045AF82665B61034E9DC4C244AE629FA01740401C94182C03558F5F9C3852BBEB6A467FFE9B197D7EFA9EEEE8CB2CC17AD7022D0820E394D7D68D2DA478C1074027C117EFE32F1B202727D3C2
311
2A83E0E3E2D3BC49CABB685CCCAAF3DA6CA20CC14440EA9E9B1682BA9A491632C5EC08B76296EA264753D05797E194AC46CF2356E77DF662CD02A2AED9EEC8FA03EEFA8AE11D390FF8C8E819B3A17BDF77744FFAE183972B2C78B4D3EBBE5A8C8C46836084324C6ACCEA4F5A358435157B23B4218497ABFD0F9466FD4F2859
311
172BB6BDFBC402089A1F790C042FD72C72790495EB9A9BF801504B03041400060808005068DA4055019EA25F0000007C00000007000000636E782E786D6C4DCB3B0E80201045D1AD90E915ED2CF8AC45050C11660C8261F98AB1B07AC9C97D42D718D865D3E909258CFD00CCE24AC6E326A164D74DC0B4128928FF32603847
311
2BA13128B1252AC747C6BAB984FC68F0B87FE8960A5C09FE86CFB69FBA01504B03041400060808005068DA40E6221A7767010000020300000C0000006662782F636F72652E786D6C8D52ED8E8320107C15C2DF0B82D8B31F419A5EDA3EC1BD0055EA992A1804D3C7BFF5A3E9F5D2348D0992999DDDD951B1BD3635EAB5EB2A
311
6B321C470C236D725B54A6CC70F067B2C2682B85B3D6FF29C3C8A846677880B114A5B3A19DA1DC1AAF8D07D4D842CFA0EA3AED31CA6BB864B8CB7F74A322153C547497A855F945953A8A23A0A14E8ACE3B3080A621C389E5F9741574C2A508A12A66B62A605A75AEB4C3324DF962CD0F2BB23B249C2CD8FE48D63CDE137EDC
311
7D2E77F1921D8E5F820E62297CD5DCDCE54E2BAF0B2C398B396129E1E9779C6C18DF24FC83C51BC6041DCA1F44A12DDE1485CAF884CF76275987650C4646E2DFB61091479DEAC10F95820E21C26B4CF83168080442F6EA54DFF6B800D4EBDC5BB700A6B0E14EF5AA0E1AA632343E824E2C741E1BC0664FFBF0177D5EF7800F
311
A84C09D69487EB29F861BA98A6CE51B4DA91DE5F91B1AE51F5DDDC64F17EDE073D95E7B6B6EE1D359D57A5739874F87BE52F504B03041400060808005068DA400160B3277E0000009D0000000B0000006662782F636E782E786D6C4DCCD10E82201886E15B61FF392941481BE014EB3E5CA2632234C2D6E5A7CD838EBEEDD9
311
B757D69FC5A3B74D2F178302722A01D9F088830B9382358F5800AAB54C31E6BF1BA0D02F56C1CEA0E594E2FA3C68B063BFFABCA977613EF0D6F24B2B2A811B623ACCEEACC24D4BCFF84A39EB0CA78694020A2D8B5F69DB3DACBF504B03041400060808005068DA40A4DB9DAC2D01000015020000310000006662782F454236
311
35423837382D413143442D344634372D414233322D3933363444433633433130382F636F72652E786D6C8D515B6EC32010BC0AE2AB55850DD8C14E8489F2684FD00B109BA42831583CAA1CBF503B52FB971F16CDCECC8E76F9F63EDEC0B7725E5BD34152600894E9EDA0CDA583319C510BC15670676DF84383C0C8517530C3
311
50F08BB3715AA0DE9AA04C48A8B1835A40E9BD0A10F4B7F4E9A0EFBFD4280B194362F86B31C9FE2A2FAA20456A279EE03EB81400CC43F20BC5FB9EADF66DD3A21D391C51FD513768B7AF285A57AC3E1E587520B8E5E52C143C463D2C723DA438FAAC957BD6248B050F7A7CC4EF9D92410D50504C28C20C51F649AA0DA69B8A
311
BE61B2C1989799FE4F14A7E14951D4265474893BCB3C1484977343F0C1C6D3ED1146DD27EB02C8F35EBCEA5FA1C005C6AB356E1ACA783973D3069229AB17531FAC4B1B7EB99E129DAC6667560B5EE623A5F27BC154F341C50F504B03041400060808005068DA40EE15A4104D01000033030000300000006662782F45423635
311
423837382D413143442D344634372D414233322D3933363444433633433130382F636E782E786D6CD593BD6E032110845F05D146F76BEB14591C9652E40952A4E5606D637370E2278ADF3E8B8D1D372E52A641A7D96166F58963DBEFD9902FF0413B3BD2AE6E29012B9DD2763FD21477D52B255BCEBC73F1C1468915338C34
311
CB94B3BD77692992829D4826A26AB43D15D14370C94B0828E79BC438290C0680AD128A304FA014287237E2D70E3CAE82E27426F100E4FDED93B8E9083206D6E414CE9ADCC1593E4BD3838912694408230DF200B3A8458A4E4138D54A445177F5ADEBC94EBF49245FB85526AF492E1F693E292F1BD5C8913538E42C448FF48A
311
299E17A05C2C8BD1524484DC5C8C570F6749DB38AC8B5723788FEE6E58ADD71876997116F50CC5213D88088AF2BEEDFAAA1DAA7EF8E8569BB6DFACFA97B6DBB42D6BB29DB3C939532E610C78B710E96C041B29EF5893C7CFF0151F51DA236BE7CF7F0089004AEB95CE3DE33FF3692EEF1B7179FC0BF80F504B030414000608
311
08005068DA40CA33CD339C0500007B100000340000006662782F45423635423837382D413143442D344634372D414233322D3933363444433633433130382F6F626A656374732E786D6CAD575B739B3814FE2B0CFB8C31B693263B848E2F49C7D34DDBA9A79D7DC88C478020DA88CB482275FAEBF713080CAE9D7877FA0248
311
4847E77CE73B17F9EF7719B79EA990ACC86F6C6F34B62D9A4745CCF2F4C6AE54E25CD9D6FBC01745A17ACB6C2B2719BDB1F5B41DF8A928AAD24CC53421155707B3778BBF2D19D19CDA56C4899437B68C1E694646A452454CE5D328268A8CD26437F246CDC2A1D85490F2F140684904CD1534C57C0E2956A394371C8E6D37F0
311
5DFD3FF0F5D3AC9A9E5EE5D6F60CCF67B954248F7E39EC40CCD49BAD6E2717D7CEC56C3675669713CF59DC2D568EF76E3A5E5E2E97D7F3DB6B1C2C958024A389A0891D7C00368245BEDBFC0AFC8AE56A3A314B8C835C419F99F6941D4C2CCF779B359D75C6C863EA47459ED3A8C60A68D4F619D1312D691EC3E78C4A68D643
311
683C1C7A1AC7DEEFA91E9B23FBD3E721D0DFD113D4EADEBEFB9A16E13F30419EC32021A9666083A531B4E1EA788F705814DCFC63D2CA88A282116E71160A225EEC004BF592C01F88D14C163A1AB40576002F34BF87744118BDCDF3635A2615E79AC6765047C116B14295AC35633FA9D86BDF47063AC1579A0D57C620F55252
311
3BB86E287275C0A606482BE12485CB61A6DE399D1C18BAD471BA5ED9C1C7BB70B7D1B17BFCF0521425154AD307D46A1DD7BE354A4627EF2CCFE90DF6812A7B50BE02F94F08F5BD2AF09B60BBD96E664E5182E432294406DF5863CB19E331B6BCFAA9BF7B5FBEDB6D1E7AEF149E70B686EA37E039B4A1EFCB1E9C81FF0CC217
311
626A4CDB4484236DDCB31C00699258BCC014F27012EEEC608D2C87AC8C5D84071E4C86BACFF8F45D230689A23EA9F7CE81E5415A3C234103B69A9150A321BF5170EFA75FD2597DB059760ADE8BDF42D7F96AF37153898444F4DEC4F48A262C670A256ECF9BBE4203CC07163DD1971F858861E8AF786FFA7867E62809B435E6
311
1AF8B4CDE97AB03F797040847D69A1D38DFFC609304217D69EFC7B2623CA39C96951B5E7BE5A3F50361A8875B06B267705665F58409AE6CF410CA2484782951AC4AE5A75497374C2BA6FEB4F60A41D2C5EFE222FFDEC15EE736F54F0426CC3976D93968E42FD7DC86D8381ABA580EE7590B4F16F40DFC62C492A89247804D7
311
EFEB65DF773A2D2045B4529B6899C17E04171186B4AD5C546B4150498B7CCB50371177470FE8CB07A48601B5C0531A4BCA932DE3BCCAB609E3A846DB8C9427E0F8FFFA8755566E495654B93A217BA03AAAC350F7017BE50FA2A2473BD8D46F6781DC1BD3F80419742D3982D5C0B597EFA677938BD9AD73315F2E9CD9783275
311
16ABAB5B67315FBE9B2C2F2693DBABDBD64F8D2681DF969A7E44C34B286D7E259871DFB735E2C724013BB8274A3E7C68C2B37D7F5B8FD00BFB2EF6A05E761BE7F133FA3E1ABF2D60BFF2A8A07556729AD15C111D43F7FA837F25E83306CA34F3EB8CA4F40C299F3F6C0E8CC1CC19FBBEE878A73F0EF69AD9A50EC8A342D463
311
95853961FC6063DA20392AF3D4E0D7FAA47B3785A61DEA91710C3A53597016230FC6564A8B8C2A64C3338A90C8A804F5FA3D7D6CEE1E67EC7E6E3A4445424E5B4D1E099A642E1116A05615A9E1BCF5079A3ADD57DDD828B7A3273C4CA6B02D70E6C64693AE5844E5284481D6AD502D1C5CEA77F268FC499E72F4DACDA66EDC
311
EDD2D80C4A72B7E49CFEC9D8D5A4706300D24889BE010D11BC532B13F8B56EE67FF49F0C6FD5B188C26758A9CE96FD44674C7D0C42B431CADC16D0C43C99A37708D4D7CDF246F59A012267DDB25E254123D55144A4F54D41EB67549AAFBEB8E850ACF567ABE4550A5F9E2FC9111464AE74808345608591591205AA2EFF7CF8
311
220ADC6433EB8E81020FCB22CB8ADC0CE6E6266C6D1E71AF8D1F9016A8BE90C887C9D89B3C1009C69ABBC93624928E482C9F30019F0AD6413C703C18D9DC1651819A1FDD3A573BE1809BEB95654ADA0C420D51FA5955C3829623A71674D197491D2BFD05E5AB7701B75E0A1504BAF8E05F504B03041400060800005068DA40
311
000000000000000000000000350000006662782F45423635423837382D413143442D344634372D414233322D3933363444433633433130382F76657274696365732E62696E504B03041400060808005068DA40F270F1330600000004000000360000006662782F45423635423837382D413143442D344634372D414233322D
311
3933363444433633433130382F747269616E676C65732E62696E636660600000504B03041400060800005068DA40000000000000000000000000370000006662782F45423635423837382D413143442D344634372D414233322D3933363444433633433130382F617474726962757465732E62696E504B0304140006080800
311
5068DA40D5987DFC8F00000041010000360000006662782F45423635423837382D413143442D344634372D414233322D3933363444433633433130382F6469726563746F72792E786D6C858F410EC2201045AF4266AF15DDB800BA74E7C21B903225242D6328188F2FA5C4183471359997F9FF81E89FF3C41E1816475E02DF
311
1F80A11FC8386F25A438EECEC07A250251FC3803E6F58C12560C4AD840E95E91C151A72936F496F35732D860FE635F62C8F2DA16B505C545B74125BAA2FA9E05D7CC053D063734D5C7665FD55B6B8D15D5E9BFEAFD8490FFA45E504B03041400060808005068DA40C5F929A9FE000000A00100003B0000006662782F454236
311
35423837382D413143442D344634372D414233322D3933363444433633433130382F7265736F75726365732F636F72652E786D6C8D504B6EC32010BD8A35DB0A1B70EA3411264A15FB04BD00C213072586884FD5E31712576A77DDCC8CDE47F3F4C4E16BB9559FE88371B6075653A8D06A37193BF790E299BC417590C23B17
311
7FC9A0B26AC11E0A0C52CCDEA5FB0A696723DA9851EB265C41150246A8F42D1F3D047DC145D52AC5AC08D7FAAEF455CD58B33AD3592745883E07A89E4FCA04E931B8E43506D13C59295232D3AA3153FE69CE063DC8AEE39B1D1FB6E438B49C6CE869243BCE4E848FC7D7ED916DE930BE8BA698A58866F9C9A83DAA8813484E
311
1927B423BCFB60ED9EF27DCB5F28DB532A9A22FF634AF7E99FA6646C6CF91AF7690B20590EF220A4684A5F793DCACCBB742BBF01504B010214000A00000800005068DA403DEE336E79000000790000001B00000000000000000000000000000000006175746F6465736B2D64657369676E2D7061636B6167652E786D6C504B
311
010214001400060808005068DA40D486FD9CA0000000F40000001300000000000000000000000000B20000005B436F6E74656E745F54797065735D2E786D6C504B010214001400060808005068DA403598BDD9EB0000007C010000080000000000000000000000000083010000636F72652E786D6C504B0102140014000608
311
08005068DA4055019EA25F0000007C000000070000000000000000000000000094020000636E782E786D6C504B010214001400060808005068DA40E6221A7767010000020300000C00000000000000000000000000180300006662782F636F72652E786D6C504B010214001400060808005068DA400160B3277E0000009D00
311
00000B00000000000000000000000000A90400006662782F636E782E786D6C504B010214001400060808005068DA40A4DB9DAC2D010000150200003100000000000000000000000000500500006662782F45423635423837382D413143442D344634372D414233322D3933363444433633433130382F636F72652E786D6C50
311
4B010214001400060808005068DA40EE15A4104D010000330300003000000000000000000000000000CC0600006662782F45423635423837382D413143442D344634372D414233322D3933363444433633433130382F636E782E786D6C504B010214001400060808005068DA40CA33CD339C0500007B100000340000000000
311
0000000000000000670800006662782F45423635423837382D413143442D344634372D414233322D3933363444433633433130382F6F626A656374732E786D6C504B010214001400060800005068DA400000000000000000000000003500000000000000000000000000550E00006662782F45423635423837382D41314344
311
2D344634372D414233322D3933363444433633433130382F76657274696365732E62696E504B010214001400060808005068DA40F270F13306000000040000003600000000000000000000000000A80E00006662782F45423635423837382D413143442D344634372D414233322D3933363444433633433130382F74726961
311
6E676C65732E62696E504B010214001400060800005068DA400000000000000000000000003700000000000000000000000000020F00006662782F45423635423837382D413143442D344634372D414233322D3933363444433633433130382F617474726962757465732E62696E504B010214001400060808005068DA40D5
311
987DFC8F000000410100003600000000000000000000000000570F00006662782F45423635423837382D413143442D344634372D414233322D3933363444433633433130382F6469726563746F72792E786D6C504B010214001400060808005068DA40C5F929A9FE000000A00100003B000000000000000000000000003A10
311
00006662782F45423635423837382D413143442D344634372D414233322D3933363444433633433130382F7265736F75726365732F636F72652E786D6C504B0506000000000E000E0080040000911100000000
310
504B03040A00000800005068DA403DEE336E79000000790000001B0000006175746F6465736B2D64657369676E2D7061636B6167652E786D6C3C3F786D6C2076657273696F6E3D22312E302220656E636F64696E673D227574662D3822203F3E3C666F726D6174733E3C666F726D61743E687474703A2F2F736368656D612E
310
6175746F6465736B2E636F6D2F64657369676E2D7061636B6167652F323030393C2F666F726D61743E3C2F666F726D6174733E504B03041400060808005068DA40D486FD9CA0000000F4000000130000005B436F6E74656E745F54797065735D2E786D6C7D8EC10E82300C865F65E91D8A1E8C310C0EEA1BF002731658846E
310
D98AC1B77784ABF1D8FE5FBFBF75BBCE937A534CCEB38643598122B6FEE978D0B0485F9C41B54DDD7D022595594E1A469170414C76A4D9A4D207E29CF43ECE46F218070CC6BECC4078ACAA135ACF422C856C0E68EA1BF5669944DDD7BCDE7B1F8E415D77AECB980613C2E4AC91FC167A2B244592486606FC29C8FD7F045B9A
310
EF7053A7E60B504B03041400060808005068DA40749F380FEB0000007C01000008000000636F72652E786D6C8D90416EC3201045AF82D856D88031722C4C94BACD097A0104C44589C13250F5F8C58923B5BBAE66F4E7BF99D117C7EFF906BEEC1A5DF003241586C07A1D8CF3D30073BAA00E82A3146B08E9970D02AF663BC0
310
4D86524C6BC8CB2EE9E093F5A9A83E18BB8B2A469B20D0B7D20C30EA4F3BAB4AE5541CF15A2D4A5FD5642BF2EC0A9CB333E071C499B2CF5D9C5DA17C1F4FA7E6FC7A469C776F8871C6D0E1C046C4DAB6E9C60361EDC845BDC15224373FEFEBD5AA640D9414138A3047947F90A6C7B46FE80B263DC6A2DEEC7FA0BC987F42D9
310
F9D4D0FDDD0716A124E591FB408A7ACBA2947B50A56EB9C91F504B03041400060808005068DA4055019EA25F0000007C00000007000000636E782E786D6C4DCB3B0E80201045D1AD90E915ED2CF8AC45050C11660C8261F98AB1B07AC9C97D42D718D865D3E909258CFD00CCE24AC6E326A164D74DC0B4128928FF32603847
310
2BA13128B1252AC747C6BAB984FC68F0B87FE8960A5C09FE86CFB69FBA01504B03041400060808005068DA40FAE5034368010000020300000C0000006662782F636F72652E786D6C8D525B6E833010BC8AE5DF0ACC2B28898CA3943627E8051CE35014B0911F28C7EFF28868AA28AA908C35B3B33B3B400FB7AE458334B6D1
310
AAC07118612495D055A3EA027B7709B6181D18355ABB5F651829DEC9028F3066B436DAF70B24B47252394095AEE402726BA5C348B47029B015DFB2E321F70E2AEC35ECB9B8F25A86710834D4316A9D0103681E329E985DCE374A669C51EF9B6A619B0AA63597461ACC3ECBE3313DBD9F823CDF7E04599E65C16E979541B6D9
310
A4DB7217679B32A7641433EA9AEEEE4E18C99DAC304BA23809A23C48F2AF38DD47C93E4DDEA2781F45948CE50F22DF57FF14F946B93459ECCE328B590C4626E2CFB6109143960FE087304AC610E13525FC18340402213B7E6EEF7B5C011AA470DA64C054DAAFD4C05B2F616A84A687929985CE5303D8EC699FE4459FD73DE0
310
0372558335EEE07AF66E9C4EE7A94B14BD34C1E06E4869D3F17635375B5CCF75D053B9D0AD36FF51936555B28449C6BF97FD00504B03041400060808005068DA403B47C40E7D0000009D0000000B0000006662782F636E782E786D6C4DCCD10A83201886E15B91FFDCA5CD450335D2BC90581632D3703A76F9ABD1C18E3E78
310
F87879F7593D7ADBF4723108A01702C886479C5C5804943CE3165027798A31FFDD008571B5020E06C99714CB76D264E7B1F8BCAB77E179625F1B4D3523F8365C7BCCEAA6C577A2066C8CD64CE9C62845A192BCFA95F63DC2F20B504B03041400060808005068DA401B5BAAEA2B01000014020000310000006662782F413245
310
43314334302D354433412D343236382D393042442D4545434334424336454242312F636F72652E786D6C8D515B6E833010BC0AF257AA0A30863834328E02E106BD00B19DD44AB0911F558EDFA510A9FDCB8FD79A9D991D7BD9E131DE936FE5BCB6A641458651A28CB0529B6B8362B8A4354A0E9C396BC31F1A4ACC30AA06CD
310
30E2ECEA6C9C564858139409801A2BD50A0EDEAB801271874B83BCF852E3900D3100C3DFB26910B7E1AAB2228336F038F3C141806419329F881F49DF155D85D3EDA93CA615A175FA81DB53DAF75D57B51DEDDBB660F922E42C462D57B99610475FB472AF9ACC62CE821E9FF1855343501271820B92629A12FA59947B4CF625
310
79C7C51E6396CFF47FA238C91745519B509235EE22F388C36B960667D2C6F3FD19463D26EB4232CFDB7825DE10C719C674B7AD6BCAF2850A1F009EB45A3D7DB00E3E78733B03BB5C8D69C5593EEF08CAEF02A1CEFBE43F504B03041400060808005068DA4088B26B075401000033030000300000006662782F413245433143
310
34302D354433412D343236382D393042442D4545434334424336454242312F636E782E786D6CBD93CD6A032114855F45DC96F90F43088E812EFA045D746BF426B57174F0A7346FDF6B62D26CB228946E6438F778CEE5C361DBAFD9904FF0413B3BD1AE6E29012B9DD2F630D114F7D59A922D67DEB97867A3C48A19269A65CA
310
D9C1BBB41449C15E24135135DA1E8BE821B8E4250494F34D629C140603C05609459877A014287233E2D71E3CAE82E2EE44E23B9097E737E2761F2063604D4EE1ACC91D9CE5B334DD992891468430D120DF6116B548D12908C75A8928EAAEBE763DD8E92789E40BD7CAE435C9E513CD27E565A31A39B206879C85E8915E31C5
310
D302948B65315A8A88909BB3F1E2E12C691BC755F16A04EFD13DF4E37A8D61E7196751CF501CD28388A028EFDBAEAFDAB1EAC7D76ED8B4FD66E89FDA6ED3B6ACC976CE76CE99720963C0BB85486723D84879C79A3C7E84AFF888D21E593B7FFA054804505A2F746E197FC9A71B87D5EA1FF934E7F78DB83CFE05FC1B504B03
310
041400060808005068DA4038EA01415B070000941B0000340000006662782F41324543314334302D354433412D343236382D393042442D4545434334424336454242312F6F626A656374732E786D6CED595B739B3814FE2B0CFB6C6C7C49931D4227762EE3E9A6EDD4DBCE3E78869141C6DA08C1482289F7D7EF9110188849
310
F036FBD6071B10D2D139DFB9EAE07D7C4EA8F588B92029BBB45D67645B98856944587C69E7723B38B7AD8FBEC7D354D6A6D9164309BEB4D5B0ED7B314FF3CC0C45788B722A5BA3B7F3BF2C1162866D2BA448884B5B843B9C2007E5328DB07870222491136F9F1DD7292636C9C61C65BB16D10C71CC24700AE30CA85805536E
310
F371640F7D6FA8DEFB9EFA37B326BD664DBB670DB5D44D2E091312B1F0054B2D32935E2C4DDCE9F5CD787631984DA793C1F46CEC0EE6B7F3EB81FB61325A9C2D1617573717C0DE264DA99129C2196611E86F6FFBAE37546F2AD10D02C7B80E53C670A88104A8B4586D82040BD8AA06DFA8F9E82A896AAFB584B5E7A97A6F58
310
A80D4F9A54BA66F503A241170431DB951297D7BA7CE9E66F105CF4314A2EB0046E85E4A05D030F07AFB0FD91372C467D6F73D00511568224E604518B920D471C940253D514DF2B161832CA393890B294045A73C5EBA66D8167BEED3AC7B8DCE6942ACFB07DED5801B81F96427346FEC1FCC07D1D19E009A4CD0993E7864BB9
310
CFB0ED5F78433DE87BEA32199B970590D696A25868448AB72D4117CAF597D7B6FFE976F3BC52E1E0F8E6194F33CCA5323AA547CD1718B2B92A94CCB66E2FCDA905204C01AA597900E51B20FF19A2C78115D01B27CFD3E7A9992B3962629BF20474638DACC108FE4696ABFFD57DEDCE1B568B9BDAEBC213DC544175FEF37836
310
65D05819FE6B70FADE23187CCA27E6D52A4414ECF99E300048198945531882D0BEDD3CDBFE120227047A5885A8EF82C8C0EE23DC7A4343E6A095D2BD8CD73140D4EC31E9A324804D5B24B0D1A1A73BC81E9C840735D545EC8277F62EE67A75BDFAB4CAF91685F8DEF8F435DE12462464CDE30C35306F48F480F74F298F40D0
310
9778AFEA7827662B01682BCC15F07109827A38ECDCD820847571AAC28DF7C60E2084CAD535FAF744849852C4709A97FB56D14D196AE5F1A666B0FD7101F164DC32618E1F89AA2AC0690E331A8C42DE0F39C91488B67F574856054DA743BAEFCBCF6091D5FC8E594B06A19721FAA70E5A477068587689B401A212787308E761
310
4A531E6CF64111E96CA825808DA6B7FC681085585F284951010FD27E578694B8903688C8769B0B88AB4758FCB15CD4CD61E44CDC9955FF6F39E314A22DF82EE2C6EF5A7B042441310EB628EADAAEBE5B455B68921DA439DE52908B3C12B90F900C46118E4F81E624E217EF4A3DA6A910846101F9EA28F87534460E0492429B
310
25CB4AAB2DA08908122C113D050145A6035C9D76748D1B42E9F0368F95F5BEA6B13AD1FFC92238825A32650181521472C89B8CBBCE0C624813DD02E516BE606D256D2D06CDA18408F7C11326F14E9E827A41BE03F7108E24B90CD20C8560D63DC8BEF015A5D416EF1B143EA8FC1184397D2F0311986E0342699E04F0230C4E
310
1E7D5CBB0A4CAFA250235EC43E891328CA90CC799F4DCE66A317FB1435433B04D636DA120A613B4850D6817A2320EA7AC4AAC037D43B94BAC9932C40499AB35E86E24CDADE64C8B7D5AAC8F6E457958A503696840D41DF234C5659B58CD960EA3AB0821BE940B50F044A325A9CC2DE483C6EE54D9A72E706DCF8E9FB6E9040
310
E1D7A1BD7A449D9630181E1B8581784232DCD9FE4A5F0773A8BF231C1D527D596BD62B40404C45F29C13A3A2EF4B286F4C8D66FBF7488AF55D9175CBEBF7A503DD0F6F086BA076A9162E15D0096612A9CAE45EDDD06F084270834631BE5439F5142A5751A4AB46446F49973A1B654463D38438D90EB334811F5B1316D23CC2
310
6B148987E05ED2604514EB464A272125C6AF0AF8E56ED58207467A88F4551578F8A9B5D68C2E54B9749488DCE5C986210241B0215A5CE8C6C9586C34526AB9BAAA3305D45D606046C5D35F278B7A3BE2D7C9223686F153278BF9FE0FB4AFF7456AE93C54767DD231A0CA4F8ACA7B1C0374DBA1A25A659122991BF98D330510
310
14CB28DFBB1A2B834641B08BE3FF9CB5BBB260B15D8BFFD3B2B6FBA2E23829AB3426AB2ED591CA7559CF61671F26B7E3D9F46630BB5ACC07D3D17832985F9FDF0CE6578B0FE3C56C3CBE39BFA9D0D48EEA7B5530D3B90B9E8BA0560EAB2783017465454A4904A7F9C88A31C47C0967FA1EED739E6001C9B3DEEC8E4C53BEC7
310
EAC7A2CF29D186E292931D8206311590D601A33C94CD71EB37684D4A38685FDAD034721EE0CF58A56D41E6B9B4A15520498885B38136936AE869E2907275EE37C4001FC46295128B45D573B54A61D308FFD5943E69C0C8D5E86140E19641F7ABD1A1D0BC199EC293042FD9B19084DB4D2EA15A2B64390C54C2E86D0EEA2F64
310
A3843D98AD9FC1755F17CB75F49C0622BD3E19BC6A0405D581443CD6FD6EC59861E9EAFAEB10FA6CD6F28B95D13C065DF6A734E0188C3957051558115885A1992109A6BAF87DFD95A7F08927B17455B45EA4499232F37005E7B1083E1159AB1D7CF089D6503660D55617EBF1C81DAF91008B351DF660830476543D04036519
310
A14468191B58E48BD694695C0E95125AD397D796099F3320AAADF64577B7F8BC65012FEA438AF215EDE1A59CAF76B4877A2A5803875EB4FF2F504B03041400060800005068DA40000000000000000000000000350000006662782F41324543314334302D354433412D343236382D393042442D454543433442433645424231
310
2F76657274696365732E62696E504B03041400060808005068DA40F270F1330600000004000000360000006662782F41324543314334302D354433412D343236382D393042442D4545434334424336454242312F747269616E676C65732E62696E636660600000504B03041400060800005068DA4000000000000000000000
310
0000370000006662782F41324543314334302D354433412D343236382D393042442D4545434334424336454242312F617474726962757465732E62696E504B03041400060808005068DA40D5987DFC8F00000041010000360000006662782F41324543314334302D354433412D343236382D393042442D4545434334424336
310
454242312F6469726563746F72792E786D6C858F410EC2201045AF4266AF15DDB800BA74E7C21B903225242D6328188F2FA5C4183471359997F9FF81E89FF3C41E1816475E02DF1F80A11FC8386F25A438EECEC07A250251FC3803E6F58C12560C4AD840E95E91C151A72936F496F35732D860FE635F62C8F2DA16B505C545
310
B74125BAA2FA9E05D7CC053D063734D5C7665FD55B6B8D15D5E9BFEAFD8490FFA45E504B03041400060808005068DA401C75653EFF000000A00100003B0000006662782F41324543314334302D354433412D343236382D393042442D4545434334424336454242312F7265736F75726365732F636F72652E786D6C8D504B6E
310
833010BD0A9A6D65B00D41808CA394A627E8052C3349AC043BF2A7EAF16B122AB5BB6E6646EFA3797A62FFB5DC8A4FF4C1383B022B291468B59B8D3D8F90E2897450ECA5F0CEC55F3228AC5A7084150629CEDEA5FB06696723DA9851EB66DC4015024628F42D1F23047DC145952AC5AC08D7F2AEF4559DB16465A6B34E8A10
310
7D0E503C9FAC13A4C7E092D71844F564A548C9CC9BC6CCF9A73919F4208FD3E150BFBF1E49DB766FA4699B86F47D339166B7ABBBA967CD6E6A45B59AA58866F9C9A83DAA8833484E1927B425BCFD60F540F950F317CA064A45B5CAFF98D27DFEA729191B6BBEC57DDA024896833C0829AAB5AFBC1E65E6BD762BBF01504B01
310
0214000A00000800005068DA403DEE336E79000000790000001B00000000000000000000000000000000006175746F6465736B2D64657369676E2D7061636B6167652E786D6C504B010214001400060808005068DA40D486FD9CA0000000F40000001300000000000000000000000000B20000005B436F6E74656E745F5479
310
7065735D2E786D6C504B010214001400060808005068DA40749F380FEB0000007C010000080000000000000000000000000083010000636F72652E786D6C504B010214001400060808005068DA4055019EA25F0000007C000000070000000000000000000000000094020000636E782E786D6C504B01021400140006080800
310
5068DA40FAE5034368010000020300000C00000000000000000000000000180300006662782F636F72652E786D6C504B010214001400060808005068DA403B47C40E7D0000009D0000000B00000000000000000000000000AA0400006662782F636E782E786D6C504B010214001400060808005068DA401B5BAAEA2B010000
310
140200003100000000000000000000000000500500006662782F41324543314334302D354433412D343236382D393042442D4545434334424336454242312F636F72652E786D6C504B010214001400060808005068DA4088B26B0754010000330300003000000000000000000000000000CA0600006662782F413245433143
310
34302D354433412D343236382D393042442D4545434334424336454242312F636E782E786D6C504B010214001400060808005068DA4038EA01415B070000941B000034000000000000000000000000006C0800006662782F41324543314334302D354433412D343236382D393042442D4545434334424336454242312F6F62
310
6A656374732E786D6C504B010214001400060800005068DA400000000000000000000000003500000000000000000000000000191000006662782F41324543314334302D354433412D343236382D393042442D4545434334424336454242312F76657274696365732E62696E504B010214001400060808005068DA40F270F1
310
33060000000400000036000000000000000000000000006C1000006662782F41324543314334302D354433412D343236382D393042442D4545434334424336454242312F747269616E676C65732E62696E504B010214001400060800005068DA400000000000000000000000003700000000000000000000000000C6100000
310
6662782F41324543314334302D354433412D343236382D393042442D4545434334424336454242312F617474726962757465732E62696E504B010214001400060808005068DA40D5987DFC8F0000004101000036000000000000000000000000001B1100006662782F41324543314334302D354433412D343236382D393042
310
442D4545434334424336454242312F6469726563746F72792E786D6C504B010214001400060808005068DA401C75653EFF000000A00100003B00000000000000000000000000FE1100006662782F41324543314334302D354433412D343236382D393042442D4545434334424336454242312F7265736F75726365732F636F
310
72652E786D6C504B0506000000000E000E0080040000561300000000
  0
XRECORD
  5
17
102
{ACAD_REACTORS
330
12
102
}
330
12
100
AcDbXrecord
280
     1
270
     1
271
     1
  0
XRECORD
  5
16
102
{ACAD_REACTORS
330
12
102
}
330
12
100
AcDbXrecord
280
     1
270
     1
271
     1
  0
XRECORD
  5
18
102
{ACAD_REACTORS
330
12
102
}
330
12
100
AcDbXrecord
280
     1
270
     1
271
     1
  0
XRECORD
  5
15
102
{ACAD_REACTORS
330
12
102
}
330
12
100
AcDbXrecord
280
     1
270
     1
271
     1
  0
XRECORD
  5
2C57
102
{ACAD_REACTORS
330
22
102
}
330
22
100
AcDbXrecord
280
     1
102
MATERIAL
148
0.0
149
0.0
149
0.0
 93
        0
 94
      127
282
     0
 72
     0
 77
     0
171
     0
175
     0
179
     0
273
     0
  0
XRECORD
  5
24
102
{ACAD_REACTORS
330
22
102
}
330
22
100
AcDbXrecord
280
     1
270
     1
271
     1
  0
XRECORD
  5
23
102
{ACAD_REACTORS
330
22
102
}
330
22
100
AcDbXrecord
280
     1
270
     1
271
     1
  0
XRECORD
  5
27
102
{ACAD_REACTORS
330
22
102
}
330
22
100
AcDbXrecord
280
     1
270
     1
271
     1
  0
XRECORD
  5
26
102
{ACAD_REACTORS
330
22
102
}
330
22
100
AcDbXrecord
280
     1
270
     1
271
     1
  0
XRECORD
  5
28
102
{ACAD_REACTORS
330
22
102
}
330
22
100
AcDbXrecord
280
     1
270
     1
271
     1
  0
XRECORD
  5
25
102
{ACAD_REACTORS
330
22
102
}
330
22
100
AcDbXrecord
280
     1
270
     1
271
     1
  0
XRECORD
  5
271B
102
{ACAD_REACTORS
330
271A
102
}
330
271A
100
AcDbXrecord
280
     1
102
ACAD_ROUNDTRIP_2012_MLEADER_STYLE
298
     1
  0
CELLSTYLEMAP
  5
2D47
102
{ACAD_REACTORS
330
2C3E
102
}
330
2C3E
100
AcDbCellStyleMap
 90
        3
300
CELLSTYLE
  1
TABLEFORMAT_BEGIN
 90
        5
170
     1
 91
        0
 92
    32768
 62
   257
 93
        1
300
CONTENTFORMAT
  1
CONTENTFORMAT_BEGIN
 90
        0
 91
        0
 92
      512
 93
        0
300

 40
0.0
140
1.0
 94
        5
 62
     0
340
55
144
0.25
309
CONTENTFORMAT_END
171
     1
301
MARGIN
  1
CELLMARGIN_BEGIN
 40
0.06
 40
0.06
 40
0.06
 40
0.06
 40
0.18
 40
0.18
309
CELLMARGIN_END
 94
        6
 95
        1
302
GRIDFORMAT
  1
GRIDFORMAT_BEGIN
 90
        0
 91
        1
 62
     0
 92
       -2
340
0
 93
        0
 40
0.045
309
GRIDFORMAT_END
 95
        2
302
GRIDFORMAT
  1
GRIDFORMAT_BEGIN
 90
        0
 91
        1
 62
     0
 92
       -2
340
0
 93
        0
 40
0.045
309
GRIDFORMAT_END
 95
        4
302
GRIDFORMAT
  1
GRIDFORMAT_BEGIN
 90
        0
 91
        1
 62
     0
 92
       -2
340
0
 93
        0
 40
0.045
309
GRIDFORMAT_END
 95
        8
302
GRIDFORMAT
  1
GRIDFORMAT_BEGIN
 90
        0
 91
        1
 62
     0
 92
       -2
340
0
 93
        0
 40
0.045
309
GRIDFORMAT_END
 95
       16
302
GRIDFORMAT
  1
GRIDFORMAT_BEGIN
 90
        0
 91
        1
 62
     0
 92
       -2
340
0
 93
        0
 40
0.045
309
GRIDFORMAT_END
 95
       32
302
GRIDFORMAT
  1
GRIDFORMAT_BEGIN
 90
        0
 91
        1
 62
     0
 92
       -2
340
0
 93
        0
 40
0.045
309
GRIDFORMAT_END
309
TABLEFORMAT_END
  1
CELLSTYLE_BEGIN
 90
        1
 91
        1
300
_TITLE
309
CELLSTYLE_END
300
CELLSTYLE
  1
TABLEFORMAT_BEGIN
 90
        5
170
     1
 91
        0
 92
        0
 62
   257
 93
        1
300
CONTENTFORMAT
  1
CONTENTFORMAT_BEGIN
 90
        0
 91
        0
 92
      512
 93
        0
300

 40
0.0
140
1.0
 94
        5
 62
     0
340
55
144
0.18
309
CONTENTFORMAT_END
171
     1
301
MARGIN
  1
CELLMARGIN_BEGIN
 40
0.06
 40
0.06
 40
0.06
 40
0.06
 40
0.18
 40
0.18
309
CELLMARGIN_END
 94
        6
 95
        1
302
GRIDFORMAT
  1
GRIDFORMAT_BEGIN
 90
        0
 91
        1
 62
     0
 92
       -2
340
0
 93
        0
 40
0.045
309
GRIDFORMAT_END
 95
        2
302
GRIDFORMAT
  1
GRIDFORMAT_BEGIN
 90
        0
 91
        1
 62
     0
 92
       -2
340
0
 93
        0
 40
0.045
309
GRIDFORMAT_END
 95
        4
302
GRIDFORMAT
  1
GRIDFORMAT_BEGIN
 90
        0
 91
        1
 62
     0
 92
       -2
340
0
 93
        0
 40
0.045
309
GRIDFORMAT_END
 95
        8
302
GRIDFORMAT
  1
GRIDFORMAT_BEGIN
 90
        0
 91
        1
 62
     0
 92
       -2
340
0
 93
        0
 40
0.045
309
GRIDFORMAT_END
 95
       16
302
GRIDFORMAT
  1
GRIDFORMAT_BEGIN
 90
        0
 91
        1
 62
     0
 92
       -2
340
0
 93
        0
 40
0.045
309
GRIDFORMAT_END
 95
       32
302
GRIDFORMAT
  1
GRIDFORMAT_BEGIN
 90
        0
 91
        1
 62
     0
 92
       -2
340
0
 93
        0
 40
0.045
309
GRIDFORMAT_END
309
TABLEFORMAT_END
  1
CELLSTYLE_BEGIN
 90
        2
 91
        1
300
_HEADER
309
CELLSTYLE_END
300
CELLSTYLE
  1
TABLEFORMAT_BEGIN
 90
        5
170
     1
 91
        0
 92
        0
 62
   257
 93
        1
300
CONTENTFORMAT
  1
CONTENTFORMAT_BEGIN
 90
        0
 91
        0
 92
      512
 93
        0
300

 40
0.0
140
1.0
 94
        2
 62
     0
340
55
144
0.18
309
CONTENTFORMAT_END
171
     1
301
MARGIN
  1
CELLMARGIN_BEGIN
 40
0.06
 40
0.06
 40
0.06
 40
0.06
 40
0.18
 40
0.18
309
CELLMARGIN_END
 94
        6
 95
        1
302
GRIDFORMAT
  1
GRIDFORMAT_BEGIN
 90
        0
 91
        1
 62
     0
 92
       -2
340
0
 93
        0
 40
0.045
309
GRIDFORMAT_END
 95
        2
302
GRIDFORMAT
  1
GRIDFORMAT_BEGIN
 90
        0
 91
        1
 62
     0
 92
       -2
340
0
 93
        0
 40
0.045
309
GRIDFORMAT_END
 95
        4
302
GRIDFORMAT
  1
GRIDFORMAT_BEGIN
 90
        0
 91
        1
 62
     0
 92
       -2
340
0
 93
        0
 40
0.045
309
GRIDFORMAT_END
 95
        8
302
GRIDFORMAT
  1
GRIDFORMAT_BEGIN
 90
        0
 91
        1
 62
     0
 92
       -2
340
0
 93
        0
 40
0.045
309
GRIDFORMAT_END
 95
       16
302
GRIDFORMAT
  1
GRIDFORMAT_BEGIN
 90
        0
 91
        1
 62
     0
 92
       -2
340
0
 93
        0
 40
0.045
309
GRIDFORMAT_END
 95
       32
302
GRIDFORMAT
  1
GRIDFORMAT_BEGIN
 90
        0
 91
        1
 62
     0
 92
       -2
340
0
 93
        0
 40
0.045
309
GRIDFORMAT_END
309
TABLEFORMAT_END
  1
CELLSTYLE_BEGIN
 90
        3
 91
        2
300
_DATA
309
CELLSTYLE_END
  0
XRECORD
  5
2D93
102
{ACAD_REACTORS
330
2C3E
102
}
330
2C3E
100
AcDbXrecord
280
     1
102
ACAD_ROUNDTRIP_PRE2007_TABLESTYLE
 90
      512
 91
        0
  1

 92
      512
 93
        0
  2

 94
      512
 95
        0
  3

  0
XRECORD
  5
2D6E
102
{ACAD_REACTORS
330
2D6D
102
}
330
2D6D
100
AcDbXrecord
280
     1
102
RTVSPropertyOp0
 70
     1
102
RTVSPropertyOp1
 70
     1
102
RTVSPropertyOp2
 70
     1
102
RTVSPropertyOp3
 70
     1
102
RTVSPropertyOp4
 70
     1
102
RTVSPropertyOp5
 70
     1
102
RTVSPropertyOp6
 70
     1
102
RTVSPropertyOp7
 70
     1
102
RTVSPropertyOp8
 70
     1
102
RTVSPropertyOp9
 70
     1
102
RTVSPropertyOp10
 70
     1
102
RTVSPropertyOp11
 70
     1
102
RTVSPropertyOp12
 70
     1
102
RTVSPropertyOp13
 70
     1
102
RTVSPropertyOp14
 70
     1
102
RTVSPropertyOp15
 70
     1
102
RTVSPropertyOp16
 70
     1
102
RTVSPropertyOp17
 70
     1
102
RTVSPropertyOp18
 70
     1
102
RTVSPropertyOp19
 70
     1
102
RTVSPropertyOp20
 70
     1
102
RTVSPropertyOp21
 70
     1
102
RTVSPropertyOp22
 70
     1
102
RTVSPropertyOp23
 70
     1
102
RTVSPropertyOp24
 70
     1
102
RTVSPropertyOp25
 70
     1
102
RTVSPropertyOp26
 70
     1
102
RTVSPropertyOp27
 70
     1
  0
XRECORD
  5
2DBD
102
{ACAD_REACTORS
330
2DBC
102
}
330
2DBC
100
AcDbXrecord
280
     1
102
RTVSPropertyOp0
 70
     1
102
RTVSPropertyOp1
 70
     1
102
RTVSPropertyOp2
 70
     1
102
RTVSPropertyOp3
 70
     1
102
RTVSPropertyOp4
 70
     1
102
RTVSPropertyOp5
 70
     1
102
RTVSPropertyOp6
 70
     1
102
RTVSPropertyOp7
 70
     1
102
RTVSPropertyOp8
 70
     1
102
RTVSPropertyOp9
 70
     1
102
RTVSPropertyOp10
 70
     1
102
RTVSPropertyOp11
 70
     1
102
RTVSPropertyOp12
 70
     1
102
RTVSPropertyOp13
 70
     1
102
RTVSPropertyOp14
 70
     1
102
RTVSPropertyOp15
 70
     1
102
RTVSPropertyOp16
 70
     1
102
RTVSPropertyOp17
 70
     1
102
RTVSPropertyOp18
 70
     1
102
RTVSPropertyOp19
 70
     1
102
RTVSPropertyOp20
 70
     1
102
RTVSPropertyOp21
 70
     1
102
RTVSPropertyOp22
 70
     1
102
RTVSPropertyOp23
 70
     1
102
RTVSPropertyOp24
 70
     1
102
RTVSPropertyOp25
 70
     1
102
RTVSPropertyOp26
 70
     1
102
RTVSPropertyOp27
 70
     1
  0
XRECORD
  5
2DBB
102
{ACAD_REACTORS
330
2DBA
102
}
330
2DBA
100
AcDbXrecord
280
     1
102
RTVSPropertyOp0
 70
     1
102
RTVSPropertyOp1
 70
     1
102
RTVSPropertyOp2
 70
     1
102
RTVSPropertyOp3
 70
     1
102
RTVSPropertyOp4
 70
     1
102
RTVSPropertyOp5
 70
     1
102
RTVSPropertyOp6
 70
     1
102
RTVSPropertyOp7
 70
     1
102
RTVSPropertyOp8
 70
     1
102
RTVSPropertyOp9
 70
     1
102
RTVSPropertyOp10
 70
     1
102
RTVSPropertyOp11
 70
     1
102
RTVSPropertyOp12
 70
     1
102
RTVSPropertyOp13
 70
     1
102
RTVSPropertyOp14
 70
     1
102
RTVSPropertyOp15
 70
     1
102
RTVSPropertyOp16
 70
     1
102
RTVSPropertyOp17
 70
     1
102
RTVSPropertyOp18
 70
     1
102
RTVSPropertyOp19
 70
     1
102
RTVSPropertyOp20
 70
     1
102
RTVSPropertyOp21
 70
     1
102
RTVSPropertyOp22
 70
     1
102
RTVSPropertyOp23
 70
     1
102
RTVSPropertyOp24
 70
     1
102
RTVSPropertyOp25
 70
     1
102
RTVSPropertyOp26
 70
     1
102
RTVSPropertyOp27
 70
     1
  0
XRECORD
  5
2D6C
102
{ACAD_REACTORS
330
2D6B
102
}
330
2D6B
100
AcDbXrecord
280
     1
102
RTVSPropertyOp0
 70
     1
102
RTVSPropertyOp1
 70
     1
102
RTVSPropertyOp2
 70
     1
102
RTVSPropertyOp3
 70
     1
102
RTVSPropertyOp4
 70
     1
102
RTVSPropertyOp5
 70
     1
102
RTVSPropertyOp6
 70
     1
102
RTVSPropertyOp7
 70
     1
102
RTVSPropertyOp8
 70
     1
102
RTVSPropertyOp9
 70
     1
102
RTVSPropertyOp10
 70
     1
102
RTVSPropertyOp11
 70
     1
102
RTVSPropertyOp12
 70
     1
102
RTVSPropertyOp13
 70
     1
102
RTVSPropertyOp14
 70
     1
102
RTVSPropertyOp15
 70
     1
102
RTVSPropertyOp16
 70
     1
102
RTVSPropertyOp17
 70
     1
102
RTVSPropertyOp18
 70
     1
102
RTVSPropertyOp19
 70
     1
102
RTVSPropertyOp20
 70
     1
102
RTVSPropertyOp21
 70
     1
102
RTVSPropertyOp22
 70
     1
102
RTVSPropertyOp23
 70
     1
102
RTVSPropertyOp24
 70
     1
102
RTVSPropertyOp25
 70
     1
102
RTVSPropertyOp26
 70
     1
102
RTVSPropertyOp27
 70
     1
  0
XRECORD
  5
2D7A
102
{ACAD_REACTORS
330
2D79
102
}
330
2D79
100
AcDbXrecord
280
     1
102
RTVSPropertyOp0
 70
     1
102
RTVSPropertyOp1
 70
     1
102
RTVSPropertyOp2
 70
     1
102
RTVSPropertyOp3
 70
     1
102
RTVSPropertyOp4
 70
     1
102
RTVSPropertyOp5
 70
     1
102
RTVSPropertyOp6
 70
     1
102
RTVSPropertyOp7
 70
     1
102
RTVSPropertyOp8
 70
     1
102
RTVSPropertyOp9
 70
     1
102
RTVSPropertyOp10
 70
     1
102
RTVSPropertyOp11
 70
     1
102
RTVSPropertyOp12
 70
     1
102
RTVSPropertyOp13
 70
     1
102
RTVSPropertyOp14
 70
     1
102
RTVSPropertyOp15
 70
     1
102
RTVSPropertyOp16
 70
     1
102
RTVSPropertyOp17
 70
     1
102
RTVSPropertyOp18
 70
     1
102
RTVSPropertyOp19
 70
     1
102
RTVSPropertyOp20
 70
     1
102
RTVSPropertyOp21
 70
     1
102
RTVSPropertyOp22
 70
     1
102
RTVSPropertyOp23
 70
     1
102
RTVSPropertyOp24
 70
     1
102
RTVSPropertyOp25
 70
     1
102
RTVSPropertyOp26
 70
     1
102
RTVSPropertyOp27
 70
     1
  0
XRECORD
  5
2D82
102
{ACAD_REACTORS
330
2D81
102
}
330
2D81
100
AcDbXrecord
280
     1
102
RTVSPropertyOp0
 70
     1
102
RTVSPropertyOp1
 70
     1
102
RTVSPropertyOp2
 70
     1
102
RTVSPropertyOp3
 70
     1
102
RTVSPropertyOp4
 70
     1
102
RTVSPropertyOp5
 70
     1
102
RTVSPropertyOp6
 70
     1
102
RTVSPropertyOp7
 70
     1
102
RTVSPropertyOp8
 70
     1
102
RTVSPropertyOp9
 70
     1
102
RTVSPropertyOp10
 70
     1
102
RTVSPropertyOp11
 70
     1
102
RTVSPropertyOp12
 70
     1
102
RTVSPropertyOp13
 70
     1
102
RTVSPropertyOp14
 70
     1
102
RTVSPropertyOp15
 70
     1
102
RTVSPropertyOp16
 70
     1
102
RTVSPropertyOp17
 70
     1
102
RTVSPropertyOp18
 70
     1
102
RTVSPropertyOp19
 70
     1
102
RTVSPropertyOp20
 70
     1
102
RTVSPropertyOp21
 70
     1
102
RTVSPropertyOp22
 70
     1
102
RTVSPropertyOp23
 70
     1
102
RTVSPropertyOp24
 70
     1
102
RTVSPropertyOp25
 70
     1
102
RTVSPropertyOp26
 70
     1
102
RTVSPropertyOp27
 70
     1
  0
XRECORD
  5
2D74
102
{ACAD_REACTORS
330
2D73
102
}
330
2D73
100
AcDbXrecord
280
     1
102
RTVSPropertyOp0
 70
     1
102
RTVSPropertyOp1
 70
     1
102
RTVSPropertyOp2
 70
     1
102
RTVSPropertyOp3
 70
     1
102
RTVSPropertyOp4
 70
     1
102
RTVSPropertyOp5
 70
     1
102
RTVSPropertyOp6
 70
     1
102
RTVSPropertyOp7
 70
     1
102
RTVSPropertyOp8
 70
     1
102
RTVSPropertyOp9
 70
     1
102
RTVSPropertyOp10
 70
     1
102
RTVSPropertyOp11
 70
     1
102
RTVSPropertyOp12
 70
     1
102
RTVSPropertyOp13
 70
     1
102
RTVSPropertyOp14
 70
     1
102
RTVSPropertyOp15
 70
     1
102
RTVSPropertyOp16
 70
     1
102
RTVSPropertyOp17
 70
     1
102
RTVSPropertyOp18
 70
     1
102
RTVSPropertyOp19
 70
     1
102
RTVSPropertyOp20
 70
     1
102
RTVSPropertyOp21
 70
     1
102
RTVSPropertyOp22
 70
     1
102
RTVSPropertyOp23
 70
     1
102
RTVSPropertyOp24
 70
     1
102
RTVSPropertyOp25
 70
     1
102
RTVSPropertyOp26
 70
     1
102
RTVSPropertyOp27
 70
     1
  0
XRECORD
  5
2D78
102
{ACAD_REACTORS
330
2D77
102
}
330
2D77
100
AcDbXrecord
280
     1
102
RTVSPropertyOp0
 70
     1
102
RTVSPropertyOp1
 70
     1
102
RTVSPropertyOp2
 70
     1
102
RTVSPropertyOp3
 70
     1
102
RTVSPropertyOp4
 70
     1
102
RTVSPropertyOp5
 70
     1
102
RTVSPropertyOp6
 70
     1
102
RTVSPropertyOp7
 70
     1
102
RTVSPropertyOp8
 70
     1
102
RTVSPropertyOp9
 70
     1
102
RTVSPropertyOp10
 70
     1
102
RTVSPropertyOp11
 70
     1
102
RTVSPropertyOp12
 70
     1
102
RTVSPropertyOp13
 70
     1
102
RTVSPropertyOp14
 70
     1
102
RTVSPropertyOp15
 70
     1
102
RTVSPropertyOp16
 70
     1
102
RTVSPropertyOp17
 70
     1
102
RTVSPropertyOp18
 70
     1
102
RTVSPropertyOp19
 70
     1
102
RTVSPropertyOp20
 70
     1
102
RTVSPropertyOp21
 70
     1
102
RTVSPropertyOp22
 70
     1
102
RTVSPropertyOp23
 70
     1
102
RTVSPropertyOp24
 70
     1
102
RTVSPropertyOp25
 70
     1
102
RTVSPropertyOp26
 70
     1
102
RTVSPropertyOp27
 70
     1
  0
XRECORD
  5
2D92
102
{ACAD_REACTORS
330
2D91
102
}
330
2D91
100
AcDbXrecord
280
     1
102
RTVSPropertyOp0
 70
     0
102
RTVSPropertyOp1
 70
     0
102
RTVSPropertyOp2
 70
     0
102
RTVSPropertyOp3
 70
     0
102
RTVSPropertyOp4
 70
     0
102
RTVSPropertyOp5
 70
     0
102
RTVSPropertyOp6
 70
     0
102
RTVSPropertyOp7
 70
     0
102
RTVSPropertyOp8
 70
     0
102
RTVSPropertyOp9
 70
     0
102
RTVSPropertyOp10
 70
     0
102
RTVSPropertyOp11
 70
     0
102
RTVSPropertyOp12
 70
     0
102
RTVSPropertyOp13
 70
     0
102
RTVSPropertyOp14
 70
     2
102
RTVSPropertyOp15
 70
     0
102
RTVSPropertyOp16
 70
     0
102
RTVSPropertyOp17
 70
     0
102
RTVSPropertyOp18
 70
     0
102
RTVSPropertyOp19
 70
     0
102
RTVSPropertyOp20
 70
     0
102
RTVSPropertyOp21
 70
     0
102
RTVSPropertyOp22
 70
     0
102
RTVSPropertyOp23
 70
     0
102
RTVSPropertyOp24
 70
     0
102
RTVSPropertyOp25
 70
     0
102
RTVSPropertyOp26
 70
     0
102
RTVSPropertyOp27
 70
     0
  0
XRECORD
  5
2D80
102
{ACAD_REACTORS
330
2D7F
102
}
330
2D7F
100
AcDbXrecord
280
     1
102
RTVSPropertyOp0
 70
     1
102
RTVSPropertyOp1
 70
     1
102
RTVSPropertyOp2
 70
     1
102
RTVSPropertyOp3
 70
     1
102
RTVSPropertyOp4
 70
     1
102
RTVSPropertyOp5
 70
     1
102
RTVSPropertyOp6
 70
     1
102
RTVSPropertyOp7
 70
     1
102
RTVSPropertyOp8
 70
     1
102
RTVSPropertyOp9
 70
     1
102
RTVSPropertyOp10
 70
     1
102
RTVSPropertyOp11
 70
     1
102
RTVSPropertyOp12
 70
     1
102
RTVSPropertyOp13
 70
     1
102
RTVSPropertyOp14
 70
     1
102
RTVSPropertyOp15
 70
     1
102
RTVSPropertyOp16
 70
     1
102
RTVSPropertyOp17
 70
     1
102
RTVSPropertyOp18
 70
     1
102
RTVSPropertyOp19
 70
     1
102
RTVSPropertyOp20
 70
     1
102
RTVSPropertyOp21
 70
     1
102
RTVSPropertyOp22
 70
     1
102
RTVSPropertyOp23
 70
     1
102
RTVSPropertyOp24
 70
     1
102
RTVSPropertyOp25
 70
     1
102
RTVSPropertyOp26
 70
     1
102
RTVSPropertyOp27
 70
     1
  0
XRECORD
  5
2D64
102
{ACAD_REACTORS
330
2D63
102
}
330
2D63
100
AcDbXrecord
280
     1
102
RTVSPropertyOp0
 70
     1
102
RTVSPropertyOp1
 70
     1
102
RTVSPropertyOp2
 70
     1
102
RTVSPropertyOp3
 70
     1
102
RTVSPropertyOp4
 70
     1
102
RTVSPropertyOp5
 70
     1
102
RTVSPropertyOp6
 70
     1
102
RTVSPropertyOp7
 70
     1
102
RTVSPropertyOp8
 70
     1
102
RTVSPropertyOp9
 70
     1
102
RTVSPropertyOp10
 70
     1
102
RTVSPropertyOp11
 70
     1
102
RTVSPropertyOp12
 70
     1
102
RTVSPropertyOp13
 70
     1
102
RTVSPropertyOp14
 70
     1
102
RTVSPropertyOp15
 70
     1
102
RTVSPropertyOp16
 70
     1
102
RTVSPropertyOp17
 70
     1
102
RTVSPropertyOp18
 70
     1
102
RTVSPropertyOp19
 70
     1
102
RTVSPropertyOp20
 70
     1
102
RTVSPropertyOp21
 70
     1
102
RTVSPropertyOp22
 70
     1
102
RTVSPropertyOp23
 70
     1
102
RTVSPropertyOp24
 70
     1
102
RTVSPropertyOp25
 70
     1
102
RTVSPropertyOp26
 70
     1
102
RTVSPropertyOp27
 70
     1
  0
XRECORD
  5
2D66
102
{ACAD_REACTORS
330
2D65
102
}
330
2D65
100
AcDbXrecord
280
     1
102
RTVSPropertyOp0
 70
     1
102
RTVSPropertyOp1
 70
     1
102
RTVSPropertyOp2
 70
     1
102
RTVSPropertyOp3
 70
     1
102
RTVSPropertyOp4
 70
     1
102
RTVSPropertyOp5
 70
     1
102
RTVSPropertyOp6
 70
     1
102
RTVSPropertyOp7
 70
     1
102
RTVSPropertyOp8
 70
     1
102
RTVSPropertyOp9
 70
     1
102
RTVSPropertyOp10
 70
     1
102
RTVSPropertyOp11
 70
     1
102
RTVSPropertyOp12
 70
     1
102
RTVSPropertyOp13
 70
     1
102
RTVSPropertyOp14
 70
     1
102
RTVSPropertyOp15
 70
     1
102
RTVSPropertyOp16
 70
     1
102
RTVSPropertyOp17
 70
     1
102
RTVSPropertyOp18
 70
     1
102
RTVSPropertyOp19
 70
     1
102
RTVSPropertyOp20
 70
     1
102
RTVSPropertyOp21
 70
     1
102
RTVSPropertyOp22
 70
     1
102
RTVSPropertyOp23
 70
     1
102
RTVSPropertyOp24
 70
     1
102
RTVSPropertyOp25
 70
     1
102
RTVSPropertyOp26
 70
     1
102
RTVSPropertyOp27
 70
     1
  0
XRECORD
  5
2D68
102
{ACAD_REACTORS
330
2D67
102
}
330
2D67
100
AcDbXrecord
280
     1
102
RTVSPropertyOp0
 70
     1
102
RTVSPropertyOp1
 70
     1
102
RTVSPropertyOp2
 70
     1
102
RTVSPropertyOp3
 70
     1
102
RTVSPropertyOp4
 70
     1
102
RTVSPropertyOp5
 70
     1
102
RTVSPropertyOp6
 70
     1
102
RTVSPropertyOp7
 70
     1
102
RTVSPropertyOp8
 70
     1
102
RTVSPropertyOp9
 70
     1
102
RTVSPropertyOp10
 70
     1
102
RTVSPropertyOp11
 70
     1
102
RTVSPropertyOp12
 70
     1
102
RTVSPropertyOp13
 70
     1
102
RTVSPropertyOp14
 70
     1
102
RTVSPropertyOp15
 70
     1
102
RTVSPropertyOp16
 70
     1
102
RTVSPropertyOp17
 70
     1
102
RTVSPropertyOp18
 70
     1
102
RTVSPropertyOp19
 70
     1
102
RTVSPropertyOp20
 70
     1
102
RTVSPropertyOp21
 70
     1
102
RTVSPropertyOp22
 70
     1
102
RTVSPropertyOp23
 70
     1
102
RTVSPropertyOp24
 70
     1
102
RTVSPropertyOp25
 70
     1
102
RTVSPropertyOp26
 70
     1
102
RTVSPropertyOp27
 70
     1
  0
XRECORD
  5
2D6A
102
{ACAD_REACTORS
330
2D69
102
}
330
2D69
100
AcDbXrecord
280
     1
102
RTVSPropertyOp0
 70
     1
102
RTVSPropertyOp1
 70
     1
102
RTVSPropertyOp2
 70
     1
102
RTVSPropertyOp3
 70
     1
102
RTVSPropertyOp4
 70
     1
102
RTVSPropertyOp5
 70
     1
102
RTVSPropertyOp6
 70
     1
102
RTVSPropertyOp7
 70
     1
102
RTVSPropertyOp8
 70
     1
102
RTVSPropertyOp9
 70
     1
102
RTVSPropertyOp10
 70
     1
102
RTVSPropertyOp11
 70
     1
102
RTVSPropertyOp12
 70
     1
102
RTVSPropertyOp13
 70
     1
102
RTVSPropertyOp14
 70
     1
102
RTVSPropertyOp15
 70
     1
102
RTVSPropertyOp16
 70
     1
102
RTVSPropertyOp17
 70
     1
102
RTVSPropertyOp18
 70
     1
102
RTVSPropertyOp19
 70
     1
102
RTVSPropertyOp20
 70
     1
102
RTVSPropertyOp21
 70
     1
102
RTVSPropertyOp22
 70
     1
102
RTVSPropertyOp23
 70
     1
102
RTVSPropertyOp24
 70
     1
102
RTVSPropertyOp25
 70
     1
102
RTVSPropertyOp26
 70
     1
102
RTVSPropertyOp27
 70
     1
  0
XRECORD
  5
2D72
102
{ACAD_REACTORS
330
2D71
102
}
330
2D71
100
AcDbXrecord
280
     1
102
RTVSPropertyOp0
 70
     1
102
RTVSPropertyOp1
 70
     1
102
RTVSPropertyOp2
 70
     1
102
RTVSPropertyOp3
 70
     1
102
RTVSPropertyOp4
 70
     1
102
RTVSPropertyOp5
 70
     1
102
RTVSPropertyOp6
 70
     1
102
RTVSPropertyOp7
 70
     1
102
RTVSPropertyOp8
 70
     1
102
RTVSPropertyOp9
 70
     1
102
RTVSPropertyOp10
 70
     1
102
RTVSPropertyOp11
 70
     1
102
RTVSPropertyOp12
 70
     1
102
RTVSPropertyOp13
 70
     1
102
RTVSPropertyOp14
 70
     1
102
RTVSPropertyOp15
 70
     1
102
RTVSPropertyOp16
 70
     1
102
RTVSPropertyOp17
 70
     1
102
RTVSPropertyOp18
 70
     1
102
RTVSPropertyOp19
 70
     1
102
RTVSPropertyOp20
 70
     1
102
RTVSPropertyOp21
 70
     1
102
RTVSPropertyOp22
 70
     1
102
RTVSPropertyOp23
 70
     1
102
RTVSPropertyOp24
 70
     1
102
RTVSPropertyOp25
 70
     1
102
RTVSPropertyOp26
 70
     1
102
RTVSPropertyOp27
 70
     1
  0
XRECORD
  5
2D8E
102
{ACAD_REACTORS
330
2D8D
102
}
330
2D8D
100
AcDbXrecord
280
     1
102
RTVSPropertyOp0
 70
     0
102
RTVSPropertyOp1
 70
     0
102
RTVSPropertyOp2
 70
     0
102
RTVSPropertyOp3
 70
     0
102
RTVSPropertyOp4
 70
     0
102
RTVSPropertyOp5
 70
     0
102
RTVSPropertyOp6
 70
     0
102
RTVSPropertyOp7
 70
     0
102
RTVSPropertyOp8
 70
     0
102
RTVSPropertyOp9
 70
     0
102
RTVSPropertyOp10
 70
     0
102
RTVSPropertyOp11
 70
     0
102
RTVSPropertyOp12
 70
     0
102
RTVSPropertyOp13
 70
     0
102
RTVSPropertyOp14
 70
     2
102
RTVSPropertyOp15
 70
     0
102
RTVSPropertyOp16
 70
     0
102
RTVSPropertyOp17
 70
     0
102
RTVSPropertyOp18
 70
     0
102
RTVSPropertyOp19
 70
     0
102
RTVSPropertyOp20
 70
     0
102
RTVSPropertyOp21
 70
     0
102
RTVSPropertyOp22
 70
     0
102
RTVSPropertyOp23
 70
     0
102
RTVSPropertyOp24
 70
     0
102
RTVSPropertyOp25
 70
     0
102
RTVSPropertyOp26
 70
     0
102
RTVSPropertyOp27
 70
     0
  0
XRECORD
  5
2D7E
102
{ACAD_REACTORS
330
2D7D
102
}
330
2D7D
100
AcDbXrecord
280
     1
102
RTVSPropertyOp0
 70
     1
102
RTVSPropertyOp1
 70
     1
102
RTVSPropertyOp2
 70
     1
102
RTVSPropertyOp3
 70
     1
102
RTVSPropertyOp4
 70
     1
102
RTVSPropertyOp5
 70
     1
102
RTVSPropertyOp6
 70
     1
102
RTVSPropertyOp7
 70
     1
102
RTVSPropertyOp8
 70
     1
102
RTVSPropertyOp9
 70
     1
102
RTVSPropertyOp10
 70
     1
102
RTVSPropertyOp11
 70
     1
102
RTVSPropertyOp12
 70
     1
102
RTVSPropertyOp13
 70
     1
102
RTVSPropertyOp14
 70
     1
102
RTVSPropertyOp15
 70
     1
102
RTVSPropertyOp16
 70
     1
102
RTVSPropertyOp17
 70
     1
102
RTVSPropertyOp18
 70
     1
102
RTVSPropertyOp19
 70
     1
102
RTVSPropertyOp20
 70
     1
102
RTVSPropertyOp21
 70
     1
102
RTVSPropertyOp22
 70
     1
102
RTVSPropertyOp23
 70
     1
102
RTVSPropertyOp24
 70
     1
102
RTVSPropertyOp25
 70
     1
102
RTVSPropertyOp26
 70
     1
102
RTVSPropertyOp27
 70
     1
  0
XRECORD
  5
2D90
102
{ACAD_REACTORS
330
2D8F
102
}
330
2D8F
100
AcDbXrecord
280
     1
102
RTVSPropertyOp0
 70
     0
102
RTVSPropertyOp1
 70
     0
102
RTVSPropertyOp2
 70
     0
102
RTVSPropertyOp3
 70
     0
102
RTVSPropertyOp4
 70
     0
102
RTVSPropertyOp5
 70
     0
102
RTVSPropertyOp6
 70
     0
102
RTVSPropertyOp7
 70
     0
102
RTVSPropertyOp8
 70
     0
102
RTVSPropertyOp9
 70
     0
102
RTVSPropertyOp10
 70
     0
102
RTVSPropertyOp11
 70
     0
102
RTVSPropertyOp12
 70
     0
102
RTVSPropertyOp13
 70
     0
102
RTVSPropertyOp14
 70
     2
102
RTVSPropertyOp15
 70
     0
102
RTVSPropertyOp16
 70
     0
102
RTVSPropertyOp17
 70
     0
102
RTVSPropertyOp18
 70
     0
102
RTVSPropertyOp19
 70
     0
102
RTVSPropertyOp20
 70
     0
102
RTVSPropertyOp21
 70
     0
102
RTVSPropertyOp22
 70
     0
102
RTVSPropertyOp23
 70
     0
102
RTVSPropertyOp24
 70
     0
102
RTVSPropertyOp25
 70
     0
102
RTVSPropertyOp26
 70
     0
102
RTVSPropertyOp27
 70
     0
  0
XRECORD
  5
2D76
102
{ACAD_REACTORS
330
2D75
102
}
330
2D75
100
AcDbXrecord
280
     1
102
RTVSPropertyOp0
 70
     1
102
RTVSPropertyOp1
 70
     1
102
RTVSPropertyOp2
 70
     1
102
RTVSPropertyOp3
 70
     1
102
RTVSPropertyOp4
 70
     1
102
RTVSPropertyOp5
 70
     1
102
RTVSPropertyOp6
 70
     1
102
RTVSPropertyOp7
 70
     1
102
RTVSPropertyOp8
 70
     1
102
RTVSPropertyOp9
 70
     1
102
RTVSPropertyOp10
 70
     1
102
RTVSPropertyOp11
 70
     1
102
RTVSPropertyOp12
 70
     1
102
RTVSPropertyOp13
 70
     1
102
RTVSPropertyOp14
 70
     1
102
RTVSPropertyOp15
 70
     1
102
RTVSPropertyOp16
 70
     1
102
RTVSPropertyOp17
 70
     1
102
RTVSPropertyOp18
 70
     1
102
RTVSPropertyOp19
 70
     1
102
RTVSPropertyOp20
 70
     1
102
RTVSPropertyOp21
 70
     1
102
RTVSPropertyOp22
 70
     1
102
RTVSPropertyOp23
 70
     1
102
RTVSPropertyOp24
 70
     1
102
RTVSPropertyOp25
 70
     1
102
RTVSPropertyOp26
 70
     1
102
RTVSPropertyOp27
 70
     1
  0
XRECORD
  5
2D8C
102
{ACAD_REACTORS
330
2D8B
102
}
330
2D8B
100
AcDbXrecord
280
     1
102
RTVSPropertyOp0
 70
     1
102
RTVSPropertyOp1
 70
     1
102
RTVSPropertyOp2
 70
     1
102
RTVSPropertyOp3
 70
     1
102
RTVSPropertyOp4
 70
     1
102
RTVSPropertyOp5
 70
     1
102
RTVSPropertyOp6
 70
     1
102
RTVSPropertyOp7
 70
     1
102
RTVSPropertyOp8
 70
     1
102
RTVSPropertyOp9
 70
     1
102
RTVSPropertyOp10
 70
     1
102
RTVSPropertyOp11
 70
     1
102
RTVSPropertyOp12
 70
     1
102
RTVSPropertyOp13
 70
     1
102
RTVSPropertyOp14
 70
     1
102
RTVSPropertyOp15
 70
     1
102
RTVSPropertyOp16
 70
     1
102
RTVSPropertyOp17
 70
     1
102
RTVSPropertyOp18
 70
     1
102
RTVSPropertyOp19
 70
     1
102
RTVSPropertyOp20
 70
     1
102
RTVSPropertyOp21
 70
     1
102
RTVSPropertyOp22
 70
     1
102
RTVSPropertyOp23
 70
     1
102
RTVSPropertyOp24
 70
     1
102
RTVSPropertyOp25
 70
     1
102
RTVSPropertyOp26
 70
     1
102
RTVSPropertyOp27
 70
     1
  0
XRECORD
  5
2D8A
102
{ACAD_REACTORS
330
2D89
102
}
330
2D89
100
AcDbXrecord
280
     1
102
RTVSPropertyOp0
 70
     1
102
RTVSPropertyOp1
 70
     1
102
RTVSPropertyOp2
 70
     1
102
RTVSPropertyOp3
 70
     1
102
RTVSPropertyOp4
 70
     1
102
RTVSPropertyOp5
 70
     1
102
RTVSPropertyOp6
 70
     1
102
RTVSPropertyOp7
 70
     1
102
RTVSPropertyOp8
 70
     1
102
RTVSPropertyOp9
 70
     1
102
RTVSPropertyOp10
 70
     1
102
RTVSPropertyOp11
 70
     1
102
RTVSPropertyOp12
 70
     1
102
RTVSPropertyOp13
 70
     1
102
RTVSPropertyOp14
 70
     1
102
RTVSPropertyOp15
 70
     1
102
RTVSPropertyOp16
 70
     1
102
RTVSPropertyOp17
 70
     1
102
RTVSPropertyOp18
 70
     1
102
RTVSPropertyOp19
 70
     1
102
RTVSPropertyOp20
 70
     1
102
RTVSPropertyOp21
 70
     1
102
RTVSPropertyOp22
 70
     1
102
RTVSPropertyOp23
 70
     1
102
RTVSPropertyOp24
 70
     1
102
RTVSPropertyOp25
 70
     1
102
RTVSPropertyOp26
 70
     1
102
RTVSPropertyOp27
 70
     1
  0
XRECORD
  5
2D84
102
{ACAD_REACTORS
330
2D83
102
}
330
2D83
100
AcDbXrecord
280
     1
102
RTVSPropertyOp0
 70
     1
102
RTVSPropertyOp1
 70
     1
102
RTVSPropertyOp2
 70
     1
102
RTVSPropertyOp3
 70
     1
102
RTVSPropertyOp4
 70
     1
102
RTVSPropertyOp5
 70
     1
102
RTVSPropertyOp6
 70
     1
102
RTVSPropertyOp7
 70
     1
102
RTVSPropertyOp8
 70
     1
102
RTVSPropertyOp9
 70
     1
102
RTVSPropertyOp10
 70
     1
102
RTVSPropertyOp11
 70
     1
102
RTVSPropertyOp12
 70
     1
102
RTVSPropertyOp13
 70
     1
102
RTVSPropertyOp14
 70
     1
102
RTVSPropertyOp15
 70
     1
102
RTVSPropertyOp16
 70
     1
102
RTVSPropertyOp17
 70
     1
102
RTVSPropertyOp18
 70
     1
102
RTVSPropertyOp19
 70
     1
102
RTVSPropertyOp20
 70
     1
102
RTVSPropertyOp21
 70
     1
102
RTVSPropertyOp22
 70
     1
102
RTVSPropertyOp23
 70
     1
102
RTVSPropertyOp24
 70
     1
102
RTVSPropertyOp25
 70
     1
102
RTVSPropertyOp26
 70
     1
102
RTVSPropertyOp27
 70
     1
  0
XRECORD
  5
2D86
102
{ACAD_REACTORS
330
2D85
102
}
330
2D85
100
AcDbXrecord
280
     1
102
RTVSPropertyOp0
 70
     1
102
RTVSPropertyOp1
 70
     1
102
RTVSPropertyOp2
 70
     1
102
RTVSPropertyOp3
 70
     1
102
RTVSPropertyOp4
 70
     1
102
RTVSPropertyOp5
 70
     1
102
RTVSPropertyOp6
 70
     1
102
RTVSPropertyOp7
 70
     1
102
RTVSPropertyOp8
 70
     1
102
RTVSPropertyOp9
 70
     1
102
RTVSPropertyOp10
 70
     1
102
RTVSPropertyOp11
 70
     1
102
RTVSPropertyOp12
 70
     1
102
RTVSPropertyOp13
 70
     1
102
RTVSPropertyOp14
 70
     1
102
RTVSPropertyOp15
 70
     1
102
RTVSPropertyOp16
 70
     1
102
RTVSPropertyOp17
 70
     1
102
RTVSPropertyOp18
 70
     1
102
RTVSPropertyOp19
 70
     1
102
RTVSPropertyOp20
 70
     1
102
RTVSPropertyOp21
 70
     1
102
RTVSPropertyOp22
 70
     1
102
RTVSPropertyOp23
 70
     1
102
RTVSPropertyOp24
 70
     1
102
RTVSPropertyOp25
 70
     1
102
RTVSPropertyOp26
 70
     1
102
RTVSPropertyOp27
 70
     1
  0
XRECORD
  5
2D7C
102
{ACAD_REACTORS
330
2D7B
102
}
330
2D7B
100
AcDbXrecord
280
     1
102
RTVSPropertyOp0
 70
     1
102
RTVSPropertyOp1
 70
     1
102
RTVSPropertyOp2
 70
     1
102
RTVSPropertyOp3
 70
     1
102
RTVSPropertyOp4
 70
     1
102
RTVSPropertyOp5
 70
     1
102
RTVSPropertyOp6
 70
     1
102
RTVSPropertyOp7
 70
     1
102
RTVSPropertyOp8
 70
     1
102
RTVSPropertyOp9
 70
     1
102
RTVSPropertyOp10
 70
     1
102
RTVSPropertyOp11
 70
     1
102
RTVSPropertyOp12
 70
     1
102
RTVSPropertyOp13
 70
     1
102
RTVSPropertyOp14
 70
     1
102
RTVSPropertyOp15
 70
     1
102
RTVSPropertyOp16
 70
     1
102
RTVSPropertyOp17
 70
     1
102
RTVSPropertyOp18
 70
     1
102
RTVSPropertyOp19
 70
     1
102
RTVSPropertyOp20
 70
     1
102
RTVSPropertyOp21
 70
     1
102
RTVSPropertyOp22
 70
     1
102
RTVSPropertyOp23
 70
     1
102
RTVSPropertyOp24
 70
     1
102
RTVSPropertyOp25
 70
     1
102
RTVSPropertyOp26
 70
     1
102
RTVSPropertyOp27
 70
     1
  0
XRECORD
  5
2D70
102
{ACAD_REACTORS
330
2D6F
102
}
330
2D6F
100
AcDbXrecord
280
     1
102
RTVSPropertyOp0
 70
     1
102
RTVSPropertyOp1
 70
     1
102
RTVSPropertyOp2
 70
     1
102
RTVSPropertyOp3
 70
     1
102
RTVSPropertyOp4
 70
     1
102
RTVSPropertyOp5
 70
     1
102
RTVSPropertyOp6
 70
     1
102
RTVSPropertyOp7
 70
     1
102
RTVSPropertyOp8
 70
     1
102
RTVSPropertyOp9
 70
     1
102
RTVSPropertyOp10
 70
     1
102
RTVSPropertyOp11
 70
     1
102
RTVSPropertyOp12
 70
     1
102
RTVSPropertyOp13
 70
     1
102
RTVSPropertyOp14
 70
     1
102
RTVSPropertyOp15
 70
     1
102
RTVSPropertyOp16
 70
     1
102
RTVSPropertyOp17
 70
     1
102
RTVSPropertyOp18
 70
     1
102
RTVSPropertyOp19
 70
     1
102
RTVSPropertyOp20
 70
     1
102
RTVSPropertyOp21
 70
     1
102
RTVSPropertyOp22
 70
     1
102
RTVSPropertyOp23
 70
     1
102
RTVSPropertyOp24
 70
     1
102
RTVSPropertyOp25
 70
     1
102
RTVSPropertyOp26
 70
     1
102
RTVSPropertyOp27
 70
     1
  0
XRECORD
  5
2D88
102
{ACAD_REACTORS
330
2D87
102
}
330
2D87
100
AcDbXrecord
280
     1
102
RTVSPropertyOp0
 70
     1
102
RTVSPropertyOp1
 70
     1
102
RTVSPropertyOp2
 70
     1
102
RTVSPropertyOp3
 70
     1
102
RTVSPropertyOp4
 70
     1
102
RTVSPropertyOp5
 70
     1
102
RTVSPropertyOp6
 70
     1
102
RTVSPropertyOp7
 70
     1
102
RTVSPropertyOp8
 70
     1
102
RTVSPropertyOp9
 70
     1
102
RTVSPropertyOp10
 70
     1
102
RTVSPropertyOp11
 70
     1
102
RTVSPropertyOp12
 70
     1
102
RTVSPropertyOp13
 70
     1
102
RTVSPropertyOp14
 70
     1
102
RTVSPropertyOp15
 70
     1
102
RTVSPropertyOp16
 70
     1
102
RTVSPropertyOp17
 70
     1
102
RTVSPropertyOp18
 70
     1
102
RTVSPropertyOp19
 70
     1
102
RTVSPropertyOp20
 70
     1
102
RTVSPropertyOp21
 70
     1
102
RTVSPropertyOp22
 70
     1
102
RTVSPropertyOp23
 70
     1
102
RTVSPropertyOp24
 70
     1
102
RTVSPropertyOp25
 70
     1
102
RTVSPropertyOp26
 70
     1
102
RTVSPropertyOp27
 70
     1
  0
ENDSEC
  0
EOF
