  0
SECTION
  2
HEADER
  9
$ACADVER
  1
AC1018
  9
$ACADMAINTVER
 70
   104
  9
$DWGCODEPAGE
  3
ANSI_1250
  9
$AUTHOR
  1
tmrtka
  9
$LASTSAVEDBY
  1
onovak
  9
$REVISIONNUMBER
  1
000
  9
$CUSTOMPROPERTYTAG
  1
Vedoucí
  9
$CUSTOMPROPERTY
  1

  9
$CUSTOMPROPERTYTAG
  1
Společnost
  9
$CUSTOMPROPERTY
  1

  9
$CUSTOMPROPERTYTAG
  1
Kategorie
  9
$CUSTOMPROPERTY
  1

  9
$CUSTOMPROPERTYTAG
  1
Číslo součásti
  9
$CUSTOMPROPERTY
  1
408054
  9
$CUSTOMPROPERTYTAG
  1
Popis
  9
$CUSTOMPROPERTY
  1

  9
$CUSTOMPROPERTYTAG
  1
Projekt
  9
$CUSTOMPROPERTY
  1

  9
$CUSTOMPROPERTYTAG
  1
Kreslil
  9
$CUSTOMPROPERTY
  1
tmrtka
  9
$CUSTOMPROPERTYTAG
  1
Schválil
  9
$CUSTOMPROPERTY
  1

  9
$CUSTOMPROPERTYTAG
  1
Zodpovídá
  9
$CUSTOMPROPERTY
  1

  9
$CUSTOMPROPERTYTAG
  1
Nákladové středisko
  9
$CUSTOMPROPERTY
  1

  9
$CUSTOMPROPERTYTAG
  1
Dodavatel
  9
$CUSTOMPROPERTY
  1

  9
$CUSTOMPROPERTYTAG
  1
Uživatelský stav
  9
$CUSTOMPROPERTY
  1

  9
$CUSTOMPROPERTYTAG
  1
Stav návrhu
  9
$CUSTOMPROPERTY
  1
Rozpracováno
  9
$CUSTOMPROPERTYTAG
  1
Zkontroloval
  9
$CUSTOMPROPERTY
  1

  9
$CUSTOMPROPERTYTAG
  1
Techn. kontr. schválil
  9
$CUSTOMPROPERTY
  1

  9
$CUSTOMPROPERTYTAG
  1
Výrobu schválil
  9
$CUSTOMPROPERTY
  1

  9
$CUSTOMPROPERTYTAG
  1
VS_First
  9
$CUSTOMPROPERTY
  1

  9
$CUSTOMPROPERTYTAG
  1
VS_All
  9
$CUSTOMPROPERTY
  1
1:1,
  9
$CUSTOMPROPERTYTAG
  1
Model_Mass_Value
  9
$CUSTOMPROPERTY
  1
,0
  9
$CUSTOMPROPERTYTAG
  1
Model_Mass_Units
  9
$CUSTOMPROPERTY
  1
kg
  9
$CUSTOMPROPERTYTAG
  1
Model_Area_Value
  9
$CUSTOMPROPERTY
  1
2694,0
  9
$CUSTOMPROPERTYTAG
  1
Model_Area_Units
  9
$CUSTOMPROPERTY
  1
mm˛
  9
$CUSTOMPROPERTYTAG
  1
Model_Volume_Value
  9
$CUSTOMPROPERTY
  1
5471,0
  9
$CUSTOMPROPERTYTAG
  1
Model_Volume_Units
  9
$CUSTOMPROPERTY
  1
mmł
  9
$CUSTOMPROPERTYTAG
  1
Model_CogX_Value
  9
$CUSTOMPROPERTY
  1
,0
  9
$CUSTOMPROPERTYTAG
  1
Model_CogY_Value
  9
$CUSTOMPROPERTY
  1
,0
  9
$CUSTOMPROPERTYTAG
  1
Model_CogZ_Value
  9
$CUSTOMPROPERTY
  1
,0
  9
$CUSTOMPROPERTYTAG
  1
Model_Cog_Units
  9
$CUSTOMPROPERTY
  1
mm
  9
$CUSTOMPROPERTYTAG
  1
Model_Ixx_Value
  9
$CUSTOMPROPERTY
  1
,0
  9
$CUSTOMPROPERTYTAG
  1
Model_Iyy_Value
  9
$CUSTOMPROPERTY
  1
,0
  9
$CUSTOMPROPERTYTAG
  1
Model_Izz_Value
  9
$CUSTOMPROPERTY
  1
,0
  9
$CUSTOMPROPERTYTAG
  1
Model_Ixy_Value
  9
$CUSTOMPROPERTY
  1
,0
  9
$CUSTOMPROPERTYTAG
  1
Model_Iyz_Value
  9
$CUSTOMPROPERTY
  1
,0
  9
$CUSTOMPROPERTYTAG
  1
Model_Ixz_Value
  9
$CUSTOMPROPERTY
  1
,0
  9
$CUSTOMPROPERTYTAG
  1
Model_MassMom_Units
  9
$CUSTOMPROPERTY
  1
kg mm˛
  9
$CUSTOMPROPERTYTAG
  1
FirstViewScale
  9
$CUSTOMPROPERTY
  1

  9
$CUSTOMPROPERTYTAG
  1
AllViewScales
  9
$CUSTOMPROPERTY
  1

  9
$CUSTOMPROPERTYTAG
  1
SaveDate
  9
$CUSTOMPROPERTY
  1
09/12/2007
  9
$CUSTOMPROPERTYTAG
  1
SaveTime
  9
$CUSTOMPROPERTY
  1
10:32
  9
$CUSTOMPROPERTYTAG
  1
PaperSize
  9
$CUSTOMPROPERTY
  1
A3
  9
$CUSTOMPROPERTYTAG
  1
DateSaved
  9
$CUSTOMPROPERTY
  1
12.09.2007
  9
$CUSTOMPROPERTYTAG
  1
TimeSaved
  9
$CUSTOMPROPERTY
  1
10:32 dop.
  9
$INSBASE
 10
0.0
 20
0.0
 30
0.0
  9
$EXTMIN
 10
202.4472686267077
 20
127.6995870653768
 30
-0.0000000000112498
  9
$EXTMAX
 10
420.1578387862046
 20
704.1613787507653
 30
0.0000000000002956
  9
$LIMMIN
 10
0.0
 20
0.0
  9
$LIMMAX
 10
1188.0
 20
840.0
  9
$ORTHOMODE
 70
     1
  9
$REGENMODE
 70
     1
  9
$FILLMODE
 70
     1
  9
$QTEXTMODE
 70
     0
  9
$MIRRTEXT
 70
     0
  9
$LTSCALE
 40
2.0
  9
$ATTMODE
 70
     1
  9
$TEXTSIZE
 40
0.2
  9
$TRACEWID
 40
0.05
  9
$TEXTSTYLE
  7
Standard
  9
$CLAYER
  8
Viditelná (ISO)
  9
$CELTYPE
  6
ByLayer
  9
$CECOLOR
 62
   256
  9
$CELTSCALE
 40
1.0
  9
$DISPSILH
 70
     0
  9
$DIMSCALE
 40
1.0
  9
$DIMASZ
 40
1.799999999999999
  9
$DIMEXO
 40
0.0625
  9
$DIMDLI
 40
0.38
  9
$DIMRND
 40
0.0
  9
$DIMDLE
 40
0.0
  9
$DIMEXE
 40
0.18
  9
$DIMTP
 40
0.0
  9
$DIMTM
 40
0.0
  9
$DIMTXT
 40
0.3499999940395355
  9
$DIMCEN
 40
0.09
  9
$DIMTSZ
 40
0.0
  9
$DIMTOL
 70
     0
  9
$DIMLIM
 70
     0
  9
$DIMTIH
 70
     1
  9
$DIMTOH
 70
     1
  9
$DIMSE1
 70
     0
  9
$DIMSE2
 70
     0
  9
$DIMTAD
 70
     0
  9
$DIMZIN
 70
     0
  9
$DIMBLK
  1

  9
$DIMASO
 70
     1
  9
$DIMSHO
 70
     1
  9
$DIMPOST
  1

  9
$DIMAPOST
  1

  9
$DIMALT
 70
     0
  9
$DIMALTD
 70
     2
  9
$DIMALTF
 40
25.4
  9
$DIMLFAC
 40
1.0
  9
$DIMTOFL
 70
     0
  9
$DIMTVP
 40
0.0
  9
$DIMTIX
 70
     0
  9
$DIMSOXD
 70
     0
  9
$DIMSAH
 70
     0
  9
$DIMBLK1
  1

  9
$DIMBLK2
  1

  9
$DIMSTYLE
  2
Standard
  9
$DIMCLRD
 70
     0
  9
$DIMCLRE
 70
     0
  9
$DIMCLRT
 70
     0
  9
$DIMTFAC
 40
1.0
  9
$DIMGAP
 40
0.09
  9
$DIMJUST
 70
     0
  9
$DIMSD1
 70
     0
  9
$DIMSD2
 70
     0
  9
$DIMTOLJ
 70
     1
  9
$DIMTZIN
 70
     0
  9
$DIMALTZ
 70
     0
  9
$DIMALTTZ
 70
     0
  9
$DIMUPT
 70
     0
  9
$DIMDEC
 70
     4
  9
$DIMTDEC
 70
     4
  9
$DIMALTU
 70
     2
  9
$DIMALTTD
 70
     2
  9
$DIMTXSTY
  7
Standard
  9
$DIMAUNIT
 70
     0
  9
$DIMADEC
 70
     0
  9
$DIMALTRND
 40
0.0
  9
$DIMAZIN
 70
     0
  9
$DIMDSEP
 70
    46
  9
$DIMATFIT
 70
     3
  9
$DIMFRAC
 70
     0
  9
$DIMLDRBLK
  1

  9
$DIMLUNIT
 70
     2
  9
$DIMLWD
 70
    -2
  9
$DIMLWE
 70
    -2
  9
$DIMTMOVE
 70
     0
  9
$LUNITS
 70
     2
  9
$LUPREC
 70
     2
  9
$SKETCHINC
 40
0.1
  9
$FILLETRAD
 40
0.0
  9
$AUNITS
 70
     0
  9
$AUPREC
 70
     0
  9
$MENU
  1
.
  9
$ELEVATION
 40
0.0
  9
$PELEVATION
 40
0.0
  9
$THICKNESS
 40
0.0
  9
$LIMCHECK
 70
     0
  9
$CHAMFERA
 40
0.0
  9
$CHAMFERB
 40
0.0
  9
$CHAMFERC
 40
0.0
  9
$CHAMFERD
 40
0.0
  9
$SKPOLY
 70
     0
  9
$TDCREATE
 40
2456105.534349028
  9
$TDUCREATE
 40
2456105.451015694
  9
$TDUPDATE
 40
2456113.325979098
  9
$TDUUPDATE
 40
2456113.242645764
  9
$TDINDWG
 40
0.0211343981
  9
$TDUSRTIMER
 40
0.0211343981
  9
$USRTIMER
 70
     1
  9
$ANGBASE
 50
0.0
  9
$ANGDIR
 70
     0
  9
$PDMODE
 70
     0
  9
$PDSIZE
 40
0.0
  9
$PLINEWID
 40
0.0
  9
$SPLFRAME
 70
     0
  9
$SPLINETYPE
 70
     6
  9
$SPLINESEGS
 70
     8
  9
$HANDSEED
  5
2F6C
  9
$SURFTAB1
 70
     6
  9
$SURFTAB2
 70
     6
  9
$SURFTYPE
 70
     6
  9
$SURFU
 70
     6
  9
$SURFV
 70
     6
  9
$UCSBASE
  2

  9
$UCSNAME
  2

  9
$UCSORG
 10
0.0
 20
0.0
 30
0.0
  9
$UCSXDIR
 10
1.0
 20
0.0
 30
0.0
  9
$UCSYDIR
 10
0.0
 20
1.0
 30
0.0
  9
$UCSORTHOREF
  2

  9
$UCSORTHOVIEW
 70
     0
  9
$UCSORGTOP
 10
0.0
 20
0.0
 30
0.0
  9
$UCSORGBOTTOM
 10
0.0
 20
0.0
 30
0.0
  9
$UCSORGLEFT
 10
0.0
 20
0.0
 30
0.0
  9
$UCSORGRIGHT
 10
0.0
 20
0.0
 30
0.0
  9
$UCSORGFRONT
 10
0.0
 20
0.0
 30
0.0
  9
$UCSORGBACK
 10
0.0
 20
0.0
 30
0.0
  9
$PUCSBASE
  2

  9
$PUCSNAME
  2

  9
$PUCSORG
 10
0.0
 20
0.0
 30
0.0
  9
$PUCSXDIR
 10
1.0
 20
0.0
 30
0.0
  9
$PUCSYDIR
 10
0.0
 20
1.0
 30
0.0
  9
$PUCSORTHOREF
  2

  9
$PUCSORTHOVIEW
 70
     0
  9
$PUCSORGTOP
 10
0.0
 20
0.0
 30
0.0
  9
$PUCSORGBOTTOM
 10
0.0
 20
0.0
 30
0.0
  9
$PUCSORGLEFT
 10
0.0
 20
0.0
 30
0.0
  9
$PUCSORGRIGHT
 10
0.0
 20
0.0
 30
0.0
  9
$PUCSORGFRONT
 10
0.0
 20
0.0
 30
0.0
  9
$PUCSORGBACK
 10
0.0
 20
0.0
 30
0.0
  9
$USERI1
 70
     0
  9
$USERI2
 70
     0
  9
$USERI3
 70
     0
  9
$USERI4
 70
     0
  9
$USERI5
 70
     0
  9
$USERR1
 40
0.0
  9
$USERR2
 40
0.0
  9
$USERR3
 40
0.0
  9
$USERR4
 40
0.0
  9
$USERR5
 40
0.0
  9
$WORLDVIEW
 70
     1
  9
$SHADEDGE
 70
     3
  9
$SHADEDIF
 70
    70
  9
$TILEMODE
 70
     1
  9
$MAXACTVP
 70
    64
  9
$PINSBASE
 10
0.0
 20
0.0
 30
0.0
  9
$PLIMCHECK
 70
     0
  9
$PEXTMIN
 10
0.0
 20
0.0
 30
0.0
  9
$PEXTMAX
 10
1188.0
 20
840.0
 30
0.0
  9
$PLIMMIN
 10
0.0
 20
0.0
  9
$PLIMMAX
 10
1188.0
 20
840.0
  9
$UNITMODE
 70
     0
  9
$VISRETAIN
 70
     1
  9
$PLINEGEN
 70
     0
  9
$PSLTSCALE
 70
     1
  9
$TREEDEPTH
 70
  3020
  9
$CMLSTYLE
  2
Standard
  9
$CMLJUST
 70
     0
  9
$CMLSCALE
 40
1.0
  9
$PROXYGRAPHICS
 70
     1
  9
$MEASUREMENT
 70
     1
  9
$CELWEIGHT
370
    -1
  9
$ENDCAPS
280
     0
  9
$JOINSTYLE
280
     0
  9
$LWDISPLAY
290
     0
  9
$INSUNITS
 70
     4
  9
$HYPERLINKBASE
  1

  9
$STYLESHEET
  1

  9
$XEDIT
290
     1
  9
$CEPSNTYPE
380
     0
  9
$PSTYLEMODE
290
     1
  9
$FINGERPRINTGUID
  2
{FAB691C0-9461-4941-BAA9-3D7204E4F1E7}
  9
$VERSIONGUID
  2
{363F99DD-EDBF-4D69-BC63-139EF1B3579F}
  9
$EXTNAMES
290
     1
  9
$PSVPSCALE
 40
0.0
  9
$OLESTARTUP
290
     0
  9
$SORTENTS
280
   127
  9
$INDEXCTL
280
     0
  9
$HIDETEXT
280
     1
  9
$XCLIPFRAME
290
     0
  9
$HALOGAP
280
     0
  9
$OBSCOLOR
 70
   257
  9
$OBSLTYPE
280
     0
  9
$INTERSECTIONDISPLAY
280
     0
  9
$INTERSECTIONCOLOR
 70
   257
  9
$DIMASSOC
280
     1
  9
$PROJECTNAME
  1

  0
ENDSEC
  0
SECTION
  2
CLASSES
  0
CLASS
  1
ACDBDICTIONARYWDFLT
  2
AcDbDictionaryWithDefault
  3
ObjectDBX Classes
 90
        0
 91
        1
280
     0
281
     0
  0
CLASS
  1
MATERIAL
  2
AcDbMaterial
  3
ObjectDBX Classes
 90
     1153
 91
        3
280
     0
281
     0
  0
CLASS
  1
VISUALSTYLE
  2
AcDbVisualStyle
  3
ObjectDBX Classes
 90
     4095
 91
       26
280
     0
281
     0
  0
CLASS
  1
SCALE
  2
AcDbScale
  3
ObjectDBX Classes
 90
     1153
 91
       17
280
     0
281
     0
  0
CLASS
  1
TABLESTYLE
  2
AcDbTableStyle
  3
ObjectDBX Classes
 90
     4095
 91
        1
280
     0
281
     0
  0
CLASS
  1
MLEADERSTYLE
  2
AcDbMLeaderStyle
  3
ACDB_MLEADERSTYLE_CLASS
 90
     4095
 91
        1
280
     0
281
     0
  0
CLASS
  1
DICTIONARYVAR
  2
AcDbDictionaryVar
  3
ObjectDBX Classes
 90
        0
 91
       10
280
     0
281
     0
  0
CLASS
  1
ACME_DOCUMENT
  2
AcMeDbDoc
  3
AcMeServices
 90
     1024
 91
        1
280
     0
281
     0
  0
CLASS
  1
AMGSETTINGSOBJ
  2
AmgSettingsObj
  3
"AcadM|Product Description: AutoCAD Mechanical|Company: Autodesk, Inc."
 90
     1024
 91
        2
280
     0
281
     0
  0
CLASS
  1
ACMESCOPE
  2
AcMeScope
  3
AcMeServices
 90
     1024
 91
        1
280
     0
281
     0
  0
CLASS
  1
ACMECOMMANDHISTORY
  2
AcMeCommandHistory
  3
AcMeServices
 90
     1024
 91
        1
280
     0
281
     0
  0
CLASS
  1
ACIMSYSVARMAN
  2
AcImSysVarManager
  3
AcMeServices
 90
     1024
 91
        5
280
     0
281
     0
  0
CLASS
  1
ACIMINTSYSVAR
  2
AcImIntSysVar
  3
AcMeServices
 90
     1024
 91
       28
280
     0
281
     0
  0
CLASS
  1
ACMEDRAWINGMAN
  2
AcMeDrawingMan
  3
AcMeServices
 90
     1024
 91
        1
280
     0
281
     0
  0
CLASS
  1
ACMEVIEW
  2
AcMeView
  3
AcMeServices
 90
     1024
 91
        1
280
     0
281
     0
  0
CLASS
  1
ACDBENTITYCACHE
  2
AcMeEntityCache
  3
AcMeServices
 90
     1024
 91
        1
280
     0
281
     0
  0
CLASS
  1
ACMESTATEMGR
  2
AcMeStateMgr
  3
AcMeServices
 90
     1024
 91
        1
280
     0
281
     0
  0
CLASS
  1
ACGREFMASTER
  2
AcGrefMaster
  3
AcAttribServices
 90
     1024
 91
        1
280
     0
281
     0
  0
CLASS
  1
AM_DRAWING_MGR
  2
AcDmDwgMgr
  3
AcMechDwgViewMgmt
 90
     1024
 91
        1
280
     0
281
     0
  0
CLASS
  1
AM_DWG_DOCUMENT
  2
AcDmDwgDocument
  3
AcMechDwgViewMgmt
 90
     1024
 91
        1
280
     0
281
     0
  0
CLASS
  1
AM_DWG_SHEET
  2
AcDmSheet
  3
AcMechDwgViewMgmt
 90
     1024
 91
        2
280
     0
281
     0
  0
CLASS
  1
AM_VIEWDIMPARMAP
  2
AcDmViewDimParMap
  3
AcMechDwgViewMgmt
 90
     1024
 91
        2
280
     0
281
     0
  0
CLASS
  1
AMDTINTERNALREACTOR
  2
AmdtInternalReactor
  3
AcMeServices
 90
     1024
 91
        1
280
     0
281
     0
  0
CLASS
  1
ACIMREALSYSVAR
  2
AcImRealSysVar
  3
AcMeServices
 90
     1024
 91
        1
280
     0
281
     0
  0
CLASS
  1
AM_DWGMGR_NAME
  2
AcDmDwgMgrName
  3
AcMechDwgViewMgmt
 90
     1024
 91
        1
280
     0
281
     0
  0
CLASS
  1
ACME_DATABASE
  2
AcMeDbDatabase
  3
AcMeServices
 90
     1024
 91
        1
280
     0
281
     0
  0
CLASS
  1
ACRFINSADJUSTERMGR
  2
AcRfInsAdjusterMgr
  3
AcMeServices
 90
     1024
 91
        1
280
     0
281
     0
  0
CLASS
  1
ACGREFACADMASTER
  2
AcGrefacadMaster
  3
AcGrefServices
 90
     1024
 91
        1
280
     0
281
     0
  0
CLASS
  1
AMDTMENUSTATEMGR
  2
AmdtMenuStateMgr
  3
McadcomServices
 90
     1024
 91
        1
280
     0
281
     0
  0
CLASS
  1
AMDTMCOMMENUSTATE
  2
AmdtMcomMenuState
  3
McadcomServices
 90
     1024
 91
        1
280
     0
281
     0
  0
CLASS
  1
AMIMASTER
  2
AmiMaster
  3
AmiServices
 90
     1024
 91
        1
280
     0
281
     0
  0
CLASS
  1
MAPIAMMOUDLE
  2
MApiAmModule
  3
MApiAmServices
 90
     1024
 91
        1
280
     0
281
     0
  0
CLASS
  1
ACIMSTRSYSVAR
  2
AcImStrSysVar
  3
AcMeServices
 90
     1024
 91
        5
280
     0
281
     0
  0
CLASS
  1
AMDTADMENUSTATE
  2
AmdtAdMenuState
  3
DesignerServices
 90
     1024
 91
        1
280
     0
281
     0
  0
CLASS
  1
ADAPPL
  2
AcAdAppl
  3
DesignerServices
 90
     1024
 91
        1
280
     0
281
     0
  0
CLASS
  1
DEPMGR
  2
AcAdDepMgr
  3
DesignerServices
 90
     1024
 91
        1
280
     0
281
     0
  0
CLASS
  1
PARAMMGR
  2
AcAdParamMgr
  3
DesignerServices
 90
     1024
 91
        1
280
     0
281
     0
  0
CLASS
  1
PARAMSCOPE
  2
AcAdParamScope
  3
DesignerServices
 90
     1024
 91
        1
280
     0
281
     0
  0
CLASS
  1
NAMEDAPPL
  2
AcAdNamedAppl
  3
DesignerServices
 90
     1024
 91
        1
280
     0
281
     0
  0
CLASS
  1
AMDTDMMENUSTATE
  2
AmdtDmMenuState
  3
AcMechDwgViewMgmt
 90
     1024
 91
        1
280
     0
281
     0
  0
CLASS
  1
AMDTAMMENUSTATE
  2
AmdtAmMenuState
  3
DesignerAssemblies
 90
     1024
 91
        1
280
     0
281
     0
  0
CLASS
  1
ACAMPROJECT
  2
AcAmProject
  3
DesignerAssemblies
 90
     1024
 91
        1
280
     0
281
     0
  0
CLASS
  1
ACAMGRCOMPDEF
  2
AcAmGrCompDef
  3
DesignerAssemblies
 90
     1024
 91
        1
280
     0
281
     0
  0
CLASS
  1
ACAMCOMPDEF
  2
AcAmCompDef
  3
DesignerAssemblies
 90
     1024
 91
        1
280
     0
281
     0
  0
CLASS
  1
ACAMCOMPDEFMGR
  2
AcAmCompDefMgr
  3
DesignerAssemblies
 90
     1024
 91
        1
280
     0
281
     0
  0
CLASS
  1
AMCONTEXTMGR
  2
AcAmContextMgr
  3
DesignerAssemblies
 90
     1024
 91
        1
280
     0
281
     0
  0
CLASS
  1
ACAMCONTEXTMODELER
  2
AcAmContextModeler
  3
DesignerAssemblies
 90
     1024
 91
        1
280
     0
281
     0
  0
CLASS
  1
ACMDATADICTIONARY
  2
AcmDataDictionary
  3
"AcmSymBB|Product Description: AutoCAD Mechanical|Company: Autodesk, Inc."
 90
     1024
 91
        1
280
     0
281
     0
  0
CLASS
  1
CATALOGSTATE
  2
AcAmCatalogState
  3
DesignerAssemblies
 90
     1024
 91
        1
280
     0
281
     0
  0
CLASS
  1
ACAMGRCOMPDEFSET
  2
AcAmGrCompDefSet
  3
DesignerAssemblies
 90
     1024
 91
        1
280
     0
281
     0
  0
CLASS
  1
AMDTBROWSERDBTAB
  2
AmdtBrowserDbTab
  3
McadcomServices
 90
     1024
 91
        1
280
     0
281
     0
  0
CLASS
  1
CBROWSERAPPOBJECT
  2
CBrowserAppObject
  3
McadcomServices
 90
     1024
 91
        2
280
     0
281
     0
  0
CLASS
  1
DM_PLACEHOLDER
  2
AcDmSelsetPlaceholder
  3
AcMechDwgViewMgmt
 90
     1024
 91
        1
280
     0
281
     0
  0
CLASS
  1
ACMSTANDARDISO
  2
AcmStandardISO
  3
"Amdt_StdImp|Product Description: AutoCAD Mechanical|Company: Autodesk, Inc."
 90
     1024
 91
        1
280
     0
281
     0
  0
CLASS
  1
AMDTEDGESTANDARDISO13715
  2
AmdtEdgeStdISO13715
  3
"Amdt_StdImp|Product Description: AutoCAD Mechanical|Company: Autodesk, Inc."
 90
     1024
 91
        1
280
     0
281
     0
  0
CLASS
  1
ACMSURFSTANDARDISO2002
  2
AcmSurfTextStdISO2002
  3
"Amdt_StdImp|Product Description: AutoCAD Mechanical|Company: Autodesk, Inc."
 90
     1024
 91
        1
280
     0
281
     0
  0
CLASS
  1
ACMFCFSTANDARDISO
  2
AcmFCFStdISO
  3
"Amdt_StdImp|Product Description: AutoCAD Mechanical|Company: Autodesk, Inc."
 90
     1024
 91
        1
280
     0
281
     0
  0
CLASS
  1
ACMWELDSTANDARDISO
  2
AcmWeldingStdISO
  3
"Amdt_StdImp|Product Description: AutoCAD Mechanical|Company: Autodesk, Inc."
 90
     1024
 91
        1
280
     0
281
     0
  0
CLASS
  1
ACMIDSTANDARDISO
  2
AcmIdStdISO
  3
"Amdt_StdImp|Product Description: AutoCAD Mechanical|Company: Autodesk, Inc."
 90
     1024
 91
        1
280
     0
281
     0
  0
CLASS
  1
ACMDATUMSTANDARDISO
  2
AcmDatumStdISO
  3
"Amdt_StdImp|Product Description: AutoCAD Mechanical|Company: Autodesk, Inc."
 90
     1024
 91
        1
280
     0
281
     0
  0
CLASS
  1
ACMBOMSTANDARDISO
  2
AcmBOMStdISO
  3
"Amdt_StdImp|Product Description: AutoCAD Mechanical|Company: Autodesk, Inc."
 90
     1024
 91
        1
280
     0
281
     0
  0
CLASS
  1
ACMDETAILSTANDARDISO
  2
AmdtDetailSymStdISO
  3
"Amdt_StdImp|Product Description: AutoCAD Mechanical|Company: Autodesk, Inc."
 90
     1024
 91
        1
280
     0
281
     0
  0
CLASS
  1
ACMSECTIONSTANDARDISO2001
  2
AmdtSectionSymStdISO2001
  3
"Amdt_StdImp|Product Description: AutoCAD Mechanical|Company: Autodesk, Inc."
 90
     1024
 91
        1
280
     0
281
     0
  0
CLASS
  1
ACMCENTERLINESTANDARDISO
  2
AmdtCenterLineStdISO
  3
"Amdt_StdImp|Product Description: AutoCAD Mechanical|Company: Autodesk, Inc."
 90
     1024
 91
        1
280
     0
281
     0
  0
CLASS
  1
ACMTHREADLINESTANDARDISO
  2
AmdtThreadLineStdISO
  3
"Amdt_StdImp|Product Description: AutoCAD Mechanical|Company: Autodesk, Inc."
 90
     1024
 91
        1
280
     0
281
     0
  0
CLASS
  1
ACMNOTESTANDARDISO
  2
AmdtNoteStdISO
  3
"Amdt_StdImp|Product Description: AutoCAD Mechanical|Company: Autodesk, Inc."
 90
     1024
 91
        1
280
     0
281
     0
  0
CLASS
  1
ACMTAPERSTANDARDISO
  2
AcmTaperStdISO
  3
"Amdt_StdImp|Product Description: AutoCAD Mechanical|Company: Autodesk, Inc."
 90
     1024
 91
        1
280
     0
281
     0
  0
CLASS
  1
ACMANOOTATIONVIEWSTANDARDISO
  2
AmdtAnViewStdISO
  3
"Amdt_StdImp|Product Description: AutoCAD Mechanical|Company: Autodesk, Inc."
 90
     1024
 91
        1
280
     0
281
     0
  0
CLASS
  1
ACAMGLAYSTD
  2
AcAmgLayStd
  3
"AmgLay|Product Description: AutoCAD Mechanical|Company: Autodesk, Inc."
 90
     1024
 91
        1
280
     0
281
     0
  0
CLASS
  1
ACAMGDIMSTD
  2
AcAmgDimStd
  3
"AmgDim|Product Description: AutoCAD Mechanical|Company: Autodesk, Inc."
 90
     1024
 91
        1
280
     0
281
     0
  0
CLASS
  1
AMGOBJPROPCFG
  2
AmgObjPropCfg
  3
"AmgLay|Product Description: AutoCAD Mechanical|Company: Autodesk, Inc."
 90
     1025
 91
        1
280
     0
281
     0
  0
CLASS
  1
ACAMGHOLECHARTSTDISO
  2
AcAmgHoleChartStdISO
  3
AmgDim|Product Description: AutoCAD Mechanical|Company: Autodesk, Inc.
 90
     1024
 91
        1
280
     0
281
     0
  0
CLASS
  1
ACAMGTITLESTD
  2
AcAmgTitleStd
  3
"AmgTitle|Product Description: AutoCAD Mechanical|Company: Autodesk, Inc."
 90
     4095
 91
        1
280
     0
281
     0
  0
CLASS
  1
AMDTNOTETEMPLATEDB
  2
AmdtNoteTemplateDB
  3
AcmSymBB|Product Description: AutoCAD Mechanical|Company: Autodesk, Inc.
 90
     1024
 91
        6
280
     0
281
     0
  0
CLASS
  1
ACAMGFILTERDAT
  2
AcAmgFilterDat
  3
"AcadM|Product Description: AutoCAD Mechanical|Company: Autodesk, Inc."
 90
     1024
 91
        0
280
     0
281
     0
  0
CLASS
  1
AEC_REFEDIT_STATUS_TRACKER
  2
AecDbRefEditStatusTracker
  3
AecArchBase60|Product Desc: Autodesk Architectural Desktop 2007 |Company: Autodesk,Inc. |WEB Address: www.autodesk.com
 90
      129
 91
        0
280
     0
281
     0
  0
CLASS
  1
NPOCOLLECTION
  2
AcDbImpNonPersistentObjectsCollection
  3
ObjectDBX Classes
 90
     1153
 91
        0
280
     0
281
     0
  0
CLASS
  1
CAMSSTRUCTBTNSTATE
  2
StructBtnState
  3
DesignerAssemblies
 90
     1024
 91
        0
280
     0
281
     0
  0
CLASS
  1
CELLSTYLEMAP
  2
AcDbCellStyleMap
  3
ObjectDBX Classes
 90
     1152
 91
        2
280
     0
281
     0
  0
ENDSEC
  0
SECTION
  2
TABLES
  0
TABLE
  2
VPORT
  5
8
330
0
100
AcDbSymbolTable
 70
     1
  0
VPORT
  5
57
330
8
100
AcDbSymbolTableRecord
100
AcDbViewportTableRecord
  2
*Active
 70
     0
 10
0.0
 20
0.0
 11
1.0
 21
1.0
 12
311.3025537064561
 22
415.9304829080711
 13
0.0
 23
0.0
 14
1.0
 24
1.0
 15
0.0
 25
0.0
 16
0.0
 26
0.0
 36
1.0
 17
0.0
 27
0.0
 37
0.0
 40
580.1610117389846
 41
1.576017130620984
 42
50.0
 43
0.0
 44
0.0
 50
0.0
 51
0.0
 71
     0
 72
   100
 73
     1
 74
     1
 75
     0
 76
     0
 77
     0
 78
     0
281
     0
 65
     0
110
0.0
120
0.0
130
0.0
111
1.0
121
0.0
131
0.0
112
0.0
122
1.0
132
0.0
 79
     0
146
0.0
  0
ENDTAB
  0
TABLE
  2
LTYPE
  5
5
330
0
100
AcDbSymbolTable
 70
    15
  0
LTYPE
  5
5B
330
5
100
AcDbSymbolTableRecord
100
AcDbLinetypeTableRecord
  2
ByBlock
 70
     0
  3

 72
    65
 73
     0
 40
0.0
  0
LTYPE
  5
5C
330
5
100
AcDbSymbolTableRecord
100
AcDbLinetypeTableRecord
  2
ByLayer
 70
     0
  3

 72
    65
 73
     0
 40
0.0
  0
LTYPE
  5
5D
330
5
100
AcDbSymbolTableRecord
100
AcDbLinetypeTableRecord
  2
Continuous
 70
     0
  3
Solid line
 72
    65
 73
     0
 40
0.0
  0
LTYPE
  5
2001
330
5
100
AcDbSymbolTableRecord
100
AcDbLinetypeTableRecord
  2
HIDDEN
 70
     0
  3
Skrytá __ __ __ __ __ __ __ __ __ __ __ __ __ __
 72
    65
 73
     2
 40
9.525
 49
6.349999999999997
 74
     0
 49
-3.174999999999998
 74
     0
  0
LTYPE
  5
2002
330
5
100
AcDbSymbolTableRecord
100
AcDbLinetypeTableRecord
  2
PHANTOM2
 70
     0
  3
Sdružená (.5x) ___ _ _ ___ _ _ ___ _ _ ___ _ _
 72
    65
 73
     6
 40
31.75
 49
15.875
 74
     0
 49
-3.174999999999998
 74
     0
 49
3.174999999999998
 74
     0
 49
-3.174999999999998
 74
     0
 49
3.174999999999998
 74
     0
 49
-3.174999999999998
 74
     0
  0
LTYPE
  5
2003
330
5
100
AcDbSymbolTableRecord
100
AcDbLinetypeTableRecord
  2
CENTER
 70
     0
  3
Středová ____ _ ____ _ ____ _ ____ _ ____ _ ____
 72
    65
 73
     4
 40
50.8
 49
31.75
 74
     0
 49
-6.349999999999997
 74
     0
 49
6.349999999999997
 74
     0
 49
-6.349999999999997
 74
     0
  0
LTYPE
  5
2049
330
5
100
AcDbSymbolTableRecord
100
AcDbLinetypeTableRecord
  2
AM_ISO02W050
 70
     0
  3
__ __ __ __ __ __ __ __ __ __ __ __ __ __ __
 72
    65
 73
     2
 40
7.5
 49
6.0
 74
     0
 49
-1.5
 74
     0
  0
LTYPE
  5
204A
330
5
100
AcDbSymbolTableRecord
100
AcDbLinetypeTableRecord
  2
AM_ISO08W050
 70
     0
  3
____ . ____ . ____ . ____ . ____ . ____ . ____
 72
    65
 73
     4
 40
18.0
 49
12.0
 74
     0
 49
-1.5
 74
     0
 49
3.0
 74
     0
 49
-1.5
 74
     0
  0
LTYPE
  5
204B
330
5
100
AcDbSymbolTableRecord
100
AcDbLinetypeTableRecord
  2
AM_ISO09W050
 70
     0
  3
_____ . . _____ . . _____ . . ____ .. ____
 72
    65
 73
     6
 40
22.5
 49
12.0
 74
     0
 49
-1.5
 74
     0
 49
3.0
 74
     0
 49
-1.5
 74
     0
 49
3.0
 74
     0
 49
-1.5
 74
     0
  0
LTYPE
  5
204C
330
5
100
AcDbSymbolTableRecord
100
AcDbLinetypeTableRecord
  2
Amconstr
 70
     0
  3
_______________________
 72
    65
 73
     2
 40
9999.0
 49
9999.0
 74
     0
 49
0.0
 74
     0
  0
LTYPE
  5
204D
330
5
100
AcDbSymbolTableRecord
100
AcDbLinetypeTableRecord
  2
AM_ISO08W050x2
 70
     0
  3
__ . __ . __ . __ . __ . __
 72
    65
 73
     4
 40
9.0
 49
6.0
 74
     0
 49
-0.75
 74
     0
 49
1.5
 74
     0
 49
-0.75
 74
     0
  0
LTYPE
  5
204E
330
5
100
AcDbSymbolTableRecord
100
AcDbLinetypeTableRecord
  2
AM_ISO02W050x2
 70
     0
  3
 _ _ _ _ _ _ _ _ _ _ _ _
 72
    65
 73
     2
 40
3.75
 49
3.0
 74
     0
 49
-0.75
 74
     0
  0
LTYPE
  5
2051
330
5
100
AcDbSymbolTableRecord
100
AcDbLinetypeTableRecord
  2
Amzigzag
 70
     0
  3
/\/-/\/-/\/-/\/-/\/-/\/
 72
    65
 73
     2
 40
11.0001
 49
0.0001
 74
     4
 75
   136
340
2050
 46
0.04
 50
0.0
 44
0.0
 45
0.0
 49
-11.0
 74
     0
  0
LTYPE
  5
2060
330
5
100
AcDbSymbolTableRecord
100
AcDbLinetypeTableRecord
  2
ACISOWELD
 70
     0
  3
_ _ _ _ _
 72
    65
 73
     2
 40
2.0
 49
2.0
 74
     0
 49
-1.0
 74
     0
  0
LTYPE
  5
2061
330
5
100
AcDbSymbolTableRecord
100
AcDbLinetypeTableRecord
  2
ACISOTGB
 70
     0
  3
__ . . __ . .
 72
    65
 73
     6
 40
9.0
 49
4.0
 74
     0
 49
-1.0
 74
     0
 49
1.0
 74
     0
 49
-1.0
 74
     0
 49
1.0
 74
     0
 49
-1.0
 74
     0
  0
LTYPE
  5
2062
330
5
100
AcDbSymbolTableRecord
100
AcDbLinetypeTableRecord
  2
ACISOTGL
 70
     0
  3
_ _ _ _ _
 72
    65
 73
     2
 40
3.0
 49
2.0
 74
     0
 49
-1.0
 74
     0
  0
LTYPE
  5
20AD
330
5
100
AcDbSymbolTableRecord
100
AcDbLinetypeTableRecord
  2
GEN7
 70
     0
  3
____ . ____ . ____ . ____ . ____ . ____ . ____
 72
    65
 73
     4
 40
13.75
 49
10.0
 74
     0
 49
-1.25
 74
     0
 49
1.25
 74
     0
 49
-1.25
 74
     0
  0
ENDTAB
  0
TABLE
  2
LAYER
  5
2
102
{ACAD_XDICTIONARY
360
20B5
102
}
330
0
100
AcDbSymbolTable
 70
    18
  0
LAYER
  5
54
330
2
100
AcDbSymbolTableRecord
100
AcDbLayerTableRecord
  2
0
 70
     0
 62
     7
  6
Continuous
370
    -3
390
F
  0
LAYER
  5
78
330
2
100
AcDbSymbolTableRecord
100
AcDbLayerTableRecord
  2
Geometrie náčrtu (ISO)
 70
     0
 62
     7
  6
Continuous
370
     9
390
F
  0
LAYER
  5
79
330
2
100
AcDbSymbolTableRecord
100
AcDbLayerTableRecord
  2
KOPF
 70
     0
 62
     8
420
  8421504
  6
Continuous
370
     9
390
F
  0
LAYER
  5
7A
330
2
100
AcDbSymbolTableRecord
100
AcDbLayerTableRecord
  2
Kóta (ISO)
 70
     0
 62
     5
420
      255
  6
Continuous
370
     9
390
F
  0
LAYER
  5
7B
330
2
100
AcDbSymbolTableRecord
100
AcDbLayerTableRecord
  2
Nadpis (ISO)
 70
     0
 62
     7
  6
Continuous
370
    18
390
F
  0
LAYER
  5
7D
330
2
100
AcDbSymbolTableRecord
100
AcDbLayerTableRecord
  2
Osa (ISO)
 70
     0
 62
     1
420
 16711680
  6
Continuous
370
     9
390
F
  0
LAYER
  5
85
330
2
100
AcDbSymbolTableRecord
100
AcDbLayerTableRecord
  2
Rámeček (ISO)
 70
     0
 62
     7
  6
Continuous
370
    35
390
F
  0
LAYER
  5
88
330
2
100
AcDbSymbolTableRecord
100
AcDbLayerTableRecord
  2
Skrytá (ISO)
 70
     0
 62
   142
420
    32960
  6
Continuous
370
     9
390
F
  0
LAYER
  5
89
330
2
100
AcDbSymbolTableRecord
100
AcDbLayerTableRecord
  2
Středová značka (ISO)
 70
     0
 62
     1
420
 16711680
  6
Continuous
370
     9
390
F
  0
LAYER
  5
8B
330
2
100
AcDbSymbolTableRecord
100
AcDbLayerTableRecord
  2
TEXT35
 70
     0
 62
    12
420
 13369344
  6
Continuous
370
    20
390
F
  0
LAYER
  5
8C
330
2
100
AcDbSymbolTableRecord
100
AcDbLayerTableRecord
  2
TEXT50
 70
     0
 62
     7
  6
Continuous
370
    20
390
F
  0
LAYER
  5
8D
330
2
100
AcDbSymbolTableRecord
100
AcDbLayerTableRecord
  2
Viditelná (ISO)
 70
     0
 62
     7
  6
Continuous
370
    35
390
F
  0
LAYER
  5
8E
330
2
100
AcDbSymbolTableRecord
100
AcDbLayerTableRecord
  2
Viditelná tenká (ISO)
 70
     0
 62
     7
  6
Continuous
370
     9
390
F
  0
LAYER
  5
8F
330
2
100
AcDbSymbolTableRecord
100
AcDbLayerTableRecord
  2
Značka (ISO)
 70
     0
 62
     5
420
      255
  6
Continuous
370
     9
390
F
  0
LAYER
  5
FFB
330
2
100
AcDbSymbolTableRecord
100
AcDbLayerTableRecord
  2
Defpoints
 70
     0
 62
     7
  6
Continuous
290
     0
370
    -3
390
F
  0
LAYER
  5
20AE
102
{ACAD_XDICTIONARY
360
20AF
102
}
330
2
100
AcDbSymbolTableRecord
100
AcDbLayerTableRecord
  2
7
 70
     0
 62
     4
  6
GEN7
370
    -3
390
F
  0
LAYER
  5
20B0
102
{ACAD_XDICTIONARY
360
20B1
102
}
330
2
100
AcDbSymbolTableRecord
100
AcDbLayerTableRecord
  2
5
 70
     0
 62
     3
  6
Continuous
370
    -3
390
F
  0
LAYER
  5
29EB
330
2
100
AcDbSymbolTableRecord
100
AcDbLayerTableRecord
  2
AM_5
 70
     0
 62
    92
  6
Continuous
370
    25
390
F
1001
AcAecLayerStandard
1000

1000

  0
ENDTAB
  0
TABLE
  2
STYLE
  5
3
330
0
100
AcDbSymbolTable
 70
    21
  0
STYLE
  5
55
330
3
100
AcDbSymbolTableRecord
100
AcDbTextStyleTableRecord
  2
Standard
 70
     0
 40
0.0
 41
1.0
 50
0.0
 71
     0
 42
0.2
  3
TAHOMA.TTF
  4

1001
ACAD
1000
Tahoma
1071
      256
  0
STYLE
  5
5A
330
3
100
AcDbSymbolTableRecord
100
AcDbTextStyleTableRecord
  2
Annotative
 70
     0
 40
0.0
 41
1.0
 50
0.0
 71
     0
 42
0.2
  3
txt
  4

1001
AcadAnnotative
1000
AnnotativeData
1002
{
1070
     1
1070
     1
1002
}
  0
STYLE
  5
90
330
3
100
AcDbSymbolTableRecord
100
AcDbTextStyleTableRecord
  2
ITALICC8_57
 70
     0
 40
0.0
 41
1.0
 50
0.0
 71
     0
 42
0.2
  3
TAHOMA.TTF
  4

1001
ACAD
1000
Tahoma
1071
      256
  0
STYLE
  5
91
330
3
100
AcDbSymbolTableRecord
100
AcDbTextStyleTableRecord
  2
kusovnik
 70
     0
 40
0.0
 41
1.0
 50
0.0
 71
     0
 42
0.2
  3
ARIAL.TTF
  4

1001
ACAD
1000
Arial
1071
      256
  0
STYLE
  5
92
330
3
100
AcDbSymbolTableRecord
100
AcDbTextStyleTableRecord
  2
ROMANS8_69
 70
     0
 40
0.0
 41
1.0
 50
0.0
 71
     0
 42
0.2
  3
TAHOMA.TTF
  4

1001
ACAD
1000
Tahoma
1071
      256
  0
STYLE
  5
93
330
3
100
AcDbSymbolTableRecord
100
AcDbTextStyleTableRecord
  2
Text popisu (ISO)
 70
     0
 40
0.0
 41
1.0
 50
0.0
 71
     0
 42
0.2
  3
TAHOMA.TTF
  4

1001
ACAD
1000
Tahoma
1071
      256
  0
STYLE
  5
94
330
3
100
AcDbSymbolTableRecord
100
AcDbTextStyleTableRecord
  2
Text poznámky (DIN)
 70
     0
 40
0.0
 41
1.0
 50
0.0
 71
     0
 42
0.2
  3
isocpeur.ttf
  4

1001
ACAD
1000
ISOCPEUR
1071
      256
  0
STYLE
  5
95
330
3
100
AcDbSymbolTableRecord
100
AcDbTextStyleTableRecord
  2
Text poznámky (ISO)
 70
     0
 40
0.0
 41
1.0
 50
0.0
 71
     0
 42
0.2
  3
TAHOMA.TTF
  4

1001
ACAD
1000
Tahoma
1071
      256
  0
STYLE
  5
96
330
3
100
AcDbSymbolTableRecord
100
AcDbTextStyleTableRecord
  2
TEXT20_41
 70
     0
 40
0.0
 41
1.0
 50
0.0
 71
     0
 42
0.2
  3
TAHOMA.TTF
  4

1001
ACAD
1000
Tahoma
1071
      256
  0
STYLE
  5
97
330
3
100
AcDbSymbolTableRecord
100
AcDbTextStyleTableRecord
  2
TEXT20_59
 70
     0
 40
0.0
 41
1.0
 50
0.0
 71
     0
 42
0.2
  3
TAHOMA.TTF
  4

1001
ACAD
1000
Tahoma
1071
      256
  0
STYLE
  5
1C2
330
3
100
AcDbSymbolTableRecord
100
AcDbTextStyleTableRecord
  2
Styl textu62
 70
     0
 40
0.0
 41
0.8000000119209289
 50
0.0
 71
     0
 42
0.2
  3
TAHOMA.TTF
  4

1001
ACAD
1000
Tahoma
1071
      256
  0
STYLE
  5
1C9
330
3
100
AcDbSymbolTableRecord
100
AcDbTextStyleTableRecord
  2
Styl textu58
 70
     0
 40
0.0
 41
0.8000000119209289
 50
0.0
 71
     0
 42
0.2
  3
TAHOMA.TTF
  4

1001
ACAD
1000
Tahoma
1071
      256
  0
STYLE
  5
1CB
330
3
100
AcDbSymbolTableRecord
100
AcDbTextStyleTableRecord
  2
Styl textu63
 70
     0
 40
0.0
 41
0.75
 50
0.0
 71
     0
 42
0.2
  3
TAHOMA.TTF
  4

1001
ACAD
1000
Tahoma
1071
      256
  0
STYLE
  5
1CE
330
3
100
AcDbSymbolTableRecord
100
AcDbTextStyleTableRecord
  2
Styl textu72
 70
     0
 40
0.0
 41
0.6999999880790711
 50
0.0
 71
     0
 42
0.2
  3
TAHOMA.TTF
  4

1001
ACAD
1000
Tahoma
1071
      256
  0
STYLE
  5
1D1
330
3
100
AcDbSymbolTableRecord
100
AcDbTextStyleTableRecord
  2
Styl textu75
 70
     0
 40
0.0
 41
0.8000000119209289
 50
0.0
 71
     0
 42
0.2
  3
TAHOMA.TTF
  4

1001
ACAD
1000
Tahoma
1071
      256
  0
STYLE
  5
1E8
330
3
100
AcDbSymbolTableRecord
100
AcDbTextStyleTableRecord
  2
Styl textu9
 70
     0
 40
0.0
 41
1.0
 50
0.0
 71
     0
 42
0.2
  3
ARIAL.TTF
  4

1001
ACAD
1000
Arial
1071
      256
  0
STYLE
  5
1EC
330
3
100
AcDbSymbolTableRecord
100
AcDbTextStyleTableRecord
  2
Styl textu40
 70
     0
 40
0.0
 41
1.0
 50
0.0
 71
     0
 42
0.2
  3
ARIAL.TTF
  4

1001
ACAD
1000
Arial
1071
      256
  0
STYLE
  5
1F1
330
3
100
AcDbSymbolTableRecord
100
AcDbTextStyleTableRecord
  2
Styl textu94
 70
     0
 40
0.0
 41
1.0
 50
0.0
 71
     0
 42
0.2
  3
TAHOMA.TTF
  4

1001
ACAD
1000
Tahoma
1071
      256
  0
STYLE
  5
2050
330
3
100
AcDbSymbolTableRecord
100
AcDbTextStyleTableRecord
  2

 70
     1
 40
0.0
 41
1.0
 50
0.0
 71
     0
 42
0.2
  3
genltshp.shx
  4

  0
STYLE
  5
205E
330
3
100
AcDbSymbolTableRecord
100
AcDbTextStyleTableRecord
  2
ACISOTS
 70
     0
 40
1.0
 41
1.0
 50
0.0
 71
     0
 42
0.2
  3
isocp.shx
  4

  0
STYLE
  5
205F
330
3
100
AcDbSymbolTableRecord
100
AcDbTextStyleTableRecord
  2
ACISOGDT
 70
     0
 40
0.0
 41
1.0
 50
0.0
 71
     0
 42
0.2
  3
amgdt.shx
  4

  0
ENDTAB
  0
TABLE
  2
VIEW
  5
6
330
0
100
AcDbSymbolTable
 70
     0
  0
ENDTAB
  0
TABLE
  2
UCS
  5
7
330
0
100
AcDbSymbolTable
 70
     0
  0
ENDTAB
  0
TABLE
  2
APPID
  5
9
330
0
100
AcDbSymbolTable
 70
    20
  0
APPID
  5
56
330
9
100
AcDbSymbolTableRecord
100
AcDbRegAppTableRecord
  2
ACAD
 70
     0
  0
APPID
  5
5E
330
9
100
AcDbSymbolTableRecord
100
AcDbRegAppTableRecord
  2
AcadAnnotative
 70
     0
  0
APPID
  5
1EB
330
9
100
AcDbSymbolTableRecord
100
AcDbRegAppTableRecord
  2
AcadAnnoPO
 70
     0
  0
APPID
  5
1FD4
330
9
100
AcDbSymbolTableRecord
100
AcDbRegAppTableRecord
  2
MCAD_NO_VIS
 70
     0
  0
APPID
  5
1FD5
330
9
100
AcDbSymbolTableRecord
100
AcDbRegAppTableRecord
  2
ACAD_TEMP_GRAPHIC
 70
     0
  0
APPID
  5
2005
330
9
100
AcDbSymbolTableRecord
100
AcDbRegAppTableRecord
  2
AD_DRAW
 70
     0
  0
APPID
  5
2008
330
9
100
AcDbSymbolTableRecord
100
AcDbRegAppTableRecord
  2
ACATTRIBSERVICES
 70
     0
  0
APPID
  5
2028
330
9
100
AcDbSymbolTableRecord
100
AcDbRegAppTableRecord
  2
DESIGNERASSEMBLIES
 70
     0
  0
APPID
  5
202E
330
9
100
AcDbSymbolTableRecord
100
AcDbRegAppTableRecord
  2
ACADM_DIM_EDIT
 70
     0
  0
APPID
  5
202F
330
9
100
AcDbSymbolTableRecord
100
AcDbRegAppTableRecord
  2
AMDT_DM_ADJ
 70
     0
  0
APPID
  5
2046
330
9
100
AcDbSymbolTableRecord
100
AcDbRegAppTableRecord
  2
ACAD_DSTYLE_DIMJAG
 70
     0
  0
APPID
  5
2047
330
9
100
AcDbSymbolTableRecord
100
AcDbRegAppTableRecord
  2
ACAD_DSTYLE_DIMBREAK
 70
     0
  0
APPID
  5
20B3
330
9
100
AcDbSymbolTableRecord
100
AcDbRegAppTableRecord
  2
ACAD_DSTYLE_DIMINSPECT
 70
     0
  0
APPID
  5
20B4
330
9
100
AcDbSymbolTableRecord
100
AcDbRegAppTableRecord
  2
ACAD_DSTYLE_DIMTALN
 70
     0
  0
APPID
  5
29EC
330
9
100
AcDbSymbolTableRecord
100
AcDbRegAppTableRecord
  2
AcAecLayerStandard
 70
     0
  0
APPID
  5
2C99
330
9
100
AcDbSymbolTableRecord
100
AcDbRegAppTableRecord
  2
ACAD_MLEADERVER
 70
     0
  0
APPID
  5
2CC4
330
9
100
AcDbSymbolTableRecord
100
AcDbRegAppTableRecord
  2
ACAD_DSTYLE_DIMARC_LENGTH_SYMBOL
 70
     0
  0
APPID
  5
2CC5
330
9
100
AcDbSymbolTableRecord
100
AcDbRegAppTableRecord
  2
ACAD_DSTYLE_DIM_LINETYPE
 70
     0
  0
APPID
  5
2CC6
330
9
100
AcDbSymbolTableRecord
100
AcDbRegAppTableRecord
  2
ACAD_DSTYLE_DIM_EXT1_LINETYPE
 70
     0
  0
APPID
  5
2CC7
330
9
100
AcDbSymbolTableRecord
100
AcDbRegAppTableRecord
  2
ACAD_DSTYLE_DIM_EXT2_LINETYPE
 70
     0
  0
ENDTAB
  0
TABLE
  2
DIMSTYLE
  5
A
330
0
100
AcDbSymbolTable
 70
    25
100
AcDbDimStyleTable
 71
     3
340
20B2
340
58
340
B1
  0
DIMSTYLE
105
58
330
A
100
AcDbSymbolTableRecord
100
AcDbDimStyleTableRecord
  2
Standard
 70
     0
340
55
  0
DIMSTYLE
105
59
330
A
100
AcDbSymbolTableRecord
100
AcDbDimStyleTableRecord
  2
Annotative
 70
     0
340
55
1001
AcadAnnotative
1000
AnnotativeData
1002
{
1070
     1
1070
     1
1002
}
  0
DIMSTYLE
105
A7
330
A
100
AcDbSymbolTableRecord
100
AcDbDimStyleTableRecord
  2
Různé objekty (ISO)
 70
     0
 40
2.0
 41
2.5
 42
0.0
 43
5.999999999999999
 44
1.0
 45
0.00000001
 46
10.0
 73
     0
 74
     0
 77
     1
 78
     8
 79
     2
140
5.25
143
0.03937
146
0.6676571709769112
147
0.762
171
     3
172
     1
176
   256
177
   256
178
   256
179
     2
271
     2
272
     2
274
     3
278
    44
284
     8
340
93
341
98
371
    -1
372
    -1
  0
DIMSTYLE
105
A8
330
A
100
AcDbSymbolTableRecord
100
AcDbDimStyleTableRecord
  2
Různé objekty (ISO)$7
 70
     0
 40
2.0
 41
5.0
 42
0.0
 43
5.999999999999999
 44
1.0
 45
0.00000001
 46
10.0
 73
     0
 74
     0
 77
     1
 78
     8
 79
     2
140
5.25
143
0.03937
146
0.6676571709769112
147
0.762
171
     3
172
     1
176
   256
177
   256
178
   256
179
     2
271
     2
272
     2
274
     3
278
    44
284
     8
340
93
341
98
371
    25
372
    -1
  0
DIMSTYLE
105
A9
330
A
100
AcDbSymbolTableRecord
100
AcDbDimStyleTableRecord
  2
Výchozí - Metoda 1b (ISO)
 70
     0
 40
2.0
 41
2.5
 42
0.0
 43
5.999999999999999
 44
1.0
 45
0.00000001
 46
10.0
 73
     0
 77
     1
 78
     8
 79
     2
140
3.5
143
0.03937
147
0.762
171
     3
172
     1
176
   256
177
   256
178
   256
179
     2
271
     2
272
     2
274
     3
278
    44
284
     8
286
     8
340
95
371
    -1
372
    -1
  0
DIMSTYLE
105
AA
330
A
100
AcDbSymbolTableRecord
100
AcDbDimStyleTableRecord
  2
Výchozí - Metoda 1b (ISO)$7
 70
     0
 40
2.0
 41
2.5
 42
0.0
 43
5.999999999999999
 44
1.0
 45
0.00000001
 46
10.0
 73
     0
 77
     1
 78
     8
 79
     2
140
3.5
143
0.03937
147
0.762
171
     3
172
     1
176
   256
177
   256
178
   256
179
     2
271
     2
272
     2
274
     3
278
    44
284
     8
286
     8
340
95
371
    -1
372
    -1
  0
DIMSTYLE
105
AB
330
A
100
AcDbSymbolTableRecord
100
AcDbDimStyleTableRecord
  2
Výchozí - Metoda 2a (ISO)
 70
     0
 40
2.0
 41
2.5
 42
0.0
 43
5.999999999999999
 44
1.0
 45
0.00000001
 46
10.0
 77
     1
 78
     8
 79
     2
140
3.5
143
0.03937
147
0.762
171
     3
172
     1
176
   256
177
   256
178
   256
179
     2
271
     2
272
     2
274
     3
278
    44
284
     8
286
     8
340
95
371
    -1
372
    -1
  0
DIMSTYLE
105
AC
330
A
100
AcDbSymbolTableRecord
100
AcDbDimStyleTableRecord
  2
Výchozí - Metoda 2a (ISO)$7
 70
     0
 40
2.0
 41
2.5
 42
0.0
 43
5.999999999999999
 44
1.0
 45
0.00000001
 46
10.0
 77
     1
 78
     8
 79
     2
140
3.5
143
0.03937
147
0.762
171
     3
172
     1
176
   256
177
   256
178
   256
179
     2
271
     2
272
     2
274
     3
278
    44
284
     8
286
     8
340
95
371
    -1
372
    -1
  0
DIMSTYLE
105
AD
330
A
100
AcDbSymbolTableRecord
100
AcDbDimStyleTableRecord
  2
Výchozí - Metoda 2b (ISO)
 70
     0
 40
2.0
 41
2.5
 42
0.0
 43
5.999999999999999
 44
1.0
 45
0.00000001
 46
10.0
 77
     1
 78
     8
 79
     2
140
3.5
143
0.03937
147
0.762
171
     3
172
     1
176
   256
177
   256
178
   256
179
     2
271
     2
272
     2
274
     3
278
    44
284
     8
286
     8
340
95
371
    -1
372
    -1
  0
DIMSTYLE
105
AE
330
A
100
AcDbSymbolTableRecord
100
AcDbDimStyleTableRecord
  2
Výchozí - Metoda 2b (ISO)$7
 70
     0
 40
2.0
 41
2.5
 42
0.0
 43
5.999999999999999
 44
1.0
 45
0.00000001
 46
10.0
 77
     1
 78
     8
 79
     2
140
3.5
143
0.03937
147
0.762
171
     3
172
     1
176
   256
177
   256
178
   256
179
     2
271
     2
272
     2
274
     3
278
    44
284
     8
286
     8
340
95
371
    -1
372
    -1
  0
DIMSTYLE
105
AF
330
A
100
AcDbSymbolTableRecord
100
AcDbDimStyleTableRecord
  2
Výchozí - mm [palce] (ISO)
 70
     0
  4
 in
 40
2.0
 41
2.5
 42
0.0
 43
5.999999999999999
 44
3.174999999999998
 45
0.00000001
 46
10.0
 73
     0
 74
     0
 77
     1
 78
     8
 79
     2
140
3.5
143
0.03937
147
0.762
170
     1
171
     3
172
     1
176
   256
177
   256
178
   256
179
     3
271
     3
272
     2
274
     3
275
     1
278
    44
284
     8
285
     8
286
     8
340
95
371
    -1
372
    -1
  0
DIMSTYLE
105
B0
330
A
100
AcDbSymbolTableRecord
100
AcDbDimStyleTableRecord
  2
Výchozí - mm [palce] (ISO)$7
 70
     0
  4
 in
 40
2.0
 41
2.5
 42
0.0
 43
5.999999999999999
 44
3.174999999999998
 45
0.00000001
 46
10.0
 73
     0
 74
     0
 77
     1
 78
     8
 79
     2
140
3.5
143
0.03937
147
0.762
170
     1
171
     3
172
     1
176
   256
177
   256
178
   256
179
     3
271
     3
272
     2
274
     3
275
     1
278
    44
284
     8
285
     8
286
     8
340
95
371
    -1
372
    -1
  0
DIMSTYLE
105
B1
330
A
100
AcDbSymbolTableRecord
100
AcDbDimStyleTableRecord
  2
Výchozí (ISO)
 70
     0
 40
2.0
 41
2.5
 42
0.0
 43
5.999999999999999
 44
1.0
 45
0.00000001
 46
10.0
 73
     0
 74
     0
 77
     1
 78
     8
 79
     2
140
3.5
143
0.03937
146
1.001485756465366
147
0.762
171
     3
172
     1
176
   256
177
   256
178
   256
179
     2
271
     2
272
     2
274
     3
278
    44
284
     8
340
95
371
    -1
372
    -1
  0
DIMSTYLE
105
B2
330
A
100
AcDbSymbolTableRecord
100
AcDbDimStyleTableRecord
  2
Výchozí (ISO)$7
 70
     0
 40
2.0
 41
2.5
 42
0.0
 43
5.999999999999999
 44
1.0
 45
0.00000001
 46
10.0
 73
     0
 74
     0
 77
     1
 78
     8
 79
     2
140
3.5
143
0.03937
146
1.001485756465366
147
0.762
171
     3
172
     1
176
   256
177
   256
178
   256
179
     2
271
     2
272
     2
274
     3
278
    44
284
     8
340
95
371
    -1
372
    -1
  0
DIMSTYLE
105
B3
330
A
100
AcDbSymbolTableRecord
100
AcDbDimStyleTableRecord
  2
Alternativní (ISO)
 70
     0
 40
2.0
 41
2.5
340
55
342
B4
  0
DIMSTYLE
105
C5
330
A
100
AcDbSymbolTableRecord
100
AcDbDimStyleTableRecord
  2
Základny (ISO)
 70
     0
 40
2.0
 41
2.5
340
55
342
B4
  0
DIMSTYLE
105
2045
102
{ACAD_REACTORS
330
2E9B
102
}
330
A
100
AcDbSymbolTableRecord
100
AcDbDimStyleTableRecord
  2
AM_ISO
 70
     0
  4
"
 41
3.5
 42
1.0
 43
10.0
 44
1.0
 47
0.1
 48
0.1
 73
     0
 74
     0
 77
     1
 78
     8
 79
     2
140
3.5
141
0.0
143
0.0393701
146
0.71
147
1.5
172
     1
176
   256
177
   256
178
   140
271
     2
272
     3
274
     4
283
     0
284
     8
340
55
371
    -1
372
    -1
1001
ACAD_DSTYLE_DIMJAG
1070
   388
1040
1.5
1001
ACAD_DSTYLE_DIMBREAK
1070
   391
1040
3.75
1001
ACAD_DSTYLE_DIMARC_LENGTH_SYMBOL
1070
   379
1070
     1
1001
ACAD_DSTYLE_DIM_LINETYPE
1070
   380
1005
5B
1001
ACAD_DSTYLE_DIM_EXT1_LINETYPE
1070
   381
1005
5B
1001
ACAD_DSTYLE_DIM_EXT2_LINETYPE
1070
   382
1005
5B
  0
DIMSTYLE
105
2052
330
A
100
AcDbSymbolTableRecord
100
AcDbDimStyleTableRecord
  2
AM_ISO$3
 70
     0
  4
"
 41
3.5
 42
1.0
 43
10.0
 44
1.0
 47
0.1
 48
0.1
 73
     0
 77
     1
 78
     8
 79
     2
140
3.5
141
0.0
143
0.0393701
146
0.71
147
1.5
176
   256
177
   256
178
   140
271
     2
272
     3
274
     4
283
     0
284
     8
288
     1
289
     0
340
55
371
    -1
372
    -1
1001
ACAD_DSTYLE_DIMBREAK
1070
   391
1040
3.75
1001
ACAD_DSTYLE_DIMJAG
1070
   388
1040
1.5
1001
ACAD_DSTYLE_DIMARC_LENGTH_SYMBOL
1070
   379
1070
     1
1001
ACAD_DSTYLE_DIM_LINETYPE
1070
   380
1005
5B
1001
ACAD_DSTYLE_DIM_EXT1_LINETYPE
1070
   381
1005
5B
1001
ACAD_DSTYLE_DIM_EXT2_LINETYPE
1070
   382
1005
5B
  0
DIMSTYLE
105
2053
330
A
100
AcDbSymbolTableRecord
100
AcDbDimStyleTableRecord
  2
AM_ISO$4
 70
     0
  4
"
 41
3.5
 42
1.0
 43
10.0
 44
1.0
 47
0.1
 48
0.1
 73
     0
 77
     1
 78
     8
 79
     2
140
3.5
141
0.0
143
0.0393701
146
0.71
147
1.5
176
   256
177
   256
178
   140
271
     2
272
     3
274
     4
283
     0
284
     8
288
     1
289
     0
340
55
371
    -1
372
    -1
1001
ACAD_DSTYLE_DIMBREAK
1070
   391
1040
3.75
1001
ACAD_DSTYLE_DIMJAG
1070
   388
1040
1.5
1001
ACAD_DSTYLE_DIMARC_LENGTH_SYMBOL
1070
   379
1070
     1
1001
ACAD_DSTYLE_DIM_LINETYPE
1070
   380
1005
5B
1001
ACAD_DSTYLE_DIM_EXT1_LINETYPE
1070
   381
1005
5B
1001
ACAD_DSTYLE_DIM_EXT2_LINETYPE
1070
   382
1005
5B
  0
DIMSTYLE
105
2054
330
A
100
AcDbSymbolTableRecord
100
AcDbDimStyleTableRecord
  2
AM_ISO$6
 70
     0
  4
"
 41
3.5
 42
1.0
 43
10.0
 44
1.0
 47
0.1
 48
0.1
 73
     0
 74
     0
 78
     8
 79
     2
140
3.5
141
0.0
143
0.0393701
146
0.71
147
1.5
172
     1
176
   256
177
   256
178
   140
271
     2
272
     3
274
     4
283
     0
284
     8
340
55
371
    -1
372
    -1
1001
ACAD_DSTYLE_DIMBREAK
1070
   391
1040
3.75
1001
ACAD_DSTYLE_DIMJAG
1070
   388
1040
1.5
1001
ACAD_DSTYLE_DIMARC_LENGTH_SYMBOL
1070
   379
1070
     1
1001
ACAD_DSTYLE_DIM_LINETYPE
1070
   380
1005
5B
1001
ACAD_DSTYLE_DIM_EXT1_LINETYPE
1070
   381
1005
5B
1001
ACAD_DSTYLE_DIM_EXT2_LINETYPE
1070
   382
1005
5B
  0
DIMSTYLE
105
2055
330
A
100
AcDbSymbolTableRecord
100
AcDbDimStyleTableRecord
  2
AM_ISO$7
 70
     0
  4
"
 41
3.5
 42
1.0
 43
10.0
 44
1.0
 47
0.1
 48
0.1
 73
     0
 74
     0
 77
     1
 78
     8
 79
     2
140
3.5
141
0.0
143
0.0393701
146
0.71
147
1.5
172
     1
176
   256
177
   256
178
   140
271
     2
272
     3
274
     4
283
     0
284
     8
340
55
371
    -1
372
    -1
1001
ACAD_DSTYLE_DIMBREAK
1070
   391
1040
3.75
1001
ACAD_DSTYLE_DIMJAG
1070
   388
1040
1.5
1001
ACAD_DSTYLE_DIMARC_LENGTH_SYMBOL
1070
   379
1070
     1
1001
ACAD_DSTYLE_DIM_LINETYPE
1070
   380
1005
5B
1001
ACAD_DSTYLE_DIM_EXT1_LINETYPE
1070
   381
1005
5B
1001
ACAD_DSTYLE_DIM_EXT2_LINETYPE
1070
   382
1005
5B
  0
DIMSTYLE
105
2056
330
A
100
AcDbSymbolTableRecord
100
AcDbDimStyleTableRecord
  2
AM_ISO$SF
 70
     0
  4
"
 41
3.5
 42
1.0
 43
10.0
 44
1.0
 47
0.1
 48
0.1
 73
     0
 74
     0
 75
     1
 76
     1
 77
     1
 78
     8
 79
     2
140
3.5
141
0.0
143
0.0393701
146
0.71
147
1.5
172
     1
176
   256
177
   256
178
   140
271
     2
272
     3
274
     4
283
     0
284
     8
340
55
371
    -1
372
    -1
1001
ACAD_DSTYLE_DIMBREAK
1070
   391
1040
3.75
1001
ACAD_DSTYLE_DIMJAG
1070
   388
1040
1.5
1001
ACAD_DSTYLE_DIMARC_LENGTH_SYMBOL
1070
   379
1070
     1
1001
ACAD_DSTYLE_DIM_LINETYPE
1070
   380
1005
5B
1001
ACAD_DSTYLE_DIM_EXT1_LINETYPE
1070
   381
1005
5B
1001
ACAD_DSTYLE_DIM_EXT2_LINETYPE
1070
   382
1005
5B
  0
DIMSTYLE
105
205B
330
A
100
AcDbSymbolTableRecord
100
AcDbDimStyleTableRecord
  2
AM_ISO$SH
 70
     0
  4
"
 41
3.5
 42
1.0
 43
10.0
 44
1.0
 47
0.1
 48
0.1
 73
     0
 74
     0
 75
     1
 76
     1
 77
     1
 78
     8
 79
     2
140
3.5
141
0.0
143
0.0393701
144
2.0
146
0.71
147
1.5
172
     1
173
     1
176
   256
177
   256
178
   140
271
     2
272
     3
274
     4
283
     0
284
     8
340
55
343
2057
371
    -1
372
    -1
1001
ACAD_DSTYLE_DIMBREAK
1070
   391
1040
3.75
1001
ACAD_DSTYLE_DIMJAG
1070
   388
1040
1.5
1001
ACAD_DSTYLE_DIMARC_LENGTH_SYMBOL
1070
   379
1070
     1
1001
ACAD_DSTYLE_DIM_LINETYPE
1070
   380
1005
5B
1001
ACAD_DSTYLE_DIM_EXT1_LINETYPE
1070
   381
1005
5B
1001
ACAD_DSTYLE_DIM_EXT2_LINETYPE
1070
   382
1005
5B
  0
DIMSTYLE
105
20B2
102
{ACAD_REACTORS
330
2AE9
330
2AB3
330
29EF
330
2A87
330
2EB6
102
}
330
A
100
AcDbSymbolTableRecord
100
AcDbDimStyleTableRecord
  2
GEN-ISO
 70
     0
  3
<>
  4
"
 40
2.0
 41
2.5
 42
1.0
 43
7.0
 44
1.0
 47
0.1
 48
0.1
 73
     0
 74
     0
 77
     1
 78
     8
140
7.0
141
0.0
143
0.0393701
146
0.71
147
0.6
172
     1
176
   256
177
   256
178
     7
271
     2
272
     2
283
     0
340
55
1001
ACAD_DSTYLE_DIMJAG
1070
   388
1040
1.5
1001
ACAD_DSTYLE_DIMTALN
1070
   392
1070
     0
  0
DIMSTYLE
105
29ED
330
A
100
AcDbSymbolTableRecord
100
AcDbDimStyleTableRecord
  2
Standard$0
 70
     0
340
55
1001
ACAD_DSTYLE_DIMBREAK
1070
   391
1040
3.75
1001
ACAD_DSTYLE_DIMJAG
1070
   388
1040
1.5
  0
ENDTAB
  0
TABLE
  2
BLOCK_RECORD
  5
1
330
0
100
AcDbSymbolTable
 70
    48
  0
BLOCK_RECORD
  5
6C
330
1
100
AcDbSymbolTableRecord
100
AcDbBlockTableRecord
  2
*Model_Space
340
6F
  0
BLOCK_RECORD
  5
68
330
1
100
AcDbSymbolTableRecord
100
AcDbBlockTableRecord
  2
*Paper_Space
340
6B
  0
BLOCK_RECORD
  5
70
330
1
100
AcDbSymbolTableRecord
100
AcDbBlockTableRecord
  2
*Paper_Space0
340
73
  0
BLOCK_RECORD
  5
98
330
1
100
AcDbSymbolTableRecord
100
AcDbBlockTableRecord
  2
Filled-1
340
0
  0
BLOCK_RECORD
  5
B4
330
1
100
AcDbSymbolTableRecord
100
AcDbBlockTableRecord
  2
_Closed
340
0
  0
BLOCK_RECORD
  5
BB
330
1
100
AcDbSymbolTableRecord
100
AcDbBlockTableRecord
  2
DatumFilled45
340
0
  0
BLOCK_RECORD
  5
C6
330
1
100
AcDbSymbolTableRecord
100
AcDbBlockTableRecord
  2
WIG-svarovani
340
0
  0
BLOCK_RECORD
  5
CB
330
1
100
AcDbSymbolTableRecord
100
AcDbBlockTableRecord
  2
Popis kotvy_srouby
340
0
  0
BLOCK_RECORD
  5
CF
330
1
100
AcDbSymbolTableRecord
100
AcDbBlockTableRecord
  2
Mater. provedeni Art.
340
0
  0
BLOCK_RECORD
  5
F1
330
1
100
AcDbSymbolTableRecord
100
AcDbBlockTableRecord
  2
Art. s popisy
340
0
  0
BLOCK_RECORD
  5
113
330
1
100
AcDbSymbolTableRecord
100
AcDbBlockTableRecord
  2
Tryskat
340
0
  0
BLOCK_RECORD
  5
117
330
1
100
AcDbSymbolTableRecord
100
AcDbBlockTableRecord
  2
Morit
340
0
  0
BLOCK_RECORD
  5
11B
330
1
100
AcDbSymbolTableRecord
100
AcDbBlockTableRecord
  2
zinkovat
340
0
  0
BLOCK_RECORD
  5
11F
330
1
100
AcDbSymbolTableRecord
100
AcDbBlockTableRecord
  2
Nater
340
0
  0
BLOCK_RECORD
  5
123
330
1
100
AcDbSymbolTableRecord
100
AcDbBlockTableRecord
  2
Brus
340
0
  0
BLOCK_RECORD
  5
127
330
1
100
AcDbSymbolTableRecord
100
AcDbBlockTableRecord
  2
Elektroliticky lestit
340
0
  0
BLOCK_RECORD
  5
12C
330
1
100
AcDbSymbolTableRecord
100
AcDbBlockTableRecord
  2
Rámečky Default Border
340
0
  0
BLOCK_RECORD
  5
183
330
1
100
AcDbSymbolTableRecord
100
AcDbBlockTableRecord
  2
Rohová razítka ACO-razitko
340
0
  0
BLOCK_RECORD
  5
FA7
330
1
100
AcDbSymbolTableRecord
100
AcDbBlockTableRecord
  2
KUSOVNÍK
340
0
  0
BLOCK_RECORD
  5
FFC
330
1
100
AcDbSymbolTableRecord
100
AcDbBlockTableRecord
  2
*D17
340
0
  0
BLOCK_RECORD
  5
10E2
330
1
100
AcDbSymbolTableRecord
100
AcDbBlockTableRecord
  2
*D18
340
0
  0
BLOCK_RECORD
  5
11C4
330
1
100
AcDbSymbolTableRecord
100
AcDbBlockTableRecord
  2
*D19
340
0
  0
BLOCK_RECORD
  5
1C71
330
1
100
AcDbSymbolTableRecord
100
AcDbBlockTableRecord
  2
Pozice1
340
0
  0
BLOCK_RECORD
  5
1C83
330
1
100
AcDbSymbolTableRecord
100
AcDbBlockTableRecord
  2
Pozice2
340
0
  0
BLOCK_RECORD
  5
1C9A
330
1
100
AcDbSymbolTableRecord
100
AcDbBlockTableRecord
  2
*D22
340
0
  0
BLOCK_RECORD
  5
1D7D
330
1
100
AcDbSymbolTableRecord
100
AcDbBlockTableRecord
  2
*D23
340
0
  0
BLOCK_RECORD
  5
1E5E
330
1
100
AcDbSymbolTableRecord
100
AcDbBlockTableRecord
  2
Pozice3
340
0
  0
BLOCK_RECORD
  5
1E71
330
1
100
AcDbSymbolTableRecord
100
AcDbBlockTableRecord
  2
*D25
340
0
  0
BLOCK_RECORD
  5
1F5D
330
1
100
AcDbSymbolTableRecord
100
AcDbBlockTableRecord
  2
Pozice4
340
0
  0
BLOCK_RECORD
  5
1F6F
330
1
100
AcDbSymbolTableRecord
100
AcDbBlockTableRecord
  2
Pozice5
340
0
  0
BLOCK_RECORD
  5
2057
330
1
100
AcDbSymbolTableRecord
100
AcDbBlockTableRecord
  2
GENAXEH
340
0
  0
BLOCK_RECORD
  5
2071
330
1
100
AcDbSymbolTableRecord
100
AcDbBlockTableRecord
  2
*D29
340
0
  0
BLOCK_RECORD
  5
207D
330
1
100
AcDbSymbolTableRecord
100
AcDbBlockTableRecord
  2
*D30
340
0
  0
BLOCK_RECORD
  5
2089
330
1
100
AcDbSymbolTableRecord
100
AcDbBlockTableRecord
  2
*D31
340
0
  0
BLOCK_RECORD
  5
2095
330
1
100
AcDbSymbolTableRecord
100
AcDbBlockTableRecord
  2
*D32
340
0
  0
BLOCK_RECORD
  5
20A1
330
1
100
AcDbSymbolTableRecord
100
AcDbBlockTableRecord
  2
*D33
340
0
  0
BLOCK_RECORD
  5
295E
330
1
100
AcDbSymbolTableRecord
100
AcDbBlockTableRecord
  2
*D34
340
0
  0
BLOCK_RECORD
  5
296A
330
1
100
AcDbSymbolTableRecord
100
AcDbBlockTableRecord
  2
*D35
340
0
  0
BLOCK_RECORD
  5
2976
330
1
100
AcDbSymbolTableRecord
100
AcDbBlockTableRecord
  2
*D36
340
0
  0
BLOCK_RECORD
  5
2982
330
1
100
AcDbSymbolTableRecord
100
AcDbBlockTableRecord
  2
*D37
340
0
  0
BLOCK_RECORD
  5
298E
330
1
100
AcDbSymbolTableRecord
100
AcDbBlockTableRecord
  2
*D38
340
0
  0
BLOCK_RECORD
  5
29F0
330
1
100
AcDbSymbolTableRecord
100
AcDbBlockTableRecord
  2
*D39
340
0
  0
BLOCK_RECORD
  5
2A1C
330
1
100
AcDbSymbolTableRecord
100
AcDbBlockTableRecord
  2
*D40
340
0
  0
BLOCK_RECORD
  5
2A3E
330
1
100
AcDbSymbolTableRecord
100
AcDbBlockTableRecord
  2
*D41
340
0
  0
BLOCK_RECORD
  5
2A88
330
1
100
AcDbSymbolTableRecord
100
AcDbBlockTableRecord
  2
*D42
340
0
  0
BLOCK_RECORD
  5
2AB4
330
1
100
AcDbSymbolTableRecord
100
AcDbBlockTableRecord
  2
*D43
340
0
  0
BLOCK_RECORD
  5
2AEA
330
1
100
AcDbSymbolTableRecord
100
AcDbBlockTableRecord
  2
*D44
340
0
  0
BLOCK_RECORD
  5
2B16
330
1
100
AcDbSymbolTableRecord
100
AcDbBlockTableRecord
  2
*D45
340
0
  0
BLOCK_RECORD
  5
2EB7
330
1
100
AcDbSymbolTableRecord
100
AcDbBlockTableRecord
  2
*D47
340
0
  0
ENDTAB
  0
ENDSEC
  0
SECTION
  2
BLOCKS
  0
BLOCK
  5
6D
330
6C
100
AcDbEntity
  8
0
100
AcDbBlockBegin
  2
*Model_Space
 70
     0
 10
0.0
 20
0.0
 30
0.0
  3
*Model_Space
  1

  0
ENDBLK
  5
6E
330
6C
100
AcDbEntity
  8
0
100
AcDbBlockEnd
  0
BLOCK
  5
69
330
68
100
AcDbEntity
 67
     1
  8
0
100
AcDbBlockBegin
  2
*Paper_Space
 70
     0
 10
0.0
 20
0.0
 30
0.0
  3
*Paper_Space
  1

  0
ENDBLK
  5
6A
330
68
100
AcDbEntity
 67
     1
  8
0
100
AcDbBlockEnd
  0
BLOCK
  5
71
330
70
100
AcDbEntity
 67
     1
  8
0
100
AcDbBlockBegin
  2
*Paper_Space0
 70
     0
 10
0.0
 20
0.0
 30
0.0
  3
*Paper_Space0
  1

  0
ENDBLK
  5
72
330
70
100
AcDbEntity
 67
     1
  8
0
100
AcDbBlockEnd
  0
BLOCK
  5
99
330
98
100
AcDbEntity
  8
0
100
AcDbBlockBegin
  2
Filled-1
 70
     0
 10
0.0
 20
0.0
 30
0.0
  3
Filled-1
  1

  0
LINE
  5
9B
330
98
100
AcDbEntity
  8
0
 62
     0
100
AcDbLine
 10
-1.0
 20
0.0
 30
0.0
 11
0.0
 21
0.0
 31
0.0
  0
POLYLINE
  5
9D
330
98
100
AcDbEntity
  8
0
 62
     0
100
AcDb2dPolyline
 66
     1
 10
0.0
 20
0.0
 30
0.0
 70
   128
  0
VERTEX
  5
9E
330
9D
100
AcDbEntity
  8
0
 62
     0
100
AcDbVertex
100
AcDb2dVertex
 10
-1.0
 20
-0.1
 30
0.0
  0
VERTEX
  5
9F
330
9D
100
AcDbEntity
  8
0
 62
     0
100
AcDbVertex
100
AcDb2dVertex
 10
0.0
 20
0.0
 30
0.0
  0
VERTEX
  5
A1
330
9D
100
AcDbEntity
  8
0
 62
     0
100
AcDbVertex
100
AcDb2dVertex
 10
-1.0
 20
0.1
 30
0.0
  0
VERTEX
  5
A2
330
9D
100
AcDbEntity
  8
0
 62
     0
100
AcDbVertex
100
AcDb2dVertex
 10
-1.0
 20
-0.1
 30
0.0
  0
SEQEND
  5
A0
330
9D
100
AcDbEntity
  8
0
 62
     0
  0
SOLID
  5
A3
330
98
100
AcDbEntity
  8
0
 62
     0
100
AcDbTrace
 10
-1.0
 20
-0.1
 30
0.0
 11
0.0
 21
0.0
 31
0.0
 12
-1.0
 22
0.1
 32
0.0
 13
-1.0
 23
-0.1
 33
0.0
  0
LINE
  5
A4
330
98
100
AcDbEntity
  8
0
 62
     0
100
AcDbLine
 10
-1.0
 20
-0.1
 30
0.0
 11
0.0
 21
0.0
 31
0.0
  0
LINE
  5
A5
330
98
100
AcDbEntity
  8
0
 62
     0
100
AcDbLine
 10
0.0
 20
0.0
 30
0.0
 11
-1.0
 21
0.1
 31
0.0
  0
LINE
  5
A6
330
98
100
AcDbEntity
  8
0
 62
     0
100
AcDbLine
 10
-1.0
 20
0.1
 30
0.0
 11
-1.0
 21
-0.1
 31
0.0
  0
ENDBLK
  5
9A
330
98
100
AcDbEntity
  8
0
100
AcDbBlockEnd
  0
BLOCK
  5
B9
330
B4
100
AcDbEntity
  8
0
100
AcDbBlockBegin
  2
_Closed
 70
     0
 10
0.0
 20
0.0
 30
0.0
  3
_Closed
  1

  0
LINE
  5
B5
330
B4
100
AcDbEntity
  8
0
  6
ByBlock
 62
     0
370
    -2
100
AcDbLine
 10
-1.0
 20
0.1666666666666666
 30
0.0
 11
0.0
 21
0.0
 31
0.0
  0
LINE
  5
B6
330
B4
100
AcDbEntity
  8
0
  6
ByBlock
 62
     0
370
    -2
100
AcDbLine
 10
0.0
 20
0.0
 30
0.0
 11
-1.0
 21
-0.1666666666666666
 31
0.0
  0
LINE
  5
B7
330
B4
100
AcDbEntity
  8
0
  6
ByBlock
 62
     0
370
    -2
100
AcDbLine
 10
-1.0
 20
0.1666666666666666
 30
0.0
 11
-1.0
 21
-0.1666666666666666
 31
0.0
  0
LINE
  5
B8
330
B4
100
AcDbEntity
  8
0
  6
ByBlock
 62
     0
370
    -2
100
AcDbLine
 10
0.0
 20
0.0
 30
0.0
 11
-1.0
 21
0.0
 31
0.0
  0
ENDBLK
  5
BA
330
B4
100
AcDbEntity
  8
0
100
AcDbBlockEnd
  0
BLOCK
  5
BC
330
BB
100
AcDbEntity
  8
0
100
AcDbBlockBegin
  2
DatumFilled45
 70
     0
 10
0.0
 20
0.0
 30
0.0
  3
DatumFilled45
  1

  0
POLYLINE
  5
BE
330
BB
100
AcDbEntity
  8
0
 62
     0
100
AcDb2dPolyline
 66
     1
 10
0.0
 20
0.0
 30
0.0
 70
   128
  0
VERTEX
  5
BF
330
BE
100
AcDbEntity
  8
0
 62
     0
100
AcDbVertex
100
AcDb2dVertex
 10
0.0
 20
1.0
 30
0.0
  0
VERTEX
  5
C0
330
BE
100
AcDbEntity
  8
0
 62
     0
100
AcDbVertex
100
AcDb2dVertex
 10
0.0
 20
-1.0
 30
0.0
  0
VERTEX
  5
C2
330
BE
100
AcDbEntity
  8
0
 62
     0
100
AcDbVertex
100
AcDb2dVertex
 10
-1.0
 20
0.0
 30
0.0
  0
VERTEX
  5
C3
330
BE
100
AcDbEntity
  8
0
 62
     0
100
AcDbVertex
100
AcDb2dVertex
 10
0.0
 20
1.0
 30
0.0
  0
SEQEND
  5
C1
330
BE
100
AcDbEntity
  8
0
 62
     0
  0
SOLID
  5
C4
330
BB
100
AcDbEntity
  8
0
 62
     0
100
AcDbTrace
 10
0.0
 20
1.0
 30
0.0
 11
0.0
 21
-1.0
 31
0.0
 12
-1.0
 22
0.0
 32
0.0
 13
0.0
 23
1.0
 33
0.0
  0
ENDBLK
  5
BD
330
BB
100
AcDbEntity
  8
0
100
AcDbBlockEnd
  0
BLOCK
  5
C7
330
C6
100
AcDbEntity
  8
0
100
AcDbBlockBegin
  2
WIG-svarovani
 70
     0
 10
0.0
 20
0.0
 30
0.0
  3
WIG-svarovani
  1

  0
MTEXT
  5
C9
102
{ACAD_XDICTIONARY
360
2EF6
102
}
330
C6
100
AcDbEntity
  8
Značka (ISO)
100
AcDbMText
 10
-57.87338256835937
 20
16.31795931607484
 30
0.0
 40
3.499999940395355
 41
115.7467651367187
 71
     1
 72
     1
  1
WIG Schweisung, Nahte sauber geschliffen und poliert\PSichtstege geschliffen mit 240 Korn und abgeklebt.\P{\H0.85714x; \P\H1.1667x;WIG svarovani- svary dle potreby zabrousit.\PPohledove plochy brousit (vel. brusnych zrn 240)\Pa polepit paskou}
  7
Text poznámky (ISO)
 73
     1
 44
0.9596589207649227
  0
ENDBLK
  5
C8
330
C6
100
AcDbEntity
  8
0
100
AcDbBlockEnd
  0
BLOCK
  5
CC
330
CB
100
AcDbEntity
  8
0
100
AcDbBlockBegin
  2
Popis kotvy_srouby
 70
     0
 10
0.0
 20
0.0
 30
0.0
  3
Popis kotvy_srouby
  1

  0
MTEXT
  5
CE
330
CB
100
AcDbEntity
  8
Značka (ISO)
100
AcDbMText
 10
-39.79761123657226
 20
21.84130281209946
 30
0.0
 40
3.499999940395355
 41
0.0
 71
     1
 72
     1
  1
Vzdalenost nivel. sroubu ca. 1500\PVzdalenost kotev ca. 400\PVzdalenost dist. koliku ca. 250\P\PAbstand der Nivellieschraben ca.1500\PAbstand der Maueranker ca.400\PAbstand der Distanzstege ca.250\P
  7
Text poznámky (ISO)
 73
     2
 44
0.9878841638565063
  0
ENDBLK
  5
CD
330
CB
100
AcDbEntity
  8
0
100
AcDbBlockEnd
  0
BLOCK
  5
D0
330
CF
100
AcDbEntity
  8
0
100
AcDbBlockBegin
  2
Mater. provedeni Art.
 70
     0
 10
0.0
 20
0.0
 30
0.0
  3
Mater. provedeni Art.
  1

  0
LINE
  5
D2
330
CF
100
AcDbEntity
  8
Geometrie náčrtu (ISO)
100
AcDbLine
 10
-35.0
 20
-22.5
 30
0.0
 11
35.0
 21
-22.5
 31
0.0
  0
LINE
  5
D3
330
CF
100
AcDbEntity
  8
Geometrie náčrtu (ISO)
100
AcDbLine
 10
35.0
 20
-22.5
 30
0.0
 11
34.99999999999996
 21
-13.49999999999998
 31
0.0
  0
LINE
  5
D4
330
CF
100
AcDbEntity
  8
Geometrie náčrtu (ISO)
100
AcDbLine
 10
34.99999999999996
 20
-13.49999999999998
 30
0.0
 11
-35.00000000000003
 21
-13.49999999999998
 31
0.0
  0
LINE
  5
D5
330
CF
100
AcDbEntity
  8
Geometrie náčrtu (ISO)
100
AcDbLine
 10
-35.00000000000003
 20
-13.49999999999998
 30
0.0
 11
-35.0
 21
-22.5
 31
0.0
  0
LINE
  5
D6
330
CF
100
AcDbEntity
  8
Geometrie náčrtu (ISO)
100
AcDbLine
 10
-35.00000000000003
 20
-13.49999999999998
 30
0.0
 11
34.99999999999996
 21
-13.49999999999998
 31
0.0
  0
LINE
  5
D7
330
CF
100
AcDbEntity
  8
Geometrie náčrtu (ISO)
100
AcDbLine
 10
34.99999999999996
 20
-13.49999999999998
 30
0.0
 11
34.99999999999996
 21
-4.499999999999992
 31
0.0
  0
LINE
  5
D8
330
CF
100
AcDbEntity
  8
Geometrie náčrtu (ISO)
100
AcDbLine
 10
34.99999999999996
 20
-4.499999999999992
 30
0.0
 11
-35.00000000000003
 21
-4.499999999999992
 31
0.0
  0
LINE
  5
D9
330
CF
100
AcDbEntity
  8
Geometrie náčrtu (ISO)
100
AcDbLine
 10
-35.00000000000003
 20
-4.499999999999992
 30
0.0
 11
-35.00000000000003
 21
-13.49999999999998
 31
0.0
  0
LINE
  5
DA
330
CF
100
AcDbEntity
  8
Geometrie náčrtu (ISO)
100
AcDbLine
 10
-35.00000000000003
 20
-4.499999999999992
 30
0.0
 11
34.99999999999996
 21
-4.499999999999992
 31
0.0
  0
LINE
  5
DB
330
CF
100
AcDbEntity
  8
Geometrie náčrtu (ISO)
100
AcDbLine
 10
34.99999999999996
 20
-4.499999999999992
 30
0.0
 11
34.99999999999996
 21
4.499999999999992
 31
0.0
  0
LINE
  5
DC
330
CF
100
AcDbEntity
  8
Geometrie náčrtu (ISO)
100
AcDbLine
 10
34.99999999999996
 20
4.499999999999992
 30
0.0
 11
-35.00000000000003
 21
4.499999999999992
 31
0.0
  0
LINE
  5
DD
330
CF
100
AcDbEntity
  8
Geometrie náčrtu (ISO)
100
AcDbLine
 10
-35.00000000000003
 20
4.499999999999992
 30
0.0
 11
-35.00000000000003
 21
-4.499999999999992
 31
0.0
  0
LINE
  5
DE
330
CF
100
AcDbEntity
  8
Geometrie náčrtu (ISO)
100
AcDbLine
 10
-35.00000000000003
 20
4.499999999999992
 30
0.0
 11
34.99999999999996
 21
4.499999999999992
 31
0.0
  0
LINE
  5
DF
330
CF
100
AcDbEntity
  8
Geometrie náčrtu (ISO)
100
AcDbLine
 10
34.99999999999996
 20
4.499999999999992
 30
0.0
 11
34.99999999999996
 21
13.50000000000001
 31
0.0
  0
LINE
  5
E0
330
CF
100
AcDbEntity
  8
Geometrie náčrtu (ISO)
100
AcDbLine
 10
34.99999999999996
 20
13.50000000000001
 30
0.0
 11
-35.00000000000003
 21
13.50000000000001
 31
0.0
  0
LINE
  5
E1
330
CF
100
AcDbEntity
  8
Geometrie náčrtu (ISO)
100
AcDbLine
 10
-35.00000000000003
 20
13.50000000000001
 30
0.0
 11
-35.00000000000003
 21
4.499999999999992
 31
0.0
  0
LINE
  5
E2
330
CF
100
AcDbEntity
  8
Geometrie náčrtu (ISO)
100
AcDbLine
 10
-35.00000000000003
 20
13.50000000000001
 30
0.0
 11
34.99999999999996
 21
13.50000000000001
 31
0.0
  0
LINE
  5
E3
330
CF
100
AcDbEntity
  8
Geometrie náčrtu (ISO)
100
AcDbLine
 10
34.99999999999996
 20
13.50000000000001
 30
0.0
 11
34.99999999999996
 21
22.5
 31
0.0
  0
LINE
  5
E4
330
CF
100
AcDbEntity
  8
Geometrie náčrtu (ISO)
100
AcDbLine
 10
34.99999999999996
 20
22.5
 30
0.0
 11
-35.00000000000003
 21
22.5
 31
0.0
  0
LINE
  5
E5
330
CF
100
AcDbEntity
  8
Geometrie náčrtu (ISO)
100
AcDbLine
 10
-35.00000000000003
 20
22.5
 30
0.0
 11
-35.00000000000003
 21
13.50000000000001
 31
0.0
  0
LINE
  5
E6
330
CF
100
AcDbEntity
  8
Geometrie náčrtu (ISO)
100
AcDbLine
 10
-6.999999999999992
 20
22.5
 30
0.0
 11
-6.999999999999992
 21
-22.5
 31
0.0
  0
MTEXT
  5
E7
330
CF
100
AcDbEntity
  8
Značka (ISO)
100
AcDbMText
 10
-5.126613448311374
 20
11.7684641726084
 30
0.0
 40
5.0
 41
0.0
 71
     1
 72
     1
  1
\fTahoma|b0|i0;\H5.0000;xxxxxxxxxxx
  7
Text poznámky (ISO)
 73
     1
 44
1.0
  0
MTEXT
  5
E8
330
CF
100
AcDbEntity
  8
Značka (ISO)
100
AcDbMText
 10
-33.0130165251342
 20
11.7684641726084
 30
0.0
 40
5.0
 41
20.42139291763306
 71
     1
 72
     1
  1
\fTahoma|b0|i0;\H5.0000;xxxxxx
  7
Text poznámky (ISO)
 73
     1
 44
1.0
  0
MTEXT
  5
E9
330
CF
100
AcDbEntity
  8
Značka (ISO)
100
AcDbMText
 10
-32.07756235018873
 20
20.30710993714994
 30
0.0
 40
5.0
 41
13.92583036716939
 71
     1
 72
     1
  1
\fTahoma|b0|i0;\H5.0000;Art.
  7
Text poznámky (ISO)
 73
     1
 44
1.0
  0
MTEXT
  5
EA
330
CF
100
AcDbEntity
  8
Značka (ISO)
100
AcDbMText
 10
4.291672002492318
 20
20.30710993714994
 30
0.0
 40
5.0
 41
0.0
 71
     1
 72
     1
  1
\fTahoma|b0|i0;\H5.0000;Mat.
  7
Text poznámky (ISO)
 73
     1
 44
1.0
  0
MTEXT
  5
EB
330
CF
100
AcDbEntity
  8
Značka (ISO)
100
AcDbMText
 10
-33.0130165251342
 20
2.473781856899818
 30
0.0
 40
5.0
 41
20.42139291763306
 71
     1
 72
     1
  1
\fTahoma|b0|i0;\H5.0000;xxxxxx
  7
Text poznámky (ISO)
 73
     1
 44
1.0
  0
MTEXT
  5
EC
330
CF
100
AcDbEntity
  8
Značka (ISO)
100
AcDbMText
 10
-5.126613448311374
 20
2.473781856899818
 30
0.0
 40
5.0
 41
0.0
 71
     1
 72
     1
  1
\fTahoma|b0|i0;\H5.0000;xxxxxxxxxxx
  7
Text poznámky (ISO)
 73
     1
 44
1.0
  0
MTEXT
  5
ED
330
CF
100
AcDbEntity
  8
Značka (ISO)
100
AcDbMText
 10
-33.0130165251342
 20
-6.862452441171491
 30
0.0
 40
5.0
 41
20.42139291763306
 71
     1
 72
     1
  1
\fTahoma|b0|i0;\H5.0000;xxxxxx
  7
Text poznámky (ISO)
 73
     1
 44
1.0
  0
MTEXT
  5
EE
330
CF
100
AcDbEntity
  8
Značka (ISO)
100
AcDbMText
 10
-5.126613448311374
 20
-6.862452441171491
 30
0.0
 40
5.0
 41
0.0
 71
     1
 72
     1
  1
\fTahoma|b0|i0;\H5.0000;xxxxxxxxxxx
  7
Text poznámky (ISO)
 73
     1
 44
1.0
  0
MTEXT
  5
EF
330
CF
100
AcDbEntity
  8
Značka (ISO)
100
AcDbMText
 10
-33.0130165251342
 20
-15.52177565039578
 30
0.0
 40
5.0
 41
20.42139291763306
 71
     1
 72
     1
  1
\fTahoma|b0|i0;\H5.0000;xxxxxx
  7
Text poznámky (ISO)
 73
     1
 44
1.0
  0
MTEXT
  5
F0
330
CF
100
AcDbEntity
  8
Značka (ISO)
100
AcDbMText
 10
-5.126613448311374
 20
-15.52177565039578
 30
0.0
 40
5.0
 41
0.0
 71
     1
 72
     1
  1
\fTahoma|b0|i0;\H5.0000;xxxxxxxxxxx
  7
Text poznámky (ISO)
 73
     1
 44
1.0
  0
ENDBLK
  5
D1
330
CF
100
AcDbEntity
  8
0
100
AcDbBlockEnd
  0
BLOCK
  5
F2
330
F1
100
AcDbEntity
  8
0
100
AcDbBlockBegin
  2
Art. s popisy
 70
     0
 10
0.0
 20
0.0
 30
0.0
  3
Art. s popisy
  1

  0
LINE
  5
F4
330
F1
100
AcDbEntity
  8
Geometrie náčrtu (ISO)
100
AcDbLine
 10
-60.00000000000081
 20
-22.5
 30
0.0
 11
59.99999999999911
 21
-22.5
 31
0.0
  0
LINE
  5
F5
330
F1
100
AcDbEntity
  8
Geometrie náčrtu (ISO)
100
AcDbLine
 10
59.99999999999911
 20
-22.5
 30
0.0
 11
60.00000000000081
 21
-13.50000000000001
 31
0.0
  0
LINE
  5
F6
330
F1
100
AcDbEntity
  8
Geometrie náčrtu (ISO)
100
AcDbLine
 10
60.00000000000081
 20
-13.50000000000001
 30
0.0
 11
-60.00000000000081
 21
-13.49999999999998
 31
0.0
  0
LINE
  5
F7
330
F1
100
AcDbEntity
  8
Geometrie náčrtu (ISO)
100
AcDbLine
 10
-60.00000000000081
 20
-13.49999999999998
 30
0.0
 11
-60.00000000000081
 21
-22.5
 31
0.0
  0
LINE
  5
F8
330
F1
100
AcDbEntity
  8
Geometrie náčrtu (ISO)
100
AcDbLine
 10
-60.00000000000081
 20
-13.49999999999998
 30
0.0
 11
60.00000000000081
 21
-13.50000000000001
 31
0.0
  0
LINE
  5
F9
330
F1
100
AcDbEntity
  8
Geometrie náčrtu (ISO)
100
AcDbLine
 10
60.00000000000081
 20
-13.50000000000001
 30
0.0
 11
59.99999999999911
 21
-4.500000000000028
 31
0.0
  0
LINE
  5
FA
330
F1
100
AcDbEntity
  8
Geometrie náčrtu (ISO)
100
AcDbLine
 10
59.99999999999911
 20
-4.500000000000028
 30
0.0
 11
-60.00000000000081
 21
-4.499999999999992
 31
0.0
  0
LINE
  5
FB
330
F1
100
AcDbEntity
  8
Geometrie náčrtu (ISO)
100
AcDbLine
 10
-60.00000000000081
 20
-4.499999999999992
 30
0.0
 11
-60.00000000000081
 21
-13.49999999999998
 31
0.0
  0
LINE
  5
FC
330
F1
100
AcDbEntity
  8
Geometrie náčrtu (ISO)
100
AcDbLine
 10
-60.00000000000081
 20
-4.499999999999992
 30
0.0
 11
59.99999999999911
 21
-4.500000000000028
 31
0.0
  0
LINE
  5
FD
330
F1
100
AcDbEntity
  8
Geometrie náčrtu (ISO)
100
AcDbLine
 10
59.99999999999911
 20
-4.500000000000028
 30
0.0
 11
59.99999999999911
 21
4.499999999999957
 31
0.0
  0
LINE
  5
FE
330
F1
100
AcDbEntity
  8
Geometrie náčrtu (ISO)
100
AcDbLine
 10
59.99999999999911
 20
4.499999999999957
 30
0.0
 11
-60.00000000000081
 21
4.499999999999992
 31
0.0
  0
LINE
  5
FF
330
F1
100
AcDbEntity
  8
Geometrie náčrtu (ISO)
100
AcDbLine
 10
-60.00000000000081
 20
4.499999999999992
 30
0.0
 11
-60.00000000000081
 21
-4.499999999999992
 31
0.0
  0
LINE
  5
100
330
F1
100
AcDbEntity
  8
Geometrie náčrtu (ISO)
100
AcDbLine
 10
-60.00000000000081
 20
4.499999999999992
 30
0.0
 11
59.99999999999911
 21
4.499999999999957
 31
0.0
  0
LINE
  5
101
330
F1
100
AcDbEntity
  8
Geometrie náčrtu (ISO)
100
AcDbLine
 10
59.99999999999911
 20
4.499999999999957
 30
0.0
 11
59.99999999999911
 21
13.49999999999998
 31
0.0
  0
LINE
  5
102
330
F1
100
AcDbEntity
  8
Geometrie náčrtu (ISO)
100
AcDbLine
 10
59.99999999999911
 20
13.49999999999998
 30
0.0
 11
-60.00000000000081
 21
13.50000000000001
 31
0.0
  0
LINE
  5
103
330
F1
100
AcDbEntity
  8
Geometrie náčrtu (ISO)
100
AcDbLine
 10
-60.00000000000081
 20
13.50000000000001
 30
0.0
 11
-60.00000000000081
 21
4.499999999999992
 31
0.0
  0
LINE
  5
104
330
F1
100
AcDbEntity
  8
Geometrie náčrtu (ISO)
100
AcDbLine
 10
-60.00000000000081
 20
13.50000000000001
 30
0.0
 11
59.99999999999911
 21
13.49999999999998
 31
0.0
  0
LINE
  5
105
330
F1
100
AcDbEntity
  8
Geometrie náčrtu (ISO)
100
AcDbLine
 10
59.99999999999911
 20
13.49999999999998
 30
0.0
 11
59.99999999999911
 21
22.49999999999996
 31
0.0
  0
LINE
  5
106
330
F1
100
AcDbEntity
  8
Geometrie náčrtu (ISO)
100
AcDbLine
 10
59.99999999999911
 20
22.49999999999996
 30
0.0
 11
-60.00000000000081
 21
22.5
 31
0.0
  0
LINE
  5
107
330
F1
100
AcDbEntity
  8
Geometrie náčrtu (ISO)
100
AcDbLine
 10
-60.00000000000081
 20
22.5
 30
0.0
 11
-60.00000000000081
 21
13.50000000000001
 31
0.0
  0
LINE
  5
108
330
F1
100
AcDbEntity
  8
Geometrie náčrtu (ISO)
100
AcDbLine
 10
-32.00000000000081
 20
22.5
 30
0.0
 11
-32.00000000000081
 21
-22.5
 31
0.0
  0
MTEXT
  5
109
330
F1
100
AcDbEntity
  8
Značka (ISO)
100
AcDbMText
 10
-27.63552601875791
 20
11.7684641726084
 30
0.0
 40
5.0
 41
0.0
 71
     1
 72
     1
  1
\fTahoma|b0|i0;\H5.0000;xxxxxxxxxxx
  7
Text poznámky (ISO)
 73
     1
 44
1.0
  0
MTEXT
  5
10A
330
F1
100
AcDbEntity
  8
Značka (ISO)
100
AcDbMText
 10
-55.52192909558073
 20
11.7684641726084
 30
0.0
 40
5.0
 41
20.42139291763306
 71
     1
 72
     1
  1
\fTahoma|b0|i0;\H5.0000;xxxxxx
  7
Text poznámky (ISO)
 73
     1
 44
1.0
  0
MTEXT
  5
10B
330
F1
100
AcDbEntity
  8
Značka (ISO)
100
AcDbMText
 10
-54.58647492063526
 20
20.30710993714994
 30
0.0
 40
5.0
 41
13.92583036716939
 71
     1
 72
     1
  1
\fTahoma|b0|i0;\H5.0000;Art.
  7
Text poznámky (ISO)
 73
     1
 44
1.0
  0
MTEXT
  5
10C
330
F1
100
AcDbEntity
  8
Značka (ISO)
100
AcDbMText
 10
-18.21724056795421
 20
20.30710993714994
 30
0.0
 40
5.0
 41
0.0
 71
     1
 72
     1
  1
\fTahoma|b0|i0;\H5.0000;Popis.
  7
Text poznámky (ISO)
 73
     1
 44
1.0
  0
MTEXT
  5
10D
330
F1
100
AcDbEntity
  8
Značka (ISO)
100
AcDbMText
 10
-55.52192909558073
 20
2.473781856899818
 30
0.0
 40
5.0
 41
20.42139291763306
 71
     1
 72
     1
  1
\fTahoma|b0|i0;\H5.0000;xxxxxx
  7
Text poznámky (ISO)
 73
     1
 44
1.0
  0
MTEXT
  5
10E
330
F1
100
AcDbEntity
  8
Značka (ISO)
100
AcDbMText
 10
-27.63552601875791
 20
2.473781856899818
 30
0.0
 40
5.0
 41
0.0
 71
     1
 72
     1
  1
\fTahoma|b0|i0;\H5.0000;xxxxxxxxxxx
  7
Text poznámky (ISO)
 73
     1
 44
1.0
  0
MTEXT
  5
10F
330
F1
100
AcDbEntity
  8
Značka (ISO)
100
AcDbMText
 10
-55.52192909558073
 20
-6.862452441171491
 30
0.0
 40
5.0
 41
20.42139291763306
 71
     1
 72
     1
  1
\fTahoma|b0|i0;\H5.0000;xxxxxx
  7
Text poznámky (ISO)
 73
     1
 44
1.0
  0
MTEXT
  5
110
330
F1
100
AcDbEntity
  8
Značka (ISO)
100
AcDbMText
 10
-27.63552601875791
 20
-6.862452441171491
 30
0.0
 40
5.0
 41
0.0
 71
     1
 72
     1
  1
\fTahoma|b0|i0;\H5.0000;xxxxxxxxxxx
  7
Text poznámky (ISO)
 73
     1
 44
1.0
  0
MTEXT
  5
111
330
F1
100
AcDbEntity
  8
Značka (ISO)
100
AcDbMText
 10
-55.52192909558073
 20
-15.52177565039578
 30
0.0
 40
5.0
 41
20.42139291763306
 71
     1
 72
     1
  1
\fTahoma|b0|i0;\H5.0000;xxxxxx
  7
Text poznámky (ISO)
 73
     1
 44
1.0
  0
MTEXT
  5
112
330
F1
100
AcDbEntity
  8
Značka (ISO)
100
AcDbMText
 10
-27.63552601875791
 20
-15.52177565039578
 30
0.0
 40
5.0
 41
0.0
 71
     1
 72
     1
  1
\fTahoma|b0|i0;\H5.0000;xxxxxxxxxxx
  7
Text poznámky (ISO)
 73
     1
 44
1.0
  0
ENDBLK
  5
F3
330
F1
100
AcDbEntity
  8
0
100
AcDbBlockEnd
  0
BLOCK
  5
114
330
113
100
AcDbEntity
  8
0
100
AcDbBlockBegin
  2
Tryskat
 70
     0
 10
0.0
 20
0.0
 30
0.0
  3
Tryskat
  1

  0
MTEXT
  5
116
330
113
100
AcDbEntity
  8
Značka (ISO)
100
AcDbMText
 10
-30.20239114761352
 20
5.036920197308063
 30
0.0
 40
3.499999940395355
 41
0.0
 71
     1
 72
     1
  1
Tryskat \P( Blasted , Glasperlstrahken)
  7
Text poznámky (ISO)
 73
     2
 44
0.9878841638565063
  0
ENDBLK
  5
115
330
113
100
AcDbEntity
  8
0
100
AcDbBlockEnd
  0
BLOCK
  5
118
330
117
100
AcDbEntity
  8
0
100
AcDbBlockBegin
  2
Morit
 70
     0
 10
0.0
 20
0.0
 30
0.0
  3
Morit
  1

  0
MTEXT
  5
11A
330
117
100
AcDbEntity
  8
Značka (ISO)
100
AcDbMText
 10
-19.08124089241028
 20
5.11633675545454
 30
0.0
 40
3.499999940395355
 41
0.0
 71
     1
 72
     1
  1
Morit a pasivovat\P(Pickled, gebeitzt)
  7
Text poznámky (ISO)
 73
     2
 44
0.9878841638565063
  0
ENDBLK
  5
119
330
117
100
AcDbEntity
  8
0
100
AcDbBlockEnd
  0
BLOCK
  5
11C
330
11B
100
AcDbEntity
  8
0
100
AcDbBlockBegin
  2
zinkovat
 70
     0
 10
0.0
 20
0.0
 30
0.0
  3
zinkovat
  1

  0
MTEXT
  5
11E
330
11B
100
AcDbEntity
  8
Značka (ISO)
100
AcDbMText
 10
-27.74189710617065
 20
5.049683563411233
 30
0.0
 40
3.499999940395355
 41
0.0
 71
     1
 72
     1
  1
Zarove zinkovat\P(hot galvanized, verzinkt )
  7
Text poznámky (ISO)
 73
     2
 44
0.9878841638565063
  0
ENDBLK
  5
11D
330
11B
100
AcDbEntity
  8
0
100
AcDbBlockEnd
  0
BLOCK
  5
120
330
11F
100
AcDbEntity
  8
0
100
AcDbBlockBegin
  2
Nater
 70
     0
 10
0.0
 20
0.0
 30
0.0
  3
Nater
  1

  0
MTEXT
  5
122
330
11F
100
AcDbEntity
  8
Značka (ISO)
100
AcDbMText
 10
-25.88411808013916
 20
1.864870421122757
 30
0.0
 40
3.499999940395355
 41
0.0
 71
     1
 72
     1
  1
Lackiert Farbe RAL 5002
  7
Text poznámky (ISO)
 73
     1
 44
1.0
  0
ENDBLK
  5
121
330
11F
100
AcDbEntity
  8
0
100
AcDbBlockEnd
  0
BLOCK
  5
124
330
123
100
AcDbEntity
  8
0
100
AcDbBlockBegin
  2
Brus
 70
     0
 10
0.0
 20
0.0
 30
0.0
  3
Brus
  1

  0
MTEXT
  5
126
330
123
100
AcDbEntity
  8
Značka (ISO)
100
AcDbMText
 10
-23.46616744995117
 20
5.11633675545454
 30
0.0
 40
3.499999940395355
 41
0.0
 71
     1
 72
     1
  1
Brousit\P(geburstet , brushed )
  7
Text poznámky (ISO)
 73
     2
 44
0.9878841638565063
  0
ENDBLK
  5
125
330
123
100
AcDbEntity
  8
0
100
AcDbBlockEnd
  0
BLOCK
  5
128
330
127
100
AcDbEntity
  8
0
100
AcDbBlockBegin
  2
Elektroliticky lestit
 70
     0
 10
0.0
 20
0.0
 30
0.0
  3
Elektroliticky lestit
  1

  0
MTEXT
  5
12A
330
127
100
AcDbEntity
  8
Značka (ISO)
100
AcDbMText
 10
-18.68841171264648
 20
5.036920197308063
 30
0.0
 40
3.499999940395355
 41
0.0
 71
     1
 72
     1
  1
Elektrolit. lestit\P(Elektropolished )
  7
Text poznámky (ISO)
 73
     2
 44
0.9878841638565063
  0
ENDBLK
  5
129
330
127
100
AcDbEntity
  8
0
100
AcDbBlockEnd
  0
BLOCK
  5
12D
330
12C
100
AcDbEntity
  8
0
100
AcDbBlockBegin
  2
Rámečky Default Border
 70
     0
 10
0.0
 20
0.0
 30
0.0
  3
Rámečky Default Border
  1

  0
POLYLINE
  5
12F
330
12C
100
AcDbEntity
  8
Rámeček (ISO)
100
AcDb2dPolyline
 66
     1
 10
0.0
 20
0.0
 30
0.0
 70
   128
  0
VERTEX
  5
130
330
12F
100
AcDbEntity
  8
Rámeček (ISO)
100
AcDbVertex
100
AcDb2dVertex
 10
10.0
 20
10.0
 30
0.0
  0
VERTEX
  5
131
330
12F
100
AcDbEntity
  8
Rámeček (ISO)
100
AcDbVertex
100
AcDb2dVertex
 10
10.0
 20
410.0
 30
0.0
  0
VERTEX
  5
133
330
12F
100
AcDbEntity
  8
Rámeček (ISO)
100
AcDbVertex
100
AcDb2dVertex
 10
584.0000152587889
 20
410.0
 30
0.0
  0
VERTEX
  5
134
330
12F
100
AcDbEntity
  8
Rámeček (ISO)
100
AcDbVertex
100
AcDb2dVertex
 10
584.0000152587889
 20
10.0
 30
0.0
  0
VERTEX
  5
135
330
12F
100
AcDbEntity
  8
Rámeček (ISO)
100
AcDbVertex
100
AcDb2dVertex
 10
10.0
 20
10.0
 30
0.0
  0
SEQEND
  5
132
330
12F
100
AcDbEntity
  8
Rámeček (ISO)
  0
POLYLINE
  5
136
330
12C
100
AcDbEntity
  8
Rámeček (ISO)
100
AcDb2dPolyline
 66
     1
 10
0.0
 20
0.0
 30
0.0
 70
   128
  0
VERTEX
  5
137
330
136
100
AcDbEntity
  8
Rámeček (ISO)
100
AcDbVertex
100
AcDb2dVertex
 10
297.0000076293946
 20
0.0
 30
0.0
  0
VERTEX
  5
138
330
136
100
AcDbEntity
  8
Rámeček (ISO)
100
AcDbVertex
100
AcDb2dVertex
 10
297.0000076293946
 20
10.0
 30
0.0
  0
VERTEX
  5
13A
330
136
100
AcDbEntity
  8
Rámeček (ISO)
100
AcDbVertex
100
AcDb2dVertex
 10
294.1132545471191
 20
5.0
 30
0.0
  0
VERTEX
  5
13B
330
136
100
AcDbEntity
  8
Rámeček (ISO)
100
AcDbVertex
100
AcDb2dVertex
 10
299.8867607116699
 20
5.0
 30
0.0
  0
VERTEX
  5
13C
330
136
100
AcDbEntity
  8
Rámeček (ISO)
100
AcDbVertex
100
AcDb2dVertex
 10
297.0000076293946
 20
10.0
 30
0.0
  0
SEQEND
  5
139
330
136
100
AcDbEntity
  8
Rámeček (ISO)
  0
POLYLINE
  5
13D
330
12C
100
AcDbEntity
  8
Rámeček (ISO)
100
AcDb2dPolyline
 66
     1
 10
0.0
 20
0.0
 30
0.0
 70
   128
  0
VERTEX
  5
13E
330
13D
100
AcDbEntity
  8
Rámeček (ISO)
100
AcDbVertex
100
AcDb2dVertex
 10
297.0000076293946
 20
420.0
 30
0.0
  0
VERTEX
  5
13F
330
13D
100
AcDbEntity
  8
Rámeček (ISO)
100
AcDbVertex
100
AcDb2dVertex
 10
297.0000076293946
 20
410.0
 30
0.0
  0
VERTEX
  5
141
330
13D
100
AcDbEntity
  8
Rámeček (ISO)
100
AcDbVertex
100
AcDb2dVertex
 10
294.1132545471191
 20
415.0
 30
0.0
  0
VERTEX
  5
142
330
13D
100
AcDbEntity
  8
Rámeček (ISO)
100
AcDbVertex
100
AcDb2dVertex
 10
299.8867607116699
 20
415.0
 30
0.0
  0
VERTEX
  5
143
330
13D
100
AcDbEntity
  8
Rámeček (ISO)
100
AcDbVertex
100
AcDb2dVertex
 10
297.0000076293946
 20
410.0
 30
0.0
  0
SEQEND
  5
140
330
13D
100
AcDbEntity
  8
Rámeček (ISO)
  0
POLYLINE
  5
144
330
12C
100
AcDbEntity
  8
Rámeček (ISO)
100
AcDb2dPolyline
 66
     1
 10
0.0
 20
0.0
 30
0.0
 70
   128
  0
VERTEX
  5
145
330
144
100
AcDbEntity
  8
Rámeček (ISO)
100
AcDbVertex
100
AcDb2dVertex
 10
0.0
 20
210.0
 30
0.0
  0
VERTEX
  5
146
330
144
100
AcDbEntity
  8
Rámeček (ISO)
100
AcDbVertex
100
AcDb2dVertex
 10
10.0
 20
210.0
 30
0.0
  0
VERTEX
  5
148
330
144
100
AcDbEntity
  8
Rámeček (ISO)
100
AcDbVertex
100
AcDb2dVertex
 10
5.0
 20
212.8867530822754
 30
0.0
  0
VERTEX
  5
149
330
144
100
AcDbEntity
  8
Rámeček (ISO)
100
AcDbVertex
100
AcDb2dVertex
 10
5.0
 20
207.1132469177246
 30
0.0
  0
VERTEX
  5
14A
330
144
100
AcDbEntity
  8
Rámeček (ISO)
100
AcDbVertex
100
AcDb2dVertex
 10
10.0
 20
210.0
 30
0.0
  0
SEQEND
  5
147
330
144
100
AcDbEntity
  8
Rámeček (ISO)
  0
POLYLINE
  5
14B
330
12C
100
AcDbEntity
  8
Rámeček (ISO)
100
AcDb2dPolyline
 66
     1
 10
0.0
 20
0.0
 30
0.0
 70
   128
  0
VERTEX
  5
14C
330
14B
100
AcDbEntity
  8
Rámeček (ISO)
100
AcDbVertex
100
AcDb2dVertex
 10
594.0000152587892
 20
210.0
 30
0.0
  0
VERTEX
  5
14D
330
14B
100
AcDbEntity
  8
Rámeček (ISO)
100
AcDbVertex
100
AcDb2dVertex
 10
584.0000152587889
 20
210.0
 30
0.0
  0
VERTEX
  5
14F
330
14B
100
AcDbEntity
  8
Rámeček (ISO)
100
AcDbVertex
100
AcDb2dVertex
 10
589.0000152587889
 20
212.8867530822754
 30
0.0
  0
VERTEX
  5
150
330
14B
100
AcDbEntity
  8
Rámeček (ISO)
100
AcDbVertex
100
AcDb2dVertex
 10
589.0000152587889
 20
207.1132469177246
 30
0.0
  0
VERTEX
  5
151
330
14B
100
AcDbEntity
  8
Rámeček (ISO)
100
AcDbVertex
100
AcDb2dVertex
 10
584.0000152587889
 20
210.0
 30
0.0
  0
SEQEND
  5
14E
330
14B
100
AcDbEntity
  8
Rámeček (ISO)
  0
LINE
  5
152
330
12C
100
AcDbEntity
  8
Rámeček (ISO)
100
AcDbLine
 10
74.25000190734862
 20
10.0
 30
0.0
 11
74.25000190734862
 21
6.100000143051147
 31
0.0
  0
LINE
  5
153
330
12C
100
AcDbEntity
  8
Rámeček (ISO)
100
AcDbLine
 10
74.25000190734862
 20
410.0
 30
0.0
 11
74.25000190734862
 21
413.8999938964841
 31
0.0
  0
LINE
  5
154
330
12C
100
AcDbEntity
  8
Rámeček (ISO)
100
AcDbLine
 10
148.5000038146973
 20
10.0
 30
0.0
 11
148.5000038146973
 21
6.100000143051147
 31
0.0
  0
LINE
  5
155
330
12C
100
AcDbEntity
  8
Rámeček (ISO)
100
AcDbLine
 10
148.5000038146973
 20
410.0
 30
0.0
 11
148.5000038146973
 21
413.8999938964841
 31
0.0
  0
LINE
  5
156
330
12C
100
AcDbEntity
  8
Rámeček (ISO)
100
AcDbLine
 10
222.7499961853027
 20
10.0
 30
0.0
 11
222.7499961853027
 21
6.100000143051147
 31
0.0
  0
LINE
  5
157
330
12C
100
AcDbEntity
  8
Rámeček (ISO)
100
AcDbLine
 10
222.7499961853027
 20
410.0
 30
0.0
 11
222.7499961853027
 21
413.8999938964841
 31
0.0
  0
LINE
  5
158
330
12C
100
AcDbEntity
  8
Rámeček (ISO)
100
AcDbLine
 10
371.25
 20
10.0
 30
0.0
 11
371.25
 21
6.100000143051147
 31
0.0
  0
LINE
  5
159
330
12C
100
AcDbEntity
  8
Rámeček (ISO)
100
AcDbLine
 10
371.25
 20
410.0
 30
0.0
 11
371.25
 21
413.8999938964841
 31
0.0
  0
LINE
  5
15A
330
12C
100
AcDbEntity
  8
Rámeček (ISO)
100
AcDbLine
 10
445.4999923706052
 20
10.0
 30
0.0
 11
445.4999923706052
 21
6.100000143051147
 31
0.0
  0
LINE
  5
15B
330
12C
100
AcDbEntity
  8
Rámeček (ISO)
100
AcDbLine
 10
445.4999923706052
 20
410.0
 30
0.0
 11
445.4999923706052
 21
413.8999938964841
 31
0.0
  0
LINE
  5
15C
330
12C
100
AcDbEntity
  8
Rámeček (ISO)
100
AcDbLine
 10
519.7499847412108
 20
10.0
 30
0.0
 11
519.7499847412108
 21
6.100000143051147
 31
0.0
  0
LINE
  5
15D
330
12C
100
AcDbEntity
  8
Rámeček (ISO)
100
AcDbLine
 10
519.7499847412108
 20
410.0
 30
0.0
 11
519.7499847412108
 21
413.8999938964841
 31
0.0
  0
MTEXT
  5
15E
330
12C
100
AcDbEntity
  8
Rámeček (ISO)
100
AcDbMText
 10
556.0853922448459
 20
410.4
 30
0.0
 40
3.499999940395355
 41
0.0
 71
     7
 72
     1
  1
1
  7
Text poznámky (ISO)
 73
     1
 44
1.0
  0
MTEXT
  5
15F
330
12C
100
AcDbEntity
  8
Rámeček (ISO)
100
AcDbMText
 10
556.0853922448459
 20
6.100000059604642
 30
0.0
 40
3.499999940395355
 41
0.0
 71
     7
 72
     1
  1
1
  7
Text poznámky (ISO)
 73
     1
 44
1.0
  0
MTEXT
  5
160
330
12C
100
AcDbEntity
  8
Rámeček (ISO)
100
AcDbMText
 10
481.5637915541735
 20
410.4
 30
0.0
 40
3.499999940395355
 41
0.0
 71
     7
 72
     1
  1
2
  7
Text poznámky (ISO)
 73
     1
 44
1.0
  0
MTEXT
  5
161
330
12C
100
AcDbEntity
  8
Rámeček (ISO)
100
AcDbMText
 10
481.5637915541735
 20
6.100000059604642
 30
0.0
 40
3.499999940395355
 41
0.0
 71
     7
 72
     1
  1
2
  7
Text poznámky (ISO)
 73
     1
 44
1.0
  0
MTEXT
  5
162
330
12C
100
AcDbEntity
  8
Rámeček (ISO)
100
AcDbMText
 10
407.2857914829701
 20
410.3262560764327
 30
0.0
 40
3.499999940395355
 41
0.0
 71
     7
 72
     1
  1
3
  7
Text poznámky (ISO)
 73
     1
 44
1.0
  0
MTEXT
  5
163
330
12C
100
AcDbEntity
  8
Rámeček (ISO)
100
AcDbMText
 10
407.2857914829701
 20
6.026256136037407
 30
0.0
 40
3.499999940395355
 41
0.0
 71
     7
 72
     1
  1
3
  7
Text poznámky (ISO)
 73
     1
 44
1.0
  0
MTEXT
  5
164
330
12C
100
AcDbEntity
  8
Rámeček (ISO)
100
AcDbMText
 10
332.9041911483145
 20
410.4
 30
0.0
 40
3.499999940395355
 41
0.0
 71
     7
 72
     1
  1
4
  7
Text poznámky (ISO)
 73
     1
 44
1.0
  0
MTEXT
  5
165
330
12C
100
AcDbEntity
  8
Rámeček (ISO)
100
AcDbMText
 10
332.9041911483145
 20
6.100000059604642
 30
0.0
 40
3.499999940395355
 41
0.0
 71
     7
 72
     1
  1
4
  7
Text poznámky (ISO)
 73
     1
 44
1.0
  0
MTEXT
  5
166
330
12C
100
AcDbEntity
  8
Rámeček (ISO)
100
AcDbMText
 10
258.8501916467381
 20
410.3262560764327
 30
0.0
 40
3.499999940395355
 41
0.0
 71
     7
 72
     1
  1
5
  7
Text poznámky (ISO)
 73
     1
 44
1.0
  0
MTEXT
  5
167
330
12C
100
AcDbEntity
  8
Rámeček (ISO)
100
AcDbMText
 10
258.8501916467381
 20
6.026256136037407
 30
0.0
 40
3.499999940395355
 41
0.0
 71
     7
 72
     1
  1
5
  7
Text poznámky (ISO)
 73
     1
 44
1.0
  0
MTEXT
  5
168
330
12C
100
AcDbEntity
  8
Rámeček (ISO)
100
AcDbMText
 10
184.5077914117669
 20
410.3262560764327
 30
0.0
 40
3.499999940395355
 41
0.0
 71
     7
 72
     1
  1
6
  7
Text poznámky (ISO)
 73
     1
 44
1.0
  0
MTEXT
  5
169
330
12C
100
AcDbEntity
  8
Rámeček (ISO)
100
AcDbMText
 10
184.5077914117669
 20
6.026256136037407
 30
0.0
 40
3.499999940395355
 41
0.0
 71
     7
 72
     1
  1
6
  7
Text poznámky (ISO)
 73
     1
 44
1.0
  0
MTEXT
  5
16A
330
12C
100
AcDbEntity
  8
Rámeček (ISO)
100
AcDbMText
 10
110.2913914972109
 20
410.4
 30
0.0
 40
3.499999940395355
 41
0.0
 71
     7
 72
     1
  1
7
  7
Text poznámky (ISO)
 73
     1
 44
1.0
  0
MTEXT
  5
16B
330
12C
100
AcDbEntity
  8
Rámeček (ISO)
100
AcDbMText
 10
110.2913914972109
 20
6.100000059604642
 30
0.0
 40
3.499999940395355
 41
0.0
 71
     7
 72
     1
  1
7
  7
Text poznámky (ISO)
 73
     1
 44
1.0
  0
MTEXT
  5
16C
330
12C
100
AcDbEntity
  8
Rámeček (ISO)
100
AcDbMText
 10
35.9825913476839
 20
410.3205834697932
 30
0.0
 40
3.499999940395355
 41
0.0
 71
     7
 72
     1
  1
8
  7
Text poznámky (ISO)
 73
     1
 44
1.0
  0
MTEXT
  5
16D
330
12C
100
AcDbEntity
  8
Rámeček (ISO)
100
AcDbMText
 10
35.9825913476839
 20
6.020583529397844
 30
0.0
 40
3.499999940395355
 41
0.0
 71
     7
 72
     1
  1
8
  7
Text poznámky (ISO)
 73
     1
 44
1.0
  0
LINE
  5
16E
330
12C
100
AcDbEntity
  8
Rámeček (ISO)
100
AcDbLine
 10
10.0
 20
70.0
 30
0.0
 11
6.100000143051147
 21
70.0
 31
0.0
  0
LINE
  5
16F
330
12C
100
AcDbEntity
  8
Rámeček (ISO)
100
AcDbLine
 10
584.0000152587889
 20
70.0
 30
0.0
 11
587.9000091552732
 21
70.0
 31
0.0
  0
LINE
  5
170
330
12C
100
AcDbEntity
  8
Rámeček (ISO)
100
AcDbLine
 10
10.0
 20
140.0
 30
0.0
 11
6.100000143051147
 21
140.0
 31
0.0
  0
LINE
  5
171
330
12C
100
AcDbEntity
  8
Rámeček (ISO)
100
AcDbLine
 10
584.0000152587889
 20
140.0
 30
0.0
 11
587.9000091552732
 21
140.0
 31
0.0
  0
LINE
  5
172
330
12C
100
AcDbEntity
  8
Rámeček (ISO)
100
AcDbLine
 10
10.0
 20
280.0
 30
0.0
 11
6.100000143051147
 21
280.0
 31
0.0
  0
LINE
  5
173
330
12C
100
AcDbEntity
  8
Rámeček (ISO)
100
AcDbLine
 10
584.0000152587889
 20
280.0
 30
0.0
 11
587.9000091552732
 21
280.0
 31
0.0
  0
LINE
  5
174
330
12C
100
AcDbEntity
  8
Rámeček (ISO)
100
AcDbLine
 10
10.0
 20
350.0
 30
0.0
 11
6.100000143051147
 21
350.0
 31
0.0
  0
LINE
  5
175
330
12C
100
AcDbEntity
  8
Rámeček (ISO)
100
AcDbLine
 10
584.0000152587889
 20
350.0
 30
0.0
 11
587.9000091552732
 21
350.0
 31
0.0
  0
MTEXT
  5
176
330
12C
100
AcDbEntity
  8
Rámeček (ISO)
100
AcDbMText
 10
6.361230343933396
 20
33.25000002980232
 30
0.0
 40
3.499999940395355
 41
0.0
 71
     7
 72
     1
  1
A
  7
Text poznámky (ISO)
 73
     1
 44
1.0
  0
MTEXT
  5
177
330
12C
100
AcDbEntity
  8
Rámeček (ISO)
100
AcDbMText
 10
584.6612302843287
 20
33.25000002980232
 30
0.0
 40
3.499999940395355
 41
0.0
 71
     7
 72
     1
  1
A
  7
Text poznámky (ISO)
 73
     1
 44
1.0
  0
MTEXT
  5
178
330
12C
100
AcDbEntity
  8
Rámeček (ISO)
100
AcDbMText
 10
6.781848468328937
 20
103.2500000298023
 30
0.0
 40
3.499999940395355
 41
0.0
 71
     7
 72
     1
  1
B
  7
Text poznámky (ISO)
 73
     1
 44
1.0
  0
MTEXT
  5
179
330
12C
100
AcDbEntity
  8
Rámeček (ISO)
100
AcDbMText
 10
585.0818484087242
 20
103.2500000298023
 30
0.0
 40
3.499999940395355
 41
0.0
 71
     7
 72
     1
  1
B
  7
Text poznámky (ISO)
 73
     1
 44
1.0
  0
MTEXT
  5
17A
330
12C
100
AcDbEntity
  8
Rámeček (ISO)
100
AcDbMText
 10
6.558903094188357
 20
173.1876013241708
 30
0.0
 40
3.499999940395355
 41
0.0
 71
     7
 72
     1
  1
C
  7
Text poznámky (ISO)
 73
     1
 44
1.0
  0
MTEXT
  5
17B
330
12C
100
AcDbEntity
  8
Rámeček (ISO)
100
AcDbMText
 10
584.8589030345837
 20
173.1876013241708
 30
0.0
 40
3.499999940395355
 41
0.0
 71
     7
 72
     1
  1
C
  7
Text poznámky (ISO)
 73
     1
 44
1.0
  0
MTEXT
  5
17C
330
12C
100
AcDbEntity
  8
Rámeček (ISO)
100
AcDbMText
 10
6.56770745709084
 20
243.2500000298023
 30
0.0
 40
3.499999940395355
 41
0.0
 71
     7
 72
     1
  1
D
  7
Text poznámky (ISO)
 73
     1
 44
1.0
  0
MTEXT
  5
17D
330
12C
100
AcDbEntity
  8
Rámeček (ISO)
100
AcDbMText
 10
584.8677073974861
 20
243.2500000298023
 30
0.0
 40
3.499999940395355
 41
0.0
 71
     7
 72
     1
  1
D
  7
Text poznámky (ISO)
 73
     1
 44
1.0
  0
MTEXT
  5
17E
330
12C
100
AcDbEntity
  8
Rámeček (ISO)
100
AcDbMText
 10
6.849919803883061
 20
313.2500000298023
 30
0.0
 40
3.499999940395355
 41
0.0
 71
     7
 72
     1
  1
E
  7
Text poznámky (ISO)
 73
     1
 44
1.0
  0
MTEXT
  5
17F
330
12C
100
AcDbEntity
  8
Rámeček (ISO)
100
AcDbMText
 10
585.1499197442782
 20
313.2500000298023
 30
0.0
 40
3.499999940395355
 41
0.0
 71
     7
 72
     1
  1
E
  7
Text poznámky (ISO)
 73
     1
 44
1.0
  0
MTEXT
  5
180
330
12C
100
AcDbEntity
  8
Rámeček (ISO)
100
AcDbMText
 10
6.944936015154347
 20
383.2500000298023
 30
0.0
 40
3.499999940395355
 41
0.0
 71
     7
 72
     1
  1
F
  7
Text poznámky (ISO)
 73
     1
 44
1.0
  0
MTEXT
  5
181
330
12C
100
AcDbEntity
  8
Rámeček (ISO)
100
AcDbMText
 10
585.2449359555496
 20
383.2500000298023
 30
0.0
 40
3.499999940395355
 41
0.0
 71
     7
 72
     1
  1
F
  7
Text poznámky (ISO)
 73
     1
 44
1.0
  0
ENDBLK
  5
12E
330
12C
100
AcDbEntity
  8
0
100
AcDbBlockEnd
  0
BLOCK
  5
184
330
183
100
AcDbEntity
  8
0
100
AcDbBlockBegin
  2
Rohová razítka ACO-razitko
 70
     2
 10
0.0
 20
0.0
 30
0.0
  3
Rohová razítka ACO-razitko
  1

  0
LINE
  5
186
330
183
100
AcDbEntity
  8
KOPF
  6
Continuous
370
    25
100
AcDbLine
 10
264.0
 20
94.01203200000001
 30
0.0
 11
264.0
 21
74.00000000000003
 31
0.0
  0
LINE
  5
187
330
183
100
AcDbEntity
  8
KOPF
  6
Continuous
370
    25
100
AcDbLine
 10
264.0
 20
94.01203200000001
 30
0.0
 11
264.0
 21
74.00000000000003
 31
0.0
  0
CIRCLE
  5
188
330
183
100
AcDbEntity
  8
TEXT50
  6
Continuous
370
    25
100
AcDbCircle
 10
247.5054493575618
 20
83.04852954632861
 30
0.0
 40
1.979948192651899
  0
LINE
  5
189
330
183
100
AcDbEntity
  8
TEXT50
  6
Continuous
370
    25
100
AcDbLine
 10
262.4910595621649
 20
85.02847773898061
 30
0.0
 11
262.4910595621649
 21
81.06858135367653
 31
0.0
  0
LINE
  5
18A
330
183
100
AcDbEntity
  8
TEXT50
  6
Continuous
370
    25
100
AcDbLine
 10
253.9413433929653
 20
87.07146289795376
 30
0.0
 11
253.9413433929653
 21
79.02559619470344
 31
0.0
  0
LINE
  5
18B
330
183
100
AcDbEntity
  8
TEXT50
  6
Continuous
370
    25
100
AcDbLine
 10
262.4910595621649
 20
85.02847773898061
 30
0.0
 11
253.9413433929653
 21
87.07146289795376
 31
0.0
  0
CIRCLE
  5
18C
330
183
100
AcDbEntity
  8
TEXT50
  6
Continuous
370
    25
100
AcDbCircle
 10
247.5054493575618
 20
83.04852954632861
 30
0.0
 40
4.022933351625178
  0
LINE
  5
18D
330
183
100
AcDbEntity
  8
TEXT50
  6
Continuous
370
    25
100
AcDbLine
 10
253.9413433929653
 20
79.02559619470344
 30
0.0
 11
262.4910595621649
 21
81.06858135367653
 31
0.0
  0
CIRCLE
  5
18E
330
183
100
AcDbEntity
  8
TEXT35
  6
Continuous
370
    25
100
AcDbCircle
 10
221.0936673107637
 20
101.9131972309053
 30
0.0
 40
2.281499999999998
  0
CIRCLE
  5
18F
330
183
100
AcDbEntity
  8
TEXT35
  6
Continuous
370
    25
100
AcDbCircle
 10
221.0936673107637
 20
101.9131972309053
 30
0.0
 40
1.579499999999999
  0
ARC
  5
190
330
183
100
AcDbEntity
  8
TEXT35
  6
Continuous
370
    25
100
AcDbCircle
 10
214.6291610736662
 20
101.9131972309054
 30
0.0
 40
1.57950000000007
100
AcDbArc
 50
31.05580049908738
 51
329.9999999999987
  0
LINE
  5
191
330
183
100
AcDbEntity
  8
TEXT35
  6
Continuous
370
    25
100
AcDbLine
 10
215.9822639109751
 20
102.7280180465864
 30
0.0
 11
216.5902852082589
 21
103.0790593062462
 31
0.0
  0
ARC
  5
192
330
183
100
AcDbEntity
  8
TEXT35
  6
Continuous
370
    25
100
AcDbCircle
 10
214.6291610736662
 20
101.9131972309052
 30
0.0
 40
2.281500000000015
100
AcDbArc
 50
30.73091726592628
 51
330.0000000000017
  0
LINE
  5
193
330
183
100
AcDbEntity
  8
TEXT35
  6
Continuous
370
    25
100
AcDbLine
 10
216.6049980324005
 20
100.7724472309053
 30
0.0
 11
215.9970481989438
 21
101.1234472309053
 31
0.0
  0
LINE
  5
194
330
183
100
AcDbEntity
  8
TEXT35
  6
Continuous
370
    25
100
AcDbLine
 10
211.8347763192409
 20
111.6789659312995
 30
0.0
 11
211.8347763192409
 21
98.44416361029551
 31
0.0
  0
LINE
  5
195
330
183
100
AcDbEntity
  8
TEXT35
  6
Continuous
370
    25
100
AcDbLine
 10
211.8347763192409
 20
98.44416361029551
 30
0.0
 11
217.4235458280916
 21
98.44416361029551
 31
0.0
  0
LINE
  5
196
330
183
100
AcDbEntity
  8
TEXT35
  6
Continuous
370
    25
100
AcDbLine
 10
217.4235458280916
 20
98.44416361029551
 30
0.0
 11
217.4235458280916
 21
111.6789659312995
 31
0.0
  0
LINE
  5
197
330
183
100
AcDbEntity
  8
TEXT35
  6
Continuous
370
    25
100
AcDbLine
 10
217.4235458280916
 20
111.6789659312995
 30
0.0
 11
211.8347763192409
 21
111.6789659312995
 31
0.0
  0
LINE
  5
198
330
183
100
AcDbEntity
  8
TEXT35
  6
Continuous
370
    25
100
AcDbLine
 10
223.888052065189
 20
111.6789659312995
 30
0.0
 11
223.888052065189
 21
98.44416361029551
 31
0.0
  0
LINE
  5
199
330
183
100
AcDbEntity
  8
TEXT35
  6
Continuous
370
    25
100
AcDbLine
 10
223.888052065189
 20
98.44416361029551
 30
0.0
 11
218.2992825563384
 21
98.44416361029551
 31
0.0
  0
LINE
  5
19A
330
183
100
AcDbEntity
  8
TEXT35
  6
Continuous
370
    25
100
AcDbLine
 10
218.2992825563384
 20
98.44416361029551
 30
0.0
 11
218.2992825563384
 21
111.6789659312995
 31
0.0
  0
LINE
  5
19B
330
183
100
AcDbEntity
  8
TEXT35
  6
Continuous
370
    25
100
AcDbLine
 10
218.2992825563384
 20
111.6789659312995
 30
0.0
 11
223.888052065189
 21
111.6789659312995
 31
0.0
  0
ARC
  5
19C
330
183
100
AcDbEntity
  8
TEXT35
  6
Continuous
370
    25
100
AcDbCircle
 10
211.499154836569
 20
99.57623034270234
 30
0.0
 40
4.914000000000251
100
AcDbArc
 50
172.305837035409
 51
179.7113029220757
  0
LINE
  5
19D
330
183
100
AcDbEntity
  8
TEXT35
  6
Continuous
370
    25
100
AcDbLine
 10
206.6293963427935
 20
100.2341423522474
 30
0.0
 11
209.6999133303443
 21
100.2341423522474
 31
0.0
  0
ARC
  5
19E
330
183
100
AcDbEntity
  8
TEXT35
  6
Continuous
370
    25
100
AcDbCircle
 10
204.8301548365688
 20
99.57623034270323
 30
0.0
 40
4.914000000000132
100
AcDbArc
 50
0.2886970779141535
 51
7.694162964580896
  0
LINE
  5
19F
330
183
100
AcDbEntity
  8
TEXT35
  6
Continuous
370
    25
100
AcDbLine
 10
209.7440924568018
 20
99.60099048123304
 30
0.0
 11
210.4461002543538
 21
99.60099048123304
 31
0.0
  0
ARC
  5
1A0
330
183
100
AcDbEntity
  8
TEXT35
  6
Continuous
370
    25
100
AcDbCircle
 10
204.8301548365688
 20
99.5762303427033
 30
0.0
 40
5.616000000000016
100
AcDbArc
 50
0.2526096926473688
 51
53.57642635766914
  0
ARC
  5
1A1
330
183
100
AcDbEntity
  8
TEXT35
  6
Continuous
370
    25
100
AcDbCircle
 10
211.4991548365688
 20
99.57623034270323
 30
0.0
 40
5.616000000000023
100
AcDbArc
 50
126.4235736423304
 51
179.7473903073512
  0
LINE
  5
1A2
330
183
100
AcDbEntity
  8
TEXT35
  6
Continuous
370
    25
100
AcDbLine
 10
205.8832094187838
 20
99.60099048123304
 30
0.0
 11
206.5852172163358
 21
99.60099048123304
 31
0.0
  0
LINE
  5
1A3
330
183
100
AcDbEntity
  8
TEXT35
  6
Continuous
370
    25
100
AcDbLine
 10
205.3702700821435
 20
111.6789659312995
 30
0.0
 11
205.3702700821435
 21
98.44416361029551
 31
0.0
  0
LINE
  5
1A4
330
183
100
AcDbEntity
  8
TEXT35
  6
Continuous
370
    25
100
AcDbLine
 10
205.3702700821435
 20
98.44416361029551
 30
0.0
 11
210.9590395909941
 21
98.44416361029551
 31
0.0
  0
LINE
  5
1A5
330
183
100
AcDbEntity
  8
TEXT35
  6
Continuous
370
    25
100
AcDbLine
 10
210.9590395909941
 20
98.44416361029551
 30
0.0
 11
210.9590395909941
 21
111.6789659312995
 31
0.0
  0
LINE
  5
1A6
330
183
100
AcDbEntity
  8
TEXT35
  6
Continuous
370
    25
100
AcDbLine
 10
210.9590395909941
 20
111.6789659312995
 30
0.0
 11
205.3702700821435
 21
111.6789659312995
 31
0.0
  0
ARC
  5
1A7
330
183
100
AcDbEntity
  8
TEXT35
  6
Continuous
370
    25
100
AcDbCircle
 10
204.830154836569
 20
99.57623034270341
 30
0.0
 40
4.913999999999818
100
AcDbArc
 50
16.0658750272321
 51
47.26788995739759
  0
LINE
  5
1A8
330
183
100
AcDbEntity
  8
TEXT35
  6
Continuous
370
    25
100
AcDbLine
 10
209.5522343918387
 20
100.9361423522474
 30
0.0
 11
206.7770752812989
 21
100.9361423522474
 31
0.0
  0
ARC
  5
1A9
330
183
100
AcDbEntity
  8
TEXT35
  6
Continuous
370
    25
100
AcDbCircle
 10
211.4991548365683
 20
99.57623034270341
 30
0.0
 40
4.913999999999566
100
AcDbArc
 50
132.7321100425983
 51
163.9341249727667
  0
LINE
  5
1AA
330
183
100
AcDbEntity
  8
Nadpis (ISO)
100
AcDbLine
 10
299.0
 20
114.0
 30
0.0
 11
299.0
 21
45.0
 31
0.0
  0
LINE
  5
1AB
330
183
100
AcDbEntity
  8
Nadpis (ISO)
100
AcDbLine
 10
299.0
 20
45.0
 30
0.0
 11
117.0
 21
44.99999999999999
 31
0.0
  0
LINE
  5
1AC
330
183
100
AcDbEntity
  8
Nadpis (ISO)
100
AcDbLine
 10
117.0
 20
44.99999999999999
 30
0.0
 11
117.0
 21
114.0
 31
0.0
  0
LINE
  5
1AD
330
183
100
AcDbEntity
  8
Nadpis (ISO)
100
AcDbLine
 10
117.0
 20
114.0
 30
0.0
 11
299.0
 21
114.0
 31
0.0
  0
LINE
  5
1AE
330
183
100
AcDbEntity
  8
Nadpis (ISO)
100
AcDbLine
 10
199.0
 20
114.0
 30
0.0
 11
199.0
 21
93.99999999999998
 31
0.0
  0
LINE
  5
1AF
330
183
100
AcDbEntity
  8
KOPF
100
AcDbLine
 10
199.0
 20
104.0
 30
0.0
 11
117.0
 21
104.0
 31
0.0
  0
LINE
  5
1B0
330
183
100
AcDbEntity
  8
Nadpis (ISO)
100
AcDbLine
 10
199.0
 20
93.99999999999998
 30
0.0
 11
117.0
 21
93.99999999999996
 31
0.0
  0
LINE
  5
1B1
330
183
100
AcDbEntity
  8
KOPF
100
AcDbLine
 10
158.0
 20
93.99999999999998
 30
0.0
 11
158.0
 21
114.0
 31
0.0
  0
LINE
  5
1B2
330
183
100
AcDbEntity
  8
Nadpis (ISO)
100
AcDbLine
 10
199.0
 20
93.99999999999998
 30
0.0
 11
299.0
 21
93.99999999999998
 31
0.0
  0
LINE
  5
1B3
330
183
100
AcDbEntity
  8
Nadpis (ISO)
100
AcDbLine
 10
216.0
 20
94.00000000000003
 30
0.0
 11
216.0
 21
44.99999999999999
 31
0.0
  0
LINE
  5
1B4
330
183
100
AcDbEntity
  8
Nadpis (ISO)
100
AcDbLine
 10
299.0
 20
74.00000000000004
 30
0.0
 11
117.0
 21
73.99999999999998
 31
0.0
  0
LINE
  5
1B5
330
183
100
AcDbEntity
  8
Nadpis (ISO)
100
AcDbLine
 10
186.0
 20
94.0
 30
0.0
 11
186.0
 21
74.00000000000002
 31
0.0
  0
LINE
  5
1B6
330
183
100
AcDbEntity
  8
KOPF
100
AcDbLine
 10
137.0
 20
93.99999999999998
 30
0.0
 11
137.0
 21
74.0
 31
0.0
  0
LINE
  5
1B7
330
183
100
AcDbEntity
  8
KOPF
100
AcDbLine
 10
162.0
 20
93.99999999999998
 30
0.0
 11
162.0
 21
74.0
 31
0.0
  0
LINE
  5
1B8
330
183
100
AcDbEntity
  8
KOPF
100
AcDbLine
 10
186.0
 20
84.0
 30
0.0
 11
117.0
 21
83.99999999999996
 31
0.0
  0
LINE
  5
1B9
330
183
100
AcDbEntity
  8
KOPF
100
AcDbLine
 10
186.0
 20
79.0
 30
0.0
 11
117.0
 21
78.99999999999997
 31
0.0
  0
LINE
  5
1BA
330
183
100
AcDbEntity
  8
KOPF
100
AcDbLine
 10
186.0
 20
89.0
 30
0.0
 11
117.0
 21
88.99999999999996
 31
0.0
  0
LINE
  5
1BB
330
183
100
AcDbEntity
  8
KOPF
100
AcDbLine
 10
216.0
 20
50.0
 30
0.0
 11
299.0
 21
50.0
 31
0.0
  0
LINE
  5
1BC
330
183
100
AcDbEntity
  8
Nadpis (ISO)
100
AcDbLine
 10
216.0
 20
55.0
 30
0.0
 11
299.0
 21
55.0
 31
0.0
  0
LINE
  5
1BD
330
183
100
AcDbEntity
  8
KOPF
100
AcDbLine
 10
238.0000000000001
 20
93.99999999999998
 30
0.0
 11
238.0000000000001
 21
74.00000000000003
 31
0.0
  0
LINE
  5
1BE
330
183
100
AcDbEntity
  8
KOPF
100
AcDbLine
 10
238.0000000000001
 20
84.00000000000003
 30
0.0
 11
216.0
 21
84.00000000000003
 31
0.0
  0
LINE
  5
1BF
330
183
100
AcDbEntity
  8
Nadpis (ISO)
100
AcDbLine
 10
287.0
 20
74.00000000000004
 30
0.0
 11
287.0
 21
55.0
 31
0.0
  0
LINE
  5
1C0
330
183
100
AcDbEntity
  8
KOPF
100
AcDbLine
 10
289.0
 20
50.0
 30
0.0
 11
289.0
 21
45.0
 31
0.0
  0
LINE
  5
1C1
330
183
100
AcDbEntity
  8
Nadpis (ISO)
100
AcDbLine
 10
260.9160465310349
 20
50.0
 30
0.0
 11
260.9160465310349
 21
45.0
 31
0.0
  0
TEXT
  5
1C3
330
183
100
AcDbEntity
  8
Viditelná tenká (ISO)
100
AcDbText
 10
266.0
 20
84.97994933403729
 30
0.0
 40
1.539999991655349
  1
zum Zweck anderweitiger Benutzung
 41
0.7999999523162842
  7
Styl textu62
100
AcDbText
  0
TEXT
  5
1C5
330
183
100
AcDbEntity
  8
Viditelná tenká (ISO)
100
AcDbText
 10
266.0
 20
82.63814072439631
 30
0.0
 40
1.539999991655349
  1
mitgeteilt werden und bleibt unser
 41
0.7999999523162842
  7
Styl textu62
100
AcDbText
  0
TEXT
  5
1C6
330
183
100
AcDbEntity
  8
Viditelná tenká (ISO)
100
AcDbText
 10
266.0
 20
87.26106040199921
 30
0.0
 40
1.539999991655349
  1
noch dritten Personen, insbesondere
 41
0.7999999523162842
  7
Styl textu62
100
AcDbText
  0
TEXT
  5
1C7
330
183
100
AcDbEntity
  8
Viditelná tenká (ISO)
100
AcDbText
 10
266.0
 20
89.6282322587214
 30
0.0
 40
1.539999991655349
  1
Diese Zeichnung darf weder kopiert
 41
0.7999999523162842
  7
Styl textu62
100
AcDbText
  0
TEXT
  5
1C8
330
183
100
AcDbEntity
  8
Viditelná tenká (ISO)
100
AcDbText
 10
266.0
 20
80.37532604459597
 30
0.0
 40
1.539999991655349
  1
Eigentum.
 41
0.7999999523162842
  7
Styl textu62
100
AcDbText
  0
TEXT
  5
1CA
330
183
100
AcDbEntity
  8
Viditelná tenká (ISO)
100
AcDbText
 10
241.877559521167
 20
90.82431699999998
 30
0.0
 40
2.000000029802321
  1
Projektion: ISO-E
 41
0.7999999523162842
  7
Styl textu58
100
AcDbText
  0
TEXT
  5
1CC
330
183
100
AcDbEntity
  8
Viditelná tenká (ISO)
100
AcDbText
 10
266.0
 20
77.30982488917627
 30
0.0
 40
1.539999991655349
  1
Schutzvermerk nach DIN 34 beachten
 41
0.75
  7
Styl textu63
100
AcDbText
  0
TEXT
  5
1CD
330
183
100
AcDbEntity
  8
Viditelná tenká (ISO)
100
AcDbText
 10
236.2487793316645
 20
99.38243367792949
 30
0.0
 40
2.000000029802321
  1
582 22 Přibyslav
 41
0.7999999523162842
  7
Styl textu58
100
AcDbText
  0
TEXT
  5
1CF
330
183
100
AcDbEntity
  8
Viditelná tenká (ISO)
100
AcDbText
 10
261.6984261202779
 20
99.57784645000472
 30
0.0
 40
2.099999934434889
  1
Fax: 0451 / 482529
 41
0.7000000476837159
  7
Styl textu72
100
AcDbText
  0
TEXT
  5
1D0
330
183
100
AcDbEntity
  8
Viditelná tenká (ISO)
100
AcDbText
 10
236.5351154208068
 20
103.0087314099309
 30
0.0
 40
2.000000029802321
  1
Havličkova 260
 41
0.7999999523162842
  7
Styl textu58
100
AcDbText
  0
TEXT
  5
1D2
330
183
100
AcDbEntity
  8
TEXT35
100
AcDbText
 10
235.9801354774567
 20
108.2018007493417
 30
0.0
 40
3.000000119209288
  1
ACO Stavebni prvky k.s
 41
0.7999999523162842
  7
Styl textu75
100
AcDbText
  0
TEXT
  5
1D3
330
183
100
AcDbEntity
  8
Viditelná tenká (ISO)
100
AcDbText
 10
261.6456899832647
 20
102.9064533471121
 30
0.0
 40
2.099999934434889
  1
Tel.: 0451 / 491660
 41
0.7000000476837159
  7
Styl textu72
100
AcDbText
  0
MTEXT
  5
1D4
330
183
100
AcDbEntity
  8
Viditelná tenká (ISO)
100
AcDbMText
 10
217.3570092483237
 20
73.27889989032858
 30
0.0
 40
2.000000029802321
 41
0.0
 71
     1
 72
     1
  1
\fArial|b0|i0;\H2.0000;Zeichnung Nr.
  7
Text poznámky (ISO)
 73
     1
 44
1.0
  0
MTEXT
  5
1D5
330
183
100
AcDbEntity
  8
Viditelná tenká (ISO)
100
AcDbMText
 10
287.9433731401013
 20
72.84063462326732
 30
0.0
 40
2.000000029802321
 41
0.0
 71
     1
 72
     1
  1
\fArial|b0|i0;\H2.0000;Index
  7
Text poznámky (ISO)
 73
     1
 44
1.0
  0
MTEXT
  5
1D6
330
183
100
AcDbEntity
  8
Viditelná tenká (ISO)
100
AcDbMText
 10
217.1230582952341
 20
52.63510416823109
 30
0.0
 40
2.000000029802321
 41
0.0
 71
     1
 72
     1
  1
\fArial|b0|i0;\H2.0000;Ersatz fur\PErsatz durch
  7
Text poznámky (ISO)
 73
     2
 44
0.9442214369773862
  0
MTEXT
  5
1D7
330
183
100
AcDbEntity
  8
Viditelná tenká (ISO)
100
AcDbMText
 10
188.9161081342839
 20
93.0
 30
0.0
 40
2.000000029802321
 41
0.0
 71
     1
 72
     1
  1
\fArial|b0|i0;\H2.0000;Massstab
  7
Text poznámky (ISO)
 73
     1
 44
1.0
  0
MTEXT
  5
1D8
330
183
100
AcDbEntity
  8
Viditelná tenká (ISO)
100
AcDbMText
 10
217.0
 20
93.0
 30
0.0
 40
2.000000029802321
 41
0.0
 71
     1
 72
     1
  1
\fArial|b0|i0;\H2.0000;Masseinheit
  7
Text poznámky (ISO)
 73
     1
 44
1.0
  0
MTEXT
  5
1D9
330
183
100
AcDbEntity
  8
Viditelná tenká (ISO)
100
AcDbMText
 10
118.0
 20
113.0
 30
0.0
 40
2.000000029802321
 41
0.0
 71
     1
 72
     1
  1
\fArial|b0|i0;\H2.0000;Werkstoff.
  7
Text poznámky (ISO)
 73
     1
 44
1.0
  0
MTEXT
  5
1DA
330
183
100
AcDbEntity
  8
Viditelná tenká (ISO)
100
AcDbMText
 10
159.0
 20
113.0
 30
0.0
 40
2.000000029802321
 41
0.0
 71
     1
 72
     1
  1
\fArial|b0|i0;\H2.0000;Hmotnost
  7
Text poznámky (ISO)
 73
     1
 44
1.0
  0
MTEXT
  5
1DB
330
183
100
AcDbEntity
  8
Viditelná tenká (ISO)
100
AcDbMText
 10
118.0
 20
103.0
 30
0.0
 40
2.000000029802321
 41
0.0
 71
     1
 72
     1
  1
\fArial|b0|i0;\H2.0000;zul.Abweich.
  7
Text poznámky (ISO)
 73
     1
 44
1.0
  0
MTEXT
  5
1DC
330
183
100
AcDbEntity
  8
Viditelná tenká (ISO)
100
AcDbMText
 10
159.0
 20
103.0
 30
0.0
 40
2.000000029802321
 41
0.0
 71
     1
 72
     1
  1
\fArial|b0|i0;\H2.0000;Oberflache
  7
Text poznámky (ISO)
 73
     1
 44
1.0
  0
MTEXT
  5
1DD
330
183
100
AcDbEntity
  8
Viditelná tenká (ISO)
100
AcDbMText
 10
118.2064366962235
 20
87.52498463872976
 30
0.0
 40
2.000000029802321
 41
0.0
 71
     1
 72
     1
  1
\fArial|b0|i0;\H2.0000;Gezeichnet
  7
Text poznámky (ISO)
 73
     1
 44
1.0
  0
MTEXT
  5
1DE
330
183
100
AcDbEntity
  8
Viditelná tenká (ISO)
100
AcDbMText
 10
118.2064366962235
 20
82.79398756785594
 30
0.0
 40
2.000000029802321
 41
0.0
 71
     1
 72
     1
  1
\fArial|b0|i0;\H2.0000;Gepruft
  7
Text poznámky (ISO)
 73
     1
 44
1.0
  0
MTEXT
  5
1DF
330
183
100
AcDbEntity
  8
Viditelná tenká (ISO)
100
AcDbMText
 10
118.2064366962235
 20
77.59713566222233
 30
0.0
 40
2.000000029802321
 41
0.0
 71
     1
 72
     1
  1
\fArial|b0|i0;\H2.0000;Update
  7
Text poznámky (ISO)
 73
     1
 44
1.0
  0
MTEXT
  5
1E0
330
183
100
AcDbEntity
  8
Viditelná tenká (ISO)
100
AcDbMText
 10
143.0
 20
93.0
 30
0.0
 40
2.000000029802321
 41
0.0
 71
     1
 72
     1
  1
\fArial|b0|i0;\H2.0000;Datum
  7
Text poznámky (ISO)
 73
     1
 44
1.0
  0
MTEXT
  5
1E1
330
183
100
AcDbEntity
  8
Viditelná tenká (ISO)
100
AcDbMText
 10
170.0
 20
93.0
 30
0.0
 40
2.000000029802321
 41
0.0
 71
     1
 72
     1
  1
\fArial|b0|i0;\H2.0000;Name
  7
Text poznámky (ISO)
 73
     1
 44
1.0
  0
MTEXT
  5
1E2
102
{ACAD_XDICTIONARY
360
2F42
102
}
330
183
100
AcDbEntity
  8
Nadpis (ISO)
100
AcDbMText
 10
118.0
 20
71.0
 30
0.0
 40
3.499999940395355
 41
0.0
 71
     1
 72
     1
  1
Effidrain dvoud\U+00EDln\U+00E1  157/DN100 svisl\U+00E1 12mm p\U+0159\U+00EDruba bez ZU
  7
Text poznámky (ISO)
 73
     1
 44
1.0
  0
MTEXT
  5
1E3
330
183
100
AcDbEntity
  8
Nadpis (ISO)
100
AcDbMText
 10
138.6542642016321
 20
87.78242706242744
 30
0.0
 40
2.000000029802321
 41
0.0
 71
     1
 72
     1
  1
\fTahoma|b0|i0;\H2.0000;11.8.2009
  7
Text poznámky (ISO)
 73
     1
 44
1.0
  0
MTEXT
  5
1E4
330
183
100
AcDbEntity
  8
Nadpis (ISO)
100
AcDbMText
 10
118.9147684950603
 20
98.79632878646518
 30
0.0
 40
3.499999940395355
 41
0.0
 71
     1
 72
     1
  1
ISO 2768-m
  7
Text poznámky (ISO)
 73
     1
 44
1.0
  0
MTEXT
  5
1E5
330
183
100
AcDbEntity
  8
Nadpis (ISO)
100
AcDbMText
 10
162.5831033854
 20
99.20167780246003
 30
0.0
 40
3.499999940395355
 41
0.0
 71
     1
 72
     1
  1
DIN ISO 1302
  7
Text poznámky (ISO)
 73
     1
 44
1.0
  0
MTEXT
  5
1E6
330
183
100
AcDbEntity
  8
Nadpis (ISO)
100
AcDbMText
 10
262.4743825961981
 20
49.17778241269704
 30
0.0
 40
3.499999940395355
 41
0.0
 71
     1
 72
     1
  1
\fArial|b0|i0;\H3.5000;List:\fArial|b0|i0;\H3.5000;1 \fArial|b0|i0;\H3.5000;/\fArial|b0|i0;\H3.5000;1 
  7
Text poznámky (ISO)
 73
     1
 44
1.0
  0
MTEXT
  5
1E7
102
{ACAD_XDICTIONARY
360
2F44
102
}
330
183
100
AcDbEntity
  8
Nadpis (ISO)
100
AcDbMText
 10
159.4396788094336
 20
109.2360383310952
 30
0.0
 40
3.499999940395355
 41
29.10098367733216
 71
     1
 72
     1
  1
Nen\U+00ED k dispozici
  7
Text poznámky (ISO)
 73
     2
 44
0.9878841638565063
  0
ATTDEF
  5
1E9
102
{ACAD_XDICTIONARY
360
1F86
102
}
330
183
100
AcDbEntity
  8
Nadpis (ISO)
100
AcDbText
 10
287.4393862219839
 20
62.4856753668063
 30
0.0
 40
3.499999940395355
  1
000
  7
Styl textu9
100
AcDbAttributeDefinition
  3
ČÍSLO REVIZE
  2
ČÍSLO_REVIZE_001
 70
     0
  0
ATTDEF
  5
1ED
102
{ACAD_XDICTIONARY
360
1F89
102
}
330
183
100
AcDbEntity
  8
Nadpis (ISO)
100
AcDbText
 10
289.7753402652471
 20
46.32882590415592
 30
0.0
 40
2.000000029802321
  1
A2
  7
Styl textu40
100
AcDbAttributeDefinition
  3
Sheet Size
  2
Sheet_Size_001
 70
     0
  0
ATTDEF
  5
1EE
102
{ACAD_XDICTIONARY
360
1F8C
102
}
330
183
100
AcDbEntity
  8
Nadpis (ISO)
100
AcDbText
 10
230.1305737493188
 20
51.10091360311345
 30
0.0
 40
2.000000029802321
  1
C:\Inventor_DATA\Projekty\Guly\Effidrain\Effidrain sestava dvoudílná  157 svislá\408054.iam
  7
Styl textu40
100
AcDbAttributeDefinition
  3
FILENAME AND PATH
  2
FILENAME_AND_PATH_001
 70
     0
  0
ATTDEF
  5
1EF
102
{ACAD_XDICTIONARY
360
1F8F
102
}
330
183
100
AcDbEntity
  8
Nadpis (ISO)
100
AcDbText
 10
217.9059771674843
 20
62.42008065196634
 30
0.0
 40
3.499999940395355
  1
408054
  7
Text poznámky (ISO)
100
AcDbAttributeDefinition
  3
PART NUMBER
  2
PART_NUMBER_001
 70
     0
  0
ATTDEF
  5
1F0
102
{ACAD_XDICTIONARY
360
1F92
102
}
330
183
100
AcDbEntity
  8
Nadpis (ISO)
100
AcDbText
 10
118.0
 20
56.50000005960464
 30
0.0
 40
3.499999940395355
  1

  7
Text poznámky (ISO)
 11
118.0
 21
60.0
 31
0.0
100
AcDbAttributeDefinition
  3
PROJECT
  2
PROJECT
 70
     0
 74
     3
  0
ATTDEF
  5
1F2
102
{ACAD_XDICTIONARY
360
1F95
102
}
330
183
100
AcDbEntity
  8
Nadpis (ISO)
100
AcDbText
 10
117.8119543349687
 20
47.73407435882505
 30
0.0
 40
6.99999988079071
  1
408054
  7
Styl textu94
100
AcDbAttributeDefinition
  3
SKLADOVÉ ČÍSLO
  2
SKLADOVÉ_ČÍSLO_001
 70
     0
  0
ATTDEF
  5
1F3
102
{ACAD_XDICTIONARY
360
1F98
102
}
330
183
100
AcDbEntity
  8
Nadpis (ISO)
100
AcDbText
 10
117.5939056808251
 20
105.1756658592857
 30
0.0
 40
3.499999940395355
  1

  7
Text poznámky (ISO)
 11
117.5939056808251
 21
108.6756657996811
 31
0.0
100
AcDbAttributeDefinition
  3
MATERIAL
  2
MATERIAL
 70
     0
 74
     3
  0
ATTDEF
  5
1F4
102
{ACAD_XDICTIONARY
360
1F9B
102
}
330
183
100
AcDbEntity
  8
Nadpis (ISO)
100
AcDbText
 10
165.0470513532835
 20
85.78242703262512
 30
0.0
 40
2.000000029802321
  1
pklepetko
  7
Styl textu40
100
AcDbAttributeDefinition
  3
AUTHOR
  2
AUTHOR_001
 70
     0
  0
ATTDEF
  5
1F5
102
{ACAD_XDICTIONARY
360
1F9E
102
}
330
183
100
AcDbEntity
  8
Nadpis (ISO)
100
AcDbText
 10
189.1855699863978
 20
82.50038826992808
 30
0.0
 40
3.499999940395355
  1

  7
Text poznámky (ISO)
 11
189.1855699863978
 21
86.00038821032343
 31
0.0
100
AcDbAttributeDefinition
  3
VS_First
  2
VS_First
 70
     0
 74
     3
  0
ENDBLK
  5
185
330
183
100
AcDbEntity
  8
0
100
AcDbBlockEnd
  0
BLOCK
  5
FA8
330
FA7
100
AcDbEntity
  8
0
100
AcDbBlockBegin
  2
KUSOVNÍK
 70
     0
 10
0.0
 20
0.0
 30
0.0
  3
KUSOVNÍK
  1

  0
LINE
  5
FAA
330
FA7
100
AcDbEntity
  8
Značka (ISO)
100
AcDbLine
 10
584.0
 20
142.4870119690895
 30
0.0
 11
352.0373637012273
 21
142.4870119690895
 31
0.0
  0
LINE
  5
FAB
330
FA7
100
AcDbEntity
  8
Značka (ISO)
100
AcDbLine
 10
584.0
 20
142.4870119690895
 30
0.0
 11
584.0
 21
136.1383107721806
 31
0.0
  0
LINE
  5
FAC
330
FA7
100
AcDbEntity
  8
Značka (ISO)
100
AcDbLine
 10
352.0373637012273
 20
142.4870119690895
 30
0.0
 11
352.0373637012273
 21
136.1383107721806
 31
0.0
  0
MTEXT
  5
FAD
102
{ACAD_XDICTIONARY
360
2F46
102
}
330
FA7
100
AcDbEntity
  8
Značka (ISO)
100
AcDbMText
 10
457.475303439083
 20
136.8629860192537
 30
0.0
 40
3.499999940395355
 41
0.0
 71
     7
 72
     1
  1
KUSOVN\U+00CDK
  7
Text poznámky (DIN)
 73
     1
 44
1.0
  0
LINE
  5
FAF
330
FA7
100
AcDbEntity
  8
Značka (ISO)
100
AcDbLine
 10
584.0
 20
136.1383107721806
 30
0.0
 11
352.0373637012273
 21
136.1383107721806
 31
0.0
  0
LINE
  5
FB0
330
FA7
100
AcDbEntity
  8
Značka (ISO)
100
AcDbLine
 10
584.0
 20
136.1383107721806
 30
0.0
 11
584.0
 21
129.7896095752717
 31
0.0
  0
MTEXT
  5
FB1
102
{ACAD_XDICTIONARY
360
2F48
102
}
330
FA7
100
AcDbEntity
  8
Značka (ISO)
100
AcDbMText
 10
547.643282758806
 20
130.5142848223448
 30
0.0
 40
3.499999940395355
 41
0.0
 71
     7
 72
     1
  1
MATERI\U+00C1L
  7
Text poznámky (DIN)
 73
     1
 44
1.0
  0
LINE
  5
FB2
330
FA7
100
AcDbEntity
  8
Značka (ISO)
100
AcDbLine
 10
531.6720236269889
 20
136.1383107721806
 30
0.0
 11
531.6720236269889
 21
129.7896095752717
 31
0.0
  0
MTEXT
  5
FB3
330
FA7
100
AcDbEntity
  8
Značka (ISO)
100
AcDbMText
 10
507.9042948107188
 20
131.2139602035284
 30
0.0
 40
3.499999940395355
 41
0.0
 71
     7
 72
     1
  1
HMOTNOST
  7
Text poznámky (DIN)
 73
     1
 44
1.0
  0
LINE
  5
FB4
330
FA7
100
AcDbEntity
  8
Značka (ISO)
100
AcDbLine
 10
506.2720236269889
 20
136.1383107721806
 30
0.0
 11
506.2720236269889
 21
129.7896095752717
 31
0.0
  0
MTEXT
  5
FB5
102
{ACAD_XDICTIONARY
360
2F4A
102
}
330
FA7
100
AcDbEntity
  8
Značka (ISO)
100
AcDbMText
 10
482.6796194891397
 20
130.5142848223448
 30
0.0
 40
3.499999940395355
 41
0.0
 71
     7
 72
     1
  1
SKLADOV\U+00C9
  7
Text poznámky (DIN)
 73
     1
 44
1.0
  0
LINE
  5
FB6
330
FA7
100
AcDbEntity
  8
Značka (ISO)
100
AcDbLine
 10
480.8720236269889
 20
136.1383107721806
 30
0.0
 11
480.8720236269889
 21
129.7896095752717
 31
0.0
  0
MTEXT
  5
FB7
330
FA7
100
AcDbEntity
  8
Značka (ISO)
100
AcDbMText
 10
422.4044970653408
 20
131.2139602035284
 30
0.0
 40
3.499999940395355
 41
0.0
 71
     7
 72
     1
  1
POPIS
  7
Text poznámky (DIN)
 73
     1
 44
1.0
  0
LINE
  5
FB8
330
FA7
100
AcDbEntity
  8
Značka (ISO)
100
AcDbLine
 10
375.5756746820241
 20
136.1383107721806
 30
0.0
 11
375.5756746820241
 21
129.7896095752717
 31
0.0
  0
MTEXT
  5
FB9
330
FA7
100
AcDbEntity
  8
Značka (ISO)
100
AcDbMText
 10
369.3806729975978
 20
131.2139602035284
 30
0.0
 40
3.499999940395355
 41
0.0
 71
     7
 72
     1
  1
KS
  7
Text poznámky (DIN)
 73
     1
 44
1.0
  0
LINE
  5
FBA
330
FA7
100
AcDbEntity
  8
Značka (ISO)
100
AcDbLine
 10
368.1782722286016
 20
136.1383107721806
 30
0.0
 11
368.1782722286016
 21
129.7896095752717
 31
0.0
  0
MTEXT
  5
FBB
330
FA7
100
AcDbEntity
  8
Značka (ISO)
100
AcDbMText
 10
353.2397644702235
 20
131.2139602035284
 30
0.0
 40
3.499999940395355
 41
0.0
 71
     7
 72
     1
  1
POZICE
  7
Text poznámky (DIN)
 73
     1
 44
1.0
  0
LINE
  5
FBC
330
FA7
100
AcDbEntity
  8
Značka (ISO)
100
AcDbLine
 10
352.0373637012273
 20
136.1383107721806
 30
0.0
 11
352.0373637012273
 21
129.7896095752717
 31
0.0
  0
MTEXT
  5
FBD
330
FA7
100
AcDbEntity
  8
Značka (ISO)
100
AcDbMText
 10
532.874424395985
 20
124.8652590066195
 30
0.0
 40
3.499999940395355
 41
0.0
 71
     7
 72
     1
  1
AISI 304
  7
Text poznámky (DIN)
 73
     1
 44
1.0
  0
MTEXT
  5
FBE
102
{ACAD_XDICTIONARY
360
2F4C
102
}
330
FA7
100
AcDbEntity
  8
Značka (ISO)
100
AcDbMText
 10
507.474424395985
 20
123.6428564041853
 30
0.0
 40
3.499999940395355
 41
0.0
 71
     7
 72
     1
  1
P\U+0159\U+00EDstup 
  7
Text poznámky (DIN)
 73
     1
 44
1.0
  0
MTEXT
  5
FBF
102
{ACAD_XDICTIONARY
360
2F4E
102
}
330
FA7
100
AcDbEntity
  8
Značka (ISO)
100
AcDbMText
 10
507.474424395985
 20
118.342856541276
 30
0.0
 40
3.499999940395355
 41
0.0
 71
     7
 72
     1
  1
\U+010Dlena se 
  7
Text poznámky (DIN)
 73
     1
 44
1.0
  0
MTEXT
  5
FC0
102
{ACAD_XDICTIONARY
360
2F50
102
}
330
FA7
100
AcDbEntity
  8
Značka (ISO)
100
AcDbMText
 10
507.474424395985
 20
111.9941554218531
 30
0.0
 40
3.499999940395355
 41
0.0
 71
     7
 72
     1
  1
nezda\U+0159il
  7
Text poznámky (DIN)
 73
     1
 44
1.0
  0
MTEXT
  5
FC1
330
FA7
100
AcDbEntity
  8
Značka (ISO)
100
AcDbMText
 10
482.074424395985
 20
124.8652590066195
 30
0.0
 40
3.499999940395355
 41
0.0
 71
     7
 72
     1
  1
E23596
  7
Text poznámky (DIN)
 73
     1
 44
1.0
  0
MTEXT
  5
FC2
102
{ACAD_XDICTIONARY
360
2F52
102
}
330
FA7
100
AcDbEntity
  8
Značka (ISO)
100
AcDbMText
 10
376.7780754510204
 20
124.6915576606989
 30
0.0
 40
3.499999940395355
 41
0.0
 71
     7
 72
     1
  1
Effidrai dvoud\U+00EDln\U+00E1  157 svisl\U+00E1
  7
Text poznámky (DIN)
 73
     1
 44
1.0
  0
MTEXT
  5
FC3
330
FA7
100
AcDbEntity
  8
Značka (ISO)
100
AcDbMText
 10
371.3015742320898
 20
124.8652590066195
 30
0.0
 40
3.499999940395355
 41
0.0
 71
     7
 72
     1
  1
1
  7
Text poznámky (DIN)
 73
     1
 44
1.0
  0
MTEXT
  5
FC4
330
FA7
100
AcDbEntity
  8
Značka (ISO)
100
AcDbMText
 10
359.5324187416915
 20
124.8652590066195
 30
0.0
 40
3.499999940395355
 41
0.0
 71
     7
 72
     1
  1
1
  7
Text poznámky (DIN)
 73
     1
 44
1.0
  0
LINE
  5
FC5
330
FA7
100
AcDbEntity
  8
Značka (ISO)
100
AcDbLine
 10
584.0
 20
129.7896095752717
 30
0.0
 11
352.0373637012273
 21
129.7896095752717
 31
0.0
  0
MTEXT
  5
FC6
330
FA7
100
AcDbEntity
  8
Značka (ISO)
100
AcDbMText
 10
532.572023626989
 20
105.8191554158926
 30
0.0
 40
3.499999940395355
 41
0.0
 71
     7
 72
     1
  1
 
  7
Text poznámky (DIN)
 73
     1
 44
1.0
  0
MTEXT
  5
FC7
330
FA7
100
AcDbEntity
  8
Značka (ISO)
100
AcDbMText
 10
507.474424395985
 20
104.770454159379
 30
0.0
 40
3.499999940395355
 41
0.0
 71
     7
 72
     1
  1
0,476 kg
  7
Text poznámky (DIN)
 73
     1
 44
1.0
  0
MTEXT
  5
FC8
330
FA7
100
AcDbEntity
  8
Značka (ISO)
100
AcDbMText
 10
482.074424395985
 20
105.8191554158926
 30
0.0
 40
3.499999940395355
 41
0.0
 71
     7
 72
     1
  1
408205
  7
Text poznámky (DIN)
 73
     1
 44
1.0
  0
MTEXT
  5
FC9
102
{ACAD_XDICTIONARY
360
2F54
102
}
330
FA7
100
AcDbEntity
  8
Značka (ISO)
100
AcDbMText
 10
376.7780754510204
 20
104.5967528134585
 30
0.0
 40
3.499999940395355
 41
0.0
 71
     7
 72
     1
  1
Effidrain dren\U+00E1\U+017En\U+00ED krou\U+017Eek komplet 157 + 
  7
Text poznámky (DIN)
 73
     1
 44
1.0
  0
MTEXT
  5
FCA
330
FA7
100
AcDbEntity
  8
Značka (ISO)
100
AcDbMText
 10
376.7780754510204
 20
99.2967529505492
 30
0.0
 40
3.499999940395355
 41
0.0
 71
     7
 72
     1
  1
karton
  7
Text poznámky (DIN)
 73
     1
 44
1.0
  0
MTEXT
  5
FCB
330
FA7
100
AcDbEntity
  8
Značka (ISO)
100
AcDbMText
 10
371.3015742320898
 20
105.8191554158926
 30
0.0
 40
3.499999940395355
 41
0.0
 71
     7
 72
     1
  1
1
  7
Text poznámky (DIN)
 73
     1
 44
1.0
  0
MTEXT
  5
FCC
330
FA7
100
AcDbEntity
  8
Značka (ISO)
100
AcDbMText
 10
359.186192798976
 20
105.8191554158926
 30
0.0
 40
3.499999940395355
 41
0.0
 71
     7
 72
     1
  1
2
  7
Text poznámky (DIN)
 73
     1
 44
1.0
  0
LINE
  5
FCD
330
FA7
100
AcDbEntity
  8
Značka (ISO)
100
AcDbLine
 10
584.0
 20
110.7435059845448
 30
0.0
 11
352.0373637012273
 21
110.7435059845448
 31
0.0
  0
MTEXT
  5
FCE
330
FA7
100
AcDbEntity
  8
Značka (ISO)
100
AcDbMText
 10
532.874424395985
 20
93.12175302207476
 30
0.0
 40
3.499999940395355
 41
0.0
 71
     7
 72
     1
  1
PVC-U
  7
Text poznámky (DIN)
 73
     1
 44
1.0
  0
MTEXT
  5
FCF
330
FA7
100
AcDbEntity
  8
Značka (ISO)
100
AcDbMText
 10
507.474424395985
 20
92.07305176556117
 30
0.0
 40
3.499999940395355
 41
0.0
 71
     7
 72
     1
  1
0,069 kg
  7
Text poznámky (DIN)
 73
     1
 44
1.0
  0
MTEXT
  5
FD0
330
FA7
100
AcDbEntity
  8
Značka (ISO)
100
AcDbMText
 10
482.074424395985
 20
93.12175302207476
 30
0.0
 40
3.499999940395355
 41
0.0
 71
     7
 72
     1
  1
NM 6702
  7
Text poznámky (DIN)
 73
     1
 44
1.0
  0
MTEXT
  5
FD1
102
{ACAD_XDICTIONARY
360
2F56
102
}
330
FA7
100
AcDbEntity
  8
Značka (ISO)
100
AcDbMText
 10
376.7780754510204
 20
91.8993504196406
 30
0.0
 40
3.499999940395355
 41
0.0
 71
     7
 72
     1
  1
n\U+00E1vlek sunap-DN100
  7
Text poznámky (DIN)
 73
     1
 44
1.0
  0
MTEXT
  5
FD2
330
FA7
100
AcDbEntity
  8
Značka (ISO)
100
AcDbMText
 10
371.3015742320898
 20
93.12175302207476
 30
0.0
 40
3.499999940395355
 41
0.0
 71
     7
 72
     1
  1
1
  7
Text poznámky (DIN)
 73
     1
 44
1.0
  0
MTEXT
  5
FD3
330
FA7
100
AcDbEntity
  8
Značka (ISO)
100
AcDbMText
 10
359.186192798976
 20
93.12175302207476
 30
0.0
 40
3.499999940395355
 41
0.0
 71
     7
 72
     1
  1
3
  7
Text poznámky (DIN)
 73
     1
 44
1.0
  0
LINE
  5
FD4
330
FA7
100
AcDbEntity
  8
Značka (ISO)
100
AcDbLine
 10
584.0
 20
98.04610359072693
 30
0.0
 11
352.0373637012273
 21
98.04610359072693
 31
0.0
  0
MTEXT
  5
FD5
102
{ACAD_XDICTIONARY
360
2F58
102
}
330
FA7
100
AcDbEntity
  8
Značka (ISO)
100
AcDbMText
 10
532.874424395985
 20
85.55064922273166
 30
0.0
 40
3.499999940395355
 41
0.0
 71
     7
 72
     1
  1
Pap\U+00EDr
  7
Text poznámky (DIN)
 73
     1
 44
1.0
  0
MTEXT
  5
FD6
330
FA7
100
AcDbEntity
  8
Značka (ISO)
100
AcDbMText
 10
507.474424395985
 20
86.07175311148173
 30
0.0
 40
3.499999940395355
 41
0.0
 71
     7
 72
     1
  1
0,001
  7
Text poznámky (DIN)
 73
     1
 44
1.0
  0
MTEXT
  5
FD7
330
FA7
100
AcDbEntity
  8
Značka (ISO)
100
AcDbMText
 10
482.074424395985
 20
86.77305182516581
 30
0.0
 40
3.499999940395355
 41
0.0
 71
     7
 72
     1
  1
91018
  7
Text poznámky (DIN)
 73
     1
 44
1.0
  0
MTEXT
  5
FD8
102
{ACAD_XDICTIONARY
360
2F5A
102
}
330
FA7
100
AcDbEntity
  8
Značka (ISO)
100
AcDbMText
 10
376.7780754510204
 20
85.55064922273166
 30
0.0
 40
3.499999940395355
 41
0.0
 71
     7
 72
     1
  1
Etiketa samolep\U+00EDc\U+00ED 80 x 17 st\U+0159\U+00EDbrn\U+00E1/\U+010Derven\U+00E1
  7
Text poznámky (DIN)
 73
     1
 44
1.0
  0
MTEXT
  5
FD9
330
FA7
100
AcDbEntity
  8
Značka (ISO)
100
AcDbMText
 10
371.3015742320898
 20
86.77305182516581
 30
0.0
 40
3.499999940395355
 41
0.0
 71
     7
 72
     1
  1
1
  7
Text poznámky (DIN)
 73
     1
 44
1.0
  0
MTEXT
  5
FDA
330
FA7
100
AcDbEntity
  8
Značka (ISO)
100
AcDbMText
 10
359.010868120555
 20
86.77305182516581
 30
0.0
 40
3.499999940395355
 41
0.0
 71
     7
 72
     1
  1
4
  7
Text poznámky (DIN)
 73
     1
 44
1.0
  0
LINE
  5
FDB
330
FA7
100
AcDbEntity
  8
Značka (ISO)
100
AcDbLine
 10
584.0
 20
91.69740239381795
 30
0.0
 11
352.0373637012273
 21
91.69740239381795
 31
0.0
  0
MTEXT
  5
FDC
330
FA7
100
AcDbEntity
  8
Značka (ISO)
100
AcDbMText
 10
532.874424395985
 20
80.42435062825687
 30
0.0
 40
3.499999940395355
 41
0.0
 71
     7
 72
     1
  1
Mosaz
  7
Text poznámky (DIN)
 73
     1
 44
1.0
  0
MTEXT
  5
FDD
330
FA7
100
AcDbEntity
  8
Značka (ISO)
100
AcDbMText
 10
507.474424395985
 20
79.37564937174328
 30
0.0
 40
3.499999940395355
 41
0.0
 71
     7
 72
     1
  1
0,005 kg
  7
Text poznámky (DIN)
 73
     1
 44
1.0
  0
MTEXT
  5
FDE
330
FA7
100
AcDbEntity
  8
Značka (ISO)
100
AcDbMText
 10
482.074424395985
 20
80.42435062825687
 30
0.0
 40
3.499999940395355
 41
0.0
 71
     7
 72
     1
  1
90678
  7
Text poznámky (DIN)
 73
     1
 44
1.0
  0
MTEXT
  5
FDF
330
FA7
100
AcDbEntity
  8
Značka (ISO)
100
AcDbMText
 10
376.7780754510204
 20
80.42435062825687
 30
0.0
 40
3.499999940395355
 41
0.0
 71
     7
 72
     1
  1
Matice M8 mosaz DIN 934
  7
Text poznámky (DIN)
 73
     1
 44
1.0
  0
MTEXT
  5
FE0
330
FA7
100
AcDbEntity
  8
Značka (ISO)
100
AcDbMText
 10
371.3015742320898
 20
80.42435062825687
 30
0.0
 40
3.499999940395355
 41
0.0
 71
     7
 72
     1
  1
1
  7
Text poznámky (DIN)
 73
     1
 44
1.0
  0
MTEXT
  5
FE1
330
FA7
100
AcDbEntity
  8
Značka (ISO)
100
AcDbMText
 10
359.186192798976
 20
80.42435062825687
 30
0.0
 40
3.499999940395355
 41
0.0
 71
     7
 72
     1
  1
5
  7
Text poznámky (DIN)
 73
     1
 44
1.0
  0
LINE
  5
FE2
330
FA7
100
AcDbEntity
  8
Značka (ISO)
100
AcDbLine
 10
584.0
 20
85.34870119690902
 30
0.0
 11
352.0373637012273
 21
85.34870119690902
 31
0.0
  0
MTEXT
  5
FE3
330
FA7
100
AcDbEntity
  8
Značka (ISO)
100
AcDbMText
 10
532.874424395985
 20
74.07564943134793
 30
0.0
 40
3.499999940395355
 41
0.0
 71
     7
 72
     1
  1
Plast ABS
  7
Text poznámky (DIN)
 73
     1
 44
1.0
  0
MTEXT
  5
FE4
330
FA7
100
AcDbEntity
  8
Značka (ISO)
100
AcDbMText
 10
507.474424395985
 20
73.02694817483433
 30
0.0
 40
3.499999940395355
 41
0.0
 71
     7
 72
     1
  1
0,002 kg
  7
Text poznámky (DIN)
 73
     1
 44
1.0
  0
MTEXT
  5
FE5
330
FA7
100
AcDbEntity
  8
Značka (ISO)
100
AcDbMText
 10
482.074424395985
 20
74.07564943134793
 30
0.0
 40
3.499999940395355
 41
0.0
 71
     7
 72
     1
  1
91024
  7
Text poznámky (DIN)
 73
     1
 44
1.0
  0
MTEXT
  5
FE6
102
{ACAD_XDICTIONARY
360
2F5C
102
}
330
FA7
100
AcDbEntity
  8
Značka (ISO)
100
AcDbMText
 10
376.7780754510204
 20
72.85324682891377
 30
0.0
 40
3.499999940395355
 41
0.0
 71
     7
 72
     1
  1
krytka zem\U+00E1ku
  7
Text poznámky (DIN)
 73
     1
 44
1.0
  0
MTEXT
  5
FE7
330
FA7
100
AcDbEntity
  8
Značka (ISO)
100
AcDbMText
 10
371.3015742320898
 20
74.07564943134793
 30
0.0
 40
3.499999940395355
 41
0.0
 71
     7
 72
     1
  1
1
  7
Text poznámky (DIN)
 73
     1
 44
1.0
  0
MTEXT
  5
FE8
330
FA7
100
AcDbEntity
  8
Značka (ISO)
100
AcDbMText
 10
359.186192798976
 20
74.07564943134793
 30
0.0
 40
3.499999940395355
 41
0.0
 71
     7
 72
     1
  1
6
  7
Text poznámky (DIN)
 73
     1
 44
1.0
  0
LINE
  5
FE9
330
FA7
100
AcDbEntity
  8
Značka (ISO)
100
AcDbLine
 10
584.0
 20
79.00000000000007
 30
0.0
 11
352.0373637012273
 21
79.00000000000007
 31
0.0
  0
MTEXT
  5
FEA
102
{ACAD_XDICTIONARY
360
2F5E
102
}
330
FA7
100
AcDbEntity
  8
Značka (ISO)
100
AcDbMText
 10
532.874424395985
 20
66.50454563200482
 30
0.0
 40
3.499999940395355
 41
0.0
 71
     7
 72
     1
  1
Polykarbon\U+00E1t, kou\U+0159ov\U+00FD
  7
Text poznámky (DIN)
 73
     1
 44
1.0
  0
MTEXT
  5
FEB
330
FA7
100
AcDbEntity
  8
Značka (ISO)
100
AcDbMText
 10
507.474424395985
 20
66.67824697792538
 30
0.0
 40
3.499999940395355
 41
0.0
 71
     7
 72
     1
  1
0,020 kg
  7
Text poznámky (DIN)
 73
     1
 44
1.0
  0
MTEXT
  5
FEC
330
FA7
100
AcDbEntity
  8
Značka (ISO)
100
AcDbMText
 10
482.074424395985
 20
67.72694823443898
 30
0.0
 40
3.499999940395355
 41
0.0
 71
     7
 72
     1
  1
E29863
  7
Text poznámky (DIN)
 73
     1
 44
1.0
  0
MTEXT
  5
FED
102
{ACAD_XDICTIONARY
360
2F60
102
}
330
FA7
100
AcDbEntity
  8
Značka (ISO)
100
AcDbMText
 10
376.7780754510204
 20
66.50454563200482
 30
0.0
 40
3.499999940395355
 41
0.0
 71
     7
 72
     1
  1
Effidrain kryt plastov\U+00FD 157 pro balen\U+00ED PP 12mm
  7
Text poznámky (DIN)
 73
     1
 44
1.0
  0
MTEXT
  5
FEE
330
FA7
100
AcDbEntity
  8
Značka (ISO)
100
AcDbMText
 10
371.3015742320898
 20
67.72694823443898
 30
0.0
 40
3.499999940395355
 41
0.0
 71
     7
 72
     1
  1
1
  7
Text poznámky (DIN)
 73
     1
 44
1.0
  0
MTEXT
  5
FEF
330
FA7
100
AcDbEntity
  8
Značka (ISO)
100
AcDbMText
 10
359.1833927918557
 20
67.72694823443898
 30
0.0
 40
3.499999940395355
 41
0.0
 71
     7
 72
     1
  1
7
  7
Text poznámky (DIN)
 73
     1
 44
1.0
  0
LINE
  5
FF0
330
FA7
100
AcDbEntity
  8
Značka (ISO)
100
AcDbLine
 10
584.0
 20
72.65129880309112
 30
0.0
 11
352.0373637012273
 21
72.65129880309112
 31
0.0
  0
LINE
  5
FF1
330
FA7
100
AcDbEntity
  8
Značka (ISO)
100
AcDbLine
 10
584.0
 20
66.30259760618217
 30
0.0
 11
352.0373637012273
 21
66.30259760618217
 31
0.0
  0
LINE
  5
FF2
330
FA7
100
AcDbEntity
  8
Značka (ISO)
100
AcDbLine
 10
584.0
 20
129.7896095752717
 30
0.0
 11
584.0
 21
66.30259760618217
 31
0.0
  0
LINE
  5
FF3
330
FA7
100
AcDbEntity
  8
Značka (ISO)
100
AcDbLine
 10
531.6720236269889
 20
129.7896095752717
 30
0.0
 11
531.6720236269889
 21
66.30259760618217
 31
0.0
  0
LINE
  5
FF4
330
FA7
100
AcDbEntity
  8
Značka (ISO)
100
AcDbLine
 10
506.2720236269889
 20
129.7896095752717
 30
0.0
 11
506.2720236269889
 21
66.30259760618217
 31
0.0
  0
LINE
  5
FF5
330
FA7
100
AcDbEntity
  8
Značka (ISO)
100
AcDbLine
 10
480.8720236269889
 20
129.7896095752717
 30
0.0
 11
480.8720236269889
 21
66.30259760618217
 31
0.0
  0
LINE
  5
FF6
330
FA7
100
AcDbEntity
  8
Značka (ISO)
100
AcDbLine
 10
375.5756746820241
 20
129.7896095752717
 30
0.0
 11
375.5756746820241
 21
66.30259760618217
 31
0.0
  0
LINE
  5
FF7
330
FA7
100
AcDbEntity
  8
Značka (ISO)
100
AcDbLine
 10
368.1782722286016
 20
129.7896095752717
 30
0.0
 11
368.1782722286016
 21
66.30259760618217
 31
0.0
  0
LINE
  5
FF8
330
FA7
100
AcDbEntity
  8
Značka (ISO)
100
AcDbLine
 10
352.0373637012273
 20
129.7896095752717
 30
0.0
 11
352.0373637012273
 21
66.30259760618217
 31
0.0
  0
ENDBLK
  5
FA9
330
FA7
100
AcDbEntity
  8
0
100
AcDbBlockEnd
  0
BLOCK
  5
FFD
330
FFC
100
AcDbEntity
  8
0
100
AcDbBlockBegin
  2
*D17
 70
     1
 10
0.0
 20
0.0
 30
0.0
  3
*D17
  1

  0
LINE
  5
10D8
330
FFC
100
AcDbEntity
  8
Kóta (ISO)
440
 16777216
100
AcDbLine
 10
348.0371809041177
 20
389.3572896640811
 30
0.0
 11
540.0371809041179
 21
389.3572896640809
 31
0.0
  0
LINE
  5
10D9
330
FFC
100
AcDbEntity
  8
Kóta (ISO)
440
 16777216
100
AcDbLine
 10
386.0371809041179
 20
656.8962896640806
 30
0.0
 11
540.0371809041179
 21
656.8962896640806
 31
0.0
  0
LINE
  5
10DA
330
FFC
100
AcDbEntity
  8
Kóta (ISO)
440
 16777216
100
AcDbLine
 10
538.0371809041179
 20
394.357289664081
 30
0.0
 11
538.0371809041179
 21
651.8962896640807
 31
0.0
  0
SOLID
  5
10DB
330
FFC
100
AcDbEntity
  8
Kóta (ISO)
440
 16777216
100
AcDbTrace
 10
537.2038475707846
 20
394.357289664081
 30
0.0
 11
538.8705142374512
 21
394.357289664081
 31
0.0
 12
538.0371809041179
 22
389.3572896640809
 32
0.0
 13
538.0371809041179
 23
389.3572896640809
 33
0.0
  0
SOLID
  5
10DC
330
FFC
100
AcDbEntity
  8
Kóta (ISO)
440
 16777216
100
AcDbTrace
 10
537.2038475707846
 20
651.8962896640807
 30
0.0
 11
538.8705142374512
 21
651.8962896640807
 31
0.0
 12
538.0371809041179
 22
656.8962896640806
 32
0.0
 13
538.0371809041179
 23
656.8962896640806
 33
0.0
  0
MTEXT
  5
10DD
102
{ACAD_XDICTIONARY
360
2F62
102
}
330
FFC
100
AcDbEntity
  8
Kóta (ISO)
440
 16777216
100
AcDbMText
 10
527.6280230800749
 20
490.9659042595774
 30
0.0
 40
7.0
 41
0.0
 71
     1
 72
     1
  1
\A1;267,5{\H7.010400;\U+00B11}
  7
Text poznámky (ISO)
 11
0.0000000000000001
 21
1.0
 31
0.0
 73
     1
 44
1.0
  0
POINT
  5
10DE
330
FFC
100
AcDbEntity
  8
Defpoints
 62
     0
440
 16777216
100
AcDbPoint
 10
348.0371809041177
 20
389.3572896640811
 30
0.0
  0
POINT
  5
10DF
330
FFC
100
AcDbEntity
  8
Defpoints
 62
     0
440
 16777216
100
AcDbPoint
 10
386.0371809041179
 20
656.8962896640806
 30
0.0
  0
POINT
  5
10E0
330
FFC
100
AcDbEntity
  8
Defpoints
 62
     0
440
 16777216
100
AcDbPoint
 10
538.0371809041179
 20
656.8962896640806
 30
0.0
  0
ENDBLK
  5
FFE
330
FFC
100
AcDbEntity
  8
0
100
AcDbBlockEnd
  0
BLOCK
  5
10E3
330
10E2
100
AcDbEntity
  8
0
100
AcDbBlockBegin
  2
*D18
 70
     1
 10
0.0
 20
0.0
 30
0.0
  3
*D18
  1

  0
LINE
  5
11BA
330
10E2
100
AcDbEntity
  8
Kóta (ISO)
440
 16777216
100
AcDbLine
 10
240.037180904118
 20
397.3480012695683
 30
0.0
 11
240.037180904118
 21
363.3480012695683
 31
0.0
  0
LINE
  5
11BB
330
10E2
100
AcDbEntity
  8
Kóta (ISO)
440
 16777216
100
AcDbLine
 10
350.037180904118
 20
397.3480012695683
 30
0.0
 11
350.037180904118
 21
363.3480012695683
 31
0.0
  0
LINE
  5
11BC
330
10E2
100
AcDbEntity
  8
Kóta (ISO)
440
 16777216
100
AcDbLine
 10
245.0371809041181
 20
365.3480012695683
 30
0.0
 11
345.037180904118
 21
365.3480012695683
 31
0.0
  0
SOLID
  5
11BD
330
10E2
100
AcDbEntity
  8
Kóta (ISO)
440
 16777216
100
AcDbTrace
 10
245.0371809041181
 20
366.1813346029016
 30
0.0
 11
245.0371809041181
 21
364.5146679362349
 31
0.0
 12
240.037180904118
 22
365.3480012695683
 32
0.0
 13
240.037180904118
 23
365.3480012695683
 33
0.0
  0
SOLID
  5
11BE
330
10E2
100
AcDbEntity
  8
Kóta (ISO)
440
 16777216
100
AcDbTrace
 10
345.037180904118
 20
366.1813346029016
 30
0.0
 11
345.037180904118
 21
364.5146679362349
 31
0.0
 12
350.037180904118
 22
365.3480012695683
 32
0.0
 13
350.037180904118
 23
365.3480012695683
 33
0.0
  0
MTEXT
  5
11BF
102
{ACAD_XDICTIONARY
360
2F64
102
}
330
10E2
100
AcDbEntity
  8
Kóta (ISO)
440
 16777216
100
AcDbMText
 10
284.0976241546217
 20
374.8498387443837
 30
0.0
 40
7.0
 41
0.0
 71
     1
 72
     1
  1
\A1;{\U+00D8}110
  7
Text poznámky (ISO)
 73
     1
 44
1.0
  0
POINT
  5
11C0
330
10E2
100
AcDbEntity
  8
Defpoints
 62
     0
440
 16777216
100
AcDbPoint
 10
240.037180904118
 20
397.3480012695683
 30
0.0
  0
POINT
  5
11C1
330
10E2
100
AcDbEntity
  8
Defpoints
 62
     0
440
 16777216
100
AcDbPoint
 10
350.037180904118
 20
397.3480012695683
 30
0.0
  0
POINT
  5
11C2
330
10E2
100
AcDbEntity
  8
Defpoints
 62
     0
440
 16777216
100
AcDbPoint
 10
350.037180904118
 20
365.3480012695683
 30
0.0
  0
ENDBLK
  5
10E4
330
10E2
100
AcDbEntity
  8
0
100
AcDbBlockEnd
  0
BLOCK
  5
11C5
330
11C4
100
AcDbEntity
  8
0
100
AcDbBlockBegin
  2
*D19
 70
     1
 10
0.0
 20
0.0
 30
0.0
  3
*D19
  1

  0
LINE
  5
129C
330
11C4
100
AcDbEntity
  8
Kóta (ISO)
440
 16777216
100
AcDbLine
 10
242.0371809041183
 20
389.3572896640811
 30
0.0
 11
161.8720707772945
 21
389.3572896640811
 31
0.0
  0
LINE
  5
129D
330
11C4
100
AcDbEntity
  8
Kóta (ISO)
440
 16777216
100
AcDbLine
 10
233.0371809041179
 20
488.3572896640806
 30
0.0
 11
161.8720707772945
 21
488.3572896640806
 31
0.0
  0
LINE
  5
129E
330
11C4
100
AcDbEntity
  8
Kóta (ISO)
440
 16777216
100
AcDbLine
 10
163.8720707772945
 20
394.3572896640811
 30
0.0
 11
163.8720707772946
 21
483.3572896640807
 31
0.0
  0
SOLID
  5
129F
330
11C4
100
AcDbEntity
  8
Kóta (ISO)
440
 16777216
100
AcDbTrace
 10
163.0387374439612
 20
394.3572896640811
 30
0.0
 11
164.7054041106279
 21
394.3572896640811
 31
0.0
 12
163.8720707772945
 22
389.3572896640811
 32
0.0
 13
163.8720707772945
 23
389.3572896640811
 33
0.0
  0
SOLID
  5
12A0
330
11C4
100
AcDbEntity
  8
Kóta (ISO)
440
 16777216
100
AcDbTrace
 10
163.0387374439612
 20
483.3572896640807
 30
0.0
 11
164.7054041106279
 21
483.3572896640807
 31
0.0
 12
163.8720707772946
 22
488.3572896640806
 32
0.0
 13
163.8720707772946
 23
488.3572896640806
 33
0.0
  0
MTEXT
  5
12A1
330
11C4
100
AcDbEntity
  8
Kóta (ISO)
440
 16777216
100
AcDbMText
 10
155.0707034166497
 20
432.3569923499932
 30
0.0
 40
7.0
 41
0.0
 71
     1
 72
     1
  1
\A1;99
  7
Text poznámky (ISO)
 11
0.0000000000000001
 21
1.0
 31
0.0
 73
     1
 44
1.0
  0
POINT
  5
12A2
330
11C4
100
AcDbEntity
  8
Defpoints
 62
     0
440
 16777216
100
AcDbPoint
 10
242.0371809041183
 20
389.3572896640811
 30
0.0
  0
POINT
  5
12A3
330
11C4
100
AcDbEntity
  8
Defpoints
 62
     0
440
 16777216
100
AcDbPoint
 10
233.0371809041179
 20
488.3572896640806
 30
0.0
  0
POINT
  5
12A4
330
11C4
100
AcDbEntity
  8
Defpoints
 62
     0
440
 16777216
100
AcDbPoint
 10
163.8720707772946
 20
488.3572896640806
 30
0.0
  0
ENDBLK
  5
11C6
330
11C4
100
AcDbEntity
  8
0
100
AcDbBlockEnd
  0
BLOCK
  5
1C72
330
1C71
100
AcDbEntity
  8
0
100
AcDbBlockBegin
  2
Pozice1
 70
     0
 10
0.0
 20
0.0
 30
0.0
  3
Pozice1
  1

  0
LINE
  5
1C74
330
1C71
100
AcDbEntity
  8
Značka (ISO)
100
AcDbLine
 10
104.8173530780147
 20
364.7301924447966
 30
0.0
 11
107.2321676437374
 21
364.0831448320404
 31
0.0
  0
POLYLINE
  5
1C75
330
1C71
100
AcDbEntity
  8
Značka (ISO)
100
AcDb2dPolyline
 66
     1
 10
0.0
 20
0.0
 30
0.0
 70
   128
  0
VERTEX
  5
1C76
330
1C75
100
AcDbEntity
  8
Značka (ISO)
100
AcDbVertex
100
AcDb2dVertex
 10
104.6879482269287
 20
364.2472457885742
 30
0.0
  0
VERTEX
  5
1C77
330
1C75
100
AcDbEntity
  8
Značka (ISO)
100
AcDbVertex
100
AcDb2dVertex
 10
107.2321701049804
 20
364.083137512207
 30
0.0
  0
VERTEX
  5
1C79
330
1C75
100
AcDbEntity
  8
Značka (ISO)
100
AcDbVertex
100
AcDb2dVertex
 10
104.9467658996582
 20
365.2131652832031
 30
0.0
  0
VERTEX
  5
1C7A
330
1C75
100
AcDbEntity
  8
Značka (ISO)
100
AcDbVertex
100
AcDb2dVertex
 10
104.6879482269287
 20
364.2472457885742
 30
0.0
  0
SEQEND
  5
1C78
330
1C75
100
AcDbEntity
  8
Značka (ISO)
  0
SOLID
  5
1C7B
330
1C71
100
AcDbEntity
  8
Značka (ISO)
100
AcDbTrace
 10
104.6879482269287
 20
364.2472457885742
 30
0.0
 11
107.2321701049804
 21
364.083137512207
 31
0.0
 12
104.9467658996582
 22
365.2131652832031
 32
0.0
 13
104.6879482269287
 23
364.2472457885742
 33
0.0
  0
LINE
  5
1C7C
330
1C71
100
AcDbEntity
  8
Značka (ISO)
100
AcDbLine
 10
104.6879435554634
 20
364.247229531652
 30
0.0
 11
107.2321676437374
 21
364.0831448320404
 31
0.0
  0
LINE
  5
1C7D
330
1C71
100
AcDbEntity
  8
Značka (ISO)
100
AcDbLine
 10
107.2321676437374
 20
364.0831448320404
 30
0.0
 11
104.9467626005659
 21
365.2131553579411
 31
0.0
  0
LINE
  5
1C7E
330
1C71
100
AcDbEntity
  8
Značka (ISO)
100
AcDbLine
 10
104.9467626005659
 20
365.2131553579411
 30
0.0
 11
104.6879435554634
 21
364.247229531652
 31
0.0
  0
LINE
  5
1C7F
330
1C71
100
AcDbEntity
  8
Značka (ISO)
100
AcDbLine
 10
104.8173530780147
 20
364.7301924447966
 30
0.0
 11
82.2451451302148
 21
370.7783973357956
 31
0.0
  0
MTEXT
  5
1C80
330
1C71
100
AcDbEntity
  8
Značka (ISO)
100
AcDbMText
 10
74.37014548784268
 20
377.396204783706
 30
0.0
 40
5.24999976158142
 41
0.0
 71
     5
 72
     1
  1
2
  7
Text popisu (ISO)
 73
     1
 44
1.0
  0
LINE
  5
1C81
330
1C71
100
AcDbEntity
  8
Značka (ISO)
100
AcDbLine
 10
82.2451451302148
 20
370.7783973357956
 30
0.0
 11
66.49514584547056
 21
370.7783973357956
 31
0.0
  0
ENDBLK
  5
1C73
330
1C71
100
AcDbEntity
  8
0
100
AcDbBlockEnd
  0
BLOCK
  5
1C84
330
1C83
100
AcDbEntity
  8
0
100
AcDbBlockBegin
  2
Pozice2
 70
     0
 10
0.0
 20
0.0
 30
0.0
  3
Pozice2
  1

  0
LINE
  5
1C86
330
1C83
100
AcDbEntity
  8
Značka (ISO)
100
AcDbLine
 10
178.4334050177816
 20
207.0531415934281
 30
0.0
 11
176.0185904520589
 21
207.7001892061843
 31
0.0
  0
POLYLINE
  5
1C87
330
1C83
100
AcDbEntity
  8
Značka (ISO)
100
AcDb2dPolyline
 66
     1
 10
0.0
 20
0.0
 30
0.0
 70
   128
  0
VERTEX
  5
1C88
330
1C87
100
AcDbEntity
  8
Značka (ISO)
100
AcDbVertex
100
AcDb2dVertex
 10
178.5628128051758
 20
207.5361061096191
 30
0.0
  0
VERTEX
  5
1C89
330
1C87
100
AcDbEntity
  8
Značka (ISO)
100
AcDbVertex
100
AcDb2dVertex
 10
176.0185813903808
 20
207.7001953125
 30
0.0
  0
VERTEX
  5
1C8B
330
1C87
100
AcDbEntity
  8
Značka (ISO)
100
AcDbVertex
100
AcDb2dVertex
 10
178.3040046691894
 20
206.5701866149902
 30
0.0
  0
VERTEX
  5
1C8C
330
1C87
100
AcDbEntity
  8
Značka (ISO)
100
AcDbVertex
100
AcDb2dVertex
 10
178.5628128051758
 20
207.5361061096191
 30
0.0
  0
SEQEND
  5
1C8A
330
1C87
100
AcDbEntity
  8
Značka (ISO)
  0
SOLID
  5
1C8D
330
1C83
100
AcDbEntity
  8
Značka (ISO)
100
AcDbTrace
 10
178.5628128051758
 20
207.5361061096191
 30
0.0
 11
176.0185813903808
 21
207.7001953125
 31
0.0
 12
178.3040046691894
 22
206.5701866149902
 32
0.0
 13
178.5628128051758
 23
207.5361061096191
 33
0.0
  0
LINE
  5
1C8E
330
1C83
100
AcDbEntity
  8
Značka (ISO)
100
AcDbLine
 10
178.5628145403329
 20
207.5361045065726
 30
0.0
 11
176.0185904520589
 21
207.7001892061843
 31
0.0
  0
LINE
  5
1C8F
330
1C83
100
AcDbEntity
  8
Značka (ISO)
100
AcDbLine
 10
176.0185904520589
 20
207.7001892061843
 30
0.0
 11
178.3039954952304
 21
206.5701786802836
 31
0.0
  0
LINE
  5
1C90
330
1C83
100
AcDbEntity
  8
Značka (ISO)
100
AcDbLine
 10
178.3039954952304
 20
206.5701786802836
 30
0.0
 11
178.5628145403329
 21
207.5361045065726
 31
0.0
  0
LINE
  5
1C91
330
1C83
100
AcDbEntity
  8
Značka (ISO)
100
AcDbLine
 10
178.4334050177816
 20
207.0531415934281
 30
0.0
 11
199.3736649446179
 21
201.4422158567356
 31
0.0
  0
MTEXT
  5
1C92
330
1C83
100
AcDbEntity
  8
Značka (ISO)
100
AcDbMText
 10
207.2486645869901
 20
208.2259471152099
 30
0.0
 40
5.24999976158142
 41
0.0
 71
     5
 72
     1
  1
3
  7
Text popisu (ISO)
 73
     1
 44
1.0
  0
LINE
  5
1C93
330
1C83
100
AcDbEntity
  8
Značka (ISO)
100
AcDbLine
 10
199.3736649446179
 20
201.4422158567356
 30
0.0
 11
215.1236642293622
 21
201.4422158567356
 31
0.0
  0
ENDBLK
  5
1C85
330
1C83
100
AcDbEntity
  8
0
100
AcDbBlockEnd
  0
BLOCK
  5
1C9B
330
1C9A
100
AcDbEntity
  8
0
100
AcDbBlockBegin
  2
*D22
 70
     1
 10
0.0
 20
0.0
 30
0.0
  3
*D22
  1

  0
LINE
  5
1D73
330
1C9A
100
AcDbEntity
  8
Kóta (ISO)
440
 16777216
100
AcDbLine
 10
204.0371809041179
 20
656.8962896640806
 30
0.0
 11
204.0371809041179
 21
321.9109017226854
 31
0.0
  0
LINE
  5
1D74
330
1C9A
100
AcDbEntity
  8
Kóta (ISO)
440
 16777216
100
AcDbLine
 10
386.037180904118
 20
656.8962896640806
 30
0.0
 11
386.037180904118
 21
321.9109017226854
 31
0.0
  0
LINE
  5
1D75
330
1C9A
100
AcDbEntity
  8
Kóta (ISO)
440
 16777216
100
AcDbLine
 10
209.0371809041179
 20
323.9109017226854
 30
0.0
 11
381.037180904118
 21
323.9109017226854
 31
0.0
  0
SOLID
  5
1D76
330
1C9A
100
AcDbEntity
  8
Kóta (ISO)
440
 16777216
100
AcDbTrace
 10
209.0371809041179
 20
324.7442350560187
 30
0.0
 11
209.0371809041179
 21
323.077568389352
 31
0.0
 12
204.0371809041179
 22
323.9109017226854
 32
0.0
 13
204.0371809041179
 23
323.9109017226854
 33
0.0
  0
SOLID
  5
1D77
330
1C9A
100
AcDbEntity
  8
Kóta (ISO)
440
 16777216
100
AcDbTrace
 10
381.037180904118
 20
324.7442350560187
 30
0.0
 11
381.037180904118
 21
323.077568389352
 31
0.0
 12
386.037180904118
 22
323.9109017226854
 32
0.0
 13
386.037180904118
 23
323.9109017226854
 33
0.0
  0
MTEXT
  5
1D78
330
1C9A
100
AcDbEntity
  8
Kóta (ISO)
440
 16777216
100
AcDbMText
 10
283.5843657347947
 20
335.9670962036315
 30
0.0
 40
7.0
 41
0.0
 71
     1
 72
     1
  1
\A1;{\fAIGDT|b0|i0;\H7.0000;\ln\fTahoma|b0|i0;\H7.0000;}182
  7
Text poznámky (ISO)
 73
     1
 44
1.0
  0
POINT
  5
1D79
330
1C9A
100
AcDbEntity
  8
Defpoints
 62
     0
440
 16777216
100
AcDbPoint
 10
204.0371809041179
 20
656.8962896640806
 30
0.0
  0
POINT
  5
1D7A
330
1C9A
100
AcDbEntity
  8
Defpoints
 62
     0
440
 16777216
100
AcDbPoint
 10
386.037180904118
 20
656.8962896640806
 30
0.0
  0
POINT
  5
1D7B
330
1C9A
100
AcDbEntity
  8
Defpoints
 62
     0
440
 16777216
100
AcDbPoint
 10
386.037180904118
 20
323.9109017226854
 30
0.0
  0
ENDBLK
  5
1C9C
330
1C9A
100
AcDbEntity
  8
0
100
AcDbBlockEnd
  0
BLOCK
  5
1D7E
330
1D7D
100
AcDbEntity
  8
0
100
AcDbBlockBegin
  2
*D23
 70
     1
 10
0.0
 20
0.0
 30
0.0
  3
*D23
  1

  0
LINE
  5
1E55
330
1D7D
100
AcDbEntity
  8
Kóta (ISO)
440
 16777216
100
AcDbLine
 10
216.5371809041179
 20
504.8572896640806
 30
0.0
 11
216.5371809041179
 21
344.2844998797851
 31
0.0
  0
LINE
  5
1E56
330
1D7D
100
AcDbEntity
  8
Kóta (ISO)
440
 16777216
100
AcDbLine
 10
373.537180904118
 20
504.8572896640806
 30
0.0
 11
373.537180904118
 21
344.2844998797851
 31
0.0
  0
LINE
  5
1E57
330
1D7D
100
AcDbEntity
  8
Kóta (ISO)
440
 16777216
100
AcDbLine
 10
221.5371809041179
 20
346.2844998797852
 30
0.0
 11
368.537180904118
 21
346.2844998797852
 31
0.0
  0
SOLID
  5
1E58
330
1D7D
100
AcDbEntity
  8
Kóta (ISO)
440
 16777216
100
AcDbTrace
 10
221.5371809041179
 20
347.1178332131186
 30
0.0
 11
221.5371809041179
 21
345.4511665464519
 31
0.0
 12
216.5371809041179
 22
346.2844998797852
 32
0.0
 13
216.5371809041179
 23
346.2844998797852
 33
0.0
  0
SOLID
  5
1E59
330
1D7D
100
AcDbEntity
  8
Kóta (ISO)
440
 16777216
100
AcDbTrace
 10
368.537180904118
 20
347.1178332131186
 30
0.0
 11
368.537180904118
 21
345.4511665464519
 31
0.0
 12
373.537180904118
 22
346.2844998797852
 32
0.0
 13
373.537180904118
 23
346.2844998797852
 33
0.0
  0
MTEXT
  5
1E5A
330
1D7D
100
AcDbEntity
  8
Kóta (ISO)
440
 16777216
100
AcDbMText
 10
287.8585375192959
 20
354.9777409811956
 30
0.0
 40
7.0
 41
0.0
 71
     1
 72
     1
  1
\A1;157
  7
Text poznámky (ISO)
 73
     1
 44
1.0
  0
POINT
  5
1E5B
330
1D7D
100
AcDbEntity
  8
Defpoints
 62
     0
440
 16777216
100
AcDbPoint
 10
216.5371809041179
 20
504.8572896640806
 30
0.0
  0
POINT
  5
1E5C
330
1D7D
100
AcDbEntity
  8
Defpoints
 62
     0
440
 16777216
100
AcDbPoint
 10
373.537180904118
 20
504.8572896640806
 30
0.0
  0
POINT
  5
1E5D
330
1D7D
100
AcDbEntity
  8
Defpoints
 62
     0
440
 16777216
100
AcDbPoint
 10
373.537180904118
 20
346.2844998797852
 30
0.0
  0
ENDBLK
  5
1D7F
330
1D7D
100
AcDbEntity
  8
0
100
AcDbBlockEnd
  0
BLOCK
  5
1E5F
330
1E5E
100
AcDbEntity
  8
0
100
AcDbBlockBegin
  2
Pozice3
 70
     0
 10
0.0
 20
0.0
 30
0.0
  3
Pozice3
  1

  0
LINE
  5
1E61
330
1E5E
100
AcDbEntity
  8
Značka (ISO)
100
AcDbLine
 10
187.5881610393051
 20
262.095492141637
 30
0.0
 11
186.018590452059
 21
264.0413719353682
 31
0.0
  0
POLYLINE
  5
1E62
330
1E5E
100
AcDbEntity
  8
Značka (ISO)
100
AcDb2dPolyline
 66
     1
 10
0.0
 20
0.0
 30
0.0
 70
   128
  0
VERTEX
  5
1E63
330
1E62
100
AcDbEntity
  8
Značka (ISO)
100
AcDbVertex
100
AcDb2dVertex
 10
187.9773330688476
 20
262.4094009399414
 30
0.0
  0
VERTEX
  5
1E64
330
1E62
100
AcDbEntity
  8
Značka (ISO)
100
AcDbVertex
100
AcDb2dVertex
 10
186.0185813903808
 20
264.0413665771484
 30
0.0
  0
VERTEX
  5
1E66
330
1E62
100
AcDbEntity
  8
Značka (ISO)
100
AcDbVertex
100
AcDb2dVertex
 10
187.1989822387695
 20
261.7815780639649
 30
0.0
  0
VERTEX
  5
1E67
330
1E62
100
AcDbEntity
  8
Značka (ISO)
100
AcDbVertex
100
AcDb2dVertex
 10
187.9773330688476
 20
262.4094009399414
 30
0.0
  0
SEQEND
  5
1E65
330
1E62
100
AcDbEntity
  8
Značka (ISO)
  0
SOLID
  5
1E68
330
1E5E
100
AcDbEntity
  8
Značka (ISO)
100
AcDbTrace
 10
187.9773330688476
 20
262.4094009399414
 30
0.0
 11
186.0185813903808
 21
264.0413665771484
 31
0.0
 12
187.1989822387695
 22
261.7815780639649
 32
0.0
 13
187.9773330688476
 23
262.4094009399414
 33
0.0
  0
LINE
  5
1E69
330
1E5E
100
AcDbEntity
  8
Značka (ISO)
100
AcDbLine
 10
187.9773369980514
 20
262.4094062590862
 30
0.0
 11
186.018590452059
 21
264.0413719353682
 31
0.0
  0
LINE
  5
1E6A
330
1E5E
100
AcDbEntity
  8
Značka (ISO)
100
AcDbLine
 10
186.018590452059
 20
264.0413719353682
 30
0.0
 11
187.1989850805588
 21
261.7815780241876
 31
0.0
  0
LINE
  5
1E6B
330
1E5E
100
AcDbEntity
  8
Značka (ISO)
100
AcDbLine
 10
187.1989850805588
 20
261.7815780241876
 30
0.0
 11
187.9773369980514
 21
262.4094062590862
 31
0.0
  0
LINE
  5
1E6C
330
1E5E
100
AcDbEntity
  8
Značka (ISO)
100
AcDbLine
 10
187.5881610393051
 20
262.095492141637
 30
0.0
 11
207.5350390958921
 21
237.3662908723683
 31
0.0
  0
MTEXT
  5
1E6D
330
1E5E
100
AcDbEntity
  8
Značka (ISO)
100
AcDbMText
 10
215.4100387382642
 20
243.93729943541
 30
0.0
 40
5.24999976158142
 41
0.0
 71
     5
 72
     1
  1
1
  7
Text popisu (ISO)
 73
     1
 44
1.0
  0
LINE
  5
1E6E
330
1E5E
100
AcDbEntity
  8
Značka (ISO)
100
AcDbLine
 10
207.5350390958921
 20
237.3662908723683
 30
0.0
 11
223.2850383806364
 21
237.3662908723683
 31
0.0
  0
ENDBLK
  5
1E60
330
1E5E
100
AcDbEntity
  8
0
100
AcDbBlockEnd
  0
BLOCK
  5
1E72
330
1E71
100
AcDbEntity
  8
0
100
AcDbBlockBegin
  2
*D25
 70
     1
 10
0.0
 20
0.0
 30
0.0
  3
*D25
  1

  0
LINE
  5
1F54
330
1E71
100
AcDbEntity
  8
Kóta (ISO)
440
 16777216
100
AcDbLine
 10
204.0371809041179
 20
658.3962896640807
 30
0.0
 11
161.912661519834
 21
658.3962896640807
 31
0.0
  0
LINE
  5
1F55
330
1E71
100
AcDbEntity
  8
Kóta (ISO)
440
 16777216
100
AcDbLine
 10
233.0371809041179
 20
488.3572896640806
 30
0.0
 11
161.912661519834
 21
488.3572896640806
 31
0.0
  0
LINE
  5
1F56
330
1E71
100
AcDbEntity
  8
Kóta (ISO)
440
 16777216
100
AcDbLine
 10
163.912661519834
 20
653.3962896640807
 30
0.0
 11
163.912661519834
 21
493.3572896640806
 31
0.0
  0
SOLID
  5
1F57
330
1E71
100
AcDbEntity
  8
Kóta (ISO)
440
 16777216
100
AcDbTrace
 10
163.0793281865007
 20
653.3962896640807
 30
0.0
 11
164.7459948531674
 21
653.3962896640807
 31
0.0
 12
163.912661519834
 22
658.3962896640807
 32
0.0
 13
163.912661519834
 23
658.3962896640807
 33
0.0
  0
SOLID
  5
1F58
330
1E71
100
AcDbEntity
  8
Kóta (ISO)
440
 16777216
100
AcDbTrace
 10
163.0793281865007
 20
493.3572896640806
 30
0.0
 11
164.7459948531673
 21
493.3572896640806
 31
0.0
 12
163.912661519834
 22
488.3572896640806
 32
0.0
 13
163.912661519834
 23
488.3572896640806
 33
0.0
  0
MTEXT
  5
1F59
102
{ACAD_XDICTIONARY
360
2F66
102
}
330
1E71
100
AcDbEntity
  8
Kóta (ISO)
440
 16777216
100
AcDbMText
 10
155.1018918757774
 20
560.2755818736173
 30
0.0
 40
7.0
 41
0.0
 71
     1
 72
     1
  1
\A1;170{\H7.010400;\U+00B11}
  7
Text poznámky (ISO)
 11
0.0000000000000001
 21
1.0
 31
0.0
 73
     1
 44
1.0
  0
POINT
  5
1F5A
330
1E71
100
AcDbEntity
  8
Defpoints
 62
     0
440
 16777216
100
AcDbPoint
 10
204.0371809041179
 20
658.3962896640807
 30
0.0
  0
POINT
  5
1F5B
330
1E71
100
AcDbEntity
  8
Defpoints
 62
     0
440
 16777216
100
AcDbPoint
 10
233.0371809041179
 20
488.3572896640806
 30
0.0
  0
POINT
  5
1F5C
330
1E71
100
AcDbEntity
  8
Defpoints
 62
     0
440
 16777216
100
AcDbPoint
 10
163.912661519834
 20
488.3572896640806
 30
0.0
  0
ENDBLK
  5
1E73
330
1E71
100
AcDbEntity
  8
0
100
AcDbBlockEnd
  0
BLOCK
  5
1F5E
330
1F5D
100
AcDbEntity
  8
0
100
AcDbBlockBegin
  2
Pozice4
 70
     0
 10
0.0
 20
0.0
 30
0.0
  3
Pozice4
  1

  0
LINE
  5
1F60
330
1F5D
100
AcDbEntity
  8
Značka (ISO)
100
AcDbLine
 10
196.4078659120832
 20
332.9005226345491
 30
0.0
 11
194.1113910481488
 21
331.9124926758344
 31
0.0
  0
POLYLINE
  5
1F61
330
1F5D
100
AcDbEntity
  8
Značka (ISO)
100
AcDb2dPolyline
 66
     1
 10
0.0
 20
0.0
 30
0.0
 70
   128
  0
VERTEX
  5
1F62
330
1F61
100
AcDbEntity
  8
Značka (ISO)
100
AcDbVertex
100
AcDb2dVertex
 10
196.2102508544922
 20
333.3598327636719
 30
0.0
  0
VERTEX
  5
1F63
330
1F61
100
AcDbEntity
  8
Značka (ISO)
100
AcDbVertex
100
AcDb2dVertex
 10
194.111385345459
 20
331.9124984741212
 30
0.0
  0
VERTEX
  5
1F65
330
1F61
100
AcDbEntity
  8
Značka (ISO)
100
AcDbVertex
100
AcDb2dVertex
 10
196.6054725646973
 20
332.4412155151367
 30
0.0
  0
VERTEX
  5
1F66
330
1F61
100
AcDbEntity
  8
Značka (ISO)
100
AcDbVertex
100
AcDb2dVertex
 10
196.2102508544922
 20
333.3598327636719
 30
0.0
  0
SEQEND
  5
1F64
330
1F61
100
AcDbEntity
  8
Značka (ISO)
  0
SOLID
  5
1F67
330
1F5D
100
AcDbEntity
  8
Značka (ISO)
100
AcDbTrace
 10
196.2102508544922
 20
333.3598327636719
 30
0.0
 11
194.111385345459
 21
331.9124984741212
 31
0.0
 12
196.6054725646973
 22
332.4412155151367
 32
0.0
 13
196.2102508544922
 23
333.3598327636719
 33
0.0
  0
LINE
  5
1F68
330
1F5D
100
AcDbEntity
  8
Značka (ISO)
100
AcDbLine
 10
196.2102599203402
 20
333.359817607336
 30
0.0
 11
194.1113910481488
 21
331.9124926758344
 31
0.0
  0
LINE
  5
1F69
330
1F5D
100
AcDbEntity
  8
Značka (ISO)
100
AcDbLine
 10
194.1113910481488
 20
331.9124926758344
 30
0.0
 11
196.6054719038261
 21
332.4412276617622
 31
0.0
  0
LINE
  5
1F6A
330
1F5D
100
AcDbEntity
  8
Značka (ISO)
100
AcDbLine
 10
196.6054719038261
 20
332.4412276617622
 30
0.0
 11
196.2102599203402
 21
333.359817607336
 31
0.0
  0
LINE
  5
1F6B
330
1F5D
100
AcDbEntity
  8
Značka (ISO)
100
AcDbLine
 10
196.4078659120832
 20
332.9005226345491
 30
0.0
 11
222.4672375569246
 21
344.1122455646556
 31
0.0
  0
MTEXT
  5
1F6C
330
1F5D
100
AcDbEntity
  8
Značka (ISO)
100
AcDbMText
 10
230.3422371992967
 20
350.8406690771963
 30
0.0
 40
5.24999976158142
 41
0.0
 71
     5
 72
     1
  1
5
  7
Text popisu (ISO)
 73
     1
 44
1.0
  0
LINE
  5
1F6D
330
1F5D
100
AcDbEntity
  8
Značka (ISO)
100
AcDbLine
 10
222.4672375569246
 20
344.1122455646556
 30
0.0
 11
238.2172368416689
 21
344.1122455646556
 31
0.0
  0
ENDBLK
  5
1F5F
330
1F5D
100
AcDbEntity
  8
0
100
AcDbBlockEnd
  0
BLOCK
  5
1F70
330
1F6F
100
AcDbEntity
  8
0
100
AcDbBlockBegin
  2
Pozice5
 70
     0
 10
0.0
 20
0.0
 30
0.0
  3
Pozice5
  1

  0
LINE
  5
1F72
330
1F6F
100
AcDbEntity
  8
Značka (ISO)
100
AcDbLine
 10
197.6784494186007
 20
381.7619006018642
 30
0.0
 11
196.018590452059
 21
379.8924439398389
 31
0.0
  0
POLYLINE
  5
1F73
330
1F6F
100
AcDbEntity
  8
Značka (ISO)
100
AcDb2dPolyline
 66
     1
 10
0.0
 20
0.0
 30
0.0
 70
   128
  0
VERTEX
  5
1F74
330
1F73
100
AcDbEntity
  8
Značka (ISO)
100
AcDbVertex
100
AcDb2dVertex
 10
197.3045539855957
 20
382.0938873291016
 30
0.0
  0
VERTEX
  5
1F75
330
1F73
100
AcDbEntity
  8
Značka (ISO)
100
AcDbVertex
100
AcDb2dVertex
 10
196.0185813903808
 20
379.8924255371094
 30
0.0
  0
VERTEX
  5
1F77
330
1F73
100
AcDbEntity
  8
Značka (ISO)
100
AcDbVertex
100
AcDb2dVertex
 10
198.0523490905762
 20
381.4299392700196
 30
0.0
  0
VERTEX
  5
1F78
330
1F73
100
AcDbEntity
  8
Značka (ISO)
100
AcDbVertex
100
AcDb2dVertex
 10
197.3045539855957
 20
382.0938873291016
 30
0.0
  0
SEQEND
  5
1F76
330
1F73
100
AcDbEntity
  8
Značka (ISO)
  0
SOLID
  5
1F79
330
1F6F
100
AcDbEntity
  8
Značka (ISO)
100
AcDbTrace
 10
197.3045539855957
 20
382.0938873291016
 30
0.0
 11
196.0185813903808
 21
379.8924255371094
 31
0.0
 12
198.0523490905762
 22
381.4299392700196
 32
0.0
 13
197.3045539855957
 23
382.0938873291016
 33
0.0
  0
LINE
  5
1F7A
330
1F6F
100
AcDbEntity
  8
Značka (ISO)
100
AcDbLine
 10
197.3045580861956
 20
382.0938723951725
 30
0.0
 11
196.018590452059
 21
379.8924439398389
 31
0.0
  0
LINE
  5
1F7B
330
1F6F
100
AcDbEntity
  8
Značka (ISO)
100
AcDbLine
 10
196.018590452059
 20
379.8924439398389
 30
0.0
 11
198.0523407510058
 21
381.4299288085559
 31
0.0
  0
LINE
  5
1F7C
330
1F6F
100
AcDbEntity
  8
Značka (ISO)
100
AcDbLine
 10
198.0523407510058
 20
381.4299288085559
 30
0.0
 11
197.3045580861956
 21
382.0938723951725
 31
0.0
  0
LINE
  5
1F7D
330
1F6F
100
AcDbEntity
  8
Značka (ISO)
100
AcDbLine
 10
197.6784494186007
 20
381.7619006018642
 30
0.0
 11
214.7349459140671
 21
400.9721959624965
 31
0.0
  0
MTEXT
  5
1F7E
330
1F6F
100
AcDbEntity
  8
Značka (ISO)
100
AcDbMText
 10
222.6099455564392
 20
407.5346956644732
 30
0.0
 40
5.24999976158142
 41
0.0
 71
     5
 72
     1
  1
7
  7
Text popisu (ISO)
 73
     1
 44
1.0
  0
LINE
  5
1F7F
330
1F6F
100
AcDbEntity
  8
Značka (ISO)
100
AcDbLine
 10
214.7349459140671
 20
400.9721959624965
 30
0.0
 11
230.4849451988113
 21
400.9721959624965
 31
0.0
  0
ENDBLK
  5
1F71
330
1F6F
100
AcDbEntity
  8
0
100
AcDbBlockEnd
  0
BLOCK
  5
2059
330
2057
100
AcDbEntity
  8
0
100
AcDbBlockBegin
  2
GENAXEH
 70
     0
 10
0.0
 20
0.0
 30
0.0
  3
GENAXEH
  1

  0
LINE
  5
2058
330
2057
100
AcDbEntity
  8
0
100
AcDbLine
 10
-1.0
 20
0.0
 30
0.0
 11
1.0
 21
0.0
 31
0.0
  0
ENDBLK
  5
205A
330
2057
100
AcDbEntity
  8
0
100
AcDbBlockEnd
  0
BLOCK
  5
2072
330
2071
100
AcDbEntity
  8
0
100
AcDbBlockBegin
  2
*D29
 70
     1
 10
0.0
 20
0.0
 30
0.0
  3
*D29
  1

  0
LINE
  5
2073
330
2071
100
AcDbEntity
  8
5
370
    -2
100
AcDbLine
 10
409.3688891211225
 20
959.7921103153977
 30
0.0
 11
409.3688891211225
 21
995.3764885690793
 31
0.0
  0
LINE
  5
2074
330
2071
100
AcDbEntity
  8
5
370
    -2
100
AcDbLine
 10
767.3688891211229
 20
959.7921103153977
 30
0.0
 11
767.3688891211229
 21
995.3764885690793
 31
0.0
  0
LINE
  5
2075
330
2071
100
AcDbEntity
  8
5
370
    -2
100
AcDbLine
 10
414.3688891211223
 20
993.3764885690791
 30
0.0
 11
762.3688891211229
 21
993.3764885690791
 31
0.0
  0
SOLID
  5
2076
330
2071
100
AcDbEntity
  8
5
100
AcDbTrace
 10
414.3688891211223
 20
994.2098219024124
 30
0.0
 11
414.3688891211223
 21
992.5431552357457
 31
0.0
 12
409.3688891211225
 22
993.3764885690791
 32
0.0
 13
409.3688891211225
 23
993.3764885690791
 33
0.0
  0
SOLID
  5
2077
330
2071
100
AcDbEntity
  8
5
100
AcDbTrace
 10
762.3688891211229
 20
994.2098219024124
 30
0.0
 11
762.3688891211229
 21
992.5431552357457
 31
0.0
 12
767.3688891211229
 22
993.3764885690791
 32
0.0
 13
767.3688891211229
 23
993.3764885690791
 33
0.0
  0
MTEXT
  5
2078
330
2071
100
AcDbEntity
  8
5
 62
     7
100
AcDbMText
 10
588.3688891211227
 20
1002.554326043894
 30
0.0
 40
14.0
 41
0.0
 71
     5
 72
     1
  1
%%c358
 73
     1
 44
1.0
  0
POINT
  5
2079
330
2071
100
AcDbEntity
  8
Defpoints
 62
     0
100
AcDbPoint
 10
409.3688891211225
 20
957.7921103153975
 30
0.0
  0
POINT
  5
207A
330
2071
100
AcDbEntity
  8
Defpoints
 62
     0
100
AcDbPoint
 10
767.3688891211229
 20
957.7921103153975
 30
0.0
  0
POINT
  5
207B
330
2071
100
AcDbEntity
  8
Defpoints
 62
     0
100
AcDbPoint
 10
767.3688891211229
 20
993.3764885690791
 30
0.0
  0
ENDBLK
  5
207C
330
2071
100
AcDbEntity
  8
0
100
AcDbBlockEnd
  0
BLOCK
  5
207E
330
207D
100
AcDbEntity
  8
0
100
AcDbBlockBegin
  2
*D30
 70
     1
 10
0.0
 20
0.0
 30
0.0
  3
*D30
  1

  0
LINE
  5
207F
330
207D
100
AcDbEntity
  8
5
370
    -2
100
AcDbLine
 10
550.9031096756277
 20
702.221717152005
 30
0.0
 11
550.9031096756277
 21
674.7380462151378
 31
0.0
  0
LINE
  5
2080
330
207D
100
AcDbEntity
  8
5
370
    -2
100
AcDbLine
 10
625.8346685666176
 20
702.221717152005
 30
0.0
 11
625.8346685666176
 21
674.7380462151378
 31
0.0
  0
LINE
  5
2081
330
207D
100
AcDbEntity
  8
5
370
    -2
100
AcDbLine
 10
555.9031096756275
 20
676.7380462151378
 30
0.0
 11
620.8346685666176
 21
676.7380462151378
 31
0.0
  0
SOLID
  5
2082
330
207D
100
AcDbEntity
  8
5
100
AcDbTrace
 10
555.9031096756275
 20
677.5713795484712
 30
0.0
 11
555.9031096756275
 21
675.9047128818044
 31
0.0
 12
550.9031096756277
 22
676.7380462151378
 32
0.0
 13
550.9031096756277
 23
676.7380462151378
 33
0.0
  0
SOLID
  5
2083
330
207D
100
AcDbEntity
  8
5
100
AcDbTrace
 10
620.8346685666176
 20
677.5713795484712
 30
0.0
 11
620.8346685666176
 21
675.9047128818044
 31
0.0
 12
625.8346685666176
 22
676.7380462151378
 32
0.0
 13
625.8346685666176
 23
676.7380462151378
 33
0.0
  0
MTEXT
  5
2084
330
207D
100
AcDbEntity
  8
5
 62
     7
100
AcDbMText
 10
588.3688891211227
 20
685.9158836899532
 30
0.0
 40
14.0
 41
0.0
 71
     5
 72
     1
  1
%%c75
 73
     1
 44
1.0
  0
POINT
  5
2085
330
207D
100
AcDbEntity
  8
Defpoints
 62
     0
100
AcDbPoint
 10
550.9031096756277
 20
704.221717152005
 30
0.0
  0
POINT
  5
2086
330
207D
100
AcDbEntity
  8
Defpoints
 62
     0
100
AcDbPoint
 10
625.8346685666176
 20
704.221717152005
 30
0.0
  0
POINT
  5
2087
330
207D
100
AcDbEntity
  8
Defpoints
 62
     0
100
AcDbPoint
 10
625.8346685666176
 20
676.7380462151378
 30
0.0
  0
ENDBLK
  5
2088
330
207D
100
AcDbEntity
  8
0
100
AcDbBlockEnd
  0
BLOCK
  5
208A
330
2089
100
AcDbEntity
  8
0
100
AcDbBlockBegin
  2
*D31
 70
     1
 10
0.0
 20
0.0
 30
0.0
  3
*D31
  1

  0
LINE
  5
208B
330
2089
100
AcDbEntity
  8
5
370
    -2
100
AcDbLine
 10
509.8688891211225
 20
802.2531103153971
 30
0.0
 11
509.8688891211225
 21
655.1349050371307
 31
0.0
  0
LINE
  5
208C
330
2089
100
AcDbEntity
  8
5
370
    -2
100
AcDbLine
 10
666.8688891211226
 20
802.2531103153971
 30
0.0
 11
666.8688891211226
 21
655.1349050371307
 31
0.0
  0
LINE
  5
208D
330
2089
100
AcDbEntity
  8
5
370
    -2
100
AcDbLine
 10
514.8688891211227
 20
657.1349050371306
 30
0.0
 11
661.8688891211227
 21
657.1349050371306
 31
0.0
  0
SOLID
  5
208E
330
2089
100
AcDbEntity
  8
5
100
AcDbTrace
 10
514.8688891211227
 20
657.968238370464
 30
0.0
 11
514.8688891211227
 21
656.3015717037972
 31
0.0
 12
509.8688891211225
 22
657.1349050371306
 32
0.0
 13
509.8688891211225
 23
657.1349050371306
 33
0.0
  0
SOLID
  5
208F
330
2089
100
AcDbEntity
  8
5
100
AcDbTrace
 10
661.8688891211227
 20
657.968238370464
 30
0.0
 11
661.8688891211227
 21
656.3015717037972
 31
0.0
 12
666.8688891211226
 22
657.1349050371306
 32
0.0
 13
666.8688891211226
 23
657.1349050371306
 33
0.0
  0
MTEXT
  5
2090
330
2089
100
AcDbEntity
  8
5
 62
     7
100
AcDbMText
 10
588.3688891211227
 20
666.3127425119458
 30
0.0
 40
14.0
 41
0.0
 71
     5
 72
     1
  1
%%c157
 73
     1
 44
1.0
  0
POINT
  5
2091
330
2089
100
AcDbEntity
  8
Defpoints
 62
     0
100
AcDbPoint
 10
509.8688891211225
 20
804.2531103153972
 30
0.0
  0
POINT
  5
2092
330
2089
100
AcDbEntity
  8
Defpoints
 62
     0
100
AcDbPoint
 10
666.8688891211226
 20
804.2531103153972
 30
0.0
  0
POINT
  5
2093
330
2089
100
AcDbEntity
  8
Defpoints
 62
     0
100
AcDbPoint
 10
666.8688891211226
 20
657.1349050371306
 30
0.0
  0
ENDBLK
  5
2094
330
2089
100
AcDbEntity
  8
0
100
AcDbBlockEnd
  0
BLOCK
  5
2096
330
2095
100
AcDbEntity
  8
0
100
AcDbBlockBegin
  2
*D32
 70
     1
 10
0.0
 20
0.0
 30
0.0
  3
*D32
  1

  0
LINE
  5
2097
330
2095
100
AcDbEntity
  8
5
370
    -2
100
AcDbLine
 10
769.368889121123
 20
957.7921103153975
 30
0.0
 11
803.3674453226005
 21
957.7921103153975
 31
0.0
  0
LINE
  5
2098
330
2095
100
AcDbEntity
  8
5
370
    -2
100
AcDbLine
 10
625.8688891211225
 20
696.7531103153977
 30
0.0
 11
803.3674453226002
 21
696.7531103153977
 31
0.0
  0
LINE
  5
2099
330
2095
100
AcDbEntity
  8
5
370
    -2
100
AcDbLine
 10
801.3674453226004
 20
952.7921103153977
 30
0.0
 11
801.3674453226004
 21
701.7531103153977
 31
0.0
  0
SOLID
  5
209A
330
2095
100
AcDbEntity
  8
5
100
AcDbTrace
 10
800.5341119892671
 20
952.7921103153977
 30
0.0
 11
802.2007786559337
 21
952.7921103153977
 31
0.0
 12
801.3674453226004
 22
957.7921103153975
 32
0.0
 13
801.3674453226004
 23
957.7921103153975
 33
0.0
  0
SOLID
  5
209B
330
2095
100
AcDbEntity
  8
5
100
AcDbTrace
 10
800.5341119892667
 20
701.7531103153977
 30
0.0
 11
802.2007786559337
 21
701.7531103153977
 31
0.0
 12
801.3674453226004
 22
696.7531103153977
 32
0.0
 13
801.3674453226004
 23
696.7531103153977
 33
0.0
  0
MTEXT
  5
209C
330
2095
100
AcDbEntity
  8
5
 62
     7
100
AcDbMText
 10
792.875974536838
 20
827.2726103153978
 30
0.0
 40
14.0
 41
0.0
 71
     5
 72
     1
  1
261
 11
0.0000000000000001
 21
1.0
 31
0.0
 73
     1
 44
1.0
  0
POINT
  5
209D
330
2095
100
AcDbEntity
  8
Defpoints
 62
     0
100
AcDbPoint
 10
767.3688891211229
 20
957.7921103153975
 30
0.0
  0
POINT
  5
209E
330
2095
100
AcDbEntity
  8
Defpoints
 62
     0
100
AcDbPoint
 10
623.8688891211225
 20
696.7531103153977
 30
0.0
  0
POINT
  5
209F
330
2095
100
AcDbEntity
  8
Defpoints
 62
     0
100
AcDbPoint
 10
801.3674453226004
 20
696.7531103153977
 30
0.0
  0
ENDBLK
  5
20A0
330
2095
100
AcDbEntity
  8
0
100
AcDbBlockEnd
  0
BLOCK
  5
20A2
330
20A1
100
AcDbEntity
  8
0
100
AcDbBlockBegin
  2
*D33
 70
     1
 10
0.0
 20
0.0
 30
0.0
  3
*D33
  1

  0
LINE
  5
20A3
330
20A1
100
AcDbEntity
  8
5
370
    -2
100
AcDbLine
 10
652.3688891211227
 20
787.7531103153975
 30
0.0
 11
781.3688891211229
 21
787.7531103153971
 31
0.0
  0
LINE
  5
20A4
330
20A1
100
AcDbEntity
  8
5
370
    -2
100
AcDbLine
 10
769.368889121123
 20
957.7921103153975
 30
0.0
 11
781.3688891211229
 21
957.7921103153975
 31
0.0
  0
LINE
  5
20A5
330
20A1
100
AcDbEntity
  8
5
370
    -2
100
AcDbLine
 10
779.3688891211229
 20
792.7531103153971
 30
0.0
 11
779.3688891211229
 21
952.7921103153977
 31
0.0
  0
SOLID
  5
20A6
330
20A1
100
AcDbEntity
  8
5
100
AcDbTrace
 10
778.5355557877895
 20
792.7531103153971
 30
0.0
 11
780.2022224544562
 21
792.7531103153971
 31
0.0
 12
779.3688891211229
 22
787.7531103153971
 32
0.0
 13
779.3688891211229
 23
787.7531103153971
 33
0.0
  0
SOLID
  5
20A7
330
20A1
100
AcDbEntity
  8
5
100
AcDbTrace
 10
778.5355557877895
 20
952.7921103153977
 30
0.0
 11
780.2022224544562
 21
952.7921103153977
 31
0.0
 12
779.3688891211229
 22
957.7921103153975
 32
0.0
 13
779.3688891211229
 23
957.7921103153975
 33
0.0
  0
MTEXT
  5
20A8
330
20A1
100
AcDbEntity
  8
5
 62
     7
100
AcDbMText
 10
770.8821194770662
 20
872.7726103153978
 30
0.0
 40
14.0
 41
0.0
 71
     5
 72
     1
  1
170
 11
0.0000000000000001
 21
1.0
 31
0.0
 73
     1
 44
1.0
  0
POINT
  5
20A9
330
20A1
100
AcDbEntity
  8
Defpoints
 62
     0
100
AcDbPoint
 10
650.3688891211226
 20
787.7531103153975
 30
0.0
  0
POINT
  5
20AA
330
20A1
100
AcDbEntity
  8
Defpoints
 62
     0
100
AcDbPoint
 10
767.3688891211229
 20
957.7921103153975
 30
0.0
  0
POINT
  5
20AB
330
20A1
100
AcDbEntity
  8
Defpoints
 62
     0
100
AcDbPoint
 10
779.3688891211229
 20
957.7921103153975
 30
0.0
  0
ENDBLK
  5
20AC
330
20A1
100
AcDbEntity
  8
0
100
AcDbBlockEnd
  0
BLOCK
  5
295F
330
295E
100
AcDbEntity
  8
0
100
AcDbBlockBegin
  2
*D34
 70
     1
 10
0.0
 20
0.0
 30
0.0
  3
*D34
  1

  0
LINE
  5
299A
330
295E
100
AcDbEntity
  8
5
370
    -2
100
AcDbLine
 10
598.3495241216517
 20
839.5275734961957
 30
0.0
 11
598.3495241216517
 21
875.1119517498773
 31
0.0
  0
LINE
  5
299B
330
295E
100
AcDbEntity
  8
5
370
    -2
100
AcDbLine
 10
956.349524121652
 20
839.5275734961957
 30
0.0
 11
956.349524121652
 21
875.1119517498773
 31
0.0
  0
LINE
  5
299C
330
295E
100
AcDbEntity
  8
5
370
    -2
100
AcDbLine
 10
603.3495241216517
 20
873.1119517498774
 30
0.0
 11
951.3495241216521
 21
873.1119517498774
 31
0.0
  0
SOLID
  5
299D
330
295E
100
AcDbEntity
  8
5
100
AcDbTrace
 10
603.3495241216517
 20
873.9452850832106
 30
0.0
 11
603.3495241216517
 21
872.2786184165439
 31
0.0
 12
598.3495241216517
 22
873.1119517498774
 32
0.0
 13
598.3495241216517
 23
873.1119517498774
 33
0.0
  0
SOLID
  5
299E
330
295E
100
AcDbEntity
  8
5
100
AcDbTrace
 10
951.3495241216521
 20
873.9452850832106
 30
0.0
 11
951.3495241216521
 21
872.2786184165439
 31
0.0
 12
956.349524121652
 22
873.1119517498774
 32
0.0
 13
956.349524121652
 23
873.1119517498774
 33
0.0
  0
MTEXT
  5
299F
330
295E
100
AcDbEntity
  8
5
 62
     7
100
AcDbMText
 10
777.3495241216519
 20
882.2897892246926
 30
0.0
 40
14.0
 41
0.0
 71
     5
 72
     1
  1
%%c358
 73
     1
 44
1.0
  0
POINT
  5
29A0
330
295E
100
AcDbEntity
  8
Defpoints
 62
     0
100
AcDbPoint
 10
598.3495241216517
 20
837.5275734961956
 30
0.0
  0
POINT
  5
29A1
330
295E
100
AcDbEntity
  8
Defpoints
 62
     0
100
AcDbPoint
 10
956.349524121652
 20
837.5275734961956
 30
0.0
  0
POINT
  5
29A2
330
295E
100
AcDbEntity
  8
Defpoints
 62
     0
100
AcDbPoint
 10
956.349524121652
 20
873.1119517498774
 30
0.0
  0
ENDBLK
  5
2960
330
295E
100
AcDbEntity
  8
0
100
AcDbBlockEnd
  0
BLOCK
  5
296B
330
296A
100
AcDbEntity
  8
0
100
AcDbBlockBegin
  2
*D35
 70
     1
 10
0.0
 20
0.0
 30
0.0
  3
*D35
  1

  0
LINE
  5
29A3
330
296A
100
AcDbEntity
  8
5
370
    -2
100
AcDbLine
 10
739.8837446761571
 20
581.9571803328033
 30
0.0
 11
739.8837446761571
 21
554.4735093959361
 31
0.0
  0
LINE
  5
29A4
330
296A
100
AcDbEntity
  8
5
370
    -2
100
AcDbLine
 10
814.8153035671468
 20
581.9571803328033
 30
0.0
 11
814.8153035671468
 21
554.4735093959361
 31
0.0
  0
LINE
  5
29A5
330
296A
100
AcDbEntity
  8
5
370
    -2
100
AcDbLine
 10
744.8837446761571
 20
556.4735093959361
 30
0.0
 11
809.8153035671469
 21
556.4735093959361
 31
0.0
  0
SOLID
  5
29A6
330
296A
100
AcDbEntity
  8
5
100
AcDbTrace
 10
744.8837446761571
 20
557.3068427292695
 30
0.0
 11
744.8837446761571
 21
555.6401760626028
 31
0.0
 12
739.8837446761571
 22
556.4735093959361
 32
0.0
 13
739.8837446761571
 23
556.4735093959361
 33
0.0
  0
SOLID
  5
29A7
330
296A
100
AcDbEntity
  8
5
100
AcDbTrace
 10
809.8153035671469
 20
557.3068427292695
 30
0.0
 11
809.8153035671469
 21
555.6401760626028
 31
0.0
 12
814.8153035671468
 22
556.4735093959361
 32
0.0
 13
814.8153035671468
 23
556.4735093959361
 33
0.0
  0
MTEXT
  5
29A8
330
296A
100
AcDbEntity
  8
5
 62
     7
100
AcDbMText
 10
777.3495241216519
 20
565.6513468707514
 30
0.0
 40
14.0
 41
0.0
 71
     5
 72
     1
  1
%%c75
 73
     1
 44
1.0
  0
POINT
  5
29A9
330
296A
100
AcDbEntity
  8
Defpoints
 62
     0
100
AcDbPoint
 10
739.8837446761571
 20
583.9571803328031
 30
0.0
  0
POINT
  5
29AA
330
296A
100
AcDbEntity
  8
Defpoints
 62
     0
100
AcDbPoint
 10
814.8153035671468
 20
583.9571803328031
 30
0.0
  0
POINT
  5
29AB
330
296A
100
AcDbEntity
  8
Defpoints
 62
     0
100
AcDbPoint
 10
814.8153035671468
 20
556.4735093959361
 30
0.0
  0
ENDBLK
  5
296C
330
296A
100
AcDbEntity
  8
0
100
AcDbBlockEnd
  0
BLOCK
  5
2977
330
2976
100
AcDbEntity
  8
0
100
AcDbBlockBegin
  2
*D36
 70
     1
 10
0.0
 20
0.0
 30
0.0
  3
*D36
  1

  0
LINE
  5
29AC
330
2976
100
AcDbEntity
  8
5
370
    -2
100
AcDbLine
 10
698.8495241216519
 20
681.9885734961957
 30
0.0
 11
698.8495241216519
 21
534.8703682179289
 31
0.0
  0
LINE
  5
29AD
330
2976
100
AcDbEntity
  8
5
370
    -2
100
AcDbLine
 10
855.8495241216519
 20
681.9885734961957
 30
0.0
 11
855.8495241216519
 21
534.8703682179289
 31
0.0
  0
LINE
  5
29AE
330
2976
100
AcDbEntity
  8
5
370
    -2
100
AcDbLine
 10
703.8495241216519
 20
536.8703682179289
 30
0.0
 11
850.8495241216516
 21
536.8703682179289
 31
0.0
  0
SOLID
  5
29AF
330
2976
100
AcDbEntity
  8
5
100
AcDbTrace
 10
703.8495241216519
 20
537.7037015512621
 30
0.0
 11
703.8495241216519
 21
536.0370348845955
 31
0.0
 12
698.8495241216519
 22
536.8703682179289
 32
0.0
 13
698.8495241216519
 23
536.8703682179289
 33
0.0
  0
SOLID
  5
29B0
330
2976
100
AcDbEntity
  8
5
100
AcDbTrace
 10
850.8495241216516
 20
537.7037015512621
 30
0.0
 11
850.8495241216516
 21
536.0370348845955
 31
0.0
 12
855.8495241216519
 22
536.8703682179289
 32
0.0
 13
855.8495241216519
 23
536.8703682179289
 33
0.0
  0
MTEXT
  5
29B1
330
2976
100
AcDbEntity
  8
5
 62
     7
100
AcDbMText
 10
777.3495241216519
 20
546.0482056927442
 30
0.0
 40
14.0
 41
0.0
 71
     5
 72
     1
  1
%%c157
 73
     1
 44
1.0
  0
POINT
  5
29B2
330
2976
100
AcDbEntity
  8
Defpoints
 62
     0
100
AcDbPoint
 10
698.8495241216519
 20
683.9885734961957
 30
0.0
  0
POINT
  5
29B3
330
2976
100
AcDbEntity
  8
Defpoints
 62
     0
100
AcDbPoint
 10
855.8495241216519
 20
683.9885734961957
 30
0.0
  0
POINT
  5
29B4
330
2976
100
AcDbEntity
  8
Defpoints
 62
     0
100
AcDbPoint
 10
855.8495241216519
 20
536.8703682179289
 30
0.0
  0
ENDBLK
  5
2978
330
2976
100
AcDbEntity
  8
0
100
AcDbBlockEnd
  0
BLOCK
  5
2983
330
2982
100
AcDbEntity
  8
0
100
AcDbBlockBegin
  2
*D37
 70
     1
 10
0.0
 20
0.0
 30
0.0
  3
*D37
  1

  0
LINE
  5
29B5
330
2982
100
AcDbEntity
  8
5
370
    -2
100
AcDbLine
 10
958.3495241216521
 20
837.5275734961956
 30
0.0
 11
992.3480803231296
 21
837.5275734961956
 31
0.0
  0
LINE
  5
29B6
330
2982
100
AcDbEntity
  8
5
370
    -2
100
AcDbLine
 10
814.8495241216517
 20
576.4885734961961
 30
0.0
 11
992.3480803231296
 21
576.4885734961961
 31
0.0
  0
LINE
  5
29B7
330
2982
100
AcDbEntity
  8
5
370
    -2
100
AcDbLine
 10
990.3480803231296
 20
832.5275734961959
 30
0.0
 11
990.3480803231296
 21
581.488573496196
 31
0.0
  0
SOLID
  5
29B8
330
2982
100
AcDbEntity
  8
5
100
AcDbTrace
 10
989.5147469897963
 20
832.5275734961959
 30
0.0
 11
991.1814136564633
 21
832.5275734961959
 31
0.0
 12
990.3480803231296
 22
837.5275734961956
 32
0.0
 13
990.3480803231296
 23
837.5275734961956
 33
0.0
  0
SOLID
  5
29B9
330
2982
100
AcDbEntity
  8
5
100
AcDbTrace
 10
989.5147469897963
 20
581.488573496196
 30
0.0
 11
991.1814136564627
 21
581.488573496196
 31
0.0
 12
990.3480803231296
 22
576.4885734961961
 32
0.0
 13
990.3480803231296
 23
576.4885734961961
 33
0.0
  0
MTEXT
  5
29BA
330
2982
100
AcDbEntity
  8
5
 62
     7
100
AcDbMText
 10
981.8566095373672
 20
707.0080734961958
 30
0.0
 40
14.0
 41
0.0
 71
     5
 72
     1
  1
261
 11
0.0000000000000001
 21
1.0
 31
0.0
 73
     1
 44
1.0
  0
POINT
  5
29BB
330
2982
100
AcDbEntity
  8
Defpoints
 62
     0
100
AcDbPoint
 10
956.349524121652
 20
837.5275734961956
 30
0.0
  0
POINT
  5
29BC
330
2982
100
AcDbEntity
  8
Defpoints
 62
     0
100
AcDbPoint
 10
812.8495241216517
 20
576.4885734961961
 30
0.0
  0
POINT
  5
29BD
330
2982
100
AcDbEntity
  8
Defpoints
 62
     0
100
AcDbPoint
 10
990.3480803231296
 20
576.4885734961961
 30
0.0
  0
ENDBLK
  5
2984
330
2982
100
AcDbEntity
  8
0
100
AcDbBlockEnd
  0
BLOCK
  5
298F
330
298E
100
AcDbEntity
  8
0
100
AcDbBlockBegin
  2
*D38
 70
     1
 10
0.0
 20
0.0
 30
0.0
  3
*D38
  1

  0
LINE
  5
29BE
330
298E
100
AcDbEntity
  8
5
370
    -2
100
AcDbLine
 10
841.3495241216519
 20
667.4885734961957
 30
0.0
 11
970.349524121652
 21
667.4885734961957
 31
0.0
  0
LINE
  5
29BF
330
298E
100
AcDbEntity
  8
5
370
    -2
100
AcDbLine
 10
958.3495241216521
 20
837.5275734961956
 30
0.0
 11
970.3495241216522
 21
837.5275734961956
 31
0.0
  0
LINE
  5
29C0
330
298E
100
AcDbEntity
  8
5
370
    -2
100
AcDbLine
 10
968.3495241216521
 20
672.4885734961957
 30
0.0
 11
968.3495241216521
 21
832.5275734961959
 31
0.0
  0
SOLID
  5
29C1
330
298E
100
AcDbEntity
  8
5
100
AcDbTrace
 10
967.5161907883186
 20
672.4885734961957
 30
0.0
 11
969.1828574549854
 21
672.4885734961957
 31
0.0
 12
968.3495241216521
 22
667.4885734961957
 32
0.0
 13
968.3495241216521
 23
667.4885734961957
 33
0.0
  0
SOLID
  5
29C2
330
298E
100
AcDbEntity
  8
5
100
AcDbTrace
 10
967.5161907883188
 20
832.5275734961959
 30
0.0
 11
969.1828574549857
 21
832.5275734961959
 31
0.0
 12
968.3495241216521
 22
837.5275734961956
 32
0.0
 13
968.3495241216521
 23
837.5275734961956
 33
0.0
  0
MTEXT
  5
29C3
330
298E
100
AcDbEntity
  8
5
 62
     7
100
AcDbMText
 10
959.8627544775956
 20
752.5080734961957
 30
0.0
 40
14.0
 41
0.0
 71
     5
 72
     1
  1
170
 11
0.0000000000000001
 21
1.0
 31
0.0
 73
     1
 44
1.0
  0
POINT
  5
29C4
330
298E
100
AcDbEntity
  8
Defpoints
 62
     0
100
AcDbPoint
 10
839.349524121652
 20
667.4885734961957
 30
0.0
  0
POINT
  5
29C5
330
298E
100
AcDbEntity
  8
Defpoints
 62
     0
100
AcDbPoint
 10
956.349524121652
 20
837.5275734961956
 30
0.0
  0
POINT
  5
29C6
330
298E
100
AcDbEntity
  8
Defpoints
 62
     0
100
AcDbPoint
 10
968.3495241216521
 20
837.5275734961956
 30
0.0
  0
ENDBLK
  5
2990
330
298E
100
AcDbEntity
  8
0
100
AcDbBlockEnd
  0
BLOCK
  5
29F1
330
29F0
100
AcDbEntity
  8
0
100
AcDbBlockBegin
  2
*D39
 70
     1
 10
0.0
 20
0.0
 30
0.0
  3
*D39
  1

  0
LINE
  5
2C3F
330
29F0
100
AcDbEntity
  8
5
370
    -2
100
AcDbLine
 10
240.0371809041183
 20
395.3480012695683
 30
0.0
 11
240.0371809041183
 21
360.836926125769
 31
0.0
  0
LINE
  5
2C40
330
29F0
100
AcDbEntity
  8
5
370
    -2
100
AcDbLine
 10
350.0371809041179
 20
395.3480012695683
 30
0.0
 11
350.0371809041179
 21
360.836926125769
 31
0.0
  0
LINE
  5
2C41
330
29F0
100
AcDbEntity
  8
5
370
    -2
100
AcDbLine
 10
245.0371809041183
 20
362.836926125769
 30
0.0
 11
345.0371809041179
 21
362.836926125769
 31
0.0
  0
SOLID
  5
2C42
330
29F0
100
AcDbEntity
  8
5
100
AcDbTrace
 10
245.0371809041183
 20
363.6702594591024
 30
0.0
 11
245.0371809041183
 21
362.0035927924357
 31
0.0
 12
240.0371809041183
 22
362.836926125769
 32
0.0
 13
240.0371809041183
 23
362.836926125769
 33
0.0
  0
SOLID
  5
2C43
330
29F0
100
AcDbEntity
  8
5
100
AcDbTrace
 10
345.0371809041179
 20
363.6702594591024
 30
0.0
 11
345.0371809041179
 21
362.0035927924357
 31
0.0
 12
350.0371809041179
 22
362.836926125769
 32
0.0
 13
350.0371809041179
 23
362.836926125769
 33
0.0
  0
MTEXT
  5
2C44
330
29F0
100
AcDbEntity
  8
5
 62
     7
100
AcDbMText
 10
295.0371809041182
 20
372.0147636005843
 30
0.0
 40
14.0
 41
0.0
 71
     5
 72
     1
  1
%%c110
 73
     1
 44
1.0
  0
POINT
  5
2C45
330
29F0
100
AcDbEntity
  8
Defpoints
 62
     0
100
AcDbPoint
 10
240.0371809041183
 20
397.3480012695683
 30
0.0
  0
POINT
  5
2C46
330
29F0
100
AcDbEntity
  8
Defpoints
 62
     0
100
AcDbPoint
 10
350.0371809041179
 20
397.3480012695683
 30
0.0
  0
POINT
  5
2C47
330
29F0
100
AcDbEntity
  8
Defpoints
 62
     0
100
AcDbPoint
 10
350.0371809041179
 20
362.836926125769
 30
0.0
  0
ENDBLK
  5
29F2
330
29F0
100
AcDbEntity
  8
0
100
AcDbBlockEnd
  0
BLOCK
  5
2A1D
330
2A1C
100
AcDbEntity
  8
0
100
AcDbBlockBegin
  2
*D40
 70
     1
 10
0.0
 20
0.0
 30
0.0
  3
*D40
  1

  0
LINE
  5
2ADF
330
2A1C
100
AcDbEntity
  8
AM_5
 62
     0
370
    -2
100
AcDbLine
 10
241.9746809041183
 20
389.3572896640811
 30
0.0
 11
191.8973542433467
 21
389.3572896640811
 31
0.0
  0
LINE
  5
2AE0
330
2A1C
100
AcDbEntity
  8
AM_5
 62
     0
370
    -2
100
AcDbLine
 10
233.5586011210183
 20
488.3572896640806
 30
0.0
 11
191.8973542433468
 21
488.3572896640806
 31
0.0
  0
LINE
  5
2AE1
330
2A1C
100
AcDbEntity
  8
AM_5
 62
     0
370
    -2
100
AcDbLine
 10
192.0773542433466
 20
391.1572896640811
 30
0.0
 11
192.0773542433466
 21
447.7030566557579
 31
0.0
  0
LINE
  5
2AE2
330
2A1C
100
AcDbEntity
  8
AM_5
 62
     0
370
    -2
100
AcDbLine
 10
192.0773542433466
 20
486.5572896640806
 30
0.0
 11
192.0773542433466
 21
448.2473951317562
 31
0.0
  0
SOLID
  5
2AE3
330
2A1C
100
AcDbEntity
  8
AM_5
 62
     0
100
AcDbTrace
 10
191.7773542433467
 20
391.1572896640811
 30
0.0
 11
192.3773542433466
 21
391.1572896640811
 31
0.0
 12
192.0773542433466
 22
389.3572896640811
 32
0.0
 13
192.0773542433466
 23
389.3572896640811
 33
0.0
  0
SOLID
  5
2AE4
330
2A1C
100
AcDbEntity
  8
AM_5
 62
     0
100
AcDbTrace
 10
191.7773542433467
 20
486.5572896640806
 30
0.0
 11
192.3773542433468
 21
486.5572896640806
 31
0.0
 12
192.0773542433466
 22
488.3572896640806
 32
0.0
 13
192.0773542433466
 23
488.3572896640806
 33
0.0
  0
MTEXT
  5
2AE5
330
2A1C
100
AcDbEntity
  8
AM_5
 62
     0
100
AcDbMText
 10
192.0773542433466
 20
447.9752258937572
 30
0.0
 40
0.3499999940395355
 41
0.0
 71
     5
 72
     1
  1
\A1;99.0000
 73
     1
 44
1.0
  0
POINT
  5
2AE6
330
2A1C
100
AcDbEntity
  8
Defpoints
 62
     0
100
AcDbPoint
 10
242.0371809041183
 20
389.3572896640811
 30
0.0
  0
POINT
  5
2AE7
330
2A1C
100
AcDbEntity
  8
Defpoints
 62
     0
100
AcDbPoint
 10
233.6211011210183
 20
488.3572896640806
 30
0.0
  0
POINT
  5
2AE8
330
2A1C
100
AcDbEntity
  8
Defpoints
 62
     0
100
AcDbPoint
 10
192.0773542433466
 20
488.3572896640806
 30
0.0
  0
ENDBLK
  5
2A1E
330
2A1C
100
AcDbEntity
  8
0
100
AcDbBlockEnd
  0
BLOCK
  5
2A3F
330
2A3E
100
AcDbEntity
  8
0
100
AcDbBlockBegin
  2
*D41
 70
     1
 10
0.0
 20
0.0
 30
0.0
  3
*D41
  1

  0
LINE
  5
2A55
330
2A3E
100
AcDbEntity
  8
AM_5
 62
     0
370
    -2
100
AcDbLine
 10
232.9746809041179
 20
488.3572896640806
 30
0.0
 11
191.857180904118
 21
488.3572896640806
 31
0.0
  0
LINE
  5
2A56
330
2A3E
100
AcDbEntity
  8
AM_5
 62
     0
370
    -2
100
AcDbLine
 10
203.974680904118
 20
658.3962896640807
 30
0.0
 11
191.857180904118
 21
658.3962896640807
 31
0.0
  0
LINE
  5
2A57
330
2A3E
100
AcDbEntity
  8
AM_5
 62
     0
370
    -2
100
AcDbLine
 10
192.037180904118
 20
490.1572896640806
 30
0.0
 11
192.037180904118
 21
573.104502897541
 31
0.0
  0
LINE
  5
2A58
330
2A3E
100
AcDbEntity
  8
AM_5
 62
     0
370
    -2
100
AcDbLine
 10
192.037180904118
 20
656.5962896640806
 30
0.0
 11
192.037180904118
 21
573.6490764306205
 31
0.0
  0
SOLID
  5
2A59
330
2A3E
100
AcDbEntity
  8
AM_5
 62
     0
100
AcDbTrace
 10
191.737180904118
 20
490.1572896640806
 30
0.0
 11
192.337180904118
 21
490.1572896640806
 31
0.0
 12
192.037180904118
 22
488.3572896640806
 32
0.0
 13
192.037180904118
 23
488.3572896640806
 33
0.0
  0
SOLID
  5
2A5A
330
2A3E
100
AcDbEntity
  8
AM_5
 62
     0
100
AcDbTrace
 10
191.737180904118
 20
656.5962896640806
 30
0.0
 11
192.337180904118
 21
656.5962896640806
 31
0.0
 12
192.037180904118
 22
658.3962896640807
 32
0.0
 13
192.037180904118
 23
658.3962896640807
 33
0.0
  0
MTEXT
  5
2A5B
330
2A3E
100
AcDbEntity
  8
AM_5
 62
     0
100
AcDbMText
 10
192.0371809041179
 20
573.3767896640808
 30
0.0
 40
0.3499999940395355
 41
0.0
 71
     5
 72
     1
  1
\A1;170.0390
 73
     1
 44
1.0
  0
POINT
  5
2A5C
330
2A3E
100
AcDbEntity
  8
Defpoints
 62
     0
100
AcDbPoint
 10
233.0371809041179
 20
488.3572896640806
 30
0.0
  0
POINT
  5
2A5D
330
2A3E
100
AcDbEntity
  8
Defpoints
 62
     0
100
AcDbPoint
 10
204.037180904118
 20
658.3962896640807
 30
0.0
  0
POINT
  5
2A5E
330
2A3E
100
AcDbEntity
  8
Defpoints
 62
     0
100
AcDbPoint
 10
192.037180904118
 20
658.3962896640807
 30
0.0
  0
ENDBLK
  5
2A40
330
2A3E
100
AcDbEntity
  8
0
100
AcDbBlockEnd
  0
BLOCK
  5
2A89
330
2A88
100
AcDbEntity
  8
0
100
AcDbBlockBegin
  2
*D42
 70
     1
 10
0.0
 20
0.0
 30
0.0
  3
*D42
  1

  0
LINE
  5
2B77
330
2A88
100
AcDbEntity
  8
5
370
    -2
100
AcDbLine
 10
204.037180904118
 20
660.3962896640807
 30
0.0
 11
204.037180904118
 21
684.5553086516968
 31
0.0
  0
LINE
  5
2B78
330
2A88
100
AcDbEntity
  8
5
370
    -2
100
AcDbLine
 10
386.037180904118
 20
660.3962896640807
 30
0.0
 11
386.037180904118
 21
684.5553086516968
 31
0.0
  0
LINE
  5
2B79
330
2A88
100
AcDbEntity
  8
5
370
    -2
100
AcDbLine
 10
209.037180904118
 20
682.5553086516968
 30
0.0
 11
381.037180904118
 21
682.5553086516968
 31
0.0
  0
SOLID
  5
2B7A
330
2A88
100
AcDbEntity
  8
5
100
AcDbTrace
 10
209.037180904118
 20
683.3886419850301
 30
0.0
 11
209.037180904118
 21
681.7219753183633
 31
0.0
 12
204.037180904118
 22
682.5553086516968
 32
0.0
 13
204.037180904118
 23
682.5553086516968
 33
0.0
  0
SOLID
  5
2B7B
330
2A88
100
AcDbEntity
  8
5
100
AcDbTrace
 10
381.037180904118
 20
683.3886419850301
 30
0.0
 11
381.037180904118
 21
681.7219753183633
 31
0.0
 12
386.037180904118
 22
682.5553086516968
 32
0.0
 13
386.037180904118
 23
682.5553086516968
 33
0.0
  0
MTEXT
  5
2B7C
330
2A88
100
AcDbEntity
  8
5
 62
     7
100
AcDbMText
 10
295.037180904118
 20
691.7331461265121
 30
0.0
 40
14.0
 41
0.0
 71
     5
 72
     1
  1
%%c182
 73
     1
 44
1.0
  0
POINT
  5
2B7D
330
2A88
100
AcDbEntity
  8
Defpoints
 62
     0
100
AcDbPoint
 10
204.037180904118
 20
658.3962896640807
 30
0.0
  0
POINT
  5
2B7E
330
2A88
100
AcDbEntity
  8
Defpoints
 62
     0
100
AcDbPoint
 10
386.037180904118
 20
658.3962896640807
 30
0.0
  0
POINT
  5
2B7F
330
2A88
100
AcDbEntity
  8
Defpoints
 62
     0
100
AcDbPoint
 10
386.037180904118
 20
682.5553086516968
 30
0.0
  0
ENDBLK
  5
2A8A
330
2A88
100
AcDbEntity
  8
0
100
AcDbBlockEnd
  0
BLOCK
  5
2AB5
330
2AB4
100
AcDbEntity
  8
0
100
AcDbBlockBegin
  2
*D43
 70
     1
 10
0.0
 20
0.0
 30
0.0
  3
*D43
  1

  0
LINE
  5
2C36
330
2AB4
100
AcDbEntity
  8
5
370
    -2
100
AcDbLine
 10
216.5371809041179
 20
502.8572896640806
 30
0.0
 11
216.5371809041179
 21
338.859704791437
 31
0.0
  0
LINE
  5
2C37
330
2AB4
100
AcDbEntity
  8
5
370
    -2
100
AcDbLine
 10
373.537180904118
 20
502.8572896640806
 30
0.0
 11
373.537180904118
 21
338.859704791437
 31
0.0
  0
LINE
  5
2C38
330
2AB4
100
AcDbEntity
  8
5
370
    -2
100
AcDbLine
 10
221.5371809041179
 20
340.859704791437
 30
0.0
 11
368.537180904118
 21
340.859704791437
 31
0.0
  0
SOLID
  5
2C39
330
2AB4
100
AcDbEntity
  8
5
100
AcDbTrace
 10
221.5371809041179
 20
341.6930381247703
 30
0.0
 11
221.5371809041179
 21
340.0263714581037
 31
0.0
 12
216.5371809041179
 22
340.859704791437
 32
0.0
 13
216.5371809041179
 23
340.859704791437
 33
0.0
  0
SOLID
  5
2C3A
330
2AB4
100
AcDbEntity
  8
5
100
AcDbTrace
 10
368.537180904118
 20
341.6930381247703
 30
0.0
 11
368.537180904118
 21
340.0263714581037
 31
0.0
 12
373.537180904118
 22
340.859704791437
 32
0.0
 13
373.537180904118
 23
340.859704791437
 33
0.0
  0
MTEXT
  5
2C3B
330
2AB4
100
AcDbEntity
  8
5
 62
     7
100
AcDbMText
 10
295.0371809041179
 20
350.0375422662523
 30
0.0
 40
14.0
 41
0.0
 71
     5
 72
     1
  1
%%c157
 73
     1
 44
1.0
  0
POINT
  5
2C3C
330
2AB4
100
AcDbEntity
  8
Defpoints
 62
     0
100
AcDbPoint
 10
216.5371809041179
 20
504.8572896640806
 30
0.0
  0
POINT
  5
2C3D
330
2AB4
100
AcDbEntity
  8
Defpoints
 62
     0
100
AcDbPoint
 10
373.537180904118
 20
504.8572896640806
 30
0.0
  0
POINT
  5
2C3E
330
2AB4
100
AcDbEntity
  8
Defpoints
 62
     0
100
AcDbPoint
 10
373.537180904118
 20
340.859704791437
 30
0.0
  0
ENDBLK
  5
2AB6
330
2AB4
100
AcDbEntity
  8
0
100
AcDbBlockEnd
  0
BLOCK
  5
2AEB
330
2AEA
100
AcDbEntity
  8
0
100
AcDbBlockBegin
  2
*D44
 70
     1
 10
0.0
 20
0.0
 30
0.0
  3
*D44
  1

  0
LINE
  5
2B41
330
2AEA
100
AcDbEntity
  8
5
370
    -2
100
AcDbLine
 10
388.037180904118
 20
658.3962896640807
 30
0.0
 11
400.037180904118
 21
658.3962896640807
 31
0.0
  0
LINE
  5
2B42
330
2AEA
100
AcDbEntity
  8
5
370
    -2
100
AcDbLine
 10
358.4532606872177
 20
488.3572896640806
 30
0.0
 11
400.037180904118
 21
488.3572896640806
 31
0.0
  0
LINE
  5
2B43
330
2AEA
100
AcDbEntity
  8
5
370
    -2
100
AcDbLine
 10
398.037180904118
 20
653.3962896640807
 30
0.0
 11
398.037180904118
 21
493.3572896640805
 31
0.0
  0
SOLID
  5
2B44
330
2AEA
100
AcDbEntity
  8
5
100
AcDbTrace
 10
397.2038475707847
 20
653.3962896640807
 30
0.0
 11
398.8705142374513
 21
653.3962896640807
 31
0.0
 12
398.037180904118
 22
658.3962896640807
 32
0.0
 13
398.037180904118
 23
658.3962896640807
 33
0.0
  0
SOLID
  5
2B45
330
2AEA
100
AcDbEntity
  8
5
100
AcDbTrace
 10
397.2038475707847
 20
493.3572896640805
 30
0.0
 11
398.8705142374513
 21
493.3572896640805
 31
0.0
 12
398.037180904118
 22
488.3572896640806
 32
0.0
 13
398.037180904118
 23
488.3572896640806
 33
0.0
  0
MTEXT
  5
2B46
330
2AEA
100
AcDbEntity
  8
5
 62
     7
100
AcDbMText
 10
389.5504112600615
 20
573.3767896640808
 30
0.0
 40
14.0
 41
0.0
 71
     5
 72
     1
  1
170
 11
0.0000000000000001
 21
1.0
 31
0.0
 73
     1
 44
1.0
  0
POINT
  5
2B47
330
2AEA
100
AcDbEntity
  8
Defpoints
 62
     0
100
AcDbPoint
 10
386.037180904118
 20
658.3962896640807
 30
0.0
  0
POINT
  5
2B48
330
2AEA
100
AcDbEntity
  8
Defpoints
 62
     0
100
AcDbPoint
 10
356.4532606872177
 20
488.3572896640806
 30
0.0
  0
POINT
  5
2B49
330
2AEA
100
AcDbEntity
  8
Defpoints
 62
     0
100
AcDbPoint
 10
398.037180904118
 20
488.3572896640806
 30
0.0
  0
ENDBLK
  5
2AEC
330
2AEA
100
AcDbEntity
  8
0
100
AcDbBlockEnd
  0
BLOCK
  5
2B17
330
2B16
100
AcDbEntity
  8
0
100
AcDbBlockBegin
  2
*D45
 70
     1
 10
0.0
 20
0.0
 30
0.0
  3
*D45
  1

  0
LINE
  5
2B4A
330
2B16
100
AcDbEntity
  8
5
370
    -2
100
AcDbLine
 10
358.4532606872177
 20
488.3572896640806
 30
0.0
 11
399.9952750763896
 21
488.3572896640806
 31
0.0
  0
LINE
  5
2B4B
330
2B16
100
AcDbEntity
  8
5
370
    -2
100
AcDbLine
 10
350.0371809041179
 20
389.3572896640811
 30
0.0
 11
399.9952750763896
 21
389.3572896640809
 31
0.0
  0
LINE
  5
2B4C
330
2B16
100
AcDbEntity
  8
5
370
    -2
100
AcDbLine
 10
397.9952750763897
 20
483.3572896640807
 30
0.0
 11
397.9952750763897
 21
394.357289664081
 31
0.0
  0
SOLID
  5
2B4D
330
2B16
100
AcDbEntity
  8
5
100
AcDbTrace
 10
397.1619417430563
 20
483.3572896640807
 30
0.0
 11
398.8286084097229
 21
483.3572896640807
 31
0.0
 12
397.9952750763897
 22
488.3572896640806
 32
0.0
 13
397.9952750763897
 23
488.3572896640806
 33
0.0
  0
SOLID
  5
2B4E
330
2B16
100
AcDbEntity
  8
5
100
AcDbTrace
 10
397.1619417430563
 20
394.357289664081
 30
0.0
 11
398.8286084097229
 21
394.357289664081
 31
0.0
 12
397.9952750763897
 22
389.3572896640809
 32
0.0
 13
397.9952750763897
 23
389.3572896640809
 33
0.0
  0
MTEXT
  5
2B4F
330
2B16
100
AcDbEntity
  8
5
 62
     7
100
AcDbMText
 10
389.5179077157448
 20
438.8572896640808
 30
0.0
 40
14.0
 41
0.0
 71
     5
 72
     1
  1
99
 11
0.0000000000000001
 21
1.0
 31
0.0
 73
     1
 44
1.0
  0
POINT
  5
2B50
330
2B16
100
AcDbEntity
  8
Defpoints
 62
     0
100
AcDbPoint
 10
356.4532606872177
 20
488.3572896640806
 30
0.0
  0
POINT
  5
2B51
330
2B16
100
AcDbEntity
  8
Defpoints
 62
     0
100
AcDbPoint
 10
348.0371809041179
 20
389.3572896640811
 30
0.0
  0
POINT
  5
2B52
330
2B16
100
AcDbEntity
  8
Defpoints
 62
     0
100
AcDbPoint
 10
397.9952750763897
 20
389.3572896640809
 30
0.0
  0
ENDBLK
  5
2B18
330
2B16
100
AcDbEntity
  8
0
100
AcDbBlockEnd
  0
BLOCK
  5
2EB8
330
2EB7
100
AcDbEntity
  8
0
100
AcDbBlockBegin
  2
*D47
 70
     1
 10
0.0
 20
0.0
 30
0.0
  3
*D47
  1

  0
LINE
  5
2EEB
330
2EB7
100
AcDbEntity
  8
5
370
    -2
100
AcDbLine
 10
400.037180904118
 20
658.3962896640807
 30
0.0
 11
419.6487385343203
 21
658.3962896640807
 31
0.0
  0
LINE
  5
2EEC
330
2EB7
100
AcDbEntity
  8
5
370
    -2
100
AcDbLine
 10
350.0371809041179
 20
389.3572896640811
 30
0.0
 11
419.6487385343202
 21
389.3572896640811
 31
0.0
  0
LINE
  5
2EED
330
2EB7
100
AcDbEntity
  8
5
370
    -2
100
AcDbLine
 10
417.6487385343204
 20
653.3962896640807
 30
0.0
 11
417.6487385343203
 21
394.3572896640811
 31
0.0
  0
SOLID
  5
2EEE
330
2EB7
100
AcDbEntity
  8
5
100
AcDbTrace
 10
416.815405200987
 20
653.3962896640807
 30
0.0
 11
418.4820718676537
 21
653.3962896640807
 31
0.0
 12
417.6487385343204
 22
658.3962896640807
 32
0.0
 13
417.6487385343204
 23
658.3962896640807
 33
0.0
  0
SOLID
  5
2EEF
330
2EB7
100
AcDbEntity
  8
5
100
AcDbTrace
 10
416.815405200987
 20
394.3572896640811
 30
0.0
 11
418.4820718676536
 21
394.3572896640811
 31
0.0
 12
417.6487385343203
 22
389.3572896640811
 32
0.0
 13
417.6487385343203
 23
389.3572896640811
 33
0.0
  0
MTEXT
  5
2EF0
330
2EB7
100
AcDbEntity
  8
5
 62
     7
100
AcDbMText
 10
409.1572677485579
 20
523.8767896640809
 30
0.0
 40
14.0
 41
0.0
 71
     5
 72
     1
  1
269
 11
0.0000000000000001
 21
1.0
 31
0.0
 73
     1
 44
1.0
  0
POINT
  5
2EF1
330
2EB7
100
AcDbEntity
  8
Defpoints
 62
     0
100
AcDbPoint
 10
398.037180904118
 20
658.3962896640807
 30
0.0
  0
POINT
  5
2EF2
330
2EB7
100
AcDbEntity
  8
Defpoints
 62
     0
100
AcDbPoint
 10
348.0371809041179
 20
389.3572896640811
 30
0.0
  0
POINT
  5
2EF3
330
2EB7
100
AcDbEntity
  8
Defpoints
 62
     0
100
AcDbPoint
 10
417.6487385343203
 20
389.3572896640811
 30
0.0
  0
ENDBLK
  5
2EB9
330
2EB7
100
AcDbEntity
  8
0
100
AcDbBlockEnd
  0
ENDSEC
  0
SECTION
  2
ENTITIES
  0
LINE
  5
217
330
6C
100
AcDbEntity
  8
0
100
AcDbLine
 10
348.0371809041177
 20
389.3572896640811
 30
0.0
 11
242.0371809041183
 21
389.3572896640811
 31
0.0
  0
ARC
  5
218
330
6C
100
AcDbEntity
  8
0
100
AcDbCircle
 10
346.0371809041177
 20
397.3480012695683
 30
0.0
 40
3.999999999999912
100
AcDbArc
 50
344.9999999999998
 51
0.0
  0
LINE
  5
21A
330
6C
100
AcDbEntity
  8
0
100
AcDbLine
 10
240.0371809041183
 20
397.3480012695683
 30
0.0
 11
240.0371809041183
 21
427.3572896640809
 31
0.0
  0
LINE
  5
21B
330
6C
100
AcDbEntity
  8
0
100
AcDbLine
 10
350.0371809041177
 20
397.3480012695683
 30
0.0
 11
350.0371809041177
 21
427.3572896640809
 31
0.0
  0
LINE
  5
21E
330
6C
100
AcDbEntity
  8
0
100
AcDbLine
 10
242.0371809041183
 20
389.3572896640811
 30
0.0
 11
240.0371809041183
 21
397.3480012695683
 31
0.0
  0
LINE
  5
21F
330
6C
100
AcDbEntity
  8
0
100
AcDbLine
 10
348.0371809041177
 20
389.3572896640811
 30
0.0
 11
349.9008842092739
 21
396.3127250891584
 31
0.0
  0
LINE
  5
220
330
6C
100
AcDbEntity
  8
0
100
AcDbLine
 10
240.0371809041183
 20
427.3572896640809
 30
0.0
 11
240.0371809041183
 21
445.9404159072446
 31
0.0
  0
LINE
  5
221
330
6C
100
AcDbEntity
  8
0
100
AcDbLine
 10
350.0371809041177
 20
427.3572896640809
 30
0.0
 11
350.0371809041177
 21
445.9404159072446
 31
0.0
  0
ARC
  5
222
330
6C
100
AcDbEntity
  8
0
100
AcDbCircle
 10
349.0371809041176
 20
445.9404159072446
 30
0.0
 40
0.9999999999999948
100
AcDbArc
 50
0.0
 51
45.25994872348682
  0
ARC
  5
223
330
6C
100
AcDbEntity
  8
0
100
AcDbCircle
 10
241.0371809041182
 20
445.9404159072446
 30
0.0
 40
0.9999999999999962
100
AcDbArc
 50
134.7400512765146
 51
180.0
  0
LINE
  5
224
330
6C
100
AcDbEntity
  8
0
100
AcDbLine
 10
346.4352352047733
 20
449.9266989813566
 30
0.0
 11
349.7410723028062
 21
446.6507235158568
 31
0.0
  0
LINE
  5
225
330
6C
100
AcDbEntity
  8
0
100
AcDbLine
 10
243.6391266034625
 20
449.9266989813566
 30
0.0
 11
240.3332895054297
 21
446.6507235158568
 31
0.0
  0
ARC
  5
226
330
6C
100
AcDbEntity
  8
0
100
AcDbCircle
 10
346.7871809041176
 20
450.2818527856627
 30
0.0
 40
0.4999999999999958
100
AcDbArc
 50
180.0
 51
225.2599487234839
  0
ARC
  5
227
330
6C
100
AcDbEntity
  8
0
100
AcDbCircle
 10
243.2871809041182
 20
450.2818527856627
 30
0.0
 40
0.4999999999999964
100
AcDbArc
 50
314.7400512765131
 51
0.0
  0
LINE
  5
228
330
6C
100
AcDbEntity
  8
0
100
AcDbLine
 10
243.7871809041183
 20
450.2818527856627
 30
0.0
 11
243.7871809041183
 21
476.4158527856626
 31
0.0
  0
LINE
  5
229
330
6C
100
AcDbEntity
  8
0
100
AcDbLine
 10
346.2871809041176
 20
450.2818527856627
 30
0.0
 11
346.2871809041176
 21
476.4158527856626
 31
0.0
  0
ARC
  5
22A
330
6C
100
AcDbEntity
  8
0
100
AcDbCircle
 10
346.7871809041176
 20
476.4158527856626
 30
0.0
 40
0.4999999999999984
100
AcDbArc
 50
134.7400512765161
 51
180.0
  0
ARC
  5
22B
330
6C
100
AcDbEntity
  8
0
100
AcDbCircle
 10
243.2871809041182
 20
476.4158527856626
 30
0.0
 40
0.4999999999999976
100
AcDbArc
 50
0.0
 51
45.25994872348682
  0
LINE
  5
22C
330
6C
100
AcDbEntity
  8
0
100
AcDbLine
 10
243.6391266034625
 20
476.7710065899686
 30
0.0
 11
240.3332895054297
 21
480.0469820554686
 31
0.0
  0
LINE
  5
22D
330
6C
100
AcDbEntity
  8
0
100
AcDbLine
 10
346.4352352047733
 20
476.7710065899686
 30
0.0
 11
349.7410723028062
 21
480.0469820554686
 31
0.0
  0
ARC
  5
22E
330
6C
100
AcDbEntity
  8
0
100
AcDbCircle
 10
349.0371809041176
 20
480.7572896640806
 30
0.0
 40
0.9999999999999962
100
AcDbArc
 50
314.7400512765131
 51
0.0
  0
ARC
  5
22F
330
6C
100
AcDbEntity
  8
0
100
AcDbCircle
 10
241.0371809041182
 20
480.7572896640806
 30
0.0
 40
0.9999999999999948
100
AcDbArc
 50
180.0
 51
225.2599487234853
  0
LINE
  5
230
330
6C
100
AcDbEntity
  8
0
100
AcDbLine
 10
240.0371809041183
 20
480.7572896640806
 30
0.0
 11
240.0371809041183
 21
483.3572896640807
 31
0.0
  0
LINE
  5
231
330
6C
100
AcDbEntity
  8
0
100
AcDbLine
 10
350.0371809041177
 20
480.7572896640806
 30
0.0
 11
350.0371809041177
 21
483.3572896640807
 31
0.0
  0
LINE
  5
232
330
6C
100
AcDbEntity
  8
0
100
AcDbLine
 10
385.9456722834283
 20
658.3962896640807
 30
0.0
 11
204.037180904118
 21
658.3962896640807
 31
0.0
  0
LINE
  5
233
330
6C
100
AcDbEntity
  8
0
100
AcDbLine
 10
386.0371809041179
 20
656.8962896640806
 30
0.0
 11
204.037180904118
 21
656.8962896640806
 31
0.0
  0
LINE
  5
234
330
6C
100
AcDbEntity
  8
0
100
AcDbLine
 10
204.0371809041179
 20
656.8962896640806
 30
0.0
 11
204.0371809041179
 21
658.3962896640807
 31
0.0
  0
LINE
  5
235
330
6C
100
AcDbEntity
  8
0
100
AcDbLine
 10
386.037180904118
 20
656.8962896640806
 30
0.0
 11
386.037180904118
 21
658.3962896640807
 31
0.0
  0
LINE
  5
249
330
6C
100
AcDbEntity
  8
0
100
AcDbLine
 10
350.5371809041179
 20
483.3572896640807
 30
0.0
 11
239.5371809041179
 21
483.3572896640807
 31
0.0
  0
LINE
  5
24A
330
6C
100
AcDbEntity
  8
0
100
AcDbLine
 10
357.037180904118
 20
488.3572896640806
 30
0.0
 11
233.0371809041179
 21
488.3572896640806
 31
0.0
  0
LINE
  5
24B
330
6C
100
AcDbEntity
  8
0
100
AcDbLine
 10
216.5371809041179
 20
599.454108506723
 30
0.0
 11
216.5371809041179
 21
654.8962896640808
 31
0.0
  0
LINE
  5
24C
330
6C
100
AcDbEntity
  8
0
100
AcDbLine
 10
373.537180904118
 20
599.454108506723
 30
0.0
 11
373.537180904118
 21
654.8962896640808
 31
0.0
  0
ARC
  5
24D
330
6C
100
AcDbEntity
  8
0
100
AcDbCircle
 10
356.4532606872177
 20
482.3572896640806
 30
0.0
 40
5.999999999999986
100
AcDbArc
 50
90.0
 51
170.4059317731394
  0
ARC
  5
24E
330
6C
100
AcDbEntity
  8
0
100
AcDbCircle
 10
233.6211011210183
 20
482.3572896640806
 30
0.0
 40
5.999999999999986
100
AcDbArc
 50
9.594068226860647
 51
90.0
  0
ARC
  5
24F
330
6C
100
AcDbEntity
  8
0
100
AcDbCircle
 10
357.037180904118
 20
504.8572896640806
 30
0.0
 40
16.5
100
AcDbArc
 50
270.0
 51
0.0
  0
ARC
  5
250
330
6C
100
AcDbEntity
  8
0
100
AcDbCircle
 10
233.0371809041179
 20
504.8572896640806
 30
0.0
 40
16.5
100
AcDbArc
 50
180.0
 51
270.0
  0
LINE
  5
251
330
6C
100
AcDbEntity
  8
0
100
AcDbLine
 10
216.5371809041179
 20
504.8572896640806
 30
0.0
 11
216.5371809041179
 21
587.2604708214381
 31
0.0
  0
LINE
  5
252
330
6C
100
AcDbEntity
  8
0
100
AcDbLine
 10
373.537180904118
 20
504.8572896640806
 30
0.0
 11
373.537180904118
 21
587.2604708214381
 31
0.0
  0
ARC
  5
253
330
6C
100
AcDbEntity
  8
0
100
AcDbCircle
 10
370.0371809041179
 20
587.2604708214381
 30
0.0
 40
3.500000000000001
100
AcDbArc
 50
0.0
 51
60.00000000000054
  0
ARC
  5
254
330
6C
100
AcDbEntity
  8
0
100
AcDbCircle
 10
220.0371809041179
 20
587.2604708214381
 30
0.0
 40
3.5
100
AcDbArc
 50
119.9999999999999
 51
180.0
  0
LINE
  5
255
330
6C
100
AcDbEntity
  8
0
100
AcDbLine
 10
370.2271809041179
 20
591.1922261546195
 30
0.0
 11
371.7871809041179
 21
590.2915597346837
 31
0.0
  0
LINE
  5
256
330
6C
100
AcDbEntity
  8
0
100
AcDbLine
 10
219.847180904118
 20
591.1922261546195
 30
0.0
 11
218.2871809041179
 21
590.2915597346837
 31
0.0
  0
ARC
  5
257
330
6C
100
AcDbEntity
  8
0
100
AcDbCircle
 10
371.4771809041179
 20
593.3572896640806
 30
0.0
 40
2.5
100
AcDbArc
 50
119.9999999999997
 51
240.0000000000002
  0
ARC
  5
258
330
6C
100
AcDbEntity
  8
0
100
AcDbCircle
 10
218.597180904118
 20
593.3572896640806
 30
0.0
 40
2.5
100
AcDbArc
 50
300.0000000000005
 51
60.00000000000023
  0
LINE
  5
259
330
6C
100
AcDbEntity
  8
0
100
AcDbLine
 10
219.847180904118
 20
595.5223531735417
 30
0.0
 11
218.2871809041179
 21
596.4230195934776
 31
0.0
  0
LINE
  5
25A
330
6C
100
AcDbEntity
  8
0
100
AcDbLine
 10
370.2271809041179
 20
595.5223531735417
 30
0.0
 11
371.7871809041179
 21
596.4230195934776
 31
0.0
  0
ARC
  5
25B
330
6C
100
AcDbEntity
  8
0
100
AcDbCircle
 10
370.0371809041179
 20
599.4541085067233
 30
0.0
 40
3.5
100
AcDbArc
 50
299.9999999999994
 51
0.0
  0
ARC
  5
25C
330
6C
100
AcDbEntity
  8
0
100
AcDbCircle
 10
220.0371809041179
 20
599.4541085067233
 30
0.0
 40
3.5
100
AcDbArc
 50
180.0
 51
240.0
  0
ARC
  5
25F
330
6C
100
AcDbEntity
  8
0
100
AcDbCircle
 10
375.5371809041179
 20
654.8962896640808
 30
0.0
 40
2.0
100
AcDbArc
 50
90.0
 51
180.0
  0
ARC
  5
260
330
6C
100
AcDbEntity
  8
0
100
AcDbCircle
 10
214.5371809041179
 20
654.8962896640808
 30
0.0
 40
2.0
100
AcDbArc
 50
0.0
 51
90.0
  0
LINE
  5
261
330
6C
100
AcDbEntity
  8
0
100
AcDbLine
 10
378.537180904118
 20
676.3962896640805
 30
0.0
 11
385.5371809041179
 21
676.3962896640805
 31
0.0
  0
LINE
  5
262
330
6C
100
AcDbEntity
  8
0
100
AcDbLine
 10
386.037180904118
 20
675.8962896640805
 30
0.0
 11
378.037180904118
 21
675.8962896640805
 31
0.0
  0
LINE
  5
263
330
6C
100
AcDbEntity
  8
0
100
AcDbLine
 10
385.537180904118
 20
676.3962896640805
 30
0.0
 11
386.037180904118
 21
675.8962896640805
 31
0.0
  0
LINE
  5
264
330
6C
100
AcDbEntity
  8
0
100
AcDbLine
 10
378.537180904118
 20
676.3962896640805
 30
0.0
 11
378.037180904118
 21
675.8962896640805
 31
0.0
  0
LINE
  5
265
330
6C
100
AcDbEntity
  8
0
100
AcDbLine
 10
386.037180904118
 20
675.8962896640805
 30
0.0
 11
386.037180904118
 21
664.8962896640807
 31
0.0
  0
LINE
  5
266
330
6C
100
AcDbEntity
  8
0
100
AcDbLine
 10
378.037180904118
 20
675.8962896640805
 30
0.0
 11
378.037180904118
 21
664.8962896640807
 31
0.0
  0
LINE
  5
91C
330
6C
100
AcDbEntity
  8
0
100
AcDbLine
 10
348.0371809041179
 20
389.3572896640811
 30
0.0
 11
242.037180904118
 21
389.3572896640811
 31
0.0
  0
LINE
  5
921
330
6C
100
AcDbEntity
  8
0
100
AcDbLine
 10
240.037180904118
 20
411.5933576415808
 30
0.0
 11
240.037180904118
 21
415.1212216865811
 31
0.0
  0
LINE
  5
922
330
6C
100
AcDbEntity
  8
0
100
AcDbLine
 10
350.0371809041179
 20
411.5933576415808
 30
0.0
 11
350.0371809041179
 21
415.1212216865811
 31
0.0
  0
LINE
  5
926
330
6C
100
AcDbEntity
  8
0
100
AcDbLine
 10
350.0371809041179
 20
401.5933576415807
 30
0.0
 11
350.0371809041179
 21
407.1212216865813
 31
0.0
  0
LINE
  5
933
330
6C
100
AcDbEntity
  8
0
100
AcDbLine
 10
387.687180904118
 20
664.8962896640807
 30
0.0
 11
376.3871809041179
 21
664.8962896640807
 31
0.0
  0
LINE
  5
934
330
6C
100
AcDbEntity
  8
0
100
AcDbLine
 10
385.9456722834283
 20
658.3962896640807
 30
0.0
 11
387.687180904118
 21
658.3962896640807
 31
0.0
  0
POLYLINE
  5
935
330
6C
100
AcDbEntity
  8
0
100
AcDb2dPolyline
 66
     1
 10
0.0
 20
0.0
 30
0.0
 70
   128
  0
VERTEX
  5
936
330
935
100
AcDbEntity
  8
0
100
AcDbVertex
100
AcDb2dVertex
 10
388.8115235180978
 20
663.8249853576929
 30
0.0
  0
VERTEX
  5
937
330
935
100
AcDbEntity
  8
0
100
AcDbVertex
100
AcDb2dVertex
 10
388.7836995521058
 20
663.9236665095597
 30
0.0
  0
VERTEX
  5
939
330
935
100
AcDbEntity
  8
0
100
AcDbVertex
100
AcDb2dVertex
 10
388.7567977458057
 20
664.0116863276272
 30
0.0
  0
VERTEX
  5
93A
330
935
100
AcDbEntity
  8
0
100
AcDbVertex
100
AcDb2dVertex
 10
388.7307040886818
 20
664.0896682764799
 30
0.0
  0
VERTEX
  5
93B
330
935
100
AcDbEntity
  8
0
100
AcDbVertex
100
AcDb2dVertex
 10
388.7053141665515
 20
664.1581479038507
 30
0.0
  0
VERTEX
  5
93C
330
935
100
AcDbEntity
  8
0
100
AcDbVertex
100
AcDb2dVertex
 10
388.6805318173771
 20
664.2175828989059
 30
0.0
  0
VERTEX
  5
93D
330
935
100
AcDbEntity
  8
0
100
AcDbVertex
100
AcDb2dVertex
 10
388.6562676701926
 20
664.2683609898597
 30
0.0
  0
VERTEX
  5
93E
330
935
100
AcDbEntity
  8
0
100
AcDbVertex
100
AcDb2dVertex
 10
388.6324379996213
 20
664.3108065004855
 30
0.0
  0
VERTEX
  5
93F
330
935
100
AcDbEntity
  8
0
100
AcDbVertex
100
AcDb2dVertex
 10
388.6089637615668
 20
664.3451854910164
 30
0.0
  0
VERTEX
  5
940
330
935
100
AcDbEntity
  8
0
100
AcDbVertex
100
AcDb2dVertex
 10
388.5857695821509
 20
664.3717104520113
 30
0.0
  0
VERTEX
  5
941
330
935
100
AcDbEntity
  8
0
100
AcDbVertex
100
AcDb2dVertex
 10
388.5627830213311
 20
664.3905432845861
 30
0.0
  0
VERTEX
  5
942
330
935
100
AcDbEntity
  8
0
100
AcDbVertex
100
AcDb2dVertex
 10
388.5399337123291
 20
664.4017978708655
 30
0.0
  0
VERTEX
  5
943
330
935
100
AcDbEntity
  8
0
100
AcDbVertex
100
AcDb2dVertex
 10
388.5171526909975
 20
664.4055419366269
 30
0.0
  0
VERTEX
  5
944
330
935
100
AcDbEntity
  8
0
100
AcDbVertex
100
AcDb2dVertex
 10
388.4943716696658
 20
664.4017978708655
 30
0.0
  0
VERTEX
  5
945
330
935
100
AcDbEntity
  8
0
100
AcDbVertex
100
AcDb2dVertex
 10
388.4715223606639
 20
664.3905432845861
 30
0.0
  0
VERTEX
  5
946
330
935
100
AcDbEntity
  8
0
100
AcDbVertex
100
AcDb2dVertex
 10
388.4485357998441
 20
664.3717104520113
 30
0.0
  0
VERTEX
  5
947
330
935
100
AcDbEntity
  8
0
100
AcDbVertex
100
AcDb2dVertex
 10
388.4253416204282
 20
664.3451854910164
 30
0.0
  0
VERTEX
  5
948
330
935
100
AcDbEntity
  8
0
100
AcDbVertex
100
AcDb2dVertex
 10
388.4018673823737
 20
664.3108065004855
 30
0.0
  0
VERTEX
  5
949
330
935
100
AcDbEntity
  8
0
100
AcDbVertex
100
AcDb2dVertex
 10
388.3780377118023
 20
664.2683609898597
 30
0.0
  0
VERTEX
  5
94A
330
935
100
AcDbEntity
  8
0
100
AcDbVertex
100
AcDb2dVertex
 10
388.3537735646178
 20
664.2175828989059
 30
0.0
  0
VERTEX
  5
94B
330
935
100
AcDbEntity
  8
0
100
AcDbVertex
100
AcDb2dVertex
 10
388.3289912154435
 20
664.1581479038507
 30
0.0
  0
VERTEX
  5
94C
330
935
100
AcDbEntity
  8
0
100
AcDbVertex
100
AcDb2dVertex
 10
388.3036012933132
 20
664.0896682764799
 30
0.0
  0
VERTEX
  5
94D
330
935
100
AcDbEntity
  8
0
100
AcDbVertex
100
AcDb2dVertex
 10
388.2775076361893
 20
664.0116863276272
 30
0.0
  0
VERTEX
  5
94E
330
935
100
AcDbEntity
  8
0
100
AcDbVertex
100
AcDb2dVertex
 10
388.2506058298893
 20
663.9236665095597
 30
0.0
  0
VERTEX
  5
94F
330
935
100
AcDbEntity
  8
0
100
AcDbVertex
100
AcDb2dVertex
 10
388.2227818638972
 20
663.8249853576929
 30
0.0
  0
SEQEND
  5
938
330
935
100
AcDbEntity
  8
0
  0
POLYLINE
  5
950
330
6C
100
AcDbEntity
  8
0
100
AcDb2dPolyline
 66
     1
 10
0.0
 20
0.0
 30
0.0
 70
   128
  0
VERTEX
  5
951
330
950
100
AcDbEntity
  8
0
100
AcDbVertex
100
AcDb2dVertex
 10
375.2628382901381
 20
663.8249853576929
 30
0.0
  0
VERTEX
  5
952
330
950
100
AcDbEntity
  8
0
100
AcDbVertex
100
AcDb2dVertex
 10
375.2748313454743
 20
663.868440645507
 30
0.0
  0
VERTEX
  5
954
330
950
100
AcDbEntity
  8
0
100
AcDbVertex
100
AcDb2dVertex
 10
375.2866438588351
 20
663.9098830099612
 30
0.0
  0
VERTEX
  5
955
330
950
100
AcDbEntity
  8
0
100
AcDbVertex
100
AcDb2dVertex
 10
375.2982853914879
 20
663.9493674363404
 30
0.0
  0
VERTEX
  5
956
330
950
100
AcDbEntity
  8
0
100
AcDbVertex
100
AcDb2dVertex
 10
375.3097651540423
 20
663.9869454081565
 30
0.0
  0
VERTEX
  5
957
330
950
100
AcDbEntity
  8
0
100
AcDbVertex
100
AcDb2dVertex
 10
375.3210920298276
 20
664.0226652796775
 30
0.0
  0
VERTEX
  5
958
330
950
100
AcDbEntity
  8
0
100
AcDbVertex
100
AcDb2dVertex
 10
375.3322745281378
 20
664.0565724994451
 30
0.0
  0
VERTEX
  5
959
330
950
100
AcDbEntity
  8
0
100
AcDbVertex
100
AcDb2dVertex
 10
375.3433208076095
 20
664.0887096102742
 30
0.0
  0
VERTEX
  5
95A
330
950
100
AcDbEntity
  8
0
100
AcDbVertex
100
AcDb2dVertex
 10
375.3542388398615
 20
664.119116398266
 30
0.0
  0
VERTEX
  5
95B
330
950
100
AcDbEntity
  8
0
100
AcDbVertex
100
AcDb2dVertex
 10
375.3650362224781
 20
664.1478300418167
 30
0.0
  0
VERTEX
  5
95C
330
950
100
AcDbEntity
  8
0
100
AcDbVertex
100
AcDb2dVertex
 10
375.3757203777145
 20
664.1748854096443
 30
0.0
  0
VERTEX
  5
95D
330
950
100
AcDbEntity
  8
0
100
AcDbVertex
100
AcDb2dVertex
 10
375.386298435611
 20
664.200314837268
 30
0.0
  0
VERTEX
  5
95E
330
950
100
AcDbEntity
  8
0
100
AcDbVertex
100
AcDb2dVertex
 10
375.396777362568
 20
664.2241485740452
 30
0.0
  0
VERTEX
  5
95F
330
950
100
AcDbEntity
  8
0
100
AcDbVertex
100
AcDb2dVertex
 10
375.4071638912137
 20
664.2464145596534
 30
0.0
  0
VERTEX
  5
960
330
950
100
AcDbEntity
  8
0
100
AcDbVertex
100
AcDb2dVertex
 10
375.4174645788478
 20
664.2671387221127
 30
0.0
  0
VERTEX
  5
961
330
950
100
AcDbEntity
  8
0
100
AcDbVertex
100
AcDb2dVertex
 10
375.4276858425066
 20
664.2863451267987
 30
0.0
  0
VERTEX
  5
962
330
950
100
AcDbEntity
  8
0
100
AcDbVertex
100
AcDb2dVertex
 10
375.4378339005203
 20
664.3040556784183
 30
0.0
  0
VERTEX
  5
963
330
950
100
AcDbEntity
  8
0
100
AcDbVertex
100
AcDb2dVertex
 10
375.4479148660222
 20
664.3202905307918
 30
0.0
  0
VERTEX
  5
964
330
950
100
AcDbEntity
  8
0
100
AcDbVertex
100
AcDb2dVertex
 10
375.457934688505
 20
664.3350680868536
 30
0.0
  0
VERTEX
  5
965
330
950
100
AcDbEntity
  8
0
100
AcDbVertex
100
AcDb2dVertex
 10
375.4678992531743
 20
664.3484049613983
 30
0.0
  0
VERTEX
  5
966
330
950
100
AcDbEntity
  8
0
100
AcDbVertex
100
AcDb2dVertex
 10
375.4778142932839
 20
664.3603160183339
 30
0.0
  0
VERTEX
  5
967
330
950
100
AcDbEntity
  8
0
100
AcDbVertex
100
AcDb2dVertex
 10
375.4876854661115
 20
664.3708145196945
 30
0.0
  0
VERTEX
  5
968
330
950
100
AcDbEntity
  8
0
100
AcDbVertex
100
AcDb2dVertex
 10
375.4975183646485
 20
664.3799121256381
 30
0.0
  0
VERTEX
  5
969
330
950
100
AcDbEntity
  8
0
100
AcDbVertex
100
AcDb2dVertex
 10
375.5073184766877
 20
664.3876187826903
 30
0.0
  0
VERTEX
  5
96A
330
950
100
AcDbEntity
  8
0
100
AcDbVertex
100
AcDb2dVertex
 10
375.5170912637236
 20
664.3939430217653
 30
0.0
  0
SEQEND
  5
953
330
950
100
AcDbEntity
  8
0
  0
POLYLINE
  5
96B
330
6C
100
AcDbEntity
  8
0
100
AcDb2dPolyline
 66
     1
 10
0.0
 20
0.0
 30
0.0
 70
   128
  0
VERTEX
  5
96C
330
96B
100
AcDbEntity
  8
0
100
AcDbVertex
100
AcDb2dVertex
 10
381.4484392499174
 20
663.8249853576929
 30
0.0
  0
VERTEX
  5
96D
330
96B
100
AcDbEntity
  8
0
100
AcDbVertex
100
AcDb2dVertex
 10
381.1561073311974
 20
663.9236665095597
 30
0.0
  0
VERTEX
  5
96F
330
96B
100
AcDbEntity
  8
0
100
AcDbVertex
100
AcDb2dVertex
 10
380.8734641219292
 20
664.0116863276272
 30
0.0
  0
VERTEX
  5
970
330
96B
100
AcDbEntity
  8
0
100
AcDbVertex
100
AcDb2dVertex
 10
380.5993115432528
 20
664.0896682764799
 30
0.0
  0
VERTEX
  5
971
330
96B
100
AcDbEntity
  8
0
100
AcDbVertex
100
AcDb2dVertex
 10
380.3325530257144
 20
664.1581479038507
 30
0.0
  0
VERTEX
  5
972
330
96B
100
AcDbEntity
  8
0
100
AcDbVertex
100
AcDb2dVertex
 10
380.0721779364607
 20
664.2175828989059
 30
0.0
  0
VERTEX
  5
973
330
96B
100
AcDbEntity
  8
0
100
AcDbVertex
100
AcDb2dVertex
 10
379.8172471096322
 20
664.2683609898597
 30
0.0
  0
VERTEX
  5
974
330
96B
100
AcDbEntity
  8
0
100
AcDbVertex
100
AcDb2dVertex
 10
379.5668812632519
 20
664.3108065004855
 30
0.0
  0
VERTEX
  5
975
330
96B
100
AcDbEntity
  8
0
100
AcDbVertex
100
AcDb2dVertex
 10
379.3202495358157
 20
664.3451854910164
 30
0.0
  0
VERTEX
  5
976
330
96B
100
AcDbEntity
  8
0
100
AcDbVertex
100
AcDb2dVertex
 10
379.0765605399869
 20
664.3717104520113
 30
0.0
  0
VERTEX
  5
977
330
96B
100
AcDbEntity
  8
0
100
AcDbVertex
100
AcDb2dVertex
 10
378.8350527836156
 20
664.3905432845861
 30
0.0
  0
VERTEX
  5
978
330
96B
100
AcDbEntity
  8
0
100
AcDbVertex
100
AcDb2dVertex
 10
378.5949870219397
 20
664.4017978708655
 30
0.0
  0
VERTEX
  5
979
330
96B
100
AcDbEntity
  8
0
100
AcDbVertex
100
AcDb2dVertex
 10
378.3556387583392
 20
664.4055419366269
 30
0.0
  0
VERTEX
  5
97A
330
96B
100
AcDbEntity
  8
0
100
AcDbVertex
100
AcDb2dVertex
 10
378.116290244388
 20
664.4017978708655
 30
0.0
  0
VERTEX
  5
97B
330
96B
100
AcDbEntity
  8
0
100
AcDbVertex
100
AcDb2dVertex
 10
377.8762244359579
 20
664.3905432845861
 30
0.0
  0
VERTEX
  5
97C
330
96B
100
AcDbEntity
  8
0
100
AcDbVertex
100
AcDb2dVertex
 10
377.634716828139
 20
664.3717104520113
 30
0.0
  0
VERTEX
  5
97D
330
96B
100
AcDbEntity
  8
0
100
AcDbVertex
100
AcDb2dVertex
 10
377.3910276837578
 20
664.3451854910164
 30
0.0
  0
VERTEX
  5
97E
330
96B
100
AcDbEntity
  8
0
100
AcDbVertex
100
AcDb2dVertex
 10
377.144396104874
 20
664.3108065004855
 30
0.0
  0
VERTEX
  5
97F
330
96B
100
AcDbEntity
  8
0
100
AcDbVertex
100
AcDb2dVertex
 10
376.8940302584935
 20
664.2683609898597
 30
0.0
  0
VERTEX
  5
980
330
96B
100
AcDbEntity
  8
0
100
AcDbVertex
100
AcDb2dVertex
 10
376.6390994550424
 20
664.2175828989059
 30
0.0
  0
VERTEX
  5
981
330
96B
100
AcDbEntity
  8
0
100
AcDbVertex
100
AcDb2dVertex
 10
376.3787245143411
 20
664.1581479038507
 30
0.0
  0
VERTEX
  5
982
330
96B
100
AcDbEntity
  8
0
100
AcDbVertex
100
AcDb2dVertex
 10
376.1119655277682
 20
664.0896682764799
 30
0.0
  0
VERTEX
  5
983
330
96B
100
AcDbEntity
  8
0
100
AcDbVertex
100
AcDb2dVertex
 10
375.8378128885764
 20
664.0116863276272
 30
0.0
  0
VERTEX
  5
984
330
96B
100
AcDbEntity
  8
0
100
AcDbVertex
100
AcDb2dVertex
 10
375.5551701902892
 20
663.9236665095597
 30
0.0
  0
VERTEX
  5
985
330
96B
100
AcDbEntity
  8
0
100
AcDbVertex
100
AcDb2dVertex
 10
375.2628382901381
 20
663.8249853576929
 30
0.0
  0
SEQEND
  5
96E
330
96B
100
AcDbEntity
  8
0
  0
POLYLINE
  5
986
330
6C
100
AcDbEntity
  8
0
100
AcDb2dPolyline
 66
     1
 10
0.0
 20
0.0
 30
0.0
 70
   128
  0
VERTEX
  5
987
330
986
100
AcDbEntity
  8
0
100
AcDbVertex
100
AcDb2dVertex
 10
388.2227818638972
 20
663.8249853576929
 30
0.0
  0
VERTEX
  5
988
330
986
100
AcDbEntity
  8
0
100
AcDbVertex
100
AcDb2dVertex
 10
387.902625974377
 20
663.9236665095597
 30
0.0
  0
VERTEX
  5
98A
330
986
100
AcDbEntity
  8
0
100
AcDbVertex
100
AcDb2dVertex
 10
387.5930814697897
 20
664.0116863276272
 30
0.0
  0
VERTEX
  5
98B
330
986
100
AcDbEntity
  8
0
100
AcDbVertex
100
AcDb2dVertex
 10
387.292835173474
 20
664.0896682764799
 30
0.0
  0
VERTEX
  5
98C
330
986
100
AcDbEntity
  8
0
100
AcDbVertex
100
AcDb2dVertex
 10
387.0006862764594
 20
664.1581479038507
 30
0.0
  0
VERTEX
  5
98D
330
986
100
AcDbEntity
  8
0
100
AcDbVertex
100
AcDb2dVertex
 10
386.7155289982724
 20
664.2175828989059
 30
0.0
  0
VERTEX
  5
98E
330
986
100
AcDbEntity
  8
0
100
AcDbVertex
100
AcDb2dVertex
 10
386.4363340359481
 20
664.2683609898597
 30
0.0
  0
VERTEX
  5
98F
330
986
100
AcDbEntity
  8
0
100
AcDbVertex
100
AcDb2dVertex
 10
386.1621385189963
 20
664.3108065004855
 30
0.0
  0
VERTEX
  5
990
330
986
100
AcDbEntity
  8
0
100
AcDbVertex
100
AcDb2dVertex
 10
385.8920326962137
 20
664.3451854910164
 30
0.0
  0
VERTEX
  5
991
330
986
100
AcDbEntity
  8
0
100
AcDbVertex
100
AcDb2dVertex
 10
385.6251493665721
 20
664.3717104520113
 30
0.0
  0
VERTEX
  5
992
330
986
100
AcDbEntity
  8
0
100
AcDbVertex
100
AcDb2dVertex
 10
385.3606551628678
 20
664.3905432845861
 30
0.0
  0
VERTEX
  5
993
330
986
100
AcDbEntity
  8
0
100
AcDbVertex
100
AcDb2dVertex
 10
385.0977401228726
 20
664.4017978708655
 30
0.0
  0
VERTEX
  5
994
330
986
100
AcDbEntity
  8
0
100
AcDbVertex
100
AcDb2dVertex
 10
384.8356105452187
 20
664.4055419366269
 30
0.0
  0
VERTEX
  5
995
330
986
100
AcDbEntity
  8
0
100
AcDbVertex
100
AcDb2dVertex
 10
384.573481311424
 20
664.4017978708655
 30
0.0
  0
VERTEX
  5
996
330
986
100
AcDbEntity
  8
0
100
AcDbVertex
100
AcDb2dVertex
 10
384.3105662246744
 20
664.3905432845861
 30
0.0
  0
VERTEX
  5
997
330
986
100
AcDbEntity
  8
0
100
AcDbVertex
100
AcDb2dVertex
 10
384.0460718724177
 20
664.3717104520113
 30
0.0
  0
VERTEX
  5
998
330
986
100
AcDbEntity
  8
0
100
AcDbVertex
100
AcDb2dVertex
 10
383.7791886913287
 20
664.3451854910164
 30
0.0
  0
VERTEX
  5
999
330
986
100
AcDbEntity
  8
0
100
AcDbVertex
100
AcDb2dVertex
 10
383.5090827199936
 20
664.3108065004855
 30
0.0
  0
VERTEX
  5
99A
330
986
100
AcDbEntity
  8
0
100
AcDbVertex
100
AcDb2dVertex
 10
383.2348872030419
 20
664.2683609898597
 30
0.0
  0
VERTEX
  5
99B
330
986
100
AcDbEntity
  8
0
100
AcDbVertex
100
AcDb2dVertex
 10
382.9556922640947
 20
664.2175828989059
 30
0.0
  0
VERTEX
  5
99C
330
986
100
AcDbEntity
  8
0
100
AcDbVertex
100
AcDb2dVertex
 10
382.6705348373553
 20
664.1581479038507
 30
0.0
  0
VERTEX
  5
99D
330
986
100
AcDbEntity
  8
0
100
AcDbVertex
100
AcDb2dVertex
 10
382.3783863626207
 20
664.0896682764799
 30
0.0
  0
VERTEX
  5
99E
330
986
100
AcDbEntity
  8
0
100
AcDbVertex
100
AcDb2dVertex
 10
382.0781400800661
 20
664.0116863276272
 30
0.0
  0
VERTEX
  5
99F
330
986
100
AcDbEntity
  8
0
100
AcDbVertex
100
AcDb2dVertex
 10
381.7685951580066
 20
663.9236665095597
 30
0.0
  0
VERTEX
  5
9A0
330
986
100
AcDbEntity
  8
0
100
AcDbVertex
100
AcDb2dVertex
 10
381.4484392499173
 20
663.8249853576929
 30
0.0
  0
SEQEND
  5
989
330
986
100
AcDbEntity
  8
0
  0
POLYLINE
  5
9A1
330
6C
100
AcDbEntity
  8
0
100
AcDb2dPolyline
 66
     1
 10
0.0
 20
0.0
 30
0.0
 70
   128
  0
VERTEX
  5
9A2
330
9A1
100
AcDbEntity
  8
0
100
AcDbVertex
100
AcDb2dVertex
 10
388.2227818638972
 20
659.4675939853697
 30
0.0
  0
VERTEX
  5
9A3
330
9A1
100
AcDbEntity
  8
0
100
AcDbVertex
100
AcDb2dVertex
 10
388.2506058298893
 20
659.3689125354797
 30
0.0
  0
VERTEX
  5
9A5
330
9A1
100
AcDbEntity
  8
0
100
AcDbVertex
100
AcDb2dVertex
 10
388.2775076361893
 20
659.2808931644468
 30
0.0
  0
VERTEX
  5
9A6
330
9A1
100
AcDbEntity
  8
0
100
AcDbVertex
100
AcDb2dVertex
 10
388.3036012933132
 20
659.2029112155944
 30
0.0
  0
VERTEX
  5
9A7
330
9A1
100
AcDbEntity
  8
0
100
AcDbVertex
100
AcDb2dVertex
 10
388.3289912154435
 20
659.1344314392117
 30
0.0
  0
VERTEX
  5
9A8
330
9A1
100
AcDbEntity
  8
0
100
AcDbVertex
100
AcDb2dVertex
 10
388.3537735646178
 20
659.0749966676741
 30
0.0
  0
VERTEX
  5
9A9
330
9A1
100
AcDbEntity
  8
0
100
AcDbVertex
100
AcDb2dVertex
 10
388.3780377118023
 20
659.0242182786973
 30
0.0
  0
VERTEX
  5
9AA
330
9A1
100
AcDbEntity
  8
0
100
AcDbVertex
100
AcDb2dVertex
 10
388.4018673823737
 20
658.9817726190597
 30
0.0
  0
VERTEX
  5
9AB
330
9A1
100
AcDbEntity
  8
0
100
AcDbVertex
100
AcDb2dVertex
 10
388.4253416204282
 20
658.9473938520463
 30
0.0
  0
VERTEX
  5
9AC
330
9A1
100
AcDbEntity
  8
0
100
AcDbVertex
100
AcDb2dVertex
 10
388.4485357998441
 20
658.9208685930282
 30
0.0
  0
VERTEX
  5
9AD
330
9A1
100
AcDbEntity
  8
0
100
AcDbVertex
100
AcDb2dVertex
 10
388.4715223606639
 20
658.9020359094647
 30
0.0
  0
VERTEX
  5
9AE
330
9A1
100
AcDbEntity
  8
0
100
AcDbVertex
100
AcDb2dVertex
 10
388.4943716696658
 20
658.8907813604385
 30
0.0
  0
VERTEX
  5
9AF
330
9A1
100
AcDbEntity
  8
0
100
AcDbVertex
100
AcDb2dVertex
 10
388.5171526909975
 20
658.8870375927001
 30
0.0
  0
VERTEX
  5
9B0
330
9A1
100
AcDbEntity
  8
0
100
AcDbVertex
100
AcDb2dVertex
 10
388.5399337123292
 20
658.8907813604385
 30
0.0
  0
VERTEX
  5
9B1
330
9A1
100
AcDbEntity
  8
0
100
AcDbVertex
100
AcDb2dVertex
 10
388.5627830213311
 20
658.9020359094647
 30
0.0
  0
VERTEX
  5
9B2
330
9A1
100
AcDbEntity
  8
0
100
AcDbVertex
100
AcDb2dVertex
 10
388.5857695821509
 20
658.9208685930282
 30
0.0
  0
VERTEX
  5
9B3
330
9A1
100
AcDbEntity
  8
0
100
AcDbVertex
100
AcDb2dVertex
 10
388.6089637615668
 20
658.9473938520463
 30
0.0
  0
VERTEX
  5
9B4
330
9A1
100
AcDbEntity
  8
0
100
AcDbVertex
100
AcDb2dVertex
 10
388.6324379996213
 20
658.9817726190597
 30
0.0
  0
VERTEX
  5
9B5
330
9A1
100
AcDbEntity
  8
0
100
AcDbVertex
100
AcDb2dVertex
 10
388.6562676701926
 20
659.0242182786973
 30
0.0
  0
VERTEX
  5
9B6
330
9A1
100
AcDbEntity
  8
0
100
AcDbVertex
100
AcDb2dVertex
 10
388.6805318173771
 20
659.0749966676741
 30
0.0
  0
VERTEX
  5
9B7
330
9A1
100
AcDbEntity
  8
0
100
AcDbVertex
100
AcDb2dVertex
 10
388.7053141665515
 20
659.1344314392117
 30
0.0
  0
VERTEX
  5
9B8
330
9A1
100
AcDbEntity
  8
0
100
AcDbVertex
100
AcDb2dVertex
 10
388.7307040886818
 20
659.2029112155944
 30
0.0
  0
VERTEX
  5
9B9
330
9A1
100
AcDbEntity
  8
0
100
AcDbVertex
100
AcDb2dVertex
 10
388.7567977458057
 20
659.2808931644468
 30
0.0
  0
VERTEX
  5
9BA
330
9A1
100
AcDbEntity
  8
0
100
AcDbVertex
100
AcDb2dVertex
 10
388.7836995521058
 20
659.3689125354797
 30
0.0
  0
VERTEX
  5
9BB
330
9A1
100
AcDbEntity
  8
0
100
AcDbVertex
100
AcDb2dVertex
 10
388.8115235180978
 20
659.4675939853697
 30
0.0
  0
SEQEND
  5
9A4
330
9A1
100
AcDbEntity
  8
0
  0
POLYLINE
  5
9BC
330
6C
100
AcDbEntity
  8
0
100
AcDb2dPolyline
 66
     1
 10
0.0
 20
0.0
 30
0.0
 70
   128
  0
VERTEX
  5
9BD
330
9BC
100
AcDbEntity
  8
0
100
AcDbVertex
100
AcDb2dVertex
 10
381.4484392499174
 20
659.4675939853697
 30
0.0
  0
VERTEX
  5
9BE
330
9BC
100
AcDbEntity
  8
0
100
AcDbVertex
100
AcDb2dVertex
 10
381.7685951580066
 20
659.3689125354797
 30
0.0
  0
VERTEX
  5
9C0
330
9BC
100
AcDbEntity
  8
0
100
AcDbVertex
100
AcDb2dVertex
 10
382.0781400800661
 20
659.2808931644468
 30
0.0
  0
VERTEX
  5
9C1
330
9BC
100
AcDbEntity
  8
0
100
AcDbVertex
100
AcDb2dVertex
 10
382.3783863626207
 20
659.2029112155944
 30
0.0
  0
VERTEX
  5
9C2
330
9BC
100
AcDbEntity
  8
0
100
AcDbVertex
100
AcDb2dVertex
 10
382.6705348373553
 20
659.1344314392117
 30
0.0
  0
VERTEX
  5
9C3
330
9BC
100
AcDbEntity
  8
0
100
AcDbVertex
100
AcDb2dVertex
 10
382.9556922640947
 20
659.0749966676741
 30
0.0
  0
VERTEX
  5
9C4
330
9BC
100
AcDbEntity
  8
0
100
AcDbVertex
100
AcDb2dVertex
 10
383.2348872030419
 20
659.0242182786973
 30
0.0
  0
VERTEX
  5
9C5
330
9BC
100
AcDbEntity
  8
0
100
AcDbVertex
100
AcDb2dVertex
 10
383.5090827199936
 20
658.9817726190597
 30
0.0
  0
VERTEX
  5
9C6
330
9BC
100
AcDbEntity
  8
0
100
AcDbVertex
100
AcDb2dVertex
 10
383.7791886913287
 20
658.9473938520463
 30
0.0
  0
VERTEX
  5
9C7
330
9BC
100
AcDbEntity
  8
0
100
AcDbVertex
100
AcDb2dVertex
 10
384.0460718724177
 20
658.9208685930282
 30
0.0
  0
VERTEX
  5
9C8
330
9BC
100
AcDbEntity
  8
0
100
AcDbVertex
100
AcDb2dVertex
 10
384.3105662246744
 20
658.9020359094647
 30
0.0
  0
VERTEX
  5
9C9
330
9BC
100
AcDbEntity
  8
0
100
AcDbVertex
100
AcDb2dVertex
 10
384.573481311424
 20
658.8907813604385
 30
0.0
  0
VERTEX
  5
9CA
330
9BC
100
AcDbEntity
  8
0
100
AcDbVertex
100
AcDb2dVertex
 10
384.8356105452187
 20
658.8870375927001
 30
0.0
  0
VERTEX
  5
9CB
330
9BC
100
AcDbEntity
  8
0
100
AcDbVertex
100
AcDb2dVertex
 10
385.0977401228726
 20
658.8907813604385
 30
0.0
  0
VERTEX
  5
9CC
330
9BC
100
AcDbEntity
  8
0
100
AcDbVertex
100
AcDb2dVertex
 10
385.3606551628678
 20
658.9020359094647
 30
0.0
  0
VERTEX
  5
9CD
330
9BC
100
AcDbEntity
  8
0
100
AcDbVertex
100
AcDb2dVertex
 10
385.6251493665721
 20
658.9208685930282
 30
0.0
  0
VERTEX
  5
9CE
330
9BC
100
AcDbEntity
  8
0
100
AcDbVertex
100
AcDb2dVertex
 10
385.8920326962137
 20
658.9473938520463
 30
0.0
  0
VERTEX
  5
9CF
330
9BC
100
AcDbEntity
  8
0
100
AcDbVertex
100
AcDb2dVertex
 10
386.1621385189963
 20
658.9817726190597
 30
0.0
  0
VERTEX
  5
9D0
330
9BC
100
AcDbEntity
  8
0
100
AcDbVertex
100
AcDb2dVertex
 10
386.4363340359481
 20
659.0242182786973
 30
0.0
  0
VERTEX
  5
9D1
330
9BC
100
AcDbEntity
  8
0
100
AcDbVertex
100
AcDb2dVertex
 10
386.7155289982724
 20
659.0749966676741
 30
0.0
  0
VERTEX
  5
9D2
330
9BC
100
AcDbEntity
  8
0
100
AcDbVertex
100
AcDb2dVertex
 10
387.0006862764594
 20
659.1344314392117
 30
0.0
  0
VERTEX
  5
9D3
330
9BC
100
AcDbEntity
  8
0
100
AcDbVertex
100
AcDb2dVertex
 10
387.292835173474
 20
659.2029112155944
 30
0.0
  0
VERTEX
  5
9D4
330
9BC
100
AcDbEntity
  8
0
100
AcDbVertex
100
AcDb2dVertex
 10
387.5930814697897
 20
659.2808931644468
 30
0.0
  0
VERTEX
  5
9D5
330
9BC
100
AcDbEntity
  8
0
100
AcDbVertex
100
AcDb2dVertex
 10
387.902625974377
 20
659.3689125354797
 30
0.0
  0
VERTEX
  5
9D6
330
9BC
100
AcDbEntity
  8
0
100
AcDbVertex
100
AcDb2dVertex
 10
388.2227818638972
 20
659.4675939853697
 30
0.0
  0
SEQEND
  5
9BF
330
9BC
100
AcDbEntity
  8
0
  0
POLYLINE
  5
9D7
330
6C
100
AcDbEntity
  8
0
100
AcDb2dPolyline
 66
     1
 10
0.0
 20
0.0
 30
0.0
 70
   128
  0
VERTEX
  5
9D8
330
9D7
100
AcDbEntity
  8
0
100
AcDbVertex
100
AcDb2dVertex
 10
375.2628382901381
 20
659.4675939853697
 30
0.0
  0
VERTEX
  5
9D9
330
9D7
100
AcDbEntity
  8
0
100
AcDbVertex
100
AcDb2dVertex
 10
375.5551701902892
 20
659.3689125354797
 30
0.0
  0
VERTEX
  5
9DB
330
9D7
100
AcDbEntity
  8
0
100
AcDbVertex
100
AcDb2dVertex
 10
375.8378128885764
 20
659.2808931644468
 30
0.0
  0
VERTEX
  5
9DC
330
9D7
100
AcDbEntity
  8
0
100
AcDbVertex
100
AcDb2dVertex
 10
376.1119655277682
 20
659.2029112155944
 30
0.0
  0
VERTEX
  5
9DD
330
9D7
100
AcDbEntity
  8
0
100
AcDbVertex
100
AcDb2dVertex
 10
376.3787245143411
 20
659.1344314392117
 30
0.0
  0
VERTEX
  5
9DE
330
9D7
100
AcDbEntity
  8
0
100
AcDbVertex
100
AcDb2dVertex
 10
376.6390994550424
 20
659.0749966676741
 30
0.0
  0
VERTEX
  5
9DF
330
9D7
100
AcDbEntity
  8
0
100
AcDbVertex
100
AcDb2dVertex
 10
376.8940302584935
 20
659.0242182786973
 30
0.0
  0
VERTEX
  5
9E0
330
9D7
100
AcDbEntity
  8
0
100
AcDbVertex
100
AcDb2dVertex
 10
377.144396104874
 20
658.9817726190597
 30
0.0
  0
VERTEX
  5
9E1
330
9D7
100
AcDbEntity
  8
0
100
AcDbVertex
100
AcDb2dVertex
 10
377.3910276837578
 20
658.9473938520463
 30
0.0
  0
VERTEX
  5
9E2
330
9D7
100
AcDbEntity
  8
0
100
AcDbVertex
100
AcDb2dVertex
 10
377.634716828139
 20
658.9208685930282
 30
0.0
  0
VERTEX
  5
9E3
330
9D7
100
AcDbEntity
  8
0
100
AcDbVertex
100
AcDb2dVertex
 10
377.8762244359579
 20
658.9020359094647
 30
0.0
  0
VERTEX
  5
9E4
330
9D7
100
AcDbEntity
  8
0
100
AcDbVertex
100
AcDb2dVertex
 10
378.116290244388
 20
658.8907813604385
 30
0.0
  0
VERTEX
  5
9E5
330
9D7
100
AcDbEntity
  8
0
100
AcDbVertex
100
AcDb2dVertex
 10
378.3556387583392
 20
658.8870375927001
 30
0.0
  0
VERTEX
  5
9E6
330
9D7
100
AcDbEntity
  8
0
100
AcDbVertex
100
AcDb2dVertex
 10
378.5949870219397
 20
658.8907813604385
 30
0.0
  0
VERTEX
  5
9E7
330
9D7
100
AcDbEntity
  8
0
100
AcDbVertex
100
AcDb2dVertex
 10
378.8350527836156
 20
658.9020359094647
 30
0.0
  0
VERTEX
  5
9E8
330
9D7
100
AcDbEntity
  8
0
100
AcDbVertex
100
AcDb2dVertex
 10
379.0765605399869
 20
658.9208685930282
 30
0.0
  0
VERTEX
  5
9E9
330
9D7
100
AcDbEntity
  8
0
100
AcDbVertex
100
AcDb2dVertex
 10
379.3202495358157
 20
658.9473938520463
 30
0.0
  0
VERTEX
  5
9EA
330
9D7
100
AcDbEntity
  8
0
100
AcDbVertex
100
AcDb2dVertex
 10
379.5668812632519
 20
658.9817726190597
 30
0.0
  0
VERTEX
  5
9EB
330
9D7
100
AcDbEntity
  8
0
100
AcDbVertex
100
AcDb2dVertex
 10
379.8172471096322
 20
659.0242182786973
 30
0.0
  0
VERTEX
  5
9EC
330
9D7
100
AcDbEntity
  8
0
100
AcDbVertex
100
AcDb2dVertex
 10
380.0721779364607
 20
659.0749966676741
 30
0.0
  0
VERTEX
  5
9ED
330
9D7
100
AcDbEntity
  8
0
100
AcDbVertex
100
AcDb2dVertex
 10
380.3325530257144
 20
659.1344314392117
 30
0.0
  0
VERTEX
  5
9EE
330
9D7
100
AcDbEntity
  8
0
100
AcDbVertex
100
AcDb2dVertex
 10
380.5993115432528
 20
659.2029112155944
 30
0.0
  0
VERTEX
  5
9EF
330
9D7
100
AcDbEntity
  8
0
100
AcDbVertex
100
AcDb2dVertex
 10
380.8734641219292
 20
659.2808931644468
 30
0.0
  0
VERTEX
  5
9F0
330
9D7
100
AcDbEntity
  8
0
100
AcDbVertex
100
AcDb2dVertex
 10
381.1561073311974
 20
659.3689125354797
 30
0.0
  0
VERTEX
  5
9F1
330
9D7
100
AcDbEntity
  8
0
100
AcDbVertex
100
AcDb2dVertex
 10
381.4484392499174
 20
659.4675939853697
 30
0.0
  0
SEQEND
  5
9DA
330
9D7
100
AcDbEntity
  8
0
  0
POLYLINE
  5
9F2
330
6C
100
AcDbEntity
  8
0
100
AcDb2dPolyline
 66
     1
 10
0.0
 20
0.0
 30
0.0
 70
   128
  0
VERTEX
  5
9F3
330
9F2
100
AcDbEntity
  8
0
100
AcDbVertex
100
AcDb2dVertex
 10
375.5170912637236
 20
658.898636060527
 30
0.0
  0
VERTEX
  5
9F4
330
9F2
100
AcDbEntity
  8
0
100
AcDbVertex
100
AcDb2dVertex
 10
375.5073184766877
 20
658.9049607093841
 30
0.0
  0
VERTEX
  5
9F6
330
9F2
100
AcDbEntity
  8
0
100
AcDbVertex
100
AcDb2dVertex
 10
375.4975183646485
 20
658.9126669939071
 30
0.0
  0
VERTEX
  5
9F7
330
9F2
100
AcDbEntity
  8
0
100
AcDbVertex
100
AcDb2dVertex
 10
375.4876854661115
 20
658.9217650468856
 30
0.0
  0
VERTEX
  5
9F8
330
9F2
100
AcDbEntity
  8
0
100
AcDbVertex
100
AcDb2dVertex
 10
375.4778142932839
 20
658.9322632129699
 30
0.0
  0
VERTEX
  5
9F9
330
9F2
100
AcDbEntity
  8
0
100
AcDbVertex
100
AcDb2dVertex
 10
375.4678992531743
 20
658.9441746051817
 30
0.0
  0
VERTEX
  5
9FA
330
9F2
100
AcDbEntity
  8
0
100
AcDbVertex
100
AcDb2dVertex
 10
375.457934688505
 20
658.9575111444502
 30
0.0
  0
VERTEX
  5
9FB
330
9F2
100
AcDbEntity
  8
0
100
AcDbVertex
100
AcDb2dVertex
 10
375.4479148660222
 20
658.9722889240293
 30
0.0
  0
VERTEX
  5
9FC
330
9F2
100
AcDbEntity
  8
0
100
AcDbVertex
100
AcDb2dVertex
 10
375.4378339005203
 20
658.9885234411267
 30
0.0
  0
VERTEX
  5
9FD
330
9F2
100
AcDbEntity
  8
0
100
AcDbVertex
100
AcDb2dVertex
 10
375.4276858425066
 20
659.0062343652755
 30
0.0
  0
VERTEX
  5
9FE
330
9F2
100
AcDbEntity
  8
0
100
AcDbVertex
100
AcDb2dVertex
 10
375.4174645788478
 20
659.0254407699615
 30
0.0
  0
VERTEX
  5
9FF
330
9F2
100
AcDbEntity
  8
0
100
AcDbVertex
100
AcDb2dVertex
 10
375.4071638912137
 20
659.0461647089035
 30
0.0
  0
VERTEX
  5
A00
330
9F2
100
AcDbEntity
  8
0
100
AcDbVertex
100
AcDb2dVertex
 10
375.396777362568
 20
659.0684306200057
 30
0.0
  0
VERTEX
  5
A01
330
9F2
100
AcDbEntity
  8
0
100
AcDbVertex
100
AcDb2dVertex
 10
375.386298435611
 20
659.0922647293121
 30
0.0
  0
VERTEX
  5
A02
330
9F2
100
AcDbEntity
  8
0
100
AcDbVertex
100
AcDb2dVertex
 10
375.3757203777145
 20
659.1176938589126
 30
0.0
  0
VERTEX
  5
A03
330
9F2
100
AcDbEntity
  8
0
100
AcDbVertex
100
AcDb2dVertex
 10
375.3650362224781
 20
659.1447490032225
 30
0.0
  0
VERTEX
  5
A04
330
9F2
100
AcDbEntity
  8
0
100
AcDbVertex
100
AcDb2dVertex
 10
375.3542388398615
 20
659.1734629447967
 30
0.0
  0
VERTEX
  5
A05
330
9F2
100
AcDbEntity
  8
0
100
AcDbVertex
100
AcDb2dVertex
 10
375.3433208076095
 20
659.2038696582824
 30
0.0
  0
VERTEX
  5
A06
330
9F2
100
AcDbEntity
  8
0
100
AcDbVertex
100
AcDb2dVertex
 10
375.3322745281378
 20
659.2360066946057
 30
0.0
  0
VERTEX
  5
A07
330
9F2
100
AcDbEntity
  8
0
100
AcDbVertex
100
AcDb2dVertex
 10
375.3210920298276
 20
659.2699139888792
 30
0.0
  0
VERTEX
  5
A08
330
9F2
100
AcDbEntity
  8
0
100
AcDbVertex
100
AcDb2dVertex
 10
375.3097651540423
 20
659.3056338604002
 30
0.0
  0
VERTEX
  5
A09
330
9F2
100
AcDbEntity
  8
0
100
AcDbVertex
100
AcDb2dVertex
 10
375.2982853914879
 20
659.3432122047454
 30
0.0
  0
VERTEX
  5
A0A
330
9F2
100
AcDbEntity
  8
0
100
AcDbVertex
100
AcDb2dVertex
 10
375.2866438588351
 20
659.382696109584
 30
0.0
  0
VERTEX
  5
A0B
330
9F2
100
AcDbEntity
  8
0
100
AcDbVertex
100
AcDb2dVertex
 10
375.2748313454743
 20
659.4241386230499
 30
0.0
  0
VERTEX
  5
A0C
330
9F2
100
AcDbEntity
  8
0
100
AcDbVertex
100
AcDb2dVertex
 10
375.2628382901381
 20
659.4675939853697
 30
0.0
  0
SEQEND
  5
9F5
330
9F2
100
AcDbEntity
  8
0
  0
LINE
  5
A0D
330
6C
100
AcDbEntity
  8
0
100
AcDbLine
 10
387.687180904118
 20
664.8962896640807
 30
0.0
 11
388.5572707810255
 21
664.393943039429
 31
0.0
  0
LINE
  5
A0E
330
6C
100
AcDbEntity
  8
0
100
AcDbLine
 10
376.3871809041179
 20
664.8962896640807
 30
0.0
 11
375.5170910272105
 21
664.393943039429
 31
0.0
  0
LINE
  5
A0F
330
6C
100
AcDbEntity
  8
0
100
AcDbLine
 10
376.3871809041179
 20
658.3962896640807
 30
0.0
 11
375.5170910272105
 21
658.8986362887322
 31
0.0
  0
LINE
  5
A10
330
6C
100
AcDbEntity
  8
0
100
AcDbLine
 10
387.687180904118
 20
658.3962896640807
 30
0.0
 11
388.5572707810255
 21
658.8986362887322
 31
0.0
  0
LINE
  5
AB5
330
6C
100
AcDbEntity
  8
0
100
AcDbLine
 10
375.2628380471707
 20
663.8249853516688
 30
0.0
 11
375.2628380471707
 21
659.4675939764925
 31
0.0
  0
LINE
  5
AB6
330
6C
100
AcDbEntity
  8
0
100
AcDbLine
 10
388.8115237610652
 20
663.8249853516688
 30
0.0
 11
388.8115237610652
 21
659.4675939764925
 31
0.0
  0
LINE
  5
AB7
330
6C
100
AcDbEntity
  8
0
100
AcDbLine
 10
388.2227820962977
 20
663.8249853516688
 30
0.0
 11
388.2227820962977
 21
659.4675939764925
 31
0.0
  0
LINE
  5
AB8
330
6C
100
AcDbEntity
  8
0
100
AcDbLine
 10
381.4484392393505
 20
663.8249853516688
 30
0.0
 11
381.4484392393505
 21
659.4675939764925
 31
0.0
  0
ARC
  5
FA1
330
6C
100
AcDbEntity
  8
0
100
AcDbCircle
 10
387.2028951894162
 20
211.3041715842607
 30
0.0
 40
0.1000000000000675
100
AcDbArc
 50
117.5131325472444
 51
174.4487627545102
  0
ARC
  5
FA2
330
6C
100
AcDbEntity
  8
0
100
AcDbCircle
 10
387.2028951894162
 20
229.2196520638997
 30
0.0
 40
0.0999999999999612
100
AcDbArc
 50
185.5512372454933
 51
242.4868674527727
  0
CIRCLE
  5
FA3
330
6C
100
AcDbEntity
  8
0
100
AcDbCircle
 10
382.5371809037019
 20
220.261911824083
 30
0.0
 40
9.999999999999996
  0
ARC
  5
FA6
330
6C
100
AcDbEntity
  8
0
100
AcDbCircle
 10
295.0371809037019
 20
220.2619118240802
 30
0.0
 40
92.49999999999998
100
AcDbArc
 50
5.551237245476226
 51
354.4487627545239
  0
LINE
  5
1C70
330
6C
100
AcDbEntity
  8
7
  6
Continuous
100
AcDbLine
 10
295.0371809041179
 20
384.3572896640809
 30
0.0
 11
295.0371809041179
 21
658.3962896640807
 31
0.0
  0
LINE
  5
1C97
330
6C
100
AcDbEntity
  8
7
  6
Continuous
100
AcDbLine
 10
370.037180903702
 20
220.2619118240736
 30
0.0
 11
212.8611818840736
 21
220.2619118240736
 31
0.0
  0
LINE
  5
1C98
330
6C
100
AcDbEntity
  8
7
  6
Continuous
100
AcDbLine
 10
295.0371809037019
 20
295.2619118240736
 30
0.0
 11
295.0371809037019
 21
145.2619118240735
 31
0.0
  0
CIRCLE
  5
29D1
330
6C
100
AcDbEntity
  8
0
100
AcDbCircle
 10
295.0371809037019
 20
220.2619118240736
 30
0.0
 40
72.43999999958394
  0
CIRCLE
  5
29D2
330
6C
100
AcDbEntity
  8
0
100
AcDbCircle
 10
295.0371809037019
 20
220.2619118240736
 30
0.0
 40
51.24999999958369
  0
CIRCLE
  5
29D3
330
6C
100
AcDbEntity
  8
0
100
AcDbCircle
 10
295.0371809037019
 20
220.2619118240736
 30
0.0
 40
50.24999999958367
  0
CIRCLE
  5
29D4
330
6C
100
AcDbEntity
  8
0
100
AcDbCircle
 10
295.0371809037019
 20
220.2619118240736
 30
0.0
 40
76.99999999958399
  0
DIMENSION
  5
29EF
330
6C
100
AcDbEntity
  8
5
100
AcDbDimension
  2
*D39
 10
350.0371809041179
 20
362.836926125769
 30
0.0
 11
295.0371809041182
 21
362.836926125769
 31
0.0
 70
   160
  1
%%c<>
 71
     5
 42
109.9999999999996
  3
GEN-ISO
100
AcDbAlignedDimension
 13
240.0371809041183
 23
397.3480012695683
 33
0.0
 14
350.0371809041179
 24
397.3480012695683
 34
0.0
 50
0.0000000000001132
100
AcDbRotatedDimension
1001
ACAD
1000
DSTYLE
1002
{
1070
     3
1000

1070
   271
1070
     0
1002
}
1001
ACAD_DSTYLE_DIMINSPECT
1070
   396
1000
100%
1070
   395
1000

1070
   394
1070
    33
1070
   393
1070
     0
  0
DIMENSION
  5
2A87
330
6C
100
AcDbEntity
  8
5
100
AcDbDimension
  2
*D42
 10
386.037180904118
 20
682.5553086516968
 30
0.0
 11
295.037180904118
 21
691.7331461265121
 31
0.0
 70
    32
  1
%%c<>
 71
     5
 42
182.0
  3
GEN-ISO
100
AcDbAlignedDimension
 13
204.037180904118
 23
658.3962896640807
 33
0.0
 14
386.037180904118
 24
658.3962896640807
 34
0.0
100
AcDbRotatedDimension
1001
ACAD
1000
DSTYLE
1002
{
1070
     3
1000

1070
   271
1070
     0
1002
}
1001
ACAD_DSTYLE_DIMINSPECT
1070
   396
1000
100%
1070
   395
1000

1070
   394
1070
    33
1070
   393
1070
     0
  0
DIMENSION
  5
2AB3
330
6C
100
AcDbEntity
  8
5
100
AcDbDimension
  2
*D43
 10
373.537180904118
 20
340.859704791437
 30
0.0
 11
295.0371809041179
 21
340.859704791437
 31
0.0
 70
   160
  1
%%c<>
 71
     5
 42
157.0
  3
GEN-ISO
100
AcDbAlignedDimension
 13
216.5371809041179
 23
504.8572896640806
 33
0.0
 14
373.537180904118
 24
504.8572896640806
 34
0.0
 50
0.0000000000001132
100
AcDbRotatedDimension
1001
ACAD
1000
DSTYLE
1002
{
1070
     3
1000

1070
   271
1070
     0
1002
}
1001
ACAD_DSTYLE_DIMINSPECT
1070
   396
1000
100%
1070
   395
1000

1070
   394
1070
    33
1070
   393
1070
     0
  0
DIMENSION
  5
2AE9
330
6C
100
AcDbEntity
  8
5
100
AcDbDimension
  2
*D44
 10
398.037180904118
 20
488.3572896640806
 30
0.0
 11
389.5504112600615
 21
573.3767896640808
 31
0.0
 70
    32
 71
     5
 42
170.0390000000001
  3
GEN-ISO
100
AcDbAlignedDimension
 13
386.037180904118
 23
658.3962896640807
 33
0.0
 14
356.4532606872177
 24
488.3572896640806
 34
0.0
 50
90.00000000000005
100
AcDbRotatedDimension
1001
ACAD_DSTYLE_DIMINSPECT
1070
   396
1000
100%
1070
   395
1000

1070
   394
1070
    33
1070
   393
1070
     0
1001
ACAD
1000
DSTYLE
1002
{
1070
     3
1000

1070
   271
1070
     0
1002
}
  0
DIMENSION
  5
2EB6
330
6C
100
AcDbEntity
  8
5
100
AcDbDimension
  2
*D47
 10
417.6487385343203
 20
389.3572896640811
 30
0.0
 11
417.6487385343202
 21
523.8767896640809
 31
0.0
 70
   160
 71
     5
 42
269.0389999999997
  3
GEN-ISO
100
AcDbAlignedDimension
 13
398.037180904118
 23
658.3962896640807
 33
0.0
 14
348.0371809041179
 24
389.3572896640811
 34
0.0
 50
90.00000000000003
100
AcDbRotatedDimension
1001
ACAD_DSTYLE_DIMINSPECT
1070
   396
1000
100%
1070
   395
1000

1070
   394
1070
    33
1070
   393
1070
     0
1001
ACAD
1000
DSTYLE
1002
{
1070
     3
1000

1070
   271
1070
     0
1002
}
  0
ENDSEC
  0
SECTION
  2
OBJECTS
  0
DICTIONARY
  5
C
330
0
100
AcDbDictionary
281
     1
  3
ACAD_2007HEADERVARS_RT
350
2F0C
  3
ACAD_CIP_PREVIOUS_PRODUCT_INFO
350
1F81
  3
ACAD_COLOR
350
63
  3
ACAD_GROUP
350
D
  3
ACAD_LAYOUT
350
62
  3
ACAD_MATERIAL
350
10
  3
ACAD_MLEADERSTYLE
350
66
  3
ACAD_MLINESTYLE
350
5F
  3
ACAD_PLOTSETTINGS
350
61
  3
ACAD_PLOTSTYLENAME
350
E
  3
ACAD_SCALELIST
350
42
  3
ACAD_TABLESTYLE
350
64
  3
ACAD_VISUALSTYLE
350
29
  3
ACDB_RECOMPOSE_DATA
350
2F0B
  3
AcDbVariableDictionary
350
1FBD
  3
AcmDictionary
350
2029
  3
AEC_PROPERTY_SET_DEFS
350
2509
  3
AMG
350
1FCF
  3
AMGSNAPSETTINGS
350
2069
  0
DICTIONARY
  5
20B5
330
2
100
AcDbDictionary
280
     1
281
     1
  3
ACAD_LAYERSTATES
360
20B6
  0
DICTIONARY
  5
20AF
330
20AE
100
AcDbDictionary
280
     1
281
     1
  0
DICTIONARY
  5
20B1
330
20B0
100
AcDbDictionary
280
     1
281
     1
  0
DICTIONARY
  5
2EF6
330
C9
100
AcDbDictionary
280
     1
281
     1
  3
ACAD_MTEXT_2008_RT
360
2EF7
  0
DICTIONARY
  5
2F42
330
1E2
100
AcDbDictionary
280
     1
281
     1
  3
ACAD_MTEXT_2008_RT
360
2F43
  0
DICTIONARY
  5
2F44
330
1E7
100
AcDbDictionary
280
     1
281
     1
  3
ACAD_MTEXT_2008_RT
360
2F45
  0
DICTIONARY
  5
1F86
330
1E9
100
AcDbDictionary
280
     1
281
     1
  3
ACAD_MLATT
360
2EF9
  3
ACAD_XREC_ROUNDTRIP
360
2EF8
  0
DICTIONARY
  5
1F89
330
1ED
100
AcDbDictionary
280
     1
281
     1
  3
ACAD_MLATT
360
2EFB
  3
ACAD_XREC_ROUNDTRIP
360
2EFA
  0
DICTIONARY
  5
1F8C
330
1EE
100
AcDbDictionary
280
     1
281
     1
  3
ACAD_MLATT
360
2EFD
  3
ACAD_XREC_ROUNDTRIP
360
2EFC
  0
DICTIONARY
  5
1F8F
330
1EF
100
AcDbDictionary
280
     1
281
     1
  3
ACAD_MLATT
360
2EFF
  3
ACAD_XREC_ROUNDTRIP
360
2EFE
  0
DICTIONARY
  5
1F92
330
1F0
100
AcDbDictionary
280
     1
281
     1
  3
ACAD_MLATT
360
2F01
  3
ACAD_XREC_ROUNDTRIP
360
2F00
  0
DICTIONARY
  5
1F95
330
1F2
100
AcDbDictionary
280
     1
281
     1
  3
ACAD_MLATT
360
2F03
  3
ACAD_XREC_ROUNDTRIP
360
2F02
  0
DICTIONARY
  5
1F98
330
1F3
100
AcDbDictionary
280
     1
281
     1
  3
ACAD_MLATT
360
2F05
  3
ACAD_XREC_ROUNDTRIP
360
2F04
  0
DICTIONARY
  5
1F9B
330
1F4
100
AcDbDictionary
280
     1
281
     1
  3
ACAD_MLATT
360
2F07
  3
ACAD_XREC_ROUNDTRIP
360
2F06
  0
DICTIONARY
  5
1F9E
330
1F5
100
AcDbDictionary
280
     1
281
     1
  3
ACAD_MLATT
360
2F09
  3
ACAD_XREC_ROUNDTRIP
360
2F08
  0
DICTIONARY
  5
2F46
330
FAD
100
AcDbDictionary
280
     1
281
     1
  3
ACAD_MTEXT_2008_RT
360
2F47
  0
DICTIONARY
  5
2F48
330
FB1
100
AcDbDictionary
280
     1
281
     1
  3
ACAD_MTEXT_2008_RT
360
2F49
  0
DICTIONARY
  5
2F4A
330
FB5
100
AcDbDictionary
280
     1
281
     1
  3
ACAD_MTEXT_2008_RT
360
2F4B
  0
DICTIONARY
  5
2F4C
330
FBE
100
AcDbDictionary
280
     1
281
     1
  3
ACAD_MTEXT_2008_RT
360
2F4D
  0
DICTIONARY
  5
2F4E
330
FBF
100
AcDbDictionary
280
     1
281
     1
  3
ACAD_MTEXT_2008_RT
360
2F4F
  0
DICTIONARY
  5
2F50
330
FC0
100
AcDbDictionary
280
     1
281
     1
  3
ACAD_MTEXT_2008_RT
360
2F51
  0
DICTIONARY
  5
2F52
330
FC2
100
AcDbDictionary
280
     1
281
     1
  3
ACAD_MTEXT_2008_RT
360
2F53
  0
DICTIONARY
  5
2F54
330
FC9
100
AcDbDictionary
280
     1
281
     1
  3
ACAD_MTEXT_2008_RT
360
2F55
  0
DICTIONARY
  5
2F56
330
FD1
100
AcDbDictionary
280
     1
281
     1
  3
ACAD_MTEXT_2008_RT
360
2F57
  0
DICTIONARY
  5
2F58
330
FD5
100
AcDbDictionary
280
     1
281
     1
  3
ACAD_MTEXT_2008_RT
360
2F59
  0
DICTIONARY
  5
2F5A
330
FD8
100
AcDbDictionary
280
     1
281
     1
  3
ACAD_MTEXT_2008_RT
360
2F5B
  0
DICTIONARY
  5
2F5C
330
FE6
100
AcDbDictionary
280
     1
281
     1
  3
ACAD_MTEXT_2008_RT
360
2F5D
  0
DICTIONARY
  5
2F5E
330
FEA
100
AcDbDictionary
280
     1
281
     1
  3
ACAD_MTEXT_2008_RT
360
2F5F
  0
DICTIONARY
  5
2F60
330
FED
100
AcDbDictionary
280
     1
281
     1
  3
ACAD_MTEXT_2008_RT
360
2F61
  0
DICTIONARY
  5
2F62
330
10DD
100
AcDbDictionary
280
     1
281
     1
  3
ACAD_MTEXT_2008_RT
360
2F63
  0
DICTIONARY
  5
2F64
330
11BF
100
AcDbDictionary
280
     1
281
     1
  3
ACAD_MTEXT_2008_RT
360
2F65
  0
DICTIONARY
  5
2F66
330
1F59
100
AcDbDictionary
280
     1
281
     1
  3
ACAD_MTEXT_2008_RT
360
2F67
  0
DICTIONARY
  5
2F0C
102
{ACAD_REACTORS
330
C
102
}
330
C
100
AcDbDictionary
281
     1
  3
DIMARCSYM
350
2F0D
  3
DIMLTEX1
350
2F0F
  3
DIMLTEX2
350
2F10
  3
DIMLTYPE
350
2F0E
  0
XRECORD
  5
1F81
102
{ACAD_REACTORS
330
C
102
}
330
C
100
AcDbXrecord
280
     1
300
INVNTOR
300
2012
300
PDSP_F_S
  0
DICTIONARY
  5
63
102
{ACAD_REACTORS
330
C
102
}
330
C
100
AcDbDictionary
281
     1
  0
DICTIONARY
  5
D
102
{ACAD_REACTORS
330
C
102
}
330
C
100
AcDbDictionary
281
     1
  0
DICTIONARY
  5
62
102
{ACAD_REACTORS
330
C
102
}
330
C
100
AcDbDictionary
281
     1
  3
Layout1
350
6B
  3
Layout2
350
73
  3
Model
350
6F
  0
DICTIONARY
  5
10
102
{ACAD_REACTORS
330
C
102
}
330
C
100
AcDbDictionary
281
     1
  3
ByBlock
350
19
  3
ByLayer
350
11
  3
Global
350
21
  0
DICTIONARY
  5
66
102
{ACAD_REACTORS
330
C
102
}
330
C
100
AcDbDictionary
281
     1
  3
Standard
350
67
  0
DICTIONARY
  5
5F
102
{ACAD_REACTORS
330
C
102
}
330
C
100
AcDbDictionary
281
     1
  3
Standard
350
60
  0
DICTIONARY
  5
61
102
{ACAD_REACTORS
330
C
102
}
330
C
100
AcDbDictionary
281
     1
  0
ACDBDICTIONARYWDFLT
  5
E
102
{ACAD_REACTORS
330
C
102
}
330
C
100
AcDbDictionary
281
     1
  3
Normal
350
F
100
AcDbDictionaryWithDefault
340
F
  0
DICTIONARY
  5
42
102
{ACAD_REACTORS
330
C
102
}
330
C
100
AcDbDictionary
281
     1
  3
A0
350
43
  3
A1
350
44
  3
A2
350
45
  3
A3
350
46
  3
A4
350
47
  3
A5
350
48
  3
A6
350
49
  3
A7
350
4A
  3
A8
350
4B
  3
A9
350
4C
  3
B0
350
4D
  3
B1
350
4E
  3
B2
350
4F
  3
B3
350
50
  3
B4
350
51
  3
B5
350
52
  3
B6
350
53
  0
DICTIONARY
  5
64
102
{ACAD_REACTORS
330
C
102
}
330
C
100
AcDbDictionary
281
     1
  3
Standard
350
65
  0
DICTIONARY
  5
29
102
{ACAD_REACTORS
330
C
102
}
330
C
100
AcDbDictionary
281
     1
  3
2dWireframe
350
2F
  3
3D Hidden
350
1FC3
  3
3dWireframe
350
1FC2
  3
Basic
350
2E
  3
Brighten
350
35
  3
ColorChange
350
39
  3
Conceptual
350
32
  3
Dim
350
34
  3
EdgeColorOff
350
41
  3
Facepattern
350
38
  3
Flat
350
2A
  3
FlatWithEdges
350
2B
  3
Gouraud
350
2C
  3
GouraudWithEdges
350
2D
  3
Hidden
350
31
  3
JitterOff
350
3F
  3
Linepattern
350
37
  3
OverhangOff
350
40
  3
Realistic
350
33
  3
Shaded
350
3E
  3
Shaded with edges
350
3D
  3
Shades of Gray
350
3A
  3
Sketchy
350
3B
  3
Thicken
350
36
  3
Wireframe
350
30
  3
X-Ray
350
3C
  0
XRECORD
  5
2F0B
102
{ACAD_REACTORS
330
C
102
}
330
C
100
AcDbXrecord
280
     1
 90
        1
330
65
330
C9
330
1E9
330
1ED
330
1EE
330
1EF
330
1F0
330
1F2
330
1F3
330
1F4
330
1F5
  0
DICTIONARY
  5
1FBD
102
{ACAD_REACTORS
330
C
102
}
330
C
100
AcDbDictionary
281
     1
  3
CANNOSCALE
350
1FC0
  3
CMLEADERSTYLE
350
1FBF
  3
CTABLESTYLE
350
1FBE
  3
LAYEREVAL
350
2C4A
  3
LAYERNOTIFY
350
2C4B
  3
LIGHTINGUNITS
350
2C49
  3
MSLTSCALE
350
2C48
  3
SOLIDHIST
350
2C4C
  3
XCLIPFRAME
350
2EF4
  0
DICTIONARY
  5
2029
102
{ACAD_REACTORS
330
C
102
}
330
C
100
AcDbDictionary
281
     1
  3
AcmStdDictionary
350
2033
  0
DICTIONARY
  5
2509
102
{ACAD_REACTORS
330
C
102
}
330
C
100
AcDbDictionary
281
     1
  0
DICTIONARY
  5
1FCF
102
{ACAD_REACTORS
330
C
102
}
330
C
100
AcDbDictionary
281
     1
  0
DICTIONARY
  5
2069
102
{ACAD_REACTORS
330
C
102
}
330
C
100
AcDbDictionary
281
     1
  0
DICTIONARY
  5
20B6
102
{ACAD_REACTORS
330
20B5
102
}
330
20B5
100
AcDbDictionary
281
     1
  0
XRECORD
  5
2EF7
102
{ACAD_REACTORS
330
2EF6
102
}
330
2EF6
100
AcDbXrecord
280
     1
 40
2697178.0
  1
\pxsm0.94;WIG Schweisung, Nahte sauber geschliffen und poliert\PSichtstege geschliffen mit 240 Korn und abgeklebt.\P\fTahoma|b0|i0;\H3.0000; \P\fTahoma|b0|i0;\H3.5000;WIG svarovani- svary dle potreby zabrousit.\PPohledove plochy brousit (vel. brusnyc
  1
h zrn 240)\Pa polepit paskou
  0
XRECORD
  5
2F43
102
{ACAD_REACTORS
330
2F42
102
}
330
2F42
100
AcDbXrecord
280
     1
 40
279065.0
  1
Effidrain dvoudílná  157/DN100 svislá 12mm příruba bez ZU
  0
XRECORD
  5
2F45
102
{ACAD_REACTORS
330
2F44
102
}
330
2F44
100
AcDbXrecord
280
     1
 40
23258.0
  1
Není k dispozici
  0
XRECORD
  5
2EF9
102
{ACAD_REACTORS
330
1F86
102
}
330
1F86
100
AcDbXrecord
280
     1
 70
     4
 70
     0
 70
     0
 40
1.0
  2
ČÍSLO_REVIZE
  1
Embedded Object
 10
287.6423193699604
 20
66.0
 30
0.0
 40
3.499999940395355
 41
0.0
 46
0.0
 71
     1
 72
     5
  1
000
  7
Styl textu9
 73
     1
 44
1.0
  0
XRECORD
  5
2EF8
102
{ACAD_REACTORS
330
1F86
102
}
330
1F86
100
AcDbXrecord
280
     1
102
ACAD_MATT_HEIGHT
140
3.499999940395355
  0
XRECORD
  5
2EFB
102
{ACAD_REACTORS
330
1F89
102
}
330
1F89
100
AcDbXrecord
280
     1
 70
     4
 70
     0
 70
     0
 40
1.0
  2
Sheet_Size
  1
Embedded Object
 10
289.7753402652471
 20
48.33701147296152
 30
0.0
 40
2.000000029802321
 41
0.0
 46
0.0
 71
     1
 72
     5
  1
A2
  7
Styl textu40
 73
     1
 44
1.0
  0
XRECORD
  5
2EFA
102
{ACAD_REACTORS
330
1F89
102
}
330
1F89
100
AcDbXrecord
280
     1
102
ACAD_MATT_HEIGHT
140
2.000000029802321
  0
XRECORD
  5
2EFD
102
{ACAD_REACTORS
330
1F8C
102
}
330
1F8C
100
AcDbXrecord
280
     1
 70
     4
 70
     0
 70
     0
 40
1.0
  2
FILENAME_AND_PATH
  1
Embedded Object
 10
230.2697279123746
 20
53.13502004542946
 30
0.0
 40
2.000000029802321
 41
0.0
 46
0.0
 71
     1
 72
     5
  1
C:\\Inventor_DATA\\Projekty\\Guly\\Effidrain\\Effidrain sestava dvoudílná  157 svislá\\408054.iam
  7
Styl textu40
 73
     1
 44
1.0
  0
XRECORD
  5
2EFC
102
{ACAD_REACTORS
330
1F8C
102
}
330
1F8C
100
AcDbXrecord
280
     1
102
ACAD_MATT_HEIGHT
140
2.000000029802321
  0
XRECORD
  5
2EFF
102
{ACAD_REACTORS
330
1F8F
102
}
330
1F8F
100
AcDbXrecord
280
     1
 70
     4
 70
     0
 70
     0
 40
1.0
  2
PART_NUMBER
  1
Embedded Object
 10
218.0
 20
66.0
 30
0.0
 40
3.499999940395355
 41
0.0
 46
0.0
 71
     1
 72
     5
  1
408054
  7
Text poznámky (ISO)
 73
     1
 44
1.0
  0
XRECORD
  5
2EFE
102
{ACAD_REACTORS
330
1F8F
102
}
330
1F8F
100
AcDbXrecord
280
     1
102
ACAD_MATT_HEIGHT
140
3.499999940395355
  0
XRECORD
  5
2F01
102
{ACAD_REACTORS
330
1F92
102
}
330
1F92
100
AcDbXrecord
280
     1
 70
     4
 70
     0
 70
     0
 40
1.0
  2
PROJECT
  1
Embedded Object
 10
118.0
 20
60.0
 30
0.0
 40
3.499999940395355
 41
0.0
 46
0.0
 71
     1
 72
     5
  1

  7
Text poznámky (ISO)
 73
     1
 44
1.0
  0
XRECORD
  5
2F00
102
{ACAD_REACTORS
330
1F92
102
}
330
1F92
100
AcDbXrecord
280
     1
102
ACAD_MATT_HEIGHT
140
3.499999940395355
  0
XRECORD
  5
2F03
102
{ACAD_REACTORS
330
1F95
102
}
330
1F95
100
AcDbXrecord
280
     1
 70
     4
 70
     0
 70
     0
 40
1.0
  2
SKLADOVÉ_ČÍSLO
  1
Embedded Object
 10
118.0
 20
54.89391305489238
 30
0.0
 40
6.99999988079071
 41
153.2966041564941
 46
0.0
 71
     1
 72
     5
  1
408054
  7
Styl textu94
 73
     1
 44
1.0
  0
XRECORD
  5
2F02
102
{ACAD_REACTORS
330
1F95
102
}
330
1F95
100
AcDbXrecord
280
     1
102
ACAD_MATT_HEIGHT
140
6.99999988079071
  0
XRECORD
  5
2F05
102
{ACAD_REACTORS
330
1F98
102
}
330
1F98
100
AcDbXrecord
280
     1
 70
     4
 70
     0
 70
     0
 40
1.0
  2
MATERIAL
  1
Embedded Object
 10
117.5939056808251
 20
108.6756657996811
 30
0.0
 40
3.499999940395355
 41
0.0
 46
0.0
 71
     1
 72
     5
  1

  7
Text poznámky (ISO)
 73
     1
 44
1.0
  0
XRECORD
  5
2F04
102
{ACAD_REACTORS
330
1F98
102
}
330
1F98
100
AcDbXrecord
280
     1
102
ACAD_MATT_HEIGHT
140
3.499999940395355
  0
XRECORD
  5
2F07
102
{ACAD_REACTORS
330
1F9B
102
}
330
1F9B
100
AcDbXrecord
280
     1
 70
     4
 70
     0
 70
     0
 40
1.0
  2
AUTHOR
  1
Embedded Object
 10
165.2312259808574
 20
87.78242706242744
 30
0.0
 40
2.000000029802321
 41
15.06250023841858
 46
0.0
 71
     1
 72
     5
  1
pklepetko
  7
Styl textu40
 73
     1
 44
1.0
  0
XRECORD
  5
2F06
102
{ACAD_REACTORS
330
1F9B
102
}
330
1F9B
100
AcDbXrecord
280
     1
102
ACAD_MATT_HEIGHT
140
2.000000029802321
  0
XRECORD
  5
2F09
102
{ACAD_REACTORS
330
1F9E
102
}
330
1F9E
100
AcDbXrecord
280
     1
 70
     4
 70
     0
 70
     0
 40
1.0
  2
VS_First
  1
Embedded Object
 10
189.1855699863978
 20
86.00038821032343
 30
0.0
 40
3.499999940395355
 41
24.15597186978378
 46
0.0
 71
     1
 72
     5
  1

  7
Text poznámky (ISO)
 73
     1
 44
1.0
  0
XRECORD
  5
2F08
102
{ACAD_REACTORS
330
1F9E
102
}
330
1F9E
100
AcDbXrecord
280
     1
102
ACAD_MATT_HEIGHT
140
3.499999940395355
  0
XRECORD
  5
2F47
102
{ACAD_REACTORS
330
2F46
102
}
330
2F46
100
AcDbXrecord
280
     1
 40
7165.0
  1
KUSOVNÍK
  0
XRECORD
  5
2F49
102
{ACAD_REACTORS
330
2F48
102
}
330
2F48
100
AcDbXrecord
280
     1
 40
6807.0
  1
MATERIÁL
  0
XRECORD
  5
2F4B
102
{ACAD_REACTORS
330
2F4A
102
}
330
2F4A
100
AcDbXrecord
280
     1
 40
6841.0
  1
SKLADOVÉ
  0
XRECORD
  5
2F4D
102
{ACAD_REACTORS
330
2F4C
102
}
330
2F4C
100
AcDbXrecord
280
     1
 40
16075.0
  1
Přístup 
  0
XRECORD
  5
2F4F
102
{ACAD_REACTORS
330
2F4E
102
}
330
2F4E
100
AcDbXrecord
280
     1
 40
9305.0
  1
člena se 
  0
XRECORD
  5
2F51
102
{ACAD_REACTORS
330
2F50
102
}
330
2F50
100
AcDbXrecord
280
     1
 40
8120.0
  1
nezdařil
  0
XRECORD
  5
2F53
102
{ACAD_REACTORS
330
2F52
102
}
330
2F52
100
AcDbXrecord
280
     1
 40
84812.0
  1
Effidrai dvoudílná  157 svislá
  0
XRECORD
  5
2F55
102
{ACAD_REACTORS
330
2F54
102
}
330
2F54
100
AcDbXrecord
280
     1
 40
157862.0
  1
Effidrain drenážní kroužek komplet 157 + 
  0
XRECORD
  5
2F57
102
{ACAD_REACTORS
330
2F56
102
}
330
2F56
100
AcDbXrecord
280
     1
 40
23054.0
  1
návlek sunap-DN100
  0
XRECORD
  5
2F59
102
{ACAD_REACTORS
330
2F58
102
}
330
2F58
100
AcDbXrecord
280
     1
 40
4936.0
  1
Papír
  0
XRECORD
  5
2F5B
102
{ACAD_REACTORS
330
2F5A
102
}
330
2F5A
100
AcDbXrecord
280
     1
 40
258126.0
  1
Etiketa samolepící 80 x 17 stříbrná/červená
  0
XRECORD
  5
2F5D
102
{ACAD_REACTORS
330
2F5C
102
}
330
2F5C
100
AcDbXrecord
280
     1
 40
15547.0
  1
krytka zemáku
  0
XRECORD
  5
2F5F
102
{ACAD_REACTORS
330
2F5E
102
}
330
2F5E
100
AcDbXrecord
280
     1
 40
57602.0
  1
Polykarbonát, kouřový
  0
XRECORD
  5
2F61
102
{ACAD_REACTORS
330
2F60
102
}
330
2F60
100
AcDbXrecord
280
     1
 40
130256.0
  1
Effidrain kryt plastový 157 pro balení PP 12mm
  0
XRECORD
  5
2F63
102
{ACAD_REACTORS
330
2F62
102
}
330
2F62
100
AcDbXrecord
280
     1
 40
29009.0
  1
\A1;267,5{\H7.010400;±1}
  0
XRECORD
  5
2F65
102
{ACAD_REACTORS
330
2F64
102
}
330
2F64
100
AcDbXrecord
280
     1
 40
8857.0
  1
\A1;{\U+00D8}110
  0
XRECORD
  5
2F67
102
{ACAD_REACTORS
330
2F66
102
}
330
2F66
100
AcDbXrecord
280
     1
 40
25442.0
  1
\A1;170{\H7.010400;±1}
  0
XRECORD
  5
2F0D
102
{ACAD_REACTORS
330
2F0C
102
}
330
2F0C
100
AcDbXrecord
280
     1
 70
     1
  0
XRECORD
  5
2F0F
102
{ACAD_REACTORS
330
2F0C
102
}
330
2F0C
100
AcDbXrecord
280
     1
340
5B
  0
XRECORD
  5
2F10
102
{ACAD_REACTORS
330
2F0C
102
}
330
2F0C
100
AcDbXrecord
280
     1
340
5B
  0
XRECORD
  5
2F0E
102
{ACAD_REACTORS
330
2F0C
102
}
330
2F0C
100
AcDbXrecord
280
     1
340
5B
  0
LAYOUT
  5
6B
102
{ACAD_REACTORS
330
62
102
}
330
62
100
AcDbPlotSettings
  1

  2

  4

  6

 40
0.0
 41
0.0
 42
0.0
 43
0.0
 44
0.0
 45
0.0
 46
0.0
 47
0.0
 48
0.0
 49
0.0
140
0.0
141
0.0
142
1.0
143
1.0
 70
   688
 72
     0
 73
     0
 74
     5
  7

 75
    16
147
1.0
 76
     0
 77
     2
 78
   300
148
0.0
149
0.0
100
AcDbLayout
  1
Layout1
 70
     1
 71
     1
 10
0.0
 20
0.0
 11
1188.0
 21
840.0
 12
0.0
 22
0.0
 32
0.0
 14
0.0
 24
0.0
 34
0.0
 15
1188.0
 25
840.0
 35
0.0
146
0.0
 13
0.0
 23
0.0
 33
0.0
 16
1.0
 26
0.0
 36
0.0
 17
0.0
 27
1.0
 37
0.0
 76
     0
330
68
  0
LAYOUT
  5
73
102
{ACAD_REACTORS
330
62
102
}
330
62
100
AcDbPlotSettings
  1

  2

  4

  6

 40
0.0
 41
0.0
 42
0.0
 43
0.0
 44
0.0
 45
0.0
 46
0.0
 47
0.0
 48
0.0
 49
0.0
140
0.0
141
0.0
142
1.0
143
1.0
 70
   688
 72
     0
 73
     0
 74
     5
  7

 75
    16
147
1.0
 76
     0
 77
     2
 78
   300
148
0.0
149
0.0
100
AcDbLayout
  1
Layout2
 70
     1
 71
     2
 10
0.0
 20
0.0
 11
12.0
 21
9.0
 12
0.0
 22
0.0
 32
0.0
 14
0.0
 24
0.0
 34
0.0
 15
0.0
 25
0.0
 35
0.0
146
0.0
 13
0.0
 23
0.0
 33
0.0
 16
1.0
 26
0.0
 36
0.0
 17
0.0
 27
1.0
 37
0.0
 76
     0
330
70
  0
LAYOUT
  5
6F
102
{ACAD_REACTORS
330
62
102
}
330
62
100
AcDbPlotSettings
  1

  2

  4

  6

 40
0.0
 41
0.0
 42
0.0
 43
0.0
 44
0.0
 45
0.0
 46
0.0
 47
0.0
 48
0.0
 49
0.0
140
0.0
141
0.0
142
1.0
143
1.0
 70
  1712
 72
     0
 73
     0
 74
     0
  7

 75
     0
147
1.0
 76
     0
 77
     2
 78
   300
148
0.0
149
0.0
100
AcDbLayout
  1
Model
 70
     1
 71
     0
 10
0.0
 20
0.0
 11
12.0
 21
9.0
 12
0.0
 22
0.0
 32
0.0
 14
0.0
 24
0.0
 34
0.0
 15
0.0
 25
0.0
 35
0.0
146
0.0
 13
0.0
 23
0.0
 33
0.0
 16
1.0
 26
0.0
 36
0.0
 17
0.0
 27
1.0
 37
0.0
 76
     0
330
6C
331
57
  0
MATERIAL
  5
19
102
{ACAD_XDICTIONARY
360
1A
102
}
102
{ACAD_REACTORS
330
10
102
}
330
10
100
AcDbMaterial
  1
ByBlock
 72
     0
 43
0.0208333333333333
 43
0.0
 43
0.0
 43
0.0
 43
0.0
 43
0.0208333333333333
 43
0.0
 43
0.0
 43
0.0
 43
0.0
 43
1.0
 43
0.0
 43
0.0
 43
0.0
 43
0.0
 43
1.0
 77
     0
 47
0.0208333333333333
 47
0.0
 47
0.0
 47
0.0
 47
0.0
 47
0.0208333333333333
 47
0.0
 47
0.0
 47
0.0
 47
0.0
 47
1.0
 47
0.0
 47
0.0
 47
0.0
 47
0.0
 47
1.0
171
     0
 49
0.0208333333333333
 49
0.0
 49
0.0
 49
0.0
 49
0.0
 49
0.0208333333333333
 49
0.0
 49
0.0
 49
0.0
 49
0.0
 49
1.0
 49
0.0
 49
0.0
 49
0.0
 49
0.0
 49
1.0
175
     0
142
0.0208333333333333
142
0.0
142
0.0
142
0.0
142
0.0
142
0.0208333333333333
142
0.0
142
0.0
142
0.0
142
0.0
142
1.0
142
0.0
142
0.0
142
0.0
142
0.0
142
1.0
179
     0
144
0.0208333333333333
144
0.0
144
0.0
144
0.0
144
0.0
144
0.0208333333333333
144
0.0
144
0.0
144
0.0
144
0.0
144
1.0
144
0.0
144
0.0
144
0.0
144
0.0
144
1.0
147
0.0208333333333333
147
0.0
147
0.0
147
0.0
147
0.0
147
0.0208333333333333
147
0.0
147
0.0
147
0.0
147
0.0
147
1.0
147
0.0
147
0.0
147
0.0
147
0.0
147
1.0
  0
MATERIAL
  5
11
102
{ACAD_XDICTIONARY
360
12
102
}
102
{ACAD_REACTORS
330
10
102
}
330
10
100
AcDbMaterial
  1
ByLayer
 72
     0
 43
0.0208333333333333
 43
0.0
 43
0.0
 43
0.0
 43
0.0
 43
0.0208333333333333
 43
0.0
 43
0.0
 43
0.0
 43
0.0
 43
1.0
 43
0.0
 43
0.0
 43
0.0
 43
0.0
 43
1.0
 77
     0
 47
0.0208333333333333
 47
0.0
 47
0.0
 47
0.0
 47
0.0
 47
0.0208333333333333
 47
0.0
 47
0.0
 47
0.0
 47
0.0
 47
1.0
 47
0.0
 47
0.0
 47
0.0
 47
0.0
 47
1.0
171
     0
 49
0.0208333333333333
 49
0.0
 49
0.0
 49
0.0
 49
0.0
 49
0.0208333333333333
 49
0.0
 49
0.0
 49
0.0
 49
0.0
 49
1.0
 49
0.0
 49
0.0
 49
0.0
 49
0.0
 49
1.0
175
     0
142
0.0208333333333333
142
0.0
142
0.0
142
0.0
142
0.0
142
0.0208333333333333
142
0.0
142
0.0
142
0.0
142
0.0
142
1.0
142
0.0
142
0.0
142
0.0
142
0.0
142
1.0
179
     0
144
0.0208333333333333
144
0.0
144
0.0
144
0.0
144
0.0
144
0.0208333333333333
144
0.0
144
0.0
144
0.0
144
0.0
144
1.0
144
0.0
144
0.0
144
0.0
144
0.0
144
1.0
147
0.0208333333333333
147
0.0
147
0.0
147
0.0
147
0.0
147
0.0208333333333333
147
0.0
147
0.0
147
0.0
147
0.0
147
1.0
147
0.0
147
0.0
147
0.0
147
0.0
147
1.0
  0
MATERIAL
  5
21
102
{ACAD_XDICTIONARY
360
22
102
}
102
{ACAD_REACTORS
330
10
102
}
330
10
100
AcDbMaterial
  1
Global
 72
     0
 43
0.0208333333333333
 43
0.0
 43
0.0
 43
0.0
 43
0.0
 43
0.0208333333333333
 43
0.0
 43
0.0
 43
0.0
 43
0.0
 43
1.0
 43
0.0
 43
0.0
 43
0.0
 43
0.0
 43
1.0
 77
     0
 47
0.0208333333333333
 47
0.0
 47
0.0
 47
0.0
 47
0.0
 47
0.0208333333333333
 47
0.0
 47
0.0
 47
0.0
 47
0.0
 47
1.0
 47
0.0
 47
0.0
 47
0.0
 47
0.0
 47
1.0
171
     0
 49
0.0208333333333333
 49
0.0
 49
0.0
 49
0.0
 49
0.0
 49
0.0208333333333333
 49
0.0
 49
0.0
 49
0.0
 49
0.0
 49
1.0
 49
0.0
 49
0.0
 49
0.0
 49
0.0
 49
1.0
175
     0
142
0.0208333333333333
142
0.0
142
0.0
142
0.0
142
0.0
142
0.0208333333333333
142
0.0
142
0.0
142
0.0
142
0.0
142
1.0
142
0.0
142
0.0
142
0.0
142
0.0
142
1.0
179
     0
144
0.0208333333333333
144
0.0
144
0.0
144
0.0
144
0.0
144
0.0208333333333333
144
0.0
144
0.0
144
0.0
144
0.0
144
1.0
144
0.0
144
0.0
144
0.0
144
0.0
144
1.0
147
0.0208333333333333
147
0.0
147
0.0
147
0.0
147
0.0
147
0.0208333333333333
147
0.0
147
0.0
147
0.0
147
0.0
147
1.0
147
0.0
147
0.0
147
0.0
147
0.0
147
1.0
  0
MLEADERSTYLE
  5
67
102
{ACAD_XDICTIONARY
360
1F82
102
}
102
{ACAD_REACTORS
330
66
102
}
330
66
100
AcDbMLeaderStyle
170
     2
171
     1
172
     0
 90
        2
 40
0.0
 41
0.0
173
     1
 91
-1056964608
340
5B
 92
       -2
290
     1
 42
0.09
291
     1
 43
0.36
  3
Standard
 44
0.18
300

342
55
174
     1
178
     6
175
     1
176
     0
 93
-1056964608
 45
0.18
292
     0
297
     0
 46
0.18
 94
-1056964608
 47
1.0
 49
1.0
140
1.0
293
     1
141
0.0
294
     1
177
     0
142
1.0
295
     0
296
     0
143
0.125
1001
ACAD_MLEADERVER
1070
     2
  0
MLINESTYLE
  5
60
102
{ACAD_REACTORS
330
5F
102
}
330
5F
100
AcDbMlineStyle
  2
STANDARD
 70
     0
  3

 62
   256
 51
90.0
 52
90.0
 71
     2
 49
0.5
 62
   256
  6
BYLAYER
 49
-0.5
 62
   256
  6
BYLAYER
  0
ACDBPLACEHOLDER
  5
F
102
{ACAD_REACTORS
330
E
102
}
330
E
  0
SCALE
  5
43
102
{ACAD_REACTORS
330
42
102
}
330
42
100
AcDbScale
 70
     0
300
1:1
140
1.0
141
1.0
290
     1
  0
SCALE
  5
44
102
{ACAD_REACTORS
330
42
102
}
330
42
100
AcDbScale
 70
     0
300
1/128" = 1'-0"
140
0.0078125
141
12.0
290
     0
  0
SCALE
  5
45
102
{ACAD_REACTORS
330
42
102
}
330
42
100
AcDbScale
 70
     0
300
1/64" = 1'-0"
140
0.015625
141
12.0
290
     0
  0
SCALE
  5
46
102
{ACAD_REACTORS
330
42
102
}
330
42
100
AcDbScale
 70
     0
300
1/32" = 1'-0"
140
0.03125
141
12.0
290
     0
  0
SCALE
  5
47
102
{ACAD_REACTORS
330
42
102
}
330
42
100
AcDbScale
 70
     0
300
1/16" = 1'-0"
140
0.0625
141
12.0
290
     0
  0
SCALE
  5
48
102
{ACAD_REACTORS
330
42
102
}
330
42
100
AcDbScale
 70
     0
300
3/32" = 1'-0"
140
0.09375
141
12.0
290
     0
  0
SCALE
  5
49
102
{ACAD_REACTORS
330
42
102
}
330
42
100
AcDbScale
 70
     0
300
1/8" = 1'-0"
140
0.125
141
12.0
290
     0
  0
SCALE
  5
4A
102
{ACAD_REACTORS
330
42
102
}
330
42
100
AcDbScale
 70
     0
300
3/16" = 1'-0"
140
0.1875
141
12.0
290
     0
  0
SCALE
  5
4B
102
{ACAD_REACTORS
330
42
102
}
330
42
100
AcDbScale
 70
     0
300
1/4" = 1'-0"
140
0.25
141
12.0
290
     0
  0
SCALE
  5
4C
102
{ACAD_REACTORS
330
42
102
}
330
42
100
AcDbScale
 70
     0
300
3/8" = 1'-0"
140
0.375
141
12.0
290
     0
  0
SCALE
  5
4D
102
{ACAD_REACTORS
330
42
102
}
330
42
100
AcDbScale
 70
     0
300
1/2" = 1'-0"
140
0.5
141
12.0
290
     0
  0
SCALE
  5
4E
102
{ACAD_REACTORS
330
42
102
}
330
42
100
AcDbScale
 70
     0
300
3/4" = 1'-0"
140
0.75
141
12.0
290
     0
  0
SCALE
  5
4F
102
{ACAD_REACTORS
330
42
102
}
330
42
100
AcDbScale
 70
     0
300
1" = 1'-0"
140
1.0
141
12.0
290
     0
  0
SCALE
  5
50
102
{ACAD_REACTORS
330
42
102
}
330
42
100
AcDbScale
 70
     0
300
1-1/2" = 1'-0"
140
1.5
141
12.0
290
     0
  0
SCALE
  5
51
102
{ACAD_REACTORS
330
42
102
}
330
42
100
AcDbScale
 70
     0
300
3" = 1'-0"
140
3.0
141
12.0
290
     0
  0
SCALE
  5
52
102
{ACAD_REACTORS
330
42
102
}
330
42
100
AcDbScale
 70
     0
300
6" = 1'-0"
140
6.0
141
12.0
290
     0
  0
SCALE
  5
53
102
{ACAD_REACTORS
330
42
102
}
330
42
100
AcDbScale
 70
     0
300
1'-0" = 1'-0"
140
12.0
141
12.0
290
     0
  0
TABLESTYLE
  5
65
102
{ACAD_XDICTIONARY
360
2C4E
102
}
102
{ACAD_REACTORS
330
64
102
}
330
64
100
AcDbTableStyle
  3
Standard
 70
     0
 71
     0
 40
0.06
 41
0.06
280
     0
281
     0
  7
Standard
140
0.18
170
     2
 62
     0
 63
     7
283
     0
274
    -2
284
     1
 64
     0
275
    -2
285
     1
 65
     0
276
    -2
286
     1
 66
     0
277
    -2
287
     1
 67
     0
278
    -2
288
     1
 68
     0
279
    -2
289
     1
 69
     0
  7
Standard
140
0.25
170
     5
 62
     0
 63
     7
283
     0
274
    -2
284
     1
 64
     0
275
    -2
285
     1
 65
     0
276
    -2
286
     1
 66
     0
277
    -2
287
     1
 67
     0
278
    -2
288
     1
 68
     0
279
    -2
289
     1
 69
     0
  7
Standard
140
0.18
170
     5
 62
     0
 63
     7
283
     0
274
    -2
284
     1
 64
     0
275
    -2
285
     1
 65
     0
276
    -2
286
     1
 66
     0
277
    -2
287
     1
 67
     0
278
    -2
288
     1
 68
     0
279
    -2
289
     1
 69
     0
  0
VISUALSTYLE
  5
2F
102
{ACAD_XDICTIONARY
360
2F1B
102
}
102
{ACAD_REACTORS
330
29
102
}
330
29
100
AcDbVisualStyle
  2

 70
     4
 71
     0
 72
     2
 73
     0
 90
        0
 40
-0.6
 41
-30.0
 62
     5
 63
     7
421
 16777215
 74
     1
 91
        4
 64
     7
 65
   257
 75
     1
175
     1
 42
1.0
 92
        0
 66
   257
 43
1.0
 76
     1
 77
     6
 78
     2
 67
     7
 79
     5
170
     0
171
     0
290
     0
174
     0
 93
        1
 44
0.0
173
     0
291
     0
 45
0.0
1001
ACAD
1000
AcDbSavedByObjectVersion
1070
     0
  0
VISUALSTYLE
  5
1FC3
102
{ACAD_XDICTIONARY
360
2F6A
102
}
102
{ACAD_REACTORS
330
29
102
}
330
29
100
AcDbVisualStyle
  2

 70
     6
 71
     1
 72
     2
 73
     2
 90
        0
 40
-0.6
 41
-30.0
 62
     5
 63
     7
421
 16777215
 74
     2
 91
        2
 64
     7
 65
   257
 75
     2
175
     1
 42
179.0
 92
        0
 66
   257
 43
1.0
 76
     1
 77
     6
 78
     2
 67
     7
 79
     3
170
     0
171
     0
290
     0
174
     0
 93
        1
 44
0.0
173
     0
291
     0
 45
0.0
1001
ACAD
1000
AcDbSavedByObjectVersion
1070
     0
  0
VISUALSTYLE
  5
1FC2
102
{ACAD_XDICTIONARY
360
2F68
102
}
102
{ACAD_REACTORS
330
29
102
}
330
29
100
AcDbVisualStyle
  2

 70
     5
 71
     0
 72
     2
 73
     0
 90
        0
 40
-0.6
 41
-30.0
 62
     5
 63
     7
421
 16777215
 74
     1
 91
        4
 64
     7
 65
   257
 75
     1
175
     1
 42
1.0
 92
        0
 66
   257
 43
1.0
 76
     1
 77
     6
 78
     2
 67
     7
 79
     5
170
     0
171
     0
290
     0
174
     0
 93
        1
 44
0.0
173
     0
291
     0
 45
0.0
1001
ACAD
1000
AcDbSavedByObjectVersion
1070
     0
  0
VISUALSTYLE
  5
2E
102
{ACAD_XDICTIONARY
360
2F19
102
}
102
{ACAD_REACTORS
330
29
102
}
330
29
100
AcDbVisualStyle
  2

 70
     7
 71
     1
 72
     0
 73
     1
 90
        0
 40
-0.6
 41
-30.0
 62
     5
 63
     7
421
 16777215
 74
     0
 91
        4
 64
     7
 65
   257
 75
     1
175
     1
 42
1.0
 92
        8
 66
     7
 43
1.0
 76
     1
 77
     6
 78
     2
 67
     7
 79
     5
170
     0
171
     0
290
     0
174
     0
 93
        1
 44
0.0
173
     0
291
     1
 45
0.0
1001
ACAD
1000
AcDbSavedByObjectVersion
1070
     0
  0
VISUALSTYLE
  5
35
102
{ACAD_XDICTIONARY
360
2F27
102
}
102
{ACAD_REACTORS
330
29
102
}
330
29
100
AcDbVisualStyle
  2

 70
    12
 71
     2
 72
     2
 73
     0
 90
        0
 40
-0.6
 41
-30.0
 62
     5
 63
     7
421
 16777215
 74
     1
 91
        4
 64
     7
 65
   257
 75
     1
175
     1
 42
1.0
 92
        8
 66
     7
 43
1.0
 76
     1
 77
     6
 78
     2
 67
     7
 79
     5
170
     0
171
     0
290
     0
174
     0
 93
        1
 44
50.0
173
     0
291
     1
 45
0.0
1001
ACAD
1000
AcDbSavedByObjectVersion
1070
     0
  0
VISUALSTYLE
  5
39
102
{ACAD_XDICTIONARY
360
2F2F
102
}
102
{ACAD_REACTORS
330
29
102
}
330
29
100
AcDbVisualStyle
  2

 70
    16
 71
     2
 72
     2
 73
     3
 90
        0
 40
-0.6
 41
-30.0
 62
     5
 63
     8
421
  8421504
 74
     1
 91
        4
 64
     7
 65
   257
 75
     1
175
     1
 42
1.0
 92
        8
 66
     8
424
  8421504
 43
1.0
 76
     1
 77
     6
 78
     2
 67
     7
 79
     5
170
     0
171
     0
290
     0
174
     0
 93
        1
 44
0.0
173
     0
291
     1
 45
0.0
1001
ACAD
1000
AcDbSavedByObjectVersion
1070
     0
  0
VISUALSTYLE
  5
32
102
{ACAD_XDICTIONARY
360
2F21
102
}
102
{ACAD_REACTORS
330
29
102
}
330
29
100
AcDbVisualStyle
  2

 70
     9
 71
     3
 72
     2
 73
     0
 90
        0
 40
-0.6
 41
-30.0
 62
     5
 63
     7
421
 16777215
 74
     2
 91
        2
 64
     7
 65
   257
 75
     1
175
     1
 42
179.0
 92
        8
 66
     7
 43
1.0
 76
     1
 77
     6
 78
     2
 67
     7
 79
     3
170
     0
171
     0
290
     0
174
     0
 93
        1
 44
0.0
173
     0
291
     0
 45
0.0
1001
ACAD
1000
AcDbSavedByObjectVersion
1070
     0
  0
VISUALSTYLE
  5
34
102
{ACAD_XDICTIONARY
360
2F25
102
}
102
{ACAD_REACTORS
330
29
102
}
330
29
100
AcDbVisualStyle
  2

 70
    11
 71
     2
 72
     2
 73
     0
 90
        0
 40
-0.6
 41
-30.0
 62
     5
 63
     7
421
 16777215
 74
     1
 91
        4
 64
     7
 65
   257
 75
     1
175
     1
 42
1.0
 92
        8
 66
     7
 43
1.0
 76
     1
 77
     6
 78
     2
 67
     7
 79
     5
170
     0
171
     0
290
     0
174
     0
 93
        1
 44
-50.0
173
     0
291
     1
 45
0.0
1001
ACAD
1000
AcDbSavedByObjectVersion
1070
     0
  0
VISUALSTYLE
  5
41
102
{ACAD_XDICTIONARY
360
2F3F
102
}
102
{ACAD_REACTORS
330
29
102
}
330
29
100
AcDbVisualStyle
  2

 70
    22
 71
     2
 72
     2
 73
     0
 90
        0
 40
-0.6
 41
-30.0
 62
     5
 63
     7
421
 16777215
 74
     1
 91
        4
 64
     7
 65
   257
 75
     1
175
     1
 42
1.0
 92
        8
 66
     7
 43
1.0
 76
     1
 77
     6
 78
     2
 67
     7
 79
     5
170
     0
171
     0
290
     0
174
     0
 93
        1
 44
0.0
173
     0
291
     1
 45
0.0
1001
ACAD
1000
AcDbSavedByObjectVersion
1070
     0
  0
VISUALSTYLE
  5
38
102
{ACAD_XDICTIONARY
360
2F2D
102
}
102
{ACAD_REACTORS
330
29
102
}
330
29
100
AcDbVisualStyle
  2

 70
    15
 71
     2
 72
     2
 73
     0
 90
        0
 40
-0.6
 41
-30.0
 62
     5
 63
     7
421
 16777215
 74
     1
 91
        4
 64
     7
 65
   257
 75
     1
175
     1
 42
1.0
 92
        8
 66
     7
 43
1.0
 76
     1
 77
     6
 78
     2
 67
     7
 79
     5
170
     0
171
     0
290
     0
174
     0
 93
        1
 44
0.0
173
     0
291
     1
 45
0.0
1001
ACAD
1000
AcDbSavedByObjectVersion
1070
     0
  0
VISUALSTYLE
  5
2A
102
{ACAD_XDICTIONARY
360
2F11
102
}
102
{ACAD_REACTORS
330
29
102
}
330
29
100
AcDbVisualStyle
  2

 70
     0
 71
     2
 72
     1
 73
     1
 90
        2
 40
-0.6
 41
30.0
 62
     5
 63
     7
421
 16777215
 74
     0
 91
        0
 64
     7
 65
   257
 75
     1
175
     1
 42
1.0
 92
        8
 66
     7
 43
1.0
 76
     1
 77
     6
 78
     2
 67
     7
 79
     5
170
     0
171
     0
290
     0
174
     0
 93
       13
 44
0.0
173
     0
291
     1
 45
0.0
1001
ACAD
1000
AcDbSavedByObjectVersion
1070
     0
  0
VISUALSTYLE
  5
2B
102
{ACAD_XDICTIONARY
360
2F13
102
}
102
{ACAD_REACTORS
330
29
102
}
330
29
100
AcDbVisualStyle
  2

 70
     1
 71
     2
 72
     1
 73
     1
 90
        2
 40
-0.6
 41
30.0
 62
     5
 63
     7
421
 16777215
 74
     1
 91
        0
 64
     7
 65
   257
 75
     1
175
     1
 42
1.0
 92
        0
 66
   257
 43
1.0
 76
     1
 77
     6
 78
     2
 67
     7
 79
     5
170
     0
171
     0
290
     0
174
     0
 93
       13
 44
0.0
173
     0
291
     1
 45
0.0
1001
ACAD
1000
AcDbSavedByObjectVersion
1070
     0
  0
VISUALSTYLE
  5
2C
102
{ACAD_XDICTIONARY
360
2F15
102
}
102
{ACAD_REACTORS
330
29
102
}
330
29
100
AcDbVisualStyle
  2

 70
     2
 71
     2
 72
     2
 73
     1
 90
        2
 40
-0.6
 41
30.0
 62
     5
 63
     7
421
 16777215
 74
     0
 91
        0
 64
     7
 65
   257
 75
     1
175
     1
 42
1.0
 92
        0
 66
     7
 43
1.0
 76
     1
 77
     6
 78
     2
 67
     7
 79
     5
170
     0
171
     0
290
     0
174
     0
 93
       13
 44
0.0
173
     0
291
     1
 45
0.0
1001
ACAD
1000
AcDbSavedByObjectVersion
1070
     0
  0
VISUALSTYLE
  5
2D
102
{ACAD_XDICTIONARY
360
2F17
102
}
102
{ACAD_REACTORS
330
29
102
}
330
29
100
AcDbVisualStyle
  2

 70
     3
 71
     2
 72
     2
 73
     1
 90
        2
 40
-0.6
 41
30.0
 62
     5
 63
     7
421
 16777215
 74
     1
 91
        0
 64
     7
 65
   257
 75
     1
175
     1
 42
1.0
 92
        0
 66
   257
 43
1.0
 76
     1
 77
     6
 78
     2
 67
     7
 79
     5
170
     0
171
     0
290
     0
174
     0
 93
       13
 44
0.0
173
     0
291
     1
 45
0.0
1001
ACAD
1000
AcDbSavedByObjectVersion
1070
     0
  0
VISUALSTYLE
  5
31
102
{ACAD_XDICTIONARY
360
2F1F
102
}
102
{ACAD_REACTORS
330
29
102
}
330
29
100
AcDbVisualStyle
  2

 70
     6
 71
     1
 72
     2
 73
     2
 90
        0
 40
-0.6
 41
-30.0
 62
     5
 63
     7
421
 16777215
 74
     2
 91
        2
 64
     7
 65
   257
 75
     2
175
     1
 42
40.0
 92
        0
 66
   257
 43
1.0
 76
     1
 77
     6
 78
     2
 67
     7
 79
     3
170
     0
171
     0
290
     0
174
     0
 93
        1
 44
0.0
173
     0
291
     0
 45
0.0
1001
ACAD
1000
AcDbSavedByObjectVersion
1070
     0
  0
VISUALSTYLE
  5
3F
102
{ACAD_XDICTIONARY
360
2F3B
102
}
102
{ACAD_REACTORS
330
29
102
}
330
29
100
AcDbVisualStyle
  2

 70
    20
 71
     2
 72
     2
 73
     0
 90
        0
 40
-0.6
 41
-30.0
 62
     5
 63
     7
421
 16777215
 74
     1
 91
        4
 64
     7
 65
   257
 75
     1
175
     1
 42
1.0
 92
       10
 66
     7
 43
1.0
 76
     1
 77
     6
 78
     2
 67
     7
 79
     5
170
     0
171
     0
290
     0
174
     0
 93
        1
 44
0.0
173
     0
291
     1
 45
0.0
1001
ACAD
1000
AcDbSavedByObjectVersion
1070
     0
  0
VISUALSTYLE
  5
37
102
{ACAD_XDICTIONARY
360
2F2B
102
}
102
{ACAD_REACTORS
330
29
102
}
330
29
100
AcDbVisualStyle
  2

 70
    14
 71
     2
 72
     2
 73
     0
 90
        0
 40
-0.6
 41
-30.0
 62
     5
 63
     7
421
 16777215
 74
     1
 91
        4
 64
     7
 65
   257
 75
     7
175
     7
 42
1.0
 92
        8
 66
     7
 43
1.0
 76
     1
 77
     6
 78
     2
 67
     7
 79
     5
170
     0
171
     0
290
     0
174
     0
 93
        1
 44
0.0
173
     0
291
     1
 45
0.0
1001
ACAD
1000
AcDbSavedByObjectVersion
1070
     0
  0
VISUALSTYLE
  5
40
102
{ACAD_XDICTIONARY
360
2F3D
102
}
102
{ACAD_REACTORS
330
29
102
}
330
29
100
AcDbVisualStyle
  2

 70
    21
 71
     2
 72
     2
 73
     0
 90
        0
 40
-0.6
 41
-30.0
 62
     5
 63
     7
421
 16777215
 74
     1
 91
        4
 64
     7
 65
   257
 75
     1
175
     1
 42
1.0
 92
        9
 66
     7
 43
1.0
 76
     1
 77
     6
 78
     2
 67
     7
 79
     5
170
     0
171
     0
290
     0
174
     0
 93
        1
 44
0.0
173
     0
291
     1
 45
0.0
1001
ACAD
1000
AcDbSavedByObjectVersion
1070
     0
  0
VISUALSTYLE
  5
33
102
{ACAD_XDICTIONARY
360
2F23
102
}
102
{ACAD_REACTORS
330
29
102
}
330
29
100
AcDbVisualStyle
  2

 70
     8
 71
     2
 72
     3
 73
     0
 90
        2
 40
-0.6
 41
30.0
 62
     5
 63
     7
421
 16777215
 74
     0
 91
        0
 64
     7
 65
   257
 75
     1
175
     1
 42
1.0
 92
        8
 66
   257
 43
1.0
 76
     1
 77
     6
 78
     2
 67
     7
 79
     3
170
     0
171
     0
290
     0
174
     0
 93
       13
 44
0.0
173
     0
291
     0
 45
0.0
1001
ACAD
1000
AcDbSavedByObjectVersion
1070
     0
  0
VISUALSTYLE
  5
3E
102
{ACAD_XDICTIONARY
360
2F39
102
}
102
{ACAD_REACTORS
330
29
102
}
330
29
100
AcDbVisualStyle
  2

 70
    27
 71
     2
 72
     2
 73
     1
 90
        2
 40
-0.6
 41
30.0
 62
     5
 63
     7
421
 16777215
 74
     0
 91
        4
 64
     7
 65
   257
 75
     1
175
     1
 42
1.0
 92
        8
 66
   257
 43
1.0
 76
     1
 77
     6
 78
     2
 67
     8
425
  7895160
 79
     3
170
     0
171
     0
290
     0
174
     0
 93
        5
 44
0.0
173
     0
291
     0
 45
0.0
1001
ACAD
1000
AcDbSavedByObjectVersion
1070
     0
  0
VISUALSTYLE
  5
3D
102
{ACAD_XDICTIONARY
360
2F37
102
}
102
{ACAD_REACTORS
330
29
102
}
330
29
100
AcDbVisualStyle
  2

 70
    26
 71
     2
 72
     2
 73
     1
 90
        2
 40
-0.6
 41
30.0
 62
     5
 63
     7
421
 16777215
 74
     1
 91
       10
 64
     7
 65
   257
 75
     2
175
     1
 42
1.0
 92
        8
 66
   257
 43
1.0
 76
     1
 77
     6
 78
     2
 67
     7
 79
     3
170
     0
171
     0
290
     0
174
     0
 93
        5
 44
0.0
173
     0
291
     0
 45
0.0
1001
ACAD
1000
AcDbSavedByObjectVersion
1070
     0
  0
VISUALSTYLE
  5
3A
102
{ACAD_XDICTIONARY
360
2F31
102
}
102
{ACAD_REACTORS
330
29
102
}
330
29
100
AcDbVisualStyle
  2

 70
    23
 71
     2
 72
     2
 73
     3
 90
        0
 40
-0.6
 41
-30.0
 62
     5
 63
     7
421
 16777215
 74
     2
 91
        2
 64
     7
 65
     7
 75
     1
175
     1
 42
40.0
 92
        8
 66
     7
 43
1.0
 76
     1
 77
     6
 78
     2
 67
     7
 79
     3
170
     0
171
     0
290
     0
174
     0
 93
        1
 44
0.0
173
     0
291
     0
 45
0.0
1001
ACAD
1000
AcDbSavedByObjectVersion
1070
     0
  0
VISUALSTYLE
  5
3B
102
{ACAD_XDICTIONARY
360
2F33
102
}
102
{ACAD_REACTORS
330
29
102
}
330
29
100
AcDbVisualStyle
  2

 70
    24
 71
     1
 72
     2
 73
     2
 90
        0
 40
-0.6
 41
-30.0
 62
     5
 63
     7
421
 16777215
 74
     2
 91
        2
 64
     7
 65
     7
 75
     1
175
     1
 42
40.0
 92
       11
 66
     7
 43
1.0
 76
     1
 77
     6
 78
     2
 67
     7
 79
     6
170
     0
171
     0
290
     0
174
     0
 93
        1
 44
0.0
173
     0
291
     0
 45
0.0
1001
ACAD
1000
AcDbSavedByObjectVersion
1070
     0
  0
VISUALSTYLE
  5
36
102
{ACAD_XDICTIONARY
360
2F29
102
}
102
{ACAD_REACTORS
330
29
102
}
330
29
100
AcDbVisualStyle
  2

 70
    13
 71
     2
 72
     2
 73
     0
 90
        0
 40
-0.6
 41
-30.0
 62
     5
 63
     7
421
 16777215
 74
     1
 91
        4
 64
     7
 65
   257
 75
     1
175
     1
 42
1.0
 92
       12
 66
     7
 43
1.0
 76
     1
 77
     6
 78
     2
 67
     7
 79
     5
170
     0
171
     0
290
     0
174
     0
 93
        1
 44
0.0
173
     0
291
     1
 45
0.0
1001
ACAD
1000
AcDbSavedByObjectVersion
1070
     0
  0
VISUALSTYLE
  5
30
102
{ACAD_XDICTIONARY
360
2F1D
102
}
102
{ACAD_REACTORS
330
29
102
}
330
29
100
AcDbVisualStyle
  2

 70
     5
 71
     0
 72
     2
 73
     0
 90
        0
 40
-0.6
 41
-30.0
 62
     5
 63
     7
421
 16777215
 74
     1
 91
        4
 64
     7
 65
   257
 75
     1
175
     1
 42
1.0
 92
        0
 66
   257
 43
1.0
 76
     1
 77
     6
 78
     2
 67
     7
 79
     3
170
     0
171
     0
290
     0
174
     0
 93
        1
 44
0.0
173
     0
291
     0
 45
0.0
1001
ACAD
1000
AcDbSavedByObjectVersion
1070
     0
  0
VISUALSTYLE
  5
3C
102
{ACAD_XDICTIONARY
360
2F35
102
}
102
{ACAD_REACTORS
330
29
102
}
330
29
100
AcDbVisualStyle
  2

 70
    25
 71
     2
 72
     2
 73
     1
 90
        1
 40
0.5
 41
-30.0
 62
     5
 63
     7
421
 16777215
 74
     1
 91
        0
 64
     7
 65
   257
 75
     1
175
     1
 42
1.0
 92
        8
 66
     7
 43
1.0
 76
     1
 77
     6
 78
     2
 67
     7
 79
     3
170
     0
171
     0
290
     0
174
     0
 93
       13
 44
0.0
173
     0
291
     0
 45
0.0
1001
ACAD
1000
AcDbSavedByObjectVersion
1070
     0
  0
DICTIONARYVAR
  5
1FC0
102
{ACAD_REACTORS
330
1FBD
102
}
330
1FBD
100
DictionaryVariables
280
     0
  1
1:1
  0
DICTIONARYVAR
  5
1FBF
102
{ACAD_REACTORS
330
1FBD
102
}
330
1FBD
100
DictionaryVariables
280
     0
  1
STANDARD
  0
DICTIONARYVAR
  5
1FBE
102
{ACAD_REACTORS
330
1FBD
102
}
330
1FBD
100
DictionaryVariables
280
     0
  1
STANDARD
  0
DICTIONARYVAR
  5
2C4A
102
{ACAD_REACTORS
330
1FBD
102
}
330
1FBD
100
DictionaryVariables
280
     0
  1
0
  0
DICTIONARYVAR
  5
2C4B
102
{ACAD_REACTORS
330
1FBD
102
}
330
1FBD
100
DictionaryVariables
280
     0
  1
0
  0
DICTIONARYVAR
  5
2C49
102
{ACAD_REACTORS
330
1FBD
102
}
330
1FBD
100
DictionaryVariables
280
     0
  1
2
  0
DICTIONARYVAR
  5
2C48
102
{ACAD_REACTORS
330
1FBD
102
}
330
1FBD
100
DictionaryVariables
280
     0
  1
1
  0
DICTIONARYVAR
  5
2C4C
102
{ACAD_REACTORS
330
1FBD
102
}
330
1FBD
100
DictionaryVariables
280
     0
  1
0
  0
DICTIONARYVAR
  5
2EF4
102
{ACAD_REACTORS
330
1FBD
102
}
330
1FBD
100
DictionaryVariables
280
     0
  1
2
  0
DICTIONARY
  5
2033
102
{ACAD_REACTORS
330
2029
102
}
330
2029
100
AcDbDictionary
281
     1
  0
DICTIONARY
  5
1A
330
19
100
AcDbDictionary
280
     1
281
     1
  3
ACAD_XREC_ROUNDTRIP
360
2C66
  3
BUMPTILE
360
1C
  3
DIFFUSETILE
360
1B
  3
OPACITYTILE
360
1F
  3
REFLECTIONTILE
360
1E
  3
REFRACTIONTILE
360
20
  3
SPECULARTILE
360
1D
  0
DICTIONARY
  5
12
330
11
100
AcDbDictionary
280
     1
281
     1
  3
ACAD_XREC_ROUNDTRIP
360
2C65
  3
BUMPTILE
360
14
  3
DIFFUSETILE
360
13
  3
FBXASSET
360
9C
  3
OPACITYTILE
360
17
  3
REFLECTIONTILE
360
16
  3
REFRACTIONTILE
360
18
  3
SPECULARTILE
360
15
  0
DICTIONARY
  5
22
330
21
100
AcDbDictionary
280
     1
281
     1
  3
ACAD_XREC_ROUNDTRIP
360
2C67
  3
BUMPTILE
360
24
  3
DIFFUSETILE
360
23
  3
OPACITYTILE
360
27
  3
REFLECTIONTILE
360
26
  3
REFRACTIONTILE
360
28
  3
SPECULARTILE
360
25
  0
DICTIONARY
  5
1F82
330
67
100
AcDbDictionary
280
     1
281
     1
  3
ACAD_XREC_ROUNDTRIP
360
1F83
  0
DICTIONARY
  5
2C4E
330
65
100
AcDbDictionary
280
     1
281
     1
  3
ACAD_ROUNDTRIP_2008_TABLESTYLE_CELLSTYLEMAP
360
2EF5
  3
ACAD_XREC_ROUNDTRIP
360
2F41
  0
DICTIONARY
  5
2F1B
330
2F
100
AcDbDictionary
280
     1
281
     1
  3
ACAD_XREC_ROUNDTRIP
360
2F1C
  0
DICTIONARY
  5
2F6A
330
1FC3
100
AcDbDictionary
280
     1
281
     1
  3
ACAD_XREC_ROUNDTRIP
360
2F6B
  0
DICTIONARY
  5
2F68
330
1FC2
100
AcDbDictionary
280
     1
281
     1
  3
ACAD_XREC_ROUNDTRIP
360
2F69
  0
DICTIONARY
  5
2F19
330
2E
100
AcDbDictionary
280
     1
281
     1
  3
ACAD_XREC_ROUNDTRIP
360
2F1A
  0
DICTIONARY
  5
2F27
330
35
100
AcDbDictionary
280
     1
281
     1
  3
ACAD_XREC_ROUNDTRIP
360
2F28
  0
DICTIONARY
  5
2F2F
330
39
100
AcDbDictionary
280
     1
281
     1
  3
ACAD_XREC_ROUNDTRIP
360
2F30
  0
DICTIONARY
  5
2F21
330
32
100
AcDbDictionary
280
     1
281
     1
  3
ACAD_XREC_ROUNDTRIP
360
2F22
  0
DICTIONARY
  5
2F25
330
34
100
AcDbDictionary
280
     1
281
     1
  3
ACAD_XREC_ROUNDTRIP
360
2F26
  0
DICTIONARY
  5
2F3F
330
41
100
AcDbDictionary
280
     1
281
     1
  3
ACAD_XREC_ROUNDTRIP
360
2F40
  0
DICTIONARY
  5
2F2D
330
38
100
AcDbDictionary
280
     1
281
     1
  3
ACAD_XREC_ROUNDTRIP
360
2F2E
  0
DICTIONARY
  5
2F11
330
2A
100
AcDbDictionary
280
     1
281
     1
  3
ACAD_XREC_ROUNDTRIP
360
2F12
  0
DICTIONARY
  5
2F13
330
2B
100
AcDbDictionary
280
     1
281
     1
  3
ACAD_XREC_ROUNDTRIP
360
2F14
  0
DICTIONARY
  5
2F15
330
2C
100
AcDbDictionary
280
     1
281
     1
  3
ACAD_XREC_ROUNDTRIP
360
2F16
  0
DICTIONARY
  5
2F17
330
2D
100
AcDbDictionary
280
     1
281
     1
  3
ACAD_XREC_ROUNDTRIP
360
2F18
  0
DICTIONARY
  5
2F1F
330
31
100
AcDbDictionary
280
     1
281
     1
  3
ACAD_XREC_ROUNDTRIP
360
2F20
  0
DICTIONARY
  5
2F3B
330
3F
100
AcDbDictionary
280
     1
281
     1
  3
ACAD_XREC_ROUNDTRIP
360
2F3C
  0
DICTIONARY
  5
2F2B
330
37
100
AcDbDictionary
280
     1
281
     1
  3
ACAD_XREC_ROUNDTRIP
360
2F2C
  0
DICTIONARY
  5
2F3D
330
40
100
AcDbDictionary
280
     1
281
     1
  3
ACAD_XREC_ROUNDTRIP
360
2F3E
  0
DICTIONARY
  5
2F23
330
33
100
AcDbDictionary
280
     1
281
     1
  3
ACAD_XREC_ROUNDTRIP
360
2F24
  0
DICTIONARY
  5
2F39
330
3E
100
AcDbDictionary
280
     1
281
     1
  3
ACAD_XREC_ROUNDTRIP
360
2F3A
  0
DICTIONARY
  5
2F37
330
3D
100
AcDbDictionary
280
     1
281
     1
  3
ACAD_XREC_ROUNDTRIP
360
2F38
  0
DICTIONARY
  5
2F31
330
3A
100
AcDbDictionary
280
     1
281
     1
  3
ACAD_XREC_ROUNDTRIP
360
2F32
  0
DICTIONARY
  5
2F33
330
3B
100
AcDbDictionary
280
     1
281
     1
  3
ACAD_XREC_ROUNDTRIP
360
2F34
  0
DICTIONARY
  5
2F29
330
36
100
AcDbDictionary
280
     1
281
     1
  3
ACAD_XREC_ROUNDTRIP
360
2F2A
  0
DICTIONARY
  5
2F1D
330
30
100
AcDbDictionary
280
     1
281
     1
  3
ACAD_XREC_ROUNDTRIP
360
2F1E
  0
DICTIONARY
  5
2F35
330
3C
100
AcDbDictionary
280
     1
281
     1
  3
ACAD_XREC_ROUNDTRIP
360
2F36
  0
XRECORD
  5
2C66
102
{ACAD_REACTORS
330
1A
102
}
330
1A
100
AcDbXrecord
280
     1
102
MATERIAL
148
0.0
149
0.0
149
0.0
 93
        0
 94
      127
282
     0
 72
     0
 77
     0
171
     0
175
     0
179
     0
273
     0
  0
XRECORD
  5
1C
102
{ACAD_REACTORS
330
1A
102
}
330
1A
100
AcDbXrecord
280
     1
270
     1
271
     1
  0
XRECORD
  5
1B
102
{ACAD_REACTORS
330
1A
102
}
330
1A
100
AcDbXrecord
280
     1
270
     1
271
     1
  0
XRECORD
  5
1F
102
{ACAD_REACTORS
330
1A
102
}
330
1A
100
AcDbXrecord
280
     1
270
     1
271
     1
  0
XRECORD
  5
1E
102
{ACAD_REACTORS
330
1A
102
}
330
1A
100
AcDbXrecord
280
     1
270
     1
271
     1
  0
XRECORD
  5
20
102
{ACAD_REACTORS
330
1A
102
}
330
1A
100
AcDbXrecord
280
     1
270
     1
271
     1
  0
XRECORD
  5
1D
102
{ACAD_REACTORS
330
1A
102
}
330
1A
100
AcDbXrecord
280
     1
270
     1
271
     1
  0
XRECORD
  5
2C65
102
{ACAD_REACTORS
330
12
102
}
330
12
100
AcDbXrecord
280
     1
102
MATERIAL
148
0.0
149
0.0
149
0.0
 93
        0
 94
      127
282
     0
 72
     0
 77
     0
171
     0
175
     0
179
     0
273
     0
  0
XRECORD
  5
14
102
{ACAD_REACTORS
330
12
102
}
330
12
100
AcDbXrecord
280
     1
270
     1
271
     1
  0
XRECORD
  5
13
102
{ACAD_REACTORS
330
12
102
}
330
12
100
AcDbXrecord
280
     1
270
     1
271
     1
  0
XRECORD
  5
9C
102
{ACAD_REACTORS
330
12
102
}
330
12
100
AcDbXrecord
280
     1
 70
     1
 90
1959938040
 71
     1
  1
8816D697-3368-4CEF-9688-A2460F1230A4
311
504B03040A00000800002F66DA403DEE336E79000000790000001B0000006175746F6465736B2D64657369676E2D7061636B6167652E786D6C3C3F786D6C2076657273696F6E3D22312E302220656E636F64696E673D227574662D3822203F3E3C666F726D6174733E3C666F726D61743E687474703A2F2F736368656D612E
311
6175746F6465736B2E636F6D2F64657369676E2D7061636B6167652F323030393C2F666F726D61743E3C2F666F726D6174733E504B03041400060808002F66DA40D486FD9CA0000000F4000000130000005B436F6E74656E745F54797065735D2E786D6C7D8EC10E82300C865F65E91D8A1E8C310C0EEA1BF002731658846E
311
D98AC1B77784ABF1D8FE5FBFBF75BBCE937A534CCEB38643598122B6FEE978D0B0485F9C41B54DDD7D022595594E1A469170414C76A4D9A4D207E29CF43ECE46F218070CC6BECC4078ACAA135ACF422C856C0E68EA1BF5669944DDD7BCDE7B1F8E415D77AECB980613C2E4AC91FC167A2B244592486606FC29C8FD7F045B9A
311
EF7053A7E60B504B03041400060808002F66DA402A571598EA0000007C01000008000000636F72652E786D6C8D905B6EC3201444B782F8ADB079D86E6261A2CACE0EBA0104C44189C1E25175F9C58923B57FFDBA57C31CEE68F8E97BB9832F13A2F56E80A4C21018A7BCB66E1E604E177480E02478F03EFDB241E0E46206B8
311
C950F039F8BCEE92F22E19978AEABC36BB2863340902752FCB00A3BA9A455632A7E288B76A95EA26675391D756E09CAD06CF235697FFECC59A00059918C3EF042376EC46D48CD3073A9086A2968CA41DA7A93DB333AF3758F06497D77D158C4C46434131A1087788769F84F6CDB167E40D931E635E6FF63F505EF53FA16C5D
311
62748FFBC462C95A823C1E04AFB72ECA781455E6D69BF801504B03041400060808002F66DA4055019EA25F0000007C00000007000000636E782E786D6C4DCB3B0E80201045D1AD90E915ED2CF8AC45050C11660C8261F98AB1B07AC9C97D42D718D865D3E909258CFD00CCE24AC6E326A164D74DC0B4128928FF326038472B
311
A13128B1252AC747C6BAB984FC68F0B87FE8960A5C09FE86CFB69FBA01504B03041400060808002F66DA40DE71BACC66010000020300000C0000006662782F636F72652E786D6C8D52ED8E8320107C15C2DF8B026A7B6D833417ED1BDC0B50A59EA98241307DFC5B3F1AAF97A6694C90CCECECCE8EF2E3AD6DD0A06C5F1B9D
311
6216528C942E4C59EB2AC5DE5D821D4647C1AD31EE4F19465AB62AC5238C05AFACF1DD0215463BA51DA0DA946A0165DF2B8751D1C025C57DF1A35A194AEFA0A2BF869D2CAEB252210B81863AC17B67C1009A878C271697F38D931917DCFBBA5CD8BA8469F5A556160B96C731FD643488F7DB2C48B2FC2BD8B1240A362C639B
311
2CCF37A7F8C4C92816DCD5EDDD5D619574AAC422A22C0AE83688B6DF2C3A24FB43CC3E283B50CAC958FE20F25DF9A6C8D7DAC5D1627796F5E0158C4CC4BF6D2122877A39801F2238194384D794F063D0100884ECE4B9B9EF7105685085333601A6347EA506D9780553299A1E4E66163A4F0D60B3A77DA2177D5EF7800F2875
311
05D6A483EBD9BB713A9FA72E5174CA0683BB216D6C2B9BD5DC6C713DD7414FE585698C7D474D9655C9122619FF5EF10B504B03041400060808002F66DA40C3A87A6C7D0000009D0000000B0000006662782F636E782E786D6C4DCCDF0A83201C86E15B91DFB9A522D3811AFDA1FB886521331D4E6397BF1A1DECE883878F57
311
359FCDA3DDA6B78B4103AD08201B1E717661D550F28225A0C6A81463FEBB010AD366359C0C46AD2996D745B35DA6E2F3A1DE85E7851DA12363FC867BCA04E6FD5D602909C55C0E7CA063D7B65C406D54FD2B1D7B86CD17504B03041400060808002F66DA40614658A22D01000015020000310000006662782F423031463232
311
34362D433132372D344339372D383830312D3438443444314642414134372F636F72652E786D6C8D515B6EC32010BC8AC557AA0A1B08B19D0813E5A19CA0172098242831583CAA1CBF503B52FB971F16CDCECC8E76D9F6393C8A6FE5BCB6A603B844A05046DA5E9B6B0762B8C016145BCE9CB5E10F0D14460CAA0319069C5D
311
9D8DE30C496B823221A1C6F66A0685F72A80423ED2A7035EDED4204A114362F87B390A79175755E232B5138F331F5C0A504C43F20BF81EE11321B486074C1A480FEB06B62DC290B6477AC4A7FD6E471B564D42CE62D4FD2CD77D8AA32F5AB9774DB298B3A087577CE99408AA079C204C20AA21A9BF30D9D0F566893F11DE20
311
C4AA4CFF278A63FFA6286A1396648E3BC93CE098555383B3DEC6F3E315463D47EB4291E72DBC921F80A312A155B344355DB16AE2A60D24D39ACEA63E589736BCB89F131D275676AE2967553E522ABF174C351F94FF00504B03041400060808002F66DA40BEB95BE74E01000033030000300000006662782F42303146323234
311
362D433132372D344339372D383830312D3438443444314642414134372F636E782E786D6CD593CD6EC32010845F0571ADFC8363596D8489D4439FA0875E096C121A0C16E0AA79FB2E094973C9A1C75E90353BCCAC3E61BEF99E2CF982108D772365754B0938E5B571FB912E69573D53B2113C789FEE6C943839C148B34C05
311
DF07BFCC45D2B0938B4DA85AE38E450C10FD12144494F34D62BD921603C0550B8A306D416BD0E466C4AF1D045C05C5ED89A40390B7D70FE2B79FA052E44D4E11BCC91D82E7B334DD99285156C638D2A80E30C95A2EC96B88C75ACB246B565FBB1EECF49B44F2856BE5120CC9E523CD271565A31A39F2068782C714905E31A5
311
D30C54C879B646C984909BB3F1E2117C312E0D7DF11A041FD0CD8655DF63D8792678321314870A2013682ABA9675553B54DDF0CEBA75FFB25EB1A796ADDB9637D92EF8D67B5B2E610C043F13E55D0297A860BCC9E347F88A8F681390B50FA73F804400A5F542E796F19FF934E7F78DB802FE05E207504B0304140006080800
311
2F66DA401E3DA7549B0500007B100000340000006662782F42303146323234362D433132372D344339372D383830312D3438443444314642414134372F6F626A656374732E786D6CAD575D8F9B3814FD2B887D8684244D332B862A9374AAA83B6DD5A8D53E8C1419308C77CC876C3393E9AFDF633004D2649A5DF505B0B1AF
311
EF3DF7DC0FFBEFF619B79EA890ACC8AF6DCF1DDB16CDA32266797A6D572A7116B6F52EF04551A8DE32DBCA4946AF6D3D6D077E2A8AAA3453314D48C5D5D1ECEDCDDF968C684E6D2BE244CA6B5B460F34232EA9541153F9E8C64411374DF6AEE7360B87625341CA8723A125113457D014F339A4588D52DE7038B647813FD2FF
311
035F3FCDAAE9F955A3DA9EE1F92C978AE4D14F871D89997AB3F5FBC99B2BE7CD6C367566F389E7DCDCDEAC1DEFED74BC9AAF5657CBF75738582A0149461341133BF8006C048BFC51F32BF02B96ABE9C42C310E1A09FAC4B4A7EC606279FEA859D359678C3CA57E54E4398D6AAC80466D9F111DD392E6317CCEA884663D84C6
311
C3A1A771ECFD9EEAB139B23F7D1902FD1D3D41ADEEEDBBAF6911FE0313E4250C12926A0636581A431BAE8E0F088745C1CD3F26AD8C282A18E11667A120E2C50EB0542F09FC8118CD64A1A3415B6007F042F37B481784D1AF797E4ACBA4E25CD3D80EEA28D82156A892B566EC071507EDFBC84027F84AB361610C522F25B583
311
AB86228B233635405A0927295C0E33F5CEE9E4C8D0958ED3CDDA0E3EDE86FBAD8EDDD38797A228A9509A3EA056EBB8F6AD51323A7917794E6FB08F543980F215C87F42A81F5481DF04DBCFF633738A122497492132F8C61A5BCE188FB1E5D54FFDDDFBF247DDE6A1F7CEE109676BA87E039E431BFABEECC119F84F207C21A6
311
C6B46D4438D2C61DCB01902689C50B4C210F27E1DE0E36C872C8CAD84578E0C164A8FB844F7F64C42051D427F5DE39B03C4A8B172468C05633126A34E4370A1EFCF4533AAB0F36CBCEC1FBE6B7D075B9DE7EDC56222111BD3331BDA609CB9942893BF0A6AFD000F381458FF4E5B910310CFD19EF6D1FEFCC1C2581B6C65C03
311
9FB6395D0F0E270F0E88B02F2D74BAF17F71028CD085B527FF8EC988724E725A54EDB9AFD60F948D06621DEC9AC95D8139141690A6F973148328D29160A506B1AB565DD274CF58F76DF3098CB4839B97BFC84B3F7B8587DC1B15BC10BBF065D7A4A593507F1F72DB6030D25240F73A48DAF837A0EF6296249544123C81EBF7
311
CDAAEF3B9D1690225AA94DB4CC603F828B0843DA562EAAB520A8A445BE63A89B88BB9307F4E50352C3805AE0398D25E5C98E715E65BB847154A35D46CA3370FC7FFDC32A2B77242BAA5C9D913D501DD561A8FB80BDF299A8E8C10EB6F5DBB941EE8D697C860CBA969CC06AE0DAC5C29BAFE7576F9DE974BE7066ABF7B7CED5
311
7CB1709693D97C7CEB4DA6E3E5ACF553A349E0B7A5A61FD1F0124A9B5F0966DCF76D83F83149C00EEE8892F71F9AF06CDFDF362E7A617F843DA897DDC665FC84BE8FC6BF1670587952D0262B39CD68AE888EA13BFDC1BF12F41903659AF94D46527A8194CF1FB647C660E6827D5F74BCD3E7A3BD6676A503F2A410F5506561
311
4E183FDA983648BA659E1AFC5A9F74EFA6D0B4433D328E41672A0BCE62E4C1D84A699151856C784111121995A05EBFA78FCDDDE382DD4F4D87A848C869ABC9034193CC25C202D4AA22359CB7FE4053A7FBAA6B1BE5D67DC4C3640ADB0267AE6D34E98A4554BA210AB46E856AE1E052BF9347E34FF294A3D76E3675E36E97C6
311
665092BB2597F44FC6AE26851B0390464AF40D6888E09D5A99C0AF7533FFA3FF6478AB8E45143EC34A75B61C263A63EA6310A28D51E6B68026E6D11CBD47A0BE6E96E7D66B06885C74CB7A95048D54471191D63705AD9F5169B9FE324287626D3E5B25AF52F8F272498EA02073A5031C2C022B8CCC92285075F5E7FD1751E0
311
269B59B70C14B85F155956E466B03437616BFB807B6D7C8FB440F58544DE4FC6DEE4BEBE0898BBC92E2492BA24968F98804F05EB201E381E8C6C6E8BA840CD8F6EDD483BE1889B9BB5654A1A726CBBBE9F55352C6839726A217AF46552C74A7F41F9EA5D60542F850A025D7CF02F504B03041400060800002F66DA40000000
311
000000000000000000350000006662782F42303146323234362D433132372D344339372D383830312D3438443444314642414134372F76657274696365732E62696E504B03041400060808002F66DA40F270F1330600000004000000360000006662782F42303146323234362D433132372D344339372D383830312D343844
311
3444314642414134372F747269616E676C65732E62696E636660600000504B03041400060800002F66DA40000000000000000000000000370000006662782F42303146323234362D433132372D344339372D383830312D3438443444314642414134372F617474726962757465732E62696E504B03041400060808002F66DA
311
40D5987DFC8F00000041010000360000006662782F42303146323234362D433132372D344339372D383830312D3438443444314642414134372F6469726563746F72792E786D6C858F410EC2201045AF4266AF15DDB800BA74E7C21B903225242D6328188F2FA5C4183471359997F9FF81E89FF3C41E1816475E02DF1F80A1
311
1FC8386F25A438EECEC07A250251FC3803E6F58C12560C4AD840E95E91C151A72936F496F35732D860FE635F62C8F2DA16B505C545B74125BAA2FA9E05D7CC053D063734D5C7665FD55B6B8D15D5E9BFEAFD8490FFA45E504B03041400060808002F66DA40AEBACB3FFD000000A00100003B0000006662782F423031463232
311
34362D433132372D344339372D383830312D3438443444314642414134372F7265736F75726365732F636F72652E786D6C8D50596EC32010BD0AE2B7C2062F696261A2CA4E4FD00B2098382831582C558F5F1CBB52FBD79F99D15B344F8F9FBFE607FA041F8CB33D6605C508AC72DAD8A9C7295EC911A3B3E0DEB9F84B8691
311
9533F47885B1E0937769D921E56C041B336A9D861D942140C4483DF2D1E3A06E30CB42A69815E15E2C52DDE504052B329D758287E87300B43D5927161E824B5E41E0E5C60A9E92D1BBC6E8FCD35C0D782CD858D7F495BE93FA741848338C6FE4C89A8AB46C60ED308EEDA5BEF072350B1ECDFC93517990113416156515A107
311
521D3E58D535A7AE662F947594F27295FF31A545FFD3948C8D75B5C7DD6C2167CD419E84E0E5DA575ECF32F35EBB15DF504B010214000A00000800002F66DA403DEE336E79000000790000001B00000000000000000000000000000000006175746F6465736B2D64657369676E2D7061636B6167652E786D6C504B01021400
311
1400060808002F66DA40D486FD9CA0000000F40000001300000000000000000000000000B20000005B436F6E74656E745F54797065735D2E786D6C504B010214001400060808002F66DA402A571598EA0000007C010000080000000000000000000000000083010000636F72652E786D6C504B010214001400060808002F66
311
DA4055019EA25F0000007C000000070000000000000000000000000093020000636E782E786D6C504B010214001400060808002F66DA40DE71BACC66010000020300000C00000000000000000000000000170300006662782F636F72652E786D6C504B010214001400060808002F66DA40C3A87A6C7D0000009D0000000B00
311
000000000000000000000000A70400006662782F636E782E786D6C504B010214001400060808002F66DA40614658A22D0100001502000031000000000000000000000000004D0500006662782F42303146323234362D433132372D344339372D383830312D3438443444314642414134372F636F72652E786D6C504B010214
311
001400060808002F66DA40BEB95BE74E010000330300003000000000000000000000000000C90600006662782F42303146323234362D433132372D344339372D383830312D3438443444314642414134372F636E782E786D6C504B010214001400060808002F66DA401E3DA7549B0500007B10000034000000000000000000
311
00000000650800006662782F42303146323234362D433132372D344339372D383830312D3438443444314642414134372F6F626A656374732E786D6C504B010214001400060800002F66DA400000000000000000000000003500000000000000000000000000520E00006662782F42303146323234362D433132372D344339
311
372D383830312D3438443444314642414134372F76657274696365732E62696E504B010214001400060808002F66DA40F270F13306000000040000003600000000000000000000000000A50E00006662782F42303146323234362D433132372D344339372D383830312D3438443444314642414134372F747269616E676C65
311
732E62696E504B010214001400060800002F66DA400000000000000000000000003700000000000000000000000000FF0E00006662782F42303146323234362D433132372D344339372D383830312D3438443444314642414134372F617474726962757465732E62696E504B010214001400060808002F66DA40D5987DFC8F
311
000000410100003600000000000000000000000000540F00006662782F42303146323234362D433132372D344339372D383830312D3438443444314642414134372F6469726563746F72792E786D6C504B010214001400060808002F66DA40AEBACB3FFD000000A00100003B00000000000000000000000000371000006662
311
782F42303146323234362D433132372D344339372D383830312D3438443444314642414134372F7265736F75726365732F636F72652E786D6C504B0506000000000E000E00800400008D1100000000
310
504B03040A00000800002F66DA403DEE336E79000000790000001B0000006175746F6465736B2D64657369676E2D7061636B6167652E786D6C3C3F786D6C2076657273696F6E3D22312E302220656E636F64696E673D227574662D3822203F3E3C666F726D6174733E3C666F726D61743E687474703A2F2F736368656D612E
310
6175746F6465736B2E636F6D2F64657369676E2D7061636B6167652F323030393C2F666F726D61743E3C2F666F726D6174733E504B03041400060808002F66DA40D486FD9CA0000000F4000000130000005B436F6E74656E745F54797065735D2E786D6C7D8EC10E82300C865F65E91D8A1E8C310C0EEA1BF002731658846E
310
D98AC1B77784ABF1D8FE5FBFBF75BBCE937A534CCEB38643598122B6FEE978D0B0485F9C41B54DDD7D022595594E1A469170414C76A4D9A4D207E29CF43ECE46F218070CC6BECC4078ACAA135ACF422C856C0E68EA1BF5669944DDD7BCDE7B1F8E415D77AECB980613C2E4AC91FC167A2B244592486606FC29C8FD7F045B9A
310
EF7053A7E60B504B03041400060808002F66DA40892591A4EC0000007C01000008000000636F72652E786D6C8D90416EC3201045AF82665B610376E2C4C24475ED9CA01740983828315806AA1EBF3871A476D7D58CFEFC3733FAFCF43DDDD1975EBC71B6019A1140DA2A37183B3610C3051F009D045F9C0BBF6C80AC9C7403
310
AB0C828F8B8BF326296783B621A9D60D7A13A5F73A0052F7D434E0D5554F3293312487BF65B3543739EA8CBEBA04C76806F43C6286B4CF5C8C5E40748C56BB8254B86BCB1697A4FDC0EDEE7CC43DDDB7E4FDDC1FAABEE3F90A0B1ECCF4BAAF162D831E40304219267BCCF69F94D5E5B12EE81BA135213C5FED7FA0380FFF84
310
A2B1A160DBBB4FCC83A0E991C740F07CCD22954750A9AEB9891F504B03041400060808002F66DA4055019EA25F0000007C00000007000000636E782E786D6C4DCB3B0E80201045D1AD90E915ED2CF8AC45050C11660C8261F98AB1B07AC9C97D42D718D865D3E909258CFD00CCE24AC6E326A164D74DC0B4128928FF326038
310
472BA13128B1252AC747C6BAB984FC68F0B87FE8960A5C09FE86CFB69FBA01504B03041400060808002F66DA4098834DAC68010000020300000C0000006662782F636F72652E786D6C8D52ED8E8320107C15C2DF8B02D67E0669CE6BFB04F70254A967AA60104C1FFFD68FC6EBA5691A1324333BBBB3A37C7FAB2BD429DB96
310
462798851423A5339397BA48B077976083D15E706B8CFB53869196B54A700F63C10B6B7C334199D14E6907A836B99A40D9B6CA6194557049709BFDA85A86D23BA868AF6123B3AB2C54C842A0A14EF0D6593080C621FD89C5E57CE364C405F7BECC27B6CC615A792995C5E210B1F57241D7C1218DD320A6E957902E4FDBE0C8
310
5629FD3C1D37EBE381935E2CB82BEBBBBBCC2AE9548E45445914D05510ADBE59B48BB7BB05FBA06C4729277DF983C837F99B225F6AB78826BBA3ACC582819181F8B72D44E4502B3BF04304277D88F01A127E0C1A0281909D3C57F73DAE00752A73C6C6C0E4C6CF54272BAF602A45C3C3C9C842E7A1016CF6B44FF4A2CFEB1E
310
F001A52EC09A74703D7BD74FE7E3D4298A46D9A07337A48DAD65359B1B2DCEE73CE8A93C3395B1EFA8C9B42A99C224FDDF2B7E01504B03041400060808002F66DA4007D9677D7E0000009D0000000B0000006662782F636E782E786D6C4DCCD10AC2201886E15B91FFDCF62F6718A843ABDDC7686E8C9C866974F96DB1838E
310
3E78F87865FB593C79BBF49A6350501F10880BF738CC615250F248059056CB1463FEBB0109FDE2146C0C5A4E2996E74E831BFBE2F3AA7E0E8F1D99456C3A66297276A4CDD50A6A0CEF281768EADB899B0B9EA1D2B2FA95D6DDC2FA0B504B03041400060808002F66DA406F8A10CB2D01000015020000310000006662782F33
310
423030344633422D303533322D344442382D414135462D3538304131453635414330392F636F72652E786D6C8D515B6EC32010BC0AE22B55850D7E90873091D33627E8051C9BA42831583CAA1CBF4BED48ED5F7E58343B333BDA15FBFB7843DFCA796D4D8359463152A6B783369706C770261B8CF652386BC31F1A46A61B55
310
83138CA5B8381BA705EAAD09CA04408D1DD40276DEAB80517F834F837DFFA5C62EEB620086BF6653D75FBB8BCA58066DE049E1838300681E925E2CCB03A5D5B13C105A9705A9DE0F1BD2B6F591D41BDAB20F5EB76F742BF25928458C7A58E47A8038FAAC957BD62489A5087A7CC4EF9DEA821AB02C282B08E5A4E09FACD855
310
DB5DC95E29DB512AF244FF278AD3F0A4286A13CA62893BCB3C964CE473438AC1C6D3ED1146DD27EB024AF3565EF52F58D28C52BEAE795D8166E6C206C094578BA90FD6C18657D713D04B6025675E4991A72341F9BD20D47450F903504B03041400060808002F66DA40D81E94F05601000033030000300000006662782F3342
310
3030344633422D303533322D344442382D414135462D3538304131453635414330392F636E782E786D6CBD93CD6EC32010845F0571ADFC836359698489D4439FA0875E316C121A1B2CC055F3F65D1292E69243A5AA1764CD0E33AB4F986FBFA6917C820FC6D99EB2B2A604AC72DAD87D4F97B82BD6946C05F7CEC53B1B2556
310
4ED0D32453C1F7DE2D739634ECE432465447638F59F410DCE2150494D34D323A25470C005B2C28C23480D6A0C9CD885F3BF0B80A8AC389C40390D79777E2860F5031F02AA5085EA50EC1D3999BEE4C94A85186D0D3A00E30C9522ED16908C752CB284B565EBB1EECF49344D2856BE5E20D49E53D4D271579A31239F20A8782
310
87E8915E36C5D30C54C8791E8D9211215767E3C523F8626CECDAEC3508DEA37BD574EB35869D678247334176280F3282A6A2A95953D45DD1746FACD9B4CF9B157BAAD9A6AE7995EC820FCE8DF912C680773351CE46B0910AC6AB347E842FFB88361E593B7FFA054804905B2F746E197FC98775ABB6FD473ED5F97D232E8F7F
310
81F806504B03041400060808002F66DA404648A5CF5A070000941B0000340000006662782F33423030344633422D303533322D344442382D414135462D3538304131453635414330392F6F626A656374732E786D6CED59DD739B3810FF5718EED9D8D84E9ADC103A89D3743CBDB49DFADAB907CF3032C8441721184924F1FD
310
F5B7FA00033109BEE6DEFA6003425AEDFEF6534BF0FE29A3CE03E682E4ECC2F5BD89EB6016E70961E9855BCAEDE8CC75DE8701CF73D998E63A0C65F8C255C36E18A43C2F0B3B94E02D2AA9EC8CDE5CFDE5881833EC3A3145425CB822BEC319F25029F3048B7B2F411279E9F6C9F33D33B14D36E5A8B8EB102D10C74C02A730
310
CE808A6398F2DB8F13771C0663F53E0CD4BF9D351B346BDE3F6BACA56E7349989088C5CF58EA90990D6269E6CFAF3F4C4FCE4727F3F96C343F9DFAA3AB9BABEB91FF6E36599C2E16E7971FCE81BD4D9E532B53820BCC12D0DFCE0DFD60ACDED4A25B040E711DE78CE15803095069B1BA040916B05503BE49FBD15712355E6B
310
091BCF73F5DEB2D0189EB5A9F4CD1A06448B2E0862B7AB24AEAE4DF9F2CDDF20B81862945C6009DC0AC941BB161E0E5EE18693606C46C360B3D705114E8624E6045187920D471C940253D59430300B2C19E51C1C48394A02AD39F3BA6D5BE099AFBBCE212EB725A5CA33DC503B5604EE87A5D09C917F30DF73DF4406780269
310
4BC2E499E552EE0AEC86E7C1580F8681BACCA6F6A501D2D952940A8D8879DB1174A15C7F79ED869F6E364F2B150E0E6F5EF0BCC05C2AA3537AD47C8121DBAB42C96EEB0FD29C5A00C21850EDCA3D28DF00F9CF103DF6AC80DE38799A3FCDED5CC91113DB9C67A01B67E28C26F037717CFDAFEE1B77C1B85EDCD65E1F9EE0A6
310
0AAAB39FC7B32D83C6CAF2DF80330C1EC0E0733EB3AF5631A260CFB7840140CA481C9AC31084F6EDE6C90D97103821D0C32A44431F4406761FE036185B327BAD54EE65BD8E01A2768FD91025016CDA22818D1E3D7D84ECC149BC575353C43E784FDEC45C2FAF579F5625DFA218DF5A9FBEC65BC28884AC7998A116E62D89EE
310
F1EE31E70908FA1CEF5513EFCC6E25006D85B9023EAD40500FFB9D5B1BC4B02ECD55B8095ED9018450B9BA41FF968818538A18CECB6ADF3ABA2943AD3DDED60C6E383510CFA61D13E6F881A8AA029C663FA3C528E4FD98934281E8861F8D6475D0F47AA4FBBEFC0C1659CFEF99B564107A19A27FEAA0750087966557485B20
310
6A8137FB701EE734E7D166179948E7422D016CB4BDE5478B28C47AA32445053C48FB5D155252236D9490EDB61410570FB0F863B9689AC3C49BF9274EF3BFE38C7388B6E0BB885BBFEBEC11910CA538DAA2A46FBBE66E356DA149F690E6784B412EF240E42E42329A24383D069AA3889FBF29F594E642108605E4AB83E037D1
310
987810488C362B9695563B4013116558227A0C028A4C0FB83AEDE81A3786D2E1751E6BEB7D49634DA2FF93457004B564CE2202A528E4905719F7BD1388216D740DCA1D7CC1DA2ADA5A0C5A420911EFA2474CD23B790CEA867C0FEE311C494A19E5058AC1AC07907DE62B4AA91DDE3728BE57F9238A4BFA56062230DD4684D2
310
328BE047189C3C86B8761D985E44A141DCC43E893328CA902CF9904D4E4F26CFF631354337043636DA120A613BCA50D1837A2B20EA7AC4A9C1B7D47B94BA29B32242595EB24186E2CDBADE64C977D5AAC80EE457958A503656842DC130204CD659B58AD960EA3AB0821BE940B58B04CA0A6A4E61AF241EBFF6264DB977036E
310
FDF46D37C8A0F0EBD15E33A2CE2B182C8FADC2403C2219DFB9E14A5F4757507F2738D9A7FAAAD66C568080988AE425275645DF9750DED81ACD0D6F9114EB8F26EB56D7EF4B0FBA1FC118D640ED522F5C2AA033CC245295C9ADBAA1DF1084E0160D33BE5439F5182A9749A2AB46446F489F3A5B65446BD38C78C51D6679063F
310
B6262CA66582D72811F7D1ADA4D18A28D6AD945E462A8C5F14F0CBC755071E181920D25755E0E1C7CE5A3BBA50E5D24122F2AECC360C1108822DD152A31BAF60A9D548A5E5FAAACE14507781815915CF7F9D2C9AED885F278BD41AC64F9D2CAE767FA05DB32FD248E7B1B2EBA38E01757E5254DEE218A0DB0E35D53A8B9864
310
6EE5B7CE144150ACA2FCE06AAC0A1A86601FC7FF396BF76541B35D87FFE3B2B6FFACE2382AABB426AB2ED581CA75D9CC616767FEE9F5E9F9BBD16C767A369A2F3EDC8CCE4FCFCE4697D3F9E9E4C69FCE2697F31A4DEDA8615007339DBBE0D904B56A583D590CA02B2B724A1238CD274E8A21E64B38D30F689FF30C0B489ECD
310
6677629BF203563F983EA7441B8A2B4EEE103488A980B40E1895B16C8F3BBF416B52C241FBC285A691770F7FD62A5D0732CF850BAD0249622CBC0DB49954434F138794AB73BF2506F82096AA946816D5CFF52A854D2BFCD75386A4012B57AB8701855B01DDAF568742F366798A8F12BC62C741126E37A5846ACDC8B21FA885
310
D1DBECD56F64A384DDDBAD9FC0755F16CBF7F49C1622833E19BC680486EA48229EEA7EB762CCB27479FD750C7D3667F9C5296899822E87531A710CC65CAA820AAC08ACC2D22C9004535DFCBEFECA73F8C49339BA2A5A2FF22CCB997DB884F358029F889CD51D7CF049D6503660D55617EBE9C49FAE753BDB76D8A30D12D853
310
F5100C54658412A1636C6091CF5A53B67139564AE84C5F5E3B367C421BC058D0B3EEAEF9BCE580F7A80F29CA57B4875772BED8D11EEBA9600D1C7AD1E1BF504B03041400060800002F66DA40000000000000000000000000350000006662782F33423030344633422D303533322D344442382D414135462D35383041314536
310
35414330392F76657274696365732E62696E504B03041400060808002F66DA40F270F1330600000004000000360000006662782F33423030344633422D303533322D344442382D414135462D3538304131453635414330392F747269616E676C65732E62696E636660600000504B03041400060800002F66DA400000000000
310
00000000000000370000006662782F33423030344633422D303533322D344442382D414135462D3538304131453635414330392F617474726962757465732E62696E504B03041400060808002F66DA40D5987DFC8F00000041010000360000006662782F33423030344633422D303533322D344442382D414135462D353830
310
4131453635414330392F6469726563746F72792E786D6C858F410EC2201045AF4266AF15DDB800BA74E7C21B903225242D6328188F2FA5C4183471359997F9FF81E89FF3C41E1816475E02DF1F80A11FC8386F25A438EECEC07A250251FC3803E6F58C12560C4AD840E95E91C151A72936F496F35732D860FE635F62C8F2DA
310
16B505C545B74125BAA2FA9E05D7CC053D063734D5C7665FD55B6B8D15D5E9BFEAFD8490FFA45E504B03041400060808002F66DA409A8EBF3CFE000000A00100003B0000006662782F33423030344633422D303533322D344442382D414135462D3538304131453635414330392F7265736F75726365732F636F72652E786D
310
6C8D504B6E833010BD0A9A6D05D84048828CA352C8097A01CB4CA89560237FAA1EBF2650A9DD7533337A1FCDD36397AFF9917CA275CAE816684620412DCDA8F4D442F0B7F404C985336B8CFF2583448B195B5861E06CB2262C3B248DF6A87D44B51971078573E821918F78B4E0E407CE2213C14785BB678B9077316146B348
310
471D67CEDB1820D99EAC13B845678295E858BEB19C85A0C65DA3C6F853DD145AE07D418F8792D469DF555D5A91EE2DED0ED7733AD0BA23AFD7E1741C7A96AF66CEBC9A7F324A8BC2E308BC20B448A3BDA8DF69D154E7A6A42F843684B07C95FF318565FCA72928EDCB628FBBD91C701A833C09CEF2B5AFB89E65C6BD76CBBF
310
01504B010214000A00000800002F66DA403DEE336E79000000790000001B00000000000000000000000000000000006175746F6465736B2D64657369676E2D7061636B6167652E786D6C504B010214001400060808002F66DA40D486FD9CA0000000F40000001300000000000000000000000000B20000005B436F6E74656E
310
745F54797065735D2E786D6C504B010214001400060808002F66DA40892591A4EC0000007C010000080000000000000000000000000083010000636F72652E786D6C504B010214001400060808002F66DA4055019EA25F0000007C000000070000000000000000000000000095020000636E782E786D6C504B010214001400
310
060808002F66DA4098834DAC68010000020300000C00000000000000000000000000190300006662782F636F72652E786D6C504B010214001400060808002F66DA4007D9677D7E0000009D0000000B00000000000000000000000000AB0400006662782F636E782E786D6C504B010214001400060808002F66DA406F8A10CB
310
2D010000150200003100000000000000000000000000520500006662782F33423030344633422D303533322D344442382D414135462D3538304131453635414330392F636F72652E786D6C504B010214001400060808002F66DA40D81E94F056010000330300003000000000000000000000000000CE0600006662782F3342
310
3030344633422D303533322D344442382D414135462D3538304131453635414330392F636E782E786D6C504B010214001400060808002F66DA404648A5CF5A070000941B00003400000000000000000000000000720800006662782F33423030344633422D303533322D344442382D414135462D3538304131453635414330
310
392F6F626A656374732E786D6C504B010214001400060800002F66DA4000000000000000000000000035000000000000000000000000001E1000006662782F33423030344633422D303533322D344442382D414135462D3538304131453635414330392F76657274696365732E62696E504B010214001400060808002F66DA
310
40F270F13306000000040000003600000000000000000000000000711000006662782F33423030344633422D303533322D344442382D414135462D3538304131453635414330392F747269616E676C65732E62696E504B010214001400060800002F66DA400000000000000000000000003700000000000000000000000000
310
CB1000006662782F33423030344633422D303533322D344442382D414135462D3538304131453635414330392F617474726962757465732E62696E504B010214001400060808002F66DA40D5987DFC8F000000410100003600000000000000000000000000201100006662782F33423030344633422D303533322D34444238
310
2D414135462D3538304131453635414330392F6469726563746F72792E786D6C504B010214001400060808002F66DA409A8EBF3CFE000000A00100003B00000000000000000000000000031200006662782F33423030344633422D303533322D344442382D414135462D3538304131453635414330392F7265736F75726365
310
732F636F72652E786D6C504B0506000000000E000E00800400005A1300000000
  0
XRECORD
  5
17
102
{ACAD_REACTORS
330
12
102
}
330
12
100
AcDbXrecord
280
     1
270
     1
271
     1
  0
XRECORD
  5
16
102
{ACAD_REACTORS
330
12
102
}
330
12
100
AcDbXrecord
280
     1
270
     1
271
     1
  0
XRECORD
  5
18
102
{ACAD_REACTORS
330
12
102
}
330
12
100
AcDbXrecord
280
     1
270
     1
271
     1
  0
XRECORD
  5
15
102
{ACAD_REACTORS
330
12
102
}
330
12
100
AcDbXrecord
280
     1
270
     1
271
     1
  0
XRECORD
  5
2C67
102
{ACAD_REACTORS
330
22
102
}
330
22
100
AcDbXrecord
280
     1
102
MATERIAL
148
0.0
149
0.0
149
0.0
 93
        0
 94
      127
282
     0
 72
     0
 77
     0
171
     0
175
     0
179
     0
273
     0
  0
XRECORD
  5
24
102
{ACAD_REACTORS
330
22
102
}
330
22
100
AcDbXrecord
280
     1
270
     1
271
     1
  0
XRECORD
  5
23
102
{ACAD_REACTORS
330
22
102
}
330
22
100
AcDbXrecord
280
     1
270
     1
271
     1
  0
XRECORD
  5
27
102
{ACAD_REACTORS
330
22
102
}
330
22
100
AcDbXrecord
280
     1
270
     1
271
     1
  0
XRECORD
  5
26
102
{ACAD_REACTORS
330
22
102
}
330
22
100
AcDbXrecord
280
     1
270
     1
271
     1
  0
XRECORD
  5
28
102
{ACAD_REACTORS
330
22
102
}
330
22
100
AcDbXrecord
280
     1
270
     1
271
     1
  0
XRECORD
  5
25
102
{ACAD_REACTORS
330
22
102
}
330
22
100
AcDbXrecord
280
     1
270
     1
271
     1
  0
XRECORD
  5
1F83
102
{ACAD_REACTORS
330
1F82
102
}
330
1F82
100
AcDbXrecord
280
     1
102
ACAD_ROUNDTRIP_2012_MLEADER_STYLE
298
     1
  0
CELLSTYLEMAP
  5
2EF5
102
{ACAD_REACTORS
330
2C4E
102
}
330
2C4E
100
AcDbCellStyleMap
 90
        3
300
CELLSTYLE
  1
TABLEFORMAT_BEGIN
 90
        5
170
     1
 91
        0
 92
    32768
 62
   257
 93
        1
300
CONTENTFORMAT
  1
CONTENTFORMAT_BEGIN
 90
        0
 91
        0
 92
      512
 93
        0
300

 40
0.0
140
1.0
 94
        5
 62
     0
340
55
144
0.25
309
CONTENTFORMAT_END
171
     1
301
MARGIN
  1
CELLMARGIN_BEGIN
 40
0.06
 40
0.06
 40
0.06
 40
0.06
 40
0.18
 40
0.18
309
CELLMARGIN_END
 94
        6
 95
        1
302
GRIDFORMAT
  1
GRIDFORMAT_BEGIN
 90
        0
 91
        1
 62
     0
 92
       -2
340
0
 93
        0
 40
0.045
309
GRIDFORMAT_END
 95
        2
302
GRIDFORMAT
  1
GRIDFORMAT_BEGIN
 90
        0
 91
        1
 62
     0
 92
       -2
340
0
 93
        0
 40
0.045
309
GRIDFORMAT_END
 95
        4
302
GRIDFORMAT
  1
GRIDFORMAT_BEGIN
 90
        0
 91
        1
 62
     0
 92
       -2
340
0
 93
        0
 40
0.045
309
GRIDFORMAT_END
 95
        8
302
GRIDFORMAT
  1
GRIDFORMAT_BEGIN
 90
        0
 91
        1
 62
     0
 92
       -2
340
0
 93
        0
 40
0.045
309
GRIDFORMAT_END
 95
       16
302
GRIDFORMAT
  1
GRIDFORMAT_BEGIN
 90
        0
 91
        1
 62
     0
 92
       -2
340
0
 93
        0
 40
0.045
309
GRIDFORMAT_END
 95
       32
302
GRIDFORMAT
  1
GRIDFORMAT_BEGIN
 90
        0
 91
        1
 62
     0
 92
       -2
340
0
 93
        0
 40
0.045
309
GRIDFORMAT_END
309
TABLEFORMAT_END
  1
CELLSTYLE_BEGIN
 90
        1
 91
        1
300
_TITLE
309
CELLSTYLE_END
300
CELLSTYLE
  1
TABLEFORMAT_BEGIN
 90
        5
170
     1
 91
        0
 92
        0
 62
   257
 93
        1
300
CONTENTFORMAT
  1
CONTENTFORMAT_BEGIN
 90
        0
 91
        0
 92
      512
 93
        0
300

 40
0.0
140
1.0
 94
        5
 62
     0
340
55
144
0.18
309
CONTENTFORMAT_END
171
     1
301
MARGIN
  1
CELLMARGIN_BEGIN
 40
0.06
 40
0.06
 40
0.06
 40
0.06
 40
0.18
 40
0.18
309
CELLMARGIN_END
 94
        6
 95
        1
302
GRIDFORMAT
  1
GRIDFORMAT_BEGIN
 90
        0
 91
        1
 62
     0
 92
       -2
340
0
 93
        0
 40
0.045
309
GRIDFORMAT_END
 95
        2
302
GRIDFORMAT
  1
GRIDFORMAT_BEGIN
 90
        0
 91
        1
 62
     0
 92
       -2
340
0
 93
        0
 40
0.045
309
GRIDFORMAT_END
 95
        4
302
GRIDFORMAT
  1
GRIDFORMAT_BEGIN
 90
        0
 91
        1
 62
     0
 92
       -2
340
0
 93
        0
 40
0.045
309
GRIDFORMAT_END
 95
        8
302
GRIDFORMAT
  1
GRIDFORMAT_BEGIN
 90
        0
 91
        1
 62
     0
 92
       -2
340
0
 93
        0
 40
0.045
309
GRIDFORMAT_END
 95
       16
302
GRIDFORMAT
  1
GRIDFORMAT_BEGIN
 90
        0
 91
        1
 62
     0
 92
       -2
340
0
 93
        0
 40
0.045
309
GRIDFORMAT_END
 95
       32
302
GRIDFORMAT
  1
GRIDFORMAT_BEGIN
 90
        0
 91
        1
 62
     0
 92
       -2
340
0
 93
        0
 40
0.045
309
GRIDFORMAT_END
309
TABLEFORMAT_END
  1
CELLSTYLE_BEGIN
 90
        2
 91
        1
300
_HEADER
309
CELLSTYLE_END
300
CELLSTYLE
  1
TABLEFORMAT_BEGIN
 90
        5
170
     1
 91
        0
 92
        0
 62
   257
 93
        1
300
CONTENTFORMAT
  1
CONTENTFORMAT_BEGIN
 90
        0
 91
        0
 92
      512
 93
        0
300

 40
0.0
140
1.0
 94
        2
 62
     0
340
55
144
0.18
309
CONTENTFORMAT_END
171
     1
301
MARGIN
  1
CELLMARGIN_BEGIN
 40
0.06
 40
0.06
 40
0.06
 40
0.06
 40
0.18
 40
0.18
309
CELLMARGIN_END
 94
        6
 95
        1
302
GRIDFORMAT
  1
GRIDFORMAT_BEGIN
 90
        0
 91
        1
 62
     0
 92
       -2
340
0
 93
        0
 40
0.045
309
GRIDFORMAT_END
 95
        2
302
GRIDFORMAT
  1
GRIDFORMAT_BEGIN
 90
        0
 91
        1
 62
     0
 92
       -2
340
0
 93
        0
 40
0.045
309
GRIDFORMAT_END
 95
        4
302
GRIDFORMAT
  1
GRIDFORMAT_BEGIN
 90
        0
 91
        1
 62
     0
 92
       -2
340
0
 93
        0
 40
0.045
309
GRIDFORMAT_END
 95
        8
302
GRIDFORMAT
  1
GRIDFORMAT_BEGIN
 90
        0
 91
        1
 62
     0
 92
       -2
340
0
 93
        0
 40
0.045
309
GRIDFORMAT_END
 95
       16
302
GRIDFORMAT
  1
GRIDFORMAT_BEGIN
 90
        0
 91
        1
 62
     0
 92
       -2
340
0
 93
        0
 40
0.045
309
GRIDFORMAT_END
 95
       32
302
GRIDFORMAT
  1
GRIDFORMAT_BEGIN
 90
        0
 91
        1
 62
     0
 92
       -2
340
0
 93
        0
 40
0.045
309
GRIDFORMAT_END
309
TABLEFORMAT_END
  1
CELLSTYLE_BEGIN
 90
        3
 91
        2
300
_DATA
309
CELLSTYLE_END
  0
XRECORD
  5
2F41
102
{ACAD_REACTORS
330
2C4E
102
}
330
2C4E
100
AcDbXrecord
280
     1
102
ACAD_ROUNDTRIP_PRE2007_TABLESTYLE
 90
      512
 91
        0
  1

 92
      512
 93
        0
  2

 94
      512
 95
        0
  3

  0
XRECORD
  5
2F1C
102
{ACAD_REACTORS
330
2F1B
102
}
330
2F1B
100
AcDbXrecord
280
     1
102
RTVSPropertyOp0
 70
     1
102
RTVSPropertyOp1
 70
     1
102
RTVSPropertyOp2
 70
     1
102
RTVSPropertyOp3
 70
     1
102
RTVSPropertyOp4
 70
     1
102
RTVSPropertyOp5
 70
     1
102
RTVSPropertyOp6
 70
     1
102
RTVSPropertyOp7
 70
     1
102
RTVSPropertyOp8
 70
     1
102
RTVSPropertyOp9
 70
     1
102
RTVSPropertyOp10
 70
     1
102
RTVSPropertyOp11
 70
     1
102
RTVSPropertyOp12
 70
     1
102
RTVSPropertyOp13
 70
     1
102
RTVSPropertyOp14
 70
     1
102
RTVSPropertyOp15
 70
     1
102
RTVSPropertyOp16
 70
     1
102
RTVSPropertyOp17
 70
     1
102
RTVSPropertyOp18
 70
     1
102
RTVSPropertyOp19
 70
     1
102
RTVSPropertyOp20
 70
     1
102
RTVSPropertyOp21
 70
     1
102
RTVSPropertyOp22
 70
     1
102
RTVSPropertyOp23
 70
     1
102
RTVSPropertyOp24
 70
     1
102
RTVSPropertyOp25
 70
     1
102
RTVSPropertyOp26
 70
     1
102
RTVSPropertyOp27
 70
     1
  0
XRECORD
  5
2F6B
102
{ACAD_REACTORS
330
2F6A
102
}
330
2F6A
100
AcDbXrecord
280
     1
102
RTVSPropertyOp0
 70
     1
102
RTVSPropertyOp1
 70
     1
102
RTVSPropertyOp2
 70
     1
102
RTVSPropertyOp3
 70
     1
102
RTVSPropertyOp4
 70
     1
102
RTVSPropertyOp5
 70
     1
102
RTVSPropertyOp6
 70
     1
102
RTVSPropertyOp7
 70
     1
102
RTVSPropertyOp8
 70
     1
102
RTVSPropertyOp9
 70
     1
102
RTVSPropertyOp10
 70
     1
102
RTVSPropertyOp11
 70
     1
102
RTVSPropertyOp12
 70
     1
102
RTVSPropertyOp13
 70
     1
102
RTVSPropertyOp14
 70
     1
102
RTVSPropertyOp15
 70
     1
102
RTVSPropertyOp16
 70
     1
102
RTVSPropertyOp17
 70
     1
102
RTVSPropertyOp18
 70
     1
102
RTVSPropertyOp19
 70
     1
102
RTVSPropertyOp20
 70
     1
102
RTVSPropertyOp21
 70
     1
102
RTVSPropertyOp22
 70
     1
102
RTVSPropertyOp23
 70
     1
102
RTVSPropertyOp24
 70
     1
102
RTVSPropertyOp25
 70
     1
102
RTVSPropertyOp26
 70
     1
102
RTVSPropertyOp27
 70
     1
  0
XRECORD
  5
2F69
102
{ACAD_REACTORS
330
2F68
102
}
330
2F68
100
AcDbXrecord
280
     1
102
RTVSPropertyOp0
 70
     1
102
RTVSPropertyOp1
 70
     1
102
RTVSPropertyOp2
 70
     1
102
RTVSPropertyOp3
 70
     1
102
RTVSPropertyOp4
 70
     1
102
RTVSPropertyOp5
 70
     1
102
RTVSPropertyOp6
 70
     1
102
RTVSPropertyOp7
 70
     1
102
RTVSPropertyOp8
 70
     1
102
RTVSPropertyOp9
 70
     1
102
RTVSPropertyOp10
 70
     1
102
RTVSPropertyOp11
 70
     1
102
RTVSPropertyOp12
 70
     1
102
RTVSPropertyOp13
 70
     1
102
RTVSPropertyOp14
 70
     1
102
RTVSPropertyOp15
 70
     1
102
RTVSPropertyOp16
 70
     1
102
RTVSPropertyOp17
 70
     1
102
RTVSPropertyOp18
 70
     1
102
RTVSPropertyOp19
 70
     1
102
RTVSPropertyOp20
 70
     1
102
RTVSPropertyOp21
 70
     1
102
RTVSPropertyOp22
 70
     1
102
RTVSPropertyOp23
 70
     1
102
RTVSPropertyOp24
 70
     1
102
RTVSPropertyOp25
 70
     1
102
RTVSPropertyOp26
 70
     1
102
RTVSPropertyOp27
 70
     1
  0
XRECORD
  5
2F1A
102
{ACAD_REACTORS
330
2F19
102
}
330
2F19
100
AcDbXrecord
280
     1
102
RTVSPropertyOp0
 70
     1
102
RTVSPropertyOp1
 70
     1
102
RTVSPropertyOp2
 70
     1
102
RTVSPropertyOp3
 70
     1
102
RTVSPropertyOp4
 70
     1
102
RTVSPropertyOp5
 70
     1
102
RTVSPropertyOp6
 70
     1
102
RTVSPropertyOp7
 70
     1
102
RTVSPropertyOp8
 70
     1
102
RTVSPropertyOp9
 70
     1
102
RTVSPropertyOp10
 70
     1
102
RTVSPropertyOp11
 70
     1
102
RTVSPropertyOp12
 70
     1
102
RTVSPropertyOp13
 70
     1
102
RTVSPropertyOp14
 70
     1
102
RTVSPropertyOp15
 70
     1
102
RTVSPropertyOp16
 70
     1
102
RTVSPropertyOp17
 70
     1
102
RTVSPropertyOp18
 70
     1
102
RTVSPropertyOp19
 70
     1
102
RTVSPropertyOp20
 70
     1
102
RTVSPropertyOp21
 70
     1
102
RTVSPropertyOp22
 70
     1
102
RTVSPropertyOp23
 70
     1
102
RTVSPropertyOp24
 70
     1
102
RTVSPropertyOp25
 70
     1
102
RTVSPropertyOp26
 70
     1
102
RTVSPropertyOp27
 70
     1
  0
XRECORD
  5
2F28
102
{ACAD_REACTORS
330
2F27
102
}
330
2F27
100
AcDbXrecord
280
     1
102
RTVSPropertyOp0
 70
     1
102
RTVSPropertyOp1
 70
     1
102
RTVSPropertyOp2
 70
     1
102
RTVSPropertyOp3
 70
     1
102
RTVSPropertyOp4
 70
     1
102
RTVSPropertyOp5
 70
     1
102
RTVSPropertyOp6
 70
     1
102
RTVSPropertyOp7
 70
     1
102
RTVSPropertyOp8
 70
     1
102
RTVSPropertyOp9
 70
     1
102
RTVSPropertyOp10
 70
     1
102
RTVSPropertyOp11
 70
     1
102
RTVSPropertyOp12
 70
     1
102
RTVSPropertyOp13
 70
     1
102
RTVSPropertyOp14
 70
     1
102
RTVSPropertyOp15
 70
     1
102
RTVSPropertyOp16
 70
     1
102
RTVSPropertyOp17
 70
     1
102
RTVSPropertyOp18
 70
     1
102
RTVSPropertyOp19
 70
     1
102
RTVSPropertyOp20
 70
     1
102
RTVSPropertyOp21
 70
     1
102
RTVSPropertyOp22
 70
     1
102
RTVSPropertyOp23
 70
     1
102
RTVSPropertyOp24
 70
     1
102
RTVSPropertyOp25
 70
     1
102
RTVSPropertyOp26
 70
     1
102
RTVSPropertyOp27
 70
     1
  0
XRECORD
  5
2F30
102
{ACAD_REACTORS
330
2F2F
102
}
330
2F2F
100
AcDbXrecord
280
     1
102
RTVSPropertyOp0
 70
     1
102
RTVSPropertyOp1
 70
     1
102
RTVSPropertyOp2
 70
     1
102
RTVSPropertyOp3
 70
     1
102
RTVSPropertyOp4
 70
     1
102
RTVSPropertyOp5
 70
     1
102
RTVSPropertyOp6
 70
     1
102
RTVSPropertyOp7
 70
     1
102
RTVSPropertyOp8
 70
     1
102
RTVSPropertyOp9
 70
     1
102
RTVSPropertyOp10
 70
     1
102
RTVSPropertyOp11
 70
     1
102
RTVSPropertyOp12
 70
     1
102
RTVSPropertyOp13
 70
     1
102
RTVSPropertyOp14
 70
     1
102
RTVSPropertyOp15
 70
     1
102
RTVSPropertyOp16
 70
     1
102
RTVSPropertyOp17
 70
     1
102
RTVSPropertyOp18
 70
     1
102
RTVSPropertyOp19
 70
     1
102
RTVSPropertyOp20
 70
     1
102
RTVSPropertyOp21
 70
     1
102
RTVSPropertyOp22
 70
     1
102
RTVSPropertyOp23
 70
     1
102
RTVSPropertyOp24
 70
     1
102
RTVSPropertyOp25
 70
     1
102
RTVSPropertyOp26
 70
     1
102
RTVSPropertyOp27
 70
     1
  0
XRECORD
  5
2F22
102
{ACAD_REACTORS
330
2F21
102
}
330
2F21
100
AcDbXrecord
280
     1
102
RTVSPropertyOp0
 70
     1
102
RTVSPropertyOp1
 70
     1
102
RTVSPropertyOp2
 70
     1
102
RTVSPropertyOp3
 70
     1
102
RTVSPropertyOp4
 70
     1
102
RTVSPropertyOp5
 70
     1
102
RTVSPropertyOp6
 70
     1
102
RTVSPropertyOp7
 70
     1
102
RTVSPropertyOp8
 70
     1
102
RTVSPropertyOp9
 70
     1
102
RTVSPropertyOp10
 70
     1
102
RTVSPropertyOp11
 70
     1
102
RTVSPropertyOp12
 70
     1
102
RTVSPropertyOp13
 70
     1
102
RTVSPropertyOp14
 70
     1
102
RTVSPropertyOp15
 70
     1
102
RTVSPropertyOp16
 70
     1
102
RTVSPropertyOp17
 70
     1
102
RTVSPropertyOp18
 70
     1
102
RTVSPropertyOp19
 70
     1
102
RTVSPropertyOp20
 70
     1
102
RTVSPropertyOp21
 70
     1
102
RTVSPropertyOp22
 70
     1
102
RTVSPropertyOp23
 70
     1
102
RTVSPropertyOp24
 70
     1
102
RTVSPropertyOp25
 70
     1
102
RTVSPropertyOp26
 70
     1
102
RTVSPropertyOp27
 70
     1
  0
XRECORD
  5
2F26
102
{ACAD_REACTORS
330
2F25
102
}
330
2F25
100
AcDbXrecord
280
     1
102
RTVSPropertyOp0
 70
     1
102
RTVSPropertyOp1
 70
     1
102
RTVSPropertyOp2
 70
     1
102
RTVSPropertyOp3
 70
     1
102
RTVSPropertyOp4
 70
     1
102
RTVSPropertyOp5
 70
     1
102
RTVSPropertyOp6
 70
     1
102
RTVSPropertyOp7
 70
     1
102
RTVSPropertyOp8
 70
     1
102
RTVSPropertyOp9
 70
     1
102
RTVSPropertyOp10
 70
     1
102
RTVSPropertyOp11
 70
     1
102
RTVSPropertyOp12
 70
     1
102
RTVSPropertyOp13
 70
     1
102
RTVSPropertyOp14
 70
     1
102
RTVSPropertyOp15
 70
     1
102
RTVSPropertyOp16
 70
     1
102
RTVSPropertyOp17
 70
     1
102
RTVSPropertyOp18
 70
     1
102
RTVSPropertyOp19
 70
     1
102
RTVSPropertyOp20
 70
     1
102
RTVSPropertyOp21
 70
     1
102
RTVSPropertyOp22
 70
     1
102
RTVSPropertyOp23
 70
     1
102
RTVSPropertyOp24
 70
     1
102
RTVSPropertyOp25
 70
     1
102
RTVSPropertyOp26
 70
     1
102
RTVSPropertyOp27
 70
     1
  0
XRECORD
  5
2F40
102
{ACAD_REACTORS
330
2F3F
102
}
330
2F3F
100
AcDbXrecord
280
     1
102
RTVSPropertyOp0
 70
     0
102
RTVSPropertyOp1
 70
     0
102
RTVSPropertyOp2
 70
     0
102
RTVSPropertyOp3
 70
     0
102
RTVSPropertyOp4
 70
     0
102
RTVSPropertyOp5
 70
     0
102
RTVSPropertyOp6
 70
     0
102
RTVSPropertyOp7
 70
     0
102
RTVSPropertyOp8
 70
     0
102
RTVSPropertyOp9
 70
     0
102
RTVSPropertyOp10
 70
     0
102
RTVSPropertyOp11
 70
     0
102
RTVSPropertyOp12
 70
     0
102
RTVSPropertyOp13
 70
     0
102
RTVSPropertyOp14
 70
     2
102
RTVSPropertyOp15
 70
     0
102
RTVSPropertyOp16
 70
     0
102
RTVSPropertyOp17
 70
     0
102
RTVSPropertyOp18
 70
     0
102
RTVSPropertyOp19
 70
     0
102
RTVSPropertyOp20
 70
     0
102
RTVSPropertyOp21
 70
     0
102
RTVSPropertyOp22
 70
     0
102
RTVSPropertyOp23
 70
     0
102
RTVSPropertyOp24
 70
     0
102
RTVSPropertyOp25
 70
     0
102
RTVSPropertyOp26
 70
     0
102
RTVSPropertyOp27
 70
     0
  0
XRECORD
  5
2F2E
102
{ACAD_REACTORS
330
2F2D
102
}
330
2F2D
100
AcDbXrecord
280
     1
102
RTVSPropertyOp0
 70
     1
102
RTVSPropertyOp1
 70
     1
102
RTVSPropertyOp2
 70
     1
102
RTVSPropertyOp3
 70
     1
102
RTVSPropertyOp4
 70
     1
102
RTVSPropertyOp5
 70
     1
102
RTVSPropertyOp6
 70
     1
102
RTVSPropertyOp7
 70
     1
102
RTVSPropertyOp8
 70
     1
102
RTVSPropertyOp9
 70
     1
102
RTVSPropertyOp10
 70
     1
102
RTVSPropertyOp11
 70
     1
102
RTVSPropertyOp12
 70
     1
102
RTVSPropertyOp13
 70
     1
102
RTVSPropertyOp14
 70
     1
102
RTVSPropertyOp15
 70
     1
102
RTVSPropertyOp16
 70
     1
102
RTVSPropertyOp17
 70
     1
102
RTVSPropertyOp18
 70
     1
102
RTVSPropertyOp19
 70
     1
102
RTVSPropertyOp20
 70
     1
102
RTVSPropertyOp21
 70
     1
102
RTVSPropertyOp22
 70
     1
102
RTVSPropertyOp23
 70
     1
102
RTVSPropertyOp24
 70
     1
102
RTVSPropertyOp25
 70
     1
102
RTVSPropertyOp26
 70
     1
102
RTVSPropertyOp27
 70
     1
  0
XRECORD
  5
2F12
102
{ACAD_REACTORS
330
2F11
102
}
330
2F11
100
AcDbXrecord
280
     1
102
RTVSPropertyOp0
 70
     1
102
RTVSPropertyOp1
 70
     1
102
RTVSPropertyOp2
 70
     1
102
RTVSPropertyOp3
 70
     1
102
RTVSPropertyOp4
 70
     1
102
RTVSPropertyOp5
 70
     1
102
RTVSPropertyOp6
 70
     1
102
RTVSPropertyOp7
 70
     1
102
RTVSPropertyOp8
 70
     1
102
RTVSPropertyOp9
 70
     1
102
RTVSPropertyOp10
 70
     1
102
RTVSPropertyOp11
 70
     1
102
RTVSPropertyOp12
 70
     1
102
RTVSPropertyOp13
 70
     1
102
RTVSPropertyOp14
 70
     1
102
RTVSPropertyOp15
 70
     1
102
RTVSPropertyOp16
 70
     1
102
RTVSPropertyOp17
 70
     1
102
RTVSPropertyOp18
 70
     1
102
RTVSPropertyOp19
 70
     1
102
RTVSPropertyOp20
 70
     1
102
RTVSPropertyOp21
 70
     1
102
RTVSPropertyOp22
 70
     1
102
RTVSPropertyOp23
 70
     1
102
RTVSPropertyOp24
 70
     1
102
RTVSPropertyOp25
 70
     1
102
RTVSPropertyOp26
 70
     1
102
RTVSPropertyOp27
 70
     1
  0
XRECORD
  5
2F14
102
{ACAD_REACTORS
330
2F13
102
}
330
2F13
100
AcDbXrecord
280
     1
102
RTVSPropertyOp0
 70
     1
102
RTVSPropertyOp1
 70
     1
102
RTVSPropertyOp2
 70
     1
102
RTVSPropertyOp3
 70
     1
102
RTVSPropertyOp4
 70
     1
102
RTVSPropertyOp5
 70
     1
102
RTVSPropertyOp6
 70
     1
102
RTVSPropertyOp7
 70
     1
102
RTVSPropertyOp8
 70
     1
102
RTVSPropertyOp9
 70
     1
102
RTVSPropertyOp10
 70
     1
102
RTVSPropertyOp11
 70
     1
102
RTVSPropertyOp12
 70
     1
102
RTVSPropertyOp13
 70
     1
102
RTVSPropertyOp14
 70
     1
102
RTVSPropertyOp15
 70
     1
102
RTVSPropertyOp16
 70
     1
102
RTVSPropertyOp17
 70
     1
102
RTVSPropertyOp18
 70
     1
102
RTVSPropertyOp19
 70
     1
102
RTVSPropertyOp20
 70
     1
102
RTVSPropertyOp21
 70
     1
102
RTVSPropertyOp22
 70
     1
102
RTVSPropertyOp23
 70
     1
102
RTVSPropertyOp24
 70
     1
102
RTVSPropertyOp25
 70
     1
102
RTVSPropertyOp26
 70
     1
102
RTVSPropertyOp27
 70
     1
  0
XRECORD
  5
2F16
102
{ACAD_REACTORS
330
2F15
102
}
330
2F15
100
AcDbXrecord
280
     1
102
RTVSPropertyOp0
 70
     1
102
RTVSPropertyOp1
 70
     1
102
RTVSPropertyOp2
 70
     1
102
RTVSPropertyOp3
 70
     1
102
RTVSPropertyOp4
 70
     1
102
RTVSPropertyOp5
 70
     1
102
RTVSPropertyOp6
 70
     1
102
RTVSPropertyOp7
 70
     1
102
RTVSPropertyOp8
 70
     1
102
RTVSPropertyOp9
 70
     1
102
RTVSPropertyOp10
 70
     1
102
RTVSPropertyOp11
 70
     1
102
RTVSPropertyOp12
 70
     1
102
RTVSPropertyOp13
 70
     1
102
RTVSPropertyOp14
 70
     1
102
RTVSPropertyOp15
 70
     1
102
RTVSPropertyOp16
 70
     1
102
RTVSPropertyOp17
 70
     1
102
RTVSPropertyOp18
 70
     1
102
RTVSPropertyOp19
 70
     1
102
RTVSPropertyOp20
 70
     1
102
RTVSPropertyOp21
 70
     1
102
RTVSPropertyOp22
 70
     1
102
RTVSPropertyOp23
 70
     1
102
RTVSPropertyOp24
 70
     1
102
RTVSPropertyOp25
 70
     1
102
RTVSPropertyOp26
 70
     1
102
RTVSPropertyOp27
 70
     1
  0
XRECORD
  5
2F18
102
{ACAD_REACTORS
330
2F17
102
}
330
2F17
100
AcDbXrecord
280
     1
102
RTVSPropertyOp0
 70
     1
102
RTVSPropertyOp1
 70
     1
102
RTVSPropertyOp2
 70
     1
102
RTVSPropertyOp3
 70
     1
102
RTVSPropertyOp4
 70
     1
102
RTVSPropertyOp5
 70
     1
102
RTVSPropertyOp6
 70
     1
102
RTVSPropertyOp7
 70
     1
102
RTVSPropertyOp8
 70
     1
102
RTVSPropertyOp9
 70
     1
102
RTVSPropertyOp10
 70
     1
102
RTVSPropertyOp11
 70
     1
102
RTVSPropertyOp12
 70
     1
102
RTVSPropertyOp13
 70
     1
102
RTVSPropertyOp14
 70
     1
102
RTVSPropertyOp15
 70
     1
102
RTVSPropertyOp16
 70
     1
102
RTVSPropertyOp17
 70
     1
102
RTVSPropertyOp18
 70
     1
102
RTVSPropertyOp19
 70
     1
102
RTVSPropertyOp20
 70
     1
102
RTVSPropertyOp21
 70
     1
102
RTVSPropertyOp22
 70
     1
102
RTVSPropertyOp23
 70
     1
102
RTVSPropertyOp24
 70
     1
102
RTVSPropertyOp25
 70
     1
102
RTVSPropertyOp26
 70
     1
102
RTVSPropertyOp27
 70
     1
  0
XRECORD
  5
2F20
102
{ACAD_REACTORS
330
2F1F
102
}
330
2F1F
100
AcDbXrecord
280
     1
102
RTVSPropertyOp0
 70
     1
102
RTVSPropertyOp1
 70
     1
102
RTVSPropertyOp2
 70
     1
102
RTVSPropertyOp3
 70
     1
102
RTVSPropertyOp4
 70
     1
102
RTVSPropertyOp5
 70
     1
102
RTVSPropertyOp6
 70
     1
102
RTVSPropertyOp7
 70
     1
102
RTVSPropertyOp8
 70
     1
102
RTVSPropertyOp9
 70
     1
102
RTVSPropertyOp10
 70
     1
102
RTVSPropertyOp11
 70
     1
102
RTVSPropertyOp12
 70
     1
102
RTVSPropertyOp13
 70
     1
102
RTVSPropertyOp14
 70
     1
102
RTVSPropertyOp15
 70
     1
102
RTVSPropertyOp16
 70
     1
102
RTVSPropertyOp17
 70
     1
102
RTVSPropertyOp18
 70
     1
102
RTVSPropertyOp19
 70
     1
102
RTVSPropertyOp20
 70
     1
102
RTVSPropertyOp21
 70
     1
102
RTVSPropertyOp22
 70
     1
102
RTVSPropertyOp23
 70
     1
102
RTVSPropertyOp24
 70
     1
102
RTVSPropertyOp25
 70
     1
102
RTVSPropertyOp26
 70
     1
102
RTVSPropertyOp27
 70
     1
  0
XRECORD
  5
2F3C
102
{ACAD_REACTORS
330
2F3B
102
}
330
2F3B
100
AcDbXrecord
280
     1
102
RTVSPropertyOp0
 70
     0
102
RTVSPropertyOp1
 70
     0
102
RTVSPropertyOp2
 70
     0
102
RTVSPropertyOp3
 70
     0
102
RTVSPropertyOp4
 70
     0
102
RTVSPropertyOp5
 70
     0
102
RTVSPropertyOp6
 70
     0
102
RTVSPropertyOp7
 70
     0
102
RTVSPropertyOp8
 70
     0
102
RTVSPropertyOp9
 70
     0
102
RTVSPropertyOp10
 70
     0
102
RTVSPropertyOp11
 70
     0
102
RTVSPropertyOp12
 70
     0
102
RTVSPropertyOp13
 70
     0
102
RTVSPropertyOp14
 70
     2
102
RTVSPropertyOp15
 70
     0
102
RTVSPropertyOp16
 70
     0
102
RTVSPropertyOp17
 70
     0
102
RTVSPropertyOp18
 70
     0
102
RTVSPropertyOp19
 70
     0
102
RTVSPropertyOp20
 70
     0
102
RTVSPropertyOp21
 70
     0
102
RTVSPropertyOp22
 70
     0
102
RTVSPropertyOp23
 70
     0
102
RTVSPropertyOp24
 70
     0
102
RTVSPropertyOp25
 70
     0
102
RTVSPropertyOp26
 70
     0
102
RTVSPropertyOp27
 70
     0
  0
XRECORD
  5
2F2C
102
{ACAD_REACTORS
330
2F2B
102
}
330
2F2B
100
AcDbXrecord
280
     1
102
RTVSPropertyOp0
 70
     1
102
RTVSPropertyOp1
 70
     1
102
RTVSPropertyOp2
 70
     1
102
RTVSPropertyOp3
 70
     1
102
RTVSPropertyOp4
 70
     1
102
RTVSPropertyOp5
 70
     1
102
RTVSPropertyOp6
 70
     1
102
RTVSPropertyOp7
 70
     1
102
RTVSPropertyOp8
 70
     1
102
RTVSPropertyOp9
 70
     1
102
RTVSPropertyOp10
 70
     1
102
RTVSPropertyOp11
 70
     1
102
RTVSPropertyOp12
 70
     1
102
RTVSPropertyOp13
 70
     1
102
RTVSPropertyOp14
 70
     1
102
RTVSPropertyOp15
 70
     1
102
RTVSPropertyOp16
 70
     1
102
RTVSPropertyOp17
 70
     1
102
RTVSPropertyOp18
 70
     1
102
RTVSPropertyOp19
 70
     1
102
RTVSPropertyOp20
 70
     1
102
RTVSPropertyOp21
 70
     1
102
RTVSPropertyOp22
 70
     1
102
RTVSPropertyOp23
 70
     1
102
RTVSPropertyOp24
 70
     1
102
RTVSPropertyOp25
 70
     1
102
RTVSPropertyOp26
 70
     1
102
RTVSPropertyOp27
 70
     1
  0
XRECORD
  5
2F3E
102
{ACAD_REACTORS
330
2F3D
102
}
330
2F3D
100
AcDbXrecord
280
     1
102
RTVSPropertyOp0
 70
     0
102
RTVSPropertyOp1
 70
     0
102
RTVSPropertyOp2
 70
     0
102
RTVSPropertyOp3
 70
     0
102
RTVSPropertyOp4
 70
     0
102
RTVSPropertyOp5
 70
     0
102
RTVSPropertyOp6
 70
     0
102
RTVSPropertyOp7
 70
     0
102
RTVSPropertyOp8
 70
     0
102
RTVSPropertyOp9
 70
     0
102
RTVSPropertyOp10
 70
     0
102
RTVSPropertyOp11
 70
     0
102
RTVSPropertyOp12
 70
     0
102
RTVSPropertyOp13
 70
     0
102
RTVSPropertyOp14
 70
     2
102
RTVSPropertyOp15
 70
     0
102
RTVSPropertyOp16
 70
     0
102
RTVSPropertyOp17
 70
     0
102
RTVSPropertyOp18
 70
     0
102
RTVSPropertyOp19
 70
     0
102
RTVSPropertyOp20
 70
     0
102
RTVSPropertyOp21
 70
     0
102
RTVSPropertyOp22
 70
     0
102
RTVSPropertyOp23
 70
     0
102
RTVSPropertyOp24
 70
     0
102
RTVSPropertyOp25
 70
     0
102
RTVSPropertyOp26
 70
     0
102
RTVSPropertyOp27
 70
     0
  0
XRECORD
  5
2F24
102
{ACAD_REACTORS
330
2F23
102
}
330
2F23
100
AcDbXrecord
280
     1
102
RTVSPropertyOp0
 70
     1
102
RTVSPropertyOp1
 70
     1
102
RTVSPropertyOp2
 70
     1
102
RTVSPropertyOp3
 70
     1
102
RTVSPropertyOp4
 70
     1
102
RTVSPropertyOp5
 70
     1
102
RTVSPropertyOp6
 70
     1
102
RTVSPropertyOp7
 70
     1
102
RTVSPropertyOp8
 70
     1
102
RTVSPropertyOp9
 70
     1
102
RTVSPropertyOp10
 70
     1
102
RTVSPropertyOp11
 70
     1
102
RTVSPropertyOp12
 70
     1
102
RTVSPropertyOp13
 70
     1
102
RTVSPropertyOp14
 70
     1
102
RTVSPropertyOp15
 70
     1
102
RTVSPropertyOp16
 70
     1
102
RTVSPropertyOp17
 70
     1
102
RTVSPropertyOp18
 70
     1
102
RTVSPropertyOp19
 70
     1
102
RTVSPropertyOp20
 70
     1
102
RTVSPropertyOp21
 70
     1
102
RTVSPropertyOp22
 70
     1
102
RTVSPropertyOp23
 70
     1
102
RTVSPropertyOp24
 70
     1
102
RTVSPropertyOp25
 70
     1
102
RTVSPropertyOp26
 70
     1
102
RTVSPropertyOp27
 70
     1
  0
XRECORD
  5
2F3A
102
{ACAD_REACTORS
330
2F39
102
}
330
2F39
100
AcDbXrecord
280
     1
102
RTVSPropertyOp0
 70
     1
102
RTVSPropertyOp1
 70
     1
102
RTVSPropertyOp2
 70
     1
102
RTVSPropertyOp3
 70
     1
102
RTVSPropertyOp4
 70
     1
102
RTVSPropertyOp5
 70
     1
102
RTVSPropertyOp6
 70
     1
102
RTVSPropertyOp7
 70
     1
102
RTVSPropertyOp8
 70
     1
102
RTVSPropertyOp9
 70
     1
102
RTVSPropertyOp10
 70
     1
102
RTVSPropertyOp11
 70
     1
102
RTVSPropertyOp12
 70
     1
102
RTVSPropertyOp13
 70
     1
102
RTVSPropertyOp14
 70
     1
102
RTVSPropertyOp15
 70
     1
102
RTVSPropertyOp16
 70
     1
102
RTVSPropertyOp17
 70
     1
102
RTVSPropertyOp18
 70
     1
102
RTVSPropertyOp19
 70
     1
102
RTVSPropertyOp20
 70
     1
102
RTVSPropertyOp21
 70
     1
102
RTVSPropertyOp22
 70
     1
102
RTVSPropertyOp23
 70
     1
102
RTVSPropertyOp24
 70
     1
102
RTVSPropertyOp25
 70
     1
102
RTVSPropertyOp26
 70
     1
102
RTVSPropertyOp27
 70
     1
  0
XRECORD
  5
2F38
102
{ACAD_REACTORS
330
2F37
102
}
330
2F37
100
AcDbXrecord
280
     1
102
RTVSPropertyOp0
 70
     1
102
RTVSPropertyOp1
 70
     1
102
RTVSPropertyOp2
 70
     1
102
RTVSPropertyOp3
 70
     1
102
RTVSPropertyOp4
 70
     1
102
RTVSPropertyOp5
 70
     1
102
RTVSPropertyOp6
 70
     1
102
RTVSPropertyOp7
 70
     1
102
RTVSPropertyOp8
 70
     1
102
RTVSPropertyOp9
 70
     1
102
RTVSPropertyOp10
 70
     1
102
RTVSPropertyOp11
 70
     1
102
RTVSPropertyOp12
 70
     1
102
RTVSPropertyOp13
 70
     1
102
RTVSPropertyOp14
 70
     1
102
RTVSPropertyOp15
 70
     1
102
RTVSPropertyOp16
 70
     1
102
RTVSPropertyOp17
 70
     1
102
RTVSPropertyOp18
 70
     1
102
RTVSPropertyOp19
 70
     1
102
RTVSPropertyOp20
 70
     1
102
RTVSPropertyOp21
 70
     1
102
RTVSPropertyOp22
 70
     1
102
RTVSPropertyOp23
 70
     1
102
RTVSPropertyOp24
 70
     1
102
RTVSPropertyOp25
 70
     1
102
RTVSPropertyOp26
 70
     1
102
RTVSPropertyOp27
 70
     1
  0
XRECORD
  5
2F32
102
{ACAD_REACTORS
330
2F31
102
}
330
2F31
100
AcDbXrecord
280
     1
102
RTVSPropertyOp0
 70
     1
102
RTVSPropertyOp1
 70
     1
102
RTVSPropertyOp2
 70
     1
102
RTVSPropertyOp3
 70
     1
102
RTVSPropertyOp4
 70
     1
102
RTVSPropertyOp5
 70
     1
102
RTVSPropertyOp6
 70
     1
102
RTVSPropertyOp7
 70
     1
102
RTVSPropertyOp8
 70
     1
102
RTVSPropertyOp9
 70
     1
102
RTVSPropertyOp10
 70
     1
102
RTVSPropertyOp11
 70
     1
102
RTVSPropertyOp12
 70
     1
102
RTVSPropertyOp13
 70
     1
102
RTVSPropertyOp14
 70
     1
102
RTVSPropertyOp15
 70
     1
102
RTVSPropertyOp16
 70
     1
102
RTVSPropertyOp17
 70
     1
102
RTVSPropertyOp18
 70
     1
102
RTVSPropertyOp19
 70
     1
102
RTVSPropertyOp20
 70
     1
102
RTVSPropertyOp21
 70
     1
102
RTVSPropertyOp22
 70
     1
102
RTVSPropertyOp23
 70
     1
102
RTVSPropertyOp24
 70
     1
102
RTVSPropertyOp25
 70
     1
102
RTVSPropertyOp26
 70
     1
102
RTVSPropertyOp27
 70
     1
  0
XRECORD
  5
2F34
102
{ACAD_REACTORS
330
2F33
102
}
330
2F33
100
AcDbXrecord
280
     1
102
RTVSPropertyOp0
 70
     1
102
RTVSPropertyOp1
 70
     1
102
RTVSPropertyOp2
 70
     1
102
RTVSPropertyOp3
 70
     1
102
RTVSPropertyOp4
 70
     1
102
RTVSPropertyOp5
 70
     1
102
RTVSPropertyOp6
 70
     1
102
RTVSPropertyOp7
 70
     1
102
RTVSPropertyOp8
 70
     1
102
RTVSPropertyOp9
 70
     1
102
RTVSPropertyOp10
 70
     1
102
RTVSPropertyOp11
 70
     1
102
RTVSPropertyOp12
 70
     1
102
RTVSPropertyOp13
 70
     1
102
RTVSPropertyOp14
 70
     1
102
RTVSPropertyOp15
 70
     1
102
RTVSPropertyOp16
 70
     1
102
RTVSPropertyOp17
 70
     1
102
RTVSPropertyOp18
 70
     1
102
RTVSPropertyOp19
 70
     1
102
RTVSPropertyOp20
 70
     1
102
RTVSPropertyOp21
 70
     1
102
RTVSPropertyOp22
 70
     1
102
RTVSPropertyOp23
 70
     1
102
RTVSPropertyOp24
 70
     1
102
RTVSPropertyOp25
 70
     1
102
RTVSPropertyOp26
 70
     1
102
RTVSPropertyOp27
 70
     1
  0
XRECORD
  5
2F2A
102
{ACAD_REACTORS
330
2F29
102
}
330
2F29
100
AcDbXrecord
280
     1
102
RTVSPropertyOp0
 70
     1
102
RTVSPropertyOp1
 70
     1
102
RTVSPropertyOp2
 70
     1
102
RTVSPropertyOp3
 70
     1
102
RTVSPropertyOp4
 70
     1
102
RTVSPropertyOp5
 70
     1
102
RTVSPropertyOp6
 70
     1
102
RTVSPropertyOp7
 70
     1
102
RTVSPropertyOp8
 70
     1
102
RTVSPropertyOp9
 70
     1
102
RTVSPropertyOp10
 70
     1
102
RTVSPropertyOp11
 70
     1
102
RTVSPropertyOp12
 70
     1
102
RTVSPropertyOp13
 70
     1
102
RTVSPropertyOp14
 70
     1
102
RTVSPropertyOp15
 70
     1
102
RTVSPropertyOp16
 70
     1
102
RTVSPropertyOp17
 70
     1
102
RTVSPropertyOp18
 70
     1
102
RTVSPropertyOp19
 70
     1
102
RTVSPropertyOp20
 70
     1
102
RTVSPropertyOp21
 70
     1
102
RTVSPropertyOp22
 70
     1
102
RTVSPropertyOp23
 70
     1
102
RTVSPropertyOp24
 70
     1
102
RTVSPropertyOp25
 70
     1
102
RTVSPropertyOp26
 70
     1
102
RTVSPropertyOp27
 70
     1
  0
XRECORD
  5
2F1E
102
{ACAD_REACTORS
330
2F1D
102
}
330
2F1D
100
AcDbXrecord
280
     1
102
RTVSPropertyOp0
 70
     1
102
RTVSPropertyOp1
 70
     1
102
RTVSPropertyOp2
 70
     1
102
RTVSPropertyOp3
 70
     1
102
RTVSPropertyOp4
 70
     1
102
RTVSPropertyOp5
 70
     1
102
RTVSPropertyOp6
 70
     1
102
RTVSPropertyOp7
 70
     1
102
RTVSPropertyOp8
 70
     1
102
RTVSPropertyOp9
 70
     1
102
RTVSPropertyOp10
 70
     1
102
RTVSPropertyOp11
 70
     1
102
RTVSPropertyOp12
 70
     1
102
RTVSPropertyOp13
 70
     1
102
RTVSPropertyOp14
 70
     1
102
RTVSPropertyOp15
 70
     1
102
RTVSPropertyOp16
 70
     1
102
RTVSPropertyOp17
 70
     1
102
RTVSPropertyOp18
 70
     1
102
RTVSPropertyOp19
 70
     1
102
RTVSPropertyOp20
 70
     1
102
RTVSPropertyOp21
 70
     1
102
RTVSPropertyOp22
 70
     1
102
RTVSPropertyOp23
 70
     1
102
RTVSPropertyOp24
 70
     1
102
RTVSPropertyOp25
 70
     1
102
RTVSPropertyOp26
 70
     1
102
RTVSPropertyOp27
 70
     1
  0
XRECORD
  5
2F36
102
{ACAD_REACTORS
330
2F35
102
}
330
2F35
100
AcDbXrecord
280
     1
102
RTVSPropertyOp0
 70
     1
102
RTVSPropertyOp1
 70
     1
102
RTVSPropertyOp2
 70
     1
102
RTVSPropertyOp3
 70
     1
102
RTVSPropertyOp4
 70
     1
102
RTVSPropertyOp5
 70
     1
102
RTVSPropertyOp6
 70
     1
102
RTVSPropertyOp7
 70
     1
102
RTVSPropertyOp8
 70
     1
102
RTVSPropertyOp9
 70
     1
102
RTVSPropertyOp10
 70
     1
102
RTVSPropertyOp11
 70
     1
102
RTVSPropertyOp12
 70
     1
102
RTVSPropertyOp13
 70
     1
102
RTVSPropertyOp14
 70
     1
102
RTVSPropertyOp15
 70
     1
102
RTVSPropertyOp16
 70
     1
102
RTVSPropertyOp17
 70
     1
102
RTVSPropertyOp18
 70
     1
102
RTVSPropertyOp19
 70
     1
102
RTVSPropertyOp20
 70
     1
102
RTVSPropertyOp21
 70
     1
102
RTVSPropertyOp22
 70
     1
102
RTVSPropertyOp23
 70
     1
102
RTVSPropertyOp24
 70
     1
102
RTVSPropertyOp25
 70
     1
102
RTVSPropertyOp26
 70
     1
102
RTVSPropertyOp27
 70
     1
  0
ENDSEC
  0
EOF
