  0
SECTION
  2
HEADER
  9
$ACADVER
  1
AC1018
  9
$ACADMAINTVER
 70
   104
  9
$DWGCODEPAGE
  3
ANSI_1250
  9
$AUTHOR
  1
pmacoun
  9
$CUSTOMPROPERTYTAG
  1
Vedoucí
  9
$CUSTOMPROPERTY
  1

  9
$CUSTOMPROPERTYTAG
  1
Společnost
  9
$CUSTOMPROPERTY
  1

  9
$CUSTOMPROPERTYTAG
  1
Kategorie
  9
$CUSTOMPROPERTY
  1

  9
$CUSTOMPROPERTYTAG
  1
Číslo součásti
  9
$CUSTOMPROPERTY
  1
baleni 142
  9
$CUSTOMPROPERTYTAG
  1
Popis
  9
$CUSTOMPROPERTY
  1

  9
$CUSTOMPROPERTYTAG
  1
Projekt
  9
$CUSTOMPROPERTY
  1

  9
$CUSTOMPROPERTYTAG
  1
Kreslil
  9
$CUSTOMPROPERTY
  1
pmacoun
  9
$CUSTOMPROPERTYTAG
  1
Schválil
  9
$CUSTOMPROPERTY
  1

  9
$CUSTOMPROPERTYTAG
  1
Zodpovídá
  9
$CUSTOMPROPERTY
  1

  9
$CUSTOMPROPERTYTAG
  1
Nákladové středisko
  9
$CUSTOMPROPERTY
  1

  9
$CUSTOMPROPERTYTAG
  1
Dodavatel
  9
$CUSTOMPROPERTY
  1

  9
$CUSTOMPROPERTYTAG
  1
Uživatelský stav
  9
$CUSTOMPROPERTY
  1

  9
$CUSTOMPROPERTYTAG
  1
Stav návrhu
  9
$CUSTOMPROPERTY
  1
Rozpracováno
  9
$CUSTOMPROPERTYTAG
  1
Zkontroloval
  9
$CUSTOMPROPERTY
  1

  9
$CUSTOMPROPERTYTAG
  1
Techn. kontr. schválil
  9
$CUSTOMPROPERTY
  1

  9
$CUSTOMPROPERTYTAG
  1
Výrobu schválil
  9
$CUSTOMPROPERTY
  1

  9
$CUSTOMPROPERTYTAG
  1
VS_First
  9
$CUSTOMPROPERTY
  1

  9
$CUSTOMPROPERTYTAG
  1
VS_All
  9
$CUSTOMPROPERTY
  1
1:1,
  9
$CUSTOMPROPERTYTAG
  1
Model_Mass_Value
  9
$CUSTOMPROPERTY
  1
,0
  9
$CUSTOMPROPERTYTAG
  1
Model_Mass_Units
  9
$CUSTOMPROPERTY
  1
kg
  9
$CUSTOMPROPERTYTAG
  1
Model_Area_Value
  9
$CUSTOMPROPERTY
  1
2694,0
  9
$CUSTOMPROPERTYTAG
  1
Model_Area_Units
  9
$CUSTOMPROPERTY
  1
mm˛
  9
$CUSTOMPROPERTYTAG
  1
Model_Volume_Value
  9
$CUSTOMPROPERTY
  1
5471,0
  9
$CUSTOMPROPERTYTAG
  1
Model_Volume_Units
  9
$CUSTOMPROPERTY
  1
mmł
  9
$CUSTOMPROPERTYTAG
  1
Model_CogX_Value
  9
$CUSTOMPROPERTY
  1
,0
  9
$CUSTOMPROPERTYTAG
  1
Model_CogY_Value
  9
$CUSTOMPROPERTY
  1
,0
  9
$CUSTOMPROPERTYTAG
  1
Model_CogZ_Value
  9
$CUSTOMPROPERTY
  1
,0
  9
$CUSTOMPROPERTYTAG
  1
Model_Cog_Units
  9
$CUSTOMPROPERTY
  1
mm
  9
$CUSTOMPROPERTYTAG
  1
Model_Ixx_Value
  9
$CUSTOMPROPERTY
  1
,0
  9
$CUSTOMPROPERTYTAG
  1
Model_Iyy_Value
  9
$CUSTOMPROPERTY
  1
,0
  9
$CUSTOMPROPERTYTAG
  1
Model_Izz_Value
  9
$CUSTOMPROPERTY
  1
,0
  9
$CUSTOMPROPERTYTAG
  1
Model_Ixy_Value
  9
$CUSTOMPROPERTY
  1
,0
  9
$CUSTOMPROPERTYTAG
  1
Model_Iyz_Value
  9
$CUSTOMPROPERTY
  1
,0
  9
$CUSTOMPROPERTYTAG
  1
Model_Ixz_Value
  9
$CUSTOMPROPERTY
  1
,0
  9
$CUSTOMPROPERTYTAG
  1
Model_MassMom_Units
  9
$CUSTOMPROPERTY
  1
kg mm˛
  9
$CUSTOMPROPERTYTAG
  1
FirstViewScale
  9
$CUSTOMPROPERTY
  1

  9
$CUSTOMPROPERTYTAG
  1
AllViewScales
  9
$CUSTOMPROPERTY
  1

  9
$CUSTOMPROPERTYTAG
  1
SaveDate
  9
$CUSTOMPROPERTY
  1
09/11/2007
  9
$CUSTOMPROPERTYTAG
  1
SaveTime
  9
$CUSTOMPROPERTY
  1
10:32
  9
$CUSTOMPROPERTYTAG
  1
PaperSize
  9
$CUSTOMPROPERTY
  1
A3
  9
$CUSTOMPROPERTYTAG
  1
DateSaved
  9
$CUSTOMPROPERTY
  1
12.09.2007
  9
$CUSTOMPROPERTYTAG
  1
TimeSaved
  9
$CUSTOMPROPERTY
  1
10:32 dop.
  9
$INSBASE
 10
0.0
 20
0.0
 30
0.0
  9
$EXTMIN
 10
0.0
 20
0.0
 30
0.0
  9
$EXTMAX
 10
297.0
 20
420.4999999999999
 30
0.0
  9
$LIMMIN
 10
0.0
 20
0.0
  9
$LIMMAX
 10
297.0
 20
420.4999999999999
  9
$ORTHOMODE
 70
     0
  9
$REGENMODE
 70
     1
  9
$FILLMODE
 70
     1
  9
$QTEXTMODE
 70
     0
  9
$MIRRTEXT
 70
     0
  9
$LTSCALE
 40
0.5
  9
$ATTMODE
 70
     1
  9
$TEXTSIZE
 40
0.2
  9
$TRACEWID
 40
0.05
  9
$TEXTSTYLE
  7
Standard
  9
$CLAYER
  8
0
  9
$CELTYPE
  6
ByLayer
  9
$CECOLOR
 62
   256
  9
$CELTSCALE
 40
1.0
  9
$DISPSILH
 70
     0
  9
$DIMSCALE
 40
1.0
  9
$DIMASZ
 40
1.799999999999999
  9
$DIMEXO
 40
0.0625
  9
$DIMDLI
 40
0.38
  9
$DIMRND
 40
0.0
  9
$DIMDLE
 40
0.0
  9
$DIMEXE
 40
0.18
  9
$DIMTP
 40
0.0
  9
$DIMTM
 40
0.0
  9
$DIMTXT
 40
0.3499999940395355
  9
$DIMCEN
 40
0.09
  9
$DIMTSZ
 40
0.0
  9
$DIMTOL
 70
     0
  9
$DIMLIM
 70
     0
  9
$DIMTIH
 70
     1
  9
$DIMTOH
 70
     1
  9
$DIMSE1
 70
     0
  9
$DIMSE2
 70
     0
  9
$DIMTAD
 70
     0
  9
$DIMZIN
 70
     0
  9
$DIMBLK
  1

  9
$DIMASO
 70
     1
  9
$DIMSHO
 70
     1
  9
$DIMPOST
  1

  9
$DIMAPOST
  1

  9
$DIMALT
 70
     0
  9
$DIMALTD
 70
     2
  9
$DIMALTF
 40
25.4
  9
$DIMLFAC
 40
1.0
  9
$DIMTOFL
 70
     0
  9
$DIMTVP
 40
0.0
  9
$DIMTIX
 70
     0
  9
$DIMSOXD
 70
     0
  9
$DIMSAH
 70
     0
  9
$DIMBLK1
  1

  9
$DIMBLK2
  1

  9
$DIMSTYLE
  2
Standard
  9
$DIMCLRD
 70
     0
  9
$DIMCLRE
 70
     0
  9
$DIMCLRT
 70
     0
  9
$DIMTFAC
 40
1.0
  9
$DIMGAP
 40
0.09
  9
$DIMJUST
 70
     0
  9
$DIMSD1
 70
     0
  9
$DIMSD2
 70
     0
  9
$DIMTOLJ
 70
     1
  9
$DIMTZIN
 70
     0
  9
$DIMALTZ
 70
     0
  9
$DIMALTTZ
 70
     0
  9
$DIMUPT
 70
     0
  9
$DIMDEC
 70
     4
  9
$DIMTDEC
 70
     4
  9
$DIMALTU
 70
     2
  9
$DIMALTTD
 70
     2
  9
$DIMTXSTY
  7
Standard
  9
$DIMAUNIT
 70
     0
  9
$DIMADEC
 70
     0
  9
$DIMALTRND
 40
0.0
  9
$DIMAZIN
 70
     0
  9
$DIMDSEP
 70
    46
  9
$DIMATFIT
 70
     3
  9
$DIMFRAC
 70
     0
  9
$DIMLDRBLK
  1

  9
$DIMLUNIT
 70
     2
  9
$DIMLWD
 70
    -2
  9
$DIMLWE
 70
    -2
  9
$DIMTMOVE
 70
     0
  9
$LUNITS
 70
     2
  9
$LUPREC
 70
     4
  9
$SKETCHINC
 40
0.1
  9
$FILLETRAD
 40
0.0
  9
$AUNITS
 70
     0
  9
$AUPREC
 70
     0
  9
$MENU
  1
.
  9
$ELEVATION
 40
0.0
  9
$PELEVATION
 40
0.0
  9
$THICKNESS
 40
0.0
  9
$LIMCHECK
 70
     0
  9
$CHAMFERA
 40
0.0
  9
$CHAMFERB
 40
0.0
  9
$CHAMFERC
 40
0.0
  9
$CHAMFERD
 40
0.0
  9
$SKPOLY
 70
     0
  9
$TDCREATE
 40
2456636.371867755
  9
$TDUCREATE
 40
2456636.330201088
  9
$TDUPDATE
 40
2456636.371867755
  9
$TDUUPDATE
 40
2456636.330201088
  9
$TDINDWG
 40
0.0002398611
  9
$TDUSRTIMER
 40
0.0002398611
  9
$USRTIMER
 70
     1
  9
$ANGBASE
 50
0.0
  9
$ANGDIR
 70
     0
  9
$PDMODE
 70
     0
  9
$PDSIZE
 40
0.0
  9
$PLINEWID
 40
0.0
  9
$SPLFRAME
 70
     0
  9
$SPLINETYPE
 70
     6
  9
$SPLINESEGS
 70
     8
  9
$HANDSEED
  5
76C
  9
$SURFTAB1
 70
     6
  9
$SURFTAB2
 70
     6
  9
$SURFTYPE
 70
     6
  9
$SURFU
 70
     6
  9
$SURFV
 70
     6
  9
$UCSBASE
  2

  9
$UCSNAME
  2

  9
$UCSORG
 10
0.0
 20
0.0
 30
0.0
  9
$UCSXDIR
 10
1.0
 20
0.0
 30
0.0
  9
$UCSYDIR
 10
0.0
 20
1.0
 30
0.0
  9
$UCSORTHOREF
  2

  9
$UCSORTHOVIEW
 70
     0
  9
$UCSORGTOP
 10
0.0
 20
0.0
 30
0.0
  9
$UCSORGBOTTOM
 10
0.0
 20
0.0
 30
0.0
  9
$UCSORGLEFT
 10
0.0
 20
0.0
 30
0.0
  9
$UCSORGRIGHT
 10
0.0
 20
0.0
 30
0.0
  9
$UCSORGFRONT
 10
0.0
 20
0.0
 30
0.0
  9
$UCSORGBACK
 10
0.0
 20
0.0
 30
0.0
  9
$PUCSBASE
  2

  9
$PUCSNAME
  2

  9
$PUCSORG
 10
0.0
 20
0.0
 30
0.0
  9
$PUCSXDIR
 10
1.0
 20
0.0
 30
0.0
  9
$PUCSYDIR
 10
0.0
 20
1.0
 30
0.0
  9
$PUCSORTHOREF
  2

  9
$PUCSORTHOVIEW
 70
     0
  9
$PUCSORGTOP
 10
0.0
 20
0.0
 30
0.0
  9
$PUCSORGBOTTOM
 10
0.0
 20
0.0
 30
0.0
  9
$PUCSORGLEFT
 10
0.0
 20
0.0
 30
0.0
  9
$PUCSORGRIGHT
 10
0.0
 20
0.0
 30
0.0
  9
$PUCSORGFRONT
 10
0.0
 20
0.0
 30
0.0
  9
$PUCSORGBACK
 10
0.0
 20
0.0
 30
0.0
  9
$USERI1
 70
     0
  9
$USERI2
 70
     0
  9
$USERI3
 70
     0
  9
$USERI4
 70
     0
  9
$USERI5
 70
     0
  9
$USERR1
 40
0.0
  9
$USERR2
 40
0.0
  9
$USERR3
 40
0.0
  9
$USERR4
 40
0.0
  9
$USERR5
 40
0.0
  9
$WORLDVIEW
 70
     1
  9
$SHADEDGE
 70
     3
  9
$SHADEDIF
 70
    70
  9
$TILEMODE
 70
     1
  9
$MAXACTVP
 70
    64
  9
$PINSBASE
 10
0.0
 20
0.0
 30
0.0
  9
$PLIMCHECK
 70
     0
  9
$PEXTMIN
 10
0.0
 20
0.0
 30
0.0
  9
$PEXTMAX
 10
297.0
 20
420.4999999999999
 30
0.0
  9
$PLIMMIN
 10
0.0
 20
0.0
  9
$PLIMMAX
 10
297.0
 20
420.4999999999999
  9
$UNITMODE
 70
     0
  9
$VISRETAIN
 70
     1
  9
$PLINEGEN
 70
     0
  9
$PSLTSCALE
 70
     1
  9
$TREEDEPTH
 70
  3020
  9
$CMLSTYLE
  2
Standard
  9
$CMLJUST
 70
     0
  9
$CMLSCALE
 40
1.0
  9
$PROXYGRAPHICS
 70
     1
  9
$MEASUREMENT
 70
     1
  9
$CELWEIGHT
370
    -1
  9
$ENDCAPS
280
     0
  9
$JOINSTYLE
280
     0
  9
$LWDISPLAY
290
     0
  9
$INSUNITS
 70
     4
  9
$HYPERLINKBASE
  1

  9
$STYLESHEET
  1

  9
$XEDIT
290
     1
  9
$CEPSNTYPE
380
     0
  9
$PSTYLEMODE
290
     1
  9
$FINGERPRINTGUID
  2
{878FE505-495B-4BA2-A016-BF1666C90F17}
  9
$VERSIONGUID
  2
{B57C4CC0-60FB-4B4B-9B9D-5D2EB6251C6B}
  9
$EXTNAMES
290
     1
  9
$PSVPSCALE
 40
0.0
  9
$OLESTARTUP
290
     0
  9
$SORTENTS
280
   127
  9
$INDEXCTL
280
     0
  9
$HIDETEXT
280
     1
  9
$XCLIPFRAME
290
     0
  9
$HALOGAP
280
     0
  9
$OBSCOLOR
 70
   257
  9
$OBSLTYPE
280
     0
  9
$INTERSECTIONDISPLAY
280
     0
  9
$INTERSECTIONCOLOR
 70
   257
  9
$DIMASSOC
280
     1
  9
$PROJECTNAME
  1

  0
ENDSEC
  0
SECTION
  2
CLASSES
  0
CLASS
  1
ACDBDICTIONARYWDFLT
  2
AcDbDictionaryWithDefault
  3
ObjectDBX Classes
 90
        0
 91
        1
280
     0
281
     0
  0
CLASS
  1
MATERIAL
  2
AcDbMaterial
  3
ObjectDBX Classes
 90
     1153
 91
        3
280
     0
281
     0
  0
CLASS
  1
VISUALSTYLE
  2
AcDbVisualStyle
  3
ObjectDBX Classes
 90
     4095
 91
       24
280
     0
281
     0
  0
CLASS
  1
SCALE
  2
AcDbScale
  3
ObjectDBX Classes
 90
     1153
 91
       17
280
     0
281
     0
  0
CLASS
  1
TABLESTYLE
  2
AcDbTableStyle
  3
ObjectDBX Classes
 90
     4095
 91
        1
280
     0
281
     0
  0
CLASS
  1
MLEADERSTYLE
  2
AcDbMLeaderStyle
  3
ACDB_MLEADERSTYLE_CLASS
 90
     4095
 91
        1
280
     0
281
     0
  0
CLASS
  1
DICTIONARYVAR
  2
AcDbDictionaryVar
  3
ObjectDBX Classes
 90
        0
 91
        8
280
     0
281
     0
  0
CLASS
  1
CELLSTYLEMAP
  2
AcDbCellStyleMap
  3
ObjectDBX Classes
 90
     1152
 91
        1
280
     0
281
     0
  0
ENDSEC
  0
SECTION
  2
TABLES
  0
TABLE
  2
VPORT
  5
8
330
0
100
AcDbSymbolTable
 70
     1
  0
VPORT
  5
57
330
8
100
AcDbSymbolTableRecord
100
AcDbViewportTableRecord
  2
*Active
 70
     0
 10
0.0
 20
0.0
 11
1.0
 21
1.0
 12
148.5
 22
210.25
 13
0.0
 23
0.0
 14
1.0
 24
1.0
 15
0.0
 25
0.0
 16
0.0
 26
0.0
 36
1.0
 17
0.0
 27
0.0
 37
0.0
 40
420.4999999999999
 41
0.7063020214030917
 42
50.0
 43
0.0
 44
0.0
 50
0.0
 51
0.0
 71
     0
 72
   100
 73
     1
 74
     1
 75
     0
 76
     0
 77
     0
 78
     0
281
     0
 65
     1
110
0.0
120
0.0
130
0.0
111
1.0
121
0.0
131
0.0
112
0.0
122
1.0
132
0.0
 79
     0
146
0.0
  0
ENDTAB
  0
TABLE
  2
LTYPE
  5
5
330
0
100
AcDbSymbolTable
 70
     1
  0
LTYPE
  5
5B
330
5
100
AcDbSymbolTableRecord
100
AcDbLinetypeTableRecord
  2
ByBlock
 70
     0
  3

 72
    65
 73
     0
 40
0.0
  0
LTYPE
  5
5C
330
5
100
AcDbSymbolTableRecord
100
AcDbLinetypeTableRecord
  2
ByLayer
 70
     0
  3

 72
    65
 73
     0
 40
0.0
  0
LTYPE
  5
5D
330
5
100
AcDbSymbolTableRecord
100
AcDbLinetypeTableRecord
  2
Continuous
 70
     0
  3
Solid line
 72
    65
 73
     0
 40
0.0
  0
ENDTAB
  0
TABLE
  2
LAYER
  5
2
330
0
100
AcDbSymbolTable
 70
    30
  0
LAYER
  5
54
330
2
100
AcDbSymbolTableRecord
100
AcDbLayerTableRecord
  2
0
 70
     0
 62
     7
  6
Continuous
370
    -3
390
F
  0
LAYER
  5
78
330
2
100
AcDbSymbolTableRecord
100
AcDbLayerTableRecord
  2
Geometrie náčrtu (ISO)
 70
     0
 62
     7
  6
Continuous
370
     9
390
F
  0
LAYER
  5
7A
330
2
100
AcDbSymbolTableRecord
100
AcDbLayerTableRecord
  2
Kóta (ISO)
 70
     0
 62
     5
420
      255
  6
Continuous
370
     9
390
F
  0
LAYER
  5
7D
330
2
100
AcDbSymbolTableRecord
100
AcDbLayerTableRecord
  2
Osa (ISO)
 70
     0
 62
     1
420
 16711680
  6
Continuous
370
     9
390
F
  0
LAYER
  5
8D
330
2
100
AcDbSymbolTableRecord
100
AcDbLayerTableRecord
  2
Viditelná (ISO)
 70
     0
 62
     7
  6
Continuous
370
    35
390
F
  0
LAYER
  5
8E
330
2
100
AcDbSymbolTableRecord
100
AcDbLayerTableRecord
  2
Viditelná tenká (ISO)
 70
     0
 62
     7
  6
Continuous
370
     9
390
F
  0
LAYER
  5
8F
330
2
100
AcDbSymbolTableRecord
100
AcDbLayerTableRecord
  2
Značka (ISO)
 70
     0
 62
     5
420
      255
  6
Continuous
370
     9
390
F
  0
LAYER
  5
1FB
330
2
100
AcDbSymbolTableRecord
100
AcDbLayerTableRecord
  2
Defpoints
 70
     0
 62
     7
  6
Continuous
290
     0
370
    -3
390
F
  0
ENDTAB
  0
TABLE
  2
STYLE
  5
3
330
0
100
AcDbSymbolTable
 70
    10
  0
STYLE
  5
55
330
3
100
AcDbSymbolTableRecord
100
AcDbTextStyleTableRecord
  2
Standard
 70
     0
 40
0.0
 41
1.0
 50
0.0
 71
     0
 42
0.2
  3
tahoma.ttf
  4

1001
ACAD
1000
Tahoma
1071
      256
  0
STYLE
  5
5A
330
3
100
AcDbSymbolTableRecord
100
AcDbTextStyleTableRecord
  2
Annotative
 70
     0
 40
0.0
 41
1.0
 50
0.0
 71
     0
 42
0.2
  3
txt
  4

1001
AcadAnnotative
1000
AnnotativeData
1002
{
1070
     1
1070
     1
1002
}
  0
STYLE
  5
90
330
3
100
AcDbSymbolTableRecord
100
AcDbTextStyleTableRecord
  2
ITALICC8_57
 70
     0
 40
0.0
 41
1.0
 50
0.0
 71
     0
 42
0.2
  3
tahoma.ttf
  4

1001
ACAD
1000
Tahoma
1071
      256
  0
STYLE
  5
91
330
3
100
AcDbSymbolTableRecord
100
AcDbTextStyleTableRecord
  2
kusovnik
 70
     0
 40
0.0
 41
1.0
 50
0.0
 71
     0
 42
0.2
  3
arial.ttf
  4

1001
ACAD
1000
Arial
1071
      256
  0
STYLE
  5
92
330
3
100
AcDbSymbolTableRecord
100
AcDbTextStyleTableRecord
  2
ROMANS8_69
 70
     0
 40
0.0
 41
1.0
 50
0.0
 71
     0
 42
0.2
  3
tahoma.ttf
  4

1001
ACAD
1000
Tahoma
1071
      256
  0
STYLE
  5
93
330
3
100
AcDbSymbolTableRecord
100
AcDbTextStyleTableRecord
  2
Text popisu (ISO)
 70
     0
 40
0.0
 41
1.0
 50
0.0
 71
     0
 42
0.2
  3
tahoma.ttf
  4

1001
ACAD
1000
Tahoma
1071
      256
  0
STYLE
  5
94
330
3
100
AcDbSymbolTableRecord
100
AcDbTextStyleTableRecord
  2
Text poznámky (DIN)
 70
     0
 40
0.0
 41
1.0
 50
0.0
 71
     0
 42
0.2
  3
isocpeur.ttf
  4

1001
ACAD
1000
ISOCPEUR
1071
      256
  0
STYLE
  5
95
330
3
100
AcDbSymbolTableRecord
100
AcDbTextStyleTableRecord
  2
Text poznámky (ISO)
 70
     0
 40
0.0
 41
1.0
 50
0.0
 71
     0
 42
0.2
  3
tahoma.ttf
  4

1001
ACAD
1000
Tahoma
1071
      256
  0
STYLE
  5
96
330
3
100
AcDbSymbolTableRecord
100
AcDbTextStyleTableRecord
  2
TEXT20_41
 70
     0
 40
0.0
 41
1.0
 50
0.0
 71
     0
 42
0.2
  3
tahoma.ttf
  4

1001
ACAD
1000
Tahoma
1071
      256
  0
STYLE
  5
97
330
3
100
AcDbSymbolTableRecord
100
AcDbTextStyleTableRecord
  2
TEXT20_59
 70
     0
 40
0.0
 41
1.0
 50
0.0
 71
     0
 42
0.2
  3
tahoma.ttf
  4

1001
ACAD
1000
Tahoma
1071
      256
  0
ENDTAB
  0
TABLE
  2
VIEW
  5
6
330
0
100
AcDbSymbolTable
 70
     0
  0
ENDTAB
  0
TABLE
  2
UCS
  5
7
330
0
100
AcDbSymbolTable
 70
     0
  0
ENDTAB
  0
TABLE
  2
APPID
  5
9
330
0
100
AcDbSymbolTable
 70
     3
  0
APPID
  5
56
330
9
100
AcDbSymbolTableRecord
100
AcDbRegAppTableRecord
  2
ACAD
 70
     0
  0
APPID
  5
5E
330
9
100
AcDbSymbolTableRecord
100
AcDbRegAppTableRecord
  2
AcadAnnotative
 70
     0
  0
APPID
  5
749
330
9
100
AcDbSymbolTableRecord
100
AcDbRegAppTableRecord
  2
ACAD_MLEADERVER
 70
     0
  0
ENDTAB
  0
TABLE
  2
DIMSTYLE
  5
A
330
0
100
AcDbSymbolTable
 70
    17
100
AcDbDimStyleTable
 71
     2
340
A7
340
58
  0
DIMSTYLE
105
58
330
A
100
AcDbSymbolTableRecord
100
AcDbDimStyleTableRecord
  2
Standard
 70
     0
340
55
  0
DIMSTYLE
105
59
330
A
100
AcDbSymbolTableRecord
100
AcDbDimStyleTableRecord
  2
Annotative
 70
     0
340
55
1001
AcadAnnotative
1000
AnnotativeData
1002
{
1070
     1
1070
     1
1002
}
  0
DIMSTYLE
105
A7
102
{ACAD_REACTORS
330
1FA
330
2D1
330
3A7
330
47E
330
55A
330
630
102
}
330
A
100
AcDbSymbolTableRecord
100
AcDbDimStyleTableRecord
  2
Různé objekty (ISO)
 70
     0
 40
0.5
 41
2.5
 42
0.0
 43
5.999999999999999
 44
1.0
 45
0.00000001
 46
10.0
 73
     0
 74
     0
 77
     1
 78
     8
 79
     2
140
5.25
143
0.03937
146
0.6676571965217591
147
0.762
171
     3
172
     1
176
   256
177
   256
178
   256
179
     2
271
     2
272
     2
274
     3
278
    44
284
     8
340
93
341
98
371
    -1
372
    -1
  0
DIMSTYLE
105
A8
330
A
100
AcDbSymbolTableRecord
100
AcDbDimStyleTableRecord
  2
Různé objekty (ISO)$7
 70
     0
 40
0.5
 41
5.0
 42
0.0
 43
5.999999999999999
 44
1.0
 45
0.00000001
 46
10.0
 73
     0
 74
     0
 77
     1
 78
     8
 79
     2
140
5.25
143
0.03937
146
0.6676571965217591
147
0.762
171
     3
172
     1
176
   256
177
   256
178
   256
179
     2
271
     2
272
     2
274
     3
278
    44
284
     8
340
93
341
98
371
    25
372
    -1
  0
DIMSTYLE
105
A9
330
A
100
AcDbSymbolTableRecord
100
AcDbDimStyleTableRecord
  2
Výchozí - Metoda 1b (ISO)
 70
     0
 40
0.5
 41
2.5
 42
0.0
 43
5.999999999999999
 44
1.0
 45
0.00000001
 46
10.0
 73
     0
 77
     1
 78
     8
 79
     2
140
3.5
143
0.03937
147
0.762
171
     3
172
     1
176
   256
177
   256
178
   256
179
     2
271
     2
272
     2
274
     3
278
    44
284
     8
286
     8
340
95
371
    -1
372
    -1
  0
DIMSTYLE
105
AA
330
A
100
AcDbSymbolTableRecord
100
AcDbDimStyleTableRecord
  2
Výchozí - Metoda 1b (ISO)$7
 70
     0
 40
0.5
 41
2.5
 42
0.0
 43
5.999999999999999
 44
1.0
 45
0.00000001
 46
10.0
 73
     0
 77
     1
 78
     8
 79
     2
140
3.5
143
0.03937
147
0.762
171
     3
172
     1
176
   256
177
   256
178
   256
179
     2
271
     2
272
     2
274
     3
278
    44
284
     8
286
     8
340
95
371
    -1
372
    -1
  0
DIMSTYLE
105
AB
330
A
100
AcDbSymbolTableRecord
100
AcDbDimStyleTableRecord
  2
Výchozí - Metoda 2a (ISO)
 70
     0
 40
0.5
 41
2.5
 42
0.0
 43
5.999999999999999
 44
1.0
 45
0.00000001
 46
10.0
 77
     1
 78
     8
 79
     2
140
3.5
143
0.03937
147
0.762
171
     3
172
     1
176
   256
177
   256
178
   256
179
     2
271
     2
272
     2
274
     3
278
    44
284
     8
286
     8
340
95
371
    -1
372
    -1
  0
DIMSTYLE
105
AC
330
A
100
AcDbSymbolTableRecord
100
AcDbDimStyleTableRecord
  2
Výchozí - Metoda 2a (ISO)$7
 70
     0
 40
0.5
 41
2.5
 42
0.0
 43
5.999999999999999
 44
1.0
 45
0.00000001
 46
10.0
 77
     1
 78
     8
 79
     2
140
3.5
143
0.03937
147
0.762
171
     3
172
     1
176
   256
177
   256
178
   256
179
     2
271
     2
272
     2
274
     3
278
    44
284
     8
286
     8
340
95
371
    -1
372
    -1
  0
DIMSTYLE
105
AD
330
A
100
AcDbSymbolTableRecord
100
AcDbDimStyleTableRecord
  2
Výchozí - Metoda 2b (ISO)
 70
     0
 40
0.5
 41
2.5
 42
0.0
 43
5.999999999999999
 44
1.0
 45
0.00000001
 46
10.0
 77
     1
 78
     8
 79
     2
140
3.5
143
0.03937
147
0.762
171
     3
172
     1
176
   256
177
   256
178
   256
179
     2
271
     2
272
     2
274
     3
278
    44
284
     8
286
     8
340
95
371
    -1
372
    -1
  0
DIMSTYLE
105
AE
330
A
100
AcDbSymbolTableRecord
100
AcDbDimStyleTableRecord
  2
Výchozí - Metoda 2b (ISO)$7
 70
     0
 40
0.5
 41
2.5
 42
0.0
 43
5.999999999999999
 44
1.0
 45
0.00000001
 46
10.0
 77
     1
 78
     8
 79
     2
140
3.5
143
0.03937
147
0.762
171
     3
172
     1
176
   256
177
   256
178
   256
179
     2
271
     2
272
     2
274
     3
278
    44
284
     8
286
     8
340
95
371
    -1
372
    -1
  0
DIMSTYLE
105
AF
330
A
100
AcDbSymbolTableRecord
100
AcDbDimStyleTableRecord
  2
Výchozí - mm [palce] (ISO)
 70
     0
  4
 in
 40
0.5
 41
2.5
 42
0.0
 43
5.999999999999999
 44
3.174999999999999
 45
0.00000001
 46
10.0
 73
     0
 74
     0
 77
     1
 78
     8
 79
     2
140
3.5
143
0.03937
147
0.762
170
     1
171
     3
172
     1
176
   256
177
   256
178
   256
179
     3
271
     3
272
     2
274
     3
275
     1
278
    44
284
     8
285
     8
286
     8
340
95
371
    -1
372
    -1
  0
DIMSTYLE
105
B0
330
A
100
AcDbSymbolTableRecord
100
AcDbDimStyleTableRecord
  2
Výchozí - mm [palce] (ISO)$7
 70
     0
  4
 in
 40
0.5
 41
2.5
 42
0.0
 43
5.999999999999999
 44
3.174999999999999
 45
0.00000001
 46
10.0
 73
     0
 74
     0
 77
     1
 78
     8
 79
     2
140
3.5
143
0.03937
147
0.762
170
     1
171
     3
172
     1
176
   256
177
   256
178
   256
179
     3
271
     3
272
     2
274
     3
275
     1
278
    44
284
     8
285
     8
286
     8
340
95
371
    -1
372
    -1
  0
DIMSTYLE
105
B1
330
A
100
AcDbSymbolTableRecord
100
AcDbDimStyleTableRecord
  2
Výchozí (ISO)
 70
     0
 40
0.5
 41
3.5
 42
0.0
 43
5.999999999999999
 44
1.499999999999999
 45
0.00000001
 46
10.0
 73
     0
 74
     0
 77
     1
 78
     8
 79
     2
140
3.5
143
0.03937
146
1.001485705375671
147
1.0
171
     3
172
     1
176
   256
177
   256
178
   256
179
     2
271
     2
272
     2
274
     3
278
    44
284
     8
340
95
371
    -1
372
    -1
  0
DIMSTYLE
105
B2
330
A
100
AcDbSymbolTableRecord
100
AcDbDimStyleTableRecord
  2
Výchozí (ISO)$7
 70
     0
 40
0.5
 41
2.5
 42
0.0
 43
5.999999999999999
 44
1.499999999999999
 45
0.00000001
 46
10.0
 73
     0
 74
     0
 77
     1
 78
     8
 79
     2
140
3.5
143
0.03937
146
1.001485705375671
147
1.0
171
     3
172
     1
176
   256
177
   256
178
   256
179
     2
271
     2
272
     2
274
     3
278
    44
284
     8
340
95
371
    -1
372
    -1
  0
DIMSTYLE
105
B3
330
A
100
AcDbSymbolTableRecord
100
AcDbDimStyleTableRecord
  2
Alternativní (ANSI)
 70
     0
 40
0.5
 41
2.489200115203857
340
55
342
B4
  0
DIMSTYLE
105
BB
330
A
100
AcDbSymbolTableRecord
100
AcDbDimStyleTableRecord
  2
Alternativní (ISO)
 70
     0
 40
0.5
 41
2.5
340
55
342
B4
  0
DIMSTYLE
105
C6
330
A
100
AcDbSymbolTableRecord
100
AcDbDimStyleTableRecord
  2
Základny (ISO)
 70
     0
 40
0.5
 41
2.5
340
55
342
B4
  0
ENDTAB
  0
TABLE
  2
BLOCK_RECORD
  5
1
330
0
100
AcDbSymbolTable
 70
    35
  0
BLOCK_RECORD
  5
6C
330
1
100
AcDbSymbolTableRecord
100
AcDbBlockTableRecord
  2
*Model_Space
340
6F
  0
BLOCK_RECORD
  5
68
330
1
100
AcDbSymbolTableRecord
100
AcDbBlockTableRecord
  2
*Paper_Space
340
6B
  0
BLOCK_RECORD
  5
70
330
1
100
AcDbSymbolTableRecord
100
AcDbBlockTableRecord
  2
*Paper_Space0
340
73
  0
BLOCK_RECORD
  5
98
330
1
100
AcDbSymbolTableRecord
100
AcDbBlockTableRecord
  2
Filled-1
340
0
  0
BLOCK_RECORD
  5
B4
330
1
100
AcDbSymbolTableRecord
100
AcDbBlockTableRecord
  2
_Closed
340
0
  0
BLOCK_RECORD
  5
BC
330
1
100
AcDbSymbolTableRecord
100
AcDbBlockTableRecord
  2
DatumFilled45
340
0
  0
BLOCK_RECORD
  5
C7
330
1
100
AcDbSymbolTableRecord
100
AcDbBlockTableRecord
  2
WIG-svařování DE
340
0
  0
BLOCK_RECORD
  5
CC
330
1
100
AcDbSymbolTableRecord
100
AcDbBlockTableRecord
  2
WIG-svařování EN
340
0
  0
BLOCK_RECORD
  5
D0
330
1
100
AcDbSymbolTableRecord
100
AcDbBlockTableRecord
  2
Popis kotvy_srouby DE
340
0
  0
BLOCK_RECORD
  5
D4
330
1
100
AcDbSymbolTableRecord
100
AcDbBlockTableRecord
  2
Popis kotvy_ šrouby EN
340
0
  0
BLOCK_RECORD
  5
D8
330
1
100
AcDbSymbolTableRecord
100
AcDbBlockTableRecord
  2
Tryskat DE
340
0
  0
BLOCK_RECORD
  5
DC
330
1
100
AcDbSymbolTableRecord
100
AcDbBlockTableRecord
  2
Tryskat EN
340
0
  0
BLOCK_RECORD
  5
E0
330
1
100
AcDbSymbolTableRecord
100
AcDbBlockTableRecord
  2
Mořit a pasivovat DE
340
0
  0
BLOCK_RECORD
  5
E4
330
1
100
AcDbSymbolTableRecord
100
AcDbBlockTableRecord
  2
Mořit a pasivovat EN
340
0
  0
BLOCK_RECORD
  5
E8
330
1
100
AcDbSymbolTableRecord
100
AcDbBlockTableRecord
  2
Žárově zinkovat DE
340
0
  0
BLOCK_RECORD
  5
EC
330
1
100
AcDbSymbolTableRecord
100
AcDbBlockTableRecord
  2
Žárově zinkovat EN
340
0
  0
BLOCK_RECORD
  5
F0
330
1
100
AcDbSymbolTableRecord
100
AcDbBlockTableRecord
  2
Brousit DE
340
0
  0
BLOCK_RECORD
  5
F4
330
1
100
AcDbSymbolTableRecord
100
AcDbBlockTableRecord
  2
Brousit EN
340
0
  0
BLOCK_RECORD
  5
F8
330
1
100
AcDbSymbolTableRecord
100
AcDbBlockTableRecord
  2
Elektrolyticky leštit DE
340
0
  0
BLOCK_RECORD
  5
FC
330
1
100
AcDbSymbolTableRecord
100
AcDbBlockTableRecord
  2
Elektrolyticky leštit EN
340
0
  0
BLOCK_RECORD
  5
100
330
1
100
AcDbSymbolTableRecord
100
AcDbBlockTableRecord
  2
Žlab bez spádu DE
340
0
  0
BLOCK_RECORD
  5
104
330
1
100
AcDbSymbolTableRecord
100
AcDbBlockTableRecord
  2
Žlab bez spádu EN
340
0
  0
BLOCK_RECORD
  5
108
330
1
100
AcDbSymbolTableRecord
100
AcDbBlockTableRecord
  2
Spád žlabu DE
340
0
  0
BLOCK_RECORD
  5
10C
330
1
100
AcDbSymbolTableRecord
100
AcDbBlockTableRecord
  2
Spád žlabu EN
340
0
  0
BLOCK_RECORD
  5
110
330
1
100
AcDbSymbolTableRecord
100
AcDbBlockTableRecord
  2
Kartáč + fólie DE
340
0
  0
BLOCK_RECORD
  5
114
330
1
100
AcDbSymbolTableRecord
100
AcDbBlockTableRecord
  2
Kartáč + fólie EN
340
0
  0
BLOCK_RECORD
  5
118
330
1
100
AcDbSymbolTableRecord
100
AcDbBlockTableRecord
  2
Komplet tryskat DE
340
0
  0
BLOCK_RECORD
  5
11C
330
1
100
AcDbSymbolTableRecord
100
AcDbBlockTableRecord
  2
Aschl Nirotec-tryskání
340
0
  0
BLOCK_RECORD
  5
120
330
1
100
AcDbSymbolTableRecord
100
AcDbBlockTableRecord
  2
Mater. provedeni Art.
340
0
  0
BLOCK_RECORD
  5
142
330
1
100
AcDbSymbolTableRecord
100
AcDbBlockTableRecord
  2
Art. s popisy
340
0
  0
BLOCK_RECORD
  5
164
330
1
100
AcDbSymbolTableRecord
100
AcDbBlockTableRecord
  2
Nátěr
340
0
  0
BLOCK_RECORD
  5
1FC
330
1
100
AcDbSymbolTableRecord
100
AcDbBlockTableRecord
  2
*D29
340
0
  0
BLOCK_RECORD
  5
2D2
330
1
100
AcDbSymbolTableRecord
100
AcDbBlockTableRecord
  2
*D30
340
0
  0
BLOCK_RECORD
  5
3A8
330
1
100
AcDbSymbolTableRecord
100
AcDbBlockTableRecord
  2
*D31
340
0
  0
BLOCK_RECORD
  5
47F
330
1
100
AcDbSymbolTableRecord
100
AcDbBlockTableRecord
  2
*D32
340
0
  0
BLOCK_RECORD
  5
55B
330
1
100
AcDbSymbolTableRecord
100
AcDbBlockTableRecord
  2
*D33
340
0
  0
BLOCK_RECORD
  5
631
330
1
100
AcDbSymbolTableRecord
100
AcDbBlockTableRecord
  2
*D34
340
0
  0
ENDTAB
  0
ENDSEC
  0
SECTION
  2
BLOCKS
  0
BLOCK
  5
6D
330
6C
100
AcDbEntity
  8
0
100
AcDbBlockBegin
  2
*Model_Space
 70
     0
 10
0.0
 20
0.0
 30
0.0
  3
*Model_Space
  1

  0
ENDBLK
  5
6E
330
6C
100
AcDbEntity
  8
0
100
AcDbBlockEnd
  0
BLOCK
  5
69
330
68
100
AcDbEntity
 67
     1
  8
0
100
AcDbBlockBegin
  2
*Paper_Space
 70
     0
 10
0.0
 20
0.0
 30
0.0
  3
*Paper_Space
  1

  0
ENDBLK
  5
6A
330
68
100
AcDbEntity
 67
     1
  8
0
100
AcDbBlockEnd
  0
BLOCK
  5
71
330
70
100
AcDbEntity
 67
     1
  8
0
100
AcDbBlockBegin
  2
*Paper_Space0
 70
     0
 10
0.0
 20
0.0
 30
0.0
  3
*Paper_Space0
  1

  0
ENDBLK
  5
72
330
70
100
AcDbEntity
 67
     1
  8
0
100
AcDbBlockEnd
  0
BLOCK
  5
99
330
98
100
AcDbEntity
  8
0
100
AcDbBlockBegin
  2
Filled-1
 70
     0
 10
0.0
 20
0.0
 30
0.0
  3
Filled-1
  1

  0
LINE
  5
9B
330
98
100
AcDbEntity
  8
0
 62
     0
100
AcDbLine
 10
-1.0
 20
0.0
 30
0.0
 11
0.0
 21
0.0
 31
0.0
  0
POLYLINE
  5
9D
330
98
100
AcDbEntity
  8
0
 62
     0
100
AcDb2dPolyline
 66
     1
 10
0.0
 20
0.0
 30
0.0
 70
   128
  0
VERTEX
  5
9E
330
9D
100
AcDbEntity
  8
0
 62
     0
100
AcDbVertex
100
AcDb2dVertex
 10
-1.0
 20
-0.1
 30
0.0
  0
VERTEX
  5
9F
330
9D
100
AcDbEntity
  8
0
 62
     0
100
AcDbVertex
100
AcDb2dVertex
 10
0.0
 20
0.0
 30
0.0
  0
VERTEX
  5
A1
330
9D
100
AcDbEntity
  8
0
 62
     0
100
AcDbVertex
100
AcDb2dVertex
 10
-1.0
 20
0.1
 30
0.0
  0
VERTEX
  5
A2
330
9D
100
AcDbEntity
  8
0
 62
     0
100
AcDbVertex
100
AcDb2dVertex
 10
-1.0
 20
-0.1
 30
0.0
  0
SEQEND
  5
A0
330
9D
100
AcDbEntity
  8
0
 62
     0
  0
SOLID
  5
A3
330
98
100
AcDbEntity
  8
0
 62
     0
100
AcDbTrace
 10
-1.0
 20
-0.1
 30
0.0
 11
0.0
 21
0.0
 31
0.0
 12
-1.0
 22
0.1
 32
0.0
 13
-1.0
 23
-0.1
 33
0.0
  0
LINE
  5
A4
330
98
100
AcDbEntity
  8
0
 62
     0
100
AcDbLine
 10
-1.0
 20
-0.1
 30
0.0
 11
0.0
 21
0.0
 31
0.0
  0
LINE
  5
A5
330
98
100
AcDbEntity
  8
0
 62
     0
100
AcDbLine
 10
0.0
 20
0.0
 30
0.0
 11
-1.0
 21
0.1
 31
0.0
  0
LINE
  5
A6
330
98
100
AcDbEntity
  8
0
 62
     0
100
AcDbLine
 10
-1.0
 20
0.1
 30
0.0
 11
-1.0
 21
-0.1
 31
0.0
  0
ENDBLK
  5
9A
330
98
100
AcDbEntity
  8
0
100
AcDbBlockEnd
  0
BLOCK
  5
B9
330
B4
100
AcDbEntity
  8
0
100
AcDbBlockBegin
  2
_Closed
 70
     0
 10
0.0
 20
0.0
 30
0.0
  3
_Closed
  1

  0
LINE
  5
B5
330
B4
100
AcDbEntity
  8
0
  6
ByBlock
 62
     0
370
    -2
100
AcDbLine
 10
-1.0
 20
0.1666666666666666
 30
0.0
 11
0.0
 21
0.0
 31
0.0
  0
LINE
  5
B6
330
B4
100
AcDbEntity
  8
0
  6
ByBlock
 62
     0
370
    -2
100
AcDbLine
 10
0.0
 20
0.0
 30
0.0
 11
-1.0
 21
-0.1666666666666666
 31
0.0
  0
LINE
  5
B7
330
B4
100
AcDbEntity
  8
0
  6
ByBlock
 62
     0
370
    -2
100
AcDbLine
 10
-1.0
 20
0.1666666666666666
 30
0.0
 11
-1.0
 21
-0.1666666666666666
 31
0.0
  0
LINE
  5
B8
330
B4
100
AcDbEntity
  8
0
  6
ByBlock
 62
     0
370
    -2
100
AcDbLine
 10
0.0
 20
0.0
 30
0.0
 11
-1.0
 21
0.0
 31
0.0
  0
ENDBLK
  5
BA
330
B4
100
AcDbEntity
  8
0
100
AcDbBlockEnd
  0
BLOCK
  5
BD
330
BC
100
AcDbEntity
  8
0
100
AcDbBlockBegin
  2
DatumFilled45
 70
     0
 10
0.0
 20
0.0
 30
0.0
  3
DatumFilled45
  1

  0
POLYLINE
  5
BF
330
BC
100
AcDbEntity
  8
0
 62
     0
100
AcDb2dPolyline
 66
     1
 10
0.0
 20
0.0
 30
0.0
 70
   128
  0
VERTEX
  5
C0
330
BF
100
AcDbEntity
  8
0
 62
     0
100
AcDbVertex
100
AcDb2dVertex
 10
0.0
 20
1.0
 30
0.0
  0
VERTEX
  5
C1
330
BF
100
AcDbEntity
  8
0
 62
     0
100
AcDbVertex
100
AcDb2dVertex
 10
0.0
 20
-1.0
 30
0.0
  0
VERTEX
  5
C3
330
BF
100
AcDbEntity
  8
0
 62
     0
100
AcDbVertex
100
AcDb2dVertex
 10
-1.0
 20
0.0
 30
0.0
  0
VERTEX
  5
C4
330
BF
100
AcDbEntity
  8
0
 62
     0
100
AcDbVertex
100
AcDb2dVertex
 10
0.0
 20
1.0
 30
0.0
  0
SEQEND
  5
C2
330
BF
100
AcDbEntity
  8
0
 62
     0
  0
SOLID
  5
C5
330
BC
100
AcDbEntity
  8
0
 62
     0
100
AcDbTrace
 10
0.0
 20
1.0
 30
0.0
 11
0.0
 21
-1.0
 31
0.0
 12
-1.0
 22
0.0
 32
0.0
 13
0.0
 23
1.0
 33
0.0
  0
ENDBLK
  5
BE
330
BC
100
AcDbEntity
  8
0
100
AcDbBlockEnd
  0
BLOCK
  5
C8
330
C7
100
AcDbEntity
  8
0
100
AcDbBlockBegin
  2
WIG-svařování DE
 70
     0
 10
0.0
 20
0.0
 30
0.0
  3
WIG-svařování DE
  1

  0
MTEXT
  5
CA
102
{ACAD_XDICTIONARY
360
74A
102
}
330
C7
100
AcDbEntity
  8
Značka (ISO)
100
AcDbMText
 10
-57.87338256835937
 20
16.43318336457014
 30
0.0
 40
3.499999940395355
 41
115.7467651367187
 71
     1
 72
     1
  3
WIG sva\U+0159ov\U+00E1n\U+00ED- svary dle pot\U+0159eby zabrousit.\PPohledov\U+00E9 plochy brousit (vel. brusn\U+00FDch zrn 240)\Pa polepit p\U+00E1skou.\P\PWIG Schweisung, Nahte sauber geschliffen und poliert\PSichtstege geschliffen mit 240 Korn un
  1
d abgeklebt.
  7
Text poznámky (ISO)
 73
     2
 44
0.9878841638565063
  0
ENDBLK
  5
C9
330
C7
100
AcDbEntity
  8
0
100
AcDbBlockEnd
  0
BLOCK
  5
CD
330
CC
100
AcDbEntity
  8
0
100
AcDbBlockBegin
  2
WIG-svařování EN
 70
     0
 10
0.0
 20
0.0
 30
0.0
  3
WIG-svařování EN
  1

  0
MTEXT
  5
CF
102
{ACAD_XDICTIONARY
360
74C
102
}
330
CC
100
AcDbEntity
  8
Značka (ISO)
100
AcDbMText
 10
-51.92564964294433
 20
16.42041999846697
 30
0.0
 40
3.499999940395355
 41
0.0
 71
     1
 72
     1
  1
WIG sva\U+0159ov\U+00E1n\U+00ED- svary dle pot\U+0159eby zabrousit.\PPohledov\U+00E9 plochy brousit (vel. brusn\U+00FDch zrn 240)\Pa polepit p\U+00E1skou.\P \PWIG welding - Visible sufaces to be grinded\Pand covered by protectiv foil.
  7
Text poznámky (ISO)
 73
     2
 44
0.9878841638565063
  0
ENDBLK
  5
CE
330
CC
100
AcDbEntity
  8
0
100
AcDbBlockEnd
  0
BLOCK
  5
D1
330
D0
100
AcDbEntity
  8
0
100
AcDbBlockBegin
  2
Popis kotvy_srouby DE
 70
     0
 10
0.0
 20
0.0
 30
0.0
  3
Popis kotvy_srouby DE
  1

  0
MTEXT
  5
D3
102
{ACAD_XDICTIONARY
360
74E
102
}
330
D0
100
AcDbEntity
  8
Značka (ISO)
100
AcDbMText
 10
-39.79761123657226
 20
21.64559781551361
 30
0.0
 40
3.499999940395355
 41
0.0
 71
     1
 72
     1
  1
Vzd\U+00E1lenost nivel. \U+0161roub\U+016F ca. 1500\PVzd\U+00E1lenost kotev ca. 400\PVzd\U+00E1lenost dist. kol\U+00EDk\U+016F ca. 250\P \PAbstand der Nivellieschraben ca.1500\PAbstand der Maueranker ca.400\PAbstand der Distanzstege ca.250\P 
  7
Text poznámky (ISO)
 73
     2
 44
0.9878841638565063
  0
ENDBLK
  5
D2
330
D0
100
AcDbEntity
  8
0
100
AcDbBlockEnd
  0
BLOCK
  5
D5
330
D4
100
AcDbEntity
  8
0
100
AcDbBlockBegin
  2
Popis kotvy_ šrouby EN
 70
     0
 10
0.0
 20
0.0
 30
0.0
  3
Popis kotvy_ šrouby EN
  1

  0
MTEXT
  5
D7
102
{ACAD_XDICTIONARY
360
750
102
}
330
D4
100
AcDbEntity
  8
Značka (ISO)
100
AcDbMText
 10
-35.70907592773437
 20
18.764269053936
 30
0.0
 40
3.499999940395355
 41
0.0
 71
     1
 72
     1
  1
Vzd\U+00E1lenost nivel. \U+0161roub\U+016F ca. 1500\PVzd\U+00E1lenost kotev ca. 400\P \PDistance of leveling feets ca.1500\PDistance of fixing tangs ca.400\P\P 
  7
Text poznámky (ISO)
 73
     2
 44
0.9878841638565063
  0
ENDBLK
  5
D6
330
D4
100
AcDbEntity
  8
0
100
AcDbBlockEnd
  0
BLOCK
  5
D9
330
D8
100
AcDbEntity
  8
0
100
AcDbBlockBegin
  2
Tryskat DE
 70
     0
 10
0.0
 20
0.0
 30
0.0
  3
Tryskat DE
  1

  0
MTEXT
  5
DB
330
D8
100
AcDbEntity
  8
Značka (ISO)
100
AcDbMText
 10
-18.86284470558166
 20
5.036920197308063
 30
0.0
 40
3.499999940395355
 41
0.0
 71
     1
 72
     1
  1
Tryskat \P(Glasperlstrahlen)
  7
Text poznámky (ISO)
 73
     2
 44
0.9878841638565063
  0
ENDBLK
  5
DA
330
D8
100
AcDbEntity
  8
0
100
AcDbBlockEnd
  0
BLOCK
  5
DD
330
DC
100
AcDbEntity
  8
0
100
AcDbBlockBegin
  2
Tryskat EN
 70
     0
 10
0.0
 20
0.0
 30
0.0
  3
Tryskat EN
  1

  0
MTEXT
  5
DF
330
DC
100
AcDbEntity
  8
Značka (ISO)
100
AcDbMText
 10
-9.551256299018859
 20
5.036920197308063
 30
0.0
 40
3.499999940395355
 41
0.0
 71
     1
 72
     1
  1
Tryskat\P(Blasted)
  7
Text poznámky (ISO)
 73
     2
 44
0.9878841638565063
  0
ENDBLK
  5
DE
330
DC
100
AcDbEntity
  8
0
100
AcDbBlockEnd
  0
BLOCK
  5
E1
330
E0
100
AcDbEntity
  8
0
100
AcDbBlockBegin
  2
Mořit a pasivovat DE
 70
     0
 10
0.0
 20
0.0
 30
0.0
  3
Mořit a pasivovat DE
  1

  0
MTEXT
  5
E3
102
{ACAD_XDICTIONARY
360
752
102
}
330
E0
100
AcDbEntity
  8
Značka (ISO)
100
AcDbMText
 10
-27.84258604049683
 20
4.895104952156543
 30
0.0
 40
3.499999940395355
 41
0.0
 71
     1
 72
     1
  1
Mo\U+0159it a pasivovat\P(Gebeitzt und passivieren)
  7
Text poznámky (ISO)
 73
     2
 44
0.9878841638565063
  0
ENDBLK
  5
E2
330
E0
100
AcDbEntity
  8
0
100
AcDbBlockEnd
  0
BLOCK
  5
E5
330
E4
100
AcDbEntity
  8
0
100
AcDbBlockBegin
  2
Mořit a pasivovat EN
 70
     0
 10
0.0
 20
0.0
 30
0.0
  3
Mořit a pasivovat EN
  1

  0
MTEXT
  5
E7
102
{ACAD_XDICTIONARY
360
754
102
}
330
E4
100
AcDbEntity
  8
Značka (ISO)
100
AcDbMText
 10
-24.44043874740601
 20
4.895104952156543
 30
0.0
 40
3.499999940395355
 41
0.0
 71
     1
 72
     1
  1
Mo\U+0159it a pasivovat\P(Pickled and passivate)
  7
Text poznámky (ISO)
 73
     2
 44
0.9878841638565063
  0
ENDBLK
  5
E6
330
E4
100
AcDbEntity
  8
0
100
AcDbBlockEnd
  0
BLOCK
  5
E9
330
E8
100
AcDbEntity
  8
0
100
AcDbBlockBegin
  2
Žárově zinkovat DE
 70
     0
 10
0.0
 20
0.0
 30
0.0
  3
Žárově zinkovat DE
  1

  0
MTEXT
  5
EB
102
{ACAD_XDICTIONARY
360
756
102
}
330
E8
100
AcDbEntity
  8
Značka (ISO)
100
AcDbMText
 10
-16.73277974128723
 20
4.456895925104618
 30
0.0
 40
3.499999940395355
 41
0.0
 71
     1
 72
     1
  1
\U+017D\U+00E1rov\U+011B zinkovat\P(Verzinkt )
  7
Text poznámky (ISO)
 73
     2
 44
0.9878841638565063
  0
ENDBLK
  5
EA
330
E8
100
AcDbEntity
  8
0
100
AcDbBlockEnd
  0
BLOCK
  5
ED
330
EC
100
AcDbEntity
  8
0
100
AcDbBlockBegin
  2
Žárově zinkovat EN
 70
     0
 10
0.0
 20
0.0
 30
0.0
  3
Žárově zinkovat EN
  1

  0
MTEXT
  5
EF
102
{ACAD_XDICTIONARY
360
758
102
}
330
EC
100
AcDbEntity
  8
Značka (ISO)
100
AcDbMText
 10
-20.24979829788208
 20
4.46965929120779
 30
0.0
 40
3.499999940395355
 41
0.0
 71
     1
 72
     1
  1
\U+017D\U+00E1rov\U+011B zinkovat\P(Hot-dip galvanize)
  7
Text poznámky (ISO)
 73
     2
 44
0.9878841638565063
  0
ENDBLK
  5
EE
330
EC
100
AcDbEntity
  8
0
100
AcDbBlockEnd
  0
BLOCK
  5
F1
330
F0
100
AcDbEntity
  8
0
100
AcDbBlockBegin
  2
Brousit DE
 70
     0
 10
0.0
 20
0.0
 30
0.0
  3
Brousit DE
  1

  0
MTEXT
  5
F3
330
F0
100
AcDbEntity
  8
Značka (ISO)
100
AcDbMText
 10
-12.2074556350708
 20
5.103573389351367
 30
0.0
 40
3.499999940395355
 41
0.0
 71
     1
 72
     1
  1
Brousit\P(Geburstet)
  7
Text poznámky (ISO)
 73
     2
 44
0.9878841638565063
  0
ENDBLK
  5
F2
330
F0
100
AcDbEntity
  8
0
100
AcDbBlockEnd
  0
BLOCK
  5
F5
330
F4
100
AcDbEntity
  8
0
100
AcDbBlockBegin
  2
Brousit EN
 70
     0
 10
0.0
 20
0.0
 30
0.0
  3
Brousit EN
  1

  0
MTEXT
  5
F7
330
F4
100
AcDbEntity
  8
Značka (ISO)
100
AcDbMText
 10
-10.48298239707946
 20
5.103573389351367
 30
0.0
 40
3.499999940395355
 41
0.0
 71
     1
 72
     1
  1
Brousit\P(Brushed)
  7
Text poznámky (ISO)
 73
     2
 44
0.9878841638565063
  0
ENDBLK
  5
F6
330
F4
100
AcDbEntity
  8
0
100
AcDbBlockEnd
  0
BLOCK
  5
F9
330
F8
100
AcDbEntity
  8
0
100
AcDbBlockBegin
  2
Elektrolyticky leštit DE
 70
     0
 10
0.0
 20
0.0
 30
0.0
  3
Elektrolyticky leštit DE
  1

  0
MTEXT
  5
FB
102
{ACAD_XDICTIONARY
360
75A
102
}
330
F8
100
AcDbEntity
  8
Značka (ISO)
100
AcDbMText
 10
-16.43071413040161
 20
4.895104952156543
 30
0.0
 40
3.499999940395355
 41
0.0
 71
     1
 72
     1
  1
Elektrolyt. le\U+0161tit\P(Elektr. poliert)
  7
Text poznámky (ISO)
 73
     2
 44
0.9878841638565063
  0
ENDBLK
  5
FA
330
F8
100
AcDbEntity
  8
0
100
AcDbBlockEnd
  0
BLOCK
  5
FD
330
FC
100
AcDbEntity
  8
0
100
AcDbBlockBegin
  2
Elektrolyticky leštit EN
 70
     0
 10
0.0
 20
0.0
 30
0.0
  3
Elektrolyticky leštit EN
  1

  0
MTEXT
  5
FF
102
{ACAD_XDICTIONARY
360
75C
102
}
330
FC
100
AcDbEntity
  8
Značka (ISO)
100
AcDbMText
 10
-18.02329897880554
 20
4.895104952156543
 30
0.0
 40
3.499999940395355
 41
0.0
 71
     1
 72
     1
  1
Elektrolyt. le\U+0161tit\P(Electr. polished)
  7
Text poznámky (ISO)
 73
     2
 44
0.9878841638565063
  0
ENDBLK
  5
FE
330
FC
100
AcDbEntity
  8
0
100
AcDbBlockEnd
  0
BLOCK
  5
101
330
100
100
AcDbEntity
  8
0
100
AcDbBlockBegin
  2
Žlab bez spádu DE
 70
     0
 10
0.0
 20
0.0
 30
0.0
  3
Žlab bez spádu DE
  1

  0
MTEXT
  5
103
102
{ACAD_XDICTIONARY
360
75E
102
}
330
100
100
AcDbEntity
  8
Značka (ISO)
100
AcDbMText
 10
-20.81989526748657
 20
4.010177932213991
 30
0.0
 40
3.499999940395355
 41
0.0
 71
     1
 72
     1
  1
\U+017Dlab bez sp\U+00E1du!\PRinne ohne Gef\U+00E4lle!
  7
Text poznámky (ISO)
 73
     2
 44
0.9878841638565063
  0
ENDBLK
  5
102
330
100
100
AcDbEntity
  8
0
100
AcDbBlockEnd
  0
BLOCK
  5
105
330
104
100
AcDbEntity
  8
0
100
AcDbBlockBegin
  2
Žlab bez spádu EN
 70
     0
 10
0.0
 20
0.0
 30
0.0
  3
Žlab bez spádu EN
  1

  0
MTEXT
  5
107
102
{ACAD_XDICTIONARY
360
760
102
}
330
104
100
AcDbEntity
  8
Značka (ISO)
100
AcDbMText
 10
-24.31422233581541
 20
4.456895925104618
 30
0.0
 40
3.499999940395355
 41
0.0
 71
     1
 72
     1
  1
\U+017Dlab bez sp\U+00E1du!\PChannel without slope!
  7
Text poznámky (ISO)
 73
     2
 44
0.9878841638565063
  0
ENDBLK
  5
106
330
104
100
AcDbEntity
  8
0
100
AcDbBlockEnd
  0
BLOCK
  5
109
330
108
100
AcDbEntity
  8
0
100
AcDbBlockBegin
  2
Spád žlabu DE
 70
     0
 10
0.0
 20
0.0
 30
0.0
  3
Spád žlabu DE
  1

  0
MTEXT
  5
10B
102
{ACAD_XDICTIONARY
360
762
102
}
330
108
100
AcDbEntity
  8
Značka (ISO)
100
AcDbMText
 10
-61.1847686767578
 20
16.61612506955862
 30
0.0
 40
3.499999940395355
 41
0.0
 71
     1
 72
     1
  1
POZOR:\PSp\U+00E1d \U+017Elabu je men\U+0161\U+00ED ne\U+017E 1% - nebezpe\U+010D\U+00ED vzniku prohlubn\U+00ED\Pse stojatou vodou.\PACHTUNG:\PDas Bodengef\U+00E4lle ist kleiner als 1%. Das Gefahr der\PSenkungsentstehung mit dem stehenden Wasser.
  7
Text poznámky (ISO)
 73
     2
 44
0.9878841638565063
  0
ENDBLK
  5
10A
330
108
100
AcDbEntity
  8
0
100
AcDbBlockEnd
  0
BLOCK
  5
10D
330
10C
100
AcDbEntity
  8
0
100
AcDbBlockBegin
  2
Spád žlabu EN
 70
     0
 10
0.0
 20
0.0
 30
0.0
  3
Spád žlabu EN
  1

  0
MTEXT
  5
10F
102
{ACAD_XDICTIONARY
360
764
102
}
330
10C
100
AcDbEntity
  8
Značka (ISO)
100
AcDbMText
 10
-61.1847686767578
 20
16.15664371056482
 30
0.0
 40
3.499999940395355
 41
0.0
 71
     1
 72
     1
  1
POZOR:\PSp\U+00E1d \U+017Elabu je men\U+0161\U+00ED ne\U+017E 1% - nebezpe\U+010D\U+00ED vzniku prohlubn\U+00ED\Pse stojatou vodou.\PAUTENTION:\PThe gradient of the bottom is minor then 1%.\PThat can be reason of slack water.
  7
Text poznámky (ISO)
 73
     2
 44
0.9878841638565063
  0
ENDBLK
  5
10E
330
10C
100
AcDbEntity
  8
0
100
AcDbBlockEnd
  0
BLOCK
  5
111
330
110
100
AcDbEntity
  8
0
100
AcDbBlockBegin
  2
Kartáč + fólie DE
 70
     0
 10
0.0
 20
0.0
 30
0.0
  3
Kartáč + fólie DE
  1

  0
MTEXT
  5
113
102
{ACAD_XDICTIONARY
360
766
102
}
330
110
100
AcDbEntity
  8
Značka (ISO)
100
AcDbMText
 10
-39.86001014709473
 20
4.448386959265917
 30
0.0
 40
3.499999940395355
 41
0.0
 71
     1
 72
     1
  1
Kart\U+00E1\U+010Dov\U+00E1no + folie\PGeburstet mit abziehbarer Schutzfolie
  7
Text poznámky (ISO)
 73
     2
 44
0.9878841638565063
  0
ENDBLK
  5
112
330
110
100
AcDbEntity
  8
0
100
AcDbBlockEnd
  0
BLOCK
  5
115
330
114
100
AcDbEntity
  8
0
100
AcDbBlockBegin
  2
Kartáč + fólie EN
 70
     0
 10
0.0
 20
0.0
 30
0.0
  3
Kartáč + fólie EN
  1

  0
MTEXT
  5
117
102
{ACAD_XDICTIONARY
360
768
102
}
330
114
100
AcDbEntity
  8
Značka (ISO)
100
AcDbMText
 10
-21.56442403793335
 20
4.895104952156543
 30
0.0
 40
3.499999940395355
 41
0.0
 71
     1
 72
     1
  1
Kart\U+00E1\U+010Dov\U+00E1no + f\U+00F3lie.\P(Brushed and foils) 
  7
Text poznámky (ISO)
 73
     2
 44
0.9878841638565063
  0
ENDBLK
  5
116
330
114
100
AcDbEntity
  8
0
100
AcDbBlockEnd
  0
BLOCK
  5
119
330
118
100
AcDbEntity
  8
0
100
AcDbBlockBegin
  2
Komplet tryskat DE
 70
     0
 10
0.0
 20
0.0
 30
0.0
  3
Komplet tryskat DE
  1

  0
MTEXT
  5
11B
330
118
100
AcDbEntity
  8
Značka (ISO)
100
AcDbMText
 10
-37.33711719512938
 20
7.475785464048385
 30
0.0
 40
3.499999940395355
 41
0.0
 71
     1
 72
     1
  1
KOMPLETT GLASPER GESTRAHLT !\PKOMPLET ZHORA TRYSKAT ! \P
  7
Text poznámky (ISO)
 73
     2
 44
0.9878841638565063
  0
ENDBLK
  5
11A
330
118
100
AcDbEntity
  8
0
100
AcDbBlockEnd
  0
BLOCK
  5
11D
330
11C
100
AcDbEntity
  8
0
100
AcDbBlockBegin
  2
Aschl Nirotec-tryskání
 70
     0
 10
0.0
 20
0.0
 30
0.0
  3
Aschl Nirotec-tryskání
  1

  0
MTEXT
  5
11F
102
{ACAD_XDICTIONARY
360
76A
102
}
330
11C
100
AcDbEntity
  8
Značka (ISO)
100
AcDbMText
 10
-58.85332584381103
 20
10.67052584141493
 30
0.0
 40
3.499999940395355
 41
0.0
 71
     1
 72
     1
  1
Povrchov\U+00E1 \U+00FAprava/Oberfl\U+00E4che:\PTryskat pouze vnit\U+0159ek \U+017Elabu, v\U+010Detn\U+011B pohledov\U+00FDch ploch!\PP\U+0159\U+00EDruby proti trysk\U+00E1n\U+00ED chr\U+00E1nit!\PFlansches per strahlung beh\U+00FCtent!
  7
Text poznámky (ISO)
 73
     2
 44
0.9878841638565063
  0
ENDBLK
  5
11E
330
11C
100
AcDbEntity
  8
0
100
AcDbBlockEnd
  0
BLOCK
  5
121
330
120
100
AcDbEntity
  8
0
100
AcDbBlockBegin
  2
Mater. provedeni Art.
 70
     0
 10
0.0
 20
0.0
 30
0.0
  3
Mater. provedeni Art.
  1

  0
LINE
  5
123
330
120
100
AcDbEntity
  8
Geometrie náčrtu (ISO)
100
AcDbLine
 10
-35.0
 20
-22.5
 30
0.0
 11
35.0
 21
-22.5
 31
0.0
  0
LINE
  5
124
330
120
100
AcDbEntity
  8
Geometrie náčrtu (ISO)
100
AcDbLine
 10
35.0
 20
-22.5
 30
0.0
 11
34.99999999999996
 21
-13.49999999999998
 31
0.0
  0
LINE
  5
125
330
120
100
AcDbEntity
  8
Geometrie náčrtu (ISO)
100
AcDbLine
 10
34.99999999999996
 20
-13.49999999999998
 30
0.0
 11
-35.00000000000003
 21
-13.49999999999998
 31
0.0
  0
LINE
  5
126
330
120
100
AcDbEntity
  8
Geometrie náčrtu (ISO)
100
AcDbLine
 10
-35.00000000000003
 20
-13.49999999999998
 30
0.0
 11
-35.0
 21
-22.5
 31
0.0
  0
LINE
  5
127
330
120
100
AcDbEntity
  8
Geometrie náčrtu (ISO)
100
AcDbLine
 10
-35.00000000000003
 20
-13.49999999999998
 30
0.0
 11
34.99999999999996
 21
-13.49999999999998
 31
0.0
  0
LINE
  5
128
330
120
100
AcDbEntity
  8
Geometrie náčrtu (ISO)
100
AcDbLine
 10
34.99999999999996
 20
-13.49999999999998
 30
0.0
 11
34.99999999999996
 21
-4.499999999999992
 31
0.0
  0
LINE
  5
129
330
120
100
AcDbEntity
  8
Geometrie náčrtu (ISO)
100
AcDbLine
 10
34.99999999999996
 20
-4.499999999999992
 30
0.0
 11
-35.00000000000003
 21
-4.499999999999992
 31
0.0
  0
LINE
  5
12A
330
120
100
AcDbEntity
  8
Geometrie náčrtu (ISO)
100
AcDbLine
 10
-35.00000000000003
 20
-4.499999999999992
 30
0.0
 11
-35.00000000000003
 21
-13.49999999999998
 31
0.0
  0
LINE
  5
12B
330
120
100
AcDbEntity
  8
Geometrie náčrtu (ISO)
100
AcDbLine
 10
-35.00000000000003
 20
-4.499999999999992
 30
0.0
 11
34.99999999999996
 21
-4.499999999999992
 31
0.0
  0
LINE
  5
12C
330
120
100
AcDbEntity
  8
Geometrie náčrtu (ISO)
100
AcDbLine
 10
34.99999999999996
 20
-4.499999999999992
 30
0.0
 11
34.99999999999996
 21
4.499999999999992
 31
0.0
  0
LINE
  5
12D
330
120
100
AcDbEntity
  8
Geometrie náčrtu (ISO)
100
AcDbLine
 10
34.99999999999996
 20
4.499999999999992
 30
0.0
 11
-35.00000000000003
 21
4.499999999999992
 31
0.0
  0
LINE
  5
12E
330
120
100
AcDbEntity
  8
Geometrie náčrtu (ISO)
100
AcDbLine
 10
-35.00000000000003
 20
4.499999999999992
 30
0.0
 11
-35.00000000000003
 21
-4.499999999999992
 31
0.0
  0
LINE
  5
12F
330
120
100
AcDbEntity
  8
Geometrie náčrtu (ISO)
100
AcDbLine
 10
-35.00000000000003
 20
4.499999999999992
 30
0.0
 11
34.99999999999996
 21
4.499999999999992
 31
0.0
  0
LINE
  5
130
330
120
100
AcDbEntity
  8
Geometrie náčrtu (ISO)
100
AcDbLine
 10
34.99999999999996
 20
4.499999999999992
 30
0.0
 11
34.99999999999996
 21
13.50000000000001
 31
0.0
  0
LINE
  5
131
330
120
100
AcDbEntity
  8
Geometrie náčrtu (ISO)
100
AcDbLine
 10
34.99999999999996
 20
13.50000000000001
 30
0.0
 11
-35.00000000000003
 21
13.50000000000001
 31
0.0
  0
LINE
  5
132
330
120
100
AcDbEntity
  8
Geometrie náčrtu (ISO)
100
AcDbLine
 10
-35.00000000000003
 20
13.50000000000001
 30
0.0
 11
-35.00000000000003
 21
4.499999999999992
 31
0.0
  0
LINE
  5
133
330
120
100
AcDbEntity
  8
Geometrie náčrtu (ISO)
100
AcDbLine
 10
-35.00000000000003
 20
13.50000000000001
 30
0.0
 11
34.99999999999996
 21
13.50000000000001
 31
0.0
  0
LINE
  5
134
330
120
100
AcDbEntity
  8
Geometrie náčrtu (ISO)
100
AcDbLine
 10
34.99999999999996
 20
13.50000000000001
 30
0.0
 11
34.99999999999996
 21
22.5
 31
0.0
  0
LINE
  5
135
330
120
100
AcDbEntity
  8
Geometrie náčrtu (ISO)
100
AcDbLine
 10
34.99999999999996
 20
22.5
 30
0.0
 11
-35.00000000000003
 21
22.5
 31
0.0
  0
LINE
  5
136
330
120
100
AcDbEntity
  8
Geometrie náčrtu (ISO)
100
AcDbLine
 10
-35.00000000000003
 20
22.5
 30
0.0
 11
-35.00000000000003
 21
13.50000000000001
 31
0.0
  0
LINE
  5
137
330
120
100
AcDbEntity
  8
Geometrie náčrtu (ISO)
100
AcDbLine
 10
-6.999999999999992
 20
22.5
 30
0.0
 11
-6.999999999999992
 21
-22.5
 31
0.0
  0
MTEXT
  5
138
330
120
100
AcDbEntity
  8
Značka (ISO)
100
AcDbMText
 10
-5.126613448311374
 20
11.7684641726084
 30
0.0
 40
5.0
 41
0.0
 71
     1
 72
     1
  1
\fTahoma|b0|i0;\H5.0000;xxxxxxxxxxx
  7
Text poznámky (ISO)
 73
     1
 44
1.0
  0
MTEXT
  5
139
330
120
100
AcDbEntity
  8
Značka (ISO)
100
AcDbMText
 10
-33.0130165251342
 20
11.7684641726084
 30
0.0
 40
5.0
 41
20.42139291763306
 71
     1
 72
     1
  1
\fTahoma|b0|i0;\H5.0000;xxxxxx
  7
Text poznámky (ISO)
 73
     1
 44
1.0
  0
MTEXT
  5
13A
330
120
100
AcDbEntity
  8
Značka (ISO)
100
AcDbMText
 10
-32.07756235018873
 20
20.30710993714994
 30
0.0
 40
5.0
 41
13.92583036716939
 71
     1
 72
     1
  1
\fTahoma|b0|i0;\H5.0000;Art.
  7
Text poznámky (ISO)
 73
     1
 44
1.0
  0
MTEXT
  5
13B
330
120
100
AcDbEntity
  8
Značka (ISO)
100
AcDbMText
 10
4.291672002492319
 20
20.30710993714994
 30
0.0
 40
5.0
 41
0.0
 71
     1
 72
     1
  1
\fTahoma|b0|i0;\H5.0000;Mat.
  7
Text poznámky (ISO)
 73
     1
 44
1.0
  0
MTEXT
  5
13C
330
120
100
AcDbEntity
  8
Značka (ISO)
100
AcDbMText
 10
-33.0130165251342
 20
2.473781856899819
 30
0.0
 40
5.0
 41
20.42139291763306
 71
     1
 72
     1
  1
\fTahoma|b0|i0;\H5.0000;xxxxxx
  7
Text poznámky (ISO)
 73
     1
 44
1.0
  0
MTEXT
  5
13D
330
120
100
AcDbEntity
  8
Značka (ISO)
100
AcDbMText
 10
-5.126613448311374
 20
2.473781856899819
 30
0.0
 40
5.0
 41
0.0
 71
     1
 72
     1
  1
\fTahoma|b0|i0;\H5.0000;xxxxxxxxxxx
  7
Text poznámky (ISO)
 73
     1
 44
1.0
  0
MTEXT
  5
13E
330
120
100
AcDbEntity
  8
Značka (ISO)
100
AcDbMText
 10
-33.0130165251342
 20
-6.862452441171491
 30
0.0
 40
5.0
 41
20.42139291763306
 71
     1
 72
     1
  1
\fTahoma|b0|i0;\H5.0000;xxxxxx
  7
Text poznámky (ISO)
 73
     1
 44
1.0
  0
MTEXT
  5
13F
330
120
100
AcDbEntity
  8
Značka (ISO)
100
AcDbMText
 10
-5.126613448311374
 20
-6.862452441171491
 30
0.0
 40
5.0
 41
0.0
 71
     1
 72
     1
  1
\fTahoma|b0|i0;\H5.0000;xxxxxxxxxxx
  7
Text poznámky (ISO)
 73
     1
 44
1.0
  0
MTEXT
  5
140
330
120
100
AcDbEntity
  8
Značka (ISO)
100
AcDbMText
 10
-33.0130165251342
 20
-15.52177565039578
 30
0.0
 40
5.0
 41
20.42139291763306
 71
     1
 72
     1
  1
\fTahoma|b0|i0;\H5.0000;xxxxxx
  7
Text poznámky (ISO)
 73
     1
 44
1.0
  0
MTEXT
  5
141
330
120
100
AcDbEntity
  8
Značka (ISO)
100
AcDbMText
 10
-5.126613448311374
 20
-15.52177565039578
 30
0.0
 40
5.0
 41
0.0
 71
     1
 72
     1
  1
\fTahoma|b0|i0;\H5.0000;xxxxxxxxxxx
  7
Text poznámky (ISO)
 73
     1
 44
1.0
  0
ENDBLK
  5
122
330
120
100
AcDbEntity
  8
0
100
AcDbBlockEnd
  0
BLOCK
  5
143
330
142
100
AcDbEntity
  8
0
100
AcDbBlockBegin
  2
Art. s popisy
 70
     0
 10
0.0
 20
0.0
 30
0.0
  3
Art. s popisy
  1

  0
LINE
  5
145
330
142
100
AcDbEntity
  8
Geometrie náčrtu (ISO)
100
AcDbLine
 10
-60.00000000000081
 20
-22.5
 30
0.0
 11
59.99999999999911
 21
-22.5
 31
0.0
  0
LINE
  5
146
330
142
100
AcDbEntity
  8
Geometrie náčrtu (ISO)
100
AcDbLine
 10
59.99999999999911
 20
-22.5
 30
0.0
 11
60.00000000000081
 21
-13.50000000000001
 31
0.0
  0
LINE
  5
147
330
142
100
AcDbEntity
  8
Geometrie náčrtu (ISO)
100
AcDbLine
 10
60.00000000000081
 20
-13.50000000000001
 30
0.0
 11
-60.00000000000081
 21
-13.49999999999998
 31
0.0
  0
LINE
  5
148
330
142
100
AcDbEntity
  8
Geometrie náčrtu (ISO)
100
AcDbLine
 10
-60.00000000000081
 20
-13.49999999999998
 30
0.0
 11
-60.00000000000081
 21
-22.5
 31
0.0
  0
LINE
  5
149
330
142
100
AcDbEntity
  8
Geometrie náčrtu (ISO)
100
AcDbLine
 10
-60.00000000000081
 20
-13.49999999999998
 30
0.0
 11
60.00000000000081
 21
-13.50000000000001
 31
0.0
  0
LINE
  5
14A
330
142
100
AcDbEntity
  8
Geometrie náčrtu (ISO)
100
AcDbLine
 10
60.00000000000081
 20
-13.50000000000001
 30
0.0
 11
59.99999999999911
 21
-4.500000000000028
 31
0.0
  0
LINE
  5
14B
330
142
100
AcDbEntity
  8
Geometrie náčrtu (ISO)
100
AcDbLine
 10
59.99999999999911
 20
-4.500000000000028
 30
0.0
 11
-60.00000000000081
 21
-4.499999999999992
 31
0.0
  0
LINE
  5
14C
330
142
100
AcDbEntity
  8
Geometrie náčrtu (ISO)
100
AcDbLine
 10
-60.00000000000081
 20
-4.499999999999992
 30
0.0
 11
-60.00000000000081
 21
-13.49999999999998
 31
0.0
  0
LINE
  5
14D
330
142
100
AcDbEntity
  8
Geometrie náčrtu (ISO)
100
AcDbLine
 10
-60.00000000000081
 20
-4.499999999999992
 30
0.0
 11
59.99999999999911
 21
-4.500000000000028
 31
0.0
  0
LINE
  5
14E
330
142
100
AcDbEntity
  8
Geometrie náčrtu (ISO)
100
AcDbLine
 10
59.99999999999911
 20
-4.500000000000028
 30
0.0
 11
59.99999999999911
 21
4.499999999999957
 31
0.0
  0
LINE
  5
14F
330
142
100
AcDbEntity
  8
Geometrie náčrtu (ISO)
100
AcDbLine
 10
59.99999999999911
 20
4.499999999999957
 30
0.0
 11
-60.00000000000081
 21
4.499999999999992
 31
0.0
  0
LINE
  5
150
330
142
100
AcDbEntity
  8
Geometrie náčrtu (ISO)
100
AcDbLine
 10
-60.00000000000081
 20
4.499999999999992
 30
0.0
 11
-60.00000000000081
 21
-4.499999999999992
 31
0.0
  0
LINE
  5
151
330
142
100
AcDbEntity
  8
Geometrie náčrtu (ISO)
100
AcDbLine
 10
-60.00000000000081
 20
4.499999999999992
 30
0.0
 11
59.99999999999911
 21
4.499999999999957
 31
0.0
  0
LINE
  5
152
330
142
100
AcDbEntity
  8
Geometrie náčrtu (ISO)
100
AcDbLine
 10
59.99999999999911
 20
4.499999999999957
 30
0.0
 11
59.99999999999911
 21
13.49999999999998
 31
0.0
  0
LINE
  5
153
330
142
100
AcDbEntity
  8
Geometrie náčrtu (ISO)
100
AcDbLine
 10
59.99999999999911
 20
13.49999999999998
 30
0.0
 11
-60.00000000000081
 21
13.50000000000001
 31
0.0
  0
LINE
  5
154
330
142
100
AcDbEntity
  8
Geometrie náčrtu (ISO)
100
AcDbLine
 10
-60.00000000000081
 20
13.50000000000001
 30
0.0
 11
-60.00000000000081
 21
4.499999999999992
 31
0.0
  0
LINE
  5
155
330
142
100
AcDbEntity
  8
Geometrie náčrtu (ISO)
100
AcDbLine
 10
-60.00000000000081
 20
13.50000000000001
 30
0.0
 11
59.99999999999911
 21
13.49999999999998
 31
0.0
  0
LINE
  5
156
330
142
100
AcDbEntity
  8
Geometrie náčrtu (ISO)
100
AcDbLine
 10
59.99999999999911
 20
13.49999999999998
 30
0.0
 11
59.99999999999911
 21
22.49999999999996
 31
0.0
  0
LINE
  5
157
330
142
100
AcDbEntity
  8
Geometrie náčrtu (ISO)
100
AcDbLine
 10
59.99999999999911
 20
22.49999999999996
 30
0.0
 11
-60.00000000000081
 21
22.5
 31
0.0
  0
LINE
  5
158
330
142
100
AcDbEntity
  8
Geometrie náčrtu (ISO)
100
AcDbLine
 10
-60.00000000000081
 20
22.5
 30
0.0
 11
-60.00000000000081
 21
13.50000000000001
 31
0.0
  0
LINE
  5
159
330
142
100
AcDbEntity
  8
Geometrie náčrtu (ISO)
100
AcDbLine
 10
-32.00000000000081
 20
22.5
 30
0.0
 11
-32.00000000000081
 21
-22.5
 31
0.0
  0
MTEXT
  5
15A
330
142
100
AcDbEntity
  8
Značka (ISO)
100
AcDbMText
 10
-27.63552601875791
 20
11.7684641726084
 30
0.0
 40
5.0
 41
0.0
 71
     1
 72
     1
  1
\fTahoma|b0|i0;\H5.0000;xxxxxxxxxxx
  7
Text poznámky (ISO)
 73
     1
 44
1.0
  0
MTEXT
  5
15B
330
142
100
AcDbEntity
  8
Značka (ISO)
100
AcDbMText
 10
-55.52192909558073
 20
11.7684641726084
 30
0.0
 40
5.0
 41
20.42139291763306
 71
     1
 72
     1
  1
\fTahoma|b0|i0;\H5.0000;xxxxxx
  7
Text poznámky (ISO)
 73
     1
 44
1.0
  0
MTEXT
  5
15C
330
142
100
AcDbEntity
  8
Značka (ISO)
100
AcDbMText
 10
-54.58647492063526
 20
20.30710993714994
 30
0.0
 40
5.0
 41
13.92583036716939
 71
     1
 72
     1
  1
\fTahoma|b0|i0;\H5.0000;Art.
  7
Text poznámky (ISO)
 73
     1
 44
1.0
  0
MTEXT
  5
15D
330
142
100
AcDbEntity
  8
Značka (ISO)
100
AcDbMText
 10
-18.21724056795421
 20
20.30710993714994
 30
0.0
 40
5.0
 41
0.0
 71
     1
 72
     1
  1
\fTahoma|b0|i0;\H5.0000;Popis.
  7
Text poznámky (ISO)
 73
     1
 44
1.0
  0
MTEXT
  5
15E
330
142
100
AcDbEntity
  8
Značka (ISO)
100
AcDbMText
 10
-55.52192909558073
 20
2.473781856899819
 30
0.0
 40
5.0
 41
20.42139291763306
 71
     1
 72
     1
  1
\fTahoma|b0|i0;\H5.0000;xxxxxx
  7
Text poznámky (ISO)
 73
     1
 44
1.0
  0
MTEXT
  5
15F
330
142
100
AcDbEntity
  8
Značka (ISO)
100
AcDbMText
 10
-27.63552601875791
 20
2.473781856899819
 30
0.0
 40
5.0
 41
0.0
 71
     1
 72
     1
  1
\fTahoma|b0|i0;\H5.0000;xxxxxxxxxxx
  7
Text poznámky (ISO)
 73
     1
 44
1.0
  0
MTEXT
  5
160
330
142
100
AcDbEntity
  8
Značka (ISO)
100
AcDbMText
 10
-55.52192909558073
 20
-6.862452441171491
 30
0.0
 40
5.0
 41
20.42139291763306
 71
     1
 72
     1
  1
\fTahoma|b0|i0;\H5.0000;xxxxxx
  7
Text poznámky (ISO)
 73
     1
 44
1.0
  0
MTEXT
  5
161
330
142
100
AcDbEntity
  8
Značka (ISO)
100
AcDbMText
 10
-27.63552601875791
 20
-6.862452441171491
 30
0.0
 40
5.0
 41
0.0
 71
     1
 72
     1
  1
\fTahoma|b0|i0;\H5.0000;xxxxxxxxxxx
  7
Text poznámky (ISO)
 73
     1
 44
1.0
  0
MTEXT
  5
162
330
142
100
AcDbEntity
  8
Značka (ISO)
100
AcDbMText
 10
-55.52192909558073
 20
-15.52177565039578
 30
0.0
 40
5.0
 41
20.42139291763306
 71
     1
 72
     1
  1
\fTahoma|b0|i0;\H5.0000;xxxxxx
  7
Text poznámky (ISO)
 73
     1
 44
1.0
  0
MTEXT
  5
163
330
142
100
AcDbEntity
  8
Značka (ISO)
100
AcDbMText
 10
-27.63552601875791
 20
-15.52177565039578
 30
0.0
 40
5.0
 41
0.0
 71
     1
 72
     1
  1
\fTahoma|b0|i0;\H5.0000;xxxxxxxxxxx
  7
Text poznámky (ISO)
 73
     1
 44
1.0
  0
ENDBLK
  5
144
330
142
100
AcDbEntity
  8
0
100
AcDbBlockEnd
  0
BLOCK
  5
165
330
164
100
AcDbEntity
  8
0
100
AcDbBlockBegin
  2
Nátěr
 70
     0
 10
0.0
 20
0.0
 30
0.0
  3
Nátěr
  1

  0
MTEXT
  5
167
330
164
100
AcDbEntity
  8
Značka (ISO)
100
AcDbMText
 10
-25.88411808013916
 20
1.864870421122759
 30
0.0
 40
3.499999940395355
 41
0.0
 71
     1
 72
     1
  1
Lackiert Farbe RAL 5002
  7
Text poznámky (ISO)
 73
     1
 44
1.0
  0
ENDBLK
  5
166
330
164
100
AcDbEntity
  8
0
100
AcDbBlockEnd
  0
BLOCK
  5
1FD
330
1FC
100
AcDbEntity
  8
0
100
AcDbBlockBegin
  2
*D29
 70
     1
 10
0.0
 20
0.0
 30
0.0
  3
*D29
  1

  0
LINE
  5
2C8
330
1FC
100
AcDbEntity
  8
Kóta (ISO)
440
 16777216
100
AcDbLine
 10
52.6443245579211
 20
198.2423677056569
 30
0.0
 11
29.14432455792114
 21
198.2423677056569
 31
0.0
  0
LINE
  5
2C9
330
1FC
100
AcDbEntity
  8
Kóta (ISO)
440
 16777216
100
AcDbLine
 10
79.50237670550947
 20
48.24236770565683
 30
0.0
 11
29.14432455792111
 21
48.24236770565684
 31
0.0
  0
LINE
  5
2CA
330
1FC
100
AcDbEntity
  8
Kóta (ISO)
440
 16777216
100
AcDbLine
 10
29.64432455792114
 20
196.9923677056569
 30
0.0
 11
29.64432455792111
 21
49.49236770565684
 31
0.0
  0
SOLID
  5
2CB
330
1FC
100
AcDbEntity
  8
Kóta (ISO)
440
 16777216
100
AcDbTrace
 10
29.43599122458781
 20
196.9923677056569
 30
0.0
 11
29.85265789125447
 21
196.9923677056569
 31
0.0
 12
29.64432455792114
 22
198.2423677056569
 32
0.0
 13
29.64432455792114
 23
198.2423677056569
 33
0.0
  0
SOLID
  5
2CC
330
1FC
100
AcDbEntity
  8
Kóta (ISO)
440
 16777216
100
AcDbTrace
 10
29.43599122458778
 20
49.49236770565684
 30
0.0
 11
29.85265789125444
 21
49.49236770565684
 31
0.0
 12
29.64432455792111
 22
48.24236770565684
 32
0.0
 13
29.64432455792111
 23
48.24236770565684
 33
0.0
  0
MTEXT
  5
2CD
330
1FC
100
AcDbEntity
  8
Kóta (ISO)
440
 16777216
100
AcDbMText
 10
26.53078595905502
 20
123.2423677056569
 30
0.0
 40
2.625
 41
0.0
 71
     2
 72
     1
  1
\A1;150
  7
Text popisu (ISO)
 11
0.0000000000000001
 21
1.0
 31
0.0
 73
     1
 44
1.0
  0
POINT
  5
2CE
330
1FC
100
AcDbEntity
  8
Defpoints
 62
     0
440
 16777216
100
AcDbPoint
 10
52.6443245579211
 20
198.2423677056569
 30
0.0
  0
POINT
  5
2CF
330
1FC
100
AcDbEntity
  8
Defpoints
 62
     0
440
 16777216
100
AcDbPoint
 10
79.50237670550947
 20
48.24236770565683
 30
0.0
  0
POINT
  5
2D0
330
1FC
100
AcDbEntity
  8
Defpoints
 62
     0
440
 16777216
100
AcDbPoint
 10
29.64432455792111
 20
48.24236770565684
 30
0.0
  0
ENDBLK
  5
1FE
330
1FC
100
AcDbEntity
  8
0
100
AcDbBlockEnd
  0
BLOCK
  5
2D3
330
2D2
100
AcDbEntity
  8
0
100
AcDbBlockBegin
  2
*D30
 70
     1
 10
0.0
 20
0.0
 30
0.0
  3
*D30
  1

  0
LINE
  5
39E
330
2D2
100
AcDbEntity
  8
Kóta (ISO)
440
 16777216
100
AcDbLine
 10
101.7197247796258
 20
313.3423677056569
 30
0.0
 11
32.49786001373724
 21
313.3423677056569
 31
0.0
  0
LINE
  5
39F
330
2D2
100
AcDbEntity
  8
Kóta (ISO)
440
 16777216
100
AcDbLine
 10
151.7197247796258
 20
235.3423677056564
 30
0.0
 11
32.49786001373722
 21
235.3423677056565
 31
0.0
  0
LINE
  5
3A0
330
2D2
100
AcDbEntity
  8
Kóta (ISO)
440
 16777216
100
AcDbLine
 10
32.99786001373724
 20
312.0923677056569
 30
0.0
 11
32.99786001373722
 21
236.5923677056565
 31
0.0
  0
SOLID
  5
3A1
330
2D2
100
AcDbEntity
  8
Kóta (ISO)
440
 16777216
100
AcDbTrace
 10
32.7895266804039
 20
312.0923677056569
 30
0.0
 11
33.20619334707057
 21
312.0923677056569
 31
0.0
 12
32.99786001373724
 22
313.3423677056569
 32
0.0
 13
32.99786001373724
 23
313.3423677056569
 33
0.0
  0
SOLID
  5
3A2
330
2D2
100
AcDbEntity
  8
Kóta (ISO)
440
 16777216
100
AcDbTrace
 10
32.78952668040388
 20
236.5923677056565
 30
0.0
 11
33.20619334707056
 21
236.5923677056565
 31
0.0
 12
32.99786001373722
 22
235.3423677056565
 32
0.0
 13
32.99786001373722
 23
235.3423677056565
 33
0.0
  0
MTEXT
  5
3A3
330
2D2
100
AcDbEntity
  8
Kóta (ISO)
440
 16777216
100
AcDbMText
 10
29.871980917973
 20
274.3423677056567
 30
0.0
 40
2.625
 41
0.0
 71
     2
 72
     1
  1
\A1;78
  7
Text popisu (ISO)
 11
0.0000000000000001
 21
1.0
 31
0.0
 73
     1
 44
1.0
  0
POINT
  5
3A4
330
2D2
100
AcDbEntity
  8
Defpoints
 62
     0
440
 16777216
100
AcDbPoint
 10
101.7197247796258
 20
313.3423677056569
 30
0.0
  0
POINT
  5
3A5
330
2D2
100
AcDbEntity
  8
Defpoints
 62
     0
440
 16777216
100
AcDbPoint
 10
151.7197247796258
 20
235.3423677056564
 30
0.0
  0
POINT
  5
3A6
330
2D2
100
AcDbEntity
  8
Defpoints
 62
     0
440
 16777216
100
AcDbPoint
 10
32.99786001373722
 20
235.3423677056565
 30
0.0
  0
ENDBLK
  5
2D4
330
2D2
100
AcDbEntity
  8
0
100
AcDbBlockEnd
  0
BLOCK
  5
3A9
330
3A8
100
AcDbEntity
  8
0
100
AcDbBlockBegin
  2
*D31
 70
     1
 10
0.0
 20
0.0
 30
0.0
  3
*D31
  1

  0
LINE
  5
475
330
3A8
100
AcDbEntity
  8
Kóta (ISO)
440
 16777216
100
AcDbLine
 10
201.7197247796258
 20
313.3423677056569
 30
0.0
 11
201.7197247796258
 21
327.8423677056569
 31
0.0
  0
LINE
  5
476
330
3A8
100
AcDbEntity
  8
Kóta (ISO)
440
 16777216
100
AcDbLine
 10
101.7197247796258
 20
313.3423677056569
 30
0.0
 11
101.7197247796258
 21
327.8423677056569
 31
0.0
  0
LINE
  5
477
330
3A8
100
AcDbEntity
  8
Kóta (ISO)
440
 16777216
100
AcDbLine
 10
200.4697247796258
 20
327.3423677056569
 30
0.0
 11
102.9697247796258
 21
327.3423677056569
 31
0.0
  0
SOLID
  5
478
330
3A8
100
AcDbEntity
  8
Kóta (ISO)
440
 16777216
100
AcDbTrace
 10
200.4697247796258
 20
327.5507010389902
 30
0.0
 11
200.4697247796258
 21
327.1340343723236
 31
0.0
 12
201.7197247796258
 22
327.3423677056569
 32
0.0
 13
201.7197247796258
 23
327.3423677056569
 33
0.0
  0
SOLID
  5
479
330
3A8
100
AcDbEntity
  8
Kóta (ISO)
440
 16777216
100
AcDbTrace
 10
102.9697247796258
 20
327.5507010389902
 30
0.0
 11
102.9697247796258
 21
327.1340343723236
 31
0.0
 12
101.7197247796258
 22
327.3423677056569
 32
0.0
 13
101.7197247796258
 23
327.3423677056569
 33
0.0
  0
MTEXT
  5
47A
330
3A8
100
AcDbEntity
  8
Kóta (ISO)
440
 16777216
100
AcDbMText
 10
151.7197247796258
 20
331.6729405353175
 30
0.0
 40
2.625
 41
0.0
 71
     2
 72
     1
  1
\A1;{\fAIGDT|b0|i0;\H2.6250;\ln\fTahoma|b0|i0;\H2.6250;}100
  7
Text popisu (ISO)
 73
     1
 44
1.0
  0
POINT
  5
47B
330
3A8
100
AcDbEntity
  8
Defpoints
 62
     0
440
 16777216
100
AcDbPoint
 10
201.7197247796258
 20
313.3423677056569
 30
0.0
  0
POINT
  5
47C
330
3A8
100
AcDbEntity
  8
Defpoints
 62
     0
440
 16777216
100
AcDbPoint
 10
101.7197247796258
 20
313.3423677056569
 30
0.0
  0
POINT
  5
47D
330
3A8
100
AcDbEntity
  8
Defpoints
 62
     0
440
 16777216
100
AcDbPoint
 10
101.7197247796258
 20
327.3423677056569
 30
0.0
  0
ENDBLK
  5
3AA
330
3A8
100
AcDbEntity
  8
0
100
AcDbBlockEnd
  0
BLOCK
  5
480
330
47F
100
AcDbEntity
  8
0
100
AcDbBlockBegin
  2
*D32
 70
     1
 10
0.0
 20
0.0
 30
0.0
  3
*D32
  1

  0
LINE
  5
551
330
47F
100
AcDbEntity
  8
Kóta (ISO)
440
 16777216
100
AcDbLine
 10
80.5197247796258
 20
378.2423677056569
 30
0.0
 11
41.24569751797857
 21
378.2423677056569
 31
0.0
  0
LINE
  5
552
330
47F
100
AcDbEntity
  8
Kóta (ISO)
440
 16777216
100
AcDbLine
 10
80.51972477962578
 20
351.7423677056569
 30
0.0
 11
41.24569751797856
 21
351.7423677056569
 31
0.0
  0
LINE
  5
553
330
47F
100
AcDbEntity
  8
Kóta (ISO)
440
 16777216
100
AcDbLine
 10
41.74569751797856
 20
376.9923677056569
 30
0.0
 11
41.74569751797856
 21
352.9923677056569
 31
0.0
  0
SOLID
  5
554
330
47F
100
AcDbEntity
  8
Kóta (ISO)
440
 16777216
100
AcDbTrace
 10
41.53736418464523
 20
376.9923677056569
 30
0.0
 11
41.9540308513119
 21
376.9923677056569
 31
0.0
 12
41.74569751797856
 22
378.2423677056569
 32
0.0
 13
41.74569751797856
 23
378.2423677056569
 33
0.0
  0
SOLID
  5
555
330
47F
100
AcDbEntity
  8
Kóta (ISO)
440
 16777216
100
AcDbTrace
 10
41.53736418464522
 20
352.9923677056569
 30
0.0
 11
41.95403085131189
 21
352.9923677056569
 31
0.0
 12
41.74569751797856
 22
351.7423677056569
 32
0.0
 13
41.74569751797856
 23
351.7423677056569
 33
0.0
  0
MTEXT
  5
556
330
47F
100
AcDbEntity
  8
Kóta (ISO)
440
 16777216
100
AcDbMText
 10
38.03276335549018
 20
364.9923677056569
 30
0.0
 40
2.625
 41
0.0
 71
     2
 72
     1
  1
\A1;26,5
  7
Text popisu (ISO)
 11
0.0000000000000001
 21
1.0
 31
0.0
 73
     1
 44
1.0
  0
POINT
  5
557
330
47F
100
AcDbEntity
  8
Defpoints
 62
     0
440
 16777216
100
AcDbPoint
 10
80.5197247796258
 20
378.2423677056569
 30
0.0
  0
POINT
  5
558
330
47F
100
AcDbEntity
  8
Defpoints
 62
     0
440
 16777216
100
AcDbPoint
 10
80.51972477962578
 20
351.7423677056569
 30
0.0
  0
POINT
  5
559
330
47F
100
AcDbEntity
  8
Defpoints
 62
     0
440
 16777216
100
AcDbPoint
 10
41.74569751797856
 20
351.7423677056569
 30
0.0
  0
ENDBLK
  5
481
330
47F
100
AcDbEntity
  8
0
100
AcDbBlockEnd
  0
BLOCK
  5
55C
330
55B
100
AcDbEntity
  8
0
100
AcDbBlockBegin
  2
*D33
 70
     1
 10
0.0
 20
0.0
 30
0.0
  3
*D33
  1

  0
LINE
  5
627
330
55B
100
AcDbEntity
  8
Kóta (ISO)
440
 16777216
100
AcDbLine
 10
80.51972477962578
 20
375.2423677056569
 30
0.0
 11
80.51972477962578
 21
396.3190502683059
 31
0.0
  0
LINE
  5
628
330
55B
100
AcDbEntity
  8
Kóta (ISO)
440
 16777216
100
AcDbLine
 10
222.9197247796258
 20
375.2423677056569
 30
0.0
 11
222.9197247796258
 21
396.3190502683059
 31
0.0
  0
LINE
  5
629
330
55B
100
AcDbEntity
  8
Kóta (ISO)
440
 16777216
100
AcDbLine
 10
81.76972477962578
 20
395.8190502683059
 30
0.0
 11
221.6697247796258
 21
395.8190502683059
 31
0.0
  0
SOLID
  5
62A
330
55B
100
AcDbEntity
  8
Kóta (ISO)
440
 16777216
100
AcDbTrace
 10
81.76972477962578
 20
396.0273836016392
 30
0.0
 11
81.76972477962578
 21
395.6107169349726
 31
0.0
 12
80.51972477962578
 22
395.8190502683059
 32
0.0
 13
80.51972477962578
 23
395.8190502683059
 33
0.0
  0
SOLID
  5
62B
330
55B
100
AcDbEntity
  8
Kóta (ISO)
440
 16777216
100
AcDbTrace
 10
221.6697247796258
 20
396.0273836016392
 30
0.0
 11
221.6697247796258
 21
395.6107169349726
 31
0.0
 12
222.9197247796258
 22
395.8190502683059
 32
0.0
 13
222.9197247796258
 23
395.8190502683059
 33
0.0
  0
MTEXT
  5
62C
330
55B
100
AcDbEntity
  8
Kóta (ISO)
440
 16777216
100
AcDbMText
 10
151.7197247796258
 20
400.1496230979665
 30
0.0
 40
2.625
 41
0.0
 71
     2
 72
     1
  1
\A1;{\fAIGDT|b0|i0;\H2.6250;\ln\fTahoma|b0|i0;\H2.6250;}142
  7
Text popisu (ISO)
 73
     1
 44
1.0
  0
POINT
  5
62D
330
55B
100
AcDbEntity
  8
Defpoints
 62
     0
440
 16777216
100
AcDbPoint
 10
80.51972477962578
 20
375.2423677056569
 30
0.0
  0
POINT
  5
62E
330
55B
100
AcDbEntity
  8
Defpoints
 62
     0
440
 16777216
100
AcDbPoint
 10
222.9197247796258
 20
375.2423677056569
 30
0.0
  0
POINT
  5
62F
330
55B
100
AcDbEntity
  8
Defpoints
 62
     0
440
 16777216
100
AcDbPoint
 10
222.9197247796258
 20
395.8190502683059
 30
0.0
  0
ENDBLK
  5
55D
330
55B
100
AcDbEntity
  8
0
100
AcDbBlockEnd
  0
BLOCK
  5
632
330
631
100
AcDbEntity
  8
0
100
AcDbBlockBegin
  2
*D34
 70
     1
 10
0.0
 20
0.0
 30
0.0
  3
*D34
  1

  0
LINE
  5
6FD
330
631
100
AcDbEntity
  8
Kóta (ISO)
440
 16777216
100
AcDbLine
 10
52.64432455792107
 20
194.2423677056569
 30
0.0
 11
52.64432455792107
 21
217.742367705657
 31
0.0
  0
LINE
  5
6FE
330
631
100
AcDbEntity
  8
Kóta (ISO)
440
 16777216
100
AcDbLine
 10
250.7951250013305
 20
194.2423677056569
 30
0.0
 11
250.7951250013305
 21
217.742367705657
 31
0.0
  0
LINE
  5
6FF
330
631
100
AcDbEntity
  8
Kóta (ISO)
440
 16777216
100
AcDbLine
 10
53.89432455792107
 20
217.242367705657
 30
0.0
 11
249.5451250013305
 21
217.242367705657
 31
0.0
  0
SOLID
  5
700
330
631
100
AcDbEntity
  8
Kóta (ISO)
440
 16777216
100
AcDbTrace
 10
53.89432455792107
 20
217.4507010389903
 30
0.0
 11
53.89432455792107
 21
217.0340343723236
 31
0.0
 12
52.64432455792107
 22
217.242367705657
 32
0.0
 13
52.64432455792107
 23
217.242367705657
 33
0.0
  0
SOLID
  5
701
330
631
100
AcDbEntity
  8
Kóta (ISO)
440
 16777216
100
AcDbTrace
 10
249.5451250013305
 20
217.4507010389903
 30
0.0
 11
249.5451250013305
 21
217.0340343723236
 31
0.0
 12
250.7951250013305
 22
217.242367705657
 32
0.0
 13
250.7951250013305
 23
217.242367705657
 33
0.0
  0
MTEXT
  5
702
330
631
100
AcDbEntity
  8
Kóta (ISO)
440
 16777216
100
AcDbMText
 10
148.229904581729
 20
221.5729405353176
 30
0.0
 40
2.625
 41
0.0
 71
     2
 72
     1
  1
\A1;{\fAIGDT|b0|i0;\H2.6250;\ln\fTahoma|b0|i0;\H2.6250;}198
  7
Text popisu (ISO)
 73
     1
 44
1.0
  0
POINT
  5
703
330
631
100
AcDbEntity
  8
Defpoints
 62
     0
440
 16777216
100
AcDbPoint
 10
52.64432455792107
 20
194.2423677056569
 30
0.0
  0
POINT
  5
704
330
631
100
AcDbEntity
  8
Defpoints
 62
     0
440
 16777216
100
AcDbPoint
 10
250.7951250013305
 20
194.2423677056569
 30
0.0
  0
POINT
  5
705
330
631
100
AcDbEntity
  8
Defpoints
 62
     0
440
 16777216
100
AcDbPoint
 10
250.7951250013305
 20
217.242367705657
 30
0.0
  0
ENDBLK
  5
633
330
631
100
AcDbEntity
  8
0
100
AcDbBlockEnd
  0
ENDSEC
  0
SECTION
  2
ENTITIES
  0
LINE
  5
168
330
6C
100
AcDbEntity
  8
Viditelná tenká (ISO)
100
AcDbLine
 10
226.4394903548967
 20
48.9136373317579
 30
0.0
 11
76.99995920435483
 21
48.9136373317579
 31
0.0
  0
LINE
  5
169
330
6C
100
AcDbEntity
  8
Viditelná (ISO)
100
AcDbLine
 10
223.9370728537421
 20
48.24236770565683
 30
0.0
 11
79.50237670550946
 21
48.24236770565683
 31
0.0
  0
LINE
  5
16A
330
6C
100
AcDbEntity
  8
Viditelná tenká (ISO)
100
AcDbLine
 10
242.723043132525
 20
58.32707820980701
 30
0.0
 11
60.71640642672658
 21
58.32707820980701
 31
0.0
  0
LINE
  5
16B
330
6C
100
AcDbEntity
  8
Viditelná tenká (ISO)
100
AcDbLine
 10
245.2197247796258
 20
62.56089964887191
 30
0.0
 11
58.21972477962582
 21
62.56089964887191
 31
0.0
  0
LINE
  5
16C
330
6C
100
AcDbEntity
  8
Viditelná (ISO)
100
AcDbLine
 10
250.7951250013305
 20
194.2423677056569
 30
0.0
 11
52.64432455792103
 21
194.2423677056569
 31
0.0
  0
LINE
  5
16D
330
6C
100
AcDbEntity
  8
Viditelná (ISO)
100
AcDbLine
 10
232.0833657330095
 20
198.2423677056569
 30
0.0
 11
71.35608382624191
 21
198.2423677056569
 31
0.0
  0
ARC
  5
16E
330
6C
100
AcDbEntity
  8
Viditelná (ISO)
100
AcDbCircle
 10
223.9370728537421
 20
53.24236770565679
 30
0.0
 40
5.000000000000136
100
AcDbArc
 50
270.0000000000008
 51
300.0319932765372
  0
ARC
  5
16F
330
6C
100
AcDbEntity
  8
Viditelná (ISO)
100
AcDbCircle
 10
79.50237670550949
 20
53.24236770565679
 30
0.0
 40
5.000000000000136
100
AcDbArc
 50
239.9680067234631
 51
269.9999999999997
  0
LINE
  5
170
330
6C
100
AcDbEntity
  8
Viditelná (ISO)
100
AcDbLine
 10
76.99995920435482
 20
48.9136373317579
 30
0.0
 11
60.71640642672658
 21
58.32707820980701
 31
0.0
  0
LINE
  5
171
330
6C
100
AcDbEntity
  8
Viditelná (ISO)
100
AcDbLine
 10
226.4394903548967
 20
48.9136373317579
 30
0.0
 11
242.723043132525
 21
58.32707820980701
 31
0.0
  0
ARC
  5
172
330
6C
100
AcDbEntity
  8
Viditelná (ISO)
100
AcDbCircle
 10
240.2206256313704
 20
62.6558085837059
 30
0.0
 40
5.000000000000047
100
AcDbArc
 50
300.0319932765368
 51
358.9123583981459
  0
ARC
  5
173
330
6C
100
AcDbEntity
  8
Viditelná (ISO)
100
AcDbCircle
 10
63.21882392788126
 20
62.6558085837059
 30
0.0
 40
5.000000000000047
100
AcDbArc
 50
181.087641601854
 51
239.968006723463
  0
LINE
  5
174
330
6C
100
AcDbEntity
  8
Viditelná (ISO)
100
AcDbLine
 10
58.21972477962578
 20
62.56089964887191
 30
0.0
 11
55.71972477962576
 21
194.2423677056569
 31
0.0
  0
LINE
  5
175
330
6C
100
AcDbEntity
  8
Viditelná (ISO)
100
AcDbLine
 10
245.2197247796258
 20
62.56089964887191
 30
0.0
 11
247.7197247796258
 21
194.2423677056569
 31
0.0
  0
LINE
  5
176
330
6C
100
AcDbEntity
  8
Viditelná (ISO)
100
AcDbLine
 10
52.64432455792105
 20
194.2423677056569
 30
0.0
 11
52.64432455792105
 21
198.2423677056569
 31
0.0
  0
LINE
  5
177
330
6C
100
AcDbEntity
  8
Viditelná (ISO)
100
AcDbLine
 10
250.7951250013306
 20
194.2423677056569
 30
0.0
 11
250.7951250013306
 21
198.2423677056569
 31
0.0
  0
ELLIPSE
  5
178
330
6C
100
AcDbEntity
  8
Viditelná (ISO)
100
AcDbEllipse
 10
79.64346384281097
 20
196.2423677056577
 30
0.0
 11
-0.0000000000000488
 21
3.999999999999994
 31
0.0
210
0.0
220
0.0
230
1.0
 40
0.8660254037844387
 41
5.23598775598278
 42
6.283185307179564
  0
LINE
  5
179
330
6C
100
AcDbEntity
  8
Viditelná tenká (ISO)
100
AcDbLine
 10
79.64346384281097
 20
200.2423677056576
 30
0.0
 11
79.64346384281097
 21
198.2423677056576
 31
0.0
  0
LINE
  5
17A
330
6C
100
AcDbEntity
  8
Viditelná (ISO)
100
AcDbLine
 10
46.73449849900229
 20
200.2423677056579
 30
0.0
 11
36.73449849900229
 21
200.2423677056578
 31
0.0
  0
LINE
  5
17B
330
6C
100
AcDbEntity
  8
Viditelná (ISO)
100
AcDbLine
 10
79.64346384281097
 20
200.2423677056576
 30
0.0
 11
46.73449849900226
 21
200.2423677056579
 31
0.0
  0
LINE
  5
17C
330
6C
100
AcDbEntity
  8
Viditelná (ISO)
100
AcDbLine
 10
36.73449849900226
 20
198.2423677056578
 30
0.0
 11
36.73449849900226
 21
200.2423677056578
 31
0.0
  0
LINE
  5
17D
330
6C
100
AcDbEntity
  8
Viditelná (ISO)
100
AcDbLine
 10
46.73449849900229
 20
198.2423677056579
 30
0.0
 11
46.73449849900229
 21
200.2423677056579
 31
0.0
  0
LINE
  5
17E
330
6C
100
AcDbEntity
  8
Viditelná (ISO)
100
AcDbLine
 10
46.73449849900229
 20
198.2423677056579
 30
0.0
 11
71.3560838262419
 21
198.2423677056577
 31
0.0
  0
LINE
  5
17F
330
6C
100
AcDbEntity
  8
Viditelná (ISO)
100
AcDbLine
 10
36.73449849900226
 20
198.2423677056578
 30
0.0
 11
46.73449849900226
 21
198.2423677056579
 31
0.0
  0
LINE
  5
180
330
6C
100
AcDbEntity
  8
Viditelná (ISO)
100
AcDbLine
 10
256.7049510602493
 20
200.2423677056581
 30
0.0
 11
223.7959857164406
 21
200.2423677056578
 31
0.0
  0
LINE
  5
181
330
6C
100
AcDbEntity
  8
Viditelná (ISO)
100
AcDbLine
 10
266.7049510602493
 20
200.242367705658
 30
0.0
 11
256.7049510602493
 21
200.2423677056581
 31
0.0
  0
LINE
  5
182
330
6C
100
AcDbEntity
  8
Viditelná tenká (ISO)
100
AcDbLine
 10
223.7959857164406
 20
198.2423677056577
 30
0.0
 11
223.7959857164406
 21
200.2423677056578
 31
0.0
  0
LINE
  5
183
330
6C
100
AcDbEntity
  8
Viditelná (ISO)
100
AcDbLine
 10
256.7049510602493
 20
198.242367705658
 30
0.0
 11
232.0833657330096
 21
198.2423677056578
 31
0.0
  0
LINE
  5
184
330
6C
100
AcDbEntity
  8
Viditelná (ISO)
100
AcDbLine
 10
256.7049510602493
 20
198.242367705658
 30
0.0
 11
256.7049510602493
 21
200.2423677056581
 31
0.0
  0
LINE
  5
185
330
6C
100
AcDbEntity
  8
Viditelná (ISO)
100
AcDbLine
 10
266.7049510602493
 20
198.242367705658
 30
0.0
 11
266.7049510602493
 21
200.242367705658
 31
0.0
  0
LINE
  5
186
330
6C
100
AcDbEntity
  8
Viditelná (ISO)
100
AcDbLine
 10
256.7049510602493
 20
198.242367705658
 30
0.0
 11
266.7049510602493
 21
198.242367705658
 31
0.0
  0
ELLIPSE
  5
187
330
6C
100
AcDbEntity
  8
Viditelná (ISO)
100
AcDbEllipse
 10
223.7959857164407
 20
196.2423677056577
 30
0.0
 11
-0.0000000000000243
 21
3.999999999999998
 31
0.0
210
0.0
220
0.0
230
1.0
 40
0.8660254037844396
 41
0.0
 42
1.047197551196818
  0
LINE
  5
188
330
6C
100
AcDbEntity
  8
Viditelná (ISO)
100
AcDbLine
 10
141.7197247796259
 20
200.2423677056569
 30
0.0
 11
141.7197247796259
 21
198.242367705657
 31
0.0
  0
LINE
  5
189
330
6C
100
AcDbEntity
  8
Viditelná (ISO)
100
AcDbLine
 10
161.7197247796259
 20
200.2423677056569
 30
0.0
 11
141.7197247796259
 21
200.2423677056569
 31
0.0
  0
LINE
  5
18A
330
6C
100
AcDbEntity
  8
Viditelná (ISO)
100
AcDbLine
 10
161.7197247796259
 20
198.2423677056569
 30
0.0
 11
161.7197247796259
 21
200.2423677056569
 31
0.0
  0
LINE
  5
18B
330
6C
100
AcDbEntity
  8
Viditelná (ISO)
100
AcDbLine
 10
197.7134360932608
 20
299.3423677056568
 30
0.0
 11
105.7260134659908
 21
299.3423677056568
 31
0.0
  0
LINE
  5
18C
330
6C
100
AcDbEntity
  8
Viditelná tenká (ISO)
100
AcDbLine
 10
197.3999104731942
 20
249.4868650030923
 30
0.0
 11
106.0395390860573
 21
249.4868650030923
 31
0.0
  0
LINE
  5
18D
330
6C
100
AcDbEntity
  8
Viditelná tenká (ISO)
100
AcDbLine
 10
189.2875005518251
 20
239.7294782171713
 30
0.0
 11
114.1519490074264
 21
239.7294782171713
 31
0.0
  0
LINE
  5
18E
330
6C
100
AcDbEntity
  8
Viditelná (ISO)
100
AcDbLine
 10
106.0395390860573
 20
249.4868650030923
 30
0.0
 11
105.7260134659908
 21
299.3423677056568
 31
0.0
  0
LINE
  5
18F
330
6C
100
AcDbEntity
  8
Viditelná (ISO)
100
AcDbLine
 10
197.3999104731942
 20
249.4868650030923
 30
0.0
 11
197.7134360932608
 21
299.3423677056568
 31
0.0
  0
ARC
  5
190
330
6C
100
AcDbEntity
  8
Viditelná (ISO)
100
AcDbCircle
 10
162.675142172192
 20
492.200023488967
 30
0.0
 40
257.0911832497236
100
AcDbArc
 50
259.1207834822725
 51
267.5577174746846
  0
ARC
  5
191
330
6C
100
AcDbEntity
  8
Viditelná (ISO)
100
AcDbCircle
 10
140.7643073870596
 20
492.200023488967
 30
0.0
 40
257.0911832497236
100
AcDbArc
 50
272.4422825253153
 51
280.8792165177275
  0
ARC
  5
192
330
6C
100
AcDbEntity
  8
Viditelná (ISO)
100
AcDbCircle
 10
187.4001082052103
 20
249.5497506232678
 30
0.0
 40
10.00000000000002
100
AcDbArc
 50
280.8792165177276
 51
359.6396895623545
  0
ARC
  5
193
330
6C
100
AcDbEntity
  8
Viditelná (ISO)
100
AcDbCircle
 10
116.0393413540412
 20
249.5497506232678
 30
0.0
 40
10.00000000000002
100
AcDbArc
 50
180.3603104376445
 51
259.1207834822723
  0
SPLINE
  5
194
330
6C
100
AcDbEntity
  8
Viditelná (ISO)
100
AcDbSpline
210
0.0
220
0.0
230
1.0
 70
     8
 71
     3
 72
    22
 73
    18
 74
     0
 42
0.0000000001
 43
0.0000000001
 40
-0.8720137561603655
 40
-0.8720137561603655
 40
-0.8720137561603655
 40
-0.8720137561603655
 40
-0.8495909587763987
 40
-0.8495909587763987
 40
-0.7414872714933649
 40
-0.7414872714933649
 40
-0.6339177751013066
 40
-0.6339177751013066
 40
-0.5287073187601062
 40
-0.5287073187601062
 40
-0.4232445177316069
 40
-0.4232445177316069
 40
-0.3185273669209803
 40
-0.3185273669209803
 40
-0.2093054538937513
 40
-0.2093054538937513
 40
-0.1594520513442914
 40
-0.1594520513442914
 40
-0.1594520513442914
 40
-0.1594520513442914
 10
115.433588005675
 20
303.9199521082704
 30
0.0
 10
115.4335700836864
 20
303.9199393767423
 30
0.0
 10
115.4354289696593
 20
303.9175139894932
 30
0.0
 10
115.4573432086741
 20
303.8893007676775
 30
0.0
 10
115.5193706683349
 20
303.8101134693572
 30
0.0
 10
115.7152883140262
 20
303.5455688854725
 30
0.0
 10
115.8467537662195
 20
303.363054598486
 30
0.0
 10
116.1440775845466
 20
302.9136216068483
 30
0.0
 10
116.3061516030039
 20
302.6525098787424
 30
0.0
 10
116.6300048373641
 20
302.0717001480123
 30
0.0
 10
116.7877592222753
 20
301.7585654605332
 30
0.0
 10
117.0720972811403
 20
301.1190325357102
 30
0.0
 10
117.1955868269443
 20
300.8001779069163
 30
0.0
 10
117.4051339629503
 20
300.1842178886223
 30
0.0
 10
117.4878917818442
 20
299.8935811210017
 30
0.0
 10
117.578521706192
 20
299.5353598889784
 30
0.0
 10
117.6025743545952
 20
299.4330393015917
 30
0.0
 10
117.6228174933676
 20
299.3423782477261
 30
0.0
  0
SPLINE
  5
195
330
6C
100
AcDbEntity
  8
Viditelná (ISO)
100
AcDbSpline
210
0.0
220
0.0
230
1.0
 70
     8
 71
     3
 72
    26
 73
    22
 74
     0
 42
0.0000000001
 43
0.0000000001
 40
-1.583185648358058
 40
-1.583185648358058
 40
-1.583185648358058
 40
-1.583185648358058
 40
-1.481187074015796
 40
-1.481187074015796
 40
-1.369853813991612
 40
-1.369853813991612
 40
-1.266036405697836
 40
-1.266036405697836
 40
-1.16794381461796
 40
-1.16794381461796
 40
-1.075555874615137
 40
-1.075555874615137
 40
-0.9922878832837069
 40
-0.9922878832837069
 40
-0.9118479265670671
 40
-0.9118479265670671
 40
-0.8890589119977999
 40
-0.8890589119977999
 40
-0.875415631018162
 40
-0.875415631018162
 40
-0.871145269750467
 40
-0.871145269750467
 40
-0.871145269750467
 40
-0.871145269750467
 10
185.8166640681909
 20
299.3423676767369
 30
0.0
 10
185.8582127392554
 20
299.528491956817
 30
0.0
 10
185.915499138063
 20
299.7626071183179
 30
0.0
 10
186.0774209841502
 20
300.3186151072831
 30
0.0
 10
186.1852270687137
 20
300.6428516602672
 30
0.0
 10
186.4402905804092
 20
301.292779551622
 30
0.0
 10
186.582024597386
 20
301.6107095849263
 30
0.0
 10
186.8810995739389
 20
302.2067226083581
 30
0.0
 10
187.0338247169776
 20
302.4797346673517
 30
0.0
 10
187.3232668752293
 20
302.9579403898687
 30
0.0
 10
187.4579104465978
 20
303.1624273422774
 30
0.0
 10
187.6828768016696
 20
303.4885552347458
 30
0.0
 10
187.7749710702156
 20
303.6147022613296
 30
0.0
 10
187.9146438191549
 20
303.8020546442246
 30
0.0
 10
187.9628569086186
 20
303.864384119667
 30
0.0
 10
187.9942105859212
 20
303.9048861574144
 30
0.0
 10
187.9992181745042
 20
303.9113325637071
 30
0.0
 10
188.0041171437634
 20
303.9176363730957
 30
0.0
 10
188.0052545890322
 20
303.9190985563855
 30
0.0
 10
188.0058295892697
 20
303.9198377925533
 30
0.0
 10
188.0058981177822
 20
303.9199259041272
 30
0.0
 10
188.0058981143152
 20
303.9199259068214
 30
0.0
  0
LINE
  5
196
330
6C
100
AcDbEntity
  8
Viditelná tenká (ISO)
100
AcDbLine
 10
101.7197247796258
 20
312.8354111628405
 30
0.0
 11
201.7197247796258
 21
312.8354111628405
 31
0.0
  0
LINE
  5
197
330
6C
100
AcDbEntity
  8
Viditelná (ISO)
100
AcDbLine
 10
101.7197247796258
 20
313.3423677056569
 30
0.0
 11
201.7197247796258
 21
313.3423677056569
 31
0.0
  0
LINE
  5
198
330
6C
100
AcDbEntity
  8
Viditelná tenká (ISO)
100
AcDbLine
 10
103.5530581129591
 20
310.8423677056569
 30
0.0
 11
199.8863914462924
 21
310.8423677056569
 31
0.0
  0
LINE
  5
199
330
6C
100
AcDbEntity
  8
Viditelná (ISO)
100
AcDbLine
 10
201.7197247796258
 20
313.3423677056569
 30
0.0
 11
201.7197247796258
 21
312.8354111628405
 31
0.0
  0
LINE
  5
19A
330
6C
100
AcDbEntity
  8
Viditelná (ISO)
100
AcDbLine
 10
101.7197247796258
 20
313.3423677056569
 30
0.0
 11
101.7197247796258
 21
312.8354111628405
 31
0.0
  0
ARC
  5
19B
330
6C
100
AcDbEntity
  8
Viditelná (ISO)
100
AcDbCircle
 10
103.7197247796258
 20
312.8354111628405
 30
0.0
 40
2.000000000000009
100
AcDbArc
 50
180.0
 51
265.2198081528001
  0
ARC
  5
19C
330
6C
100
AcDbEntity
  8
Viditelná (ISO)
100
AcDbCircle
 10
199.7197247796258
 20
312.8354111628405
 30
0.0
 40
2.000000000000009
100
AcDbArc
 50
274.7801918471999
 51
0.0
  0
ARC
  5
19D
330
6C
100
AcDbEntity
  8
Viditelná (ISO)
100
AcDbCircle
 10
102.2197247796258
 20
294.8980200481884
 30
0.0
 40
16.00000000000001
100
AcDbArc
 50
34.32379748031309
 51
85.21980815280086
  0
ARC
  5
19E
330
6C
100
AcDbEntity
  8
Viditelná (ISO)
100
AcDbCircle
 10
201.2197247796258
 20
294.8980200481884
 30
0.0
 40
16.00000000000001
100
AcDbArc
 50
94.78019184719924
 51
145.6762025196869
  0
ARC
  5
19F
330
6C
100
AcDbEntity
  8
Viditelná (ISO)
100
AcDbCircle
 10
151.7197247796258
 20
223.7950461516391
 30
0.0
 40
87.88
100
AcDbArc
 50
114.3522375646255
 51
120.721059426042
  0
ARC
  5
1A0
330
6C
100
AcDbEntity
  8
Viditelná (ISO)
100
AcDbCircle
 10
151.7197247796258
 20
223.7950461516391
 30
0.0
 40
87.88
100
AcDbArc
 50
59.278940573958
 51
65.64776243537451
  0
LINE
  5
1A1
330
6C
100
AcDbEntity
  8
Viditelná (ISO)
100
AcDbLine
 10
222.9197247796258
 20
361.7423677056569
 30
0.0
 11
80.5197247796258
 21
361.7423677056569
 31
0.0
  0
LINE
  5
1A2
330
6C
100
AcDbEntity
  8
Viditelná tenká (ISO)
100
AcDbLine
 10
221.9197247796258
 20
374.2423677056569
 30
0.0
 11
81.5197247796258
 21
374.2423677056569
 31
0.0
  0
LINE
  5
1A3
330
6C
100
AcDbEntity
  8
Viditelná tenká (ISO)
100
AcDbLine
 10
221.9197247796258
 20
368.2423677056569
 30
0.0
 11
81.51972477962582
 21
368.2423677056569
 31
0.0
  0
ELLIPSE
  5
1A4
330
6C
100
AcDbEntity
  8
Viditelná tenká (ISO)
100
AcDbEllipse
 10
203.1415467387154
 20
379.3691531841791
 30
0.0
 11
-1.102077971397046
 21
0.4747885265687781
 31
0.0
210
0.0
220
0.0
230
0.9999999999999998
 40
0.1617290069830959
 41
0.0
 42
1.211670655410751
  0
LINE
  5
1A5
330
6C
100
AcDbEntity
  8
Viditelná tenká (ISO)
100
AcDbLine
 10
202.6823266198773
 20
379.3691531841791
 30
0.0
 11
202.1968938002479
 21
378.2423677056569
 31
0.0
  0
ELLIPSE
  5
1A6
330
6C
100
AcDbEntity
  8
Viditelná tenká (ISO)
100
AcDbEllipse
 10
100.2979028205362
 20
379.3691531841791
 30
0.0
 11
1.102077971397071
 21
0.4747885265687902
 31
0.0
210
0.0
220
0.0
230
1.0
 40
0.1617290069830947
 41
5.071514651769444
 42
6.283185307180448
  0
LINE
  5
1A7
330
6C
100
AcDbEntity
  8
Viditelná tenká (ISO)
100
AcDbLine
 10
101.2425557590037
 20
378.2423677056569
 30
0.0
 11
100.7571229393744
 21
379.3691531841791
 31
0.0
  0
LINE
  5
1A8
330
6C
100
AcDbEntity
  8
Viditelná tenká (ISO)
100
AcDbLine
 10
222.9197247796258
 20
375.2423677056569
 30
0.0
 11
80.51972477962578
 21
375.2423677056569
 31
0.0
  0
LINE
  5
1A9
330
6C
100
AcDbEntity
  8
Viditelná tenká (ISO)
100
AcDbLine
 10
222.9197247796258
 20
367.2423677056569
 30
0.0
 11
80.51972477962578
 21
367.2423677056569
 31
0.0
  0
LINE
  5
1AA
330
6C
100
AcDbEntity
  8
Viditelná (ISO)
100
AcDbLine
 10
222.9197247796259
 20
378.2423677056569
 30
0.0
 11
218.5908442948729
 21
378.2423677056569
 31
0.0
  0
LINE
  5
1AB
330
6C
100
AcDbEntity
  8
Viditelná (ISO)
100
AcDbLine
 10
84.84860526570797
 20
378.2423677056569
 30
0.0
 11
80.51972477962578
 21
378.2423677056569
 31
0.0
  0
LINE
  5
1AC
330
6C
100
AcDbEntity
  8
Viditelná (ISO)
100
AcDbLine
 10
121.72188545712
 20
378.2423677056569
 30
0.0
 11
87.14751995610956
 21
378.2423677056569
 31
0.0
  0
LINE
  5
1AD
330
6C
100
AcDbEntity
  8
Viditelná (ISO)
100
AcDbLine
 10
176.1674930817697
 20
378.2423677056569
 30
0.0
 11
127.2719564811217
 21
378.2423677056569
 31
0.0
  0
LINE
  5
1AE
330
6C
100
AcDbEntity
  8
Viditelná (ISO)
100
AcDbLine
 10
216.291929604776
 20
378.2423677056569
 30
0.0
 11
181.717564105639
 21
378.2423677056569
 31
0.0
  0
SPLINE
  5
1AF
330
6C
100
AcDbEntity
  8
Viditelná (ISO)
100
AcDbSpline
210
0.0
220
0.0
230
1.0
 70
     8
 71
     3
 72
    16
 73
    12
 74
     0
 42
0.0000000001
 43
0.0000000001
 40
-0.1583453089478778
 40
-0.1583453089478778
 40
-0.1583453089478778
 40
-0.1583453089478778
 40
-0.1388276638843238
 40
-0.1388276638843238
 40
-0.1180643834369609
 40
-0.1180643834369609
 40
-0.0792532264957189
 40
-0.0792532264957189
 40
-0.0404096863323092
 40
-0.0404096863323092
 40
0.0
 40
0.0
 40
0.0
 40
0.0
 10
218.5908442934855
 20
378.2423677031912
 30
0.0
 10
218.5685067112681
 20
378.2423677033779
 30
0.0
 10
218.5461382733627
 20
378.2487209395276
 30
0.0
 10
218.50057421532
 20
378.2747344052595
 30
0.0
 10
218.4775400088103
 20
378.2951476614861
 30
0.0
 10
218.4138486091239
 20
378.3728364211556
 30
0.0
 10
218.3758697799808
 20
378.4460019562056
 30
0.0
 10
218.3114105298991
 20
378.6293224111191
 30
0.0
 10
218.2855432594402
 20
378.7378133584482
 30
0.0
 10
218.249005224851
 20
378.9811910063966
 30
0.0
 10
218.2393575656389
 20
379.1145597649026
 30
0.0
 10
218.2393575656389
 20
379.2492587193436
 30
0.0
  0
LINE
  5
1B0
330
6C
100
AcDbEntity
  8
Viditelná (ISO)
100
AcDbLine
 10
218.239357565639
 20
379.5423677056569
 30
0.0
 11
218.239357565639
 21
379.2492587193286
 31
0.0
  0
SPLINE
  5
1B1
330
6C
100
AcDbEntity
  8
Viditelná (ISO)
100
AcDbSpline
210
0.0
220
0.0
230
1.0
 70
     8
 71
     3
 72
    14
 73
    10
 74
     0
 42
0.0000000001
 43
0.0000000001
 40
0.0
 40
0.0
 40
0.0
 40
0.0
 40
0.0452035028482632
 40
0.0452035028482632
 40
0.0904070056965264
 40
0.0904070056965264
 40
0.1356166551935529
 40
0.1356166551935529
 40
0.1808263046905794
 40
0.1808263046905794
 40
0.1808263046905794
 40
0.1808263046905794
 10
218.2393575656389
 20
379.5423677056569
 30
0.0
 10
218.2393575656389
 20
379.6930460484845
 30
0.0
 10
218.2286337416126
 20
379.8537629207576
 30
0.0
 10
218.1848046932818
 20
380.1494070847651
 30
0.0
 10
218.1516743223392
 20
380.2843348491051
 30
0.0
 10
218.0746948030344
 20
380.497418727131
 30
0.0
 10
218.0257074983686
 20
380.5897753977424
 30
0.0
 10
217.9173947311237
 20
380.7122500420254
 30
0.0
 10
217.8580437927402
 20
380.7423677056569
 30
0.0
 10
217.8019418416988
 20
380.7423677056569
 30
0.0
  0
LINE
  5
1B2
330
6C
100
AcDbEntity
  8
Viditelná (ISO)
100
AcDbLine
 10
217.801941841699
 20
380.7423677056569
 30
0.0
 11
217.1896483499148
 21
380.7423677056569
 31
0.0
  0
SPLINE
  5
1B3
330
6C
100
AcDbEntity
  8
Viditelná (ISO)
100
AcDbSpline
210
0.0
220
0.0
230
1.0
 70
     8
 71
     3
 72
    14
 73
    10
 74
     0
 42
0.0000000001
 43
0.0000000001
 40
0.542449675471355
 40
0.542449675471355
 40
0.542449675471355
 40
0.542449675471355
 40
0.5876593249683816
 40
0.5876593249683816
 40
0.6328689744654082
 40
0.6328689744654082
 40
0.6780724773136716
 40
0.6780724773136716
 40
0.7232759801619351
 40
0.7232759801619351
 40
0.7232759801619351
 40
0.7232759801619351
 10
217.1896483499148
 20
380.7423677056569
 30
0.0
 10
217.1304176895219
 20
380.7423677056569
 30
0.0
 10
217.0667546671971
 20
380.7122500420254
 30
0.0
 10
216.9487783298237
 20
380.5897753977424
 30
0.0
 10
216.8944900228734
 20
380.497418727131
 30
0.0
 10
216.8083923110673
 20
380.2843348491051
 30
0.0
 10
216.7708451771438
 20
380.1494070847651
 30
0.0
 10
216.7209482102189
 20
379.8537629207576
 30
0.0
 10
216.7086238361786
 20
379.6930460484845
 30
0.0
 10
216.7086238361786
 20
379.5423677056569
 30
0.0
  0
LINE
  5
1B4
330
6C
100
AcDbEntity
  8
Viditelná (ISO)
100
AcDbLine
 10
216.7086238361786
 20
379.5423677056569
 30
0.0
 11
216.7086238361786
 21
379.2492587195202
 31
0.0
  0
SPLINE
  5
1B5
330
6C
100
AcDbEntity
  8
Viditelná (ISO)
100
AcDbSpline
210
0.0
220
0.0
230
1.0
 70
     8
 71
     3
 72
    16
 73
    12
 74
     0
 42
0.0000000001
 43
0.0000000001
 40
0.0
 40
0.0
 40
0.0
 40
0.0
 40
0.0403406412916852
 40
0.0403406412916852
 40
0.0791817274970678
 40
0.0791817274970678
 40
0.1179957192675242
 40
0.1179957192675242
 40
0.1387948379940707
 40
0.1387948379940707
 40
0.1583448270558255
 40
0.1583448270558255
 40
0.1583448270558255
 40
0.1583448270558255
 10
216.708623836222
 20
379.2492587187143
 30
0.0
 10
216.708623836222
 20
379.1147899144086
 30
0.0
 10
216.6976375457124
 20
378.9816444858423
 30
0.0
 10
216.6556596295735
 20
378.7384168576471
 30
0.0
 10
216.6258038002669
 20
378.6298825977798
 30
0.0
 10
216.5505191227168
 20
378.4464327340813
 30
0.0
 10
216.5057879554679
 20
378.3731870827865
 30
0.0
 10
216.4296817607681
 20
378.2953239522147
 30
0.0
 10
216.4019485965984
 20
378.2748420287799
 30
0.0
 10
216.3466895927436
 20
378.248742010791
 30
0.0
 10
216.3193836276384
 20
378.242367701757
 30
0.0
 10
216.2919296052922
 20
378.2423677014709
 30
0.0
  0
SPLINE
  5
1B6
330
6C
100
AcDbEntity
  8
Viditelná (ISO)
100
AcDbSpline
210
0.0
220
0.0
230
1.0
 70
     8
 71
     3
 72
    16
 73
    12
 74
     0
 42
0.0000000001
 43
0.0000000001
 40
-0.1583453089476792
 40
-0.1583453089476792
 40
-0.1583453089476792
 40
-0.1583453089476792
 40
-0.1388276638841908
 40
-0.1388276638841908
 40
-0.118064383436891
 40
-0.118064383436891
 40
-0.0792532264956337
 40
-0.0792532264956337
 40
-0.0404096863321904
 40
-0.0404096863321904
 40
0.0
 40
0.0
 40
0.0
 40
0.0
 10
181.7175641020378
 20
378.2423677031912
 30
0.0
 10
181.6585653862271
 20
378.242367703378
 30
0.0
 10
181.5996704900256
 20
378.2487209395277
 30
0.0
 10
181.4800635058699
 20
378.2747344052597
 30
0.0
 10
181.4197984010396
 20
378.2951476614863
 30
0.0
 10
181.25364493642
 20
378.3728364211559
 30
0.0
 10
181.1551851643068
 20
378.4460019562059
 30
0.0
 10
180.9886873586213
 20
378.6293224111198
 30
0.0
 10
180.9222166644211
 20
378.7378133584492
 30
0.0
 10
180.8284603114184
 20
378.9811910063974
 30
0.0
 10
180.8037925731311
 20
379.1145597649029
 30
0.0
 10
180.8037925731311
 20
379.2492587193436
 30
0.0
  0
LINE
  5
1B7
330
6C
100
AcDbEntity
  8
Viditelná (ISO)
100
AcDbLine
 10
180.8037925731311
 20
379.5423677056569
 30
0.0
 11
180.8037925731311
 21
379.2492587193286
 31
0.0
  0
SPLINE
  5
1B8
330
6C
100
AcDbEntity
  8
Viditelná (ISO)
100
AcDbSpline
210
0.0
220
0.0
230
1.0
 70
     8
 71
     3
 72
    14
 73
    10
 74
     0
 42
0.0000000001
 43
0.0000000001
 40
0.0
 40
0.0
 40
0.0
 40
0.0
 40
0.0452035028482632
 40
0.0452035028482632
 40
0.0904070056965265
 40
0.0904070056965265
 40
0.1356166551935522
 40
0.1356166551935522
 40
0.180826304690578
 40
0.180826304690578
 40
0.180826304690578
 40
0.180826304690578
 10
180.8037925731311
 20
379.5423677056569
 30
0.0
 10
180.8037925731311
 20
379.6930460484845
 30
0.0
 10
180.7763024217122
 20
379.8537629207576
 30
0.0
 10
180.6644218202119
 20
380.1494070847651
 30
0.0
 10
180.580021266375
 20
380.2843348491051
 30
0.0
 10
180.385058074343
 20
380.497418727131
 30
0.0
 10
180.2614912567502
 20
380.5897753977425
 30
0.0
 10
179.9903375349609
 20
380.7122500420254
 30
0.0
 10
179.8427396106348
 20
380.7423677056569
 30
0.0
 10
179.7041688102036
 20
380.7423677056569
 30
0.0
  0
LINE
  5
1B9
330
6C
100
AcDbEntity
  8
Viditelná (ISO)
100
AcDbLine
 10
179.7041688102038
 20
380.7423677056569
 30
0.0
 11
178.2259615581856
 21
380.7423677056569
 31
0.0
  0
SPLINE
  5
1BA
330
6C
100
AcDbEntity
  8
Viditelná (ISO)
100
AcDbSpline
210
0.0
220
0.0
230
1.0
 70
     8
 71
     3
 72
    14
 73
    10
 74
     0
 42
0.0000000001
 43
0.0000000001
 40
0.5424496754713532
 40
0.5424496754713532
 40
0.5424496754713532
 40
0.5424496754713532
 40
0.5876593249683797
 40
0.5876593249683797
 40
0.6328689744654062
 40
0.6328689744654062
 40
0.6780724773136696
 40
0.6780724773136696
 40
0.7232759801619329
 40
0.7232759801619329
 40
0.7232759801619329
 40
0.7232759801619329
 10
178.2259615581856
 20
380.7423677056569
 30
0.0
 10
178.0860948039083
 20
380.7423677056569
 30
0.0
 10
177.9367107559315
 20
380.7122500420254
 30
0.0
 10
177.6615542523341
 20
380.5897753977424
 30
0.0
 10
177.5357916877009
 20
380.497418727131
 30
0.0
 10
177.3370516166705
 20
380.2843348491051
 30
0.0
 10
177.2508215797052
 20
380.1494070847651
 30
0.0
 10
177.1364275640278
 20
379.8537629207576
 30
0.0
 10
177.1082744430859
 20
379.6930460484845
 30
0.0
 10
177.1082744430859
 20
379.5423677056569
 30
0.0
  0
LINE
  5
1BB
330
6C
100
AcDbEntity
  8
Viditelná (ISO)
100
AcDbLine
 10
177.108274443086
 20
379.5423677056569
 30
0.0
 11
177.108274443086
 21
379.2492587195202
 31
0.0
  0
SPLINE
  5
1BC
330
6C
100
AcDbEntity
  8
Viditelná (ISO)
100
AcDbSpline
210
0.0
220
0.0
230
1.0
 70
     8
 71
     3
 72
    16
 73
    12
 74
     0
 42
0.0000000001
 43
0.0000000001
 40
0.0
 40
0.0
 40
0.0
 40
0.0
 40
0.0403406412918883
 40
0.0403406412918883
 40
0.0791817274970921
 40
0.0791817274970921
 40
0.1179957192673416
 40
0.1179957192673416
 40
0.1387948379938912
 40
0.1387948379938912
 40
0.1583448270556685
 40
0.1583448270556685
 40
0.1583448270556685
 40
0.1583448270556685
 10
177.108274443104
 20
379.2492587187141
 30
0.0
 10
177.108274443104
 20
379.1147899144079
 30
0.0
 10
177.0831228032185
 20
378.9816444858408
 30
0.0
 10
176.9873102731787
 20
378.7384168576454
 30
0.0
 10
176.919248350453
 20
378.6298825977785
 30
0.0
 10
176.7483644765813
 20
378.4464327340806
 30
0.0
 10
176.6471402821715
 20
378.3731870827861
 30
0.0
 10
176.4757939987923
 20
378.2953239522143
 30
0.0
 10
176.413502322338
 20
378.2748420287796
 30
0.0
 10
176.289715465969
 20
378.2487420107908
 30
0.0
 10
176.2286935310528
 20
378.242367701757
 30
0.0
 10
176.1674930829215
 20
378.2423677014709
 30
0.0
  0
SPLINE
  5
1BD
330
6C
100
AcDbEntity
  8
Viditelná (ISO)
100
AcDbSpline
210
0.0
220
0.0
230
1.0
 70
     8
 71
     3
 72
    16
 73
    12
 74
     0
 42
0.0000000001
 43
0.0000000001
 40
-0.1583453089483639
 40
-0.1583453089483639
 40
-0.1583453089483639
 40
-0.1583453089483639
 40
-0.1388276638846028
 40
-0.1388276638846028
 40
-0.1180643834370471
 40
-0.1180643834370471
 40
-0.0792532264959182
 40
-0.0792532264959182
 40
-0.0404096863326323
 40
-0.0404096863326323
 40
0.0
 40
0.0
 40
0.0
 40
0.0
 10
127.2719564774161
 20
378.2423677031912
 30
0.0
 10
127.2108572755705
 20
378.2423677033774
 30
0.0
 10
127.1499357525123
 20
378.248720939527
 30
0.0
 10
127.0263499914057
 20
378.2747344052585
 30
0.0
 10
126.9641564693257
 20
378.2951476614851
 30
0.0
 10
126.7928713859109
 20
378.3728364211544
 30
0.0
 10
126.6916070699838
 20
378.446001956204
 30
0.0
 10
126.5206028651598
 20
378.6293224111167
 30
0.0
 10
126.4524663783806
 20
378.7378133584454
 30
0.0
 10
126.3564129069936
 20
378.9811910063943
 30
0.0
 10
126.331175116166
 20
379.1145597649013
 30
0.0
 10
126.3311751161661
 20
379.2492587193434
 30
0.0
  0
LINE
  5
1BE
330
6C
100
AcDbEntity
  8
Viditelná (ISO)
100
AcDbLine
 10
126.3311751161662
 20
379.5423677056569
 30
0.0
 11
126.3311751161662
 21
379.2492587193284
 31
0.0
  0
SPLINE
  5
1BF
330
6C
100
AcDbEntity
  8
Viditelná (ISO)
100
AcDbSpline
210
0.0
220
0.0
230
1.0
 70
     8
 71
     3
 72
    14
 73
    10
 74
     0
 42
0.0000000001
 43
0.0000000001
 40
0.0
 40
0.0
 40
0.0
 40
0.0
 40
0.0452035028482632
 40
0.0452035028482632
 40
0.0904070056965265
 40
0.0904070056965265
 40
0.1356166551935529
 40
0.1356166551935529
 40
0.1808263046905794
 40
0.1808263046905794
 40
0.1808263046905794
 40
0.1808263046905794
 10
126.3311751161661
 20
379.5423677056569
 30
0.0
 10
126.3311751161661
 20
379.6930460484845
 30
0.0
 10
126.3030219952242
 20
379.8537629207576
 30
0.0
 10
126.1886279795469
 20
380.1494070847651
 30
0.0
 10
126.1023979425815
 20
380.2843348491051
 30
0.0
 10
125.9036578715512
 20
380.497418727131
 30
0.0
 10
125.777895306918
 20
380.5897753977424
 30
0.0
 10
125.5027388033205
 20
380.7122500420254
 30
0.0
 10
125.3533547553438
 20
380.7423677056569
 30
0.0
 10
125.2134880010665
 20
380.7423677056569
 30
0.0
  0
LINE
  5
1C0
330
6C
100
AcDbEntity
  8
Viditelná (ISO)
100
AcDbLine
 10
125.2134880010665
 20
380.7423677056569
 30
0.0
 11
123.7352807490484
 21
380.7423677056569
 31
0.0
  0
SPLINE
  5
1C1
330
6C
100
AcDbEntity
  8
Viditelná (ISO)
100
AcDbSpline
210
0.0
220
0.0
230
1.0
 70
     8
 71
     3
 72
    14
 73
    10
 74
     0
 42
0.0000000001
 43
0.0000000001
 40
0.5424496754713532
 40
0.5424496754713532
 40
0.5424496754713532
 40
0.5424496754713532
 40
0.5876593249683797
 40
0.5876593249683797
 40
0.6328689744654064
 40
0.6328689744654064
 40
0.6780724773136697
 40
0.6780724773136697
 40
0.7232759801619329
 40
0.7232759801619329
 40
0.7232759801619329
 40
0.7232759801619329
 10
123.7352807490484
 20
380.7423677056569
 30
0.0
 10
123.5967099486172
 20
380.7423677056569
 30
0.0
 10
123.4491120242911
 20
380.7122500420254
 30
0.0
 10
123.1779583025018
 20
380.5897753977424
 30
0.0
 10
123.054391484909
 20
380.497418727131
 30
0.0
 10
122.859428292877
 20
380.2843348491051
 30
0.0
 10
122.7750277390401
 20
380.1494070847651
 30
0.0
 10
122.6631471375398
 20
379.8537629207576
 30
0.0
 10
122.635656986121
 20
379.6930460484845
 30
0.0
 10
122.635656986121
 20
379.5423677056569
 30
0.0
  0
LINE
  5
1C2
330
6C
100
AcDbEntity
  8
Viditelná (ISO)
100
AcDbLine
 10
122.635656986121
 20
379.5423677056569
 30
0.0
 11
122.635656986121
 21
379.2492587195202
 31
0.0
  0
SPLINE
  5
1C3
330
6C
100
AcDbEntity
  8
Viditelná (ISO)
100
AcDbSpline
210
0.0
220
0.0
230
1.0
 70
     8
 71
     3
 72
    16
 73
    12
 74
     0
 42
0.0000000001
 43
0.0000000001
 40
0.0
 40
0.0
 40
0.0
 40
0.0
 40
0.0403406412916353
 40
0.0403406412916353
 40
0.0791817274970299
 40
0.0791817274970299
 40
0.1179957192675057
 40
0.1179957192675057
 40
0.1387948379940795
 40
0.1387948379940795
 40
0.1583448270558536
 40
0.1583448270558536
 40
0.1583448270558536
 40
0.1583448270558536
 10
122.635656986103
 20
379.2492587187144
 30
0.0
 10
122.6356569861028
 20
379.1147899144089
 30
0.0
 10
122.6110734863705
 20
378.9816444858427
 30
0.0
 10
122.5175520230818
 20
378.7384168576475
 30
0.0
 10
122.4511537581878
 20
378.6298825977801
 30
0.0
 10
122.2847721437164
 20
378.4464327340814
 30
0.0
 10
122.1863506823897
 20
378.3731870827865
 30
0.0
 10
122.0201366392714
 20
378.2953239522146
 30
0.0
 10
121.9597760697764
 20
378.2748420287799
 30
0.0
 10
121.8399740225106
 20
378.248742010791
 30
0.0
 10
121.7809819396551
 20
378.242367701757
 30
0.0
 10
121.7218854582307
 20
378.2423677014709
 30
0.0
  0
SPLINE
  5
1C4
330
6C
100
AcDbEntity
  8
Viditelná (ISO)
100
AcDbSpline
210
0.0
220
0.0
230
1.0
 70
     8
 71
     3
 72
    16
 73
    12
 74
     0
 42
0.0000000001
 43
0.0000000001
 40
-0.1583453089488028
 40
-0.1583453089488028
 40
-0.1583453089488028
 40
-0.1583453089488028
 40
-0.138827663884916
 40
-0.138827663884916
 40
-0.1180643834372308
 40
-0.1180643834372308
 40
-0.079253226496101
 40
-0.079253226496101
 40
-0.0404096863328427
 40
-0.0404096863328427
 40
0.0
 40
0.0
 40
0.0
 40
0.0
 10
87.14751995447038
 20
378.2423677031912
 30
0.0
 10
87.12011135038142
 20
378.2423677033772
 30
0.0
 10
87.0928502024342
 20
378.2487209395264
 30
0.0
 10
87.03768052711797
 20
378.2747344052578
 30
0.0
 10
87.00999070953145
 20
378.2951476614844
 30
0.0
 10
86.93391048615414
 20
378.3728364211535
 30
0.0
 10
86.88916088929847
 20
378.4460019562028
 30
0.0
 10
86.81382222929874
 20
378.6293224111151
 30
0.0
 10
86.78393337980304
 20
378.7378133584437
 30
0.0
 10
86.74184961085803
 20
378.9811910063928
 30
0.0
 10
86.73082572307306
 20
379.1145597649006
 30
0.0
 10
86.73082572307306
 20
379.2492587193434
 30
0.0
  0
LINE
  5
1C5
330
6C
100
AcDbEntity
  8
Viditelná (ISO)
100
AcDbLine
 10
86.73082572307306
 20
379.5423677056569
 30
0.0
 11
86.73082572307306
 21
379.2492587193284
 31
0.0
  0
SPLINE
  5
1C6
330
6C
100
AcDbEntity
  8
Viditelná (ISO)
100
AcDbSpline
210
0.0
220
0.0
230
1.0
 70
     8
 71
     3
 72
    14
 73
    10
 74
     0
 42
0.0000000001
 43
0.0000000001
 40
0.0
 40
0.0
 40
0.0
 40
0.0
 40
0.0452035028482636
 40
0.0452035028482636
 40
0.0904070056965271
 40
0.0904070056965271
 40
0.1356166551935534
 40
0.1356166551935534
 40
0.1808263046905797
 40
0.1808263046905797
 40
0.1808263046905797
 40
0.1808263046905797
 10
86.73082572307306
 20
379.5423677056569
 30
0.0
 10
86.73082572307306
 20
379.6930460484845
 30
0.0
 10
86.71850134903269
 20
379.8537629207576
 30
0.0
 10
86.66860438210784
 20
380.1494070847651
 30
0.0
 10
86.63105724818436
 20
380.2843348491051
 30
0.0
 10
86.54495953637823
 20
380.497418727131
 30
0.0
 10
86.49067122942794
 20
380.5897753977424
 30
0.0
 10
86.37269489205454
 20
380.7122500420254
 30
0.0
 10
86.30903186972975
 20
380.7423677056569
 30
0.0
 10
86.2498012093369
 20
380.7423677056569
 30
0.0
  0
LINE
  5
1C7
330
6C
100
AcDbEntity
  8
Viditelná (ISO)
100
AcDbLine
 10
86.24980120933694
 20
380.7423677056569
 30
0.0
 11
85.63750771755275
 21
380.7423677056569
 31
0.0
  0
SPLINE
  5
1C8
330
6C
100
AcDbEntity
  8
Viditelná (ISO)
100
AcDbSpline
210
0.0
220
0.0
230
1.0
 70
     8
 71
     3
 72
    14
 73
    10
 74
     0
 42
0.0000000001
 43
0.0000000001
 40
0.5424496754713545
 40
0.5424496754713545
 40
0.5424496754713545
 40
0.5424496754713545
 40
0.5876593249683813
 40
0.5876593249683813
 40
0.632868974465408
 40
0.632868974465408
 40
0.6780724773136713
 40
0.6780724773136713
 40
0.7232759801619347
 40
0.7232759801619347
 40
0.7232759801619347
 40
0.7232759801619347
 10
85.63750771755278
 20
380.7423677056569
 30
0.0
 10
85.58140576651139
 20
380.7423677056569
 30
0.0
 10
85.52205482812798
 20
380.7122500420254
 30
0.0
 10
85.41374206088306
 20
380.5897753977424
 30
0.0
 10
85.36475475621728
 20
380.497418727131
 30
0.0
 10
85.28777523691244
 20
380.2843348491051
 30
0.0
 10
85.25464486596987
 20
380.1494070847651
 30
0.0
 10
85.21081581763898
 20
379.8537629207576
 30
0.0
 10
85.2000919936127
 20
379.6930460484845
 30
0.0
 10
85.2000919936127
 20
379.5423677056569
 30
0.0
  0
LINE
  5
1C9
330
6C
100
AcDbEntity
  8
Viditelná (ISO)
100
AcDbLine
 10
85.20009199361272
 20
379.5423677056569
 30
0.0
 11
85.20009199361272
 21
379.2492587195202
 31
0.0
  0
SPLINE
  5
1CA
330
6C
100
AcDbEntity
  8
Viditelná (ISO)
100
AcDbSpline
210
0.0
220
0.0
230
1.0
 70
     8
 71
     3
 72
    16
 73
    12
 74
     0
 42
0.0000000001
 43
0.0000000001
 40
0.0
 40
0.0
 40
0.0
 40
0.0
 40
0.0403406412919402
 40
0.0403406412919402
 40
0.0791817274971356
 40
0.0791817274971356
 40
0.1179957192673784
 40
0.1179957192673784
 40
0.1387948379939086
 40
0.1387948379939086
 40
0.1583448270556672
 40
0.1583448270556672
 40
0.1583448270556672
 40
0.1583448270556672
 10
85.20009199356925
 20
379.2492587187144
 30
0.0
 10
85.20009199356929
 20
379.1147899144079
 30
0.0
 10
85.19047731472268
 20
378.9816444858407
 30
0.0
 10
85.15403052300655
 20
378.7384168576452
 30
0.0
 10
85.12819111900192
 20
378.6298825977784
 30
0.0
 10
85.06377585715997
 20
378.4464327340805
 30
0.0
 10
85.02581108613401
 20
378.3731870827861
 30
0.0
 10
84.96209521547951
 20
378.2953239522144
 30
0.0
 10
84.93902415592158
 20
378.2748420287797
 30
0.0
 10
84.8933853322474
 20
378.2487420107909
 30
0.0
 10
84.8709798635167
 20
378.242367701757
 30
0.0
 10
84.84860526612914
 20
378.2423677014709
 30
0.0
  0
SPLINE
  5
1CB
330
6C
100
AcDbEntity
  8
Viditelná tenká (ISO)
100
AcDbSpline
210
0.0
220
0.0
230
1.0
 70
     8
 71
     3
 72
     8
 73
     4
 74
     0
 42
0.0000000001
 43
0.0000000001
 40
0.0
 40
0.0
 40
0.0
 40
0.0
 40
0.7252188338884828
 40
0.7252188338884828
 40
0.7252188338884828
 40
0.7252188338884828
 10
86.73082572307306
 20
379.2492587193284
 30
0.0
 10
90.27858866797389
 20
378.9135940775434
 30
0.0
 10
93.82635516331749
 20
378.5779733944313
 30
0.0
 10
97.37412287473103
 20
378.2423677104315
 30
0.0
  0
ELLIPSE
  5
1CC
330
6C
100
AcDbEntity
  8
Viditelná tenká (ISO)
100
AcDbEllipse
 10
100.5059271749947
 20
379.2423677056569
 30
0.0
 11
-0.0000000000000134
 21
0.3000000000000033
 31
0.0
210
0.0
220
0.0
230
1.0
 40
0.9238795325112759
 41
5.148721293383355
 42
6.283185307179666
  0
LINE
  5
1CD
330
6C
100
AcDbEntity
  8
Viditelná tenká (ISO)
100
AcDbLine
 10
100.5059271749947
 20
379.5423677056569
 30
0.0
 11
86.73082572307306
 21
379.5423677056569
 31
0.0
  0
LINE
  5
1CE
330
6C
100
AcDbEntity
  8
Viditelná (ISO)
100
AcDbLine
 10
86.2498012093369
 20
380.7423677056569
 30
0.0
 11
100.0467070561566
 21
380.7423677056569
 31
0.0
  0
SPLINE
  5
1CF
330
6C
100
AcDbEntity
  8
Viditelná tenká (ISO)
100
AcDbSpline
210
0.0
220
0.0
230
1.0
 70
     8
 71
     3
 72
     8
 73
     4
 74
     0
 42
0.0000000001
 43
0.0000000001
 40
0.0
 40
0.0
 40
0.0
 40
0.0
 40
0.7252188339488511
 40
0.7252188339488511
 40
0.7252188339488511
 40
0.7252188339488511
 10
126.3311751161661
 20
379.2492587193284
 30
0.0
 10
127.8007066441511
 20
378.9135940775176
 30
0.0
 10
129.2702396364757
 20
378.5779733943769
 30
0.0
 10
130.7397731444898
 20
378.2423677103501
 30
0.0
  0
LINE
  5
1D0
330
6C
100
AcDbEntity
  8
Viditelná tenká (ISO)
100
AcDbLine
 10
132.3421305105456
 20
378.2423677056569
 30
0.0
 11
132.1410576530341
 21
379.3691531841791
 31
0.0
  0
ELLIPSE
  5
1D1
330
6C
100
AcDbEntity
  8
Viditelná tenká (ISO)
100
AcDbEllipse
 10
132.0370089606174
 20
379.2423677056569
 30
0.0
 11
-0.0000000000000047
 21
0.2999999999999992
 31
0.0
210
0.0
220
0.0
230
1.0
 40
0.3826834323650762
 41
5.148721293383156
 42
6.28318530717939
  0
LINE
  5
1D2
330
6C
100
AcDbEntity
  8
Viditelná tenká (ISO)
100
AcDbLine
 10
132.0370089606174
 20
379.5423677056569
 30
0.0
 11
126.3311751161662
 21
379.5423677056569
 31
0.0
  0
LINE
  5
1D3
330
6C
100
AcDbEntity
  8
Viditelná (ISO)
100
AcDbLine
 10
125.2134880010665
 20
380.7423677056569
 30
0.0
 11
130.9283535216039
 21
380.7423677056569
 31
0.0
  0
LINE
  5
1D4
330
6C
100
AcDbEntity
  8
Viditelná tenká (ISO)
100
AcDbLine
 10
171.2983919062179
 20
379.3691531841791
 30
0.0
 11
171.0973190487064
 21
378.2423677056569
 31
0.0
  0
SPLINE
  5
1D5
330
6C
100
AcDbEntity
  8
Viditelná tenká (ISO)
100
AcDbSpline
210
0.0
220
0.0
230
1.0
 70
    12
 71
     3
 72
     8
 73
     4
 74
     0
 42
0.0000000001
 43
0.0000000001
 40
0.0043808130006128
 40
0.0043808130006128
 40
0.0043808130006128
 40
0.0043808130006128
 40
0.0159457252419972
 40
0.0159457252419972
 40
0.0159457252419972
 40
0.0159457252419972
 10
172.6993798687161
 20
378.2423677037638
 30
0.0
 41
1.0
 10
174.1690137186851
 20
378.5779285421461
 30
0.0
 41
1.0
 10
175.6386448168613
 20
378.9135716351765
 30
0.0
 41
1.0
 10
177.1082744431128
 20
379.2492587187162
 30
0.0
 41
1.0
  0
LINE
  5
1D6
330
6C
100
AcDbEntity
  8
Viditelná tenká (ISO)
100
AcDbLine
 10
177.108274443086
 20
379.5423677056569
 30
0.0
 11
171.4024405986346
 21
379.5423677056569
 31
0.0
  0
ELLIPSE
  5
1D7
330
6C
100
AcDbEntity
  8
Viditelná tenká (ISO)
100
AcDbEllipse
 10
171.4024405986346
 20
379.2423677056569
 30
0.0
 11
0.0000000000000022
 21
0.2999999999999998
 31
0.0
210
0.0
220
0.0
230
1.0
 40
0.3826834323650908
 41
0.0000000000005156
 42
1.134464013796657
  0
LINE
  5
1D8
330
6C
100
AcDbEntity
  8
Viditelná (ISO)
100
AcDbLine
 10
172.5110960376481
 20
380.7423677056569
 30
0.0
 11
178.2259615581856
 21
380.7423677056569
 31
0.0
  0
SPLINE
  5
1D9
330
6C
100
AcDbEntity
  8
Viditelná tenká (ISO)
100
AcDbSpline
210
0.0
220
0.0
230
1.0
 70
    12
 71
     3
 72
     8
 73
     4
 74
     0
 42
0.0000000001
 43
0.0000000001
 40
0.0043808129976015
 40
0.0043808129976015
 40
0.0043808129976015
 40
0.0043808129976015
 40
0.0159457252419972
 40
0.0159457252419972
 40
0.0159457252419972
 40
0.0159457252419972
 10
206.0646107568908
 20
378.2423677034994
 30
0.0
 41
1.0
 10
209.6126207301322
 20
378.5779285419691
 30
0.0
 41
1.0
 10
213.1606240599577
 20
378.9135716350912
 30
0.0
 41
1.0
 10
216.7086238362435
 20
379.2492587187162
 30
0.0
 41
1.0
  0
LINE
  5
1DA
330
6C
100
AcDbEntity
  8
Viditelná tenká (ISO)
100
AcDbLine
 10
216.7086238361786
 20
379.5423677056569
 30
0.0
 11
202.9335223842569
 21
379.5423677056569
 31
0.0
  0
ELLIPSE
  5
1DB
330
6C
100
AcDbEntity
  8
Viditelná tenká (ISO)
100
AcDbEllipse
 10
202.9335223842569
 20
379.2423677056569
 30
0.0
 11
0.0
 21
0.2999999999999811
 31
0.0
210
0.0
220
0.0
230
1.0
 40
0.9238795325112969
 41
0.0000000000000199
 42
1.134464013796397
  0
LINE
  5
1DC
330
6C
100
AcDbEntity
  8
Viditelná (ISO)
100
AcDbLine
 10
203.392742503095
 20
380.7423677056569
 30
0.0
 11
217.1896483499148
 21
380.7423677056569
 31
0.0
  0
ELLIPSE
  5
1DD
330
6C
100
AcDbEntity
  8
Viditelná tenká (ISO)
100
AcDbEllipse
 10
100.0467070561566
 20
379.5423677056569
 30
0.0
 11
0.0
 21
1.200000000000006
 31
0.0
210
0.0
220
0.0
230
1.0
 40
0.3826834323650932
 41
4.712388980384748
 42
6.283185307179648
  0
ELLIPSE
  5
1DE
330
6C
100
AcDbEntity
  8
Viditelná tenká (ISO)
100
AcDbEllipse
 10
130.9283535216039
 20
379.5423677056569
 30
0.0
 11
0.0000000000000044
 21
1.200000000000002
 31
0.0
210
0.0
220
0.0
230
1.0
 40
0.9238795325112899
 41
4.712388980384693
 42
6.283185307179587
  0
ELLIPSE
  5
1DF
330
6C
100
AcDbEntity
  8
Viditelná tenká (ISO)
100
AcDbEllipse
 10
131.0324022140205
 20
379.3691531841791
 30
0.0
 11
1.181338271237208
 21
0.2108077060034339
 31
0.0
210
0.0
220
0.0
230
0.9999999999999998
 40
0.3904483620877467
 41
5.854497242507637
 42
6.283185307179315
  0
ELLIPSE
  5
1E0
330
6C
100
AcDbEntity
  8
Viditelná tenká (ISO)
100
AcDbEllipse
 10
172.5110960376481
 20
379.5423677056569
 30
0.0
 11
0.0000000000000022
 21
1.200000000000001
 31
0.0
210
0.0
220
0.0
230
1.0
 40
0.9238795325112853
 41
0.0
 42
1.570796326794898
  0
ELLIPSE
  5
1E1
330
6C
100
AcDbEntity
  8
Viditelná tenká (ISO)
100
AcDbEllipse
 10
172.4070473452314
 20
379.3691531841791
 30
0.0
 11
-1.181338271237166
 21
0.2108077060034014
 31
0.0
210
0.0
220
0.0
230
0.9999999999999996
 40
0.390448362087746
 41
0.0
 42
0.4286880646716913
  0
ELLIPSE
  5
1E2
330
6C
100
AcDbEntity
  8
Viditelná tenká (ISO)
100
AcDbEllipse
 10
203.392742503095
 20
379.5423677056569
 30
0.0
 11
0.0000000000000017
 21
1.200000000000007
 31
0.0
210
0.0
220
0.0
230
1.0
 40
0.3826834323650916
 41
0.0
 42
1.570796326794897
  0
ARC
  5
1E3
330
6C
100
AcDbEntity
  8
Viditelná (ISO)
100
AcDbCircle
 10
221.9197247796258
 20
371.2423677056569
 30
0.0
 40
2.999999999999999
100
AcDbArc
 50
90.0
 51
270.0
  0
ARC
  5
1E4
330
6C
100
AcDbEntity
  8
Viditelná (ISO)
100
AcDbCircle
 10
81.5197247796258
 20
371.2423677056569
 30
0.0
 40
2.999999999999999
100
AcDbArc
 50
270.0
 51
90.0
  0
LINE
  5
1E5
330
6C
100
AcDbEntity
  8
Viditelná (ISO)
100
AcDbLine
 10
202.0394687673183
 20
379.8439417107478
 30
0.0
 11
201.3494913049215
 21
378.2423677056569
 31
0.0
  0
LINE
  5
1E6
330
6C
100
AcDbEntity
  8
Viditelná (ISO)
100
AcDbLine
 10
102.0899582543301
 20
378.2423677056569
 30
0.0
 11
101.3999807919333
 21
379.8439417107479
 31
0.0
  0
ARC
  5
1E7
330
6C
100
AcDbEntity
  8
Viditelná (ISO)
100
AcDbCircle
 10
221.9197247796258
 20
375.2423677056569
 30
0.0
 40
1.0
100
AcDbArc
 50
270.0
 51
0.0
  0
ARC
  5
1E8
330
6C
100
AcDbEntity
  8
Viditelná (ISO)
100
AcDbCircle
 10
81.5197247796258
 20
375.2423677056569
 30
0.0
 40
1.0
100
AcDbArc
 50
180.0
 51
270.0
  0
ARC
  5
1E9
330
6C
100
AcDbEntity
  8
Viditelná (ISO)
100
AcDbCircle
 10
221.9197247796258
 20
367.2423677056569
 30
0.0
 40
1.0
100
AcDbArc
 50
0.0
 51
90.0
  0
ARC
  5
1EA
330
6C
100
AcDbEntity
  8
Viditelná (ISO)
100
AcDbCircle
 10
81.5197247796258
 20
367.2423677056569
 30
0.0
 40
1.0
100
AcDbArc
 50
90.0
 51
180.0
  0
LINE
  5
1EB
330
6C
100
AcDbEntity
  8
Viditelná (ISO)
100
AcDbLine
 10
80.5197247796258
 20
361.7423677056569
 30
0.0
 11
80.5197247796258
 21
367.2423677056569
 31
0.0
  0
LINE
  5
1EC
330
6C
100
AcDbEntity
  8
Viditelná (ISO)
100
AcDbLine
 10
222.9197247796258
 20
361.7423677056569
 30
0.0
 11
222.9197247796258
 21
367.2423677056569
 31
0.0
  0
LINE
  5
1ED
330
6C
100
AcDbEntity
  8
Viditelná (ISO)
100
AcDbLine
 10
80.5197247796258
 20
375.2423677056569
 30
0.0
 11
80.5197247796258
 21
378.2423677056569
 31
0.0
  0
LINE
  5
1EE
330
6C
100
AcDbEntity
  8
Viditelná (ISO)
100
AcDbLine
 10
222.9197247796258
 20
375.2423677056569
 30
0.0
 11
222.9197247796258
 21
378.2423677056569
 31
0.0
  0
SPLINE
  5
1EF
330
6C
100
AcDbEntity
  8
Viditelná (ISO)
100
AcDbSpline
210
0.0
220
0.0
230
1.0
 70
     8
 71
     3
 72
    16
 73
    12
 74
     0
 42
0.0000000001
 43
0.0000000001
 40
3.141592653589787
 40
3.141592653589787
 40
3.141592653589787
 40
3.141592653589787
 40
3.368485456349052
 40
3.368485456349052
 40
3.595378259108317
 40
3.595378259108317
 40
3.822271061867581
 40
3.822271061867581
 40
4.049163864626846
 40
4.049163864626846
 40
4.27605666738611
 40
4.27605666738611
 40
4.27605666738611
 40
4.27605666738611
 10
100.0467070561566
 20
380.7423677056569
 30
0.0
 10
100.1659040178146
 20
380.7423677056569
 30
0.0
 10
100.2850686941431
 20
380.727594424178
 30
0.0
 10
100.5148863071878
 20
380.6701653170863
 30
0.0
 10
100.6254942270919
 20
380.6275501669075
 30
0.0
 10
100.8313745298485
 20
380.5188622595943
 30
0.0
 10
100.9266414207688
 20
380.4528405111826
 30
0.0
 10
101.0975702376382
 20
380.3030207329074
 30
0.0
 10
101.1732547206874
 20
380.2192562653972
 30
0.0
 10
101.3029829186156
 20
380.039530970535
 30
0.0
 10
101.3570554377781
 20
379.9435799382568
 30
0.0
 10
101.3999807919333
 20
379.8439417107479
 30
0.0
  0
SPLINE
  5
1F0
330
6C
100
AcDbEntity
  8
Viditelná (ISO)
100
AcDbSpline
210
0.0
220
0.0
230
1.0
 70
     8
 71
     3
 72
    20
 73
    16
 74
     0
 42
0.0000000001
 43
0.0000000001
 40
3.141592653589793
 40
3.141592653589793
 40
3.141592653589793
 40
3.141592653589793
 40
3.264495707151464
 40
3.264495707151464
 40
3.398122002124018
 40
3.398122002124018
 40
3.566796551175888
 40
3.566796551175888
 40
3.793689353935159
 40
3.793689353935159
 40
4.020582156694429
 40
4.020582156694429
 40
4.2474749594537
 40
4.2474749594537
 40
4.276056667386147
 40
4.276056667386147
 40
4.276056667386147
 40
4.276056667386147
 10
130.9283535216039
 20
380.7423677056569
 30
0.0
 10
131.0615212802855
 20
380.7423677056569
 30
0.0
 10
131.1939711234456
 20
380.7198761984981
 30
0.0
 10
131.4383351394622
 20
380.6409984142229
 30
0.0
 10
131.5472155340214
 20
380.5831620198635
 30
0.0
 10
131.7479256354718
 20
380.4455861538746
 30
0.0
 10
131.8292375585537
 20
380.3647854887216
 30
0.0
 10
131.9770188091261
 20
380.1899161157164
 30
0.0
 10
132.0301413664633
 20
380.0996596099466
 30
0.0
 10
132.1114907050034
 20
379.9373539377591
 30
0.0
 10
132.1390426933754
 20
379.8645713556807
 30
0.0
 10
132.1822832139003
 20
379.7281687802774
 30
0.0
 10
132.1976635092592
 20
379.6645333651628
 30
0.0
 10
132.2109453949269
 20
379.5953380986961
 30
0.0
 10
132.2123714023362
 20
379.5876330482946
 30
0.0
 10
132.2137404852577
 20
379.5799608901826
 30
0.0
  0
LINE
  5
1F1
330
6C
100
AcDbEntity
  8
Viditelná (ISO)
100
AcDbLine
 10
132.4524316016477
 20
378.2423677056569
 30
0.0
 11
132.2137404852577
 21
379.5799608901826
 31
0.0
  0
SPLINE
  5
1F2
330
6C
100
AcDbEntity
  8
Viditelná (ISO)
100
AcDbSpline
210
0.0
220
0.0
230
1.0
 70
     8
 71
     3
 72
    20
 73
    16
 74
     0
 42
0.0000000001
 43
0.0000000001
 40
3.141592653589795
 40
3.141592653589795
 40
3.141592653589795
 40
3.141592653589795
 40
3.264495707151465
 40
3.264495707151465
 40
3.398122002124018
 40
3.398122002124018
 40
3.566796551175887
 40
3.566796551175887
 40
3.79368935393516
 40
3.79368935393516
 40
4.020582156694434
 40
4.020582156694434
 40
4.247474959453708
 40
4.247474959453708
 40
4.276056667386161
 40
4.276056667386161
 40
4.276056667386161
 40
4.276056667386161
 10
172.5110960376482
 20
380.7423677056569
 30
0.0
 10
172.3779282789665
 20
380.7423677056569
 30
0.0
 10
172.2454784358063
 20
380.7198761984981
 30
0.0
 10
172.0011144197898
 20
380.6409984142229
 30
0.0
 10
171.8922340252305
 20
380.5831620198635
 30
0.0
 10
171.6915239237802
 20
380.4455861538746
 30
0.0
 10
171.6102120006982
 20
380.3647854887216
 30
0.0
 10
171.4624307501258
 20
380.1899161157164
 30
0.0
 10
171.4093081927886
 20
380.0996596099466
 30
0.0
 10
171.3279588542485
 20
379.9373539377591
 30
0.0
 10
171.3004068658766
 20
379.8645713556807
 30
0.0
 10
171.2571663453516
 20
379.7281687802773
 30
0.0
 10
171.2417860499927
 20
379.6645333651628
 30
0.0
 10
171.2285041643251
 20
379.5953380986961
 30
0.0
 10
171.2270781569158
 20
379.5876330482946
 30
0.0
 10
171.2257090739943
 20
379.5799608901826
 30
0.0
  0
LINE
  5
1F3
330
6C
100
AcDbEntity
  8
Viditelná (ISO)
100
AcDbLine
 10
171.2257090739942
 20
379.5799608901826
 30
0.0
 11
170.9870179576043
 21
378.2423677056569
 31
0.0
  0
SPLINE
  5
1F4
330
6C
100
AcDbEntity
  8
Viditelná (ISO)
100
AcDbSpline
210
0.0
220
0.0
230
1.0
 70
     8
 71
     3
 72
    16
 73
    12
 74
     0
 42
0.0000000001
 43
0.0000000001
 40
3.141592653589789
 40
3.141592653589789
 40
3.141592653589789
 40
3.141592653589789
 40
3.368485456349056
 40
3.368485456349056
 40
3.595378259108324
 40
3.595378259108324
 40
3.822271061867592
 40
3.822271061867592
 40
4.04916386462686
 40
4.04916386462686
 40
4.276056667386128
 40
4.276056667386128
 40
4.276056667386128
 40
4.276056667386128
 10
203.392742503095
 20
380.7423677056569
 30
0.0
 10
203.273545541437
 20
380.7423677056569
 30
0.0
 10
203.1543808651085
 20
380.727594424178
 30
0.0
 10
202.9245632520638
 20
380.6701653170863
 30
0.0
 10
202.8139553321596
 20
380.6275501669075
 30
0.0
 10
202.6080750294031
 20
380.5188622595943
 30
0.0
 10
202.5128081384828
 20
380.4528405111825
 30
0.0
 10
202.3418793216134
 20
380.3030207329074
 30
0.0
 10
202.2661948385642
 20
380.2192562653972
 30
0.0
 10
202.136466640636
 20
380.039530970535
 30
0.0
 10
202.0823941214735
 20
379.9435799382568
 30
0.0
 10
202.0394687673183
 20
379.8439417107478
 30
0.0
  0
LINE
  5
1F5
330
6C
100
AcDbEntity
  8
Viditelná (ISO)
100
AcDbLine
 10
80.5197247796258
 20
361.7423677056569
 30
0.0
 11
222.9197247796258
 21
361.7423677056569
 31
0.0
  0
LINE
  5
1F6
330
6C
100
AcDbEntity
  8
Viditelná (ISO)
100
AcDbLine
 10
222.9197247796258
 20
351.7423677056569
 30
0.0
 11
80.51972477962578
 21
351.7423677056569
 31
0.0
  0
LINE
  5
1F7
330
6C
100
AcDbEntity
  8
Viditelná (ISO)
100
AcDbLine
 10
80.5197247796258
 20
351.7423677056569
 30
0.0
 11
80.5197247796258
 21
361.7423677056569
 31
0.0
  0
LINE
  5
1F8
330
6C
100
AcDbEntity
  8
Viditelná (ISO)
100
AcDbLine
 10
222.9197247796258
 20
351.7423677056569
 30
0.0
 11
222.9197247796258
 21
361.7423677056569
 31
0.0
  0
LINE
  5
1F9
330
6C
100
AcDbEntity
  8
Osa (ISO)
  6
Continuous
100
AcDbLine
 10
151.7197247796258
 20
8.973200988640002
 30
0.0
 11
151.7197247796258
 21
387.7884902358937
 31
0.0
  0
DIMENSION
  5
1FA
330
6C
100
AcDbEntity
  8
Kóta (ISO)
100
AcDbDimension
  2
*D29
 10
29.64432455792111
 20
48.24236770565684
 30
0.0
 11
29.6443245579211
 21
123.2423677056569
 31
0.0
 70
   160
  1
<>
 71
     2
 42
150.0000000000001
  3
Různé objekty (ISO)
100
AcDbAlignedDimension
 13
52.6443245579211
 23
198.2423677056569
 33
0.0
 14
79.50237670550947
 24
48.24236770565683
 34
0.0
 50
270.0
100
AcDbRotatedDimension
1001
ACAD
1000
DSTYLE
1002
{
1070
   172
1070
     0
1070
   289
1070
     1
1070
   271
1070
     2
1070
   272
1070
     2
1070
    48
1040
0.0
1070
    47
1040
0.0
1002
}
  0
DIMENSION
  5
2D1
330
6C
100
AcDbEntity
  8
Kóta (ISO)
100
AcDbDimension
  2
*D30
 10
32.99786001373722
 20
235.3423677056565
 30
0.0
 11
32.99786001373718
 21
274.3423677056567
 31
0.0
 70
   160
  1
<>
 71
     2
 42
78.00000000000043
  3
Různé objekty (ISO)
100
AcDbAlignedDimension
 13
101.7197247796258
 23
313.3423677056569
 33
0.0
 14
151.7197247796258
 24
235.3423677056564
 34
0.0
 50
90.0
100
AcDbRotatedDimension
1001
ACAD
1000
DSTYLE
1002
{
1070
   172
1070
     0
1070
   289
1070
     1
1070
   271
1070
     2
1070
   272
1070
     2
1070
    48
1040
0.0
1070
    47
1040
0.0
1002
}
  0
DIMENSION
  5
3A7
330
6C
100
AcDbEntity
  8
Kóta (ISO)
100
AcDbDimension
  2
*D31
 10
101.7197247796258
 20
327.3423677056569
 30
0.0
 11
151.7197247796258
 21
327.3423677056569
 31
0.0
 70
   160
  1
{\fAIGDT|b0|i0;\H2.6250;\ln\fTahoma|b0|i0;\H2.6250;}<>
 71
     2
 42
100.0
  3
Různé objekty (ISO)
100
AcDbAlignedDimension
 13
201.7197247796258
 23
313.3423677056569
 33
0.0
 14
101.7197247796258
 24
313.3423677056569
 34
0.0
 50
180.0
100
AcDbRotatedDimension
1001
ACAD
1000
DSTYLE
1002
{
1070
   172
1070
     0
1070
   289
1070
     1
1070
   271
1070
     2
1070
   272
1070
     2
1070
    48
1040
0.0
1070
    47
1040
0.0
1002
}
  0
DIMENSION
  5
47E
330
6C
100
AcDbEntity
  8
Kóta (ISO)
100
AcDbDimension
  2
*D32
 10
41.74569751797856
 20
351.7423677056569
 30
0.0
 11
41.7456975179785
 21
364.9923677056569
 31
0.0
 70
   160
  1
<>
 71
     2
 42
26.49999999999995
  3
Různé objekty (ISO)
100
AcDbAlignedDimension
 13
80.5197247796258
 23
378.2423677056569
 33
0.0
 14
80.51972477962578
 24
351.7423677056569
 34
0.0
 50
270.0
100
AcDbRotatedDimension
1001
ACAD
1000
DSTYLE
1002
{
1070
   172
1070
     0
1070
   289
1070
     1
1070
   271
1070
     2
1070
   272
1070
     2
1070
    48
1040
0.0
1070
    47
1040
0.0
1002
}
  0
DIMENSION
  5
55A
330
6C
100
AcDbEntity
  8
Kóta (ISO)
100
AcDbDimension
  2
*D33
 10
222.9197247796258
 20
395.8190502683059
 30
0.0
 11
151.7197247796258
 21
395.8190502683059
 31
0.0
 70
   160
  1
{\fAIGDT|b0|i0;\H2.6250;\ln\fTahoma|b0|i0;\H2.6250;}<>
 71
     2
 42
142.4
  3
Různé objekty (ISO)
100
AcDbAlignedDimension
 13
80.51972477962578
 23
375.2423677056569
 33
0.0
 14
222.9197247796258
 24
375.2423677056569
 34
0.0
 50
180.0
100
AcDbRotatedDimension
1001
ACAD
1000
DSTYLE
1002
{
1070
   172
1070
     0
1070
   289
1070
     1
1070
   271
1070
     0
1070
   272
1070
     2
1070
    48
1040
0.0
1070
    47
1040
0.0
1002
}
  0
DIMENSION
  5
630
330
6C
100
AcDbEntity
  8
Kóta (ISO)
100
AcDbDimension
  2
*D34
 10
250.7951250013305
 20
217.242367705657
 30
0.0
 11
148.229904581729
 21
217.242367705657
 31
0.0
 70
   160
  1
{\fAIGDT|b0|i0;\H2.6250;\ln\fTahoma|b0|i0;\H2.6250;}<>
 71
     2
 42
198.1508004434094
  3
Různé objekty (ISO)
100
AcDbAlignedDimension
 13
52.64432455792107
 23
194.2423677056569
 33
0.0
 14
250.7951250013305
 24
194.2423677056569
 34
0.0
 50
180.0
100
AcDbRotatedDimension
1001
ACAD
1000
DSTYLE
1002
{
1070
   172
1070
     0
1070
   289
1070
     1
1070
   271
1070
     0
1070
   272
1070
     2
1070
    48
1040
0.0
1070
    47
1040
0.0
1002
}
  0
ENDSEC
  0
SECTION
  2
OBJECTS
  0
DICTIONARY
  5
C
330
0
100
AcDbDictionary
281
     1
  3
ACAD_CIP_PREVIOUS_PRODUCT_INFO
350
706
  3
ACAD_COLOR
350
63
  3
ACAD_GROUP
350
D
  3
ACAD_LAYOUT
350
62
  3
ACAD_MATERIAL
350
10
  3
ACAD_MLEADERSTYLE
350
66
  3
ACAD_MLINESTYLE
350
5F
  3
ACAD_PLOTSETTINGS
350
61
  3
ACAD_PLOTSTYLENAME
350
E
  3
ACAD_SCALELIST
350
42
  3
ACAD_TABLESTYLE
350
64
  3
ACAD_VISUALSTYLE
350
29
  3
ACDB_RECOMPOSE_DATA
350
714
  3
AcDbVariableDictionary
350
707
  0
DICTIONARY
  5
74A
330
CA
100
AcDbDictionary
280
     1
281
     1
  3
ACAD_MTEXT_2008_RT
360
74B
  0
DICTIONARY
  5
74C
330
CF
100
AcDbDictionary
280
     1
281
     1
  3
ACAD_MTEXT_2008_RT
360
74D
  0
DICTIONARY
  5
74E
330
D3
100
AcDbDictionary
280
     1
281
     1
  3
ACAD_MTEXT_2008_RT
360
74F
  0
DICTIONARY
  5
750
330
D7
100
AcDbDictionary
280
     1
281
     1
  3
ACAD_MTEXT_2008_RT
360
751
  0
DICTIONARY
  5
752
330
E3
100
AcDbDictionary
280
     1
281
     1
  3
ACAD_MTEXT_2008_RT
360
753
  0
DICTIONARY
  5
754
330
E7
100
AcDbDictionary
280
     1
281
     1
  3
ACAD_MTEXT_2008_RT
360
755
  0
DICTIONARY
  5
756
330
EB
100
AcDbDictionary
280
     1
281
     1
  3
ACAD_MTEXT_2008_RT
360
757
  0
DICTIONARY
  5
758
330
EF
100
AcDbDictionary
280
     1
281
     1
  3
ACAD_MTEXT_2008_RT
360
759
  0
DICTIONARY
  5
75A
330
FB
100
AcDbDictionary
280
     1
281
     1
  3
ACAD_MTEXT_2008_RT
360
75B
  0
DICTIONARY
  5
75C
330
FF
100
AcDbDictionary
280
     1
281
     1
  3
ACAD_MTEXT_2008_RT
360
75D
  0
DICTIONARY
  5
75E
330
103
100
AcDbDictionary
280
     1
281
     1
  3
ACAD_MTEXT_2008_RT
360
75F
  0
DICTIONARY
  5
760
330
107
100
AcDbDictionary
280
     1
281
     1
  3
ACAD_MTEXT_2008_RT
360
761
  0
DICTIONARY
  5
762
330
10B
100
AcDbDictionary
280
     1
281
     1
  3
ACAD_MTEXT_2008_RT
360
763
  0
DICTIONARY
  5
764
330
10F
100
AcDbDictionary
280
     1
281
     1
  3
ACAD_MTEXT_2008_RT
360
765
  0
DICTIONARY
  5
766
330
113
100
AcDbDictionary
280
     1
281
     1
  3
ACAD_MTEXT_2008_RT
360
767
  0
DICTIONARY
  5
768
330
117
100
AcDbDictionary
280
     1
281
     1
  3
ACAD_MTEXT_2008_RT
360
769
  0
DICTIONARY
  5
76A
330
11F
100
AcDbDictionary
280
     1
281
     1
  3
ACAD_MTEXT_2008_RT
360
76B
  0
XRECORD
  5
706
102
{ACAD_REACTORS
330
C
102
}
330
C
100
AcDbXrecord
280
     1
300
INVNTOR
300
2012
300
PDSP_F_S
  0
DICTIONARY
  5
63
102
{ACAD_REACTORS
330
C
102
}
330
C
100
AcDbDictionary
281
     1
  0
DICTIONARY
  5
D
102
{ACAD_REACTORS
330
C
102
}
330
C
100
AcDbDictionary
281
     1
  0
DICTIONARY
  5
62
102
{ACAD_REACTORS
330
C
102
}
330
C
100
AcDbDictionary
281
     1
  3
Layout1
350
6B
  3
Layout2
350
73
  3
Model
350
6F
  0
DICTIONARY
  5
10
102
{ACAD_REACTORS
330
C
102
}
330
C
100
AcDbDictionary
281
     1
  3
ByBlock
350
19
  3
ByLayer
350
11
  3
Global
350
21
  0
DICTIONARY
  5
66
102
{ACAD_REACTORS
330
C
102
}
330
C
100
AcDbDictionary
281
     1
  3
Standard
350
67
  0
DICTIONARY
  5
5F
102
{ACAD_REACTORS
330
C
102
}
330
C
100
AcDbDictionary
281
     1
  3
Standard
350
60
  0
DICTIONARY
  5
61
102
{ACAD_REACTORS
330
C
102
}
330
C
100
AcDbDictionary
281
     1
  0
ACDBDICTIONARYWDFLT
  5
E
102
{ACAD_REACTORS
330
C
102
}
330
C
100
AcDbDictionary
281
     1
  3
Normal
350
F
100
AcDbDictionaryWithDefault
340
F
  0
DICTIONARY
  5
42
102
{ACAD_REACTORS
330
C
102
}
330
C
100
AcDbDictionary
281
     1
  3
A0
350
43
  3
A1
350
44
  3
A2
350
45
  3
A3
350
46
  3
A4
350
47
  3
A5
350
48
  3
A6
350
49
  3
A7
350
4A
  3
A8
350
4B
  3
A9
350
4C
  3
B0
350
4D
  3
B1
350
4E
  3
B2
350
4F
  3
B3
350
50
  3
B4
350
51
  3
B5
350
52
  3
B6
350
53
  0
DICTIONARY
  5
64
102
{ACAD_REACTORS
330
C
102
}
330
C
100
AcDbDictionary
281
     1
  3
Standard
350
65
  0
DICTIONARY
  5
29
102
{ACAD_REACTORS
330
C
102
}
330
C
100
AcDbDictionary
281
     1
  3
2dWireframe
350
2F
  3
Basic
350
2E
  3
Brighten
350
35
  3
ColorChange
350
39
  3
Conceptual
350
32
  3
Dim
350
34
  3
EdgeColorOff
350
41
  3
Facepattern
350
38
  3
Flat
350
2A
  3
FlatWithEdges
350
2B
  3
Gouraud
350
2C
  3
GouraudWithEdges
350
2D
  3
Hidden
350
31
  3
JitterOff
350
3F
  3
Linepattern
350
37
  3
OverhangOff
350
40
  3
Realistic
350
33
  3
Shaded
350
3E
  3
Shaded with edges
350
3D
  3
Shades of Gray
350
3A
  3
Sketchy
350
3B
  3
Thicken
350
36
  3
Wireframe
350
30
  3
X-Ray
350
3C
  0
XRECORD
  5
714
102
{ACAD_REACTORS
330
C
102
}
330
C
100
AcDbXrecord
280
     1
 90
        1
330
65
  0
DICTIONARY
  5
707
102
{ACAD_REACTORS
330
C
102
}
330
C
100
AcDbDictionary
281
     1
  3
CANNOSCALE
350
70B
  3
CMLEADERSTYLE
350
709
  3
CTABLESTYLE
350
708
  3
LAYEREVAL
350
70D
  3
LAYERNOTIFY
350
70E
  3
LIGHTINGUNITS
350
70C
  3
MSLTSCALE
350
70A
  3
XCLIPFRAME
350
70F
  0
XRECORD
  5
74B
102
{ACAD_REACTORS
330
74A
102
}
330
74A
100
AcDbXrecord
280
     1
 40
3087375.0
  1
WIG svařování- svary dle potřeby zabrousit.\PPohledové plochy brousit (vel. brusných zrn 240)\Pa polepit páskou.\P\PWIG Schweisung, Nahte sauber geschliffen und poliert\PSichtstege geschliffen mit 240 Korn und abgeklebt.
  0
XRECORD
  5
74D
102
{ACAD_REACTORS
330
74C
102
}
330
74C
100
AcDbXrecord
280
     1
 40
2428738.0
  1
WIG svařování- svary dle potřeby zabrousit.\PPohledové plochy brousit (vel. brusných zrn 240)\Pa polepit páskou.\P \PWIG welding - Visible sufaces to be grinded\Pand covered by protectiv foil.
  0
XRECORD
  5
74F
102
{ACAD_REACTORS
330
74E
102
}
330
74E
100
AcDbXrecord
280
     1
 40
2458240.0
  1
Vzdálenost nivel. šroubů ca. 1500\PVzdálenost kotev ca. 400\PVzdálenost dist. kolíků ca. 250\P \PAbstand der Nivellieschraben ca.1500\PAbstand der Maueranker ca.400\PAbstand der Distanzstege ca.250\P 
  0
XRECORD
  5
751
102
{ACAD_REACTORS
330
750
102
}
330
750
100
AcDbXrecord
280
     1
 40
1069838.0
  1
Vzdálenost nivel. šroubů ca. 1500\PVzdálenost kotev ca. 400\P \PDistance of leveling feets ca.1500\PDistance of fixing tangs ca.400\P\P 
  0
XRECORD
  5
753
102
{ACAD_REACTORS
330
752
102
}
330
752
100
AcDbXrecord
280
     1
 40
126939.0
  1
Mořit a pasivovat\P(Gebeitzt und passivieren)
  0
XRECORD
  5
755
102
{ACAD_REACTORS
330
754
102
}
330
754
100
AcDbXrecord
280
     1
 40
109520.0
  1
Mořit a pasivovat\P(Pickled and passivate)
  0
XRECORD
  5
757
102
{ACAD_REACTORS
330
756
102
}
330
756
100
AcDbXrecord
280
     1
 40
93252.0
  1
Žárově zinkovat\P(Verzinkt )
  0
XRECORD
  5
759
102
{ACAD_REACTORS
330
758
102
}
330
758
100
AcDbXrecord
280
     1
 40
132246.0
  1
Žárově zinkovat\P(Hot-dip galvanize)
  0
XRECORD
  5
75B
102
{ACAD_REACTORS
330
75A
102
}
330
75A
100
AcDbXrecord
280
     1
 40
83720.0
  1
Elektrolyt. leštit\P(Elektr. poliert)
  0
XRECORD
  5
75D
102
{ACAD_REACTORS
330
75C
102
}
330
75C
100
AcDbXrecord
280
     1
 40
87333.0
  1
Elektrolyt. leštit\P(Electr. polished)
  0
XRECORD
  5
75F
102
{ACAD_REACTORS
330
75E
102
}
330
75E
100
AcDbXrecord
280
     1
 40
118263.0
  1
Žlab bez spádu!\PRinne ohne Gefälle!
  0
XRECORD
  5
761
102
{ACAD_REACTORS
330
760
102
}
330
760
100
AcDbXrecord
280
     1
 40
119399.0
  1
Žlab bez spádu!\PChannel without slope!
  0
XRECORD
  5
763
102
{ACAD_REACTORS
330
762
102
}
330
762
100
AcDbXrecord
280
     1
 40
2672228.0
  1
POZOR:\PSpád žlabu je menší než 1% - nebezpečí vzniku prohlubní\Pse stojatou vodou.\PACHTUNG:\PDas Bodengefälle ist kleiner als 1%. Das Gefahr der\PSenkungsentstehung mit dem stehenden Wasser.
  0
XRECORD
  5
765
102
{ACAD_REACTORS
330
764
102
}
330
764
100
AcDbXrecord
280
     1
 40
2193518.0
  1
POZOR:\PSpád žlabu je menší než 1% - nebezpečí vzniku prohlubní\Pse stojatou vodou.\PAUTENTION:\PThe gradient of the bottom is minor then 1%.\PThat can be reason of slack water.
  0
XRECORD
  5
767
102
{ACAD_REACTORS
330
766
102
}
330
766
100
AcDbXrecord
280
     1
 40
275286.0
  1
Kartáčováno + folie\PGeburstet mit abziehbarer Schutzfolie
  0
XRECORD
  5
769
102
{ACAD_REACTORS
330
768
102
}
330
768
100
AcDbXrecord
280
     1
 40
175505.0
  1
Kartáčováno + fólie.\P(Brushed and foils) 
  0
XRECORD
  5
76B
102
{ACAD_REACTORS
330
76A
102
}
330
76A
100
AcDbXrecord
280
     1
 40
2320136.0
  1
Povrchová úprava/Oberfläche:\PTryskat pouze vnitřek žlabu, včetně pohledových ploch!\PPříruby proti tryskání chránit!\PFlansches per strahlung behütent!
  0
LAYOUT
  5
6B
102
{ACAD_REACTORS
330
62
102
}
330
62
100
AcDbPlotSettings
  1

  2

  4

  6

 40
0.0
 41
0.0
 42
0.0
 43
0.0
 44
0.0
 45
0.0
 46
0.0
 47
0.0
 48
0.0
 49
0.0
140
0.0
141
0.0
142
1.0
143
1.0
 70
   688
 72
     0
 73
     0
 74
     5
  7

 75
    16
147
1.0
 76
     0
 77
     2
 78
   300
148
0.0
149
0.0
100
AcDbLayout
  1
Layout1
 70
     1
 71
     1
 10
0.0
 20
0.0
 11
12.0
 21
9.0
 12
0.0
 22
0.0
 32
0.0
 14
0.0
 24
0.0
 34
0.0
 15
0.0
 25
0.0
 35
0.0
146
0.0
 13
0.0
 23
0.0
 33
0.0
 16
1.0
 26
0.0
 36
0.0
 17
0.0
 27
1.0
 37
0.0
 76
     0
330
68
  0
LAYOUT
  5
73
102
{ACAD_REACTORS
330
62
102
}
330
62
100
AcDbPlotSettings
  1

  2

  4

  6

 40
0.0
 41
0.0
 42
0.0
 43
0.0
 44
0.0
 45
0.0
 46
0.0
 47
0.0
 48
0.0
 49
0.0
140
0.0
141
0.0
142
1.0
143
1.0
 70
   688
 72
     0
 73
     0
 74
     5
  7

 75
    16
147
1.0
 76
     0
 77
     2
 78
   300
148
0.0
149
0.0
100
AcDbLayout
  1
Layout2
 70
     1
 71
     2
 10
0.0
 20
0.0
 11
12.0
 21
9.0
 12
0.0
 22
0.0
 32
0.0
 14
0.0
 24
0.0
 34
0.0
 15
0.0
 25
0.0
 35
0.0
146
0.0
 13
0.0
 23
0.0
 33
0.0
 16
1.0
 26
0.0
 36
0.0
 17
0.0
 27
1.0
 37
0.0
 76
     0
330
70
  0
LAYOUT
  5
6F
102
{ACAD_REACTORS
330
62
102
}
330
62
100
AcDbPlotSettings
  1

  2

  4

  6

 40
0.0
 41
0.0
 42
0.0
 43
0.0
 44
0.0
 45
0.0
 46
0.0
 47
0.0
 48
0.0
 49
0.0
140
0.0
141
0.0
142
1.0
143
1.0
 70
  1712
 72
     0
 73
     0
 74
     0
  7

 75
     0
147
1.0
 76
     0
 77
     2
 78
   300
148
0.0
149
0.0
100
AcDbLayout
  1
Model
 70
     1
 71
     0
 10
0.0
 20
0.0
 11
12.0
 21
9.0
 12
0.0
 22
0.0
 32
0.0
 14
0.0
 24
0.0
 34
0.0
 15
0.0
 25
0.0
 35
0.0
146
0.0
 13
0.0
 23
0.0
 33
0.0
 16
1.0
 26
0.0
 36
0.0
 17
0.0
 27
1.0
 37
0.0
 76
     0
330
6C
  0
MATERIAL
  5
19
102
{ACAD_XDICTIONARY
360
1A
102
}
102
{ACAD_REACTORS
330
10
102
}
330
10
100
AcDbMaterial
  1
ByBlock
 72
     0
 43
0.0208333333333333
 43
0.0
 43
0.0
 43
0.0
 43
0.0
 43
0.0208333333333333
 43
0.0
 43
0.0
 43
0.0
 43
0.0
 43
1.0
 43
0.0
 43
0.0
 43
0.0
 43
0.0
 43
1.0
 77
     0
 47
0.0208333333333333
 47
0.0
 47
0.0
 47
0.0
 47
0.0
 47
0.0208333333333333
 47
0.0
 47
0.0
 47
0.0
 47
0.0
 47
1.0
 47
0.0
 47
0.0
 47
0.0
 47
0.0
 47
1.0
171
     0
 49
0.0208333333333333
 49
0.0
 49
0.0
 49
0.0
 49
0.0
 49
0.0208333333333333
 49
0.0
 49
0.0
 49
0.0
 49
0.0
 49
1.0
 49
0.0
 49
0.0
 49
0.0
 49
0.0
 49
1.0
175
     0
142
0.0208333333333333
142
0.0
142
0.0
142
0.0
142
0.0
142
0.0208333333333333
142
0.0
142
0.0
142
0.0
142
0.0
142
1.0
142
0.0
142
0.0
142
0.0
142
0.0
142
1.0
179
     0
144
0.0208333333333333
144
0.0
144
0.0
144
0.0
144
0.0
144
0.0208333333333333
144
0.0
144
0.0
144
0.0
144
0.0
144
1.0
144
0.0
144
0.0
144
0.0
144
0.0
144
1.0
147
0.0208333333333333
147
0.0
147
0.0
147
0.0
147
0.0
147
0.0208333333333333
147
0.0
147
0.0
147
0.0
147
0.0
147
1.0
147
0.0
147
0.0
147
0.0
147
0.0
147
1.0
  0
MATERIAL
  5
11
102
{ACAD_XDICTIONARY
360
12
102
}
102
{ACAD_REACTORS
330
10
102
}
330
10
100
AcDbMaterial
  1
ByLayer
 72
     0
 43
0.0208333333333333
 43
0.0
 43
0.0
 43
0.0
 43
0.0
 43
0.0208333333333333
 43
0.0
 43
0.0
 43
0.0
 43
0.0
 43
1.0
 43
0.0
 43
0.0
 43
0.0
 43
0.0
 43
1.0
 77
     0
 47
0.0208333333333333
 47
0.0
 47
0.0
 47
0.0
 47
0.0
 47
0.0208333333333333
 47
0.0
 47
0.0
 47
0.0
 47
0.0
 47
1.0
 47
0.0
 47
0.0
 47
0.0
 47
0.0
 47
1.0
171
     0
 49
0.0208333333333333
 49
0.0
 49
0.0
 49
0.0
 49
0.0
 49
0.0208333333333333
 49
0.0
 49
0.0
 49
0.0
 49
0.0
 49
1.0
 49
0.0
 49
0.0
 49
0.0
 49
0.0
 49
1.0
175
     0
142
0.0208333333333333
142
0.0
142
0.0
142
0.0
142
0.0
142
0.0208333333333333
142
0.0
142
0.0
142
0.0
142
0.0
142
1.0
142
0.0
142
0.0
142
0.0
142
0.0
142
1.0
179
     0
144
0.0208333333333333
144
0.0
144
0.0
144
0.0
144
0.0
144
0.0208333333333333
144
0.0
144
0.0
144
0.0
144
0.0
144
1.0
144
0.0
144
0.0
144
0.0
144
0.0
144
1.0
147
0.0208333333333333
147
0.0
147
0.0
147
0.0
147
0.0
147
0.0208333333333333
147
0.0
147
0.0
147
0.0
147
0.0
147
1.0
147
0.0
147
0.0
147
0.0
147
0.0
147
1.0
  0
MATERIAL
  5
21
102
{ACAD_XDICTIONARY
360
22
102
}
102
{ACAD_REACTORS
330
10
102
}
330
10
100
AcDbMaterial
  1
Global
 72
     0
 43
0.0208333333333333
 43
0.0
 43
0.0
 43
0.0
 43
0.0
 43
0.0208333333333333
 43
0.0
 43
0.0
 43
0.0
 43
0.0
 43
1.0
 43
0.0
 43
0.0
 43
0.0
 43
0.0
 43
1.0
 77
     0
 47
0.0208333333333333
 47
0.0
 47
0.0
 47
0.0
 47
0.0
 47
0.0208333333333333
 47
0.0
 47
0.0
 47
0.0
 47
0.0
 47
1.0
 47
0.0
 47
0.0
 47
0.0
 47
0.0
 47
1.0
171
     0
 49
0.0208333333333333
 49
0.0
 49
0.0
 49
0.0
 49
0.0
 49
0.0208333333333333
 49
0.0
 49
0.0
 49
0.0
 49
0.0
 49
1.0
 49
0.0
 49
0.0
 49
0.0
 49
0.0
 49
1.0
175
     0
142
0.0208333333333333
142
0.0
142
0.0
142
0.0
142
0.0
142
0.0208333333333333
142
0.0
142
0.0
142
0.0
142
0.0
142
1.0
142
0.0
142
0.0
142
0.0
142
0.0
142
1.0
179
     0
144
0.0208333333333333
144
0.0
144
0.0
144
0.0
144
0.0
144
0.0208333333333333
144
0.0
144
0.0
144
0.0
144
0.0
144
1.0
144
0.0
144
0.0
144
0.0
144
0.0
144
1.0
147
0.0208333333333333
147
0.0
147
0.0
147
0.0
147
0.0
147
0.0208333333333333
147
0.0
147
0.0
147
0.0
147
0.0
147
1.0
147
0.0
147
0.0
147
0.0
147
0.0
147
1.0
  0
MLEADERSTYLE
  5
67
102
{ACAD_XDICTIONARY
360
712
102
}
102
{ACAD_REACTORS
330
66
102
}
330
66
100
AcDbMLeaderStyle
170
     2
171
     1
172
     0
 90
        2
 40
0.0
 41
0.0
173
     1
 91
-1056964608
340
5B
 92
       -2
290
     1
 42
0.09
291
     1
 43
0.36
  3
Standard
 44
0.18
300

342
55
174
     1
178
     6
175
     1
176
     0
 93
-1056964608
 45
0.18
292
     0
297
     0
 46
0.18
 94
-1056964608
 47
1.0
 49
1.0
140
1.0
293
     1
141
0.0
294
     1
177
     0
142
1.0
295
     0
296
     0
143
0.125
1001
ACAD_MLEADERVER
1070
     2
  0
MLINESTYLE
  5
60
102
{ACAD_REACTORS
330
5F
102
}
330
5F
100
AcDbMlineStyle
  2
STANDARD
 70
     0
  3

 62
   256
 51
90.0
 52
90.0
 71
     2
 49
0.5
 62
   256
  6
BYLAYER
 49
-0.5
 62
   256
  6
BYLAYER
  0
ACDBPLACEHOLDER
  5
F
102
{ACAD_REACTORS
330
E
102
}
330
E
  0
SCALE
  5
43
102
{ACAD_REACTORS
330
42
102
}
330
42
100
AcDbScale
 70
     0
300
1:1
140
1.0
141
1.0
290
     1
  0
SCALE
  5
44
102
{ACAD_REACTORS
330
42
102
}
330
42
100
AcDbScale
 70
     0
300
1/128" = 1'-0"
140
0.0078125
141
12.0
290
     0
  0
SCALE
  5
45
102
{ACAD_REACTORS
330
42
102
}
330
42
100
AcDbScale
 70
     0
300
1/64" = 1'-0"
140
0.015625
141
12.0
290
     0
  0
SCALE
  5
46
102
{ACAD_REACTORS
330
42
102
}
330
42
100
AcDbScale
 70
     0
300
1/32" = 1'-0"
140
0.03125
141
12.0
290
     0
  0
SCALE
  5
47
102
{ACAD_REACTORS
330
42
102
}
330
42
100
AcDbScale
 70
     0
300
1/16" = 1'-0"
140
0.0625
141
12.0
290
     0
  0
SCALE
  5
48
102
{ACAD_REACTORS
330
42
102
}
330
42
100
AcDbScale
 70
     0
300
3/32" = 1'-0"
140
0.09375
141
12.0
290
     0
  0
SCALE
  5
49
102
{ACAD_REACTORS
330
42
102
}
330
42
100
AcDbScale
 70
     0
300
1/8" = 1'-0"
140
0.125
141
12.0
290
     0
  0
SCALE
  5
4A
102
{ACAD_REACTORS
330
42
102
}
330
42
100
AcDbScale
 70
     0
300
3/16" = 1'-0"
140
0.1875
141
12.0
290
     0
  0
SCALE
  5
4B
102
{ACAD_REACTORS
330
42
102
}
330
42
100
AcDbScale
 70
     0
300
1/4" = 1'-0"
140
0.25
141
12.0
290
     0
  0
SCALE
  5
4C
102
{ACAD_REACTORS
330
42
102
}
330
42
100
AcDbScale
 70
     0
300
3/8" = 1'-0"
140
0.375
141
12.0
290
     0
  0
SCALE
  5
4D
102
{ACAD_REACTORS
330
42
102
}
330
42
100
AcDbScale
 70
     0
300
1/2" = 1'-0"
140
0.5
141
12.0
290
     0
  0
SCALE
  5
4E
102
{ACAD_REACTORS
330
42
102
}
330
42
100
AcDbScale
 70
     0
300
3/4" = 1'-0"
140
0.75
141
12.0
290
     0
  0
SCALE
  5
4F
102
{ACAD_REACTORS
330
42
102
}
330
42
100
AcDbScale
 70
     0
300
1" = 1'-0"
140
1.0
141
12.0
290
     0
  0
SCALE
  5
50
102
{ACAD_REACTORS
330
42
102
}
330
42
100
AcDbScale
 70
     0
300
1-1/2" = 1'-0"
140
1.5
141
12.0
290
     0
  0
SCALE
  5
51
102
{ACAD_REACTORS
330
42
102
}
330
42
100
AcDbScale
 70
     0
300
3" = 1'-0"
140
3.0
141
12.0
290
     0
  0
SCALE
  5
52
102
{ACAD_REACTORS
330
42
102
}
330
42
100
AcDbScale
 70
     0
300
6" = 1'-0"
140
6.0
141
12.0
290
     0
  0
SCALE
  5
53
102
{ACAD_REACTORS
330
42
102
}
330
42
100
AcDbScale
 70
     0
300
1'-0" = 1'-0"
140
12.0
141
12.0
290
     0
  0
TABLESTYLE
  5
65
102
{ACAD_XDICTIONARY
360
710
102
}
102
{ACAD_REACTORS
330
64
102
}
330
64
100
AcDbTableStyle
  3
Standard
 70
     0
 71
     0
 40
0.06
 41
0.06
280
     0
281
     0
  7
Standard
140
0.18
170
     2
 62
     0
 63
     7
283
     0
274
    -2
284
     1
 64
     0
275
    -2
285
     1
 65
     0
276
    -2
286
     1
 66
     0
277
    -2
287
     1
 67
     0
278
    -2
288
     1
 68
     0
279
    -2
289
     1
 69
     0
  7
Standard
140
0.25
170
     5
 62
     0
 63
     7
283
     0
274
    -2
284
     1
 64
     0
275
    -2
285
     1
 65
     0
276
    -2
286
     1
 66
     0
277
    -2
287
     1
 67
     0
278
    -2
288
     1
 68
     0
279
    -2
289
     1
 69
     0
  7
Standard
140
0.18
170
     5
 62
     0
 63
     7
283
     0
274
    -2
284
     1
 64
     0
275
    -2
285
     1
 65
     0
276
    -2
286
     1
 66
     0
277
    -2
287
     1
 67
     0
278
    -2
288
     1
 68
     0
279
    -2
289
     1
 69
     0
  0
VISUALSTYLE
  5
2F
102
{ACAD_XDICTIONARY
360
722
102
}
102
{ACAD_REACTORS
330
29
102
}
330
29
100
AcDbVisualStyle
  2
2dWireframe
 70
     4
 71
     0
 72
     2
 73
     0
 90
        0
 40
-0.6
 41
-30.0
 62
     5
 63
     7
421
 16777215
 74
     1
 91
        4
 64
     7
 65
   257
 75
     1
175
     1
 42
1.0
 92
        0
 66
   257
 43
1.0
 76
     1
 77
     6
 78
     2
 67
     7
 79
     5
170
     0
171
     0
290
     0
174
     0
 93
        1
 44
0.0
173
     0
291
     0
 45
0.0
1001
ACAD
1000
AcDbSavedByObjectVersion
1070
     0
  0
VISUALSTYLE
  5
2E
102
{ACAD_XDICTIONARY
360
720
102
}
102
{ACAD_REACTORS
330
29
102
}
330
29
100
AcDbVisualStyle
  2
Basic
 70
     7
 71
     1
 72
     0
 73
     1
 90
        0
 40
-0.6
 41
-30.0
 62
     5
 63
     7
421
 16777215
 74
     0
 91
        4
 64
     7
 65
   257
 75
     1
175
     1
 42
1.0
 92
        8
 66
     7
 43
1.0
 76
     1
 77
     6
 78
     2
 67
     7
 79
     5
170
     0
171
     0
290
     0
174
     0
 93
        1
 44
0.0
173
     0
291
     1
 45
0.0
1001
ACAD
1000
AcDbSavedByObjectVersion
1070
     0
  0
VISUALSTYLE
  5
35
102
{ACAD_XDICTIONARY
360
72E
102
}
102
{ACAD_REACTORS
330
29
102
}
330
29
100
AcDbVisualStyle
  2
Brighten
 70
    12
 71
     2
 72
     2
 73
     0
 90
        0
 40
-0.6
 41
-30.0
 62
     5
 63
     7
421
 16777215
 74
     1
 91
        4
 64
     7
 65
   257
 75
     1
175
     1
 42
1.0
 92
        8
 66
     7
 43
1.0
 76
     1
 77
     6
 78
     2
 67
     7
 79
     5
170
     0
171
     0
290
     0
174
     0
 93
        1
 44
50.0
173
     0
291
     1
 45
0.0
1001
ACAD
1000
AcDbSavedByObjectVersion
1070
     0
  0
VISUALSTYLE
  5
39
102
{ACAD_XDICTIONARY
360
736
102
}
102
{ACAD_REACTORS
330
29
102
}
330
29
100
AcDbVisualStyle
  2
ColorChange
 70
    16
 71
     2
 72
     2
 73
     3
 90
        0
 40
-0.6
 41
-30.0
 62
     5
 63
     8
421
  8421504
 74
     1
 91
        4
 64
     7
 65
   257
 75
     1
175
     1
 42
1.0
 92
        8
 66
     8
424
  8421504
 43
1.0
 76
     1
 77
     6
 78
     2
 67
     7
 79
     5
170
     0
171
     0
290
     0
174
     0
 93
        1
 44
0.0
173
     0
291
     1
 45
0.0
1001
ACAD
1000
AcDbSavedByObjectVersion
1070
     0
  0
VISUALSTYLE
  5
32
102
{ACAD_XDICTIONARY
360
728
102
}
102
{ACAD_REACTORS
330
29
102
}
330
29
100
AcDbVisualStyle
  2
Conceptual
 70
     9
 71
     3
 72
     2
 73
     0
 90
        0
 40
-0.6
 41
-30.0
 62
     5
 63
     7
421
 16777215
 74
     2
 91
        2
 64
     7
 65
   257
 75
     1
175
     1
 42
179.0
 92
        8
 66
     7
 43
1.0
 76
     1
 77
     6
 78
     2
 67
     7
 79
     3
170
     0
171
     0
290
     0
174
     0
 93
        1
 44
0.0
173
     0
291
     0
 45
0.0
1001
ACAD
1000
AcDbSavedByObjectVersion
1070
     0
  0
VISUALSTYLE
  5
34
102
{ACAD_XDICTIONARY
360
72C
102
}
102
{ACAD_REACTORS
330
29
102
}
330
29
100
AcDbVisualStyle
  2
Dim
 70
    11
 71
     2
 72
     2
 73
     0
 90
        0
 40
-0.6
 41
-30.0
 62
     5
 63
     7
421
 16777215
 74
     1
 91
        4
 64
     7
 65
   257
 75
     1
175
     1
 42
1.0
 92
        8
 66
     7
 43
1.0
 76
     1
 77
     6
 78
     2
 67
     7
 79
     5
170
     0
171
     0
290
     0
174
     0
 93
        1
 44
-50.0
173
     0
291
     1
 45
0.0
1001
ACAD
1000
AcDbSavedByObjectVersion
1070
     0
  0
VISUALSTYLE
  5
41
102
{ACAD_XDICTIONARY
360
746
102
}
102
{ACAD_REACTORS
330
29
102
}
330
29
100
AcDbVisualStyle
  2
EdgeColorOff
 70
    22
 71
     2
 72
     2
 73
     0
 90
        0
 40
-0.6
 41
-30.0
 62
     5
 63
     7
421
 16777215
 74
     1
 91
        4
 64
     7
 65
   257
 75
     1
175
     1
 42
1.0
 92
        8
 66
     7
 43
1.0
 76
     1
 77
     6
 78
     2
 67
     7
 79
     5
170
     0
171
     0
290
     0
174
     0
 93
        1
 44
0.0
173
     0
291
     1
 45
0.0
1001
ACAD
1000
AcDbSavedByObjectVersion
1070
     0
  0
VISUALSTYLE
  5
38
102
{ACAD_XDICTIONARY
360
734
102
}
102
{ACAD_REACTORS
330
29
102
}
330
29
100
AcDbVisualStyle
  2
Facepattern
 70
    15
 71
     2
 72
     2
 73
     0
 90
        0
 40
-0.6
 41
-30.0
 62
     5
 63
     7
421
 16777215
 74
     1
 91
        4
 64
     7
 65
   257
 75
     1
175
     1
 42
1.0
 92
        8
 66
     7
 43
1.0
 76
     1
 77
     6
 78
     2
 67
     7
 79
     5
170
     0
171
     0
290
     0
174
     0
 93
        1
 44
0.0
173
     0
291
     1
 45
0.0
1001
ACAD
1000
AcDbSavedByObjectVersion
1070
     0
  0
VISUALSTYLE
  5
2A
102
{ACAD_XDICTIONARY
360
718
102
}
102
{ACAD_REACTORS
330
29
102
}
330
29
100
AcDbVisualStyle
  2
Flat
 70
     0
 71
     2
 72
     1
 73
     1
 90
        2
 40
-0.6
 41
30.0
 62
     5
 63
     7
421
 16777215
 74
     0
 91
        0
 64
     7
 65
   257
 75
     1
175
     1
 42
1.0
 92
        8
 66
     7
 43
1.0
 76
     1
 77
     6
 78
     2
 67
     7
 79
     5
170
     0
171
     0
290
     0
174
     0
 93
       13
 44
0.0
173
     0
291
     1
 45
0.0
1001
ACAD
1000
AcDbSavedByObjectVersion
1070
     0
  0
VISUALSTYLE
  5
2B
102
{ACAD_XDICTIONARY
360
71A
102
}
102
{ACAD_REACTORS
330
29
102
}
330
29
100
AcDbVisualStyle
  2
FlatWithEdges
 70
     1
 71
     2
 72
     1
 73
     1
 90
        2
 40
-0.6
 41
30.0
 62
     5
 63
     7
421
 16777215
 74
     1
 91
        0
 64
     7
 65
   257
 75
     1
175
     1
 42
1.0
 92
        0
 66
   257
 43
1.0
 76
     1
 77
     6
 78
     2
 67
     7
 79
     5
170
     0
171
     0
290
     0
174
     0
 93
       13
 44
0.0
173
     0
291
     1
 45
0.0
1001
ACAD
1000
AcDbSavedByObjectVersion
1070
     0
  0
VISUALSTYLE
  5
2C
102
{ACAD_XDICTIONARY
360
71C
102
}
102
{ACAD_REACTORS
330
29
102
}
330
29
100
AcDbVisualStyle
  2
Gouraud
 70
     2
 71
     2
 72
     2
 73
     1
 90
        2
 40
-0.6
 41
30.0
 62
     5
 63
     7
421
 16777215
 74
     0
 91
        0
 64
     7
 65
   257
 75
     1
175
     1
 42
1.0
 92
        0
 66
     7
 43
1.0
 76
     1
 77
     6
 78
     2
 67
     7
 79
     5
170
     0
171
     0
290
     0
174
     0
 93
       13
 44
0.0
173
     0
291
     1
 45
0.0
1001
ACAD
1000
AcDbSavedByObjectVersion
1070
     0
  0
VISUALSTYLE
  5
2D
102
{ACAD_XDICTIONARY
360
71E
102
}
102
{ACAD_REACTORS
330
29
102
}
330
29
100
AcDbVisualStyle
  2
GouraudWithEdges
 70
     3
 71
     2
 72
     2
 73
     1
 90
        2
 40
-0.6
 41
30.0
 62
     5
 63
     7
421
 16777215
 74
     1
 91
        0
 64
     7
 65
   257
 75
     1
175
     1
 42
1.0
 92
        0
 66
   257
 43
1.0
 76
     1
 77
     6
 78
     2
 67
     7
 79
     5
170
     0
171
     0
290
     0
174
     0
 93
       13
 44
0.0
173
     0
291
     1
 45
0.0
1001
ACAD
1000
AcDbSavedByObjectVersion
1070
     0
  0
VISUALSTYLE
  5
31
102
{ACAD_XDICTIONARY
360
726
102
}
102
{ACAD_REACTORS
330
29
102
}
330
29
100
AcDbVisualStyle
  2
Hidden
 70
     6
 71
     1
 72
     2
 73
     2
 90
        0
 40
-0.6
 41
-30.0
 62
     5
 63
     7
421
 16777215
 74
     2
 91
        2
 64
     7
 65
   257
 75
     2
175
     1
 42
40.0
 92
        0
 66
   257
 43
1.0
 76
     1
 77
     6
 78
     2
 67
     7
 79
     3
170
     0
171
     0
290
     0
174
     0
 93
        1
 44
0.0
173
     0
291
     0
 45
0.0
1001
ACAD
1000
AcDbSavedByObjectVersion
1070
     0
  0
VISUALSTYLE
  5
3F
102
{ACAD_XDICTIONARY
360
742
102
}
102
{ACAD_REACTORS
330
29
102
}
330
29
100
AcDbVisualStyle
  2
JitterOff
 70
    20
 71
     2
 72
     2
 73
     0
 90
        0
 40
-0.6
 41
-30.0
 62
     5
 63
     7
421
 16777215
 74
     1
 91
        4
 64
     7
 65
   257
 75
     1
175
     1
 42
1.0
 92
       10
 66
     7
 43
1.0
 76
     1
 77
     6
 78
     2
 67
     7
 79
     5
170
     0
171
     0
290
     0
174
     0
 93
        1
 44
0.0
173
     0
291
     1
 45
0.0
1001
ACAD
1000
AcDbSavedByObjectVersion
1070
     0
  0
VISUALSTYLE
  5
37
102
{ACAD_XDICTIONARY
360
732
102
}
102
{ACAD_REACTORS
330
29
102
}
330
29
100
AcDbVisualStyle
  2
Linepattern
 70
    14
 71
     2
 72
     2
 73
     0
 90
        0
 40
-0.6
 41
-30.0
 62
     5
 63
     7
421
 16777215
 74
     1
 91
        4
 64
     7
 65
   257
 75
     7
175
     7
 42
1.0
 92
        8
 66
     7
 43
1.0
 76
     1
 77
     6
 78
     2
 67
     7
 79
     5
170
     0
171
     0
290
     0
174
     0
 93
        1
 44
0.0
173
     0
291
     1
 45
0.0
1001
ACAD
1000
AcDbSavedByObjectVersion
1070
     0
  0
VISUALSTYLE
  5
40
102
{ACAD_XDICTIONARY
360
744
102
}
102
{ACAD_REACTORS
330
29
102
}
330
29
100
AcDbVisualStyle
  2
OverhangOff
 70
    21
 71
     2
 72
     2
 73
     0
 90
        0
 40
-0.6
 41
-30.0
 62
     5
 63
     7
421
 16777215
 74
     1
 91
        4
 64
     7
 65
   257
 75
     1
175
     1
 42
1.0
 92
        9
 66
     7
 43
1.0
 76
     1
 77
     6
 78
     2
 67
     7
 79
     5
170
     0
171
     0
290
     0
174
     0
 93
        1
 44
0.0
173
     0
291
     1
 45
0.0
1001
ACAD
1000
AcDbSavedByObjectVersion
1070
     0
  0
VISUALSTYLE
  5
33
102
{ACAD_XDICTIONARY
360
72A
102
}
102
{ACAD_REACTORS
330
29
102
}
330
29
100
AcDbVisualStyle
  2
Realistic
 70
     8
 71
     2
 72
     3
 73
     0
 90
        2
 40
-0.6
 41
30.0
 62
     5
 63
     7
421
 16777215
 74
     0
 91
        0
 64
     7
 65
   257
 75
     1
175
     1
 42
1.0
 92
        8
 66
   257
 43
1.0
 76
     1
 77
     6
 78
     2
 67
     7
 79
     3
170
     0
171
     0
290
     0
174
     0
 93
       13
 44
0.0
173
     0
291
     0
 45
0.0
1001
ACAD
1000
AcDbSavedByObjectVersion
1070
     0
  0
VISUALSTYLE
  5
3E
102
{ACAD_XDICTIONARY
360
740
102
}
102
{ACAD_REACTORS
330
29
102
}
330
29
100
AcDbVisualStyle
  2
Shaded
 70
    27
 71
     2
 72
     2
 73
     1
 90
        2
 40
-0.6
 41
30.0
 62
     5
 63
     7
421
 16777215
 74
     0
 91
        4
 64
     7
 65
   257
 75
     1
175
     1
 42
1.0
 92
        8
 66
   257
 43
1.0
 76
     1
 77
     6
 78
     2
 67
     8
425
  7895160
 79
     3
170
     0
171
     0
290
     0
174
     0
 93
        5
 44
0.0
173
     0
291
     0
 45
0.0
1001
ACAD
1000
AcDbSavedByObjectVersion
1070
     0
  0
VISUALSTYLE
  5
3D
102
{ACAD_XDICTIONARY
360
73E
102
}
102
{ACAD_REACTORS
330
29
102
}
330
29
100
AcDbVisualStyle
  2
Shaded with edges
 70
    26
 71
     2
 72
     2
 73
     1
 90
        2
 40
-0.6
 41
30.0
 62
     5
 63
     7
421
 16777215
 74
     1
 91
       10
 64
     7
 65
   257
 75
     2
175
     1
 42
1.0
 92
        8
 66
   257
 43
1.0
 76
     1
 77
     6
 78
     2
 67
     7
 79
     3
170
     0
171
     0
290
     0
174
     0
 93
        5
 44
0.0
173
     0
291
     0
 45
0.0
1001
ACAD
1000
AcDbSavedByObjectVersion
1070
     0
  0
VISUALSTYLE
  5
3A
102
{ACAD_XDICTIONARY
360
738
102
}
102
{ACAD_REACTORS
330
29
102
}
330
29
100
AcDbVisualStyle
  2
Shades of Gray
 70
    23
 71
     2
 72
     2
 73
     3
 90
        0
 40
-0.6
 41
-30.0
 62
     5
 63
     7
421
 16777215
 74
     2
 91
        2
 64
     7
 65
     7
 75
     1
175
     1
 42
40.0
 92
        8
 66
     7
 43
1.0
 76
     1
 77
     6
 78
     2
 67
     7
 79
     3
170
     0
171
     0
290
     0
174
     0
 93
        1
 44
0.0
173
     0
291
     0
 45
0.0
1001
ACAD
1000
AcDbSavedByObjectVersion
1070
     0
  0
VISUALSTYLE
  5
3B
102
{ACAD_XDICTIONARY
360
73A
102
}
102
{ACAD_REACTORS
330
29
102
}
330
29
100
AcDbVisualStyle
  2
Sketchy
 70
    24
 71
     1
 72
     2
 73
     2
 90
        0
 40
-0.6
 41
-30.0
 62
     5
 63
     7
421
 16777215
 74
     2
 91
        2
 64
     7
 65
     7
 75
     1
175
     1
 42
40.0
 92
       11
 66
     7
 43
1.0
 76
     1
 77
     6
 78
     2
 67
     7
 79
     6
170
     0
171
     0
290
     0
174
     0
 93
        1
 44
0.0
173
     0
291
     0
 45
0.0
1001
ACAD
1000
AcDbSavedByObjectVersion
1070
     0
  0
VISUALSTYLE
  5
36
102
{ACAD_XDICTIONARY
360
730
102
}
102
{ACAD_REACTORS
330
29
102
}
330
29
100
AcDbVisualStyle
  2
Thicken
 70
    13
 71
     2
 72
     2
 73
     0
 90
        0
 40
-0.6
 41
-30.0
 62
     5
 63
     7
421
 16777215
 74
     1
 91
        4
 64
     7
 65
   257
 75
     1
175
     1
 42
1.0
 92
       12
 66
     7
 43
1.0
 76
     1
 77
     6
 78
     2
 67
     7
 79
     5
170
     0
171
     0
290
     0
174
     0
 93
        1
 44
0.0
173
     0
291
     1
 45
0.0
1001
ACAD
1000
AcDbSavedByObjectVersion
1070
     0
  0
VISUALSTYLE
  5
30
102
{ACAD_XDICTIONARY
360
724
102
}
102
{ACAD_REACTORS
330
29
102
}
330
29
100
AcDbVisualStyle
  2
Wireframe
 70
     5
 71
     0
 72
     2
 73
     0
 90
        0
 40
-0.6
 41
-30.0
 62
     5
 63
     7
421
 16777215
 74
     1
 91
        4
 64
     7
 65
   257
 75
     1
175
     1
 42
1.0
 92
        0
 66
   257
 43
1.0
 76
     1
 77
     6
 78
     2
 67
     7
 79
     3
170
     0
171
     0
290
     0
174
     0
 93
        1
 44
0.0
173
     0
291
     0
 45
0.0
1001
ACAD
1000
AcDbSavedByObjectVersion
1070
     0
  0
VISUALSTYLE
  5
3C
102
{ACAD_XDICTIONARY
360
73C
102
}
102
{ACAD_REACTORS
330
29
102
}
330
29
100
AcDbVisualStyle
  2
X-Ray
 70
    25
 71
     2
 72
     2
 73
     1
 90
        1
 40
0.5
 41
-30.0
 62
     5
 63
     7
421
 16777215
 74
     1
 91
        0
 64
     7
 65
   257
 75
     1
175
     1
 42
1.0
 92
        8
 66
     7
 43
1.0
 76
     1
 77
     6
 78
     2
 67
     7
 79
     3
170
     0
171
     0
290
     0
174
     0
 93
       13
 44
0.0
173
     0
291
     0
 45
0.0
1001
ACAD
1000
AcDbSavedByObjectVersion
1070
     0
  0
DICTIONARYVAR
  5
70B
102
{ACAD_REACTORS
330
707
102
}
330
707
100
DictionaryVariables
280
     0
  1
1:1
  0
DICTIONARYVAR
  5
709
102
{ACAD_REACTORS
330
707
102
}
330
707
100
DictionaryVariables
280
     0
  1
STANDARD
  0
DICTIONARYVAR
  5
708
102
{ACAD_REACTORS
330
707
102
}
330
707
100
DictionaryVariables
280
     0
  1
STANDARD
  0
DICTIONARYVAR
  5
70D
102
{ACAD_REACTORS
330
707
102
}
330
707
100
DictionaryVariables
280
     0
  1
0
  0
DICTIONARYVAR
  5
70E
102
{ACAD_REACTORS
330
707
102
}
330
707
100
DictionaryVariables
280
     0
  1
0
  0
DICTIONARYVAR
  5
70C
102
{ACAD_REACTORS
330
707
102
}
330
707
100
DictionaryVariables
280
     0
  1
2
  0
DICTIONARYVAR
  5
70A
102
{ACAD_REACTORS
330
707
102
}
330
707
100
DictionaryVariables
280
     0
  1
1
  0
DICTIONARYVAR
  5
70F
102
{ACAD_REACTORS
330
707
102
}
330
707
100
DictionaryVariables
280
     0
  1
2
  0
DICTIONARY
  5
1A
330
19
100
AcDbDictionary
280
     1
281
     1
  3
ACAD_XREC_ROUNDTRIP
360
716
  3
BUMPTILE
360
1C
  3
DIFFUSETILE
360
1B
  3
OPACITYTILE
360
1F
  3
REFLECTIONTILE
360
1E
  3
REFRACTIONTILE
360
20
  3
SPECULARTILE
360
1D
  0
DICTIONARY
  5
12
330
11
100
AcDbDictionary
280
     1
281
     1
  3
ACAD_XREC_ROUNDTRIP
360
715
  3
BUMPTILE
360
14
  3
DIFFUSETILE
360
13
  3
FBXASSET
360
9C
  3
OPACITYTILE
360
17
  3
REFLECTIONTILE
360
16
  3
REFRACTIONTILE
360
18
  3
SPECULARTILE
360
15
  0
DICTIONARY
  5
22
330
21
100
AcDbDictionary
280
     1
281
     1
  3
ACAD_XREC_ROUNDTRIP
360
717
  3
BUMPTILE
360
24
  3
DIFFUSETILE
360
23
  3
OPACITYTILE
360
27
  3
REFLECTIONTILE
360
26
  3
REFRACTIONTILE
360
28
  3
SPECULARTILE
360
25
  0
DICTIONARY
  5
712
330
67
100
AcDbDictionary
280
     1
281
     1
  3
ACAD_XREC_ROUNDTRIP
360
713
  0
DICTIONARY
  5
710
330
65
100
AcDbDictionary
280
     1
281
     1
  3
ACAD_ROUNDTRIP_2008_TABLESTYLE_CELLSTYLEMAP
360
711
  3
ACAD_XREC_ROUNDTRIP
360
748
  0
DICTIONARY
  5
722
330
2F
100
AcDbDictionary
280
     1
281
     1
  3
ACAD_XREC_ROUNDTRIP
360
723
  0
DICTIONARY
  5
720
330
2E
100
AcDbDictionary
280
     1
281
     1
  3
ACAD_XREC_ROUNDTRIP
360
721
  0
DICTIONARY
  5
72E
330
35
100
AcDbDictionary
280
     1
281
     1
  3
ACAD_XREC_ROUNDTRIP
360
72F
  0
DICTIONARY
  5
736
330
39
100
AcDbDictionary
280
     1
281
     1
  3
ACAD_XREC_ROUNDTRIP
360
737
  0
DICTIONARY
  5
728
330
32
100
AcDbDictionary
280
     1
281
     1
  3
ACAD_XREC_ROUNDTRIP
360
729
  0
DICTIONARY
  5
72C
330
34
100
AcDbDictionary
280
     1
281
     1
  3
ACAD_XREC_ROUNDTRIP
360
72D
  0
DICTIONARY
  5
746
330
41
100
AcDbDictionary
280
     1
281
     1
  3
ACAD_XREC_ROUNDTRIP
360
747
  0
DICTIONARY
  5
734
330
38
100
AcDbDictionary
280
     1
281
     1
  3
ACAD_XREC_ROUNDTRIP
360
735
  0
DICTIONARY
  5
718
330
2A
100
AcDbDictionary
280
     1
281
     1
  3
ACAD_XREC_ROUNDTRIP
360
719
  0
DICTIONARY
  5
71A
330
2B
100
AcDbDictionary
280
     1
281
     1
  3
ACAD_XREC_ROUNDTRIP
360
71B
  0
DICTIONARY
  5
71C
330
2C
100
AcDbDictionary
280
     1
281
     1
  3
ACAD_XREC_ROUNDTRIP
360
71D
  0
DICTIONARY
  5
71E
330
2D
100
AcDbDictionary
280
     1
281
     1
  3
ACAD_XREC_ROUNDTRIP
360
71F
  0
DICTIONARY
  5
726
330
31
100
AcDbDictionary
280
     1
281
     1
  3
ACAD_XREC_ROUNDTRIP
360
727
  0
DICTIONARY
  5
742
330
3F
100
AcDbDictionary
280
     1
281
     1
  3
ACAD_XREC_ROUNDTRIP
360
743
  0
DICTIONARY
  5
732
330
37
100
AcDbDictionary
280
     1
281
     1
  3
ACAD_XREC_ROUNDTRIP
360
733
  0
DICTIONARY
  5
744
330
40
100
AcDbDictionary
280
     1
281
     1
  3
ACAD_XREC_ROUNDTRIP
360
745
  0
DICTIONARY
  5
72A
330
33
100
AcDbDictionary
280
     1
281
     1
  3
ACAD_XREC_ROUNDTRIP
360
72B
  0
DICTIONARY
  5
740
330
3E
100
AcDbDictionary
280
     1
281
     1
  3
ACAD_XREC_ROUNDTRIP
360
741
  0
DICTIONARY
  5
73E
330
3D
100
AcDbDictionary
280
     1
281
     1
  3
ACAD_XREC_ROUNDTRIP
360
73F
  0
DICTIONARY
  5
738
330
3A
100
AcDbDictionary
280
     1
281
     1
  3
ACAD_XREC_ROUNDTRIP
360
739
  0
DICTIONARY
  5
73A
330
3B
100
AcDbDictionary
280
     1
281
     1
  3
ACAD_XREC_ROUNDTRIP
360
73B
  0
DICTIONARY
  5
730
330
36
100
AcDbDictionary
280
     1
281
     1
  3
ACAD_XREC_ROUNDTRIP
360
731
  0
DICTIONARY
  5
724
330
30
100
AcDbDictionary
280
     1
281
     1
  3
ACAD_XREC_ROUNDTRIP
360
725
  0
DICTIONARY
  5
73C
330
3C
100
AcDbDictionary
280
     1
281
     1
  3
ACAD_XREC_ROUNDTRIP
360
73D
  0
XRECORD
  5
716
102
{ACAD_REACTORS
330
1A
102
}
330
1A
100
AcDbXrecord
280
     1
102
MATERIAL
148
0.0
149
0.0
149
0.0
 93
        0
 94
      127
282
     0
 72
     0
 77
     0
171
     0
175
     0
179
     0
273
     0
  0
XRECORD
  5
1C
102
{ACAD_REACTORS
330
1A
102
}
330
1A
100
AcDbXrecord
280
     1
270
     1
271
     1
  0
XRECORD
  5
1B
102
{ACAD_REACTORS
330
1A
102
}
330
1A
100
AcDbXrecord
280
     1
270
     1
271
     1
  0
XRECORD
  5
1F
102
{ACAD_REACTORS
330
1A
102
}
330
1A
100
AcDbXrecord
280
     1
270
     1
271
     1
  0
XRECORD
  5
1E
102
{ACAD_REACTORS
330
1A
102
}
330
1A
100
AcDbXrecord
280
     1
270
     1
271
     1
  0
XRECORD
  5
20
102
{ACAD_REACTORS
330
1A
102
}
330
1A
100
AcDbXrecord
280
     1
270
     1
271
     1
  0
XRECORD
  5
1D
102
{ACAD_REACTORS
330
1A
102
}
330
1A
100
AcDbXrecord
280
     1
270
     1
271
     1
  0
XRECORD
  5
715
102
{ACAD_REACTORS
330
12
102
}
330
12
100
AcDbXrecord
280
     1
102
MATERIAL
148
0.0
149
0.0
149
0.0
 93
        0
 94
      127
282
     0
 72
     0
 77
     0
171
     0
175
     0
179
     0
273
     0
  0
XRECORD
  5
14
102
{ACAD_REACTORS
330
12
102
}
330
12
100
AcDbXrecord
280
     1
270
     1
271
     1
  0
XRECORD
  5
13
102
{ACAD_REACTORS
330
12
102
}
330
12
100
AcDbXrecord
280
     1
270
     1
271
     1
  0
XRECORD
  5
9C
102
{ACAD_REACTORS
330
12
102
}
330
12
100
AcDbXrecord
280
     1
 70
     1
 90
1959938040
 71
     1
  1
C6E10E89-8029-4148-9354-BC99D874316A
311
504B03040A0000080000F74689433DEE336E79000000790000001B0000006175746F6465736B2D64657369676E2D7061636B6167652E786D6C3C3F786D6C2076657273696F6E3D22312E302220656E636F64696E673D227574662D3822203F3E3C666F726D6174733E3C666F726D61743E687474703A2F2F736368656D612E
311
6175746F6465736B2E636F6D2F64657369676E2D7061636B6167652F323030393C2F666F726D61743E3C2F666F726D6174733E504B0304140006080800F7468943D486FD9CA0000000F4000000130000005B436F6E74656E745F54797065735D2E786D6C7D8EC10E82300C865F65E91D8A1E8C310C0EEA1BF002731658846E
311
D98AC1B77784ABF1D8FE5FBFBF75BBCE937A534CCEB38643598122B6FEE978D0B0485F9C41B54DDD7D022595594E1A469170414C76A4D9A4D207E29CF43ECE46F218070CC6BECC4078ACAA135ACF422C856C0E68EA1BF5669944DDD7BCDE7B1F8E415D77AECB980613C2E4AC91FC167A2B244592486606FC29C8FD7F045B9A
311
EF7053A7E60B504B0304140006080800F746894371A64868ED0000007C01000008000000636F72652E786D6C8D904D6E83301085AF62CDB632D8044A40C6113FCD097A01CB38C44AB011B6AB1EBF262152BBEB6A466FDE37337AECF43DDFD1975A9DB6A6019A1040CA483B6A333510FC051F019D385BADF5BF6C808C985503
311
9B0C9C4DAB0DCB2E496BBC323EAAC68E6A178573CA0392F7D834E0E455CD2211C14787BB258B903731A984BEBA0887A047F43CA2C7B84F5FB45A81F7794ECF675AE1FE7DE871DE761DEECA7CC01F5947CBAA6DFBA138B2748339F37A7EDD97AB125E8DC033420F986698549FE45817459D976F84D684B074B3FF81C232FE13
311
0ADAF843B6BFFBC41C701A1F790C384BB72C62790415EB961BFF01504B0304140006080800F746894355019EA25F0000007C00000007000000636E782E786D6C4DCB3B0E80201045D1AD90E915ED2CF8AC45050C11660C8261F98AB1B07AC9C97D42D718D865D3E909258CFD00CCE24AC6E326A164D74DC0B4128928FF3260
311
38472BA13128B1252AC747C6BAB984FC68F0B87FE8960A5C09FE86CFB69FBA01504B0304140006080800F74689436360608E69010000020300000C0000006662782F636F72652E786D6C8D52ED8E8230107C95A67F2F508A787EA4D4089E4F702F50A1728DD092D2121FFF960FE37931C69094666667777680EDAE4D8D7A69
311
3B65748A6918612475614AA5AB147B770ED618ED38B3C6B83F651869D1C8140F30E6ACB2C6B7335418EDA476806A53CA19145D271D46450D971477C58F6C4428BC838AEE12B6A2B8884A8634041AEA38EB9C0503681A329C989F4F5746269C33EF5539B3AA8469EAACA4C53C4F127A3CD24D907F1EF220D9675990AD9243F0
311
156774B5D9EFF3C372CDC820E6CCA9E6E6AEB0523859621E477411D0388836DFD17ABB5C6E93D54744B751C4C850FE20F26DF9A6C82BED16F16C7792759853303212FFB685881CEA440F7E08676408115E63C28F41432010B213A7FAB6C705A05E16CED80498D2F83BD58BDA4B981AA1F1616462A1F3D800367BDA277ED1E7
311
750FF8804257604D38B89EBC1BA6B369EA1C452B6DD0BB2BD2C636A2BE9B9B2CDECFFBA0A7F2C2D4C6BEA326F3AA640E930C7F2FFF05504B0304140006080800F7468943759497547D0000009D0000000B0000006662782F636E782E786D6C4DCCD10A83201886E15B91FFDC95E968811A92791FB12C64A6C3E9D8E5AF4607
311
3BFAE0E1E3E5FD67F3E86DD3CBC520805C6A4036DCE3ECC22AA0E405DF00F592A718F3DF0D5098362BE060907C4DB13C4F9AED32159F77F52E3C4EEC8CAA474D07DC2A4A30639461658CC264601DD3A4195B7D854AF2EA57DAF708CB2F504B0304140006080800F7468943E59A9FE52F01000015020000310000006662782F
311
39464130454433432D374133312D343433342D414646412D3143343934443132453744352F636F72652E786D6C8D515B6EC32010BC8AC557AA0A1B6C5CDB1126B2F238412F4030495162B07854397EA176A4F62F3F2C9A9D991DEDD2DD63BA67DFD23A65740F708E4026B530A3D2D71E047F812DC8768C5A63FC1F1AC8349F
311
640F120C18BD5A13E61512467BA97D44B519E50A72E7A40799B8C74F0F9CF89213CF79F091E16EF9CCC58D5F658EF3D88E3C469DB73140B60C492F60DD6940C743B587CD5061484845E0703A0D10EF49470EB83C36879A168B90D110D4B8CAD518E3A88B92F655932466D4ABE9195F58C9BD1C012B11AE202E21EA3E51BBAD
311
EB2D69DE11DE22448B44FF270AF3F8A22828EDAB728DBBC81C6098164B83D1D184F3FD19463E66637D96E66D9C146F80A11CA1AEE9DABA6E69B170E306A2E907594D9D37366E78733B473A8E7B4ACE1F84D1221D2996DF0BC69A0ECA7E00504B0304140006080800F746894335F0FF8C4E0100003303000030000000666278
311
2F39464130454433432D374133312D343433342D414646412D3143343934443132453744352F636E782E786D6CD593BB6E032110457F05D146FBF22B8EC5622945BE20455A16C636310B2B1E51FCF7196CECB87191320D5ADDB9DC3B3A62D9F67B34E40B7CD0CEF6B4AB5B4AC04AA7B4DDF734C55DB5A664CB99772EDED928
311
B162849E669972B6F72E4D4552B013C944548DB6C7227A082E790901E57C93182785C100B0554211C6019402456E46FCDA81C755501C4E241E80BCBD7E10377C828C81353985B326777096CFD27467A2441A11424F833CC0286A91A253108EB51251D45D7DED7AB0D36F12C917AE95C96B92CB7B9A4FCACB463572640D0E39
311
0BD123BD628AA7092817D364B41411213767E3C5C359D236AE16C5AB11BC4777B79A2F1618769E7116F508C5213D88088AF259DBCDAB6E56B52FEFED7AB35C6E16CF4F6DB7695BD6643B678373A65CC218F06E22D2D9083652DEB1268F1FE12B3EA2B447D6CE9FFE00120194D60B9D5BC67FE6D39CDF37E2F2F817F01F504B
311
0304140006080800F7468943CE5999BAA405000081100000340000006662782F39464130454433432D374133312D343433342D414646412D3143343934443132453744352F6F626A656374732E786D6CAD575D6FDB3614FD2B82F6B23D48B26C27B5074545622785D1A62D6AA4D88301839628850BF501924A9DFDFA1D4A94
311
2D3976EA0D7D91448ABCBCF7DC733F18BCDF66DC7AA642B222BFB27D77605B348F8A98E5E9955DA9C499D8D6FB301045A13ACB6C2B2719BDB2F5B41D06A928AAD24CC53421155707B377377F5932A239B5AD881329AF6C193DD28CB8A452454CE5931B1345DC34D9BABEDB2CEC8B4D05291F0F849644D05C4153CCE7906235
311
4AF9FDE1C0F6C2C0D3FFC3403FCDAAD1E9555E6D4FFF7C964B45F2E8D561076246FE787E3BBC983A17E3F1C8195F0E7DE7E6EE66EEF8EF4683D9E56C36BDBE9DE260A90424194D044DECF003B0112C0ABCE65718542C57A3A159621CE409FACCB4A7EC7068F981D7ACD959678C3CA67E54E4398D6AAC80466D9F111DD392E6
311
317CCEA884661D8406FDA1AF71ECFC1EE9B139B23B7D1E02DD1D1D41ADEEEDBBAB69B1F91B26C873182424D50C6CB03486365C1DEC11DE140537FF98B432A2A860845B9C6D04112F7688A57A4918F4C468260B1D0DDA023B84179ADF7DBA208C7ECEF3635A2615E79AC6765847C11AB14295AC3563FF50B1D7BE8B0C7482AF
311
341B26C620F552523B9C3614991CB0A901D24A3849E17298A9778E860786CE749C2EE676F8F16EB35DEAD83D7E78298A920AA5E9036AB58E6BDF1A25A3937F96E7F406FB40953D28DF80FC6784FA5E15F84DB0ED783B36A7284172991422836FAC81E50CF018587EFDD4DF9DAFC0DB6DEE7BEF149E70B686EA17E0D9B7A1EB
311
CB0E9C61F00CC21762644C5B4684236DDCB31C00699258BCC014F270B2D9DAE102590E5919BB080F7D980C759FF11978460C12457D52E79D03CB83B4784682066C3523A146437EA3E0DE4FAFD2597DB059760ADE8B5F42D7EBF9F2E3B2120989E8BD89E9394D58CE144ADC9E375D857A98F72C7AA22F3F0A11C3D0D7782FBB
311
7867E62809B435E61AF8B4CDE97AB03FB97740847D69A1D34DF0931360842EAC1DF9F74C46947392D3A26ACF7DB37EA06C3410EB60D74CDE15987D6101699A3F073188221D09566A1077D56A9734DD13D63D2C3E83917678F3F289BC74B3D7669F7BA3821762BD79593769E928D4DFFBDC3618785A0AE85E07491BFF06F475
311
CC92A49248824770FDBE98757DA7D30252442BB5899631EC4770116148DBCA45B5160495B4C8D70C75137177F480AE7C406A18500B3CA5B1A43C5933CEAB6C9D308E6AB4CE4879028EFFAFFFA6CACA35C98A2A572764F7544775E8EBDE63AFFC4154F46887CBFAEDDC20F7C6343E41065D4B8E60D573EDECF2D61FDC4EA6CE
311
64309C3A637F3C71A6A38BB173339B4EE79377E3917F79DDFAA9D1240CDA52D38D687809A52DA80433EE7B58207E4C12B0C37BA2E4EA43139EEDFB61E1A2170E3CEC41BDDC6DBC8E9FD1F7D1F8E702F62B8F0A5A6425A719CD15D13174AF3FF837823EA3A74C33BFC8484ACF90F2E5C3F2C018CC9CB1EFAB8E77FAE360AF99
311
9DE9803C2A443D56D926278C1F6C4C1B24DD324F0D7EAD4F76EFA6D0B4433D328E41672A0BCE62E4C1D84A699151856C784611121995A05EB7A78FCDDDE38CDDCF4D87A8C886D35693478226994B8405A85545AA3F6FFD86A64EF7555736CAADFB8487C914B605CE5CD968D2158BA8743728D0BA15AA85834BDD4E1E8D3FC9
311
538E5EBBD9B41BEF76696C7A2579B7E49CFEC9D8D5A4706300D24889BE010D11BC532B1306B56EE67FF49F0C6FD5B188C2E7A6523B5BF6133B63EA6310A28D51E6B68026E6C91CBD45A0BE6D96EFD66B7A889C75CB7A93048D54471191D63705AD9F51E97AFED54387622DBE5825AF52F8F27C498EA02073A5031C2C022B8C
311
CC92285075F6E7EAAB287093CDAC3B060A58BF6F27977FAC664596157933B5BA36F7616BF988DB6DBC4272A0FA5A2257C3813F5CD5D7017343596F88A42E89E51326E059C17640F7DC0F5E3677461F8B8CFB8D273CED8A03862EE696296CE3FDFA6E6ED5E0A0F1C8A98518D2574A1D31DD05E59B3702AF5E0A55057AF9F05F
311
504B0304140006080000F7468943000000000000000000000000350000006662782F39464130454433432D374133312D343433342D414646412D3143343934443132453744352F76657274696365732E62696E504B0304140006080800F7468943F270F1330600000004000000360000006662782F39464130454433432D37
311
4133312D343433342D414646412D3143343934443132453744352F747269616E676C65732E62696E636660600000504B0304140006080000F7468943000000000000000000000000370000006662782F39464130454433432D374133312D343433342D414646412D3143343934443132453744352F61747472696275746573
311
2E62696E504B0304140006080800F7468943D5987DFC8F00000041010000360000006662782F39464130454433432D374133312D343433342D414646412D3143343934443132453744352F6469726563746F72792E786D6C858F410EC2201045AF4266AF15DDB800BA74E7C21B903225242D6328188F2FA5C4183471359997
311
F9FF81E89FF3C41E1816475E02DF1F80A11FC8386F25A438EECEC07A250251FC3803E6F58C12560C4AD840E95E91C151A72936F496F35732D860FE635F62C8F2DA16B505C545B74125BAA2FA9E05D7CC053D063734D5C7665FD55B6B8D15D5E9BFEAFD8490FFA45E504B0304140006080800F7468943620D66F0FF000000A0
311
0100003B0000006662782F39464130454433432D374133312D343433342D414646412D3143343934443132453744352F7265736F75726365732F636F72652E786D6C8D504B6E833010BD0A9A6D65B00929041947019A13F4029699502BC18EFCA97AFC9A844AEDAE9B99D1FB689E1E3F7E2DB7EC139DD7D674C0720A191A65
311
276DE60E62B89006B2A3E0CEDAF04B0699910B76B0C220F8EC6CBC6F90B226A009093576C20D94DE63804CDDD2D181571FB8C85CC69014FE9ADFA5BACA197396273AE904F7C1A500D9F3C93A4138F4363A859E174F56F018F5B469F4947EEA8B460762A82A763EB3860CAFE340AA53DF93BEAE46F256F6AC3E9C4EC3B86F78
311
B19A050F7AF9C9A81CCA80138892B21D6125A18777DAB4FB7D5BD52F94B594F26295FF31C5FBF44F53D426ECCA2DEED3E641B014E441085EAC7DA5F52833EDB55BF10D504B010214000A0000080000F74689433DEE336E79000000790000001B00000000000000000000000000000000006175746F6465736B2D6465736967
311
6E2D7061636B6167652E786D6C504B01021400140006080800F7468943D486FD9CA0000000F40000001300000000000000000000000000B20000005B436F6E74656E745F54797065735D2E786D6C504B01021400140006080800F746894371A64868ED0000007C010000080000000000000000000000000083010000636F72
311
652E786D6C504B01021400140006080800F746894355019EA25F0000007C000000070000000000000000000000000096020000636E782E786D6C504B01021400140006080800F74689436360608E69010000020300000C000000000000000000000000001A0300006662782F636F72652E786D6C504B010214001400060808
311
00F7468943759497547D0000009D0000000B00000000000000000000000000AD0400006662782F636E782E786D6C504B01021400140006080800F7468943E59A9FE52F010000150200003100000000000000000000000000530500006662782F39464130454433432D374133312D343433342D414646412D31433439344431
311
32453744352F636F72652E786D6C504B01021400140006080800F746894335F0FF8C4E010000330300003000000000000000000000000000D10600006662782F39464130454433432D374133312D343433342D414646412D3143343934443132453744352F636E782E786D6C504B01021400140006080800F7468943CE5999
311
BAA40500008110000034000000000000000000000000006D0800006662782F39464130454433432D374133312D343433342D414646412D3143343934443132453744352F6F626A656374732E786D6C504B01021400140006080000F74689430000000000000000000000003500000000000000000000000000630E00006662
311
782F39464130454433432D374133312D343433342D414646412D3143343934443132453744352F76657274696365732E62696E504B01021400140006080800F7468943F270F13306000000040000003600000000000000000000000000B60E00006662782F39464130454433432D374133312D343433342D414646412D3143
311
343934443132453744352F747269616E676C65732E62696E504B01021400140006080000F74689430000000000000000000000003700000000000000000000000000100F00006662782F39464130454433432D374133312D343433342D414646412D3143343934443132453744352F617474726962757465732E62696E504B
311
01021400140006080800F7468943D5987DFC8F000000410100003600000000000000000000000000650F00006662782F39464130454433432D374133312D343433342D414646412D3143343934443132453744352F6469726563746F72792E786D6C504B01021400140006080800F7468943620D66F0FF000000A00100003B
311
00000000000000000000000000481000006662782F39464130454433432D374133312D343433342D414646412D3143343934443132453744352F7265736F75726365732F636F72652E786D6C504B0506000000000E000E0080040000A01100000000
310
504B03040A0000080000F74689433DEE336E79000000790000001B0000006175746F6465736B2D64657369676E2D7061636B6167652E786D6C3C3F786D6C2076657273696F6E3D22312E302220656E636F64696E673D227574662D3822203F3E3C666F726D6174733E3C666F726D61743E687474703A2F2F736368656D612E
310
6175746F6465736B2E636F6D2F64657369676E2D7061636B6167652F323030393C2F666F726D61743E3C2F666F726D6174733E504B0304140006080800F7468943D486FD9CA0000000F4000000130000005B436F6E74656E745F54797065735D2E786D6C7D8EC10E82300C865F65E91D8A1E8C310C0EEA1BF002731658846E
310
D98AC1B77784ABF1D8FE5FBFBF75BBCE937A534CCEB38643598122B6FEE978D0B0485F9C41B54DDD7D022595594E1A469170414C76A4D9A4D207E29CF43ECE46F218070CC6BECC4078ACAA135ACF422C856C0E68EA1BF5669944DDD7BCDE7B1F8E415D77AECB980613C2E4AC91FC167A2B244592486606FC29C8FD7F045B9A
310
EF7053A7E60B504B0304140006080800F74689434CE64920EA0000007C01000008000000636F72652E786D6C8D90416EC3201045AF82D856D803B61B6261A2BA6A4FD00B20202E4A0C9681AAC72F4E1CA9DD7535A33FFFCD8CBE387DCF57F465D7E8821F30AD0023EB7530CE4F03CEE94C38462729D610D22F1B465ECD76C0
310
9B8CA598D690975DD2C127EB53517D307617558C3661A4AFA51970D49F765695CAA938E2A55A94BEA8C956F4D115386767D0FD8833659F3B3BBB62D9B2B7B103E0841D0F9CB4303E13FEC2DF097B6D5B6074A4008DA837588AE4E6C77DBD5A95ACC192016D0865048E1FC0FBAEEBDBC313D01E40D49BFD0F9417F34F283B9F
310
1AB6BF7BC72296B43C721B48516F5994720BAAD42D37F903504B0304140006080800F746894355019EA25F0000007C00000007000000636E782E786D6C4DCB3B0E80201045D1AD90E915ED2CF8AC45050C11660C8261F98AB1B07AC9C97D42D718D865D3E909258CFD00CCE24AC6E326A164D74DC0B4128928FF326038472B
310
A13128B1252AC747C6BAB984FC68F0B87FE8960A5C09FE86CFB69FBA01504B0304140006080800F7468943715E761267010000020300000C0000006662782F636F72652E786D6C8D525B6E833010BC8AE5DFCAF811D290C8386AAAF604BD80030E45011B191BE5F85D1E519A2A8A2A2463CDECECCE0EC8FDA56DD0607C5F3B
310
9B639E308C8C2D5C59DB2AC7319C4886D15E49EF5CF8558691D5ADC9F10863252BEF62B74085B3C1D800A875A55940DDF72660543470C9715F7C9B56273A06A8E8CF49A78BB3AE4CC213A0A14EC93E783080E621E389D5E9789174C6958CB12E17B62E615A7DAA8DC72A151F8735631911DB4D4652767825D95BF649C47B9A
310
32C10F9CB195A4A358C950B7577785373A98122BC1F88A7041D8F68B65BBF57A976E5E18DF3126E9587E278A5DF94F51AC6D5889C5EE2CEBB1E2606422FE6C0B1105D4EB01FC5025E91822BCA684EF83864020E4A08FCD758F3340832982F32930A58B376AD04D343095A1E9917466A1F3D400367BD8473CE9F3BC077C406D
310
2BB0A6035C8F318CD3E53C7589A2339E0CE182ACF3AD6E6EE6668BB7F336E8A1BC708DF3FF51D36555BA8449C7BF57FD00504B0304140006080800F74689436EA9C5997D0000009D0000000B0000006662782F636E782E786D6C4DCCD10A83201886E15B91FFDCA519E6400D37EA3E6259C84CC3E9D8E5AF46073BFAE0E1E3
310
95DD67F5E86DD3CBC5A0805E08201B1E7172615150F28C05A04ECB1463FEBB010AE36A151C0C5A2E2996EDA4C9CE63F17957EFC2F3C4DE08726B0CC194B70437A6AEB1B97286EF8C0D03A37D2B38854ACBEA57DAF708EB2F504B0304140006080800F7468943F231C1002A01000013020000310000006662782F4541383042
310
3441302D313637302D344132322D413936332D4333334646333145373836312F636F72652E786D6C8D515B6EC32010BC0AE22B55850DC6B19D0813B95572825EC00192A2C460F1A872FC42ED4AED5F7E00CDCECCCEB2ECF098EEE04B39AFADE921293004CA082BB5B9F630860BEA203870E6AC0D7F68109871523DCC30E4EC
310
EA6C9C574858139409093556AA151CBD570102714F8F1E7AF1A9A6B11863480C7F2BE651DCC6AB2A4891CA89C7990F2E05004B937C427E1C3AFC560F1891A6C5A81EAA0A0DBB86A2774A4F274A8E6DD710562E42CE62D472956B99E2E88B56EE59932CE62CE8E937BE706A0C4A425E614211A910DE7DE06EBFDDEEEBF61593
310
3DC6ACCCF47FA238CB2745519B40AB35EE22F390A769960267D2C6F3FD378C7ACCD60590FB6DBC122F90E382D0AA69775B562ECC347FB26CEAD5D207EBD2FF6E6EE744A6AB6F537356E615A5EB677FE9CEEBE4DF504B0304140006080800F74689435357309B5701000033030000300000006662782F45413830423441302D
310
313637302D344132322D413936332D4333334646333145373836312F636E782E786D6CBD93CD6EC32010845F0571ADFC9738A91B6122F5D027E8A1570C9B84068305B86ADEBE4B42D25C7AA854F582ACD96166F509B3EDE768C807F8A09DED6953D69480954E69BBEFE91C774547C99633EF5CBCB35162C5083D4D32E56CEF
310
DD3C6549C14ECC26A26AB43D66D14370B39710504E37897152180C005BCC28C2388052A0C8CD885F3BF0B80A8AC389C4039097E737E286779031B02AA57056A50ECED2999BEE4C94482342E8699007184529E6E8148463A9441465535EBB7ED8E93B89A40BD7CAD96B92CA7B9A4ECAF346257264150E390BD123BD6C8AA709
310
2817D364B41411215767E3C5C3D9AC6D5CB7D9AB11BC47F772B1EE3A0C3BCF388B7A84EC901E440445F9A26E9645B328EAA7D7BADBAC569BF6F1A16E3675CDAA64E76C70CEE44B1803DE4D443A1BC146CA1B56A5F14FF8B28F28ED91B5F3A75F804400B9F542E796F1977C9AF5B26DFF914F757EDF88CBE35FC0BF00504B03
310
04140006080800F74689435ABE32F0640700009A1B0000340000006662782F45413830423441302D313637302D344132322D413936332D4333334646333145373836312F6F626A656374732E786D6CED59DD739B3810FF5718EEE5EEC1D8C44E1ADF103A89D3763CBDB49DFADAB907CF3032C8441721184924F1FDF5B7FA00
310
033109BEE6DEFA6003425AEDFEF6534BF0F631A3CE3DE682E4ECC2F5BD89EB6016E70961E9855BCAEDE8DC75DE8601CF73D998E63A0C65F8C255C36E18A43C2F0B3B94E02D2AA9EC8CBEBFFACB113166D875628A84B870457C8B33E4A152E60916775E8224F2D2EDA3E77B66629B6CCA5171DB215A208E99044E619C0115C7
310
30E5B71F27EE380CC6EA7D18A87F3B6B3A68D6AC7FD6584BDDE6923021118B9FB0D421331DC4D2D49F5DBF3B399D8F4E67B3E9687676E28FAEDE5F5D8FFC37D3C9E26CB1985FBE9B037B9B3CA756A604179825A0BF9D1BFAC158BDA945B7081CE23ACE19C3B10612A0D2627509122C60AB067C93F6A3AF246ABCD612369E67
310
EABD65A1313C6D53E99B350C88165D10C46E57495C5D9BF2E59BBF417031C428B9C012B8159283762D3C1CBCC20D27C1D88C86C166AF0B229C0C49CC09A20E251B8E382805A6AA296160165832CA3938907294045A73E675DBB6C0335F769D435C6E4B4A9567B8A176AC08DC0F4BA13923FF60BEE7BE890CF004D29684C973
310
CBA5DC15D80DE7C1580F8681BA4C4FEC4B03A4B3A528151A11F3B623E842B9FEF2DA0D3FBEDF3CAE543838BC79C1F30273A98C4EE951F305866CAF0A25BBAD3F48736A01086340B52BF7A07C05E43F41F4D8B3027AE3E471F638B37325474C6C739E816E9C89339AC0DFC4F1F5BFBA6FDC05E37A715B7B7D78829B2AA8CE7F
310
1CCFB60C1A2BCB7F03CE30B80783CFF9D4BE5AC588823DDF100600292371680E4310DAB79B47375C42E084400FAB100D7D1019D8BD87DB606CC9ECB552B997F53A0688DA3DA6439404B0698B04367AF4F401B20727F15E4D4D11FBE03D7D1573BDBC5E7D5C957C8B627C637DFA1A6F092312B2E661865A98B724BAC3BB879C
310
2720E853BC574DBC33BB9500B415E60AF8B402413DEC776E6D10C3BA3457E1267861071042E5EA06FD1B22624C2962382FAB7DEBE8A60CB5F6785B33B8E18981787AD231618EEF89AA2AC069F6335A8C42DE8F392914886EF8C14856074DAF47BA6FCB4F6091F5FC9E594B06A19721FAA70E5A077068597685B405A21678B3
310
0FE7714E731E6D769189742ED412C046DB5BBEB78842AC374A5254C083B4DF55212535D24609D96E4B0171F5008BDF978BA6394CBCA97FEA34FF3BCE3883680BBE8BB8F5BBCE1E11C9508AA32D4AFAB66BEE56D3169A640F698EB714E422F744EE2224A34982D363A0398AF8FC55A9A7341782302C205F1D04BF89C6C48340
310
62B459B1ACB4DA019A8828C312D1631050647AC0D56947D7B831940E2FF3585BEF731A6B12FD9F2C8223A82573161128452187BCC8B8EF9D420C69A36B50EEE00BD656D1D662D0124A8878173D6092DECA635037E47B708FE14852CA282F500C663D80EC135F514AEDF0BE41F19DCA1F515CD2D7321081E93622949659043F
310
C2E0E431C4B5EBC0F42C0A0DE226F6499C41518664C9876C72763A79B28FA919BA21B0B1D1965008DB51868A1ED45B0151D7234E0DBEA5DEA3D44D991511CAF2920D32146FDAF5264BBEAB56457620BFAA5484B2B1226C09860161B2CEAA55CC0653D78115DC4807AA5D24505650730A7B21F1F8B53769CABD1B70EBA7AFBB
310
4106855F8FF69A117556C160796C1506E201C9F8D60D57FA3ABA82FA3BC1C93ED557B566B30204C454242F39B12AFAB684F2C6D6686E7883A4587F3059B7BA7E5B7AD0FD08C6B0066A977AE152019D612691AA4C6ED40DFD8A2004B76898F1A5CAA9C750B94C125D3522FA9EF4A9B35546B436CD8857DC629667F0636BC262
310
5A26788D127117DD481AAD8862DD4AE965A4C2F859013F7F5875E0819101227D51051E7EE8ACB5A30B552E1D24226FCB6CC3108120D8122D35BAF10A965A8D545AAEAFEA4C017517189855F1ECE7C9A2D98EF879B248AD61FCD0C9E26AF707DA35FB228D741E2BBB3EEA1850E72745E5358E01BAED5053ADB38849E6567EEB
310
4C1104C52ACA0FAEC6AAA06108F671FC9FB3765F1634DB75F83F2E6BFB4F2A8EA3B24A6BB2EA521DA85C97CD1CB6387BE74FDE9DCF47E79393F968E6CFCE47F3E9E96C74B598CFAFCFDFCCA6FED9658DA676D430A88399CE5DF06C825A35AC9E2C06D095153925099CE61327C510F3259CE907B4CF79860524CF66B33BB14D
310
F901ABEF4D9F53A20DC51527B7081AC454405A078CCA58B6C79D5FA03529E1A07DE142D3C8BB833F6B95AE0399E7C2855681243116DE06DA4CAAA1A78943CAD5B9DF12037C104B554A348BEAE77A95C2A615FEEB2943D28095ABD5C380C2AD80EE57AB43A179B33CC547095EB1E32009B79B5242B56664D90FD4C2E86DF6EA
310
37B251C2EEECD68FE0BACF8BE57B7A4E0B91419F0C9E3502437524114F75BF5B316659BABCFE32863E9BB3FCEC14B44C4197C3298D3806632E5541055604566169164882A92E7E5F7FE1397CE2C91C5D1539BF3E9E9FFDB65EE459963333B4BE845359021F8A9CD52D7CF649D6503C60D55C17EB93897FB2D64D6DDB678F36
310
48604F5545305015134A908EC9815D3E6950D9F6E558A9A2337D79EDD8200ACD0063474F7ABCE62397033EA43EA7288FD17E5E49FB6C5F7BACA7824D70E84887FF02504B0304140006080000F7468943000000000000000000000000350000006662782F45413830423441302D313637302D344132322D413936332D433333
310
4646333145373836312F76657274696365732E62696E504B0304140006080800F7468943F270F1330600000004000000360000006662782F45413830423441302D313637302D344132322D413936332D4333334646333145373836312F747269616E676C65732E62696E636660600000504B0304140006080000F746894300
310
0000000000000000000000370000006662782F45413830423441302D313637302D344132322D413936332D4333334646333145373836312F617474726962757465732E62696E504B0304140006080800F7468943D5987DFC8F00000041010000360000006662782F45413830423441302D313637302D344132322D41393633
310
2D4333334646333145373836312F6469726563746F72792E786D6C858F410EC2201045AF4266AF15DDB800BA74E7C21B903225242D6328188F2FA5C4183471359997F9FF81E89FF3C41E1816475E02DF1F80A11FC8386F25A438EECEC07A250251FC3803E6F58C12560C4AD840E95E91C151A72936F496F35732D860FE635F
310
62C8F2DA16B505C545B74125BAA2FA9E05D7CC053D063734D5C7665FD55B6B8D15D5E9BFEAFD8490FFA45E504B0304140006080800F7468943BC87DD50FD000000A00100003B0000006662782F45413830423441302D313637302D344132322D413936332D4333334646333145373836312F7265736F75726365732F636F72
310
652E786D6C8D504B4EC33010BD4A345BE464ECA6348D1C5714C109B880E54C53AB8D5DF983383E4E1B24D8B19919BD8FE6E9C9C3D77CAD3E2944EBDD00BC46A8C8193F5A370D90D38975501D940CDEA75F32A89C9E6980050625A7E0F36D858C77895C2AA8F323ADA08E911254E65A8E01A239D3AC6B9D5351C44B7DD3E6A2
310
27AA795DE8A25332A65002548F27CB041528FA1C0C45D93C582573B6E3AAB163F9694F9602A856BC1DB7883B26F6BB8EB5787C66DD4BF7CEC46BDBA2E0478EB891CD625632D9F927A309A4138DA004F20DE382E1FE03BB7EBBEDDBDD13F21E51368BFC8F29DFC67F9AB2756923D6B80F5B04C54B903BA164B3F455D6BDCCB2
310
976ED537504B010214000A0000080000F74689433DEE336E79000000790000001B00000000000000000000000000000000006175746F6465736B2D64657369676E2D7061636B6167652E786D6C504B01021400140006080800F7468943D486FD9CA0000000F40000001300000000000000000000000000B20000005B436F6E
310
74656E745F54797065735D2E786D6C504B01021400140006080800F74689434CE64920EA0000007C010000080000000000000000000000000083010000636F72652E786D6C504B01021400140006080800F746894355019EA25F0000007C000000070000000000000000000000000093020000636E782E786D6C504B010214
310
00140006080800F7468943715E761267010000020300000C00000000000000000000000000170300006662782F636F72652E786D6C504B01021400140006080800F74689436EA9C5997D0000009D0000000B00000000000000000000000000A80400006662782F636E782E786D6C504B01021400140006080800F7468943F2
310
31C1002A0100001302000031000000000000000000000000004E0500006662782F45413830423441302D313637302D344132322D413936332D4333334646333145373836312F636F72652E786D6C504B01021400140006080800F74689435357309B57010000330300003000000000000000000000000000C7060000666278
310
2F45413830423441302D313637302D344132322D413936332D4333334646333145373836312F636E782E786D6C504B01021400140006080800F74689435ABE32F0640700009A1B000034000000000000000000000000006C0800006662782F45413830423441302D313637302D344132322D413936332D4333334646333145
310
373836312F6F626A656374732E786D6C504B01021400140006080000F74689430000000000000000000000003500000000000000000000000000221000006662782F45413830423441302D313637302D344132322D413936332D4333334646333145373836312F76657274696365732E62696E504B01021400140006080800
310
F7468943F270F13306000000040000003600000000000000000000000000751000006662782F45413830423441302D313637302D344132322D413936332D4333334646333145373836312F747269616E676C65732E62696E504B01021400140006080000F74689430000000000000000000000003700000000000000000000
310
000000CF1000006662782F45413830423441302D313637302D344132322D413936332D4333334646333145373836312F617474726962757465732E62696E504B01021400140006080800F7468943D5987DFC8F000000410100003600000000000000000000000000241100006662782F45413830423441302D313637302D34
310
4132322D413936332D4333334646333145373836312F6469726563746F72792E786D6C504B01021400140006080800F7468943BC87DD50FD000000A00100003B00000000000000000000000000071200006662782F45413830423441302D313637302D344132322D413936332D4333334646333145373836312F7265736F75
310
726365732F636F72652E786D6C504B0506000000000E000E00800400005D1300000000
  0
XRECORD
  5
17
102
{ACAD_REACTORS
330
12
102
}
330
12
100
AcDbXrecord
280
     1
270
     1
271
     1
  0
XRECORD
  5
16
102
{ACAD_REACTORS
330
12
102
}
330
12
100
AcDbXrecord
280
     1
270
     1
271
     1
  0
XRECORD
  5
18
102
{ACAD_REACTORS
330
12
102
}
330
12
100
AcDbXrecord
280
     1
270
     1
271
     1
  0
XRECORD
  5
15
102
{ACAD_REACTORS
330
12
102
}
330
12
100
AcDbXrecord
280
     1
270
     1
271
     1
  0
XRECORD
  5
717
102
{ACAD_REACTORS
330
22
102
}
330
22
100
AcDbXrecord
280
     1
102
MATERIAL
148
0.0
149
0.0
149
0.0
 93
        0
 94
      127
282
     0
 72
     0
 77
     0
171
     0
175
     0
179
     0
273
     0
  0
XRECORD
  5
24
102
{ACAD_REACTORS
330
22
102
}
330
22
100
AcDbXrecord
280
     1
270
     1
271
     1
  0
XRECORD
  5
23
102
{ACAD_REACTORS
330
22
102
}
330
22
100
AcDbXrecord
280
     1
270
     1
271
     1
  0
XRECORD
  5
27
102
{ACAD_REACTORS
330
22
102
}
330
22
100
AcDbXrecord
280
     1
270
     1
271
     1
  0
XRECORD
  5
26
102
{ACAD_REACTORS
330
22
102
}
330
22
100
AcDbXrecord
280
     1
270
     1
271
     1
  0
XRECORD
  5
28
102
{ACAD_REACTORS
330
22
102
}
330
22
100
AcDbXrecord
280
     1
270
     1
271
     1
  0
XRECORD
  5
25
102
{ACAD_REACTORS
330
22
102
}
330
22
100
AcDbXrecord
280
     1
270
     1
271
     1
  0
XRECORD
  5
713
102
{ACAD_REACTORS
330
712
102
}
330
712
100
AcDbXrecord
280
     1
102
ACAD_ROUNDTRIP_2012_MLEADER_STYLE
298
     1
  0
CELLSTYLEMAP
  5
711
102
{ACAD_REACTORS
330
710
102
}
330
710
100
AcDbCellStyleMap
 90
        3
300
CELLSTYLE
  1
TABLEFORMAT_BEGIN
 90
        5
170
     1
 91
        0
 92
    32768
 62
   257
 93
        1
300
CONTENTFORMAT
  1
CONTENTFORMAT_BEGIN
 90
        0
 91
        0
 92
      512
 93
        0
300

 40
0.0
140
1.0
 94
        5
 62
     0
340
55
144
0.25
309
CONTENTFORMAT_END
171
     0
 94
        0
309
TABLEFORMAT_END
  1
CELLSTYLE_BEGIN
 90
        1
 91
        1
300
_TITLE
309
CELLSTYLE_END
300
CELLSTYLE
  1
TABLEFORMAT_BEGIN
 90
        5
170
     1
 91
        0
 92
        0
 62
   257
 93
        1
300
CONTENTFORMAT
  1
CONTENTFORMAT_BEGIN
 90
        0
 91
        0
 92
      512
 93
        0
300

 40
0.0
140
1.0
 94
        5
 62
     0
340
55
144
0.18
309
CONTENTFORMAT_END
171
     0
 94
        0
309
TABLEFORMAT_END
  1
CELLSTYLE_BEGIN
 90
        2
 91
        1
300
_HEADER
309
CELLSTYLE_END
300
CELLSTYLE
  1
TABLEFORMAT_BEGIN
 90
        5
170
     1
 91
        0
 92
        0
 62
   257
 93
        1
300
CONTENTFORMAT
  1
CONTENTFORMAT_BEGIN
 90
        0
 91
        0
 92
      512
 93
        0
300

 40
0.0
140
1.0
 94
        2
 62
     0
340
55
144
0.18
309
CONTENTFORMAT_END
171
     0
 94
        0
309
TABLEFORMAT_END
  1
CELLSTYLE_BEGIN
 90
        3
 91
        2
300
_DATA
309
CELLSTYLE_END
  0
XRECORD
  5
748
102
{ACAD_REACTORS
330
710
102
}
330
710
100
AcDbXrecord
280
     1
102
ACAD_ROUNDTRIP_PRE2007_TABLESTYLE
 90
      512
 91
        0
  1

 92
      512
 93
        0
  2

 94
      512
 95
        0
  3

  0
XRECORD
  5
723
102
{ACAD_REACTORS
330
722
102
}
330
722
100
AcDbXrecord
280
     1
102
RTVSPropertyOp0
 70
     1
102
RTVSPropertyOp1
 70
     1
102
RTVSPropertyOp2
 70
     1
102
RTVSPropertyOp3
 70
     1
102
RTVSPropertyOp4
 70
     1
102
RTVSPropertyOp5
 70
     1
102
RTVSPropertyOp6
 70
     1
102
RTVSPropertyOp7
 70
     1
102
RTVSPropertyOp8
 70
     1
102
RTVSPropertyOp9
 70
     1
102
RTVSPropertyOp10
 70
     1
102
RTVSPropertyOp11
 70
     1
102
RTVSPropertyOp12
 70
     1
102
RTVSPropertyOp13
 70
     1
102
RTVSPropertyOp14
 70
     1
102
RTVSPropertyOp15
 70
     1
102
RTVSPropertyOp16
 70
     1
102
RTVSPropertyOp17
 70
     1
102
RTVSPropertyOp18
 70
     1
102
RTVSPropertyOp19
 70
     1
102
RTVSPropertyOp20
 70
     1
102
RTVSPropertyOp21
 70
     1
102
RTVSPropertyOp22
 70
     1
102
RTVSPropertyOp23
 70
     1
102
RTVSPropertyOp24
 70
     1
102
RTVSPropertyOp25
 70
     1
102
RTVSPropertyOp26
 70
     1
102
RTVSPropertyOp27
 70
     1
102
RTVSPropertyOp28
 70
     1
102
RTVSPropertyOp29
 70
     1
102
RTVSPropertyOp30
 70
     1
102
RTVSPropertyOp31
 70
     1
102
RTVSPropertyOp32
 70
     1
  0
XRECORD
  5
721
102
{ACAD_REACTORS
330
720
102
}
330
720
100
AcDbXrecord
280
     1
102
RTVSPropertyOp0
 70
     1
102
RTVSPropertyOp1
 70
     1
102
RTVSPropertyOp2
 70
     1
102
RTVSPropertyOp3
 70
     1
102
RTVSPropertyOp4
 70
     1
102
RTVSPropertyOp5
 70
     1
102
RTVSPropertyOp6
 70
     1
102
RTVSPropertyOp7
 70
     1
102
RTVSPropertyOp8
 70
     1
102
RTVSPropertyOp9
 70
     1
102
RTVSPropertyOp10
 70
     1
102
RTVSPropertyOp11
 70
     1
102
RTVSPropertyOp12
 70
     1
102
RTVSPropertyOp13
 70
     1
102
RTVSPropertyOp14
 70
     1
102
RTVSPropertyOp15
 70
     1
102
RTVSPropertyOp16
 70
     1
102
RTVSPropertyOp17
 70
     1
102
RTVSPropertyOp18
 70
     1
102
RTVSPropertyOp19
 70
     1
102
RTVSPropertyOp20
 70
     1
102
RTVSPropertyOp21
 70
     1
102
RTVSPropertyOp22
 70
     1
102
RTVSPropertyOp23
 70
     1
102
RTVSPropertyOp24
 70
     1
102
RTVSPropertyOp25
 70
     1
102
RTVSPropertyOp26
 70
     1
102
RTVSPropertyOp27
 70
     1
102
RTVSPropertyOp28
 70
     1
102
RTVSPropertyOp29
 70
     1
102
RTVSPropertyOp30
 70
     1
102
RTVSPropertyOp31
 70
     1
102
RTVSPropertyOp32
 70
     1
  0
XRECORD
  5
72F
102
{ACAD_REACTORS
330
72E
102
}
330
72E
100
AcDbXrecord
280
     1
102
RTVSPropertyOp0
 70
     1
102
RTVSPropertyOp1
 70
     1
102
RTVSPropertyOp2
 70
     1
102
RTVSPropertyOp3
 70
     1
102
RTVSPropertyOp4
 70
     1
102
RTVSPropertyOp5
 70
     1
102
RTVSPropertyOp6
 70
     1
102
RTVSPropertyOp7
 70
     1
102
RTVSPropertyOp8
 70
     1
102
RTVSPropertyOp9
 70
     1
102
RTVSPropertyOp10
 70
     1
102
RTVSPropertyOp11
 70
     1
102
RTVSPropertyOp12
 70
     1
102
RTVSPropertyOp13
 70
     1
102
RTVSPropertyOp14
 70
     1
102
RTVSPropertyOp15
 70
     1
102
RTVSPropertyOp16
 70
     1
102
RTVSPropertyOp17
 70
     1
102
RTVSPropertyOp18
 70
     1
102
RTVSPropertyOp19
 70
     1
102
RTVSPropertyOp20
 70
     1
102
RTVSPropertyOp21
 70
     1
102
RTVSPropertyOp22
 70
     1
102
RTVSPropertyOp23
 70
     1
102
RTVSPropertyOp24
 70
     1
102
RTVSPropertyOp25
 70
     1
102
RTVSPropertyOp26
 70
     1
102
RTVSPropertyOp27
 70
     1
102
RTVSPropertyOp28
 70
     1
102
RTVSPropertyOp29
 70
     1
102
RTVSPropertyOp30
 70
     1
102
RTVSPropertyOp31
 70
     1
102
RTVSPropertyOp32
 70
     1
  0
XRECORD
  5
737
102
{ACAD_REACTORS
330
736
102
}
330
736
100
AcDbXrecord
280
     1
102
RTVSPropertyOp0
 70
     1
102
RTVSPropertyOp1
 70
     1
102
RTVSPropertyOp2
 70
     1
102
RTVSPropertyOp3
 70
     1
102
RTVSPropertyOp4
 70
     1
102
RTVSPropertyOp5
 70
     1
102
RTVSPropertyOp6
 70
     1
102
RTVSPropertyOp7
 70
     1
102
RTVSPropertyOp8
 70
     1
102
RTVSPropertyOp9
 70
     1
102
RTVSPropertyOp10
 70
     1
102
RTVSPropertyOp11
 70
     1
102
RTVSPropertyOp12
 70
     1
102
RTVSPropertyOp13
 70
     1
102
RTVSPropertyOp14
 70
     1
102
RTVSPropertyOp15
 70
     1
102
RTVSPropertyOp16
 70
     1
102
RTVSPropertyOp17
 70
     1
102
RTVSPropertyOp18
 70
     1
102
RTVSPropertyOp19
 70
     1
102
RTVSPropertyOp20
 70
     1
102
RTVSPropertyOp21
 70
     1
102
RTVSPropertyOp22
 70
     1
102
RTVSPropertyOp23
 70
     1
102
RTVSPropertyOp24
 70
     1
102
RTVSPropertyOp25
 70
     1
102
RTVSPropertyOp26
 70
     1
102
RTVSPropertyOp27
 70
     1
102
RTVSPropertyOp28
 70
     1
102
RTVSPropertyOp29
 70
     1
102
RTVSPropertyOp30
 70
     1
102
RTVSPropertyOp31
 70
     1
102
RTVSPropertyOp32
 70
     1
  0
XRECORD
  5
729
102
{ACAD_REACTORS
330
728
102
}
330
728
100
AcDbXrecord
280
     1
102
RTVSPropertyOp0
 70
     1
102
RTVSPropertyOp1
 70
     1
102
RTVSPropertyOp2
 70
     1
102
RTVSPropertyOp3
 70
     1
102
RTVSPropertyOp4
 70
     1
102
RTVSPropertyOp5
 70
     1
102
RTVSPropertyOp6
 70
     1
102
RTVSPropertyOp7
 70
     1
102
RTVSPropertyOp8
 70
     1
102
RTVSPropertyOp9
 70
     1
102
RTVSPropertyOp10
 70
     1
102
RTVSPropertyOp11
 70
     1
102
RTVSPropertyOp12
 70
     1
102
RTVSPropertyOp13
 70
     1
102
RTVSPropertyOp14
 70
     1
102
RTVSPropertyOp15
 70
     1
102
RTVSPropertyOp16
 70
     1
102
RTVSPropertyOp17
 70
     1
102
RTVSPropertyOp18
 70
     1
102
RTVSPropertyOp19
 70
     1
102
RTVSPropertyOp20
 70
     1
102
RTVSPropertyOp21
 70
     1
102
RTVSPropertyOp22
 70
     1
102
RTVSPropertyOp23
 70
     1
102
RTVSPropertyOp24
 70
     1
102
RTVSPropertyOp25
 70
     1
102
RTVSPropertyOp26
 70
     1
102
RTVSPropertyOp27
 70
     1
102
RTVSPropertyOp28
 70
     1
102
RTVSPropertyOp29
 70
     1
102
RTVSPropertyOp30
 70
     1
102
RTVSPropertyOp31
 70
     1
102
RTVSPropertyOp32
 70
     1
  0
XRECORD
  5
72D
102
{ACAD_REACTORS
330
72C
102
}
330
72C
100
AcDbXrecord
280
     1
102
RTVSPropertyOp0
 70
     1
102
RTVSPropertyOp1
 70
     1
102
RTVSPropertyOp2
 70
     1
102
RTVSPropertyOp3
 70
     1
102
RTVSPropertyOp4
 70
     1
102
RTVSPropertyOp5
 70
     1
102
RTVSPropertyOp6
 70
     1
102
RTVSPropertyOp7
 70
     1
102
RTVSPropertyOp8
 70
     1
102
RTVSPropertyOp9
 70
     1
102
RTVSPropertyOp10
 70
     1
102
RTVSPropertyOp11
 70
     1
102
RTVSPropertyOp12
 70
     1
102
RTVSPropertyOp13
 70
     1
102
RTVSPropertyOp14
 70
     1
102
RTVSPropertyOp15
 70
     1
102
RTVSPropertyOp16
 70
     1
102
RTVSPropertyOp17
 70
     1
102
RTVSPropertyOp18
 70
     1
102
RTVSPropertyOp19
 70
     1
102
RTVSPropertyOp20
 70
     1
102
RTVSPropertyOp21
 70
     1
102
RTVSPropertyOp22
 70
     1
102
RTVSPropertyOp23
 70
     1
102
RTVSPropertyOp24
 70
     1
102
RTVSPropertyOp25
 70
     1
102
RTVSPropertyOp26
 70
     1
102
RTVSPropertyOp27
 70
     1
102
RTVSPropertyOp28
 70
     1
102
RTVSPropertyOp29
 70
     1
102
RTVSPropertyOp30
 70
     1
102
RTVSPropertyOp31
 70
     1
102
RTVSPropertyOp32
 70
     1
  0
XRECORD
  5
747
102
{ACAD_REACTORS
330
746
102
}
330
746
100
AcDbXrecord
280
     1
102
RTVSPropertyOp0
 70
     0
102
RTVSPropertyOp1
 70
     0
102
RTVSPropertyOp2
 70
     0
102
RTVSPropertyOp3
 70
     0
102
RTVSPropertyOp4
 70
     0
102
RTVSPropertyOp5
 70
     0
102
RTVSPropertyOp6
 70
     0
102
RTVSPropertyOp7
 70
     0
102
RTVSPropertyOp8
 70
     0
102
RTVSPropertyOp9
 70
     0
102
RTVSPropertyOp10
 70
     0
102
RTVSPropertyOp11
 70
     0
102
RTVSPropertyOp12
 70
     0
102
RTVSPropertyOp13
 70
     0
102
RTVSPropertyOp14
 70
     2
102
RTVSPropertyOp15
 70
     0
102
RTVSPropertyOp16
 70
     0
102
RTVSPropertyOp17
 70
     0
102
RTVSPropertyOp18
 70
     0
102
RTVSPropertyOp19
 70
     0
102
RTVSPropertyOp20
 70
     0
102
RTVSPropertyOp21
 70
     0
102
RTVSPropertyOp22
 70
     0
102
RTVSPropertyOp23
 70
     0
102
RTVSPropertyOp24
 70
     0
102
RTVSPropertyOp25
 70
     0
102
RTVSPropertyOp26
 70
     0
102
RTVSPropertyOp27
 70
     0
102
RTVSPropertyOp28
 70
     0
102
RTVSPropertyOp29
 70
     0
102
RTVSPropertyOp30
 70
     0
102
RTVSPropertyOp31
 70
     0
102
RTVSPropertyOp32
 70
     0
  0
XRECORD
  5
735
102
{ACAD_REACTORS
330
734
102
}
330
734
100
AcDbXrecord
280
     1
102
RTVSPropertyOp0
 70
     1
102
RTVSPropertyOp1
 70
     1
102
RTVSPropertyOp2
 70
     1
102
RTVSPropertyOp3
 70
     1
102
RTVSPropertyOp4
 70
     1
102
RTVSPropertyOp5
 70
     1
102
RTVSPropertyOp6
 70
     1
102
RTVSPropertyOp7
 70
     1
102
RTVSPropertyOp8
 70
     1
102
RTVSPropertyOp9
 70
     1
102
RTVSPropertyOp10
 70
     1
102
RTVSPropertyOp11
 70
     1
102
RTVSPropertyOp12
 70
     1
102
RTVSPropertyOp13
 70
     1
102
RTVSPropertyOp14
 70
     1
102
RTVSPropertyOp15
 70
     1
102
RTVSPropertyOp16
 70
     1
102
RTVSPropertyOp17
 70
     1
102
RTVSPropertyOp18
 70
     1
102
RTVSPropertyOp19
 70
     1
102
RTVSPropertyOp20
 70
     1
102
RTVSPropertyOp21
 70
     1
102
RTVSPropertyOp22
 70
     1
102
RTVSPropertyOp23
 70
     1
102
RTVSPropertyOp24
 70
     1
102
RTVSPropertyOp25
 70
     1
102
RTVSPropertyOp26
 70
     1
102
RTVSPropertyOp27
 70
     1
102
RTVSPropertyOp28
 70
     1
102
RTVSPropertyOp29
 70
     1
102
RTVSPropertyOp30
 70
     1
102
RTVSPropertyOp31
 70
     1
102
RTVSPropertyOp32
 70
     1
  0
XRECORD
  5
719
102
{ACAD_REACTORS
330
718
102
}
330
718
100
AcDbXrecord
280
     1
102
RTVSPropertyOp0
 70
     1
102
RTVSPropertyOp1
 70
     1
102
RTVSPropertyOp2
 70
     1
102
RTVSPropertyOp3
 70
     1
102
RTVSPropertyOp4
 70
     1
102
RTVSPropertyOp5
 70
     1
102
RTVSPropertyOp6
 70
     1
102
RTVSPropertyOp7
 70
     1
102
RTVSPropertyOp8
 70
     1
102
RTVSPropertyOp9
 70
     1
102
RTVSPropertyOp10
 70
     1
102
RTVSPropertyOp11
 70
     1
102
RTVSPropertyOp12
 70
     1
102
RTVSPropertyOp13
 70
     1
102
RTVSPropertyOp14
 70
     1
102
RTVSPropertyOp15
 70
     1
102
RTVSPropertyOp16
 70
     1
102
RTVSPropertyOp17
 70
     1
102
RTVSPropertyOp18
 70
     1
102
RTVSPropertyOp19
 70
     1
102
RTVSPropertyOp20
 70
     1
102
RTVSPropertyOp21
 70
     1
102
RTVSPropertyOp22
 70
     1
102
RTVSPropertyOp23
 70
     1
102
RTVSPropertyOp24
 70
     1
102
RTVSPropertyOp25
 70
     1
102
RTVSPropertyOp26
 70
     1
102
RTVSPropertyOp27
 70
     1
102
RTVSPropertyOp28
 70
     1
102
RTVSPropertyOp29
 70
     1
102
RTVSPropertyOp30
 70
     1
102
RTVSPropertyOp31
 70
     1
102
RTVSPropertyOp32
 70
     1
  0
XRECORD
  5
71B
102
{ACAD_REACTORS
330
71A
102
}
330
71A
100
AcDbXrecord
280
     1
102
RTVSPropertyOp0
 70
     1
102
RTVSPropertyOp1
 70
     1
102
RTVSPropertyOp2
 70
     1
102
RTVSPropertyOp3
 70
     1
102
RTVSPropertyOp4
 70
     1
102
RTVSPropertyOp5
 70
     1
102
RTVSPropertyOp6
 70
     1
102
RTVSPropertyOp7
 70
     1
102
RTVSPropertyOp8
 70
     1
102
RTVSPropertyOp9
 70
     1
102
RTVSPropertyOp10
 70
     1
102
RTVSPropertyOp11
 70
     1
102
RTVSPropertyOp12
 70
     1
102
RTVSPropertyOp13
 70
     1
102
RTVSPropertyOp14
 70
     1
102
RTVSPropertyOp15
 70
     1
102
RTVSPropertyOp16
 70
     1
102
RTVSPropertyOp17
 70
     1
102
RTVSPropertyOp18
 70
     1
102
RTVSPropertyOp19
 70
     1
102
RTVSPropertyOp20
 70
     1
102
RTVSPropertyOp21
 70
     1
102
RTVSPropertyOp22
 70
     1
102
RTVSPropertyOp23
 70
     1
102
RTVSPropertyOp24
 70
     1
102
RTVSPropertyOp25
 70
     1
102
RTVSPropertyOp26
 70
     1
102
RTVSPropertyOp27
 70
     1
102
RTVSPropertyOp28
 70
     1
102
RTVSPropertyOp29
 70
     1
102
RTVSPropertyOp30
 70
     1
102
RTVSPropertyOp31
 70
     1
102
RTVSPropertyOp32
 70
     1
  0
XRECORD
  5
71D
102
{ACAD_REACTORS
330
71C
102
}
330
71C
100
AcDbXrecord
280
     1
102
RTVSPropertyOp0
 70
     1
102
RTVSPropertyOp1
 70
     1
102
RTVSPropertyOp2
 70
     1
102
RTVSPropertyOp3
 70
     1
102
RTVSPropertyOp4
 70
     1
102
RTVSPropertyOp5
 70
     1
102
RTVSPropertyOp6
 70
     1
102
RTVSPropertyOp7
 70
     1
102
RTVSPropertyOp8
 70
     1
102
RTVSPropertyOp9
 70
     1
102
RTVSPropertyOp10
 70
     1
102
RTVSPropertyOp11
 70
     1
102
RTVSPropertyOp12
 70
     1
102
RTVSPropertyOp13
 70
     1
102
RTVSPropertyOp14
 70
     1
102
RTVSPropertyOp15
 70
     1
102
RTVSPropertyOp16
 70
     1
102
RTVSPropertyOp17
 70
     1
102
RTVSPropertyOp18
 70
     1
102
RTVSPropertyOp19
 70
     1
102
RTVSPropertyOp20
 70
     1
102
RTVSPropertyOp21
 70
     1
102
RTVSPropertyOp22
 70
     1
102
RTVSPropertyOp23
 70
     1
102
RTVSPropertyOp24
 70
     1
102
RTVSPropertyOp25
 70
     1
102
RTVSPropertyOp26
 70
     1
102
RTVSPropertyOp27
 70
     1
102
RTVSPropertyOp28
 70
     1
102
RTVSPropertyOp29
 70
     1
102
RTVSPropertyOp30
 70
     1
102
RTVSPropertyOp31
 70
     1
102
RTVSPropertyOp32
 70
     1
  0
XRECORD
  5
71F
102
{ACAD_REACTORS
330
71E
102
}
330
71E
100
AcDbXrecord
280
     1
102
RTVSPropertyOp0
 70
     1
102
RTVSPropertyOp1
 70
     1
102
RTVSPropertyOp2
 70
     1
102
RTVSPropertyOp3
 70
     1
102
RTVSPropertyOp4
 70
     1
102
RTVSPropertyOp5
 70
     1
102
RTVSPropertyOp6
 70
     1
102
RTVSPropertyOp7
 70
     1
102
RTVSPropertyOp8
 70
     1
102
RTVSPropertyOp9
 70
     1
102
RTVSPropertyOp10
 70
     1
102
RTVSPropertyOp11
 70
     1
102
RTVSPropertyOp12
 70
     1
102
RTVSPropertyOp13
 70
     1
102
RTVSPropertyOp14
 70
     1
102
RTVSPropertyOp15
 70
     1
102
RTVSPropertyOp16
 70
     1
102
RTVSPropertyOp17
 70
     1
102
RTVSPropertyOp18
 70
     1
102
RTVSPropertyOp19
 70
     1
102
RTVSPropertyOp20
 70
     1
102
RTVSPropertyOp21
 70
     1
102
RTVSPropertyOp22
 70
     1
102
RTVSPropertyOp23
 70
     1
102
RTVSPropertyOp24
 70
     1
102
RTVSPropertyOp25
 70
     1
102
RTVSPropertyOp26
 70
     1
102
RTVSPropertyOp27
 70
     1
102
RTVSPropertyOp28
 70
     1
102
RTVSPropertyOp29
 70
     1
102
RTVSPropertyOp30
 70
     1
102
RTVSPropertyOp31
 70
     1
102
RTVSPropertyOp32
 70
     1
  0
XRECORD
  5
727
102
{ACAD_REACTORS
330
726
102
}
330
726
100
AcDbXrecord
280
     1
102
RTVSPropertyOp0
 70
     1
102
RTVSPropertyOp1
 70
     1
102
RTVSPropertyOp2
 70
     1
102
RTVSPropertyOp3
 70
     1
102
RTVSPropertyOp4
 70
     1
102
RTVSPropertyOp5
 70
     1
102
RTVSPropertyOp6
 70
     1
102
RTVSPropertyOp7
 70
     1
102
RTVSPropertyOp8
 70
     1
102
RTVSPropertyOp9
 70
     1
102
RTVSPropertyOp10
 70
     1
102
RTVSPropertyOp11
 70
     1
102
RTVSPropertyOp12
 70
     1
102
RTVSPropertyOp13
 70
     1
102
RTVSPropertyOp14
 70
     1
102
RTVSPropertyOp15
 70
     1
102
RTVSPropertyOp16
 70
     1
102
RTVSPropertyOp17
 70
     1
102
RTVSPropertyOp18
 70
     1
102
RTVSPropertyOp19
 70
     1
102
RTVSPropertyOp20
 70
     1
102
RTVSPropertyOp21
 70
     1
102
RTVSPropertyOp22
 70
     1
102
RTVSPropertyOp23
 70
     1
102
RTVSPropertyOp24
 70
     1
102
RTVSPropertyOp25
 70
     1
102
RTVSPropertyOp26
 70
     1
102
RTVSPropertyOp27
 70
     1
102
RTVSPropertyOp28
 70
     1
102
RTVSPropertyOp29
 70
     1
102
RTVSPropertyOp30
 70
     1
102
RTVSPropertyOp31
 70
     1
102
RTVSPropertyOp32
 70
     1
  0
XRECORD
  5
743
102
{ACAD_REACTORS
330
742
102
}
330
742
100
AcDbXrecord
280
     1
102
RTVSPropertyOp0
 70
     0
102
RTVSPropertyOp1
 70
     0
102
RTVSPropertyOp2
 70
     0
102
RTVSPropertyOp3
 70
     0
102
RTVSPropertyOp4
 70
     0
102
RTVSPropertyOp5
 70
     0
102
RTVSPropertyOp6
 70
     0
102
RTVSPropertyOp7
 70
     0
102
RTVSPropertyOp8
 70
     0
102
RTVSPropertyOp9
 70
     0
102
RTVSPropertyOp10
 70
     0
102
RTVSPropertyOp11
 70
     0
102
RTVSPropertyOp12
 70
     0
102
RTVSPropertyOp13
 70
     0
102
RTVSPropertyOp14
 70
     2
102
RTVSPropertyOp15
 70
     0
102
RTVSPropertyOp16
 70
     0
102
RTVSPropertyOp17
 70
     0
102
RTVSPropertyOp18
 70
     0
102
RTVSPropertyOp19
 70
     0
102
RTVSPropertyOp20
 70
     0
102
RTVSPropertyOp21
 70
     0
102
RTVSPropertyOp22
 70
     0
102
RTVSPropertyOp23
 70
     0
102
RTVSPropertyOp24
 70
     0
102
RTVSPropertyOp25
 70
     0
102
RTVSPropertyOp26
 70
     0
102
RTVSPropertyOp27
 70
     0
102
RTVSPropertyOp28
 70
     0
102
RTVSPropertyOp29
 70
     0
102
RTVSPropertyOp30
 70
     0
102
RTVSPropertyOp31
 70
     0
102
RTVSPropertyOp32
 70
     0
  0
XRECORD
  5
733
102
{ACAD_REACTORS
330
732
102
}
330
732
100
AcDbXrecord
280
     1
102
RTVSPropertyOp0
 70
     1
102
RTVSPropertyOp1
 70
     1
102
RTVSPropertyOp2
 70
     1
102
RTVSPropertyOp3
 70
     1
102
RTVSPropertyOp4
 70
     1
102
RTVSPropertyOp5
 70
     1
102
RTVSPropertyOp6
 70
     1
102
RTVSPropertyOp7
 70
     1
102
RTVSPropertyOp8
 70
     1
102
RTVSPropertyOp9
 70
     1
102
RTVSPropertyOp10
 70
     1
102
RTVSPropertyOp11
 70
     1
102
RTVSPropertyOp12
 70
     1
102
RTVSPropertyOp13
 70
     1
102
RTVSPropertyOp14
 70
     1
102
RTVSPropertyOp15
 70
     1
102
RTVSPropertyOp16
 70
     1
102
RTVSPropertyOp17
 70
     1
102
RTVSPropertyOp18
 70
     1
102
RTVSPropertyOp19
 70
     1
102
RTVSPropertyOp20
 70
     1
102
RTVSPropertyOp21
 70
     1
102
RTVSPropertyOp22
 70
     1
102
RTVSPropertyOp23
 70
     1
102
RTVSPropertyOp24
 70
     1
102
RTVSPropertyOp25
 70
     1
102
RTVSPropertyOp26
 70
     1
102
RTVSPropertyOp27
 70
     1
102
RTVSPropertyOp28
 70
     1
102
RTVSPropertyOp29
 70
     1
102
RTVSPropertyOp30
 70
     1
102
RTVSPropertyOp31
 70
     1
102
RTVSPropertyOp32
 70
     1
  0
XRECORD
  5
745
102
{ACAD_REACTORS
330
744
102
}
330
744
100
AcDbXrecord
280
     1
102
RTVSPropertyOp0
 70
     0
102
RTVSPropertyOp1
 70
     0
102
RTVSPropertyOp2
 70
     0
102
RTVSPropertyOp3
 70
     0
102
RTVSPropertyOp4
 70
     0
102
RTVSPropertyOp5
 70
     0
102
RTVSPropertyOp6
 70
     0
102
RTVSPropertyOp7
 70
     0
102
RTVSPropertyOp8
 70
     0
102
RTVSPropertyOp9
 70
     0
102
RTVSPropertyOp10
 70
     0
102
RTVSPropertyOp11
 70
     0
102
RTVSPropertyOp12
 70
     0
102
RTVSPropertyOp13
 70
     0
102
RTVSPropertyOp14
 70
     2
102
RTVSPropertyOp15
 70
     0
102
RTVSPropertyOp16
 70
     0
102
RTVSPropertyOp17
 70
     0
102
RTVSPropertyOp18
 70
     0
102
RTVSPropertyOp19
 70
     0
102
RTVSPropertyOp20
 70
     0
102
RTVSPropertyOp21
 70
     0
102
RTVSPropertyOp22
 70
     0
102
RTVSPropertyOp23
 70
     0
102
RTVSPropertyOp24
 70
     0
102
RTVSPropertyOp25
 70
     0
102
RTVSPropertyOp26
 70
     0
102
RTVSPropertyOp27
 70
     0
102
RTVSPropertyOp28
 70
     0
102
RTVSPropertyOp29
 70
     0
102
RTVSPropertyOp30
 70
     0
102
RTVSPropertyOp31
 70
     0
102
RTVSPropertyOp32
 70
     0
  0
XRECORD
  5
72B
102
{ACAD_REACTORS
330
72A
102
}
330
72A
100
AcDbXrecord
280
     1
102
RTVSPropertyOp0
 70
     1
102
RTVSPropertyOp1
 70
     1
102
RTVSPropertyOp2
 70
     1
102
RTVSPropertyOp3
 70
     1
102
RTVSPropertyOp4
 70
     1
102
RTVSPropertyOp5
 70
     1
102
RTVSPropertyOp6
 70
     1
102
RTVSPropertyOp7
 70
     1
102
RTVSPropertyOp8
 70
     1
102
RTVSPropertyOp9
 70
     1
102
RTVSPropertyOp10
 70
     1
102
RTVSPropertyOp11
 70
     1
102
RTVSPropertyOp12
 70
     1
102
RTVSPropertyOp13
 70
     1
102
RTVSPropertyOp14
 70
     1
102
RTVSPropertyOp15
 70
     1
102
RTVSPropertyOp16
 70
     1
102
RTVSPropertyOp17
 70
     1
102
RTVSPropertyOp18
 70
     1
102
RTVSPropertyOp19
 70
     1
102
RTVSPropertyOp20
 70
     1
102
RTVSPropertyOp21
 70
     1
102
RTVSPropertyOp22
 70
     1
102
RTVSPropertyOp23
 70
     1
102
RTVSPropertyOp24
 70
     1
102
RTVSPropertyOp25
 70
     1
102
RTVSPropertyOp26
 70
     1
102
RTVSPropertyOp27
 70
     1
102
RTVSPropertyOp28
 70
     1
102
RTVSPropertyOp29
 70
     1
102
RTVSPropertyOp30
 70
     1
102
RTVSPropertyOp31
 70
     1
102
RTVSPropertyOp32
 70
     1
  0
XRECORD
  5
741
102
{ACAD_REACTORS
330
740
102
}
330
740
100
AcDbXrecord
280
     1
102
RTVSPropertyOp0
 70
     1
102
RTVSPropertyOp1
 70
     1
102
RTVSPropertyOp2
 70
     1
102
RTVSPropertyOp3
 70
     1
102
RTVSPropertyOp4
 70
     1
102
RTVSPropertyOp5
 70
     1
102
RTVSPropertyOp6
 70
     1
102
RTVSPropertyOp7
 70
     1
102
RTVSPropertyOp8
 70
     1
102
RTVSPropertyOp9
 70
     1
102
RTVSPropertyOp10
 70
     1
102
RTVSPropertyOp11
 70
     1
102
RTVSPropertyOp12
 70
     1
102
RTVSPropertyOp13
 70
     1
102
RTVSPropertyOp14
 70
     1
102
RTVSPropertyOp15
 70
     1
102
RTVSPropertyOp16
 70
     1
102
RTVSPropertyOp17
 70
     1
102
RTVSPropertyOp18
 70
     1
102
RTVSPropertyOp19
 70
     1
102
RTVSPropertyOp20
 70
     1
102
RTVSPropertyOp21
 70
     1
102
RTVSPropertyOp22
 70
     1
102
RTVSPropertyOp23
 70
     1
102
RTVSPropertyOp24
 70
     1
102
RTVSPropertyOp25
 70
     1
102
RTVSPropertyOp26
 70
     1
102
RTVSPropertyOp27
 70
     1
102
RTVSPropertyOp28
 70
     1
102
RTVSPropertyOp29
 70
     1
102
RTVSPropertyOp30
 70
     1
102
RTVSPropertyOp31
 70
     1
102
RTVSPropertyOp32
 70
     1
  0
XRECORD
  5
73F
102
{ACAD_REACTORS
330
73E
102
}
330
73E
100
AcDbXrecord
280
     1
102
RTVSPropertyOp0
 70
     1
102
RTVSPropertyOp1
 70
     1
102
RTVSPropertyOp2
 70
     1
102
RTVSPropertyOp3
 70
     1
102
RTVSPropertyOp4
 70
     1
102
RTVSPropertyOp5
 70
     1
102
RTVSPropertyOp6
 70
     1
102
RTVSPropertyOp7
 70
     1
102
RTVSPropertyOp8
 70
     1
102
RTVSPropertyOp9
 70
     1
102
RTVSPropertyOp10
 70
     1
102
RTVSPropertyOp11
 70
     1
102
RTVSPropertyOp12
 70
     1
102
RTVSPropertyOp13
 70
     1
102
RTVSPropertyOp14
 70
     1
102
RTVSPropertyOp15
 70
     1
102
RTVSPropertyOp16
 70
     1
102
RTVSPropertyOp17
 70
     1
102
RTVSPropertyOp18
 70
     1
102
RTVSPropertyOp19
 70
     1
102
RTVSPropertyOp20
 70
     1
102
RTVSPropertyOp21
 70
     1
102
RTVSPropertyOp22
 70
     1
102
RTVSPropertyOp23
 70
     1
102
RTVSPropertyOp24
 70
     1
102
RTVSPropertyOp25
 70
     1
102
RTVSPropertyOp26
 70
     1
102
RTVSPropertyOp27
 70
     1
102
RTVSPropertyOp28
 70
     1
102
RTVSPropertyOp29
 70
     1
102
RTVSPropertyOp30
 70
     1
102
RTVSPropertyOp31
 70
     1
102
RTVSPropertyOp32
 70
     1
  0
XRECORD
  5
739
102
{ACAD_REACTORS
330
738
102
}
330
738
100
AcDbXrecord
280
     1
102
RTVSPropertyOp0
 70
     1
102
RTVSPropertyOp1
 70
     1
102
RTVSPropertyOp2
 70
     1
102
RTVSPropertyOp3
 70
     1
102
RTVSPropertyOp4
 70
     1
102
RTVSPropertyOp5
 70
     1
102
RTVSPropertyOp6
 70
     1
102
RTVSPropertyOp7
 70
     1
102
RTVSPropertyOp8
 70
     1
102
RTVSPropertyOp9
 70
     1
102
RTVSPropertyOp10
 70
     1
102
RTVSPropertyOp11
 70
     1
102
RTVSPropertyOp12
 70
     1
102
RTVSPropertyOp13
 70
     1
102
RTVSPropertyOp14
 70
     1
102
RTVSPropertyOp15
 70
     1
102
RTVSPropertyOp16
 70
     1
102
RTVSPropertyOp17
 70
     1
102
RTVSPropertyOp18
 70
     1
102
RTVSPropertyOp19
 70
     1
102
RTVSPropertyOp20
 70
     1
102
RTVSPropertyOp21
 70
     1
102
RTVSPropertyOp22
 70
     1
102
RTVSPropertyOp23
 70
     1
102
RTVSPropertyOp24
 70
     1
102
RTVSPropertyOp25
 70
     1
102
RTVSPropertyOp26
 70
     1
102
RTVSPropertyOp27
 70
     1
102
RTVSPropertyOp28
 70
     1
102
RTVSPropertyOp29
 70
     1
102
RTVSPropertyOp30
 70
     1
102
RTVSPropertyOp31
 70
     1
102
RTVSPropertyOp32
 70
     1
  0
XRECORD
  5
73B
102
{ACAD_REACTORS
330
73A
102
}
330
73A
100
AcDbXrecord
280
     1
102
RTVSPropertyOp0
 70
     1
102
RTVSPropertyOp1
 70
     1
102
RTVSPropertyOp2
 70
     1
102
RTVSPropertyOp3
 70
     1
102
RTVSPropertyOp4
 70
     1
102
RTVSPropertyOp5
 70
     1
102
RTVSPropertyOp6
 70
     1
102
RTVSPropertyOp7
 70
     1
102
RTVSPropertyOp8
 70
     1
102
RTVSPropertyOp9
 70
     1
102
RTVSPropertyOp10
 70
     1
102
RTVSPropertyOp11
 70
     1
102
RTVSPropertyOp12
 70
     1
102
RTVSPropertyOp13
 70
     1
102
RTVSPropertyOp14
 70
     1
102
RTVSPropertyOp15
 70
     1
102
RTVSPropertyOp16
 70
     1
102
RTVSPropertyOp17
 70
     1
102
RTVSPropertyOp18
 70
     1
102
RTVSPropertyOp19
 70
     1
102
RTVSPropertyOp20
 70
     1
102
RTVSPropertyOp21
 70
     1
102
RTVSPropertyOp22
 70
     1
102
RTVSPropertyOp23
 70
     1
102
RTVSPropertyOp24
 70
     1
102
RTVSPropertyOp25
 70
     1
102
RTVSPropertyOp26
 70
     1
102
RTVSPropertyOp27
 70
     1
102
RTVSPropertyOp28
 70
     1
102
RTVSPropertyOp29
 70
     1
102
RTVSPropertyOp30
 70
     1
102
RTVSPropertyOp31
 70
     1
102
RTVSPropertyOp32
 70
     1
  0
XRECORD
  5
731
102
{ACAD_REACTORS
330
730
102
}
330
730
100
AcDbXrecord
280
     1
102
RTVSPropertyOp0
 70
     1
102
RTVSPropertyOp1
 70
     1
102
RTVSPropertyOp2
 70
     1
102
RTVSPropertyOp3
 70
     1
102
RTVSPropertyOp4
 70
     1
102
RTVSPropertyOp5
 70
     1
102
RTVSPropertyOp6
 70
     1
102
RTVSPropertyOp7
 70
     1
102
RTVSPropertyOp8
 70
     1
102
RTVSPropertyOp9
 70
     1
102
RTVSPropertyOp10
 70
     1
102
RTVSPropertyOp11
 70
     1
102
RTVSPropertyOp12
 70
     1
102
RTVSPropertyOp13
 70
     1
102
RTVSPropertyOp14
 70
     1
102
RTVSPropertyOp15
 70
     1
102
RTVSPropertyOp16
 70
     1
102
RTVSPropertyOp17
 70
     1
102
RTVSPropertyOp18
 70
     1
102
RTVSPropertyOp19
 70
     1
102
RTVSPropertyOp20
 70
     1
102
RTVSPropertyOp21
 70
     1
102
RTVSPropertyOp22
 70
     1
102
RTVSPropertyOp23
 70
     1
102
RTVSPropertyOp24
 70
     1
102
RTVSPropertyOp25
 70
     1
102
RTVSPropertyOp26
 70
     1
102
RTVSPropertyOp27
 70
     1
102
RTVSPropertyOp28
 70
     1
102
RTVSPropertyOp29
 70
     1
102
RTVSPropertyOp30
 70
     1
102
RTVSPropertyOp31
 70
     1
102
RTVSPropertyOp32
 70
     1
  0
XRECORD
  5
725
102
{ACAD_REACTORS
330
724
102
}
330
724
100
AcDbXrecord
280
     1
102
RTVSPropertyOp0
 70
     1
102
RTVSPropertyOp1
 70
     1
102
RTVSPropertyOp2
 70
     1
102
RTVSPropertyOp3
 70
     1
102
RTVSPropertyOp4
 70
     1
102
RTVSPropertyOp5
 70
     1
102
RTVSPropertyOp6
 70
     1
102
RTVSPropertyOp7
 70
     1
102
RTVSPropertyOp8
 70
     1
102
RTVSPropertyOp9
 70
     1
102
RTVSPropertyOp10
 70
     1
102
RTVSPropertyOp11
 70
     1
102
RTVSPropertyOp12
 70
     1
102
RTVSPropertyOp13
 70
     1
102
RTVSPropertyOp14
 70
     1
102
RTVSPropertyOp15
 70
     1
102
RTVSPropertyOp16
 70
     1
102
RTVSPropertyOp17
 70
     1
102
RTVSPropertyOp18
 70
     1
102
RTVSPropertyOp19
 70
     1
102
RTVSPropertyOp20
 70
     1
102
RTVSPropertyOp21
 70
     1
102
RTVSPropertyOp22
 70
     1
102
RTVSPropertyOp23
 70
     1
102
RTVSPropertyOp24
 70
     1
102
RTVSPropertyOp25
 70
     1
102
RTVSPropertyOp26
 70
     1
102
RTVSPropertyOp27
 70
     1
102
RTVSPropertyOp28
 70
     1
102
RTVSPropertyOp29
 70
     1
102
RTVSPropertyOp30
 70
     1
102
RTVSPropertyOp31
 70
     1
102
RTVSPropertyOp32
 70
     1
  0
XRECORD
  5
73D
102
{ACAD_REACTORS
330
73C
102
}
330
73C
100
AcDbXrecord
280
     1
102
RTVSPropertyOp0
 70
     1
102
RTVSPropertyOp1
 70
     1
102
RTVSPropertyOp2
 70
     1
102
RTVSPropertyOp3
 70
     1
102
RTVSPropertyOp4
 70
     1
102
RTVSPropertyOp5
 70
     1
102
RTVSPropertyOp6
 70
     1
102
RTVSPropertyOp7
 70
     1
102
RTVSPropertyOp8
 70
     1
102
RTVSPropertyOp9
 70
     1
102
RTVSPropertyOp10
 70
     1
102
RTVSPropertyOp11
 70
     1
102
RTVSPropertyOp12
 70
     1
102
RTVSPropertyOp13
 70
     1
102
RTVSPropertyOp14
 70
     1
102
RTVSPropertyOp15
 70
     1
102
RTVSPropertyOp16
 70
     1
102
RTVSPropertyOp17
 70
     1
102
RTVSPropertyOp18
 70
     1
102
RTVSPropertyOp19
 70
     1
102
RTVSPropertyOp20
 70
     1
102
RTVSPropertyOp21
 70
     1
102
RTVSPropertyOp22
 70
     1
102
RTVSPropertyOp23
 70
     1
102
RTVSPropertyOp24
 70
     1
102
RTVSPropertyOp25
 70
     1
102
RTVSPropertyOp26
 70
     1
102
RTVSPropertyOp27
 70
     1
102
RTVSPropertyOp28
 70
     1
102
RTVSPropertyOp29
 70
     1
102
RTVSPropertyOp30
 70
     1
102
RTVSPropertyOp31
 70
     1
102
RTVSPropertyOp32
 70
     1
  0
ENDSEC
  0
EOF
