  0
SECTION
  2
HEADER
  9
$ACADVER
  1
AC1018
  9
$ACADMAINTVER
 70
   104
  9
$DWGCODEPAGE
  3
ANSI_1250
  9
$AUTHOR
  1
pmacoun
  9
$LASTSAVEDBY
  1
onovak
  9
$REVISIONNUMBER
  1
000
  9
$CUSTOMPROPERTYTAG
  1
Vedoucí
  9
$CUSTOMPROPERTY
  1

  9
$CUSTOMPROPERTYTAG
  1
Společnost
  9
$CUSTOMPROPERTY
  1

  9
$CUSTOMPROPERTYTAG
  1
Kategorie
  9
$CUSTOMPROPERTY
  1

  9
$CUSTOMPROPERTYTAG
  1
Číslo součásti
  9
$CUSTOMPROPERTY
  1
414747
  9
$CUSTOMPROPERTYTAG
  1
Popis
  9
$CUSTOMPROPERTY
  1

  9
$CUSTOMPROPERTYTAG
  1
Projekt
  9
$CUSTOMPROPERTY
  1

  9
$CUSTOMPROPERTYTAG
  1
Kreslil
  9
$CUSTOMPROPERTY
  1
pmacoun
  9
$CUSTOMPROPERTYTAG
  1
Schválil
  9
$CUSTOMPROPERTY
  1

  9
$CUSTOMPROPERTYTAG
  1
Zodpovídá
  9
$CUSTOMPROPERTY
  1

  9
$CUSTOMPROPERTYTAG
  1
Nákladové středisko
  9
$CUSTOMPROPERTY
  1

  9
$CUSTOMPROPERTYTAG
  1
Dodavatel
  9
$CUSTOMPROPERTY
  1

  9
$CUSTOMPROPERTYTAG
  1
Uživatelský stav
  9
$CUSTOMPROPERTY
  1

  9
$CUSTOMPROPERTYTAG
  1
Stav návrhu
  9
$CUSTOMPROPERTY
  1
Rozpracováno
  9
$CUSTOMPROPERTYTAG
  1
Zkontroloval
  9
$CUSTOMPROPERTY
  1

  9
$CUSTOMPROPERTYTAG
  1
Techn. kontr. schválil
  9
$CUSTOMPROPERTY
  1

  9
$CUSTOMPROPERTYTAG
  1
Výrobu schválil
  9
$CUSTOMPROPERTY
  1

  9
$CUSTOMPROPERTYTAG
  1
VS_First
  9
$CUSTOMPROPERTY
  1

  9
$CUSTOMPROPERTYTAG
  1
VS_All
  9
$CUSTOMPROPERTY
  1
1:1,
  9
$CUSTOMPROPERTYTAG
  1
Model_Mass_Value
  9
$CUSTOMPROPERTY
  1
,0
  9
$CUSTOMPROPERTYTAG
  1
Model_Mass_Units
  9
$CUSTOMPROPERTY
  1
kg
  9
$CUSTOMPROPERTYTAG
  1
Model_Area_Value
  9
$CUSTOMPROPERTY
  1
2694,0
  9
$CUSTOMPROPERTYTAG
  1
Model_Area_Units
  9
$CUSTOMPROPERTY
  1
mm˛
  9
$CUSTOMPROPERTYTAG
  1
Model_Volume_Value
  9
$CUSTOMPROPERTY
  1
5471,0
  9
$CUSTOMPROPERTYTAG
  1
Model_Volume_Units
  9
$CUSTOMPROPERTY
  1
mmł
  9
$CUSTOMPROPERTYTAG
  1
Model_CogX_Value
  9
$CUSTOMPROPERTY
  1
,0
  9
$CUSTOMPROPERTYTAG
  1
Model_CogY_Value
  9
$CUSTOMPROPERTY
  1
,0
  9
$CUSTOMPROPERTYTAG
  1
Model_CogZ_Value
  9
$CUSTOMPROPERTY
  1
,0
  9
$CUSTOMPROPERTYTAG
  1
Model_Cog_Units
  9
$CUSTOMPROPERTY
  1
mm
  9
$CUSTOMPROPERTYTAG
  1
Model_Ixx_Value
  9
$CUSTOMPROPERTY
  1
,0
  9
$CUSTOMPROPERTYTAG
  1
Model_Iyy_Value
  9
$CUSTOMPROPERTY
  1
,0
  9
$CUSTOMPROPERTYTAG
  1
Model_Izz_Value
  9
$CUSTOMPROPERTY
  1
,0
  9
$CUSTOMPROPERTYTAG
  1
Model_Ixy_Value
  9
$CUSTOMPROPERTY
  1
,0
  9
$CUSTOMPROPERTYTAG
  1
Model_Iyz_Value
  9
$CUSTOMPROPERTY
  1
,0
  9
$CUSTOMPROPERTYTAG
  1
Model_Ixz_Value
  9
$CUSTOMPROPERTY
  1
,0
  9
$CUSTOMPROPERTYTAG
  1
Model_MassMom_Units
  9
$CUSTOMPROPERTY
  1
kg mm˛
  9
$CUSTOMPROPERTYTAG
  1
FirstViewScale
  9
$CUSTOMPROPERTY
  1

  9
$CUSTOMPROPERTYTAG
  1
AllViewScales
  9
$CUSTOMPROPERTY
  1

  9
$CUSTOMPROPERTYTAG
  1
SaveDate
  9
$CUSTOMPROPERTY
  1
09/12/2007
  9
$CUSTOMPROPERTYTAG
  1
SaveTime
  9
$CUSTOMPROPERTY
  1
10:32
  9
$CUSTOMPROPERTYTAG
  1
PaperSize
  9
$CUSTOMPROPERTY
  1
A3
  9
$CUSTOMPROPERTYTAG
  1
DateSaved
  9
$CUSTOMPROPERTY
  1
12.09.2007
  9
$CUSTOMPROPERTYTAG
  1
TimeSaved
  9
$CUSTOMPROPERTY
  1
10:32 dop.
  9
$INSBASE
 10
0.0
 20
0.0
 30
0.0
  9
$EXTMIN
 10
184.5011016136282
 20
118.3428976013592
 30
-0.0000000000112498
  9
$EXTMAX
 10
626.81067105803
 20
724.2205828756801
 30
0.0000000000002956
  9
$LIMMIN
 10
0.0
 20
0.0
  9
$LIMMAX
 10
1188.0
 20
840.0
  9
$ORTHOMODE
 70
     0
  9
$REGENMODE
 70
     1
  9
$FILLMODE
 70
     1
  9
$QTEXTMODE
 70
     0
  9
$MIRRTEXT
 70
     0
  9
$LTSCALE
 40
2.0
  9
$ATTMODE
 70
     1
  9
$TEXTSIZE
 40
0.2
  9
$TRACEWID
 40
0.05
  9
$TEXTSTYLE
  7
Standard
  9
$CLAYER
  8
0
  9
$CELTYPE
  6
ByLayer
  9
$CECOLOR
 62
   256
  9
$CELTSCALE
 40
1.0
  9
$DISPSILH
 70
     0
  9
$DIMSCALE
 40
1.0
  9
$DIMASZ
 40
1.799999999999999
  9
$DIMEXO
 40
0.0625
  9
$DIMDLI
 40
0.38
  9
$DIMRND
 40
0.0
  9
$DIMDLE
 40
0.0
  9
$DIMEXE
 40
0.18
  9
$DIMTP
 40
0.0
  9
$DIMTM
 40
0.0
  9
$DIMTXT
 40
0.3499999940395355
  9
$DIMCEN
 40
0.09
  9
$DIMTSZ
 40
0.0
  9
$DIMTOL
 70
     0
  9
$DIMLIM
 70
     0
  9
$DIMTIH
 70
     1
  9
$DIMTOH
 70
     1
  9
$DIMSE1
 70
     0
  9
$DIMSE2
 70
     0
  9
$DIMTAD
 70
     0
  9
$DIMZIN
 70
     0
  9
$DIMBLK
  1

  9
$DIMASO
 70
     1
  9
$DIMSHO
 70
     1
  9
$DIMPOST
  1

  9
$DIMAPOST
  1

  9
$DIMALT
 70
     0
  9
$DIMALTD
 70
     2
  9
$DIMALTF
 40
25.4
  9
$DIMLFAC
 40
1.0
  9
$DIMTOFL
 70
     0
  9
$DIMTVP
 40
0.0
  9
$DIMTIX
 70
     0
  9
$DIMSOXD
 70
     0
  9
$DIMSAH
 70
     0
  9
$DIMBLK1
  1

  9
$DIMBLK2
  1

  9
$DIMSTYLE
  2
Standard
  9
$DIMCLRD
 70
     0
  9
$DIMCLRE
 70
     0
  9
$DIMCLRT
 70
     0
  9
$DIMTFAC
 40
1.0
  9
$DIMGAP
 40
0.09
  9
$DIMJUST
 70
     0
  9
$DIMSD1
 70
     0
  9
$DIMSD2
 70
     0
  9
$DIMTOLJ
 70
     1
  9
$DIMTZIN
 70
     0
  9
$DIMALTZ
 70
     0
  9
$DIMALTTZ
 70
     0
  9
$DIMUPT
 70
     0
  9
$DIMDEC
 70
     4
  9
$DIMTDEC
 70
     4
  9
$DIMALTU
 70
     2
  9
$DIMALTTD
 70
     2
  9
$DIMTXSTY
  7
Standard
  9
$DIMAUNIT
 70
     0
  9
$DIMADEC
 70
     0
  9
$DIMALTRND
 40
0.0
  9
$DIMAZIN
 70
     0
  9
$DIMDSEP
 70
    46
  9
$DIMATFIT
 70
     3
  9
$DIMFRAC
 70
     0
  9
$DIMLDRBLK
  1

  9
$DIMLUNIT
 70
     2
  9
$DIMLWD
 70
    -2
  9
$DIMLWE
 70
    -2
  9
$DIMTMOVE
 70
     0
  9
$LUNITS
 70
     2
  9
$LUPREC
 70
     2
  9
$SKETCHINC
 40
0.1
  9
$FILLETRAD
 40
0.0
  9
$AUNITS
 70
     0
  9
$AUPREC
 70
     0
  9
$MENU
  1
.
  9
$ELEVATION
 40
0.0
  9
$PELEVATION
 40
0.0
  9
$THICKNESS
 40
0.0
  9
$LIMCHECK
 70
     0
  9
$CHAMFERA
 40
0.0
  9
$CHAMFERB
 40
0.0
  9
$CHAMFERC
 40
0.0
  9
$CHAMFERD
 40
0.0
  9
$SKPOLY
 70
     0
  9
$TDCREATE
 40
2456105.423426770
  9
$TDUCREATE
 40
2456105.340093438
  9
$TDUPDATE
 40
2456112.530475509
  9
$TDUUPDATE
 40
2456112.447142176
  9
$TDINDWG
 40
0.7266885069
  9
$TDUSRTIMER
 40
0.7266881481
  9
$USRTIMER
 70
     1
  9
$ANGBASE
 50
0.0
  9
$ANGDIR
 70
     0
  9
$PDMODE
 70
     0
  9
$PDSIZE
 40
0.0
  9
$PLINEWID
 40
0.0
  9
$SPLFRAME
 70
     0
  9
$SPLINETYPE
 70
     6
  9
$SPLINESEGS
 70
     8
  9
$HANDSEED
  5
176E
  9
$SURFTAB1
 70
     6
  9
$SURFTAB2
 70
     6
  9
$SURFTYPE
 70
     6
  9
$SURFU
 70
     6
  9
$SURFV
 70
     6
  9
$UCSBASE
  2

  9
$UCSNAME
  2

  9
$UCSORG
 10
0.0
 20
0.0
 30
0.0
  9
$UCSXDIR
 10
1.0
 20
0.0
 30
0.0
  9
$UCSYDIR
 10
0.0
 20
1.0
 30
0.0
  9
$UCSORTHOREF
  2

  9
$UCSORTHOVIEW
 70
     0
  9
$UCSORGTOP
 10
0.0
 20
0.0
 30
0.0
  9
$UCSORGBOTTOM
 10
0.0
 20
0.0
 30
0.0
  9
$UCSORGLEFT
 10
0.0
 20
0.0
 30
0.0
  9
$UCSORGRIGHT
 10
0.0
 20
0.0
 30
0.0
  9
$UCSORGFRONT
 10
0.0
 20
0.0
 30
0.0
  9
$UCSORGBACK
 10
0.0
 20
0.0
 30
0.0
  9
$PUCSBASE
  2

  9
$PUCSNAME
  2

  9
$PUCSORG
 10
0.0
 20
0.0
 30
0.0
  9
$PUCSXDIR
 10
1.0
 20
0.0
 30
0.0
  9
$PUCSYDIR
 10
0.0
 20
1.0
 30
0.0
  9
$PUCSORTHOREF
  2

  9
$PUCSORTHOVIEW
 70
     0
  9
$PUCSORGTOP
 10
0.0
 20
0.0
 30
0.0
  9
$PUCSORGBOTTOM
 10
0.0
 20
0.0
 30
0.0
  9
$PUCSORGLEFT
 10
0.0
 20
0.0
 30
0.0
  9
$PUCSORGRIGHT
 10
0.0
 20
0.0
 30
0.0
  9
$PUCSORGFRONT
 10
0.0
 20
0.0
 30
0.0
  9
$PUCSORGBACK
 10
0.0
 20
0.0
 30
0.0
  9
$USERI1
 70
     0
  9
$USERI2
 70
     0
  9
$USERI3
 70
     0
  9
$USERI4
 70
     0
  9
$USERI5
 70
     0
  9
$USERR1
 40
0.0
  9
$USERR2
 40
0.0
  9
$USERR3
 40
0.0
  9
$USERR4
 40
0.0
  9
$USERR5
 40
0.0
  9
$WORLDVIEW
 70
     1
  9
$SHADEDGE
 70
     3
  9
$SHADEDIF
 70
    70
  9
$TILEMODE
 70
     1
  9
$MAXACTVP
 70
    64
  9
$PINSBASE
 10
0.0
 20
0.0
 30
0.0
  9
$PLIMCHECK
 70
     0
  9
$PEXTMIN
 10
0.0
 20
0.0
 30
0.0
  9
$PEXTMAX
 10
1188.0
 20
840.0
 30
0.0
  9
$PLIMMIN
 10
0.0
 20
0.0
  9
$PLIMMAX
 10
1188.0
 20
840.0
  9
$UNITMODE
 70
     0
  9
$VISRETAIN
 70
     1
  9
$PLINEGEN
 70
     0
  9
$PSLTSCALE
 70
     1
  9
$TREEDEPTH
 70
  3020
  9
$CMLSTYLE
  2
Standard
  9
$CMLJUST
 70
     0
  9
$CMLSCALE
 40
1.0
  9
$PROXYGRAPHICS
 70
     1
  9
$MEASUREMENT
 70
     1
  9
$CELWEIGHT
370
    -1
  9
$ENDCAPS
280
     0
  9
$JOINSTYLE
280
     0
  9
$LWDISPLAY
290
     0
  9
$INSUNITS
 70
     4
  9
$HYPERLINKBASE
  1

  9
$STYLESHEET
  1

  9
$XEDIT
290
     1
  9
$CEPSNTYPE
380
     0
  9
$PSTYLEMODE
290
     1
  9
$FINGERPRINTGUID
  2
{D9663DBE-9889-4BFD-BA99-82111DB94232}
  9
$VERSIONGUID
  2
{4DDE8AE4-E61D-4940-9938-271845F2B764}
  9
$EXTNAMES
290
     1
  9
$PSVPSCALE
 40
0.0
  9
$OLESTARTUP
290
     0
  9
$SORTENTS
280
   127
  9
$INDEXCTL
280
     0
  9
$HIDETEXT
280
     1
  9
$XCLIPFRAME
290
     0
  9
$HALOGAP
280
     0
  9
$OBSCOLOR
 70
   257
  9
$OBSLTYPE
280
     0
  9
$INTERSECTIONDISPLAY
280
     0
  9
$INTERSECTIONCOLOR
 70
   257
  9
$DIMASSOC
280
     1
  9
$PROJECTNAME
  1

  0
ENDSEC
  0
SECTION
  2
CLASSES
  0
CLASS
  1
ACDBDICTIONARYWDFLT
  2
AcDbDictionaryWithDefault
  3
ObjectDBX Classes
 90
        0
 91
        1
280
     0
281
     0
  0
CLASS
  1
MATERIAL
  2
AcDbMaterial
  3
ObjectDBX Classes
 90
     1153
 91
        3
280
     0
281
     0
  0
CLASS
  1
VISUALSTYLE
  2
AcDbVisualStyle
  3
ObjectDBX Classes
 90
     4095
 91
       26
280
     0
281
     0
  0
CLASS
  1
SCALE
  2
AcDbScale
  3
ObjectDBX Classes
 90
     1153
 91
       17
280
     0
281
     0
  0
CLASS
  1
TABLESTYLE
  2
AcDbTableStyle
  3
ObjectDBX Classes
 90
     4095
 91
        1
280
     0
281
     0
  0
CLASS
  1
MLEADERSTYLE
  2
AcDbMLeaderStyle
  3
ACDB_MLEADERSTYLE_CLASS
 90
     4095
 91
        1
280
     0
281
     0
  0
CLASS
  1
DICTIONARYVAR
  2
AcDbDictionaryVar
  3
ObjectDBX Classes
 90
        0
 91
       11
280
     0
281
     0
  0
CLASS
  1
ACME_DOCUMENT
  2
AcMeDbDoc
  3
AcMeServices
 90
     1024
 91
        1
280
     0
281
     0
  0
CLASS
  1
AMGSETTINGSOBJ
  2
AmgSettingsObj
  3
"AcadM|Product Description: AutoCAD Mechanical|Company: Autodesk, Inc."
 90
     1024
 91
        2
280
     0
281
     0
  0
CLASS
  1
ACMESCOPE
  2
AcMeScope
  3
AcMeServices
 90
     1024
 91
        1
280
     0
281
     0
  0
CLASS
  1
ACMECOMMANDHISTORY
  2
AcMeCommandHistory
  3
AcMeServices
 90
     1024
 91
        1
280
     0
281
     0
  0
CLASS
  1
ACIMSYSVARMAN
  2
AcImSysVarManager
  3
AcMeServices
 90
     1024
 91
        5
280
     0
281
     0
  0
CLASS
  1
ACIMINTSYSVAR
  2
AcImIntSysVar
  3
AcMeServices
 90
     1024
 91
       27
280
     0
281
     0
  0
CLASS
  1
ACMEDRAWINGMAN
  2
AcMeDrawingMan
  3
AcMeServices
 90
     1024
 91
        1
280
     0
281
     0
  0
CLASS
  1
ACMEVIEW
  2
AcMeView
  3
AcMeServices
 90
     1024
 91
        1
280
     0
281
     0
  0
CLASS
  1
ACDBENTITYCACHE
  2
AcMeEntityCache
  3
AcMeServices
 90
     1024
 91
        1
280
     0
281
     0
  0
CLASS
  1
ACMESTATEMGR
  2
AcMeStateMgr
  3
AcMeServices
 90
     1024
 91
        1
280
     0
281
     0
  0
CLASS
  1
ACGREFMASTER
  2
AcGrefMaster
  3
AcAttribServices
 90
     1024
 91
        1
280
     0
281
     0
  0
CLASS
  1
AM_DRAWING_MGR
  2
AcDmDwgMgr
  3
AcMechDwgViewMgmt
 90
     1024
 91
        1
280
     0
281
     0
  0
CLASS
  1
AM_DWG_DOCUMENT
  2
AcDmDwgDocument
  3
AcMechDwgViewMgmt
 90
     1024
 91
        1
280
     0
281
     0
  0
CLASS
  1
AM_DWG_SHEET
  2
AcDmSheet
  3
AcMechDwgViewMgmt
 90
     1024
 91
        2
280
     0
281
     0
  0
CLASS
  1
AM_VIEWDIMPARMAP
  2
AcDmViewDimParMap
  3
AcMechDwgViewMgmt
 90
     1024
 91
        2
280
     0
281
     0
  0
CLASS
  1
AMDTINTERNALREACTOR
  2
AmdtInternalReactor
  3
AcMeServices
 90
     1024
 91
        1
280
     0
281
     0
  0
CLASS
  1
ACIMREALSYSVAR
  2
AcImRealSysVar
  3
AcMeServices
 90
     1024
 91
        1
280
     0
281
     0
  0
CLASS
  1
AM_DWGMGR_NAME
  2
AcDmDwgMgrName
  3
AcMechDwgViewMgmt
 90
     1024
 91
        1
280
     0
281
     0
  0
CLASS
  1
ACME_DATABASE
  2
AcMeDbDatabase
  3
AcMeServices
 90
     1024
 91
        1
280
     0
281
     0
  0
CLASS
  1
ACRFINSADJUSTERMGR
  2
AcRfInsAdjusterMgr
  3
AcMeServices
 90
     1024
 91
        1
280
     0
281
     0
  0
CLASS
  1
ACGREFACADMASTER
  2
AcGrefacadMaster
  3
AcGrefServices
 90
     1024
 91
        1
280
     0
281
     0
  0
CLASS
  1
AMDTMENUSTATEMGR
  2
AmdtMenuStateMgr
  3
McadcomServices
 90
     1024
 91
        1
280
     0
281
     0
  0
CLASS
  1
AMDTMCOMMENUSTATE
  2
AmdtMcomMenuState
  3
McadcomServices
 90
     1024
 91
        1
280
     0
281
     0
  0
CLASS
  1
AMIMASTER
  2
AmiMaster
  3
AmiServices
 90
     1024
 91
        1
280
     0
281
     0
  0
CLASS
  1
MAPIAMMOUDLE
  2
MApiAmModule
  3
MApiAmServices
 90
     1024
 91
        1
280
     0
281
     0
  0
CLASS
  1
ACIMSTRSYSVAR
  2
AcImStrSysVar
  3
AcMeServices
 90
     1024
 91
        5
280
     0
281
     0
  0
CLASS
  1
AMDTADMENUSTATE
  2
AmdtAdMenuState
  3
DesignerServices
 90
     1024
 91
        1
280
     0
281
     0
  0
CLASS
  1
ADAPPL
  2
AcAdAppl
  3
DesignerServices
 90
     1024
 91
        1
280
     0
281
     0
  0
CLASS
  1
DEPMGR
  2
AcAdDepMgr
  3
DesignerServices
 90
     1024
 91
        1
280
     0
281
     0
  0
CLASS
  1
PARAMMGR
  2
AcAdParamMgr
  3
DesignerServices
 90
     1024
 91
        1
280
     0
281
     0
  0
CLASS
  1
PARAMSCOPE
  2
AcAdParamScope
  3
DesignerServices
 90
     1024
 91
        1
280
     0
281
     0
  0
CLASS
  1
NAMEDAPPL
  2
AcAdNamedAppl
  3
DesignerServices
 90
     1024
 91
        1
280
     0
281
     0
  0
CLASS
  1
AMDTDMMENUSTATE
  2
AmdtDmMenuState
  3
AcMechDwgViewMgmt
 90
     1024
 91
        1
280
     0
281
     0
  0
CLASS
  1
AMDTAMMENUSTATE
  2
AmdtAmMenuState
  3
DesignerAssemblies
 90
     1024
 91
        1
280
     0
281
     0
  0
CLASS
  1
ACAMPROJECT
  2
AcAmProject
  3
DesignerAssemblies
 90
     1024
 91
        1
280
     0
281
     0
  0
CLASS
  1
ACAMGRCOMPDEF
  2
AcAmGrCompDef
  3
DesignerAssemblies
 90
     1024
 91
        1
280
     0
281
     0
  0
CLASS
  1
ACAMCOMPDEF
  2
AcAmCompDef
  3
DesignerAssemblies
 90
     1024
 91
        1
280
     0
281
     0
  0
CLASS
  1
ACAMCOMPDEFMGR
  2
AcAmCompDefMgr
  3
DesignerAssemblies
 90
     1024
 91
        1
280
     0
281
     0
  0
CLASS
  1
AMCONTEXTMGR
  2
AcAmContextMgr
  3
DesignerAssemblies
 90
     1024
 91
        1
280
     0
281
     0
  0
CLASS
  1
ACAMCONTEXTMODELER
  2
AcAmContextModeler
  3
DesignerAssemblies
 90
     1024
 91
        1
280
     0
281
     0
  0
CLASS
  1
ACMDATADICTIONARY
  2
AcmDataDictionary
  3
"AcmSymBB|Product Description: AutoCAD Mechanical|Company: Autodesk, Inc."
 90
     1024
 91
        1
280
     0
281
     0
  0
CLASS
  1
CATALOGSTATE
  2
AcAmCatalogState
  3
DesignerAssemblies
 90
     1024
 91
        1
280
     0
281
     0
  0
CLASS
  1
ACAMGRCOMPDEFSET
  2
AcAmGrCompDefSet
  3
DesignerAssemblies
 90
     1024
 91
        1
280
     0
281
     0
  0
CLASS
  1
AMDTBROWSERDBTAB
  2
AmdtBrowserDbTab
  3
McadcomServices
 90
     1024
 91
        1
280
     0
281
     0
  0
CLASS
  1
CBROWSERAPPOBJECT
  2
CBrowserAppObject
  3
McadcomServices
 90
     1024
 91
        2
280
     0
281
     0
  0
CLASS
  1
DM_PLACEHOLDER
  2
AcDmSelsetPlaceholder
  3
AcMechDwgViewMgmt
 90
     1024
 91
        1
280
     0
281
     0
  0
CLASS
  1
ACMSTANDARDISO
  2
AcmStandardISO
  3
"Amdt_StdImp|Product Description: AutoCAD Mechanical|Company: Autodesk, Inc."
 90
     1024
 91
        1
280
     0
281
     0
  0
CLASS
  1
AMDTEDGESTANDARDISO13715
  2
AmdtEdgeStdISO13715
  3
"Amdt_StdImp|Product Description: AutoCAD Mechanical|Company: Autodesk, Inc."
 90
     1024
 91
        1
280
     0
281
     0
  0
CLASS
  1
ACMSURFSTANDARDISO2002
  2
AcmSurfTextStdISO2002
  3
"Amdt_StdImp|Product Description: AutoCAD Mechanical|Company: Autodesk, Inc."
 90
     1024
 91
        1
280
     0
281
     0
  0
CLASS
  1
ACMFCFSTANDARDISO
  2
AcmFCFStdISO
  3
"Amdt_StdImp|Product Description: AutoCAD Mechanical|Company: Autodesk, Inc."
 90
     1024
 91
        1
280
     0
281
     0
  0
CLASS
  1
ACMWELDSTANDARDISO
  2
AcmWeldingStdISO
  3
"Amdt_StdImp|Product Description: AutoCAD Mechanical|Company: Autodesk, Inc."
 90
     1024
 91
        1
280
     0
281
     0
  0
CLASS
  1
ACMIDSTANDARDISO
  2
AcmIdStdISO
  3
"Amdt_StdImp|Product Description: AutoCAD Mechanical|Company: Autodesk, Inc."
 90
     1024
 91
        1
280
     0
281
     0
  0
CLASS
  1
ACMDATUMSTANDARDISO
  2
AcmDatumStdISO
  3
"Amdt_StdImp|Product Description: AutoCAD Mechanical|Company: Autodesk, Inc."
 90
     1024
 91
        1
280
     0
281
     0
  0
CLASS
  1
ACMBOMSTANDARDISO
  2
AcmBOMStdISO
  3
"Amdt_StdImp|Product Description: AutoCAD Mechanical|Company: Autodesk, Inc."
 90
     1024
 91
        1
280
     0
281
     0
  0
CLASS
  1
ACMDETAILSTANDARDISO
  2
AmdtDetailSymStdISO
  3
"Amdt_StdImp|Product Description: AutoCAD Mechanical|Company: Autodesk, Inc."
 90
     1024
 91
        1
280
     0
281
     0
  0
CLASS
  1
ACMSECTIONSTANDARDISO2001
  2
AmdtSectionSymStdISO2001
  3
"Amdt_StdImp|Product Description: AutoCAD Mechanical|Company: Autodesk, Inc."
 90
     1024
 91
        1
280
     0
281
     0
  0
CLASS
  1
ACMCENTERLINESTANDARDISO
  2
AmdtCenterLineStdISO
  3
"Amdt_StdImp|Product Description: AutoCAD Mechanical|Company: Autodesk, Inc."
 90
     1024
 91
        1
280
     0
281
     0
  0
CLASS
  1
ACMTHREADLINESTANDARDISO
  2
AmdtThreadLineStdISO
  3
"Amdt_StdImp|Product Description: AutoCAD Mechanical|Company: Autodesk, Inc."
 90
     1024
 91
        1
280
     0
281
     0
  0
CLASS
  1
ACMNOTESTANDARDISO
  2
AmdtNoteStdISO
  3
"Amdt_StdImp|Product Description: AutoCAD Mechanical|Company: Autodesk, Inc."
 90
     1024
 91
        1
280
     0
281
     0
  0
CLASS
  1
ACMTAPERSTANDARDISO
  2
AcmTaperStdISO
  3
"Amdt_StdImp|Product Description: AutoCAD Mechanical|Company: Autodesk, Inc."
 90
     1024
 91
        1
280
     0
281
     0
  0
CLASS
  1
ACMANOOTATIONVIEWSTANDARDISO
  2
AmdtAnViewStdISO
  3
"Amdt_StdImp|Product Description: AutoCAD Mechanical|Company: Autodesk, Inc."
 90
     1024
 91
        1
280
     0
281
     0
  0
CLASS
  1
ACAMGLAYSTD
  2
AcAmgLayStd
  3
"AmgLay|Product Description: AutoCAD Mechanical|Company: Autodesk, Inc."
 90
     1024
 91
        1
280
     0
281
     0
  0
CLASS
  1
ACAMGDIMSTD
  2
AcAmgDimStd
  3
"AmgDim|Product Description: AutoCAD Mechanical|Company: Autodesk, Inc."
 90
     1024
 91
        1
280
     0
281
     0
  0
CLASS
  1
AMGOBJPROPCFG
  2
AmgObjPropCfg
  3
"AmgLay|Product Description: AutoCAD Mechanical|Company: Autodesk, Inc."
 90
     1025
 91
        1
280
     0
281
     0
  0
CLASS
  1
ACAMGHOLECHARTSTDISO
  2
AcAmgHoleChartStdISO
  3
AmgDim|Product Description: AutoCAD Mechanical|Company: Autodesk, Inc.
 90
     1024
 91
        1
280
     0
281
     0
  0
CLASS
  1
ACAMGTITLESTD
  2
AcAmgTitleStd
  3
"AmgTitle|Product Description: AutoCAD Mechanical|Company: Autodesk, Inc."
 90
     4095
 91
        1
280
     0
281
     0
  0
CLASS
  1
AMDTNOTETEMPLATEDB
  2
AmdtNoteTemplateDB
  3
AcmSymBB|Product Description: AutoCAD Mechanical|Company: Autodesk, Inc.
 90
     1024
 91
        6
280
     0
281
     0
  0
CLASS
  1
ACAMGFILTERDAT
  2
AcAmgFilterDat
  3
"AcadM|Product Description: AutoCAD Mechanical|Company: Autodesk, Inc."
 90
     1024
 91
        0
280
     0
281
     0
  0
CLASS
  1
AEC_REFEDIT_STATUS_TRACKER
  2
AecDbRefEditStatusTracker
  3
AecArchBase60|Product Desc: Autodesk Architectural Desktop 2007 |Company: Autodesk,Inc. |WEB Address: www.autodesk.com
 90
      129
 91
        0
280
     0
281
     0
  0
CLASS
  1
NPOCOLLECTION
  2
AcDbImpNonPersistentObjectsCollection
  3
ObjectDBX Classes
 90
     1153
 91
        0
280
     0
281
     0
  0
CLASS
  1
CAMSSTRUCTBTNSTATE
  2
StructBtnState
  3
DesignerAssemblies
 90
     1024
 91
        0
280
     0
281
     0
  0
CLASS
  1
CELLSTYLEMAP
  2
AcDbCellStyleMap
  3
ObjectDBX Classes
 90
     1152
 91
        3
280
     0
281
     0
  0
ENDSEC
  0
SECTION
  2
TABLES
  0
TABLE
  2
VPORT
  5
8
330
0
100
AcDbSymbolTable
 70
     1
  0
VPORT
  5
57
330
8
100
AcDbSymbolTableRecord
100
AcDbViewportTableRecord
  2
*Active
 70
     0
 10
0.0
 20
0.0
 11
1.0
 21
1.0
 12
405.6558863358291
 22
421.2817402385196
 13
0.0
 23
0.0
 14
1.0
 24
1.0
 15
0.0
 25
0.0
 16
0.0
 26
0.0
 36
1.0
 17
0.0
 27
0.0
 37
0.0
 40
609.7656704204662
 41
1.576017130620984
 42
50.0
 43
0.0
 44
0.0
 50
0.0
 51
0.0
 71
     0
 72
   100
 73
     1
 74
     1
 75
     0
 76
     0
 77
     0
 78
     0
281
     0
 65
     0
110
0.0
120
0.0
130
0.0
111
1.0
121
0.0
131
0.0
112
0.0
122
1.0
132
0.0
 79
     0
146
0.0
  0
ENDTAB
  0
TABLE
  2
LTYPE
  5
5
330
0
100
AcDbSymbolTable
 70
    16
  0
LTYPE
  5
5B
330
5
100
AcDbSymbolTableRecord
100
AcDbLinetypeTableRecord
  2
ByBlock
 70
     0
  3

 72
    65
 73
     0
 40
0.0
  0
LTYPE
  5
5C
330
5
100
AcDbSymbolTableRecord
100
AcDbLinetypeTableRecord
  2
ByLayer
 70
     0
  3

 72
    65
 73
     0
 40
0.0
  0
LTYPE
  5
5D
330
5
100
AcDbSymbolTableRecord
100
AcDbLinetypeTableRecord
  2
Continuous
 70
     0
  3
Solid line
 72
    65
 73
     0
 40
0.0
  0
LTYPE
  5
DBD
330
5
100
AcDbSymbolTableRecord
100
AcDbLinetypeTableRecord
  2
HIDDEN
 70
     0
  3
Skrytá __ __ __ __ __ __ __ __ __ __ __ __ __ __
 72
    65
 73
     2
 40
9.525
 49
6.349999999999997
 74
     0
 49
-3.174999999999998
 74
     0
  0
LTYPE
  5
DBE
330
5
100
AcDbSymbolTableRecord
100
AcDbLinetypeTableRecord
  2
PHANTOM2
 70
     0
  3
Sdružená (.5x) ___ _ _ ___ _ _ ___ _ _ ___ _ _
 72
    65
 73
     6
 40
31.75
 49
15.875
 74
     0
 49
-3.174999999999998
 74
     0
 49
3.174999999999998
 74
     0
 49
-3.174999999999998
 74
     0
 49
3.174999999999998
 74
     0
 49
-3.174999999999998
 74
     0
  0
LTYPE
  5
DBF
330
5
100
AcDbSymbolTableRecord
100
AcDbLinetypeTableRecord
  2
CENTER
 70
     0
  3
Středová ____ _ ____ _ ____ _ ____ _ ____ _ ____
 72
    65
 73
     4
 40
50.8
 49
31.75
 74
     0
 49
-6.349999999999997
 74
     0
 49
6.349999999999997
 74
     0
 49
-6.349999999999997
 74
     0
  0
LTYPE
  5
E05
330
5
100
AcDbSymbolTableRecord
100
AcDbLinetypeTableRecord
  2
AM_ISO02W050
 70
     0
  3
__ __ __ __ __ __ __ __ __ __ __ __ __ __ __
 72
    65
 73
     2
 40
7.5
 49
6.0
 74
     0
 49
-1.5
 74
     0
  0
LTYPE
  5
E06
330
5
100
AcDbSymbolTableRecord
100
AcDbLinetypeTableRecord
  2
AM_ISO08W050
 70
     0
  3
____ . ____ . ____ . ____ . ____ . ____ . ____
 72
    65
 73
     4
 40
18.0
 49
12.0
 74
     0
 49
-1.5
 74
     0
 49
3.0
 74
     0
 49
-1.5
 74
     0
  0
LTYPE
  5
E07
330
5
100
AcDbSymbolTableRecord
100
AcDbLinetypeTableRecord
  2
AM_ISO09W050
 70
     0
  3
_____ . . _____ . . _____ . . ____ .. ____
 72
    65
 73
     6
 40
22.5
 49
12.0
 74
     0
 49
-1.5
 74
     0
 49
3.0
 74
     0
 49
-1.5
 74
     0
 49
3.0
 74
     0
 49
-1.5
 74
     0
  0
LTYPE
  5
E08
330
5
100
AcDbSymbolTableRecord
100
AcDbLinetypeTableRecord
  2
Amconstr
 70
     0
  3
_______________________
 72
    65
 73
     2
 40
9999.0
 49
9999.0
 74
     0
 49
0.0
 74
     0
  0
LTYPE
  5
E09
330
5
100
AcDbSymbolTableRecord
100
AcDbLinetypeTableRecord
  2
AM_ISO08W050x2
 70
     0
  3
__ . __ . __ . __ . __ . __
 72
    65
 73
     4
 40
9.0
 49
6.0
 74
     0
 49
-0.75
 74
     0
 49
1.5
 74
     0
 49
-0.75
 74
     0
  0
LTYPE
  5
E0A
330
5
100
AcDbSymbolTableRecord
100
AcDbLinetypeTableRecord
  2
AM_ISO02W050x2
 70
     0
  3
 _ _ _ _ _ _ _ _ _ _ _ _
 72
    65
 73
     2
 40
3.75
 49
3.0
 74
     0
 49
-0.75
 74
     0
  0
LTYPE
  5
E0D
330
5
100
AcDbSymbolTableRecord
100
AcDbLinetypeTableRecord
  2
Amzigzag
 70
     0
  3
/\/-/\/-/\/-/\/-/\/-/\/
 72
    65
 73
     2
 40
11.0001
 49
0.0001
 74
     4
 75
   136
340
E0C
 46
0.04
 50
0.0
 44
0.0
 45
0.0
 49
-11.0
 74
     0
  0
LTYPE
  5
E1C
330
5
100
AcDbSymbolTableRecord
100
AcDbLinetypeTableRecord
  2
ACISOWELD
 70
     0
  3
_ _ _ _ _
 72
    65
 73
     2
 40
2.0
 49
2.0
 74
     0
 49
-1.0
 74
     0
  0
LTYPE
  5
E1D
330
5
100
AcDbSymbolTableRecord
100
AcDbLinetypeTableRecord
  2
ACISOTGB
 70
     0
  3
__ . . __ . .
 72
    65
 73
     6
 40
9.0
 49
4.0
 74
     0
 49
-1.0
 74
     0
 49
1.0
 74
     0
 49
-1.0
 74
     0
 49
1.0
 74
     0
 49
-1.0
 74
     0
  0
LTYPE
  5
E1E
330
5
100
AcDbSymbolTableRecord
100
AcDbLinetypeTableRecord
  2
ACISOTGL
 70
     0
  3
_ _ _ _ _
 72
    65
 73
     2
 40
3.0
 49
2.0
 74
     0
 49
-1.0
 74
     0
  0
LTYPE
  5
EAB
330
5
100
AcDbSymbolTableRecord
100
AcDbLinetypeTableRecord
  2
GEN7
 70
     0
  3
____ . ____ . ____ . ____ . ____ . ____ . ____
 72
    65
 73
     4
 40
13.75
 49
10.0
 74
     0
 49
-1.25
 74
     0
 49
1.25
 74
     0
 49
-1.25
 74
     0
  0
ENDTAB
  0
TABLE
  2
LAYER
  5
2
102
{ACAD_XDICTIONARY
360
E26
102
}
330
0
100
AcDbSymbolTable
 70
    17
  0
LAYER
  5
54
330
2
100
AcDbSymbolTableRecord
100
AcDbLayerTableRecord
  2
0
 70
     0
 62
     7
  6
Continuous
370
    -3
390
F
  0
LAYER
  5
78
330
2
100
AcDbSymbolTableRecord
100
AcDbLayerTableRecord
  2
Geometrie náčrtu (ISO)
 70
     0
 62
     7
  6
Continuous
370
     9
390
F
  0
LAYER
  5
79
330
2
100
AcDbSymbolTableRecord
100
AcDbLayerTableRecord
  2
KOPF
 70
     0
 62
     8
420
  8421504
  6
Continuous
370
     9
390
F
  0
LAYER
  5
7A
330
2
100
AcDbSymbolTableRecord
100
AcDbLayerTableRecord
  2
Kóta (ISO)
 70
     0
 62
     5
420
      255
  6
Continuous
370
     9
390
F
  0
LAYER
  5
7B
330
2
100
AcDbSymbolTableRecord
100
AcDbLayerTableRecord
  2
Nadpis (ISO)
 70
     0
 62
     7
  6
Continuous
370
    18
390
F
  0
LAYER
  5
7D
330
2
100
AcDbSymbolTableRecord
100
AcDbLayerTableRecord
  2
Osa (ISO)
 70
     0
 62
     1
420
 16711680
  6
Continuous
370
     9
390
F
  0
LAYER
  5
85
330
2
100
AcDbSymbolTableRecord
100
AcDbLayerTableRecord
  2
Rámeček (ISO)
 70
     0
 62
     7
  6
Continuous
370
    35
390
F
  0
LAYER
  5
88
330
2
100
AcDbSymbolTableRecord
100
AcDbLayerTableRecord
  2
Skrytá (ISO)
 70
     0
 62
   142
420
    32960
  6
Continuous
370
     9
390
F
  0
LAYER
  5
8B
330
2
100
AcDbSymbolTableRecord
100
AcDbLayerTableRecord
  2
TEXT35
 70
     0
 62
    12
420
 13369344
  6
Continuous
370
    20
390
F
  0
LAYER
  5
8C
330
2
100
AcDbSymbolTableRecord
100
AcDbLayerTableRecord
  2
TEXT50
 70
     0
 62
     7
  6
Continuous
370
    20
390
F
  0
LAYER
  5
8D
330
2
100
AcDbSymbolTableRecord
100
AcDbLayerTableRecord
  2
Viditelná (ISO)
 70
     0
 62
     7
  6
Continuous
370
    35
390
F
  0
LAYER
  5
8E
330
2
100
AcDbSymbolTableRecord
100
AcDbLayerTableRecord
  2
Viditelná tenká (ISO)
 70
     0
 62
     7
  6
Continuous
370
     9
390
F
  0
LAYER
  5
8F
330
2
100
AcDbSymbolTableRecord
100
AcDbLayerTableRecord
  2
Značka (ISO)
 70
     0
 62
     5
420
      255
  6
Continuous
370
     9
390
F
  0
LAYER
  5
6BC
330
2
100
AcDbSymbolTableRecord
100
AcDbLayerTableRecord
  2
Defpoints
 70
     0
 62
     7
  6
Continuous
290
     0
370
    -3
390
F
  0
LAYER
  5
EAC
102
{ACAD_XDICTIONARY
360
EAD
102
}
330
2
100
AcDbSymbolTableRecord
100
AcDbLayerTableRecord
  2
7
 70
     0
 62
     4
  6
GEN7
370
    -3
390
F
  0
LAYER
  5
EAE
102
{ACAD_XDICTIONARY
360
EAF
102
}
330
2
100
AcDbSymbolTableRecord
100
AcDbLayerTableRecord
  2
5
 70
     0
 62
     3
  6
Continuous
370
    -3
390
F
  0
LAYER
  5
1189
330
2
100
AcDbSymbolTableRecord
100
AcDbLayerTableRecord
  2
AM_5
 70
     0
 62
    92
  6
Continuous
370
    25
390
F
1001
AcAecLayerStandard
1000

1000

  0
ENDTAB
  0
TABLE
  2
STYLE
  5
3
330
0
100
AcDbSymbolTable
 70
    22
  0
STYLE
  5
55
330
3
100
AcDbSymbolTableRecord
100
AcDbTextStyleTableRecord
  2
Standard
 70
     0
 40
0.0
 41
1.0
 50
0.0
 71
     0
 42
0.2
  3
TAHOMA.TTF
  4

1001
ACAD
1000
Tahoma
1071
      256
  0
STYLE
  5
5A
330
3
100
AcDbSymbolTableRecord
100
AcDbTextStyleTableRecord
  2
Annotative
 70
     0
 40
0.0
 41
1.0
 50
0.0
 71
     0
 42
0.2
  3
txt
  4

1001
AcadAnnotative
1000
AnnotativeData
1002
{
1070
     1
1070
     1
1002
}
  0
STYLE
  5
90
330
3
100
AcDbSymbolTableRecord
100
AcDbTextStyleTableRecord
  2
ITALICC8_57
 70
     0
 40
0.0
 41
1.0
 50
0.0
 71
     0
 42
0.2
  3
TAHOMA.TTF
  4

1001
ACAD
1000
Tahoma
1071
      256
  0
STYLE
  5
91
330
3
100
AcDbSymbolTableRecord
100
AcDbTextStyleTableRecord
  2
kusovnik
 70
     0
 40
0.0
 41
1.0
 50
0.0
 71
     0
 42
0.2
  3
ARIAL.TTF
  4

1001
ACAD
1000
Arial
1071
      256
  0
STYLE
  5
92
330
3
100
AcDbSymbolTableRecord
100
AcDbTextStyleTableRecord
  2
PL Regular Text (GOST)
 70
     0
 40
0.0
 41
1.0
 50
0.0
 71
     0
 42
0.2
  3
GOST Common Italic.ttf
  4

1001
ACAD
1000
GOST Common
1071
 16777472
  0
STYLE
  5
93
330
3
100
AcDbSymbolTableRecord
100
AcDbTextStyleTableRecord
  2
ROMANS8_69
 70
     0
 40
0.0
 41
1.0
 50
0.0
 71
     0
 42
0.2
  3
TAHOMA.TTF
  4

1001
ACAD
1000
Tahoma
1071
      256
  0
STYLE
  5
94
330
3
100
AcDbSymbolTableRecord
100
AcDbTextStyleTableRecord
  2
Text popisu (ISO)
 70
     0
 40
0.0
 41
1.0
 50
0.0
 71
     0
 42
0.2
  3
TAHOMA.TTF
  4

1001
ACAD
1000
Tahoma
1071
      256
  0
STYLE
  5
95
330
3
100
AcDbSymbolTableRecord
100
AcDbTextStyleTableRecord
  2
Text poznámky (DIN)
 70
     0
 40
0.0
 41
1.0
 50
0.0
 71
     0
 42
0.2
  3
isocpeur.ttf
  4

1001
ACAD
1000
ISOCPEUR
1071
      256
  0
STYLE
  5
96
330
3
100
AcDbSymbolTableRecord
100
AcDbTextStyleTableRecord
  2
Text poznámky (ISO)
 70
     0
 40
0.0
 41
1.0
 50
0.0
 71
     0
 42
0.2
  3
TAHOMA.TTF
  4

1001
ACAD
1000
Tahoma
1071
      256
  0
STYLE
  5
97
330
3
100
AcDbSymbolTableRecord
100
AcDbTextStyleTableRecord
  2
TEXT20_41
 70
     0
 40
0.0
 41
1.0
 50
0.0
 71
     0
 42
0.2
  3
TAHOMA.TTF
  4

1001
ACAD
1000
Tahoma
1071
      256
  0
STYLE
  5
98
330
3
100
AcDbSymbolTableRecord
100
AcDbTextStyleTableRecord
  2
TEXT20_59
 70
     0
 40
0.0
 41
1.0
 50
0.0
 71
     0
 42
0.2
  3
TAHOMA.TTF
  4

1001
ACAD
1000
Tahoma
1071
      256
  0
STYLE
  5
1E8
330
3
100
AcDbSymbolTableRecord
100
AcDbTextStyleTableRecord
  2
Styl textu62
 70
     0
 40
0.0
 41
0.8000000119209289
 50
0.0
 71
     0
 42
0.2
  3
TAHOMA.TTF
  4

1001
ACAD
1000
Tahoma
1071
      256
  0
STYLE
  5
1EF
330
3
100
AcDbSymbolTableRecord
100
AcDbTextStyleTableRecord
  2
Styl textu58
 70
     0
 40
0.0
 41
0.8000000119209289
 50
0.0
 71
     0
 42
0.2
  3
TAHOMA.TTF
  4

1001
ACAD
1000
Tahoma
1071
      256
  0
STYLE
  5
1F1
330
3
100
AcDbSymbolTableRecord
100
AcDbTextStyleTableRecord
  2
Styl textu63
 70
     0
 40
0.0
 41
0.75
 50
0.0
 71
     0
 42
0.2
  3
TAHOMA.TTF
  4

1001
ACAD
1000
Tahoma
1071
      256
  0
STYLE
  5
1F5
330
3
100
AcDbSymbolTableRecord
100
AcDbTextStyleTableRecord
  2
Styl textu75
 70
     0
 40
0.0
 41
0.8000000119209289
 50
0.0
 71
     0
 42
0.2
  3
TAHOMA.TTF
  4

1001
ACAD
1000
Tahoma
1071
      256
  0
STYLE
  5
1F7
330
3
100
AcDbSymbolTableRecord
100
AcDbTextStyleTableRecord
  2
Styl textu72
 70
     0
 40
0.0
 41
0.6999999880790711
 50
0.0
 71
     0
 42
0.2
  3
TAHOMA.TTF
  4

1001
ACAD
1000
Tahoma
1071
      256
  0
STYLE
  5
20D
330
3
100
AcDbSymbolTableRecord
100
AcDbTextStyleTableRecord
  2
Styl textu9
 70
     0
 40
0.0
 41
1.0
 50
0.0
 71
     0
 42
0.2
  3
ARIAL.TTF
  4

1001
ACAD
1000
Arial
1071
      256
  0
STYLE
  5
211
330
3
100
AcDbSymbolTableRecord
100
AcDbTextStyleTableRecord
  2
Styl textu40
 70
     0
 40
0.0
 41
1.0
 50
0.0
 71
     0
 42
0.2
  3
ARIAL.TTF
  4

1001
ACAD
1000
Arial
1071
      256
  0
STYLE
  5
215
330
3
100
AcDbSymbolTableRecord
100
AcDbTextStyleTableRecord
  2
Styl textu94
 70
     0
 40
0.0
 41
1.0
 50
0.0
 71
     0
 42
0.2
  3
TAHOMA.TTF
  4

1001
ACAD
1000
Tahoma
1071
      256
  0
STYLE
  5
E0C
330
3
100
AcDbSymbolTableRecord
100
AcDbTextStyleTableRecord
  2

 70
     1
 40
0.0
 41
1.0
 50
0.0
 71
     0
 42
0.2
  3
genltshp.shx
  4

  0
STYLE
  5
E1A
330
3
100
AcDbSymbolTableRecord
100
AcDbTextStyleTableRecord
  2
ACISOTS
 70
     0
 40
1.0
 41
1.0
 50
0.0
 71
     0
 42
0.2
  3
isocp.shx
  4

  0
STYLE
  5
E1B
330
3
100
AcDbSymbolTableRecord
100
AcDbTextStyleTableRecord
  2
ACISOGDT
 70
     0
 40
0.0
 41
1.0
 50
0.0
 71
     0
 42
0.2
  3
amgdt.shx
  4

  0
ENDTAB
  0
TABLE
  2
VIEW
  5
6
330
0
100
AcDbSymbolTable
 70
     0
  0
ENDTAB
  0
TABLE
  2
UCS
  5
7
330
0
100
AcDbSymbolTable
 70
     0
  0
ENDTAB
  0
TABLE
  2
APPID
  5
9
330
0
100
AcDbSymbolTable
 70
    22
  0
APPID
  5
56
330
9
100
AcDbSymbolTableRecord
100
AcDbRegAppTableRecord
  2
ACAD
 70
     0
  0
APPID
  5
5E
330
9
100
AcDbSymbolTableRecord
100
AcDbRegAppTableRecord
  2
AcadAnnotative
 70
     0
  0
APPID
  5
210
330
9
100
AcDbSymbolTableRecord
100
AcDbRegAppTableRecord
  2
AcadAnnoPO
 70
     0
  0
APPID
  5
D90
330
9
100
AcDbSymbolTableRecord
100
AcDbRegAppTableRecord
  2
MCAD_NO_VIS
 70
     0
  0
APPID
  5
D91
330
9
100
AcDbSymbolTableRecord
100
AcDbRegAppTableRecord
  2
ACAD_TEMP_GRAPHIC
 70
     0
  0
APPID
  5
DC1
330
9
100
AcDbSymbolTableRecord
100
AcDbRegAppTableRecord
  2
AD_DRAW
 70
     0
  0
APPID
  5
DC4
330
9
100
AcDbSymbolTableRecord
100
AcDbRegAppTableRecord
  2
ACATTRIBSERVICES
 70
     0
  0
APPID
  5
DE4
330
9
100
AcDbSymbolTableRecord
100
AcDbRegAppTableRecord
  2
DESIGNERASSEMBLIES
 70
     0
  0
APPID
  5
DEA
330
9
100
AcDbSymbolTableRecord
100
AcDbRegAppTableRecord
  2
ACADM_DIM_EDIT
 70
     0
  0
APPID
  5
DEB
330
9
100
AcDbSymbolTableRecord
100
AcDbRegAppTableRecord
  2
AMDT_DM_ADJ
 70
     0
  0
APPID
  5
E02
330
9
100
AcDbSymbolTableRecord
100
AcDbRegAppTableRecord
  2
ACAD_DSTYLE_DIMJAG
 70
     0
  0
APPID
  5
E03
330
9
100
AcDbSymbolTableRecord
100
AcDbRegAppTableRecord
  2
ACAD_DSTYLE_DIMBREAK
 70
     0
  0
APPID
  5
EB1
330
9
100
AcDbSymbolTableRecord
100
AcDbRegAppTableRecord
  2
ACAD_DSTYLE_DIMINSPECT
 70
     0
  0
APPID
  5
EB2
330
9
100
AcDbSymbolTableRecord
100
AcDbRegAppTableRecord
  2
ACAD_DSTYLE_DIMTALN
 70
     0
  0
APPID
  5
108A
330
9
100
AcDbSymbolTableRecord
100
AcDbRegAppTableRecord
  2
ACAD_EXEMPT_FROM_CAD_STANDARDS
 70
     0
  0
APPID
  5
1159
330
9
100
AcDbSymbolTableRecord
100
AcDbRegAppTableRecord
  2
GENIUS_GENDTOL_13
 70
     0
  0
APPID
  5
118A
330
9
100
AcDbSymbolTableRecord
100
AcDbRegAppTableRecord
  2
AcAecLayerStandard
 70
     0
  0
APPID
  5
13FC
330
9
100
AcDbSymbolTableRecord
100
AcDbRegAppTableRecord
  2
ACAD_MLEADERVER
 70
     0
  0
APPID
  5
1433
330
9
100
AcDbSymbolTableRecord
100
AcDbRegAppTableRecord
  2
ACAD_DSTYLE_DIMARC_LENGTH_SYMBOL
 70
     0
  0
APPID
  5
1434
330
9
100
AcDbSymbolTableRecord
100
AcDbRegAppTableRecord
  2
ACAD_DSTYLE_DIM_LINETYPE
 70
     0
  0
APPID
  5
1435
330
9
100
AcDbSymbolTableRecord
100
AcDbRegAppTableRecord
  2
ACAD_DSTYLE_DIM_EXT1_LINETYPE
 70
     0
  0
APPID
  5
1436
330
9
100
AcDbSymbolTableRecord
100
AcDbRegAppTableRecord
  2
ACAD_DSTYLE_DIM_EXT2_LINETYPE
 70
     0
  0
ENDTAB
  0
TABLE
  2
DIMSTYLE
  5
A
330
0
100
AcDbSymbolTable
 70
    26
100
AcDbDimStyleTable
 71
     3
340
58
340
EB0
340
B2
  0
DIMSTYLE
105
58
330
A
100
AcDbSymbolTableRecord
100
AcDbDimStyleTableRecord
  2
Standard
 70
     0
340
55
  0
DIMSTYLE
105
59
330
A
100
AcDbSymbolTableRecord
100
AcDbDimStyleTableRecord
  2
Annotative
 70
     0
340
55
1001
AcadAnnotative
1000
AnnotativeData
1002
{
1070
     1
1070
     1
1002
}
  0
DIMSTYLE
105
A8
330
A
100
AcDbSymbolTableRecord
100
AcDbDimStyleTableRecord
  2
Různé objekty (ISO)
 70
     0
 40
2.0
 41
2.5
 42
0.0
 43
5.999999999999999
 44
1.0
 45
0.00000001
 46
10.0
 73
     0
 74
     0
 77
     1
 78
     8
 79
     2
140
5.25
143
0.03937
146
0.6676571709769112
147
0.762
171
     3
172
     1
176
   256
177
   256
178
   256
179
     2
271
     2
272
     2
274
     3
278
    44
284
     8
340
94
341
99
371
    -1
372
    -1
  0
DIMSTYLE
105
A9
330
A
100
AcDbSymbolTableRecord
100
AcDbDimStyleTableRecord
  2
Různé objekty (ISO)$7
 70
     0
 40
2.0
 41
5.0
 42
0.0
 43
5.999999999999999
 44
1.0
 45
0.00000001
 46
10.0
 73
     0
 74
     0
 77
     1
 78
     8
 79
     2
140
5.25
143
0.03937
146
0.6676571709769112
147
0.762
171
     3
172
     1
176
   256
177
   256
178
   256
179
     2
271
     2
272
     2
274
     3
278
    44
284
     8
340
94
341
99
371
    25
372
    -1
  0
DIMSTYLE
105
AA
330
A
100
AcDbSymbolTableRecord
100
AcDbDimStyleTableRecord
  2
Výchozí - Metoda 1b (ISO)
 70
     0
 40
2.0
 41
2.5
 42
0.0
 43
5.999999999999999
 44
1.0
 45
0.00000001
 46
10.0
 73
     0
 77
     1
 78
     8
 79
     2
140
3.5
143
0.03937
147
0.762
171
     3
172
     1
176
   256
177
   256
178
   256
179
     2
271
     2
272
     2
274
     3
278
    44
284
     8
286
     8
340
96
371
    -1
372
    -1
  0
DIMSTYLE
105
AB
330
A
100
AcDbSymbolTableRecord
100
AcDbDimStyleTableRecord
  2
Výchozí - Metoda 1b (ISO)$7
 70
     0
 40
2.0
 41
2.5
 42
0.0
 43
5.999999999999999
 44
1.0
 45
0.00000001
 46
10.0
 73
     0
 77
     1
 78
     8
 79
     2
140
3.5
143
0.03937
147
0.762
171
     3
172
     1
176
   256
177
   256
178
   256
179
     2
271
     2
272
     2
274
     3
278
    44
284
     8
286
     8
340
96
371
    -1
372
    -1
  0
DIMSTYLE
105
AC
330
A
100
AcDbSymbolTableRecord
100
AcDbDimStyleTableRecord
  2
Výchozí - Metoda 2a (ISO)
 70
     0
 40
2.0
 41
2.5
 42
0.0
 43
5.999999999999999
 44
1.0
 45
0.00000001
 46
10.0
 77
     1
 78
     8
 79
     2
140
3.5
143
0.03937
147
0.762
171
     3
172
     1
176
   256
177
   256
178
   256
179
     2
271
     2
272
     2
274
     3
278
    44
284
     8
286
     8
340
96
371
    -1
372
    -1
  0
DIMSTYLE
105
AD
330
A
100
AcDbSymbolTableRecord
100
AcDbDimStyleTableRecord
  2
Výchozí - Metoda 2a (ISO)$7
 70
     0
 40
2.0
 41
2.5
 42
0.0
 43
5.999999999999999
 44
1.0
 45
0.00000001
 46
10.0
 77
     1
 78
     8
 79
     2
140
3.5
143
0.03937
147
0.762
171
     3
172
     1
176
   256
177
   256
178
   256
179
     2
271
     2
272
     2
274
     3
278
    44
284
     8
286
     8
340
96
371
    -1
372
    -1
  0
DIMSTYLE
105
AE
330
A
100
AcDbSymbolTableRecord
100
AcDbDimStyleTableRecord
  2
Výchozí - Metoda 2b (ISO)
 70
     0
 40
2.0
 41
2.5
 42
0.0
 43
5.999999999999999
 44
1.0
 45
0.00000001
 46
10.0
 77
     1
 78
     8
 79
     2
140
3.5
143
0.03937
147
0.762
171
     3
172
     1
176
   256
177
   256
178
   256
179
     2
271
     2
272
     2
274
     3
278
    44
284
     8
286
     8
340
96
371
    -1
372
    -1
  0
DIMSTYLE
105
AF
330
A
100
AcDbSymbolTableRecord
100
AcDbDimStyleTableRecord
  2
Výchozí - Metoda 2b (ISO)$7
 70
     0
 40
2.0
 41
2.5
 42
0.0
 43
5.999999999999999
 44
1.0
 45
0.00000001
 46
10.0
 77
     1
 78
     8
 79
     2
140
3.5
143
0.03937
147
0.762
171
     3
172
     1
176
   256
177
   256
178
   256
179
     2
271
     2
272
     2
274
     3
278
    44
284
     8
286
     8
340
96
371
    -1
372
    -1
  0
DIMSTYLE
105
B0
330
A
100
AcDbSymbolTableRecord
100
AcDbDimStyleTableRecord
  2
Výchozí - mm [palce] (ISO)
 70
     0
  4
 in
 40
2.0
 41
2.5
 42
0.0
 43
5.999999999999999
 44
3.174999999999998
 45
0.00000001
 46
10.0
 73
     0
 74
     0
 77
     1
 78
     8
 79
     2
140
3.5
143
0.03937
147
0.762
170
     1
171
     3
172
     1
176
   256
177
   256
178
   256
179
     3
271
     3
272
     2
274
     3
275
     1
278
    44
284
     8
285
     8
286
     8
340
96
371
    -1
372
    -1
  0
DIMSTYLE
105
B1
330
A
100
AcDbSymbolTableRecord
100
AcDbDimStyleTableRecord
  2
Výchozí - mm [palce] (ISO)$7
 70
     0
  4
 in
 40
2.0
 41
2.5
 42
0.0
 43
5.999999999999999
 44
3.174999999999998
 45
0.00000001
 46
10.0
 73
     0
 74
     0
 77
     1
 78
     8
 79
     2
140
3.5
143
0.03937
147
0.762
170
     1
171
     3
172
     1
176
   256
177
   256
178
   256
179
     3
271
     3
272
     2
274
     3
275
     1
278
    44
284
     8
285
     8
286
     8
340
96
371
    -1
372
    -1
  0
DIMSTYLE
105
B2
330
A
100
AcDbSymbolTableRecord
100
AcDbDimStyleTableRecord
  2
Výchozí (ISO)
 70
     0
 40
2.0
 41
2.5
 42
0.0
 43
5.999999999999999
 44
1.0
 45
0.00000001
 46
10.0
 73
     0
 74
     0
 77
     1
 78
     8
 79
     2
140
3.5
143
0.03937
146
1.001485756465366
147
0.762
171
     3
172
     1
176
   256
177
   256
178
   256
179
     2
271
     2
272
     2
274
     3
278
    44
284
     8
340
96
371
    -1
372
    -1
  0
DIMSTYLE
105
B3
330
A
100
AcDbSymbolTableRecord
100
AcDbDimStyleTableRecord
  2
Výchozí (ISO)$7
 70
     0
 40
2.0
 41
2.5
 42
0.0
 43
5.999999999999999
 44
1.0
 45
0.00000001
 46
10.0
 73
     0
 74
     0
 77
     1
 78
     8
 79
     2
140
3.5
143
0.03937
146
1.001485756465366
147
0.762
171
     3
172
     1
176
   256
177
   256
178
   256
179
     2
271
     2
272
     2
274
     3
278
    44
284
     8
340
96
371
    -1
372
    -1
  0
DIMSTYLE
105
B4
330
A
100
AcDbSymbolTableRecord
100
AcDbDimStyleTableRecord
  2
Alternativní (ISO)
 70
     0
 40
2.0
 41
2.5
340
55
342
B5
  0
DIMSTYLE
105
C6
330
A
100
AcDbSymbolTableRecord
100
AcDbDimStyleTableRecord
  2
Základny (ISO)
 70
     0
 40
2.0
 41
2.5
340
55
342
B5
  0
DIMSTYLE
105
E01
102
{ACAD_REACTORS
330
1615
102
}
330
A
100
AcDbSymbolTableRecord
100
AcDbDimStyleTableRecord
  2
AM_ISO
 70
     0
  4
"
 41
3.5
 42
1.0
 43
10.0
 44
1.0
 47
0.1
 48
0.1
 73
     0
 74
     0
 77
     1
 78
     8
 79
     2
140
3.5
141
0.0
143
0.0393701
146
0.71
147
1.5
172
     1
176
   256
177
   256
178
   140
271
     2
272
     3
274
     4
283
     0
284
     8
340
55
371
    -1
372
    -1
1001
ACAD_DSTYLE_DIMJAG
1070
   388
1040
1.5
1001
ACAD_DSTYLE_DIMBREAK
1070
   391
1040
3.75
1001
ACAD_DSTYLE_DIMARC_LENGTH_SYMBOL
1070
   379
1070
     1
1001
ACAD_DSTYLE_DIM_LINETYPE
1070
   380
1005
5B
1001
ACAD_DSTYLE_DIM_EXT1_LINETYPE
1070
   381
1005
5B
1001
ACAD_DSTYLE_DIM_EXT2_LINETYPE
1070
   382
1005
5B
  0
DIMSTYLE
105
E0E
330
A
100
AcDbSymbolTableRecord
100
AcDbDimStyleTableRecord
  2
AM_ISO$3
 70
     0
  4
"
 41
3.5
 42
1.0
 43
10.0
 44
1.0
 47
0.1
 48
0.1
 73
     0
 77
     1
 78
     8
 79
     2
140
3.5
141
0.0
143
0.0393701
146
0.71
147
1.5
176
   256
177
   256
178
   140
271
     2
272
     3
274
     4
283
     0
284
     8
288
     1
289
     0
340
55
371
    -1
372
    -1
1001
ACAD_DSTYLE_DIMBREAK
1070
   391
1040
3.75
1001
ACAD_DSTYLE_DIMJAG
1070
   388
1040
1.5
1001
ACAD_DSTYLE_DIMARC_LENGTH_SYMBOL
1070
   379
1070
     1
1001
ACAD_DSTYLE_DIM_LINETYPE
1070
   380
1005
5B
1001
ACAD_DSTYLE_DIM_EXT1_LINETYPE
1070
   381
1005
5B
1001
ACAD_DSTYLE_DIM_EXT2_LINETYPE
1070
   382
1005
5B
  0
DIMSTYLE
105
E0F
330
A
100
AcDbSymbolTableRecord
100
AcDbDimStyleTableRecord
  2
AM_ISO$4
 70
     0
  4
"
 41
3.5
 42
1.0
 43
10.0
 44
1.0
 47
0.1
 48
0.1
 73
     0
 77
     1
 78
     8
 79
     2
140
3.5
141
0.0
143
0.0393701
146
0.71
147
1.5
176
   256
177
   256
178
   140
271
     2
272
     3
274
     4
283
     0
284
     8
288
     1
289
     0
340
55
371
    -1
372
    -1
1001
ACAD_DSTYLE_DIMBREAK
1070
   391
1040
3.75
1001
ACAD_DSTYLE_DIMJAG
1070
   388
1040
1.5
1001
ACAD_DSTYLE_DIMARC_LENGTH_SYMBOL
1070
   379
1070
     1
1001
ACAD_DSTYLE_DIM_LINETYPE
1070
   380
1005
5B
1001
ACAD_DSTYLE_DIM_EXT1_LINETYPE
1070
   381
1005
5B
1001
ACAD_DSTYLE_DIM_EXT2_LINETYPE
1070
   382
1005
5B
  0
DIMSTYLE
105
E10
330
A
100
AcDbSymbolTableRecord
100
AcDbDimStyleTableRecord
  2
AM_ISO$6
 70
     0
  4
"
 41
3.5
 42
1.0
 43
10.0
 44
1.0
 47
0.1
 48
0.1
 73
     0
 74
     0
 78
     8
 79
     2
140
3.5
141
0.0
143
0.0393701
146
0.71
147
1.5
172
     1
176
   256
177
   256
178
   140
271
     2
272
     3
274
     4
283
     0
284
     8
340
55
371
    -1
372
    -1
1001
ACAD_DSTYLE_DIMBREAK
1070
   391
1040
3.75
1001
ACAD_DSTYLE_DIMJAG
1070
   388
1040
1.5
1001
ACAD_DSTYLE_DIMARC_LENGTH_SYMBOL
1070
   379
1070
     1
1001
ACAD_DSTYLE_DIM_LINETYPE
1070
   380
1005
5B
1001
ACAD_DSTYLE_DIM_EXT1_LINETYPE
1070
   381
1005
5B
1001
ACAD_DSTYLE_DIM_EXT2_LINETYPE
1070
   382
1005
5B
  0
DIMSTYLE
105
E11
330
A
100
AcDbSymbolTableRecord
100
AcDbDimStyleTableRecord
  2
AM_ISO$7
 70
     0
  4
"
 41
3.5
 42
1.0
 43
10.0
 44
1.0
 47
0.1
 48
0.1
 73
     0
 74
     0
 77
     1
 78
     8
 79
     2
140
3.5
141
0.0
143
0.0393701
146
0.71
147
1.5
172
     1
176
   256
177
   256
178
   140
271
     2
272
     3
274
     4
283
     0
284
     8
340
55
371
    -1
372
    -1
1001
ACAD_DSTYLE_DIMBREAK
1070
   391
1040
3.75
1001
ACAD_DSTYLE_DIMJAG
1070
   388
1040
1.5
1001
ACAD_DSTYLE_DIMARC_LENGTH_SYMBOL
1070
   379
1070
     1
1001
ACAD_DSTYLE_DIM_LINETYPE
1070
   380
1005
5B
1001
ACAD_DSTYLE_DIM_EXT1_LINETYPE
1070
   381
1005
5B
1001
ACAD_DSTYLE_DIM_EXT2_LINETYPE
1070
   382
1005
5B
  0
DIMSTYLE
105
E12
330
A
100
AcDbSymbolTableRecord
100
AcDbDimStyleTableRecord
  2
AM_ISO$SF
 70
     0
  4
"
 41
3.5
 42
1.0
 43
10.0
 44
1.0
 47
0.1
 48
0.1
 73
     0
 74
     0
 75
     1
 76
     1
 77
     1
 78
     8
 79
     2
140
3.5
141
0.0
143
0.0393701
146
0.71
147
1.5
172
     1
176
   256
177
   256
178
   140
271
     2
272
     3
274
     4
283
     0
284
     8
340
55
371
    -1
372
    -1
1001
ACAD_DSTYLE_DIMBREAK
1070
   391
1040
3.75
1001
ACAD_DSTYLE_DIMJAG
1070
   388
1040
1.5
1001
ACAD_DSTYLE_DIMARC_LENGTH_SYMBOL
1070
   379
1070
     1
1001
ACAD_DSTYLE_DIM_LINETYPE
1070
   380
1005
5B
1001
ACAD_DSTYLE_DIM_EXT1_LINETYPE
1070
   381
1005
5B
1001
ACAD_DSTYLE_DIM_EXT2_LINETYPE
1070
   382
1005
5B
  0
DIMSTYLE
105
E17
330
A
100
AcDbSymbolTableRecord
100
AcDbDimStyleTableRecord
  2
AM_ISO$SH
 70
     0
  4
"
 41
3.5
 42
1.0
 43
10.0
 44
1.0
 47
0.1
 48
0.1
 73
     0
 74
     0
 75
     1
 76
     1
 77
     1
 78
     8
 79
     2
140
3.5
141
0.0
143
0.0393701
144
2.0
146
0.71
147
1.5
172
     1
173
     1
176
   256
177
   256
178
   140
271
     2
272
     3
274
     4
283
     0
284
     8
340
55
343
E13
371
    -1
372
    -1
1001
ACAD_DSTYLE_DIMBREAK
1070
   391
1040
3.75
1001
ACAD_DSTYLE_DIMJAG
1070
   388
1040
1.5
1001
ACAD_DSTYLE_DIMARC_LENGTH_SYMBOL
1070
   379
1070
     1
1001
ACAD_DSTYLE_DIM_LINETYPE
1070
   380
1005
5B
1001
ACAD_DSTYLE_DIM_EXT1_LINETYPE
1070
   381
1005
5B
1001
ACAD_DSTYLE_DIM_EXT2_LINETYPE
1070
   382
1005
5B
  0
DIMSTYLE
105
EB0
102
{ACAD_REACTORS
330
881
330
79E
330
6BB
330
BFC
330
1228
330
118D
330
12CE
330
1330
330
12FA
102
}
330
A
100
AcDbSymbolTableRecord
100
AcDbDimStyleTableRecord
  2
GEN-ISO
 70
     0
  3
<>
  4
"
 40
2.0
 41
2.5
 42
1.0
 43
7.0
 44
1.0
 47
0.1
 48
0.1
 73
     0
 74
     0
 77
     1
 78
     8
140
7.0
141
0.0
143
0.0393701
146
0.71
147
0.6
172
     1
176
   256
177
   256
178
     7
271
     2
272
     2
283
     0
340
55
1001
ACAD_DSTYLE_DIMJAG
1070
   388
1040
1.5
1001
ACAD_DSTYLE_DIMTALN
1070
   392
1070
     0
  0
DIMSTYLE
105
118B
330
A
100
AcDbSymbolTableRecord
100
AcDbDimStyleTableRecord
  2
Standard$0
 70
     0
340
55
1001
ACAD_DSTYLE_DIMBREAK
1070
   391
1040
3.75
1001
ACAD_DSTYLE_DIMJAG
1070
   388
1040
1.5
  0
ENDTAB
  0
TABLE
  2
BLOCK_RECORD
  5
1
330
0
100
AcDbSymbolTable
 70
    61
  0
BLOCK_RECORD
  5
6C
330
1
100
AcDbSymbolTableRecord
100
AcDbBlockTableRecord
  2
*Model_Space
340
6F
  0
BLOCK_RECORD
  5
68
330
1
100
AcDbSymbolTableRecord
100
AcDbBlockTableRecord
  2
*Paper_Space
340
6B
  0
BLOCK_RECORD
  5
70
330
1
100
AcDbSymbolTableRecord
100
AcDbBlockTableRecord
  2
*Paper_Space0
340
73
  0
BLOCK_RECORD
  5
99
330
1
100
AcDbSymbolTableRecord
100
AcDbBlockTableRecord
  2
Filled-1
340
0
  0
BLOCK_RECORD
  5
B5
330
1
100
AcDbSymbolTableRecord
100
AcDbBlockTableRecord
  2
_Closed
340
0
  0
BLOCK_RECORD
  5
BC
330
1
100
AcDbSymbolTableRecord
100
AcDbBlockTableRecord
  2
DatumFilled45
340
0
  0
BLOCK_RECORD
  5
C7
330
1
100
AcDbSymbolTableRecord
100
AcDbBlockTableRecord
  2
WIG-svarovani
340
0
  0
BLOCK_RECORD
  5
CC
330
1
100
AcDbSymbolTableRecord
100
AcDbBlockTableRecord
  2
Popis kotvy_srouby
340
0
  0
BLOCK_RECORD
  5
D0
330
1
100
AcDbSymbolTableRecord
100
AcDbBlockTableRecord
  2
Mater. provedeni Art.
340
0
  0
BLOCK_RECORD
  5
F2
330
1
100
AcDbSymbolTableRecord
100
AcDbBlockTableRecord
  2
Art. s popisy
340
0
  0
BLOCK_RECORD
  5
114
330
1
100
AcDbSymbolTableRecord
100
AcDbBlockTableRecord
  2
Tryskat
340
0
  0
BLOCK_RECORD
  5
118
330
1
100
AcDbSymbolTableRecord
100
AcDbBlockTableRecord
  2
Morit
340
0
  0
BLOCK_RECORD
  5
11C
330
1
100
AcDbSymbolTableRecord
100
AcDbBlockTableRecord
  2
zinkovat
340
0
  0
BLOCK_RECORD
  5
120
330
1
100
AcDbSymbolTableRecord
100
AcDbBlockTableRecord
  2
Nater
340
0
  0
BLOCK_RECORD
  5
124
330
1
100
AcDbSymbolTableRecord
100
AcDbBlockTableRecord
  2
Brus
340
0
  0
BLOCK_RECORD
  5
128
330
1
100
AcDbSymbolTableRecord
100
AcDbBlockTableRecord
  2
Elektroliticky lestit
340
0
  0
BLOCK_RECORD
  5
12C
330
1
100
AcDbSymbolTableRecord
100
AcDbBlockTableRecord
  2
Mořit de.
340
0
  0
BLOCK_RECORD
  5
130
330
1
100
AcDbSymbolTableRecord
100
AcDbBlockTableRecord
  2
Žlab bez spádu De.
340
0
  0
BLOCK_RECORD
  5
134
330
1
100
AcDbSymbolTableRecord
100
AcDbBlockTableRecord
  2
Žlab bez spádu Ang.
340
0
  0
BLOCK_RECORD
  5
138
330
1
100
AcDbSymbolTableRecord
100
AcDbBlockTableRecord
  2
Aschl Nirotec-tryskání
340
0
  0
BLOCK_RECORD
  5
13C
330
1
100
AcDbSymbolTableRecord
100
AcDbBlockTableRecord
  2
Popis šrouby_kotvy Ang.
340
0
  0
BLOCK_RECORD
  5
140
330
1
100
AcDbSymbolTableRecord
100
AcDbBlockTableRecord
  2
Spád žlabu Ang.
340
0
  0
BLOCK_RECORD
  5
144
330
1
100
AcDbSymbolTableRecord
100
AcDbBlockTableRecord
  2
Spád žlabu De.
340
0
  0
BLOCK_RECORD
  5
148
330
1
100
AcDbSymbolTableRecord
100
AcDbBlockTableRecord
  2
Kartáč + folie
340
0
  0
BLOCK_RECORD
  5
14C
330
1
100
AcDbSymbolTableRecord
100
AcDbBlockTableRecord
  2
Komplet tryskat De.
340
0
  0
BLOCK_RECORD
  5
150
330
1
100
AcDbSymbolTableRecord
100
AcDbBlockTableRecord
  2
Mořit Ang.
340
0
  0
BLOCK_RECORD
  5
154
330
1
100
AcDbSymbolTableRecord
100
AcDbBlockTableRecord
  2
Rámečky Default Border
340
0
  0
BLOCK_RECORD
  5
1AB
330
1
100
AcDbSymbolTableRecord
100
AcDbBlockTableRecord
  2
Rohová razítka ACO-razitko
340
0
  0
BLOCK_RECORD
  5
6BD
330
1
100
AcDbSymbolTableRecord
100
AcDbBlockTableRecord
  2
*D26
340
0
  0
BLOCK_RECORD
  5
79F
330
1
100
AcDbSymbolTableRecord
100
AcDbBlockTableRecord
  2
*D27
340
0
  0
BLOCK_RECORD
  5
882
330
1
100
AcDbSymbolTableRecord
100
AcDbBlockTableRecord
  2
*D28
340
0
  0
BLOCK_RECORD
  5
95A
330
1
100
AcDbSymbolTableRecord
100
AcDbBlockTableRecord
  2
*D29
340
0
  0
BLOCK_RECORD
  5
A38
330
1
100
AcDbSymbolTableRecord
100
AcDbBlockTableRecord
  2
*D30
340
0
  0
BLOCK_RECORD
  5
B1B
330
1
100
AcDbSymbolTableRecord
100
AcDbBlockTableRecord
  2
*D31
340
0
  0
BLOCK_RECORD
  5
BFD
330
1
100
AcDbSymbolTableRecord
100
AcDbBlockTableRecord
  2
*D32
340
0
  0
BLOCK_RECORD
  5
CDE
330
1
100
AcDbSymbolTableRecord
100
AcDbBlockTableRecord
  2
KUSOVNÍK
340
0
  0
BLOCK_RECORD
  5
E13
330
1
100
AcDbSymbolTableRecord
100
AcDbBlockTableRecord
  2
GENAXEH
340
0
  0
BLOCK_RECORD
  5
E3F
330
1
100
AcDbSymbolTableRecord
100
AcDbBlockTableRecord
  2
*D35
340
0
  0
BLOCK_RECORD
  5
E4B
330
1
100
AcDbSymbolTableRecord
100
AcDbBlockTableRecord
  2
*D36
340
0
  0
BLOCK_RECORD
  5
E57
330
1
100
AcDbSymbolTableRecord
100
AcDbBlockTableRecord
  2
*D37
340
0
  0
BLOCK_RECORD
  5
E63
330
1
100
AcDbSymbolTableRecord
100
AcDbBlockTableRecord
  2
*D38
340
0
  0
BLOCK_RECORD
  5
E6F
330
1
100
AcDbSymbolTableRecord
100
AcDbBlockTableRecord
  2
*D39
340
0
  0
BLOCK_RECORD
  5
E7B
330
1
100
AcDbSymbolTableRecord
100
AcDbBlockTableRecord
  2
*D40
340
0
  0
BLOCK_RECORD
  5
E87
330
1
100
AcDbSymbolTableRecord
100
AcDbBlockTableRecord
  2
*D41
340
0
  0
BLOCK_RECORD
  5
E93
330
1
100
AcDbSymbolTableRecord
100
AcDbBlockTableRecord
  2
*D42
340
0
  0
BLOCK_RECORD
  5
E9F
330
1
100
AcDbSymbolTableRecord
100
AcDbBlockTableRecord
  2
*D43
340
0
  0
BLOCK_RECORD
  5
FCD
330
1
100
AcDbSymbolTableRecord
100
AcDbBlockTableRecord
  2
*D44
340
0
  0
BLOCK_RECORD
  5
FD9
330
1
100
AcDbSymbolTableRecord
100
AcDbBlockTableRecord
  2
*D45
340
0
  0
BLOCK_RECORD
  5
FE5
330
1
100
AcDbSymbolTableRecord
100
AcDbBlockTableRecord
  2
*D46
340
0
  0
BLOCK_RECORD
  5
FF1
330
1
100
AcDbSymbolTableRecord
100
AcDbBlockTableRecord
  2
*D47
340
0
  0
BLOCK_RECORD
  5
FFD
330
1
100
AcDbSymbolTableRecord
100
AcDbBlockTableRecord
  2
*D48
340
0
  0
BLOCK_RECORD
  5
1009
330
1
100
AcDbSymbolTableRecord
100
AcDbBlockTableRecord
  2
*D49
340
0
  0
BLOCK_RECORD
  5
1015
330
1
100
AcDbSymbolTableRecord
100
AcDbBlockTableRecord
  2
*D50
340
0
  0
BLOCK_RECORD
  5
1021
330
1
100
AcDbSymbolTableRecord
100
AcDbBlockTableRecord
  2
*D51
340
0
  0
BLOCK_RECORD
  5
102D
330
1
100
AcDbSymbolTableRecord
100
AcDbBlockTableRecord
  2
*D52
340
0
  0
BLOCK_RECORD
  5
118E
330
1
100
AcDbSymbolTableRecord
100
AcDbBlockTableRecord
  2
*D53
340
0
  0
BLOCK_RECORD
  5
11FB
330
1
100
AcDbSymbolTableRecord
100
AcDbBlockTableRecord
  2
*D54
340
0
  0
BLOCK_RECORD
  5
1229
330
1
100
AcDbSymbolTableRecord
100
AcDbBlockTableRecord
  2
*D55
340
0
  0
BLOCK_RECORD
  5
12CF
330
1
100
AcDbSymbolTableRecord
100
AcDbBlockTableRecord
  2
*D56
340
0
  0
BLOCK_RECORD
  5
12FB
330
1
100
AcDbSymbolTableRecord
100
AcDbBlockTableRecord
  2
*D57
340
0
  0
BLOCK_RECORD
  5
1331
330
1
100
AcDbSymbolTableRecord
100
AcDbBlockTableRecord
  2
*D58
340
0
  0
ENDTAB
  0
ENDSEC
  0
SECTION
  2
BLOCKS
  0
BLOCK
  5
6D
330
6C
100
AcDbEntity
  8
0
100
AcDbBlockBegin
  2
*Model_Space
 70
     0
 10
0.0
 20
0.0
 30
0.0
  3
*Model_Space
  1

  0
ENDBLK
  5
6E
330
6C
100
AcDbEntity
  8
0
100
AcDbBlockEnd
  0
BLOCK
  5
69
330
68
100
AcDbEntity
 67
     1
  8
0
100
AcDbBlockBegin
  2
*Paper_Space
 70
     0
 10
0.0
 20
0.0
 30
0.0
  3
*Paper_Space
  1

  0
ENDBLK
  5
6A
330
68
100
AcDbEntity
 67
     1
  8
0
100
AcDbBlockEnd
  0
BLOCK
  5
71
330
70
100
AcDbEntity
 67
     1
  8
0
100
AcDbBlockBegin
  2
*Paper_Space0
 70
     0
 10
0.0
 20
0.0
 30
0.0
  3
*Paper_Space0
  1

  0
ENDBLK
  5
72
330
70
100
AcDbEntity
 67
     1
  8
0
100
AcDbBlockEnd
  0
BLOCK
  5
9A
330
99
100
AcDbEntity
  8
0
100
AcDbBlockBegin
  2
Filled-1
 70
     0
 10
0.0
 20
0.0
 30
0.0
  3
Filled-1
  1

  0
LINE
  5
9C
330
99
100
AcDbEntity
  8
0
 62
     0
100
AcDbLine
 10
-1.0
 20
0.0
 30
0.0
 11
0.0
 21
0.0
 31
0.0
  0
POLYLINE
  5
9E
330
99
100
AcDbEntity
  8
0
 62
     0
100
AcDb2dPolyline
 66
     1
 10
0.0
 20
0.0
 30
0.0
 70
   128
  0
VERTEX
  5
9F
330
9E
100
AcDbEntity
  8
0
 62
     0
100
AcDbVertex
100
AcDb2dVertex
 10
-1.0
 20
-0.1
 30
0.0
  0
VERTEX
  5
A0
330
9E
100
AcDbEntity
  8
0
 62
     0
100
AcDbVertex
100
AcDb2dVertex
 10
0.0
 20
0.0
 30
0.0
  0
VERTEX
  5
A2
330
9E
100
AcDbEntity
  8
0
 62
     0
100
AcDbVertex
100
AcDb2dVertex
 10
-1.0
 20
0.1
 30
0.0
  0
VERTEX
  5
A3
330
9E
100
AcDbEntity
  8
0
 62
     0
100
AcDbVertex
100
AcDb2dVertex
 10
-1.0
 20
-0.1
 30
0.0
  0
SEQEND
  5
A1
330
9E
100
AcDbEntity
  8
0
 62
     0
  0
SOLID
  5
A4
330
99
100
AcDbEntity
  8
0
 62
     0
100
AcDbTrace
 10
-1.0
 20
-0.1
 30
0.0
 11
0.0
 21
0.0
 31
0.0
 12
-1.0
 22
0.1
 32
0.0
 13
-1.0
 23
-0.1
 33
0.0
  0
LINE
  5
A5
330
99
100
AcDbEntity
  8
0
 62
     0
100
AcDbLine
 10
-1.0
 20
-0.1
 30
0.0
 11
0.0
 21
0.0
 31
0.0
  0
LINE
  5
A6
330
99
100
AcDbEntity
  8
0
 62
     0
100
AcDbLine
 10
0.0
 20
0.0
 30
0.0
 11
-1.0
 21
0.1
 31
0.0
  0
LINE
  5
A7
330
99
100
AcDbEntity
  8
0
 62
     0
100
AcDbLine
 10
-1.0
 20
0.1
 30
0.0
 11
-1.0
 21
-0.1
 31
0.0
  0
ENDBLK
  5
9B
330
99
100
AcDbEntity
  8
0
100
AcDbBlockEnd
  0
BLOCK
  5
BA
330
B5
100
AcDbEntity
  8
0
100
AcDbBlockBegin
  2
_Closed
 70
     0
 10
0.0
 20
0.0
 30
0.0
  3
_Closed
  1

  0
LINE
  5
B6
330
B5
100
AcDbEntity
  8
0
  6
ByBlock
 62
     0
370
    -2
100
AcDbLine
 10
-1.0
 20
0.1666666666666666
 30
0.0
 11
0.0
 21
0.0
 31
0.0
  0
LINE
  5
B7
330
B5
100
AcDbEntity
  8
0
  6
ByBlock
 62
     0
370
    -2
100
AcDbLine
 10
0.0
 20
0.0
 30
0.0
 11
-1.0
 21
-0.1666666666666666
 31
0.0
  0
LINE
  5
B8
330
B5
100
AcDbEntity
  8
0
  6
ByBlock
 62
     0
370
    -2
100
AcDbLine
 10
-1.0
 20
0.1666666666666666
 30
0.0
 11
-1.0
 21
-0.1666666666666666
 31
0.0
  0
LINE
  5
B9
330
B5
100
AcDbEntity
  8
0
  6
ByBlock
 62
     0
370
    -2
100
AcDbLine
 10
0.0
 20
0.0
 30
0.0
 11
-1.0
 21
0.0
 31
0.0
  0
ENDBLK
  5
BB
330
B5
100
AcDbEntity
  8
0
100
AcDbBlockEnd
  0
BLOCK
  5
BD
330
BC
100
AcDbEntity
  8
0
100
AcDbBlockBegin
  2
DatumFilled45
 70
     0
 10
0.0
 20
0.0
 30
0.0
  3
DatumFilled45
  1

  0
POLYLINE
  5
BF
330
BC
100
AcDbEntity
  8
0
 62
     0
100
AcDb2dPolyline
 66
     1
 10
0.0
 20
0.0
 30
0.0
 70
   128
  0
VERTEX
  5
C0
330
BF
100
AcDbEntity
  8
0
 62
     0
100
AcDbVertex
100
AcDb2dVertex
 10
0.0
 20
1.0
 30
0.0
  0
VERTEX
  5
C1
330
BF
100
AcDbEntity
  8
0
 62
     0
100
AcDbVertex
100
AcDb2dVertex
 10
0.0
 20
-1.0
 30
0.0
  0
VERTEX
  5
C3
330
BF
100
AcDbEntity
  8
0
 62
     0
100
AcDbVertex
100
AcDb2dVertex
 10
-1.0
 20
0.0
 30
0.0
  0
VERTEX
  5
C4
330
BF
100
AcDbEntity
  8
0
 62
     0
100
AcDbVertex
100
AcDb2dVertex
 10
0.0
 20
1.0
 30
0.0
  0
SEQEND
  5
C2
330
BF
100
AcDbEntity
  8
0
 62
     0
  0
SOLID
  5
C5
330
BC
100
AcDbEntity
  8
0
 62
     0
100
AcDbTrace
 10
0.0
 20
1.0
 30
0.0
 11
0.0
 21
-1.0
 31
0.0
 12
-1.0
 22
0.0
 32
0.0
 13
0.0
 23
1.0
 33
0.0
  0
ENDBLK
  5
BE
330
BC
100
AcDbEntity
  8
0
100
AcDbBlockEnd
  0
BLOCK
  5
C8
330
C7
100
AcDbEntity
  8
0
100
AcDbBlockBegin
  2
WIG-svarovani
 70
     0
 10
0.0
 20
0.0
 30
0.0
  3
WIG-svarovani
  1

  0
MTEXT
  5
CA
102
{ACAD_XDICTIONARY
360
16EF
102
}
330
C7
100
AcDbEntity
  8
Značka (ISO)
100
AcDbMText
 10
-57.87338256835937
 20
16.31795931607484
 30
0.0
 40
3.499999940395355
 41
115.7467651367187
 71
     1
 72
     1
  1
WIG Schweisung, Nahte sauber geschliffen und poliert\PSichtstege geschliffen mit 240 Korn und abgeklebt.\P{\H0.85714x; \P\H1.1667x;WIG svarovani- svary dle potreby zabrousit.\PPohledove plochy brousit (vel. brusnych zrn 240)\Pa polepit paskou}
  7
Text poznámky (ISO)
 73
     1
 44
0.9596589207649227
  0
ENDBLK
  5
C9
330
C7
100
AcDbEntity
  8
0
100
AcDbBlockEnd
  0
BLOCK
  5
CD
330
CC
100
AcDbEntity
  8
0
100
AcDbBlockBegin
  2
Popis kotvy_srouby
 70
     0
 10
0.0
 20
0.0
 30
0.0
  3
Popis kotvy_srouby
  1

  0
MTEXT
  5
CF
330
CC
100
AcDbEntity
  8
Značka (ISO)
100
AcDbMText
 10
-39.79761123657226
 20
21.84130281209946
 30
0.0
 40
3.499999940395355
 41
0.0
 71
     1
 72
     1
  1
Vzdalenost nivel. sroubu ca. 1500\PVzdalenost kotev ca. 400\PVzdalenost dist. koliku ca. 250\P\PAbstand der Nivellieschraben ca.1500\PAbstand der Maueranker ca.400\PAbstand der Distanzstege ca.250\P
  7
Text poznámky (ISO)
 73
     2
 44
0.9878841638565063
  0
ENDBLK
  5
CE
330
CC
100
AcDbEntity
  8
0
100
AcDbBlockEnd
  0
BLOCK
  5
D1
330
D0
100
AcDbEntity
  8
0
100
AcDbBlockBegin
  2
Mater. provedeni Art.
 70
     0
 10
0.0
 20
0.0
 30
0.0
  3
Mater. provedeni Art.
  1

  0
LINE
  5
D3
330
D0
100
AcDbEntity
  8
Geometrie náčrtu (ISO)
100
AcDbLine
 10
-35.0
 20
-22.5
 30
0.0
 11
35.0
 21
-22.5
 31
0.0
  0
LINE
  5
D4
330
D0
100
AcDbEntity
  8
Geometrie náčrtu (ISO)
100
AcDbLine
 10
35.0
 20
-22.5
 30
0.0
 11
34.99999999999996
 21
-13.49999999999998
 31
0.0
  0
LINE
  5
D5
330
D0
100
AcDbEntity
  8
Geometrie náčrtu (ISO)
100
AcDbLine
 10
34.99999999999996
 20
-13.49999999999998
 30
0.0
 11
-35.00000000000003
 21
-13.49999999999998
 31
0.0
  0
LINE
  5
D6
330
D0
100
AcDbEntity
  8
Geometrie náčrtu (ISO)
100
AcDbLine
 10
-35.00000000000003
 20
-13.49999999999998
 30
0.0
 11
-35.0
 21
-22.5
 31
0.0
  0
LINE
  5
D7
330
D0
100
AcDbEntity
  8
Geometrie náčrtu (ISO)
100
AcDbLine
 10
-35.00000000000003
 20
-13.49999999999998
 30
0.0
 11
34.99999999999996
 21
-13.49999999999998
 31
0.0
  0
LINE
  5
D8
330
D0
100
AcDbEntity
  8
Geometrie náčrtu (ISO)
100
AcDbLine
 10
34.99999999999996
 20
-13.49999999999998
 30
0.0
 11
34.99999999999996
 21
-4.499999999999992
 31
0.0
  0
LINE
  5
D9
330
D0
100
AcDbEntity
  8
Geometrie náčrtu (ISO)
100
AcDbLine
 10
34.99999999999996
 20
-4.499999999999992
 30
0.0
 11
-35.00000000000003
 21
-4.499999999999992
 31
0.0
  0
LINE
  5
DA
330
D0
100
AcDbEntity
  8
Geometrie náčrtu (ISO)
100
AcDbLine
 10
-35.00000000000003
 20
-4.499999999999992
 30
0.0
 11
-35.00000000000003
 21
-13.49999999999998
 31
0.0
  0
LINE
  5
DB
330
D0
100
AcDbEntity
  8
Geometrie náčrtu (ISO)
100
AcDbLine
 10
-35.00000000000003
 20
-4.499999999999992
 30
0.0
 11
34.99999999999996
 21
-4.499999999999992
 31
0.0
  0
LINE
  5
DC
330
D0
100
AcDbEntity
  8
Geometrie náčrtu (ISO)
100
AcDbLine
 10
34.99999999999996
 20
-4.499999999999992
 30
0.0
 11
34.99999999999996
 21
4.499999999999992
 31
0.0
  0
LINE
  5
DD
330
D0
100
AcDbEntity
  8
Geometrie náčrtu (ISO)
100
AcDbLine
 10
34.99999999999996
 20
4.499999999999992
 30
0.0
 11
-35.00000000000003
 21
4.499999999999992
 31
0.0
  0
LINE
  5
DE
330
D0
100
AcDbEntity
  8
Geometrie náčrtu (ISO)
100
AcDbLine
 10
-35.00000000000003
 20
4.499999999999992
 30
0.0
 11
-35.00000000000003
 21
-4.499999999999992
 31
0.0
  0
LINE
  5
DF
330
D0
100
AcDbEntity
  8
Geometrie náčrtu (ISO)
100
AcDbLine
 10
-35.00000000000003
 20
4.499999999999992
 30
0.0
 11
34.99999999999996
 21
4.499999999999992
 31
0.0
  0
LINE
  5
E0
330
D0
100
AcDbEntity
  8
Geometrie náčrtu (ISO)
100
AcDbLine
 10
34.99999999999996
 20
4.499999999999992
 30
0.0
 11
34.99999999999996
 21
13.50000000000001
 31
0.0
  0
LINE
  5
E1
330
D0
100
AcDbEntity
  8
Geometrie náčrtu (ISO)
100
AcDbLine
 10
34.99999999999996
 20
13.50000000000001
 30
0.0
 11
-35.00000000000003
 21
13.50000000000001
 31
0.0
  0
LINE
  5
E2
330
D0
100
AcDbEntity
  8
Geometrie náčrtu (ISO)
100
AcDbLine
 10
-35.00000000000003
 20
13.50000000000001
 30
0.0
 11
-35.00000000000003
 21
4.499999999999992
 31
0.0
  0
LINE
  5
E3
330
D0
100
AcDbEntity
  8
Geometrie náčrtu (ISO)
100
AcDbLine
 10
-35.00000000000003
 20
13.50000000000001
 30
0.0
 11
34.99999999999996
 21
13.50000000000001
 31
0.0
  0
LINE
  5
E4
330
D0
100
AcDbEntity
  8
Geometrie náčrtu (ISO)
100
AcDbLine
 10
34.99999999999996
 20
13.50000000000001
 30
0.0
 11
34.99999999999996
 21
22.5
 31
0.0
  0
LINE
  5
E5
330
D0
100
AcDbEntity
  8
Geometrie náčrtu (ISO)
100
AcDbLine
 10
34.99999999999996
 20
22.5
 30
0.0
 11
-35.00000000000003
 21
22.5
 31
0.0
  0
LINE
  5
E6
330
D0
100
AcDbEntity
  8
Geometrie náčrtu (ISO)
100
AcDbLine
 10
-35.00000000000003
 20
22.5
 30
0.0
 11
-35.00000000000003
 21
13.50000000000001
 31
0.0
  0
LINE
  5
E7
330
D0
100
AcDbEntity
  8
Geometrie náčrtu (ISO)
100
AcDbLine
 10
-6.999999999999992
 20
22.5
 30
0.0
 11
-6.999999999999992
 21
-22.5
 31
0.0
  0
MTEXT
  5
E8
330
D0
100
AcDbEntity
  8
Značka (ISO)
100
AcDbMText
 10
-5.126613448311374
 20
11.7684641726084
 30
0.0
 40
5.0
 41
0.0
 71
     1
 72
     1
  1
\fTahoma|b0|i0;\H5.0000;xxxxxxxxxxx
  7
Text poznámky (ISO)
 73
     1
 44
1.0
  0
MTEXT
  5
E9
330
D0
100
AcDbEntity
  8
Značka (ISO)
100
AcDbMText
 10
-33.0130165251342
 20
11.7684641726084
 30
0.0
 40
5.0
 41
20.42139291763306
 71
     1
 72
     1
  1
\fTahoma|b0|i0;\H5.0000;xxxxxx
  7
Text poznámky (ISO)
 73
     1
 44
1.0
  0
MTEXT
  5
EA
330
D0
100
AcDbEntity
  8
Značka (ISO)
100
AcDbMText
 10
-32.07756235018873
 20
20.30710993714994
 30
0.0
 40
5.0
 41
13.92583036716939
 71
     1
 72
     1
  1
\fTahoma|b0|i0;\H5.0000;Art.
  7
Text poznámky (ISO)
 73
     1
 44
1.0
  0
MTEXT
  5
EB
330
D0
100
AcDbEntity
  8
Značka (ISO)
100
AcDbMText
 10
4.291672002492318
 20
20.30710993714994
 30
0.0
 40
5.0
 41
0.0
 71
     1
 72
     1
  1
\fTahoma|b0|i0;\H5.0000;Mat.
  7
Text poznámky (ISO)
 73
     1
 44
1.0
  0
MTEXT
  5
EC
330
D0
100
AcDbEntity
  8
Značka (ISO)
100
AcDbMText
 10
-33.0130165251342
 20
2.473781856899818
 30
0.0
 40
5.0
 41
20.42139291763306
 71
     1
 72
     1
  1
\fTahoma|b0|i0;\H5.0000;xxxxxx
  7
Text poznámky (ISO)
 73
     1
 44
1.0
  0
MTEXT
  5
ED
330
D0
100
AcDbEntity
  8
Značka (ISO)
100
AcDbMText
 10
-5.126613448311374
 20
2.473781856899818
 30
0.0
 40
5.0
 41
0.0
 71
     1
 72
     1
  1
\fTahoma|b0|i0;\H5.0000;xxxxxxxxxxx
  7
Text poznámky (ISO)
 73
     1
 44
1.0
  0
MTEXT
  5
EE
330
D0
100
AcDbEntity
  8
Značka (ISO)
100
AcDbMText
 10
-33.0130165251342
 20
-6.862452441171491
 30
0.0
 40
5.0
 41
20.42139291763306
 71
     1
 72
     1
  1
\fTahoma|b0|i0;\H5.0000;xxxxxx
  7
Text poznámky (ISO)
 73
     1
 44
1.0
  0
MTEXT
  5
EF
330
D0
100
AcDbEntity
  8
Značka (ISO)
100
AcDbMText
 10
-5.126613448311374
 20
-6.862452441171491
 30
0.0
 40
5.0
 41
0.0
 71
     1
 72
     1
  1
\fTahoma|b0|i0;\H5.0000;xxxxxxxxxxx
  7
Text poznámky (ISO)
 73
     1
 44
1.0
  0
MTEXT
  5
F0
330
D0
100
AcDbEntity
  8
Značka (ISO)
100
AcDbMText
 10
-33.0130165251342
 20
-15.52177565039578
 30
0.0
 40
5.0
 41
20.42139291763306
 71
     1
 72
     1
  1
\fTahoma|b0|i0;\H5.0000;xxxxxx
  7
Text poznámky (ISO)
 73
     1
 44
1.0
  0
MTEXT
  5
F1
330
D0
100
AcDbEntity
  8
Značka (ISO)
100
AcDbMText
 10
-5.126613448311374
 20
-15.52177565039578
 30
0.0
 40
5.0
 41
0.0
 71
     1
 72
     1
  1
\fTahoma|b0|i0;\H5.0000;xxxxxxxxxxx
  7
Text poznámky (ISO)
 73
     1
 44
1.0
  0
ENDBLK
  5
D2
330
D0
100
AcDbEntity
  8
0
100
AcDbBlockEnd
  0
BLOCK
  5
F3
330
F2
100
AcDbEntity
  8
0
100
AcDbBlockBegin
  2
Art. s popisy
 70
     0
 10
0.0
 20
0.0
 30
0.0
  3
Art. s popisy
  1

  0
LINE
  5
F5
330
F2
100
AcDbEntity
  8
Geometrie náčrtu (ISO)
100
AcDbLine
 10
-60.00000000000081
 20
-22.5
 30
0.0
 11
59.99999999999911
 21
-22.5
 31
0.0
  0
LINE
  5
F6
330
F2
100
AcDbEntity
  8
Geometrie náčrtu (ISO)
100
AcDbLine
 10
59.99999999999911
 20
-22.5
 30
0.0
 11
60.00000000000081
 21
-13.50000000000001
 31
0.0
  0
LINE
  5
F7
330
F2
100
AcDbEntity
  8
Geometrie náčrtu (ISO)
100
AcDbLine
 10
60.00000000000081
 20
-13.50000000000001
 30
0.0
 11
-60.00000000000081
 21
-13.49999999999998
 31
0.0
  0
LINE
  5
F8
330
F2
100
AcDbEntity
  8
Geometrie náčrtu (ISO)
100
AcDbLine
 10
-60.00000000000081
 20
-13.49999999999998
 30
0.0
 11
-60.00000000000081
 21
-22.5
 31
0.0
  0
LINE
  5
F9
330
F2
100
AcDbEntity
  8
Geometrie náčrtu (ISO)
100
AcDbLine
 10
-60.00000000000081
 20
-13.49999999999998
 30
0.0
 11
60.00000000000081
 21
-13.50000000000001
 31
0.0
  0
LINE
  5
FA
330
F2
100
AcDbEntity
  8
Geometrie náčrtu (ISO)
100
AcDbLine
 10
60.00000000000081
 20
-13.50000000000001
 30
0.0
 11
59.99999999999911
 21
-4.500000000000028
 31
0.0
  0
LINE
  5
FB
330
F2
100
AcDbEntity
  8
Geometrie náčrtu (ISO)
100
AcDbLine
 10
59.99999999999911
 20
-4.500000000000028
 30
0.0
 11
-60.00000000000081
 21
-4.499999999999992
 31
0.0
  0
LINE
  5
FC
330
F2
100
AcDbEntity
  8
Geometrie náčrtu (ISO)
100
AcDbLine
 10
-60.00000000000081
 20
-4.499999999999992
 30
0.0
 11
-60.00000000000081
 21
-13.49999999999998
 31
0.0
  0
LINE
  5
FD
330
F2
100
AcDbEntity
  8
Geometrie náčrtu (ISO)
100
AcDbLine
 10
-60.00000000000081
 20
-4.499999999999992
 30
0.0
 11
59.99999999999911
 21
-4.500000000000028
 31
0.0
  0
LINE
  5
FE
330
F2
100
AcDbEntity
  8
Geometrie náčrtu (ISO)
100
AcDbLine
 10
59.99999999999911
 20
-4.500000000000028
 30
0.0
 11
59.99999999999911
 21
4.499999999999957
 31
0.0
  0
LINE
  5
FF
330
F2
100
AcDbEntity
  8
Geometrie náčrtu (ISO)
100
AcDbLine
 10
59.99999999999911
 20
4.499999999999957
 30
0.0
 11
-60.00000000000081
 21
4.499999999999992
 31
0.0
  0
LINE
  5
100
330
F2
100
AcDbEntity
  8
Geometrie náčrtu (ISO)
100
AcDbLine
 10
-60.00000000000081
 20
4.499999999999992
 30
0.0
 11
-60.00000000000081
 21
-4.499999999999992
 31
0.0
  0
LINE
  5
101
330
F2
100
AcDbEntity
  8
Geometrie náčrtu (ISO)
100
AcDbLine
 10
-60.00000000000081
 20
4.499999999999992
 30
0.0
 11
59.99999999999911
 21
4.499999999999957
 31
0.0
  0
LINE
  5
102
330
F2
100
AcDbEntity
  8
Geometrie náčrtu (ISO)
100
AcDbLine
 10
59.99999999999911
 20
4.499999999999957
 30
0.0
 11
59.99999999999911
 21
13.49999999999998
 31
0.0
  0
LINE
  5
103
330
F2
100
AcDbEntity
  8
Geometrie náčrtu (ISO)
100
AcDbLine
 10
59.99999999999911
 20
13.49999999999998
 30
0.0
 11
-60.00000000000081
 21
13.50000000000001
 31
0.0
  0
LINE
  5
104
330
F2
100
AcDbEntity
  8
Geometrie náčrtu (ISO)
100
AcDbLine
 10
-60.00000000000081
 20
13.50000000000001
 30
0.0
 11
-60.00000000000081
 21
4.499999999999992
 31
0.0
  0
LINE
  5
105
330
F2
100
AcDbEntity
  8
Geometrie náčrtu (ISO)
100
AcDbLine
 10
-60.00000000000081
 20
13.50000000000001
 30
0.0
 11
59.99999999999911
 21
13.49999999999998
 31
0.0
  0
LINE
  5
106
330
F2
100
AcDbEntity
  8
Geometrie náčrtu (ISO)
100
AcDbLine
 10
59.99999999999911
 20
13.49999999999998
 30
0.0
 11
59.99999999999911
 21
22.49999999999996
 31
0.0
  0
LINE
  5
107
330
F2
100
AcDbEntity
  8
Geometrie náčrtu (ISO)
100
AcDbLine
 10
59.99999999999911
 20
22.49999999999996
 30
0.0
 11
-60.00000000000081
 21
22.5
 31
0.0
  0
LINE
  5
108
330
F2
100
AcDbEntity
  8
Geometrie náčrtu (ISO)
100
AcDbLine
 10
-60.00000000000081
 20
22.5
 30
0.0
 11
-60.00000000000081
 21
13.50000000000001
 31
0.0
  0
LINE
  5
109
330
F2
100
AcDbEntity
  8
Geometrie náčrtu (ISO)
100
AcDbLine
 10
-32.00000000000081
 20
22.5
 30
0.0
 11
-32.00000000000081
 21
-22.5
 31
0.0
  0
MTEXT
  5
10A
330
F2
100
AcDbEntity
  8
Značka (ISO)
100
AcDbMText
 10
-27.63552601875791
 20
11.7684641726084
 30
0.0
 40
5.0
 41
0.0
 71
     1
 72
     1
  1
\fTahoma|b0|i0;\H5.0000;xxxxxxxxxxx
  7
Text poznámky (ISO)
 73
     1
 44
1.0
  0
MTEXT
  5
10B
330
F2
100
AcDbEntity
  8
Značka (ISO)
100
AcDbMText
 10
-55.52192909558073
 20
11.7684641726084
 30
0.0
 40
5.0
 41
20.42139291763306
 71
     1
 72
     1
  1
\fTahoma|b0|i0;\H5.0000;xxxxxx
  7
Text poznámky (ISO)
 73
     1
 44
1.0
  0
MTEXT
  5
10C
330
F2
100
AcDbEntity
  8
Značka (ISO)
100
AcDbMText
 10
-54.58647492063526
 20
20.30710993714994
 30
0.0
 40
5.0
 41
13.92583036716939
 71
     1
 72
     1
  1
\fTahoma|b0|i0;\H5.0000;Art.
  7
Text poznámky (ISO)
 73
     1
 44
1.0
  0
MTEXT
  5
10D
330
F2
100
AcDbEntity
  8
Značka (ISO)
100
AcDbMText
 10
-18.21724056795421
 20
20.30710993714994
 30
0.0
 40
5.0
 41
0.0
 71
     1
 72
     1
  1
\fTahoma|b0|i0;\H5.0000;Popis.
  7
Text poznámky (ISO)
 73
     1
 44
1.0
  0
MTEXT
  5
10E
330
F2
100
AcDbEntity
  8
Značka (ISO)
100
AcDbMText
 10
-55.52192909558073
 20
2.473781856899818
 30
0.0
 40
5.0
 41
20.42139291763306
 71
     1
 72
     1
  1
\fTahoma|b0|i0;\H5.0000;xxxxxx
  7
Text poznámky (ISO)
 73
     1
 44
1.0
  0
MTEXT
  5
10F
330
F2
100
AcDbEntity
  8
Značka (ISO)
100
AcDbMText
 10
-27.63552601875791
 20
2.473781856899818
 30
0.0
 40
5.0
 41
0.0
 71
     1
 72
     1
  1
\fTahoma|b0|i0;\H5.0000;xxxxxxxxxxx
  7
Text poznámky (ISO)
 73
     1
 44
1.0
  0
MTEXT
  5
110
330
F2
100
AcDbEntity
  8
Značka (ISO)
100
AcDbMText
 10
-55.52192909558073
 20
-6.862452441171491
 30
0.0
 40
5.0
 41
20.42139291763306
 71
     1
 72
     1
  1
\fTahoma|b0|i0;\H5.0000;xxxxxx
  7
Text poznámky (ISO)
 73
     1
 44
1.0
  0
MTEXT
  5
111
330
F2
100
AcDbEntity
  8
Značka (ISO)
100
AcDbMText
 10
-27.63552601875791
 20
-6.862452441171491
 30
0.0
 40
5.0
 41
0.0
 71
     1
 72
     1
  1
\fTahoma|b0|i0;\H5.0000;xxxxxxxxxxx
  7
Text poznámky (ISO)
 73
     1
 44
1.0
  0
MTEXT
  5
112
330
F2
100
AcDbEntity
  8
Značka (ISO)
100
AcDbMText
 10
-55.52192909558073
 20
-15.52177565039578
 30
0.0
 40
5.0
 41
20.42139291763306
 71
     1
 72
     1
  1
\fTahoma|b0|i0;\H5.0000;xxxxxx
  7
Text poznámky (ISO)
 73
     1
 44
1.0
  0
MTEXT
  5
113
330
F2
100
AcDbEntity
  8
Značka (ISO)
100
AcDbMText
 10
-27.63552601875791
 20
-15.52177565039578
 30
0.0
 40
5.0
 41
0.0
 71
     1
 72
     1
  1
\fTahoma|b0|i0;\H5.0000;xxxxxxxxxxx
  7
Text poznámky (ISO)
 73
     1
 44
1.0
  0
ENDBLK
  5
F4
330
F2
100
AcDbEntity
  8
0
100
AcDbBlockEnd
  0
BLOCK
  5
115
330
114
100
AcDbEntity
  8
0
100
AcDbBlockBegin
  2
Tryskat
 70
     0
 10
0.0
 20
0.0
 30
0.0
  3
Tryskat
  1

  0
MTEXT
  5
117
330
114
100
AcDbEntity
  8
Značka (ISO)
100
AcDbMText
 10
-30.20239114761352
 20
5.036920197308063
 30
0.0
 40
3.499999940395355
 41
0.0
 71
     1
 72
     1
  1
Tryskat \P( Blasted , Glasperlstrahken)
  7
Text poznámky (ISO)
 73
     2
 44
0.9878841638565063
  0
ENDBLK
  5
116
330
114
100
AcDbEntity
  8
0
100
AcDbBlockEnd
  0
BLOCK
  5
119
330
118
100
AcDbEntity
  8
0
100
AcDbBlockBegin
  2
Morit
 70
     0
 10
0.0
 20
0.0
 30
0.0
  3
Morit
  1

  0
MTEXT
  5
11B
330
118
100
AcDbEntity
  8
Značka (ISO)
100
AcDbMText
 10
-19.08124089241028
 20
5.11633675545454
 30
0.0
 40
3.499999940395355
 41
0.0
 71
     1
 72
     1
  1
Morit a pasivovat\P(Pickled, gebeitzt)
  7
Text poznámky (ISO)
 73
     2
 44
0.9878841638565063
  0
ENDBLK
  5
11A
330
118
100
AcDbEntity
  8
0
100
AcDbBlockEnd
  0
BLOCK
  5
11D
330
11C
100
AcDbEntity
  8
0
100
AcDbBlockBegin
  2
zinkovat
 70
     0
 10
0.0
 20
0.0
 30
0.0
  3
zinkovat
  1

  0
MTEXT
  5
11F
330
11C
100
AcDbEntity
  8
Značka (ISO)
100
AcDbMText
 10
-27.74189710617065
 20
5.049683563411233
 30
0.0
 40
3.499999940395355
 41
0.0
 71
     1
 72
     1
  1
Zarove zinkovat\P(hot galvanized, verzinkt )
  7
Text poznámky (ISO)
 73
     2
 44
0.9878841638565063
  0
ENDBLK
  5
11E
330
11C
100
AcDbEntity
  8
0
100
AcDbBlockEnd
  0
BLOCK
  5
121
330
120
100
AcDbEntity
  8
0
100
AcDbBlockBegin
  2
Nater
 70
     0
 10
0.0
 20
0.0
 30
0.0
  3
Nater
  1

  0
MTEXT
  5
123
330
120
100
AcDbEntity
  8
Značka (ISO)
100
AcDbMText
 10
-25.88411808013916
 20
1.864870421122757
 30
0.0
 40
3.499999940395355
 41
0.0
 71
     1
 72
     1
  1
Lackiert Farbe RAL 5002
  7
Text poznámky (ISO)
 73
     1
 44
1.0
  0
ENDBLK
  5
122
330
120
100
AcDbEntity
  8
0
100
AcDbBlockEnd
  0
BLOCK
  5
125
330
124
100
AcDbEntity
  8
0
100
AcDbBlockBegin
  2
Brus
 70
     0
 10
0.0
 20
0.0
 30
0.0
  3
Brus
  1

  0
MTEXT
  5
127
330
124
100
AcDbEntity
  8
Značka (ISO)
100
AcDbMText
 10
-23.46616744995117
 20
5.11633675545454
 30
0.0
 40
3.499999940395355
 41
0.0
 71
     1
 72
     1
  1
Brousit\P(geburstet , brushed )
  7
Text poznámky (ISO)
 73
     2
 44
0.9878841638565063
  0
ENDBLK
  5
126
330
124
100
AcDbEntity
  8
0
100
AcDbBlockEnd
  0
BLOCK
  5
129
330
128
100
AcDbEntity
  8
0
100
AcDbBlockBegin
  2
Elektroliticky lestit
 70
     0
 10
0.0
 20
0.0
 30
0.0
  3
Elektroliticky lestit
  1

  0
MTEXT
  5
12B
330
128
100
AcDbEntity
  8
Značka (ISO)
100
AcDbMText
 10
-18.68841171264648
 20
5.036920197308063
 30
0.0
 40
3.499999940395355
 41
0.0
 71
     1
 72
     1
  1
Elektrolit. lestit\P(Elektropolished )
  7
Text poznámky (ISO)
 73
     2
 44
0.9878841638565063
  0
ENDBLK
  5
12A
330
128
100
AcDbEntity
  8
0
100
AcDbBlockEnd
  0
BLOCK
  5
12D
330
12C
100
AcDbEntity
  8
0
100
AcDbBlockBegin
  2
Mořit de.
 70
     0
 10
0.0
 20
0.0
 30
0.0
  3
Mořit de.
  1

  0
MTEXT
  5
12F
102
{ACAD_XDICTIONARY
360
1738
102
}
330
12C
100
AcDbEntity
  8
Značka (ISO)
100
AcDbMText
 10
-21.33184909820557
 20
4.448386959265915
 30
0.0
 40
3.499999940395355
 41
0.0
 71
     1
 72
     1
  1
Mo\U+0159it a opl\U+00E1chnout\PBeizen und Pasiviert
  7
Text poznámky (ISO)
 73
     2
 44
0.9878841638565063
  0
ENDBLK
  5
12E
330
12C
100
AcDbEntity
  8
0
100
AcDbBlockEnd
  0
BLOCK
  5
131
330
130
100
AcDbEntity
  8
0
100
AcDbBlockBegin
  2
Žlab bez spádu De.
 70
     0
 10
0.0
 20
0.0
 30
0.0
  3
Žlab bez spádu De.
  1

  0
MTEXT
  5
133
102
{ACAD_XDICTIONARY
360
173A
102
}
330
130
100
AcDbEntity
  8
Značka (ISO)
100
AcDbMText
 10
-20.81989526748657
 20
4.01017793221399
 30
0.0
 40
3.499999940395355
 41
0.0
 71
     1
 72
     1
  1
\U+017Dlab bez sp\U+00E1du!\PRinne ohne Gef\U+00E4lle!
  7
Text poznámky (ISO)
 73
     2
 44
0.9878841638565063
  0
ENDBLK
  5
132
330
130
100
AcDbEntity
  8
0
100
AcDbBlockEnd
  0
BLOCK
  5
135
330
134
100
AcDbEntity
  8
0
100
AcDbBlockBegin
  2
Žlab bez spádu Ang.
 70
     0
 10
0.0
 20
0.0
 30
0.0
  3
Žlab bez spádu Ang.
  1

  0
MTEXT
  5
137
102
{ACAD_XDICTIONARY
360
173C
102
}
330
134
100
AcDbEntity
  8
Značka (ISO)
100
AcDbMText
 10
-24.31422233581541
 20
4.456895925104618
 30
0.0
 40
3.499999940395355
 41
0.0
 71
     1
 72
     1
  1
\U+017Dlab bez sp\U+00E1du!\PChannel without slope!
  7
Text poznámky (ISO)
 73
     2
 44
0.9878841638565063
  0
ENDBLK
  5
136
330
134
100
AcDbEntity
  8
0
100
AcDbBlockEnd
  0
BLOCK
  5
139
330
138
100
AcDbEntity
  8
0
100
AcDbBlockBegin
  2
Aschl Nirotec-tryskání
 70
     0
 10
0.0
 20
0.0
 30
0.0
  3
Aschl Nirotec-tryskání
  1

  0
MTEXT
  5
13B
102
{ACAD_XDICTIONARY
360
173E
102
}
330
138
100
AcDbEntity
  8
Značka (ISO)
100
AcDbMText
 10
-58.85332584381103
 20
10.67052584141493
 30
0.0
 40
3.499999940395355
 41
0.0
 71
     1
 72
     1
  1
Povrchov\U+00E1 \U+00FAprava/Oberfl\U+00E4che:\PTryskat pouze vnit\U+0159ek \U+017Elabu, v\U+010Detn\U+011B pohledov\U+00FDch ploch!\PP\U+0159\U+00EDruby proti trysk\U+00E1n\U+00ED chr\U+00E1nit!\PFlansches per strahlung beh\U+00FCtent!
  7
Text poznámky (ISO)
 73
     2
 44
0.9878841638565063
  0
ENDBLK
  5
13A
330
138
100
AcDbEntity
  8
0
100
AcDbBlockEnd
  0
BLOCK
  5
13D
330
13C
100
AcDbEntity
  8
0
100
AcDbBlockBegin
  2
Popis šrouby_kotvy Ang.
 70
     0
 10
0.0
 20
0.0
 30
0.0
  3
Popis šrouby_kotvy Ang.
  1

  0
MTEXT
  5
13F
102
{ACAD_XDICTIONARY
360
1740
102
}
330
13C
100
AcDbEntity
  8
Značka (ISO)
100
AcDbMText
 10
-62.9617118835449
 20
22.19584088772535
 30
0.0
 40
3.499999940395355
 41
0.0
 71
     1
 72
     1
  3
Vzd\U+00E1lenost nivela\U+010Dn\U+00EDch \U+0161roubu ca. 1500mm.\PVzd\U+00E1lenost kotev ca. 400mm.\PPohledov\U+00E9 plochy brousit(vel.brusn\U+00FDch zrn 240)\Pa polepit p\U+00E1skou.\P\PDistance of leveling feets ca. 1500 mm.\PDistance of fixing t
  1
angs ca. 400 mm.\PVisible surfaces to be grinded and covered by protectiv foil.
  7
Text poznámky (ISO)
 73
     2
 44
0.9878841638565063
  0
ENDBLK
  5
13E
330
13C
100
AcDbEntity
  8
0
100
AcDbBlockEnd
  0
BLOCK
  5
141
330
140
100
AcDbEntity
  8
0
100
AcDbBlockBegin
  2
Spád žlabu Ang.
 70
     0
 10
0.0
 20
0.0
 30
0.0
  3
Spád žlabu Ang.
  1

  0
MTEXT
  5
143
102
{ACAD_XDICTIONARY
360
1742
102
}
330
140
100
AcDbEntity
  8
Značka (ISO)
100
AcDbMText
 10
-61.18476867675779
 20
16.15664371056482
 30
0.0
 40
3.499999940395355
 41
0.0
 71
     1
 72
     1
  1
POZOR:\PSp\U+00E1d \U+017Elabu je men\U+0161\U+00ED ne\U+017E 1% - nebezpe\U+010D\U+00ED vzniku prohlubn\U+00ED\Pse stojatou vodou.\PAUTENTION:\PThe gradient of the bottom is minor then 1%.\PThat can be reason of slack water.
  7
Text poznámky (ISO)
 73
     2
 44
0.9878841638565063
  0
ENDBLK
  5
142
330
140
100
AcDbEntity
  8
0
100
AcDbBlockEnd
  0
BLOCK
  5
145
330
144
100
AcDbEntity
  8
0
100
AcDbBlockBegin
  2
Spád žlabu De.
 70
     0
 10
0.0
 20
0.0
 30
0.0
  3
Spád žlabu De.
  1

  0
MTEXT
  5
147
102
{ACAD_XDICTIONARY
360
1744
102
}
330
144
100
AcDbEntity
  8
Značka (ISO)
100
AcDbMText
 10
-61.18476867675779
 20
16.61612506955862
 30
0.0
 40
3.499999940395355
 41
0.0
 71
     1
 72
     1
  1
POZOR:\PSp\U+00E1d \U+017Elabu je men\U+0161\U+00ED ne\U+017E 1% - nebezpe\U+010D\U+00ED vzniku prohlubn\U+00ED\Pse stojatou vodou.\PACHTUNG:\PDas Bodengef\U+00E4lle ist kleiner als 1%. Das Gefahr der\PSenkungsentstehung mit dem stehenden Wasser.
  7
Text poznámky (ISO)
 73
     2
 44
0.9878841638565063
  0
ENDBLK
  5
146
330
144
100
AcDbEntity
  8
0
100
AcDbBlockEnd
  0
BLOCK
  5
149
330
148
100
AcDbEntity
  8
0
100
AcDbBlockBegin
  2
Kartáč + folie
 70
     0
 10
0.0
 20
0.0
 30
0.0
  3
Kartáč + folie
  1

  0
MTEXT
  5
14B
102
{ACAD_XDICTIONARY
360
1746
102
}
330
148
100
AcDbEntity
  8
Značka (ISO)
100
AcDbMText
 10
-39.86001014709473
 20
4.448386959265915
 30
0.0
 40
3.499999940395355
 41
0.0
 71
     1
 72
     1
  1
Kart\U+00E1\U+010Dov\U+00E1no + folie\PGeburstet mit abziehbarer Schutzfolie
  7
Text poznámky (ISO)
 73
     2
 44
0.9878841638565063
  0
ENDBLK
  5
14A
330
148
100
AcDbEntity
  8
0
100
AcDbBlockEnd
  0
BLOCK
  5
14D
330
14C
100
AcDbEntity
  8
0
100
AcDbBlockBegin
  2
Komplet tryskat De.
 70
     0
 10
0.0
 20
0.0
 30
0.0
  3
Komplet tryskat De.
  1

  0
MTEXT
  5
14F
330
14C
100
AcDbEntity
  8
Značka (ISO)
100
AcDbMText
 10
-37.33711719512939
 20
7.475785464048382
 30
0.0
 40
3.499999940395355
 41
0.0
 71
     1
 72
     1
  1
KOMPLETT GLASPER GESTRAHLT !\PKOMPLET ZHORA TRYSKAT ! \P
  7
Text poznámky (ISO)
 73
     2
 44
0.9878841638565063
  0
ENDBLK
  5
14E
330
14C
100
AcDbEntity
  8
0
100
AcDbBlockEnd
  0
BLOCK
  5
151
330
150
100
AcDbEntity
  8
0
100
AcDbBlockBegin
  2
Mořit Ang.
 70
     0
 10
0.0
 20
0.0
 30
0.0
  3
Mořit Ang.
  1

  0
MTEXT
  5
153
102
{ACAD_XDICTIONARY
360
1748
102
}
330
150
100
AcDbEntity
  8
Značka (ISO)
100
AcDbMText
 10
-19.84846115112304
 20
4.448386959265915
 30
0.0
 40
3.499999940395355
 41
0.0
 71
     1
 72
     1
  1
Mo\U+0159it a opl\U+00E1chnout\PPickled and wash
  7
Text poznámky (ISO)
 73
     2
 44
0.9878841638565063
  0
ENDBLK
  5
152
330
150
100
AcDbEntity
  8
0
100
AcDbBlockEnd
  0
BLOCK
  5
155
330
154
100
AcDbEntity
  8
0
100
AcDbBlockBegin
  2
Rámečky Default Border
 70
     0
 10
0.0
 20
0.0
 30
0.0
  3
Rámečky Default Border
  1

  0
POLYLINE
  5
157
330
154
100
AcDbEntity
  8
Rámeček (ISO)
100
AcDb2dPolyline
 66
     1
 10
0.0
 20
0.0
 30
0.0
 70
   128
  0
VERTEX
  5
158
330
157
100
AcDbEntity
  8
Rámeček (ISO)
100
AcDbVertex
100
AcDb2dVertex
 10
10.0
 20
10.0
 30
0.0
  0
VERTEX
  5
159
330
157
100
AcDbEntity
  8
Rámeček (ISO)
100
AcDbVertex
100
AcDb2dVertex
 10
10.0
 20
410.0
 30
0.0
  0
VERTEX
  5
15B
330
157
100
AcDbEntity
  8
Rámeček (ISO)
100
AcDbVertex
100
AcDb2dVertex
 10
584.0000152587889
 20
410.0
 30
0.0
  0
VERTEX
  5
15C
330
157
100
AcDbEntity
  8
Rámeček (ISO)
100
AcDbVertex
100
AcDb2dVertex
 10
584.0000152587889
 20
10.0
 30
0.0
  0
VERTEX
  5
15D
330
157
100
AcDbEntity
  8
Rámeček (ISO)
100
AcDbVertex
100
AcDb2dVertex
 10
10.0
 20
10.0
 30
0.0
  0
SEQEND
  5
15A
330
157
100
AcDbEntity
  8
Rámeček (ISO)
  0
POLYLINE
  5
15E
330
154
100
AcDbEntity
  8
Rámeček (ISO)
100
AcDb2dPolyline
 66
     1
 10
0.0
 20
0.0
 30
0.0
 70
   128
  0
VERTEX
  5
15F
330
15E
100
AcDbEntity
  8
Rámeček (ISO)
100
AcDbVertex
100
AcDb2dVertex
 10
297.0000076293946
 20
0.0
 30
0.0
  0
VERTEX
  5
160
330
15E
100
AcDbEntity
  8
Rámeček (ISO)
100
AcDbVertex
100
AcDb2dVertex
 10
297.0000076293946
 20
10.0
 30
0.0
  0
VERTEX
  5
162
330
15E
100
AcDbEntity
  8
Rámeček (ISO)
100
AcDbVertex
100
AcDb2dVertex
 10
294.1132545471191
 20
5.0
 30
0.0
  0
VERTEX
  5
163
330
15E
100
AcDbEntity
  8
Rámeček (ISO)
100
AcDbVertex
100
AcDb2dVertex
 10
299.8867607116699
 20
5.0
 30
0.0
  0
VERTEX
  5
164
330
15E
100
AcDbEntity
  8
Rámeček (ISO)
100
AcDbVertex
100
AcDb2dVertex
 10
297.0000076293946
 20
10.0
 30
0.0
  0
SEQEND
  5
161
330
15E
100
AcDbEntity
  8
Rámeček (ISO)
  0
POLYLINE
  5
165
330
154
100
AcDbEntity
  8
Rámeček (ISO)
100
AcDb2dPolyline
 66
     1
 10
0.0
 20
0.0
 30
0.0
 70
   128
  0
VERTEX
  5
166
330
165
100
AcDbEntity
  8
Rámeček (ISO)
100
AcDbVertex
100
AcDb2dVertex
 10
297.0000076293946
 20
420.0
 30
0.0
  0
VERTEX
  5
167
330
165
100
AcDbEntity
  8
Rámeček (ISO)
100
AcDbVertex
100
AcDb2dVertex
 10
297.0000076293946
 20
410.0
 30
0.0
  0
VERTEX
  5
169
330
165
100
AcDbEntity
  8
Rámeček (ISO)
100
AcDbVertex
100
AcDb2dVertex
 10
294.1132545471191
 20
415.0
 30
0.0
  0
VERTEX
  5
16A
330
165
100
AcDbEntity
  8
Rámeček (ISO)
100
AcDbVertex
100
AcDb2dVertex
 10
299.8867607116699
 20
415.0
 30
0.0
  0
VERTEX
  5
16B
330
165
100
AcDbEntity
  8
Rámeček (ISO)
100
AcDbVertex
100
AcDb2dVertex
 10
297.0000076293946
 20
410.0
 30
0.0
  0
SEQEND
  5
168
330
165
100
AcDbEntity
  8
Rámeček (ISO)
  0
POLYLINE
  5
16C
330
154
100
AcDbEntity
  8
Rámeček (ISO)
100
AcDb2dPolyline
 66
     1
 10
0.0
 20
0.0
 30
0.0
 70
   128
  0
VERTEX
  5
16D
330
16C
100
AcDbEntity
  8
Rámeček (ISO)
100
AcDbVertex
100
AcDb2dVertex
 10
0.0
 20
210.0
 30
0.0
  0
VERTEX
  5
16E
330
16C
100
AcDbEntity
  8
Rámeček (ISO)
100
AcDbVertex
100
AcDb2dVertex
 10
10.0
 20
210.0
 30
0.0
  0
VERTEX
  5
170
330
16C
100
AcDbEntity
  8
Rámeček (ISO)
100
AcDbVertex
100
AcDb2dVertex
 10
5.0
 20
212.8867530822754
 30
0.0
  0
VERTEX
  5
171
330
16C
100
AcDbEntity
  8
Rámeček (ISO)
100
AcDbVertex
100
AcDb2dVertex
 10
5.0
 20
207.1132469177246
 30
0.0
  0
VERTEX
  5
172
330
16C
100
AcDbEntity
  8
Rámeček (ISO)
100
AcDbVertex
100
AcDb2dVertex
 10
10.0
 20
210.0
 30
0.0
  0
SEQEND
  5
16F
330
16C
100
AcDbEntity
  8
Rámeček (ISO)
  0
POLYLINE
  5
173
330
154
100
AcDbEntity
  8
Rámeček (ISO)
100
AcDb2dPolyline
 66
     1
 10
0.0
 20
0.0
 30
0.0
 70
   128
  0
VERTEX
  5
174
330
173
100
AcDbEntity
  8
Rámeček (ISO)
100
AcDbVertex
100
AcDb2dVertex
 10
594.0000152587892
 20
210.0
 30
0.0
  0
VERTEX
  5
175
330
173
100
AcDbEntity
  8
Rámeček (ISO)
100
AcDbVertex
100
AcDb2dVertex
 10
584.0000152587889
 20
210.0
 30
0.0
  0
VERTEX
  5
177
330
173
100
AcDbEntity
  8
Rámeček (ISO)
100
AcDbVertex
100
AcDb2dVertex
 10
589.0000152587889
 20
212.8867530822754
 30
0.0
  0
VERTEX
  5
178
330
173
100
AcDbEntity
  8
Rámeček (ISO)
100
AcDbVertex
100
AcDb2dVertex
 10
589.0000152587889
 20
207.1132469177246
 30
0.0
  0
VERTEX
  5
179
330
173
100
AcDbEntity
  8
Rámeček (ISO)
100
AcDbVertex
100
AcDb2dVertex
 10
584.0000152587889
 20
210.0
 30
0.0
  0
SEQEND
  5
176
330
173
100
AcDbEntity
  8
Rámeček (ISO)
  0
LINE
  5
17A
330
154
100
AcDbEntity
  8
Rámeček (ISO)
100
AcDbLine
 10
74.25000190734862
 20
10.0
 30
0.0
 11
74.25000190734862
 21
6.100000143051147
 31
0.0
  0
LINE
  5
17B
330
154
100
AcDbEntity
  8
Rámeček (ISO)
100
AcDbLine
 10
74.25000190734862
 20
410.0
 30
0.0
 11
74.25000190734862
 21
413.8999938964841
 31
0.0
  0
LINE
  5
17C
330
154
100
AcDbEntity
  8
Rámeček (ISO)
100
AcDbLine
 10
148.5000038146973
 20
10.0
 30
0.0
 11
148.5000038146973
 21
6.100000143051147
 31
0.0
  0
LINE
  5
17D
330
154
100
AcDbEntity
  8
Rámeček (ISO)
100
AcDbLine
 10
148.5000038146973
 20
410.0
 30
0.0
 11
148.5000038146973
 21
413.8999938964841
 31
0.0
  0
LINE
  5
17E
330
154
100
AcDbEntity
  8
Rámeček (ISO)
100
AcDbLine
 10
222.7499961853027
 20
10.0
 30
0.0
 11
222.7499961853027
 21
6.100000143051147
 31
0.0
  0
LINE
  5
17F
330
154
100
AcDbEntity
  8
Rámeček (ISO)
100
AcDbLine
 10
222.7499961853027
 20
410.0
 30
0.0
 11
222.7499961853027
 21
413.8999938964841
 31
0.0
  0
LINE
  5
180
330
154
100
AcDbEntity
  8
Rámeček (ISO)
100
AcDbLine
 10
371.25
 20
10.0
 30
0.0
 11
371.25
 21
6.100000143051147
 31
0.0
  0
LINE
  5
181
330
154
100
AcDbEntity
  8
Rámeček (ISO)
100
AcDbLine
 10
371.25
 20
410.0
 30
0.0
 11
371.25
 21
413.8999938964841
 31
0.0
  0
LINE
  5
182
330
154
100
AcDbEntity
  8
Rámeček (ISO)
100
AcDbLine
 10
445.4999923706052
 20
10.0
 30
0.0
 11
445.4999923706052
 21
6.100000143051147
 31
0.0
  0
LINE
  5
183
330
154
100
AcDbEntity
  8
Rámeček (ISO)
100
AcDbLine
 10
445.4999923706052
 20
410.0
 30
0.0
 11
445.4999923706052
 21
413.8999938964841
 31
0.0
  0
LINE
  5
184
330
154
100
AcDbEntity
  8
Rámeček (ISO)
100
AcDbLine
 10
519.7499847412108
 20
10.0
 30
0.0
 11
519.7499847412108
 21
6.100000143051147
 31
0.0
  0
LINE
  5
185
330
154
100
AcDbEntity
  8
Rámeček (ISO)
100
AcDbLine
 10
519.7499847412108
 20
410.0
 30
0.0
 11
519.7499847412108
 21
413.8999938964841
 31
0.0
  0
MTEXT
  5
186
330
154
100
AcDbEntity
  8
Rámeček (ISO)
100
AcDbMText
 10
556.0853922448459
 20
410.4
 30
0.0
 40
3.499999940395355
 41
0.0
 71
     7
 72
     1
  1
1
  7
Text poznámky (ISO)
 73
     1
 44
1.0
  0
MTEXT
  5
187
330
154
100
AcDbEntity
  8
Rámeček (ISO)
100
AcDbMText
 10
556.0853922448459
 20
6.100000059604642
 30
0.0
 40
3.499999940395355
 41
0.0
 71
     7
 72
     1
  1
1
  7
Text poznámky (ISO)
 73
     1
 44
1.0
  0
MTEXT
  5
188
330
154
100
AcDbEntity
  8
Rámeček (ISO)
100
AcDbMText
 10
481.5637915541735
 20
410.4
 30
0.0
 40
3.499999940395355
 41
0.0
 71
     7
 72
     1
  1
2
  7
Text poznámky (ISO)
 73
     1
 44
1.0
  0
MTEXT
  5
189
330
154
100
AcDbEntity
  8
Rámeček (ISO)
100
AcDbMText
 10
481.5637915541735
 20
6.100000059604642
 30
0.0
 40
3.499999940395355
 41
0.0
 71
     7
 72
     1
  1
2
  7
Text poznámky (ISO)
 73
     1
 44
1.0
  0
MTEXT
  5
18A
330
154
100
AcDbEntity
  8
Rámeček (ISO)
100
AcDbMText
 10
407.2857914829701
 20
410.3262560764327
 30
0.0
 40
3.499999940395355
 41
0.0
 71
     7
 72
     1
  1
3
  7
Text poznámky (ISO)
 73
     1
 44
1.0
  0
MTEXT
  5
18B
330
154
100
AcDbEntity
  8
Rámeček (ISO)
100
AcDbMText
 10
407.2857914829701
 20
6.026256136037407
 30
0.0
 40
3.499999940395355
 41
0.0
 71
     7
 72
     1
  1
3
  7
Text poznámky (ISO)
 73
     1
 44
1.0
  0
MTEXT
  5
18C
330
154
100
AcDbEntity
  8
Rámeček (ISO)
100
AcDbMText
 10
332.9041911483145
 20
410.4
 30
0.0
 40
3.499999940395355
 41
0.0
 71
     7
 72
     1
  1
4
  7
Text poznámky (ISO)
 73
     1
 44
1.0
  0
MTEXT
  5
18D
330
154
100
AcDbEntity
  8
Rámeček (ISO)
100
AcDbMText
 10
332.9041911483145
 20
6.100000059604642
 30
0.0
 40
3.499999940395355
 41
0.0
 71
     7
 72
     1
  1
4
  7
Text poznámky (ISO)
 73
     1
 44
1.0
  0
MTEXT
  5
18E
330
154
100
AcDbEntity
  8
Rámeček (ISO)
100
AcDbMText
 10
258.8501916467381
 20
410.3262560764327
 30
0.0
 40
3.499999940395355
 41
0.0
 71
     7
 72
     1
  1
5
  7
Text poznámky (ISO)
 73
     1
 44
1.0
  0
MTEXT
  5
18F
330
154
100
AcDbEntity
  8
Rámeček (ISO)
100
AcDbMText
 10
258.8501916467381
 20
6.026256136037407
 30
0.0
 40
3.499999940395355
 41
0.0
 71
     7
 72
     1
  1
5
  7
Text poznámky (ISO)
 73
     1
 44
1.0
  0
MTEXT
  5
190
330
154
100
AcDbEntity
  8
Rámeček (ISO)
100
AcDbMText
 10
184.5077914117669
 20
410.3262560764327
 30
0.0
 40
3.499999940395355
 41
0.0
 71
     7
 72
     1
  1
6
  7
Text poznámky (ISO)
 73
     1
 44
1.0
  0
MTEXT
  5
191
330
154
100
AcDbEntity
  8
Rámeček (ISO)
100
AcDbMText
 10
184.5077914117669
 20
6.026256136037407
 30
0.0
 40
3.499999940395355
 41
0.0
 71
     7
 72
     1
  1
6
  7
Text poznámky (ISO)
 73
     1
 44
1.0
  0
MTEXT
  5
192
330
154
100
AcDbEntity
  8
Rámeček (ISO)
100
AcDbMText
 10
110.2913914972109
 20
410.4
 30
0.0
 40
3.499999940395355
 41
0.0
 71
     7
 72
     1
  1
7
  7
Text poznámky (ISO)
 73
     1
 44
1.0
  0
MTEXT
  5
193
330
154
100
AcDbEntity
  8
Rámeček (ISO)
100
AcDbMText
 10
110.2913914972109
 20
6.100000059604642
 30
0.0
 40
3.499999940395355
 41
0.0
 71
     7
 72
     1
  1
7
  7
Text poznámky (ISO)
 73
     1
 44
1.0
  0
MTEXT
  5
194
330
154
100
AcDbEntity
  8
Rámeček (ISO)
100
AcDbMText
 10
35.9825913476839
 20
410.3205834697932
 30
0.0
 40
3.499999940395355
 41
0.0
 71
     7
 72
     1
  1
8
  7
Text poznámky (ISO)
 73
     1
 44
1.0
  0
MTEXT
  5
195
330
154
100
AcDbEntity
  8
Rámeček (ISO)
100
AcDbMText
 10
35.9825913476839
 20
6.020583529397844
 30
0.0
 40
3.499999940395355
 41
0.0
 71
     7
 72
     1
  1
8
  7
Text poznámky (ISO)
 73
     1
 44
1.0
  0
LINE
  5
196
330
154
100
AcDbEntity
  8
Rámeček (ISO)
100
AcDbLine
 10
10.0
 20
70.0
 30
0.0
 11
6.100000143051147
 21
70.0
 31
0.0
  0
LINE
  5
197
330
154
100
AcDbEntity
  8
Rámeček (ISO)
100
AcDbLine
 10
584.0000152587889
 20
70.0
 30
0.0
 11
587.9000091552732
 21
70.0
 31
0.0
  0
LINE
  5
198
330
154
100
AcDbEntity
  8
Rámeček (ISO)
100
AcDbLine
 10
10.0
 20
140.0
 30
0.0
 11
6.100000143051147
 21
140.0
 31
0.0
  0
LINE
  5
199
330
154
100
AcDbEntity
  8
Rámeček (ISO)
100
AcDbLine
 10
584.0000152587889
 20
140.0
 30
0.0
 11
587.9000091552732
 21
140.0
 31
0.0
  0
LINE
  5
19A
330
154
100
AcDbEntity
  8
Rámeček (ISO)
100
AcDbLine
 10
10.0
 20
280.0
 30
0.0
 11
6.100000143051147
 21
280.0
 31
0.0
  0
LINE
  5
19B
330
154
100
AcDbEntity
  8
Rámeček (ISO)
100
AcDbLine
 10
584.0000152587889
 20
280.0
 30
0.0
 11
587.9000091552732
 21
280.0
 31
0.0
  0
LINE
  5
19C
330
154
100
AcDbEntity
  8
Rámeček (ISO)
100
AcDbLine
 10
10.0
 20
350.0
 30
0.0
 11
6.100000143051147
 21
350.0
 31
0.0
  0
LINE
  5
19D
330
154
100
AcDbEntity
  8
Rámeček (ISO)
100
AcDbLine
 10
584.0000152587889
 20
350.0
 30
0.0
 11
587.9000091552732
 21
350.0
 31
0.0
  0
MTEXT
  5
19E
330
154
100
AcDbEntity
  8
Rámeček (ISO)
100
AcDbMText
 10
6.361230343933396
 20
33.25000002980232
 30
0.0
 40
3.499999940395355
 41
0.0
 71
     7
 72
     1
  1
A
  7
Text poznámky (ISO)
 73
     1
 44
1.0
  0
MTEXT
  5
19F
330
154
100
AcDbEntity
  8
Rámeček (ISO)
100
AcDbMText
 10
584.6612302843287
 20
33.25000002980232
 30
0.0
 40
3.499999940395355
 41
0.0
 71
     7
 72
     1
  1
A
  7
Text poznámky (ISO)
 73
     1
 44
1.0
  0
MTEXT
  5
1A0
330
154
100
AcDbEntity
  8
Rámeček (ISO)
100
AcDbMText
 10
6.781848468328937
 20
103.2500000298023
 30
0.0
 40
3.499999940395355
 41
0.0
 71
     7
 72
     1
  1
B
  7
Text poznámky (ISO)
 73
     1
 44
1.0
  0
MTEXT
  5
1A1
330
154
100
AcDbEntity
  8
Rámeček (ISO)
100
AcDbMText
 10
585.0818484087242
 20
103.2500000298023
 30
0.0
 40
3.499999940395355
 41
0.0
 71
     7
 72
     1
  1
B
  7
Text poznámky (ISO)
 73
     1
 44
1.0
  0
MTEXT
  5
1A2
330
154
100
AcDbEntity
  8
Rámeček (ISO)
100
AcDbMText
 10
6.558903094188357
 20
173.1876013241708
 30
0.0
 40
3.499999940395355
 41
0.0
 71
     7
 72
     1
  1
C
  7
Text poznámky (ISO)
 73
     1
 44
1.0
  0
MTEXT
  5
1A3
330
154
100
AcDbEntity
  8
Rámeček (ISO)
100
AcDbMText
 10
584.8589030345837
 20
173.1876013241708
 30
0.0
 40
3.499999940395355
 41
0.0
 71
     7
 72
     1
  1
C
  7
Text poznámky (ISO)
 73
     1
 44
1.0
  0
MTEXT
  5
1A4
330
154
100
AcDbEntity
  8
Rámeček (ISO)
100
AcDbMText
 10
6.56770745709084
 20
243.2500000298023
 30
0.0
 40
3.499999940395355
 41
0.0
 71
     7
 72
     1
  1
D
  7
Text poznámky (ISO)
 73
     1
 44
1.0
  0
MTEXT
  5
1A5
330
154
100
AcDbEntity
  8
Rámeček (ISO)
100
AcDbMText
 10
584.8677073974861
 20
243.2500000298023
 30
0.0
 40
3.499999940395355
 41
0.0
 71
     7
 72
     1
  1
D
  7
Text poznámky (ISO)
 73
     1
 44
1.0
  0
MTEXT
  5
1A6
330
154
100
AcDbEntity
  8
Rámeček (ISO)
100
AcDbMText
 10
6.849919803883061
 20
313.2500000298023
 30
0.0
 40
3.499999940395355
 41
0.0
 71
     7
 72
     1
  1
E
  7
Text poznámky (ISO)
 73
     1
 44
1.0
  0
MTEXT
  5
1A7
330
154
100
AcDbEntity
  8
Rámeček (ISO)
100
AcDbMText
 10
585.1499197442782
 20
313.2500000298023
 30
0.0
 40
3.499999940395355
 41
0.0
 71
     7
 72
     1
  1
E
  7
Text poznámky (ISO)
 73
     1
 44
1.0
  0
MTEXT
  5
1A8
330
154
100
AcDbEntity
  8
Rámeček (ISO)
100
AcDbMText
 10
6.944936015154347
 20
383.2500000298023
 30
0.0
 40
3.499999940395355
 41
0.0
 71
     7
 72
     1
  1
F
  7
Text poznámky (ISO)
 73
     1
 44
1.0
  0
MTEXT
  5
1A9
330
154
100
AcDbEntity
  8
Rámeček (ISO)
100
AcDbMText
 10
585.2449359555496
 20
383.2500000298023
 30
0.0
 40
3.499999940395355
 41
0.0
 71
     7
 72
     1
  1
F
  7
Text poznámky (ISO)
 73
     1
 44
1.0
  0
ENDBLK
  5
156
330
154
100
AcDbEntity
  8
0
100
AcDbBlockEnd
  0
BLOCK
  5
1AC
330
1AB
100
AcDbEntity
  8
0
100
AcDbBlockBegin
  2
Rohová razítka ACO-razitko
 70
     2
 10
0.0
 20
0.0
 30
0.0
  3
Rohová razítka ACO-razitko
  1

  0
LINE
  5
1AE
330
1AB
100
AcDbEntity
  8
KOPF
  6
Continuous
370
    25
100
AcDbLine
 10
271.0
 20
94.01203200000002
 30
0.0
 11
271.0
 21
74.00000000000004
 31
0.0
  0
LINE
  5
1AF
330
1AB
100
AcDbEntity
  8
KOPF
  6
Continuous
370
    25
100
AcDbLine
 10
271.0
 20
94.01203200000002
 30
0.0
 11
271.0
 21
74.00000000000004
 31
0.0
  0
CIRCLE
  5
1B0
330
1AB
100
AcDbEntity
  8
TEXT50
  6
Continuous
370
    25
100
AcDbCircle
 10
228.4029491544077
 20
82.96404964998812
 30
0.0
 40
1.979948192651899
  0
LINE
  5
1B1
330
1AB
100
AcDbEntity
  8
TEXT50
  6
Continuous
370
    25
100
AcDbLine
 10
243.3885593590108
 20
84.94399784264013
 30
0.0
 11
243.3885593590108
 21
80.98410145733607
 31
0.0
  0
LINE
  5
1B2
330
1AB
100
AcDbEntity
  8
TEXT50
  6
Continuous
370
    25
100
AcDbLine
 10
234.8388431898113
 20
86.98698300161327
 30
0.0
 11
234.8388431898113
 21
78.94111629836295
 31
0.0
  0
LINE
  5
1B3
330
1AB
100
AcDbEntity
  8
TEXT50
  6
Continuous
370
    25
100
AcDbLine
 10
243.3885593590108
 20
84.94399784264013
 30
0.0
 11
234.8388431898113
 21
86.98698300161327
 31
0.0
  0
CIRCLE
  5
1B4
330
1AB
100
AcDbEntity
  8
TEXT50
  6
Continuous
370
    25
100
AcDbCircle
 10
228.4029491544077
 20
82.96404964998812
 30
0.0
 40
4.022933351625178
  0
LINE
  5
1B5
330
1AB
100
AcDbEntity
  8
TEXT50
  6
Continuous
370
    25
100
AcDbLine
 10
234.8388431898113
 20
78.94111629836295
 30
0.0
 11
243.3885593590108
 21
80.98410145733607
 31
0.0
  0
CIRCLE
  5
1B6
330
1AB
100
AcDbEntity
  8
TEXT35
  6
Continuous
370
    25
100
AcDbCircle
 10
221.0936673107637
 20
101.9131972309053
 30
0.0
 40
2.281499999999998
  0
CIRCLE
  5
1B7
330
1AB
100
AcDbEntity
  8
TEXT35
  6
Continuous
370
    25
100
AcDbCircle
 10
221.0936673107637
 20
101.9131972309053
 30
0.0
 40
1.579499999999999
  0
ARC
  5
1B8
330
1AB
100
AcDbEntity
  8
TEXT35
  6
Continuous
370
    25
100
AcDbCircle
 10
214.6291610736662
 20
101.9131972309054
 30
0.0
 40
1.57950000000007
100
AcDbArc
 50
31.05580049908738
 51
329.9999999999987
  0
LINE
  5
1B9
330
1AB
100
AcDbEntity
  8
TEXT35
  6
Continuous
370
    25
100
AcDbLine
 10
215.9822639109751
 20
102.7280180465864
 30
0.0
 11
216.5902852082589
 21
103.0790593062462
 31
0.0
  0
ARC
  5
1BA
330
1AB
100
AcDbEntity
  8
TEXT35
  6
Continuous
370
    25
100
AcDbCircle
 10
214.6291610736662
 20
101.9131972309052
 30
0.0
 40
2.281500000000015
100
AcDbArc
 50
30.73091726592628
 51
330.0000000000017
  0
LINE
  5
1BB
330
1AB
100
AcDbEntity
  8
TEXT35
  6
Continuous
370
    25
100
AcDbLine
 10
216.6049980324005
 20
100.7724472309053
 30
0.0
 11
215.9970481989438
 21
101.1234472309053
 31
0.0
  0
LINE
  5
1BC
330
1AB
100
AcDbEntity
  8
TEXT35
  6
Continuous
370
    25
100
AcDbLine
 10
211.8347763192409
 20
111.6789659312995
 30
0.0
 11
211.8347763192409
 21
98.44416361029551
 31
0.0
  0
LINE
  5
1BD
330
1AB
100
AcDbEntity
  8
TEXT35
  6
Continuous
370
    25
100
AcDbLine
 10
211.8347763192409
 20
98.44416361029551
 30
0.0
 11
217.4235458280916
 21
98.44416361029551
 31
0.0
  0
LINE
  5
1BE
330
1AB
100
AcDbEntity
  8
TEXT35
  6
Continuous
370
    25
100
AcDbLine
 10
217.4235458280916
 20
98.44416361029551
 30
0.0
 11
217.4235458280916
 21
111.6789659312995
 31
0.0
  0
LINE
  5
1BF
330
1AB
100
AcDbEntity
  8
TEXT35
  6
Continuous
370
    25
100
AcDbLine
 10
217.4235458280916
 20
111.6789659312995
 30
0.0
 11
211.8347763192409
 21
111.6789659312995
 31
0.0
  0
LINE
  5
1C0
330
1AB
100
AcDbEntity
  8
TEXT35
  6
Continuous
370
    25
100
AcDbLine
 10
223.888052065189
 20
111.6789659312995
 30
0.0
 11
223.888052065189
 21
98.44416361029551
 31
0.0
  0
LINE
  5
1C1
330
1AB
100
AcDbEntity
  8
TEXT35
  6
Continuous
370
    25
100
AcDbLine
 10
223.888052065189
 20
98.44416361029551
 30
0.0
 11
218.2992825563384
 21
98.44416361029551
 31
0.0
  0
LINE
  5
1C2
330
1AB
100
AcDbEntity
  8
TEXT35
  6
Continuous
370
    25
100
AcDbLine
 10
218.2992825563384
 20
98.44416361029551
 30
0.0
 11
218.2992825563384
 21
111.6789659312995
 31
0.0
  0
LINE
  5
1C3
330
1AB
100
AcDbEntity
  8
TEXT35
  6
Continuous
370
    25
100
AcDbLine
 10
218.2992825563384
 20
111.6789659312995
 30
0.0
 11
223.888052065189
 21
111.6789659312995
 31
0.0
  0
ARC
  5
1C4
330
1AB
100
AcDbEntity
  8
TEXT35
  6
Continuous
370
    25
100
AcDbCircle
 10
211.499154836569
 20
99.57623034270234
 30
0.0
 40
4.914000000000251
100
AcDbArc
 50
172.305837035409
 51
179.7113029220757
  0
LINE
  5
1C5
330
1AB
100
AcDbEntity
  8
TEXT35
  6
Continuous
370
    25
100
AcDbLine
 10
206.6293963427935
 20
100.2341423522474
 30
0.0
 11
209.6999133303443
 21
100.2341423522474
 31
0.0
  0
ARC
  5
1C6
330
1AB
100
AcDbEntity
  8
TEXT35
  6
Continuous
370
    25
100
AcDbCircle
 10
204.8301548365688
 20
99.57623034270323
 30
0.0
 40
4.914000000000132
100
AcDbArc
 50
0.2886970779141535
 51
7.694162964580896
  0
LINE
  5
1C7
330
1AB
100
AcDbEntity
  8
TEXT35
  6
Continuous
370
    25
100
AcDbLine
 10
209.7440924568018
 20
99.60099048123304
 30
0.0
 11
210.4461002543538
 21
99.60099048123304
 31
0.0
  0
ARC
  5
1C8
330
1AB
100
AcDbEntity
  8
TEXT35
  6
Continuous
370
    25
100
AcDbCircle
 10
204.8301548365688
 20
99.5762303427033
 30
0.0
 40
5.616000000000016
100
AcDbArc
 50
0.2526096926473688
 51
53.57642635766914
  0
ARC
  5
1C9
330
1AB
100
AcDbEntity
  8
TEXT35
  6
Continuous
370
    25
100
AcDbCircle
 10
211.4991548365688
 20
99.57623034270323
 30
0.0
 40
5.616000000000023
100
AcDbArc
 50
126.4235736423304
 51
179.7473903073512
  0
LINE
  5
1CA
330
1AB
100
AcDbEntity
  8
TEXT35
  6
Continuous
370
    25
100
AcDbLine
 10
205.8832094187838
 20
99.60099048123304
 30
0.0
 11
206.5852172163358
 21
99.60099048123304
 31
0.0
  0
LINE
  5
1CB
330
1AB
100
AcDbEntity
  8
TEXT35
  6
Continuous
370
    25
100
AcDbLine
 10
205.3702700821435
 20
111.6789659312995
 30
0.0
 11
205.3702700821435
 21
98.44416361029551
 31
0.0
  0
LINE
  5
1CC
330
1AB
100
AcDbEntity
  8
TEXT35
  6
Continuous
370
    25
100
AcDbLine
 10
205.3702700821435
 20
98.44416361029551
 30
0.0
 11
210.9590395909941
 21
98.44416361029551
 31
0.0
  0
LINE
  5
1CD
330
1AB
100
AcDbEntity
  8
TEXT35
  6
Continuous
370
    25
100
AcDbLine
 10
210.9590395909941
 20
98.44416361029551
 30
0.0
 11
210.9590395909941
 21
111.6789659312995
 31
0.0
  0
LINE
  5
1CE
330
1AB
100
AcDbEntity
  8
TEXT35
  6
Continuous
370
    25
100
AcDbLine
 10
210.9590395909941
 20
111.6789659312995
 30
0.0
 11
205.3702700821435
 21
111.6789659312995
 31
0.0
  0
ARC
  5
1CF
330
1AB
100
AcDbEntity
  8
TEXT35
  6
Continuous
370
    25
100
AcDbCircle
 10
204.830154836569
 20
99.57623034270341
 30
0.0
 40
4.913999999999818
100
AcDbArc
 50
16.0658750272321
 51
47.26788995739759
  0
LINE
  5
1D0
330
1AB
100
AcDbEntity
  8
TEXT35
  6
Continuous
370
    25
100
AcDbLine
 10
209.5522343918387
 20
100.9361423522474
 30
0.0
 11
206.7770752812989
 21
100.9361423522474
 31
0.0
  0
ARC
  5
1D1
330
1AB
100
AcDbEntity
  8
TEXT35
  6
Continuous
370
    25
100
AcDbCircle
 10
211.4991548365683
 20
99.57623034270341
 30
0.0
 40
4.913999999999566
100
AcDbArc
 50
132.7321100425983
 51
163.9341249727667
  0
LINE
  5
1D2
330
1AB
100
AcDbEntity
  8
Nadpis (ISO)
100
AcDbLine
 10
304.0
 20
114.0000000000001
 30
0.0
 11
304.0
 21
45.0
 31
0.0
  0
LINE
  5
1D3
330
1AB
100
AcDbEntity
  8
Nadpis (ISO)
100
AcDbLine
 10
304.0
 20
45.0
 30
0.0
 11
117.0
 21
44.99999999999999
 31
0.0
  0
LINE
  5
1D4
330
1AB
100
AcDbEntity
  8
Nadpis (ISO)
100
AcDbLine
 10
117.0
 20
44.99999999999999
 30
0.0
 11
117.0
 21
114.0
 31
0.0
  0
LINE
  5
1D5
330
1AB
100
AcDbEntity
  8
Nadpis (ISO)
100
AcDbLine
 10
117.0
 20
114.0
 30
0.0
 11
304.0
 21
114.0000000000001
 31
0.0
  0
LINE
  5
1D6
330
1AB
100
AcDbEntity
  8
Nadpis (ISO)
100
AcDbLine
 10
199.0
 20
114.0
 30
0.0
 11
199.0
 21
93.99999999999998
 31
0.0
  0
LINE
  5
1D7
330
1AB
100
AcDbEntity
  8
KOPF
100
AcDbLine
 10
199.0
 20
104.0
 30
0.0
 11
117.0
 21
104.0
 31
0.0
  0
LINE
  5
1D8
330
1AB
100
AcDbEntity
  8
Nadpis (ISO)
100
AcDbLine
 10
199.0
 20
93.99999999999998
 30
0.0
 11
117.0
 21
93.99999999999996
 31
0.0
  0
LINE
  5
1D9
330
1AB
100
AcDbEntity
  8
KOPF
100
AcDbLine
 10
158.0
 20
93.99999999999998
 30
0.0
 11
158.0
 21
114.0
 31
0.0
  0
LINE
  5
1DA
330
1AB
100
AcDbEntity
  8
Nadpis (ISO)
100
AcDbLine
 10
199.0
 20
93.99999999999998
 30
0.0
 11
304.0
 21
94.00000000000003
 31
0.0
  0
LINE
  5
1DB
330
1AB
100
AcDbEntity
  8
Nadpis (ISO)
100
AcDbLine
 10
223.0
 20
94.00000000000003
 30
0.0
 11
223.0
 21
44.99999999999999
 31
0.0
  0
LINE
  5
1DC
330
1AB
100
AcDbEntity
  8
Nadpis (ISO)
100
AcDbLine
 10
304.0
 20
74.00000000000004
 30
0.0
 11
117.0
 21
73.99999999999998
 31
0.0
  0
LINE
  5
1DD
330
1AB
100
AcDbEntity
  8
Nadpis (ISO)
100
AcDbLine
 10
186.0
 20
94.0
 30
0.0
 11
186.0
 21
74.00000000000002
 31
0.0
  0
LINE
  5
1DE
330
1AB
100
AcDbEntity
  8
KOPF
100
AcDbLine
 10
144.0
 20
93.99999999999996
 30
0.0
 11
144.0
 21
74.00000000000004
 31
0.0
  0
LINE
  5
1DF
330
1AB
100
AcDbEntity
  8
KOPF
100
AcDbLine
 10
169.0
 20
93.99999999999996
 30
0.0
 11
169.0
 21
74.00000000000004
 31
0.0
  0
LINE
  5
1E0
330
1AB
100
AcDbEntity
  8
KOPF
100
AcDbLine
 10
186.0
 20
84.0
 30
0.0
 11
117.0
 21
83.99999999999996
 31
0.0
  0
LINE
  5
1E1
330
1AB
100
AcDbEntity
  8
KOPF
100
AcDbLine
 10
186.0
 20
79.0
 30
0.0
 11
117.0
 21
78.99999999999997
 31
0.0
  0
LINE
  5
1E2
330
1AB
100
AcDbEntity
  8
KOPF
100
AcDbLine
 10
186.0
 20
89.0
 30
0.0
 11
117.0
 21
88.99999999999996
 31
0.0
  0
LINE
  5
1E3
330
1AB
100
AcDbEntity
  8
KOPF
100
AcDbLine
 10
223.0
 20
49.99999999999996
 30
0.0
 11
304.0
 21
50.00000000000003
 31
0.0
  0
LINE
  5
1E4
330
1AB
100
AcDbEntity
  8
KOPF
100
AcDbLine
 10
245.0
 20
94.00000000000003
 30
0.0
 11
245.0
 21
74.00000000000004
 31
0.0
  0
LINE
  5
1E5
330
1AB
100
AcDbEntity
  8
Nadpis (ISO)
100
AcDbLine
 10
292.0
 20
74.00000000000004
 30
0.0
 11
292.0
 21
50.00000000000007
 31
0.0
  0
LINE
  5
1E6
330
1AB
100
AcDbEntity
  8
KOPF
100
AcDbLine
 10
292.0
 20
50.0
 30
0.0
 11
292.0
 21
45.0
 31
0.0
  0
LINE
  5
1E7
330
1AB
100
AcDbEntity
  8
Nadpis (ISO)
100
AcDbLine
 10
260.9160465310349
 20
50.0
 30
0.0
 11
260.9160465310349
 21
45.0
 31
0.0
  0
TEXT
  5
1E9
330
1AB
100
AcDbEntity
  8
Viditelná tenká (ISO)
100
AcDbText
 10
273.0
 20
84.97994933403731
 30
0.0
 40
1.539999991655349
  1
zum Zweck anderweitiger Benutzung
 41
0.7999999523162842
  7
Styl textu62
100
AcDbText
  0
TEXT
  5
1EB
330
1AB
100
AcDbEntity
  8
Viditelná tenká (ISO)
100
AcDbText
 10
273.0
 20
82.63814072439636
 30
0.0
 40
1.539999991655349
  1
mitgeteilt werden und bleibt unser
 41
0.7999999523162842
  7
Styl textu62
100
AcDbText
  0
TEXT
  5
1EC
330
1AB
100
AcDbEntity
  8
Viditelná tenká (ISO)
100
AcDbText
 10
273.0
 20
87.26106040199923
 30
0.0
 40
1.539999991655349
  1
noch dritten Personen, insbesondere
 41
0.7999999523162842
  7
Styl textu62
100
AcDbText
  0
TEXT
  5
1ED
330
1AB
100
AcDbEntity
  8
Viditelná tenká (ISO)
100
AcDbText
 10
273.0
 20
89.62823225872142
 30
0.0
 40
1.539999991655349
  1
Diese Zeichnung darf weder kopiert
 41
0.7999999523162842
  7
Styl textu62
100
AcDbText
  0
TEXT
  5
1EE
330
1AB
100
AcDbEntity
  8
Viditelná tenká (ISO)
100
AcDbText
 10
273.0
 20
80.37532604459601
 30
0.0
 40
1.539999991655349
  1
Eigentum.
 41
0.7999999523162842
  7
Styl textu62
100
AcDbText
  0
TEXT
  5
1F0
330
1AB
100
AcDbEntity
  8
Viditelná tenká (ISO)
100
AcDbText
 10
223.6386390092129
 20
91.29914147596016
 30
0.0
 40
2.000000029802321
  1
Projektion: ISO-E
 41
0.7999999523162842
  7
Styl textu58
100
AcDbText
  0
TEXT
  5
1F2
330
1AB
100
AcDbEntity
  8
Viditelná tenká (ISO)
100
AcDbText
 10
273.0
 20
77.30982488917629
 30
0.0
 40
1.539999991655349
  1
Schutzvermerk nach DIN 34 beachten
 41
0.75
  7
Styl textu63
100
AcDbText
  0
TEXT
  5
1F3
330
1AB
100
AcDbEntity
  8
Viditelná tenká (ISO)
100
AcDbText
 10
236.2487793316645
 20
99.38243367792949
 30
0.0
 40
2.000000029802321
  1
582 22 Přibyslav; CZ
 41
0.7999999523162842
  7
Styl textu58
100
AcDbText
  0
TEXT
  5
1F4
330
1AB
100
AcDbEntity
  8
Viditelná tenká (ISO)
100
AcDbText
 10
236.5351154208068
 20
103.0087314099309
 30
0.0
 40
2.000000029802321
  1
Havlíčkova 260
 41
0.7999999523162842
  7
Styl textu58
100
AcDbText
  0
TEXT
  5
1F6
330
1AB
100
AcDbEntity
  8
TEXT35
100
AcDbText
 10
235.9801354774567
 20
108.2018007493417
 30
0.0
 40
3.000000119209288
  1
ACO Industries k.s.
 41
0.7999999523162842
  7
Styl textu75
100
AcDbText
  0
TEXT
  5
1F8
330
1AB
100
AcDbEntity
  8
Viditelná tenká (ISO)
100
AcDbText
 10
261.6456899832647
 20
102.9064533471121
 30
0.0
 40
2.099999934434889
  1
Tel.: +420 569 491 111
 41
0.7000000476837159
  7
Styl textu72
100
AcDbText
  0
MTEXT
  5
1F9
330
1AB
100
AcDbEntity
  8
Viditelná tenká (ISO)
100
AcDbMText
 10
223.7412519286358
 20
73.27889989032858
 30
0.0
 40
2.000000029802321
 41
34.87667701558774
 71
     1
 72
     1
  1
\fArial|b0|i0;\H2.0000;Zeichnung Nr.\fTahoma|b0|i0;\H2.0000;/Drawing No:
  7
Text poznámky (ISO)
 73
     1
 44
1.0
  0
MTEXT
  5
1FA
330
1AB
100
AcDbEntity
  8
Viditelná tenká (ISO)
100
AcDbMText
 10
292.8014921014588
 20
72.84063462326732
 30
0.0
 40
2.000000029802321
 41
7.016185171142836
 71
     1
 72
     1
  1
\fArial|b0|i0;\H2.0000;Index
  7
Text poznámky (ISO)
 73
     1
 44
1.0
  0
MTEXT
  5
1FB
330
1AB
100
AcDbEntity
  8
Viditelná tenká (ISO)
100
AcDbMText
 10
188.9161081342839
 20
93.0
 30
0.0
 40
2.000000029802321
 41
0.0
 71
     1
 72
     1
  1
\fArial|b0|i0;\H2.0000;Massstab\fTahoma|b0|i0;\H2.0000;/Scale:
  7
Text poznámky (ISO)
 73
     1
 44
1.0
  0
MTEXT
  5
1FC
330
1AB
100
AcDbEntity
  8
Viditelná tenká (ISO)
100
AcDbMText
 10
118.0
 20
113.0
 30
0.0
 40
2.000000029802321
 41
0.0
 71
     1
 72
     1
  1
\fArial|b0|i0;\H2.0000;Werkstoff/Material:
  7
Text poznámky (ISO)
 73
     1
 44
1.0
  0
MTEXT
  5
1FD
330
1AB
100
AcDbEntity
  8
Viditelná tenká (ISO)
100
AcDbMText
 10
159.0
 20
113.0
 30
0.0
 40
2.000000029802321
 41
0.0
 71
     1
 72
     1
  1
\fArial|b0|i0;\H2.0000;Gewicht/Weight:
  7
Text poznámky (ISO)
 73
     1
 44
1.0
  0
MTEXT
  5
1FE
330
1AB
100
AcDbEntity
  8
Viditelná tenká (ISO)
100
AcDbMText
 10
118.0
 20
103.0
 30
0.0
 40
2.000000029802321
 41
0.0
 71
     1
 72
     1
  1
\fArial|b0|i0;\H2.0000;zul.Abweich.\fTahoma|b0|i0;\H2.0000;/Tolerance:
  7
Text poznámky (ISO)
 73
     1
 44
1.0
  0
MTEXT
  5
1FF
330
1AB
100
AcDbEntity
  8
Viditelná tenká (ISO)
100
AcDbMText
 10
159.0
 20
103.0
 30
0.0
 40
2.000000029802321
 41
0.0
 71
     1
 72
     1
  1
\fArial|b0|i0;\H2.0000;Oberflache\fTahoma|b0|i0;\H2.0000;/Surface:
  7
Text poznámky (ISO)
 73
     1
 44
1.0
  0
MTEXT
  5
200
330
1AB
100
AcDbEntity
  8
Viditelná tenká (ISO)
100
AcDbMText
 10
118.2064366962235
 20
87.52498463872976
 30
0.0
 40
2.000000029802321
 41
0.0
 71
     1
 72
     1
  1
\fArial|b0|i0;\H2.0000;Gezeichnet\fTahoma|b0|i0;\H2.0000;/Drawn:
  7
Text poznámky (ISO)
 73
     1
 44
1.0
  0
MTEXT
  5
201
102
{ACAD_XDICTIONARY
360
174A
102
}
330
1AB
100
AcDbEntity
  8
Viditelná tenká (ISO)
100
AcDbMText
 10
118.2064366962235
 20
82.79398756785594
 30
0.0
 40
2.000000029802321
 41
0.0
 71
     1
 72
     1
  1
\fArial|b0|i0;\H2.0000;Gepr\U+00FCft\fTahoma|b0|i0;\H2.0000;/Checked by:
  7
Text poznámky (ISO)
 73
     1
 44
1.0
  0
MTEXT
  5
202
330
1AB
100
AcDbEntity
  8
Viditelná tenká (ISO)
100
AcDbMText
 10
118.2064366962235
 20
77.59713566222233
 30
0.0
 40
2.000000029802321
 41
0.0
 71
     1
 72
     1
  1
\fArial|b0|i0;\H2.0000;Update\fTahoma|b0|i0;\H2.0000;:
  7
Text poznámky (ISO)
 73
     1
 44
1.0
  0
MTEXT
  5
203
330
1AB
100
AcDbEntity
  8
Viditelná tenká (ISO)
100
AcDbMText
 10
148.0773056067903
 20
93.0
 30
0.0
 40
2.000000029802321
 41
15.9304416179657
 71
     1
 72
     1
  1
\fArial|b0|i0;\H2.0000;Datum\fTahoma|b0|i0;\H2.0000;/Date:
  7
Text poznámky (ISO)
 73
     1
 44
1.0
  0
MTEXT
  5
204
330
1AB
100
AcDbEntity
  8
Viditelná tenká (ISO)
100
AcDbMText
 10
171.7579499603394
 20
93.0
 30
0.0
 40
2.000000029802321
 41
7.452743649482727
 71
     1
 72
     1
  1
\fArial|b0|i0;\H2.0000;Name
  7
Text poznámky (ISO)
 73
     1
 44
1.0
  0
MTEXT
  5
205
102
{ACAD_XDICTIONARY
360
174C
102
}
330
1AB
100
AcDbEntity
  8
Nadpis (ISO)
100
AcDbMText
 10
118.0
 20
71.0
 30
0.0
 40
3.499999940395355
 41
0.0
 71
     1
 72
     1
  1
ACO vpust 142 sestava vod. jednod\U+00EDln\U+00E1 p\U+0159\U+00EDruba DN100 ZU V2A
  7
Text poznámky (ISO)
 73
     1
 44
1.0
  0
MTEXT
  5
206
330
1AB
100
AcDbEntity
  8
Nadpis (ISO)
100
AcDbMText
 10
147.8345772780873
 20
87.78242706242744
 30
0.0
 40
2.000000029802321
 41
29.41232473017148
 71
     1
 72
     1
  1
\fTahoma|b0|i0;\H2.0000;3.11.2011
  7
Text poznámky (ISO)
 73
     1
 44
1.0
  0
MTEXT
  5
207
330
1AB
100
AcDbEntity
  8
Nadpis (ISO)
100
AcDbMText
 10
118.9147684950603
 20
98.79632878646518
 30
0.0
 40
3.499999940395355
 41
0.0
 71
     1
 72
     1
  1
ISO 2768-m
  7
Text poznámky (ISO)
 73
     1
 44
1.0
  0
MTEXT
  5
208
330
1AB
100
AcDbEntity
  8
Nadpis (ISO)
100
AcDbMText
 10
162.5831033854
 20
99.20167780246003
 30
0.0
 40
3.499999940395355
 41
0.0
 71
     1
 72
     1
  1
DIN ISO 1302
  7
Text poznámky (ISO)
 73
     1
 44
1.0
  0
MTEXT
  5
209
330
1AB
100
AcDbEntity
  8
Nadpis (ISO)
100
AcDbMText
 10
262.4743825961981
 20
49.17778241269704
 30
0.0
 40
3.499999940395355
 41
0.0
 71
     1
 72
     1
  1
\fArial|b0|i0;\H3.5000;List:\fArial|b0|i0;\H3.5000;1 \fArial|b0|i0;\H3.5000;/\fArial|b0|i0;\H3.5000;1 
  7
Text poznámky (ISO)
 73
     1
 44
1.0
  0
MTEXT
  5
20A
102
{ACAD_XDICTIONARY
360
174E
102
}
330
1AB
100
AcDbEntity
  8
Nadpis (ISO)
100
AcDbMText
 10
159.4396788094336
 20
109.2360383310952
 30
0.0
 40
3.499999940395355
 41
29.10098367733216
 71
     1
 72
     1
  1
Nen\U+00ED k dispozici
  7
Text poznámky (ISO)
 73
     2
 44
0.9878841638565063
  0
MTEXT
  5
20B
330
1AB
100
AcDbEntity
  8
Nadpis (ISO)
100
AcDbMText
 10
246.4026076227944
 20
91.02705239790408
 30
0.0
 40
1.500000059604644
 41
0.0
 71
     1
 72
     1
  1
\fTahoma|b0|i0;\W0.80;\H1.5000;The drawing is property \Pof company ACO \Pand must not be neither \Pcopied nor used\Pfor other unauthorized purposes. \PTrademark according to DIN 34\P
  7
Text poznámky (ISO)
 73
     2
 44
0.8232368230819702
  0
MTEXT
  5
20C
330
1AB
100
AcDbEntity
  8
Nadpis (ISO)
100
AcDbMText
 10
261.7171631717141
 20
101.5413993827952
 30
0.0
 40
2.099999934434889
 41
0.0
 71
     1
 72
     1
  1
\fTahoma|b0|i0;\H2.1000;www.aco.com
  7
Text poznámky (ISO)
 73
     1
 44
1.0
  0
ATTDEF
  5
20E
102
{ACAD_XDICTIONARY
360
D47
102
}
330
1AB
100
AcDbEntity
  8
Nadpis (ISO)
100
AcDbText
 10
292.1851661835569
 20
62.4856753668063
 30
0.0
 40
3.499999940395355
  1
000
  7
Styl textu9
100
AcDbAttributeDefinition
  3
ČÍSLO REVIZE
  2
ČÍSLO_REVIZE_001
 70
     0
  0
ATTDEF
  5
212
102
{ACAD_XDICTIONARY
360
D4A
102
}
330
1AB
100
AcDbEntity
  8
Nadpis (ISO)
100
AcDbText
 10
294.5873446304243
 20
46.32882590415592
 30
0.0
 40
2.000000029802321
  1
A2
  7
Styl textu40
100
AcDbAttributeDefinition
  3
Sheet Size
  2
Sheet_Size_001
 70
     0
  0
ATTDEF
  5
213
102
{ACAD_XDICTIONARY
360
D4D
102
}
330
1AB
100
AcDbEntity
  8
Nadpis (ISO)
100
AcDbText
 10
224.4232249036362
 20
62.48824720554019
 30
0.0
 40
3.499999940395355
  1
414747
  7
Text poznámky (ISO)
100
AcDbAttributeDefinition
  3
PART NUMBER
  2
PART_NUMBER_001
 70
     0
  0
ATTDEF
  5
214
102
{ACAD_XDICTIONARY
360
D50
102
}
330
1AB
100
AcDbEntity
  8
Nadpis (ISO)
100
AcDbText
 10
118.0
 20
56.50000005960464
 30
0.0
 40
3.499999940395355
  1

  7
Text poznámky (ISO)
 11
118.0
 21
60.0
 31
0.0
100
AcDbAttributeDefinition
  3
PROJECT
  2
PROJECT
 70
     0
 74
     3
  0
ATTDEF
  5
216
102
{ACAD_XDICTIONARY
360
D53
102
}
330
1AB
100
AcDbEntity
  8
Nadpis (ISO)
100
AcDbText
 10
117.8119543349687
 20
47.87040746597276
 30
0.0
 40
6.99999988079071
  1
414747
  7
Styl textu94
100
AcDbAttributeDefinition
  3
SKLADOVÉ ČÍSLO
  2
SKLADOVÉ_ČÍSLO_001
 70
     0
  0
ATTDEF
  5
217
102
{ACAD_XDICTIONARY
360
D56
102
}
330
1AB
100
AcDbEntity
  8
Nadpis (ISO)
100
AcDbText
 10
117.5939056808251
 20
105.1756658592857
 30
0.0
 40
3.499999940395355
  1

  7
Text poznámky (ISO)
 11
117.5939056808251
 21
108.6756657996811
 31
0.0
100
AcDbAttributeDefinition
  3
MATERIAL
  2
MATERIAL
 70
     0
 74
     3
  0
ATTDEF
  5
218
102
{ACAD_XDICTIONARY
360
D59
102
}
330
1AB
100
AcDbEntity
  8
Nadpis (ISO)
100
AcDbText
 10
171.1119787164545
 20
85.78242703262512
 30
0.0
 40
2.000000029802321
  1
pmacoun
  7
Styl textu40
100
AcDbAttributeDefinition
  3
AUTHOR
  2
AUTHOR_001
 70
     0
  0
ATTDEF
  5
219
102
{ACAD_XDICTIONARY
360
D5C
102
}
330
1AB
100
AcDbEntity
  8
Nadpis (ISO)
100
AcDbText
 10
189.1855699863978
 20
82.50038826992808
 30
0.0
 40
3.499999940395355
  1

  7
Text poznámky (ISO)
 11
189.1855699863978
 21
86.00038821032343
 31
0.0
100
AcDbAttributeDefinition
  3
FirstViewScale
  2
FirstViewScale
 70
     0
 74
     3
  0
ENDBLK
  5
1AD
330
1AB
100
AcDbEntity
  8
0
100
AcDbBlockEnd
  0
BLOCK
  5
6BE
330
6BD
100
AcDbEntity
  8
0
100
AcDbBlockBegin
  2
*D26
 70
     1
 10
0.0
 20
0.0
 30
0.0
  3
*D26
  1

  0
LINE
  5
14D2
330
6BD
100
AcDbEntity
  8
5
370
    -2
100
AcDbLine
 10
276.2841936755391
 20
666.9278155448962
 30
0.0
 11
203.3221517264106
 21
666.9278155448964
 31
0.0
  0
LINE
  5
14D3
330
6BD
100
AcDbEntity
  8
5
370
    -2
100
AcDbLine
 10
331.25898113935
 20
529.4229673448965
 30
0.0
 11
203.3221517264105
 21
529.4229673448966
 31
0.0
  0
LINE
  5
14D4
330
6BD
100
AcDbEntity
  8
5
370
    -2
100
AcDbLine
 10
205.3221517264106
 20
661.9278155448962
 30
0.0
 11
205.3221517264105
 21
534.4229673448966
 31
0.0
  0
SOLID
  5
14D5
330
6BD
100
AcDbEntity
  8
5
100
AcDbTrace
 10
204.4888183930773
 20
661.9278155448962
 30
0.0
 11
206.1554850597439
 21
661.9278155448962
 31
0.0
 12
205.3221517264106
 22
666.9278155448964
 32
0.0
 13
205.3221517264106
 23
666.9278155448964
 33
0.0
  0
SOLID
  5
14D6
330
6BD
100
AcDbEntity
  8
5
100
AcDbTrace
 10
204.4888183930772
 20
534.4229673448966
 30
0.0
 11
206.1554850597439
 21
534.4229673448966
 31
0.0
 12
205.3221517264105
 22
529.4229673448966
 32
0.0
 13
205.3221517264105
 23
529.4229673448966
 33
0.0
  0
MTEXT
  5
14D7
330
6BD
100
AcDbEntity
  8
5
 62
     7
100
AcDbMText
 10
196.8024740904132
 20
598.1753914448963
 30
0.0
 40
14.0
 41
0.0
 71
     5
 72
     1
  1
138
 11
0.0000000000000001
 21
1.0
 31
0.0
 73
     1
 44
1.0
  0
POINT
  5
14D8
330
6BD
100
AcDbEntity
  8
Defpoints
 62
     0
100
AcDbPoint
 10
278.2841936755391
 20
666.9278155448962
 30
0.0
  0
POINT
  5
14D9
330
6BD
100
AcDbEntity
  8
Defpoints
 62
     0
100
AcDbPoint
 10
333.25898113935
 20
529.4229673448965
 30
0.0
  0
POINT
  5
14DA
330
6BD
100
AcDbEntity
  8
Defpoints
 62
     0
100
AcDbPoint
 10
205.3221517264105
 20
529.4229673448966
 30
0.0
  0
ENDBLK
  5
6BF
330
6BD
100
AcDbEntity
  8
0
100
AcDbBlockEnd
  0
BLOCK
  5
7A0
330
79F
100
AcDbEntity
  8
0
100
AcDbBlockBegin
  2
*D27
 70
     1
 10
0.0
 20
0.0
 30
0.0
  3
*D27
  1

  0
LINE
  5
1635
330
79F
100
AcDbEntity
  8
5
370
    -2
100
AcDbLine
 10
276.2841936755391
 20
666.9278155448962
 30
0.0
 11
276.2841936755391
 21
681.0826806863204
 31
0.0
  0
LINE
  5
1636
330
79F
100
AcDbEntity
  8
5
370
    -2
100
AcDbLine
 10
476.2841936755391
 20
666.9278155448961
 30
0.0
 11
476.2841936755391
 21
681.0826806863204
 31
0.0
  0
LINE
  5
1637
330
79F
100
AcDbEntity
  8
5
370
    -2
100
AcDbLine
 10
281.2841936755391
 20
679.0826806863203
 30
0.0
 11
471.284193675539
 21
679.0826806863203
 31
0.0
  0
SOLID
  5
1638
330
79F
100
AcDbEntity
  8
5
100
AcDbTrace
 10
281.2841936755391
 20
679.9160140196537
 30
0.0
 11
281.2841936755391
 21
678.249347352987
 31
0.0
 12
276.2841936755391
 22
679.0826806863203
 32
0.0
 13
276.2841936755391
 23
679.0826806863203
 33
0.0
  0
SOLID
  5
1639
330
79F
100
AcDbEntity
  8
5
100
AcDbTrace
 10
471.284193675539
 20
679.9160140196537
 30
0.0
 11
471.284193675539
 21
678.249347352987
 31
0.0
 12
476.2841936755391
 22
679.0826806863203
 32
0.0
 13
476.2841936755391
 23
679.0826806863203
 33
0.0
  0
MTEXT
  5
163A
330
79F
100
AcDbEntity
  8
5
 62
     7
100
AcDbMText
 10
376.2841936755391
 20
687.5741514720825
 30
0.0
 40
14.0
 41
0.0
 71
     5
 72
     1
  1
{\Famgdt;o}200
 73
     1
 44
1.0
  0
POINT
  5
163B
330
79F
100
AcDbEntity
  8
Defpoints
 62
     0
100
AcDbPoint
 10
276.2841936755391
 20
664.9278155448962
 30
0.0
  0
POINT
  5
163C
330
79F
100
AcDbEntity
  8
Defpoints
 62
     0
100
AcDbPoint
 10
476.2841936755391
 20
664.9278155448961
 30
0.0
  0
POINT
  5
163D
330
79F
100
AcDbEntity
  8
Defpoints
 62
     0
100
AcDbPoint
 10
476.2841936755391
 20
679.0826806863203
 30
0.0
  0
ENDBLK
  5
7A1
330
79F
100
AcDbEntity
  8
0
100
AcDbBlockEnd
  0
BLOCK
  5
883
330
882
100
AcDbEntity
  8
0
100
AcDbBlockBegin
  2
*D28
 70
     1
 10
0.0
 20
0.0
 30
0.0
  3
*D28
  1

  0
LINE
  5
163E
330
882
100
AcDbEntity
  8
5
370
    -2
100
AcDbLine
 10
226.2841936756217
 20
648.9278155448961
 30
0.0
 11
226.2841936756217
 21
705.4054398510027
 31
0.0
  0
LINE
  5
163F
330
882
100
AcDbEntity
  8
5
370
    -2
100
AcDbLine
 10
526.2841936756218
 20
648.9278155448962
 30
0.0
 11
526.2841936756218
 21
705.4054398510027
 31
0.0
  0
LINE
  5
1640
330
882
100
AcDbEntity
  8
5
370
    -2
100
AcDbLine
 10
231.2841936756217
 20
703.4054398510027
 30
0.0
 11
521.2841936756218
 21
703.4054398510027
 31
0.0
  0
SOLID
  5
1641
330
882
100
AcDbEntity
  8
5
100
AcDbTrace
 10
231.2841936756217
 20
704.238773184336
 30
0.0
 11
231.2841936756217
 21
702.5721065176693
 31
0.0
 12
226.2841936756217
 22
703.4054398510027
 32
0.0
 13
226.2841936756217
 23
703.4054398510027
 33
0.0
  0
SOLID
  5
1642
330
882
100
AcDbEntity
  8
5
100
AcDbTrace
 10
521.2841936756218
 20
704.238773184336
 30
0.0
 11
521.2841936756218
 21
702.5721065176693
 31
0.0
 12
526.2841936756218
 22
703.4054398510027
 32
0.0
 13
526.2841936756218
 23
703.4054398510027
 33
0.0
  0
MTEXT
  5
1643
330
882
100
AcDbEntity
  8
5
 62
     7
100
AcDbMText
 10
376.2841936756218
 20
711.8969106367649
 30
0.0
 40
14.0
 41
0.0
 71
     5
 72
     1
  1
{\Famgdt;o}300
 73
     1
 44
1.0
  0
POINT
  5
1644
330
882
100
AcDbEntity
  8
Defpoints
 62
     0
100
AcDbPoint
 10
226.2841936756217
 20
646.9278155448961
 30
0.0
  0
POINT
  5
1645
330
882
100
AcDbEntity
  8
Defpoints
 62
     0
100
AcDbPoint
 10
526.2841936756218
 20
646.9278155448962
 30
0.0
  0
POINT
  5
1646
330
882
100
AcDbEntity
  8
Defpoints
 62
     0
100
AcDbPoint
 10
526.2841936756218
 20
703.4054398510027
 30
0.0
  0
ENDBLK
  5
884
330
882
100
AcDbEntity
  8
0
100
AcDbBlockEnd
  0
BLOCK
  5
95B
330
95A
100
AcDbEntity
  8
0
100
AcDbBlockBegin
  2
*D29
 70
     1
 10
0.0
 20
0.0
 30
0.0
  3
*D29
  1

  0
LINE
  5
A2F
330
95A
100
AcDbEntity
  8
Kóta (ISO)
440
 16777216
100
AcDbLine
 10
474.284193675539
 20
666.9278155448962
 30
0.0
 11
507.1207703427977
 21
666.9278155448962
 31
0.0
  0
LINE
  5
A30
330
95A
100
AcDbEntity
  8
Kóta (ISO)
440
 16777216
100
AcDbLine
 10
505.1207703427976
 20
661.9278155448962
 30
0.0
 11
505.1207703427976
 21
651.9278155448962
 31
0.0
  0
SOLID
  5
A31
330
95A
100
AcDbEntity
  8
Kóta (ISO)
440
 16777216
100
AcDbTrace
 10
504.2874370094645
 20
661.9278155448962
 30
0.0
 11
505.9541036761311
 21
661.9278155448962
 31
0.0
 12
505.1207703427976
 22
666.9278155448962
 32
0.0
 13
505.1207703427976
 23
666.9278155448962
 33
0.0
  0
SOLID
  5
A32
330
95A
100
AcDbEntity
  8
Kóta (ISO)
440
 16777216
100
AcDbTrace
 10
504.2874370094645
 20
651.9278155448962
 30
0.0
 11
505.9541036761311
 21
651.9278155448962
 31
0.0
 12
505.1207703427976
 22
646.9278155448962
 32
0.0
 13
505.1207703427976
 23
646.9278155448962
 33
0.0
  0
MTEXT
  5
A33
330
95A
100
AcDbEntity
  8
Kóta (ISO)
440
 16777216
100
AcDbMText
 10
496.3052995570353
 20
652.1232487215248
 30
0.0
 40
7.0
 41
0.0
 71
     1
 72
     1
  1
\A1;20
  7
Text poznámky (ISO)
 11
0.0000000000000001
 21
1.0
 31
0.0
 73
     1
 44
1.0
  0
POINT
  5
A34
330
95A
100
AcDbEntity
  8
Defpoints
 62
     0
440
 16777216
100
AcDbPoint
 10
474.284193675539
 20
666.9278155448962
 30
0.0
  0
POINT
  5
A35
330
95A
100
AcDbEntity
  8
Defpoints
 62
     0
440
 16777216
100
AcDbPoint
 10
505.1207703427976
 20
646.9278155448962
 30
0.0
  0
POINT
  5
A36
330
95A
100
AcDbEntity
  8
Defpoints
 62
     0
440
 16777216
100
AcDbPoint
 10
505.1207703427976
 20
646.9278155448962
 30
0.0
  0
ENDBLK
  5
95C
330
95A
100
AcDbEntity
  8
0
100
AcDbBlockEnd
  0
BLOCK
  5
A39
330
A38
100
AcDbEntity
  8
0
100
AcDbBlockBegin
  2
*D30
 70
     1
 10
0.0
 20
0.0
 30
0.0
  3
*D30
  1

  0
LINE
  5
113B
330
A38
100
AcDbEntity
  8
5
370
    -2
100
AcDbLine
 10
463.6439497469893
 20
641.7774852530442
 30
0.0
 11
568.2841936755392
 21
641.7774852530442
 31
0.0
  0
LINE
  5
113C
330
A38
100
AcDbEntity
  8
5
370
    -2
100
AcDbLine
 10
476.2841936755391
 20
666.9278155448962
 30
0.0
 11
568.2841936755392
 21
666.9278155448962
 31
0.0
  0
LINE
  5
113D
330
A38
100
AcDbEntity
  8
5
370
    -2
100
AcDbLine
 10
566.284193675539
 20
646.7774852530442
 30
0.0
 11
566.284193675539
 21
661.9278155448962
 31
0.0
  0
SOLID
  5
113E
330
A38
100
AcDbEntity
  8
5
100
AcDbTrace
 10
565.4508603422059
 20
646.7774852530442
 30
0.0
 11
567.1175270088728
 21
646.7774852530442
 31
0.0
 12
566.284193675539
 22
641.7774852530442
 32
0.0
 13
566.284193675539
 23
641.7774852530442
 33
0.0
  0
SOLID
  5
113F
330
A38
100
AcDbEntity
  8
5
100
AcDbTrace
 10
565.4508603422059
 20
661.9278155448962
 30
0.0
 11
567.1175270088728
 21
661.9278155448962
 31
0.0
 12
566.284193675539
 22
666.9278155448962
 32
0.0
 13
566.284193675539
 23
666.9278155448962
 33
0.0
  0
MTEXT
  5
1140
330
A38
100
AcDbEntity
  8
5
 62
     7
100
AcDbMText
 10
550.5012521040145
 20
644.8563441531677
 30
0.0
 40
14.0
 41
0.0
 71
     1
 72
     1
  1
25
 11
0.0000000000000001
 21
1.0
 31
0.0
 73
     1
 44
1.0
  0
POINT
  5
1141
330
A38
100
AcDbEntity
  8
Defpoints
 62
     0
100
AcDbPoint
 10
461.6439497469894
 20
641.7774852530442
 30
0.0
  0
POINT
  5
1142
330
A38
100
AcDbEntity
  8
Defpoints
 62
     0
100
AcDbPoint
 10
474.284193675539
 20
666.9278155448962
 30
0.0
  0
POINT
  5
1143
330
A38
100
AcDbEntity
  8
Defpoints
 62
     0
100
AcDbPoint
 10
566.284193675539
 20
666.9278155448962
 30
0.0
  0
ENDBLK
  5
A3A
330
A38
100
AcDbEntity
  8
0
100
AcDbBlockEnd
  0
BLOCK
  5
B1C
330
B1B
100
AcDbEntity
  8
0
100
AcDbBlockBegin
  2
*D31
 70
     1
 10
0.0
 20
0.0
 30
0.0
  3
*D31
  1

  0
LINE
  5
1254
330
B1B
100
AcDbEntity
  8
5
370
    -2
100
AcDbLine
 10
476.2841936755391
 20
666.9278155448962
 30
0.0
 11
618.5975128613391
 21
666.9278155448962
 31
0.0
  0
LINE
  5
1255
330
B1B
100
AcDbEntity
  8
5
370
    -2
100
AcDbLine
 10
602.6270201109602
 20
546.4278155449085
 30
0.0
 11
618.5975128613391
 21
546.4278155449085
 31
0.0
  0
LINE
  5
1256
330
B1B
100
AcDbEntity
  8
5
370
    -2
100
AcDbLine
 10
616.597512861339
 20
661.9278155448962
 30
0.0
 11
616.597512861339
 21
551.4278155449085
 31
0.0
  0
SOLID
  5
1257
330
B1B
100
AcDbEntity
  8
5
100
AcDbTrace
 10
615.7641795280057
 20
661.9278155448962
 30
0.0
 11
617.4308461946724
 21
661.9278155448962
 31
0.0
 12
616.597512861339
 22
666.9278155448962
 32
0.0
 13
616.597512861339
 23
666.9278155448962
 33
0.0
  0
SOLID
  5
1258
330
B1B
100
AcDbEntity
  8
5
100
AcDbTrace
 10
615.7641795280057
 20
551.4278155449085
 30
0.0
 11
617.4308461946724
 21
551.4278155449085
 31
0.0
 12
616.597512861339
 22
546.4278155449085
 32
0.0
 13
616.597512861339
 23
546.4278155449085
 33
0.0
  0
MTEXT
  5
1259
330
B1B
100
AcDbEntity
  8
5
 62
     7
100
AcDbMText
 10
600.8145712898145
 20
592.4878390506107
 30
0.0
 40
14.0
 41
0.0
 71
     1
 72
     1
  1
120
 11
0.0000000000000001
 21
1.0
 31
0.0
 73
     1
 44
1.0
  0
POINT
  5
125A
330
B1B
100
AcDbEntity
  8
Defpoints
 62
     0
100
AcDbPoint
 10
474.284193675539
 20
666.9278155448962
 30
0.0
  0
POINT
  5
125B
330
B1B
100
AcDbEntity
  8
Defpoints
 62
     0
100
AcDbPoint
 10
600.6270201109598
 20
546.4278155449085
 30
0.0
  0
POINT
  5
125C
330
B1B
100
AcDbEntity
  8
Defpoints
 62
     0
100
AcDbPoint
 10
616.597512861339
 20
546.4278155449085
 30
0.0
  0
ENDBLK
  5
B1D
330
B1B
100
AcDbEntity
  8
0
100
AcDbBlockEnd
  0
BLOCK
  5
BFE
330
BFD
100
AcDbEntity
  8
0
100
AcDbBlockBegin
  2
*D32
 70
     1
 10
0.0
 20
0.0
 30
0.0
  3
*D32
  1

  0
LINE
  5
128A
330
BFD
100
AcDbEntity
  8
5
370
    -2
100
AcDbLine
 10
376.2841936755391
 20
491.9580830936015
 30
0.0
 11
376.2841936755391
 21
459.6778155449085
 31
0.0
  0
LINE
  5
128B
330
BFD
100
AcDbEntity
  8
5
370
    -2
100
AcDbLine
 10
557.284193675539
 20
489.6854781954686
 30
0.0
 11
557.284193675539
 21
459.6778155449085
 31
0.0
  0
LINE
  5
128C
330
BFD
100
AcDbEntity
  8
5
370
    -2
100
AcDbLine
 10
381.2841936755391
 20
461.6778155449085
 30
0.0
 11
552.2841936755391
 21
461.6778155449085
 31
0.0
  0
SOLID
  5
128D
330
BFD
100
AcDbEntity
  8
5
100
AcDbTrace
 10
381.2841936755391
 20
462.5111488782416
 30
0.0
 11
381.2841936755391
 21
460.8444822115751
 31
0.0
 12
376.2841936755391
 22
461.6778155449085
 32
0.0
 13
376.2841936755391
 23
461.6778155449085
 33
0.0
  0
SOLID
  5
128E
330
BFD
100
AcDbEntity
  8
5
100
AcDbTrace
 10
552.2841936755391
 20
462.5111488782416
 30
0.0
 11
552.2841936755391
 21
460.8444822115751
 31
0.0
 12
557.284193675539
 22
461.6778155449085
 32
0.0
 13
557.284193675539
 23
461.6778155449085
 33
0.0
  0
MTEXT
  5
128F
330
BFD
100
AcDbEntity
  8
5
 62
     7
100
AcDbMText
 10
452.8594119428325
 20
477.5171708169032
 30
0.0
 40
14.0
 41
0.0
 71
     1
 72
     1
  1
181
 73
     1
 44
1.0
  0
POINT
  5
1290
330
BFD
100
AcDbEntity
  8
Defpoints
 62
     0
100
AcDbPoint
 10
376.2841936755391
 20
493.9580830936018
 30
0.0
  0
POINT
  5
1291
330
BFD
100
AcDbEntity
  8
Defpoints
 62
     0
100
AcDbPoint
 10
557.284193675539
 20
491.6854781954688
 30
0.0
  0
POINT
  5
1292
330
BFD
100
AcDbEntity
  8
Defpoints
 62
     0
100
AcDbPoint
 10
557.284193675539
 20
461.6778155449085
 30
0.0
  0
ENDBLK
  5
BFF
330
BFD
100
AcDbEntity
  8
0
100
AcDbBlockEnd
  0
BLOCK
  5
CDF
330
CDE
100
AcDbEntity
  8
0
100
AcDbBlockBegin
  2
KUSOVNÍK
 70
     0
 10
0.0
 20
0.0
 30
0.0
  3
KUSOVNÍK
  1

  0
LINE
  5
CE1
330
CDE
100
AcDbEntity
  8
Značka (ISO)
100
AcDbLine
 10
584.0
 20
174.2305179536343
 30
0.0
 11
309.4114983610506
 21
174.2305179536343
 31
0.0
  0
LINE
  5
CE2
330
CDE
100
AcDbEntity
  8
Značka (ISO)
100
AcDbLine
 10
584.0
 20
174.2305179536343
 30
0.0
 11
584.0
 21
167.8818167567254
 31
0.0
  0
LINE
  5
CE3
330
CDE
100
AcDbEntity
  8
Značka (ISO)
100
AcDbLine
 10
309.4114983610506
 20
174.2305179536343
 30
0.0
 11
309.4114983610506
 21
167.8818167567254
 31
0.0
  0
MTEXT
  5
CE4
102
{ACAD_XDICTIONARY
360
1750
102
}
330
CDE
100
AcDbEntity
  8
Značka (ISO)
100
AcDbMText
 10
436.1623707689946
 20
168.6064920037985
 30
0.0
 40
3.499999940395355
 41
0.0
 71
     7
 72
     1
  1
KUSOVN\U+00CDK
  7
Text poznámky (DIN)
 73
     1
 44
1.0
  0
LINE
  5
CE6
330
CDE
100
AcDbEntity
  8
Značka (ISO)
100
AcDbLine
 10
584.0
 20
167.8818167567254
 30
0.0
 11
309.4114983610506
 21
167.8818167567254
 31
0.0
  0
LINE
  5
CE7
330
CDE
100
AcDbEntity
  8
Značka (ISO)
100
AcDbLine
 10
584.0
 20
167.8818167567254
 30
0.0
 11
584.0
 21
161.5331155598164
 31
0.0
  0
MTEXT
  5
CE8
102
{ACAD_XDICTIONARY
360
1752
102
}
330
CDE
100
AcDbEntity
  8
Značka (ISO)
100
AcDbMText
 10
555.5683903448161
 20
162.2577908068896
 30
0.0
 40
3.499999940395355
 41
0.0
 71
     7
 72
     1
  1
MATERI\U+00C1L
  7
Text poznámky (DIN)
 73
     1
 44
1.0
  0
LINE
  5
CE9
330
CDE
100
AcDbEntity
  8
Značka (ISO)
100
AcDbLine
 10
547.5222387990097
 20
167.8818167567254
 30
0.0
 11
547.5222387990097
 21
161.5331155598164
 31
0.0
  0
MTEXT
  5
CEA
330
CDE
100
AcDbEntity
  8
Značka (ISO)
100
AcDbMText
 10
518.2156293822447
 20
162.9574661880732
 30
0.0
 40
3.499999940395355
 41
0.0
 71
     7
 72
     1
  1
HMOTNOST
  7
Text poznámky (DIN)
 73
     1
 44
1.0
  0
LINE
  5
CEB
330
CDE
100
AcDbEntity
  8
Značka (ISO)
100
AcDbLine
 10
511.0444775980196
 20
167.8818167567254
 30
0.0
 11
511.0444775980196
 21
161.5331155598164
 31
0.0
  0
MTEXT
  5
CEC
102
{ACAD_XDICTIONARY
360
1754
102
}
330
CDE
100
AcDbEntity
  8
Značka (ISO)
100
AcDbMText
 10
476.1404651317855
 20
162.2577908068896
 30
0.0
 40
3.499999940395355
 41
0.0
 71
     7
 72
     1
  1
SKLADOV\U+00C9 \U+010C\U+00CDSL
  7
Text poznámky (DIN)
 73
     1
 44
1.0
  0
LINE
  5
CED
330
CDE
100
AcDbEntity
  8
Značka (ISO)
100
AcDbLine
 10
474.5667163970295
 20
167.8818167567254
 30
0.0
 11
474.5667163970295
 21
161.5331155598164
 31
0.0
  0
MTEXT
  5
CEE
330
CDE
100
AcDbEntity
  8
Značka (ISO)
100
AcDbMText
 10
429.2537252123036
 20
162.9574661880732
 30
0.0
 40
3.499999940395355
 41
0.0
 71
     7
 72
     1
  1
POPIS
  7
Text poznámky (DIN)
 73
     1
 44
1.0
  0
LINE
  5
CEF
330
CDE
100
AcDbEntity
  8
Značka (ISO)
100
AcDbLine
 10
395.5794382059092
 20
167.8818167567254
 30
0.0
 11
395.5794382059092
 21
161.5331155598164
 31
0.0
  0
MTEXT
  5
CF0
330
CDE
100
AcDbEntity
  8
Značka (ISO)
100
AcDbMText
 10
375.1314836138487
 20
162.9574661880732
 30
0.0
 40
3.499999940395355
 41
0.0
 71
     7
 72
     1
  1
KS
  7
Text poznámky (DIN)
 73
     1
 44
1.0
  0
LINE
  5
CF1
330
CDE
100
AcDbEntity
  8
Značka (ISO)
100
AcDbLine
 10
359.6761299372182
 20
167.8818167567254
 30
0.0
 11
359.6761299372182
 21
161.5331155598164
 31
0.0
  0
MTEXT
  5
CF2
330
CDE
100
AcDbEntity
  8
Značka (ISO)
100
AcDbMText
 10
327.6757606544434
 20
162.9574661880732
 30
0.0
 40
3.499999940395355
 41
0.0
 71
     7
 72
     1
  1
POZICE
  7
Text poznámky (DIN)
 73
     1
 44
1.0
  0
LINE
  5
CF3
330
CDE
100
AcDbEntity
  8
Značka (ISO)
100
AcDbLine
 10
309.4114983610507
 20
167.8818167567254
 30
0.0
 11
309.4114983610507
 21
161.5331155598164
 31
0.0
  0
MTEXT
  5
CF4
330
CDE
100
AcDbEntity
  8
Značka (ISO)
100
AcDbMText
 10
548.7246395680059
 20
156.6087649911643
 30
0.0
 40
3.499999940395355
 41
0.0
 71
     7
 72
     1
  1
Guma
  7
Text poznámky (DIN)
 73
     1
 44
1.0
  0
MTEXT
  5
CF5
330
CDE
100
AcDbEntity
  8
Značka (ISO)
100
AcDbMText
 10
512.2468783670158
 20
155.5600637346507
 30
0.0
 40
3.499999940395355
 41
0.0
 71
     7
 72
     1
  1
0,095 kg
  7
Text poznámky (DIN)
 73
     1
 44
1.0
  0
MTEXT
  5
CF6
330
CDE
100
AcDbEntity
  8
Značka (ISO)
100
AcDbMText
 10
475.7691171660256
 20
156.6087649911643
 30
0.0
 40
3.499999940395355
 41
0.0
 71
     7
 72
     1
  1
E55471
  7
Text poznámky (DIN)
 73
     1
 44
1.0
  0
MTEXT
  5
CF7
102
{ACAD_XDICTIONARY
360
1756
102
}
330
CDE
100
AcDbEntity
  8
Značka (ISO)
100
AcDbMText
 10
396.7818389749053
 20
155.38636238873
 30
0.0
 40
3.499999940395355
 41
0.0
 71
     7
 72
     1
  1
ACO vpust 142 dr\U+017E\U+00E1k sifonu
  7
Text poznámky (DIN)
 73
     1
 44
1.0
  0
MTEXT
  5
CF8
330
CDE
100
AcDbEntity
  8
Značka (ISO)
100
AcDbMText
 10
377.0523848483407
 20
156.6087649911643
 30
0.0
 40
3.499999940395355
 41
0.0
 71
     7
 72
     1
  1
1
  7
Text poznámky (DIN)
 73
     1
 44
1.0
  0
MTEXT
  5
CF9
330
CDE
100
AcDbEntity
  8
Značka (ISO)
100
AcDbMText
 10
333.9684149259114
 20
156.6087649911643
 30
0.0
 40
3.499999940395355
 41
0.0
 71
     7
 72
     1
  1
1
  7
Text poznámky (DIN)
 73
     1
 44
1.0
  0
LINE
  5
CFA
330
CDE
100
AcDbEntity
  8
Značka (ISO)
100
AcDbLine
 10
584.0
 20
161.5331155598164
 30
0.0
 11
309.4114983610507
 21
161.5331155598164
 31
0.0
  0
MTEXT
  5
CFB
330
CDE
100
AcDbEntity
  8
Značka (ISO)
100
AcDbMText
 10
548.7246395680059
 20
150.2600637942553
 30
0.0
 40
3.499999940395355
 41
0.0
 71
     7
 72
     1
  1
PVC-U
  7
Text poznámky (DIN)
 73
     1
 44
1.0
  0
MTEXT
  5
CFC
330
CDE
100
AcDbEntity
  8
Značka (ISO)
100
AcDbMText
 10
512.2468783670158
 20
149.2113625377417
 30
0.0
 40
3.499999940395355
 41
0.0
 71
     7
 72
     1
  1
0,069 kg
  7
Text poznámky (DIN)
 73
     1
 44
1.0
  0
MTEXT
  5
CFD
330
CDE
100
AcDbEntity
  8
Značka (ISO)
100
AcDbMText
 10
475.7691171660256
 20
150.2600637942553
 30
0.0
 40
3.499999940395355
 41
0.0
 71
     7
 72
     1
  1
NM 6702
  7
Text poznámky (DIN)
 73
     1
 44
1.0
  0
MTEXT
  5
CFE
102
{ACAD_XDICTIONARY
360
1758
102
}
330
CDE
100
AcDbEntity
  8
Značka (ISO)
100
AcDbMText
 10
396.7818389749053
 20
149.0376611918212
 30
0.0
 40
3.499999940395355
 41
0.0
 71
     7
 72
     1
  1
n\U+00E1vlek sunap-DN100
  7
Text poznámky (DIN)
 73
     1
 44
1.0
  0
MTEXT
  5
CFF
330
CDE
100
AcDbEntity
  8
Značka (ISO)
100
AcDbMText
 10
377.0523848483407
 20
150.2600637942553
 30
0.0
 40
3.499999940395355
 41
0.0
 71
     7
 72
     1
  1
1
  7
Text poznámky (DIN)
 73
     1
 44
1.0
  0
MTEXT
  5
D00
330
CDE
100
AcDbEntity
  8
Značka (ISO)
100
AcDbMText
 10
333.6221889831959
 20
150.2600637942553
 30
0.0
 40
3.499999940395355
 41
0.0
 71
     7
 72
     1
  1
2
  7
Text poznámky (DIN)
 73
     1
 44
1.0
  0
LINE
  5
D01
330
CDE
100
AcDbEntity
  8
Značka (ISO)
100
AcDbLine
 10
584.0
 20
155.1844143629075
 30
0.0
 11
309.4114983610507
 21
155.1844143629075
 31
0.0
  0
MTEXT
  5
D02
330
CDE
100
AcDbEntity
  8
Značka (ISO)
100
AcDbMText
 10
548.7246395680059
 20
143.3870118945838
 30
0.0
 40
3.499999940395355
 41
0.0
 71
     7
 72
     1
  1
Mosaz (leskle 
  7
Text poznámky (DIN)
 73
     1
 44
1.0
  0
MTEXT
  5
D03
102
{ACAD_XDICTIONARY
360
175A
102
}
330
CDE
100
AcDbEntity
  8
Značka (ISO)
100
AcDbMText
 10
548.7246395680059
 20
137.0383107751609
 30
0.0
 40
3.499999940395355
 41
0.0
 71
     7
 72
     1
  1
\U+017Elut\U+00E1)
  7
Text poznámky (DIN)
 73
     1
 44
1.0
  0
MTEXT
  5
D04
330
CDE
100
AcDbEntity
  8
Značka (ISO)
100
AcDbMText
 10
512.2468783670158
 20
142.8626613408328
 30
0.0
 40
3.499999940395355
 41
0.0
 71
     7
 72
     1
  1
0,006 kg
  7
Text poznámky (DIN)
 73
     1
 44
1.0
  0
MTEXT
  5
D05
330
CDE
100
AcDbEntity
  8
Značka (ISO)
100
AcDbMText
 10
475.7691171660256
 20
143.9113625973464
 30
0.0
 40
3.499999940395355
 41
0.0
 71
     7
 72
     1
  1
90678
  7
Text poznámky (DIN)
 73
     1
 44
1.0
  0
MTEXT
  5
D06
102
{ACAD_XDICTIONARY
360
175C
102
}
330
CDE
100
AcDbEntity
  8
Značka (ISO)
100
AcDbMText
 10
396.7818389749053
 20
142.1629859596492
 30
0.0
 40
3.499999940395355
 41
0.0
 71
     7
 72
     1
  1
\U+0160estihrann\U+00E1 matice_mosaz M8
  7
Text poznámky (DIN)
 73
     1
 44
1.0
  0
MTEXT
  5
D07
330
CDE
100
AcDbEntity
  8
Značka (ISO)
100
AcDbMText
 10
377.0523848483407
 20
143.9113625973464
 30
0.0
 40
3.499999940395355
 41
0.0
 71
     7
 72
     1
  1
1
  7
Text poznámky (DIN)
 73
     1
 44
1.0
  0
MTEXT
  5
D08
330
CDE
100
AcDbEntity
  8
Značka (ISO)
100
AcDbMText
 10
333.6221889831959
 20
143.9113625973464
 30
0.0
 40
3.499999940395355
 41
0.0
 71
     7
 72
     1
  1
3
  7
Text poznámky (DIN)
 73
     1
 44
1.0
  0
LINE
  5
D09
330
CDE
100
AcDbEntity
  8
Značka (ISO)
100
AcDbLine
 10
584.0
 20
148.8357131659985
 30
0.0
 11
309.4114983610507
 21
148.8357131659985
 31
0.0
  0
MTEXT
  5
D0A
330
CDE
100
AcDbEntity
  8
Značka (ISO)
100
AcDbMText
 10
548.7246395680059
 20
131.2139602035285
 30
0.0
 40
3.499999940395355
 41
0.0
 71
     7
 72
     1
  1
Plast ABS
  7
Text poznámky (DIN)
 73
     1
 44
1.0
  0
MTEXT
  5
D0B
330
CDE
100
AcDbEntity
  8
Značka (ISO)
100
AcDbMText
 10
512.2468783670158
 20
130.1652589470149
 30
0.0
 40
3.499999940395355
 41
0.0
 71
     7
 72
     1
  1
0,002 kg
  7
Text poznámky (DIN)
 73
     1
 44
1.0
  0
MTEXT
  5
D0C
330
CDE
100
AcDbEntity
  8
Značka (ISO)
100
AcDbMText
 10
475.7691171660256
 20
131.2139602035285
 30
0.0
 40
3.499999940395355
 41
0.0
 71
     7
 72
     1
  1
91024
  7
Text poznámky (DIN)
 73
     1
 44
1.0
  0
MTEXT
  5
D0D
330
CDE
100
AcDbEntity
  8
Značka (ISO)
100
AcDbMText
 10
396.7818389749053
 20
130.1652589470149
 30
0.0
 40
3.499999940395355
 41
0.0
 71
     7
 72
     1
  1
Krytka  matic 130-034-148 
  7
Text poznámky (DIN)
 73
     1
 44
1.0
  0
MTEXT
  5
D0E
102
{ACAD_XDICTIONARY
360
175E
102
}
330
CDE
100
AcDbEntity
  8
Značka (ISO)
100
AcDbMText
 10
396.7818389749053
 20
124.1639603704215
 30
0.0
 40
3.499999940395355
 41
0.0
 71
     7
 72
     1
  1
\U+0161estihrann\U+00E1, \U+010Dern\U+00E1
  7
Text poznámky (DIN)
 73
     1
 44
1.0
  0
MTEXT
  5
D0F
330
CDE
100
AcDbEntity
  8
Značka (ISO)
100
AcDbMText
 10
377.0523848483407
 20
131.2139602035285
 30
0.0
 40
3.499999940395355
 41
0.0
 71
     7
 72
     1
  1
1
  7
Text poznámky (DIN)
 73
     1
 44
1.0
  0
MTEXT
  5
D10
330
CDE
100
AcDbEntity
  8
Značka (ISO)
100
AcDbMText
 10
333.4468643047749
 20
131.2139602035285
 30
0.0
 40
3.499999940395355
 41
0.0
 71
     7
 72
     1
  1
4
  7
Text poznámky (DIN)
 73
     1
 44
1.0
  0
LINE
  5
D11
330
CDE
100
AcDbEntity
  8
Značka (ISO)
100
AcDbLine
 10
584.0
 20
136.1383107721806
 30
0.0
 11
309.4114983610507
 21
136.1383107721806
 31
0.0
  0
MTEXT
  5
D12
102
{ACAD_XDICTIONARY
360
1760
102
}
330
CDE
100
AcDbEntity
  8
Značka (ISO)
100
AcDbMText
 10
548.7246395680059
 20
117.2941552072764
 30
0.0
 40
3.499999940395355
 41
0.0
 71
     7
 72
     1
  1
Polykarbon\U+00E1t, 
  7
Text poznámky (DIN)
 73
     1
 44
1.0
  0
MTEXT
  5
D13
102
{ACAD_XDICTIONARY
360
1762
102
}
330
CDE
100
AcDbEntity
  8
Značka (ISO)
100
AcDbMText
 10
548.7246395680059
 20
110.9454540878535
 30
0.0
 40
3.499999940395355
 41
0.0
 71
     7
 72
     1
  1
kou\U+0159ov\U+00FD
  7
Text poznámky (DIN)
 73
     1
 44
1.0
  0
MTEXT
  5
D14
330
CDE
100
AcDbEntity
  8
Značka (ISO)
100
AcDbMText
 10
512.2468783670158
 20
117.467856553197
 30
0.0
 40
3.499999940395355
 41
0.0
 71
     7
 72
     1
  1
0,039 kg
  7
Text poznámky (DIN)
 73
     1
 44
1.0
  0
MTEXT
  5
D15
330
CDE
100
AcDbEntity
  8
Značka (ISO)
100
AcDbMText
 10
475.7691171660256
 20
118.5165578097106
 30
0.0
 40
3.499999940395355
 41
0.0
 71
     7
 72
     1
  1
E53832
  7
Text poznámky (DIN)
 73
     1
 44
1.0
  0
MTEXT
  5
D16
102
{ACAD_XDICTIONARY
360
1764
102
}
330
CDE
100
AcDbEntity
  8
Značka (ISO)
100
AcDbMText
 10
396.7818389749053
 20
117.2941552072764
 30
0.0
 40
3.499999940395355
 41
0.0
 71
     7
 72
     1
  1
Effidrain kryt plastov\U+00FD pro balen\U+00ED 
  7
Text poznámky (DIN)
 73
     1
 44
1.0
  0
MTEXT
  5
D17
330
CDE
100
AcDbEntity
  8
Značka (ISO)
100
AcDbMText
 10
396.7818389749053
 20
111.9941553443671
 30
0.0
 40
3.499999940395355
 41
0.0
 71
     7
 72
     1
  1
PP kruh 200x200
  7
Text poznámky (DIN)
 73
     1
 44
1.0
  0
MTEXT
  5
D18
330
CDE
100
AcDbEntity
  8
Značka (ISO)
100
AcDbMText
 10
377.0523848483407
 20
118.5165578097106
 30
0.0
 40
3.499999940395355
 41
0.0
 71
     7
 72
     1
  1
1
  7
Text poznámky (DIN)
 73
     1
 44
1.0
  0
MTEXT
  5
D19
330
CDE
100
AcDbEntity
  8
Značka (ISO)
100
AcDbMText
 10
333.6221889831959
 20
118.5165578097106
 30
0.0
 40
3.499999940395355
 41
0.0
 71
     7
 72
     1
  1
6
  7
Text poznámky (DIN)
 73
     1
 44
1.0
  0
LINE
  5
D1A
330
CDE
100
AcDbEntity
  8
Značka (ISO)
100
AcDbLine
 10
584.0
 20
123.4409083783627
 30
0.0
 11
309.4114983610507
 21
123.4409083783627
 31
0.0
  0
MTEXT
  5
D1B
330
CDE
100
AcDbEntity
  8
Značka (ISO)
100
AcDbMText
 10
548.7246395680059
 20
105.8191554158927
 30
0.0
 40
3.499999940395355
 41
0.0
 71
     7
 72
     1
  1
Guma
  7
Text poznámky (DIN)
 73
     1
 44
1.0
  0
MTEXT
  5
D1C
330
CDE
100
AcDbEntity
  8
Značka (ISO)
100
AcDbMText
 10
512.2468783670158
 20
104.7704541593791
 30
0.0
 40
3.499999940395355
 41
0.0
 71
     7
 72
     1
  1
0,073 kg
  7
Text poznámky (DIN)
 73
     1
 44
1.0
  0
MTEXT
  5
D1D
330
CDE
100
AcDbEntity
  8
Značka (ISO)
100
AcDbMText
 10
475.7691171660256
 20
105.8191554158927
 30
0.0
 40
3.499999940395355
 41
0.0
 71
     7
 72
     1
  1
408204
  7
Text poznámky (DIN)
 73
     1
 44
1.0
  0
MTEXT
  5
D1E
102
{ACAD_XDICTIONARY
360
1766
102
}
330
CDE
100
AcDbEntity
  8
Značka (ISO)
100
AcDbMText
 10
396.7818389749053
 20
104.5967528134585
 30
0.0
 40
3.499999940395355
 41
0.0
 71
     7
 72
     1
  1
Effidrain v\U+00FDpl\U+0148 rostov\U+00E1 n\U+00E1stavba 
  7
Text poznámky (DIN)
 73
     1
 44
1.0
  0
MTEXT
  5
D1F
330
CDE
100
AcDbEntity
  8
Značka (ISO)
100
AcDbMText
 10
396.7818389749053
 20
99.29675295054924
 30
0.0
 40
3.499999940395355
 41
0.0
 71
     7
 72
     1
  1
200x200
  7
Text poznámky (DIN)
 73
     1
 44
1.0
  0
MTEXT
  5
D20
330
CDE
100
AcDbEntity
  8
Značka (ISO)
100
AcDbMText
 10
377.0523848483407
 20
105.8191554158927
 30
0.0
 40
3.499999940395355
 41
0.0
 71
     7
 72
     1
  1
1
  7
Text poznámky (DIN)
 73
     1
 44
1.0
  0
MTEXT
  5
D21
330
CDE
100
AcDbEntity
  8
Značka (ISO)
100
AcDbMText
 10
333.6193889760756
 20
105.8191554158927
 30
0.0
 40
3.499999940395355
 41
0.0
 71
     7
 72
     1
  1
7
  7
Text poznámky (DIN)
 73
     1
 44
1.0
  0
LINE
  5
D22
330
CDE
100
AcDbEntity
  8
Značka (ISO)
100
AcDbLine
 10
584.0
 20
110.7435059845448
 30
0.0
 11
309.4114983610507
 21
110.7435059845448
 31
0.0
  0
MTEXT
  5
D23
330
CDE
100
AcDbEntity
  8
Značka (ISO)
100
AcDbMText
 10
548.4222387990097
 20
93.12175302207482
 30
0.0
 40
3.499999940395355
 41
0.0
 71
     7
 72
     1
  1
 
  7
Text poznámky (DIN)
 73
     1
 44
1.0
  0
MTEXT
  5
D24
330
CDE
100
AcDbEntity
  8
Značka (ISO)
100
AcDbMText
 10
512.2468783670158
 20
92.07305176556122
 30
0.0
 40
3.499999940395355
 41
0.0
 71
     7
 72
     1
  1
0,387 kg
  7
Text poznámky (DIN)
 73
     1
 44
1.0
  0
MTEXT
  5
D25
330
CDE
100
AcDbEntity
  8
Značka (ISO)
100
AcDbMText
 10
475.7691171660256
 20
93.12175302207482
 30
0.0
 40
3.499999940395355
 41
0.0
 71
     7
 72
     1
  1
E55518
  7
Text poznámky (DIN)
 73
     1
 44
1.0
  0
MTEXT
  5
D26
330
CDE
100
AcDbEntity
  8
Značka (ISO)
100
AcDbMText
 10
396.7818389749053
 20
92.07305176556122
 30
0.0
 40
3.499999940395355
 41
0.0
 71
     7
 72
     1
  1
ACO vpust 142 sifon svarenec V2A
  7
Text poznámky (DIN)
 73
     1
 44
1.0
  0
MTEXT
  5
D27
330
CDE
100
AcDbEntity
  8
Značka (ISO)
100
AcDbMText
 10
377.0523848483407
 20
93.12175302207482
 30
0.0
 40
3.499999940395355
 41
0.0
 71
     7
 72
     1
  1
1
  7
Text poznámky (DIN)
 73
     1
 44
1.0
  0
MTEXT
  5
D28
330
CDE
100
AcDbEntity
  8
Značka (ISO)
100
AcDbMText
 10
333.6221889831959
 20
93.12175302207482
 30
0.0
 40
3.499999940395355
 41
0.0
 71
     7
 72
     1
  1
8
  7
Text poznámky (DIN)
 73
     1
 44
1.0
  0
LINE
  5
D29
330
CDE
100
AcDbEntity
  8
Značka (ISO)
100
AcDbLine
 10
584.0
 20
98.04610359072695
 30
0.0
 11
309.4114983610507
 21
98.04610359072695
 31
0.0
  0
MTEXT
  5
D2A
330
CDE
100
AcDbEntity
  8
Značka (ISO)
100
AcDbMText
 10
548.4222387990097
 20
86.77305182516588
 30
0.0
 40
3.499999940395355
 41
0.0
 71
     7
 72
     1
  1
 
  7
Text poznámky (DIN)
 73
     1
 44
1.0
  0
MTEXT
  5
D2B
330
CDE
100
AcDbEntity
  8
Značka (ISO)
100
AcDbMText
 10
512.2468783670158
 20
85.72435056865229
 30
0.0
 40
3.499999940395355
 41
0.0
 71
     7
 72
     1
  1
2,321 kg
  7
Text poznámky (DIN)
 73
     1
 44
1.0
  0
MTEXT
  5
D2C
330
CDE
100
AcDbEntity
  8
Značka (ISO)
100
AcDbMText
 10
475.7691171660256
 20
86.77305182516588
 30
0.0
 40
3.499999940395355
 41
0.0
 71
     7
 72
     1
  1
E55663
  7
Text poznámky (DIN)
 73
     1
 44
1.0
  0
MTEXT
  5
D2D
330
CDE
100
AcDbEntity
  8
Značka (ISO)
100
AcDbMText
 10
396.7818389749053
 20
85.72435056865229
 30
0.0
 40
3.499999940395355
 41
0.0
 71
     7
 72
     1
  1
ACO vpust 142 svarenec vod. 
  7
Text poznámky (DIN)
 73
     1
 44
1.0
  0
MTEXT
  5
D2E
102
{ACAD_XDICTIONARY
360
1768
102
}
330
CDE
100
AcDbEntity
  8
Značka (ISO)
100
AcDbMText
 10
396.7818389749053
 20
79.37564944922937
 30
0.0
 40
3.499999940395355
 41
0.0
 71
     7
 72
     1
  1
p\U+0159\U+00EDruba DN100 V2A
  7
Text poznámky (DIN)
 73
     1
 44
1.0
  0
MTEXT
  5
D2F
330
CDE
100
AcDbEntity
  8
Značka (ISO)
100
AcDbMText
 10
377.0523848483407
 20
86.77305182516588
 30
0.0
 40
3.499999940395355
 41
0.0
 71
     7
 72
     1
  1
1
  7
Text poznámky (DIN)
 73
     1
 44
1.0
  0
MTEXT
  5
D30
330
CDE
100
AcDbEntity
  8
Značka (ISO)
100
AcDbMText
 10
332.744388916471
 20
86.77305182516588
 30
0.0
 40
3.499999940395355
 41
0.0
 71
     7
 72
     1
  1
15
  7
Text poznámky (DIN)
 73
     1
 44
1.0
  0
LINE
  5
D31
330
CDE
100
AcDbEntity
  8
Značka (ISO)
100
AcDbLine
 10
584.0
 20
91.697402393818
 30
0.0
 11
309.4114983610507
 21
91.697402393818
 31
0.0
  0
MTEXT
  5
D32
330
CDE
100
AcDbEntity
  8
Značka (ISO)
100
AcDbMText
 10
548.7246395680059
 20
74.07564943134798
 30
0.0
 40
3.499999940395355
 41
0.0
 71
     7
 72
     1
  1
PE-HD
  7
Text poznámky (DIN)
 73
     1
 44
1.0
  0
MTEXT
  5
D33
330
CDE
100
AcDbEntity
  8
Značka (ISO)
100
AcDbMText
 10
512.2468783670158
 20
73.02694817483438
 30
0.0
 40
3.499999940395355
 41
0.0
 71
     7
 72
     1
  1
0,000 kg
  7
Text poznámky (DIN)
 73
     1
 44
1.0
  0
MTEXT
  5
D34
330
CDE
100
AcDbEntity
  8
Značka (ISO)
100
AcDbMText
 10
475.7691171660256
 20
74.07564943134798
 30
0.0
 40
3.499999940395355
 41
0.0
 71
     7
 72
     1
  1
NM6522
  7
Text poznámky (DIN)
 73
     1
 44
1.0
  0
MTEXT
  5
D35
330
CDE
100
AcDbEntity
  8
Značka (ISO)
100
AcDbMText
 10
396.7818389749053
 20
73.02694817483438
 30
0.0
 40
3.499999940395355
 41
0.0
 71
     7
 72
     1
  1
sitka pro baleni
  7
Text poznámky (DIN)
 73
     1
 44
1.0
  0
MTEXT
  5
D36
330
CDE
100
AcDbEntity
  8
Značka (ISO)
100
AcDbMText
 10
377.0523848483407
 20
74.07564943134798
 30
0.0
 40
3.499999940395355
 41
0.0
 71
     7
 72
     1
  1
1
  7
Text poznámky (DIN)
 73
     1
 44
1.0
  0
MTEXT
  5
D37
330
CDE
100
AcDbEntity
  8
Značka (ISO)
100
AcDbMText
 10
332.744388916471
 20
74.07564943134798
 30
0.0
 40
3.499999940395355
 41
0.0
 71
     7
 72
     1
  1
17
  7
Text poznámky (DIN)
 73
     1
 44
1.0
  0
LINE
  5
D38
330
CDE
100
AcDbEntity
  8
Značka (ISO)
100
AcDbLine
 10
584.0
 20
79.00000000000012
 30
0.0
 11
309.4114983610507
 21
79.00000000000012
 31
0.0
  0
LINE
  5
D39
330
CDE
100
AcDbEntity
  8
Značka (ISO)
100
AcDbLine
 10
584.0
 20
72.65129880309117
 30
0.0
 11
309.4114983610507
 21
72.65129880309117
 31
0.0
  0
LINE
  5
D3A
330
CDE
100
AcDbEntity
  8
Značka (ISO)
100
AcDbLine
 10
584.0
 20
161.5331155598164
 30
0.0
 11
584.0
 21
72.65129880309117
 31
0.0
  0
LINE
  5
D3B
330
CDE
100
AcDbEntity
  8
Značka (ISO)
100
AcDbLine
 10
547.5222387990097
 20
161.5331155598164
 30
0.0
 11
547.5222387990097
 21
72.65129880309117
 31
0.0
  0
LINE
  5
D3C
330
CDE
100
AcDbEntity
  8
Značka (ISO)
100
AcDbLine
 10
511.0444775980196
 20
161.5331155598164
 30
0.0
 11
511.0444775980196
 21
72.65129880309117
 31
0.0
  0
LINE
  5
D3D
330
CDE
100
AcDbEntity
  8
Značka (ISO)
100
AcDbLine
 10
474.5667163970295
 20
161.5331155598164
 30
0.0
 11
474.5667163970295
 21
72.65129880309117
 31
0.0
  0
LINE
  5
D3E
330
CDE
100
AcDbEntity
  8
Značka (ISO)
100
AcDbLine
 10
395.5794382059092
 20
161.5331155598164
 30
0.0
 11
395.5794382059092
 21
72.65129880309117
 31
0.0
  0
LINE
  5
D3F
330
CDE
100
AcDbEntity
  8
Značka (ISO)
100
AcDbLine
 10
359.6761299372182
 20
161.5331155598164
 30
0.0
 11
359.6761299372182
 21
72.65129880309117
 31
0.0
  0
LINE
  5
D40
330
CDE
100
AcDbEntity
  8
Značka (ISO)
100
AcDbLine
 10
309.4114983610507
 20
161.5331155598164
 30
0.0
 11
309.4114983610507
 21
72.65129880309117
 31
0.0
  0
ENDBLK
  5
CE0
330
CDE
100
AcDbEntity
  8
0
100
AcDbBlockEnd
  0
BLOCK
  5
E15
330
E13
100
AcDbEntity
  8
0
100
AcDbBlockBegin
  2
GENAXEH
 70
     0
 10
0.0
 20
0.0
 30
0.0
  3
GENAXEH
  1

  0
LINE
  5
E14
330
E13
100
AcDbEntity
  8
0
100
AcDbLine
 10
-1.0
 20
0.0
 30
0.0
 11
1.0
 21
0.0
 31
0.0
  0
ENDBLK
  5
E16
330
E13
100
AcDbEntity
  8
0
100
AcDbBlockEnd
  0
BLOCK
  5
E40
330
E3F
100
AcDbEntity
  8
0
100
AcDbBlockBegin
  2
*D35
 70
     1
 10
0.0
 20
0.0
 30
0.0
  3
*D35
  1

  0
LINE
  5
E41
330
E3F
100
AcDbEntity
  8
5
370
    -2
100
AcDbLine
 10
272.6271324614348
 20
418.8847949178216
 30
0.0
 11
272.6271324614348
 21
402.5246248516238
 31
0.0
  0
LINE
  5
E42
330
E3F
100
AcDbEntity
  8
5
370
    -2
100
AcDbLine
 10
423.1271324614347
 20
443.4339118542731
 30
0.0
 11
423.1271324614347
 21
402.5246248516238
 31
0.0
  0
LINE
  5
E43
330
E3F
100
AcDbEntity
  8
5
370
    -2
100
AcDbLine
 10
277.6271324614348
 20
404.5246248516238
 30
0.0
 11
418.1271324614347
 21
404.5246248516238
 31
0.0
  0
SOLID
  5
E44
330
E3F
100
AcDbEntity
  8
5
100
AcDbTrace
 10
277.6271324614348
 20
405.3579581849572
 30
0.0
 11
277.6271324614348
 21
403.6912915182906
 31
0.0
 12
272.6271324614348
 22
404.5246248516238
 32
0.0
 13
272.6271324614348
 23
404.5246248516238
 33
0.0
  0
SOLID
  5
E45
330
E3F
100
AcDbEntity
  8
5
100
AcDbTrace
 10
418.1271324614347
 20
405.3579581849572
 30
0.0
 11
418.1271324614347
 21
403.6912915182906
 31
0.0
 12
423.1271324614347
 22
404.5246248516238
 32
0.0
 13
423.1271324614347
 23
404.5246248516238
 33
0.0
  0
MTEXT
  5
E46
330
E3F
100
AcDbEntity
  8
5
 62
     7
100
AcDbMText
 10
332.7658062307346
 20
420.2981641397366
 30
0.0
 40
14.0
 41
0.0
 71
     1
 72
     1
  1
150
 73
     1
 44
1.0
  0
POINT
  5
E47
330
E3F
100
AcDbEntity
  8
Defpoints
 62
     0
100
AcDbPoint
 10
272.6271324614348
 20
420.8847949178216
 30
0.0
  0
POINT
  5
E48
330
E3F
100
AcDbEntity
  8
Defpoints
 62
     0
100
AcDbPoint
 10
423.1271324614347
 20
445.4339118542732
 30
0.0
  0
POINT
  5
E49
330
E3F
100
AcDbEntity
  8
Defpoints
 62
     0
100
AcDbPoint
 10
423.1271324614347
 20
404.5246248516238
 30
0.0
  0
ENDBLK
  5
E4A
330
E3F
100
AcDbEntity
  8
0
100
AcDbBlockEnd
  0
BLOCK
  5
E4C
330
E4B
100
AcDbEntity
  8
0
100
AcDbBlockBegin
  2
*D36
 70
     1
 10
0.0
 20
0.0
 30
0.0
  3
*D36
  1

  0
LINE
  5
E4D
330
E4B
100
AcDbEntity
  8
5
370
    -2
100
AcDbLine
 10
372.6776427185691
 20
587.6837477438746
 30
0.0
 11
485.4384441663866
 21
587.6837477438746
 31
0.0
  0
LINE
  5
E4E
330
E4B
100
AcDbEntity
  8
5
370
    -2
100
AcDbLine
 10
456.8405170462467
 20
481.9288995438745
 30
0.0
 11
485.4384441663866
 21
481.9288995438745
 31
0.0
  0
LINE
  5
E4F
330
E4B
100
AcDbEntity
  8
5
370
    -2
100
AcDbLine
 10
483.4384441663868
 20
582.6837477438746
 30
0.0
 11
483.4384441663868
 21
486.9288995438745
 31
0.0
  0
SOLID
  5
E50
330
E4B
100
AcDbEntity
  8
5
100
AcDbTrace
 10
482.6051108330532
 20
582.6837477438746
 30
0.0
 11
484.2717774997201
 21
582.6837477438746
 31
0.0
 12
483.4384441663868
 22
587.6837477438746
 32
0.0
 13
483.4384441663868
 23
587.6837477438746
 33
0.0
  0
SOLID
  5
E51
330
E4B
100
AcDbEntity
  8
5
100
AcDbTrace
 10
482.6051108330532
 20
486.9288995438745
 30
0.0
 11
484.2717774997201
 21
486.9288995438745
 31
0.0
 12
483.4384441663868
 22
481.9288995438745
 32
0.0
 13
483.4384441663868
 23
481.9288995438745
 33
0.0
  0
MTEXT
  5
E52
330
E4B
100
AcDbEntity
  8
5
 62
     7
100
AcDbMText
 10
467.6649048782738
 20
520.5411288822896
 30
0.0
 40
14.0
 41
0.0
 71
     1
 72
     1
  1
106
 11
0.0000000000000001
 21
1.0
 31
0.0
 73
     1
 44
1.0
  0
POINT
  5
E53
330
E4B
100
AcDbEntity
  8
Defpoints
 62
     0
100
AcDbPoint
 10
370.6776427185691
 20
587.6837477438746
 30
0.0
  0
POINT
  5
E54
330
E4B
100
AcDbEntity
  8
Defpoints
 62
     0
100
AcDbPoint
 10
454.8405170462467
 20
481.9288995438745
 30
0.0
  0
POINT
  5
E55
330
E4B
100
AcDbEntity
  8
Defpoints
 62
     0
100
AcDbPoint
 10
483.4384441663868
 20
481.9288995438745
 30
0.0
  0
ENDBLK
  5
E56
330
E4B
100
AcDbEntity
  8
0
100
AcDbBlockEnd
  0
BLOCK
  5
E58
330
E57
100
AcDbEntity
  8
0
100
AcDbBlockBegin
  2
*D37
 70
     1
 10
0.0
 20
0.0
 30
0.0
  3
*D37
  1

  0
LINE
  5
E59
330
E57
100
AcDbEntity
  8
5
370
    -2
100
AcDbLine
 10
356.1364519742493
 20
562.7876005387141
 30
0.0
 11
452.1547456697136
 21
562.7876005387141
 31
0.0
  0
LINE
  5
E5A
330
E57
100
AcDbEntity
  8
5
370
    -2
100
AcDbLine
 10
372.6776427185691
 20
587.6837477438746
 30
0.0
 11
452.1547456697136
 21
587.6837477438746
 31
0.0
  0
LINE
  5
E5B
330
E57
100
AcDbEntity
  8
5
370
    -2
100
AcDbLine
 10
450.1547456697138
 20
567.7876005387141
 30
0.0
 11
450.1547456697138
 21
582.6837477438746
 31
0.0
  0
SOLID
  5
E5C
330
E57
100
AcDbEntity
  8
5
100
AcDbTrace
 10
449.3214123363805
 20
567.7876005387141
 30
0.0
 11
450.9880790030471
 21
567.7876005387141
 31
0.0
 12
450.1547456697138
 22
562.7876005387141
 32
0.0
 13
450.1547456697138
 23
562.7876005387141
 33
0.0
  0
SOLID
  5
E5D
330
E57
100
AcDbEntity
  8
5
100
AcDbTrace
 10
449.3214123363805
 20
582.6837477438746
 30
0.0
 11
450.9880790030471
 21
582.6837477438746
 31
0.0
 12
450.1547456697138
 22
587.6837477438746
 32
0.0
 13
450.1547456697138
 23
587.6837477438746
 33
0.0
  0
MTEXT
  5
E5E
330
E57
100
AcDbEntity
  8
5
 62
     7
100
AcDbMText
 10
434.371804098189
 20
565.739367895492
 30
0.0
 40
14.0
 41
0.0
 71
     1
 72
     1
  1
25
 11
0.0000000000000001
 21
1.0
 31
0.0
 73
     1
 44
1.0
  0
POINT
  5
E5F
330
E57
100
AcDbEntity
  8
Defpoints
 62
     0
100
AcDbPoint
 10
354.1364519742493
 20
562.7876005387141
 30
0.0
  0
POINT
  5
E60
330
E57
100
AcDbEntity
  8
Defpoints
 62
     0
100
AcDbPoint
 10
370.6776427185691
 20
587.6837477438746
 30
0.0
  0
POINT
  5
E61
330
E57
100
AcDbEntity
  8
Defpoints
 62
     0
100
AcDbPoint
 10
450.1547456697138
 20
587.6837477438746
 30
0.0
  0
ENDBLK
  5
E62
330
E57
100
AcDbEntity
  8
0
100
AcDbBlockEnd
  0
BLOCK
  5
E64
330
E63
100
AcDbEntity
  8
0
100
AcDbBlockBegin
  2
*D38
 70
     1
 10
0.0
 20
0.0
 30
0.0
  3
*D38
  1

  0
LINE
  5
E65
330
E63
100
AcDbEntity
  8
5
370
    -2
100
AcDbLine
 10
122.6271324613521
 20
569.6837477438746
 30
0.0
 11
122.6271324613521
 21
626.3504144105412
 31
0.0
  0
LINE
  5
E66
330
E63
100
AcDbEntity
  8
5
370
    -2
100
AcDbLine
 10
422.6271324613521
 20
569.6837477438746
 30
0.0
 11
422.6271324613521
 21
626.3504144105412
 31
0.0
  0
LINE
  5
E67
330
E63
100
AcDbEntity
  8
5
370
    -2
100
AcDbLine
 10
127.6271324613521
 20
624.3504144105412
 30
0.0
 11
417.6271324613521
 21
624.3504144105412
 31
0.0
  0
SOLID
  5
E68
330
E63
100
AcDbEntity
  8
5
100
AcDbTrace
 10
127.6271324613521
 20
625.1837477438746
 30
0.0
 11
127.6271324613521
 21
623.5170810772078
 31
0.0
 12
122.6271324613521
 22
624.3504144105412
 32
0.0
 13
122.6271324613521
 23
624.3504144105412
 33
0.0
  0
SOLID
  5
E69
330
E63
100
AcDbEntity
  8
5
100
AcDbTrace
 10
417.6271324613521
 20
625.1837477438746
 30
0.0
 11
417.6271324613521
 21
623.5170810772078
 31
0.0
 12
422.6271324613521
 22
624.3504144105412
 32
0.0
 13
422.6271324613521
 23
624.3504144105412
 33
0.0
  0
MTEXT
  5
E6A
330
E63
100
AcDbEntity
  8
5
 62
     7
100
AcDbMText
 10
254.026435589372
 20
640.1333559820657
 30
0.0
 40
14.0
 41
0.0
 71
     1
 72
     1
  1
{\fAIGDT|b0|i0;\H5.8333;o\fTahoma|b0|i0;\H5.8333;}300
 73
     1
 44
1.0
  0
POINT
  5
E6B
330
E63
100
AcDbEntity
  8
Defpoints
 62
     0
100
AcDbPoint
 10
122.6271324613521
 20
567.6837477438746
 30
0.0
  0
POINT
  5
E6C
330
E63
100
AcDbEntity
  8
Defpoints
 62
     0
100
AcDbPoint
 10
422.6271324613521
 20
567.6837477438746
 30
0.0
  0
POINT
  5
E6D
330
E63
100
AcDbEntity
  8
Defpoints
 62
     0
100
AcDbPoint
 10
422.6271324613521
 20
624.3504144105412
 30
0.0
  0
ENDBLK
  5
E6E
330
E63
100
AcDbEntity
  8
0
100
AcDbBlockEnd
  0
BLOCK
  5
E70
330
E6F
100
AcDbEntity
  8
0
100
AcDbBlockBegin
  2
*D39
 70
     1
 10
0.0
 20
0.0
 30
0.0
  3
*D39
  1

  0
LINE
  5
E71
330
E6F
100
AcDbEntity
  8
5
370
    -2
100
AcDbLine
 10
172.6271324614348
 20
587.6837477438746
 30
0.0
 11
172.6271324614348
 21
604.3504144105412
 31
0.0
  0
LINE
  5
E72
330
E6F
100
AcDbEntity
  8
5
370
    -2
100
AcDbLine
 10
372.6271324614348
 20
587.6837477438745
 30
0.0
 11
372.6271324614348
 21
604.3504144105412
 31
0.0
  0
LINE
  5
E73
330
E6F
100
AcDbEntity
  8
5
370
    -2
100
AcDbLine
 10
177.6271324614348
 20
602.3504144105412
 30
0.0
 11
367.6271324614348
 21
602.3504144105412
 31
0.0
  0
SOLID
  5
E74
330
E6F
100
AcDbEntity
  8
5
100
AcDbTrace
 10
177.6271324614348
 20
603.1837477438746
 30
0.0
 11
177.6271324614348
 21
601.5170810772079
 31
0.0
 12
172.6271324614348
 22
602.3504144105412
 32
0.0
 13
172.6271324614348
 23
602.3504144105412
 33
0.0
  0
SOLID
  5
E75
330
E6F
100
AcDbEntity
  8
5
100
AcDbTrace
 10
367.6271324614348
 20
603.1837477438746
 30
0.0
 11
367.6271324614348
 21
601.5170810772079
 31
0.0
 12
372.6271324614348
 22
602.3504144105412
 32
0.0
 13
372.6271324614348
 23
602.3504144105412
 33
0.0
  0
MTEXT
  5
E76
330
E6F
100
AcDbEntity
  8
5
 62
     7
100
AcDbMText
 10
254.0264355894546
 20
618.1333559820657
 30
0.0
 40
14.0
 41
0.0
 71
     1
 72
     1
  1
{\fAIGDT|b0|i0;\H5.8333;o\fTahoma|b0|i0;\H5.8333;}200
 73
     1
 44
1.0
  0
POINT
  5
E77
330
E6F
100
AcDbEntity
  8
Defpoints
 62
     0
100
AcDbPoint
 10
172.6271324614348
 20
585.6837477438745
 30
0.0
  0
POINT
  5
E78
330
E6F
100
AcDbEntity
  8
Defpoints
 62
     0
100
AcDbPoint
 10
372.6271324614348
 20
585.6837477438745
 30
0.0
  0
POINT
  5
E79
330
E6F
100
AcDbEntity
  8
Defpoints
 62
     0
100
AcDbPoint
 10
372.6271324614348
 20
602.3504144105412
 30
0.0
  0
ENDBLK
  5
E7A
330
E6F
100
AcDbEntity
  8
0
100
AcDbBlockEnd
  0
BLOCK
  5
E7C
330
E7B
100
AcDbEntity
  8
0
100
AcDbBlockBegin
  2
*D40
 70
     1
 10
0.0
 20
0.0
 30
0.0
  3
*D40
  1

  0
LINE
  5
E7D
330
E7B
100
AcDbEntity
  8
5
370
    -2
100
AcDbLine
 10
172.0009408644394
 20
587.6837477438746
 30
0.0
 11
109.6224374939883
 21
587.6837477438746
 31
0.0
  0
LINE
  5
E7E
330
E7B
100
AcDbEntity
  8
5
370
    -2
100
AcDbLine
 10
227.6019199252456
 20
450.1788995438745
 30
0.0
 11
109.6224374939882
 21
450.1788995438745
 31
0.0
  0
LINE
  5
E7F
330
E7B
100
AcDbEntity
  8
5
370
    -2
100
AcDbLine
 10
111.6224374939883
 20
582.6837477438746
 30
0.0
 11
111.6224374939882
 21
455.1788995438745
 31
0.0
  0
SOLID
  5
E80
330
E7B
100
AcDbEntity
  8
5
100
AcDbTrace
 10
110.7891041606549
 20
582.6837477438746
 30
0.0
 11
112.4557708273216
 21
582.6837477438746
 31
0.0
 12
111.6224374939883
 22
587.6837477438746
 32
0.0
 13
111.6224374939883
 23
587.6837477438746
 33
0.0
  0
SOLID
  5
E81
330
E7B
100
AcDbEntity
  8
5
100
AcDbTrace
 10
110.7891041606549
 20
455.1788995438745
 30
0.0
 11
112.4557708273215
 21
455.1788995438745
 31
0.0
 12
111.6224374939882
 22
450.1788995438745
 32
0.0
 13
111.6224374939882
 23
450.1788995438745
 33
0.0
  0
MTEXT
  5
E82
330
E7B
100
AcDbEntity
  8
5
 62
     7
100
AcDbMText
 10
95.78308222199357
 20
504.5740368742305
 30
0.0
 40
14.0
 41
0.0
 71
     1
 72
     1
  1
138
 11
0.0000000000000001
 21
1.0
 31
0.0
 73
     1
 44
1.0
  0
POINT
  5
E83
330
E7B
100
AcDbEntity
  8
Defpoints
 62
     0
100
AcDbPoint
 10
174.0009408644394
 20
587.6837477438746
 30
0.0
  0
POINT
  5
E84
330
E7B
100
AcDbEntity
  8
Defpoints
 62
     0
100
AcDbPoint
 10
229.6019199252457
 20
450.1788995438745
 30
0.0
  0
POINT
  5
E85
330
E7B
100
AcDbEntity
  8
Defpoints
 62
     0
100
AcDbPoint
 10
111.6224374939882
 20
450.1788995438745
 30
0.0
  0
ENDBLK
  5
E86
330
E7B
100
AcDbEntity
  8
0
100
AcDbBlockEnd
  0
BLOCK
  5
E88
330
E87
100
AcDbEntity
  8
0
100
AcDbBlockBegin
  2
*D41
 70
     1
 10
0.0
 20
0.0
 30
0.0
  3
*D41
  1

  0
LINE
  5
E89
330
E87
100
AcDbEntity
  8
5
370
    -2
100
AcDbLine
 10
423.1271324614349
 20
519.4288995438745
 30
0.0
 11
451.4236844563141
 21
519.4288995438745
 31
0.0
  0
LINE
  5
E8A
330
E87
100
AcDbEntity
  8
5
370
    -2
100
AcDbLine
 10
423.1271324614347
 20
444.4288995438745
 30
0.0
 11
451.4236844563141
 21
444.4288995438745
 31
0.0
  0
LINE
  5
E8B
330
E87
100
AcDbEntity
  8
5
370
    -2
100
AcDbLine
 10
449.4236844563141
 20
514.4288995438745
 30
0.0
 11
449.4236844563141
 21
449.4288995438745
 31
0.0
  0
SOLID
  5
E8C
330
E87
100
AcDbEntity
  8
5
100
AcDbTrace
 10
448.5903511229808
 20
514.4288995438745
 30
0.0
 11
450.2570177896473
 21
514.4288995438745
 31
0.0
 12
449.4236844563141
 22
519.4288995438745
 32
0.0
 13
449.4236844563141
 23
519.4288995438745
 33
0.0
  0
SOLID
  5
E8D
330
E87
100
AcDbEntity
  8
5
100
AcDbTrace
 10
448.5903511229808
 20
449.4288995438745
 30
0.0
 11
450.2570177896473
 21
449.4288995438745
 31
0.0
 12
449.4236844563141
 22
444.4288995438745
 32
0.0
 13
449.4236844563141
 23
444.4288995438745
 33
0.0
  0
MTEXT
  5
E8E
330
E87
100
AcDbEntity
  8
5
 62
     7
100
AcDbMText
 10
440.2458469814987
 20
481.9288995438748
 30
0.0
 40
14.0
 41
0.0
 71
     5
 72
     1
  1
%%c75
 11
0.0000000000000001
 21
1.0
 31
0.0
 73
     1
 44
1.0
  0
POINT
  5
E8F
330
E87
100
AcDbEntity
  8
Defpoints
 62
     0
100
AcDbPoint
 10
421.1271324614346
 20
519.4288995438745
 30
0.0
  0
POINT
  5
E90
330
E87
100
AcDbEntity
  8
Defpoints
 62
     0
100
AcDbPoint
 10
421.1271324614346
 20
444.4288995438745
 30
0.0
  0
POINT
  5
E91
330
E87
100
AcDbEntity
  8
Defpoints
 62
     0
100
AcDbPoint
 10
449.4236844563141
 20
444.4288995438745
 30
0.0
  0
ENDBLK
  5
E92
330
E87
100
AcDbEntity
  8
0
100
AcDbBlockEnd
  0
BLOCK
  5
E94
330
E93
100
AcDbEntity
  8
0
100
AcDbBlockBegin
  2
*D42
 70
     1
 10
0.0
 20
0.0
 30
0.0
  3
*D42
  1

  0
LINE
  5
E95
330
E93
100
AcDbEntity
  8
5
370
    -2
100
AcDbLine
 10
201.3771324614348
 20
466.7224706648759
 30
0.0
 11
201.3771324614348
 21
422.6242620021094
 31
0.0
  0
LINE
  5
E96
330
E93
100
AcDbEntity
  8
5
370
    -2
100
AcDbLine
 10
343.8771324614347
 20
513.6788995438745
 30
0.0
 11
343.8771324614347
 21
422.6242620021094
 31
0.0
  0
LINE
  5
E97
330
E93
100
AcDbEntity
  8
5
370
    -2
100
AcDbLine
 10
206.3771324614346
 20
424.6242620021096
 30
0.0
 11
338.8771324614347
 21
424.6242620021096
 31
0.0
  0
SOLID
  5
E98
330
E93
100
AcDbEntity
  8
5
100
AcDbTrace
 10
206.3771324614346
 20
425.4575953354429
 30
0.0
 11
206.3771324614346
 21
423.7909286687763
 31
0.0
 12
201.3771324614348
 22
424.6242620021096
 32
0.0
 13
201.3771324614348
 23
424.6242620021096
 33
0.0
  0
SOLID
  5
E99
330
E93
100
AcDbEntity
  8
5
100
AcDbTrace
 10
338.8771324614347
 20
425.4575953354429
 30
0.0
 11
338.8771324614347
 21
423.7909286687763
 31
0.0
 12
343.8771324614347
 22
424.6242620021096
 32
0.0
 13
343.8771324614347
 23
424.6242620021096
 33
0.0
  0
MTEXT
  5
E9A
330
E93
100
AcDbEntity
  8
5
 62
     7
100
AcDbMText
 10
272.6271324614347
 20
432.9699973949907
 30
0.0
 40
14.0
 41
0.0
 71
     5
 72
     1
  1
142
 73
     1
 44
1.0
  0
POINT
  5
E9B
330
E93
100
AcDbEntity
  8
Defpoints
 62
     0
100
AcDbPoint
 10
201.3771324614348
 20
468.7224706648761
 30
0.0
  0
POINT
  5
E9C
330
E93
100
AcDbEntity
  8
Defpoints
 62
     0
100
AcDbPoint
 10
343.8771324614347
 20
515.6788995438745
 30
0.0
  0
POINT
  5
E9D
330
E93
100
AcDbEntity
  8
Defpoints
 62
     0
100
AcDbPoint
 10
343.8771324614347
 20
424.6242620021096
 30
0.0
  0
ENDBLK
  5
E9E
330
E93
100
AcDbEntity
  8
0
100
AcDbBlockEnd
  0
BLOCK
  5
EA0
330
E9F
100
AcDbEntity
  8
0
100
AcDbBlockBegin
  2
*D43
 70
     1
 10
0.0
 20
0.0
 30
0.0
  3
*D43
  1

  0
LINE
  5
EA1
330
E9F
100
AcDbEntity
  8
5
370
    -2
100
AcDbLine
 10
372.6776427186517
 20
587.6788995438745
 30
0.0
 11
511.3916036019951
 21
587.6788995438745
 31
0.0
  0
LINE
  5
EA2
330
E9F
100
AcDbEntity
  8
5
370
    -2
100
AcDbLine
 10
423.1271324614347
 20
444.4288995438745
 30
0.0
 11
511.3916036019951
 21
444.4288995438745
 31
0.0
  0
LINE
  5
EA3
330
E9F
100
AcDbEntity
  8
5
370
    -2
100
AcDbLine
 10
509.3916036019951
 20
582.6788995438745
 30
0.0
 11
509.3916036019951
 21
449.4288995438745
 31
0.0
  0
SOLID
  5
EA4
330
E9F
100
AcDbEntity
  8
5
100
AcDbTrace
 10
508.5582702686618
 20
582.6788995438745
 30
0.0
 11
510.2249369353286
 21
582.6788995438745
 31
0.0
 12
509.3916036019951
 22
587.6788995438745
 32
0.0
 13
509.3916036019951
 23
587.6788995438745
 33
0.0
  0
SOLID
  5
EA5
330
E9F
100
AcDbEntity
  8
5
100
AcDbTrace
 10
508.5582702686618
 20
449.4288995438745
 30
0.0
 11
510.2249369353286
 21
449.4288995438745
 31
0.0
 12
509.3916036019951
 22
444.4288995438745
 32
0.0
 13
509.3916036019951
 23
444.4288995438745
 33
0.0
  0
MTEXT
  5
EA6
330
E9F
100
AcDbEntity
  8
5
 62
     7
100
AcDbMText
 10
500.9001328162328
 20
516.0538995438749
 30
0.0
 40
14.0
 41
0.0
 71
     5
 72
     1
  1
143
 11
0.0000000000000001
 21
1.0
 31
0.0
 73
     1
 44
1.0
  0
POINT
  5
EA7
330
E9F
100
AcDbEntity
  8
Defpoints
 62
     0
100
AcDbPoint
 10
370.6776427186517
 20
587.6788995438745
 30
0.0
  0
POINT
  5
EA8
330
E9F
100
AcDbEntity
  8
Defpoints
 62
     0
100
AcDbPoint
 10
421.1271324614346
 20
444.4288995438745
 30
0.0
  0
POINT
  5
EA9
330
E9F
100
AcDbEntity
  8
Defpoints
 62
     0
100
AcDbPoint
 10
509.3916036019951
 20
444.4288995438745
 30
0.0
  0
ENDBLK
  5
EAA
330
E9F
100
AcDbEntity
  8
0
100
AcDbBlockEnd
  0
BLOCK
  5
FCE
330
FCD
100
AcDbEntity
  8
0
100
AcDbBlockBegin
  2
*D44
 70
     1
 10
0.0
 20
0.0
 30
0.0
  3
*D44
  1

  0
LINE
  5
10A9
330
FCD
100
AcDbEntity
  8
5
370
    -2
100
AcDbLine
 10
886.1567124575952
 20
432.4619052161728
 30
0.0
 11
886.1567124575952
 21
416.1017351499752
 31
0.0
  0
LINE
  5
10AA
330
FCD
100
AcDbEntity
  8
5
370
    -2
100
AcDbLine
 10
1036.656712457595
 20
457.0110221526244
 30
0.0
 11
1036.656712457595
 21
416.1017351499752
 31
0.0
  0
LINE
  5
10AB
330
FCD
100
AcDbEntity
  8
5
370
    -2
100
AcDbLine
 10
891.1567124575954
 20
418.1017351499751
 30
0.0
 11
1031.656712457595
 21
418.1017351499751
 31
0.0
  0
SOLID
  5
10AC
330
FCD
100
AcDbEntity
  8
5
100
AcDbTrace
 10
891.1567124575954
 20
418.9350684833085
 30
0.0
 11
891.1567124575954
 21
417.2684018166418
 31
0.0
 12
886.1567124575952
 22
418.1017351499751
 32
0.0
 13
886.1567124575952
 23
418.1017351499751
 33
0.0
  0
SOLID
  5
10AD
330
FCD
100
AcDbEntity
  8
5
100
AcDbTrace
 10
1031.656712457595
 20
418.9350684833085
 30
0.0
 11
1031.656712457595
 21
417.2684018166418
 31
0.0
 12
1036.656712457595
 22
418.1017351499751
 32
0.0
 13
1036.656712457595
 23
418.1017351499751
 33
0.0
  0
MTEXT
  5
10AE
330
FCD
100
AcDbEntity
  8
5
 62
     7
100
AcDbMText
 10
946.2953862268953
 20
433.8752744380878
 30
0.0
 40
14.0
 41
0.0
 71
     1
 72
     1
  1
150
 73
     1
 44
1.0
  0
POINT
  5
10AF
330
FCD
100
AcDbEntity
  8
Defpoints
 62
     0
100
AcDbPoint
 10
886.1567124575952
 20
434.4619052161728
 30
0.0
  0
POINT
  5
10B0
330
FCD
100
AcDbEntity
  8
Defpoints
 62
     0
100
AcDbPoint
 10
1036.656712457595
 20
459.0110221526242
 30
0.0
  0
POINT
  5
10B1
330
FCD
100
AcDbEntity
  8
Defpoints
 62
     0
100
AcDbPoint
 10
1036.656712457595
 20
418.1017351499751
 30
0.0
  0
ENDBLK
  5
FCF
330
FCD
100
AcDbEntity
  8
0
100
AcDbBlockEnd
  0
BLOCK
  5
FDA
330
FD9
100
AcDbEntity
  8
0
100
AcDbBlockBegin
  2
*D45
 70
     1
 10
0.0
 20
0.0
 30
0.0
  3
*D45
  1

  0
LINE
  5
10B2
330
FD9
100
AcDbEntity
  8
5
370
    -2
100
AcDbLine
 10
986.2072227147296
 20
601.2608580422257
 30
0.0
 11
1098.968024162547
 21
601.2608580422257
 31
0.0
  0
LINE
  5
10B3
330
FD9
100
AcDbEntity
  8
5
370
    -2
100
AcDbLine
 10
1070.370097042407
 20
495.506009842226
 30
0.0
 11
1098.968024162547
 21
495.506009842226
 31
0.0
  0
LINE
  5
10B4
330
FD9
100
AcDbEntity
  8
5
370
    -2
100
AcDbLine
 10
1096.968024162547
 20
596.2608580422259
 30
0.0
 11
1096.968024162547
 21
500.506009842226
 31
0.0
  0
SOLID
  5
10B5
330
FD9
100
AcDbEntity
  8
5
100
AcDbTrace
 10
1096.134690829214
 20
596.2608580422259
 30
0.0
 11
1097.801357495881
 21
596.2608580422259
 31
0.0
 12
1096.968024162547
 22
601.2608580422257
 32
0.0
 13
1096.968024162547
 23
601.2608580422257
 33
0.0
  0
SOLID
  5
10B6
330
FD9
100
AcDbEntity
  8
5
100
AcDbTrace
 10
1096.134690829214
 20
500.506009842226
 30
0.0
 11
1097.80135749588
 21
500.506009842226
 31
0.0
 12
1096.968024162547
 22
495.506009842226
 32
0.0
 13
1096.968024162547
 23
495.506009842226
 33
0.0
  0
MTEXT
  5
10B7
330
FD9
100
AcDbEntity
  8
5
 62
     7
100
AcDbMText
 10
1081.194484874434
 20
534.118239180641
 30
0.0
 40
14.0
 41
0.0
 71
     1
 72
     1
  1
106
 11
0.0000000000000001
 21
1.0
 31
0.0
 73
     1
 44
1.0
  0
POINT
  5
10B8
330
FD9
100
AcDbEntity
  8
Defpoints
 62
     0
100
AcDbPoint
 10
984.2072227147298
 20
601.2608580422257
 30
0.0
  0
POINT
  5
10B9
330
FD9
100
AcDbEntity
  8
Defpoints
 62
     0
100
AcDbPoint
 10
1068.370097042407
 20
495.506009842226
 30
0.0
  0
POINT
  5
10BA
330
FD9
100
AcDbEntity
  8
Defpoints
 62
     0
100
AcDbPoint
 10
1096.968024162547
 20
495.506009842226
 30
0.0
  0
ENDBLK
  5
FDB
330
FD9
100
AcDbEntity
  8
0
100
AcDbBlockEnd
  0
BLOCK
  5
FE6
330
FE5
100
AcDbEntity
  8
0
100
AcDbBlockBegin
  2
*D46
 70
     1
 10
0.0
 20
0.0
 30
0.0
  3
*D46
  1

  0
LINE
  5
10BB
330
FE5
100
AcDbEntity
  8
5
370
    -2
100
AcDbLine
 10
969.6660319704101
 20
576.3647108370655
 30
0.0
 11
1065.684325665874
 21
576.3647108370655
 31
0.0
  0
LINE
  5
10BC
330
FE5
100
AcDbEntity
  8
5
370
    -2
100
AcDbLine
 10
986.2072227147296
 20
601.2608580422257
 30
0.0
 11
1065.684325665874
 21
601.2608580422257
 31
0.0
  0
LINE
  5
10BD
330
FE5
100
AcDbEntity
  8
5
370
    -2
100
AcDbLine
 10
1063.684325665875
 20
581.3647108370656
 30
0.0
 11
1063.684325665875
 21
596.2608580422259
 31
0.0
  0
SOLID
  5
10BE
330
FE5
100
AcDbEntity
  8
5
100
AcDbTrace
 10
1062.850992332541
 20
581.3647108370656
 30
0.0
 11
1064.517658999208
 21
581.3647108370656
 31
0.0
 12
1063.684325665875
 22
576.3647108370655
 32
0.0
 13
1063.684325665875
 23
576.3647108370655
 33
0.0
  0
SOLID
  5
10BF
330
FE5
100
AcDbEntity
  8
5
100
AcDbTrace
 10
1062.850992332541
 20
596.2608580422259
 30
0.0
 11
1064.517658999208
 21
596.2608580422259
 31
0.0
 12
1063.684325665875
 22
601.2608580422257
 32
0.0
 13
1063.684325665875
 23
601.2608580422257
 33
0.0
  0
MTEXT
  5
10C0
330
FE5
100
AcDbEntity
  8
5
 62
     7
100
AcDbMText
 10
1047.90138409435
 20
579.3164781938432
 30
0.0
 40
14.0
 41
0.0
 71
     1
 72
     1
  1
25
 11
0.0000000000000001
 21
1.0
 31
0.0
 73
     1
 44
1.0
  0
POINT
  5
10C1
330
FE5
100
AcDbEntity
  8
Defpoints
 62
     0
100
AcDbPoint
 10
967.6660319704099
 20
576.3647108370655
 30
0.0
  0
POINT
  5
10C2
330
FE5
100
AcDbEntity
  8
Defpoints
 62
     0
100
AcDbPoint
 10
984.2072227147298
 20
601.2608580422257
 30
0.0
  0
POINT
  5
10C3
330
FE5
100
AcDbEntity
  8
Defpoints
 62
     0
100
AcDbPoint
 10
1063.684325665875
 20
601.2608580422257
 30
0.0
  0
ENDBLK
  5
FE7
330
FE5
100
AcDbEntity
  8
0
100
AcDbBlockEnd
  0
BLOCK
  5
FF2
330
FF1
100
AcDbEntity
  8
0
100
AcDbBlockBegin
  2
*D47
 70
     1
 10
0.0
 20
0.0
 30
0.0
  3
*D47
  1

  0
LINE
  5
1105
330
FF1
100
AcDbEntity
  8
5
370
    -2
100
AcDbLine
 10
736.1567124575128
 20
583.2608580422259
 30
0.0
 11
736.1567124575128
 21
639.9275247088925
 31
0.0
  0
LINE
  5
1106
330
FF1
100
AcDbEntity
  8
5
370
    -2
100
AcDbLine
 10
1036.156712457513
 20
583.2608580422259
 30
0.0
 11
1036.156712457513
 21
639.9275247088925
 31
0.0
  0
LINE
  5
1107
330
FF1
100
AcDbEntity
  8
5
370
    -2
100
AcDbLine
 10
741.1567124575128
 20
637.9275247088925
 30
0.0
 11
1031.156712457513
 21
637.9275247088925
 31
0.0
  0
SOLID
  5
1108
330
FF1
100
AcDbEntity
  8
5
100
AcDbTrace
 10
741.1567124575128
 20
638.7608580422257
 30
0.0
 11
741.1567124575128
 21
637.0941913755591
 31
0.0
 12
736.1567124575128
 22
637.9275247088925
 32
0.0
 13
736.1567124575128
 23
637.9275247088925
 33
0.0
  0
SOLID
  5
1109
330
FF1
100
AcDbEntity
  8
5
100
AcDbTrace
 10
1031.156712457513
 20
638.7608580422257
 30
0.0
 11
1031.156712457513
 21
637.0941913755591
 31
0.0
 12
1036.156712457513
 22
637.9275247088925
 32
0.0
 13
1036.156712457513
 23
637.9275247088925
 33
0.0
  0
MTEXT
  5
110A
330
FF1
100
AcDbEntity
  8
5
 62
     7
100
AcDbMText
 10
867.5560155855327
 20
653.710466280417
 30
0.0
 40
14.0
 41
0.0
 71
     1
 72
     1
  1
{\fAIGDT|b0|i0;\H5.8333;o\fTahoma|b0|i0;\H5.8333;}300
 73
     1
 44
1.0
  0
POINT
  5
110B
330
FF1
100
AcDbEntity
  8
Defpoints
 62
     0
100
AcDbPoint
 10
736.1567124575128
 20
581.2608580422257
 30
0.0
  0
POINT
  5
110C
330
FF1
100
AcDbEntity
  8
Defpoints
 62
     0
100
AcDbPoint
 10
1036.156712457513
 20
581.2608580422257
 30
0.0
  0
POINT
  5
110D
330
FF1
100
AcDbEntity
  8
Defpoints
 62
     0
100
AcDbPoint
 10
1036.156712457513
 20
637.9275247088925
 30
0.0
  0
ENDBLK
  5
FF3
330
FF1
100
AcDbEntity
  8
0
100
AcDbBlockEnd
  0
BLOCK
  5
FFE
330
FFD
100
AcDbEntity
  8
0
100
AcDbBlockBegin
  2
*D48
 70
     1
 10
0.0
 20
0.0
 30
0.0
  3
*D48
  1

  0
LINE
  5
10CD
330
FFD
100
AcDbEntity
  8
5
370
    -2
100
AcDbLine
 10
786.1567124575952
 20
601.2608580422257
 30
0.0
 11
786.1567124575952
 21
617.9275247088924
 31
0.0
  0
LINE
  5
10CE
330
FFD
100
AcDbEntity
  8
5
370
    -2
100
AcDbLine
 10
986.1567124575952
 20
601.2608580422257
 30
0.0
 11
986.1567124575952
 21
617.9275247088924
 31
0.0
  0
LINE
  5
10CF
330
FFD
100
AcDbEntity
  8
5
370
    -2
100
AcDbLine
 10
791.1567124575952
 20
615.9275247088925
 30
0.0
 11
981.1567124575956
 21
615.9275247088925
 31
0.0
  0
SOLID
  5
10D0
330
FFD
100
AcDbEntity
  8
5
100
AcDbTrace
 10
791.1567124575952
 20
616.7608580422259
 30
0.0
 11
791.1567124575952
 21
615.0941913755591
 31
0.0
 12
786.1567124575952
 22
615.9275247088925
 32
0.0
 13
786.1567124575952
 23
615.9275247088925
 33
0.0
  0
SOLID
  5
10D1
330
FFD
100
AcDbEntity
  8
5
100
AcDbTrace
 10
981.1567124575956
 20
616.7608580422259
 30
0.0
 11
981.1567124575956
 21
615.0941913755591
 31
0.0
 12
986.1567124575952
 22
615.9275247088925
 32
0.0
 13
986.1567124575952
 23
615.9275247088925
 33
0.0
  0
MTEXT
  5
10D2
330
FFD
100
AcDbEntity
  8
5
 62
     7
100
AcDbMText
 10
867.5560155856151
 20
631.710466280417
 30
0.0
 40
14.0
 41
0.0
 71
     1
 72
     1
  1
{\fAIGDT|b0|i0;\H5.8333;o\fTahoma|b0|i0;\H5.8333;}200
 73
     1
 44
1.0
  0
POINT
  5
10D3
330
FFD
100
AcDbEntity
  8
Defpoints
 62
     0
100
AcDbPoint
 10
786.1567124575952
 20
599.2608580422259
 30
0.0
  0
POINT
  5
10D4
330
FFD
100
AcDbEntity
  8
Defpoints
 62
     0
100
AcDbPoint
 10
986.1567124575952
 20
599.2608580422257
 30
0.0
  0
POINT
  5
10D5
330
FFD
100
AcDbEntity
  8
Defpoints
 62
     0
100
AcDbPoint
 10
986.1567124575952
 20
615.9275247088925
 30
0.0
  0
ENDBLK
  5
FFF
330
FFD
100
AcDbEntity
  8
0
100
AcDbBlockEnd
  0
BLOCK
  5
100A
330
1009
100
AcDbEntity
  8
0
100
AcDbBlockBegin
  2
*D49
 70
     1
 10
0.0
 20
0.0
 30
0.0
  3
*D49
  1

  0
LINE
  5
10D6
330
1009
100
AcDbEntity
  8
5
370
    -2
100
AcDbLine
 10
785.5305208605998
 20
601.2608580422257
 30
0.0
 11
723.152017490149
 21
601.2608580422257
 31
0.0
  0
LINE
  5
10D7
330
1009
100
AcDbEntity
  8
5
370
    -2
100
AcDbLine
 10
841.1314999214065
 20
463.756009842226
 30
0.0
 11
723.152017490149
 21
463.756009842226
 31
0.0
  0
LINE
  5
10D8
330
1009
100
AcDbEntity
  8
5
370
    -2
100
AcDbLine
 10
725.1520174901489
 20
596.2608580422259
 30
0.0
 11
725.1520174901489
 21
468.756009842226
 31
0.0
  0
SOLID
  5
10D9
330
1009
100
AcDbEntity
  8
5
100
AcDbTrace
 10
724.3186841568156
 20
596.2608580422259
 30
0.0
 11
725.9853508234822
 21
596.2608580422259
 31
0.0
 12
725.1520174901489
 22
601.2608580422257
 32
0.0
 13
725.1520174901489
 23
601.2608580422257
 33
0.0
  0
SOLID
  5
10DA
330
1009
100
AcDbEntity
  8
5
100
AcDbTrace
 10
724.3186841568156
 20
468.756009842226
 30
0.0
 11
725.9853508234822
 21
468.756009842226
 31
0.0
 12
725.1520174901489
 22
463.756009842226
 32
0.0
 13
725.1520174901489
 23
463.756009842226
 33
0.0
  0
MTEXT
  5
10DB
330
1009
100
AcDbEntity
  8
5
 62
     7
100
AcDbMText
 10
709.3126622181541
 20
518.1511471725817
 30
0.0
 40
14.0
 41
0.0
 71
     1
 72
     1
  1
138
 11
0.0000000000000001
 21
1.0
 31
0.0
 73
     1
 44
1.0
  0
POINT
  5
10DC
330
1009
100
AcDbEntity
  8
Defpoints
 62
     0
100
AcDbPoint
 10
787.5305208606
 20
601.2608580422257
 30
0.0
  0
POINT
  5
10DD
330
1009
100
AcDbEntity
  8
Defpoints
 62
     0
100
AcDbPoint
 10
843.1314999214064
 20
463.756009842226
 30
0.0
  0
POINT
  5
10DE
330
1009
100
AcDbEntity
  8
Defpoints
 62
     0
100
AcDbPoint
 10
725.1520174901489
 20
463.756009842226
 30
0.0
  0
ENDBLK
  5
100B
330
1009
100
AcDbEntity
  8
0
100
AcDbBlockEnd
  0
BLOCK
  5
1016
330
1015
100
AcDbEntity
  8
0
100
AcDbBlockBegin
  2
*D50
 70
     1
 10
0.0
 20
0.0
 30
0.0
  3
*D50
  1

  0
LINE
  5
10DF
330
1015
100
AcDbEntity
  8
5
370
    -2
100
AcDbLine
 10
1036.656712457595
 20
533.006009842226
 30
0.0
 11
1064.953264452475
 21
533.006009842226
 31
0.0
  0
LINE
  5
10E0
330
1015
100
AcDbEntity
  8
5
370
    -2
100
AcDbLine
 10
1036.656712457595
 20
458.006009842226
 30
0.0
 11
1064.953264452475
 21
458.006009842226
 31
0.0
  0
LINE
  5
10E1
330
1015
100
AcDbEntity
  8
5
370
    -2
100
AcDbLine
 10
1062.953264452475
 20
528.006009842226
 30
0.0
 11
1062.953264452475
 21
463.006009842226
 31
0.0
  0
SOLID
  5
10E2
330
1015
100
AcDbEntity
  8
5
100
AcDbTrace
 10
1062.119931119141
 20
528.006009842226
 30
0.0
 11
1063.786597785808
 21
528.006009842226
 31
0.0
 12
1062.953264452475
 22
533.006009842226
 32
0.0
 13
1062.953264452475
 23
533.006009842226
 33
0.0
  0
SOLID
  5
10E3
330
1015
100
AcDbEntity
  8
5
100
AcDbTrace
 10
1062.119931119141
 20
463.006009842226
 30
0.0
 11
1063.786597785808
 21
463.006009842226
 31
0.0
 12
1062.953264452475
 22
458.006009842226
 32
0.0
 13
1062.953264452475
 23
458.006009842226
 33
0.0
  0
MTEXT
  5
10E4
330
1015
100
AcDbEntity
  8
5
 62
     7
100
AcDbMText
 10
1053.775426977659
 20
495.5060098422261
 30
0.0
 40
14.0
 41
0.0
 71
     5
 72
     1
  1
%%c75
 11
0.0000000000000001
 21
1.0
 31
0.0
 73
     1
 44
1.0
  0
POINT
  5
10E5
330
1015
100
AcDbEntity
  8
Defpoints
 62
     0
100
AcDbPoint
 10
1034.656712457596
 20
533.006009842226
 30
0.0
  0
POINT
  5
10E6
330
1015
100
AcDbEntity
  8
Defpoints
 62
     0
100
AcDbPoint
 10
1034.656712457595
 20
458.006009842226
 30
0.0
  0
POINT
  5
10E7
330
1015
100
AcDbEntity
  8
Defpoints
 62
     0
100
AcDbPoint
 10
1062.953264452475
 20
458.006009842226
 30
0.0
  0
ENDBLK
  5
1017
330
1015
100
AcDbEntity
  8
0
100
AcDbBlockEnd
  0
BLOCK
  5
1022
330
1021
100
AcDbEntity
  8
0
100
AcDbBlockBegin
  2
*D51
 70
     1
 10
0.0
 20
0.0
 30
0.0
  3
*D51
  1

  0
LINE
  5
10E8
330
1021
100
AcDbEntity
  8
5
370
    -2
100
AcDbLine
 10
814.906712457595
 20
480.2995809632273
 30
0.0
 11
814.906712457595
 21
436.2013723004609
 31
0.0
  0
LINE
  5
10E9
330
1021
100
AcDbEntity
  8
5
370
    -2
100
AcDbLine
 10
957.4067124575954
 20
527.2560098422259
 30
0.0
 11
957.4067124575954
 21
436.2013723004609
 31
0.0
  0
LINE
  5
10EA
330
1021
100
AcDbEntity
  8
5
370
    -2
100
AcDbLine
 10
819.9067124575954
 20
438.2013723004608
 30
0.0
 11
952.4067124575951
 21
438.2013723004608
 31
0.0
  0
SOLID
  5
10EB
330
1021
100
AcDbEntity
  8
5
100
AcDbTrace
 10
819.9067124575954
 20
439.034705633794
 30
0.0
 11
819.9067124575954
 21
437.3680389671275
 31
0.0
 12
814.906712457595
 22
438.2013723004608
 32
0.0
 13
814.906712457595
 23
438.2013723004608
 33
0.0
  0
SOLID
  5
10EC
330
1021
100
AcDbEntity
  8
5
100
AcDbTrace
 10
952.4067124575951
 20
439.034705633794
 30
0.0
 11
952.4067124575951
 21
437.3680389671275
 31
0.0
 12
957.4067124575954
 22
438.2013723004608
 32
0.0
 13
957.4067124575954
 23
438.2013723004608
 33
0.0
  0
MTEXT
  5
10ED
330
1021
100
AcDbEntity
  8
5
 62
     7
100
AcDbMText
 10
886.1567124575952
 20
446.5471076933418
 30
0.0
 40
14.0
 41
0.0
 71
     5
 72
     1
  1
142
 73
     1
 44
1.0
  0
POINT
  5
10EE
330
1021
100
AcDbEntity
  8
Defpoints
 62
     0
100
AcDbPoint
 10
814.906712457595
 20
482.2995809632272
 30
0.0
  0
POINT
  5
10EF
330
1021
100
AcDbEntity
  8
Defpoints
 62
     0
100
AcDbPoint
 10
957.4067124575954
 20
529.2560098422259
 30
0.0
  0
POINT
  5
10F0
330
1021
100
AcDbEntity
  8
Defpoints
 62
     0
100
AcDbPoint
 10
957.4067124575954
 20
438.2013723004608
 30
0.0
  0
ENDBLK
  5
1023
330
1021
100
AcDbEntity
  8
0
100
AcDbBlockEnd
  0
BLOCK
  5
102E
330
102D
100
AcDbEntity
  8
0
100
AcDbBlockBegin
  2
*D52
 70
     1
 10
0.0
 20
0.0
 30
0.0
  3
*D52
  1

  0
LINE
  5
10F1
330
102D
100
AcDbEntity
  8
5
370
    -2
100
AcDbLine
 10
986.2072227148123
 20
601.2560098422259
 30
0.0
 11
1124.921183598156
 21
601.2560098422259
 31
0.0
  0
LINE
  5
10F2
330
102D
100
AcDbEntity
  8
5
370
    -2
100
AcDbLine
 10
1036.656712457595
 20
458.006009842226
 30
0.0
 11
1124.921183598156
 21
458.006009842226
 31
0.0
  0
LINE
  5
10F3
330
102D
100
AcDbEntity
  8
5
370
    -2
100
AcDbLine
 10
1122.921183598156
 20
596.2560098422259
 30
0.0
 11
1122.921183598156
 21
463.006009842226
 31
0.0
  0
SOLID
  5
10F4
330
102D
100
AcDbEntity
  8
5
100
AcDbTrace
 10
1122.087850264823
 20
596.2560098422259
 30
0.0
 11
1123.754516931489
 21
596.2560098422259
 31
0.0
 12
1122.921183598156
 22
601.2560098422259
 32
0.0
 13
1122.921183598156
 23
601.2560098422259
 33
0.0
  0
SOLID
  5
10F5
330
102D
100
AcDbEntity
  8
5
100
AcDbTrace
 10
1122.087850264823
 20
463.006009842226
 30
0.0
 11
1123.754516931489
 21
463.006009842226
 31
0.0
 12
1122.921183598156
 22
458.006009842226
 32
0.0
 13
1122.921183598156
 23
458.006009842226
 33
0.0
  0
MTEXT
  5
10F6
330
102D
100
AcDbEntity
  8
5
 62
     7
100
AcDbMText
 10
1114.429712812394
 20
529.631009842226
 30
0.0
 40
14.0
 41
0.0
 71
     5
 72
     1
  1
143
 11
0.0000000000000001
 21
1.0
 31
0.0
 73
     1
 44
1.0
  0
POINT
  5
10F7
330
102D
100
AcDbEntity
  8
Defpoints
 62
     0
100
AcDbPoint
 10
984.2072227148124
 20
601.2560098422259
 30
0.0
  0
POINT
  5
10F8
330
102D
100
AcDbEntity
  8
Defpoints
 62
     0
100
AcDbPoint
 10
1034.656712457595
 20
458.006009842226
 30
0.0
  0
POINT
  5
10F9
330
102D
100
AcDbEntity
  8
Defpoints
 62
     0
100
AcDbPoint
 10
1122.921183598156
 20
458.006009842226
 30
0.0
  0
ENDBLK
  5
102F
330
102D
100
AcDbEntity
  8
0
100
AcDbBlockEnd
  0
BLOCK
  5
118F
330
118E
100
AcDbEntity
  8
0
100
AcDbBlockBegin
  2
*D53
 70
     1
 10
0.0
 20
0.0
 30
0.0
  3
*D53
  1

  0
LINE
  5
1293
330
118E
100
AcDbEntity
  8
5
370
    -2
100
AcDbLine
 10
447.534193675539
 20
592.9229673448964
 30
0.0
 11
447.534193675539
 21
497.6269348177072
 31
0.0
  0
LINE
  5
1294
330
118E
100
AcDbEntity
  8
5
370
    -2
100
AcDbLine
 10
305.0341936755391
 20
545.9665384658975
 30
0.0
 11
305.0341936755391
 21
497.6269348177072
 31
0.0
  0
LINE
  5
1295
330
118E
100
AcDbEntity
  8
5
370
    -2
100
AcDbLine
 10
442.5341936755391
 20
499.6269348177071
 30
0.0
 11
310.0341936755392
 21
499.6269348177071
 31
0.0
  0
SOLID
  5
1296
330
118E
100
AcDbEntity
  8
5
100
AcDbTrace
 10
442.5341936755391
 20
500.4602681510403
 30
0.0
 11
442.5341936755391
 21
498.7936014843739
 31
0.0
 12
447.534193675539
 22
499.6269348177071
 32
0.0
 13
447.534193675539
 23
499.6269348177071
 33
0.0
  0
SOLID
  5
1297
330
118E
100
AcDbEntity
  8
5
100
AcDbTrace
 10
310.0341936755392
 20
500.4602681510403
 30
0.0
 11
310.0341936755392
 21
498.7936014843739
 31
0.0
 12
305.0341936755391
 22
499.6269348177071
 32
0.0
 13
305.0341936755391
 23
499.6269348177071
 33
0.0
  0
MTEXT
  5
1298
330
118E
100
AcDbEntity
  8
5
 62
     7
100
AcDbMText
 10
376.2841936755391
 20
507.9726702105883
 30
0.0
 40
14.0
 41
0.0
 71
     5
 72
     1
  1
142
 73
     1
 44
1.0
  0
POINT
  5
1299
330
118E
100
AcDbEntity
  8
Defpoints
 62
     0
100
AcDbPoint
 10
447.534193675539
 20
594.9229673448964
 30
0.0
  0
POINT
  5
129A
330
118E
100
AcDbEntity
  8
Defpoints
 62
     0
100
AcDbPoint
 10
305.0341936755391
 20
547.9665384658979
 30
0.0
  0
POINT
  5
129B
330
118E
100
AcDbEntity
  8
Defpoints
 62
     0
100
AcDbPoint
 10
305.0341936755391
 20
499.6269348177071
 30
0.0
  0
ENDBLK
  5
1190
330
118E
100
AcDbEntity
  8
0
100
AcDbBlockEnd
  0
BLOCK
  5
11FC
330
11FB
100
AcDbEntity
  8
0
100
AcDbBlockBegin
  2
*D54
 70
     1
 10
0.0
 20
0.0
 30
0.0
  3
*D54
  1

  0
LINE
  5
121C
330
11FB
100
AcDbEntity
  8
AM_5
 62
     0
370
    -2
100
AcDbLine
 10
482.5397698601996
 20
601.4278155449085
 30
0.0
 11
587.1132395158084
 21
601.4278155449085
 31
0.0
  0
LINE
  5
121D
330
11FB
100
AcDbEntity
  8
AM_5
 62
     0
370
    -2
100
AcDbLine
 10
482.5397698601872
 20
491.4278155449085
 30
0.0
 11
587.1132395158084
 21
491.4278155449085
 31
0.0
  0
LINE
  5
121E
330
11FB
100
AcDbEntity
  8
AM_5
 62
     0
370
    -2
100
AcDbLine
 10
586.9332395158084
 20
599.6278155449085
 30
0.0
 11
586.9332395158084
 21
546.6999847829074
 31
0.0
  0
LINE
  5
121F
330
11FB
100
AcDbEntity
  8
AM_5
 62
     0
370
    -2
100
AcDbLine
 10
586.9332395158084
 20
493.2278155449085
 30
0.0
 11
586.9332395158084
 21
546.1556463069094
 31
0.0
  0
SOLID
  5
1220
330
11FB
100
AcDbEntity
  8
AM_5
 62
     0
100
AcDbTrace
 10
586.6332395158084
 20
599.6278155449085
 30
0.0
 11
587.2332395158085
 21
599.6278155449085
 31
0.0
 12
586.9332395158084
 22
601.4278155449085
 32
0.0
 13
586.9332395158084
 23
601.4278155449085
 33
0.0
  0
SOLID
  5
1221
330
11FB
100
AcDbEntity
  8
AM_5
 62
     0
100
AcDbTrace
 10
586.6332395158084
 20
493.2278155449085
 30
0.0
 11
587.2332395158085
 21
493.2278155449085
 31
0.0
 12
586.9332395158084
 22
491.4278155449085
 32
0.0
 13
586.9332395158084
 23
491.4278155449085
 33
0.0
  0
MTEXT
  5
1222
330
11FB
100
AcDbEntity
  8
AM_5
 62
     0
100
AcDbMText
 10
586.9332395158084
 20
546.4278155449086
 30
0.0
 40
0.3499999940395355
 41
0.0
 71
     5
 72
     1
  1
\A1;110.0000
 73
     1
 44
1.0
  0
POINT
  5
1223
330
11FB
100
AcDbEntity
  8
Defpoints
 62
     0
100
AcDbPoint
 10
482.4772698601996
 20
601.4278155449085
 30
0.0
  0
POINT
  5
1224
330
11FB
100
AcDbEntity
  8
Defpoints
 62
     0
100
AcDbPoint
 10
482.4772698601872
 20
491.4278155449085
 30
0.0
  0
POINT
  5
1225
330
11FB
100
AcDbEntity
  8
Defpoints
 62
     0
100
AcDbPoint
 10
586.9332395158084
 20
491.4278155449085
 30
0.0
  0
ENDBLK
  5
11FD
330
11FB
100
AcDbEntity
  8
0
100
AcDbBlockEnd
  0
BLOCK
  5
122A
330
1229
100
AcDbEntity
  8
0
100
AcDbBlockBegin
  2
*D55
 70
     1
 10
0.0
 20
0.0
 30
0.0
  3
*D55
  1

  0
LINE
  5
1647
330
1229
100
AcDbEntity
  8
5
370
    -2
100
AcDbLine
 10
556.7688683744186
 20
601.4278155449085
 30
0.0
 11
583.3707377900769
 21
601.4278155449085
 31
0.0
  0
LINE
  5
1648
330
1229
100
AcDbEntity
  8
5
370
    -2
100
AcDbLine
 10
556.7688683744184
 20
491.4278155449085
 30
0.0
 11
583.3707377900769
 21
491.4278155449085
 31
0.0
  0
LINE
  5
1649
330
1229
100
AcDbEntity
  8
5
370
    -2
100
AcDbLine
 10
581.370737790077
 20
596.4278155449085
 30
0.0
 11
581.370737790077
 21
496.4278155449085
 31
0.0
  0
SOLID
  5
164A
330
1229
100
AcDbEntity
  8
5
100
AcDbTrace
 10
580.5374044567436
 20
596.4278155449085
 30
0.0
 11
582.2040711234103
 21
596.4278155449085
 31
0.0
 12
581.370737790077
 22
601.4278155449085
 32
0.0
 13
581.370737790077
 23
601.4278155449085
 33
0.0
  0
SOLID
  5
164B
330
1229
100
AcDbEntity
  8
5
100
AcDbTrace
 10
580.5374044567436
 20
496.4278155449085
 30
0.0
 11
582.2040711234103
 21
496.4278155449085
 31
0.0
 12
581.370737790077
 22
491.4278155449085
 32
0.0
 13
581.370737790077
 23
491.4278155449085
 33
0.0
  0
MTEXT
  5
164C
330
1229
100
AcDbEntity
  8
5
 62
     7
100
AcDbMText
 10
572.1929003152616
 20
546.4278155449086
 30
0.0
 40
14.0
 41
0.0
 71
     5
 72
     1
  1
%%c110
 11
0.0000000000000001
 21
1.0
 31
0.0
 73
     1
 44
1.0
  0
POINT
  5
164D
330
1229
100
AcDbEntity
  8
Defpoints
 62
     0
100
AcDbPoint
 10
554.7688683744186
 20
601.4278155449085
 30
0.0
  0
POINT
  5
164E
330
1229
100
AcDbEntity
  8
Defpoints
 62
     0
100
AcDbPoint
 10
554.7688683744183
 20
491.4278155449085
 30
0.0
  0
POINT
  5
164F
330
1229
100
AcDbEntity
  8
Defpoints
 62
     0
100
AcDbPoint
 10
581.370737790077
 20
491.4278155449085
 30
0.0
  0
ENDBLK
  5
122B
330
1229
100
AcDbEntity
  8
0
100
AcDbBlockEnd
  0
BLOCK
  5
12D0
330
12CF
100
AcDbEntity
  8
0
100
AcDbBlockBegin
  2
*D56
 70
     1
 10
0.0
 20
0.0
 30
0.0
  3
*D56
  1

  0
LINE
  5
1662
330
12CF
100
AcDbEntity
  8
5
370
    -2
100
AcDbLine
 10
476.284193675539
 20
666.9278155448962
 30
0.0
 11
558.9728418677437
 21
666.9278155448962
 31
0.0
  0
LINE
  5
1663
330
12CF
100
AcDbEntity
  8
5
370
    -2
100
AcDbLine
 10
476.284193675539
 20
641.9278155448962
 30
0.0
 11
558.9728418677437
 21
641.9278155448962
 31
0.0
  0
LINE
  5
1664
330
12CF
100
AcDbEntity
  8
5
370
    -2
100
AcDbLine
 10
556.9728418677438
 20
661.9278155448962
 30
0.0
 11
556.9728418677438
 21
646.9278155448962
 31
0.0
  0
SOLID
  5
1665
330
12CF
100
AcDbEntity
  8
5
100
AcDbTrace
 10
556.1395085344104
 20
661.9278155448962
 30
0.0
 11
557.8061752010771
 21
661.9278155448962
 31
0.0
 12
556.9728418677438
 22
666.9278155448962
 32
0.0
 13
556.9728418677438
 23
666.9278155448962
 33
0.0
  0
SOLID
  5
1666
330
12CF
100
AcDbEntity
  8
5
100
AcDbTrace
 10
556.1395085344104
 20
646.9278155448962
 30
0.0
 11
557.8061752010771
 21
646.9278155448962
 31
0.0
 12
556.9728418677438
 22
641.9278155448962
 32
0.0
 13
556.9728418677438
 23
641.9278155448962
 33
0.0
  0
MTEXT
  5
1667
330
12CF
100
AcDbEntity
  8
5
 62
     7
100
AcDbMText
 10
548.4813710819814
 20
654.4278155448964
 30
0.0
 40
14.0
 41
0.0
 71
     5
 72
     1
  1
25
 11
0.0000000000000001
 21
1.0
 31
0.0
 73
     1
 44
1.0
  0
POINT
  5
1668
330
12CF
100
AcDbEntity
  8
Defpoints
 62
     0
100
AcDbPoint
 10
474.284193675539
 20
666.9278155448962
 30
0.0
  0
POINT
  5
1669
330
12CF
100
AcDbEntity
  8
Defpoints
 62
     0
100
AcDbPoint
 10
474.284193675539
 20
641.9278155448962
 30
0.0
  0
POINT
  5
166A
330
12CF
100
AcDbEntity
  8
Defpoints
 62
     0
100
AcDbPoint
 10
556.9728418677438
 20
641.9278155448962
 30
0.0
  0
ENDBLK
  5
12D1
330
12CF
100
AcDbEntity
  8
0
100
AcDbBlockEnd
  0
BLOCK
  5
12FC
330
12FB
100
AcDbEntity
  8
0
100
AcDbBlockBegin
  2
*D57
 70
     1
 10
0.0
 20
0.0
 30
0.0
  3
*D57
  1

  0
LINE
  5
1659
330
12FB
100
AcDbEntity
  8
5
370
    -2
100
AcDbLine
 10
556.7688683744184
 20
491.4278155449085
 30
0.0
 11
626.2815269829967
 21
491.4278155449085
 31
0.0
  0
LINE
  5
165A
330
12FB
100
AcDbEntity
  8
5
370
    -2
100
AcDbLine
 10
476.284193675539
 20
666.9278155448962
 30
0.0
 11
626.2815269829967
 21
666.9278155448962
 31
0.0
  0
LINE
  5
165B
330
12FB
100
AcDbEntity
  8
5
370
    -2
100
AcDbLine
 10
624.2815269829967
 20
496.4278155449085
 30
0.0
 11
624.2815269829967
 21
661.9278155448962
 31
0.0
  0
SOLID
  5
165C
330
12FB
100
AcDbEntity
  8
5
100
AcDbTrace
 10
623.4481936496633
 20
496.4278155449085
 30
0.0
 11
625.1148603163301
 21
496.4278155449085
 31
0.0
 12
624.2815269829967
 22
491.4278155449085
 32
0.0
 13
624.2815269829967
 23
491.4278155449085
 33
0.0
  0
SOLID
  5
165D
330
12FB
100
AcDbEntity
  8
5
100
AcDbTrace
 10
623.4481936496633
 20
661.9278155448962
 30
0.0
 11
625.1148603163301
 21
661.9278155448962
 31
0.0
 12
624.2815269829967
 22
666.9278155448962
 32
0.0
 13
624.2815269829967
 23
666.9278155448962
 33
0.0
  0
MTEXT
  5
165E
330
12FB
100
AcDbEntity
  8
5
 62
     7
100
AcDbMText
 10
615.9122858815862
 20
579.1778155449025
 30
0.0
 40
14.0
 41
0.0
 71
     5
 72
     1
  1
175
 11
0.0000000000000001
 21
1.0
 31
0.0
 73
     1
 44
1.0
  0
POINT
  5
165F
330
12FB
100
AcDbEntity
  8
Defpoints
 62
     0
100
AcDbPoint
 10
554.7688683744183
 20
491.4278155449085
 30
0.0
  0
POINT
  5
1660
330
12FB
100
AcDbEntity
  8
Defpoints
 62
     0
100
AcDbPoint
 10
474.284193675539
 20
666.9278155448962
 30
0.0
  0
POINT
  5
1661
330
12FB
100
AcDbEntity
  8
Defpoints
 62
     0
100
AcDbPoint
 10
624.2815269829967
 20
666.9278155448962
 30
0.0
  0
ENDBLK
  5
12FD
330
12FB
100
AcDbEntity
  8
0
100
AcDbBlockEnd
  0
BLOCK
  5
1332
330
1331
100
AcDbEntity
  8
0
100
AcDbBlockBegin
  2
*D58
 70
     1
 10
0.0
 20
0.0
 30
0.0
  3
*D58
  1

  0
LINE
  5
1650
330
1331
100
AcDbEntity
  8
5
370
    -2
100
AcDbLine
 10
476.284193675539
 20
666.9278155448962
 30
0.0
 11
607.4992851216235
 21
666.9278155448962
 31
0.0
  0
LINE
  5
1651
330
1331
100
AcDbEntity
  8
5
370
    -2
100
AcDbLine
 10
596.7841936755267
 20
546.4278155449085
 30
0.0
 11
607.4992851216235
 21
546.4278155449085
 31
0.0
  0
LINE
  5
1652
330
1331
100
AcDbEntity
  8
5
370
    -2
100
AcDbLine
 10
605.4992851216235
 20
661.9278155448962
 30
0.0
 11
605.4992851216235
 21
551.4278155449085
 31
0.0
  0
SOLID
  5
1653
330
1331
100
AcDbEntity
  8
5
100
AcDbTrace
 10
604.6659517882901
 20
661.9278155448962
 30
0.0
 11
606.3326184549569
 21
661.9278155448962
 31
0.0
 12
605.4992851216235
 22
666.9278155448962
 32
0.0
 13
605.4992851216235
 23
666.9278155448962
 33
0.0
  0
SOLID
  5
1654
330
1331
100
AcDbEntity
  8
5
100
AcDbTrace
 10
604.6659517882901
 20
551.4278155449085
 30
0.0
 11
606.3326184549569
 21
551.4278155449085
 31
0.0
 12
605.4992851216235
 22
546.4278155449085
 32
0.0
 13
605.4992851216235
 23
546.4278155449085
 33
0.0
  0
MTEXT
  5
1655
330
1331
100
AcDbEntity
  8
5
 62
     7
100
AcDbMText
 10
597.0078143358612
 20
606.6778155449025
 30
0.0
 40
14.0
 41
0.0
 71
     5
 72
     1
  1
120
 11
0.0000000000000001
 21
1.0
 31
0.0
 73
     1
 44
1.0
  0
POINT
  5
1656
330
1331
100
AcDbEntity
  8
Defpoints
 62
     0
100
AcDbPoint
 10
474.284193675539
 20
666.9278155448962
 30
0.0
  0
POINT
  5
1657
330
1331
100
AcDbEntity
  8
Defpoints
 62
     0
100
AcDbPoint
 10
594.7841936755266
 20
546.4278155449085
 30
0.0
  0
POINT
  5
1658
330
1331
100
AcDbEntity
  8
Defpoints
 62
     0
100
AcDbPoint
 10
605.4992851216235
 20
546.4278155449085
 30
0.0
  0
ENDBLK
  5
1333
330
1331
100
AcDbEntity
  8
0
100
AcDbBlockEnd
  0
ENDSEC
  0
SECTION
  2
ENTITIES
  0
LINE
  5
225
330
6C
100
AcDbEntity
  8
0
100
AcDbLine
 10
452.2841936755391
 20
592.9229673448964
 30
0.0
 11
452.2841936755391
 21
529.4229673448965
 31
0.0
  0
LINE
  5
237
330
6C
100
AcDbEntity
  8
0
100
AcDbLine
 10
419.3094062117281
 20
529.4229673448962
 30
0.0
 11
333.25898113935
 21
529.4229673448962
 31
0.0
  0
LINE
  5
238
330
6C
100
AcDbEntity
  8
0
100
AcDbLine
 10
447.034193675539
 20
631.4278155448962
 30
0.0
 11
305.0341936755391
 21
631.4278155448962
 31
0.0
  0
ARC
  5
239
330
6C
100
AcDbEntity
  8
0
100
AcDbCircle
 10
320.0341936755391
 20
547.9665384658979
 30
0.0
 40
15.0
100
AcDbArc
 50
180.0
 51
254.9999999999998
  0
LINE
  5
23A
330
6C
100
AcDbEntity
  8
0
100
AcDbLine
 10
329.3766954628122
 20
529.9340799505604
 30
0.0
 11
316.1519079990013
 21
533.4776510715617
 31
0.0
  0
ARC
  5
23B
330
6C
100
AcDbEntity
  8
0
100
AcDbCircle
 10
333.25898113935
 20
544.4229673448957
 30
0.0
 40
14.99999999999946
100
AcDbArc
 50
254.9999999999997
 51
270.0000000000002
  0
LINE
  5
23C
330
6C
100
AcDbEntity
  8
0
100
AcDbLine
 10
305.0341936755391
 20
547.9665384658979
 30
0.0
 11
305.0341936755391
 21
598.5991239294195
 31
0.0
  0
LINE
  5
23D
330
6C
100
AcDbEntity
  8
0
100
AcDbLine
 10
447.534193675539
 20
594.9229673448964
 30
0.0
 11
447.534193675539
 21
598.5991239294195
 31
0.0
  0
ARC
  5
23E
330
6C
100
AcDbEntity
  8
0
100
AcDbCircle
 10
444.8478411962885
 20
598.5991239294195
 30
0.0
 40
2.686352479250519
100
AcDbArc
 50
0.0
 51
76.77680089323357
  0
ARC
  5
23F
330
6C
100
AcDbEntity
  8
0
100
AcDbCircle
 10
307.7205461547896
 20
598.5991239294195
 30
0.0
 40
2.686352479250519
100
AcDbArc
 50
103.2231991067672
 51
180.0
  0
ARC
  5
240
330
6C
100
AcDbEntity
  8
0
100
AcDbCircle
 10
446.0341936755391
 20
603.6479673448964
 30
0.0
 40
2.5
100
AcDbArc
 50
179.8510266729263
 51
256.7768008932325
  0
ARC
  5
241
330
6C
100
AcDbEntity
  8
0
100
AcDbCircle
 10
306.5341936755392
 20
603.6479673448964
 30
0.0
 40
2.5
100
AcDbArc
 50
283.2231991067668
 51
0.1489733270687932
  0
ARC
  5
242
330
6C
100
AcDbEntity
  8
0
100
AcDbCircle
 10
444.8478411962885
 20
608.6968107603731
 30
0.0
 40
2.686352479250519
100
AcDbArc
 50
308.8841710778
 51
0.0
  0
ARC
  5
243
330
6C
100
AcDbEntity
  8
0
100
AcDbCircle
 10
307.7205461547896
 20
608.6968107603731
 30
0.0
 40
2.686352479250519
100
AcDbArc
 50
180.0
 51
231.1158289221994
  0
LINE
  5
244
330
6C
100
AcDbEntity
  8
0
100
AcDbLine
 10
305.0341936755391
 20
608.6968107603731
 30
0.0
 11
305.0341936755391
 21
631.4278155448962
 31
0.0
  0
LINE
  5
245
330
6C
100
AcDbEntity
  8
0
100
AcDbLine
 10
447.534193675539
 20
608.6968107603731
 30
0.0
 11
447.534193675539
 21
622.6778155448962
 31
0.0
  0
ARC
  5
24C
330
6C
100
AcDbEntity
  8
0
100
AcDbCircle
 10
449.5341936755391
 20
594.9229673448964
 30
0.0
 40
2.0
100
AcDbArc
 50
180.0
 51
270.0
  0
LINE
  5
24D
330
6C
100
AcDbEntity
  8
0
100
AcDbLine
 10
452.2841936755391
 20
529.4229673448962
 30
0.0
 11
419.3094062117281
 21
529.4229673448962
 31
0.0
  0
LINE
  5
24E
330
6C
100
AcDbEntity
  8
0
100
AcDbLine
 10
452.2841936755391
 20
592.9229673448964
 30
0.0
 11
449.5341936755391
 21
592.9229673448964
 31
0.0
  0
LINE
  5
255
330
6C
100
AcDbEntity
  8
0
100
AcDbLine
 10
276.2841936755391
 20
656.9278155448962
 30
0.0
 11
276.2841936755391
 21
664.9278155448962
 31
0.0
  0
LINE
  5
256
330
6C
100
AcDbEntity
  8
0
100
AcDbLine
 10
277.5341936755391
 20
656.9278155448962
 30
0.0
 11
276.2841936755391
 21
656.9278155448962
 31
0.0
  0
LINE
  5
25A
330
6C
100
AcDbEntity
  8
0
100
AcDbLine
 10
476.2841936755391
 20
656.9278155448962
 30
0.0
 11
475.0341936755391
 21
656.9278155448962
 31
0.0
  0
LINE
  5
25B
330
6C
100
AcDbEntity
  8
0
100
AcDbLine
 10
476.2841936755391
 20
664.9278155448962
 30
0.0
 11
476.2841936755391
 21
656.9278155448962
 31
0.0
  0
LINE
  5
25C
330
6C
100
AcDbEntity
  8
0
100
AcDbLine
 10
277.7341936755391
 20
656.9278155448962
 30
0.0
 11
474.834193675539
 21
656.9278155448962
 31
0.0
  0
LINE
  5
266
330
6C
100
AcDbEntity
  8
0
100
AcDbLine
 10
462.5341936756217
 20
646.9278155448962
 30
0.0
 11
462.5341936756217
 21
656.9278155448962
 31
0.0
  0
LINE
  5
267
330
6C
100
AcDbEntity
  8
0
100
AcDbLine
 10
290.0341936754564
 20
656.9278155448962
 30
0.0
 11
290.0341936754564
 21
646.9278155448962
 31
0.0
  0
SPLINE
  5
268
330
6C
100
AcDbEntity
  8
0
100
AcDbSpline
210
0.0
220
0.0
230
1.0
 70
    24
 71
     3
 72
    14
 73
    10
 74
     0
 42
0.0000000001
 43
0.0000000001
 40
2.476267473732856
 40
2.476267473732856
 40
2.476267473732856
 40
2.476267473732856
 40
2.919625617228716
 40
2.919625617228716
 40
5.55140082149122
 40
5.55140082149122
 40
7.196260324155284
 40
7.196260324155284
 40
8.224297513320324
 40
8.224297513320324
 40
8.224297513342589
 40
8.224297513342589
 10
290.0341936754564
 20
644.9278144579941
 30
0.0
 10
290.0341936754564
 20
644.9166560818936
 30
0.0
 10
290.0341936754564
 20
644.9049379001605
 30
0.0
 10
290.0341936754564
 20
644.8194655457326
 30
0.0
 10
290.0341936754564
 20
644.7201624091746
 30
0.0
 10
290.0341936754564
 20
644.541369854651
 30
0.0
 10
290.0341936754564
 20
644.4695766076796
 30
0.0
 10
290.0341936754564
 20
644.3967170406446
 30
0.0
 10
290.0341936754565
 20
644.3802797399195
 30
0.0
 10
290.0341936754565
 20
644.3802797399195
 30
0.0
  0
SPLINE
  5
269
330
6C
100
AcDbEntity
  8
0
100
AcDbSpline
210
0.0
220
0.0
230
1.0
 70
    24
 71
     3
 72
    12
 73
     8
 74
     0
 42
0.0000000001
 43
0.0000000001
 40
8.22429751329933
 40
8.22429751329933
 40
8.224297513320324
 40
8.224297513320324
 40
10.2803718916504
 40
10.2803718916504
 40
13.57009089697853
 40
13.57009089697853
 40
13.97232755290144
 40
13.97232755290144
 40
13.97232755290144
 40
13.97232755290144
 10
462.5341936756217
 20
644.3802797399195
 30
0.0
 10
462.5341936756217
 20
644.3802797399195
 30
0.0
 10
462.5341936756217
 20
644.4500383718811
 30
0.0
 10
462.5341936756217
 20
644.6666705990597
 30
0.0
 10
462.5341936756217
 20
644.8054183158265
 30
0.0
 10
462.5341936756217
 20
644.9071072140351
 30
0.0
 10
462.5341936756217
 20
644.9176916696176
 30
0.0
 10
462.5341936756217
 20
644.9278152651457
 30
0.0
  0
ARC
  5
26A
330
6C
100
AcDbEntity
  8
0
100
AcDbCircle
 10
458.2841936756216
 20
644.3802797399195
 30
0.0
 40
4.25
100
AcDbArc
 50
284.4702940999189
 51
0.0
  0
ARC
  5
26B
330
6C
100
AcDbEntity
  8
0
100
AcDbCircle
 10
294.2841936754565
 20
644.3802797399195
 30
0.0
 40
4.25
100
AcDbArc
 50
180.0
 51
255.5297059000811
  0
LINE
  5
271
330
6C
100
AcDbEntity
  8
0
100
AcDbLine
 10
431.7920759986831
 20
639.0878155448961
 30
0.0
 11
454.6976848616862
 21
639.0878155448961
 31
0.0
  0
LINE
  5
272
330
6C
100
AcDbEntity
  8
0
100
AcDbLine
 10
297.7841936755392
 20
639.0878155448961
 30
0.0
 11
320.7763113523952
 21
639.0878155448961
 31
0.0
  0
LINE
  5
273
330
6C
100
AcDbEntity
  8
0
100
AcDbLine
 10
320.7763113523952
 20
639.0878155448961
 30
0.0
 11
431.7920759986831
 21
639.0878155448961
 31
0.0
  0
LINE
  5
274
330
6C
100
AcDbEntity
  8
0
100
AcDbLine
 10
459.3461752564536
 20
640.2651011141519
 30
0.0
 11
458.0391936755738
 21
639.9278155448962
 31
0.0
  0
LINE
  5
275
330
6C
100
AcDbEntity
  8
0
100
AcDbLine
 10
297.7841936755392
 20
639.0878155448961
 30
0.0
 11
293.2222120946246
 21
640.265101114152
 31
0.0
  0
LINE
  5
289
330
6C
100
AcDbEntity
  8
0
100
AcDbLine
 10
447.034193675539
 20
631.4278155448962
 30
0.0
 11
305.0341936755391
 21
631.4278155448962
 31
0.0
  0
LINE
  5
28A
330
6C
100
AcDbEntity
  8
0
100
AcDbLine
 10
305.0341936755391
 20
637.3378155448961
 30
0.0
 11
305.0341936755391
 21
631.4278155448962
 31
0.0
  0
ARC
  5
292
330
6C
100
AcDbEntity
  8
0
100
AcDbCircle
 10
303.2841936755391
 20
637.3378155448961
 30
0.0
 40
1.75
100
AcDbArc
 50
0.0
 51
90.0
  0
LINE
  5
293
330
6C
100
AcDbEntity
  8
0
100
AcDbLine
 10
472.2841936755391
 20
594.6778155449085
 30
0.0
 11
472.2841936755391
 21
498.1778155449084
 31
0.0
  0
LINE
  5
294
330
6C
100
AcDbEntity
  8
0
100
AcDbLine
 10
452.2841936755391
 20
592.9229673448964
 30
0.0
 11
452.2841936755391
 21
529.4229673448965
 31
0.0
  0
SPLINE
  5
295
330
6C
100
AcDbEntity
  8
0
100
AcDbSpline
210
0.0
220
0.0
230
1.0
 70
     8
 71
     3
 72
    10
 73
     6
 74
     0
 42
0.0000000001
 43
0.0000000001
 40
0.0
 40
0.0
 40
0.0
 40
0.0
 40
1.00384198483263
 40
1.00384198483263
 40
2.00768396966526
 40
2.00768396966526
 40
2.00768396966526
 40
2.00768396966526
 10
452.2841936755391
 20
592.9229673448964
 30
0.0
 10
455.6303336249811
 20
592.9229673448964
 30
0.0
 10
458.9884155588912
 20
593.2220324153385
 30
0.0
 10
465.5799717921868
 20
594.3787504744664
 30
0.0
 10
468.9380537260968
 20
594.6778155449085
 30
0.0
 10
472.2841936755391
 20
594.6778155449085
 30
0.0
  0
SPLINE
  5
296
330
6C
100
AcDbEntity
  8
0
100
AcDbSpline
210
0.0
220
0.0
230
1.0
 70
     8
 71
     3
 72
    28
 73
    24
 74
     0
 42
0.0000000001
 43
0.0000000001
 40
0.0
 40
0.0
 40
0.0
 40
0.0
 40
0.1558173799580213
 40
0.1558173799580213
 40
0.3012206765060305
 40
0.3012206765060305
 40
0.4668027614997038
 40
0.4668027614997038
 40
0.7055317918088137
 40
0.7055317918088137
 40
1.114149171698531
 40
1.114149171698531
 40
1.98237415256483
 40
1.98237415256483
 40
2.866072628232321
 40
2.866072628232321
 40
3.329295866229984
 40
3.329295866229984
 40
3.591036205480483
 40
3.591036205480483
 40
3.73252150902181
 40
3.73252150902181
 40
3.911166636466193
 40
3.911166636466193
 40
3.911166636466193
 40
3.911166636466193
 10
472.2841936755391
 20
498.1778155449084
 30
0.0
 10
471.7648024090123
 20
498.1778155449084
 30
0.0
 10
471.2378402320291
 20
498.2673236077626
 30
0.0
 10
470.2917951538776
 20
498.6037059937498
 30
0.0
 10
469.8580731786022
 20
498.8406328777148
 30
0.0
 10
469.0153622756282
 20
499.4443009026855
 30
0.0
 10
468.6090346985328
 20
499.8279324262912
 30
0.0
 10
467.7126746682443
 20
500.8343339399718
 30
0.0
 10
467.2557186260695
 20
501.4945297390038
 30
0.0
 10
466.1445090562823
 20
503.3442341330402
 30
0.0
 10
465.5702649544402
 20
504.5883548578693
 30
0.0
 10
463.9494217115979
 20
508.5237843284509
 30
0.0
 10
463.0866852585254
 20
511.2936004998265
 30
0.0
 10
461.3062561174146
 20
516.8553171454582
 30
0.0
 10
460.4199537745269
 20
519.6748399493585
 30
0.0
 10
458.6410506873614
 20
523.7971282099748
 30
0.0
 10
457.9488640545483
 20
525.1991341351688
 30
0.0
 10
456.5398421219158
 20
527.1623835270893
 30
0.0
 10
455.9521003005698
 20
527.8337535733887
 30
0.0
 10
454.8841494611074
 20
528.649870459143
 30
0.0
 10
454.4727335151291
 20
528.8966111423166
 30
0.0
 10
453.4861098032087
 20
529.3031564990858
 30
0.0
 10
452.879677433687
 20
529.4229673448965
 30
0.0
 10
452.2841936755391
 20
529.4229673448965
 30
0.0
  0
LINE
  5
299
330
6C
100
AcDbEntity
  8
0
100
AcDbLine
 10
472.2841936755391
 20
594.6778155449085
 30
0.0
 11
472.2841936755391
 21
498.1778155449084
 31
0.0
  0
ARC
  5
29C
330
6C
100
AcDbEntity
  8
0
100
AcDbCircle
 10
482.4772698601872
 20
595.4278155449085
 30
0.0
 40
6.0
100
AcDbArc
 50
90.00000000000067
 51
130.1559996249194
  0
ARC
  5
29D
330
6C
100
AcDbEntity
  8
0
100
AcDbCircle
 10
482.4772698601872
 20
497.4278155449085
 30
0.0
 40
6.0
100
AcDbArc
 50
229.8440003750806
 51
270.0
  0
LINE
  5
29E
330
6C
100
AcDbEntity
  8
0
100
AcDbLine
 10
472.2841936755391
 20
594.6778155449085
 30
0.0
 11
478.6080442249285
 21
600.0135644459559
 31
0.0
  0
LINE
  5
29F
330
6C
100
AcDbEntity
  8
0
100
AcDbLine
 10
472.2841936755391
 20
498.1778155449084
 30
0.0
 11
478.6080442249285
 21
492.8420666438611
 31
0.0
  0
LINE
  5
2BD
330
6C
100
AcDbEntity
  8
0
100
AcDbLine
 10
226.2841936756217
 20
644.9278155448962
 30
0.0
 11
226.2841936756217
 21
646.9278155448962
 31
0.0
  0
LINE
  5
2BE
330
6C
100
AcDbEntity
  8
0
100
AcDbLine
 10
526.2841936756218
 20
644.9278155448962
 30
0.0
 11
526.2841936756218
 21
646.9278155448962
 31
0.0
  0
LINE
  5
2BF
330
6C
100
AcDbEntity
  8
0
100
AcDbLine
 10
526.2841936756218
 20
646.9278155448962
 30
0.0
 11
524.2841936756217
 21
646.9278155448962
 31
0.0
  0
LINE
  5
2C0
330
6C
100
AcDbEntity
  8
0
100
AcDbLine
 10
524.2841936756217
 20
644.9278155448962
 30
0.0
 11
524.2841936756217
 21
646.9278155448962
 31
0.0
  0
LINE
  5
2C1
330
6C
100
AcDbEntity
  8
0
100
AcDbLine
 10
526.2841936756218
 20
644.9278155448962
 30
0.0
 11
524.2841936756217
 21
644.9278155448962
 31
0.0
  0
LINE
  5
2C2
330
6C
100
AcDbEntity
  8
0
100
AcDbLine
 10
524.2841936756217
 20
646.9278155448962
 30
0.0
 11
228.2841936756217
 21
646.9278155448962
 31
0.0
  0
LINE
  5
2C3
330
6C
100
AcDbEntity
  8
0
100
AcDbLine
 10
228.2841936756217
 20
644.9278155448962
 30
0.0
 11
228.2841936756217
 21
646.9278155448962
 31
0.0
  0
LINE
  5
2C4
330
6C
100
AcDbEntity
  8
0
100
AcDbLine
 10
524.2841936756217
 20
644.9278155448962
 30
0.0
 11
228.2841936756217
 21
644.9278155448962
 31
0.0
  0
LINE
  5
2C5
330
6C
100
AcDbEntity
  8
0
100
AcDbLine
 10
228.2841936756217
 20
646.9278155448962
 30
0.0
 11
226.2841936756217
 21
646.9278155448962
 31
0.0
  0
LINE
  5
2C6
330
6C
100
AcDbEntity
  8
0
100
AcDbLine
 10
228.2841936756217
 20
644.9278155448962
 30
0.0
 11
226.2841936756217
 21
644.9278155448962
 31
0.0
  0
LINE
  5
339
330
6C
100
AcDbEntity
  8
0
100
AcDbLine
 10
446.5341936755391
 20
606.6057093858577
 30
0.0
 11
446.5341936755391
 21
606.1126379094697
 31
0.0
  0
LINE
  5
33A
330
6C
100
AcDbEntity
  8
0
100
AcDbLine
 10
306.0341936755392
 20
606.6057093858577
 30
0.0
 11
306.0341936755392
 21
606.1126379094697
 31
0.0
  0
ARC
  5
33B
330
6C
100
AcDbEntity
  8
0
100
AcDbCircle
 10
307.6129242218294
 20
606.1132662371098
 30
0.0
 40
1.57873067132607
100
AcDbArc
 50
180.0228034607185
 51
256.8768621982481
  0
ARC
  5
33C
330
6C
100
AcDbEntity
  8
0
100
AcDbCircle
 10
444.9554631292488
 20
606.1132662371098
 30
0.0
 40
1.57873067132607
100
AcDbArc
 50
283.1231378017557
 51
359.9771965392815
  0
ARC
  5
33D
330
6C
100
AcDbEntity
  8
0
100
AcDbCircle
 10
306.3166272090909
 20
600.5844710382636
 30
0.0
 40
4.099999999999997
100
AcDbArc
 50
48.48477605800216
 51
76.7768008932302
  0
ARC
  5
33E
330
6C
100
AcDbEntity
  8
0
100
AcDbCircle
 10
446.2517601419873
 20
600.5844710382636
 30
0.0
 40
4.099999999999997
100
AcDbArc
 50
103.2231991067703
 51
131.5152239419971
  0
LINE
  5
3DE
330
6C
100
AcDbEntity
  8
0
100
AcDbLine
 10
277.5341936756218
 20
656.9278155448962
 30
0.0
 11
277.7341936755392
 21
656.9278155448962
 31
0.0
  0
LINE
  5
3DF
330
6C
100
AcDbEntity
  8
0
100
AcDbLine
 10
474.834193675539
 20
656.9278155448962
 30
0.0
 11
475.0341936756218
 21
656.9278155448962
 31
0.0
  0
LINE
  5
423
330
6C
100
AcDbEntity
  8
0
100
AcDbLine
 10
447.034193675539
 20
628.2655378847282
 30
0.0
 11
447.034193675539
 21
634.5900932050644
 31
0.0
  0
LINE
  5
424
330
6C
100
AcDbEntity
  8
0
100
AcDbLine
 10
448.034193675539
 20
622.9278155448962
 30
0.0
 11
448.034193675539
 21
638.6875168755966
 31
0.0
  0
LINE
  5
425
330
6C
100
AcDbEntity
  8
0
100
AcDbLine
 10
465.034193675539
 20
622.9278155448962
 30
0.0
 11
465.034193675539
 21
639.9278155448962
 31
0.0
  0
LINE
  5
426
330
6C
100
AcDbEntity
  8
0
100
AcDbLine
 10
467.0341936755391
 20
623.9278155448962
 30
0.0
 11
467.0341936755391
 21
638.9278155448963
 31
0.0
  0
LINE
  5
427
330
6C
100
AcDbEntity
  8
0
100
AcDbLine
 10
448.034193675539
 20
622.9278155448962
 30
0.0
 11
447.534193675539
 21
622.6778155448962
 31
0.0
  0
LINE
  5
428
330
6C
100
AcDbEntity
  8
0
100
AcDbLine
 10
458.0391936755738
 20
639.9278155448962
 30
0.0
 11
465.034193675539
 21
639.9278155448962
 31
0.0
  0
LINE
  5
429
330
6C
100
AcDbEntity
  8
0
100
AcDbLine
 10
448.034193675539
 20
622.9278155448962
 30
0.0
 11
465.034193675539
 21
622.9278155448962
 31
0.0
  0
LINE
  5
42A
330
6C
100
AcDbEntity
  8
0
100
AcDbLine
 10
467.0341936755391
 20
623.9278155448962
 30
0.0
 11
465.034193675539
 21
622.9278155448962
 31
0.0
  0
LINE
  5
42B
330
6C
100
AcDbEntity
  8
0
100
AcDbLine
 10
467.0341936755391
 20
638.9278155448963
 30
0.0
 11
465.034193675539
 21
639.9278155448962
 31
0.0
  0
LINE
  5
430
330
6C
100
AcDbEntity
  8
0
100
AcDbLine
 10
474.284193675539
 20
666.9278155448962
 30
0.0
 11
278.2841936755391
 21
666.9278155448962
 31
0.0
  0
SPLINE
  5
45F
330
6C
100
AcDbEntity
  8
0
100
AcDbSpline
210
0.0
220
0.0
230
1.0
 70
     8
 71
     3
 72
    16
 73
    12
 74
     0
 42
0.0000000001
 43
0.0000000001
 40
0.0
 40
0.0
 40
0.0
 40
0.0
 40
0.039064447338693
 40
0.039064447338693
 40
0.0781288946773862
 40
0.0781288946773862
 40
0.117193342016081
 40
0.117193342016081
 40
0.1373373782309075
 40
0.1373373782309075
 40
0.157481414445736
 40
0.157481414445736
 40
0.157481414445736
 40
0.157481414445736
 10
276.2841936754346
 20
169.3461716964432
 30
0.0
 10
276.2841936754346
 20
169.2159568719809
 30
0.0
 10
276.3096275261992
 20
169.086986972213
 30
0.0
 10
276.4084997388691
 20
168.8460556799309
 30
0.0
 10
276.4809928285317
 20
168.7363977218885
 30
0.0
 10
276.6639321372295
 20
168.551041817283
 30
0.0
 10
276.7726293567642
 20
168.4771159741947
 30
0.0
 10
276.9542155376342
 20
168.3997980283662
 30
0.0
 10
277.0184878652997
 20
168.379781964753
 30
0.0
 10
277.1500705023456
 20
168.352934733027
 30
0.0
 10
277.2170468880518
 20
168.3461716964432
 30
0.0
 10
277.2841936754346
 20
168.3461716964432
 30
0.0
  0
LINE
  5
460
330
6C
100
AcDbEntity
  8
0
100
AcDbLine
 10
277.2841936754346
 20
168.3461716964433
 30
0.0
 11
277.7341936754346
 21
168.3461716964433
 31
0.0
  0
LINE
  5
461
330
6C
100
AcDbEntity
  8
0
100
AcDbLine
 10
276.2841936754346
 20
169.7961716964433
 30
0.0
 11
276.2841936754346
 21
169.3461716964433
 31
0.0
  0
LINE
  5
466
330
6C
100
AcDbEntity
  8
0
100
AcDbLine
 10
277.7341936754346
 20
168.3461716964433
 30
0.0
 11
277.7870406716836
 21
168.3461716964433
 31
0.0
  0
LINE
  5
467
330
6C
100
AcDbEntity
  8
0
100
AcDbLine
 10
474.7813466793513
 20
168.3461716964433
 30
0.0
 11
474.8341936754346
 21
168.3461716964433
 31
0.0
  0
LINE
  5
468
330
6C
100
AcDbEntity
  8
0
100
AcDbLine
 10
474.8341936754346
 20
368.3461716964433
 30
0.0
 11
474.7813466786295
 21
368.3461716964433
 31
0.0
  0
LINE
  5
469
330
6C
100
AcDbEntity
  8
0
100
AcDbLine
 10
277.7870406724054
 20
368.3461716964433
 30
0.0
 11
277.7341936754346
 21
368.3461716964433
 31
0.0
  0
LINE
  5
46A
330
6C
100
AcDbEntity
  8
0
100
AcDbLine
 10
276.2841936754346
 20
366.8961716964433
 30
0.0
 11
276.2841936754346
 21
366.8433246994723
 31
0.0
  0
LINE
  5
46B
330
6C
100
AcDbEntity
  8
0
100
AcDbLine
 10
276.2841936754346
 20
169.8490186932489
 30
0.0
 11
276.2841936754346
 21
169.7961716964433
 31
0.0
  0
LINE
  5
46C
330
6C
100
AcDbEntity
  8
0
100
AcDbLine
 10
476.2841936754345
 20
169.7961716964433
 30
0.0
 11
476.2841936754345
 21
169.8490186925262
 31
0.0
  0
LINE
  5
46D
330
6C
100
AcDbEntity
  8
0
100
AcDbLine
 10
476.2841936754345
 20
366.8433247001951
 30
0.0
 11
476.2841936754345
 21
366.8961716964433
 31
0.0
  0
LINE
  5
472
330
6C
100
AcDbEntity
  8
0
100
AcDbLine
 10
474.8341936754346
 20
168.3461716964433
 30
0.0
 11
475.2841936754345
 21
168.3461716964433
 31
0.0
  0
LINE
  5
473
330
6C
100
AcDbEntity
  8
0
100
AcDbLine
 10
476.2841936754345
 20
169.3461716964432
 30
0.0
 11
476.2841936754345
 21
169.7961716964433
 31
0.0
  0
SPLINE
  5
480
330
6C
100
AcDbEntity
  8
0
100
AcDbSpline
210
0.0
220
0.0
230
1.0
 70
     8
 71
     3
 72
    16
 73
    12
 74
     0
 42
0.0000000001
 43
0.0000000001
 40
0.0
 40
0.0
 40
0.0
 40
0.0
 40
0.0390644473386915
 40
0.0390644473386915
 40
0.0781288946773805
 40
0.0781288946773805
 40
0.1171933420160711
 40
0.1171933420160711
 40
0.137337378230898
 40
0.137337378230898
 40
0.1574814144457246
 40
0.1574814144457246
 40
0.1574814144457246
 40
0.1574814144457246
 10
476.2841936754345
 20
367.3461716964434
 30
0.0
 10
476.2841936754345
 20
367.4763865209056
 30
0.0
 10
476.2587598246699
 20
367.6053564206736
 30
0.0
 10
476.1598876119998
 20
367.8462877129557
 30
0.0
 10
476.0873945223373
 20
367.955945670998
 30
0.0
 10
475.9044552136393
 20
368.1413015756036
 30
0.0
 10
475.795757994105
 20
368.2152274186919
 30
0.0
 10
475.6141718132347
 20
368.2925453645203
 30
0.0
 10
475.5498994855695
 20
368.3125614281335
 30
0.0
 10
475.4183168485234
 20
368.3394086598596
 30
0.0
 10
475.3513404628174
 20
368.3461716964433
 30
0.0
 10
475.2841936754347
 20
368.3461716964433
 30
0.0
  0
LINE
  5
481
330
6C
100
AcDbEntity
  8
0
100
AcDbLine
 10
475.2841936754347
 20
368.3461716964433
 30
0.0
 11
474.8341936754346
 21
368.3461716964433
 31
0.0
  0
LINE
  5
482
330
6C
100
AcDbEntity
  8
0
100
AcDbLine
 10
277.7341936754346
 20
368.3461716964433
 30
0.0
 11
277.2841936754346
 21
368.3461716964433
 31
0.0
  0
LINE
  5
483
330
6C
100
AcDbEntity
  8
0
100
AcDbLine
 10
476.2841936754345
 20
366.8961716964433
 30
0.0
 11
476.2841936754345
 21
367.3461716964434
 31
0.0
  0
LINE
  5
484
330
6C
100
AcDbEntity
  8
0
100
AcDbLine
 10
276.2841936754346
 20
367.3461716964434
 30
0.0
 11
276.2841936754346
 21
366.8961716964433
 31
0.0
  0
SPLINE
  5
48D
330
6C
100
AcDbEntity
  8
0
100
AcDbSpline
210
0.0
220
0.0
230
1.0
 70
     8
 71
     3
 72
    16
 73
    12
 74
     0
 42
0.0000000001
 43
0.0000000001
 40
0.0
 40
0.0
 40
0.0
 40
0.0
 40
0.0390644473386933
 40
0.0390644473386933
 40
0.0781288946773843
 40
0.0781288946773843
 40
0.1171933420160773
 40
0.1171933420160773
 40
0.1373373782309079
 40
0.1373373782309079
 40
0.1574814144457362
 40
0.1574814144457362
 40
0.1574814144457362
 40
0.1574814144457362
 10
277.2841936754346
 20
368.3461716964433
 30
0.0
 10
277.1539788509723
 20
368.3461716964433
 30
0.0
 10
277.0250089512044
 20
368.3207378456787
 30
0.0
 10
276.7840776589222
 20
368.2218656330088
 30
0.0
 10
276.6744197008799
 20
368.1493725433464
 30
0.0
 10
276.4890637962743
 20
367.9664332346482
 30
0.0
 10
276.415137953186
 20
367.8577360151137
 30
0.0
 10
276.3378200073575
 20
367.6761498342437
 30
0.0
 10
276.3178039437443
 20
367.6118775065782
 30
0.0
 10
276.2909567120183
 20
367.4802948695323
 30
0.0
 10
276.2841936754346
 20
367.4133184838261
 30
0.0
 10
276.2841936754346
 20
367.3461716964434
 30
0.0
  0
SPLINE
  5
48E
330
6C
100
AcDbEntity
  8
0
100
AcDbSpline
210
0.0
220
0.0
230
1.0
 70
     8
 71
     3
 72
    16
 73
    12
 74
     0
 42
0.0000000001
 43
0.0000000001
 40
0.0
 40
0.0
 40
0.0
 40
0.0
 40
0.0390644473386912
 40
0.0390644473386912
 40
0.0781288946773848
 40
0.0781288946773848
 40
0.1171933420160769
 40
0.1171933420160769
 40
0.1373373782309036
 40
0.1373373782309036
 40
0.15748141444573
 40
0.15748141444573
 40
0.15748141444573
 40
0.15748141444573
 10
475.2841936754347
 20
168.3461716964433
 30
0.0
 10
475.4144084998968
 20
168.3461716964433
 30
0.0
 10
475.5433783996648
 20
168.3716055472079
 30
0.0
 10
475.784309691947
 20
168.4704777598778
 30
0.0
 10
475.8939676499893
 20
168.5429708495404
 30
0.0
 10
476.0793235545945
 20
168.7259101582384
 30
0.0
 10
476.153249397683
 20
168.8346073777729
 30
0.0
 10
476.2305673435117
 20
169.0161935586429
 30
0.0
 10
476.2505834071247
 20
169.0804658863083
 30
0.0
 10
476.2774306388506
 20
169.2120485233542
 30
0.0
 10
476.2841936754345
 20
169.2790249090605
 30
0.0
 10
476.2841936754345
 20
169.3461716964432
 30
0.0
  0
LINE
  5
4DB
330
6C
100
AcDbEntity
  8
0
100
AcDbLine
 10
226.2841936755172
 20
120.3461716965205
 30
0.0
 11
226.2841936755173
 21
416.3461716965206
 31
0.0
  0
LINE
  5
4DC
330
6C
100
AcDbEntity
  8
0
100
AcDbLine
 10
226.2841936755173
 20
416.3461716965206
 30
0.0
 11
228.2841936755172
 21
418.3461716965205
 31
0.0
  0
LINE
  5
4DD
330
6C
100
AcDbEntity
  8
0
100
AcDbLine
 10
228.2841936755172
 20
418.3461716965205
 30
0.0
 11
524.2841936755171
 21
418.3461716965205
 31
0.0
  0
LINE
  5
4DE
330
6C
100
AcDbEntity
  8
0
100
AcDbLine
 10
524.2841936755171
 20
418.3461716965205
 30
0.0
 11
526.2841936755171
 21
416.3461716965206
 31
0.0
  0
LINE
  5
4DF
330
6C
100
AcDbEntity
  8
0
100
AcDbLine
 10
526.2841936755171
 20
416.3461716965206
 30
0.0
 11
526.2841936755171
 21
120.3461716965205
 31
0.0
  0
LINE
  5
4E0
330
6C
100
AcDbEntity
  8
0
100
AcDbLine
 10
526.2841936755171
 20
120.3461716965205
 30
0.0
 11
524.2841936755171
 21
118.3461716965205
 31
0.0
  0
LINE
  5
4E1
330
6C
100
AcDbEntity
  8
0
100
AcDbLine
 10
524.2841936755171
 20
118.3461716965205
 30
0.0
 11
228.2841936755172
 21
118.3461716965205
 31
0.0
  0
LINE
  5
4E2
330
6C
100
AcDbEntity
  8
0
100
AcDbLine
 10
228.2841936755172
 20
118.3461716965205
 30
0.0
 11
226.2841936755172
 21
120.3461716965205
 31
0.0
  0
LINE
  5
5E7
330
6C
100
AcDbEntity
  8
0
100
AcDbLine
 10
557.284193675539
 20
321.3461716964078
 30
0.0
 11
557.284193675539
 21
215.3461716964077
 31
0.0
  0
LINE
  5
5EA
330
6C
100
AcDbEntity
  8
0
100
AcDbLine
 10
555.0265310248743
 20
211.3461716964076
 30
0.0
 11
526.2841936755171
 21
211.3461716964076
 31
0.0
  0
LINE
  5
5EB
330
6C
100
AcDbEntity
  8
0
100
AcDbLine
 10
555.0265310248743
 20
325.3461716964078
 30
0.0
 11
526.2841936755171
 21
325.3461716964078
 31
0.0
  0
LINE
  5
611
330
6C
100
AcDbEntity
  8
0
100
AcDbLine
 10
474.3347039327341
 20
368.3966819535779
 30
0.0
 11
278.2336834183007
 21
368.3966819535779
 31
0.0
  0
LINE
  5
612
330
6C
100
AcDbEntity
  8
0
100
AcDbLine
 10
276.2336834183007
 20
366.3966819535777
 30
0.0
 11
276.2336834183007
 21
170.2956614391443
 31
0.0
  0
LINE
  5
613
330
6C
100
AcDbEntity
  8
0
100
AcDbLine
 10
278.2336834183007
 20
168.2956614391443
 30
0.0
 11
474.3347039327341
 21
168.2956614391443
 31
0.0
  0
LINE
  5
614
330
6C
100
AcDbEntity
  8
0
100
AcDbLine
 10
476.334703932734
 20
170.2956614391443
 30
0.0
 11
476.334703932734
 21
366.3966819535777
 31
0.0
  0
ARC
  5
615
330
6C
100
AcDbEntity
  8
0
100
AcDbCircle
 10
278.2336834183007
 20
366.3966819535779
 30
0.0
 40
1.999999999999935
100
AcDbArc
 50
89.99999999999692
 51
180.0
  0
ARC
  5
616
330
6C
100
AcDbEntity
  8
0
100
AcDbCircle
 10
278.2336834183007
 20
170.2956614391443
 30
0.0
 40
1.999999999999988
100
AcDbArc
 50
180.0
 51
270.0
  0
ARC
  5
617
330
6C
100
AcDbEntity
  8
0
100
AcDbCircle
 10
474.3347039327341
 20
170.2956614391443
 30
0.0
 40
1.999999999999988
100
AcDbArc
 50
270.0
 51
0.0
  0
ARC
  5
618
330
6C
100
AcDbEntity
  8
0
100
AcDbCircle
 10
474.3347039327341
 20
366.3966819535779
 30
0.0
 40
1.999999999999971
100
AcDbArc
 50
0.0
 51
90.0
  0
LINE
  5
621
330
6C
100
AcDbEntity
  8
0
100
AcDbLine
 10
460.7841936755171
 20
195.3461716963609
 30
0.0
 11
460.7841936755173
 21
341.3461716963609
 31
0.0
  0
LINE
  5
622
330
6C
100
AcDbEntity
  8
0
100
AcDbLine
 10
291.7841936755175
 20
341.3461716963608
 30
0.0
 11
291.7841936755174
 21
195.346171696361
 31
0.0
  0
CIRCLE
  5
623
330
6C
100
AcDbEntity
  8
0
100
AcDbCircle
 10
376.2841936755174
 20
268.3461716963607
 30
0.0
 40
69.99999999997829
  0
ARC
  5
624
330
6C
100
AcDbEntity
  8
0
100
AcDbCircle
 10
303.2841936755174
 20
195.3461716963609
 30
0.0
 40
11.49999999999999
100
AcDbArc
 50
180.0
 51
270.0
  0
LINE
  5
625
330
6C
100
AcDbEntity
  8
0
100
AcDbLine
 10
303.2841936755174
 20
183.846171696361
 30
0.0
 11
449.2841936755172
 21
183.8461716963609
 31
0.0
  0
ARC
  5
626
330
6C
100
AcDbEntity
  8
0
100
AcDbCircle
 10
303.2841936755175
 20
341.3461716963608
 30
0.0
 40
11.5
100
AcDbArc
 50
89.99999999999982
 51
180.0
  0
LINE
  5
627
330
6C
100
AcDbEntity
  8
0
100
AcDbLine
 10
449.2841936755172
 20
352.8461716963608
 30
0.0
 11
303.2841936755175
 21
352.8461716963608
 31
0.0
  0
ARC
  5
628
330
6C
100
AcDbEntity
  8
0
100
AcDbCircle
 10
449.2841936755172
 20
195.3461716963609
 30
0.0
 40
11.49999999999996
100
AcDbArc
 50
270.0
 51
0.0
  0
ARC
  5
629
330
6C
100
AcDbEntity
  8
0
100
AcDbCircle
 10
449.2841936755172
 20
341.3461716963609
 30
0.0
 40
11.49999999999999
100
AcDbArc
 50
0.0
 51
90.0
  0
LINE
  5
6B8
330
6C
100
AcDbEntity
  8
7
  6
Continuous
100
AcDbLine
 10
376.2841936755391
 20
524.9340799505604
 30
0.0
 11
376.2841936755391
 21
636.4278155448962
 31
0.0
  0
LINE
  5
6BA
330
6C
100
AcDbEntity
  8
7
  6
Continuous
100
AcDbLine
 10
557.284193675539
 20
546.4278155449085
 30
0.0
 11
467.284193675539
 21
546.4278155449085
 31
0.0
  0
DIMENSION
  5
6BB
330
6C
100
AcDbEntity
  8
5
100
AcDbDimension
  2
*D26
 10
205.3221517264105
 20
529.4229673448966
 30
0.0
 11
205.3221517264105
 21
598.1753914448963
 31
0.0
 70
   160
  1
<>
 71
     5
 42
137.5048481999997
  3
GEN-ISO
100
AcDbAlignedDimension
 13
278.2841936755391
 23
666.9278155448962
 33
0.0
 14
333.25898113935
 24
529.4229673448965
 34
0.0
 50
90.0
100
AcDbRotatedDimension
1001
ACAD
1000
DSTYLE
1002
{
1070
     3
1000

1070
   271
1070
     0
1002
}
1001
ACAD_DSTYLE_DIMINSPECT
1070
   396
1000
100%
1070
   395
1000

1070
   394
1070
    33
1070
   393
1070
     0
  0
DIMENSION
  5
79E
330
6C
100
AcDbEntity
  8
5
100
AcDbDimension
  2
*D27
 10
476.2841936755391
 20
679.0826806863203
 30
0.0
 11
376.2841936755391
 21
679.0826806863203
 31
0.0
 70
   160
  1
{\Famgdt;o}<>
 71
     5
 42
200.0
  3
GEN-ISO
100
AcDbAlignedDimension
 13
276.2841936755391
 23
664.9278155448962
 33
0.0
 14
476.2841936755391
 24
664.9278155448961
 34
0.0
100
AcDbRotatedDimension
1001
ACAD
1000
DSTYLE
1002
{
1070
     3
1000

1070
   271
1070
     0
1002
}
1001
ACAD_DSTYLE_DIMINSPECT
1070
   396
1000
100%
1070
   395
1000

1070
   394
1070
    33
1070
   393
1070
     0
  0
DIMENSION
  5
881
330
6C
100
AcDbEntity
  8
5
100
AcDbDimension
  2
*D28
 10
526.2841936756218
 20
703.4054398510027
 30
0.0
 11
376.2841936756218
 21
703.4054398510027
 31
0.0
 70
   160
  1
{\Famgdt;o}<>
 71
     5
 42
300.0000000000002
  3
GEN-ISO
100
AcDbAlignedDimension
 13
226.2841936756217
 23
646.9278155448961
 33
0.0
 14
526.2841936756218
 24
646.9278155448962
 34
0.0
100
AcDbRotatedDimension
1001
ACAD
1000
DSTYLE
1002
{
1070
     3
1000

1070
   271
1070
     0
1002
}
1001
ACAD_DSTYLE_DIMINSPECT
1070
   396
1000
100%
1070
   395
1000

1070
   394
1070
    33
1070
   393
1070
     0
  0
DIMENSION
  5
BFC
330
6C
100
AcDbEntity
  8
5
100
AcDbDimension
  2
*D32
 10
557.284193675539
 20
461.6778155449085
 30
0.0
 11
466.784193675539
 21
461.6778155449085
 31
0.0
 70
   160
  1
<>
 71
     5
 42
181.0
  3
GEN-ISO
100
AcDbAlignedDimension
 13
376.2841936755391
 23
493.9580830936018
 33
0.0
 14
557.284193675539
 24
491.6854781954688
 34
0.0
100
AcDbRotatedDimension
1001
ACAD
1000
DSTYLE
1002
{
1070
     3
1000

1070
   271
1070
     0
1002
}
  0
CIRCLE
  5
1094
330
6C
100
AcDbEntity
  8
0
100
AcDbCircle
 10
376.2841936755174
 20
268.3461716963607
 30
0.0
 40
65.99999999997828
  0
LINE
  5
10FA
330
6C
100
AcDbEntity
  8
7
100
AcDbLine
 10
271.4797806007609
 20
268.3461716963609
 30
0.0
 11
485.7891827974222
 21
268.3461716963609
 31
0.0
  0
LINE
  5
10FB
330
6C
100
AcDbEntity
  8
7
100
AcDbLine
 10
375.8736889603297
 20
375.5778636551268
 30
0.0
 11
375.8736889603296
 21
191.3969395332151
 31
0.0
  0
LINE
  5
1144
330
6C
100
AcDbEntity
  8
0
100
AcDbLine
 10
557.284193675539
 20
321.3461716964078
 30
0.0
 11
555.0265310248743
 21
325.3461716964078
 31
0.0
  0
LINE
  5
1145
330
6C
100
AcDbEntity
  8
0
100
AcDbLine
 10
555.0265310248743
 20
211.3461716964076
 30
0.0
 11
557.284193675539
 21
215.3461716964077
 31
0.0
  0
LINE
  5
1146
330
6C
100
AcDbEntity
  8
0
100
AcDbLine
 10
557.284193675539
 20
598.9124902437878
 30
0.0
 11
557.284193675539
 21
493.943140846029
 31
0.0
  0
DIMENSION
  5
118D
330
6C
100
AcDbEntity
  8
5
100
AcDbDimension
  2
*D53
 10
305.0341936755391
 20
499.6269348177071
 30
0.0
 11
376.2841936755391
 21
507.9726702105883
 31
0.0
 70
    32
  1
142
 71
     5
 42
142.5
  3
GEN-ISO
100
AcDbAlignedDimension
 13
447.534193675539
 23
594.9229673448964
 33
0.0
 14
305.0341936755391
 24
547.9665384658979
 34
0.0
 50
0.0000000000001132
100
AcDbRotatedDimension
1001
ACAD_DSTYLE_DIMINSPECT
1070
   396
1000
100%
1070
   395
1000

1070
   394
1070
    33
1070
   393
1070
     0
1001
ACAD
1000
DSTYLE
1002
{
1070
     3
1000

1070
   271
1070
     0
1002
}
  0
LINE
  5
11CC
330
6C
100
AcDbEntity
  8
0
100
AcDbLine
 10
554.7688683744183
 20
491.4278155449085
 30
0.0
 11
557.284193675539
 21
493.943140846029
 31
0.0
  0
LINE
  5
11CD
330
6C
100
AcDbEntity
  8
0
100
AcDbLine
 10
554.7688683744186
 20
601.4278155449085
 30
0.0
 11
557.284193675539
 21
598.9124902437878
 31
0.0
  0
LINE
  5
1226
330
6C
100
AcDbEntity
  8
0
100
AcDbLine
 10
482.4772698601872
 20
601.4278155449085
 30
0.0
 11
554.7688683744186
 21
601.4278155449085
 31
0.0
  0
LINE
  5
1227
330
6C
100
AcDbEntity
  8
0
100
AcDbLine
 10
482.4772698601872
 20
491.4278155449085
 30
0.0
 11
554.7688683744183
 21
491.4278155449085
 31
0.0
  0
DIMENSION
  5
1228
330
6C
100
AcDbEntity
  8
5
100
AcDbDimension
  2
*D55
 10
581.370737790077
 20
491.4278155449085
 30
0.0
 11
581.3707377900768
 21
546.4278155449086
 31
0.0
 70
   160
  1
%%c<>
 71
     5
 42
110.0
  3
GEN-ISO
100
AcDbAlignedDimension
 13
554.7688683744186
 23
601.4278155449085
 33
0.0
 14
554.7688683744183
 24
491.4278155449085
 34
0.0
 50
90.00000000000005
100
AcDbRotatedDimension
1001
ACAD
1000
DSTYLE
1002
{
1070
     3
1000

1070
   271
1070
     0
1002
}
1001
ACAD_DSTYLE_DIMINSPECT
1070
   396
1000
100%
1070
   395
1000

1070
   394
1070
    33
1070
   393
1070
     0
  0
LINE
  5
12CC
330
6C
100
AcDbEntity
  8
0
100
AcDbLine
 10
474.284193675539
 20
666.9278155448962
 30
0.0
 11
476.2841936755391
 21
664.9278155448962
 31
0.0
  0
LINE
  5
12CD
330
6C
100
AcDbEntity
  8
0
100
AcDbLine
 10
276.2841936755391
 20
664.9278155448962
 30
0.0
 11
278.2841936755391
 21
666.9278155448962
 31
0.0
  0
DIMENSION
  5
12CE
330
6C
100
AcDbEntity
  8
5
100
AcDbDimension
  2
*D56
 10
556.9728418677438
 20
641.9278155448962
 30
0.0
 11
556.9728418677437
 21
654.4278155448964
 31
0.0
 70
   160
 71
     5
 42
25.0
  3
GEN-ISO
100
AcDbAlignedDimension
 13
474.284193675539
 23
666.9278155448962
 33
0.0
 14
474.284193675539
 24
641.9278155448962
 34
0.0
 50
90.00000000000005
100
AcDbRotatedDimension
1001
ACAD_DSTYLE_DIMINSPECT
1070
   396
1000
100%
1070
   395
1000

1070
   394
1070
    33
1070
   393
1070
     0
1001
ACAD
1000
DSTYLE
1002
{
1070
     3
1000

1070
   271
1070
     0
1002
}
  0
DIMENSION
  5
12FA
330
6C
100
AcDbEntity
  8
5
100
AcDbDimension
  2
*D57
 10
624.2815269829967
 20
666.9278155448962
 30
0.0
 11
624.2815269829966
 21
579.1778155449025
 31
0.0
 70
   160
  1
175
 71
     5
 42
175.4999999999877
  3
GEN-ISO
100
AcDbAlignedDimension
 13
554.7688683744183
 23
491.4278155449085
 33
0.0
 14
474.284193675539
 24
666.9278155448962
 34
0.0
 50
90.00000000000005
100
AcDbRotatedDimension
1001
ACAD_DSTYLE_DIMINSPECT
1070
   396
1000
100%
1070
   395
1000

1070
   394
1070
    33
1070
   393
1070
     0
1001
ACAD
1000
DSTYLE
1002
{
1070
     3
1000

1070
   271
1070
     0
1002
}
  0
DIMENSION
  5
1330
330
6C
100
AcDbEntity
  8
5
100
AcDbDimension
  2
*D58
 10
605.4992851216235
 20
546.4278155449085
 30
0.0
 11
605.4992851216233
 21
606.6778155449025
 31
0.0
 70
   160
  1
120
 71
     5
 42
120.4999999999877
  3
GEN-ISO
100
AcDbAlignedDimension
 13
474.284193675539
 23
666.9278155448962
 33
0.0
 14
594.7841936755266
 24
546.4278155449085
 34
0.0
 50
90.00000000000005
100
AcDbRotatedDimension
1001
ACAD
1000
DSTYLE
1002
{
1070
     3
1000

1070
   271
1070
     0
1002
}
1001
ACAD_DSTYLE_DIMINSPECT
1070
   396
1000
100%
1070
   395
1000

1070
   394
1070
    33
1070
   393
1070
     0
  0
ENDSEC
  0
SECTION
  2
OBJECTS
  0
DICTIONARY
  5
C
330
0
100
AcDbDictionary
281
     1
  3
ACAD_2007HEADERVARS_RT
350
1702
  3
ACAD_CIP_PREVIOUS_PRODUCT_INFO
350
D42
  3
ACAD_COLOR
350
63
  3
ACAD_GROUP
350
D
  3
ACAD_LAYOUT
350
62
  3
ACAD_MATERIAL
350
10
  3
ACAD_MLEADERSTYLE
350
66
  3
ACAD_MLINESTYLE
350
5F
  3
ACAD_PLOTSETTINGS
350
61
  3
ACAD_PLOTSTYLENAME
350
E
  3
ACAD_SCALELIST
350
42
  3
ACAD_TABLESTYLE
350
64
  3
ACAD_VISUALSTYLE
350
29
  3
ACDB_RECOMPOSE_DATA
350
1701
  3
AcDbVariableDictionary
350
D78
  3
AcmDictionary
350
DE5
  3
AEC_PROPERTY_SET_DEFS
350
E2E
  3
AMG
350
D8B
  3
AMGSNAPSETTINGS
350
E31
  0
DICTIONARY
  5
E26
330
2
100
AcDbDictionary
280
     1
281
     1
  3
ACAD_LAYERSTATES
360
E27
  0
DICTIONARY
  5
EAD
330
EAC
100
AcDbDictionary
280
     1
281
     1
  0
DICTIONARY
  5
EAF
330
EAE
100
AcDbDictionary
280
     1
281
     1
  0
DICTIONARY
  5
16EF
330
CA
100
AcDbDictionary
280
     1
281
     1
  3
ACAD_MTEXT_2008_RT
360
16F0
  0
DICTIONARY
  5
1738
330
12F
100
AcDbDictionary
280
     1
281
     1
  3
ACAD_MTEXT_2008_RT
360
1739
  0
DICTIONARY
  5
173A
330
133
100
AcDbDictionary
280
     1
281
     1
  3
ACAD_MTEXT_2008_RT
360
173B
  0
DICTIONARY
  5
173C
330
137
100
AcDbDictionary
280
     1
281
     1
  3
ACAD_MTEXT_2008_RT
360
173D
  0
DICTIONARY
  5
173E
330
13B
100
AcDbDictionary
280
     1
281
     1
  3
ACAD_MTEXT_2008_RT
360
173F
  0
DICTIONARY
  5
1740
330
13F
100
AcDbDictionary
280
     1
281
     1
  3
ACAD_MTEXT_2008_RT
360
1741
  0
DICTIONARY
  5
1742
330
143
100
AcDbDictionary
280
     1
281
     1
  3
ACAD_MTEXT_2008_RT
360
1743
  0
DICTIONARY
  5
1744
330
147
100
AcDbDictionary
280
     1
281
     1
  3
ACAD_MTEXT_2008_RT
360
1745
  0
DICTIONARY
  5
1746
330
14B
100
AcDbDictionary
280
     1
281
     1
  3
ACAD_MTEXT_2008_RT
360
1747
  0
DICTIONARY
  5
1748
330
153
100
AcDbDictionary
280
     1
281
     1
  3
ACAD_MTEXT_2008_RT
360
1749
  0
DICTIONARY
  5
174A
330
201
100
AcDbDictionary
280
     1
281
     1
  3
ACAD_MTEXT_2008_RT
360
174B
  0
DICTIONARY
  5
174C
330
205
100
AcDbDictionary
280
     1
281
     1
  3
ACAD_MTEXT_2008_RT
360
174D
  0
DICTIONARY
  5
174E
330
20A
100
AcDbDictionary
280
     1
281
     1
  3
ACAD_MTEXT_2008_RT
360
174F
  0
DICTIONARY
  5
D47
330
20E
100
AcDbDictionary
280
     1
281
     1
  3
ACAD_MLATT
360
16F2
  3
ACAD_XREC_ROUNDTRIP
360
16F1
  0
DICTIONARY
  5
D4A
330
212
100
AcDbDictionary
280
     1
281
     1
  3
ACAD_MLATT
360
16F4
  3
ACAD_XREC_ROUNDTRIP
360
16F3
  0
DICTIONARY
  5
D4D
330
213
100
AcDbDictionary
280
     1
281
     1
  3
ACAD_MLATT
360
16F6
  3
ACAD_XREC_ROUNDTRIP
360
16F5
  0
DICTIONARY
  5
D50
330
214
100
AcDbDictionary
280
     1
281
     1
  3
ACAD_MLATT
360
16F8
  3
ACAD_XREC_ROUNDTRIP
360
16F7
  0
DICTIONARY
  5
D53
330
216
100
AcDbDictionary
280
     1
281
     1
  3
ACAD_MLATT
360
16FA
  3
ACAD_XREC_ROUNDTRIP
360
16F9
  0
DICTIONARY
  5
D56
330
217
100
AcDbDictionary
280
     1
281
     1
  3
ACAD_MLATT
360
16FC
  3
ACAD_XREC_ROUNDTRIP
360
16FB
  0
DICTIONARY
  5
D59
330
218
100
AcDbDictionary
280
     1
281
     1
  3
ACAD_MLATT
360
16FE
  3
ACAD_XREC_ROUNDTRIP
360
16FD
  0
DICTIONARY
  5
D5C
330
219
100
AcDbDictionary
280
     1
281
     1
  3
ACAD_MLATT
360
1700
  3
ACAD_XREC_ROUNDTRIP
360
16FF
  0
DICTIONARY
  5
1750
330
CE4
100
AcDbDictionary
280
     1
281
     1
  3
ACAD_MTEXT_2008_RT
360
1751
  0
DICTIONARY
  5
1752
330
CE8
100
AcDbDictionary
280
     1
281
     1
  3
ACAD_MTEXT_2008_RT
360
1753
  0
DICTIONARY
  5
1754
330
CEC
100
AcDbDictionary
280
     1
281
     1
  3
ACAD_MTEXT_2008_RT
360
1755
  0
DICTIONARY
  5
1756
330
CF7
100
AcDbDictionary
280
     1
281
     1
  3
ACAD_MTEXT_2008_RT
360
1757
  0
DICTIONARY
  5
1758
330
CFE
100
AcDbDictionary
280
     1
281
     1
  3
ACAD_MTEXT_2008_RT
360
1759
  0
DICTIONARY
  5
175A
330
D03
100
AcDbDictionary
280
     1
281
     1
  3
ACAD_MTEXT_2008_RT
360
175B
  0
DICTIONARY
  5
175C
330
D06
100
AcDbDictionary
280
     1
281
     1
  3
ACAD_MTEXT_2008_RT
360
175D
  0
DICTIONARY
  5
175E
330
D0E
100
AcDbDictionary
280
     1
281
     1
  3
ACAD_MTEXT_2008_RT
360
175F
  0
DICTIONARY
  5
1760
330
D12
100
AcDbDictionary
280
     1
281
     1
  3
ACAD_MTEXT_2008_RT
360
1761
  0
DICTIONARY
  5
1762
330
D13
100
AcDbDictionary
280
     1
281
     1
  3
ACAD_MTEXT_2008_RT
360
1763
  0
DICTIONARY
  5
1764
330
D16
100
AcDbDictionary
280
     1
281
     1
  3
ACAD_MTEXT_2008_RT
360
1765
  0
DICTIONARY
  5
1766
330
D1E
100
AcDbDictionary
280
     1
281
     1
  3
ACAD_MTEXT_2008_RT
360
1767
  0
DICTIONARY
  5
1768
330
D2E
100
AcDbDictionary
280
     1
281
     1
  3
ACAD_MTEXT_2008_RT
360
1769
  0
DICTIONARY
  5
1702
102
{ACAD_REACTORS
330
C
102
}
330
C
100
AcDbDictionary
281
     1
  3
DIMARCSYM
350
1703
  3
DIMLTEX1
350
1705
  3
DIMLTEX2
350
1706
  3
DIMLTYPE
350
1704
  0
XRECORD
  5
D42
102
{ACAD_REACTORS
330
C
102
}
330
C
100
AcDbXrecord
280
     1
300
INVNTOR
300
2012
300
PDSP_F_S
  0
DICTIONARY
  5
63
102
{ACAD_REACTORS
330
C
102
}
330
C
100
AcDbDictionary
281
     1
  0
DICTIONARY
  5
D
102
{ACAD_REACTORS
330
C
102
}
330
C
100
AcDbDictionary
281
     1
  0
DICTIONARY
  5
62
102
{ACAD_REACTORS
330
C
102
}
330
C
100
AcDbDictionary
281
     1
  3
Layout1
350
6B
  3
Layout2
350
73
  3
Model
350
6F
  0
DICTIONARY
  5
10
102
{ACAD_REACTORS
330
C
102
}
330
C
100
AcDbDictionary
281
     1
  3
ByBlock
350
19
  3
ByLayer
350
11
  3
Global
350
21
  0
DICTIONARY
  5
66
102
{ACAD_REACTORS
330
C
102
}
330
C
100
AcDbDictionary
281
     1
  3
Standard
350
67
  0
DICTIONARY
  5
5F
102
{ACAD_REACTORS
330
C
102
}
330
C
100
AcDbDictionary
281
     1
  3
Standard
350
60
  0
DICTIONARY
  5
61
102
{ACAD_REACTORS
330
C
102
}
330
C
100
AcDbDictionary
281
     1
  0
ACDBDICTIONARYWDFLT
  5
E
102
{ACAD_REACTORS
330
C
102
}
330
C
100
AcDbDictionary
281
     1
  3
Normal
350
F
100
AcDbDictionaryWithDefault
340
F
  0
DICTIONARY
  5
42
102
{ACAD_REACTORS
330
C
102
}
330
C
100
AcDbDictionary
281
     1
  3
A0
350
43
  3
A1
350
44
  3
A2
350
45
  3
A3
350
46
  3
A4
350
47
  3
A5
350
48
  3
A6
350
49
  3
A7
350
4A
  3
A8
350
4B
  3
A9
350
4C
  3
B0
350
4D
  3
B1
350
4E
  3
B2
350
4F
  3
B3
350
50
  3
B4
350
51
  3
B5
350
52
  3
B6
350
53
  0
DICTIONARY
  5
64
102
{ACAD_REACTORS
330
C
102
}
330
C
100
AcDbDictionary
281
     1
  3
Standard
350
65
  0
DICTIONARY
  5
29
102
{ACAD_REACTORS
330
C
102
}
330
C
100
AcDbDictionary
281
     1
  3
2dWireframe
350
2F
  3
3D Hidden
350
D7E
  3
3dWireframe
350
D7D
  3
Basic
350
2E
  3
Brighten
350
35
  3
ColorChange
350
39
  3
Conceptual
350
32
  3
Dim
350
34
  3
EdgeColorOff
350
41
  3
Facepattern
350
38
  3
Flat
350
2A
  3
FlatWithEdges
350
2B
  3
Gouraud
350
2C
  3
GouraudWithEdges
350
2D
  3
Hidden
350
31
  3
JitterOff
350
3F
  3
Linepattern
350
37
  3
OverhangOff
350
40
  3
Realistic
350
33
  3
Shaded
350
3E
  3
Shaded with edges
350
3D
  3
Shades of Gray
350
3A
  3
Sketchy
350
3B
  3
Thicken
350
36
  3
Wireframe
350
30
  3
X-Ray
350
3C
  0
XRECORD
  5
1701
102
{ACAD_REACTORS
330
C
102
}
330
C
100
AcDbXrecord
280
     1
 90
        1
330
65
330
CA
330
20E
330
212
330
213
330
214
330
216
330
217
330
218
330
219
  0
DICTIONARY
  5
D78
102
{ACAD_REACTORS
330
C
102
}
330
C
100
AcDbDictionary
281
     1
  3
CANNOSCALE
350
D7B
  3
CMLEADERSTYLE
350
D7A
  3
CTABLESTYLE
350
D79
  3
LAYEREVAL
350
13AF
  3
LAYERNOTIFY
350
13B0
  3
LIGHTINGUNITS
350
13AE
  3
MSLTSCALE
350
13AD
  3
SOLIDHIST
350
13B1
  3
XCLIPFRAME
350
16ED
  0
DICTIONARY
  5
DE5
102
{ACAD_REACTORS
330
C
102
}
330
C
100
AcDbDictionary
281
     1
  3
AcmStdDictionary
350
DEF
  0
DICTIONARY
  5
E2E
102
{ACAD_REACTORS
330
C
102
}
330
C
100
AcDbDictionary
281
     1
  0
DICTIONARY
  5
D8B
102
{ACAD_REACTORS
330
C
102
}
330
C
100
AcDbDictionary
281
     1
  0
DICTIONARY
  5
E31
102
{ACAD_REACTORS
330
C
102
}
330
C
100
AcDbDictionary
281
     1
  0
DICTIONARY
  5
E27
102
{ACAD_REACTORS
330
E26
102
}
330
E26
100
AcDbDictionary
281
     1
  0
XRECORD
  5
16F0
102
{ACAD_REACTORS
330
16EF
102
}
330
16EF
100
AcDbXrecord
280
     1
 40
2697178.0
  1
\pxsm0.94;WIG Schweisung, Nahte sauber geschliffen und poliert\PSichtstege geschliffen mit 240 Korn und abgeklebt.\P\fTahoma|b0|i0;\H3.0000; \P\fTahoma|b0|i0;\H3.5000;WIG svarovani- svary dle potreby zabrousit.\PPohledove plochy brousit (vel. brusnyc
  1
h zrn 240)\Pa polepit paskou
  0
XRECORD
  5
1739
102
{ACAD_REACTORS
330
1738
102
}
330
1738
100
AcDbXrecord
280
     1
 40
128335.0
  1
Mořit a opláchnout\PBeizen und Pasiviert
  0
XRECORD
  5
173B
102
{ACAD_REACTORS
330
173A
102
}
330
173A
100
AcDbXrecord
280
     1
 40
118263.0
  1
Žlab bez spádu!\PRinne ohne Gefälle!
  0
XRECORD
  5
173D
102
{ACAD_REACTORS
330
173C
102
}
330
173C
100
AcDbXrecord
280
     1
 40
119399.0
  1
Žlab bez spádu!\PChannel without slope!
  0
XRECORD
  5
173F
102
{ACAD_REACTORS
330
173E
102
}
330
173E
100
AcDbXrecord
280
     1
 40
2320136.0
  1
Povrchová úprava/Oberfläche:\PTryskat pouze vnitřek žlabu, včetně pohledových ploch!\PPříruby proti tryskání chránit!\PFlansches per strahlung behütent!
  0
XRECORD
  5
1741
102
{ACAD_REACTORS
330
1740
102
}
330
1740
100
AcDbXrecord
280
     1
 40
4745921.0
  1
Vzdálenost nivelačních šroubu ca. 1500mm.\PVzdálenost kotev ca. 400mm.\PPohledové plochy brousit(vel.brusných zrn 240)\Pa polepit páskou.\P\PDistance of leveling feets ca. 1500 mm.\PDistance of fixing tangs ca. 400 mm.\PVisible surfaces to be grinded
  1
 and covered by protectiv foil.
  0
XRECORD
  5
1743
102
{ACAD_REACTORS
330
1742
102
}
330
1742
100
AcDbXrecord
280
     1
 40
2193518.0
  1
POZOR:\PSpád žlabu je menší než 1% - nebezpečí vzniku prohlubní\Pse stojatou vodou.\PAUTENTION:\PThe gradient of the bottom is minor then 1%.\PThat can be reason of slack water.
  0
XRECORD
  5
1745
102
{ACAD_REACTORS
330
1744
102
}
330
1744
100
AcDbXrecord
280
     1
 40
2672228.0
  1
POZOR:\PSpád žlabu je menší než 1% - nebezpečí vzniku prohlubní\Pse stojatou vodou.\PACHTUNG:\PDas Bodengefälle ist kleiner als 1%. Das Gefahr der\PSenkungsentstehung mit dem stehenden Wasser.
  0
XRECORD
  5
1747
102
{ACAD_REACTORS
330
1746
102
}
330
1746
100
AcDbXrecord
280
     1
 40
275286.0
  1
Kartáčováno + folie\PGeburstet mit abziehbarer Schutzfolie
  0
XRECORD
  5
1749
102
{ACAD_REACTORS
330
1748
102
}
330
1748
100
AcDbXrecord
280
     1
 40
105970.0
  1
Mořit a opláchnout\PPickled and wash
  0
XRECORD
  5
174B
102
{ACAD_REACTORS
330
174A
102
}
330
174A
100
AcDbXrecord
280
     1
 40
209162.0
  1
\fArial|b0|i0;\H2.0000;Geprüft\fTahoma|b0|i0;\H2.0000;/Checked by:
  0
XRECORD
  5
174D
102
{ACAD_REACTORS
330
174C
102
}
330
174C
100
AcDbXrecord
280
     1
 40
241667.0
  1
ACO vpust 142 sestava vod. jednodílná příruba DN100 ZU V2A
  0
XRECORD
  5
174F
102
{ACAD_REACTORS
330
174E
102
}
330
174E
100
AcDbXrecord
280
     1
 40
23258.0
  1
Není k dispozici
  0
XRECORD
  5
16F2
102
{ACAD_REACTORS
330
D47
102
}
330
D47
100
AcDbXrecord
280
     1
 70
     4
 70
     0
 70
     0
 40
1.0
  2
ČÍSLO_REVIZE
  1
Embedded Object
 10
292.3880993315334
 20
66.0
 30
0.0
 40
3.499999940395355
 41
34.661232501043
 46
0.0
 71
     1
 72
     5
  1
000
  7
Styl textu9
 73
     1
 44
1.0
  0
XRECORD
  5
16F1
102
{ACAD_REACTORS
330
D47
102
}
330
D47
100
AcDbXrecord
280
     1
102
ACAD_MATT_HEIGHT
140
3.499999940395355
  0
XRECORD
  5
16F4
102
{ACAD_REACTORS
330
D4A
102
}
330
D4A
100
AcDbXrecord
280
     1
 70
     4
 70
     0
 70
     0
 40
1.0
  2
Sheet_Size
  1
Embedded Object
 10
294.5873446304243
 20
48.33701147296152
 30
0.0
 40
2.000000029802321
 41
19.44201149373395
 46
0.0
 71
     1
 72
     5
  1
A2
  7
Styl textu40
 73
     1
 44
1.0
  0
XRECORD
  5
16F3
102
{ACAD_REACTORS
330
D4A
102
}
330
D4A
100
AcDbXrecord
280
     1
102
ACAD_MATT_HEIGHT
140
2.000000029802321
  0
XRECORD
  5
16F6
102
{ACAD_REACTORS
330
D4D
102
}
330
D4D
100
AcDbXrecord
280
     1
 70
     4
 70
     0
 70
     0
 40
1.0
  2
PART_NUMBER
  1
Embedded Object
 10
224.5172477361519
 20
66.0
 30
0.0
 40
3.499999940395355
 41
42.57494038810881
 46
0.0
 71
     1
 72
     5
  1
414747
  7
Text poznámky (ISO)
 73
     1
 44
1.0
  0
XRECORD
  5
16F5
102
{ACAD_REACTORS
330
D4D
102
}
330
D4D
100
AcDbXrecord
280
     1
102
ACAD_MATT_HEIGHT
140
3.499999940395355
  0
XRECORD
  5
16F8
102
{ACAD_REACTORS
330
D50
102
}
330
D50
100
AcDbXrecord
280
     1
 70
     4
 70
     0
 70
     0
 40
1.0
  2
PROJECT
  1
Embedded Object
 10
118.0
 20
60.0
 30
0.0
 40
3.499999940395355
 41
0.0
 46
0.0
 71
     1
 72
     5
  1

  7
Text poznámky (ISO)
 73
     1
 44
1.0
  0
XRECORD
  5
16F7
102
{ACAD_REACTORS
330
D50
102
}
330
D50
100
AcDbXrecord
280
     1
102
ACAD_MATT_HEIGHT
140
3.499999940395355
  0
XRECORD
  5
16FA
102
{ACAD_REACTORS
330
D53
102
}
330
D53
100
AcDbXrecord
280
     1
 70
     4
 70
     0
 70
     0
 40
1.0
  2
SKLADOVÉ_ČÍSLO
  1
Embedded Object
 10
118.0
 20
54.89391305489238
 30
0.0
 40
6.99999988079071
 41
153.2966041564941
 46
0.0
 71
     1
 72
     5
  1
414747
  7
Styl textu94
 73
     1
 44
1.0
  0
XRECORD
  5
16F9
102
{ACAD_REACTORS
330
D53
102
}
330
D53
100
AcDbXrecord
280
     1
102
ACAD_MATT_HEIGHT
140
6.99999988079071
  0
XRECORD
  5
16FC
102
{ACAD_REACTORS
330
D56
102
}
330
D56
100
AcDbXrecord
280
     1
 70
     4
 70
     0
 70
     0
 40
1.0
  2
MATERIAL
  1
Embedded Object
 10
117.5939056808251
 20
108.6756657996811
 30
0.0
 40
3.499999940395355
 41
0.0
 46
0.0
 71
     1
 72
     5
  1

  7
Text poznámky (ISO)
 73
     1
 44
1.0
  0
XRECORD
  5
16FB
102
{ACAD_REACTORS
330
D56
102
}
330
D56
100
AcDbXrecord
280
     1
102
ACAD_MATT_HEIGHT
140
3.499999940395355
  0
XRECORD
  5
16FE
102
{ACAD_REACTORS
330
D59
102
}
330
D59
100
AcDbXrecord
280
     1
 70
     4
 70
     0
 70
     0
 40
1.0
  2
AUTHOR
  1
Embedded Object
 10
171.2961533440284
 20
87.78242706242744
 30
0.0
 40
2.000000029802321
 41
13.919832764198
 46
0.0
 71
     1
 72
     5
  1
pmacoun
  7
Styl textu40
 73
     1
 44
1.0
  0
XRECORD
  5
16FD
102
{ACAD_REACTORS
330
D59
102
}
330
D59
100
AcDbXrecord
280
     1
102
ACAD_MATT_HEIGHT
140
2.000000029802321
  0
XRECORD
  5
1700
102
{ACAD_REACTORS
330
D5C
102
}
330
D5C
100
AcDbXrecord
280
     1
 70
     4
 70
     0
 70
     0
 40
1.0
  2
FirstViewScale
  1
Embedded Object
 10
189.1855699863978
 20
86.00038821032343
 30
0.0
 40
3.499999940395355
 41
24.15597186978378
 46
0.0
 71
     1
 72
     5
  1

  7
Text poznámky (ISO)
 73
     1
 44
1.0
  0
XRECORD
  5
16FF
102
{ACAD_REACTORS
330
D5C
102
}
330
D5C
100
AcDbXrecord
280
     1
102
ACAD_MATT_HEIGHT
140
3.499999940395355
  0
XRECORD
  5
1751
102
{ACAD_REACTORS
330
1750
102
}
330
1750
100
AcDbXrecord
280
     1
 40
7165.0
  1
KUSOVNÍK
  0
XRECORD
  5
1753
102
{ACAD_REACTORS
330
1752
102
}
330
1752
100
AcDbXrecord
280
     1
 40
6807.0
  1
MATERIÁL
  0
XRECORD
  5
1755
102
{ACAD_REACTORS
330
1754
102
}
330
1754
100
AcDbXrecord
280
     1
 40
31855.0
  1
SKLADOVÉ ČÍSL
  0
XRECORD
  5
1757
102
{ACAD_REACTORS
330
1756
102
}
330
1756
100
AcDbXrecord
280
     1
 40
58561.0
  1
ACO vpust 142 držák sifonu
  0
XRECORD
  5
1759
102
{ACAD_REACTORS
330
1758
102
}
330
1758
100
AcDbXrecord
280
     1
 40
23054.0
  1
návlek sunap-DN100
  0
XRECORD
  5
175B
102
{ACAD_REACTORS
330
175A
102
}
330
175A
100
AcDbXrecord
280
     1
 40
11376.0
  1
žlutá)
  0
XRECORD
  5
175D
102
{ACAD_REACTORS
330
175C
102
}
330
175C
100
AcDbXrecord
280
     1
 40
67743.0
  1
Šestihranná matice_mosaz M8
  0
XRECORD
  5
175F
102
{ACAD_REACTORS
330
175E
102
}
330
175E
100
AcDbXrecord
280
     1
 40
63777.0
  1
šestihranná, černá
  0
XRECORD
  5
1761
102
{ACAD_REACTORS
330
1760
102
}
330
1760
100
AcDbXrecord
280
     1
 40
15392.0
  1
Polykarbonát, 
  0
XRECORD
  5
1763
102
{ACAD_REACTORS
330
1762
102
}
330
1762
100
AcDbXrecord
280
     1
 40
13310.0
  1
kouřový
  0
XRECORD
  5
1765
102
{ACAD_REACTORS
330
1764
102
}
330
1764
100
AcDbXrecord
280
     1
 40
90508.0
  1
Effidrain kryt plastový pro balení 
  0
XRECORD
  5
1767
102
{ACAD_REACTORS
330
1766
102
}
330
1766
100
AcDbXrecord
280
     1
 40
128535.0
  1
Effidrain výplň rostová nástavba 
  0
XRECORD
  5
1769
102
{ACAD_REACTORS
330
1768
102
}
330
1768
100
AcDbXrecord
280
     1
 40
28543.0
  1
příruba DN100 V2A
  0
XRECORD
  5
1703
102
{ACAD_REACTORS
330
1702
102
}
330
1702
100
AcDbXrecord
280
     1
 70
     1
  0
XRECORD
  5
1705
102
{ACAD_REACTORS
330
1702
102
}
330
1702
100
AcDbXrecord
280
     1
340
5B
  0
XRECORD
  5
1706
102
{ACAD_REACTORS
330
1702
102
}
330
1702
100
AcDbXrecord
280
     1
340
5B
  0
XRECORD
  5
1704
102
{ACAD_REACTORS
330
1702
102
}
330
1702
100
AcDbXrecord
280
     1
340
5B
  0
LAYOUT
  5
6B
102
{ACAD_REACTORS
330
62
102
}
330
62
100
AcDbPlotSettings
  1

  2

  4

  6

 40
0.0
 41
0.0
 42
0.0
 43
0.0
 44
0.0
 45
0.0
 46
0.0
 47
0.0
 48
0.0
 49
0.0
140
0.0
141
0.0
142
1.0
143
1.0
 70
   688
 72
     0
 73
     0
 74
     5
  7

 75
    16
147
1.0
 76
     0
 77
     2
 78
   300
148
0.0
149
0.0
100
AcDbLayout
  1
Layout1
 70
     1
 71
     1
 10
0.0
 20
0.0
 11
1188.0
 21
840.0
 12
0.0
 22
0.0
 32
0.0
 14
0.0
 24
0.0
 34
0.0
 15
1188.0
 25
840.0
 35
0.0
146
0.0
 13
0.0
 23
0.0
 33
0.0
 16
1.0
 26
0.0
 36
0.0
 17
0.0
 27
1.0
 37
0.0
 76
     0
330
68
  0
LAYOUT
  5
73
102
{ACAD_REACTORS
330
62
102
}
330
62
100
AcDbPlotSettings
  1

  2

  4

  6

 40
0.0
 41
0.0
 42
0.0
 43
0.0
 44
0.0
 45
0.0
 46
0.0
 47
0.0
 48
0.0
 49
0.0
140
0.0
141
0.0
142
1.0
143
1.0
 70
   688
 72
     0
 73
     0
 74
     5
  7

 75
    16
147
1.0
 76
     0
 77
     2
 78
   300
148
0.0
149
0.0
100
AcDbLayout
  1
Layout2
 70
     1
 71
     2
 10
0.0
 20
0.0
 11
12.0
 21
9.0
 12
0.0
 22
0.0
 32
0.0
 14
0.0
 24
0.0
 34
0.0
 15
0.0
 25
0.0
 35
0.0
146
0.0
 13
0.0
 23
0.0
 33
0.0
 16
1.0
 26
0.0
 36
0.0
 17
0.0
 27
1.0
 37
0.0
 76
     0
330
70
  0
LAYOUT
  5
6F
102
{ACAD_REACTORS
330
62
102
}
330
62
100
AcDbPlotSettings
  1

  2

  4

  6

 40
0.0
 41
0.0
 42
0.0
 43
0.0
 44
0.0
 45
0.0
 46
0.0
 47
0.0
 48
0.0
 49
0.0
140
0.0
141
0.0
142
1.0
143
1.0
 70
  1712
 72
     0
 73
     0
 74
     0
  7

 75
     0
147
1.0
 76
     0
 77
     2
 78
   300
148
0.0
149
0.0
100
AcDbLayout
  1
Model
 70
     1
 71
     0
 10
0.0
 20
0.0
 11
12.0
 21
9.0
 12
0.0
 22
0.0
 32
0.0
 14
0.0
 24
0.0
 34
0.0
 15
0.0
 25
0.0
 35
0.0
146
0.0
 13
0.0
 23
0.0
 33
0.0
 16
1.0
 26
0.0
 36
0.0
 17
0.0
 27
1.0
 37
0.0
 76
     0
330
6C
331
57
  0
MATERIAL
  5
19
102
{ACAD_XDICTIONARY
360
1A
102
}
102
{ACAD_REACTORS
330
10
102
}
330
10
100
AcDbMaterial
  1
ByBlock
 72
     0
 43
0.0208333333333333
 43
0.0
 43
0.0
 43
0.0
 43
0.0
 43
0.0208333333333333
 43
0.0
 43
0.0
 43
0.0
 43
0.0
 43
1.0
 43
0.0
 43
0.0
 43
0.0
 43
0.0
 43
1.0
 77
     0
 47
0.0208333333333333
 47
0.0
 47
0.0
 47
0.0
 47
0.0
 47
0.0208333333333333
 47
0.0
 47
0.0
 47
0.0
 47
0.0
 47
1.0
 47
0.0
 47
0.0
 47
0.0
 47
0.0
 47
1.0
171
     0
 49
0.0208333333333333
 49
0.0
 49
0.0
 49
0.0
 49
0.0
 49
0.0208333333333333
 49
0.0
 49
0.0
 49
0.0
 49
0.0
 49
1.0
 49
0.0
 49
0.0
 49
0.0
 49
0.0
 49
1.0
175
     0
142
0.0208333333333333
142
0.0
142
0.0
142
0.0
142
0.0
142
0.0208333333333333
142
0.0
142
0.0
142
0.0
142
0.0
142
1.0
142
0.0
142
0.0
142
0.0
142
0.0
142
1.0
179
     0
144
0.0208333333333333
144
0.0
144
0.0
144
0.0
144
0.0
144
0.0208333333333333
144
0.0
144
0.0
144
0.0
144
0.0
144
1.0
144
0.0
144
0.0
144
0.0
144
0.0
144
1.0
147
0.0208333333333333
147
0.0
147
0.0
147
0.0
147
0.0
147
0.0208333333333333
147
0.0
147
0.0
147
0.0
147
0.0
147
1.0
147
0.0
147
0.0
147
0.0
147
0.0
147
1.0
  0
MATERIAL
  5
11
102
{ACAD_XDICTIONARY
360
12
102
}
102
{ACAD_REACTORS
330
10
102
}
330
10
100
AcDbMaterial
  1
ByLayer
 72
     0
 43
0.0208333333333333
 43
0.0
 43
0.0
 43
0.0
 43
0.0
 43
0.0208333333333333
 43
0.0
 43
0.0
 43
0.0
 43
0.0
 43
1.0
 43
0.0
 43
0.0
 43
0.0
 43
0.0
 43
1.0
 77
     0
 47
0.0208333333333333
 47
0.0
 47
0.0
 47
0.0
 47
0.0
 47
0.0208333333333333
 47
0.0
 47
0.0
 47
0.0
 47
0.0
 47
1.0
 47
0.0
 47
0.0
 47
0.0
 47
0.0
 47
1.0
171
     0
 49
0.0208333333333333
 49
0.0
 49
0.0
 49
0.0
 49
0.0
 49
0.0208333333333333
 49
0.0
 49
0.0
 49
0.0
 49
0.0
 49
1.0
 49
0.0
 49
0.0
 49
0.0
 49
0.0
 49
1.0
175
     0
142
0.0208333333333333
142
0.0
142
0.0
142
0.0
142
0.0
142
0.0208333333333333
142
0.0
142
0.0
142
0.0
142
0.0
142
1.0
142
0.0
142
0.0
142
0.0
142
0.0
142
1.0
179
     0
144
0.0208333333333333
144
0.0
144
0.0
144
0.0
144
0.0
144
0.0208333333333333
144
0.0
144
0.0
144
0.0
144
0.0
144
1.0
144
0.0
144
0.0
144
0.0
144
0.0
144
1.0
147
0.0208333333333333
147
0.0
147
0.0
147
0.0
147
0.0
147
0.0208333333333333
147
0.0
147
0.0
147
0.0
147
0.0
147
1.0
147
0.0
147
0.0
147
0.0
147
0.0
147
1.0
  0
MATERIAL
  5
21
102
{ACAD_XDICTIONARY
360
22
102
}
102
{ACAD_REACTORS
330
10
102
}
330
10
100
AcDbMaterial
  1
Global
 72
     0
 43
0.0208333333333333
 43
0.0
 43
0.0
 43
0.0
 43
0.0
 43
0.0208333333333333
 43
0.0
 43
0.0
 43
0.0
 43
0.0
 43
1.0
 43
0.0
 43
0.0
 43
0.0
 43
0.0
 43
1.0
 77
     0
 47
0.0208333333333333
 47
0.0
 47
0.0
 47
0.0
 47
0.0
 47
0.0208333333333333
 47
0.0
 47
0.0
 47
0.0
 47
0.0
 47
1.0
 47
0.0
 47
0.0
 47
0.0
 47
0.0
 47
1.0
171
     0
 49
0.0208333333333333
 49
0.0
 49
0.0
 49
0.0
 49
0.0
 49
0.0208333333333333
 49
0.0
 49
0.0
 49
0.0
 49
0.0
 49
1.0
 49
0.0
 49
0.0
 49
0.0
 49
0.0
 49
1.0
175
     0
142
0.0208333333333333
142
0.0
142
0.0
142
0.0
142
0.0
142
0.0208333333333333
142
0.0
142
0.0
142
0.0
142
0.0
142
1.0
142
0.0
142
0.0
142
0.0
142
0.0
142
1.0
179
     0
144
0.0208333333333333
144
0.0
144
0.0
144
0.0
144
0.0
144
0.0208333333333333
144
0.0
144
0.0
144
0.0
144
0.0
144
1.0
144
0.0
144
0.0
144
0.0
144
0.0
144
1.0
147
0.0208333333333333
147
0.0
147
0.0
147
0.0
147
0.0
147
0.0208333333333333
147
0.0
147
0.0
147
0.0
147
0.0
147
1.0
147
0.0
147
0.0
147
0.0
147
0.0
147
1.0
  0
MLEADERSTYLE
  5
67
102
{ACAD_XDICTIONARY
360
D43
102
}
102
{ACAD_REACTORS
330
66
102
}
330
66
100
AcDbMLeaderStyle
170
     2
171
     1
172
     0
 90
        2
 40
0.0
 41
0.0
173
     1
 91
-1056964608
340
5B
 92
       -2
290
     1
 42
0.09
291
     1
 43
0.36
  3
Standard
 44
0.18
300

342
55
174
     1
178
     6
175
     1
176
     0
 93
-1056964608
 45
0.18
292
     0
297
     0
 46
0.18
 94
-1056964608
 47
1.0
 49
1.0
140
1.0
293
     1
141
0.0
294
     1
177
     0
142
1.0
295
     0
296
     0
143
0.125
1001
ACAD_MLEADERVER
1070
     2
  0
MLINESTYLE
  5
60
102
{ACAD_REACTORS
330
5F
102
}
330
5F
100
AcDbMlineStyle
  2
STANDARD
 70
     0
  3

 62
   256
 51
90.0
 52
90.0
 71
     2
 49
0.5
 62
   256
  6
BYLAYER
 49
-0.5
 62
   256
  6
BYLAYER
  0
ACDBPLACEHOLDER
  5
F
102
{ACAD_REACTORS
330
E
102
}
330
E
  0
SCALE
  5
43
102
{ACAD_REACTORS
330
42
102
}
330
42
100
AcDbScale
 70
     0
300
1:1
140
1.0
141
1.0
290
     1
  0
SCALE
  5
44
102
{ACAD_REACTORS
330
42
102
}
330
42
100
AcDbScale
 70
     0
300
1/128" = 1'-0"
140
0.0078125
141
12.0
290
     0
  0
SCALE
  5
45
102
{ACAD_REACTORS
330
42
102
}
330
42
100
AcDbScale
 70
     0
300
1/64" = 1'-0"
140
0.015625
141
12.0
290
     0
  0
SCALE
  5
46
102
{ACAD_REACTORS
330
42
102
}
330
42
100
AcDbScale
 70
     0
300
1/32" = 1'-0"
140
0.03125
141
12.0
290
     0
  0
SCALE
  5
47
102
{ACAD_REACTORS
330
42
102
}
330
42
100
AcDbScale
 70
     0
300
1/16" = 1'-0"
140
0.0625
141
12.0
290
     0
  0
SCALE
  5
48
102
{ACAD_REACTORS
330
42
102
}
330
42
100
AcDbScale
 70
     0
300
3/32" = 1'-0"
140
0.09375
141
12.0
290
     0
  0
SCALE
  5
49
102
{ACAD_REACTORS
330
42
102
}
330
42
100
AcDbScale
 70
     0
300
1/8" = 1'-0"
140
0.125
141
12.0
290
     0
  0
SCALE
  5
4A
102
{ACAD_REACTORS
330
42
102
}
330
42
100
AcDbScale
 70
     0
300
3/16" = 1'-0"
140
0.1875
141
12.0
290
     0
  0
SCALE
  5
4B
102
{ACAD_REACTORS
330
42
102
}
330
42
100
AcDbScale
 70
     0
300
1/4" = 1'-0"
140
0.25
141
12.0
290
     0
  0
SCALE
  5
4C
102
{ACAD_REACTORS
330
42
102
}
330
42
100
AcDbScale
 70
     0
300
3/8" = 1'-0"
140
0.375
141
12.0
290
     0
  0
SCALE
  5
4D
102
{ACAD_REACTORS
330
42
102
}
330
42
100
AcDbScale
 70
     0
300
1/2" = 1'-0"
140
0.5
141
12.0
290
     0
  0
SCALE
  5
4E
102
{ACAD_REACTORS
330
42
102
}
330
42
100
AcDbScale
 70
     0
300
3/4" = 1'-0"
140
0.75
141
12.0
290
     0
  0
SCALE
  5
4F
102
{ACAD_REACTORS
330
42
102
}
330
42
100
AcDbScale
 70
     0
300
1" = 1'-0"
140
1.0
141
12.0
290
     0
  0
SCALE
  5
50
102
{ACAD_REACTORS
330
42
102
}
330
42
100
AcDbScale
 70
     0
300
1-1/2" = 1'-0"
140
1.5
141
12.0
290
     0
  0
SCALE
  5
51
102
{ACAD_REACTORS
330
42
102
}
330
42
100
AcDbScale
 70
     0
300
3" = 1'-0"
140
3.0
141
12.0
290
     0
  0
SCALE
  5
52
102
{ACAD_REACTORS
330
42
102
}
330
42
100
AcDbScale
 70
     0
300
6" = 1'-0"
140
6.0
141
12.0
290
     0
  0
SCALE
  5
53
102
{ACAD_REACTORS
330
42
102
}
330
42
100
AcDbScale
 70
     0
300
1'-0" = 1'-0"
140
12.0
141
12.0
290
     0
  0
TABLESTYLE
  5
65
102
{ACAD_XDICTIONARY
360
13B3
102
}
102
{ACAD_REACTORS
330
64
102
}
330
64
100
AcDbTableStyle
  3
Standard
 70
     0
 71
     0
 40
0.06
 41
0.06
280
     0
281
     0
  7
Standard
140
0.18
170
     2
 62
     0
 63
     7
283
     0
274
    -2
284
     1
 64
     0
275
    -2
285
     1
 65
     0
276
    -2
286
     1
 66
     0
277
    -2
287
     1
 67
     0
278
    -2
288
     1
 68
     0
279
    -2
289
     1
 69
     0
  7
Standard
140
0.25
170
     5
 62
     0
 63
     7
283
     0
274
    -2
284
     1
 64
     0
275
    -2
285
     1
 65
     0
276
    -2
286
     1
 66
     0
277
    -2
287
     1
 67
     0
278
    -2
288
     1
 68
     0
279
    -2
289
     1
 69
     0
  7
Standard
140
0.18
170
     5
 62
     0
 63
     7
283
     0
274
    -2
284
     1
 64
     0
275
    -2
285
     1
 65
     0
276
    -2
286
     1
 66
     0
277
    -2
287
     1
 67
     0
278
    -2
288
     1
 68
     0
279
    -2
289
     1
 69
     0
  0
VISUALSTYLE
  5
2F
102
{ACAD_XDICTIONARY
360
1711
102
}
102
{ACAD_REACTORS
330
29
102
}
330
29
100
AcDbVisualStyle
  2

 70
     4
 71
     0
 72
     2
 73
     0
 90
        0
 40
-0.6
 41
-30.0
 62
     5
 63
     7
421
 16777215
 74
     1
 91
        4
 64
     7
 65
   257
 75
     1
175
     1
 42
1.0
 92
        0
 66
   257
 43
1.0
 76
     1
 77
     6
 78
     2
 67
     7
 79
     5
170
     0
171
     0
290
     0
174
     0
 93
        1
 44
0.0
173
     0
291
     0
 45
0.0
1001
ACAD
1000
AcDbSavedByObjectVersion
1070
     0
  0
VISUALSTYLE
  5
D7E
102
{ACAD_XDICTIONARY
360
176C
102
}
102
{ACAD_REACTORS
330
29
102
}
330
29
100
AcDbVisualStyle
  2

 70
     6
 71
     1
 72
     2
 73
     2
 90
        0
 40
-0.6
 41
-30.0
 62
     5
 63
     7
421
 16777215
 74
     2
 91
        2
 64
     7
 65
   257
 75
     2
175
     1
 42
179.0
 92
        0
 66
   257
 43
1.0
 76
     1
 77
     6
 78
     2
 67
     7
 79
     3
170
     0
171
     0
290
     0
174
     0
 93
        1
 44
0.0
173
     0
291
     0
 45
0.0
1001
ACAD
1000
AcDbSavedByObjectVersion
1070
     0
  0
VISUALSTYLE
  5
D7D
102
{ACAD_XDICTIONARY
360
176A
102
}
102
{ACAD_REACTORS
330
29
102
}
330
29
100
AcDbVisualStyle
  2

 70
     5
 71
     0
 72
     2
 73
     0
 90
        0
 40
-0.6
 41
-30.0
 62
     5
 63
     7
421
 16777215
 74
     1
 91
        4
 64
     7
 65
   257
 75
     1
175
     1
 42
1.0
 92
        0
 66
   257
 43
1.0
 76
     1
 77
     6
 78
     2
 67
     7
 79
     5
170
     0
171
     0
290
     0
174
     0
 93
        1
 44
0.0
173
     0
291
     0
 45
0.0
1001
ACAD
1000
AcDbSavedByObjectVersion
1070
     0
  0
VISUALSTYLE
  5
2E
102
{ACAD_XDICTIONARY
360
170F
102
}
102
{ACAD_REACTORS
330
29
102
}
330
29
100
AcDbVisualStyle
  2

 70
     7
 71
     1
 72
     0
 73
     1
 90
        0
 40
-0.6
 41
-30.0
 62
     5
 63
     7
421
 16777215
 74
     0
 91
        4
 64
     7
 65
   257
 75
     1
175
     1
 42
1.0
 92
        8
 66
     7
 43
1.0
 76
     1
 77
     6
 78
     2
 67
     7
 79
     5
170
     0
171
     0
290
     0
174
     0
 93
        1
 44
0.0
173
     0
291
     1
 45
0.0
1001
ACAD
1000
AcDbSavedByObjectVersion
1070
     0
  0
VISUALSTYLE
  5
35
102
{ACAD_XDICTIONARY
360
171D
102
}
102
{ACAD_REACTORS
330
29
102
}
330
29
100
AcDbVisualStyle
  2

 70
    12
 71
     2
 72
     2
 73
     0
 90
        0
 40
-0.6
 41
-30.0
 62
     5
 63
     7
421
 16777215
 74
     1
 91
        4
 64
     7
 65
   257
 75
     1
175
     1
 42
1.0
 92
        8
 66
     7
 43
1.0
 76
     1
 77
     6
 78
     2
 67
     7
 79
     5
170
     0
171
     0
290
     0
174
     0
 93
        1
 44
50.0
173
     0
291
     1
 45
0.0
1001
ACAD
1000
AcDbSavedByObjectVersion
1070
     0
  0
VISUALSTYLE
  5
39
102
{ACAD_XDICTIONARY
360
1725
102
}
102
{ACAD_REACTORS
330
29
102
}
330
29
100
AcDbVisualStyle
  2

 70
    16
 71
     2
 72
     2
 73
     3
 90
        0
 40
-0.6
 41
-30.0
 62
     5
 63
     8
421
  8421504
 74
     1
 91
        4
 64
     7
 65
   257
 75
     1
175
     1
 42
1.0
 92
        8
 66
     8
424
  8421504
 43
1.0
 76
     1
 77
     6
 78
     2
 67
     7
 79
     5
170
     0
171
     0
290
     0
174
     0
 93
        1
 44
0.0
173
     0
291
     1
 45
0.0
1001
ACAD
1000
AcDbSavedByObjectVersion
1070
     0
  0
VISUALSTYLE
  5
32
102
{ACAD_XDICTIONARY
360
1717
102
}
102
{ACAD_REACTORS
330
29
102
}
330
29
100
AcDbVisualStyle
  2

 70
     9
 71
     3
 72
     2
 73
     0
 90
        0
 40
-0.6
 41
-30.0
 62
     5
 63
     7
421
 16777215
 74
     2
 91
        2
 64
     7
 65
   257
 75
     1
175
     1
 42
179.0
 92
        8
 66
     7
 43
1.0
 76
     1
 77
     6
 78
     2
 67
     7
 79
     3
170
     0
171
     0
290
     0
174
     0
 93
        1
 44
0.0
173
     0
291
     0
 45
0.0
1001
ACAD
1000
AcDbSavedByObjectVersion
1070
     0
  0
VISUALSTYLE
  5
34
102
{ACAD_XDICTIONARY
360
171B
102
}
102
{ACAD_REACTORS
330
29
102
}
330
29
100
AcDbVisualStyle
  2

 70
    11
 71
     2
 72
     2
 73
     0
 90
        0
 40
-0.6
 41
-30.0
 62
     5
 63
     7
421
 16777215
 74
     1
 91
        4
 64
     7
 65
   257
 75
     1
175
     1
 42
1.0
 92
        8
 66
     7
 43
1.0
 76
     1
 77
     6
 78
     2
 67
     7
 79
     5
170
     0
171
     0
290
     0
174
     0
 93
        1
 44
-50.0
173
     0
291
     1
 45
0.0
1001
ACAD
1000
AcDbSavedByObjectVersion
1070
     0
  0
VISUALSTYLE
  5
41
102
{ACAD_XDICTIONARY
360
1735
102
}
102
{ACAD_REACTORS
330
29
102
}
330
29
100
AcDbVisualStyle
  2

 70
    22
 71
     2
 72
     2
 73
     0
 90
        0
 40
-0.6
 41
-30.0
 62
     5
 63
     7
421
 16777215
 74
     1
 91
        4
 64
     7
 65
   257
 75
     1
175
     1
 42
1.0
 92
        8
 66
     7
 43
1.0
 76
     1
 77
     6
 78
     2
 67
     7
 79
     5
170
     0
171
     0
290
     0
174
     0
 93
        1
 44
0.0
173
     0
291
     1
 45
0.0
1001
ACAD
1000
AcDbSavedByObjectVersion
1070
     0
  0
VISUALSTYLE
  5
38
102
{ACAD_XDICTIONARY
360
1723
102
}
102
{ACAD_REACTORS
330
29
102
}
330
29
100
AcDbVisualStyle
  2

 70
    15
 71
     2
 72
     2
 73
     0
 90
        0
 40
-0.6
 41
-30.0
 62
     5
 63
     7
421
 16777215
 74
     1
 91
        4
 64
     7
 65
   257
 75
     1
175
     1
 42
1.0
 92
        8
 66
     7
 43
1.0
 76
     1
 77
     6
 78
     2
 67
     7
 79
     5
170
     0
171
     0
290
     0
174
     0
 93
        1
 44
0.0
173
     0
291
     1
 45
0.0
1001
ACAD
1000
AcDbSavedByObjectVersion
1070
     0
  0
VISUALSTYLE
  5
2A
102
{ACAD_XDICTIONARY
360
1707
102
}
102
{ACAD_REACTORS
330
29
102
}
330
29
100
AcDbVisualStyle
  2

 70
     0
 71
     2
 72
     1
 73
     1
 90
        2
 40
-0.6
 41
30.0
 62
     5
 63
     7
421
 16777215
 74
     0
 91
        0
 64
     7
 65
   257
 75
     1
175
     1
 42
1.0
 92
        8
 66
     7
 43
1.0
 76
     1
 77
     6
 78
     2
 67
     7
 79
     5
170
     0
171
     0
290
     0
174
     0
 93
       13
 44
0.0
173
     0
291
     1
 45
0.0
1001
ACAD
1000
AcDbSavedByObjectVersion
1070
     0
  0
VISUALSTYLE
  5
2B
102
{ACAD_XDICTIONARY
360
1709
102
}
102
{ACAD_REACTORS
330
29
102
}
330
29
100
AcDbVisualStyle
  2

 70
     1
 71
     2
 72
     1
 73
     1
 90
        2
 40
-0.6
 41
30.0
 62
     5
 63
     7
421
 16777215
 74
     1
 91
        0
 64
     7
 65
   257
 75
     1
175
     1
 42
1.0
 92
        0
 66
   257
 43
1.0
 76
     1
 77
     6
 78
     2
 67
     7
 79
     5
170
     0
171
     0
290
     0
174
     0
 93
       13
 44
0.0
173
     0
291
     1
 45
0.0
1001
ACAD
1000
AcDbSavedByObjectVersion
1070
     0
  0
VISUALSTYLE
  5
2C
102
{ACAD_XDICTIONARY
360
170B
102
}
102
{ACAD_REACTORS
330
29
102
}
330
29
100
AcDbVisualStyle
  2

 70
     2
 71
     2
 72
     2
 73
     1
 90
        2
 40
-0.6
 41
30.0
 62
     5
 63
     7
421
 16777215
 74
     0
 91
        0
 64
     7
 65
   257
 75
     1
175
     1
 42
1.0
 92
        0
 66
     7
 43
1.0
 76
     1
 77
     6
 78
     2
 67
     7
 79
     5
170
     0
171
     0
290
     0
174
     0
 93
       13
 44
0.0
173
     0
291
     1
 45
0.0
1001
ACAD
1000
AcDbSavedByObjectVersion
1070
     0
  0
VISUALSTYLE
  5
2D
102
{ACAD_XDICTIONARY
360
170D
102
}
102
{ACAD_REACTORS
330
29
102
}
330
29
100
AcDbVisualStyle
  2

 70
     3
 71
     2
 72
     2
 73
     1
 90
        2
 40
-0.6
 41
30.0
 62
     5
 63
     7
421
 16777215
 74
     1
 91
        0
 64
     7
 65
   257
 75
     1
175
     1
 42
1.0
 92
        0
 66
   257
 43
1.0
 76
     1
 77
     6
 78
     2
 67
     7
 79
     5
170
     0
171
     0
290
     0
174
     0
 93
       13
 44
0.0
173
     0
291
     1
 45
0.0
1001
ACAD
1000
AcDbSavedByObjectVersion
1070
     0
  0
VISUALSTYLE
  5
31
102
{ACAD_XDICTIONARY
360
1715
102
}
102
{ACAD_REACTORS
330
29
102
}
330
29
100
AcDbVisualStyle
  2

 70
     6
 71
     1
 72
     2
 73
     2
 90
        0
 40
-0.6
 41
-30.0
 62
     5
 63
     7
421
 16777215
 74
     2
 91
        2
 64
     7
 65
   257
 75
     2
175
     1
 42
40.0
 92
        0
 66
   257
 43
1.0
 76
     1
 77
     6
 78
     2
 67
     7
 79
     3
170
     0
171
     0
290
     0
174
     0
 93
        1
 44
0.0
173
     0
291
     0
 45
0.0
1001
ACAD
1000
AcDbSavedByObjectVersion
1070
     0
  0
VISUALSTYLE
  5
3F
102
{ACAD_XDICTIONARY
360
1731
102
}
102
{ACAD_REACTORS
330
29
102
}
330
29
100
AcDbVisualStyle
  2

 70
    20
 71
     2
 72
     2
 73
     0
 90
        0
 40
-0.6
 41
-30.0
 62
     5
 63
     7
421
 16777215
 74
     1
 91
        4
 64
     7
 65
   257
 75
     1
175
     1
 42
1.0
 92
       10
 66
     7
 43
1.0
 76
     1
 77
     6
 78
     2
 67
     7
 79
     5
170
     0
171
     0
290
     0
174
     0
 93
        1
 44
0.0
173
     0
291
     1
 45
0.0
1001
ACAD
1000
AcDbSavedByObjectVersion
1070
     0
  0
VISUALSTYLE
  5
37
102
{ACAD_XDICTIONARY
360
1721
102
}
102
{ACAD_REACTORS
330
29
102
}
330
29
100
AcDbVisualStyle
  2

 70
    14
 71
     2
 72
     2
 73
     0
 90
        0
 40
-0.6
 41
-30.0
 62
     5
 63
     7
421
 16777215
 74
     1
 91
        4
 64
     7
 65
   257
 75
     7
175
     7
 42
1.0
 92
        8
 66
     7
 43
1.0
 76
     1
 77
     6
 78
     2
 67
     7
 79
     5
170
     0
171
     0
290
     0
174
     0
 93
        1
 44
0.0
173
     0
291
     1
 45
0.0
1001
ACAD
1000
AcDbSavedByObjectVersion
1070
     0
  0
VISUALSTYLE
  5
40
102
{ACAD_XDICTIONARY
360
1733
102
}
102
{ACAD_REACTORS
330
29
102
}
330
29
100
AcDbVisualStyle
  2

 70
    21
 71
     2
 72
     2
 73
     0
 90
        0
 40
-0.6
 41
-30.0
 62
     5
 63
     7
421
 16777215
 74
     1
 91
        4
 64
     7
 65
   257
 75
     1
175
     1
 42
1.0
 92
        9
 66
     7
 43
1.0
 76
     1
 77
     6
 78
     2
 67
     7
 79
     5
170
     0
171
     0
290
     0
174
     0
 93
        1
 44
0.0
173
     0
291
     1
 45
0.0
1001
ACAD
1000
AcDbSavedByObjectVersion
1070
     0
  0
VISUALSTYLE
  5
33
102
{ACAD_XDICTIONARY
360
1719
102
}
102
{ACAD_REACTORS
330
29
102
}
330
29
100
AcDbVisualStyle
  2

 70
     8
 71
     2
 72
     3
 73
     0
 90
        2
 40
-0.6
 41
30.0
 62
     5
 63
     7
421
 16777215
 74
     0
 91
        0
 64
     7
 65
   257
 75
     1
175
     1
 42
1.0
 92
        8
 66
   257
 43
1.0
 76
     1
 77
     6
 78
     2
 67
     7
 79
     3
170
     0
171
     0
290
     0
174
     0
 93
       13
 44
0.0
173
     0
291
     0
 45
0.0
1001
ACAD
1000
AcDbSavedByObjectVersion
1070
     0
  0
VISUALSTYLE
  5
3E
102
{ACAD_XDICTIONARY
360
172F
102
}
102
{ACAD_REACTORS
330
29
102
}
330
29
100
AcDbVisualStyle
  2

 70
    27
 71
     2
 72
     2
 73
     1
 90
        2
 40
-0.6
 41
30.0
 62
     5
 63
     7
421
 16777215
 74
     0
 91
        4
 64
     7
 65
   257
 75
     1
175
     1
 42
1.0
 92
        8
 66
   257
 43
1.0
 76
     1
 77
     6
 78
     2
 67
     8
425
  7895160
 79
     3
170
     0
171
     0
290
     0
174
     0
 93
        5
 44
0.0
173
     0
291
     0
 45
0.0
1001
ACAD
1000
AcDbSavedByObjectVersion
1070
     0
  0
VISUALSTYLE
  5
3D
102
{ACAD_XDICTIONARY
360
172D
102
}
102
{ACAD_REACTORS
330
29
102
}
330
29
100
AcDbVisualStyle
  2

 70
    26
 71
     2
 72
     2
 73
     1
 90
        2
 40
-0.6
 41
30.0
 62
     5
 63
     7
421
 16777215
 74
     1
 91
       10
 64
     7
 65
   257
 75
     2
175
     1
 42
1.0
 92
        8
 66
   257
 43
1.0
 76
     1
 77
     6
 78
     2
 67
     7
 79
     3
170
     0
171
     0
290
     0
174
     0
 93
        5
 44
0.0
173
     0
291
     0
 45
0.0
1001
ACAD
1000
AcDbSavedByObjectVersion
1070
     0
  0
VISUALSTYLE
  5
3A
102
{ACAD_XDICTIONARY
360
1727
102
}
102
{ACAD_REACTORS
330
29
102
}
330
29
100
AcDbVisualStyle
  2

 70
    23
 71
     2
 72
     2
 73
     3
 90
        0
 40
-0.6
 41
-30.0
 62
     5
 63
     7
421
 16777215
 74
     2
 91
        2
 64
     7
 65
     7
 75
     1
175
     1
 42
40.0
 92
        8
 66
     7
 43
1.0
 76
     1
 77
     6
 78
     2
 67
     7
 79
     3
170
     0
171
     0
290
     0
174
     0
 93
        1
 44
0.0
173
     0
291
     0
 45
0.0
1001
ACAD
1000
AcDbSavedByObjectVersion
1070
     0
  0
VISUALSTYLE
  5
3B
102
{ACAD_XDICTIONARY
360
1729
102
}
102
{ACAD_REACTORS
330
29
102
}
330
29
100
AcDbVisualStyle
  2

 70
    24
 71
     1
 72
     2
 73
     2
 90
        0
 40
-0.6
 41
-30.0
 62
     5
 63
     7
421
 16777215
 74
     2
 91
        2
 64
     7
 65
     7
 75
     1
175
     1
 42
40.0
 92
       11
 66
     7
 43
1.0
 76
     1
 77
     6
 78
     2
 67
     7
 79
     6
170
     0
171
     0
290
     0
174
     0
 93
        1
 44
0.0
173
     0
291
     0
 45
0.0
1001
ACAD
1000
AcDbSavedByObjectVersion
1070
     0
  0
VISUALSTYLE
  5
36
102
{ACAD_XDICTIONARY
360
171F
102
}
102
{ACAD_REACTORS
330
29
102
}
330
29
100
AcDbVisualStyle
  2

 70
    13
 71
     2
 72
     2
 73
     0
 90
        0
 40
-0.6
 41
-30.0
 62
     5
 63
     7
421
 16777215
 74
     1
 91
        4
 64
     7
 65
   257
 75
     1
175
     1
 42
1.0
 92
       12
 66
     7
 43
1.0
 76
     1
 77
     6
 78
     2
 67
     7
 79
     5
170
     0
171
     0
290
     0
174
     0
 93
        1
 44
0.0
173
     0
291
     1
 45
0.0
1001
ACAD
1000
AcDbSavedByObjectVersion
1070
     0
  0
VISUALSTYLE
  5
30
102
{ACAD_XDICTIONARY
360
1713
102
}
102
{ACAD_REACTORS
330
29
102
}
330
29
100
AcDbVisualStyle
  2

 70
     5
 71
     0
 72
     2
 73
     0
 90
        0
 40
-0.6
 41
-30.0
 62
     5
 63
     7
421
 16777215
 74
     1
 91
        4
 64
     7
 65
   257
 75
     1
175
     1
 42
1.0
 92
        0
 66
   257
 43
1.0
 76
     1
 77
     6
 78
     2
 67
     7
 79
     3
170
     0
171
     0
290
     0
174
     0
 93
        1
 44
0.0
173
     0
291
     0
 45
0.0
1001
ACAD
1000
AcDbSavedByObjectVersion
1070
     0
  0
VISUALSTYLE
  5
3C
102
{ACAD_XDICTIONARY
360
172B
102
}
102
{ACAD_REACTORS
330
29
102
}
330
29
100
AcDbVisualStyle
  2

 70
    25
 71
     2
 72
     2
 73
     1
 90
        1
 40
0.5
 41
-30.0
 62
     5
 63
     7
421
 16777215
 74
     1
 91
        0
 64
     7
 65
   257
 75
     1
175
     1
 42
1.0
 92
        8
 66
     7
 43
1.0
 76
     1
 77
     6
 78
     2
 67
     7
 79
     3
170
     0
171
     0
290
     0
174
     0
 93
       13
 44
0.0
173
     0
291
     0
 45
0.0
1001
ACAD
1000
AcDbSavedByObjectVersion
1070
     0
  0
DICTIONARYVAR
  5
D7B
102
{ACAD_REACTORS
330
D78
102
}
330
D78
100
DictionaryVariables
280
     0
  1
1:1
  0
DICTIONARYVAR
  5
D7A
102
{ACAD_REACTORS
330
D78
102
}
330
D78
100
DictionaryVariables
280
     0
  1
STANDARD
  0
DICTIONARYVAR
  5
D79
102
{ACAD_REACTORS
330
D78
102
}
330
D78
100
DictionaryVariables
280
     0
  1
STANDARD
  0
DICTIONARYVAR
  5
13AF
102
{ACAD_REACTORS
330
D78
102
}
330
D78
100
DictionaryVariables
280
     0
  1
0
  0
DICTIONARYVAR
  5
13B0
102
{ACAD_REACTORS
330
D78
102
}
330
D78
100
DictionaryVariables
280
     0
  1
0
  0
DICTIONARYVAR
  5
13AE
102
{ACAD_REACTORS
330
D78
102
}
330
D78
100
DictionaryVariables
280
     0
  1
2
  0
DICTIONARYVAR
  5
13AD
102
{ACAD_REACTORS
330
D78
102
}
330
D78
100
DictionaryVariables
280
     0
  1
1
  0
DICTIONARYVAR
  5
13B1
102
{ACAD_REACTORS
330
D78
102
}
330
D78
100
DictionaryVariables
280
     0
  1
0
  0
DICTIONARYVAR
  5
16ED
102
{ACAD_REACTORS
330
D78
102
}
330
D78
100
DictionaryVariables
280
     0
  1
2
  0
DICTIONARY
  5
DEF
102
{ACAD_REACTORS
330
DE5
102
}
330
DE5
100
AcDbDictionary
281
     1
  0
DICTIONARY
  5
1A
330
19
100
AcDbDictionary
280
     1
281
     1
  3
ACAD_XREC_ROUNDTRIP
360
13C9
  3
BUMPTILE
360
1C
  3
DIFFUSETILE
360
1B
  3
OPACITYTILE
360
1F
  3
REFLECTIONTILE
360
1E
  3
REFRACTIONTILE
360
20
  3
SPECULARTILE
360
1D
  0
DICTIONARY
  5
12
330
11
100
AcDbDictionary
280
     1
281
     1
  3
ACAD_XREC_ROUNDTRIP
360
13C8
  3
BUMPTILE
360
14
  3
DIFFUSETILE
360
13
  3
FBXASSET
360
9D
  3
OPACITYTILE
360
17
  3
REFLECTIONTILE
360
16
  3
REFRACTIONTILE
360
18
  3
SPECULARTILE
360
15
  0
DICTIONARY
  5
22
330
21
100
AcDbDictionary
280
     1
281
     1
  3
ACAD_XREC_ROUNDTRIP
360
13CA
  3
BUMPTILE
360
24
  3
DIFFUSETILE
360
23
  3
OPACITYTILE
360
27
  3
REFLECTIONTILE
360
26
  3
REFRACTIONTILE
360
28
  3
SPECULARTILE
360
25
  0
DICTIONARY
  5
D43
330
67
100
AcDbDictionary
280
     1
281
     1
  3
ACAD_XREC_ROUNDTRIP
360
D44
  0
DICTIONARY
  5
13B3
330
65
100
AcDbDictionary
280
     1
281
     1
  3
ACAD_ROUNDTRIP_2008_TABLESTYLE_CELLSTYLEMAP
360
16EE
  3
ACAD_XREC_ROUNDTRIP
360
1737
  0
DICTIONARY
  5
1711
330
2F
100
AcDbDictionary
280
     1
281
     1
  3
ACAD_XREC_ROUNDTRIP
360
1712
  0
DICTIONARY
  5
176C
330
D7E
100
AcDbDictionary
280
     1
281
     1
  3
ACAD_XREC_ROUNDTRIP
360
176D
  0
DICTIONARY
  5
176A
330
D7D
100
AcDbDictionary
280
     1
281
     1
  3
ACAD_XREC_ROUNDTRIP
360
176B
  0
DICTIONARY
  5
170F
330
2E
100
AcDbDictionary
280
     1
281
     1
  3
ACAD_XREC_ROUNDTRIP
360
1710
  0
DICTIONARY
  5
171D
330
35
100
AcDbDictionary
280
     1
281
     1
  3
ACAD_XREC_ROUNDTRIP
360
171E
  0
DICTIONARY
  5
1725
330
39
100
AcDbDictionary
280
     1
281
     1
  3
ACAD_XREC_ROUNDTRIP
360
1726
  0
DICTIONARY
  5
1717
330
32
100
AcDbDictionary
280
     1
281
     1
  3
ACAD_XREC_ROUNDTRIP
360
1718
  0
DICTIONARY
  5
171B
330
34
100
AcDbDictionary
280
     1
281
     1
  3
ACAD_XREC_ROUNDTRIP
360
171C
  0
DICTIONARY
  5
1735
330
41
100
AcDbDictionary
280
     1
281
     1
  3
ACAD_XREC_ROUNDTRIP
360
1736
  0
DICTIONARY
  5
1723
330
38
100
AcDbDictionary
280
     1
281
     1
  3
ACAD_XREC_ROUNDTRIP
360
1724
  0
DICTIONARY
  5
1707
330
2A
100
AcDbDictionary
280
     1
281
     1
  3
ACAD_XREC_ROUNDTRIP
360
1708
  0
DICTIONARY
  5
1709
330
2B
100
AcDbDictionary
280
     1
281
     1
  3
ACAD_XREC_ROUNDTRIP
360
170A
  0
DICTIONARY
  5
170B
330
2C
100
AcDbDictionary
280
     1
281
     1
  3
ACAD_XREC_ROUNDTRIP
360
170C
  0
DICTIONARY
  5
170D
330
2D
100
AcDbDictionary
280
     1
281
     1
  3
ACAD_XREC_ROUNDTRIP
360
170E
  0
DICTIONARY
  5
1715
330
31
100
AcDbDictionary
280
     1
281
     1
  3
ACAD_XREC_ROUNDTRIP
360
1716
  0
DICTIONARY
  5
1731
330
3F
100
AcDbDictionary
280
     1
281
     1
  3
ACAD_XREC_ROUNDTRIP
360
1732
  0
DICTIONARY
  5
1721
330
37
100
AcDbDictionary
280
     1
281
     1
  3
ACAD_XREC_ROUNDTRIP
360
1722
  0
DICTIONARY
  5
1733
330
40
100
AcDbDictionary
280
     1
281
     1
  3
ACAD_XREC_ROUNDTRIP
360
1734
  0
DICTIONARY
  5
1719
330
33
100
AcDbDictionary
280
     1
281
     1
  3
ACAD_XREC_ROUNDTRIP
360
171A
  0
DICTIONARY
  5
172F
330
3E
100
AcDbDictionary
280
     1
281
     1
  3
ACAD_XREC_ROUNDTRIP
360
1730
  0
DICTIONARY
  5
172D
330
3D
100
AcDbDictionary
280
     1
281
     1
  3
ACAD_XREC_ROUNDTRIP
360
172E
  0
DICTIONARY
  5
1727
330
3A
100
AcDbDictionary
280
     1
281
     1
  3
ACAD_XREC_ROUNDTRIP
360
1728
  0
DICTIONARY
  5
1729
330
3B
100
AcDbDictionary
280
     1
281
     1
  3
ACAD_XREC_ROUNDTRIP
360
172A
  0
DICTIONARY
  5
171F
330
36
100
AcDbDictionary
280
     1
281
     1
  3
ACAD_XREC_ROUNDTRIP
360
1720
  0
DICTIONARY
  5
1713
330
30
100
AcDbDictionary
280
     1
281
     1
  3
ACAD_XREC_ROUNDTRIP
360
1714
  0
DICTIONARY
  5
172B
330
3C
100
AcDbDictionary
280
     1
281
     1
  3
ACAD_XREC_ROUNDTRIP
360
172C
  0
XRECORD
  5
13C9
102
{ACAD_REACTORS
330
1A
102
}
330
1A
100
AcDbXrecord
280
     1
102
MATERIAL
148
0.0
149
0.0
149
0.0
 93
        0
 94
      127
282
     0
 72
     0
 77
     0
171
     0
175
     0
179
     0
273
     0
  0
XRECORD
  5
1C
102
{ACAD_REACTORS
330
1A
102
}
330
1A
100
AcDbXrecord
280
     1
270
     1
271
     1
  0
XRECORD
  5
1B
102
{ACAD_REACTORS
330
1A
102
}
330
1A
100
AcDbXrecord
280
     1
270
     1
271
     1
  0
XRECORD
  5
1F
102
{ACAD_REACTORS
330
1A
102
}
330
1A
100
AcDbXrecord
280
     1
270
     1
271
     1
  0
XRECORD
  5
1E
102
{ACAD_REACTORS
330
1A
102
}
330
1A
100
AcDbXrecord
280
     1
270
     1
271
     1
  0
XRECORD
  5
20
102
{ACAD_REACTORS
330
1A
102
}
330
1A
100
AcDbXrecord
280
     1
270
     1
271
     1
  0
XRECORD
  5
1D
102
{ACAD_REACTORS
330
1A
102
}
330
1A
100
AcDbXrecord
280
     1
270
     1
271
     1
  0
XRECORD
  5
13C8
102
{ACAD_REACTORS
330
12
102
}
330
12
100
AcDbXrecord
280
     1
102
MATERIAL
148
0.0
149
0.0
149
0.0
 93
        0
 94
      127
282
     0
 72
     0
 77
     0
171
     0
175
     0
179
     0
273
     0
  0
XRECORD
  5
14
102
{ACAD_REACTORS
330
12
102
}
330
12
100
AcDbXrecord
280
     1
270
     1
271
     1
  0
XRECORD
  5
13
102
{ACAD_REACTORS
330
12
102
}
330
12
100
AcDbXrecord
280
     1
270
     1
271
     1
  0
XRECORD
  5
9D
102
{ACAD_REACTORS
330
12
102
}
330
12
100
AcDbXrecord
280
     1
 70
     1
 90
1959938040
 71
     1
  1
39A314FF-7809-404F-A5E6-F70A1AABE34F
311
504B03040A00000800003751DA403DEE336E79000000790000001B0000006175746F6465736B2D64657369676E2D7061636B6167652E786D6C3C3F786D6C2076657273696F6E3D22312E302220656E636F64696E673D227574662D3822203F3E3C666F726D6174733E3C666F726D61743E687474703A2F2F736368656D612E
311
6175746F6465736B2E636F6D2F64657369676E2D7061636B6167652F323030393C2F666F726D61743E3C2F666F726D6174733E504B03041400060808003751DA40D486FD9CA0000000F4000000130000005B436F6E74656E745F54797065735D2E786D6C7D8EC10E82300C865F65E91D8A1E8C310C0EEA1BF002731658846E
311
D98AC1B77784ABF1D8FE5FBFBF75BBCE937A534CCEB38643598122B6FEE978D0B0485F9C41B54DDD7D022595594E1A469170414C76A4D9A4D207E29CF43ECE46F218070CC6BECC4078ACAA135ACF422C856C0E68EA1BF5669944DDD7BCDE7B1F8E415D77AECB980613C2E4AC91FC167A2B244592486606FC29C8FD7F045B9A
311
EF7053A7E60B504B03041400060808003751DA40B4218BB3E90000007C01000008000000636F72652E786D6C8D90416EC3201045AF82D856D803491CDBC244B17B845E0001715062B00C443D7E71E248EDAEAB19FDF96F66F4F9E97BBAA3875982F5AEC3B4008C8C535E5B377638C50BA9313A09BE781F7FD9307272321D5E
311
652CF8B8F8346F92F22E1A17B3EABC369B284330112375CF4D8783BA9A491632C5EC08B76296EA264753D07797E194AC46AF2356E77DF662CD8205FB6CFAA6390C643802237BA8819CABBE2774600D1C765041CD78B9C282473BBDEFABC5C86874E68132021561D51785169A767FFC00DA02F072B5FF81D2ACFF0925EBE28E
311
6DEFBEB08005CD8F3C0782976B16B93C83CA75CD4DFC00504B03041400060808003751DA4055019EA25F0000007C00000007000000636E782E786D6C4DCB3B0E80201045D1AD90E915ED2CF8AC45050C11660C8261F98AB1B07AC9C97D42D718D865D3E909258CFD00CCE24AC6E326A164D74DC0B4128928FF326038472BA1
311
3128B1252AC747C6BAB984FC68F0B87FE8960A5C09FE86CFB69FBA01504B03041400060808003751DA40192D9E7765010000020300000C0000006662782F636F72652E786D6C8D52ED8E8230107C95A67F2FD05215C5949AD37B847B815A2A4784969496F8F8B77C18CE8B3186A434333BBBB303FC706B6AD46BD755D6E438
311
892946DA285B54A6CC71F0976887D1417067ADFF538691918DCEF10063C14B67433B43CA1AAF8D07D4D842CFA0EC3AED3152355C72DCA91FDDC858060F15DD356EA5BACA52C7490C34D409DE790706D0346438B1B89C6F9C4CB8E02154C5CC56054CAB2E957658B0AFEC98659B5374DA5216ADE98E469FE9F118252796D1CD
311
8AA674C73819C482FBAAB9BB534E4BAF0BD0D38445348D58FA9DD03DCDF6EBED074DF6947232943F88425BBC290A95F12B36DB9D641D16091819897FDB42441E75B2073F4470328408AF31E1C7A0211008D9CB737DDFE30A50AF95B76E0D4C61C342F5B20E1AA652343E9C4C2C741E1BC0664FFBB0177D5EF7800F284D09D6
311
A487EB39F8613A9FA6CE51B4DA45BDBF21635D23EBC5DC64713997414FE5CAD6D6BDA326F3AA640E930C7FAFF805504B03041400060808003751DA404887310E7E0000009D0000000B0000006662782F636E782E786D6C4DCCD10E82201886E15B61FF396941181BE0C8E83E5CA263223482D6E5A7CD838EBEEDD9B757B49F
311
C5A3B74D2F178384E3A10664C3230E2E4C124A1EF10550AB448A31FFDD00857EB112360625A614CB73A7C18E7DF17955EFC2BC23EF68670863F86C9A3BA69A5D31BFE9061B5A13CDD9C97042A152A2FA95D6DDC2EA0B504B03041400060808003751DA4042D235CC2D01000015020000310000006662782F39433443453336
311
362D354537462D344136422D394441372D4534303341393632453933342F636F72652E786D6C8D515B6EC32010BC0AE2AB55651BFC2025C24469EA9EA0177080A42831583CAA1CBF503B52FB971F16CDCECC8E76D9EE365DC1B7725E5BD3435C22089411566A73EE610CA7E215821D67CEDAF08706811927D5C30C43CECECE
311
C6798584354199905063A55AC1D17B152010D7F4E9A1175F6A1ACB3186C4F097721EC5653CAB1297A99D789CF9E05200B00CC92FE4F4D01E868690A21B361F45BB276F057DDF6F8AA145CD9E927AA04DCBAA45C8598C5AAE722D531C7DD2CA3D6A92C59C053DDDE30BA7C6A024E435C275814851934F8CB6886EDBCD0BC25B
311
845895E9FF4471960F8AA236A1A9D7B88BCC438E59B5343893361EAFF730EA365B17409EF7E49578861C9508751DA92925AC5AB86903C994B4ABA90FD6A50D3F5D8E898EBBC599B49C55F948A9FC5E30D57C50FE03504B03041400060808003751DA40677CB9F24E01000033030000300000006662782F3943344345333636
311
2D354537462D344136422D394441372D4534303341393632453933342F636E782E786D6CD593CD6EC32010845F0571ADFC975A6E1B6122F5D027E8A1570C9B840683C54FD5BC7D9784A4B9E4D0632FC89A1D66569F30DB7CCF867C810FDAD99176754B0958E994B6BB91A6B8AD9E29D970E69D8B37364AAC9861A459A69CED
311
BC4B4B91146C45321155A3EDA1881E824B5E424039DF24C6496130006C9550847902A54091AB11BFB6E0711514A723897B206FAF1FC44D9F2063604D4EE1ACC91D9CE5B334DD982891468430D220F7308B5AA4E8148443AD441475575FBAEEECF49B44F2854B65F29AE4F291E693F2B2518D1C598343CE42F448AF98E27101
311
CAC5B2182D4544C8CDC978F67096B48D435FBC1AC17B7477C363DF63D869C659D4331487F4202228CA576DB7AADAA15A0DEF5DBB6E5FD6FDD343DBADDB9635D9CED9E49C29973006BC5B887436828D9477ACC9E37BF88A8F28ED91B5F3C73F804400A5F54CE79AF19FF934A7F78DB83CFE05FC07504B030414000608080037
311
51DA40881B3BC39D0500007B100000340000006662782F39433443453336362D354537462D344136422D394441372D4534303341393632453933342F6F626A656374732E786D6CAD575D739B3814FD2B0CFB0C18DB69931D42C7B1E38EA79BB6534F3BFB90198F0C8268233E461289D35FBF472030B876E2DDE90B20215DDD
311
7BEEB91F0A3EEC326E3D512159915FDBBE3BB22D9A4745CCF2F4DAAE54E25CDAD687301045A17ACB6C2B2719BDB6F5B41D06A928AAD24CC53421155707B3CB9BBF2D19D19CDA56C48994D7B68C1E68465C52A922A6F2D18D89226E9AEC5CDF6D160EC5A682940F07424B2268AEA029E67348B11AA5FCE170647B61E0E9FF61
311
A09F66D5E4F42AAFB667783ECBA52279F4CB61076226FE74713BBEB8722EA6D389337D37F69D9BE5CDC2F1DF4F46F377F3F9D5ECF60A074B2520C968226862871F818D6051E035BFC2A062B99A8CCD12E3204FD027A63D658763CB0FBC664D679D31F298FA5191E734AAB1021AB57D46744C4B9AC7F039A3129AF5101A0D87
311
BEC6B1F77BA2C7E6C8FEF47908F477F404B5BAB7EFBEA6C5F61F9820CF6190905433B0C1D218DA7075B447785B14DCFC63D2CA88A282116E71B61544BCD82196EA25613010A3992C7434680BEC105E687E0FE982307A9BE7C7B44C2ACE358DEDB08E820D62852A596BC67E52B1D7BE8F0C7482AF341B2E8D41EAA5A47678D5
311
50E4F2804D0D9056C2490A97C34CBD73323E3074AEE374B5B0C34FCBED6EAD63F7F8E1A5284A2A94A60FA8D53AAE7D6B948C4EFE599ED31BEC0355F6A07C03F29F11EA7B55E037C176D3DDD49CA204C96552880CBEB1469633C26364F9F5537FF7BE02AFDB3CF4DE293CE16C0DD56FC0736843DF973D38C3E009842FC4C498
311
B68E0847DAB8633900D224B1788129E4E164BBB3C315B21CB23276111EFA3019EA3EE133F08C18248AFAA4DE3B07960769F18C040DD86A46428D86FC46C1BD9F7E4967F5C166D929782F7E0B5D678BF5A775251212D13B13D30B9AB09C2994B83D6FFA0A0D301F58F4485F9E0B11C3D05FF15EF7F1CECC5112686BCC35F069
311
9BD3F5607FF2E08008FBD242A79BE08D1360842EAC3DF9774C46947392D3A26ACF7DB57EA06C3410EB60D74CEE0ACCBEB08034CD9F831844918E042B35885DB5EA92A67BC2BAEFABCF60A41DDEBCFC455EFAD96BBBCFBD51C10BB1D9BE6C9AB47414EA1F436E1B0C3C2D0574AF83A48D7F03FA266649524924C123B8FE58CD
311
FBBED3690129A295DA44CB14F623B88830A46DE5A25A0B824A5AE41B86BA89B83B7A405F3E20350CA8059ED258529E6C18E755B649184735DA64A43C01C7FFD77F5B65E586644595AB13B207AAA33A0C751FB0573E13153DD8E1BA7E3B37C8BD318D4F9041D79223580D5C3BB99AA1855A2E9DF797A32B673A9A2E9DD9C5ED
311
3B67F97E34F367B39BDBC974D9FAA9D1240CDA52D38F687809A52DA80433EEFBBE42FC982460877744C9FB8F4D78B6EFEF2B17BD70E0610FEA65B771163FA1EFA3F1DB02F62B8F0A5A6525A719CD15D13174A73FF837823E63A04C33BFCA484ACF90F2E5E3FAC018CC9CB1EFAB8E77FA7CB0D7CCCE75401E15A21EAA6C9B13
311
C60F36A60D926E99A706BFD627DDBB2934ED508F8C63D099CA82B3187930B6525A6454211B9E5184444625A8D7EFE96373F73863F753D3212AB2E5B4D5E481A049E61261016A55911ACE5B7FA0A9D37DD5B58D72EB3EE26132856D8133D7369A74C5222ADD2D0AB46E856AE1E052BF9347E34FF294A3D76E3675E36E97C666
311
5092BB25E7F44FC6AE26851B0390464AF40D6888E09D5A9930A87533FFA3FF6478AB8E45143EB795EA6CD94F74C6D4C720441BA3CC6D014DCCA3397A87407DDD2CDFADD70C10418A78FB96F52A091AA98E2222AD6F0A5A3FA3D26CF1D5438762ADBE5825AF52F8F27C498EA02073A5031C2C022B8CCC92285075FEE7FD5751
311
E0269B594B060ADCCF8B2C2B723398999BB0B57EC0BD36BE475AA0FA4222EFC7237F7C5F5F04CCDD64B32592BA24968F98804F05EB201E381E8C6C6E8BA840CD8F6E9DA79D70C0CDD5C232256D0AA18628FDACAA6141CB91530BD1A32F933A56FA0BCA57EF025EBD142A0874F1E1BF504B03041400060800003751DA400000
311
00000000000000000000350000006662782F39433443453336362D354537462D344136422D394441372D4534303341393632453933342F76657274696365732E62696E504B03041400060808003751DA40F270F1330600000004000000360000006662782F39433443453336362D354537462D344136422D394441372D4534
311
303341393632453933342F747269616E676C65732E62696E636660600000504B03041400060800003751DA40000000000000000000000000370000006662782F39433443453336362D354537462D344136422D394441372D4534303341393632453933342F617474726962757465732E62696E504B03041400060808003751
311
DA40D5987DFC8F00000041010000360000006662782F39433443453336362D354537462D344136422D394441372D4534303341393632453933342F6469726563746F72792E786D6C858F410EC2201045AF4266AF15DDB800BA74E7C21B903225242D6328188F2FA5C4183471359997F9FF81E89FF3C41E1816475E02DF1F80
311
A11FC8386F25A438EECEC07A250251FC3803E6F58C12560C4AD840E95E91C151A72936F496F35732D860FE635F62C8F2DA16B505C545B74125BAA2FA9E05D7CC053D063734D5C7665FD55B6B8D15D5E9BFEAFD8490FFA45E504B03041400060808003751DA40A78AA52BFB000000A00100003B0000006662782F3943344345
311
3336362D354537462D344136422D394441372D4534303341393632453933342F7265736F75726365732F636F72652E786D6C8D504B6E833010BD0AF2B6328C9D8400328E4A7A845EC032136A25D8C89FAAC7AF09546A77DDCC8CDE47F3F4C4E56B7E149FE88371B627AC0452A0D56E3476EA498A37DA90E22285772EFE9291
311
C2AA197BB2C2448AC9BBB4EC907636A28D19B56EC41D54216024857EE4A327417FE0AC4A956256847BB9287D571396ACCC74D64911A2CF018AEDC93A89F4185CF21A83A836568A94CCB86BCC987F9A9B414F247F6B87B63D0DF47A064E8FD0007DAD8781B22B6FE174801A1A2EAAD52C4534F34F46ED51451CB31F18A75053
311
5EBF33E8A0ED8EE717601D80A856F91F535AC67F9A92B1F1C0F7B89B2D10C97290272145B5F695D7B3CCBCD76EE537504B010214000A00000800003751DA403DEE336E79000000790000001B00000000000000000000000000000000006175746F6465736B2D64657369676E2D7061636B6167652E786D6C504B0102140014
311
00060808003751DA40D486FD9CA0000000F40000001300000000000000000000000000B20000005B436F6E74656E745F54797065735D2E786D6C504B010214001400060808003751DA40B4218BB3E90000007C010000080000000000000000000000000083010000636F72652E786D6C504B010214001400060808003751DA
311
4055019EA25F0000007C000000070000000000000000000000000092020000636E782E786D6C504B010214001400060808003751DA40192D9E7765010000020300000C00000000000000000000000000160300006662782F636F72652E786D6C504B010214001400060808003751DA404887310E7E0000009D0000000B0000
311
0000000000000000000000A50400006662782F636E782E786D6C504B010214001400060808003751DA4042D235CC2D0100001502000031000000000000000000000000004C0500006662782F39433443453336362D354537462D344136422D394441372D4534303341393632453933342F636F72652E786D6C504B01021400
311
1400060808003751DA40677CB9F24E010000330300003000000000000000000000000000C80600006662782F39433443453336362D354537462D344136422D394441372D4534303341393632453933342F636E782E786D6C504B010214001400060808003751DA40881B3BC39D0500007B1000003400000000000000000000
311
000000640800006662782F39433443453336362D354537462D344136422D394441372D4534303341393632453933342F6F626A656374732E786D6C504B010214001400060800003751DA400000000000000000000000003500000000000000000000000000530E00006662782F39433443453336362D354537462D34413642
311
2D394441372D4534303341393632453933342F76657274696365732E62696E504B010214001400060808003751DA40F270F13306000000040000003600000000000000000000000000A60E00006662782F39433443453336362D354537462D344136422D394441372D4534303341393632453933342F747269616E676C6573
311
2E62696E504B010214001400060800003751DA400000000000000000000000003700000000000000000000000000000F00006662782F39433443453336362D354537462D344136422D394441372D4534303341393632453933342F617474726962757465732E62696E504B010214001400060808003751DA40D5987DFC8F00
311
0000410100003600000000000000000000000000550F00006662782F39433443453336362D354537462D344136422D394441372D4534303341393632453933342F6469726563746F72792E786D6C504B010214001400060808003751DA40A78AA52BFB000000A00100003B0000000000000000000000000038100000666278
311
2F39433443453336362D354537462D344136422D394441372D4534303341393632453933342F7265736F75726365732F636F72652E786D6C504B0506000000000E000E00800400008C1100000000
310
504B03040A00000800003751DA403DEE336E79000000790000001B0000006175746F6465736B2D64657369676E2D7061636B6167652E786D6C3C3F786D6C2076657273696F6E3D22312E302220656E636F64696E673D227574662D3822203F3E3C666F726D6174733E3C666F726D61743E687474703A2F2F736368656D612E
310
6175746F6465736B2E636F6D2F64657369676E2D7061636B6167652F323030393C2F666F726D61743E3C2F666F726D6174733E504B03041400060808003751DA40D486FD9CA0000000F4000000130000005B436F6E74656E745F54797065735D2E786D6C7D8EC10E82300C865F65E91D8A1E8C310C0EEA1BF002731658846E
310
D98AC1B77784ABF1D8FE5FBFBF75BBCE937A534CCEB38643598122B6FEE978D0B0485F9C41B54DDD7D022595594E1A469170414C76A4D9A4D207E29CF43ECE46F218070CC6BECC4078ACAA135ACF422C856C0E68EA1BF5669944DDD7BCDE7B1F8E415D77AECB980613C2E4AC91FC167A2B244592486606FC29C8FD7F045B9A
310
EF7053A7E60B504B03041400060808003751DA401498426FEB0000007C01000008000000636F72652E786D6C8D90416EC3201045AF82665B6183496CC7C2444E949EA01740405C94182C03558F5F9C3852BBEB6A467FFE9B197D7EFC9EEEE8CB2CC17AD7032D0820E394D7D68D3DA478C52DA0A3E08BF7F1970D909393E961
310
9541F071F169DE24E55D342E66D5796D36518660222075CF4D0F417D9A491632C5EC08B76296EA264753D05797E194AC46CF2356E77DF66ACD0282D56C4F0EEF0413DA5EF0AE3D9DF0C02E0C0F4335B0733334F5FECCCB15163CDAE9755F2D4646A34154845698D4B8AA3F28E9C8A1DB356F847684F072B5FF81D2ACFF0925
310
EB22ABB6779F580041F3238F81E0E59A452E8FA0725D73133F504B03041400060808003751DA4055019EA25F0000007C00000007000000636E782E786D6C4DCB3B0E80201045D1AD90E915ED2CF8AC45050C11660C8261F98AB1B07AC9C97D42D718D865D3E909258CFD00CCE24AC6E326A164D74DC0B4128928FF32603847
310
2BA13128B1252AC747C6BAB984FC68F0B87FE8960A5C09FE86CFB69FBA01504B03041400060808003751DA40E384667068010000020300000C0000006662782F636F72652E786D6C8D52ED8E8320107C15C2DF0B82DADA8F208D6D7A4F702F40957AA60A06C1F4F16FFD68BC5E9AE662826466677776941FEE4D8D7A65BBCA
310
E8148701C348E9DC14952E53ECDD956C313A086E8D71BFCA30D2B251291E602C78698D6F672837DA29ED00D5A6503328BB4E398CF21A2E29EEF26FD5C8407A0715DD2D68657E93A50AC20068A813BC73160CA069C8706271BDDC399D70C1BDAF8A99AD0A98565D2B65B1889378CD769F8CB0707B26ABEDF148B2F81C932C8B
310
B2F8B4C936C9FAC4E92016DC55CDC35D6E9574AAC0226261445842A2E42B647BB6DBAF361F2CDC33C6E950FE24F26DF14F91AFB48BA3D9EE24EBB008C1C848FCD9162272A8933DF8A182D32144788D093F070D8140C84E5EEAC71E37807A953B6357C014C62F542F6BAF602A43E3C3E9C442E7B1016CF6B24FF4A6CFFB1EF0
310
01A52EC19A7470BD78374CE7D3D4398A5659D2BB3BD2C636B25ECC4D16977319F4529E9BDAD8FFA8E9BC2A9DC3A4C3DF2B7E00504B03041400060808003751DA406BFE19427E0000009D0000000B0000006662782F636E782E786D6C4DCCD10E82201886E15B61FF394959291BE024F43E5CA263217F23685D7EDA3CE8E8DB
310
9E7D7B45F3593C79DBF87218241C0F0C880D771C5D9825E434D11A48A344444C7F37206158AC848D418939627EEE34DA69C83EADEA5D78ECC8DA8A9B929D2837E64ACFBCD394EB5ED3B6E65DC56EFA52F61A0A258A5F69DD2DACBE504B03041400060808003751DA40908F4B092D01000015020000310000006662782F3041
310
3739443330322D394444362D343945422D394246422D4138394537304342353346422F636F72652E786D6C8D515B6EC32010BC0AE22B55850DB66BC711268A9BE404BD8003244189C1E251E5F885DA91DABFFCB06876667660E9F631DEC1B7B44E19DD41926108A4E646287DE960F067B48660CBA835C6FFA141A087517630
310
C190D18B35615A206EB497DA47541B211770704E7A08F83D5E3AE8F8558E4336041F19EE964D03BF0D1799912CB6238F51E76D0C00E621E9840CEF9A765FE202B5FB7D8DAAF6D0A3B63FF668B76E0F0DFEEC3FCA634FF359C868084A2C7225621C7556D2BE6A92C48C7A353EE3732B072F0564052605C2352AEA2F8237B8DD
310
54CD3B261B8C699EE8FF4461122F8A82D2BE2C96B8B3CC4146683E371815269CEECF30F23119EB419AB77292BFC5576518D74DD390A2A2F9CC8D3F104DEB6A3175DED8F8C3ABDB29D2CBC5B9AE18CDD39262F9DD60AC69A1EC07504B03041400060808003751DA4001DB76E55501000033030000300000006662782F304137
310
39443330322D394444362D343945422D394246422D4138394537304342353346422F636E782E786D6CBD93CD6EC32010845F0571ADFC1BCB4D234CA41EFA043DF48A61D3D060B00057CDDB7749489A4B0E95AA5E90353BCCAC3E61B6FD9A0CF9041FB4B3036DCA9A12B0D2296DDF07BAC45DB1A664CB99772EDED828B16282
310
81269972F6EEDD326749C14E2C26A26AB43D64D143708B9710504E37897152180C005B2C28C2348252A0C8D5885F3BF0B80A8AE391C43D9097E737E2C60F9031B02AA57056A50ECED2999B6E4C944823421868907B98442996E8148443A9441465535EBAEEECF49344D2854BE5E23549E5034D27E579A31239B20A879C85E8
310
915E36C5E30C948B79365A8A8890AB93F1ECE16CD136F65DF66A04EFD1BD6AFBF51AC34E33CEA29E203BA407114151DED64D5BD47DD1F6AF4DBDA99F36DDE343DD6CEA9A55C9CED9E89CC9973006BC9B897436828D9437AC4AE37BF8B28F28ED91B5F3C75F804400B9F54CE79AF1977C9A7ED575FFC8A73ABD6FC4E5F12FE0
310
DF504B03041400060808003751DA402EAF49385C070000941B0000340000006662782F30413739443330322D394444362D343945422D394246422D4138394537304342353346422F6F626A656374732E786D6CED595B739B3814FE2B0CFB6C6C62274D76081DE7E28CA79BB6536F3BFB9019460699682304238924DE5FBF47
310
17301093E06DF6AD0F3620A4A373BE73D521F8F89C51E71173417276EEFADEC475308BF384B0F4DC2DE56674EA3A1FC380E7B96C4C731D86327CEEAA61370C529E97851D4AF0069554764617177F3922C60CBB4E4C9110E7AE88EF71863C54CA3CC1E2C14B90445EBA79F67CCF4C6C934D392AEE3B440BC43193C0298C33A0
310
E218A6FCF6E3C41D87C158BD0F03F56F674D07CD9AF5CF1A6BA9DB5C12262462F10B963A64A683589AFAB3ABEBA3E3B3D1F16C361DCD4E8EFCD1C5E2E26AE47F984E2E4F2E2FCFE6D767C0DE3ACFA99529C1056609E86FEB867E30566F6AD12D02FBB88E73C670AC8104A8B4585D82040BD8AA01DFA4FDE82B891AAFB5848D
310
E7997A6F59680C4FDB54FA660D03A2451704B1DB551257D7A67CF9FA6F105C0C314A2EB0046E85E4A05D0B0F07AF70C3493036A361B0DEE982082743127382A843C99A230E4A81A96A4A189805968C720E0EA41C2581D69C79DDB62DF0CCB75D671F979B9252E5196EA81D2B02F7C35268CEC83F98EFB86F22033C81B42561
310
F2D47229B70576C3B360AC07C3405DA647F6A501D2D950940A8D8879DB11F452B9FEF2CA0D3F2DD6CF2B150EF66F5EF0BCC05C2AA3537AD47C8121DBAB42C96EEB0FD29C5A00C21850EDCA1D28DF00F9CF103D76AC80DE38799E3DCFEC5CC911139B9C67A01B67E28C26F037717CFDAFEE1B77C1B85EDCD65E1F9EE0A60AAA
310
D39FC7B32D83C6CAF2DF80330C1EC1E0733EB5AF5631A260CFB7840140CA481C9AC31084F6CDFAD90D97103821D0C32A44431F4406761FE136185B323BAD54EE65BD8E01A2768FE91025016CDA22818D1E3DDD40F6E024DEA9A929621FBCC7EF62AEF3ABD5A755C93728C6B7D6A7AFF0863022216BEE67A885794BA207BC7D
310
CA790282BEC47BD5C43BB35B09405B61AE804F2B10D4C36EE7D60631AC4B73156E823776002154AE6ED0BF2522C6942286F3B2DAB78E6ECA506B8FB735831B1E1988A7471D13E6F891A8AA029C6637A3C528E4FD98934281E8863746B23A687A3DD27D5F7E068BACE7F7CC5A3208BD0CD13F75D0DA8343CBB22BA42D10B5C0
310
EB5D388F739AF368BD8D4CA473A1960036DADEF2A3451462BD5192A2021EA4FDAE0A29A991364AC866530A88AB7B58FCB1BC6C9AC3C49BFAC74EF3BFE38C3388B6E0BB885BBFEBEC11910CA538DAA0A46FBBE66E356DA149F690E67843412EF248E43642329A24383D049A83889FBD2BF594E642108605E4ABBDE037D19878
310
10488C362B9695563B4013116558227A08028A4C0FB83AEDE81A3786D2E16D1E6BEB7D4D634DA2FF93457004B564CE2202A528E4903719F7BD6388216D740DCA1D7CC1DA2ADA5A0C5A4209116FA3274CD27B7908EA867C0FEE311C494A19E5058AC1AC07907DE12B4AA91DDED7287E50F9238A4BFA5E062230DD4484D2328B
310
E047189C3C86B8761D985E45A141DCC43E893328CA902CF9904D4E8E272FF631354337043636DA100A613BCA50D1837A2B20EA7AC4A9C1B7D47B94BA2EB32242595EB24186E24DBBDE64C977D5AAC80EE457958A503656842DC130204CD659B58AD960EA3AB0821BE940B58D04CA0A6A4E616F241EBFF6264DB977036EFDF4
310
7D37C8A0F0EBD15E33A2CE2A182C8FADC2403C2119DFBBE14A5F4717507F2738D9A5FAAAD66C568080988AE425275645DF9750DED81ACD0D6F9114773726EB56D7EF4B0FBA1FC118D640ED522F5C2AA033CC245295C9ADBAA1DF1084E0160D33BE5439F5102AF324D15523A20BD2A7CE5619D1DA34235E718F599EC18FDD11
310
16D332C17728110FD1ADA4D18A28D6AD945E462A8C5F15F0CBCDAA030F8C0C10E9AB2AF0F05367AD1DBD54E5D25E22F2BECCD60C1108822DD152A31BAF60A9D548A5E5FAAACE14507781815915CF7E9D2C9AED885F278BD41AC64F9D2C2EB67FA06DB32FD248E7B1B2EB838E01757E5254DEE318A0DB0E35D53A8B98646EE5
310
B7CE144150ACA2FCE06AAC0A1A86601FC7FF396BF76541B35D87FFC3B2B6FFA2E23828ABB426AB2ED59ECA75D9CC61D3B339F468178BD187D3C9D96836992D46F3E3EB93D1E2C364EECFE717D7D3D9A246533B6A18D4C14CE72E783641AD1A564F1603E8CA8A9C92044EF389936288F912CEF403DAE73CC3029267B3D99DD8
310
A6FC80D58FA6CF29D19AE28A937B040D622A20AD0346652CDBE3CE6FD09A9470D03E77A169E43DC09FB54AD781CC73EE42AB4092180B6F0D6D26D5D0D3C421E5EADC6F89013E88A52A259A45F573BD4A61D30AFFF5942169C0CAD5EA6140E15640F7ABD5A1D0BC599EE28304AFD8719084DB7529A15A33B2EC066A61F4363B
310
F51BD928610F76EB6770DDD7C5F23D3DA7850898E3DB9F0C5E3502437524114F75BF5B3166599A5F7D1D439FCD597E710A5AA6A0CBE194461C833197AAA0022B02ABB0340B24C1542F7FBFFBCA73F8C49339BA2ABABBCCB32C67F6610EE7B1043E1139AB7BF8E093DC41D980555B5DDC1D4DFCA33BDDCEB61DF6688D04F654
310
3D04035519A144E8181B58E48BD6946D5C8E95123AD397578E0D9FD0063016F4A2BB6B3E6F39E03DEA438AF215EDE1959CAF76B4C77A2A5803875E74F82F504B03041400060800003751DA40000000000000000000000000350000006662782F30413739443330322D394444362D343945422D394246422D41383945373043
310
42353346422F76657274696365732E62696E504B03041400060808003751DA40F270F1330600000004000000360000006662782F30413739443330322D394444362D343945422D394246422D4138394537304342353346422F747269616E676C65732E62696E636660600000504B03041400060800003751DA400000000000
310
00000000000000370000006662782F30413739443330322D394444362D343945422D394246422D4138394537304342353346422F617474726962757465732E62696E504B03041400060808003751DA40D5987DFC8F00000041010000360000006662782F30413739443330322D394444362D343945422D394246422D413839
310
4537304342353346422F6469726563746F72792E786D6C858F410EC2201045AF4266AF15DDB800BA74E7C21B903225242D6328188F2FA5C4183471359997F9FF81E89FF3C41E1816475E02DF1F80A11FC8386F25A438EECEC07A250251FC3803E6F58C12560C4AD840E95E91C151A72936F496F35732D860FE635F62C8F2DA
310
16B505C545B74125BAA2FA9E05D7CC053D063734D5C7665FD55B6B8D15D5E9BFEAFD8490FFA45E504B03041400060808003751DA4065AEE20FFE000000A00100003B0000006662782F30413739443330322D394444362D343945422D394246422D4138394537304342353346422F7265736F75726365732F636F72652E786D
310
6C8D504B6EC23010BD4A34DBCA891D4312906314103D412F603943B02036F2A7EAF1EB402AB5BB6E6646EFA3797AE2F035DF8B4FF4C138DB032B291468B51B8D9D7A48F1423A280E5278E7E22F191456CDD8C30283149377E9B142DAD9883666D4BA1157508580110A7DCF470F415F7156A54A312BC2AD7C287D531396ACCC
310
74D64911A2CF018AD7936582F4185CF21A83A85EAC14299971D59831FF3417831E246FF896EECEEF84B2EE4C36DDF148067EE66418EA819FDAA16DB627512D6629A2997F326A8F2AE208B2A6AC26B42175F3C1E89EEEF69BF68DB23DA5A25AE47F4CE931FED3948C8DBC5EE3BE6C0124CB419E8414D5D2575ECF32F35EBA95
310
DF504B010214000A00000800003751DA403DEE336E79000000790000001B00000000000000000000000000000000006175746F6465736B2D64657369676E2D7061636B6167652E786D6C504B010214001400060808003751DA40D486FD9CA0000000F40000001300000000000000000000000000B20000005B436F6E74656E
310
745F54797065735D2E786D6C504B010214001400060808003751DA401498426FEB0000007C010000080000000000000000000000000083010000636F72652E786D6C504B010214001400060808003751DA4055019EA25F0000007C000000070000000000000000000000000094020000636E782E786D6C504B010214001400
310
060808003751DA40E384667068010000020300000C00000000000000000000000000180300006662782F636F72652E786D6C504B010214001400060808003751DA406BFE19427E0000009D0000000B00000000000000000000000000AA0400006662782F636E782E786D6C504B010214001400060808003751DA40908F4B09
310
2D010000150200003100000000000000000000000000510500006662782F30413739443330322D394444362D343945422D394246422D4138394537304342353346422F636F72652E786D6C504B010214001400060808003751DA4001DB76E555010000330300003000000000000000000000000000CD0600006662782F3041
310
3739443330322D394444362D343945422D394246422D4138394537304342353346422F636E782E786D6C504B010214001400060808003751DA402EAF49385C070000941B00003400000000000000000000000000700800006662782F30413739443330322D394444362D343945422D394246422D4138394537304342353346
310
422F6F626A656374732E786D6C504B010214001400060800003751DA4000000000000000000000000035000000000000000000000000001E1000006662782F30413739443330322D394444362D343945422D394246422D4138394537304342353346422F76657274696365732E62696E504B010214001400060808003751DA
310
40F270F13306000000040000003600000000000000000000000000711000006662782F30413739443330322D394444362D343945422D394246422D4138394537304342353346422F747269616E676C65732E62696E504B010214001400060800003751DA400000000000000000000000003700000000000000000000000000
310
CB1000006662782F30413739443330322D394444362D343945422D394246422D4138394537304342353346422F617474726962757465732E62696E504B010214001400060808003751DA40D5987DFC8F000000410100003600000000000000000000000000201100006662782F30413739443330322D394444362D34394542
310
2D394246422D4138394537304342353346422F6469726563746F72792E786D6C504B010214001400060808003751DA4065AEE20FFE000000A00100003B00000000000000000000000000031200006662782F30413739443330322D394444362D343945422D394246422D4138394537304342353346422F7265736F75726365
310
732F636F72652E786D6C504B0506000000000E000E00800400005A1300000000
  0
XRECORD
  5
17
102
{ACAD_REACTORS
330
12
102
}
330
12
100
AcDbXrecord
280
     1
270
     1
271
     1
  0
XRECORD
  5
16
102
{ACAD_REACTORS
330
12
102
}
330
12
100
AcDbXrecord
280
     1
270
     1
271
     1
  0
XRECORD
  5
18
102
{ACAD_REACTORS
330
12
102
}
330
12
100
AcDbXrecord
280
     1
270
     1
271
     1
  0
XRECORD
  5
15
102
{ACAD_REACTORS
330
12
102
}
330
12
100
AcDbXrecord
280
     1
270
     1
271
     1
  0
XRECORD
  5
13CA
102
{ACAD_REACTORS
330
22
102
}
330
22
100
AcDbXrecord
280
     1
102
MATERIAL
148
0.0
149
0.0
149
0.0
 93
        0
 94
      127
282
     0
 72
     0
 77
     0
171
     0
175
     0
179
     0
273
     0
  0
XRECORD
  5
24
102
{ACAD_REACTORS
330
22
102
}
330
22
100
AcDbXrecord
280
     1
270
     1
271
     1
  0
XRECORD
  5
23
102
{ACAD_REACTORS
330
22
102
}
330
22
100
AcDbXrecord
280
     1
270
     1
271
     1
  0
XRECORD
  5
27
102
{ACAD_REACTORS
330
22
102
}
330
22
100
AcDbXrecord
280
     1
270
     1
271
     1
  0
XRECORD
  5
26
102
{ACAD_REACTORS
330
22
102
}
330
22
100
AcDbXrecord
280
     1
270
     1
271
     1
  0
XRECORD
  5
28
102
{ACAD_REACTORS
330
22
102
}
330
22
100
AcDbXrecord
280
     1
270
     1
271
     1
  0
XRECORD
  5
25
102
{ACAD_REACTORS
330
22
102
}
330
22
100
AcDbXrecord
280
     1
270
     1
271
     1
  0
XRECORD
  5
D44
102
{ACAD_REACTORS
330
D43
102
}
330
D43
100
AcDbXrecord
280
     1
102
ACAD_ROUNDTRIP_2012_MLEADER_STYLE
298
     1
  0
CELLSTYLEMAP
  5
16EE
102
{ACAD_REACTORS
330
13B3
102
}
330
13B3
100
AcDbCellStyleMap
 90
        3
300
CELLSTYLE
  1
TABLEFORMAT_BEGIN
 90
        5
170
     1
 91
        0
 92
    32768
 62
   257
 93
        1
300
CONTENTFORMAT
  1
CONTENTFORMAT_BEGIN
 90
        0
 91
        0
 92
      512
 93
        0
300

 40
0.0
140
1.0
 94
        5
 62
     0
340
55
144
0.25
309
CONTENTFORMAT_END
171
     1
301
MARGIN
  1
CELLMARGIN_BEGIN
 40
0.06
 40
0.06
 40
0.06
 40
0.06
 40
0.18
 40
0.18
309
CELLMARGIN_END
 94
        6
 95
        1
302
GRIDFORMAT
  1
GRIDFORMAT_BEGIN
 90
        0
 91
        1
 62
     0
 92
       -2
340
0
 93
        0
 40
0.045
309
GRIDFORMAT_END
 95
        2
302
GRIDFORMAT
  1
GRIDFORMAT_BEGIN
 90
        0
 91
        1
 62
     0
 92
       -2
340
0
 93
        0
 40
0.045
309
GRIDFORMAT_END
 95
        4
302
GRIDFORMAT
  1
GRIDFORMAT_BEGIN
 90
        0
 91
        1
 62
     0
 92
       -2
340
0
 93
        0
 40
0.045
309
GRIDFORMAT_END
 95
        8
302
GRIDFORMAT
  1
GRIDFORMAT_BEGIN
 90
        0
 91
        1
 62
     0
 92
       -2
340
0
 93
        0
 40
0.045
309
GRIDFORMAT_END
 95
       16
302
GRIDFORMAT
  1
GRIDFORMAT_BEGIN
 90
        0
 91
        1
 62
     0
 92
       -2
340
0
 93
        0
 40
0.045
309
GRIDFORMAT_END
 95
       32
302
GRIDFORMAT
  1
GRIDFORMAT_BEGIN
 90
        0
 91
        1
 62
     0
 92
       -2
340
0
 93
        0
 40
0.045
309
GRIDFORMAT_END
309
TABLEFORMAT_END
  1
CELLSTYLE_BEGIN
 90
        1
 91
        1
300
_TITLE
309
CELLSTYLE_END
300
CELLSTYLE
  1
TABLEFORMAT_BEGIN
 90
        5
170
     1
 91
        0
 92
        0
 62
   257
 93
        1
300
CONTENTFORMAT
  1
CONTENTFORMAT_BEGIN
 90
        0
 91
        0
 92
      512
 93
        0
300

 40
0.0
140
1.0
 94
        5
 62
     0
340
55
144
0.18
309
CONTENTFORMAT_END
171
     1
301
MARGIN
  1
CELLMARGIN_BEGIN
 40
0.06
 40
0.06
 40
0.06
 40
0.06
 40
0.18
 40
0.18
309
CELLMARGIN_END
 94
        6
 95
        1
302
GRIDFORMAT
  1
GRIDFORMAT_BEGIN
 90
        0
 91
        1
 62
     0
 92
       -2
340
0
 93
        0
 40
0.045
309
GRIDFORMAT_END
 95
        2
302
GRIDFORMAT
  1
GRIDFORMAT_BEGIN
 90
        0
 91
        1
 62
     0
 92
       -2
340
0
 93
        0
 40
0.045
309
GRIDFORMAT_END
 95
        4
302
GRIDFORMAT
  1
GRIDFORMAT_BEGIN
 90
        0
 91
        1
 62
     0
 92
       -2
340
0
 93
        0
 40
0.045
309
GRIDFORMAT_END
 95
        8
302
GRIDFORMAT
  1
GRIDFORMAT_BEGIN
 90
        0
 91
        1
 62
     0
 92
       -2
340
0
 93
        0
 40
0.045
309
GRIDFORMAT_END
 95
       16
302
GRIDFORMAT
  1
GRIDFORMAT_BEGIN
 90
        0
 91
        1
 62
     0
 92
       -2
340
0
 93
        0
 40
0.045
309
GRIDFORMAT_END
 95
       32
302
GRIDFORMAT
  1
GRIDFORMAT_BEGIN
 90
        0
 91
        1
 62
     0
 92
       -2
340
0
 93
        0
 40
0.045
309
GRIDFORMAT_END
309
TABLEFORMAT_END
  1
CELLSTYLE_BEGIN
 90
        2
 91
        1
300
_HEADER
309
CELLSTYLE_END
300
CELLSTYLE
  1
TABLEFORMAT_BEGIN
 90
        5
170
     1
 91
        0
 92
        0
 62
   257
 93
        1
300
CONTENTFORMAT
  1
CONTENTFORMAT_BEGIN
 90
        0
 91
        0
 92
      512
 93
        0
300

 40
0.0
140
1.0
 94
        2
 62
     0
340
55
144
0.18
309
CONTENTFORMAT_END
171
     1
301
MARGIN
  1
CELLMARGIN_BEGIN
 40
0.06
 40
0.06
 40
0.06
 40
0.06
 40
0.18
 40
0.18
309
CELLMARGIN_END
 94
        6
 95
        1
302
GRIDFORMAT
  1
GRIDFORMAT_BEGIN
 90
        0
 91
        1
 62
     0
 92
       -2
340
0
 93
        0
 40
0.045
309
GRIDFORMAT_END
 95
        2
302
GRIDFORMAT
  1
GRIDFORMAT_BEGIN
 90
        0
 91
        1
 62
     0
 92
       -2
340
0
 93
        0
 40
0.045
309
GRIDFORMAT_END
 95
        4
302
GRIDFORMAT
  1
GRIDFORMAT_BEGIN
 90
        0
 91
        1
 62
     0
 92
       -2
340
0
 93
        0
 40
0.045
309
GRIDFORMAT_END
 95
        8
302
GRIDFORMAT
  1
GRIDFORMAT_BEGIN
 90
        0
 91
        1
 62
     0
 92
       -2
340
0
 93
        0
 40
0.045
309
GRIDFORMAT_END
 95
       16
302
GRIDFORMAT
  1
GRIDFORMAT_BEGIN
 90
        0
 91
        1
 62
     0
 92
       -2
340
0
 93
        0
 40
0.045
309
GRIDFORMAT_END
 95
       32
302
GRIDFORMAT
  1
GRIDFORMAT_BEGIN
 90
        0
 91
        1
 62
     0
 92
       -2
340
0
 93
        0
 40
0.045
309
GRIDFORMAT_END
309
TABLEFORMAT_END
  1
CELLSTYLE_BEGIN
 90
        3
 91
        2
300
_DATA
309
CELLSTYLE_END
  0
XRECORD
  5
1737
102
{ACAD_REACTORS
330
13B3
102
}
330
13B3
100
AcDbXrecord
280
     1
102
ACAD_ROUNDTRIP_PRE2007_TABLESTYLE
 90
      512
 91
        0
  1

 92
      512
 93
        0
  2

 94
      512
 95
        0
  3

  0
XRECORD
  5
1712
102
{ACAD_REACTORS
330
1711
102
}
330
1711
100
AcDbXrecord
280
     1
102
RTVSPropertyOp0
 70
     1
102
RTVSPropertyOp1
 70
     1
102
RTVSPropertyOp2
 70
     1
102
RTVSPropertyOp3
 70
     1
102
RTVSPropertyOp4
 70
     1
102
RTVSPropertyOp5
 70
     1
102
RTVSPropertyOp6
 70
     1
102
RTVSPropertyOp7
 70
     1
102
RTVSPropertyOp8
 70
     1
102
RTVSPropertyOp9
 70
     1
102
RTVSPropertyOp10
 70
     1
102
RTVSPropertyOp11
 70
     1
102
RTVSPropertyOp12
 70
     1
102
RTVSPropertyOp13
 70
     1
102
RTVSPropertyOp14
 70
     1
102
RTVSPropertyOp15
 70
     1
102
RTVSPropertyOp16
 70
     1
102
RTVSPropertyOp17
 70
     1
102
RTVSPropertyOp18
 70
     1
102
RTVSPropertyOp19
 70
     1
102
RTVSPropertyOp20
 70
     1
102
RTVSPropertyOp21
 70
     1
102
RTVSPropertyOp22
 70
     1
102
RTVSPropertyOp23
 70
     1
102
RTVSPropertyOp24
 70
     1
102
RTVSPropertyOp25
 70
     1
102
RTVSPropertyOp26
 70
     1
102
RTVSPropertyOp27
 70
     1
  0
XRECORD
  5
176D
102
{ACAD_REACTORS
330
176C
102
}
330
176C
100
AcDbXrecord
280
     1
102
RTVSPropertyOp0
 70
     1
102
RTVSPropertyOp1
 70
     1
102
RTVSPropertyOp2
 70
     1
102
RTVSPropertyOp3
 70
     1
102
RTVSPropertyOp4
 70
     1
102
RTVSPropertyOp5
 70
     1
102
RTVSPropertyOp6
 70
     1
102
RTVSPropertyOp7
 70
     1
102
RTVSPropertyOp8
 70
     1
102
RTVSPropertyOp9
 70
     1
102
RTVSPropertyOp10
 70
     1
102
RTVSPropertyOp11
 70
     1
102
RTVSPropertyOp12
 70
     1
102
RTVSPropertyOp13
 70
     1
102
RTVSPropertyOp14
 70
     1
102
RTVSPropertyOp15
 70
     1
102
RTVSPropertyOp16
 70
     1
102
RTVSPropertyOp17
 70
     1
102
RTVSPropertyOp18
 70
     1
102
RTVSPropertyOp19
 70
     1
102
RTVSPropertyOp20
 70
     1
102
RTVSPropertyOp21
 70
     1
102
RTVSPropertyOp22
 70
     1
102
RTVSPropertyOp23
 70
     1
102
RTVSPropertyOp24
 70
     1
102
RTVSPropertyOp25
 70
     1
102
RTVSPropertyOp26
 70
     1
102
RTVSPropertyOp27
 70
     1
  0
XRECORD
  5
176B
102
{ACAD_REACTORS
330
176A
102
}
330
176A
100
AcDbXrecord
280
     1
102
RTVSPropertyOp0
 70
     1
102
RTVSPropertyOp1
 70
     1
102
RTVSPropertyOp2
 70
     1
102
RTVSPropertyOp3
 70
     1
102
RTVSPropertyOp4
 70
     1
102
RTVSPropertyOp5
 70
     1
102
RTVSPropertyOp6
 70
     1
102
RTVSPropertyOp7
 70
     1
102
RTVSPropertyOp8
 70
     1
102
RTVSPropertyOp9
 70
     1
102
RTVSPropertyOp10
 70
     1
102
RTVSPropertyOp11
 70
     1
102
RTVSPropertyOp12
 70
     1
102
RTVSPropertyOp13
 70
     1
102
RTVSPropertyOp14
 70
     1
102
RTVSPropertyOp15
 70
     1
102
RTVSPropertyOp16
 70
     1
102
RTVSPropertyOp17
 70
     1
102
RTVSPropertyOp18
 70
     1
102
RTVSPropertyOp19
 70
     1
102
RTVSPropertyOp20
 70
     1
102
RTVSPropertyOp21
 70
     1
102
RTVSPropertyOp22
 70
     1
102
RTVSPropertyOp23
 70
     1
102
RTVSPropertyOp24
 70
     1
102
RTVSPropertyOp25
 70
     1
102
RTVSPropertyOp26
 70
     1
102
RTVSPropertyOp27
 70
     1
  0
XRECORD
  5
1710
102
{ACAD_REACTORS
330
170F
102
}
330
170F
100
AcDbXrecord
280
     1
102
RTVSPropertyOp0
 70
     1
102
RTVSPropertyOp1
 70
     1
102
RTVSPropertyOp2
 70
     1
102
RTVSPropertyOp3
 70
     1
102
RTVSPropertyOp4
 70
     1
102
RTVSPropertyOp5
 70
     1
102
RTVSPropertyOp6
 70
     1
102
RTVSPropertyOp7
 70
     1
102
RTVSPropertyOp8
 70
     1
102
RTVSPropertyOp9
 70
     1
102
RTVSPropertyOp10
 70
     1
102
RTVSPropertyOp11
 70
     1
102
RTVSPropertyOp12
 70
     1
102
RTVSPropertyOp13
 70
     1
102
RTVSPropertyOp14
 70
     1
102
RTVSPropertyOp15
 70
     1
102
RTVSPropertyOp16
 70
     1
102
RTVSPropertyOp17
 70
     1
102
RTVSPropertyOp18
 70
     1
102
RTVSPropertyOp19
 70
     1
102
RTVSPropertyOp20
 70
     1
102
RTVSPropertyOp21
 70
     1
102
RTVSPropertyOp22
 70
     1
102
RTVSPropertyOp23
 70
     1
102
RTVSPropertyOp24
 70
     1
102
RTVSPropertyOp25
 70
     1
102
RTVSPropertyOp26
 70
     1
102
RTVSPropertyOp27
 70
     1
  0
XRECORD
  5
171E
102
{ACAD_REACTORS
330
171D
102
}
330
171D
100
AcDbXrecord
280
     1
102
RTVSPropertyOp0
 70
     1
102
RTVSPropertyOp1
 70
     1
102
RTVSPropertyOp2
 70
     1
102
RTVSPropertyOp3
 70
     1
102
RTVSPropertyOp4
 70
     1
102
RTVSPropertyOp5
 70
     1
102
RTVSPropertyOp6
 70
     1
102
RTVSPropertyOp7
 70
     1
102
RTVSPropertyOp8
 70
     1
102
RTVSPropertyOp9
 70
     1
102
RTVSPropertyOp10
 70
     1
102
RTVSPropertyOp11
 70
     1
102
RTVSPropertyOp12
 70
     1
102
RTVSPropertyOp13
 70
     1
102
RTVSPropertyOp14
 70
     1
102
RTVSPropertyOp15
 70
     1
102
RTVSPropertyOp16
 70
     1
102
RTVSPropertyOp17
 70
     1
102
RTVSPropertyOp18
 70
     1
102
RTVSPropertyOp19
 70
     1
102
RTVSPropertyOp20
 70
     1
102
RTVSPropertyOp21
 70
     1
102
RTVSPropertyOp22
 70
     1
102
RTVSPropertyOp23
 70
     1
102
RTVSPropertyOp24
 70
     1
102
RTVSPropertyOp25
 70
     1
102
RTVSPropertyOp26
 70
     1
102
RTVSPropertyOp27
 70
     1
  0
XRECORD
  5
1726
102
{ACAD_REACTORS
330
1725
102
}
330
1725
100
AcDbXrecord
280
     1
102
RTVSPropertyOp0
 70
     1
102
RTVSPropertyOp1
 70
     1
102
RTVSPropertyOp2
 70
     1
102
RTVSPropertyOp3
 70
     1
102
RTVSPropertyOp4
 70
     1
102
RTVSPropertyOp5
 70
     1
102
RTVSPropertyOp6
 70
     1
102
RTVSPropertyOp7
 70
     1
102
RTVSPropertyOp8
 70
     1
102
RTVSPropertyOp9
 70
     1
102
RTVSPropertyOp10
 70
     1
102
RTVSPropertyOp11
 70
     1
102
RTVSPropertyOp12
 70
     1
102
RTVSPropertyOp13
 70
     1
102
RTVSPropertyOp14
 70
     1
102
RTVSPropertyOp15
 70
     1
102
RTVSPropertyOp16
 70
     1
102
RTVSPropertyOp17
 70
     1
102
RTVSPropertyOp18
 70
     1
102
RTVSPropertyOp19
 70
     1
102
RTVSPropertyOp20
 70
     1
102
RTVSPropertyOp21
 70
     1
102
RTVSPropertyOp22
 70
     1
102
RTVSPropertyOp23
 70
     1
102
RTVSPropertyOp24
 70
     1
102
RTVSPropertyOp25
 70
     1
102
RTVSPropertyOp26
 70
     1
102
RTVSPropertyOp27
 70
     1
  0
XRECORD
  5
1718
102
{ACAD_REACTORS
330
1717
102
}
330
1717
100
AcDbXrecord
280
     1
102
RTVSPropertyOp0
 70
     1
102
RTVSPropertyOp1
 70
     1
102
RTVSPropertyOp2
 70
     1
102
RTVSPropertyOp3
 70
     1
102
RTVSPropertyOp4
 70
     1
102
RTVSPropertyOp5
 70
     1
102
RTVSPropertyOp6
 70
     1
102
RTVSPropertyOp7
 70
     1
102
RTVSPropertyOp8
 70
     1
102
RTVSPropertyOp9
 70
     1
102
RTVSPropertyOp10
 70
     1
102
RTVSPropertyOp11
 70
     1
102
RTVSPropertyOp12
 70
     1
102
RTVSPropertyOp13
 70
     1
102
RTVSPropertyOp14
 70
     1
102
RTVSPropertyOp15
 70
     1
102
RTVSPropertyOp16
 70
     1
102
RTVSPropertyOp17
 70
     1
102
RTVSPropertyOp18
 70
     1
102
RTVSPropertyOp19
 70
     1
102
RTVSPropertyOp20
 70
     1
102
RTVSPropertyOp21
 70
     1
102
RTVSPropertyOp22
 70
     1
102
RTVSPropertyOp23
 70
     1
102
RTVSPropertyOp24
 70
     1
102
RTVSPropertyOp25
 70
     1
102
RTVSPropertyOp26
 70
     1
102
RTVSPropertyOp27
 70
     1
  0
XRECORD
  5
171C
102
{ACAD_REACTORS
330
171B
102
}
330
171B
100
AcDbXrecord
280
     1
102
RTVSPropertyOp0
 70
     1
102
RTVSPropertyOp1
 70
     1
102
RTVSPropertyOp2
 70
     1
102
RTVSPropertyOp3
 70
     1
102
RTVSPropertyOp4
 70
     1
102
RTVSPropertyOp5
 70
     1
102
RTVSPropertyOp6
 70
     1
102
RTVSPropertyOp7
 70
     1
102
RTVSPropertyOp8
 70
     1
102
RTVSPropertyOp9
 70
     1
102
RTVSPropertyOp10
 70
     1
102
RTVSPropertyOp11
 70
     1
102
RTVSPropertyOp12
 70
     1
102
RTVSPropertyOp13
 70
     1
102
RTVSPropertyOp14
 70
     1
102
RTVSPropertyOp15
 70
     1
102
RTVSPropertyOp16
 70
     1
102
RTVSPropertyOp17
 70
     1
102
RTVSPropertyOp18
 70
     1
102
RTVSPropertyOp19
 70
     1
102
RTVSPropertyOp20
 70
     1
102
RTVSPropertyOp21
 70
     1
102
RTVSPropertyOp22
 70
     1
102
RTVSPropertyOp23
 70
     1
102
RTVSPropertyOp24
 70
     1
102
RTVSPropertyOp25
 70
     1
102
RTVSPropertyOp26
 70
     1
102
RTVSPropertyOp27
 70
     1
  0
XRECORD
  5
1736
102
{ACAD_REACTORS
330
1735
102
}
330
1735
100
AcDbXrecord
280
     1
102
RTVSPropertyOp0
 70
     0
102
RTVSPropertyOp1
 70
     0
102
RTVSPropertyOp2
 70
     0
102
RTVSPropertyOp3
 70
     0
102
RTVSPropertyOp4
 70
     0
102
RTVSPropertyOp5
 70
     0
102
RTVSPropertyOp6
 70
     0
102
RTVSPropertyOp7
 70
     0
102
RTVSPropertyOp8
 70
     0
102
RTVSPropertyOp9
 70
     0
102
RTVSPropertyOp10
 70
     0
102
RTVSPropertyOp11
 70
     0
102
RTVSPropertyOp12
 70
     0
102
RTVSPropertyOp13
 70
     0
102
RTVSPropertyOp14
 70
     2
102
RTVSPropertyOp15
 70
     0
102
RTVSPropertyOp16
 70
     0
102
RTVSPropertyOp17
 70
     0
102
RTVSPropertyOp18
 70
     0
102
RTVSPropertyOp19
 70
     0
102
RTVSPropertyOp20
 70
     0
102
RTVSPropertyOp21
 70
     0
102
RTVSPropertyOp22
 70
     0
102
RTVSPropertyOp23
 70
     0
102
RTVSPropertyOp24
 70
     0
102
RTVSPropertyOp25
 70
     0
102
RTVSPropertyOp26
 70
     0
102
RTVSPropertyOp27
 70
     0
  0
XRECORD
  5
1724
102
{ACAD_REACTORS
330
1723
102
}
330
1723
100
AcDbXrecord
280
     1
102
RTVSPropertyOp0
 70
     1
102
RTVSPropertyOp1
 70
     1
102
RTVSPropertyOp2
 70
     1
102
RTVSPropertyOp3
 70
     1
102
RTVSPropertyOp4
 70
     1
102
RTVSPropertyOp5
 70
     1
102
RTVSPropertyOp6
 70
     1
102
RTVSPropertyOp7
 70
     1
102
RTVSPropertyOp8
 70
     1
102
RTVSPropertyOp9
 70
     1
102
RTVSPropertyOp10
 70
     1
102
RTVSPropertyOp11
 70
     1
102
RTVSPropertyOp12
 70
     1
102
RTVSPropertyOp13
 70
     1
102
RTVSPropertyOp14
 70
     1
102
RTVSPropertyOp15
 70
     1
102
RTVSPropertyOp16
 70
     1
102
RTVSPropertyOp17
 70
     1
102
RTVSPropertyOp18
 70
     1
102
RTVSPropertyOp19
 70
     1
102
RTVSPropertyOp20
 70
     1
102
RTVSPropertyOp21
 70
     1
102
RTVSPropertyOp22
 70
     1
102
RTVSPropertyOp23
 70
     1
102
RTVSPropertyOp24
 70
     1
102
RTVSPropertyOp25
 70
     1
102
RTVSPropertyOp26
 70
     1
102
RTVSPropertyOp27
 70
     1
  0
XRECORD
  5
1708
102
{ACAD_REACTORS
330
1707
102
}
330
1707
100
AcDbXrecord
280
     1
102
RTVSPropertyOp0
 70
     1
102
RTVSPropertyOp1
 70
     1
102
RTVSPropertyOp2
 70
     1
102
RTVSPropertyOp3
 70
     1
102
RTVSPropertyOp4
 70
     1
102
RTVSPropertyOp5
 70
     1
102
RTVSPropertyOp6
 70
     1
102
RTVSPropertyOp7
 70
     1
102
RTVSPropertyOp8
 70
     1
102
RTVSPropertyOp9
 70
     1
102
RTVSPropertyOp10
 70
     1
102
RTVSPropertyOp11
 70
     1
102
RTVSPropertyOp12
 70
     1
102
RTVSPropertyOp13
 70
     1
102
RTVSPropertyOp14
 70
     1
102
RTVSPropertyOp15
 70
     1
102
RTVSPropertyOp16
 70
     1
102
RTVSPropertyOp17
 70
     1
102
RTVSPropertyOp18
 70
     1
102
RTVSPropertyOp19
 70
     1
102
RTVSPropertyOp20
 70
     1
102
RTVSPropertyOp21
 70
     1
102
RTVSPropertyOp22
 70
     1
102
RTVSPropertyOp23
 70
     1
102
RTVSPropertyOp24
 70
     1
102
RTVSPropertyOp25
 70
     1
102
RTVSPropertyOp26
 70
     1
102
RTVSPropertyOp27
 70
     1
  0
XRECORD
  5
170A
102
{ACAD_REACTORS
330
1709
102
}
330
1709
100
AcDbXrecord
280
     1
102
RTVSPropertyOp0
 70
     1
102
RTVSPropertyOp1
 70
     1
102
RTVSPropertyOp2
 70
     1
102
RTVSPropertyOp3
 70
     1
102
RTVSPropertyOp4
 70
     1
102
RTVSPropertyOp5
 70
     1
102
RTVSPropertyOp6
 70
     1
102
RTVSPropertyOp7
 70
     1
102
RTVSPropertyOp8
 70
     1
102
RTVSPropertyOp9
 70
     1
102
RTVSPropertyOp10
 70
     1
102
RTVSPropertyOp11
 70
     1
102
RTVSPropertyOp12
 70
     1
102
RTVSPropertyOp13
 70
     1
102
RTVSPropertyOp14
 70
     1
102
RTVSPropertyOp15
 70
     1
102
RTVSPropertyOp16
 70
     1
102
RTVSPropertyOp17
 70
     1
102
RTVSPropertyOp18
 70
     1
102
RTVSPropertyOp19
 70
     1
102
RTVSPropertyOp20
 70
     1
102
RTVSPropertyOp21
 70
     1
102
RTVSPropertyOp22
 70
     1
102
RTVSPropertyOp23
 70
     1
102
RTVSPropertyOp24
 70
     1
102
RTVSPropertyOp25
 70
     1
102
RTVSPropertyOp26
 70
     1
102
RTVSPropertyOp27
 70
     1
  0
XRECORD
  5
170C
102
{ACAD_REACTORS
330
170B
102
}
330
170B
100
AcDbXrecord
280
     1
102
RTVSPropertyOp0
 70
     1
102
RTVSPropertyOp1
 70
     1
102
RTVSPropertyOp2
 70
     1
102
RTVSPropertyOp3
 70
     1
102
RTVSPropertyOp4
 70
     1
102
RTVSPropertyOp5
 70
     1
102
RTVSPropertyOp6
 70
     1
102
RTVSPropertyOp7
 70
     1
102
RTVSPropertyOp8
 70
     1
102
RTVSPropertyOp9
 70
     1
102
RTVSPropertyOp10
 70
     1
102
RTVSPropertyOp11
 70
     1
102
RTVSPropertyOp12
 70
     1
102
RTVSPropertyOp13
 70
     1
102
RTVSPropertyOp14
 70
     1
102
RTVSPropertyOp15
 70
     1
102
RTVSPropertyOp16
 70
     1
102
RTVSPropertyOp17
 70
     1
102
RTVSPropertyOp18
 70
     1
102
RTVSPropertyOp19
 70
     1
102
RTVSPropertyOp20
 70
     1
102
RTVSPropertyOp21
 70
     1
102
RTVSPropertyOp22
 70
     1
102
RTVSPropertyOp23
 70
     1
102
RTVSPropertyOp24
 70
     1
102
RTVSPropertyOp25
 70
     1
102
RTVSPropertyOp26
 70
     1
102
RTVSPropertyOp27
 70
     1
  0
XRECORD
  5
170E
102
{ACAD_REACTORS
330
170D
102
}
330
170D
100
AcDbXrecord
280
     1
102
RTVSPropertyOp0
 70
     1
102
RTVSPropertyOp1
 70
     1
102
RTVSPropertyOp2
 70
     1
102
RTVSPropertyOp3
 70
     1
102
RTVSPropertyOp4
 70
     1
102
RTVSPropertyOp5
 70
     1
102
RTVSPropertyOp6
 70
     1
102
RTVSPropertyOp7
 70
     1
102
RTVSPropertyOp8
 70
     1
102
RTVSPropertyOp9
 70
     1
102
RTVSPropertyOp10
 70
     1
102
RTVSPropertyOp11
 70
     1
102
RTVSPropertyOp12
 70
     1
102
RTVSPropertyOp13
 70
     1
102
RTVSPropertyOp14
 70
     1
102
RTVSPropertyOp15
 70
     1
102
RTVSPropertyOp16
 70
     1
102
RTVSPropertyOp17
 70
     1
102
RTVSPropertyOp18
 70
     1
102
RTVSPropertyOp19
 70
     1
102
RTVSPropertyOp20
 70
     1
102
RTVSPropertyOp21
 70
     1
102
RTVSPropertyOp22
 70
     1
102
RTVSPropertyOp23
 70
     1
102
RTVSPropertyOp24
 70
     1
102
RTVSPropertyOp25
 70
     1
102
RTVSPropertyOp26
 70
     1
102
RTVSPropertyOp27
 70
     1
  0
XRECORD
  5
1716
102
{ACAD_REACTORS
330
1715
102
}
330
1715
100
AcDbXrecord
280
     1
102
RTVSPropertyOp0
 70
     1
102
RTVSPropertyOp1
 70
     1
102
RTVSPropertyOp2
 70
     1
102
RTVSPropertyOp3
 70
     1
102
RTVSPropertyOp4
 70
     1
102
RTVSPropertyOp5
 70
     1
102
RTVSPropertyOp6
 70
     1
102
RTVSPropertyOp7
 70
     1
102
RTVSPropertyOp8
 70
     1
102
RTVSPropertyOp9
 70
     1
102
RTVSPropertyOp10
 70
     1
102
RTVSPropertyOp11
 70
     1
102
RTVSPropertyOp12
 70
     1
102
RTVSPropertyOp13
 70
     1
102
RTVSPropertyOp14
 70
     1
102
RTVSPropertyOp15
 70
     1
102
RTVSPropertyOp16
 70
     1
102
RTVSPropertyOp17
 70
     1
102
RTVSPropertyOp18
 70
     1
102
RTVSPropertyOp19
 70
     1
102
RTVSPropertyOp20
 70
     1
102
RTVSPropertyOp21
 70
     1
102
RTVSPropertyOp22
 70
     1
102
RTVSPropertyOp23
 70
     1
102
RTVSPropertyOp24
 70
     1
102
RTVSPropertyOp25
 70
     1
102
RTVSPropertyOp26
 70
     1
102
RTVSPropertyOp27
 70
     1
  0
XRECORD
  5
1732
102
{ACAD_REACTORS
330
1731
102
}
330
1731
100
AcDbXrecord
280
     1
102
RTVSPropertyOp0
 70
     0
102
RTVSPropertyOp1
 70
     0
102
RTVSPropertyOp2
 70
     0
102
RTVSPropertyOp3
 70
     0
102
RTVSPropertyOp4
 70
     0
102
RTVSPropertyOp5
 70
     0
102
RTVSPropertyOp6
 70
     0
102
RTVSPropertyOp7
 70
     0
102
RTVSPropertyOp8
 70
     0
102
RTVSPropertyOp9
 70
     0
102
RTVSPropertyOp10
 70
     0
102
RTVSPropertyOp11
 70
     0
102
RTVSPropertyOp12
 70
     0
102
RTVSPropertyOp13
 70
     0
102
RTVSPropertyOp14
 70
     2
102
RTVSPropertyOp15
 70
     0
102
RTVSPropertyOp16
 70
     0
102
RTVSPropertyOp17
 70
     0
102
RTVSPropertyOp18
 70
     0
102
RTVSPropertyOp19
 70
     0
102
RTVSPropertyOp20
 70
     0
102
RTVSPropertyOp21
 70
     0
102
RTVSPropertyOp22
 70
     0
102
RTVSPropertyOp23
 70
     0
102
RTVSPropertyOp24
 70
     0
102
RTVSPropertyOp25
 70
     0
102
RTVSPropertyOp26
 70
     0
102
RTVSPropertyOp27
 70
     0
  0
XRECORD
  5
1722
102
{ACAD_REACTORS
330
1721
102
}
330
1721
100
AcDbXrecord
280
     1
102
RTVSPropertyOp0
 70
     1
102
RTVSPropertyOp1
 70
     1
102
RTVSPropertyOp2
 70
     1
102
RTVSPropertyOp3
 70
     1
102
RTVSPropertyOp4
 70
     1
102
RTVSPropertyOp5
 70
     1
102
RTVSPropertyOp6
 70
     1
102
RTVSPropertyOp7
 70
     1
102
RTVSPropertyOp8
 70
     1
102
RTVSPropertyOp9
 70
     1
102
RTVSPropertyOp10
 70
     1
102
RTVSPropertyOp11
 70
     1
102
RTVSPropertyOp12
 70
     1
102
RTVSPropertyOp13
 70
     1
102
RTVSPropertyOp14
 70
     1
102
RTVSPropertyOp15
 70
     1
102
RTVSPropertyOp16
 70
     1
102
RTVSPropertyOp17
 70
     1
102
RTVSPropertyOp18
 70
     1
102
RTVSPropertyOp19
 70
     1
102
RTVSPropertyOp20
 70
     1
102
RTVSPropertyOp21
 70
     1
102
RTVSPropertyOp22
 70
     1
102
RTVSPropertyOp23
 70
     1
102
RTVSPropertyOp24
 70
     1
102
RTVSPropertyOp25
 70
     1
102
RTVSPropertyOp26
 70
     1
102
RTVSPropertyOp27
 70
     1
  0
XRECORD
  5
1734
102
{ACAD_REACTORS
330
1733
102
}
330
1733
100
AcDbXrecord
280
     1
102
RTVSPropertyOp0
 70
     0
102
RTVSPropertyOp1
 70
     0
102
RTVSPropertyOp2
 70
     0
102
RTVSPropertyOp3
 70
     0
102
RTVSPropertyOp4
 70
     0
102
RTVSPropertyOp5
 70
     0
102
RTVSPropertyOp6
 70
     0
102
RTVSPropertyOp7
 70
     0
102
RTVSPropertyOp8
 70
     0
102
RTVSPropertyOp9
 70
     0
102
RTVSPropertyOp10
 70
     0
102
RTVSPropertyOp11
 70
     0
102
RTVSPropertyOp12
 70
     0
102
RTVSPropertyOp13
 70
     0
102
RTVSPropertyOp14
 70
     2
102
RTVSPropertyOp15
 70
     0
102
RTVSPropertyOp16
 70
     0
102
RTVSPropertyOp17
 70
     0
102
RTVSPropertyOp18
 70
     0
102
RTVSPropertyOp19
 70
     0
102
RTVSPropertyOp20
 70
     0
102
RTVSPropertyOp21
 70
     0
102
RTVSPropertyOp22
 70
     0
102
RTVSPropertyOp23
 70
     0
102
RTVSPropertyOp24
 70
     0
102
RTVSPropertyOp25
 70
     0
102
RTVSPropertyOp26
 70
     0
102
RTVSPropertyOp27
 70
     0
  0
XRECORD
  5
171A
102
{ACAD_REACTORS
330
1719
102
}
330
1719
100
AcDbXrecord
280
     1
102
RTVSPropertyOp0
 70
     1
102
RTVSPropertyOp1
 70
     1
102
RTVSPropertyOp2
 70
     1
102
RTVSPropertyOp3
 70
     1
102
RTVSPropertyOp4
 70
     1
102
RTVSPropertyOp5
 70
     1
102
RTVSPropertyOp6
 70
     1
102
RTVSPropertyOp7
 70
     1
102
RTVSPropertyOp8
 70
     1
102
RTVSPropertyOp9
 70
     1
102
RTVSPropertyOp10
 70
     1
102
RTVSPropertyOp11
 70
     1
102
RTVSPropertyOp12
 70
     1
102
RTVSPropertyOp13
 70
     1
102
RTVSPropertyOp14
 70
     1
102
RTVSPropertyOp15
 70
     1
102
RTVSPropertyOp16
 70
     1
102
RTVSPropertyOp17
 70
     1
102
RTVSPropertyOp18
 70
     1
102
RTVSPropertyOp19
 70
     1
102
RTVSPropertyOp20
 70
     1
102
RTVSPropertyOp21
 70
     1
102
RTVSPropertyOp22
 70
     1
102
RTVSPropertyOp23
 70
     1
102
RTVSPropertyOp24
 70
     1
102
RTVSPropertyOp25
 70
     1
102
RTVSPropertyOp26
 70
     1
102
RTVSPropertyOp27
 70
     1
  0
XRECORD
  5
1730
102
{ACAD_REACTORS
330
172F
102
}
330
172F
100
AcDbXrecord
280
     1
102
RTVSPropertyOp0
 70
     1
102
RTVSPropertyOp1
 70
     1
102
RTVSPropertyOp2
 70
     1
102
RTVSPropertyOp3
 70
     1
102
RTVSPropertyOp4
 70
     1
102
RTVSPropertyOp5
 70
     1
102
RTVSPropertyOp6
 70
     1
102
RTVSPropertyOp7
 70
     1
102
RTVSPropertyOp8
 70
     1
102
RTVSPropertyOp9
 70
     1
102
RTVSPropertyOp10
 70
     1
102
RTVSPropertyOp11
 70
     1
102
RTVSPropertyOp12
 70
     1
102
RTVSPropertyOp13
 70
     1
102
RTVSPropertyOp14
 70
     1
102
RTVSPropertyOp15
 70
     1
102
RTVSPropertyOp16
 70
     1
102
RTVSPropertyOp17
 70
     1
102
RTVSPropertyOp18
 70
     1
102
RTVSPropertyOp19
 70
     1
102
RTVSPropertyOp20
 70
     1
102
RTVSPropertyOp21
 70
     1
102
RTVSPropertyOp22
 70
     1
102
RTVSPropertyOp23
 70
     1
102
RTVSPropertyOp24
 70
     1
102
RTVSPropertyOp25
 70
     1
102
RTVSPropertyOp26
 70
     1
102
RTVSPropertyOp27
 70
     1
  0
XRECORD
  5
172E
102
{ACAD_REACTORS
330
172D
102
}
330
172D
100
AcDbXrecord
280
     1
102
RTVSPropertyOp0
 70
     1
102
RTVSPropertyOp1
 70
     1
102
RTVSPropertyOp2
 70
     1
102
RTVSPropertyOp3
 70
     1
102
RTVSPropertyOp4
 70
     1
102
RTVSPropertyOp5
 70
     1
102
RTVSPropertyOp6
 70
     1
102
RTVSPropertyOp7
 70
     1
102
RTVSPropertyOp8
 70
     1
102
RTVSPropertyOp9
 70
     1
102
RTVSPropertyOp10
 70
     1
102
RTVSPropertyOp11
 70
     1
102
RTVSPropertyOp12
 70
     1
102
RTVSPropertyOp13
 70
     1
102
RTVSPropertyOp14
 70
     1
102
RTVSPropertyOp15
 70
     1
102
RTVSPropertyOp16
 70
     1
102
RTVSPropertyOp17
 70
     1
102
RTVSPropertyOp18
 70
     1
102
RTVSPropertyOp19
 70
     1
102
RTVSPropertyOp20
 70
     1
102
RTVSPropertyOp21
 70
     1
102
RTVSPropertyOp22
 70
     1
102
RTVSPropertyOp23
 70
     1
102
RTVSPropertyOp24
 70
     1
102
RTVSPropertyOp25
 70
     1
102
RTVSPropertyOp26
 70
     1
102
RTVSPropertyOp27
 70
     1
  0
XRECORD
  5
1728
102
{ACAD_REACTORS
330
1727
102
}
330
1727
100
AcDbXrecord
280
     1
102
RTVSPropertyOp0
 70
     1
102
RTVSPropertyOp1
 70
     1
102
RTVSPropertyOp2
 70
     1
102
RTVSPropertyOp3
 70
     1
102
RTVSPropertyOp4
 70
     1
102
RTVSPropertyOp5
 70
     1
102
RTVSPropertyOp6
 70
     1
102
RTVSPropertyOp7
 70
     1
102
RTVSPropertyOp8
 70
     1
102
RTVSPropertyOp9
 70
     1
102
RTVSPropertyOp10
 70
     1
102
RTVSPropertyOp11
 70
     1
102
RTVSPropertyOp12
 70
     1
102
RTVSPropertyOp13
 70
     1
102
RTVSPropertyOp14
 70
     1
102
RTVSPropertyOp15
 70
     1
102
RTVSPropertyOp16
 70
     1
102
RTVSPropertyOp17
 70
     1
102
RTVSPropertyOp18
 70
     1
102
RTVSPropertyOp19
 70
     1
102
RTVSPropertyOp20
 70
     1
102
RTVSPropertyOp21
 70
     1
102
RTVSPropertyOp22
 70
     1
102
RTVSPropertyOp23
 70
     1
102
RTVSPropertyOp24
 70
     1
102
RTVSPropertyOp25
 70
     1
102
RTVSPropertyOp26
 70
     1
102
RTVSPropertyOp27
 70
     1
  0
XRECORD
  5
172A
102
{ACAD_REACTORS
330
1729
102
}
330
1729
100
AcDbXrecord
280
     1
102
RTVSPropertyOp0
 70
     1
102
RTVSPropertyOp1
 70
     1
102
RTVSPropertyOp2
 70
     1
102
RTVSPropertyOp3
 70
     1
102
RTVSPropertyOp4
 70
     1
102
RTVSPropertyOp5
 70
     1
102
RTVSPropertyOp6
 70
     1
102
RTVSPropertyOp7
 70
     1
102
RTVSPropertyOp8
 70
     1
102
RTVSPropertyOp9
 70
     1
102
RTVSPropertyOp10
 70
     1
102
RTVSPropertyOp11
 70
     1
102
RTVSPropertyOp12
 70
     1
102
RTVSPropertyOp13
 70
     1
102
RTVSPropertyOp14
 70
     1
102
RTVSPropertyOp15
 70
     1
102
RTVSPropertyOp16
 70
     1
102
RTVSPropertyOp17
 70
     1
102
RTVSPropertyOp18
 70
     1
102
RTVSPropertyOp19
 70
     1
102
RTVSPropertyOp20
 70
     1
102
RTVSPropertyOp21
 70
     1
102
RTVSPropertyOp22
 70
     1
102
RTVSPropertyOp23
 70
     1
102
RTVSPropertyOp24
 70
     1
102
RTVSPropertyOp25
 70
     1
102
RTVSPropertyOp26
 70
     1
102
RTVSPropertyOp27
 70
     1
  0
XRECORD
  5
1720
102
{ACAD_REACTORS
330
171F
102
}
330
171F
100
AcDbXrecord
280
     1
102
RTVSPropertyOp0
 70
     1
102
RTVSPropertyOp1
 70
     1
102
RTVSPropertyOp2
 70
     1
102
RTVSPropertyOp3
 70
     1
102
RTVSPropertyOp4
 70
     1
102
RTVSPropertyOp5
 70
     1
102
RTVSPropertyOp6
 70
     1
102
RTVSPropertyOp7
 70
     1
102
RTVSPropertyOp8
 70
     1
102
RTVSPropertyOp9
 70
     1
102
RTVSPropertyOp10
 70
     1
102
RTVSPropertyOp11
 70
     1
102
RTVSPropertyOp12
 70
     1
102
RTVSPropertyOp13
 70
     1
102
RTVSPropertyOp14
 70
     1
102
RTVSPropertyOp15
 70
     1
102
RTVSPropertyOp16
 70
     1
102
RTVSPropertyOp17
 70
     1
102
RTVSPropertyOp18
 70
     1
102
RTVSPropertyOp19
 70
     1
102
RTVSPropertyOp20
 70
     1
102
RTVSPropertyOp21
 70
     1
102
RTVSPropertyOp22
 70
     1
102
RTVSPropertyOp23
 70
     1
102
RTVSPropertyOp24
 70
     1
102
RTVSPropertyOp25
 70
     1
102
RTVSPropertyOp26
 70
     1
102
RTVSPropertyOp27
 70
     1
  0
XRECORD
  5
1714
102
{ACAD_REACTORS
330
1713
102
}
330
1713
100
AcDbXrecord
280
     1
102
RTVSPropertyOp0
 70
     1
102
RTVSPropertyOp1
 70
     1
102
RTVSPropertyOp2
 70
     1
102
RTVSPropertyOp3
 70
     1
102
RTVSPropertyOp4
 70
     1
102
RTVSPropertyOp5
 70
     1
102
RTVSPropertyOp6
 70
     1
102
RTVSPropertyOp7
 70
     1
102
RTVSPropertyOp8
 70
     1
102
RTVSPropertyOp9
 70
     1
102
RTVSPropertyOp10
 70
     1
102
RTVSPropertyOp11
 70
     1
102
RTVSPropertyOp12
 70
     1
102
RTVSPropertyOp13
 70
     1
102
RTVSPropertyOp14
 70
     1
102
RTVSPropertyOp15
 70
     1
102
RTVSPropertyOp16
 70
     1
102
RTVSPropertyOp17
 70
     1
102
RTVSPropertyOp18
 70
     1
102
RTVSPropertyOp19
 70
     1
102
RTVSPropertyOp20
 70
     1
102
RTVSPropertyOp21
 70
     1
102
RTVSPropertyOp22
 70
     1
102
RTVSPropertyOp23
 70
     1
102
RTVSPropertyOp24
 70
     1
102
RTVSPropertyOp25
 70
     1
102
RTVSPropertyOp26
 70
     1
102
RTVSPropertyOp27
 70
     1
  0
XRECORD
  5
172C
102
{ACAD_REACTORS
330
172B
102
}
330
172B
100
AcDbXrecord
280
     1
102
RTVSPropertyOp0
 70
     1
102
RTVSPropertyOp1
 70
     1
102
RTVSPropertyOp2
 70
     1
102
RTVSPropertyOp3
 70
     1
102
RTVSPropertyOp4
 70
     1
102
RTVSPropertyOp5
 70
     1
102
RTVSPropertyOp6
 70
     1
102
RTVSPropertyOp7
 70
     1
102
RTVSPropertyOp8
 70
     1
102
RTVSPropertyOp9
 70
     1
102
RTVSPropertyOp10
 70
     1
102
RTVSPropertyOp11
 70
     1
102
RTVSPropertyOp12
 70
     1
102
RTVSPropertyOp13
 70
     1
102
RTVSPropertyOp14
 70
     1
102
RTVSPropertyOp15
 70
     1
102
RTVSPropertyOp16
 70
     1
102
RTVSPropertyOp17
 70
     1
102
RTVSPropertyOp18
 70
     1
102
RTVSPropertyOp19
 70
     1
102
RTVSPropertyOp20
 70
     1
102
RTVSPropertyOp21
 70
     1
102
RTVSPropertyOp22
 70
     1
102
RTVSPropertyOp23
 70
     1
102
RTVSPropertyOp24
 70
     1
102
RTVSPropertyOp25
 70
     1
102
RTVSPropertyOp26
 70
     1
102
RTVSPropertyOp27
 70
     1
  0
ENDSEC
  0
EOF
