  0
SECTION
  2
HEADER
  9
$ACADVER
  1
AC1018
  9
$ACADMAINTVER
 70
   104
  9
$DWGCODEPAGE
  3
ANSI_1250
  9
$AUTHOR
  1
tmrtka
  9
$LASTSAVEDBY
  1
onovak
  9
$REVISIONNUMBER
  1
000
  9
$CUSTOMPROPERTYTAG
  1
Vedoucí
  9
$CUSTOMPROPERTY
  1

  9
$CUSTOMPROPERTYTAG
  1
Společnost
  9
$CUSTOMPROPERTY
  1

  9
$CUSTOMPROPERTYTAG
  1
Kategorie
  9
$CUSTOMPROPERTY
  1

  9
$CUSTOMPROPERTYTAG
  1
Číslo součásti
  9
$CUSTOMPROPERTY
  1
414714
  9
$CUSTOMPROPERTYTAG
  1
Popis
  9
$CUSTOMPROPERTY
  1

  9
$CUSTOMPROPERTYTAG
  1
Projekt
  9
$CUSTOMPROPERTY
  1

  9
$CUSTOMPROPERTYTAG
  1
Kreslil
  9
$CUSTOMPROPERTY
  1
tmrtka
  9
$CUSTOMPROPERTYTAG
  1
Schválil
  9
$CUSTOMPROPERTY
  1

  9
$CUSTOMPROPERTYTAG
  1
Zodpovídá
  9
$CUSTOMPROPERTY
  1

  9
$CUSTOMPROPERTYTAG
  1
Nákladové středisko
  9
$CUSTOMPROPERTY
  1

  9
$CUSTOMPROPERTYTAG
  1
Dodavatel
  9
$CUSTOMPROPERTY
  1

  9
$CUSTOMPROPERTYTAG
  1
Uživatelský stav
  9
$CUSTOMPROPERTY
  1

  9
$CUSTOMPROPERTYTAG
  1
Stav návrhu
  9
$CUSTOMPROPERTY
  1
Rozpracováno
  9
$CUSTOMPROPERTYTAG
  1
Zkontroloval
  9
$CUSTOMPROPERTY
  1

  9
$CUSTOMPROPERTYTAG
  1
Techn. kontr. schválil
  9
$CUSTOMPROPERTY
  1

  9
$CUSTOMPROPERTYTAG
  1
Výrobu schválil
  9
$CUSTOMPROPERTY
  1

  9
$CUSTOMPROPERTYTAG
  1
VS_First
  9
$CUSTOMPROPERTY
  1

  9
$CUSTOMPROPERTYTAG
  1
VS_All
  9
$CUSTOMPROPERTY
  1
1:1,
  9
$CUSTOMPROPERTYTAG
  1
Model_Mass_Value
  9
$CUSTOMPROPERTY
  1
,0
  9
$CUSTOMPROPERTYTAG
  1
Model_Mass_Units
  9
$CUSTOMPROPERTY
  1
kg
  9
$CUSTOMPROPERTYTAG
  1
Model_Area_Value
  9
$CUSTOMPROPERTY
  1
2694,0
  9
$CUSTOMPROPERTYTAG
  1
Model_Area_Units
  9
$CUSTOMPROPERTY
  1
mm˛
  9
$CUSTOMPROPERTYTAG
  1
Model_Volume_Value
  9
$CUSTOMPROPERTY
  1
5471,0
  9
$CUSTOMPROPERTYTAG
  1
Model_Volume_Units
  9
$CUSTOMPROPERTY
  1
mmł
  9
$CUSTOMPROPERTYTAG
  1
Model_CogX_Value
  9
$CUSTOMPROPERTY
  1
,0
  9
$CUSTOMPROPERTYTAG
  1
Model_CogY_Value
  9
$CUSTOMPROPERTY
  1
,0
  9
$CUSTOMPROPERTYTAG
  1
Model_CogZ_Value
  9
$CUSTOMPROPERTY
  1
,0
  9
$CUSTOMPROPERTYTAG
  1
Model_Cog_Units
  9
$CUSTOMPROPERTY
  1
mm
  9
$CUSTOMPROPERTYTAG
  1
Model_Ixx_Value
  9
$CUSTOMPROPERTY
  1
,0
  9
$CUSTOMPROPERTYTAG
  1
Model_Iyy_Value
  9
$CUSTOMPROPERTY
  1
,0
  9
$CUSTOMPROPERTYTAG
  1
Model_Izz_Value
  9
$CUSTOMPROPERTY
  1
,0
  9
$CUSTOMPROPERTYTAG
  1
Model_Ixy_Value
  9
$CUSTOMPROPERTY
  1
,0
  9
$CUSTOMPROPERTYTAG
  1
Model_Iyz_Value
  9
$CUSTOMPROPERTY
  1
,0
  9
$CUSTOMPROPERTYTAG
  1
Model_Ixz_Value
  9
$CUSTOMPROPERTY
  1
,0
  9
$CUSTOMPROPERTYTAG
  1
Model_MassMom_Units
  9
$CUSTOMPROPERTY
  1
kg mm˛
  9
$CUSTOMPROPERTYTAG
  1
FirstViewScale
  9
$CUSTOMPROPERTY
  1

  9
$CUSTOMPROPERTYTAG
  1
AllViewScales
  9
$CUSTOMPROPERTY
  1

  9
$CUSTOMPROPERTYTAG
  1
SaveDate
  9
$CUSTOMPROPERTY
  1
09/12/2007
  9
$CUSTOMPROPERTYTAG
  1
SaveTime
  9
$CUSTOMPROPERTY
  1
10:32
  9
$CUSTOMPROPERTYTAG
  1
PaperSize
  9
$CUSTOMPROPERTY
  1
A3
  9
$CUSTOMPROPERTYTAG
  1
DateSaved
  9
$CUSTOMPROPERTY
  1
12.09.2007
  9
$CUSTOMPROPERTYTAG
  1
TimeSaved
  9
$CUSTOMPROPERTY
  1
10:32 dop.
  9
$INSBASE
 10
0.0
 20
0.0
 30
0.0
  9
$EXTMIN
 10
62.41745149066833
 20
-30.90228020970278
 30
-0.0000000000112498
  9
$EXTMAX
 10
275.8749400194208
 20
436.8643101990836
 30
0.0000000000002956
  9
$LIMMIN
 10
0.0
 20
0.0
  9
$LIMMAX
 10
630.0
 20
445.5
  9
$ORTHOMODE
 70
     1
  9
$REGENMODE
 70
     1
  9
$FILLMODE
 70
     1
  9
$QTEXTMODE
 70
     0
  9
$MIRRTEXT
 70
     0
  9
$LTSCALE
 40
1.5
  9
$ATTMODE
 70
     1
  9
$TEXTSIZE
 40
0.2
  9
$TRACEWID
 40
0.05
  9
$TEXTSTYLE
  7
Standard
  9
$CLAYER
  8
0
  9
$CELTYPE
  6
ByLayer
  9
$CECOLOR
 62
   256
  9
$CELTSCALE
 40
1.0
  9
$DISPSILH
 70
     0
  9
$DIMSCALE
 40
1.0
  9
$DIMASZ
 40
1.799999999999999
  9
$DIMEXO
 40
0.0625
  9
$DIMDLI
 40
0.38
  9
$DIMRND
 40
0.0
  9
$DIMDLE
 40
0.0
  9
$DIMEXE
 40
0.18
  9
$DIMTP
 40
0.0
  9
$DIMTM
 40
0.0
  9
$DIMTXT
 40
0.3499999940395355
  9
$DIMCEN
 40
0.09
  9
$DIMTSZ
 40
0.0
  9
$DIMTOL
 70
     0
  9
$DIMLIM
 70
     0
  9
$DIMTIH
 70
     1
  9
$DIMTOH
 70
     1
  9
$DIMSE1
 70
     0
  9
$DIMSE2
 70
     0
  9
$DIMTAD
 70
     0
  9
$DIMZIN
 70
     0
  9
$DIMBLK
  1

  9
$DIMASO
 70
     1
  9
$DIMSHO
 70
     1
  9
$DIMPOST
  1

  9
$DIMAPOST
  1

  9
$DIMALT
 70
     0
  9
$DIMALTD
 70
     2
  9
$DIMALTF
 40
25.4
  9
$DIMLFAC
 40
1.0
  9
$DIMTOFL
 70
     0
  9
$DIMTVP
 40
0.0
  9
$DIMTIX
 70
     0
  9
$DIMSOXD
 70
     0
  9
$DIMSAH
 70
     0
  9
$DIMBLK1
  1

  9
$DIMBLK2
  1

  9
$DIMSTYLE
  2
Standard
  9
$DIMCLRD
 70
     0
  9
$DIMCLRE
 70
     0
  9
$DIMCLRT
 70
     0
  9
$DIMTFAC
 40
1.0
  9
$DIMGAP
 40
0.09
  9
$DIMJUST
 70
     0
  9
$DIMSD1
 70
     0
  9
$DIMSD2
 70
     0
  9
$DIMTOLJ
 70
     1
  9
$DIMTZIN
 70
     0
  9
$DIMALTZ
 70
     0
  9
$DIMALTTZ
 70
     0
  9
$DIMUPT
 70
     0
  9
$DIMDEC
 70
     4
  9
$DIMTDEC
 70
     4
  9
$DIMALTU
 70
     2
  9
$DIMALTTD
 70
     2
  9
$DIMTXSTY
  7
Standard
  9
$DIMAUNIT
 70
     0
  9
$DIMADEC
 70
     0
  9
$DIMALTRND
 40
0.0
  9
$DIMAZIN
 70
     0
  9
$DIMDSEP
 70
    46
  9
$DIMATFIT
 70
     3
  9
$DIMFRAC
 70
     0
  9
$DIMLDRBLK
  1

  9
$DIMLUNIT
 70
     2
  9
$DIMLWD
 70
    -2
  9
$DIMLWE
 70
    -2
  9
$DIMTMOVE
 70
     0
  9
$LUNITS
 70
     2
  9
$LUPREC
 70
     2
  9
$SKETCHINC
 40
0.1
  9
$FILLETRAD
 40
0.0
  9
$AUNITS
 70
     0
  9
$AUPREC
 70
     0
  9
$MENU
  1
.
  9
$ELEVATION
 40
0.0
  9
$PELEVATION
 40
0.0
  9
$THICKNESS
 40
0.0
  9
$LIMCHECK
 70
     0
  9
$CHAMFERA
 40
0.0
  9
$CHAMFERB
 40
0.0
  9
$CHAMFERC
 40
0.0
  9
$CHAMFERD
 40
0.0
  9
$SKPOLY
 70
     0
  9
$TDCREATE
 40
2456105.435311157
  9
$TDUCREATE
 40
2456105.351977825
  9
$TDUPDATE
 40
2456112.471292812
  9
$TDUUPDATE
 40
2456112.387959479
  9
$TDINDWG
 40
0.1126372222
  9
$TDUSRTIMER
 40
0.1126370370
  9
$USRTIMER
 70
     1
  9
$ANGBASE
 50
0.0
  9
$ANGDIR
 70
     0
  9
$PDMODE
 70
     0
  9
$PDSIZE
 40
0.0
  9
$PLINEWID
 40
0.0
  9
$SPLFRAME
 70
     0
  9
$SPLINETYPE
 70
     6
  9
$SPLINESEGS
 70
     8
  9
$HANDSEED
  5
FFD
  9
$SURFTAB1
 70
     6
  9
$SURFTAB2
 70
     6
  9
$SURFTYPE
 70
     6
  9
$SURFU
 70
     6
  9
$SURFV
 70
     6
  9
$UCSBASE
  2

  9
$UCSNAME
  2

  9
$UCSORG
 10
0.0
 20
0.0
 30
0.0
  9
$UCSXDIR
 10
1.0
 20
0.0
 30
0.0
  9
$UCSYDIR
 10
0.0
 20
1.0
 30
0.0
  9
$UCSORTHOREF
  2

  9
$UCSORTHOVIEW
 70
     0
  9
$UCSORGTOP
 10
0.0
 20
0.0
 30
0.0
  9
$UCSORGBOTTOM
 10
0.0
 20
0.0
 30
0.0
  9
$UCSORGLEFT
 10
0.0
 20
0.0
 30
0.0
  9
$UCSORGRIGHT
 10
0.0
 20
0.0
 30
0.0
  9
$UCSORGFRONT
 10
0.0
 20
0.0
 30
0.0
  9
$UCSORGBACK
 10
0.0
 20
0.0
 30
0.0
  9
$PUCSBASE
  2

  9
$PUCSNAME
  2

  9
$PUCSORG
 10
0.0
 20
0.0
 30
0.0
  9
$PUCSXDIR
 10
1.0
 20
0.0
 30
0.0
  9
$PUCSYDIR
 10
0.0
 20
1.0
 30
0.0
  9
$PUCSORTHOREF
  2

  9
$PUCSORTHOVIEW
 70
     0
  9
$PUCSORGTOP
 10
0.0
 20
0.0
 30
0.0
  9
$PUCSORGBOTTOM
 10
0.0
 20
0.0
 30
0.0
  9
$PUCSORGLEFT
 10
0.0
 20
0.0
 30
0.0
  9
$PUCSORGRIGHT
 10
0.0
 20
0.0
 30
0.0
  9
$PUCSORGFRONT
 10
0.0
 20
0.0
 30
0.0
  9
$PUCSORGBACK
 10
0.0
 20
0.0
 30
0.0
  9
$USERI1
 70
     0
  9
$USERI2
 70
     0
  9
$USERI3
 70
     0
  9
$USERI4
 70
     0
  9
$USERI5
 70
     0
  9
$USERR1
 40
0.0
  9
$USERR2
 40
0.0
  9
$USERR3
 40
0.0
  9
$USERR4
 40
0.0
  9
$USERR5
 40
0.0
  9
$WORLDVIEW
 70
     1
  9
$SHADEDGE
 70
     3
  9
$SHADEDIF
 70
    70
  9
$TILEMODE
 70
     1
  9
$MAXACTVP
 70
    64
  9
$PINSBASE
 10
0.0
 20
0.0
 30
0.0
  9
$PLIMCHECK
 70
     0
  9
$PEXTMIN
 10
0.0
 20
0.0
 30
0.0
  9
$PEXTMAX
 10
630.0
 20
445.5
 30
0.0
  9
$PLIMMIN
 10
0.0
 20
0.0
  9
$PLIMMAX
 10
630.0
 20
445.5
  9
$UNITMODE
 70
     0
  9
$VISRETAIN
 70
     1
  9
$PLINEGEN
 70
     0
  9
$PSLTSCALE
 70
     1
  9
$TREEDEPTH
 70
  3020
  9
$CMLSTYLE
  2
Standard
  9
$CMLJUST
 70
     0
  9
$CMLSCALE
 40
1.0
  9
$PROXYGRAPHICS
 70
     1
  9
$MEASUREMENT
 70
     1
  9
$CELWEIGHT
370
    -1
  9
$ENDCAPS
280
     0
  9
$JOINSTYLE
280
     0
  9
$LWDISPLAY
290
     0
  9
$INSUNITS
 70
     4
  9
$HYPERLINKBASE
  1

  9
$STYLESHEET
  1

  9
$XEDIT
290
     1
  9
$CEPSNTYPE
380
     0
  9
$PSTYLEMODE
290
     1
  9
$FINGERPRINTGUID
  2
{2AC94475-FE0E-4CC9-8568-D93BD5353B3B}
  9
$VERSIONGUID
  2
{44C78519-4E4D-4124-89BD-7D62875BF632}
  9
$EXTNAMES
290
     1
  9
$PSVPSCALE
 40
0.0
  9
$OLESTARTUP
290
     0
  9
$SORTENTS
280
   127
  9
$INDEXCTL
280
     0
  9
$HIDETEXT
280
     1
  9
$XCLIPFRAME
290
     0
  9
$HALOGAP
280
     0
  9
$OBSCOLOR
 70
   257
  9
$OBSLTYPE
280
     0
  9
$INTERSECTIONDISPLAY
280
     0
  9
$INTERSECTIONCOLOR
 70
   257
  9
$DIMASSOC
280
     1
  9
$PROJECTNAME
  1

  0
ENDSEC
  0
SECTION
  2
CLASSES
  0
CLASS
  1
ACDBDICTIONARYWDFLT
  2
AcDbDictionaryWithDefault
  3
ObjectDBX Classes
 90
        0
 91
        1
280
     0
281
     0
  0
CLASS
  1
MATERIAL
  2
AcDbMaterial
  3
ObjectDBX Classes
 90
     1153
 91
        3
280
     0
281
     0
  0
CLASS
  1
VISUALSTYLE
  2
AcDbVisualStyle
  3
ObjectDBX Classes
 90
     4095
 91
       26
280
     0
281
     0
  0
CLASS
  1
SCALE
  2
AcDbScale
  3
ObjectDBX Classes
 90
     1153
 91
       17
280
     0
281
     0
  0
CLASS
  1
TABLESTYLE
  2
AcDbTableStyle
  3
ObjectDBX Classes
 90
     4095
 91
        1
280
     0
281
     0
  0
CLASS
  1
MLEADERSTYLE
  2
AcDbMLeaderStyle
  3
ACDB_MLEADERSTYLE_CLASS
 90
     4095
 91
        1
280
     0
281
     0
  0
CLASS
  1
DICTIONARYVAR
  2
AcDbDictionaryVar
  3
ObjectDBX Classes
 90
        0
 91
       10
280
     0
281
     0
  0
CLASS
  1
ACME_DOCUMENT
  2
AcMeDbDoc
  3
AcMeServices
 90
     1024
 91
        1
280
     0
281
     0
  0
CLASS
  1
AMGSETTINGSOBJ
  2
AmgSettingsObj
  3
"AcadM|Product Description: AutoCAD Mechanical|Company: Autodesk, Inc."
 90
     1024
 91
        2
280
     0
281
     0
  0
CLASS
  1
ACMESCOPE
  2
AcMeScope
  3
AcMeServices
 90
     1024
 91
        1
280
     0
281
     0
  0
CLASS
  1
ACMECOMMANDHISTORY
  2
AcMeCommandHistory
  3
AcMeServices
 90
     1024
 91
        1
280
     0
281
     0
  0
CLASS
  1
ACIMSYSVARMAN
  2
AcImSysVarManager
  3
AcMeServices
 90
     1024
 91
        5
280
     0
281
     0
  0
CLASS
  1
ACIMINTSYSVAR
  2
AcImIntSysVar
  3
AcMeServices
 90
     1024
 91
       27
280
     0
281
     0
  0
CLASS
  1
ACMEDRAWINGMAN
  2
AcMeDrawingMan
  3
AcMeServices
 90
     1024
 91
        1
280
     0
281
     0
  0
CLASS
  1
ACMEVIEW
  2
AcMeView
  3
AcMeServices
 90
     1024
 91
        1
280
     0
281
     0
  0
CLASS
  1
ACDBENTITYCACHE
  2
AcMeEntityCache
  3
AcMeServices
 90
     1024
 91
        1
280
     0
281
     0
  0
CLASS
  1
ACMESTATEMGR
  2
AcMeStateMgr
  3
AcMeServices
 90
     1024
 91
        1
280
     0
281
     0
  0
CLASS
  1
ACGREFMASTER
  2
AcGrefMaster
  3
AcAttribServices
 90
     1024
 91
        1
280
     0
281
     0
  0
CLASS
  1
AM_DRAWING_MGR
  2
AcDmDwgMgr
  3
AcMechDwgViewMgmt
 90
     1024
 91
        1
280
     0
281
     0
  0
CLASS
  1
AM_DWG_DOCUMENT
  2
AcDmDwgDocument
  3
AcMechDwgViewMgmt
 90
     1024
 91
        1
280
     0
281
     0
  0
CLASS
  1
AM_DWG_SHEET
  2
AcDmSheet
  3
AcMechDwgViewMgmt
 90
     1024
 91
        2
280
     0
281
     0
  0
CLASS
  1
AM_VIEWDIMPARMAP
  2
AcDmViewDimParMap
  3
AcMechDwgViewMgmt
 90
     1024
 91
        2
280
     0
281
     0
  0
CLASS
  1
AMDTINTERNALREACTOR
  2
AmdtInternalReactor
  3
AcMeServices
 90
     1024
 91
        1
280
     0
281
     0
  0
CLASS
  1
ACIMREALSYSVAR
  2
AcImRealSysVar
  3
AcMeServices
 90
     1024
 91
        1
280
     0
281
     0
  0
CLASS
  1
AM_DWGMGR_NAME
  2
AcDmDwgMgrName
  3
AcMechDwgViewMgmt
 90
     1024
 91
        1
280
     0
281
     0
  0
CLASS
  1
ACME_DATABASE
  2
AcMeDbDatabase
  3
AcMeServices
 90
     1024
 91
        1
280
     0
281
     0
  0
CLASS
  1
ACRFINSADJUSTERMGR
  2
AcRfInsAdjusterMgr
  3
AcMeServices
 90
     1024
 91
        1
280
     0
281
     0
  0
CLASS
  1
ACGREFACADMASTER
  2
AcGrefacadMaster
  3
AcGrefServices
 90
     1024
 91
        1
280
     0
281
     0
  0
CLASS
  1
AMDTMENUSTATEMGR
  2
AmdtMenuStateMgr
  3
McadcomServices
 90
     1024
 91
        1
280
     0
281
     0
  0
CLASS
  1
AMDTMCOMMENUSTATE
  2
AmdtMcomMenuState
  3
McadcomServices
 90
     1024
 91
        1
280
     0
281
     0
  0
CLASS
  1
AMIMASTER
  2
AmiMaster
  3
AmiServices
 90
     1024
 91
        1
280
     0
281
     0
  0
CLASS
  1
MAPIAMMOUDLE
  2
MApiAmModule
  3
MApiAmServices
 90
     1024
 91
        1
280
     0
281
     0
  0
CLASS
  1
ACIMSTRSYSVAR
  2
AcImStrSysVar
  3
AcMeServices
 90
     1024
 91
        5
280
     0
281
     0
  0
CLASS
  1
AMDTADMENUSTATE
  2
AmdtAdMenuState
  3
DesignerServices
 90
     1024
 91
        1
280
     0
281
     0
  0
CLASS
  1
ADAPPL
  2
AcAdAppl
  3
DesignerServices
 90
     1024
 91
        1
280
     0
281
     0
  0
CLASS
  1
DEPMGR
  2
AcAdDepMgr
  3
DesignerServices
 90
     1024
 91
        1
280
     0
281
     0
  0
CLASS
  1
PARAMMGR
  2
AcAdParamMgr
  3
DesignerServices
 90
     1024
 91
        1
280
     0
281
     0
  0
CLASS
  1
PARAMSCOPE
  2
AcAdParamScope
  3
DesignerServices
 90
     1024
 91
        1
280
     0
281
     0
  0
CLASS
  1
NAMEDAPPL
  2
AcAdNamedAppl
  3
DesignerServices
 90
     1024
 91
        1
280
     0
281
     0
  0
CLASS
  1
AMDTDMMENUSTATE
  2
AmdtDmMenuState
  3
AcMechDwgViewMgmt
 90
     1024
 91
        1
280
     0
281
     0
  0
CLASS
  1
AMDTAMMENUSTATE
  2
AmdtAmMenuState
  3
DesignerAssemblies
 90
     1024
 91
        1
280
     0
281
     0
  0
CLASS
  1
ACAMPROJECT
  2
AcAmProject
  3
DesignerAssemblies
 90
     1024
 91
        1
280
     0
281
     0
  0
CLASS
  1
ACAMGRCOMPDEF
  2
AcAmGrCompDef
  3
DesignerAssemblies
 90
     1024
 91
        1
280
     0
281
     0
  0
CLASS
  1
ACAMCOMPDEF
  2
AcAmCompDef
  3
DesignerAssemblies
 90
     1024
 91
        1
280
     0
281
     0
  0
CLASS
  1
ACAMCOMPDEFMGR
  2
AcAmCompDefMgr
  3
DesignerAssemblies
 90
     1024
 91
        1
280
     0
281
     0
  0
CLASS
  1
AMCONTEXTMGR
  2
AcAmContextMgr
  3
DesignerAssemblies
 90
     1024
 91
        1
280
     0
281
     0
  0
CLASS
  1
ACAMCONTEXTMODELER
  2
AcAmContextModeler
  3
DesignerAssemblies
 90
     1024
 91
        1
280
     0
281
     0
  0
CLASS
  1
ACMDATADICTIONARY
  2
AcmDataDictionary
  3
"AcmSymBB|Product Description: AutoCAD Mechanical|Company: Autodesk, Inc."
 90
     1024
 91
        1
280
     0
281
     0
  0
CLASS
  1
CATALOGSTATE
  2
AcAmCatalogState
  3
DesignerAssemblies
 90
     1024
 91
        1
280
     0
281
     0
  0
CLASS
  1
ACAMGRCOMPDEFSET
  2
AcAmGrCompDefSet
  3
DesignerAssemblies
 90
     1024
 91
        1
280
     0
281
     0
  0
CLASS
  1
AMDTBROWSERDBTAB
  2
AmdtBrowserDbTab
  3
McadcomServices
 90
     1024
 91
        1
280
     0
281
     0
  0
CLASS
  1
CBROWSERAPPOBJECT
  2
CBrowserAppObject
  3
McadcomServices
 90
     1024
 91
        2
280
     0
281
     0
  0
CLASS
  1
DM_PLACEHOLDER
  2
AcDmSelsetPlaceholder
  3
AcMechDwgViewMgmt
 90
     1024
 91
        1
280
     0
281
     0
  0
CLASS
  1
ACMSTANDARDISO
  2
AcmStandardISO
  3
"Amdt_StdImp|Product Description: AutoCAD Mechanical|Company: Autodesk, Inc."
 90
     1024
 91
        1
280
     0
281
     0
  0
CLASS
  1
AMDTEDGESTANDARDISO13715
  2
AmdtEdgeStdISO13715
  3
"Amdt_StdImp|Product Description: AutoCAD Mechanical|Company: Autodesk, Inc."
 90
     1024
 91
        1
280
     0
281
     0
  0
CLASS
  1
ACMSURFSTANDARDISO2002
  2
AcmSurfTextStdISO2002
  3
"Amdt_StdImp|Product Description: AutoCAD Mechanical|Company: Autodesk, Inc."
 90
     1024
 91
        1
280
     0
281
     0
  0
CLASS
  1
ACMFCFSTANDARDISO
  2
AcmFCFStdISO
  3
"Amdt_StdImp|Product Description: AutoCAD Mechanical|Company: Autodesk, Inc."
 90
     1024
 91
        1
280
     0
281
     0
  0
CLASS
  1
ACMWELDSTANDARDISO
  2
AcmWeldingStdISO
  3
"Amdt_StdImp|Product Description: AutoCAD Mechanical|Company: Autodesk, Inc."
 90
     1024
 91
        1
280
     0
281
     0
  0
CLASS
  1
ACMIDSTANDARDISO
  2
AcmIdStdISO
  3
"Amdt_StdImp|Product Description: AutoCAD Mechanical|Company: Autodesk, Inc."
 90
     1024
 91
        1
280
     0
281
     0
  0
CLASS
  1
ACMDATUMSTANDARDISO
  2
AcmDatumStdISO
  3
"Amdt_StdImp|Product Description: AutoCAD Mechanical|Company: Autodesk, Inc."
 90
     1024
 91
        1
280
     0
281
     0
  0
CLASS
  1
ACMBOMSTANDARDISO
  2
AcmBOMStdISO
  3
"Amdt_StdImp|Product Description: AutoCAD Mechanical|Company: Autodesk, Inc."
 90
     1024
 91
        1
280
     0
281
     0
  0
CLASS
  1
ACMDETAILSTANDARDISO
  2
AmdtDetailSymStdISO
  3
"Amdt_StdImp|Product Description: AutoCAD Mechanical|Company: Autodesk, Inc."
 90
     1024
 91
        1
280
     0
281
     0
  0
CLASS
  1
ACMSECTIONSTANDARDISO2001
  2
AmdtSectionSymStdISO2001
  3
"Amdt_StdImp|Product Description: AutoCAD Mechanical|Company: Autodesk, Inc."
 90
     1024
 91
        1
280
     0
281
     0
  0
CLASS
  1
ACMCENTERLINESTANDARDISO
  2
AmdtCenterLineStdISO
  3
"Amdt_StdImp|Product Description: AutoCAD Mechanical|Company: Autodesk, Inc."
 90
     1024
 91
        1
280
     0
281
     0
  0
CLASS
  1
ACMTHREADLINESTANDARDISO
  2
AmdtThreadLineStdISO
  3
"Amdt_StdImp|Product Description: AutoCAD Mechanical|Company: Autodesk, Inc."
 90
     1024
 91
        1
280
     0
281
     0
  0
CLASS
  1
ACMNOTESTANDARDISO
  2
AmdtNoteStdISO
  3
"Amdt_StdImp|Product Description: AutoCAD Mechanical|Company: Autodesk, Inc."
 90
     1024
 91
        1
280
     0
281
     0
  0
CLASS
  1
ACMTAPERSTANDARDISO
  2
AcmTaperStdISO
  3
"Amdt_StdImp|Product Description: AutoCAD Mechanical|Company: Autodesk, Inc."
 90
     1024
 91
        1
280
     0
281
     0
  0
CLASS
  1
ACMANOOTATIONVIEWSTANDARDISO
  2
AmdtAnViewStdISO
  3
"Amdt_StdImp|Product Description: AutoCAD Mechanical|Company: Autodesk, Inc."
 90
     1024
 91
        1
280
     0
281
     0
  0
CLASS
  1
ACAMGLAYSTD
  2
AcAmgLayStd
  3
"AmgLay|Product Description: AutoCAD Mechanical|Company: Autodesk, Inc."
 90
     1024
 91
        1
280
     0
281
     0
  0
CLASS
  1
ACAMGDIMSTD
  2
AcAmgDimStd
  3
"AmgDim|Product Description: AutoCAD Mechanical|Company: Autodesk, Inc."
 90
     1024
 91
        1
280
     0
281
     0
  0
CLASS
  1
AMGOBJPROPCFG
  2
AmgObjPropCfg
  3
"AmgLay|Product Description: AutoCAD Mechanical|Company: Autodesk, Inc."
 90
     1025
 91
        1
280
     0
281
     0
  0
CLASS
  1
ACAMGHOLECHARTSTDISO
  2
AcAmgHoleChartStdISO
  3
AmgDim|Product Description: AutoCAD Mechanical|Company: Autodesk, Inc.
 90
     1024
 91
        1
280
     0
281
     0
  0
CLASS
  1
ACAMGTITLESTD
  2
AcAmgTitleStd
  3
"AmgTitle|Product Description: AutoCAD Mechanical|Company: Autodesk, Inc."
 90
     4095
 91
        1
280
     0
281
     0
  0
CLASS
  1
AMDTNOTETEMPLATEDB
  2
AmdtNoteTemplateDB
  3
AcmSymBB|Product Description: AutoCAD Mechanical|Company: Autodesk, Inc.
 90
     1024
 91
        6
280
     0
281
     0
  0
CLASS
  1
ACAMGFILTERDAT
  2
AcAmgFilterDat
  3
"AcadM|Product Description: AutoCAD Mechanical|Company: Autodesk, Inc."
 90
     1024
 91
        0
280
     0
281
     0
  0
CLASS
  1
AEC_REFEDIT_STATUS_TRACKER
  2
AecDbRefEditStatusTracker
  3
AecArchBase60|Product Desc: Autodesk Architectural Desktop 2007 |Company: Autodesk,Inc. |WEB Address: www.autodesk.com
 90
      129
 91
        0
280
     0
281
     0
  0
CLASS
  1
NPOCOLLECTION
  2
AcDbImpNonPersistentObjectsCollection
  3
ObjectDBX Classes
 90
     1153
 91
        0
280
     0
281
     0
  0
CLASS
  1
CAMSSTRUCTBTNSTATE
  2
StructBtnState
  3
DesignerAssemblies
 90
     1024
 91
        0
280
     0
281
     0
  0
CLASS
  1
CELLSTYLEMAP
  2
AcDbCellStyleMap
  3
ObjectDBX Classes
 90
     1152
 91
        2
280
     0
281
     0
  0
ENDSEC
  0
SECTION
  2
TABLES
  0
TABLE
  2
VPORT
  5
8
330
0
100
AcDbSymbolTable
 70
     1
  0
VPORT
  5
57
330
8
100
AcDbSymbolTableRecord
100
AcDbViewportTableRecord
  2
*Active
 70
     0
 10
0.0
 20
0.0
 11
1.0
 21
1.0
 12
169.1461957550446
 22
202.9810149946905
 13
0.0
 23
0.0
 14
1.0
 24
1.0
 15
0.0
 25
0.0
 16
0.0
 26
0.0
 36
1.0
 17
0.0
 27
0.0
 37
0.0
 40
470.7683011493776
 41
1.576017130620984
 42
50.0
 43
0.0
 44
0.0
 50
0.0
 51
0.0
 71
     0
 72
   100
 73
     1
 74
     1
 75
     0
 76
     0
 77
     0
 78
     0
281
     0
 65
     0
110
0.0
120
0.0
130
0.0
111
1.0
121
0.0
131
0.0
112
0.0
122
1.0
132
0.0
 79
     0
146
0.0
  0
ENDTAB
  0
TABLE
  2
LTYPE
  5
5
330
0
100
AcDbSymbolTable
 70
    16
  0
LTYPE
  5
5B
330
5
100
AcDbSymbolTableRecord
100
AcDbLinetypeTableRecord
  2
ByBlock
 70
     0
  3

 72
    65
 73
     0
 40
0.0
  0
LTYPE
  5
5C
330
5
100
AcDbSymbolTableRecord
100
AcDbLinetypeTableRecord
  2
ByLayer
 70
     0
  3

 72
    65
 73
     0
 40
0.0
  0
LTYPE
  5
5D
330
5
100
AcDbSymbolTableRecord
100
AcDbLinetypeTableRecord
  2
Continuous
 70
     0
  3
Solid line
 72
    65
 73
     0
 40
0.0
  0
LTYPE
  5
957
330
5
100
AcDbSymbolTableRecord
100
AcDbLinetypeTableRecord
  2
HIDDEN
 70
     0
  3
Skrytá __ __ __ __ __ __ __ __ __ __ __ __ __ __
 72
    65
 73
     2
 40
9.525
 49
6.349999999999997
 74
     0
 49
-3.174999999999998
 74
     0
  0
LTYPE
  5
958
330
5
100
AcDbSymbolTableRecord
100
AcDbLinetypeTableRecord
  2
PHANTOM2
 70
     0
  3
Sdružená (.5x) ___ _ _ ___ _ _ ___ _ _ ___ _ _
 72
    65
 73
     6
 40
31.75
 49
15.875
 74
     0
 49
-3.174999999999998
 74
     0
 49
3.174999999999998
 74
     0
 49
-3.174999999999998
 74
     0
 49
3.174999999999998
 74
     0
 49
-3.174999999999998
 74
     0
  0
LTYPE
  5
959
330
5
100
AcDbSymbolTableRecord
100
AcDbLinetypeTableRecord
  2
CENTER
 70
     0
  3
Středová ____ _ ____ _ ____ _ ____ _ ____ _ ____
 72
    65
 73
     4
 40
50.8
 49
31.75
 74
     0
 49
-6.349999999999997
 74
     0
 49
6.349999999999997
 74
     0
 49
-6.349999999999997
 74
     0
  0
LTYPE
  5
99F
330
5
100
AcDbSymbolTableRecord
100
AcDbLinetypeTableRecord
  2
AM_ISO02W050
 70
     0
  3
__ __ __ __ __ __ __ __ __ __ __ __ __ __ __
 72
    65
 73
     2
 40
7.5
 49
6.0
 74
     0
 49
-1.5
 74
     0
  0
LTYPE
  5
9A0
330
5
100
AcDbSymbolTableRecord
100
AcDbLinetypeTableRecord
  2
AM_ISO08W050
 70
     0
  3
____ . ____ . ____ . ____ . ____ . ____ . ____
 72
    65
 73
     4
 40
18.0
 49
12.0
 74
     0
 49
-1.5
 74
     0
 49
3.0
 74
     0
 49
-1.5
 74
     0
  0
LTYPE
  5
9A1
330
5
100
AcDbSymbolTableRecord
100
AcDbLinetypeTableRecord
  2
AM_ISO09W050
 70
     0
  3
_____ . . _____ . . _____ . . ____ .. ____
 72
    65
 73
     6
 40
22.5
 49
12.0
 74
     0
 49
-1.5
 74
     0
 49
3.0
 74
     0
 49
-1.5
 74
     0
 49
3.0
 74
     0
 49
-1.5
 74
     0
  0
LTYPE
  5
9A2
330
5
100
AcDbSymbolTableRecord
100
AcDbLinetypeTableRecord
  2
Amconstr
 70
     0
  3
_______________________
 72
    65
 73
     2
 40
9999.0
 49
9999.0
 74
     0
 49
0.0
 74
     0
  0
LTYPE
  5
9A3
330
5
100
AcDbSymbolTableRecord
100
AcDbLinetypeTableRecord
  2
AM_ISO08W050x2
 70
     0
  3
__ . __ . __ . __ . __ . __
 72
    65
 73
     4
 40
9.0
 49
6.0
 74
     0
 49
-0.75
 74
     0
 49
1.5
 74
     0
 49
-0.75
 74
     0
  0
LTYPE
  5
9A4
330
5
100
AcDbSymbolTableRecord
100
AcDbLinetypeTableRecord
  2
AM_ISO02W050x2
 70
     0
  3
 _ _ _ _ _ _ _ _ _ _ _ _
 72
    65
 73
     2
 40
3.75
 49
3.0
 74
     0
 49
-0.75
 74
     0
  0
LTYPE
  5
9A7
330
5
100
AcDbSymbolTableRecord
100
AcDbLinetypeTableRecord
  2
Amzigzag
 70
     0
  3
/\/-/\/-/\/-/\/-/\/-/\/
 72
    65
 73
     2
 40
11.0001
 49
0.0001
 74
     4
 75
   136
340
9A6
 46
0.04
 50
0.0
 44
0.0
 45
0.0
 49
-11.0
 74
     0
  0
LTYPE
  5
9B6
330
5
100
AcDbSymbolTableRecord
100
AcDbLinetypeTableRecord
  2
ACISOWELD
 70
     0
  3
_ _ _ _ _
 72
    65
 73
     2
 40
2.0
 49
2.0
 74
     0
 49
-1.0
 74
     0
  0
LTYPE
  5
9B7
330
5
100
AcDbSymbolTableRecord
100
AcDbLinetypeTableRecord
  2
ACISOTGB
 70
     0
  3
__ . . __ . .
 72
    65
 73
     6
 40
9.0
 49
4.0
 74
     0
 49
-1.0
 74
     0
 49
1.0
 74
     0
 49
-1.0
 74
     0
 49
1.0
 74
     0
 49
-1.0
 74
     0
  0
LTYPE
  5
9B8
330
5
100
AcDbSymbolTableRecord
100
AcDbLinetypeTableRecord
  2
ACISOTGL
 70
     0
  3
_ _ _ _ _
 72
    65
 73
     2
 40
3.0
 49
2.0
 74
     0
 49
-1.0
 74
     0
  0
LTYPE
  5
9FC
330
5
100
AcDbSymbolTableRecord
100
AcDbLinetypeTableRecord
  2
GEN7
 70
     0
  3
____ . ____ . ____ . ____ . ____ . ____ . ____
 72
    65
 73
     4
 40
13.75
 49
10.0
 74
     0
 49
-1.25
 74
     0
 49
1.25
 74
     0
 49
-1.25
 74
     0
  0
ENDTAB
  0
TABLE
  2
LAYER
  5
2
102
{ACAD_XDICTIONARY
360
A04
102
}
330
0
100
AcDbSymbolTable
 70
    18
  0
LAYER
  5
54
330
2
100
AcDbSymbolTableRecord
100
AcDbLayerTableRecord
  2
0
 70
     0
 62
     7
  6
Continuous
370
    -3
390
F
  0
LAYER
  5
78
330
2
100
AcDbSymbolTableRecord
100
AcDbLayerTableRecord
  2
Geometrie náčrtu (ISO)
 70
     0
 62
     7
  6
Continuous
370
     9
390
F
  0
LAYER
  5
79
330
2
100
AcDbSymbolTableRecord
100
AcDbLayerTableRecord
  2
KOPF
 70
     0
 62
     8
420
  8421504
  6
Continuous
370
     9
390
F
  0
LAYER
  5
7A
330
2
100
AcDbSymbolTableRecord
100
AcDbLayerTableRecord
  2
Kóta (ISO)
 70
     0
 62
     5
420
      255
  6
Continuous
370
     9
390
F
  0
LAYER
  5
7B
330
2
100
AcDbSymbolTableRecord
100
AcDbLayerTableRecord
  2
Nadpis (ISO)
 70
     0
 62
     7
  6
Continuous
370
    18
390
F
  0
LAYER
  5
7D
330
2
100
AcDbSymbolTableRecord
100
AcDbLayerTableRecord
  2
Osa (ISO)
 70
     0
 62
     1
420
 16711680
  6
Continuous
370
     9
390
F
  0
LAYER
  5
85
330
2
100
AcDbSymbolTableRecord
100
AcDbLayerTableRecord
  2
Rámeček (ISO)
 70
     0
 62
     7
  6
Continuous
370
    35
390
F
  0
LAYER
  5
88
330
2
100
AcDbSymbolTableRecord
100
AcDbLayerTableRecord
  2
Skrytá (ISO)
 70
     0
 62
   142
420
    32960
  6
Continuous
370
     9
390
F
  0
LAYER
  5
89
330
2
100
AcDbSymbolTableRecord
100
AcDbLayerTableRecord
  2
Středová značka (ISO)
 70
     0
 62
     1
420
 16711680
  6
Continuous
370
     9
390
F
  0
LAYER
  5
8B
330
2
100
AcDbSymbolTableRecord
100
AcDbLayerTableRecord
  2
TEXT35
 70
     0
 62
    12
420
 13369344
  6
Continuous
370
    20
390
F
  0
LAYER
  5
8C
330
2
100
AcDbSymbolTableRecord
100
AcDbLayerTableRecord
  2
TEXT50
 70
     0
 62
     7
  6
Continuous
370
    20
390
F
  0
LAYER
  5
8D
330
2
100
AcDbSymbolTableRecord
100
AcDbLayerTableRecord
  2
Viditelná (ISO)
 70
     0
 62
     7
  6
Continuous
370
    35
390
F
  0
LAYER
  5
8E
330
2
100
AcDbSymbolTableRecord
100
AcDbLayerTableRecord
  2
Viditelná tenká (ISO)
 70
     0
 62
     7
  6
Continuous
370
     9
390
F
  0
LAYER
  5
8F
330
2
100
AcDbSymbolTableRecord
100
AcDbLayerTableRecord
  2
Značka (ISO)
 70
     0
 62
     5
420
      255
  6
Continuous
370
     9
390
F
  0
LAYER
  5
549
330
2
100
AcDbSymbolTableRecord
100
AcDbLayerTableRecord
  2
Defpoints
 70
     0
 62
     7
  6
Continuous
290
     0
370
    -3
390
F
  0
LAYER
  5
9FD
102
{ACAD_XDICTIONARY
360
9FE
102
}
330
2
100
AcDbSymbolTableRecord
100
AcDbLayerTableRecord
  2
7
 70
     0
 62
     4
  6
GEN7
370
    -3
390
F
  0
LAYER
  5
9FF
102
{ACAD_XDICTIONARY
360
A00
102
}
330
2
100
AcDbSymbolTableRecord
100
AcDbLayerTableRecord
  2
5
 70
     0
 62
     3
  6
Continuous
370
    -3
390
F
  0
LAYER
  5
B8F
330
2
100
AcDbSymbolTableRecord
100
AcDbLayerTableRecord
  2
AM_5
 70
     0
 62
    92
  6
Continuous
370
    25
390
F
1001
AcAecLayerStandard
1000

1000

  0
ENDTAB
  0
TABLE
  2
STYLE
  5
3
330
0
100
AcDbSymbolTable
 70
    21
  0
STYLE
  5
55
330
3
100
AcDbSymbolTableRecord
100
AcDbTextStyleTableRecord
  2
Standard
 70
     0
 40
0.0
 41
1.0
 50
0.0
 71
     0
 42
0.2
  3
TAHOMA.TTF
  4

1001
ACAD
1000
Tahoma
1071
      256
  0
STYLE
  5
5A
330
3
100
AcDbSymbolTableRecord
100
AcDbTextStyleTableRecord
  2
Annotative
 70
     0
 40
0.0
 41
1.0
 50
0.0
 71
     0
 42
0.2
  3
txt
  4

1001
AcadAnnotative
1000
AnnotativeData
1002
{
1070
     1
1070
     1
1002
}
  0
STYLE
  5
90
330
3
100
AcDbSymbolTableRecord
100
AcDbTextStyleTableRecord
  2
ITALICC8_57
 70
     0
 40
0.0
 41
1.0
 50
0.0
 71
     0
 42
0.2
  3
TAHOMA.TTF
  4

1001
ACAD
1000
Tahoma
1071
      256
  0
STYLE
  5
91
330
3
100
AcDbSymbolTableRecord
100
AcDbTextStyleTableRecord
  2
kusovnik
 70
     0
 40
0.0
 41
1.0
 50
0.0
 71
     0
 42
0.2
  3
ARIAL.TTF
  4

1001
ACAD
1000
Arial
1071
      256
  0
STYLE
  5
92
330
3
100
AcDbSymbolTableRecord
100
AcDbTextStyleTableRecord
  2
ROMANS8_69
 70
     0
 40
0.0
 41
1.0
 50
0.0
 71
     0
 42
0.2
  3
TAHOMA.TTF
  4

1001
ACAD
1000
Tahoma
1071
      256
  0
STYLE
  5
93
330
3
100
AcDbSymbolTableRecord
100
AcDbTextStyleTableRecord
  2
Text popisu (ISO)
 70
     0
 40
0.0
 41
1.0
 50
0.0
 71
     0
 42
0.2
  3
TAHOMA.TTF
  4

1001
ACAD
1000
Tahoma
1071
      256
  0
STYLE
  5
94
330
3
100
AcDbSymbolTableRecord
100
AcDbTextStyleTableRecord
  2
Text poznámky (DIN)
 70
     0
 40
0.0
 41
1.0
 50
0.0
 71
     0
 42
0.2
  3
isocpeur.ttf
  4

1001
ACAD
1000
ISOCPEUR
1071
      256
  0
STYLE
  5
95
330
3
100
AcDbSymbolTableRecord
100
AcDbTextStyleTableRecord
  2
Text poznámky (ISO)
 70
     0
 40
0.0
 41
1.0
 50
0.0
 71
     0
 42
0.2
  3
TAHOMA.TTF
  4

1001
ACAD
1000
Tahoma
1071
      256
  0
STYLE
  5
96
330
3
100
AcDbSymbolTableRecord
100
AcDbTextStyleTableRecord
  2
TEXT20_41
 70
     0
 40
0.0
 41
1.0
 50
0.0
 71
     0
 42
0.2
  3
TAHOMA.TTF
  4

1001
ACAD
1000
Tahoma
1071
      256
  0
STYLE
  5
97
330
3
100
AcDbSymbolTableRecord
100
AcDbTextStyleTableRecord
  2
TEXT20_59
 70
     0
 40
0.0
 41
1.0
 50
0.0
 71
     0
 42
0.2
  3
TAHOMA.TTF
  4

1001
ACAD
1000
Tahoma
1071
      256
  0
STYLE
  5
1D7
330
3
100
AcDbSymbolTableRecord
100
AcDbTextStyleTableRecord
  2
Styl textu62
 70
     0
 40
0.0
 41
0.8000000119209289
 50
0.0
 71
     0
 42
0.2
  3
TAHOMA.TTF
  4

1001
ACAD
1000
Tahoma
1071
      256
  0
STYLE
  5
1DE
330
3
100
AcDbSymbolTableRecord
100
AcDbTextStyleTableRecord
  2
Styl textu58
 70
     0
 40
0.0
 41
0.8000000119209289
 50
0.0
 71
     0
 42
0.2
  3
TAHOMA.TTF
  4

1001
ACAD
1000
Tahoma
1071
      256
  0
STYLE
  5
1E0
330
3
100
AcDbSymbolTableRecord
100
AcDbTextStyleTableRecord
  2
Styl textu63
 70
     0
 40
0.0
 41
0.75
 50
0.0
 71
     0
 42
0.2
  3
TAHOMA.TTF
  4

1001
ACAD
1000
Tahoma
1071
      256
  0
STYLE
  5
1E4
330
3
100
AcDbSymbolTableRecord
100
AcDbTextStyleTableRecord
  2
Styl textu75
 70
     0
 40
0.0
 41
0.8000000119209289
 50
0.0
 71
     0
 42
0.2
  3
TAHOMA.TTF
  4

1001
ACAD
1000
Tahoma
1071
      256
  0
STYLE
  5
1E6
330
3
100
AcDbSymbolTableRecord
100
AcDbTextStyleTableRecord
  2
Styl textu72
 70
     0
 40
0.0
 41
0.6999999880790711
 50
0.0
 71
     0
 42
0.2
  3
TAHOMA.TTF
  4

1001
ACAD
1000
Tahoma
1071
      256
  0
STYLE
  5
1FC
330
3
100
AcDbSymbolTableRecord
100
AcDbTextStyleTableRecord
  2
Styl textu9
 70
     0
 40
0.0
 41
1.0
 50
0.0
 71
     0
 42
0.2
  3
ARIAL.TTF
  4

1001
ACAD
1000
Arial
1071
      256
  0
STYLE
  5
200
330
3
100
AcDbSymbolTableRecord
100
AcDbTextStyleTableRecord
  2
Styl textu40
 70
     0
 40
0.0
 41
1.0
 50
0.0
 71
     0
 42
0.2
  3
ARIAL.TTF
  4

1001
ACAD
1000
Arial
1071
      256
  0
STYLE
  5
204
330
3
100
AcDbSymbolTableRecord
100
AcDbTextStyleTableRecord
  2
Styl textu94
 70
     0
 40
0.0
 41
1.0
 50
0.0
 71
     0
 42
0.2
  3
TAHOMA.TTF
  4

1001
ACAD
1000
Tahoma
1071
      256
  0
STYLE
  5
9A6
330
3
100
AcDbSymbolTableRecord
100
AcDbTextStyleTableRecord
  2

 70
     1
 40
0.0
 41
1.0
 50
0.0
 71
     0
 42
0.2
  3
genltshp.shx
  4

  0
STYLE
  5
9B4
330
3
100
AcDbSymbolTableRecord
100
AcDbTextStyleTableRecord
  2
ACISOTS
 70
     0
 40
1.0
 41
1.0
 50
0.0
 71
     0
 42
0.2
  3
isocp.shx
  4

  0
STYLE
  5
9B5
330
3
100
AcDbSymbolTableRecord
100
AcDbTextStyleTableRecord
  2
ACISOGDT
 70
     0
 40
0.0
 41
1.0
 50
0.0
 71
     0
 42
0.2
  3
amgdt.shx
  4

  0
ENDTAB
  0
TABLE
  2
VIEW
  5
6
330
0
100
AcDbSymbolTable
 70
     0
  0
ENDTAB
  0
TABLE
  2
UCS
  5
7
330
0
100
AcDbSymbolTable
 70
     0
  0
ENDTAB
  0
TABLE
  2
APPID
  5
9
330
0
100
AcDbSymbolTable
 70
    23
  0
APPID
  5
56
330
9
100
AcDbSymbolTableRecord
100
AcDbRegAppTableRecord
  2
ACAD
 70
     0
  0
APPID
  5
5E
330
9
100
AcDbSymbolTableRecord
100
AcDbRegAppTableRecord
  2
AcadAnnotative
 70
     0
  0
APPID
  5
1FF
330
9
100
AcDbSymbolTableRecord
100
AcDbRegAppTableRecord
  2
AcadAnnoPO
 70
     0
  0
APPID
  5
79E
330
9
100
AcDbSymbolTableRecord
100
AcDbRegAppTableRecord
  2
ACAD_DSTYLE_DIMRADIAL_EXTENSION
 70
     0
  0
APPID
  5
92A
330
9
100
AcDbSymbolTableRecord
100
AcDbRegAppTableRecord
  2
MCAD_NO_VIS
 70
     0
  0
APPID
  5
92B
330
9
100
AcDbSymbolTableRecord
100
AcDbRegAppTableRecord
  2
ACAD_TEMP_GRAPHIC
 70
     0
  0
APPID
  5
95B
330
9
100
AcDbSymbolTableRecord
100
AcDbRegAppTableRecord
  2
AD_DRAW
 70
     0
  0
APPID
  5
95E
330
9
100
AcDbSymbolTableRecord
100
AcDbRegAppTableRecord
  2
ACATTRIBSERVICES
 70
     0
  0
APPID
  5
97E
330
9
100
AcDbSymbolTableRecord
100
AcDbRegAppTableRecord
  2
DESIGNERASSEMBLIES
 70
     0
  0
APPID
  5
984
330
9
100
AcDbSymbolTableRecord
100
AcDbRegAppTableRecord
  2
ACADM_DIM_EDIT
 70
     0
  0
APPID
  5
985
330
9
100
AcDbSymbolTableRecord
100
AcDbRegAppTableRecord
  2
AMDT_DM_ADJ
 70
     0
  0
APPID
  5
99C
330
9
100
AcDbSymbolTableRecord
100
AcDbRegAppTableRecord
  2
ACAD_DSTYLE_DIMJAG
 70
     0
  0
APPID
  5
99D
330
9
100
AcDbSymbolTableRecord
100
AcDbRegAppTableRecord
  2
ACAD_DSTYLE_DIMBREAK
 70
     0
  0
APPID
  5
A02
330
9
100
AcDbSymbolTableRecord
100
AcDbRegAppTableRecord
  2
ACAD_DSTYLE_DIMINSPECT
 70
     0
  0
APPID
  5
A03
330
9
100
AcDbSymbolTableRecord
100
AcDbRegAppTableRecord
  2
ACAD_DSTYLE_DIMTALN
 70
     0
  0
APPID
  5
B6C
330
9
100
AcDbSymbolTableRecord
100
AcDbRegAppTableRecord
  2
ACAD_EXEMPT_FROM_CAD_STANDARDS
 70
     0
  0
APPID
  5
B90
330
9
100
AcDbSymbolTableRecord
100
AcDbRegAppTableRecord
  2
AcAecLayerStandard
 70
     0
  0
APPID
  5
CB8
330
9
100
AcDbSymbolTableRecord
100
AcDbRegAppTableRecord
  2
GENIUS_GENDTOL_13
 70
     0
  0
APPID
  5
D75
330
9
100
AcDbSymbolTableRecord
100
AcDbRegAppTableRecord
  2
ACAD_MLEADERVER
 70
     0
  0
APPID
  5
DAE
330
9
100
AcDbSymbolTableRecord
100
AcDbRegAppTableRecord
  2
ACAD_DSTYLE_DIMARC_LENGTH_SYMBOL
 70
     0
  0
APPID
  5
DAF
330
9
100
AcDbSymbolTableRecord
100
AcDbRegAppTableRecord
  2
ACAD_DSTYLE_DIM_LINETYPE
 70
     0
  0
APPID
  5
DB0
330
9
100
AcDbSymbolTableRecord
100
AcDbRegAppTableRecord
  2
ACAD_DSTYLE_DIM_EXT1_LINETYPE
 70
     0
  0
APPID
  5
DB1
330
9
100
AcDbSymbolTableRecord
100
AcDbRegAppTableRecord
  2
ACAD_DSTYLE_DIM_EXT2_LINETYPE
 70
     0
  0
ENDTAB
  0
TABLE
  2
DIMSTYLE
  5
A
330
0
100
AcDbSymbolTable
 70
    26
100
AcDbDimStyleTable
 71
     3
340
58
340
A01
340
B1
  0
DIMSTYLE
105
58
330
A
100
AcDbSymbolTableRecord
100
AcDbDimStyleTableRecord
  2
Standard
 70
     0
340
55
  0
DIMSTYLE
105
59
330
A
100
AcDbSymbolTableRecord
100
AcDbDimStyleTableRecord
  2
Annotative
 70
     0
340
55
1001
AcadAnnotative
1000
AnnotativeData
1002
{
1070
     1
1070
     1
1002
}
  0
DIMSTYLE
105
A7
330
A
100
AcDbSymbolTableRecord
100
AcDbDimStyleTableRecord
  2
Různé objekty (ISO)
 70
     0
 40
1.5
 41
2.5
 42
0.0
 43
5.999999999999999
 44
1.0
 45
0.00000001
 46
10.0
 73
     0
 74
     0
 77
     1
 78
     8
 79
     2
140
5.25
143
0.03937
146
0.6676571709769112
147
0.762
171
     3
172
     1
176
   256
177
   256
178
   256
179
     2
271
     2
272
     2
274
     3
278
    44
284
     8
340
93
341
98
371
    -1
372
    -1
  0
DIMSTYLE
105
A8
330
A
100
AcDbSymbolTableRecord
100
AcDbDimStyleTableRecord
  2
Různé objekty (ISO)$7
 70
     0
 40
1.5
 41
5.0
 42
0.0
 43
5.999999999999999
 44
1.0
 45
0.00000001
 46
10.0
 73
     0
 74
     0
 77
     1
 78
     8
 79
     2
140
5.25
143
0.03937
146
0.6676571709769112
147
0.762
171
     3
172
     1
176
   256
177
   256
178
   256
179
     2
271
     2
272
     2
274
     3
278
    44
284
     8
340
93
341
98
371
    25
372
    -1
  0
DIMSTYLE
105
A9
330
A
100
AcDbSymbolTableRecord
100
AcDbDimStyleTableRecord
  2
Výchozí - Metoda 1b (ISO)
 70
     0
 40
1.5
 41
2.5
 42
0.0
 43
5.999999999999999
 44
1.0
 45
0.00000001
 46
10.0
 73
     0
 77
     1
 78
     8
 79
     2
140
3.5
143
0.03937
147
0.762
171
     3
172
     1
176
   256
177
   256
178
   256
179
     2
271
     2
272
     2
274
     3
278
    44
284
     8
286
     8
340
95
371
    -1
372
    -1
  0
DIMSTYLE
105
AA
330
A
100
AcDbSymbolTableRecord
100
AcDbDimStyleTableRecord
  2
Výchozí - Metoda 1b (ISO)$7
 70
     0
 40
1.5
 41
2.5
 42
0.0
 43
5.999999999999999
 44
1.0
 45
0.00000001
 46
10.0
 73
     0
 77
     1
 78
     8
 79
     2
140
3.5
143
0.03937
147
0.762
171
     3
172
     1
176
   256
177
   256
178
   256
179
     2
271
     2
272
     2
274
     3
278
    44
284
     8
286
     8
340
95
371
    -1
372
    -1
  0
DIMSTYLE
105
AB
330
A
100
AcDbSymbolTableRecord
100
AcDbDimStyleTableRecord
  2
Výchozí - Metoda 2a (ISO)
 70
     0
 40
1.5
 41
2.5
 42
0.0
 43
5.999999999999999
 44
1.0
 45
0.00000001
 46
10.0
 77
     1
 78
     8
 79
     2
140
3.5
143
0.03937
147
0.762
171
     3
172
     1
176
   256
177
   256
178
   256
179
     2
271
     2
272
     2
274
     3
278
    44
284
     8
286
     8
340
95
371
    -1
372
    -1
  0
DIMSTYLE
105
AC
330
A
100
AcDbSymbolTableRecord
100
AcDbDimStyleTableRecord
  2
Výchozí - Metoda 2a (ISO)$7
 70
     0
 40
1.5
 41
2.5
 42
0.0
 43
5.999999999999999
 44
1.0
 45
0.00000001
 46
10.0
 77
     1
 78
     8
 79
     2
140
3.5
143
0.03937
147
0.762
171
     3
172
     1
176
   256
177
   256
178
   256
179
     2
271
     2
272
     2
274
     3
278
    44
284
     8
286
     8
340
95
371
    -1
372
    -1
  0
DIMSTYLE
105
AD
330
A
100
AcDbSymbolTableRecord
100
AcDbDimStyleTableRecord
  2
Výchozí - Metoda 2b (ISO)
 70
     0
 40
1.5
 41
2.5
 42
0.0
 43
5.999999999999999
 44
1.0
 45
0.00000001
 46
10.0
 77
     1
 78
     8
 79
     2
140
3.5
143
0.03937
147
0.762
171
     3
172
     1
176
   256
177
   256
178
   256
179
     2
271
     2
272
     2
274
     3
278
    44
284
     8
286
     8
340
95
371
    -1
372
    -1
  0
DIMSTYLE
105
AE
330
A
100
AcDbSymbolTableRecord
100
AcDbDimStyleTableRecord
  2
Výchozí - Metoda 2b (ISO)$7
 70
     0
 40
1.5
 41
2.5
 42
0.0
 43
5.999999999999999
 44
1.0
 45
0.00000001
 46
10.0
 77
     1
 78
     8
 79
     2
140
3.5
143
0.03937
147
0.762
171
     3
172
     1
176
   256
177
   256
178
   256
179
     2
271
     2
272
     2
274
     3
278
    44
284
     8
286
     8
340
95
371
    -1
372
    -1
  0
DIMSTYLE
105
AF
330
A
100
AcDbSymbolTableRecord
100
AcDbDimStyleTableRecord
  2
Výchozí - mm [palce] (ISO)
 70
     0
  4
 in
 40
1.5
 41
2.5
 42
0.0
 43
5.999999999999999
 44
3.174999999999998
 45
0.00000001
 46
10.0
 73
     0
 74
     0
 77
     1
 78
     8
 79
     2
140
3.5
143
0.03937
147
0.762
170
     1
171
     3
172
     1
176
   256
177
   256
178
   256
179
     3
271
     3
272
     2
274
     3
275
     1
278
    44
284
     8
285
     8
286
     8
340
95
371
    -1
372
    -1
  0
DIMSTYLE
105
B0
330
A
100
AcDbSymbolTableRecord
100
AcDbDimStyleTableRecord
  2
Výchozí - mm [palce] (ISO)$7
 70
     0
  4
 in
 40
1.5
 41
2.5
 42
0.0
 43
5.999999999999999
 44
3.174999999999998
 45
0.00000001
 46
10.0
 73
     0
 74
     0
 77
     1
 78
     8
 79
     2
140
3.5
143
0.03937
147
0.762
170
     1
171
     3
172
     1
176
   256
177
   256
178
   256
179
     3
271
     3
272
     2
274
     3
275
     1
278
    44
284
     8
285
     8
286
     8
340
95
371
    -1
372
    -1
  0
DIMSTYLE
105
B1
330
A
100
AcDbSymbolTableRecord
100
AcDbDimStyleTableRecord
  2
Výchozí (ISO)
 70
     0
 40
1.5
 41
2.5
 42
0.0
 43
5.999999999999999
 44
1.0
 45
0.00000001
 46
10.0
 73
     0
 74
     0
 77
     1
 78
     8
 79
     2
140
3.5
143
0.03937
146
1.001485756465366
147
0.762
171
     3
172
     1
176
   256
177
   256
178
   256
179
     2
271
     2
272
     2
274
     3
278
    44
284
     8
340
95
371
    -1
372
    -1
  0
DIMSTYLE
105
B2
330
A
100
AcDbSymbolTableRecord
100
AcDbDimStyleTableRecord
  2
Výchozí (ISO)$7
 70
     0
 40
1.5
 41
2.5
 42
0.0
 43
5.999999999999999
 44
1.0
 45
0.00000001
 46
10.0
 73
     0
 74
     0
 77
     1
 78
     8
 79
     2
140
3.5
143
0.03937
146
1.001485756465366
147
0.762
171
     3
172
     1
176
   256
177
   256
178
   256
179
     2
271
     2
272
     2
274
     3
278
    44
284
     8
340
95
371
    -1
372
    -1
  0
DIMSTYLE
105
B3
330
A
100
AcDbSymbolTableRecord
100
AcDbDimStyleTableRecord
  2
Alternativní (ISO)
 70
     0
 40
1.5
 41
2.5
340
55
342
B4
  0
DIMSTYLE
105
C5
330
A
100
AcDbSymbolTableRecord
100
AcDbDimStyleTableRecord
  2
Základny (ISO)
 70
     0
 40
1.5
 41
2.5
340
55
342
B4
  0
DIMSTYLE
105
99B
102
{ACAD_REACTORS
330
F59
102
}
330
A
100
AcDbSymbolTableRecord
100
AcDbDimStyleTableRecord
  2
AM_ISO
 70
     0
  4
"
 41
3.5
 42
1.0
 43
10.0
 44
1.0
 47
0.1
 48
0.1
 73
     0
 74
     0
 77
     1
 78
     8
 79
     2
140
3.5
141
0.0
143
0.0393701
146
0.71
147
1.5
172
     1
176
   256
177
   256
178
   140
271
     2
272
     3
274
     4
283
     0
284
     8
340
55
371
    -1
372
    -1
1001
ACAD_DSTYLE_DIMJAG
1070
   388
1040
1.5
1001
ACAD_DSTYLE_DIMBREAK
1070
   391
1040
3.75
1001
ACAD_DSTYLE_DIMARC_LENGTH_SYMBOL
1070
   379
1070
     1
1001
ACAD_DSTYLE_DIM_LINETYPE
1070
   380
1005
5B
1001
ACAD_DSTYLE_DIM_EXT1_LINETYPE
1070
   381
1005
5B
1001
ACAD_DSTYLE_DIM_EXT2_LINETYPE
1070
   382
1005
5B
  0
DIMSTYLE
105
9A8
330
A
100
AcDbSymbolTableRecord
100
AcDbDimStyleTableRecord
  2
AM_ISO$3
 70
     0
  4
"
 41
3.5
 42
1.0
 43
10.0
 44
1.0
 47
0.1
 48
0.1
 73
     0
 77
     1
 78
     8
 79
     2
140
3.5
141
0.0
143
0.0393701
146
0.71
147
1.5
176
   256
177
   256
178
   140
271
     2
272
     3
274
     4
283
     0
284
     8
288
     1
289
     0
340
55
371
    -1
372
    -1
1001
ACAD_DSTYLE_DIMBREAK
1070
   391
1040
3.75
1001
ACAD_DSTYLE_DIMJAG
1070
   388
1040
1.5
1001
ACAD_DSTYLE_DIMARC_LENGTH_SYMBOL
1070
   379
1070
     1
1001
ACAD_DSTYLE_DIM_LINETYPE
1070
   380
1005
5B
1001
ACAD_DSTYLE_DIM_EXT1_LINETYPE
1070
   381
1005
5B
1001
ACAD_DSTYLE_DIM_EXT2_LINETYPE
1070
   382
1005
5B
  0
DIMSTYLE
105
9A9
330
A
100
AcDbSymbolTableRecord
100
AcDbDimStyleTableRecord
  2
AM_ISO$4
 70
     0
  4
"
 41
3.5
 42
1.0
 43
10.0
 44
1.0
 47
0.1
 48
0.1
 73
     0
 77
     1
 78
     8
 79
     2
140
3.5
141
0.0
143
0.0393701
146
0.71
147
1.5
176
   256
177
   256
178
   140
271
     2
272
     3
274
     4
283
     0
284
     8
288
     1
289
     0
340
55
371
    -1
372
    -1
1001
ACAD_DSTYLE_DIMBREAK
1070
   391
1040
3.75
1001
ACAD_DSTYLE_DIMJAG
1070
   388
1040
1.5
1001
ACAD_DSTYLE_DIMARC_LENGTH_SYMBOL
1070
   379
1070
     1
1001
ACAD_DSTYLE_DIM_LINETYPE
1070
   380
1005
5B
1001
ACAD_DSTYLE_DIM_EXT1_LINETYPE
1070
   381
1005
5B
1001
ACAD_DSTYLE_DIM_EXT2_LINETYPE
1070
   382
1005
5B
  0
DIMSTYLE
105
9AA
330
A
100
AcDbSymbolTableRecord
100
AcDbDimStyleTableRecord
  2
AM_ISO$6
 70
     0
  4
"
 41
3.5
 42
1.0
 43
10.0
 44
1.0
 47
0.1
 48
0.1
 73
     0
 74
     0
 78
     8
 79
     2
140
3.5
141
0.0
143
0.0393701
146
0.71
147
1.5
172
     1
176
   256
177
   256
178
   140
271
     2
272
     3
274
     4
283
     0
284
     8
340
55
371
    -1
372
    -1
1001
ACAD_DSTYLE_DIMBREAK
1070
   391
1040
3.75
1001
ACAD_DSTYLE_DIMJAG
1070
   388
1040
1.5
1001
ACAD_DSTYLE_DIMARC_LENGTH_SYMBOL
1070
   379
1070
     1
1001
ACAD_DSTYLE_DIM_LINETYPE
1070
   380
1005
5B
1001
ACAD_DSTYLE_DIM_EXT1_LINETYPE
1070
   381
1005
5B
1001
ACAD_DSTYLE_DIM_EXT2_LINETYPE
1070
   382
1005
5B
  0
DIMSTYLE
105
9AB
330
A
100
AcDbSymbolTableRecord
100
AcDbDimStyleTableRecord
  2
AM_ISO$7
 70
     0
  4
"
 41
3.5
 42
1.0
 43
10.0
 44
1.0
 47
0.1
 48
0.1
 73
     0
 74
     0
 77
     1
 78
     8
 79
     2
140
3.5
141
0.0
143
0.0393701
146
0.71
147
1.5
172
     1
176
   256
177
   256
178
   140
271
     2
272
     3
274
     4
283
     0
284
     8
340
55
371
    -1
372
    -1
1001
ACAD_DSTYLE_DIMBREAK
1070
   391
1040
3.75
1001
ACAD_DSTYLE_DIMJAG
1070
   388
1040
1.5
1001
ACAD_DSTYLE_DIMARC_LENGTH_SYMBOL
1070
   379
1070
     1
1001
ACAD_DSTYLE_DIM_LINETYPE
1070
   380
1005
5B
1001
ACAD_DSTYLE_DIM_EXT1_LINETYPE
1070
   381
1005
5B
1001
ACAD_DSTYLE_DIM_EXT2_LINETYPE
1070
   382
1005
5B
  0
DIMSTYLE
105
9AC
330
A
100
AcDbSymbolTableRecord
100
AcDbDimStyleTableRecord
  2
AM_ISO$SF
 70
     0
  4
"
 41
3.5
 42
1.0
 43
10.0
 44
1.0
 47
0.1
 48
0.1
 73
     0
 74
     0
 75
     1
 76
     1
 77
     1
 78
     8
 79
     2
140
3.5
141
0.0
143
0.0393701
146
0.71
147
1.5
172
     1
176
   256
177
   256
178
   140
271
     2
272
     3
274
     4
283
     0
284
     8
340
55
371
    -1
372
    -1
1001
ACAD_DSTYLE_DIMBREAK
1070
   391
1040
3.75
1001
ACAD_DSTYLE_DIMJAG
1070
   388
1040
1.5
1001
ACAD_DSTYLE_DIMARC_LENGTH_SYMBOL
1070
   379
1070
     1
1001
ACAD_DSTYLE_DIM_LINETYPE
1070
   380
1005
5B
1001
ACAD_DSTYLE_DIM_EXT1_LINETYPE
1070
   381
1005
5B
1001
ACAD_DSTYLE_DIM_EXT2_LINETYPE
1070
   382
1005
5B
  0
DIMSTYLE
105
9B1
330
A
100
AcDbSymbolTableRecord
100
AcDbDimStyleTableRecord
  2
AM_ISO$SH
 70
     0
  4
"
 41
3.5
 42
1.0
 43
10.0
 44
1.0
 47
0.1
 48
0.1
 73
     0
 74
     0
 75
     1
 76
     1
 77
     1
 78
     8
 79
     2
140
3.5
141
0.0
143
0.0393701
144
2.0
146
0.71
147
1.5
172
     1
173
     1
176
   256
177
   256
178
   140
271
     2
272
     3
274
     4
283
     0
284
     8
340
55
343
9AD
371
    -1
372
    -1
1001
ACAD_DSTYLE_DIMBREAK
1070
   391
1040
3.75
1001
ACAD_DSTYLE_DIMJAG
1070
   388
1040
1.5
1001
ACAD_DSTYLE_DIMARC_LENGTH_SYMBOL
1070
   379
1070
     1
1001
ACAD_DSTYLE_DIM_LINETYPE
1070
   380
1005
5B
1001
ACAD_DSTYLE_DIM_EXT1_LINETYPE
1070
   381
1005
5B
1001
ACAD_DSTYLE_DIM_EXT2_LINETYPE
1070
   382
1005
5B
  0
DIMSTYLE
105
A01
102
{ACAD_REACTORS
330
BEB
330
C17
330
C4D
330
BBF
330
B93
102
}
330
A
100
AcDbSymbolTableRecord
100
AcDbDimStyleTableRecord
  2
GEN-ISO
 70
     0
  3
<>
  4
"
 40
2.0
 41
2.5
 42
1.0
 43
7.0
 44
1.0
 47
0.1
 48
0.1
 73
     0
 74
     0
 77
     1
 78
     8
140
7.0
141
0.0
143
0.0393701
146
0.71
147
0.6
172
     1
176
   256
177
   256
178
     7
271
     2
272
     2
283
     0
340
55
1001
ACAD_DSTYLE_DIMJAG
1070
   388
1040
1.5
1001
ACAD_DSTYLE_DIMTALN
1070
   392
1070
     0
  0
DIMSTYLE
105
B91
330
A
100
AcDbSymbolTableRecord
100
AcDbDimStyleTableRecord
  2
Standard$0
 70
     0
340
55
1001
ACAD_DSTYLE_DIMBREAK
1070
   391
1040
3.75
1001
ACAD_DSTYLE_DIMJAG
1070
   388
1040
1.5
  0
ENDTAB
  0
TABLE
  2
BLOCK_RECORD
  5
1
330
0
100
AcDbSymbolTable
 70
    53
  0
BLOCK_RECORD
  5
6C
330
1
100
AcDbSymbolTableRecord
100
AcDbBlockTableRecord
  2
*Model_Space
340
6F
  0
BLOCK_RECORD
  5
68
330
1
100
AcDbSymbolTableRecord
100
AcDbBlockTableRecord
  2
*Paper_Space
340
6B
  0
BLOCK_RECORD
  5
70
330
1
100
AcDbSymbolTableRecord
100
AcDbBlockTableRecord
  2
*Paper_Space0
340
73
  0
BLOCK_RECORD
  5
98
330
1
100
AcDbSymbolTableRecord
100
AcDbBlockTableRecord
  2
Filled-1
340
0
  0
BLOCK_RECORD
  5
B4
330
1
100
AcDbSymbolTableRecord
100
AcDbBlockTableRecord
  2
_Closed
340
0
  0
BLOCK_RECORD
  5
BB
330
1
100
AcDbSymbolTableRecord
100
AcDbBlockTableRecord
  2
DatumFilled45
340
0
  0
BLOCK_RECORD
  5
C6
330
1
100
AcDbSymbolTableRecord
100
AcDbBlockTableRecord
  2
WIG-svarovani
340
0
  0
BLOCK_RECORD
  5
CB
330
1
100
AcDbSymbolTableRecord
100
AcDbBlockTableRecord
  2
Popis kotvy_srouby
340
0
  0
BLOCK_RECORD
  5
CF
330
1
100
AcDbSymbolTableRecord
100
AcDbBlockTableRecord
  2
Mater. provedeni Art.
340
0
  0
BLOCK_RECORD
  5
F1
330
1
100
AcDbSymbolTableRecord
100
AcDbBlockTableRecord
  2
Art. s popisy
340
0
  0
BLOCK_RECORD
  5
113
330
1
100
AcDbSymbolTableRecord
100
AcDbBlockTableRecord
  2
Tryskat
340
0
  0
BLOCK_RECORD
  5
117
330
1
100
AcDbSymbolTableRecord
100
AcDbBlockTableRecord
  2
Morit
340
0
  0
BLOCK_RECORD
  5
11B
330
1
100
AcDbSymbolTableRecord
100
AcDbBlockTableRecord
  2
zinkovat
340
0
  0
BLOCK_RECORD
  5
11F
330
1
100
AcDbSymbolTableRecord
100
AcDbBlockTableRecord
  2
Nater
340
0
  0
BLOCK_RECORD
  5
123
330
1
100
AcDbSymbolTableRecord
100
AcDbBlockTableRecord
  2
Brus
340
0
  0
BLOCK_RECORD
  5
127
330
1
100
AcDbSymbolTableRecord
100
AcDbBlockTableRecord
  2
Elektroliticky lestit
340
0
  0
BLOCK_RECORD
  5
12B
330
1
100
AcDbSymbolTableRecord
100
AcDbBlockTableRecord
  2
Mořit de.
340
0
  0
BLOCK_RECORD
  5
12F
330
1
100
AcDbSymbolTableRecord
100
AcDbBlockTableRecord
  2
Žlab bez spádu De.
340
0
  0
BLOCK_RECORD
  5
133
330
1
100
AcDbSymbolTableRecord
100
AcDbBlockTableRecord
  2
Žlab bez spádu Ang.
340
0
  0
BLOCK_RECORD
  5
137
330
1
100
AcDbSymbolTableRecord
100
AcDbBlockTableRecord
  2
Aschl Nirotec-tryskání
340
0
  0
BLOCK_RECORD
  5
13B
330
1
100
AcDbSymbolTableRecord
100
AcDbBlockTableRecord
  2
Popis šrouby_kotvy Ang.
340
0
  0
BLOCK_RECORD
  5
13F
330
1
100
AcDbSymbolTableRecord
100
AcDbBlockTableRecord
  2
Spád žlabu Ang.
340
0
  0
BLOCK_RECORD
  5
143
330
1
100
AcDbSymbolTableRecord
100
AcDbBlockTableRecord
  2
Spád žlabu De.
340
0
  0
BLOCK_RECORD
  5
147
330
1
100
AcDbSymbolTableRecord
100
AcDbBlockTableRecord
  2
Kartáč + folie
340
0
  0
BLOCK_RECORD
  5
14B
330
1
100
AcDbSymbolTableRecord
100
AcDbBlockTableRecord
  2
Komplet tryskat De.
340
0
  0
BLOCK_RECORD
  5
14F
330
1
100
AcDbSymbolTableRecord
100
AcDbBlockTableRecord
  2
Mořit Ang.
340
0
  0
BLOCK_RECORD
  5
153
330
1
100
AcDbSymbolTableRecord
100
AcDbBlockTableRecord
  2
Rámečky Default Border
340
0
  0
BLOCK_RECORD
  5
19A
330
1
100
AcDbSymbolTableRecord
100
AcDbBlockTableRecord
  2
Rohová razítka ACO-razitko
340
0
  0
BLOCK_RECORD
  5
4D5
330
1
100
AcDbSymbolTableRecord
100
AcDbBlockTableRecord
  2
KUSOVNÍK
340
0
  0
BLOCK_RECORD
  5
54A
330
1
100
AcDbSymbolTableRecord
100
AcDbBlockTableRecord
  2
*D27
340
0
  0
BLOCK_RECORD
  5
62D
330
1
100
AcDbSymbolTableRecord
100
AcDbBlockTableRecord
  2
*D28
340
0
  0
BLOCK_RECORD
  5
706
330
1
100
AcDbSymbolTableRecord
100
AcDbBlockTableRecord
  2
*D29
340
0
  0
BLOCK_RECORD
  5
7AE
330
1
100
AcDbSymbolTableRecord
100
AcDbBlockTableRecord
  2
*D30
340
0
  0
BLOCK_RECORD
  5
88F
330
1
100
AcDbSymbolTableRecord
100
AcDbBlockTableRecord
  2
Pozice1
340
0
  0
BLOCK_RECORD
  5
8A5
330
1
100
AcDbSymbolTableRecord
100
AcDbBlockTableRecord
  2
Pozice2
340
0
  0
BLOCK_RECORD
  5
8B7
330
1
100
AcDbSymbolTableRecord
100
AcDbBlockTableRecord
  2
Pozice3
340
0
  0
BLOCK_RECORD
  5
8C9
330
1
100
AcDbSymbolTableRecord
100
AcDbBlockTableRecord
  2
Pozice4
340
0
  0
BLOCK_RECORD
  5
9AD
330
1
100
AcDbSymbolTableRecord
100
AcDbBlockTableRecord
  2
GENAXEH
340
0
  0
BLOCK_RECORD
  5
9C0
330
1
100
AcDbSymbolTableRecord
100
AcDbBlockTableRecord
  2
*D36
340
0
  0
BLOCK_RECORD
  5
9CC
330
1
100
AcDbSymbolTableRecord
100
AcDbBlockTableRecord
  2
*D37
340
0
  0
BLOCK_RECORD
  5
9D8
330
1
100
AcDbSymbolTableRecord
100
AcDbBlockTableRecord
  2
*D38
340
0
  0
BLOCK_RECORD
  5
9E4
330
1
100
AcDbSymbolTableRecord
100
AcDbBlockTableRecord
  2
*D39
340
0
  0
BLOCK_RECORD
  5
9F0
330
1
100
AcDbSymbolTableRecord
100
AcDbBlockTableRecord
  2
*D40
340
0
  0
BLOCK_RECORD
  5
AD6
330
1
100
AcDbSymbolTableRecord
100
AcDbBlockTableRecord
  2
*D41
340
0
  0
BLOCK_RECORD
  5
AE2
330
1
100
AcDbSymbolTableRecord
100
AcDbBlockTableRecord
  2
*D42
340
0
  0
BLOCK_RECORD
  5
AEE
330
1
100
AcDbSymbolTableRecord
100
AcDbBlockTableRecord
  2
*D43
340
0
  0
BLOCK_RECORD
  5
AFA
330
1
100
AcDbSymbolTableRecord
100
AcDbBlockTableRecord
  2
*D44
340
0
  0
BLOCK_RECORD
  5
B06
330
1
100
AcDbSymbolTableRecord
100
AcDbBlockTableRecord
  2
*D45
340
0
  0
BLOCK_RECORD
  5
B94
330
1
100
AcDbSymbolTableRecord
100
AcDbBlockTableRecord
  2
*D46
340
0
  0
BLOCK_RECORD
  5
BC0
330
1
100
AcDbSymbolTableRecord
100
AcDbBlockTableRecord
  2
*D47
340
0
  0
BLOCK_RECORD
  5
BEC
330
1
100
AcDbSymbolTableRecord
100
AcDbBlockTableRecord
  2
*D48
340
0
  0
BLOCK_RECORD
  5
C18
330
1
100
AcDbSymbolTableRecord
100
AcDbBlockTableRecord
  2
*D49
340
0
  0
BLOCK_RECORD
  5
C4E
330
1
100
AcDbSymbolTableRecord
100
AcDbBlockTableRecord
  2
*D50
340
0
  0
ENDTAB
  0
ENDSEC
  0
SECTION
  2
BLOCKS
  0
BLOCK
  5
6D
330
6C
100
AcDbEntity
  8
0
100
AcDbBlockBegin
  2
*Model_Space
 70
     0
 10
0.0
 20
0.0
 30
0.0
  3
*Model_Space
  1

  0
ENDBLK
  5
6E
330
6C
100
AcDbEntity
  8
0
100
AcDbBlockEnd
  0
BLOCK
  5
69
330
68
100
AcDbEntity
 67
     1
  8
0
100
AcDbBlockBegin
  2
*Paper_Space
 70
     0
 10
0.0
 20
0.0
 30
0.0
  3
*Paper_Space
  1

  0
ENDBLK
  5
6A
330
68
100
AcDbEntity
 67
     1
  8
0
100
AcDbBlockEnd
  0
BLOCK
  5
71
330
70
100
AcDbEntity
 67
     1
  8
0
100
AcDbBlockBegin
  2
*Paper_Space0
 70
     0
 10
0.0
 20
0.0
 30
0.0
  3
*Paper_Space0
  1

  0
ENDBLK
  5
72
330
70
100
AcDbEntity
 67
     1
  8
0
100
AcDbBlockEnd
  0
BLOCK
  5
99
330
98
100
AcDbEntity
  8
0
100
AcDbBlockBegin
  2
Filled-1
 70
     0
 10
0.0
 20
0.0
 30
0.0
  3
Filled-1
  1

  0
LINE
  5
9B
330
98
100
AcDbEntity
  8
0
 62
     0
100
AcDbLine
 10
-1.0
 20
0.0
 30
0.0
 11
0.0
 21
0.0
 31
0.0
  0
POLYLINE
  5
9D
330
98
100
AcDbEntity
  8
0
 62
     0
100
AcDb2dPolyline
 66
     1
 10
0.0
 20
0.0
 30
0.0
 70
   128
  0
VERTEX
  5
9E
330
9D
100
AcDbEntity
  8
0
 62
     0
100
AcDbVertex
100
AcDb2dVertex
 10
-1.0
 20
-0.1
 30
0.0
  0
VERTEX
  5
9F
330
9D
100
AcDbEntity
  8
0
 62
     0
100
AcDbVertex
100
AcDb2dVertex
 10
0.0
 20
0.0
 30
0.0
  0
VERTEX
  5
A1
330
9D
100
AcDbEntity
  8
0
 62
     0
100
AcDbVertex
100
AcDb2dVertex
 10
-1.0
 20
0.1
 30
0.0
  0
VERTEX
  5
A2
330
9D
100
AcDbEntity
  8
0
 62
     0
100
AcDbVertex
100
AcDb2dVertex
 10
-1.0
 20
-0.1
 30
0.0
  0
SEQEND
  5
A0
330
9D
100
AcDbEntity
  8
0
 62
     0
  0
SOLID
  5
A3
330
98
100
AcDbEntity
  8
0
 62
     0
100
AcDbTrace
 10
-1.0
 20
-0.1
 30
0.0
 11
0.0
 21
0.0
 31
0.0
 12
-1.0
 22
0.1
 32
0.0
 13
-1.0
 23
-0.1
 33
0.0
  0
LINE
  5
A4
330
98
100
AcDbEntity
  8
0
 62
     0
100
AcDbLine
 10
-1.0
 20
-0.1
 30
0.0
 11
0.0
 21
0.0
 31
0.0
  0
LINE
  5
A5
330
98
100
AcDbEntity
  8
0
 62
     0
100
AcDbLine
 10
0.0
 20
0.0
 30
0.0
 11
-1.0
 21
0.1
 31
0.0
  0
LINE
  5
A6
330
98
100
AcDbEntity
  8
0
 62
     0
100
AcDbLine
 10
-1.0
 20
0.1
 30
0.0
 11
-1.0
 21
-0.1
 31
0.0
  0
ENDBLK
  5
9A
330
98
100
AcDbEntity
  8
0
100
AcDbBlockEnd
  0
BLOCK
  5
B9
330
B4
100
AcDbEntity
  8
0
100
AcDbBlockBegin
  2
_Closed
 70
     0
 10
0.0
 20
0.0
 30
0.0
  3
_Closed
  1

  0
LINE
  5
B5
330
B4
100
AcDbEntity
  8
0
  6
ByBlock
 62
     0
370
    -2
100
AcDbLine
 10
-1.0
 20
0.1666666666666666
 30
0.0
 11
0.0
 21
0.0
 31
0.0
  0
LINE
  5
B6
330
B4
100
AcDbEntity
  8
0
  6
ByBlock
 62
     0
370
    -2
100
AcDbLine
 10
0.0
 20
0.0
 30
0.0
 11
-1.0
 21
-0.1666666666666666
 31
0.0
  0
LINE
  5
B7
330
B4
100
AcDbEntity
  8
0
  6
ByBlock
 62
     0
370
    -2
100
AcDbLine
 10
-1.0
 20
0.1666666666666666
 30
0.0
 11
-1.0
 21
-0.1666666666666666
 31
0.0
  0
LINE
  5
B8
330
B4
100
AcDbEntity
  8
0
  6
ByBlock
 62
     0
370
    -2
100
AcDbLine
 10
0.0
 20
0.0
 30
0.0
 11
-1.0
 21
0.0
 31
0.0
  0
ENDBLK
  5
BA
330
B4
100
AcDbEntity
  8
0
100
AcDbBlockEnd
  0
BLOCK
  5
BC
330
BB
100
AcDbEntity
  8
0
100
AcDbBlockBegin
  2
DatumFilled45
 70
     0
 10
0.0
 20
0.0
 30
0.0
  3
DatumFilled45
  1

  0
POLYLINE
  5
BE
330
BB
100
AcDbEntity
  8
0
 62
     0
100
AcDb2dPolyline
 66
     1
 10
0.0
 20
0.0
 30
0.0
 70
   128
  0
VERTEX
  5
BF
330
BE
100
AcDbEntity
  8
0
 62
     0
100
AcDbVertex
100
AcDb2dVertex
 10
0.0
 20
1.0
 30
0.0
  0
VERTEX
  5
C0
330
BE
100
AcDbEntity
  8
0
 62
     0
100
AcDbVertex
100
AcDb2dVertex
 10
0.0
 20
-1.0
 30
0.0
  0
VERTEX
  5
C2
330
BE
100
AcDbEntity
  8
0
 62
     0
100
AcDbVertex
100
AcDb2dVertex
 10
-1.0
 20
0.0
 30
0.0
  0
VERTEX
  5
C3
330
BE
100
AcDbEntity
  8
0
 62
     0
100
AcDbVertex
100
AcDb2dVertex
 10
0.0
 20
1.0
 30
0.0
  0
SEQEND
  5
C1
330
BE
100
AcDbEntity
  8
0
 62
     0
  0
SOLID
  5
C4
330
BB
100
AcDbEntity
  8
0
 62
     0
100
AcDbTrace
 10
0.0
 20
1.0
 30
0.0
 11
0.0
 21
-1.0
 31
0.0
 12
-1.0
 22
0.0
 32
0.0
 13
0.0
 23
1.0
 33
0.0
  0
ENDBLK
  5
BD
330
BB
100
AcDbEntity
  8
0
100
AcDbBlockEnd
  0
BLOCK
  5
C7
330
C6
100
AcDbEntity
  8
0
100
AcDbBlockBegin
  2
WIG-svarovani
 70
     0
 10
0.0
 20
0.0
 30
0.0
  3
WIG-svarovani
  1

  0
MTEXT
  5
C9
102
{ACAD_XDICTIONARY
360
F7B
102
}
330
C6
100
AcDbEntity
  8
Značka (ISO)
100
AcDbMText
 10
-57.87338256835937
 20
16.31795931607484
 30
0.0
 40
3.499999940395355
 41
115.7467651367187
 71
     1
 72
     1
  1
WIG Schweisung, Nahte sauber geschliffen und poliert\PSichtstege geschliffen mit 240 Korn und abgeklebt.\P{\H0.85714x; \P\H1.1667x;WIG svarovani- svary dle potreby zabrousit.\PPohledove plochy brousit (vel. brusnych zrn 240)\Pa polepit paskou}
  7
Text poznámky (ISO)
 73
     1
 44
0.9596589207649227
  0
ENDBLK
  5
C8
330
C6
100
AcDbEntity
  8
0
100
AcDbBlockEnd
  0
BLOCK
  5
CC
330
CB
100
AcDbEntity
  8
0
100
AcDbBlockBegin
  2
Popis kotvy_srouby
 70
     0
 10
0.0
 20
0.0
 30
0.0
  3
Popis kotvy_srouby
  1

  0
MTEXT
  5
CE
330
CB
100
AcDbEntity
  8
Značka (ISO)
100
AcDbMText
 10
-39.79761123657226
 20
21.84130281209946
 30
0.0
 40
3.499999940395355
 41
0.0
 71
     1
 72
     1
  1
Vzdalenost nivel. sroubu ca. 1500\PVzdalenost kotev ca. 400\PVzdalenost dist. koliku ca. 250\P\PAbstand der Nivellieschraben ca.1500\PAbstand der Maueranker ca.400\PAbstand der Distanzstege ca.250\P
  7
Text poznámky (ISO)
 73
     2
 44
0.9878841638565063
  0
ENDBLK
  5
CD
330
CB
100
AcDbEntity
  8
0
100
AcDbBlockEnd
  0
BLOCK
  5
D0
330
CF
100
AcDbEntity
  8
0
100
AcDbBlockBegin
  2
Mater. provedeni Art.
 70
     0
 10
0.0
 20
0.0
 30
0.0
  3
Mater. provedeni Art.
  1

  0
LINE
  5
D2
330
CF
100
AcDbEntity
  8
Geometrie náčrtu (ISO)
100
AcDbLine
 10
-35.0
 20
-22.5
 30
0.0
 11
35.0
 21
-22.5
 31
0.0
  0
LINE
  5
D3
330
CF
100
AcDbEntity
  8
Geometrie náčrtu (ISO)
100
AcDbLine
 10
35.0
 20
-22.5
 30
0.0
 11
34.99999999999996
 21
-13.49999999999998
 31
0.0
  0
LINE
  5
D4
330
CF
100
AcDbEntity
  8
Geometrie náčrtu (ISO)
100
AcDbLine
 10
34.99999999999996
 20
-13.49999999999998
 30
0.0
 11
-35.00000000000003
 21
-13.49999999999998
 31
0.0
  0
LINE
  5
D5
330
CF
100
AcDbEntity
  8
Geometrie náčrtu (ISO)
100
AcDbLine
 10
-35.00000000000003
 20
-13.49999999999998
 30
0.0
 11
-35.0
 21
-22.5
 31
0.0
  0
LINE
  5
D6
330
CF
100
AcDbEntity
  8
Geometrie náčrtu (ISO)
100
AcDbLine
 10
-35.00000000000003
 20
-13.49999999999998
 30
0.0
 11
34.99999999999996
 21
-13.49999999999998
 31
0.0
  0
LINE
  5
D7
330
CF
100
AcDbEntity
  8
Geometrie náčrtu (ISO)
100
AcDbLine
 10
34.99999999999996
 20
-13.49999999999998
 30
0.0
 11
34.99999999999996
 21
-4.499999999999992
 31
0.0
  0
LINE
  5
D8
330
CF
100
AcDbEntity
  8
Geometrie náčrtu (ISO)
100
AcDbLine
 10
34.99999999999996
 20
-4.499999999999992
 30
0.0
 11
-35.00000000000003
 21
-4.499999999999992
 31
0.0
  0
LINE
  5
D9
330
CF
100
AcDbEntity
  8
Geometrie náčrtu (ISO)
100
AcDbLine
 10
-35.00000000000003
 20
-4.499999999999992
 30
0.0
 11
-35.00000000000003
 21
-13.49999999999998
 31
0.0
  0
LINE
  5
DA
330
CF
100
AcDbEntity
  8
Geometrie náčrtu (ISO)
100
AcDbLine
 10
-35.00000000000003
 20
-4.499999999999992
 30
0.0
 11
34.99999999999996
 21
-4.499999999999992
 31
0.0
  0
LINE
  5
DB
330
CF
100
AcDbEntity
  8
Geometrie náčrtu (ISO)
100
AcDbLine
 10
34.99999999999996
 20
-4.499999999999992
 30
0.0
 11
34.99999999999996
 21
4.499999999999992
 31
0.0
  0
LINE
  5
DC
330
CF
100
AcDbEntity
  8
Geometrie náčrtu (ISO)
100
AcDbLine
 10
34.99999999999996
 20
4.499999999999992
 30
0.0
 11
-35.00000000000003
 21
4.499999999999992
 31
0.0
  0
LINE
  5
DD
330
CF
100
AcDbEntity
  8
Geometrie náčrtu (ISO)
100
AcDbLine
 10
-35.00000000000003
 20
4.499999999999992
 30
0.0
 11
-35.00000000000003
 21
-4.499999999999992
 31
0.0
  0
LINE
  5
DE
330
CF
100
AcDbEntity
  8
Geometrie náčrtu (ISO)
100
AcDbLine
 10
-35.00000000000003
 20
4.499999999999992
 30
0.0
 11
34.99999999999996
 21
4.499999999999992
 31
0.0
  0
LINE
  5
DF
330
CF
100
AcDbEntity
  8
Geometrie náčrtu (ISO)
100
AcDbLine
 10
34.99999999999996
 20
4.499999999999992
 30
0.0
 11
34.99999999999996
 21
13.50000000000001
 31
0.0
  0
LINE
  5
E0
330
CF
100
AcDbEntity
  8
Geometrie náčrtu (ISO)
100
AcDbLine
 10
34.99999999999996
 20
13.50000000000001
 30
0.0
 11
-35.00000000000003
 21
13.50000000000001
 31
0.0
  0
LINE
  5
E1
330
CF
100
AcDbEntity
  8
Geometrie náčrtu (ISO)
100
AcDbLine
 10
-35.00000000000003
 20
13.50000000000001
 30
0.0
 11
-35.00000000000003
 21
4.499999999999992
 31
0.0
  0
LINE
  5
E2
330
CF
100
AcDbEntity
  8
Geometrie náčrtu (ISO)
100
AcDbLine
 10
-35.00000000000003
 20
13.50000000000001
 30
0.0
 11
34.99999999999996
 21
13.50000000000001
 31
0.0
  0
LINE
  5
E3
330
CF
100
AcDbEntity
  8
Geometrie náčrtu (ISO)
100
AcDbLine
 10
34.99999999999996
 20
13.50000000000001
 30
0.0
 11
34.99999999999996
 21
22.5
 31
0.0
  0
LINE
  5
E4
330
CF
100
AcDbEntity
  8
Geometrie náčrtu (ISO)
100
AcDbLine
 10
34.99999999999996
 20
22.5
 30
0.0
 11
-35.00000000000003
 21
22.5
 31
0.0
  0
LINE
  5
E5
330
CF
100
AcDbEntity
  8
Geometrie náčrtu (ISO)
100
AcDbLine
 10
-35.00000000000003
 20
22.5
 30
0.0
 11
-35.00000000000003
 21
13.50000000000001
 31
0.0
  0
LINE
  5
E6
330
CF
100
AcDbEntity
  8
Geometrie náčrtu (ISO)
100
AcDbLine
 10
-6.999999999999992
 20
22.5
 30
0.0
 11
-6.999999999999992
 21
-22.5
 31
0.0
  0
MTEXT
  5
E7
330
CF
100
AcDbEntity
  8
Značka (ISO)
100
AcDbMText
 10
-5.126613448311374
 20
11.7684641726084
 30
0.0
 40
5.0
 41
0.0
 71
     1
 72
     1
  1
\fTahoma|b0|i0;\H5.0000;xxxxxxxxxxx
  7
Text poznámky (ISO)
 73
     1
 44
1.0
  0
MTEXT
  5
E8
330
CF
100
AcDbEntity
  8
Značka (ISO)
100
AcDbMText
 10
-33.0130165251342
 20
11.7684641726084
 30
0.0
 40
5.0
 41
20.42139291763306
 71
     1
 72
     1
  1
\fTahoma|b0|i0;\H5.0000;xxxxxx
  7
Text poznámky (ISO)
 73
     1
 44
1.0
  0
MTEXT
  5
E9
330
CF
100
AcDbEntity
  8
Značka (ISO)
100
AcDbMText
 10
-32.07756235018873
 20
20.30710993714994
 30
0.0
 40
5.0
 41
13.92583036716939
 71
     1
 72
     1
  1
\fTahoma|b0|i0;\H5.0000;Art.
  7
Text poznámky (ISO)
 73
     1
 44
1.0
  0
MTEXT
  5
EA
330
CF
100
AcDbEntity
  8
Značka (ISO)
100
AcDbMText
 10
4.291672002492318
 20
20.30710993714994
 30
0.0
 40
5.0
 41
0.0
 71
     1
 72
     1
  1
\fTahoma|b0|i0;\H5.0000;Mat.
  7
Text poznámky (ISO)
 73
     1
 44
1.0
  0
MTEXT
  5
EB
330
CF
100
AcDbEntity
  8
Značka (ISO)
100
AcDbMText
 10
-33.0130165251342
 20
2.473781856899818
 30
0.0
 40
5.0
 41
20.42139291763306
 71
     1
 72
     1
  1
\fTahoma|b0|i0;\H5.0000;xxxxxx
  7
Text poznámky (ISO)
 73
     1
 44
1.0
  0
MTEXT
  5
EC
330
CF
100
AcDbEntity
  8
Značka (ISO)
100
AcDbMText
 10
-5.126613448311374
 20
2.473781856899818
 30
0.0
 40
5.0
 41
0.0
 71
     1
 72
     1
  1
\fTahoma|b0|i0;\H5.0000;xxxxxxxxxxx
  7
Text poznámky (ISO)
 73
     1
 44
1.0
  0
MTEXT
  5
ED
330
CF
100
AcDbEntity
  8
Značka (ISO)
100
AcDbMText
 10
-33.0130165251342
 20
-6.862452441171491
 30
0.0
 40
5.0
 41
20.42139291763306
 71
     1
 72
     1
  1
\fTahoma|b0|i0;\H5.0000;xxxxxx
  7
Text poznámky (ISO)
 73
     1
 44
1.0
  0
MTEXT
  5
EE
330
CF
100
AcDbEntity
  8
Značka (ISO)
100
AcDbMText
 10
-5.126613448311374
 20
-6.862452441171491
 30
0.0
 40
5.0
 41
0.0
 71
     1
 72
     1
  1
\fTahoma|b0|i0;\H5.0000;xxxxxxxxxxx
  7
Text poznámky (ISO)
 73
     1
 44
1.0
  0
MTEXT
  5
EF
330
CF
100
AcDbEntity
  8
Značka (ISO)
100
AcDbMText
 10
-33.0130165251342
 20
-15.52177565039578
 30
0.0
 40
5.0
 41
20.42139291763306
 71
     1
 72
     1
  1
\fTahoma|b0|i0;\H5.0000;xxxxxx
  7
Text poznámky (ISO)
 73
     1
 44
1.0
  0
MTEXT
  5
F0
330
CF
100
AcDbEntity
  8
Značka (ISO)
100
AcDbMText
 10
-5.126613448311374
 20
-15.52177565039578
 30
0.0
 40
5.0
 41
0.0
 71
     1
 72
     1
  1
\fTahoma|b0|i0;\H5.0000;xxxxxxxxxxx
  7
Text poznámky (ISO)
 73
     1
 44
1.0
  0
ENDBLK
  5
D1
330
CF
100
AcDbEntity
  8
0
100
AcDbBlockEnd
  0
BLOCK
  5
F2
330
F1
100
AcDbEntity
  8
0
100
AcDbBlockBegin
  2
Art. s popisy
 70
     0
 10
0.0
 20
0.0
 30
0.0
  3
Art. s popisy
  1

  0
LINE
  5
F4
330
F1
100
AcDbEntity
  8
Geometrie náčrtu (ISO)
100
AcDbLine
 10
-60.00000000000081
 20
-22.5
 30
0.0
 11
59.99999999999911
 21
-22.5
 31
0.0
  0
LINE
  5
F5
330
F1
100
AcDbEntity
  8
Geometrie náčrtu (ISO)
100
AcDbLine
 10
59.99999999999911
 20
-22.5
 30
0.0
 11
60.00000000000081
 21
-13.50000000000001
 31
0.0
  0
LINE
  5
F6
330
F1
100
AcDbEntity
  8
Geometrie náčrtu (ISO)
100
AcDbLine
 10
60.00000000000081
 20
-13.50000000000001
 30
0.0
 11
-60.00000000000081
 21
-13.49999999999998
 31
0.0
  0
LINE
  5
F7
330
F1
100
AcDbEntity
  8
Geometrie náčrtu (ISO)
100
AcDbLine
 10
-60.00000000000081
 20
-13.49999999999998
 30
0.0
 11
-60.00000000000081
 21
-22.5
 31
0.0
  0
LINE
  5
F8
330
F1
100
AcDbEntity
  8
Geometrie náčrtu (ISO)
100
AcDbLine
 10
-60.00000000000081
 20
-13.49999999999998
 30
0.0
 11
60.00000000000081
 21
-13.50000000000001
 31
0.0
  0
LINE
  5
F9
330
F1
100
AcDbEntity
  8
Geometrie náčrtu (ISO)
100
AcDbLine
 10
60.00000000000081
 20
-13.50000000000001
 30
0.0
 11
59.99999999999911
 21
-4.500000000000028
 31
0.0
  0
LINE
  5
FA
330
F1
100
AcDbEntity
  8
Geometrie náčrtu (ISO)
100
AcDbLine
 10
59.99999999999911
 20
-4.500000000000028
 30
0.0
 11
-60.00000000000081
 21
-4.499999999999992
 31
0.0
  0
LINE
  5
FB
330
F1
100
AcDbEntity
  8
Geometrie náčrtu (ISO)
100
AcDbLine
 10
-60.00000000000081
 20
-4.499999999999992
 30
0.0
 11
-60.00000000000081
 21
-13.49999999999998
 31
0.0
  0
LINE
  5
FC
330
F1
100
AcDbEntity
  8
Geometrie náčrtu (ISO)
100
AcDbLine
 10
-60.00000000000081
 20
-4.499999999999992
 30
0.0
 11
59.99999999999911
 21
-4.500000000000028
 31
0.0
  0
LINE
  5
FD
330
F1
100
AcDbEntity
  8
Geometrie náčrtu (ISO)
100
AcDbLine
 10
59.99999999999911
 20
-4.500000000000028
 30
0.0
 11
59.99999999999911
 21
4.499999999999957
 31
0.0
  0
LINE
  5
FE
330
F1
100
AcDbEntity
  8
Geometrie náčrtu (ISO)
100
AcDbLine
 10
59.99999999999911
 20
4.499999999999957
 30
0.0
 11
-60.00000000000081
 21
4.499999999999992
 31
0.0
  0
LINE
  5
FF
330
F1
100
AcDbEntity
  8
Geometrie náčrtu (ISO)
100
AcDbLine
 10
-60.00000000000081
 20
4.499999999999992
 30
0.0
 11
-60.00000000000081
 21
-4.499999999999992
 31
0.0
  0
LINE
  5
100
330
F1
100
AcDbEntity
  8
Geometrie náčrtu (ISO)
100
AcDbLine
 10
-60.00000000000081
 20
4.499999999999992
 30
0.0
 11
59.99999999999911
 21
4.499999999999957
 31
0.0
  0
LINE
  5
101
330
F1
100
AcDbEntity
  8
Geometrie náčrtu (ISO)
100
AcDbLine
 10
59.99999999999911
 20
4.499999999999957
 30
0.0
 11
59.99999999999911
 21
13.49999999999998
 31
0.0
  0
LINE
  5
102
330
F1
100
AcDbEntity
  8
Geometrie náčrtu (ISO)
100
AcDbLine
 10
59.99999999999911
 20
13.49999999999998
 30
0.0
 11
-60.00000000000081
 21
13.50000000000001
 31
0.0
  0
LINE
  5
103
330
F1
100
AcDbEntity
  8
Geometrie náčrtu (ISO)
100
AcDbLine
 10
-60.00000000000081
 20
13.50000000000001
 30
0.0
 11
-60.00000000000081
 21
4.499999999999992
 31
0.0
  0
LINE
  5
104
330
F1
100
AcDbEntity
  8
Geometrie náčrtu (ISO)
100
AcDbLine
 10
-60.00000000000081
 20
13.50000000000001
 30
0.0
 11
59.99999999999911
 21
13.49999999999998
 31
0.0
  0
LINE
  5
105
330
F1
100
AcDbEntity
  8
Geometrie náčrtu (ISO)
100
AcDbLine
 10
59.99999999999911
 20
13.49999999999998
 30
0.0
 11
59.99999999999911
 21
22.49999999999996
 31
0.0
  0
LINE
  5
106
330
F1
100
AcDbEntity
  8
Geometrie náčrtu (ISO)
100
AcDbLine
 10
59.99999999999911
 20
22.49999999999996
 30
0.0
 11
-60.00000000000081
 21
22.5
 31
0.0
  0
LINE
  5
107
330
F1
100
AcDbEntity
  8
Geometrie náčrtu (ISO)
100
AcDbLine
 10
-60.00000000000081
 20
22.5
 30
0.0
 11
-60.00000000000081
 21
13.50000000000001
 31
0.0
  0
LINE
  5
108
330
F1
100
AcDbEntity
  8
Geometrie náčrtu (ISO)
100
AcDbLine
 10
-32.00000000000081
 20
22.5
 30
0.0
 11
-32.00000000000081
 21
-22.5
 31
0.0
  0
MTEXT
  5
109
330
F1
100
AcDbEntity
  8
Značka (ISO)
100
AcDbMText
 10
-27.63552601875791
 20
11.7684641726084
 30
0.0
 40
5.0
 41
0.0
 71
     1
 72
     1
  1
\fTahoma|b0|i0;\H5.0000;xxxxxxxxxxx
  7
Text poznámky (ISO)
 73
     1
 44
1.0
  0
MTEXT
  5
10A
330
F1
100
AcDbEntity
  8
Značka (ISO)
100
AcDbMText
 10
-55.52192909558073
 20
11.7684641726084
 30
0.0
 40
5.0
 41
20.42139291763306
 71
     1
 72
     1
  1
\fTahoma|b0|i0;\H5.0000;xxxxxx
  7
Text poznámky (ISO)
 73
     1
 44
1.0
  0
MTEXT
  5
10B
330
F1
100
AcDbEntity
  8
Značka (ISO)
100
AcDbMText
 10
-54.58647492063526
 20
20.30710993714994
 30
0.0
 40
5.0
 41
13.92583036716939
 71
     1
 72
     1
  1
\fTahoma|b0|i0;\H5.0000;Art.
  7
Text poznámky (ISO)
 73
     1
 44
1.0
  0
MTEXT
  5
10C
330
F1
100
AcDbEntity
  8
Značka (ISO)
100
AcDbMText
 10
-18.21724056795421
 20
20.30710993714994
 30
0.0
 40
5.0
 41
0.0
 71
     1
 72
     1
  1
\fTahoma|b0|i0;\H5.0000;Popis.
  7
Text poznámky (ISO)
 73
     1
 44
1.0
  0
MTEXT
  5
10D
330
F1
100
AcDbEntity
  8
Značka (ISO)
100
AcDbMText
 10
-55.52192909558073
 20
2.473781856899818
 30
0.0
 40
5.0
 41
20.42139291763306
 71
     1
 72
     1
  1
\fTahoma|b0|i0;\H5.0000;xxxxxx
  7
Text poznámky (ISO)
 73
     1
 44
1.0
  0
MTEXT
  5
10E
330
F1
100
AcDbEntity
  8
Značka (ISO)
100
AcDbMText
 10
-27.63552601875791
 20
2.473781856899818
 30
0.0
 40
5.0
 41
0.0
 71
     1
 72
     1
  1
\fTahoma|b0|i0;\H5.0000;xxxxxxxxxxx
  7
Text poznámky (ISO)
 73
     1
 44
1.0
  0
MTEXT
  5
10F
330
F1
100
AcDbEntity
  8
Značka (ISO)
100
AcDbMText
 10
-55.52192909558073
 20
-6.862452441171491
 30
0.0
 40
5.0
 41
20.42139291763306
 71
     1
 72
     1
  1
\fTahoma|b0|i0;\H5.0000;xxxxxx
  7
Text poznámky (ISO)
 73
     1
 44
1.0
  0
MTEXT
  5
110
330
F1
100
AcDbEntity
  8
Značka (ISO)
100
AcDbMText
 10
-27.63552601875791
 20
-6.862452441171491
 30
0.0
 40
5.0
 41
0.0
 71
     1
 72
     1
  1
\fTahoma|b0|i0;\H5.0000;xxxxxxxxxxx
  7
Text poznámky (ISO)
 73
     1
 44
1.0
  0
MTEXT
  5
111
330
F1
100
AcDbEntity
  8
Značka (ISO)
100
AcDbMText
 10
-55.52192909558073
 20
-15.52177565039578
 30
0.0
 40
5.0
 41
20.42139291763306
 71
     1
 72
     1
  1
\fTahoma|b0|i0;\H5.0000;xxxxxx
  7
Text poznámky (ISO)
 73
     1
 44
1.0
  0
MTEXT
  5
112
330
F1
100
AcDbEntity
  8
Značka (ISO)
100
AcDbMText
 10
-27.63552601875791
 20
-15.52177565039578
 30
0.0
 40
5.0
 41
0.0
 71
     1
 72
     1
  1
\fTahoma|b0|i0;\H5.0000;xxxxxxxxxxx
  7
Text poznámky (ISO)
 73
     1
 44
1.0
  0
ENDBLK
  5
F3
330
F1
100
AcDbEntity
  8
0
100
AcDbBlockEnd
  0
BLOCK
  5
114
330
113
100
AcDbEntity
  8
0
100
AcDbBlockBegin
  2
Tryskat
 70
     0
 10
0.0
 20
0.0
 30
0.0
  3
Tryskat
  1

  0
MTEXT
  5
116
330
113
100
AcDbEntity
  8
Značka (ISO)
100
AcDbMText
 10
-30.20239114761352
 20
5.036920197308063
 30
0.0
 40
3.499999940395355
 41
0.0
 71
     1
 72
     1
  1
Tryskat \P( Blasted , Glasperlstrahken)
  7
Text poznámky (ISO)
 73
     2
 44
0.9878841638565063
  0
ENDBLK
  5
115
330
113
100
AcDbEntity
  8
0
100
AcDbBlockEnd
  0
BLOCK
  5
118
330
117
100
AcDbEntity
  8
0
100
AcDbBlockBegin
  2
Morit
 70
     0
 10
0.0
 20
0.0
 30
0.0
  3
Morit
  1

  0
MTEXT
  5
11A
330
117
100
AcDbEntity
  8
Značka (ISO)
100
AcDbMText
 10
-19.08124089241028
 20
5.11633675545454
 30
0.0
 40
3.499999940395355
 41
0.0
 71
     1
 72
     1
  1
Morit a pasivovat\P(Pickled, gebeitzt)
  7
Text poznámky (ISO)
 73
     2
 44
0.9878841638565063
  0
ENDBLK
  5
119
330
117
100
AcDbEntity
  8
0
100
AcDbBlockEnd
  0
BLOCK
  5
11C
330
11B
100
AcDbEntity
  8
0
100
AcDbBlockBegin
  2
zinkovat
 70
     0
 10
0.0
 20
0.0
 30
0.0
  3
zinkovat
  1

  0
MTEXT
  5
11E
330
11B
100
AcDbEntity
  8
Značka (ISO)
100
AcDbMText
 10
-27.74189710617065
 20
5.049683563411233
 30
0.0
 40
3.499999940395355
 41
0.0
 71
     1
 72
     1
  1
Zarove zinkovat\P(hot galvanized, verzinkt )
  7
Text poznámky (ISO)
 73
     2
 44
0.9878841638565063
  0
ENDBLK
  5
11D
330
11B
100
AcDbEntity
  8
0
100
AcDbBlockEnd
  0
BLOCK
  5
120
330
11F
100
AcDbEntity
  8
0
100
AcDbBlockBegin
  2
Nater
 70
     0
 10
0.0
 20
0.0
 30
0.0
  3
Nater
  1

  0
MTEXT
  5
122
330
11F
100
AcDbEntity
  8
Značka (ISO)
100
AcDbMText
 10
-25.88411808013916
 20
1.864870421122757
 30
0.0
 40
3.499999940395355
 41
0.0
 71
     1
 72
     1
  1
Lackiert Farbe RAL 5002
  7
Text poznámky (ISO)
 73
     1
 44
1.0
  0
ENDBLK
  5
121
330
11F
100
AcDbEntity
  8
0
100
AcDbBlockEnd
  0
BLOCK
  5
124
330
123
100
AcDbEntity
  8
0
100
AcDbBlockBegin
  2
Brus
 70
     0
 10
0.0
 20
0.0
 30
0.0
  3
Brus
  1

  0
MTEXT
  5
126
330
123
100
AcDbEntity
  8
Značka (ISO)
100
AcDbMText
 10
-23.46616744995117
 20
5.11633675545454
 30
0.0
 40
3.499999940395355
 41
0.0
 71
     1
 72
     1
  1
Brousit\P(geburstet , brushed )
  7
Text poznámky (ISO)
 73
     2
 44
0.9878841638565063
  0
ENDBLK
  5
125
330
123
100
AcDbEntity
  8
0
100
AcDbBlockEnd
  0
BLOCK
  5
128
330
127
100
AcDbEntity
  8
0
100
AcDbBlockBegin
  2
Elektroliticky lestit
 70
     0
 10
0.0
 20
0.0
 30
0.0
  3
Elektroliticky lestit
  1

  0
MTEXT
  5
12A
330
127
100
AcDbEntity
  8
Značka (ISO)
100
AcDbMText
 10
-18.68841171264648
 20
5.036920197308063
 30
0.0
 40
3.499999940395355
 41
0.0
 71
     1
 72
     1
  1
Elektrolit. lestit\P(Elektropolished )
  7
Text poznámky (ISO)
 73
     2
 44
0.9878841638565063
  0
ENDBLK
  5
129
330
127
100
AcDbEntity
  8
0
100
AcDbBlockEnd
  0
BLOCK
  5
12C
330
12B
100
AcDbEntity
  8
0
100
AcDbBlockBegin
  2
Mořit de.
 70
     0
 10
0.0
 20
0.0
 30
0.0
  3
Mořit de.
  1

  0
MTEXT
  5
12E
102
{ACAD_XDICTIONARY
360
FC5
102
}
330
12B
100
AcDbEntity
  8
Značka (ISO)
100
AcDbMText
 10
-21.33184909820557
 20
4.448386959265915
 30
0.0
 40
3.499999940395355
 41
0.0
 71
     1
 72
     1
  1
Mo\U+0159it a opl\U+00E1chnout\PBeizen und Pasiviert
  7
Text poznámky (ISO)
 73
     2
 44
0.9878841638565063
  0
ENDBLK
  5
12D
330
12B
100
AcDbEntity
  8
0
100
AcDbBlockEnd
  0
BLOCK
  5
130
330
12F
100
AcDbEntity
  8
0
100
AcDbBlockBegin
  2
Žlab bez spádu De.
 70
     0
 10
0.0
 20
0.0
 30
0.0
  3
Žlab bez spádu De.
  1

  0
MTEXT
  5
132
102
{ACAD_XDICTIONARY
360
FC7
102
}
330
12F
100
AcDbEntity
  8
Značka (ISO)
100
AcDbMText
 10
-20.81989526748657
 20
4.01017793221399
 30
0.0
 40
3.499999940395355
 41
0.0
 71
     1
 72
     1
  1
\U+017Dlab bez sp\U+00E1du!\PRinne ohne Gef\U+00E4lle!
  7
Text poznámky (ISO)
 73
     2
 44
0.9878841638565063
  0
ENDBLK
  5
131
330
12F
100
AcDbEntity
  8
0
100
AcDbBlockEnd
  0
BLOCK
  5
134
330
133
100
AcDbEntity
  8
0
100
AcDbBlockBegin
  2
Žlab bez spádu Ang.
 70
     0
 10
0.0
 20
0.0
 30
0.0
  3
Žlab bez spádu Ang.
  1

  0
MTEXT
  5
136
102
{ACAD_XDICTIONARY
360
FC9
102
}
330
133
100
AcDbEntity
  8
Značka (ISO)
100
AcDbMText
 10
-24.31422233581541
 20
4.456895925104618
 30
0.0
 40
3.499999940395355
 41
0.0
 71
     1
 72
     1
  1
\U+017Dlab bez sp\U+00E1du!\PChannel without slope!
  7
Text poznámky (ISO)
 73
     2
 44
0.9878841638565063
  0
ENDBLK
  5
135
330
133
100
AcDbEntity
  8
0
100
AcDbBlockEnd
  0
BLOCK
  5
138
330
137
100
AcDbEntity
  8
0
100
AcDbBlockBegin
  2
Aschl Nirotec-tryskání
 70
     0
 10
0.0
 20
0.0
 30
0.0
  3
Aschl Nirotec-tryskání
  1

  0
MTEXT
  5
13A
102
{ACAD_XDICTIONARY
360
FCB
102
}
330
137
100
AcDbEntity
  8
Značka (ISO)
100
AcDbMText
 10
-58.85332584381103
 20
10.67052584141493
 30
0.0
 40
3.499999940395355
 41
0.0
 71
     1
 72
     1
  1
Povrchov\U+00E1 \U+00FAprava/Oberfl\U+00E4che:\PTryskat pouze vnit\U+0159ek \U+017Elabu, v\U+010Detn\U+011B pohledov\U+00FDch ploch!\PP\U+0159\U+00EDruby proti trysk\U+00E1n\U+00ED chr\U+00E1nit!\PFlansches per strahlung beh\U+00FCtent!
  7
Text poznámky (ISO)
 73
     2
 44
0.9878841638565063
  0
ENDBLK
  5
139
330
137
100
AcDbEntity
  8
0
100
AcDbBlockEnd
  0
BLOCK
  5
13C
330
13B
100
AcDbEntity
  8
0
100
AcDbBlockBegin
  2
Popis šrouby_kotvy Ang.
 70
     0
 10
0.0
 20
0.0
 30
0.0
  3
Popis šrouby_kotvy Ang.
  1

  0
MTEXT
  5
13E
102
{ACAD_XDICTIONARY
360
FCD
102
}
330
13B
100
AcDbEntity
  8
Značka (ISO)
100
AcDbMText
 10
-62.9617118835449
 20
22.19584088772535
 30
0.0
 40
3.499999940395355
 41
0.0
 71
     1
 72
     1
  3
Vzd\U+00E1lenost nivela\U+010Dn\U+00EDch \U+0161roubu ca. 1500mm.\PVzd\U+00E1lenost kotev ca. 400mm.\PPohledov\U+00E9 plochy brousit(vel.brusn\U+00FDch zrn 240)\Pa polepit p\U+00E1skou.\P\PDistance of leveling feets ca. 1500 mm.\PDistance of fixing t
  1
angs ca. 400 mm.\PVisible surfaces to be grinded and covered by protectiv foil.
  7
Text poznámky (ISO)
 73
     2
 44
0.9878841638565063
  0
ENDBLK
  5
13D
330
13B
100
AcDbEntity
  8
0
100
AcDbBlockEnd
  0
BLOCK
  5
140
330
13F
100
AcDbEntity
  8
0
100
AcDbBlockBegin
  2
Spád žlabu Ang.
 70
     0
 10
0.0
 20
0.0
 30
0.0
  3
Spád žlabu Ang.
  1

  0
MTEXT
  5
142
102
{ACAD_XDICTIONARY
360
FCF
102
}
330
13F
100
AcDbEntity
  8
Značka (ISO)
100
AcDbMText
 10
-61.18476867675779
 20
16.15664371056482
 30
0.0
 40
3.499999940395355
 41
0.0
 71
     1
 72
     1
  1
POZOR:\PSp\U+00E1d \U+017Elabu je men\U+0161\U+00ED ne\U+017E 1% - nebezpe\U+010D\U+00ED vzniku prohlubn\U+00ED\Pse stojatou vodou.\PAUTENTION:\PThe gradient of the bottom is minor then 1%.\PThat can be reason of slack water.
  7
Text poznámky (ISO)
 73
     2
 44
0.9878841638565063
  0
ENDBLK
  5
141
330
13F
100
AcDbEntity
  8
0
100
AcDbBlockEnd
  0
BLOCK
  5
144
330
143
100
AcDbEntity
  8
0
100
AcDbBlockBegin
  2
Spád žlabu De.
 70
     0
 10
0.0
 20
0.0
 30
0.0
  3
Spád žlabu De.
  1

  0
MTEXT
  5
146
102
{ACAD_XDICTIONARY
360
FD1
102
}
330
143
100
AcDbEntity
  8
Značka (ISO)
100
AcDbMText
 10
-61.18476867675779
 20
16.61612506955862
 30
0.0
 40
3.499999940395355
 41
0.0
 71
     1
 72
     1
  1
POZOR:\PSp\U+00E1d \U+017Elabu je men\U+0161\U+00ED ne\U+017E 1% - nebezpe\U+010D\U+00ED vzniku prohlubn\U+00ED\Pse stojatou vodou.\PACHTUNG:\PDas Bodengef\U+00E4lle ist kleiner als 1%. Das Gefahr der\PSenkungsentstehung mit dem stehenden Wasser.
  7
Text poznámky (ISO)
 73
     2
 44
0.9878841638565063
  0
ENDBLK
  5
145
330
143
100
AcDbEntity
  8
0
100
AcDbBlockEnd
  0
BLOCK
  5
148
330
147
100
AcDbEntity
  8
0
100
AcDbBlockBegin
  2
Kartáč + folie
 70
     0
 10
0.0
 20
0.0
 30
0.0
  3
Kartáč + folie
  1

  0
MTEXT
  5
14A
102
{ACAD_XDICTIONARY
360
FD3
102
}
330
147
100
AcDbEntity
  8
Značka (ISO)
100
AcDbMText
 10
-39.86001014709473
 20
4.448386959265915
 30
0.0
 40
3.499999940395355
 41
0.0
 71
     1
 72
     1
  1
Kart\U+00E1\U+010Dov\U+00E1no + folie\PGeburstet mit abziehbarer Schutzfolie
  7
Text poznámky (ISO)
 73
     2
 44
0.9878841638565063
  0
ENDBLK
  5
149
330
147
100
AcDbEntity
  8
0
100
AcDbBlockEnd
  0
BLOCK
  5
14C
330
14B
100
AcDbEntity
  8
0
100
AcDbBlockBegin
  2
Komplet tryskat De.
 70
     0
 10
0.0
 20
0.0
 30
0.0
  3
Komplet tryskat De.
  1

  0
MTEXT
  5
14E
330
14B
100
AcDbEntity
  8
Značka (ISO)
100
AcDbMText
 10
-37.33711719512939
 20
7.475785464048382
 30
0.0
 40
3.499999940395355
 41
0.0
 71
     1
 72
     1
  1
KOMPLETT GLASPER GESTRAHLT !\PKOMPLET ZHORA TRYSKAT ! \P
  7
Text poznámky (ISO)
 73
     2
 44
0.9878841638565063
  0
ENDBLK
  5
14D
330
14B
100
AcDbEntity
  8
0
100
AcDbBlockEnd
  0
BLOCK
  5
150
330
14F
100
AcDbEntity
  8
0
100
AcDbBlockBegin
  2
Mořit Ang.
 70
     0
 10
0.0
 20
0.0
 30
0.0
  3
Mořit Ang.
  1

  0
MTEXT
  5
152
102
{ACAD_XDICTIONARY
360
FD5
102
}
330
14F
100
AcDbEntity
  8
Značka (ISO)
100
AcDbMText
 10
-19.84846115112304
 20
4.448386959265915
 30
0.0
 40
3.499999940395355
 41
0.0
 71
     1
 72
     1
  1
Mo\U+0159it a opl\U+00E1chnout\PPickled and wash
  7
Text poznámky (ISO)
 73
     2
 44
0.9878841638565063
  0
ENDBLK
  5
151
330
14F
100
AcDbEntity
  8
0
100
AcDbBlockEnd
  0
BLOCK
  5
154
330
153
100
AcDbEntity
  8
0
100
AcDbBlockBegin
  2
Rámečky Default Border
 70
     0
 10
0.0
 20
0.0
 30
0.0
  3
Rámečky Default Border
  1

  0
POLYLINE
  5
156
330
153
100
AcDbEntity
  8
Rámeček (ISO)
100
AcDb2dPolyline
 66
     1
 10
0.0
 20
0.0
 30
0.0
 70
   128
  0
VERTEX
  5
157
330
156
100
AcDbEntity
  8
Rámeček (ISO)
100
AcDbVertex
100
AcDb2dVertex
 10
10.0
 20
10.0
 30
0.0
  0
VERTEX
  5
158
330
156
100
AcDbEntity
  8
Rámeček (ISO)
100
AcDbVertex
100
AcDb2dVertex
 10
10.0
 20
287.0000076293946
 30
0.0
  0
VERTEX
  5
15A
330
156
100
AcDbEntity
  8
Rámeček (ISO)
100
AcDbVertex
100
AcDb2dVertex
 10
410.0
 20
287.0000076293946
 30
0.0
  0
VERTEX
  5
15B
330
156
100
AcDbEntity
  8
Rámeček (ISO)
100
AcDbVertex
100
AcDb2dVertex
 10
410.0
 20
10.0
 30
0.0
  0
VERTEX
  5
15C
330
156
100
AcDbEntity
  8
Rámeček (ISO)
100
AcDbVertex
100
AcDb2dVertex
 10
10.0
 20
10.0
 30
0.0
  0
SEQEND
  5
159
330
156
100
AcDbEntity
  8
Rámeček (ISO)
  0
POLYLINE
  5
15D
330
153
100
AcDbEntity
  8
Rámeček (ISO)
100
AcDb2dPolyline
 66
     1
 10
0.0
 20
0.0
 30
0.0
 70
   128
  0
VERTEX
  5
15E
330
15D
100
AcDbEntity
  8
Rámeček (ISO)
100
AcDbVertex
100
AcDb2dVertex
 10
210.0
 20
0.0
 30
0.0
  0
VERTEX
  5
15F
330
15D
100
AcDbEntity
  8
Rámeček (ISO)
100
AcDbVertex
100
AcDb2dVertex
 10
210.0
 20
10.0
 30
0.0
  0
VERTEX
  5
161
330
15D
100
AcDbEntity
  8
Rámeček (ISO)
100
AcDbVertex
100
AcDb2dVertex
 10
207.1132469177246
 20
5.0
 30
0.0
  0
VERTEX
  5
162
330
15D
100
AcDbEntity
  8
Rámeček (ISO)
100
AcDbVertex
100
AcDb2dVertex
 10
212.8867530822754
 20
5.0
 30
0.0
  0
VERTEX
  5
163
330
15D
100
AcDbEntity
  8
Rámeček (ISO)
100
AcDbVertex
100
AcDb2dVertex
 10
210.0
 20
10.0
 30
0.0
  0
SEQEND
  5
160
330
15D
100
AcDbEntity
  8
Rámeček (ISO)
  0
POLYLINE
  5
164
330
153
100
AcDbEntity
  8
Rámeček (ISO)
100
AcDb2dPolyline
 66
     1
 10
0.0
 20
0.0
 30
0.0
 70
   128
  0
VERTEX
  5
165
330
164
100
AcDbEntity
  8
Rámeček (ISO)
100
AcDbVertex
100
AcDb2dVertex
 10
210.0
 20
297.0000076293946
 30
0.0
  0
VERTEX
  5
166
330
164
100
AcDbEntity
  8
Rámeček (ISO)
100
AcDbVertex
100
AcDb2dVertex
 10
210.0
 20
287.0000076293946
 30
0.0
  0
VERTEX
  5
168
330
164
100
AcDbEntity
  8
Rámeček (ISO)
100
AcDbVertex
100
AcDb2dVertex
 10
207.1132469177246
 20
292.0000076293945
 30
0.0
  0
VERTEX
  5
169
330
164
100
AcDbEntity
  8
Rámeček (ISO)
100
AcDbVertex
100
AcDb2dVertex
 10
212.8867530822754
 20
292.0000076293945
 30
0.0
  0
VERTEX
  5
16A
330
164
100
AcDbEntity
  8
Rámeček (ISO)
100
AcDbVertex
100
AcDb2dVertex
 10
210.0
 20
287.0000076293946
 30
0.0
  0
SEQEND
  5
167
330
164
100
AcDbEntity
  8
Rámeček (ISO)
  0
POLYLINE
  5
16B
330
153
100
AcDbEntity
  8
Rámeček (ISO)
100
AcDb2dPolyline
 66
     1
 10
0.0
 20
0.0
 30
0.0
 70
   128
  0
VERTEX
  5
16C
330
16B
100
AcDbEntity
  8
Rámeček (ISO)
100
AcDbVertex
100
AcDb2dVertex
 10
0.0
 20
148.5000038146973
 30
0.0
  0
VERTEX
  5
16D
330
16B
100
AcDbEntity
  8
Rámeček (ISO)
100
AcDbVertex
100
AcDb2dVertex
 10
10.0
 20
148.5000038146973
 30
0.0
  0
VERTEX
  5
16F
330
16B
100
AcDbEntity
  8
Rámeček (ISO)
100
AcDbVertex
100
AcDb2dVertex
 10
5.0
 20
151.3867473602295
 30
0.0
  0
VERTEX
  5
170
330
16B
100
AcDbEntity
  8
Rámeček (ISO)
100
AcDbVertex
100
AcDb2dVertex
 10
5.0
 20
145.6132507324219
 30
0.0
  0
VERTEX
  5
171
330
16B
100
AcDbEntity
  8
Rámeček (ISO)
100
AcDbVertex
100
AcDb2dVertex
 10
10.0
 20
148.5000038146973
 30
0.0
  0
SEQEND
  5
16E
330
16B
100
AcDbEntity
  8
Rámeček (ISO)
  0
POLYLINE
  5
172
330
153
100
AcDbEntity
  8
Rámeček (ISO)
100
AcDb2dPolyline
 66
     1
 10
0.0
 20
0.0
 30
0.0
 70
   128
  0
VERTEX
  5
173
330
172
100
AcDbEntity
  8
Rámeček (ISO)
100
AcDbVertex
100
AcDb2dVertex
 10
420.0
 20
148.5000038146973
 30
0.0
  0
VERTEX
  5
174
330
172
100
AcDbEntity
  8
Rámeček (ISO)
100
AcDbVertex
100
AcDb2dVertex
 10
410.0
 20
148.5000038146973
 30
0.0
  0
VERTEX
  5
176
330
172
100
AcDbEntity
  8
Rámeček (ISO)
100
AcDbVertex
100
AcDb2dVertex
 10
415.0
 20
151.3867473602295
 30
0.0
  0
VERTEX
  5
177
330
172
100
AcDbEntity
  8
Rámeček (ISO)
100
AcDbVertex
100
AcDb2dVertex
 10
415.0
 20
145.6132507324219
 30
0.0
  0
VERTEX
  5
178
330
172
100
AcDbEntity
  8
Rámeček (ISO)
100
AcDbVertex
100
AcDb2dVertex
 10
410.0
 20
148.5000038146973
 30
0.0
  0
SEQEND
  5
175
330
172
100
AcDbEntity
  8
Rámeček (ISO)
  0
LINE
  5
179
330
153
100
AcDbEntity
  8
Rámeček (ISO)
100
AcDbLine
 10
70.0
 20
10.0
 30
0.0
 11
70.0
 21
6.100000143051147
 31
0.0
  0
LINE
  5
17A
330
153
100
AcDbEntity
  8
Rámeček (ISO)
100
AcDbLine
 10
70.0
 20
287.0000076293946
 30
0.0
 11
70.0
 21
290.9000015258789
 31
0.0
  0
LINE
  5
17B
330
153
100
AcDbEntity
  8
Rámeček (ISO)
100
AcDbLine
 10
140.0
 20
10.0
 30
0.0
 11
140.0
 21
6.100000143051147
 31
0.0
  0
LINE
  5
17C
330
153
100
AcDbEntity
  8
Rámeček (ISO)
100
AcDbLine
 10
140.0
 20
287.0000076293946
 30
0.0
 11
140.0
 21
290.9000015258789
 31
0.0
  0
LINE
  5
17D
330
153
100
AcDbEntity
  8
Rámeček (ISO)
100
AcDbLine
 10
280.0
 20
10.0
 30
0.0
 11
280.0
 21
6.100000143051147
 31
0.0
  0
LINE
  5
17E
330
153
100
AcDbEntity
  8
Rámeček (ISO)
100
AcDbLine
 10
280.0
 20
287.0000076293946
 30
0.0
 11
280.0
 21
290.9000015258789
 31
0.0
  0
LINE
  5
17F
330
153
100
AcDbEntity
  8
Rámeček (ISO)
100
AcDbLine
 10
350.0
 20
10.0
 30
0.0
 11
350.0
 21
6.100000143051147
 31
0.0
  0
LINE
  5
180
330
153
100
AcDbEntity
  8
Rámeček (ISO)
100
AcDbLine
 10
350.0
 20
287.0000076293946
 30
0.0
 11
350.0
 21
290.9000015258789
 31
0.0
  0
MTEXT
  5
181
330
153
100
AcDbEntity
  8
Rámeček (ISO)
100
AcDbMText
 10
384.2103922448459
 20
287.4
 30
0.0
 40
3.499999940395355
 41
0.0
 71
     7
 72
     1
  1
1
  7
Text poznámky (ISO)
 73
     1
 44
1.0
  0
MTEXT
  5
182
330
153
100
AcDbEntity
  8
Rámeček (ISO)
100
AcDbMText
 10
384.2103922448459
 20
6.100000059604642
 30
0.0
 40
3.499999940395355
 41
0.0
 71
     7
 72
     1
  1
1
  7
Text poznámky (ISO)
 73
     1
 44
1.0
  0
MTEXT
  5
183
330
153
100
AcDbEntity
  8
Rámeček (ISO)
100
AcDbMText
 10
313.9387915541735
 20
287.4
 30
0.0
 40
3.499999940395355
 41
0.0
 71
     7
 72
     1
  1
2
  7
Text poznámky (ISO)
 73
     1
 44
1.0
  0
MTEXT
  5
184
330
153
100
AcDbEntity
  8
Rámeček (ISO)
100
AcDbMText
 10
313.9387915541735
 20
6.100000059604642
 30
0.0
 40
3.499999940395355
 41
0.0
 71
     7
 72
     1
  1
2
  7
Text poznámky (ISO)
 73
     1
 44
1.0
  0
MTEXT
  5
185
330
153
100
AcDbEntity
  8
Rámeček (ISO)
100
AcDbMText
 10
243.9107914829702
 20
287.3262560764327
 30
0.0
 40
3.499999940395355
 41
0.0
 71
     7
 72
     1
  1
3
  7
Text poznámky (ISO)
 73
     1
 44
1.0
  0
MTEXT
  5
186
330
153
100
AcDbEntity
  8
Rámeček (ISO)
100
AcDbMText
 10
243.9107914829702
 20
6.026256136037407
 30
0.0
 40
3.499999940395355
 41
0.0
 71
     7
 72
     1
  1
3
  7
Text poznámky (ISO)
 73
     1
 44
1.0
  0
MTEXT
  5
187
330
153
100
AcDbEntity
  8
Rámeček (ISO)
100
AcDbMText
 10
173.7791911483144
 20
287.4
 30
0.0
 40
3.499999940395355
 41
0.0
 71
     7
 72
     1
  1
4
  7
Text poznámky (ISO)
 73
     1
 44
1.0
  0
MTEXT
  5
188
330
153
100
AcDbEntity
  8
Rámeček (ISO)
100
AcDbMText
 10
173.7791911483144
 20
6.100000059604642
 30
0.0
 40
3.499999940395355
 41
0.0
 71
     7
 72
     1
  1
4
  7
Text poznámky (ISO)
 73
     1
 44
1.0
  0
MTEXT
  5
189
330
153
100
AcDbEntity
  8
Rámeček (ISO)
100
AcDbMText
 10
103.9751916467378
 20
287.3262560764327
 30
0.0
 40
3.499999940395355
 41
0.0
 71
     7
 72
     1
  1
5
  7
Text poznámky (ISO)
 73
     1
 44
1.0
  0
MTEXT
  5
18A
330
153
100
AcDbEntity
  8
Rámeček (ISO)
100
AcDbMText
 10
103.9751916467378
 20
6.026256136037407
 30
0.0
 40
3.499999940395355
 41
0.0
 71
     7
 72
     1
  1
5
  7
Text poznámky (ISO)
 73
     1
 44
1.0
  0
MTEXT
  5
18B
330
153
100
AcDbEntity
  8
Rámeček (ISO)
100
AcDbMText
 10
33.88279141176685
 20
287.3262560764327
 30
0.0
 40
3.499999940395355
 41
0.0
 71
     7
 72
     1
  1
6
  7
Text poznámky (ISO)
 73
     1
 44
1.0
  0
MTEXT
  5
18C
330
153
100
AcDbEntity
  8
Rámeček (ISO)
100
AcDbMText
 10
33.88279141176685
 20
6.026256136037407
 30
0.0
 40
3.499999940395355
 41
0.0
 71
     7
 72
     1
  1
6
  7
Text poznámky (ISO)
 73
     1
 44
1.0
  0
LINE
  5
18D
330
153
100
AcDbEntity
  8
Rámeček (ISO)
100
AcDbLine
 10
10.0
 20
74.25000190734862
 30
0.0
 11
6.100000143051147
 21
74.25000190734862
 31
0.0
  0
LINE
  5
18E
330
153
100
AcDbEntity
  8
Rámeček (ISO)
100
AcDbLine
 10
410.0
 20
74.25000190734862
 30
0.0
 11
413.8999938964841
 21
74.25000190734862
 31
0.0
  0
LINE
  5
18F
330
153
100
AcDbEntity
  8
Rámeček (ISO)
100
AcDbLine
 10
10.0
 20
222.7499961853027
 30
0.0
 11
6.100000143051147
 21
222.7499961853027
 31
0.0
  0
LINE
  5
190
330
153
100
AcDbEntity
  8
Rámeček (ISO)
100
AcDbLine
 10
410.0
 20
222.7499961853027
 30
0.0
 11
413.8999938964841
 21
222.7499961853027
 31
0.0
  0
MTEXT
  5
191
330
153
100
AcDbEntity
  8
Rámeček (ISO)
100
AcDbMText
 10
6.361230343933396
 20
35.37500002980233
 30
0.0
 40
3.499999940395355
 41
0.0
 71
     7
 72
     1
  1
A
  7
Text poznámky (ISO)
 73
     1
 44
1.0
  0
MTEXT
  5
192
330
153
100
AcDbEntity
  8
Rámeček (ISO)
100
AcDbMText
 10
410.6612302843286
 20
35.37500002980233
 30
0.0
 40
3.499999940395355
 41
0.0
 71
     7
 72
     1
  1
A
  7
Text poznámky (ISO)
 73
     1
 44
1.0
  0
MTEXT
  5
193
330
153
100
AcDbEntity
  8
Rámeček (ISO)
100
AcDbMText
 10
6.781848468328937
 20
109.6250000298023
 30
0.0
 40
3.499999940395355
 41
0.0
 71
     7
 72
     1
  1
B
  7
Text poznámky (ISO)
 73
     1
 44
1.0
  0
MTEXT
  5
194
330
153
100
AcDbEntity
  8
Rámeček (ISO)
100
AcDbMText
 10
411.0818484087242
 20
109.6250000298023
 30
0.0
 40
3.499999940395355
 41
0.0
 71
     7
 72
     1
  1
B
  7
Text poznámky (ISO)
 73
     1
 44
1.0
  0
MTEXT
  5
195
330
153
100
AcDbEntity
  8
Rámeček (ISO)
100
AcDbMText
 10
6.558903094188357
 20
183.8126013241708
 30
0.0
 40
3.499999940395355
 41
0.0
 71
     7
 72
     1
  1
C
  7
Text poznámky (ISO)
 73
     1
 44
1.0
  0
MTEXT
  5
196
330
153
100
AcDbEntity
  8
Rámeček (ISO)
100
AcDbMText
 10
410.8589030345836
 20
183.8126013241708
 30
0.0
 40
3.499999940395355
 41
0.0
 71
     7
 72
     1
  1
C
  7
Text poznámky (ISO)
 73
     1
 44
1.0
  0
MTEXT
  5
197
330
153
100
AcDbEntity
  8
Rámeček (ISO)
100
AcDbMText
 10
6.56770745709084
 20
258.1250000298023
 30
0.0
 40
3.499999940395355
 41
0.0
 71
     7
 72
     1
  1
D
  7
Text poznámky (ISO)
 73
     1
 44
1.0
  0
MTEXT
  5
198
330
153
100
AcDbEntity
  8
Rámeček (ISO)
100
AcDbMText
 10
410.8677073974861
 20
258.1250000298023
 30
0.0
 40
3.499999940395355
 41
0.0
 71
     7
 72
     1
  1
D
  7
Text poznámky (ISO)
 73
     1
 44
1.0
  0
ENDBLK
  5
155
330
153
100
AcDbEntity
  8
0
100
AcDbBlockEnd
  0
BLOCK
  5
19B
330
19A
100
AcDbEntity
  8
0
100
AcDbBlockBegin
  2
Rohová razítka ACO-razitko
 70
     2
 10
0.0
 20
0.0
 30
0.0
  3
Rohová razítka ACO-razitko
  1

  0
LINE
  5
19D
330
19A
100
AcDbEntity
  8
KOPF
  6
Continuous
370
    25
100
AcDbLine
 10
271.0
 20
94.01203200000002
 30
0.0
 11
271.0
 21
74.00000000000004
 31
0.0
  0
LINE
  5
19E
330
19A
100
AcDbEntity
  8
KOPF
  6
Continuous
370
    25
100
AcDbLine
 10
271.0
 20
94.01203200000002
 30
0.0
 11
271.0
 21
74.00000000000004
 31
0.0
  0
CIRCLE
  5
19F
330
19A
100
AcDbEntity
  8
TEXT50
  6
Continuous
370
    25
100
AcDbCircle
 10
228.4029491544077
 20
82.96404964998812
 30
0.0
 40
1.979948192651899
  0
LINE
  5
1A0
330
19A
100
AcDbEntity
  8
TEXT50
  6
Continuous
370
    25
100
AcDbLine
 10
243.3885593590108
 20
84.94399784264013
 30
0.0
 11
243.3885593590108
 21
80.98410145733607
 31
0.0
  0
LINE
  5
1A1
330
19A
100
AcDbEntity
  8
TEXT50
  6
Continuous
370
    25
100
AcDbLine
 10
234.8388431898113
 20
86.98698300161327
 30
0.0
 11
234.8388431898113
 21
78.94111629836295
 31
0.0
  0
LINE
  5
1A2
330
19A
100
AcDbEntity
  8
TEXT50
  6
Continuous
370
    25
100
AcDbLine
 10
243.3885593590108
 20
84.94399784264013
 30
0.0
 11
234.8388431898113
 21
86.98698300161327
 31
0.0
  0
CIRCLE
  5
1A3
330
19A
100
AcDbEntity
  8
TEXT50
  6
Continuous
370
    25
100
AcDbCircle
 10
228.4029491544077
 20
82.96404964998812
 30
0.0
 40
4.022933351625178
  0
LINE
  5
1A4
330
19A
100
AcDbEntity
  8
TEXT50
  6
Continuous
370
    25
100
AcDbLine
 10
234.8388431898113
 20
78.94111629836295
 30
0.0
 11
243.3885593590108
 21
80.98410145733607
 31
0.0
  0
CIRCLE
  5
1A5
330
19A
100
AcDbEntity
  8
TEXT35
  6
Continuous
370
    25
100
AcDbCircle
 10
221.0936673107637
 20
101.9131972309053
 30
0.0
 40
2.281499999999998
  0
CIRCLE
  5
1A6
330
19A
100
AcDbEntity
  8
TEXT35
  6
Continuous
370
    25
100
AcDbCircle
 10
221.0936673107637
 20
101.9131972309053
 30
0.0
 40
1.579499999999999
  0
ARC
  5
1A7
330
19A
100
AcDbEntity
  8
TEXT35
  6
Continuous
370
    25
100
AcDbCircle
 10
214.6291610736662
 20
101.9131972309054
 30
0.0
 40
1.57950000000007
100
AcDbArc
 50
31.05580049908738
 51
329.9999999999987
  0
LINE
  5
1A8
330
19A
100
AcDbEntity
  8
TEXT35
  6
Continuous
370
    25
100
AcDbLine
 10
215.9822639109751
 20
102.7280180465864
 30
0.0
 11
216.5902852082589
 21
103.0790593062462
 31
0.0
  0
ARC
  5
1A9
330
19A
100
AcDbEntity
  8
TEXT35
  6
Continuous
370
    25
100
AcDbCircle
 10
214.6291610736662
 20
101.9131972309052
 30
0.0
 40
2.281500000000015
100
AcDbArc
 50
30.73091726592628
 51
330.0000000000017
  0
LINE
  5
1AA
330
19A
100
AcDbEntity
  8
TEXT35
  6
Continuous
370
    25
100
AcDbLine
 10
216.6049980324005
 20
100.7724472309053
 30
0.0
 11
215.9970481989438
 21
101.1234472309053
 31
0.0
  0
LINE
  5
1AB
330
19A
100
AcDbEntity
  8
TEXT35
  6
Continuous
370
    25
100
AcDbLine
 10
211.8347763192409
 20
111.6789659312995
 30
0.0
 11
211.8347763192409
 21
98.44416361029551
 31
0.0
  0
LINE
  5
1AC
330
19A
100
AcDbEntity
  8
TEXT35
  6
Continuous
370
    25
100
AcDbLine
 10
211.8347763192409
 20
98.44416361029551
 30
0.0
 11
217.4235458280916
 21
98.44416361029551
 31
0.0
  0
LINE
  5
1AD
330
19A
100
AcDbEntity
  8
TEXT35
  6
Continuous
370
    25
100
AcDbLine
 10
217.4235458280916
 20
98.44416361029551
 30
0.0
 11
217.4235458280916
 21
111.6789659312995
 31
0.0
  0
LINE
  5
1AE
330
19A
100
AcDbEntity
  8
TEXT35
  6
Continuous
370
    25
100
AcDbLine
 10
217.4235458280916
 20
111.6789659312995
 30
0.0
 11
211.8347763192409
 21
111.6789659312995
 31
0.0
  0
LINE
  5
1AF
330
19A
100
AcDbEntity
  8
TEXT35
  6
Continuous
370
    25
100
AcDbLine
 10
223.888052065189
 20
111.6789659312995
 30
0.0
 11
223.888052065189
 21
98.44416361029551
 31
0.0
  0
LINE
  5
1B0
330
19A
100
AcDbEntity
  8
TEXT35
  6
Continuous
370
    25
100
AcDbLine
 10
223.888052065189
 20
98.44416361029551
 30
0.0
 11
218.2992825563384
 21
98.44416361029551
 31
0.0
  0
LINE
  5
1B1
330
19A
100
AcDbEntity
  8
TEXT35
  6
Continuous
370
    25
100
AcDbLine
 10
218.2992825563384
 20
98.44416361029551
 30
0.0
 11
218.2992825563384
 21
111.6789659312995
 31
0.0
  0
LINE
  5
1B2
330
19A
100
AcDbEntity
  8
TEXT35
  6
Continuous
370
    25
100
AcDbLine
 10
218.2992825563384
 20
111.6789659312995
 30
0.0
 11
223.888052065189
 21
111.6789659312995
 31
0.0
  0
ARC
  5
1B3
330
19A
100
AcDbEntity
  8
TEXT35
  6
Continuous
370
    25
100
AcDbCircle
 10
211.499154836569
 20
99.57623034270234
 30
0.0
 40
4.914000000000251
100
AcDbArc
 50
172.305837035409
 51
179.7113029220757
  0
LINE
  5
1B4
330
19A
100
AcDbEntity
  8
TEXT35
  6
Continuous
370
    25
100
AcDbLine
 10
206.6293963427935
 20
100.2341423522474
 30
0.0
 11
209.6999133303443
 21
100.2341423522474
 31
0.0
  0
ARC
  5
1B5
330
19A
100
AcDbEntity
  8
TEXT35
  6
Continuous
370
    25
100
AcDbCircle
 10
204.8301548365688
 20
99.57623034270323
 30
0.0
 40
4.914000000000132
100
AcDbArc
 50
0.2886970779141535
 51
7.694162964580896
  0
LINE
  5
1B6
330
19A
100
AcDbEntity
  8
TEXT35
  6
Continuous
370
    25
100
AcDbLine
 10
209.7440924568018
 20
99.60099048123304
 30
0.0
 11
210.4461002543538
 21
99.60099048123304
 31
0.0
  0
ARC
  5
1B7
330
19A
100
AcDbEntity
  8
TEXT35
  6
Continuous
370
    25
100
AcDbCircle
 10
204.8301548365688
 20
99.5762303427033
 30
0.0
 40
5.616000000000016
100
AcDbArc
 50
0.2526096926473688
 51
53.57642635766914
  0
ARC
  5
1B8
330
19A
100
AcDbEntity
  8
TEXT35
  6
Continuous
370
    25
100
AcDbCircle
 10
211.4991548365688
 20
99.57623034270323
 30
0.0
 40
5.616000000000023
100
AcDbArc
 50
126.4235736423304
 51
179.7473903073512
  0
LINE
  5
1B9
330
19A
100
AcDbEntity
  8
TEXT35
  6
Continuous
370
    25
100
AcDbLine
 10
205.8832094187838
 20
99.60099048123304
 30
0.0
 11
206.5852172163358
 21
99.60099048123304
 31
0.0
  0
LINE
  5
1BA
330
19A
100
AcDbEntity
  8
TEXT35
  6
Continuous
370
    25
100
AcDbLine
 10
205.3702700821435
 20
111.6789659312995
 30
0.0
 11
205.3702700821435
 21
98.44416361029551
 31
0.0
  0
LINE
  5
1BB
330
19A
100
AcDbEntity
  8
TEXT35
  6
Continuous
370
    25
100
AcDbLine
 10
205.3702700821435
 20
98.44416361029551
 30
0.0
 11
210.9590395909941
 21
98.44416361029551
 31
0.0
  0
LINE
  5
1BC
330
19A
100
AcDbEntity
  8
TEXT35
  6
Continuous
370
    25
100
AcDbLine
 10
210.9590395909941
 20
98.44416361029551
 30
0.0
 11
210.9590395909941
 21
111.6789659312995
 31
0.0
  0
LINE
  5
1BD
330
19A
100
AcDbEntity
  8
TEXT35
  6
Continuous
370
    25
100
AcDbLine
 10
210.9590395909941
 20
111.6789659312995
 30
0.0
 11
205.3702700821435
 21
111.6789659312995
 31
0.0
  0
ARC
  5
1BE
330
19A
100
AcDbEntity
  8
TEXT35
  6
Continuous
370
    25
100
AcDbCircle
 10
204.830154836569
 20
99.57623034270341
 30
0.0
 40
4.913999999999818
100
AcDbArc
 50
16.0658750272321
 51
47.26788995739759
  0
LINE
  5
1BF
330
19A
100
AcDbEntity
  8
TEXT35
  6
Continuous
370
    25
100
AcDbLine
 10
209.5522343918387
 20
100.9361423522474
 30
0.0
 11
206.7770752812989
 21
100.9361423522474
 31
0.0
  0
ARC
  5
1C0
330
19A
100
AcDbEntity
  8
TEXT35
  6
Continuous
370
    25
100
AcDbCircle
 10
211.4991548365683
 20
99.57623034270341
 30
0.0
 40
4.913999999999566
100
AcDbArc
 50
132.7321100425983
 51
163.9341249727667
  0
LINE
  5
1C1
330
19A
100
AcDbEntity
  8
Nadpis (ISO)
100
AcDbLine
 10
304.0
 20
114.0000000000001
 30
0.0
 11
304.0
 21
45.0
 31
0.0
  0
LINE
  5
1C2
330
19A
100
AcDbEntity
  8
Nadpis (ISO)
100
AcDbLine
 10
304.0
 20
45.0
 30
0.0
 11
117.0
 21
44.99999999999999
 31
0.0
  0
LINE
  5
1C3
330
19A
100
AcDbEntity
  8
Nadpis (ISO)
100
AcDbLine
 10
117.0
 20
44.99999999999999
 30
0.0
 11
117.0
 21
114.0
 31
0.0
  0
LINE
  5
1C4
330
19A
100
AcDbEntity
  8
Nadpis (ISO)
100
AcDbLine
 10
117.0
 20
114.0
 30
0.0
 11
304.0
 21
114.0000000000001
 31
0.0
  0
LINE
  5
1C5
330
19A
100
AcDbEntity
  8
Nadpis (ISO)
100
AcDbLine
 10
199.0
 20
114.0
 30
0.0
 11
199.0
 21
93.99999999999998
 31
0.0
  0
LINE
  5
1C6
330
19A
100
AcDbEntity
  8
KOPF
100
AcDbLine
 10
199.0
 20
104.0
 30
0.0
 11
117.0
 21
104.0
 31
0.0
  0
LINE
  5
1C7
330
19A
100
AcDbEntity
  8
Nadpis (ISO)
100
AcDbLine
 10
199.0
 20
93.99999999999998
 30
0.0
 11
117.0
 21
93.99999999999996
 31
0.0
  0
LINE
  5
1C8
330
19A
100
AcDbEntity
  8
KOPF
100
AcDbLine
 10
158.0
 20
93.99999999999998
 30
0.0
 11
158.0
 21
114.0
 31
0.0
  0
LINE
  5
1C9
330
19A
100
AcDbEntity
  8
Nadpis (ISO)
100
AcDbLine
 10
199.0
 20
93.99999999999998
 30
0.0
 11
304.0
 21
94.00000000000003
 31
0.0
  0
LINE
  5
1CA
330
19A
100
AcDbEntity
  8
Nadpis (ISO)
100
AcDbLine
 10
223.0
 20
94.00000000000003
 30
0.0
 11
223.0
 21
44.99999999999999
 31
0.0
  0
LINE
  5
1CB
330
19A
100
AcDbEntity
  8
Nadpis (ISO)
100
AcDbLine
 10
304.0
 20
74.00000000000004
 30
0.0
 11
117.0
 21
73.99999999999998
 31
0.0
  0
LINE
  5
1CC
330
19A
100
AcDbEntity
  8
Nadpis (ISO)
100
AcDbLine
 10
186.0
 20
94.0
 30
0.0
 11
186.0
 21
74.00000000000002
 31
0.0
  0
LINE
  5
1CD
330
19A
100
AcDbEntity
  8
KOPF
100
AcDbLine
 10
144.0
 20
93.99999999999996
 30
0.0
 11
144.0
 21
74.00000000000004
 31
0.0
  0
LINE
  5
1CE
330
19A
100
AcDbEntity
  8
KOPF
100
AcDbLine
 10
169.0
 20
93.99999999999996
 30
0.0
 11
169.0
 21
74.00000000000004
 31
0.0
  0
LINE
  5
1CF
330
19A
100
AcDbEntity
  8
KOPF
100
AcDbLine
 10
186.0
 20
84.0
 30
0.0
 11
117.0
 21
83.99999999999996
 31
0.0
  0
LINE
  5
1D0
330
19A
100
AcDbEntity
  8
KOPF
100
AcDbLine
 10
186.0
 20
79.0
 30
0.0
 11
117.0
 21
78.99999999999997
 31
0.0
  0
LINE
  5
1D1
330
19A
100
AcDbEntity
  8
KOPF
100
AcDbLine
 10
186.0
 20
89.0
 30
0.0
 11
117.0
 21
88.99999999999996
 31
0.0
  0
LINE
  5
1D2
330
19A
100
AcDbEntity
  8
KOPF
100
AcDbLine
 10
223.0
 20
49.99999999999996
 30
0.0
 11
304.0
 21
50.00000000000003
 31
0.0
  0
LINE
  5
1D3
330
19A
100
AcDbEntity
  8
KOPF
100
AcDbLine
 10
245.0
 20
94.00000000000003
 30
0.0
 11
245.0
 21
74.00000000000004
 31
0.0
  0
LINE
  5
1D4
330
19A
100
AcDbEntity
  8
Nadpis (ISO)
100
AcDbLine
 10
292.0
 20
74.00000000000004
 30
0.0
 11
292.0
 21
50.00000000000007
 31
0.0
  0
LINE
  5
1D5
330
19A
100
AcDbEntity
  8
KOPF
100
AcDbLine
 10
292.0
 20
50.0
 30
0.0
 11
292.0
 21
45.0
 31
0.0
  0
LINE
  5
1D6
330
19A
100
AcDbEntity
  8
Nadpis (ISO)
100
AcDbLine
 10
260.9160465310349
 20
50.0
 30
0.0
 11
260.9160465310349
 21
45.0
 31
0.0
  0
TEXT
  5
1D8
330
19A
100
AcDbEntity
  8
Viditelná tenká (ISO)
100
AcDbText
 10
273.0
 20
84.97994933403731
 30
0.0
 40
1.539999991655349
  1
zum Zweck anderweitiger Benutzung
 41
0.7999999523162842
  7
Styl textu62
100
AcDbText
  0
TEXT
  5
1DA
330
19A
100
AcDbEntity
  8
Viditelná tenká (ISO)
100
AcDbText
 10
273.0
 20
82.63814072439636
 30
0.0
 40
1.539999991655349
  1
mitgeteilt werden und bleibt unser
 41
0.7999999523162842
  7
Styl textu62
100
AcDbText
  0
TEXT
  5
1DB
330
19A
100
AcDbEntity
  8
Viditelná tenká (ISO)
100
AcDbText
 10
273.0
 20
87.26106040199923
 30
0.0
 40
1.539999991655349
  1
noch dritten Personen, insbesondere
 41
0.7999999523162842
  7
Styl textu62
100
AcDbText
  0
TEXT
  5
1DC
330
19A
100
AcDbEntity
  8
Viditelná tenká (ISO)
100
AcDbText
 10
273.0
 20
89.62823225872142
 30
0.0
 40
1.539999991655349
  1
Diese Zeichnung darf weder kopiert
 41
0.7999999523162842
  7
Styl textu62
100
AcDbText
  0
TEXT
  5
1DD
330
19A
100
AcDbEntity
  8
Viditelná tenká (ISO)
100
AcDbText
 10
273.0
 20
80.37532604459601
 30
0.0
 40
1.539999991655349
  1
Eigentum.
 41
0.7999999523162842
  7
Styl textu62
100
AcDbText
  0
TEXT
  5
1DF
330
19A
100
AcDbEntity
  8
Viditelná tenká (ISO)
100
AcDbText
 10
223.6386390092129
 20
91.29914147596016
 30
0.0
 40
2.000000029802321
  1
Projektion: ISO-E
 41
0.7999999523162842
  7
Styl textu58
100
AcDbText
  0
TEXT
  5
1E1
330
19A
100
AcDbEntity
  8
Viditelná tenká (ISO)
100
AcDbText
 10
273.0
 20
77.30982488917629
 30
0.0
 40
1.539999991655349
  1
Schutzvermerk nach DIN 34 beachten
 41
0.75
  7
Styl textu63
100
AcDbText
  0
TEXT
  5
1E2
330
19A
100
AcDbEntity
  8
Viditelná tenká (ISO)
100
AcDbText
 10
236.2487793316645
 20
99.38243367792949
 30
0.0
 40
2.000000029802321
  1
582 22 Přibyslav; CZ
 41
0.7999999523162842
  7
Styl textu58
100
AcDbText
  0
TEXT
  5
1E3
330
19A
100
AcDbEntity
  8
Viditelná tenká (ISO)
100
AcDbText
 10
236.5351154208068
 20
103.0087314099309
 30
0.0
 40
2.000000029802321
  1
Havlíčkova 260
 41
0.7999999523162842
  7
Styl textu58
100
AcDbText
  0
TEXT
  5
1E5
330
19A
100
AcDbEntity
  8
TEXT35
100
AcDbText
 10
235.9801354774567
 20
108.2018007493417
 30
0.0
 40
3.000000119209288
  1
ACO Industries k.s.
 41
0.7999999523162842
  7
Styl textu75
100
AcDbText
  0
TEXT
  5
1E7
330
19A
100
AcDbEntity
  8
Viditelná tenká (ISO)
100
AcDbText
 10
261.6456899832647
 20
102.9064533471121
 30
0.0
 40
2.099999934434889
  1
Tel.: +420 569 491 111
 41
0.7000000476837159
  7
Styl textu72
100
AcDbText
  0
MTEXT
  5
1E8
330
19A
100
AcDbEntity
  8
Viditelná tenká (ISO)
100
AcDbMText
 10
223.7412519286358
 20
73.27889989032858
 30
0.0
 40
2.000000029802321
 41
34.87667701558774
 71
     1
 72
     1
  1
\fArial|b0|i0;\H2.0000;Zeichnung Nr.\fTahoma|b0|i0;\H2.0000;/Drawing No:
  7
Text poznámky (ISO)
 73
     1
 44
1.0
  0
MTEXT
  5
1E9
330
19A
100
AcDbEntity
  8
Viditelná tenká (ISO)
100
AcDbMText
 10
292.8014921014588
 20
72.84063462326732
 30
0.0
 40
2.000000029802321
 41
7.016185171142836
 71
     1
 72
     1
  1
\fArial|b0|i0;\H2.0000;Index
  7
Text poznámky (ISO)
 73
     1
 44
1.0
  0
MTEXT
  5
1EA
330
19A
100
AcDbEntity
  8
Viditelná tenká (ISO)
100
AcDbMText
 10
188.9161081342839
 20
93.0
 30
0.0
 40
2.000000029802321
 41
0.0
 71
     1
 72
     1
  1
\fArial|b0|i0;\H2.0000;Massstab\fTahoma|b0|i0;\H2.0000;/Scale:
  7
Text poznámky (ISO)
 73
     1
 44
1.0
  0
MTEXT
  5
1EB
330
19A
100
AcDbEntity
  8
Viditelná tenká (ISO)
100
AcDbMText
 10
118.0
 20
113.0
 30
0.0
 40
2.000000029802321
 41
0.0
 71
     1
 72
     1
  1
\fArial|b0|i0;\H2.0000;Werkstoff/Material:
  7
Text poznámky (ISO)
 73
     1
 44
1.0
  0
MTEXT
  5
1EC
330
19A
100
AcDbEntity
  8
Viditelná tenká (ISO)
100
AcDbMText
 10
159.0
 20
113.0
 30
0.0
 40
2.000000029802321
 41
0.0
 71
     1
 72
     1
  1
\fArial|b0|i0;\H2.0000;Gewicht/Weight:
  7
Text poznámky (ISO)
 73
     1
 44
1.0
  0
MTEXT
  5
1ED
330
19A
100
AcDbEntity
  8
Viditelná tenká (ISO)
100
AcDbMText
 10
118.0
 20
103.0
 30
0.0
 40
2.000000029802321
 41
0.0
 71
     1
 72
     1
  1
\fArial|b0|i0;\H2.0000;zul.Abweich.\fTahoma|b0|i0;\H2.0000;/Tolerance:
  7
Text poznámky (ISO)
 73
     1
 44
1.0
  0
MTEXT
  5
1EE
330
19A
100
AcDbEntity
  8
Viditelná tenká (ISO)
100
AcDbMText
 10
159.0
 20
103.0
 30
0.0
 40
2.000000029802321
 41
0.0
 71
     1
 72
     1
  1
\fArial|b0|i0;\H2.0000;Oberflache\fTahoma|b0|i0;\H2.0000;/Surface:
  7
Text poznámky (ISO)
 73
     1
 44
1.0
  0
MTEXT
  5
1EF
330
19A
100
AcDbEntity
  8
Viditelná tenká (ISO)
100
AcDbMText
 10
118.2064366962235
 20
87.52498463872976
 30
0.0
 40
2.000000029802321
 41
0.0
 71
     1
 72
     1
  1
\fArial|b0|i0;\H2.0000;Gezeichnet\fTahoma|b0|i0;\H2.0000;/Drawn:
  7
Text poznámky (ISO)
 73
     1
 44
1.0
  0
MTEXT
  5
1F0
102
{ACAD_XDICTIONARY
360
FD7
102
}
330
19A
100
AcDbEntity
  8
Viditelná tenká (ISO)
100
AcDbMText
 10
118.2064366962235
 20
82.79398756785594
 30
0.0
 40
2.000000029802321
 41
0.0
 71
     1
 72
     1
  1
\fArial|b0|i0;\H2.0000;Gepr\U+00FCft\fTahoma|b0|i0;\H2.0000;/Checked by:
  7
Text poznámky (ISO)
 73
     1
 44
1.0
  0
MTEXT
  5
1F1
330
19A
100
AcDbEntity
  8
Viditelná tenká (ISO)
100
AcDbMText
 10
118.2064366962235
 20
77.59713566222233
 30
0.0
 40
2.000000029802321
 41
0.0
 71
     1
 72
     1
  1
\fArial|b0|i0;\H2.0000;Update\fTahoma|b0|i0;\H2.0000;:
  7
Text poznámky (ISO)
 73
     1
 44
1.0
  0
MTEXT
  5
1F2
330
19A
100
AcDbEntity
  8
Viditelná tenká (ISO)
100
AcDbMText
 10
148.0773056067903
 20
93.0
 30
0.0
 40
2.000000029802321
 41
15.9304416179657
 71
     1
 72
     1
  1
\fArial|b0|i0;\H2.0000;Datum\fTahoma|b0|i0;\H2.0000;/Date:
  7
Text poznámky (ISO)
 73
     1
 44
1.0
  0
MTEXT
  5
1F3
330
19A
100
AcDbEntity
  8
Viditelná tenká (ISO)
100
AcDbMText
 10
171.7579499603394
 20
93.0
 30
0.0
 40
2.000000029802321
 41
7.452743649482727
 71
     1
 72
     1
  1
\fArial|b0|i0;\H2.0000;Name
  7
Text poznámky (ISO)
 73
     1
 44
1.0
  0
MTEXT
  5
1F4
102
{ACAD_XDICTIONARY
360
FD9
102
}
330
19A
100
AcDbEntity
  8
Nadpis (ISO)
100
AcDbMText
 10
118.0
 20
71.0
 30
0.0
 40
3.499999940395355
 41
0.0
 71
     1
 72
     1
  1
ACO vpust 142 sestava svis. dvoud\U+00EDln\U+00E1 DN100 12mm priruba bez ZU V2A
  7
Text poznámky (ISO)
 73
     1
 44
1.0
  0
MTEXT
  5
1F5
330
19A
100
AcDbEntity
  8
Nadpis (ISO)
100
AcDbMText
 10
147.8345772780873
 20
87.78242706242744
 30
0.0
 40
2.000000029802321
 41
29.41232473017148
 71
     1
 72
     1
  1
\fTahoma|b0|i0;\H2.0000;16.9.2011
  7
Text poznámky (ISO)
 73
     1
 44
1.0
  0
MTEXT
  5
1F6
330
19A
100
AcDbEntity
  8
Nadpis (ISO)
100
AcDbMText
 10
118.9147684950603
 20
98.79632878646518
 30
0.0
 40
3.499999940395355
 41
0.0
 71
     1
 72
     1
  1
ISO 2768-m
  7
Text poznámky (ISO)
 73
     1
 44
1.0
  0
MTEXT
  5
1F7
330
19A
100
AcDbEntity
  8
Nadpis (ISO)
100
AcDbMText
 10
162.5831033854
 20
99.20167780246003
 30
0.0
 40
3.499999940395355
 41
0.0
 71
     1
 72
     1
  1
DIN ISO 1302
  7
Text poznámky (ISO)
 73
     1
 44
1.0
  0
MTEXT
  5
1F8
330
19A
100
AcDbEntity
  8
Nadpis (ISO)
100
AcDbMText
 10
262.4743825961981
 20
49.17778241269704
 30
0.0
 40
3.499999940395355
 41
0.0
 71
     1
 72
     1
  1
\fArial|b0|i0;\H3.5000;List:\fArial|b0|i0;\H3.5000;1 \fArial|b0|i0;\H3.5000;/\fArial|b0|i0;\H3.5000;1 
  7
Text poznámky (ISO)
 73
     1
 44
1.0
  0
MTEXT
  5
1F9
102
{ACAD_XDICTIONARY
360
FDB
102
}
330
19A
100
AcDbEntity
  8
Nadpis (ISO)
100
AcDbMText
 10
159.4396788094336
 20
109.2360383310952
 30
0.0
 40
3.499999940395355
 41
29.10098367733216
 71
     1
 72
     1
  1
Nen\U+00ED k dispozici
  7
Text poznámky (ISO)
 73
     2
 44
0.9878841638565063
  0
MTEXT
  5
1FA
330
19A
100
AcDbEntity
  8
Nadpis (ISO)
100
AcDbMText
 10
246.4026076227944
 20
91.02705239790408
 30
0.0
 40
1.500000059604644
 41
0.0
 71
     1
 72
     1
  1
\fTahoma|b0|i0;\W0.80;\H1.5000;The drawing is property \Pof company ACO \Pand must not be neither \Pcopied nor used\Pfor other unauthorized purposes. \PTrademark according to DIN 34\P
  7
Text poznámky (ISO)
 73
     2
 44
0.8232368230819702
  0
MTEXT
  5
1FB
330
19A
100
AcDbEntity
  8
Nadpis (ISO)
100
AcDbMText
 10
261.7171631717141
 20
101.5413993827952
 30
0.0
 40
2.099999934434889
 41
0.0
 71
     1
 72
     1
  1
\fTahoma|b0|i0;\H2.1000;www.aco.com
  7
Text poznámky (ISO)
 73
     1
 44
1.0
  0
ATTDEF
  5
1FD
102
{ACAD_XDICTIONARY
360
8E2
102
}
330
19A
100
AcDbEntity
  8
Nadpis (ISO)
100
AcDbText
 10
292.1851661835569
 20
62.4856753668063
 30
0.0
 40
3.499999940395355
  1
000
  7
Styl textu9
100
AcDbAttributeDefinition
  3
ČÍSLO REVIZE
  2
ČÍSLO_REVIZE_001
 70
     0
  0
ATTDEF
  5
201
102
{ACAD_XDICTIONARY
360
8E5
102
}
330
19A
100
AcDbEntity
  8
Nadpis (ISO)
100
AcDbText
 10
294.5873446304243
 20
46.32882590415592
 30
0.0
 40
2.000000029802321
  1
A3
  7
Styl textu40
100
AcDbAttributeDefinition
  3
Sheet Size
  2
Sheet_Size_001
 70
     0
  0
ATTDEF
  5
202
102
{ACAD_XDICTIONARY
360
8E8
102
}
330
19A
100
AcDbEntity
  8
Nadpis (ISO)
100
AcDbText
 10
224.4232249036362
 20
62.48824720554019
 30
0.0
 40
3.499999940395355
  1
414714
  7
Text poznámky (ISO)
100
AcDbAttributeDefinition
  3
PART NUMBER
  2
PART_NUMBER_001
 70
     0
  0
ATTDEF
  5
203
102
{ACAD_XDICTIONARY
360
8EB
102
}
330
19A
100
AcDbEntity
  8
Nadpis (ISO)
100
AcDbText
 10
118.0
 20
56.50000005960464
 30
0.0
 40
3.499999940395355
  1

  7
Text poznámky (ISO)
 11
118.0
 21
60.0
 31
0.0
100
AcDbAttributeDefinition
  3
PROJECT
  2
PROJECT
 70
     0
 74
     3
  0
ATTDEF
  5
205
102
{ACAD_XDICTIONARY
360
8EE
102
}
330
19A
100
AcDbEntity
  8
Nadpis (ISO)
100
AcDbText
 10
117.8119543349687
 20
47.87040746597276
 30
0.0
 40
6.99999988079071
  1
414714
  7
Styl textu94
100
AcDbAttributeDefinition
  3
SKLADOVÉ ČÍSLO
  2
SKLADOVÉ_ČÍSLO_001
 70
     0
  0
ATTDEF
  5
206
102
{ACAD_XDICTIONARY
360
8F1
102
}
330
19A
100
AcDbEntity
  8
Nadpis (ISO)
100
AcDbText
 10
117.5939056808251
 20
105.1756658592857
 30
0.0
 40
3.499999940395355
  1

  7
Text poznámky (ISO)
 11
117.5939056808251
 21
108.6756657996811
 31
0.0
100
AcDbAttributeDefinition
  3
MATERIAL
  2
MATERIAL
 70
     0
 74
     3
  0
ATTDEF
  5
207
102
{ACAD_XDICTIONARY
360
8F4
102
}
330
19A
100
AcDbEntity
  8
Nadpis (ISO)
100
AcDbText
 10
171.1119787164545
 20
85.78242703262512
 30
0.0
 40
2.000000029802321
  1
pmacoun
  7
Styl textu40
100
AcDbAttributeDefinition
  3
AUTHOR
  2
AUTHOR_001
 70
     0
  0
ATTDEF
  5
208
102
{ACAD_XDICTIONARY
360
8F7
102
}
330
19A
100
AcDbEntity
  8
Nadpis (ISO)
100
AcDbText
 10
189.1855699863978
 20
82.50038826992808
 30
0.0
 40
3.499999940395355
  1

  7
Text poznámky (ISO)
 11
189.1855699863978
 21
86.00038821032343
 31
0.0
100
AcDbAttributeDefinition
  3
FirstViewScale
  2
FirstViewScale
 70
     0
 74
     3
  0
ENDBLK
  5
19C
330
19A
100
AcDbEntity
  8
0
100
AcDbBlockEnd
  0
BLOCK
  5
4D6
330
4D5
100
AcDbEntity
  8
0
100
AcDbBlockBegin
  2
KUSOVNÍK
 70
     0
 10
0.0
 20
0.0
 30
0.0
  3
KUSOVNÍK
  1

  0
LINE
  5
4D8
330
4D5
100
AcDbEntity
  8
Značka (ISO)
100
AcDbLine
 10
410.0
 20
167.8818167567254
 30
0.0
 11
157.5646055473803
 21
167.8818167567254
 31
0.0
  0
LINE
  5
4D9
330
4D5
100
AcDbEntity
  8
Značka (ISO)
100
AcDbLine
 10
410.0
 20
167.8818167567254
 30
0.0
 11
410.0
 21
161.5331155598164
 31
0.0
  0
LINE
  5
4DA
330
4D5
100
AcDbEntity
  8
Značka (ISO)
100
AcDbLine
 10
157.5646055473803
 20
167.8818167567254
 30
0.0
 11
157.5646055473803
 21
161.5331155598164
 31
0.0
  0
MTEXT
  5
4DB
102
{ACAD_XDICTIONARY
360
FDD
102
}
330
4D5
100
AcDbEntity
  8
Značka (ISO)
100
AcDbMText
 10
273.2389243621595
 20
162.2577908068896
 30
0.0
 40
3.499999940395355
 41
0.0
 71
     7
 72
     1
  1
KUSOVN\U+00CDK
  7
Text poznámky (DIN)
 73
     1
 44
1.0
  0
LINE
  5
4DD
330
4D5
100
AcDbEntity
  8
Značka (ISO)
100
AcDbLine
 10
410.0
 20
161.5331155598164
 30
0.0
 11
157.5646055473803
 21
161.5331155598164
 31
0.0
  0
LINE
  5
4DE
330
4D5
100
AcDbEntity
  8
Značka (ISO)
100
AcDbLine
 10
410.0
 20
161.5331155598164
 30
0.0
 11
410.0
 21
155.1844143629075
 31
0.0
  0
MTEXT
  5
4DF
102
{ACAD_XDICTIONARY
360
FDF
102
}
330
4D5
100
AcDbEntity
  8
Značka (ISO)
100
AcDbMText
 10
382.6475923915264
 20
155.9090896099806
 30
0.0
 40
3.499999940395355
 41
0.0
 71
     7
 72
     1
  1
MATERI\U+00C1L
  7
Text poznámky (DIN)
 73
     1
 44
1.0
  0
LINE
  5
4E0
330
4D5
100
AcDbEntity
  8
Značka (ISO)
100
AcDbLine
 10
375.68064289243
 20
161.5331155598164
 30
0.0
 11
375.68064289243
 21
155.1844143629075
 31
0.0
  0
MTEXT
  5
4E1
330
4D5
100
AcDbEntity
  8
Značka (ISO)
100
AcDbMText
 10
347.4532355223749
 20
156.6087649911643
 30
0.0
 40
3.499999940395355
 41
0.0
 71
     7
 72
     1
  1
HMOTNOST
  7
Text poznámky (DIN)
 73
     1
 44
1.0
  0
LINE
  5
4E2
330
4D5
100
AcDbEntity
  8
Značka (ISO)
100
AcDbLine
 10
341.3612857848599
 20
161.5331155598164
 30
0.0
 11
341.3612857848599
 21
155.1844143629075
 31
0.0
  0
MTEXT
  5
4E3
102
{ACAD_XDICTIONARY
360
FE1
102
}
330
4D5
100
AcDbEntity
  8
Značka (ISO)
100
AcDbMText
 10
308.7605020453286
 20
155.9090896099806
 30
0.0
 40
3.499999940395355
 41
0.0
 71
     7
 72
     1
  1
SKLADOV\U+00C9 \U+010C\U+00CDS
  7
Text poznámky (DIN)
 73
     1
 44
1.0
  0
LINE
  5
4E4
330
4D5
100
AcDbEntity
  8
Značka (ISO)
100
AcDbLine
 10
307.0419286772899
 20
161.5331155598164
 30
0.0
 11
307.0419286772899
 21
155.1844143629075
 31
0.0
  0
MTEXT
  5
4E5
330
4D5
100
AcDbEntity
  8
Značka (ISO)
100
AcDbMText
 10
242.385877626693
 20
156.6087649911643
 30
0.0
 40
3.499999940395355
 41
0.0
 71
     7
 72
     1
  1
POPIS
  7
Text poznámky (DIN)
 73
     1
 44
1.0
  0
LINE
  5
4E6
330
4D5
100
AcDbEntity
  8
Značka (ISO)
100
AcDbLine
 10
189.3685307544276
 20
161.5331155598164
 30
0.0
 11
189.3685307544276
 21
155.1844143629075
 31
0.0
  0
MTEXT
  5
4E7
330
4D5
100
AcDbEntity
  8
Značka (ISO)
100
AcDbMText
 10
181.8747087127082
 20
156.6087649911643
 30
0.0
 40
3.499999940395355
 41
0.0
 71
     7
 72
     1
  1
KS
  7
Text poznámky (DIN)
 73
     1
 44
1.0
  0
LINE
  5
4E8
330
4D5
100
AcDbEntity
  8
Značka (ISO)
100
AcDbLine
 10
179.3734875864189
 20
161.5331155598164
 30
0.0
 11
179.3734875864189
 21
155.1844143629075
 31
0.0
  0
MTEXT
  5
4E9
330
4D5
100
AcDbEntity
  8
Značka (ISO)
100
AcDbMText
 10
161.6009930722086
 20
156.6087649911643
 30
0.0
 40
3.499999940395355
 41
0.0
 71
     7
 72
     1
  1
POZICE
  7
Text poznámky (DIN)
 73
     1
 44
1.0
  0
LINE
  5
4EA
330
4D5
100
AcDbEntity
  8
Značka (ISO)
100
AcDbLine
 10
157.5646055473803
 20
161.5331155598164
 30
0.0
 11
157.5646055473803
 21
155.1844143629075
 31
0.0
  0
MTEXT
  5
4EB
330
4D5
100
AcDbEntity
  8
Značka (ISO)
100
AcDbMText
 10
376.8830436614261
 20
150.2600637942553
 30
0.0
 40
3.499999940395355
 41
0.0
 71
     7
 72
     1
  1
Guma
  7
Text poznámky (DIN)
 73
     1
 44
1.0
  0
MTEXT
  5
4EC
330
4D5
100
AcDbEntity
  8
Značka (ISO)
100
AcDbMText
 10
342.5636865538562
 20
149.2113625377417
 30
0.0
 40
3.499999940395355
 41
0.0
 71
     7
 72
     1
  1
0,084 kg
  7
Text poznámky (DIN)
 73
     1
 44
1.0
  0
MTEXT
  5
4ED
330
4D5
100
AcDbEntity
  8
Značka (ISO)
100
AcDbMText
 10
308.244329446286
 20
150.2600637942553
 30
0.0
 40
3.499999940395355
 41
0.0
 71
     7
 72
     1
  1
E55520
  7
Text poznámky (DIN)
 73
     1
 44
1.0
  0
MTEXT
  5
4EE
330
4D5
100
AcDbEntity
  8
Značka (ISO)
100
AcDbMText
 10
190.5709315234238
 20
149.2113625377417
 30
0.0
 40
3.499999940395355
 41
0.0
 71
     7
 72
     1
  1
ACO vpust drenazni krouzek komplet 142
  7
Text poznámky (DIN)
 73
     1
 44
1.0
  0
MTEXT
  5
4EF
330
4D5
100
AcDbEntity
  8
Značka (ISO)
100
AcDbMText
 10
183.7956099472002
 20
150.2600637942553
 30
0.0
 40
3.499999940395355
 41
0.0
 71
     7
 72
     1
  1
1
  7
Text poznámky (DIN)
 73
     1
 44
1.0
  0
MTEXT
  5
4F0
330
4D5
100
AcDbEntity
  8
Značka (ISO)
100
AcDbMText
 10
167.8936473436765
 20
150.2600637942553
 30
0.0
 40
3.499999940395355
 41
0.0
 71
     7
 72
     1
  1
1
  7
Text poznámky (DIN)
 73
     1
 44
1.0
  0
LINE
  5
4F1
330
4D5
100
AcDbEntity
  8
Značka (ISO)
100
AcDbLine
 10
410.0
 20
155.1844143629075
 30
0.0
 11
157.5646055473803
 21
155.1844143629075
 31
0.0
  0
MTEXT
  5
4F2
330
4D5
100
AcDbEntity
  8
Značka (ISO)
100
AcDbMText
 10
376.8830436614261
 20
143.9113625973464
 30
0.0
 40
3.499999940395355
 41
0.0
 71
     7
 72
     1
  1
Mosaz
  7
Text poznámky (DIN)
 73
     1
 44
1.0
  0
MTEXT
  5
4F3
330
4D5
100
AcDbEntity
  8
Značka (ISO)
100
AcDbMText
 10
342.5636865538562
 20
142.8626613408328
 30
0.0
 40
3.499999940395355
 41
0.0
 71
     7
 72
     1
  1
0,005 kg
  7
Text poznámky (DIN)
 73
     1
 44
1.0
  0
MTEXT
  5
4F4
330
4D5
100
AcDbEntity
  8
Značka (ISO)
100
AcDbMText
 10
308.244329446286
 20
143.9113625973464
 30
0.0
 40
3.499999940395355
 41
0.0
 71
     7
 72
     1
  1
90678
  7
Text poznámky (DIN)
 73
     1
 44
1.0
  0
MTEXT
  5
4F5
330
4D5
100
AcDbEntity
  8
Značka (ISO)
100
AcDbMText
 10
190.5709315234238
 20
143.9113625973464
 30
0.0
 40
3.499999940395355
 41
0.0
 71
     7
 72
     1
  1
Matice M8 DIN 934
  7
Text poznámky (DIN)
 73
     1
 44
1.0
  0
MTEXT
  5
4F6
330
4D5
100
AcDbEntity
  8
Značka (ISO)
100
AcDbMText
 10
183.7956099472002
 20
143.9113625973464
 30
0.0
 40
3.499999940395355
 41
0.0
 71
     7
 72
     1
  1
1
  7
Text poznámky (DIN)
 73
     1
 44
1.0
  0
MTEXT
  5
4F7
330
4D5
100
AcDbEntity
  8
Značka (ISO)
100
AcDbMText
 10
167.5474214009611
 20
143.9113625973464
 30
0.0
 40
3.499999940395355
 41
0.0
 71
     7
 72
     1
  1
2
  7
Text poznámky (DIN)
 73
     1
 44
1.0
  0
LINE
  5
4F8
330
4D5
100
AcDbEntity
  8
Značka (ISO)
100
AcDbLine
 10
410.0
 20
148.8357131659985
 30
0.0
 11
157.5646055473803
 21
148.8357131659985
 31
0.0
  0
MTEXT
  5
4F9
330
4D5
100
AcDbEntity
  8
Značka (ISO)
100
AcDbMText
 10
376.8830436614261
 20
137.5626614004374
 30
0.0
 40
3.499999940395355
 41
0.0
 71
     7
 72
     1
  1
Plast ABS
  7
Text poznámky (DIN)
 73
     1
 44
1.0
  0
MTEXT
  5
4FA
330
4D5
100
AcDbEntity
  8
Značka (ISO)
100
AcDbMText
 10
342.5636865538562
 20
136.5139601439238
 30
0.0
 40
3.499999940395355
 41
0.0
 71
     7
 72
     1
  1
0,002 kg
  7
Text poznámky (DIN)
 73
     1
 44
1.0
  0
MTEXT
  5
4FB
330
4D5
100
AcDbEntity
  8
Značka (ISO)
100
AcDbMText
 10
308.244329446286
 20
137.5626614004374
 30
0.0
 40
3.499999940395355
 41
0.0
 71
     7
 72
     1
  1
91363
  7
Text poznámky (DIN)
 73
     1
 44
1.0
  0
MTEXT
  5
4FC
330
4D5
100
AcDbEntity
  8
Značka (ISO)
100
AcDbMText
 10
190.5709315234238
 20
136.5139601439238
 30
0.0
 40
3.499999940395355
 41
0.0
 71
     7
 72
     1
  1
Krytka  matic 
  7
Text poznámky (DIN)
 73
     1
 44
1.0
  0
MTEXT
  5
4FD
330
4D5
100
AcDbEntity
  8
Značka (ISO)
100
AcDbMText
 10
183.7956099472002
 20
137.5626614004374
 30
0.0
 40
3.499999940395355
 41
0.0
 71
     7
 72
     1
  1
1
  7
Text poznámky (DIN)
 73
     1
 44
1.0
  0
MTEXT
  5
4FE
330
4D5
100
AcDbEntity
  8
Značka (ISO)
100
AcDbMText
 10
167.5474214009611
 20
137.5626614004374
 30
0.0
 40
3.499999940395355
 41
0.0
 71
     7
 72
     1
  1
3
  7
Text poznámky (DIN)
 73
     1
 44
1.0
  0
LINE
  5
4FF
330
4D5
100
AcDbEntity
  8
Značka (ISO)
100
AcDbLine
 10
410.0
 20
142.4870119690896
 30
0.0
 11
157.5646055473803
 21
142.4870119690896
 31
0.0
  0
MTEXT
  5
500
330
4D5
100
AcDbEntity
  8
Značka (ISO)
100
AcDbMText
 10
376.8830436614261
 20
131.2139602035285
 30
0.0
 40
3.499999940395355
 41
0.0
 71
     7
 72
     1
  1
PVC-U
  7
Text poznámky (DIN)
 73
     1
 44
1.0
  0
MTEXT
  5
501
330
4D5
100
AcDbEntity
  8
Značka (ISO)
100
AcDbMText
 10
342.5636865538562
 20
130.1652589470149
 30
0.0
 40
3.499999940395355
 41
0.0
 71
     7
 72
     1
  1
0,069 kg
  7
Text poznámky (DIN)
 73
     1
 44
1.0
  0
MTEXT
  5
502
330
4D5
100
AcDbEntity
  8
Značka (ISO)
100
AcDbMText
 10
308.244329446286
 20
131.2139602035285
 30
0.0
 40
3.499999940395355
 41
0.0
 71
     7
 72
     1
  1
NM 6702
  7
Text poznámky (DIN)
 73
     1
 44
1.0
  0
MTEXT
  5
503
102
{ACAD_XDICTIONARY
360
FE3
102
}
330
4D5
100
AcDbEntity
  8
Značka (ISO)
100
AcDbMText
 10
190.5709315234238
 20
129.9915576010943
 30
0.0
 40
3.499999940395355
 41
0.0
 71
     7
 72
     1
  1
n\U+00E1vlek sunap-DN100
  7
Text poznámky (DIN)
 73
     1
 44
1.0
  0
MTEXT
  5
504
330
4D5
100
AcDbEntity
  8
Značka (ISO)
100
AcDbMText
 10
183.7956099472002
 20
131.2139602035285
 30
0.0
 40
3.499999940395355
 41
0.0
 71
     7
 72
     1
  1
1
  7
Text poznámky (DIN)
 73
     1
 44
1.0
  0
MTEXT
  5
505
330
4D5
100
AcDbEntity
  8
Značka (ISO)
100
AcDbMText
 10
167.37209672254
 20
131.2139602035285
 30
0.0
 40
3.499999940395355
 41
0.0
 71
     7
 72
     1
  1
4
  7
Text poznámky (DIN)
 73
     1
 44
1.0
  0
LINE
  5
506
330
4D5
100
AcDbEntity
  8
Značka (ISO)
100
AcDbLine
 10
410.0
 20
136.1383107721806
 30
0.0
 11
157.5646055473803
 21
136.1383107721806
 31
0.0
  0
MTEXT
  5
507
330
4D5
100
AcDbEntity
  8
Značka (ISO)
100
AcDbMText
 10
376.8830436614261
 20
124.8652590066195
 30
0.0
 40
3.499999940395355
 41
0.0
 71
     7
 72
     1
  1
AISI 304
  7
Text poznámky (DIN)
 73
     1
 44
1.0
  0
MTEXT
  5
508
330
4D5
100
AcDbEntity
  8
Značka (ISO)
100
AcDbMText
 10
342.5636865538562
 20
123.816557750106
 30
0.0
 40
3.499999940395355
 41
0.0
 71
     7
 72
     1
  1
0,830 kg
  7
Text poznámky (DIN)
 73
     1
 44
1.0
  0
MTEXT
  5
509
330
4D5
100
AcDbEntity
  8
Značka (ISO)
100
AcDbMText
 10
308.244329446286
 20
124.8652590066195
 30
0.0
 40
3.499999940395355
 41
0.0
 71
     7
 72
     1
  1
E55486
  7
Text poznámky (DIN)
 73
     1
 44
1.0
  0
MTEXT
  5
50A
102
{ACAD_XDICTIONARY
360
FE5
102
}
330
4D5
100
AcDbEntity
  8
Značka (ISO)
100
AcDbMText
 10
190.5709315234238
 20
123.6428564041854
 30
0.0
 40
3.499999940395355
 41
0.0
 71
     7
 72
     1
  1
ACO vpust 142 svarenec svis. dvoud\U+00EDln\U+00E1 12mm 
  7
Text poznámky (DIN)
 73
     1
 44
1.0
  0
MTEXT
  5
50B
102
{ACAD_XDICTIONARY
360
FE7
102
}
330
4D5
100
AcDbEntity
  8
Značka (ISO)
100
AcDbMText
 10
190.5709315234238
 20
117.2941552847625
 30
0.0
 40
3.499999940395355
 41
0.0
 71
     7
 72
     1
  1
p\U+0159\U+00EDruba DN100 V2A
  7
Text poznámky (DIN)
 73
     1
 44
1.0
  0
MTEXT
  5
50C
330
4D5
100
AcDbEntity
  8
Značka (ISO)
100
AcDbMText
 10
183.7956099472002
 20
124.8652590066195
 30
0.0
 40
3.499999940395355
 41
0.0
 71
     7
 72
     1
  1
1
  7
Text poznámky (DIN)
 73
     1
 44
1.0
  0
MTEXT
  5
50D
330
4D5
100
AcDbEntity
  8
Značka (ISO)
100
AcDbMText
 10
167.5474214009611
 20
124.8652590066195
 30
0.0
 40
3.499999940395355
 41
0.0
 71
     7
 72
     1
  1
5
  7
Text poznámky (DIN)
 73
     1
 44
1.0
  0
LINE
  5
50E
330
4D5
100
AcDbEntity
  8
Značka (ISO)
100
AcDbLine
 10
410.0
 20
129.7896095752717
 30
0.0
 11
157.5646055473803
 21
129.7896095752717
 31
0.0
  0
MTEXT
  5
50F
102
{ACAD_XDICTIONARY
360
FE9
102
}
330
4D5
100
AcDbEntity
  8
Značka (ISO)
100
AcDbMText
 10
376.8830436614261
 20
110.9454540103675
 30
0.0
 40
3.499999940395355
 41
0.0
 71
     7
 72
     1
  1
Pap\U+00EDr
  7
Text poznámky (DIN)
 73
     1
 44
1.0
  0
MTEXT
  5
510
330
4D5
100
AcDbEntity
  8
Značka (ISO)
100
AcDbMText
 10
342.5636865538562
 20
111.119155356288
 30
0.0
 40
3.499999940395355
 41
0.0
 71
     7
 72
     1
  1
0 kg
  7
Text poznámky (DIN)
 73
     1
 44
1.0
  0
MTEXT
  5
511
330
4D5
100
AcDbEntity
  8
Značka (ISO)
100
AcDbMText
 10
308.244329446286
 20
112.1678566128016
 30
0.0
 40
3.499999940395355
 41
0.0
 71
     7
 72
     1
  1
91018
  7
Text poznámky (DIN)
 73
     1
 44
1.0
  0
MTEXT
  5
512
330
4D5
100
AcDbEntity
  8
Značka (ISO)
100
AcDbMText
 10
190.5709315234238
 20
112.1678566128016
 30
0.0
 40
3.499999940395355
 41
0.0
 71
     7
 72
     1
  1
Etiketa
  7
Text poznámky (DIN)
 73
     1
 44
1.0
  0
MTEXT
  5
513
330
4D5
100
AcDbEntity
  8
Značka (ISO)
100
AcDbMText
 10
183.7956099472002
 20
112.1678566128016
 30
0.0
 40
3.499999940395355
 41
0.0
 71
     7
 72
     1
  1
1
  7
Text poznámky (DIN)
 73
     1
 44
1.0
  0
MTEXT
  5
514
330
4D5
100
AcDbEntity
  8
Značka (ISO)
100
AcDbMText
 10
167.5474214009611
 20
112.1678566128016
 30
0.0
 40
3.499999940395355
 41
0.0
 71
     7
 72
     1
  1
6
  7
Text poznámky (DIN)
 73
     1
 44
1.0
  0
LINE
  5
515
330
4D5
100
AcDbEntity
  8
Značka (ISO)
100
AcDbLine
 10
410.0
 20
117.0922071814538
 30
0.0
 11
157.5646055473803
 21
117.0922071814538
 31
0.0
  0
MTEXT
  5
516
102
{ACAD_XDICTIONARY
360
FEB
102
}
330
4D5
100
AcDbEntity
  8
Značka (ISO)
100
AcDbMText
 10
376.8830436614261
 20
104.5967528134585
 30
0.0
 40
3.499999940395355
 41
0.0
 71
     7
 72
     1
  1
Polykarbon\U+00E1t, 
  7
Text poznámky (DIN)
 73
     1
 44
1.0
  0
MTEXT
  5
517
102
{ACAD_XDICTIONARY
360
FED
102
}
330
4D5
100
AcDbEntity
  8
Značka (ISO)
100
AcDbMText
 10
376.8830436614261
 20
98.24805169403564
 30
0.0
 40
3.499999940395355
 41
0.0
 71
     7
 72
     1
  1
kou\U+0159ov\U+00FD
  7
Text poznámky (DIN)
 73
     1
 44
1.0
  0
MTEXT
  5
518
330
4D5
100
AcDbEntity
  8
Značka (ISO)
100
AcDbMText
 10
342.5636865538562
 20
104.7704541593791
 30
0.0
 40
3.499999940395355
 41
0.0
 71
     7
 72
     1
  1
0,025 kg
  7
Text poznámky (DIN)
 73
     1
 44
1.0
  0
MTEXT
  5
519
330
4D5
100
AcDbEntity
  8
Značka (ISO)
100
AcDbMText
 10
308.244329446286
 20
105.8191554158927
 30
0.0
 40
3.499999940395355
 41
0.0
 71
     7
 72
     1
  1
E55477
  7
Text poznámky (DIN)
 73
     1
 44
1.0
  0
MTEXT
  5
51A
102
{ACAD_XDICTIONARY
360
FEF
102
}
330
4D5
100
AcDbEntity
  8
Značka (ISO)
100
AcDbMText
 10
190.5709315234238
 20
104.5967528134585
 30
0.0
 40
3.499999940395355
 41
0.0
 71
     7
 72
     1
  1
ACO vpust 142 kryt plastov\U+00FD 157 pro balen\U+00ED PP 
  7
Text poznámky (DIN)
 73
     1
 44
1.0
  0
MTEXT
  5
51B
330
4D5
100
AcDbEntity
  8
Značka (ISO)
100
AcDbMText
 10
190.5681315163034
 20
99.29675295054924
 30
0.0
 40
3.499999940395355
 41
0.0
 71
     7
 72
     1
  1
12mm
  7
Text poznámky (DIN)
 73
     1
 44
1.0
  0
MTEXT
  5
51C
330
4D5
100
AcDbEntity
  8
Značka (ISO)
100
AcDbMText
 10
183.7956099472002
 20
105.8191554158927
 30
0.0
 40
3.499999940395355
 41
0.0
 71
     7
 72
     1
  1
1
  7
Text poznámky (DIN)
 73
     1
 44
1.0
  0
MTEXT
  5
51D
330
4D5
100
AcDbEntity
  8
Značka (ISO)
100
AcDbMText
 10
166.3233954660265
 20
105.8191554158927
 30
0.0
 40
3.499999940395355
 41
0.0
 71
     7
 72
     1
  1
22
  7
Text poznámky (DIN)
 73
     1
 44
1.0
  0
LINE
  5
51E
330
4D5
100
AcDbEntity
  8
Značka (ISO)
100
AcDbLine
 10
410.0
 20
110.7435059845448
 30
0.0
 11
157.5646055473803
 21
110.7435059845448
 31
0.0
  0
MTEXT
  5
51F
330
4D5
100
AcDbEntity
  8
Značka (ISO)
100
AcDbMText
 10
376.8830436614261
 20
93.12175302207482
 30
0.0
 40
3.499999940395355
 41
0.0
 71
     7
 72
     1
  1
PE-HD
  7
Text poznámky (DIN)
 73
     1
 44
1.0
  0
MTEXT
  5
520
330
4D5
100
AcDbEntity
  8
Značka (ISO)
100
AcDbMText
 10
342.5636865538562
 20
92.07305176556122
 30
0.0
 40
3.499999940395355
 41
0.0
 71
     7
 72
     1
  1
0,002 kg
  7
Text poznámky (DIN)
 73
     1
 44
1.0
  0
MTEXT
  5
521
330
4D5
100
AcDbEntity
  8
Značka (ISO)
100
AcDbMText
 10
308.244329446286
 20
93.12175302207482
 30
0.0
 40
3.499999940395355
 41
0.0
 71
     7
 72
     1
  1
NM6373
  7
Text poznámky (DIN)
 73
     1
 44
1.0
  0
MTEXT
  5
522
330
4D5
100
AcDbEntity
  8
Značka (ISO)
100
AcDbMText
 10
190.5709315234238
 20
93.12175302207482
 30
0.0
 40
3.499999940395355
 41
0.0
 71
     7
 72
     1
  1
Effidrain lubricant
  7
Text poznámky (DIN)
 73
     1
 44
1.0
  0
MTEXT
  5
523
330
4D5
100
AcDbEntity
  8
Značka (ISO)
100
AcDbMText
 10
183.7956099472002
 20
93.12175302207482
 30
0.0
 40
3.499999940395355
 41
0.0
 71
     7
 72
     1
  1
1
  7
Text poznámky (DIN)
 73
     1
 44
1.0
  0
MTEXT
  5
524
330
4D5
100
AcDbEntity
  8
Značka (ISO)
100
AcDbMText
 10
166.3233954660265
 20
93.12175302207482
 30
0.0
 40
3.499999940395355
 41
0.0
 71
     7
 72
     1
  1
23
  7
Text poznámky (DIN)
 73
     1
 44
1.0
  0
LINE
  5
525
330
4D5
100
AcDbEntity
  8
Značka (ISO)
100
AcDbLine
 10
410.0
 20
98.04610359072695
 30
0.0
 11
157.5646055473803
 21
98.04610359072695
 31
0.0
  0
MTEXT
  5
526
330
4D5
100
AcDbEntity
  8
Značka (ISO)
100
AcDbMText
 10
376.8830436614261
 20
85.72435056865229
 30
0.0
 40
3.499999940395355
 41
0.0
 71
     7
 72
     1
  1
plast
  7
Text poznámky (DIN)
 73
     1
 44
1.0
  0
MTEXT
  5
527
330
4D5
100
AcDbEntity
  8
Značka (ISO)
100
AcDbMText
 10
342.5636865538562
 20
85.72435056865229
 30
0.0
 40
3.499999940395355
 41
0.0
 71
     7
 72
     1
  1
0,02 kg
  7
Text poznámky (DIN)
 73
     1
 44
1.0
  0
MTEXT
  5
528
330
4D5
100
AcDbEntity
  8
Značka (ISO)
100
AcDbMText
 10
308.244329446286
 20
86.77305182516588
 30
0.0
 40
3.499999940395355
 41
0.0
 71
     7
 72
     1
  1
NM6522
  7
Text poznámky (DIN)
 73
     1
 44
1.0
  0
MTEXT
  5
529
102
{ACAD_XDICTIONARY
360
FF1
102
}
330
4D5
100
AcDbEntity
  8
Značka (ISO)
100
AcDbMText
 10
190.5709315234238
 20
86.59935047924532
 30
0.0
 40
3.499999940395355
 41
0.0
 71
     7
 72
     1
  1
ochran\U+00E1 s\U+00ED\U+0165ka
  7
Text poznámky (DIN)
 73
     1
 44
1.0
  0
MTEXT
  5
52A
330
4D5
100
AcDbEntity
  8
Značka (ISO)
100
AcDbMText
 10
183.7956099472002
 20
86.77305182516588
 30
0.0
 40
3.499999940395355
 41
0.0
 71
     7
 72
     1
  1
1
  7
Text poznámky (DIN)
 73
     1
 44
1.0
  0
MTEXT
  5
52B
330
4D5
100
AcDbEntity
  8
Značka (ISO)
100
AcDbMText
 10
166.3233954660265
 20
86.77305182516588
 30
0.0
 40
3.499999940395355
 41
0.0
 71
     7
 72
     1
  1
25
  7
Text poznámky (DIN)
 73
     1
 44
1.0
  0
LINE
  5
52C
330
4D5
100
AcDbEntity
  8
Značka (ISO)
100
AcDbLine
 10
410.0
 20
91.697402393818
 30
0.0
 11
157.5646055473803
 21
91.697402393818
 31
0.0
  0
MTEXT
  5
52D
330
4D5
100
AcDbEntity
  8
Značka (ISO)
100
AcDbMText
 10
376.8830436614261
 20
80.42435062825692
 30
0.0
 40
3.499999940395355
 41
0.0
 71
     7
 72
     1
  1
karton
  7
Text poznámky (DIN)
 73
     1
 44
1.0
  0
MTEXT
  5
52E
330
4D5
100
AcDbEntity
  8
Značka (ISO)
100
AcDbMText
 10
342.5636865538562
 20
79.37564937174332
 30
0.0
 40
3.499999940395355
 41
0.0
 71
     7
 72
     1
  1
0,052 kg
  7
Text poznámky (DIN)
 73
     1
 44
1.0
  0
MTEXT
  5
52F
330
4D5
100
AcDbEntity
  8
Značka (ISO)
100
AcDbMText
 10
308.244329446286
 20
80.42435062825692
 30
0.0
 40
3.499999940395355
 41
0.0
 71
     7
 72
     1
  1
E56574
  7
Text poznámky (DIN)
 73
     1
 44
1.0
  0
MTEXT
  5
530
102
{ACAD_XDICTIONARY
360
FF3
102
}
330
4D5
100
AcDbEntity
  8
Značka (ISO)
100
AcDbMText
 10
190.5709315234238
 20
79.20194802582276
 30
0.0
 40
3.499999940395355
 41
0.0
 71
     7
 72
     1
  1
Effidrain karton - dren\U+00E1\U+017En\U+00ED pro mont\U+00E1\U+017E 142
  7
Text poznámky (DIN)
 73
     1
 44
1.0
  0
MTEXT
  5
531
330
4D5
100
AcDbEntity
  8
Značka (ISO)
100
AcDbMText
 10
183.7956099472002
 20
80.42435062825692
 30
0.0
 40
3.499999940395355
 41
0.0
 71
     7
 72
     1
  1
1
  7
Text poznámky (DIN)
 73
     1
 44
1.0
  0
MTEXT
  5
532
330
4D5
100
AcDbEntity
  8
Značka (ISO)
100
AcDbMText
 10
166.3233954660265
 20
80.42435062825692
 30
0.0
 40
3.499999940395355
 41
0.0
 71
     7
 72
     1
  1
25
  7
Text poznámky (DIN)
 73
     1
 44
1.0
  0
LINE
  5
533
330
4D5
100
AcDbEntity
  8
Značka (ISO)
100
AcDbLine
 10
410.0
 20
85.34870119690905
 30
0.0
 11
157.5646055473803
 21
85.34870119690905
 31
0.0
  0
LINE
  5
534
330
4D5
100
AcDbEntity
  8
Značka (ISO)
100
AcDbLine
 10
410.0
 20
79.00000000000012
 30
0.0
 11
157.5646055473803
 21
79.00000000000012
 31
0.0
  0
LINE
  5
535
330
4D5
100
AcDbEntity
  8
Značka (ISO)
100
AcDbLine
 10
410.0
 20
155.1844143629075
 30
0.0
 11
410.0
 21
79.00000000000012
 31
0.0
  0
LINE
  5
536
330
4D5
100
AcDbEntity
  8
Značka (ISO)
100
AcDbLine
 10
375.68064289243
 20
155.1844143629075
 30
0.0
 11
375.68064289243
 21
79.00000000000012
 31
0.0
  0
LINE
  5
537
330
4D5
100
AcDbEntity
  8
Značka (ISO)
100
AcDbLine
 10
341.3612857848599
 20
155.1844143629075
 30
0.0
 11
341.3612857848599
 21
79.00000000000012
 31
0.0
  0
LINE
  5
538
330
4D5
100
AcDbEntity
  8
Značka (ISO)
100
AcDbLine
 10
307.0419286772899
 20
155.1844143629075
 30
0.0
 11
307.0419286772899
 21
79.00000000000012
 31
0.0
  0
LINE
  5
539
330
4D5
100
AcDbEntity
  8
Značka (ISO)
100
AcDbLine
 10
189.3685307544276
 20
155.1844143629075
 30
0.0
 11
189.3685307544276
 21
79.00000000000012
 31
0.0
  0
LINE
  5
53A
330
4D5
100
AcDbEntity
  8
Značka (ISO)
100
AcDbLine
 10
179.3734875864189
 20
155.1844143629075
 30
0.0
 11
179.3734875864189
 21
79.00000000000012
 31
0.0
  0
LINE
  5
53B
330
4D5
100
AcDbEntity
  8
Značka (ISO)
100
AcDbLine
 10
157.5646055473803
 20
155.1844143629075
 30
0.0
 11
157.5646055473803
 21
79.00000000000012
 31
0.0
  0
ENDBLK
  5
4D7
330
4D5
100
AcDbEntity
  8
0
100
AcDbBlockEnd
  0
BLOCK
  5
54B
330
54A
100
AcDbEntity
  8
0
100
AcDbBlockBegin
  2
*D27
 70
     1
 10
0.0
 20
0.0
 30
0.0
  3
*D27
  1

  0
LINE
  5
623
330
54A
100
AcDbEntity
  8
Kóta (ISO)
440
 16777216
100
AcDbLine
 10
93.19964593223492
 20
207.8258260769031
 30
0.0
 11
93.19964593223492
 21
185.5233807070036
 31
0.0
  0
LINE
  5
624
330
54A
100
AcDbEntity
  8
Kóta (ISO)
440
 16777216
100
AcDbLine
 10
203.1996459322349
 20
207.8258260769031
 30
0.0
 11
203.1996459322349
 21
185.5233807070036
 31
0.0
  0
LINE
  5
625
330
54A
100
AcDbEntity
  8
Kóta (ISO)
440
 16777216
100
AcDbLine
 10
96.94964593223492
 20
187.0233807070036
 30
0.0
 11
199.4496459322349
 21
187.0233807070036
 31
0.0
  0
SOLID
  5
626
330
54A
100
AcDbEntity
  8
Kóta (ISO)
440
 16777216
100
AcDbTrace
 10
96.94964593223492
 20
187.6483807070036
 30
0.0
 11
96.94964593223492
 21
186.3983807070036
 31
0.0
 12
93.19964593223492
 22
187.0233807070036
 32
0.0
 13
93.19964593223492
 23
187.0233807070036
 33
0.0
  0
SOLID
  5
627
330
54A
100
AcDbEntity
  8
Kóta (ISO)
440
 16777216
100
AcDbTrace
 10
199.4496459322349
 20
187.6483807070036
 30
0.0
 11
199.4496459322349
 21
186.3983807070036
 31
0.0
 12
203.1996459322349
 22
187.0233807070036
 32
0.0
 13
203.1996459322349
 23
187.0233807070036
 33
0.0
  0
MTEXT
  5
628
330
54A
100
AcDbEntity
  8
Kóta (ISO)
440
 16777216
100
AcDbMText
 10
139.5976940582647
 20
196.0655265677132
 30
0.0
 40
5.25
 41
0.0
 71
     1
 72
     1
  1
\A1;{\fAIGDT|b0|i0;\H5.2500;\ln\fTahoma|b0|i0;\H5.2500;}110
  7
Text poznámky (ISO)
 73
     1
 44
1.0
  0
POINT
  5
629
330
54A
100
AcDbEntity
  8
Defpoints
 62
     0
440
 16777216
100
AcDbPoint
 10
93.19964593223492
 20
207.8258260769031
 30
0.0
  0
POINT
  5
62A
330
54A
100
AcDbEntity
  8
Defpoints
 62
     0
440
 16777216
100
AcDbPoint
 10
203.1996459322349
 20
207.8258260769031
 30
0.0
  0
POINT
  5
62B
330
54A
100
AcDbEntity
  8
Defpoints
 62
     0
440
 16777216
100
AcDbPoint
 10
203.1996459322349
 20
187.0233807070036
 30
0.0
  0
ENDBLK
  5
54C
330
54A
100
AcDbEntity
  8
0
100
AcDbBlockEnd
  0
BLOCK
  5
62E
330
62D
100
AcDbEntity
  8
0
100
AcDbBlockBegin
  2
*D28
 70
     1
 10
0.0
 20
0.0
 30
0.0
  3
*D28
  1

  0
LINE
  5
6FE
330
62D
100
AcDbEntity
  8
Kóta (ISO)
440
 16777216
100
AcDbLine
 10
215.6996459322348
 20
315.4719429483826
 30
0.0
 11
80.69964593223486
 21
315.4719429483826
 31
0.0
  0
SOLID
  5
6FF
330
62D
100
AcDbEntity
  8
Kóta (ISO)
440
 16777216
100
AcDbTrace
 10
215.6996459322348
 20
316.0969429483826
 30
0.0
 11
215.6996459322348
 21
314.8469429483826
 31
0.0
 12
219.4496459322349
 22
315.4719429483826
 32
0.0
 13
219.4496459322349
 23
315.4719429483826
 33
0.0
  0
SOLID
  5
700
330
62D
100
AcDbEntity
  8
Kóta (ISO)
440
 16777216
100
AcDbTrace
 10
80.69964593223486
 20
316.0969429483826
 30
0.0
 11
80.69964593223486
 21
314.8469429483826
 31
0.0
 12
76.94964593223486
 22
315.4719429483826
 32
0.0
 13
76.94964593223486
 23
315.4719429483826
 33
0.0
  0
MTEXT
  5
701
102
{ACAD_XDICTIONARY
360
FF5
102
}
330
62D
100
AcDbEntity
  8
Kóta (ISO)
440
 16777216
100
AcDbMText
 10
111.0111404110117
 20
323.4938885494571
 30
0.0
 40
5.25
 41
0.0
 71
     1
 72
     1
  1
\A1;{\U+00D8}142,5
  7
Text poznámky (ISO)
 73
     1
 44
1.0
  0
POINT
  5
702
330
62D
100
AcDbEntity
  8
Defpoints
 62
     0
440
 16777216
100
AcDbPoint
 10
219.4496459322349
 20
312.5906169754042
 30
0.0
  0
POINT
  5
703
330
62D
100
AcDbEntity
  8
Defpoints
 62
     0
440
 16777216
100
AcDbPoint
 10
76.94964593223486
 20
312.5906169754042
 30
0.0
  0
POINT
  5
704
330
62D
100
AcDbEntity
  8
Defpoints
 62
     0
440
 16777216
100
AcDbPoint
 10
76.94964593223486
 20
315.4719429483826
 30
0.0
  0
ENDBLK
  5
62F
330
62D
100
AcDbEntity
  8
0
100
AcDbBlockEnd
  0
BLOCK
  5
707
330
706
100
AcDbEntity
  8
0
100
AcDbBlockBegin
  2
*D29
 70
     1
 10
0.0
 20
0.0
 30
0.0
  3
*D29
  1

  0
LINE
  5
7A6
330
706
100
AcDbEntity
  8
Kóta (ISO)
440
 16777216
100
AcDbLine
 10
203.5307515600264
 20
43.37816611509789
 30
0.0
 11
92.86854030431518
 21
154.0403773707761
 31
0.0
  0
LINE
  5
7A7
330
706
100
AcDbEntity
  8
Kóta (ISO)
440
 16777216
100
AcDbLine
 10
90.21688987486529
 20
156.6920278002253
 30
0.0
 11
71.49168893017964
 21
175.4172287449052
 31
0.0
  0
SOLID
  5
7A8
330
706
100
AcDbEntity
  8
Kóta (ISO)
440
 16777216
100
AcDbTrace
 10
203.9726932982679
 20
43.82010785333955
 30
0.0
 11
203.0888098217849
 21
42.93622437685622
 31
0.0
 12
206.1824019894764
 22
40.72651568564872
 32
0.0
 13
206.1824019894764
 23
40.72651568564872
 33
0.0
  0
SOLID
  5
7A9
330
706
100
AcDbEntity
  8
Kóta (ISO)
440
 16777216
100
AcDbTrace
 10
93.31048204255674
 20
154.4823191090178
 30
0.0
 11
92.42659856607367
 21
153.5984356325344
 31
0.0
 12
90.21688987486529
 22
156.6920278002253
 32
0.0
 13
90.21688987486529
 23
156.6920278002253
 33
0.0
  0
MTEXT
  5
7AA
102
{ACAD_XDICTIONARY
360
FF7
102
}
330
706
100
AcDbEntity
  8
Kóta (ISO)
440
 16777216
100
AcDbMText
 10
77.33902226520605
 20
179.6481159781406
 30
0.0
 40
5.25
 41
0.0
 71
     1
 72
     1
  1
\A1;\U+2205164
  7
Text poznámky (ISO)
 11
0.7071067811866531
 21
-0.7071067811864421
 31
0.0
 73
     1
 44
1.0
  0
POINT
  5
7AB
330
706
100
AcDbEntity
  8
Defpoints
 62
     0
440
 16777216
100
AcDbPoint
 10
90.21688987486529
 20
156.6920278002253
 30
0.0
  0
POINT
  5
7AC
330
706
100
AcDbEntity
  8
Defpoints
 62
     0
440
 16777216
100
AcDbPoint
 10
206.1824019894764
 20
40.72651568564872
 30
0.0
  0
ENDBLK
  5
708
330
706
100
AcDbEntity
  8
0
100
AcDbBlockEnd
  0
BLOCK
  5
7AF
330
7AE
100
AcDbEntity
  8
0
100
AcDbBlockBegin
  2
*D30
 70
     1
 10
0.0
 20
0.0
 30
0.0
  3
*D30
  1

  0
LINE
  5
886
330
7AE
100
AcDbEntity
  8
Kóta (ISO)
440
 16777216
100
AcDbLine
 10
65.9941904114454
 20
403.2727282572373
 30
0.0
 11
54.20505470893043
 21
403.2727282572373
 31
0.0
  0
LINE
  5
887
330
7AE
100
AcDbEntity
  8
Kóta (ISO)
440
 16777216
100
AcDbLine
 10
91.71728402243989
 20
297.1237354553342
 30
0.0
 11
54.20505470893039
 21
297.1237354553342
 31
0.0
  0
LINE
  5
888
330
7AE
100
AcDbEntity
  8
Kóta (ISO)
440
 16777216
100
AcDbLine
 10
55.70505470893039
 20
399.5227282572374
 30
0.0
 11
55.70505470893039
 21
300.8737354553342
 31
0.0
  0
SOLID
  5
889
330
7AE
100
AcDbEntity
  8
Kóta (ISO)
440
 16777216
100
AcDbTrace
 10
55.08005470893039
 20
399.5227282572374
 30
0.0
 11
56.33005470893039
 21
399.5227282572374
 31
0.0
 12
55.70505470893042
 22
403.2727282572373
 32
0.0
 13
55.70505470893042
 23
403.2727282572373
 33
0.0
  0
SOLID
  5
88A
330
7AE
100
AcDbEntity
  8
Kóta (ISO)
440
 16777216
100
AcDbTrace
 10
55.08005470893039
 20
300.8737354553342
 30
0.0
 11
56.33005470893039
 21
300.8737354553342
 31
0.0
 12
55.70505470893039
 22
297.1237354553342
 32
0.0
 13
55.70505470893039
 23
297.1237354553342
 33
0.0
  0
MTEXT
  5
88B
330
7AE
100
AcDbEntity
  8
Kóta (ISO)
440
 16777216
100
AcDbMText
 10
47.90171219717747
 20
341.9124695997378
 30
0.0
 40
5.25
 41
0.0
 71
     1
 72
     1
  1
\A1;106,1
  7
Text poznámky (ISO)
 11
0.0000000000000001
 21
1.0
 31
0.0
 73
     1
 44
1.0
  0
POINT
  5
88C
330
7AE
100
AcDbEntity
  8
Defpoints
 62
     0
440
 16777216
100
AcDbPoint
 10
65.9941904114454
 20
403.2727282572373
 30
0.0
  0
POINT
  5
88D
330
7AE
100
AcDbEntity
  8
Defpoints
 62
     0
440
 16777216
100
AcDbPoint
 10
91.71728402243989
 20
297.1237354553342
 30
0.0
  0
POINT
  5
88E
330
7AE
100
AcDbEntity
  8
Defpoints
 62
     0
440
 16777216
100
AcDbPoint
 10
55.70505470893039
 20
297.1237354553342
 30
0.0
  0
ENDBLK
  5
7B0
330
7AE
100
AcDbEntity
  8
0
100
AcDbBlockEnd
  0
BLOCK
  5
890
330
88F
100
AcDbEntity
  8
0
100
AcDbBlockBegin
  2
Pozice1
 70
     0
 10
0.0
 20
0.0
 30
0.0
  3
Pozice1
  1

  0
LINE
  5
892
330
88F
100
AcDbEntity
  8
Značka (ISO)
100
AcDbLine
 10
159.2846964721137
 20
274.8939861064551
 30
0.0
 11
157.2997639548232
 21
276.4138686354035
 31
0.0
  0
POLYLINE
  5
893
330
88F
100
AcDbEntity
  8
Značka (ISO)
100
AcDb2dPolyline
 66
     1
 10
0.0
 20
0.0
 30
0.0
 70
   128
  0
VERTEX
  5
894
330
893
100
AcDbEntity
  8
Značka (ISO)
100
AcDbVertex
100
AcDb2dVertex
 10
159.5886707305908
 20
275.2909660339355
 30
0.0
  0
VERTEX
  5
895
330
893
100
AcDbEntity
  8
Značka (ISO)
100
AcDbVertex
100
AcDb2dVertex
 10
157.2997665405273
 20
276.4138603210449
 30
0.0
  0
VERTEX
  5
897
330
893
100
AcDbEntity
  8
Značka (ISO)
100
AcDbVertex
100
AcDb2dVertex
 10
158.9807224273681
 20
274.4969940185547
 30
0.0
  0
VERTEX
  5
898
330
893
100
AcDbEntity
  8
Značka (ISO)
100
AcDbVertex
100
AcDb2dVertex
 10
159.5886707305908
 20
275.2909660339355
 30
0.0
  0
SEQEND
  5
896
330
893
100
AcDbEntity
  8
Značka (ISO)
  0
SOLID
  5
899
330
88F
100
AcDbEntity
  8
Značka (ISO)
100
AcDbTrace
 10
159.5886707305908
 20
275.2909660339355
 30
0.0
 11
157.2997665405273
 21
276.4138603210449
 31
0.0
 12
158.9807224273681
 22
274.4969940185547
 32
0.0
 13
159.5886707305908
 23
275.2909660339355
 33
0.0
  0
LINE
  5
89A
330
88F
100
AcDbEntity
  8
Značka (ISO)
100
AcDbLine
 10
159.5886729779034
 20
275.2909726099132
 30
0.0
 11
157.2997639548232
 21
276.4138686354035
 31
0.0
  0
LINE
  5
89B
330
88F
100
AcDbEntity
  8
Značka (ISO)
100
AcDbLine
 10
157.2997639548232
 20
276.4138686354035
 30
0.0
 11
158.980719966324
 21
274.496999602997
 31
0.0
  0
LINE
  5
89C
330
88F
100
AcDbEntity
  8
Značka (ISO)
100
AcDbLine
 10
158.980719966324
 20
274.496999602997
 30
0.0
 11
159.5886729779034
 21
275.2909726099132
 31
0.0
  0
LINE
  5
89D
330
88F
100
AcDbEntity
  8
Značka (ISO)
100
AcDbLine
 10
159.2846964721137
 20
274.8939861064551
 30
0.0
 11
172.0794184835751
 21
265.0969404746383
 31
0.0
  0
MTEXT
  5
89E
330
88F
100
AcDbEntity
  8
Značka (ISO)
100
AcDbMText
 10
179.9544181259472
 20
271.8806717331126
 30
0.0
 40
5.24999976158142
 41
0.0
 71
     5
 72
     1
  1
3
  7
Text popisu (ISO)
 73
     1
 44
1.0
  0
LINE
  5
89F
330
88F
100
AcDbEntity
  8
Značka (ISO)
100
AcDbLine
 10
172.0794184835751
 20
265.0969404746383
 30
0.0
 11
187.8294177683194
 21
265.0969404746383
 31
0.0
  0
MTEXT
  5
8A0
330
88F
100
AcDbEntity
  8
Značka (ISO)
100
AcDbMText
 10
195.7044174106915
 20
271.7147479225487
 30
0.0
 40
5.24999976158142
 41
0.0
 71
     5
 72
     1
  1
2
  7
Text popisu (ISO)
 73
     1
 44
1.0
  0
LINE
  5
8A1
330
88F
100
AcDbEntity
  8
Značka (ISO)
100
AcDbLine
 10
187.8294177683194
 20
265.0969404746383
 30
0.0
 11
189.4044176967938
 21
263.521940546164
 31
0.0
  0
LINE
  5
8A2
330
88F
100
AcDbEntity
  8
Značka (ISO)
100
AcDbLine
 10
189.4044176967938
 20
263.521940546164
 30
0.0
 11
190.9794176252681
 21
265.0969404746383
 31
0.0
  0
LINE
  5
8A3
330
88F
100
AcDbEntity
  8
Značka (ISO)
100
AcDbLine
 10
190.9794176252681
 20
265.0969404746383
 30
0.0
 11
203.5794170530636
 21
265.0969404746383
 31
0.0
  0
ENDBLK
  5
891
330
88F
100
AcDbEntity
  8
0
100
AcDbBlockEnd
  0
BLOCK
  5
8A6
330
8A5
100
AcDbEntity
  8
0
100
AcDbBlockBegin
  2
Pozice2
 70
     0
 10
0.0
 20
0.0
 30
0.0
  3
Pozice2
  1

  0
LINE
  5
8A8
330
8A5
100
AcDbEntity
  8
Značka (ISO)
100
AcDbLine
 10
63.38309728815618
 20
180.4833554846402
 30
0.0
 11
64.6330972881566
 21
182.648418994101
 31
0.0
  0
POLYLINE
  5
8A9
330
8A5
100
AcDbEntity
  8
Značka (ISO)
100
AcDb2dPolyline
 66
     1
 10
0.0
 20
0.0
 30
0.0
 70
   128
  0
VERTEX
  5
8AA
330
8A9
100
AcDbEntity
  8
Značka (ISO)
100
AcDbVertex
100
AcDb2dVertex
 10
63.81610870361328
 20
180.2333641052246
 30
0.0
  0
VERTEX
  5
8AB
330
8A9
100
AcDbEntity
  8
Značka (ISO)
100
AcDbVertex
100
AcDb2dVertex
 10
64.6330976486206
 20
182.6484107971191
 30
0.0
  0
VERTEX
  5
8AD
330
8A9
100
AcDbEntity
  8
Značka (ISO)
100
AcDbVertex
100
AcDb2dVertex
 10
62.95008659362792
 20
180.7333564758301
 30
0.0
  0
VERTEX
  5
8AE
330
8A9
100
AcDbEntity
  8
Značka (ISO)
100
AcDbVertex
100
AcDb2dVertex
 10
63.81610870361328
 20
180.2333641052246
 30
0.0
  0
SEQEND
  5
8AC
330
8A9
100
AcDbEntity
  8
Značka (ISO)
  0
SOLID
  5
8AF
330
8A5
100
AcDbEntity
  8
Značka (ISO)
100
AcDbTrace
 10
63.81610870361328
 20
180.2333641052246
 30
0.0
 11
64.6330976486206
 21
182.6484107971191
 31
0.0
 12
62.95008659362792
 22
180.7333564758301
 32
0.0
 13
63.81610870361328
 23
180.2333641052246
 33
0.0
  0
LINE
  5
8B0
330
8A5
100
AcDbEntity
  8
Značka (ISO)
100
AcDbLine
 10
63.81610999004834
 20
180.23335548464
 30
0.0
 11
64.6330972881566
 21
182.648418994101
 31
0.0
  0
LINE
  5
8B1
330
8A5
100
AcDbEntity
  8
Značka (ISO)
100
AcDbLine
 10
64.6330972881566
 20
182.648418994101
 30
0.0
 11
62.95008458626401
 21
180.7333554846403
 31
0.0
  0
LINE
  5
8B2
330
8A5
100
AcDbEntity
  8
Značka (ISO)
100
AcDbLine
 10
62.95008458626401
 20
180.7333554846403
 30
0.0
 11
63.81610999004834
 21
180.23335548464
 31
0.0
  0
LINE
  5
8B3
330
8A5
100
AcDbEntity
  8
Značka (ISO)
100
AcDbLine
 10
63.38309728815618
 20
180.4833554846402
 30
0.0
 11
55.314377514039
 21
166.50792288384
 31
0.0
  0
MTEXT
  5
8B4
330
8A5
100
AcDbEntity
  8
Značka (ISO)
100
AcDbMText
 10
47.43937787166687
 20
173.2363463963808
 30
0.0
 40
5.24999976158142
 41
0.0
 71
     5
 72
     1
  1
5
  7
Text popisu (ISO)
 73
     1
 44
1.0
  0
LINE
  5
8B5
330
8A5
100
AcDbEntity
  8
Značka (ISO)
100
AcDbLine
 10
55.314377514039
 20
166.50792288384
 30
0.0
 11
39.56437822929475
 21
166.50792288384
 31
0.0
  0
ENDBLK
  5
8A7
330
8A5
100
AcDbEntity
  8
0
100
AcDbBlockEnd
  0
BLOCK
  5
8B8
330
8B7
100
AcDbEntity
  8
0
100
AcDbBlockBegin
  2
Pozice3
 70
     0
 10
0.0
 20
0.0
 30
0.0
  3
Pozice3
  1

  0
LINE
  5
8BA
330
8B7
100
AcDbEntity
  8
Značka (ISO)
100
AcDbLine
 10
59.90630201337559
 20
151.64325983714
 30
0.0
 11
60.79976395482328
 21
153.9781529308778
 31
0.0
  0
POLYLINE
  5
8BB
330
8B7
100
AcDbEntity
  8
Značka (ISO)
100
AcDb2dPolyline
 66
     1
 10
0.0
 20
0.0
 30
0.0
 70
   128
  0
VERTEX
  5
8BC
330
8BB
100
AcDbEntity
  8
Značka (ISO)
100
AcDbVertex
100
AcDb2dVertex
 10
60.37328243255615
 20
151.4645671844482
 30
0.0
  0
VERTEX
  5
8BD
330
8BB
100
AcDbEntity
  8
Značka (ISO)
100
AcDbVertex
100
AcDb2dVertex
 10
60.79976558685302
 20
153.978157043457
 30
0.0
  0
VERTEX
  5
8BF
330
8BB
100
AcDbEntity
  8
Značka (ISO)
100
AcDbVertex
100
AcDb2dVertex
 10
59.4393253326416
 20
151.8219566345215
 30
0.0
  0
VERTEX
  5
8C0
330
8BB
100
AcDbEntity
  8
Značka (ISO)
100
AcDbVertex
100
AcDb2dVertex
 10
60.37328243255615
 20
151.4645671844482
 30
0.0
  0
SEQEND
  5
8BE
330
8BB
100
AcDbEntity
  8
Značka (ISO)
  0
SOLID
  5
8C1
330
8B7
100
AcDbEntity
  8
Značka (ISO)
100
AcDbTrace
 10
60.37328243255615
 20
151.4645671844482
 30
0.0
 11
60.79976558685302
 21
153.978157043457
 31
0.0
 12
59.4393253326416
 22
151.8219566345215
 32
0.0
 13
60.37328243255615
 23
151.4645671844482
 33
0.0
  0
LINE
  5
8C2
330
8B7
100
AcDbEntity
  8
Značka (ISO)
100
AcDbLine
 10
60.37328063212314
 20
151.4645674488504
 30
0.0
 11
60.79976395482328
 21
153.9781529308778
 31
0.0
  0
LINE
  5
8C3
330
8B7
100
AcDbEntity
  8
Značka (ISO)
100
AcDbLine
 10
60.79976395482328
 20
153.9781529308778
 30
0.0
 11
59.43932339462802
 21
151.8219522254295
 31
0.0
  0
LINE
  5
8C4
330
8B7
100
AcDbEntity
  8
Značka (ISO)
100
AcDbLine
 10
59.43932339462802
 20
151.8219522254295
 30
0.0
 11
60.37328063212314
 21
151.4645674488504
 31
0.0
  0
LINE
  5
8C5
330
8B7
100
AcDbEntity
  8
Značka (ISO)
100
AcDbLine
 10
59.90630201337559
 20
151.64325983714
 30
0.0
 11
55.314377514039
 21
139.6431372766939
 31
0.0
  0
MTEXT
  5
8C6
330
8B7
100
AcDbEntity
  8
Značka (ISO)
100
AcDbMText
 10
47.43937787166687
 20
146.2056369786707
 30
0.0
 40
5.24999976158142
 41
0.0
 71
     5
 72
     1
  1
4
  7
Text popisu (ISO)
 73
     1
 44
1.0
  0
LINE
  5
8C7
330
8B7
100
AcDbEntity
  8
Značka (ISO)
100
AcDbLine
 10
55.314377514039
 20
139.6431372766939
 30
0.0
 11
39.56437822929475
 21
139.6431372766939
 31
0.0
  0
ENDBLK
  5
8B9
330
8B7
100
AcDbEntity
  8
0
100
AcDbBlockEnd
  0
BLOCK
  5
8CA
330
8C9
100
AcDbEntity
  8
0
100
AcDbBlockBegin
  2
Pozice4
 70
     0
 10
0.0
 20
0.0
 30
0.0
  3
Pozice4
  1

  0
LINE
  5
8CC
330
8C9
100
AcDbEntity
  8
Značka (ISO)
100
AcDbLine
 10
326.0638095727341
 20
259.7903756057689
 30
0.0
 11
327.8315765257007
 21
261.558142558735
 31
0.0
  0
POLYLINE
  5
8CD
330
8C9
100
AcDbEntity
  8
Značka (ISO)
100
AcDb2dPolyline
 66
     1
 10
0.0
 20
0.0
 30
0.0
 70
   128
  0
VERTEX
  5
8CE
330
8CD
100
AcDbEntity
  8
Značka (ISO)
100
AcDbVertex
100
AcDb2dVertex
 10
326.417350769043
 20
259.4368171691895
 30
0.0
  0
VERTEX
  5
8CF
330
8CD
100
AcDbEntity
  8
Značka (ISO)
100
AcDbVertex
100
AcDb2dVertex
 10
327.8315734863281
 20
261.5581512451172
 30
0.0
  0
VERTEX
  5
8D1
330
8CD
100
AcDbEntity
  8
Značka (ISO)
100
AcDbVertex
100
AcDb2dVertex
 10
325.7102584838867
 20
260.1439285278321
 30
0.0
  0
VERTEX
  5
8D2
330
8CD
100
AcDbEntity
  8
Značka (ISO)
100
AcDbVertex
100
AcDb2dVertex
 10
326.417350769043
 20
259.4368171691895
 30
0.0
  0
SEQEND
  5
8D0
330
8CD
100
AcDbEntity
  8
Značka (ISO)
  0
SOLID
  5
8D3
330
8C9
100
AcDbEntity
  8
Značka (ISO)
100
AcDbTrace
 10
326.417350769043
 20
259.4368171691895
 30
0.0
 11
327.8315734863281
 21
261.5581512451172
 31
0.0
 12
325.7102584838867
 22
260.1439285278321
 32
0.0
 13
326.417350769043
 23
259.4368171691895
 33
0.0
  0
LINE
  5
8D4
330
8C9
100
AcDbEntity
  8
Značka (ISO)
100
AcDbLine
 10
326.4173629633273
 20
259.4368222151757
 30
0.0
 11
327.8315765257007
 21
261.558142558735
 31
0.0
  0
LINE
  5
8D5
330
8C9
100
AcDbEntity
  8
Značka (ISO)
100
AcDbLine
 10
327.8315765257007
 20
261.558142558735
 30
0.0
 11
325.7102561821408
 21
260.1439289963622
 31
0.0
  0
LINE
  5
8D6
330
8C9
100
AcDbEntity
  8
Značka (ISO)
100
AcDbLine
 10
325.7102561821408
 20
260.1439289963622
 30
0.0
 11
326.4173629633273
 21
259.4368222151757
 31
0.0
  0
LINE
  5
8D7
330
8C9
100
AcDbEntity
  8
Značka (ISO)
100
AcDbLine
 10
326.0638095727341
 20
259.7903756057689
 30
0.0
 11
308.8601728782117
 21
242.5867389112516
 31
0.0
  0
MTEXT
  5
8D8
330
8C9
100
AcDbEntity
  8
Značka (ISO)
100
AcDbMText
 10
300.9851732358395
 20
249.1577474742933
 30
0.0
 40
5.24999976158142
 41
0.0
 71
     5
 72
     1
  1
1
  7
Text popisu (ISO)
 73
     1
 44
1.0
  0
LINE
  5
8D9
330
8C9
100
AcDbEntity
  8
Značka (ISO)
100
AcDbLine
 10
308.8601728782117
 20
242.5867389112516
 30
0.0
 11
293.1101735934674
 21
242.5867389112516
 31
0.0
  0
ENDBLK
  5
8CB
330
8C9
100
AcDbEntity
  8
0
100
AcDbBlockEnd
  0
BLOCK
  5
9AF
330
9AD
100
AcDbEntity
  8
0
100
AcDbBlockBegin
  2
GENAXEH
 70
     0
 10
0.0
 20
0.0
 30
0.0
  3
GENAXEH
  1

  0
LINE
  5
9AE
330
9AD
100
AcDbEntity
  8
0
100
AcDbLine
 10
-1.0
 20
0.0
 30
0.0
 11
1.0
 21
0.0
 31
0.0
  0
ENDBLK
  5
9B0
330
9AD
100
AcDbEntity
  8
0
100
AcDbBlockEnd
  0
BLOCK
  5
9C1
330
9C0
100
AcDbEntity
  8
0
100
AcDbBlockBegin
  2
*D36
 70
     1
 10
0.0
 20
0.0
 30
0.0
  3
*D36
  1

  0
LINE
  5
9C2
330
9C0
100
AcDbEntity
  8
5
370
    -2
100
AcDbLine
 10
117.787926921269
 20
205.923836564736
 30
0.0
 11
117.787926921269
 21
175.2232651057169
 31
0.0
  0
LINE
  5
9C3
330
9C0
100
AcDbEntity
  8
5
370
    -2
100
AcDbLine
 10
192.787926921269
 20
205.923836564736
 30
0.0
 11
192.787926921269
 21
175.2232651057169
 31
0.0
  0
LINE
  5
9C4
330
9C0
100
AcDbEntity
  8
5
370
    -2
100
AcDbLine
 10
122.787926921269
 20
177.2232651057169
 30
0.0
 11
187.787926921269
 21
177.2232651057169
 31
0.0
  0
SOLID
  5
9C5
330
9C0
100
AcDbEntity
  8
5
100
AcDbTrace
 10
122.787926921269
 20
178.0565984390502
 30
0.0
 11
122.787926921269
 21
176.3899317723835
 31
0.0
 12
117.787926921269
 22
177.2232651057169
 32
0.0
 13
117.787926921269
 23
177.2232651057169
 33
0.0
  0
SOLID
  5
9C6
330
9C0
100
AcDbEntity
  8
5
100
AcDbTrace
 10
187.787926921269
 20
178.0565984390502
 30
0.0
 11
187.787926921269
 21
176.3899317723835
 31
0.0
 12
192.787926921269
 22
177.2232651057169
 32
0.0
 13
192.787926921269
 23
177.2232651057169
 33
0.0
  0
MTEXT
  5
9C7
330
9C0
100
AcDbEntity
  8
5
 62
     7
100
AcDbMText
 10
138.7775172503489
 20
194.3789400553475
 30
0.0
 40
14.0
 41
0.0
 71
     1
 72
     1
  1
%%c75
 73
     1
 44
1.0
  0
POINT
  5
9C8
330
9C0
100
AcDbEntity
  8
Defpoints
 62
     0
100
AcDbPoint
 10
117.787926921269
 20
207.923836564736
 30
0.0
  0
POINT
  5
9C9
330
9C0
100
AcDbEntity
  8
Defpoints
 62
     0
100
AcDbPoint
 10
192.787926921269
 20
207.923836564736
 30
0.0
  0
POINT
  5
9CA
330
9C0
100
AcDbEntity
  8
Defpoints
 62
     0
100
AcDbPoint
 10
192.787926921269
 20
177.2232651057169
 30
0.0
  0
ENDBLK
  5
9CB
330
9C0
100
AcDbEntity
  8
0
100
AcDbBlockEnd
  0
BLOCK
  5
9CD
330
9CC
100
AcDbEntity
  8
0
100
AcDbBlockBegin
  2
*D37
 70
     1
 10
0.0
 20
0.0
 30
0.0
  3
*D37
  1

  0
LINE
  5
9CE
330
9CC
100
AcDbEntity
  8
5
370
    -2
100
AcDbLine
 10
84.03792692126911
 20
310.026232146781
 30
0.0
 11
84.03792692126909
 21
155.7855019123852
 31
0.0
  0
LINE
  5
9CF
330
9CC
100
AcDbEntity
  8
5
370
    -2
100
AcDbLine
 10
226.5379269212691
 20
310.026232146781
 30
0.0
 11
226.5379269212691
 21
155.7855019123852
 31
0.0
  0
LINE
  5
9D0
330
9CC
100
AcDbEntity
  8
5
370
    -2
100
AcDbLine
 10
89.03792692126909
 20
157.7855019123852
 30
0.0
 11
221.5379269212691
 21
157.7855019123852
 31
0.0
  0
SOLID
  5
9D1
330
9CC
100
AcDbEntity
  8
5
100
AcDbTrace
 10
89.03792692126909
 20
158.6188352457186
 30
0.0
 11
89.03792692126909
 21
156.9521685790519
 31
0.0
 12
84.03792692126909
 22
157.7855019123852
 32
0.0
 13
84.03792692126909
 23
157.7855019123852
 33
0.0
  0
SOLID
  5
9D2
330
9CC
100
AcDbEntity
  8
5
100
AcDbTrace
 10
221.5379269212691
 20
158.6188352457186
 30
0.0
 11
221.5379269212691
 21
156.9521685790519
 31
0.0
 12
226.5379269212691
 22
157.7855019123852
 32
0.0
 13
226.5379269212691
 23
157.7855019123852
 33
0.0
  0
MTEXT
  5
9D3
330
9CC
100
AcDbEntity
  8
5
 62
     7
100
AcDbMText
 10
155.2879269212691
 20
166.9633393872005
 30
0.0
 40
14.0
 41
0.0
 71
     5
 72
     1
  1
%%c143
 73
     1
 44
1.0
  0
POINT
  5
9D4
330
9CC
100
AcDbEntity
  8
Defpoints
 62
     0
100
AcDbPoint
 10
84.03792692126911
 20
312.026232146781
 30
0.0
  0
POINT
  5
9D5
330
9CC
100
AcDbEntity
  8
Defpoints
 62
     0
100
AcDbPoint
 10
226.5379269212691
 20
312.026232146781
 30
0.0
  0
POINT
  5
9D6
330
9CC
100
AcDbEntity
  8
Defpoints
 62
     0
100
AcDbPoint
 10
226.5379269212691
 20
157.7855019123852
 30
0.0
  0
ENDBLK
  5
9D7
330
9CC
100
AcDbEntity
  8
0
100
AcDbBlockEnd
  0
BLOCK
  5
9D9
330
9D8
100
AcDbEntity
  8
0
100
AcDbBlockBegin
  2
*D38
 70
     1
 10
0.0
 20
0.0
 30
0.0
  3
*D38
  1

  0
LINE
  5
9DA
330
9D8
100
AcDbEntity
  8
5
370
    -2
100
AcDbLine
 10
239.2879269212691
 20
402.7083434286143
 30
0.0
 11
287.6188642253456
 21
402.7083434286143
 31
0.0
  0
LINE
  5
9DB
330
9D8
100
AcDbEntity
  8
5
370
    -2
100
AcDbLine
 10
192.787926921269
 20
198.1599045422358
 30
0.0
 11
287.6188642253455
 21
198.1599045422358
 31
0.0
  0
LINE
  5
9DC
330
9D8
100
AcDbEntity
  8
5
370
    -2
100
AcDbLine
 10
285.6188642253456
 20
397.7083434286143
 30
0.0
 11
285.6188642253455
 21
203.1599045422358
 31
0.0
  0
SOLID
  5
9DD
330
9D8
100
AcDbEntity
  8
5
100
AcDbTrace
 10
284.7855308920123
 20
397.7083434286143
 30
0.0
 11
286.4521975586789
 21
397.7083434286143
 31
0.0
 12
285.6188642253456
 22
402.7083434286143
 32
0.0
 13
285.6188642253456
 23
402.7083434286143
 33
0.0
  0
SOLID
  5
9DE
330
9D8
100
AcDbEntity
  8
5
100
AcDbTrace
 10
284.7855308920122
 20
203.1599045422358
 30
0.0
 11
286.4521975586789
 21
203.1599045422358
 31
0.0
 12
285.6188642253455
 22
198.1599045422358
 32
0.0
 13
285.6188642253455
 23
198.1599045422358
 33
0.0
  0
MTEXT
  5
9DF
330
9D8
100
AcDbEntity
  8
5
 62
     7
100
AcDbMText
 10
277.1273934395832
 20
300.4341239854251
 30
0.0
 40
14.0
 41
0.0
 71
     5
 72
     1
  1
205
 11
0.0000000000000001
 21
1.0
 31
0.0
 73
     1
 44
1.0
  0
POINT
  5
9E0
330
9D8
100
AcDbEntity
  8
Defpoints
 62
     0
100
AcDbPoint
 10
237.2879269212691
 20
402.7083434286143
 30
0.0
  0
POINT
  5
9E1
330
9D8
100
AcDbEntity
  8
Defpoints
 62
     0
100
AcDbPoint
 10
190.787926921269
 20
198.1599045422358
 30
0.0
  0
POINT
  5
9E2
330
9D8
100
AcDbEntity
  8
Defpoints
 62
     0
100
AcDbPoint
 10
285.6188642253455
 20
198.1599045422358
 30
0.0
  0
ENDBLK
  5
9E3
330
9D8
100
AcDbEntity
  8
0
100
AcDbBlockEnd
  0
BLOCK
  5
9E5
330
9E4
100
AcDbEntity
  8
0
100
AcDbBlockBegin
  2
*D39
 70
     1
 10
0.0
 20
0.0
 30
0.0
  3
*D39
  1

  0
LINE
  5
9E6
330
9E4
100
AcDbEntity
  8
5
370
    -2
100
AcDbLine
 10
239.2879269212691
 20
402.7083434286143
 30
0.0
 11
262.5335207722999
 21
402.7083434286143
 31
0.0
  0
LINE
  5
9E7
330
9E4
100
AcDbEntity
  8
5
370
    -2
100
AcDbLine
 10
208.6633745398289
 20
293.931662218698
 30
0.0
 11
262.5335207722999
 21
293.931662218698
 31
0.0
  0
LINE
  5
9E8
330
9E4
100
AcDbEntity
  8
5
370
    -2
100
AcDbLine
 10
260.5335207722999
 20
397.7083434286143
 30
0.0
 11
260.5335207722999
 21
298.931662218698
 31
0.0
  0
SOLID
  5
9E9
330
9E4
100
AcDbEntity
  8
5
100
AcDbTrace
 10
259.7001874389666
 20
397.7083434286143
 30
0.0
 11
261.3668541056333
 21
397.7083434286143
 31
0.0
 12
260.5335207722999
 22
402.7083434286143
 32
0.0
 13
260.5335207722999
 23
402.7083434286143
 33
0.0
  0
SOLID
  5
9EA
330
9E4
100
AcDbEntity
  8
5
100
AcDbTrace
 10
259.7001874389666
 20
298.931662218698
 30
0.0
 11
261.3668541056332
 21
298.931662218698
 31
0.0
 12
260.5335207722999
 22
293.931662218698
 32
0.0
 13
260.5335207722999
 23
293.931662218698
 33
0.0
  0
MTEXT
  5
9EB
330
9E4
100
AcDbEntity
  8
5
 62
     7
100
AcDbMText
 10
252.0467511282435
 20
348.3200028236562
 30
0.0
 40
14.0
 41
0.0
 71
     5
 72
     1
  1
109
 11
0.0000000000000001
 21
1.0
 31
0.0
 73
     1
 44
1.0
  0
POINT
  5
9EC
330
9E4
100
AcDbEntity
  8
Defpoints
 62
     0
100
AcDbPoint
 10
237.2879269212691
 20
402.7083434286143
 30
0.0
  0
POINT
  5
9ED
330
9E4
100
AcDbEntity
  8
Defpoints
 62
     0
100
AcDbPoint
 10
206.6633745398289
 20
293.931662218698
 30
0.0
  0
POINT
  5
9EE
330
9E4
100
AcDbEntity
  8
Defpoints
 62
     0
100
AcDbPoint
 10
260.5335207722999
 20
293.931662218698
 30
0.0
  0
ENDBLK
  5
9EF
330
9E4
100
AcDbEntity
  8
0
100
AcDbBlockEnd
  0
BLOCK
  5
9F1
330
9F0
100
AcDbEntity
  8
0
100
AcDbBlockBegin
  2
*D40
 70
     1
 10
0.0
 20
0.0
 30
0.0
  3
*D40
  1

  0
LINE
  5
9F2
330
9F0
100
AcDbEntity
  8
5
370
    -2
100
AcDbLine
 10
73.28792692126912
 20
404.7083434286141
 30
0.0
 11
73.28792692126912
 21
416.7083434286143
 31
0.0
  0
LINE
  5
9F3
330
9F0
100
AcDbEntity
  8
5
370
    -2
100
AcDbLine
 10
237.2879269212691
 20
404.7083434286141
 30
0.0
 11
237.2879269212691
 21
416.7083434286143
 31
0.0
  0
LINE
  5
9F4
330
9F0
100
AcDbEntity
  8
5
370
    -2
100
AcDbLine
 10
78.28792692126912
 20
414.7083434286143
 30
0.0
 11
232.2879269212691
 21
414.7083434286143
 31
0.0
  0
SOLID
  5
9F5
330
9F0
100
AcDbEntity
  8
5
100
AcDbTrace
 10
78.28792692126912
 20
415.5416767619476
 30
0.0
 11
78.28792692126912
 21
413.8750100952808
 31
0.0
 12
73.28792692126912
 22
414.7083434286143
 32
0.0
 13
73.28792692126912
 23
414.7083434286143
 33
0.0
  0
SOLID
  5
9F6
330
9F0
100
AcDbEntity
  8
5
100
AcDbTrace
 10
232.2879269212691
 20
415.5416767619476
 30
0.0
 11
232.2879269212691
 21
413.8750100952808
 31
0.0
 12
237.2879269212691
 22
414.7083434286143
 32
0.0
 13
237.2879269212691
 23
414.7083434286143
 33
0.0
  0
MTEXT
  5
9F7
330
9F0
100
AcDbEntity
  8
5
 62
     7
100
AcDbMText
 10
155.2879269212691
 20
423.8861809034296
 30
0.0
 40
14.0
 41
0.0
 71
     5
 72
     1
  1
%%c164
 73
     1
 44
1.0
  0
POINT
  5
9F8
330
9F0
100
AcDbEntity
  8
Defpoints
 62
     0
100
AcDbPoint
 10
73.28792692126912
 20
402.7083434286143
 30
0.0
  0
POINT
  5
9F9
330
9F0
100
AcDbEntity
  8
Defpoints
 62
     0
100
AcDbPoint
 10
237.2879269212691
 20
402.7083434286143
 30
0.0
  0
POINT
  5
9FA
330
9F0
100
AcDbEntity
  8
Defpoints
 62
     0
100
AcDbPoint
 10
237.2879269212691
 20
414.7083434286143
 30
0.0
  0
ENDBLK
  5
9FB
330
9F0
100
AcDbEntity
  8
0
100
AcDbBlockEnd
  0
BLOCK
  5
AD7
330
AD6
100
AcDbEntity
  8
0
100
AcDbBlockBegin
  2
*D41
 70
     1
 10
0.0
 20
0.0
 30
0.0
  3
*D41
  1

  0
LINE
  5
B3F
330
AD6
100
AcDbEntity
  8
5
370
    -2
100
AcDbLine
 10
417.3373714978872
 20
216.210965389623
 30
0.0
 11
417.3373714978872
 21
185.5103939306038
 31
0.0
  0
LINE
  5
B40
330
AD6
100
AcDbEntity
  8
5
370
    -2
100
AcDbLine
 10
492.3373714978872
 20
216.210965389623
 30
0.0
 11
492.3373714978872
 21
185.5103939306038
 31
0.0
  0
LINE
  5
B41
330
AD6
100
AcDbEntity
  8
5
370
    -2
100
AcDbLine
 10
422.3373714978873
 20
187.5103939306038
 30
0.0
 11
487.3373714978872
 21
187.5103939306038
 31
0.0
  0
SOLID
  5
B42
330
AD6
100
AcDbEntity
  8
5
100
AcDbTrace
 10
422.3373714978873
 20
188.3437272639372
 30
0.0
 11
422.3373714978873
 21
186.6770605972705
 31
0.0
 12
417.3373714978872
 22
187.5103939306038
 32
0.0
 13
417.3373714978872
 23
187.5103939306038
 33
0.0
  0
SOLID
  5
B43
330
AD6
100
AcDbEntity
  8
5
100
AcDbTrace
 10
487.3373714978872
 20
188.3437272639372
 30
0.0
 11
487.3373714978872
 21
186.6770605972705
 31
0.0
 12
492.3373714978872
 22
187.5103939306038
 32
0.0
 13
492.3373714978872
 23
187.5103939306038
 33
0.0
  0
MTEXT
  5
B44
330
AD6
100
AcDbEntity
  8
5
 62
     7
100
AcDbMText
 10
454.8373714978872
 20
196.6882314054192
 30
0.0
 40
14.0
 41
0.0
 71
     5
 72
     1
  1
%%c75
 73
     1
 44
1.0
  0
POINT
  5
B45
330
AD6
100
AcDbEntity
  8
Defpoints
 62
     0
100
AcDbPoint
 10
417.3373714978872
 20
218.210965389623
 30
0.0
  0
POINT
  5
B46
330
AD6
100
AcDbEntity
  8
Defpoints
 62
     0
100
AcDbPoint
 10
492.3373714978872
 20
218.210965389623
 30
0.0
  0
POINT
  5
B47
330
AD6
100
AcDbEntity
  8
Defpoints
 62
     0
100
AcDbPoint
 10
492.3373714978872
 20
187.5103939306038
 30
0.0
  0
ENDBLK
  5
AD8
330
AD6
100
AcDbEntity
  8
0
100
AcDbBlockEnd
  0
BLOCK
  5
AE3
330
AE2
100
AcDbEntity
  8
0
100
AcDbBlockBegin
  2
*D42
 70
     1
 10
0.0
 20
0.0
 30
0.0
  3
*D42
  1

  0
LINE
  5
B48
330
AE2
100
AcDbEntity
  8
5
370
    -2
100
AcDbLine
 10
383.5873714978873
 20
320.313360971668
 30
0.0
 11
383.5873714978873
 21
166.072630737272
 31
0.0
  0
LINE
  5
B49
330
AE2
100
AcDbEntity
  8
5
370
    -2
100
AcDbLine
 10
526.0873714978873
 20
320.313360971668
 30
0.0
 11
526.0873714978873
 21
166.072630737272
 31
0.0
  0
LINE
  5
B4A
330
AE2
100
AcDbEntity
  8
5
370
    -2
100
AcDbLine
 10
388.5873714978873
 20
168.072630737272
 30
0.0
 11
521.0873714978873
 21
168.072630737272
 31
0.0
  0
SOLID
  5
B4B
330
AE2
100
AcDbEntity
  8
5
100
AcDbTrace
 10
388.5873714978873
 20
168.9059640706055
 30
0.0
 11
388.5873714978873
 21
167.2392974039388
 31
0.0
 12
383.5873714978873
 22
168.072630737272
 32
0.0
 13
383.5873714978873
 23
168.072630737272
 33
0.0
  0
SOLID
  5
B4C
330
AE2
100
AcDbEntity
  8
5
100
AcDbTrace
 10
521.0873714978873
 20
168.9059640706055
 30
0.0
 11
521.0873714978873
 21
167.2392974039388
 31
0.0
 12
526.0873714978873
 22
168.072630737272
 32
0.0
 13
526.0873714978873
 23
168.072630737272
 33
0.0
  0
MTEXT
  5
B4D
330
AE2
100
AcDbEntity
  8
5
 62
     7
100
AcDbMText
 10
454.8373714978873
 20
177.2504682120874
 30
0.0
 40
14.0
 41
0.0
 71
     5
 72
     1
  1
%%c143
 73
     1
 44
1.0
  0
POINT
  5
B4E
330
AE2
100
AcDbEntity
  8
Defpoints
 62
     0
100
AcDbPoint
 10
383.5873714978873
 20
322.313360971668
 30
0.0
  0
POINT
  5
B4F
330
AE2
100
AcDbEntity
  8
Defpoints
 62
     0
100
AcDbPoint
 10
526.0873714978873
 20
322.313360971668
 30
0.0
  0
POINT
  5
B50
330
AE2
100
AcDbEntity
  8
Defpoints
 62
     0
100
AcDbPoint
 10
526.0873714978873
 20
168.072630737272
 30
0.0
  0
ENDBLK
  5
AE4
330
AE2
100
AcDbEntity
  8
0
100
AcDbBlockEnd
  0
BLOCK
  5
AEF
330
AEE
100
AcDbEntity
  8
0
100
AcDbBlockBegin
  2
*D43
 70
     1
 10
0.0
 20
0.0
 30
0.0
  3
*D43
  1

  0
LINE
  5
B51
330
AEE
100
AcDbEntity
  8
5
370
    -2
100
AcDbLine
 10
538.8373714978873
 20
412.9954722535011
 30
0.0
 11
587.1683088019639
 21
412.9954722535011
 31
0.0
  0
LINE
  5
B52
330
AEE
100
AcDbEntity
  8
5
370
    -2
100
AcDbLine
 10
492.3373714978872
 20
208.4470333671228
 30
0.0
 11
587.1683088019636
 21
208.4470333671228
 31
0.0
  0
LINE
  5
B53
330
AEE
100
AcDbEntity
  8
5
370
    -2
100
AcDbLine
 10
585.1683088019639
 20
407.9954722535013
 30
0.0
 11
585.1683088019637
 21
213.4470333671227
 31
0.0
  0
SOLID
  5
B54
330
AEE
100
AcDbEntity
  8
5
100
AcDbTrace
 10
584.3349754686305
 20
407.9954722535013
 30
0.0
 11
586.0016421352972
 21
407.9954722535013
 31
0.0
 12
585.1683088019639
 22
412.9954722535011
 32
0.0
 13
585.1683088019639
 23
412.9954722535011
 33
0.0
  0
SOLID
  5
B55
330
AEE
100
AcDbEntity
  8
5
100
AcDbTrace
 10
584.3349754686301
 20
213.4470333671227
 30
0.0
 11
586.0016421352971
 21
213.4470333671227
 31
0.0
 12
585.1683088019637
 22
208.4470333671228
 32
0.0
 13
585.1683088019637
 23
208.4470333671228
 33
0.0
  0
MTEXT
  5
B56
330
AEE
100
AcDbEntity
  8
5
 62
     7
100
AcDbMText
 10
576.6768380162016
 20
310.7212528103121
 30
0.0
 40
14.0
 41
0.0
 71
     5
 72
     1
  1
205
 11
0.0000000000000001
 21
1.0
 31
0.0
 73
     1
 44
1.0
  0
POINT
  5
B57
330
AEE
100
AcDbEntity
  8
Defpoints
 62
     0
100
AcDbPoint
 10
536.8373714978873
 20
412.9954722535011
 30
0.0
  0
POINT
  5
B58
330
AEE
100
AcDbEntity
  8
Defpoints
 62
     0
100
AcDbPoint
 10
490.337371497887
 20
208.4470333671228
 30
0.0
  0
POINT
  5
B59
330
AEE
100
AcDbEntity
  8
Defpoints
 62
     0
100
AcDbPoint
 10
585.1683088019637
 20
208.4470333671228
 30
0.0
  0
ENDBLK
  5
AF0
330
AEE
100
AcDbEntity
  8
0
100
AcDbBlockEnd
  0
BLOCK
  5
AFB
330
AFA
100
AcDbEntity
  8
0
100
AcDbBlockBegin
  2
*D44
 70
     1
 10
0.0
 20
0.0
 30
0.0
  3
*D44
  1

  0
LINE
  5
B5A
330
AFA
100
AcDbEntity
  8
5
370
    -2
100
AcDbLine
 10
538.8373714978873
 20
412.9954722535011
 30
0.0
 11
562.0829653489181
 21
412.9954722535011
 31
0.0
  0
LINE
  5
B5B
330
AFA
100
AcDbEntity
  8
5
370
    -2
100
AcDbLine
 10
508.2128191164472
 20
304.218791043585
 30
0.0
 11
562.0829653489181
 21
304.218791043585
 31
0.0
  0
LINE
  5
B5C
330
AFA
100
AcDbEntity
  8
5
370
    -2
100
AcDbLine
 10
560.0829653489181
 20
407.9954722535013
 30
0.0
 11
560.0829653489181
 21
309.218791043585
 31
0.0
  0
SOLID
  5
B5D
330
AFA
100
AcDbEntity
  8
5
100
AcDbTrace
 10
559.2496320155848
 20
407.9954722535013
 30
0.0
 11
560.9162986822515
 21
407.9954722535013
 31
0.0
 12
560.0829653489181
 22
412.9954722535011
 32
0.0
 13
560.0829653489181
 23
412.9954722535011
 33
0.0
  0
SOLID
  5
B5E
330
AFA
100
AcDbEntity
  8
5
100
AcDbTrace
 10
559.2496320155848
 20
309.218791043585
 30
0.0
 11
560.9162986822515
 21
309.218791043585
 31
0.0
 12
560.0829653489181
 22
304.218791043585
 32
0.0
 13
560.0829653489181
 23
304.218791043585
 33
0.0
  0
MTEXT
  5
B5F
330
AFA
100
AcDbEntity
  8
5
 62
     7
100
AcDbMText
 10
551.5961957048616
 20
358.6071316485432
 30
0.0
 40
14.0
 41
0.0
 71
     5
 72
     1
  1
109
 11
0.0000000000000001
 21
1.0
 31
0.0
 73
     1
 44
1.0
  0
POINT
  5
B60
330
AFA
100
AcDbEntity
  8
Defpoints
 62
     0
100
AcDbPoint
 10
536.8373714978873
 20
412.9954722535011
 30
0.0
  0
POINT
  5
B61
330
AFA
100
AcDbEntity
  8
Defpoints
 62
     0
100
AcDbPoint
 10
506.2128191164472
 20
304.218791043585
 30
0.0
  0
POINT
  5
B62
330
AFA
100
AcDbEntity
  8
Defpoints
 62
     0
100
AcDbPoint
 10
560.0829653489181
 20
304.218791043585
 30
0.0
  0
ENDBLK
  5
AFC
330
AFA
100
AcDbEntity
  8
0
100
AcDbBlockEnd
  0
BLOCK
  5
B07
330
B06
100
AcDbEntity
  8
0
100
AcDbBlockBegin
  2
*D45
 70
     1
 10
0.0
 20
0.0
 30
0.0
  3
*D45
  1

  0
LINE
  5
B63
330
B06
100
AcDbEntity
  8
5
370
    -2
100
AcDbLine
 10
372.8373714978873
 20
414.9954722535013
 30
0.0
 11
372.8373714978873
 21
426.9954722535013
 31
0.0
  0
LINE
  5
B64
330
B06
100
AcDbEntity
  8
5
370
    -2
100
AcDbLine
 10
536.8373714978873
 20
414.9954722535013
 30
0.0
 11
536.8373714978873
 21
426.9954722535013
 31
0.0
  0
LINE
  5
B65
330
B06
100
AcDbEntity
  8
5
370
    -2
100
AcDbLine
 10
377.8373714978873
 20
424.9954722535012
 30
0.0
 11
531.8373714978873
 21
424.9954722535012
 31
0.0
  0
SOLID
  5
B66
330
B06
100
AcDbEntity
  8
5
100
AcDbTrace
 10
377.8373714978873
 20
425.8288055868346
 30
0.0
 11
377.8373714978873
 21
424.162138920168
 31
0.0
 12
372.8373714978873
 22
424.9954722535012
 32
0.0
 13
372.8373714978873
 23
424.9954722535012
 33
0.0
  0
SOLID
  5
B67
330
B06
100
AcDbEntity
  8
5
100
AcDbTrace
 10
531.8373714978873
 20
425.8288055868346
 30
0.0
 11
531.8373714978873
 21
424.162138920168
 31
0.0
 12
536.8373714978873
 22
424.9954722535012
 32
0.0
 13
536.8373714978873
 23
424.9954722535012
 33
0.0
  0
MTEXT
  5
B68
330
B06
100
AcDbEntity
  8
5
 62
     7
100
AcDbMText
 10
454.8373714978873
 20
434.1733097283166
 30
0.0
 40
14.0
 41
0.0
 71
     5
 72
     1
  1
%%c164
 73
     1
 44
1.0
  0
POINT
  5
B69
330
B06
100
AcDbEntity
  8
Defpoints
 62
     0
100
AcDbPoint
 10
372.8373714978873
 20
412.9954722535011
 30
0.0
  0
POINT
  5
B6A
330
B06
100
AcDbEntity
  8
Defpoints
 62
     0
100
AcDbPoint
 10
536.8373714978873
 20
412.9954722535011
 30
0.0
  0
POINT
  5
B6B
330
B06
100
AcDbEntity
  8
Defpoints
 62
     0
100
AcDbPoint
 10
536.8373714978873
 20
424.9954722535012
 30
0.0
  0
ENDBLK
  5
B08
330
B06
100
AcDbEntity
  8
0
100
AcDbBlockEnd
  0
BLOCK
  5
B95
330
B94
100
AcDbEntity
  8
0
100
AcDbBlockBegin
  2
*D46
 70
     1
 10
0.0
 20
0.0
 30
0.0
  3
*D46
  1

  0
LINE
  5
D02
330
B94
100
AcDbEntity
  8
5
370
    -2
100
AcDbLine
 10
76.94964593223487
 20
310.590616975404
 30
0.0
 11
76.94964593223487
 21
148.0965892418658
 31
0.0
  0
LINE
  5
D03
330
B94
100
AcDbEntity
  8
5
370
    -2
100
AcDbLine
 10
219.4496459322349
 20
310.590616975404
 30
0.0
 11
219.4496459322349
 21
148.0965892418658
 31
0.0
  0
LINE
  5
D04
330
B94
100
AcDbEntity
  8
5
370
    -2
100
AcDbLine
 10
81.94964593223486
 20
150.0965892418658
 30
0.0
 11
214.4496459322349
 21
150.0965892418658
 31
0.0
  0
SOLID
  5
D05
330
B94
100
AcDbEntity
  8
5
100
AcDbTrace
 10
81.94964593223486
 20
150.9299225751991
 30
0.0
 11
81.94964593223486
 21
149.2632559085324
 31
0.0
 12
76.94964593223487
 22
150.0965892418658
 32
0.0
 13
76.94964593223487
 23
150.0965892418658
 33
0.0
  0
SOLID
  5
D06
330
B94
100
AcDbEntity
  8
5
100
AcDbTrace
 10
214.4496459322349
 20
150.9299225751991
 30
0.0
 11
214.4496459322349
 21
149.2632559085324
 31
0.0
 12
219.4496459322349
 22
150.0965892418658
 32
0.0
 13
219.4496459322349
 23
150.0965892418658
 33
0.0
  0
MTEXT
  5
D07
330
B94
100
AcDbEntity
  8
5
 62
     7
100
AcDbMText
 10
148.1996459322348
 20
159.2744267166811
 30
0.0
 40
14.0
 41
0.0
 71
     5
 72
     1
  1
%%c142
 73
     1
 44
1.0
  0
POINT
  5
D08
330
B94
100
AcDbEntity
  8
Defpoints
 62
     0
100
AcDbPoint
 10
76.94964593223487
 20
312.590616975404
 30
0.0
  0
POINT
  5
D09
330
B94
100
AcDbEntity
  8
Defpoints
 62
     0
100
AcDbPoint
 10
219.4496459322349
 20
312.590616975404
 30
0.0
  0
POINT
  5
D0A
330
B94
100
AcDbEntity
  8
Defpoints
 62
     0
100
AcDbPoint
 10
219.4496459322349
 20
150.0965892418658
 30
0.0
  0
ENDBLK
  5
B96
330
B94
100
AcDbEntity
  8
0
100
AcDbBlockEnd
  0
BLOCK
  5
BC1
330
BC0
100
AcDbEntity
  8
0
100
AcDbBlockBegin
  2
*D47
 70
     1
 10
0.0
 20
0.0
 30
0.0
  3
*D47
  1

  0
LINE
  5
D0B
330
BC0
100
AcDbEntity
  8
5
370
    -2
100
AcDbLine
 10
93.19964593223486
 20
201.052605678507
 30
0.0
 11
93.19964593223486
 21
170.123023085629
 31
0.0
  0
LINE
  5
D0C
330
BC0
100
AcDbEntity
  8
5
370
    -2
100
AcDbLine
 10
203.1996459322348
 20
201.052605678507
 30
0.0
 11
203.1996459322348
 21
170.123023085629
 31
0.0
  0
LINE
  5
D0D
330
BC0
100
AcDbEntity
  8
5
370
    -2
100
AcDbLine
 10
98.19964593223488
 20
172.123023085629
 30
0.0
 11
198.1996459322348
 21
172.123023085629
 31
0.0
  0
SOLID
  5
D0E
330
BC0
100
AcDbEntity
  8
5
100
AcDbTrace
 10
98.19964593223488
 20
172.9563564189623
 30
0.0
 11
98.19964593223488
 21
171.2896897522957
 31
0.0
 12
93.19964593223486
 22
172.123023085629
 32
0.0
 13
93.19964593223486
 23
172.123023085629
 33
0.0
  0
SOLID
  5
D0F
330
BC0
100
AcDbEntity
  8
5
100
AcDbTrace
 10
198.1996459322348
 20
172.9563564189623
 30
0.0
 11
198.1996459322348
 21
171.2896897522957
 31
0.0
 12
203.1996459322348
 22
172.123023085629
 32
0.0
 13
203.1996459322348
 23
172.123023085629
 33
0.0
  0
MTEXT
  5
D10
330
BC0
100
AcDbEntity
  8
5
 62
     7
100
AcDbMText
 10
148.1996459322349
 20
181.3008605604443
 30
0.0
 40
14.0
 41
0.0
 71
     5
 72
     1
  1
%%c110
 73
     1
 44
1.0
  0
POINT
  5
D11
330
BC0
100
AcDbEntity
  8
Defpoints
 62
     0
100
AcDbPoint
 10
93.19964593223486
 20
203.052605678507
 30
0.0
  0
POINT
  5
D12
330
BC0
100
AcDbEntity
  8
Defpoints
 62
     0
100
AcDbPoint
 10
203.1996459322348
 20
203.052605678507
 30
0.0
  0
POINT
  5
D13
330
BC0
100
AcDbEntity
  8
Defpoints
 62
     0
100
AcDbPoint
 10
203.1996459322348
 20
172.123023085629
 30
0.0
  0
ENDBLK
  5
BC2
330
BC0
100
AcDbEntity
  8
0
100
AcDbBlockEnd
  0
BLOCK
  5
BED
330
BEC
100
AcDbEntity
  8
0
100
AcDbBlockBegin
  2
*D48
 70
     1
 10
0.0
 20
0.0
 30
0.0
  3
*D48
  1

  0
LINE
  5
C79
330
BEC
100
AcDbEntity
  8
5
370
    -2
100
AcDbLine
 10
232.1996459322348
 20
403.2727282572373
 30
0.0
 11
275.3831423389568
 21
403.2727282572373
 31
0.0
  0
LINE
  5
C7A
330
BEC
100
AcDbEntity
  8
5
370
    -2
100
AcDbLine
 10
203.1996459322349
 20
195.0618940730197
 30
0.0
 11
275.3831423389568
 21
195.0618940730197
 31
0.0
  0
LINE
  5
C7B
330
BEC
100
AcDbEntity
  8
5
370
    -2
100
AcDbLine
 10
273.3831423389568
 20
398.2727282572374
 30
0.0
 11
273.3831423389568
 21
200.0618940730198
 31
0.0
  0
SOLID
  5
C7C
330
BEC
100
AcDbEntity
  8
5
100
AcDbTrace
 10
272.5498090056235
 20
398.2727282572374
 30
0.0
 11
274.2164756722901
 21
398.2727282572374
 31
0.0
 12
273.3831423389568
 22
403.2727282572373
 32
0.0
 13
273.3831423389568
 23
403.2727282572373
 33
0.0
  0
SOLID
  5
C7D
330
BEC
100
AcDbEntity
  8
5
100
AcDbTrace
 10
272.5498090056234
 20
200.0618940730198
 30
0.0
 11
274.2164756722901
 21
200.0618940730198
 31
0.0
 12
273.3831423389568
 22
195.0618940730197
 32
0.0
 13
273.3831423389568
 23
195.0618940730197
 33
0.0
  0
MTEXT
  5
C7E
330
BEC
100
AcDbEntity
  8
5
 62
     7
100
AcDbMText
 10
264.8634647029594
 20
299.1673111651286
 30
0.0
 40
14.0
 41
0.0
 71
     5
 72
     1
  1
208
 11
0.0000000000000001
 21
1.0
 31
0.0
 73
     1
 44
1.0
  0
POINT
  5
C7F
330
BEC
100
AcDbEntity
  8
Defpoints
 62
     0
100
AcDbPoint
 10
230.1996459322348
 20
403.2727282572373
 30
0.0
  0
POINT
  5
C80
330
BEC
100
AcDbEntity
  8
Defpoints
 62
     0
100
AcDbPoint
 10
201.1996459322349
 20
195.0618940730197
 30
0.0
  0
POINT
  5
C81
330
BEC
100
AcDbEntity
  8
Defpoints
 62
     0
100
AcDbPoint
 10
273.3831423389568
 20
195.0618940730197
 30
0.0
  0
ENDBLK
  5
BEE
330
BEC
100
AcDbEntity
  8
0
100
AcDbBlockEnd
  0
BLOCK
  5
C19
330
C18
100
AcDbEntity
  8
0
100
AcDbBlockBegin
  2
*D49
 70
     1
 10
0.0
 20
0.0
 30
0.0
  3
*D49
  1

  0
LINE
  5
C82
330
C18
100
AcDbEntity
  8
5
370
    -2
100
AcDbLine
 10
238.4496459322348
 20
403.2727282572373
 30
0.0
 11
250.4496459322348
 21
403.2727282572373
 31
0.0
  0
LINE
  5
C83
330
C18
100
AcDbEntity
  8
5
370
    -2
100
AcDbLine
 10
206.6820078420298
 20
297.123735455334
 30
0.0
 11
250.4496459322348
 21
297.123735455334
 31
0.0
  0
LINE
  5
C84
330
C18
100
AcDbEntity
  8
5
370
    -2
100
AcDbLine
 10
248.4496459322348
 20
398.2727282572374
 30
0.0
 11
248.4496459322348
 21
302.1237354553341
 31
0.0
  0
SOLID
  5
C85
330
C18
100
AcDbEntity
  8
5
100
AcDbTrace
 10
247.6163125989015
 20
398.2727282572374
 30
0.0
 11
249.2829792655682
 21
398.2727282572374
 31
0.0
 12
248.4496459322348
 22
403.2727282572373
 32
0.0
 13
248.4496459322348
 23
403.2727282572373
 33
0.0
  0
SOLID
  5
C86
330
C18
100
AcDbEntity
  8
5
100
AcDbTrace
 10
247.6163125989014
 20
302.1237354553341
 30
0.0
 11
249.2829792655681
 21
302.1237354553341
 31
0.0
 12
248.4496459322348
 22
297.123735455334
 32
0.0
 13
248.4496459322348
 23
297.123735455334
 33
0.0
  0
MTEXT
  5
C87
330
C18
100
AcDbEntity
  8
5
 62
     7
100
AcDbMText
 10
239.9628762881784
 20
350.1982318562858
 30
0.0
 40
14.0
 41
0.0
 71
     5
 72
     1
  1
106
 11
0.0000000000000001
 21
1.0
 31
0.0
 73
     1
 44
1.0
  0
POINT
  5
C88
330
C18
100
AcDbEntity
  8
Defpoints
 62
     0
100
AcDbPoint
 10
236.4496459322348
 20
403.2727282572373
 30
0.0
  0
POINT
  5
C89
330
C18
100
AcDbEntity
  8
Defpoints
 62
     0
100
AcDbPoint
 10
204.6820078420298
 20
297.123735455334
 30
0.0
  0
POINT
  5
C8A
330
C18
100
AcDbEntity
  8
Defpoints
 62
     0
100
AcDbPoint
 10
248.4496459322348
 20
297.123735455334
 30
0.0
  0
ENDBLK
  5
C1A
330
C18
100
AcDbEntity
  8
0
100
AcDbBlockEnd
  0
BLOCK
  5
C4F
330
C4E
100
AcDbEntity
  8
0
100
AcDbBlockBegin
  2
*D50
 70
     1
 10
0.0
 20
0.0
 30
0.0
  3
*D50
  1

  0
LINE
  5
D1D
330
C4E
100
AcDbEntity
  8
5
370
    -2
100
AcDbLine
 10
230.1996459322348
 20
405.2727282572373
 30
0.0
 11
230.1996459322348
 21
417.2727282572371
 31
0.0
  0
LINE
  5
D1E
330
C4E
100
AcDbEntity
  8
5
370
    -2
100
AcDbLine
 10
66.19964593223484
 20
405.2727282572373
 30
0.0
 11
66.19964593223484
 21
417.2727282572371
 31
0.0
  0
LINE
  5
D1F
330
C4E
100
AcDbEntity
  8
5
370
    -2
100
AcDbLine
 10
225.1996459322348
 20
415.2727282572374
 30
0.0
 11
71.19964593223484
 21
415.2727282572374
 31
0.0
  0
SOLID
  5
D20
330
C4E
100
AcDbEntity
  8
5
100
AcDbTrace
 10
225.1996459322348
 20
416.1060615905705
 30
0.0
 11
225.1996459322348
 21
414.439394923904
 31
0.0
 12
230.1996459322348
 22
415.2727282572374
 32
0.0
 13
230.1996459322348
 23
415.2727282572374
 33
0.0
  0
SOLID
  5
D21
330
C4E
100
AcDbEntity
  8
5
100
AcDbTrace
 10
71.19964593223484
 20
416.1060615905705
 30
0.0
 11
71.19964593223484
 21
414.439394923904
 31
0.0
 12
66.19964593223484
 22
415.2727282572374
 32
0.0
 13
66.19964593223484
 23
415.2727282572374
 33
0.0
  0
MTEXT
  5
D22
330
C4E
100
AcDbEntity
  8
5
 62
     7
100
AcDbMText
 10
148.1996459322348
 20
424.4505657320527
 30
0.0
 40
14.0
 41
0.0
 71
     5
 72
     1
  1
%%c164
 73
     1
 44
1.0
  0
POINT
  5
D23
330
C4E
100
AcDbEntity
  8
Defpoints
 62
     0
100
AcDbPoint
 10
230.1996459322348
 20
403.2727282572373
 30
0.0
  0
POINT
  5
D24
330
C4E
100
AcDbEntity
  8
Defpoints
 62
     0
100
AcDbPoint
 10
66.19964593223484
 20
403.2727282572373
 30
0.0
  0
POINT
  5
D25
330
C4E
100
AcDbEntity
  8
Defpoints
 62
     0
100
AcDbPoint
 10
66.19964593223484
 20
415.2727282572374
 30
0.0
  0
ENDBLK
  5
C50
330
C4E
100
AcDbEntity
  8
0
100
AcDbBlockEnd
  0
ENDSEC
  0
SECTION
  2
ENTITIES
  0
LINE
  5
214
330
6C
100
AcDbEntity
  8
0
100
AcDbLine
 10
204.4185692624705
 20
403.2727282572373
 30
0.0
 11
208.0601500159747
 21
403.2727282572373
 31
0.0
  0
LINE
  5
215
330
6C
100
AcDbEntity
  8
0
100
AcDbLine
 10
145.4996459322351
 20
403.2727282572373
 30
0.0
 11
150.8996459322348
 21
403.2727282572373
 31
0.0
  0
LINE
  5
216
330
6C
100
AcDbEntity
  8
0
100
AcDbLine
 10
88.33914184849493
 20
403.2727282572373
 30
0.0
 11
91.98072260199912
 21
403.2727282572373
 31
0.0
  0
LINE
  5
22B
330
6C
100
AcDbEntity
  8
0
100
AcDbLine
 10
66.19964593223487
 20
402.0227282572371
 30
0.0
 11
230.1996459322348
 21
402.0227282572371
 31
0.0
  0
LINE
  5
22C
330
6C
100
AcDbEntity
  8
0
100
AcDbLine
 10
91.7172840224399
 20
297.1237354553342
 30
0.0
 11
204.6820078420298
 21
297.123735455334
 31
0.0
  0
LINE
  5
22D
330
6C
100
AcDbEntity
  8
0
100
AcDbLine
 10
230.1996459322348
 20
403.2727282572373
 30
0.0
 11
230.1996459322348
 21
402.0227282572371
 31
0.0
  0
LINE
  5
22E
330
6C
100
AcDbEntity
  8
0
100
AcDbLine
 10
66.19964593223484
 20
403.2727282572373
 30
0.0
 11
66.19964593223484
 21
402.0227282572371
 31
0.0
  0
ARC
  5
22F
330
6C
100
AcDbEntity
  8
0
100
AcDbCircle
 10
70.94964593223486
 20
396.0227282572374
 30
0.0
 40
6.000000000000023
100
AcDbArc
 50
0.0
 51
90.0
  0
ARC
  5
230
330
6C
100
AcDbEntity
  8
0
100
AcDbCircle
 10
225.4496459322348
 20
396.0227282572374
 30
0.0
 40
6.000000000000023
100
AcDbArc
 50
90.0
 51
180.0
  0
LINE
  5
231
330
6C
100
AcDbEntity
  8
0
100
AcDbLine
 10
219.4496459322349
 20
396.0227282572374
 30
0.0
 11
219.4496459322349
 21
393.5952290094041
 31
0.0
  0
LINE
  5
232
330
6C
100
AcDbEntity
  8
0
100
AcDbLine
 10
219.4496459322349
 20
391.5102599047782
 30
0.0
 11
219.4496459322349
 21
373.321490481783
 31
0.0
  0
LINE
  5
233
330
6C
100
AcDbEntity
  8
0
100
AcDbLine
 10
76.94964593223486
 20
396.0227282572374
 30
0.0
 11
76.94964593223486
 21
373.321490481783
 31
0.0
  0
ARC
  5
234
330
6C
100
AcDbEntity
  8
0
100
AcDbCircle
 10
79.63964593223486
 20
373.321490481783
 30
0.0
 40
2.689999999999998
100
AcDbArc
 50
180.0
 51
256.6026401077059
  0
ARC
  5
235
330
6C
100
AcDbEntity
  8
0
100
AcDbCircle
 10
216.7596459322348
 20
373.321490481783
 30
0.0
 40
2.689999999999998
100
AcDbArc
 50
283.3973598922943
 51
0.0
  0
ARC
  5
236
330
6C
100
AcDbEntity
  8
0
100
AcDbCircle
 10
78.43710695157753
 20
368.2727282572374
 30
0.0
 40
2.5
100
AcDbArc
 50
283.397359892294
 51
76.60264010770659
  0
ARC
  5
237
330
6C
100
AcDbEntity
  8
0
100
AcDbCircle
 10
217.9621849128922
 20
368.2727282572374
 30
0.0
 40
2.5
100
AcDbArc
 50
103.397359892294
 51
256.6026401077059
  0
ARC
  5
238
330
6C
100
AcDbEntity
  8
0
100
AcDbCircle
 10
79.63964593223486
 20
363.2239660326916
 30
0.0
 40
2.689999999999998
100
AcDbArc
 50
103.397359892294
 51
180.0
  0
ARC
  5
239
330
6C
100
AcDbEntity
  8
0
100
AcDbCircle
 10
216.7596459322348
 20
363.2239660326916
 30
0.0
 40
2.689999999999998
100
AcDbArc
 50
0.0
 51
76.60264010770568
  0
LINE
  5
23A
330
6C
100
AcDbEntity
  8
0
100
AcDbLine
 10
219.4496459322349
 20
363.2239660326916
 30
0.0
 11
219.4496459322349
 21
312.590616975404
 31
0.0
  0
LINE
  5
23B
330
6C
100
AcDbEntity
  8
0
100
AcDbLine
 10
76.94964593223486
 20
363.2239660326916
 30
0.0
 11
76.94964593223486
 21
312.590616975404
 31
0.0
  0
ARC
  5
23C
330
6C
100
AcDbEntity
  8
0
100
AcDbCircle
 10
91.94964593223486
 20
312.590616975404
 30
0.0
 40
14.99999999999997
100
AcDbArc
 50
180.0
 51
255.0
  0
ARC
  5
23D
330
6C
100
AcDbEntity
  8
0
100
AcDbCircle
 10
204.4496459322349
 20
312.590616975404
 30
0.0
 40
14.99999999999998
100
AcDbArc
 50
285.0
 51
0.0
  0
LINE
  5
23E
330
6C
100
AcDbEntity
  8
0
100
AcDbLine
 10
91.71728402243989
 20
297.123735455334
 30
0.0
 11
88.06736025569703
 21
298.101729581068
 31
0.0
  0
LINE
  5
23F
330
6C
100
AcDbEntity
  8
0
100
AcDbLine
 10
204.6820078420298
 20
297.123735455334
 30
0.0
 11
208.3319316087727
 21
298.101729581068
 31
0.0
  0
ARC
  5
240
330
6C
100
AcDbEntity
  8
0
100
AcDbCircle
 10
91.19964593223487
 20
295.191883802756
 30
0.0
 40
1.999999999999993
100
AcDbArc
 50
0.0
 51
74.99999999999954
  0
ARC
  5
241
330
6C
100
AcDbEntity
  8
0
100
AcDbCircle
 10
205.1996459322348
 20
295.191883802756
 30
0.0
 40
1.999999999999992
100
AcDbArc
 50
104.9999999999997
 51
180.0
  0
LINE
  5
242
330
6C
100
AcDbEntity
  8
0
100
AcDbLine
 10
203.1996459322348
 20
295.191883802756
 30
0.0
 11
203.1996459322348
 21
292.0618940544027
 31
0.0
  0
LINE
  5
243
330
6C
100
AcDbEntity
  8
0
100
AcDbLine
 10
93.19964593223486
 20
295.191883802756
 30
0.0
 11
93.19964593223486
 21
292.0618940544027
 31
0.0
  0
LINE
  5
25B
330
6C
100
AcDbEntity
  8
0
100
AcDbLine
 10
201.1996459322349
 20
195.0618940730197
 30
0.0
 11
95.19964593223487
 21
195.0618940730197
 31
0.0
  0
LINE
  5
25C
330
6C
100
AcDbEntity
  8
0
100
AcDbLine
 10
93.19964593223486
 20
238.0618940544029
 30
0.0
 11
93.19964593223486
 21
251.6450203161835
 31
0.0
  0
LINE
  5
25D
330
6C
100
AcDbEntity
  8
0
100
AcDbLine
 10
203.1996459322348
 20
238.0618940544028
 30
0.0
 11
203.1996459322348
 21
251.6450203161835
 31
0.0
  0
ARC
  5
25E
330
6C
100
AcDbEntity
  8
0
100
AcDbCircle
 10
202.1996459322348
 20
251.6450203161835
 30
0.0
 40
0.9999999999999987
100
AcDbArc
 50
0.0
 51
45.25994872348678
  0
ARC
  5
25F
330
6C
100
AcDbEntity
  8
0
100
AcDbCircle
 10
94.19964593223486
 20
251.6450203161835
 30
0.0
 40
0.9999999999999998
100
AcDbArc
 50
134.7400512765126
 51
180.0
  0
LINE
  5
260
330
6C
100
AcDbEntity
  8
0
100
AcDbLine
 10
199.5977002328905
 20
255.6313033902955
 30
0.0
 11
202.9035373309234
 21
252.3553279247956
 31
0.0
  0
LINE
  5
261
330
6C
100
AcDbEntity
  8
0
100
AcDbLine
 10
96.80159163157917
 20
255.6313033902956
 30
0.0
 11
93.49575453354622
 21
252.3553279247956
 31
0.0
  0
ARC
  5
262
330
6C
100
AcDbEntity
  8
0
100
AcDbCircle
 10
199.9496459322348
 20
255.9864571946016
 30
0.0
 40
0.4999999999999978
100
AcDbArc
 50
180.0
 51
225.2599487234868
  0
ARC
  5
263
330
6C
100
AcDbEntity
  8
0
100
AcDbCircle
 10
96.44964593223486
 20
255.9864571946016
 30
0.0
 40
0.4999999999999984
100
AcDbArc
 50
314.7400512765131
 51
0.0
  0
LINE
  5
264
330
6C
100
AcDbEntity
  8
0
100
AcDbLine
 10
96.94964593223486
 20
255.9864571946016
 30
0.0
 11
96.94964593223485
 21
282.1204571946015
 31
0.0
  0
LINE
  5
265
330
6C
100
AcDbEntity
  8
0
100
AcDbLine
 10
199.4496459322348
 20
255.9864571946016
 30
0.0
 11
199.4496459322348
 21
282.1204571946015
 31
0.0
  0
ARC
  5
266
330
6C
100
AcDbEntity
  8
0
100
AcDbCircle
 10
199.9496459322348
 20
282.1204571946015
 30
0.0
 40
0.5
100
AcDbArc
 50
134.7400512765132
 51
180.0
  0
ARC
  5
267
330
6C
100
AcDbEntity
  8
0
100
AcDbCircle
 10
96.44964593223484
 20
282.1204571946015
 30
0.0
 40
0.4999999999999998
100
AcDbArc
 50
0.0
 51
45.25994872348788
  0
LINE
  5
268
330
6C
100
AcDbEntity
  8
0
100
AcDbLine
 10
96.80159163157913
 20
282.4756109989075
 30
0.0
 11
93.49575453354622
 21
285.7515864644075
 31
0.0
  0
LINE
  5
269
330
6C
100
AcDbEntity
  8
0
100
AcDbLine
 10
199.5977002328905
 20
282.4756109989075
 30
0.0
 11
202.9035373309234
 21
285.7515864644075
 31
0.0
  0
ARC
  5
26A
330
6C
100
AcDbEntity
  8
0
100
AcDbCircle
 10
202.1996459322348
 20
286.4618940730195
 30
0.0
 40
0.9999999999999998
100
AcDbArc
 50
314.7400512765131
 51
0.0
  0
ARC
  5
26B
330
6C
100
AcDbEntity
  8
0
100
AcDbCircle
 10
94.19964593223484
 20
286.4618940730195
 30
0.0
 40
0.9999999999999992
100
AcDbArc
 50
180.0
 51
225.259948723484
  0
LINE
  5
26C
330
6C
100
AcDbEntity
  8
0
100
AcDbLine
 10
93.19964593223485
 20
286.4618940730195
 30
0.0
 11
93.19964593223486
 21
292.0618940544027
 31
0.0
  0
LINE
  5
26D
330
6C
100
AcDbEntity
  8
0
100
AcDbLine
 10
203.1996459322348
 20
286.4618940730195
 30
0.0
 11
203.1996459322348
 21
292.0618940544027
 31
0.0
  0
LINE
  5
26E
330
6C
100
AcDbEntity
  8
0
100
AcDbLine
 10
95.19964593223487
 20
195.0618940730197
 30
0.0
 11
94.37264060838659
 21
198.1483199597515
 31
0.0
  0
LINE
  5
26F
330
6C
100
AcDbEntity
  8
0
100
AcDbLine
 10
201.1996459322349
 20
195.0618940730197
 30
0.0
 11
202.0266512560832
 21
198.1483199597515
 31
0.0
  0
LINE
  5
272
330
6C
100
AcDbEntity
  8
0
100
AcDbLine
 10
93.19964593223486
 20
203.052605678507
 30
0.0
 11
93.19964593223486
 21
238.0618940544029
 31
0.0
  0
LINE
  5
273
330
6C
100
AcDbEntity
  8
0
100
AcDbLine
 10
203.1996459322348
 20
203.052605678507
 30
0.0
 11
203.1996459322348
 21
238.0618940544028
 31
0.0
  0
LINE
  5
276
330
6C
100
AcDbEntity
  8
0
100
AcDbLine
 10
94.37264060838659
 20
198.1483199597515
 30
0.0
 11
93.19964593223486
 21
203.052605678507
 31
0.0
  0
LINE
  5
277
330
6C
100
AcDbEntity
  8
0
100
AcDbLine
 10
202.0266512560832
 20
198.1483199597515
 30
0.0
 11
203.1996459322348
 21
203.052605678507
 31
0.0
  0
LINE
  5
28B
330
6C
100
AcDbEntity
  8
0
100
AcDbLine
 10
203.1996459322349
 20
230.2979620319027
 30
0.0
 11
203.1996459322349
 21
238.0618940544029
 31
0.0
  0
LINE
  5
2D1
330
6C
100
AcDbEntity
  8
0
100
AcDbLine
 10
150.9062272850685
 20
403.2727282572373
 30
0.0
 11
150.8996459322348
 21
403.2727282572373
 31
0.0
  0
LINE
  5
2D4
330
6C
100
AcDbEntity
  8
0
100
AcDbLine
 10
145.4996459322348
 20
403.2727282572373
 30
0.0
 11
145.4930645794012
 21
403.2727282572373
 31
0.0
  0
LINE
  5
30D
330
6C
100
AcDbEntity
  8
0
100
AcDbLine
 10
91.98545291137719
 20
403.2727282572373
 30
0.0
 11
91.98072260199912
 21
403.2727282572373
 31
0.0
  0
LINE
  5
30E
330
6C
100
AcDbEntity
  8
0
100
AcDbLine
 10
88.16234598359178
 20
403.2727282572373
 30
0.0
 11
88.33914184849504
 21
403.2727282572373
 31
0.0
  0
LINE
  5
310
330
6C
100
AcDbEntity
  8
0
100
AcDbLine
 10
88.16234598359178
 20
403.2727282572373
 30
0.0
 11
88.15776885453379
 21
403.2727282572373
 31
0.0
  0
LINE
  5
311
330
6C
100
AcDbEntity
  8
0
100
AcDbLine
 10
65.99419041144539
 20
403.2727282572373
 30
0.0
 11
65.99408209660231
 21
403.2727282572373
 31
0.0
  0
LINE
  5
312
330
6C
100
AcDbEntity
  8
0
100
AcDbLine
 10
208.2415230099359
 20
403.2727282572373
 30
0.0
 11
208.2369458808779
 21
403.2727282572373
 31
0.0
  0
LINE
  5
313
330
6C
100
AcDbEntity
  8
0
100
AcDbLine
 10
208.0601500159747
 20
403.2727282572373
 30
0.0
 11
208.2369458808779
 21
403.2727282572373
 31
0.0
  0
LINE
  5
316
330
6C
100
AcDbEntity
  8
0
100
AcDbLine
 10
204.4185692624705
 20
403.2727282572373
 30
0.0
 11
204.4138389530924
 21
403.2727282572373
 31
0.0
  0
LINE
  5
342
330
6C
100
AcDbEntity
  8
0
100
AcDbLine
 10
88.15776885453383
 20
403.2727282572373
 30
0.0
 11
66.19964593223484
 21
403.2727282572373
 31
0.0
  0
LINE
  5
343
330
6C
100
AcDbEntity
  8
0
100
AcDbLine
 10
229.995387257156
 20
403.2727282572373
 30
0.0
 11
208.2415230099359
 21
403.2727282572373
 31
0.0
  0
LINE
  5
344
330
6C
100
AcDbEntity
  8
0
100
AcDbLine
 10
204.4138389530924
 20
403.2727282572373
 30
0.0
 11
150.9062272850685
 21
403.2727282572373
 31
0.0
  0
LINE
  5
345
330
6C
100
AcDbEntity
  8
0
100
AcDbLine
 10
145.4930645794011
 20
403.2727282572373
 30
0.0
 11
91.98545291137717
 21
403.2727282572373
 31
0.0
  0
ARC
  5
351
330
6C
100
AcDbEntity
  8
0
100
AcDbCircle
 10
217.7461566504748
 20
392.5527444570911
 30
0.0
 40
2.0
100
AcDbArc
 50
328.4019362146012
 51
31.59806378539709
  0
LINE
  5
36B
330
6C
100
AcDbEntity
  8
0
100
AcDbLine
 10
228.6790869397302
 20
404.2727282572371
 30
0.0
 11
218.9496459322348
 21
404.2727282572371
 31
0.0
  0
LINE
  5
36C
330
6C
100
AcDbEntity
  8
0
100
AcDbLine
 10
235.9496459322349
 20
421.2727282572374
 30
0.0
 11
218.9496459322348
 21
421.2727282572374
 31
0.0
  0
LINE
  5
36D
330
6C
100
AcDbEntity
  8
0
100
AcDbLine
 10
234.9496459322348
 20
423.2727282572374
 30
0.0
 11
219.9496459322348
 21
423.2727282572374
 31
0.0
  0
LINE
  5
370
330
6C
100
AcDbEntity
  8
0
100
AcDbLine
 10
218.9496459322348
 20
404.2727282572371
 30
0.0
 11
218.4496459322348
 21
403.2727282572373
 31
0.0
  0
LINE
  5
371
330
6C
100
AcDbEntity
  8
0
100
AcDbLine
 10
218.9496459322348
 20
404.2727282572371
 30
0.0
 11
218.9496459322348
 21
408.0016236206863
 31
0.0
  0
LINE
  5
372
330
6C
100
AcDbEntity
  8
0
100
AcDbLine
 10
218.9496459322348
 20
408.2309036966706
 30
0.0
 11
218.9496459322348
 21
421.2727282572374
 31
0.0
  0
LINE
  5
373
330
6C
100
AcDbEntity
  8
0
100
AcDbLine
 10
235.9496459322348
 20
407.7309036966706
 30
0.0
 11
235.9496459322348
 21
421.2727282572374
 31
0.0
  0
LINE
  5
374
330
6C
100
AcDbEntity
  8
0
100
AcDbLine
 10
234.9496459322348
 20
423.2727282572374
 30
0.0
 11
235.9496459322349
 21
421.2727282572371
 31
0.0
  0
LINE
  5
375
330
6C
100
AcDbEntity
  8
0
100
AcDbLine
 10
219.9496459322348
 20
423.2727282572374
 30
0.0
 11
218.9496459322348
 21
421.2727282572374
 31
0.0
  0
LINE
  5
376
330
6C
100
AcDbEntity
  8
0
100
AcDbLine
 10
236.4496459322348
 20
403.2727282572373
 30
0.0
 11
229.995387257156
 21
403.2727282572373
 31
0.0
  0
LINE
  5
377
330
6C
100
AcDbEntity
  8
0
100
AcDbLine
 10
235.9496459322348
 20
404.2727282572371
 30
0.0
 11
228.6790869397302
 21
404.2727282572371
 31
0.0
  0
LINE
  5
378
330
6C
100
AcDbEntity
  8
0
100
AcDbLine
 10
235.9496459322348
 20
404.2727282572371
 30
0.0
 11
236.4496459322348
 21
403.2727282572373
 31
0.0
  0
LINE
  5
379
330
6C
100
AcDbEntity
  8
0
100
AcDbLine
 10
218.9496459322348
 20
408.0016236206863
 30
0.0
 11
218.9496459322348
 21
408.2309036966706
 31
0.0
  0
LINE
  5
37A
330
6C
100
AcDbEntity
  8
0
100
AcDbLine
 10
235.9496459322348
 20
404.2727282572371
 30
0.0
 11
235.9496459322348
 21
407.7309036966706
 31
0.0
  0
ARC
  5
420
330
6C
100
AcDbEntity
  8
0
100
AcDbCircle
 10
148.1996459321706
 20
54.86805120596073
 30
0.0
 40
82.5
100
AcDbArc
 50
6.751453648695513
 51
353.2485463513037
  0
ARC
  5
421
330
6C
100
AcDbEntity
  8
0
100
AcDbCircle
 10
230.2268541340635
 20
45.15738106413514
 30
0.0
 40
0.100000000000049
100
AcDbArc
 50
105.9602924617204
 51
173.2485463512954
  0
ARC
  5
422
330
6C
100
AcDbEntity
  8
0
100
AcDbCircle
 10
230.2268541340635
 20
64.57872134778603
 30
0.0
 40
0.100000000000019
100
AcDbArc
 50
186.7514536487004
 51
254.0397075382899
  0
CIRCLE
  5
423
330
6C
100
AcDbEntity
  8
0
100
AcDbCircle
 10
227.4496459321708
 20
54.86805120596518
 30
0.0
 40
9.250000000064149
  0
LINE
  5
53D
330
6C
100
AcDbEntity
  8
7
  6
Continuous
100
AcDbLine
 10
148.1996459322348
 20
407.0227282572373
 30
0.0
 11
148.1996459322348
 21
288.3118940544027
 31
0.0
  0
LINE
  5
53F
330
6C
100
AcDbEntity
  8
7
  6
Continuous
100
AcDbLine
 10
148.1996459322349
 20
198.3118940544029
 30
0.0
 11
148.1996459322349
 21
289.007343960706
 31
0.0
  0
LINE
  5
544
330
6C
100
AcDbEntity
  8
7
  6
Continuous
100
AcDbLine
 10
233.9496459321707
 20
54.86805120595851
 30
0.0
 11
62.44964593217075
 21
54.86805120595851
 31
0.0
  0
LINE
  5
545
330
6C
100
AcDbEntity
  8
7
  6
Continuous
100
AcDbLine
 10
148.1996459321706
 20
140.6180512059585
 30
0.0
 11
148.1996459321706
 21
-30.88194879404148
 31
0.0
  0
LINE
  5
546
330
6C
100
AcDbEntity
  8
7
  6
Continuous
100
AcDbLine
 10
235.1996459321707
 20
54.86805120596371
 30
0.0
 11
219.6996459321707
 21
54.86805120596371
 31
0.0
  0
CIRCLE
  5
B8B
330
6C
100
AcDbEntity
  8
0
100
AcDbCircle
 10
148.1996459321706
 20
54.86805120595851
 30
0.0
 40
69.99999999993588
  0
CIRCLE
  5
B8C
330
6C
100
AcDbEntity
  8
0
100
AcDbCircle
 10
148.1996459321706
 20
54.86805120595851
 30
0.0
 40
66.0125389805932
  0
CIRCLE
  5
B8D
330
6C
100
AcDbEntity
  8
0
100
AcDbCircle
 10
148.1996459321706
 20
54.86805120595851
 30
0.0
 40
51.2499999999359
  0
CIRCLE
  5
B8E
330
6C
100
AcDbEntity
  8
0
100
AcDbCircle
 10
148.1996459321706
 20
54.86805120595851
 30
0.0
 40
50.24999999993589
  0
DIMENSION
  5
B93
330
6C
100
AcDbEntity
  8
5
100
AcDbDimension
  2
*D46
 10
219.4496459322349
 20
150.0965892418658
 30
0.0
 11
148.1996459322348
 21
150.0965892418658
 31
0.0
 70
   160
  1
%%c142
 71
     5
 42
142.5
  3
GEN-ISO
100
AcDbAlignedDimension
 13
76.94964593223487
 23
312.590616975404
 33
0.0
 14
219.4496459322349
 24
312.590616975404
 34
0.0
 50
0.0000000000001132
100
AcDbRotatedDimension
1001
ACAD
1000
DSTYLE
1002
{
1070
     3
1000

1070
   271
1070
     0
1002
}
1001
ACAD_DSTYLE_DIMINSPECT
1070
   396
1000
100%
1070
   395
1000

1070
   394
1070
    33
1070
   393
1070
     0
  0
DIMENSION
  5
BBF
330
6C
100
AcDbEntity
  8
5
100
AcDbDimension
  2
*D47
 10
203.1996459322348
 20
172.123023085629
 30
0.0
 11
148.1996459322349
 21
172.123023085629
 31
0.0
 70
   160
  1
%%c<>
 71
     5
 42
109.9999999999999
  3
GEN-ISO
100
AcDbAlignedDimension
 13
93.19964593223486
 23
203.052605678507
 33
0.0
 14
203.1996459322348
 24
203.052605678507
 34
0.0
 50
0.0000000000000114
100
AcDbRotatedDimension
1001
ACAD
1000
DSTYLE
1002
{
1070
     3
1000

1070
   271
1070
     0
1002
}
1001
ACAD_DSTYLE_DIMINSPECT
1070
   396
1000
100%
1070
   395
1000

1070
   394
1070
    33
1070
   393
1070
     0
  0
DIMENSION
  5
BEB
330
6C
100
AcDbEntity
  8
5
100
AcDbDimension
  2
*D48
 10
273.3831423389568
 20
195.0618940730197
 30
0.0
 11
264.8634647029594
 21
299.1673111651286
 31
0.0
 70
    32
 71
     5
 42
208.2108341842176
  3
GEN-ISO
100
AcDbAlignedDimension
 13
230.1996459322348
 23
403.2727282572373
 33
0.0
 14
201.1996459322349
 24
195.0618940730197
 34
0.0
 50
90.00000000000005
100
AcDbRotatedDimension
1001
ACAD_DSTYLE_DIMINSPECT
1070
   396
1000
100%
1070
   395
1000

1070
   394
1070
    33
1070
   393
1070
     0
1001
ACAD
1000
DSTYLE
1002
{
1070
     3
1000

1070
   271
1070
     0
1002
}
  0
DIMENSION
  5
C17
330
6C
100
AcDbEntity
  8
5
100
AcDbDimension
  2
*D49
 10
248.4496459322348
 20
297.123735455334
 30
0.0
 11
239.9628762881784
 21
350.1982318562858
 31
0.0
 70
    32
 71
     5
 42
106.1489928019033
  3
GEN-ISO
100
AcDbAlignedDimension
 13
236.4496459322348
 23
403.2727282572373
 33
0.0
 14
204.6820078420298
 24
297.123735455334
 34
0.0
 50
90.00000000000005
100
AcDbRotatedDimension
1001
ACAD_DSTYLE_DIMINSPECT
1070
   396
1000
100%
1070
   395
1000

1070
   394
1070
    33
1070
   393
1070
     0
1001
ACAD
1000
DSTYLE
1002
{
1070
     3
1000

1070
   271
1070
     0
1002
}
  0
DIMENSION
  5
C4D
330
6C
100
AcDbEntity
  8
5
100
AcDbDimension
  2
*D50
 10
66.19964593223484
 20
415.2727282572374
 30
0.0
 11
148.1996459322348
 21
424.4505657320527
 31
0.0
 70
    32
  1
%%c<>
 71
     5
 42
163.9999999999999
  3
GEN-ISO
100
AcDbAlignedDimension
 13
230.1996459322348
 23
403.2727282572373
 33
0.0
 14
66.19964593223484
 24
403.2727282572373
 34
0.0
 50
0.0000000000000114
100
AcDbRotatedDimension
1001
ACAD
1000
DSTYLE
1002
{
1070
     3
1000

1070
   271
1070
     0
1002
}
1001
ACAD_DSTYLE_DIMINSPECT
1070
   396
1000
100%
1070
   395
1000

1070
   394
1070
    33
1070
   393
1070
     0
  0
ENDSEC
  0
SECTION
  2
OBJECTS
  0
DICTIONARY
  5
C
330
0
100
AcDbDictionary
281
     1
  3
ACAD_2007HEADERVARS_RT
350
F8F
  3
ACAD_CIP_PREVIOUS_PRODUCT_INFO
350
8DD
  3
ACAD_COLOR
350
63
  3
ACAD_GROUP
350
D
  3
ACAD_LAYOUT
350
62
  3
ACAD_MATERIAL
350
10
  3
ACAD_MLEADERSTYLE
350
66
  3
ACAD_MLINESTYLE
350
5F
  3
ACAD_PLOTSETTINGS
350
61
  3
ACAD_PLOTSTYLENAME
350
E
  3
ACAD_SCALELIST
350
42
  3
ACAD_TABLESTYLE
350
64
  3
ACAD_VISUALSTYLE
350
29
  3
ACDB_RECOMPOSE_DATA
350
F8E
  3
AcDbVariableDictionary
350
913
  3
AcmDictionary
350
97F
  3
AEC_PROPERTY_SET_DEFS
350
A69
  3
AMG
350
925
  3
AMGSNAPSETTINGS
350
A6C
  0
DICTIONARY
  5
A04
330
2
100
AcDbDictionary
280
     1
281
     1
  3
ACAD_LAYERSTATES
360
A05
  0
DICTIONARY
  5
9FE
330
9FD
100
AcDbDictionary
280
     1
281
     1
  0
DICTIONARY
  5
A00
330
9FF
100
AcDbDictionary
280
     1
281
     1
  0
DICTIONARY
  5
F7B
330
C9
100
AcDbDictionary
280
     1
281
     1
  3
ACAD_MTEXT_2008_RT
360
F7C
  0
DICTIONARY
  5
FC5
330
12E
100
AcDbDictionary
280
     1
281
     1
  3
ACAD_MTEXT_2008_RT
360
FC6
  0
DICTIONARY
  5
FC7
330
132
100
AcDbDictionary
280
     1
281
     1
  3
ACAD_MTEXT_2008_RT
360
FC8
  0
DICTIONARY
  5
FC9
330
136
100
AcDbDictionary
280
     1
281
     1
  3
ACAD_MTEXT_2008_RT
360
FCA
  0
DICTIONARY
  5
FCB
330
13A
100
AcDbDictionary
280
     1
281
     1
  3
ACAD_MTEXT_2008_RT
360
FCC
  0
DICTIONARY
  5
FCD
330
13E
100
AcDbDictionary
280
     1
281
     1
  3
ACAD_MTEXT_2008_RT
360
FCE
  0
DICTIONARY
  5
FCF
330
142
100
AcDbDictionary
280
     1
281
     1
  3
ACAD_MTEXT_2008_RT
360
FD0
  0
DICTIONARY
  5
FD1
330
146
100
AcDbDictionary
280
     1
281
     1
  3
ACAD_MTEXT_2008_RT
360
FD2
  0
DICTIONARY
  5
FD3
330
14A
100
AcDbDictionary
280
     1
281
     1
  3
ACAD_MTEXT_2008_RT
360
FD4
  0
DICTIONARY
  5
FD5
330
152
100
AcDbDictionary
280
     1
281
     1
  3
ACAD_MTEXT_2008_RT
360
FD6
  0
DICTIONARY
  5
FD7
330
1F0
100
AcDbDictionary
280
     1
281
     1
  3
ACAD_MTEXT_2008_RT
360
FD8
  0
DICTIONARY
  5
FD9
330
1F4
100
AcDbDictionary
280
     1
281
     1
  3
ACAD_MTEXT_2008_RT
360
FDA
  0
DICTIONARY
  5
FDB
330
1F9
100
AcDbDictionary
280
     1
281
     1
  3
ACAD_MTEXT_2008_RT
360
FDC
  0
DICTIONARY
  5
8E2
330
1FD
100
AcDbDictionary
280
     1
281
     1
  3
ACAD_MLATT
360
F7E
  3
ACAD_XREC_ROUNDTRIP
360
F7D
  0
DICTIONARY
  5
8E5
330
201
100
AcDbDictionary
280
     1
281
     1
  3
ACAD_MLATT
360
F80
  3
ACAD_XREC_ROUNDTRIP
360
F7F
  0
DICTIONARY
  5
8E8
330
202
100
AcDbDictionary
280
     1
281
     1
  3
ACAD_MLATT
360
F82
  3
ACAD_XREC_ROUNDTRIP
360
F81
  0
DICTIONARY
  5
8EB
330
203
100
AcDbDictionary
280
     1
281
     1
  3
ACAD_MLATT
360
F84
  3
ACAD_XREC_ROUNDTRIP
360
F83
  0
DICTIONARY
  5
8EE
330
205
100
AcDbDictionary
280
     1
281
     1
  3
ACAD_MLATT
360
F86
  3
ACAD_XREC_ROUNDTRIP
360
F85
  0
DICTIONARY
  5
8F1
330
206
100
AcDbDictionary
280
     1
281
     1
  3
ACAD_MLATT
360
F88
  3
ACAD_XREC_ROUNDTRIP
360
F87
  0
DICTIONARY
  5
8F4
330
207
100
AcDbDictionary
280
     1
281
     1
  3
ACAD_MLATT
360
F8A
  3
ACAD_XREC_ROUNDTRIP
360
F89
  0
DICTIONARY
  5
8F7
330
208
100
AcDbDictionary
280
     1
281
     1
  3
ACAD_MLATT
360
F8C
  3
ACAD_XREC_ROUNDTRIP
360
F8B
  0
DICTIONARY
  5
FDD
330
4DB
100
AcDbDictionary
280
     1
281
     1
  3
ACAD_MTEXT_2008_RT
360
FDE
  0
DICTIONARY
  5
FDF
330
4DF
100
AcDbDictionary
280
     1
281
     1
  3
ACAD_MTEXT_2008_RT
360
FE0
  0
DICTIONARY
  5
FE1
330
4E3
100
AcDbDictionary
280
     1
281
     1
  3
ACAD_MTEXT_2008_RT
360
FE2
  0
DICTIONARY
  5
FE3
330
503
100
AcDbDictionary
280
     1
281
     1
  3
ACAD_MTEXT_2008_RT
360
FE4
  0
DICTIONARY
  5
FE5
330
50A
100
AcDbDictionary
280
     1
281
     1
  3
ACAD_MTEXT_2008_RT
360
FE6
  0
DICTIONARY
  5
FE7
330
50B
100
AcDbDictionary
280
     1
281
     1
  3
ACAD_MTEXT_2008_RT
360
FE8
  0
DICTIONARY
  5
FE9
330
50F
100
AcDbDictionary
280
     1
281
     1
  3
ACAD_MTEXT_2008_RT
360
FEA
  0
DICTIONARY
  5
FEB
330
516
100
AcDbDictionary
280
     1
281
     1
  3
ACAD_MTEXT_2008_RT
360
FEC
  0
DICTIONARY
  5
FED
330
517
100
AcDbDictionary
280
     1
281
     1
  3
ACAD_MTEXT_2008_RT
360
FEE
  0
DICTIONARY
  5
FEF
330
51A
100
AcDbDictionary
280
     1
281
     1
  3
ACAD_MTEXT_2008_RT
360
FF0
  0
DICTIONARY
  5
FF1
330
529
100
AcDbDictionary
280
     1
281
     1
  3
ACAD_MTEXT_2008_RT
360
FF2
  0
DICTIONARY
  5
FF3
330
530
100
AcDbDictionary
280
     1
281
     1
  3
ACAD_MTEXT_2008_RT
360
FF4
  0
DICTIONARY
  5
FF5
330
701
100
AcDbDictionary
280
     1
281
     1
  3
ACAD_MTEXT_2008_RT
360
FF6
  0
DICTIONARY
  5
FF7
330
7AA
100
AcDbDictionary
280
     1
281
     1
  3
ACAD_MTEXT_2008_RT
360
FF8
  0
DICTIONARY
  5
F8F
102
{ACAD_REACTORS
330
C
102
}
330
C
100
AcDbDictionary
281
     1
  3
DIMARCSYM
350
F90
  3
DIMLTEX1
350
F92
  3
DIMLTEX2
350
F93
  3
DIMLTYPE
350
F91
  0
XRECORD
  5
8DD
102
{ACAD_REACTORS
330
C
102
}
330
C
100
AcDbXrecord
280
     1
300
INVNTOR
300
2012
300
PDSP_F_S
  0
DICTIONARY
  5
63
102
{ACAD_REACTORS
330
C
102
}
330
C
100
AcDbDictionary
281
     1
  0
DICTIONARY
  5
D
102
{ACAD_REACTORS
330
C
102
}
330
C
100
AcDbDictionary
281
     1
  0
DICTIONARY
  5
62
102
{ACAD_REACTORS
330
C
102
}
330
C
100
AcDbDictionary
281
     1
  3
Layout1
350
6B
  3
Layout2
350
73
  3
Model
350
6F
  0
DICTIONARY
  5
10
102
{ACAD_REACTORS
330
C
102
}
330
C
100
AcDbDictionary
281
     1
  3
ByBlock
350
19
  3
ByLayer
350
11
  3
Global
350
21
  0
DICTIONARY
  5
66
102
{ACAD_REACTORS
330
C
102
}
330
C
100
AcDbDictionary
281
     1
  3
Standard
350
67
  0
DICTIONARY
  5
5F
102
{ACAD_REACTORS
330
C
102
}
330
C
100
AcDbDictionary
281
     1
  3
Standard
350
60
  0
DICTIONARY
  5
61
102
{ACAD_REACTORS
330
C
102
}
330
C
100
AcDbDictionary
281
     1
  0
ACDBDICTIONARYWDFLT
  5
E
102
{ACAD_REACTORS
330
C
102
}
330
C
100
AcDbDictionary
281
     1
  3
Normal
350
F
100
AcDbDictionaryWithDefault
340
F
  0
DICTIONARY
  5
42
102
{ACAD_REACTORS
330
C
102
}
330
C
100
AcDbDictionary
281
     1
  3
A0
350
43
  3
A1
350
44
  3
A2
350
45
  3
A3
350
46
  3
A4
350
47
  3
A5
350
48
  3
A6
350
49
  3
A7
350
4A
  3
A8
350
4B
  3
A9
350
4C
  3
B0
350
4D
  3
B1
350
4E
  3
B2
350
4F
  3
B3
350
50
  3
B4
350
51
  3
B5
350
52
  3
B6
350
53
  0
DICTIONARY
  5
64
102
{ACAD_REACTORS
330
C
102
}
330
C
100
AcDbDictionary
281
     1
  3
Standard
350
65
  0
DICTIONARY
  5
29
102
{ACAD_REACTORS
330
C
102
}
330
C
100
AcDbDictionary
281
     1
  3
2dWireframe
350
2F
  3
3D Hidden
350
919
  3
3dWireframe
350
918
  3
Basic
350
2E
  3
Brighten
350
35
  3
ColorChange
350
39
  3
Conceptual
350
32
  3
Dim
350
34
  3
EdgeColorOff
350
41
  3
Facepattern
350
38
  3
Flat
350
2A
  3
FlatWithEdges
350
2B
  3
Gouraud
350
2C
  3
GouraudWithEdges
350
2D
  3
Hidden
350
31
  3
JitterOff
350
3F
  3
Linepattern
350
37
  3
OverhangOff
350
40
  3
Realistic
350
33
  3
Shaded
350
3E
  3
Shaded with edges
350
3D
  3
Shades of Gray
350
3A
  3
Sketchy
350
3B
  3
Thicken
350
36
  3
Wireframe
350
30
  3
X-Ray
350
3C
  0
XRECORD
  5
F8E
102
{ACAD_REACTORS
330
C
102
}
330
C
100
AcDbXrecord
280
     1
 90
        1
330
65
330
C9
330
1FD
330
201
330
202
330
203
330
205
330
206
330
207
330
208
  0
DICTIONARY
  5
913
102
{ACAD_REACTORS
330
C
102
}
330
C
100
AcDbDictionary
281
     1
  3
CANNOSCALE
350
916
  3
CMLEADERSTYLE
350
915
  3
CTABLESTYLE
350
914
  3
LAYEREVAL
350
D28
  3
LAYERNOTIFY
350
D29
  3
LIGHTINGUNITS
350
D27
  3
MSLTSCALE
350
D26
  3
SOLIDHIST
350
D2A
  3
XCLIPFRAME
350
F79
  0
DICTIONARY
  5
97F
102
{ACAD_REACTORS
330
C
102
}
330
C
100
AcDbDictionary
281
     1
  3
AcmStdDictionary
350
989
  0
DICTIONARY
  5
A69
102
{ACAD_REACTORS
330
C
102
}
330
C
100
AcDbDictionary
281
     1
  0
DICTIONARY
  5
925
102
{ACAD_REACTORS
330
C
102
}
330
C
100
AcDbDictionary
281
     1
  0
DICTIONARY
  5
A6C
102
{ACAD_REACTORS
330
C
102
}
330
C
100
AcDbDictionary
281
     1
  0
DICTIONARY
  5
A05
102
{ACAD_REACTORS
330
A04
102
}
330
A04
100
AcDbDictionary
281
     1
  0
XRECORD
  5
F7C
102
{ACAD_REACTORS
330
F7B
102
}
330
F7B
100
AcDbXrecord
280
     1
 40
2697178.0
  1
\pxsm0.94;WIG Schweisung, Nahte sauber geschliffen und poliert\PSichtstege geschliffen mit 240 Korn und abgeklebt.\P\fTahoma|b0|i0;\H3.0000; \P\fTahoma|b0|i0;\H3.5000;WIG svarovani- svary dle potreby zabrousit.\PPohledove plochy brousit (vel. brusnyc
  1
h zrn 240)\Pa polepit paskou
  0
XRECORD
  5
FC6
102
{ACAD_REACTORS
330
FC5
102
}
330
FC5
100
AcDbXrecord
280
     1
 40
128335.0
  1
Mořit a opláchnout\PBeizen und Pasiviert
  0
XRECORD
  5
FC8
102
{ACAD_REACTORS
330
FC7
102
}
330
FC7
100
AcDbXrecord
280
     1
 40
118263.0
  1
Žlab bez spádu!\PRinne ohne Gefälle!
  0
XRECORD
  5
FCA
102
{ACAD_REACTORS
330
FC9
102
}
330
FC9
100
AcDbXrecord
280
     1
 40
119399.0
  1
Žlab bez spádu!\PChannel without slope!
  0
XRECORD
  5
FCC
102
{ACAD_REACTORS
330
FCB
102
}
330
FCB
100
AcDbXrecord
280
     1
 40
2320136.0
  1
Povrchová úprava/Oberfläche:\PTryskat pouze vnitřek žlabu, včetně pohledových ploch!\PPříruby proti tryskání chránit!\PFlansches per strahlung behütent!
  0
XRECORD
  5
FCE
102
{ACAD_REACTORS
330
FCD
102
}
330
FCD
100
AcDbXrecord
280
     1
 40
4745921.0
  1
Vzdálenost nivelačních šroubu ca. 1500mm.\PVzdálenost kotev ca. 400mm.\PPohledové plochy brousit(vel.brusných zrn 240)\Pa polepit páskou.\P\PDistance of leveling feets ca. 1500 mm.\PDistance of fixing tangs ca. 400 mm.\PVisible surfaces to be grinded
  1
 and covered by protectiv foil.
  0
XRECORD
  5
FD0
102
{ACAD_REACTORS
330
FCF
102
}
330
FCF
100
AcDbXrecord
280
     1
 40
2193518.0
  1
POZOR:\PSpád žlabu je menší než 1% - nebezpečí vzniku prohlubní\Pse stojatou vodou.\PAUTENTION:\PThe gradient of the bottom is minor then 1%.\PThat can be reason of slack water.
  0
XRECORD
  5
FD2
102
{ACAD_REACTORS
330
FD1
102
}
330
FD1
100
AcDbXrecord
280
     1
 40
2672228.0
  1
POZOR:\PSpád žlabu je menší než 1% - nebezpečí vzniku prohlubní\Pse stojatou vodou.\PACHTUNG:\PDas Bodengefälle ist kleiner als 1%. Das Gefahr der\PSenkungsentstehung mit dem stehenden Wasser.
  0
XRECORD
  5
FD4
102
{ACAD_REACTORS
330
FD3
102
}
330
FD3
100
AcDbXrecord
280
     1
 40
275286.0
  1
Kartáčováno + folie\PGeburstet mit abziehbarer Schutzfolie
  0
XRECORD
  5
FD6
102
{ACAD_REACTORS
330
FD5
102
}
330
FD5
100
AcDbXrecord
280
     1
 40
105970.0
  1
Mořit a opláchnout\PPickled and wash
  0
XRECORD
  5
FD8
102
{ACAD_REACTORS
330
FD7
102
}
330
FD7
100
AcDbXrecord
280
     1
 40
209162.0
  1
\fArial|b0|i0;\H2.0000;Geprüft\fTahoma|b0|i0;\H2.0000;/Checked by:
  0
XRECORD
  5
FDA
102
{ACAD_REACTORS
330
FD9
102
}
330
FD9
100
AcDbXrecord
280
     1
 40
244175.0
  1
ACO vpust 142 sestava svis. dvoudílná DN100 12mm priruba bez ZU V2A
  0
XRECORD
  5
FDC
102
{ACAD_REACTORS
330
FDB
102
}
330
FDB
100
AcDbXrecord
280
     1
 40
23258.0
  1
Není k dispozici
  0
XRECORD
  5
F7E
102
{ACAD_REACTORS
330
8E2
102
}
330
8E2
100
AcDbXrecord
280
     1
 70
     4
 70
     0
 70
     0
 40
1.0
  2
ČÍSLO_REVIZE
  1
Embedded Object
 10
292.3880993315334
 20
66.0
 30
0.0
 40
3.499999940395355
 41
34.661232501043
 46
0.0
 71
     1
 72
     5
  1
000
  7
Styl textu9
 73
     1
 44
1.0
  0
XRECORD
  5
F7D
102
{ACAD_REACTORS
330
8E2
102
}
330
8E2
100
AcDbXrecord
280
     1
102
ACAD_MATT_HEIGHT
140
3.499999940395355
  0
XRECORD
  5
F80
102
{ACAD_REACTORS
330
8E5
102
}
330
8E5
100
AcDbXrecord
280
     1
 70
     4
 70
     0
 70
     0
 40
1.0
  2
Sheet_Size
  1
Embedded Object
 10
294.5873446304243
 20
48.33701147296152
 30
0.0
 40
2.000000029802321
 41
19.44201149373395
 46
0.0
 71
     1
 72
     5
  1
A3
  7
Styl textu40
 73
     1
 44
1.0
  0
XRECORD
  5
F7F
102
{ACAD_REACTORS
330
8E5
102
}
330
8E5
100
AcDbXrecord
280
     1
102
ACAD_MATT_HEIGHT
140
2.000000029802321
  0
XRECORD
  5
F82
102
{ACAD_REACTORS
330
8E8
102
}
330
8E8
100
AcDbXrecord
280
     1
 70
     4
 70
     0
 70
     0
 40
1.0
  2
PART_NUMBER
  1
Embedded Object
 10
224.5172477361519
 20
66.0
 30
0.0
 40
3.499999940395355
 41
42.57494038810881
 46
0.0
 71
     1
 72
     5
  1
414714
  7
Text poznámky (ISO)
 73
     1
 44
1.0
  0
XRECORD
  5
F81
102
{ACAD_REACTORS
330
8E8
102
}
330
8E8
100
AcDbXrecord
280
     1
102
ACAD_MATT_HEIGHT
140
3.499999940395355
  0
XRECORD
  5
F84
102
{ACAD_REACTORS
330
8EB
102
}
330
8EB
100
AcDbXrecord
280
     1
 70
     4
 70
     0
 70
     0
 40
1.0
  2
PROJECT
  1
Embedded Object
 10
118.0
 20
60.0
 30
0.0
 40
3.499999940395355
 41
0.0
 46
0.0
 71
     1
 72
     5
  1

  7
Text poznámky (ISO)
 73
     1
 44
1.0
  0
XRECORD
  5
F83
102
{ACAD_REACTORS
330
8EB
102
}
330
8EB
100
AcDbXrecord
280
     1
102
ACAD_MATT_HEIGHT
140
3.499999940395355
  0
XRECORD
  5
F86
102
{ACAD_REACTORS
330
8EE
102
}
330
8EE
100
AcDbXrecord
280
     1
 70
     4
 70
     0
 70
     0
 40
1.0
  2
SKLADOVÉ_ČÍSLO
  1
Embedded Object
 10
118.0
 20
54.89391305489238
 30
0.0
 40
6.99999988079071
 41
153.2966041564941
 46
0.0
 71
     1
 72
     5
  1
414714
  7
Styl textu94
 73
     1
 44
1.0
  0
XRECORD
  5
F85
102
{ACAD_REACTORS
330
8EE
102
}
330
8EE
100
AcDbXrecord
280
     1
102
ACAD_MATT_HEIGHT
140
6.99999988079071
  0
XRECORD
  5
F88
102
{ACAD_REACTORS
330
8F1
102
}
330
8F1
100
AcDbXrecord
280
     1
 70
     4
 70
     0
 70
     0
 40
1.0
  2
MATERIAL
  1
Embedded Object
 10
117.5939056808251
 20
108.6756657996811
 30
0.0
 40
3.499999940395355
 41
0.0
 46
0.0
 71
     1
 72
     5
  1

  7
Text poznámky (ISO)
 73
     1
 44
1.0
  0
XRECORD
  5
F87
102
{ACAD_REACTORS
330
8F1
102
}
330
8F1
100
AcDbXrecord
280
     1
102
ACAD_MATT_HEIGHT
140
3.499999940395355
  0
XRECORD
  5
F8A
102
{ACAD_REACTORS
330
8F4
102
}
330
8F4
100
AcDbXrecord
280
     1
 70
     4
 70
     0
 70
     0
 40
1.0
  2
AUTHOR
  1
Embedded Object
 10
171.2961533440284
 20
87.78242706242744
 30
0.0
 40
2.000000029802321
 41
13.919832764198
 46
0.0
 71
     1
 72
     5
  1
pmacoun
  7
Styl textu40
 73
     1
 44
1.0
  0
XRECORD
  5
F89
102
{ACAD_REACTORS
330
8F4
102
}
330
8F4
100
AcDbXrecord
280
     1
102
ACAD_MATT_HEIGHT
140
2.000000029802321
  0
XRECORD
  5
F8C
102
{ACAD_REACTORS
330
8F7
102
}
330
8F7
100
AcDbXrecord
280
     1
 70
     4
 70
     0
 70
     0
 40
1.0
  2
FirstViewScale
  1
Embedded Object
 10
189.1855699863978
 20
86.00038821032343
 30
0.0
 40
3.499999940395355
 41
24.15597186978378
 46
0.0
 71
     1
 72
     5
  1

  7
Text poznámky (ISO)
 73
     1
 44
1.0
  0
XRECORD
  5
F8B
102
{ACAD_REACTORS
330
8F7
102
}
330
8F7
100
AcDbXrecord
280
     1
102
ACAD_MATT_HEIGHT
140
3.499999940395355
  0
XRECORD
  5
FDE
102
{ACAD_REACTORS
330
FDD
102
}
330
FDD
100
AcDbXrecord
280
     1
 40
7165.0
  1
KUSOVNÍK
  0
XRECORD
  5
FE0
102
{ACAD_REACTORS
330
FDF
102
}
330
FDF
100
AcDbXrecord
280
     1
 40
6807.0
  1
MATERIÁL
  0
XRECORD
  5
FE2
102
{ACAD_REACTORS
330
FE1
102
}
330
FE1
100
AcDbXrecord
280
     1
 40
29499.0
  1
SKLADOVÉ ČÍS
  0
XRECORD
  5
FE4
102
{ACAD_REACTORS
330
FE3
102
}
330
FE3
100
AcDbXrecord
280
     1
 40
23054.0
  1
návlek sunap-DN100
  0
XRECORD
  5
FE6
102
{ACAD_REACTORS
330
FE5
102
}
330
FE5
100
AcDbXrecord
280
     1
 40
122016.0
  1
ACO vpust 142 svarenec svis. dvoudílná 12mm 
  0
XRECORD
  5
FE8
102
{ACAD_REACTORS
330
FE7
102
}
330
FE7
100
AcDbXrecord
280
     1
 40
28543.0
  1
příruba DN100 V2A
  0
XRECORD
  5
FEA
102
{ACAD_REACTORS
330
FE9
102
}
330
FE9
100
AcDbXrecord
280
     1
 40
4936.0
  1
Papír
  0
XRECORD
  5
FEC
102
{ACAD_REACTORS
330
FEB
102
}
330
FEB
100
AcDbXrecord
280
     1
 40
15392.0
  1
Polykarbonát, 
  0
XRECORD
  5
FEE
102
{ACAD_REACTORS
330
FED
102
}
330
FED
100
AcDbXrecord
280
     1
 40
13310.0
  1
kouřový
  0
XRECORD
  5
FF0
102
{ACAD_REACTORS
330
FEF
102
}
330
FEF
100
AcDbXrecord
280
     1
 40
128412.0
  1
ACO vpust 142 kryt plastový 157 pro balení PP 
  0
XRECORD
  5
FF2
102
{ACAD_REACTORS
330
FF1
102
}
330
FF1
100
AcDbXrecord
280
     1
 40
34155.0
  1
ochraná síťka
  0
XRECORD
  5
FF4
102
{ACAD_REACTORS
330
FF3
102
}
330
FF3
100
AcDbXrecord
280
     1
 40
183692.0
  1
Effidrain karton - drenážní pro montáž 142
  0
XRECORD
  5
FF6
102
{ACAD_REACTORS
330
FF5
102
}
330
FF5
100
AcDbXrecord
280
     1
 40
10636.0
  1
\A1;{\U+00D8}142,5
  0
XRECORD
  5
FF8
102
{ACAD_REACTORS
330
FF7
102
}
330
FF7
100
AcDbXrecord
280
     1
 40
5807.0
  1
\A1;\U+2205164
  0
XRECORD
  5
F90
102
{ACAD_REACTORS
330
F8F
102
}
330
F8F
100
AcDbXrecord
280
     1
 70
     1
  0
XRECORD
  5
F92
102
{ACAD_REACTORS
330
F8F
102
}
330
F8F
100
AcDbXrecord
280
     1
340
5B
  0
XRECORD
  5
F93
102
{ACAD_REACTORS
330
F8F
102
}
330
F8F
100
AcDbXrecord
280
     1
340
5B
  0
XRECORD
  5
F91
102
{ACAD_REACTORS
330
F8F
102
}
330
F8F
100
AcDbXrecord
280
     1
340
5B
  0
LAYOUT
  5
6B
102
{ACAD_REACTORS
330
62
102
}
330
62
100
AcDbPlotSettings
  1

  2

  4

  6

 40
0.0
 41
0.0
 42
0.0
 43
0.0
 44
0.0
 45
0.0
 46
0.0
 47
0.0
 48
0.0
 49
0.0
140
0.0
141
0.0
142
1.0
143
1.0
 70
   688
 72
     0
 73
     0
 74
     5
  7

 75
    16
147
1.0
 76
     0
 77
     2
 78
   300
148
0.0
149
0.0
100
AcDbLayout
  1
Layout1
 70
     1
 71
     1
 10
0.0
 20
0.0
 11
630.0
 21
445.5
 12
0.0
 22
0.0
 32
0.0
 14
0.0
 24
0.0
 34
0.0
 15
630.0
 25
445.5
 35
0.0
146
0.0
 13
0.0
 23
0.0
 33
0.0
 16
1.0
 26
0.0
 36
0.0
 17
0.0
 27
1.0
 37
0.0
 76
     0
330
68
  0
LAYOUT
  5
73
102
{ACAD_REACTORS
330
62
102
}
330
62
100
AcDbPlotSettings
  1

  2

  4

  6

 40
0.0
 41
0.0
 42
0.0
 43
0.0
 44
0.0
 45
0.0
 46
0.0
 47
0.0
 48
0.0
 49
0.0
140
0.0
141
0.0
142
1.0
143
1.0
 70
   688
 72
     0
 73
     0
 74
     5
  7

 75
    16
147
1.0
 76
     0
 77
     2
 78
   300
148
0.0
149
0.0
100
AcDbLayout
  1
Layout2
 70
     1
 71
     2
 10
0.0
 20
0.0
 11
12.0
 21
9.0
 12
0.0
 22
0.0
 32
0.0
 14
0.0
 24
0.0
 34
0.0
 15
0.0
 25
0.0
 35
0.0
146
0.0
 13
0.0
 23
0.0
 33
0.0
 16
1.0
 26
0.0
 36
0.0
 17
0.0
 27
1.0
 37
0.0
 76
     0
330
70
  0
LAYOUT
  5
6F
102
{ACAD_REACTORS
330
62
102
}
330
62
100
AcDbPlotSettings
  1

  2

  4

  6

 40
0.0
 41
0.0
 42
0.0
 43
0.0
 44
0.0
 45
0.0
 46
0.0
 47
0.0
 48
0.0
 49
0.0
140
0.0
141
0.0
142
1.0
143
1.0
 70
  1712
 72
     0
 73
     0
 74
     0
  7

 75
     0
147
1.0
 76
     0
 77
     2
 78
   300
148
0.0
149
0.0
100
AcDbLayout
  1
Model
 70
     1
 71
     0
 10
0.0
 20
0.0
 11
12.0
 21
9.0
 12
0.0
 22
0.0
 32
0.0
 14
0.0
 24
0.0
 34
0.0
 15
0.0
 25
0.0
 35
0.0
146
0.0
 13
0.0
 23
0.0
 33
0.0
 16
1.0
 26
0.0
 36
0.0
 17
0.0
 27
1.0
 37
0.0
 76
     0
330
6C
331
57
  0
MATERIAL
  5
19
102
{ACAD_XDICTIONARY
360
1A
102
}
102
{ACAD_REACTORS
330
10
102
}
330
10
100
AcDbMaterial
  1
ByBlock
 72
     0
 43
0.0208333333333333
 43
0.0
 43
0.0
 43
0.0
 43
0.0
 43
0.0208333333333333
 43
0.0
 43
0.0
 43
0.0
 43
0.0
 43
1.0
 43
0.0
 43
0.0
 43
0.0
 43
0.0
 43
1.0
 77
     0
 47
0.0208333333333333
 47
0.0
 47
0.0
 47
0.0
 47
0.0
 47
0.0208333333333333
 47
0.0
 47
0.0
 47
0.0
 47
0.0
 47
1.0
 47
0.0
 47
0.0
 47
0.0
 47
0.0
 47
1.0
171
     0
 49
0.0208333333333333
 49
0.0
 49
0.0
 49
0.0
 49
0.0
 49
0.0208333333333333
 49
0.0
 49
0.0
 49
0.0
 49
0.0
 49
1.0
 49
0.0
 49
0.0
 49
0.0
 49
0.0
 49
1.0
175
     0
142
0.0208333333333333
142
0.0
142
0.0
142
0.0
142
0.0
142
0.0208333333333333
142
0.0
142
0.0
142
0.0
142
0.0
142
1.0
142
0.0
142
0.0
142
0.0
142
0.0
142
1.0
179
     0
144
0.0208333333333333
144
0.0
144
0.0
144
0.0
144
0.0
144
0.0208333333333333
144
0.0
144
0.0
144
0.0
144
0.0
144
1.0
144
0.0
144
0.0
144
0.0
144
0.0
144
1.0
147
0.0208333333333333
147
0.0
147
0.0
147
0.0
147
0.0
147
0.0208333333333333
147
0.0
147
0.0
147
0.0
147
0.0
147
1.0
147
0.0
147
0.0
147
0.0
147
0.0
147
1.0
  0
MATERIAL
  5
11
102
{ACAD_XDICTIONARY
360
12
102
}
102
{ACAD_REACTORS
330
10
102
}
330
10
100
AcDbMaterial
  1
ByLayer
 72
     0
 43
0.0208333333333333
 43
0.0
 43
0.0
 43
0.0
 43
0.0
 43
0.0208333333333333
 43
0.0
 43
0.0
 43
0.0
 43
0.0
 43
1.0
 43
0.0
 43
0.0
 43
0.0
 43
0.0
 43
1.0
 77
     0
 47
0.0208333333333333
 47
0.0
 47
0.0
 47
0.0
 47
0.0
 47
0.0208333333333333
 47
0.0
 47
0.0
 47
0.0
 47
0.0
 47
1.0
 47
0.0
 47
0.0
 47
0.0
 47
0.0
 47
1.0
171
     0
 49
0.0208333333333333
 49
0.0
 49
0.0
 49
0.0
 49
0.0
 49
0.0208333333333333
 49
0.0
 49
0.0
 49
0.0
 49
0.0
 49
1.0
 49
0.0
 49
0.0
 49
0.0
 49
0.0
 49
1.0
175
     0
142
0.0208333333333333
142
0.0
142
0.0
142
0.0
142
0.0
142
0.0208333333333333
142
0.0
142
0.0
142
0.0
142
0.0
142
1.0
142
0.0
142
0.0
142
0.0
142
0.0
142
1.0
179
     0
144
0.0208333333333333
144
0.0
144
0.0
144
0.0
144
0.0
144
0.0208333333333333
144
0.0
144
0.0
144
0.0
144
0.0
144
1.0
144
0.0
144
0.0
144
0.0
144
0.0
144
1.0
147
0.0208333333333333
147
0.0
147
0.0
147
0.0
147
0.0
147
0.0208333333333333
147
0.0
147
0.0
147
0.0
147
0.0
147
1.0
147
0.0
147
0.0
147
0.0
147
0.0
147
1.0
  0
MATERIAL
  5
21
102
{ACAD_XDICTIONARY
360
22
102
}
102
{ACAD_REACTORS
330
10
102
}
330
10
100
AcDbMaterial
  1
Global
 72
     0
 43
0.0208333333333333
 43
0.0
 43
0.0
 43
0.0
 43
0.0
 43
0.0208333333333333
 43
0.0
 43
0.0
 43
0.0
 43
0.0
 43
1.0
 43
0.0
 43
0.0
 43
0.0
 43
0.0
 43
1.0
 77
     0
 47
0.0208333333333333
 47
0.0
 47
0.0
 47
0.0
 47
0.0
 47
0.0208333333333333
 47
0.0
 47
0.0
 47
0.0
 47
0.0
 47
1.0
 47
0.0
 47
0.0
 47
0.0
 47
0.0
 47
1.0
171
     0
 49
0.0208333333333333
 49
0.0
 49
0.0
 49
0.0
 49
0.0
 49
0.0208333333333333
 49
0.0
 49
0.0
 49
0.0
 49
0.0
 49
1.0
 49
0.0
 49
0.0
 49
0.0
 49
0.0
 49
1.0
175
     0
142
0.0208333333333333
142
0.0
142
0.0
142
0.0
142
0.0
142
0.0208333333333333
142
0.0
142
0.0
142
0.0
142
0.0
142
1.0
142
0.0
142
0.0
142
0.0
142
0.0
142
1.0
179
     0
144
0.0208333333333333
144
0.0
144
0.0
144
0.0
144
0.0
144
0.0208333333333333
144
0.0
144
0.0
144
0.0
144
0.0
144
1.0
144
0.0
144
0.0
144
0.0
144
0.0
144
1.0
147
0.0208333333333333
147
0.0
147
0.0
147
0.0
147
0.0
147
0.0208333333333333
147
0.0
147
0.0
147
0.0
147
0.0
147
1.0
147
0.0
147
0.0
147
0.0
147
0.0
147
1.0
  0
MLEADERSTYLE
  5
67
102
{ACAD_XDICTIONARY
360
8DE
102
}
102
{ACAD_REACTORS
330
66
102
}
330
66
100
AcDbMLeaderStyle
170
     2
171
     1
172
     0
 90
        2
 40
0.0
 41
0.0
173
     1
 91
-1056964608
340
5B
 92
       -2
290
     1
 42
0.09
291
     1
 43
0.36
  3
Standard
 44
0.18
300

342
55
174
     1
178
     6
175
     1
176
     0
 93
-1056964608
 45
0.18
292
     0
297
     0
 46
0.18
 94
-1056964608
 47
1.0
 49
1.0
140
1.0
293
     1
141
0.0
294
     1
177
     0
142
1.0
295
     0
296
     0
143
0.125
1001
ACAD_MLEADERVER
1070
     2
  0
MLINESTYLE
  5
60
102
{ACAD_REACTORS
330
5F
102
}
330
5F
100
AcDbMlineStyle
  2
STANDARD
 70
     0
  3

 62
   256
 51
90.0
 52
90.0
 71
     2
 49
0.5
 62
   256
  6
BYLAYER
 49
-0.5
 62
   256
  6
BYLAYER
  0
ACDBPLACEHOLDER
  5
F
102
{ACAD_REACTORS
330
E
102
}
330
E
  0
SCALE
  5
43
102
{ACAD_REACTORS
330
42
102
}
330
42
100
AcDbScale
 70
     0
300
1:1
140
1.0
141
1.0
290
     1
  0
SCALE
  5
44
102
{ACAD_REACTORS
330
42
102
}
330
42
100
AcDbScale
 70
     0
300
1/128" = 1'-0"
140
0.0078125
141
12.0
290
     0
  0
SCALE
  5
45
102
{ACAD_REACTORS
330
42
102
}
330
42
100
AcDbScale
 70
     0
300
1/64" = 1'-0"
140
0.015625
141
12.0
290
     0
  0
SCALE
  5
46
102
{ACAD_REACTORS
330
42
102
}
330
42
100
AcDbScale
 70
     0
300
1/32" = 1'-0"
140
0.03125
141
12.0
290
     0
  0
SCALE
  5
47
102
{ACAD_REACTORS
330
42
102
}
330
42
100
AcDbScale
 70
     0
300
1/16" = 1'-0"
140
0.0625
141
12.0
290
     0
  0
SCALE
  5
48
102
{ACAD_REACTORS
330
42
102
}
330
42
100
AcDbScale
 70
     0
300
3/32" = 1'-0"
140
0.09375
141
12.0
290
     0
  0
SCALE
  5
49
102
{ACAD_REACTORS
330
42
102
}
330
42
100
AcDbScale
 70
     0
300
1/8" = 1'-0"
140
0.125
141
12.0
290
     0
  0
SCALE
  5
4A
102
{ACAD_REACTORS
330
42
102
}
330
42
100
AcDbScale
 70
     0
300
3/16" = 1'-0"
140
0.1875
141
12.0
290
     0
  0
SCALE
  5
4B
102
{ACAD_REACTORS
330
42
102
}
330
42
100
AcDbScale
 70
     0
300
1/4" = 1'-0"
140
0.25
141
12.0
290
     0
  0
SCALE
  5
4C
102
{ACAD_REACTORS
330
42
102
}
330
42
100
AcDbScale
 70
     0
300
3/8" = 1'-0"
140
0.375
141
12.0
290
     0
  0
SCALE
  5
4D
102
{ACAD_REACTORS
330
42
102
}
330
42
100
AcDbScale
 70
     0
300
1/2" = 1'-0"
140
0.5
141
12.0
290
     0
  0
SCALE
  5
4E
102
{ACAD_REACTORS
330
42
102
}
330
42
100
AcDbScale
 70
     0
300
3/4" = 1'-0"
140
0.75
141
12.0
290
     0
  0
SCALE
  5
4F
102
{ACAD_REACTORS
330
42
102
}
330
42
100
AcDbScale
 70
     0
300
1" = 1'-0"
140
1.0
141
12.0
290
     0
  0
SCALE
  5
50
102
{ACAD_REACTORS
330
42
102
}
330
42
100
AcDbScale
 70
     0
300
1-1/2" = 1'-0"
140
1.5
141
12.0
290
     0
  0
SCALE
  5
51
102
{ACAD_REACTORS
330
42
102
}
330
42
100
AcDbScale
 70
     0
300
3" = 1'-0"
140
3.0
141
12.0
290
     0
  0
SCALE
  5
52
102
{ACAD_REACTORS
330
42
102
}
330
42
100
AcDbScale
 70
     0
300
6" = 1'-0"
140
6.0
141
12.0
290
     0
  0
SCALE
  5
53
102
{ACAD_REACTORS
330
42
102
}
330
42
100
AcDbScale
 70
     0
300
1'-0" = 1'-0"
140
12.0
141
12.0
290
     0
  0
TABLESTYLE
  5
65
102
{ACAD_XDICTIONARY
360
D2C
102
}
102
{ACAD_REACTORS
330
64
102
}
330
64
100
AcDbTableStyle
  3
Standard
 70
     0
 71
     0
 40
0.06
 41
0.06
280
     0
281
     0
  7
Standard
140
0.18
170
     2
 62
     0
 63
     7
283
     0
274
    -2
284
     1
 64
     0
275
    -2
285
     1
 65
     0
276
    -2
286
     1
 66
     0
277
    -2
287
     1
 67
     0
278
    -2
288
     1
 68
     0
279
    -2
289
     1
 69
     0
  7
Standard
140
0.25
170
     5
 62
     0
 63
     7
283
     0
274
    -2
284
     1
 64
     0
275
    -2
285
     1
 65
     0
276
    -2
286
     1
 66
     0
277
    -2
287
     1
 67
     0
278
    -2
288
     1
 68
     0
279
    -2
289
     1
 69
     0
  7
Standard
140
0.18
170
     5
 62
     0
 63
     7
283
     0
274
    -2
284
     1
 64
     0
275
    -2
285
     1
 65
     0
276
    -2
286
     1
 66
     0
277
    -2
287
     1
 67
     0
278
    -2
288
     1
 68
     0
279
    -2
289
     1
 69
     0
  0
VISUALSTYLE
  5
2F
102
{ACAD_XDICTIONARY
360
F9E
102
}
102
{ACAD_REACTORS
330
29
102
}
330
29
100
AcDbVisualStyle
  2

 70
     4
 71
     0
 72
     2
 73
     0
 90
        0
 40
-0.6
 41
-30.0
 62
     5
 63
     7
421
 16777215
 74
     1
 91
        4
 64
     7
 65
   257
 75
     1
175
     1
 42
1.0
 92
        0
 66
   257
 43
1.0
 76
     1
 77
     6
 78
     2
 67
     7
 79
     5
170
     0
171
     0
290
     0
174
     0
 93
        1
 44
0.0
173
     0
291
     0
 45
0.0
1001
ACAD
1000
AcDbSavedByObjectVersion
1070
     0
  0
VISUALSTYLE
  5
919
102
{ACAD_XDICTIONARY
360
FFB
102
}
102
{ACAD_REACTORS
330
29
102
}
330
29
100
AcDbVisualStyle
  2

 70
     6
 71
     1
 72
     2
 73
     2
 90
        0
 40
-0.6
 41
-30.0
 62
     5
 63
     7
421
 16777215
 74
     2
 91
        2
 64
     7
 65
   257
 75
     2
175
     1
 42
179.0
 92
        0
 66
   257
 43
1.0
 76
     1
 77
     6
 78
     2
 67
     7
 79
     3
170
     0
171
     0
290
     0
174
     0
 93
        1
 44
0.0
173
     0
291
     0
 45
0.0
1001
ACAD
1000
AcDbSavedByObjectVersion
1070
     0
  0
VISUALSTYLE
  5
918
102
{ACAD_XDICTIONARY
360
FF9
102
}
102
{ACAD_REACTORS
330
29
102
}
330
29
100
AcDbVisualStyle
  2

 70
     5
 71
     0
 72
     2
 73
     0
 90
        0
 40
-0.6
 41
-30.0
 62
     5
 63
     7
421
 16777215
 74
     1
 91
        4
 64
     7
 65
   257
 75
     1
175
     1
 42
1.0
 92
        0
 66
   257
 43
1.0
 76
     1
 77
     6
 78
     2
 67
     7
 79
     5
170
     0
171
     0
290
     0
174
     0
 93
        1
 44
0.0
173
     0
291
     0
 45
0.0
1001
ACAD
1000
AcDbSavedByObjectVersion
1070
     0
  0
VISUALSTYLE
  5
2E
102
{ACAD_XDICTIONARY
360
F9C
102
}
102
{ACAD_REACTORS
330
29
102
}
330
29
100
AcDbVisualStyle
  2

 70
     7
 71
     1
 72
     0
 73
     1
 90
        0
 40
-0.6
 41
-30.0
 62
     5
 63
     7
421
 16777215
 74
     0
 91
        4
 64
     7
 65
   257
 75
     1
175
     1
 42
1.0
 92
        8
 66
     7
 43
1.0
 76
     1
 77
     6
 78
     2
 67
     7
 79
     5
170
     0
171
     0
290
     0
174
     0
 93
        1
 44
0.0
173
     0
291
     1
 45
0.0
1001
ACAD
1000
AcDbSavedByObjectVersion
1070
     0
  0
VISUALSTYLE
  5
35
102
{ACAD_XDICTIONARY
360
FAA
102
}
102
{ACAD_REACTORS
330
29
102
}
330
29
100
AcDbVisualStyle
  2

 70
    12
 71
     2
 72
     2
 73
     0
 90
        0
 40
-0.6
 41
-30.0
 62
     5
 63
     7
421
 16777215
 74
     1
 91
        4
 64
     7
 65
   257
 75
     1
175
     1
 42
1.0
 92
        8
 66
     7
 43
1.0
 76
     1
 77
     6
 78
     2
 67
     7
 79
     5
170
     0
171
     0
290
     0
174
     0
 93
        1
 44
50.0
173
     0
291
     1
 45
0.0
1001
ACAD
1000
AcDbSavedByObjectVersion
1070
     0
  0
VISUALSTYLE
  5
39
102
{ACAD_XDICTIONARY
360
FB2
102
}
102
{ACAD_REACTORS
330
29
102
}
330
29
100
AcDbVisualStyle
  2

 70
    16
 71
     2
 72
     2
 73
     3
 90
        0
 40
-0.6
 41
-30.0
 62
     5
 63
     8
421
  8421504
 74
     1
 91
        4
 64
     7
 65
   257
 75
     1
175
     1
 42
1.0
 92
        8
 66
     8
424
  8421504
 43
1.0
 76
     1
 77
     6
 78
     2
 67
     7
 79
     5
170
     0
171
     0
290
     0
174
     0
 93
        1
 44
0.0
173
     0
291
     1
 45
0.0
1001
ACAD
1000
AcDbSavedByObjectVersion
1070
     0
  0
VISUALSTYLE
  5
32
102
{ACAD_XDICTIONARY
360
FA4
102
}
102
{ACAD_REACTORS
330
29
102
}
330
29
100
AcDbVisualStyle
  2

 70
     9
 71
     3
 72
     2
 73
     0
 90
        0
 40
-0.6
 41
-30.0
 62
     5
 63
     7
421
 16777215
 74
     2
 91
        2
 64
     7
 65
   257
 75
     1
175
     1
 42
179.0
 92
        8
 66
     7
 43
1.0
 76
     1
 77
     6
 78
     2
 67
     7
 79
     3
170
     0
171
     0
290
     0
174
     0
 93
        1
 44
0.0
173
     0
291
     0
 45
0.0
1001
ACAD
1000
AcDbSavedByObjectVersion
1070
     0
  0
VISUALSTYLE
  5
34
102
{ACAD_XDICTIONARY
360
FA8
102
}
102
{ACAD_REACTORS
330
29
102
}
330
29
100
AcDbVisualStyle
  2

 70
    11
 71
     2
 72
     2
 73
     0
 90
        0
 40
-0.6
 41
-30.0
 62
     5
 63
     7
421
 16777215
 74
     1
 91
        4
 64
     7
 65
   257
 75
     1
175
     1
 42
1.0
 92
        8
 66
     7
 43
1.0
 76
     1
 77
     6
 78
     2
 67
     7
 79
     5
170
     0
171
     0
290
     0
174
     0
 93
        1
 44
-50.0
173
     0
291
     1
 45
0.0
1001
ACAD
1000
AcDbSavedByObjectVersion
1070
     0
  0
VISUALSTYLE
  5
41
102
{ACAD_XDICTIONARY
360
FC2
102
}
102
{ACAD_REACTORS
330
29
102
}
330
29
100
AcDbVisualStyle
  2

 70
    22
 71
     2
 72
     2
 73
     0
 90
        0
 40
-0.6
 41
-30.0
 62
     5
 63
     7
421
 16777215
 74
     1
 91
        4
 64
     7
 65
   257
 75
     1
175
     1
 42
1.0
 92
        8
 66
     7
 43
1.0
 76
     1
 77
     6
 78
     2
 67
     7
 79
     5
170
     0
171
     0
290
     0
174
     0
 93
        1
 44
0.0
173
     0
291
     1
 45
0.0
1001
ACAD
1000
AcDbSavedByObjectVersion
1070
     0
  0
VISUALSTYLE
  5
38
102
{ACAD_XDICTIONARY
360
FB0
102
}
102
{ACAD_REACTORS
330
29
102
}
330
29
100
AcDbVisualStyle
  2

 70
    15
 71
     2
 72
     2
 73
     0
 90
        0
 40
-0.6
 41
-30.0
 62
     5
 63
     7
421
 16777215
 74
     1
 91
        4
 64
     7
 65
   257
 75
     1
175
     1
 42
1.0
 92
        8
 66
     7
 43
1.0
 76
     1
 77
     6
 78
     2
 67
     7
 79
     5
170
     0
171
     0
290
     0
174
     0
 93
        1
 44
0.0
173
     0
291
     1
 45
0.0
1001
ACAD
1000
AcDbSavedByObjectVersion
1070
     0
  0
VISUALSTYLE
  5
2A
102
{ACAD_XDICTIONARY
360
F94
102
}
102
{ACAD_REACTORS
330
29
102
}
330
29
100
AcDbVisualStyle
  2

 70
     0
 71
     2
 72
     1
 73
     1
 90
        2
 40
-0.6
 41
30.0
 62
     5
 63
     7
421
 16777215
 74
     0
 91
        0
 64
     7
 65
   257
 75
     1
175
     1
 42
1.0
 92
        8
 66
     7
 43
1.0
 76
     1
 77
     6
 78
     2
 67
     7
 79
     5
170
     0
171
     0
290
     0
174
     0
 93
       13
 44
0.0
173
     0
291
     1
 45
0.0
1001
ACAD
1000
AcDbSavedByObjectVersion
1070
     0
  0
VISUALSTYLE
  5
2B
102
{ACAD_XDICTIONARY
360
F96
102
}
102
{ACAD_REACTORS
330
29
102
}
330
29
100
AcDbVisualStyle
  2

 70
     1
 71
     2
 72
     1
 73
     1
 90
        2
 40
-0.6
 41
30.0
 62
     5
 63
     7
421
 16777215
 74
     1
 91
        0
 64
     7
 65
   257
 75
     1
175
     1
 42
1.0
 92
        0
 66
   257
 43
1.0
 76
     1
 77
     6
 78
     2
 67
     7
 79
     5
170
     0
171
     0
290
     0
174
     0
 93
       13
 44
0.0
173
     0
291
     1
 45
0.0
1001
ACAD
1000
AcDbSavedByObjectVersion
1070
     0
  0
VISUALSTYLE
  5
2C
102
{ACAD_XDICTIONARY
360
F98
102
}
102
{ACAD_REACTORS
330
29
102
}
330
29
100
AcDbVisualStyle
  2

 70
     2
 71
     2
 72
     2
 73
     1
 90
        2
 40
-0.6
 41
30.0
 62
     5
 63
     7
421
 16777215
 74
     0
 91
        0
 64
     7
 65
   257
 75
     1
175
     1
 42
1.0
 92
        0
 66
     7
 43
1.0
 76
     1
 77
     6
 78
     2
 67
     7
 79
     5
170
     0
171
     0
290
     0
174
     0
 93
       13
 44
0.0
173
     0
291
     1
 45
0.0
1001
ACAD
1000
AcDbSavedByObjectVersion
1070
     0
  0
VISUALSTYLE
  5
2D
102
{ACAD_XDICTIONARY
360
F9A
102
}
102
{ACAD_REACTORS
330
29
102
}
330
29
100
AcDbVisualStyle
  2

 70
     3
 71
     2
 72
     2
 73
     1
 90
        2
 40
-0.6
 41
30.0
 62
     5
 63
     7
421
 16777215
 74
     1
 91
        0
 64
     7
 65
   257
 75
     1
175
     1
 42
1.0
 92
        0
 66
   257
 43
1.0
 76
     1
 77
     6
 78
     2
 67
     7
 79
     5
170
     0
171
     0
290
     0
174
     0
 93
       13
 44
0.0
173
     0
291
     1
 45
0.0
1001
ACAD
1000
AcDbSavedByObjectVersion
1070
     0
  0
VISUALSTYLE
  5
31
102
{ACAD_XDICTIONARY
360
FA2
102
}
102
{ACAD_REACTORS
330
29
102
}
330
29
100
AcDbVisualStyle
  2

 70
     6
 71
     1
 72
     2
 73
     2
 90
        0
 40
-0.6
 41
-30.0
 62
     5
 63
     7
421
 16777215
 74
     2
 91
        2
 64
     7
 65
   257
 75
     2
175
     1
 42
40.0
 92
        0
 66
   257
 43
1.0
 76
     1
 77
     6
 78
     2
 67
     7
 79
     3
170
     0
171
     0
290
     0
174
     0
 93
        1
 44
0.0
173
     0
291
     0
 45
0.0
1001
ACAD
1000
AcDbSavedByObjectVersion
1070
     0
  0
VISUALSTYLE
  5
3F
102
{ACAD_XDICTIONARY
360
FBE
102
}
102
{ACAD_REACTORS
330
29
102
}
330
29
100
AcDbVisualStyle
  2

 70
    20
 71
     2
 72
     2
 73
     0
 90
        0
 40
-0.6
 41
-30.0
 62
     5
 63
     7
421
 16777215
 74
     1
 91
        4
 64
     7
 65
   257
 75
     1
175
     1
 42
1.0
 92
       10
 66
     7
 43
1.0
 76
     1
 77
     6
 78
     2
 67
     7
 79
     5
170
     0
171
     0
290
     0
174
     0
 93
        1
 44
0.0
173
     0
291
     1
 45
0.0
1001
ACAD
1000
AcDbSavedByObjectVersion
1070
     0
  0
VISUALSTYLE
  5
37
102
{ACAD_XDICTIONARY
360
FAE
102
}
102
{ACAD_REACTORS
330
29
102
}
330
29
100
AcDbVisualStyle
  2

 70
    14
 71
     2
 72
     2
 73
     0
 90
        0
 40
-0.6
 41
-30.0
 62
     5
 63
     7
421
 16777215
 74
     1
 91
        4
 64
     7
 65
   257
 75
     7
175
     7
 42
1.0
 92
        8
 66
     7
 43
1.0
 76
     1
 77
     6
 78
     2
 67
     7
 79
     5
170
     0
171
     0
290
     0
174
     0
 93
        1
 44
0.0
173
     0
291
     1
 45
0.0
1001
ACAD
1000
AcDbSavedByObjectVersion
1070
     0
  0
VISUALSTYLE
  5
40
102
{ACAD_XDICTIONARY
360
FC0
102
}
102
{ACAD_REACTORS
330
29
102
}
330
29
100
AcDbVisualStyle
  2

 70
    21
 71
     2
 72
     2
 73
     0
 90
        0
 40
-0.6
 41
-30.0
 62
     5
 63
     7
421
 16777215
 74
     1
 91
        4
 64
     7
 65
   257
 75
     1
175
     1
 42
1.0
 92
        9
 66
     7
 43
1.0
 76
     1
 77
     6
 78
     2
 67
     7
 79
     5
170
     0
171
     0
290
     0
174
     0
 93
        1
 44
0.0
173
     0
291
     1
 45
0.0
1001
ACAD
1000
AcDbSavedByObjectVersion
1070
     0
  0
VISUALSTYLE
  5
33
102
{ACAD_XDICTIONARY
360
FA6
102
}
102
{ACAD_REACTORS
330
29
102
}
330
29
100
AcDbVisualStyle
  2

 70
     8
 71
     2
 72
     3
 73
     0
 90
        2
 40
-0.6
 41
30.0
 62
     5
 63
     7
421
 16777215
 74
     0
 91
        0
 64
     7
 65
   257
 75
     1
175
     1
 42
1.0
 92
        8
 66
   257
 43
1.0
 76
     1
 77
     6
 78
     2
 67
     7
 79
     3
170
     0
171
     0
290
     0
174
     0
 93
       13
 44
0.0
173
     0
291
     0
 45
0.0
1001
ACAD
1000
AcDbSavedByObjectVersion
1070
     0
  0
VISUALSTYLE
  5
3E
102
{ACAD_XDICTIONARY
360
FBC
102
}
102
{ACAD_REACTORS
330
29
102
}
330
29
100
AcDbVisualStyle
  2

 70
    27
 71
     2
 72
     2
 73
     1
 90
        2
 40
-0.6
 41
30.0
 62
     5
 63
     7
421
 16777215
 74
     0
 91
        4
 64
     7
 65
   257
 75
     1
175
     1
 42
1.0
 92
        8
 66
   257
 43
1.0
 76
     1
 77
     6
 78
     2
 67
     8
425
  7895160
 79
     3
170
     0
171
     0
290
     0
174
     0
 93
        5
 44
0.0
173
     0
291
     0
 45
0.0
1001
ACAD
1000
AcDbSavedByObjectVersion
1070
     0
  0
VISUALSTYLE
  5
3D
102
{ACAD_XDICTIONARY
360
FBA
102
}
102
{ACAD_REACTORS
330
29
102
}
330
29
100
AcDbVisualStyle
  2

 70
    26
 71
     2
 72
     2
 73
     1
 90
        2
 40
-0.6
 41
30.0
 62
     5
 63
     7
421
 16777215
 74
     1
 91
       10
 64
     7
 65
   257
 75
     2
175
     1
 42
1.0
 92
        8
 66
   257
 43
1.0
 76
     1
 77
     6
 78
     2
 67
     7
 79
     3
170
     0
171
     0
290
     0
174
     0
 93
        5
 44
0.0
173
     0
291
     0
 45
0.0
1001
ACAD
1000
AcDbSavedByObjectVersion
1070
     0
  0
VISUALSTYLE
  5
3A
102
{ACAD_XDICTIONARY
360
FB4
102
}
102
{ACAD_REACTORS
330
29
102
}
330
29
100
AcDbVisualStyle
  2

 70
    23
 71
     2
 72
     2
 73
     3
 90
        0
 40
-0.6
 41
-30.0
 62
     5
 63
     7
421
 16777215
 74
     2
 91
        2
 64
     7
 65
     7
 75
     1
175
     1
 42
40.0
 92
        8
 66
     7
 43
1.0
 76
     1
 77
     6
 78
     2
 67
     7
 79
     3
170
     0
171
     0
290
     0
174
     0
 93
        1
 44
0.0
173
     0
291
     0
 45
0.0
1001
ACAD
1000
AcDbSavedByObjectVersion
1070
     0
  0
VISUALSTYLE
  5
3B
102
{ACAD_XDICTIONARY
360
FB6
102
}
102
{ACAD_REACTORS
330
29
102
}
330
29
100
AcDbVisualStyle
  2

 70
    24
 71
     1
 72
     2
 73
     2
 90
        0
 40
-0.6
 41
-30.0
 62
     5
 63
     7
421
 16777215
 74
     2
 91
        2
 64
     7
 65
     7
 75
     1
175
     1
 42
40.0
 92
       11
 66
     7
 43
1.0
 76
     1
 77
     6
 78
     2
 67
     7
 79
     6
170
     0
171
     0
290
     0
174
     0
 93
        1
 44
0.0
173
     0
291
     0
 45
0.0
1001
ACAD
1000
AcDbSavedByObjectVersion
1070
     0
  0
VISUALSTYLE
  5
36
102
{ACAD_XDICTIONARY
360
FAC
102
}
102
{ACAD_REACTORS
330
29
102
}
330
29
100
AcDbVisualStyle
  2

 70
    13
 71
     2
 72
     2
 73
     0
 90
        0
 40
-0.6
 41
-30.0
 62
     5
 63
     7
421
 16777215
 74
     1
 91
        4
 64
     7
 65
   257
 75
     1
175
     1
 42
1.0
 92
       12
 66
     7
 43
1.0
 76
     1
 77
     6
 78
     2
 67
     7
 79
     5
170
     0
171
     0
290
     0
174
     0
 93
        1
 44
0.0
173
     0
291
     1
 45
0.0
1001
ACAD
1000
AcDbSavedByObjectVersion
1070
     0
  0
VISUALSTYLE
  5
30
102
{ACAD_XDICTIONARY
360
FA0
102
}
102
{ACAD_REACTORS
330
29
102
}
330
29
100
AcDbVisualStyle
  2

 70
     5
 71
     0
 72
     2
 73
     0
 90
        0
 40
-0.6
 41
-30.0
 62
     5
 63
     7
421
 16777215
 74
     1
 91
        4
 64
     7
 65
   257
 75
     1
175
     1
 42
1.0
 92
        0
 66
   257
 43
1.0
 76
     1
 77
     6
 78
     2
 67
     7
 79
     3
170
     0
171
     0
290
     0
174
     0
 93
        1
 44
0.0
173
     0
291
     0
 45
0.0
1001
ACAD
1000
AcDbSavedByObjectVersion
1070
     0
  0
VISUALSTYLE
  5
3C
102
{ACAD_XDICTIONARY
360
FB8
102
}
102
{ACAD_REACTORS
330
29
102
}
330
29
100
AcDbVisualStyle
  2

 70
    25
 71
     2
 72
     2
 73
     1
 90
        1
 40
0.5
 41
-30.0
 62
     5
 63
     7
421
 16777215
 74
     1
 91
        0
 64
     7
 65
   257
 75
     1
175
     1
 42
1.0
 92
        8
 66
     7
 43
1.0
 76
     1
 77
     6
 78
     2
 67
     7
 79
     3
170
     0
171
     0
290
     0
174
     0
 93
       13
 44
0.0
173
     0
291
     0
 45
0.0
1001
ACAD
1000
AcDbSavedByObjectVersion
1070
     0
  0
DICTIONARYVAR
  5
916
102
{ACAD_REACTORS
330
913
102
}
330
913
100
DictionaryVariables
280
     0
  1
1:1
  0
DICTIONARYVAR
  5
915
102
{ACAD_REACTORS
330
913
102
}
330
913
100
DictionaryVariables
280
     0
  1
STANDARD
  0
DICTIONARYVAR
  5
914
102
{ACAD_REACTORS
330
913
102
}
330
913
100
DictionaryVariables
280
     0
  1
STANDARD
  0
DICTIONARYVAR
  5
D28
102
{ACAD_REACTORS
330
913
102
}
330
913
100
DictionaryVariables
280
     0
  1
0
  0
DICTIONARYVAR
  5
D29
102
{ACAD_REACTORS
330
913
102
}
330
913
100
DictionaryVariables
280
     0
  1
0
  0
DICTIONARYVAR
  5
D27
102
{ACAD_REACTORS
330
913
102
}
330
913
100
DictionaryVariables
280
     0
  1
2
  0
DICTIONARYVAR
  5
D26
102
{ACAD_REACTORS
330
913
102
}
330
913
100
DictionaryVariables
280
     0
  1
1
  0
DICTIONARYVAR
  5
D2A
102
{ACAD_REACTORS
330
913
102
}
330
913
100
DictionaryVariables
280
     0
  1
0
  0
DICTIONARYVAR
  5
F79
102
{ACAD_REACTORS
330
913
102
}
330
913
100
DictionaryVariables
280
     0
  1
2
  0
DICTIONARY
  5
989
102
{ACAD_REACTORS
330
97F
102
}
330
97F
100
AcDbDictionary
281
     1
  0
DICTIONARY
  5
1A
330
19
100
AcDbDictionary
280
     1
281
     1
  3
ACAD_XREC_ROUNDTRIP
360
D42
  3
BUMPTILE
360
1C
  3
DIFFUSETILE
360
1B
  3
OPACITYTILE
360
1F
  3
REFLECTIONTILE
360
1E
  3
REFRACTIONTILE
360
20
  3
SPECULARTILE
360
1D
  0
DICTIONARY
  5
12
330
11
100
AcDbDictionary
280
     1
281
     1
  3
ACAD_XREC_ROUNDTRIP
360
D41
  3
BUMPTILE
360
14
  3
DIFFUSETILE
360
13
  3
FBXASSET
360
9C
  3
OPACITYTILE
360
17
  3
REFLECTIONTILE
360
16
  3
REFRACTIONTILE
360
18
  3
SPECULARTILE
360
15
  0
DICTIONARY
  5
22
330
21
100
AcDbDictionary
280
     1
281
     1
  3
ACAD_XREC_ROUNDTRIP
360
D43
  3
BUMPTILE
360
24
  3
DIFFUSETILE
360
23
  3
OPACITYTILE
360
27
  3
REFLECTIONTILE
360
26
  3
REFRACTIONTILE
360
28
  3
SPECULARTILE
360
25
  0
DICTIONARY
  5
8DE
330
67
100
AcDbDictionary
280
     1
281
     1
  3
ACAD_XREC_ROUNDTRIP
360
8DF
  0
DICTIONARY
  5
D2C
330
65
100
AcDbDictionary
280
     1
281
     1
  3
ACAD_ROUNDTRIP_2008_TABLESTYLE_CELLSTYLEMAP
360
F7A
  3
ACAD_XREC_ROUNDTRIP
360
FC4
  0
DICTIONARY
  5
F9E
330
2F
100
AcDbDictionary
280
     1
281
     1
  3
ACAD_XREC_ROUNDTRIP
360
F9F
  0
DICTIONARY
  5
FFB
330
919
100
AcDbDictionary
280
     1
281
     1
  3
ACAD_XREC_ROUNDTRIP
360
FFC
  0
DICTIONARY
  5
FF9
330
918
100
AcDbDictionary
280
     1
281
     1
  3
ACAD_XREC_ROUNDTRIP
360
FFA
  0
DICTIONARY
  5
F9C
330
2E
100
AcDbDictionary
280
     1
281
     1
  3
ACAD_XREC_ROUNDTRIP
360
F9D
  0
DICTIONARY
  5
FAA
330
35
100
AcDbDictionary
280
     1
281
     1
  3
ACAD_XREC_ROUNDTRIP
360
FAB
  0
DICTIONARY
  5
FB2
330
39
100
AcDbDictionary
280
     1
281
     1
  3
ACAD_XREC_ROUNDTRIP
360
FB3
  0
DICTIONARY
  5
FA4
330
32
100
AcDbDictionary
280
     1
281
     1
  3
ACAD_XREC_ROUNDTRIP
360
FA5
  0
DICTIONARY
  5
FA8
330
34
100
AcDbDictionary
280
     1
281
     1
  3
ACAD_XREC_ROUNDTRIP
360
FA9
  0
DICTIONARY
  5
FC2
330
41
100
AcDbDictionary
280
     1
281
     1
  3
ACAD_XREC_ROUNDTRIP
360
FC3
  0
DICTIONARY
  5
FB0
330
38
100
AcDbDictionary
280
     1
281
     1
  3
ACAD_XREC_ROUNDTRIP
360
FB1
  0
DICTIONARY
  5
F94
330
2A
100
AcDbDictionary
280
     1
281
     1
  3
ACAD_XREC_ROUNDTRIP
360
F95
  0
DICTIONARY
  5
F96
330
2B
100
AcDbDictionary
280
     1
281
     1
  3
ACAD_XREC_ROUNDTRIP
360
F97
  0
DICTIONARY
  5
F98
330
2C
100
AcDbDictionary
280
     1
281
     1
  3
ACAD_XREC_ROUNDTRIP
360
F99
  0
DICTIONARY
  5
F9A
330
2D
100
AcDbDictionary
280
     1
281
     1
  3
ACAD_XREC_ROUNDTRIP
360
F9B
  0
DICTIONARY
  5
FA2
330
31
100
AcDbDictionary
280
     1
281
     1
  3
ACAD_XREC_ROUNDTRIP
360
FA3
  0
DICTIONARY
  5
FBE
330
3F
100
AcDbDictionary
280
     1
281
     1
  3
ACAD_XREC_ROUNDTRIP
360
FBF
  0
DICTIONARY
  5
FAE
330
37
100
AcDbDictionary
280
     1
281
     1
  3
ACAD_XREC_ROUNDTRIP
360
FAF
  0
DICTIONARY
  5
FC0
330
40
100
AcDbDictionary
280
     1
281
     1
  3
ACAD_XREC_ROUNDTRIP
360
FC1
  0
DICTIONARY
  5
FA6
330
33
100
AcDbDictionary
280
     1
281
     1
  3
ACAD_XREC_ROUNDTRIP
360
FA7
  0
DICTIONARY
  5
FBC
330
3E
100
AcDbDictionary
280
     1
281
     1
  3
ACAD_XREC_ROUNDTRIP
360
FBD
  0
DICTIONARY
  5
FBA
330
3D
100
AcDbDictionary
280
     1
281
     1
  3
ACAD_XREC_ROUNDTRIP
360
FBB
  0
DICTIONARY
  5
FB4
330
3A
100
AcDbDictionary
280
     1
281
     1
  3
ACAD_XREC_ROUNDTRIP
360
FB5
  0
DICTIONARY
  5
FB6
330
3B
100
AcDbDictionary
280
     1
281
     1
  3
ACAD_XREC_ROUNDTRIP
360
FB7
  0
DICTIONARY
  5
FAC
330
36
100
AcDbDictionary
280
     1
281
     1
  3
ACAD_XREC_ROUNDTRIP
360
FAD
  0
DICTIONARY
  5
FA0
330
30
100
AcDbDictionary
280
     1
281
     1
  3
ACAD_XREC_ROUNDTRIP
360
FA1
  0
DICTIONARY
  5
FB8
330
3C
100
AcDbDictionary
280
     1
281
     1
  3
ACAD_XREC_ROUNDTRIP
360
FB9
  0
XRECORD
  5
D42
102
{ACAD_REACTORS
330
1A
102
}
330
1A
100
AcDbXrecord
280
     1
102
MATERIAL
148
0.0
149
0.0
149
0.0
 93
        0
 94
      127
282
     0
 72
     0
 77
     0
171
     0
175
     0
179
     0
273
     0
  0
XRECORD
  5
1C
102
{ACAD_REACTORS
330
1A
102
}
330
1A
100
AcDbXrecord
280
     1
270
     1
271
     1
  0
XRECORD
  5
1B
102
{ACAD_REACTORS
330
1A
102
}
330
1A
100
AcDbXrecord
280
     1
270
     1
271
     1
  0
XRECORD
  5
1F
102
{ACAD_REACTORS
330
1A
102
}
330
1A
100
AcDbXrecord
280
     1
270
     1
271
     1
  0
XRECORD
  5
1E
102
{ACAD_REACTORS
330
1A
102
}
330
1A
100
AcDbXrecord
280
     1
270
     1
271
     1
  0
XRECORD
  5
20
102
{ACAD_REACTORS
330
1A
102
}
330
1A
100
AcDbXrecord
280
     1
270
     1
271
     1
  0
XRECORD
  5
1D
102
{ACAD_REACTORS
330
1A
102
}
330
1A
100
AcDbXrecord
280
     1
270
     1
271
     1
  0
XRECORD
  5
D41
102
{ACAD_REACTORS
330
12
102
}
330
12
100
AcDbXrecord
280
     1
102
MATERIAL
148
0.0
149
0.0
149
0.0
 93
        0
 94
      127
282
     0
 72
     0
 77
     0
171
     0
175
     0
179
     0
273
     0
  0
XRECORD
  5
14
102
{ACAD_REACTORS
330
12
102
}
330
12
100
AcDbXrecord
280
     1
270
     1
271
     1
  0
XRECORD
  5
13
102
{ACAD_REACTORS
330
12
102
}
330
12
100
AcDbXrecord
280
     1
270
     1
271
     1
  0
XRECORD
  5
9C
102
{ACAD_REACTORS
330
12
102
}
330
12
100
AcDbXrecord
280
     1
 70
     1
 90
1959938040
 71
     1
  1
30475C73-D982-4C81-8DC6-145621C79874
311
504B03040A00000800005B53DA403DEE336E79000000790000001B0000006175746F6465736B2D64657369676E2D7061636B6167652E786D6C3C3F786D6C2076657273696F6E3D22312E302220656E636F64696E673D227574662D3822203F3E3C666F726D6174733E3C666F726D61743E687474703A2F2F736368656D612E
311
6175746F6465736B2E636F6D2F64657369676E2D7061636B6167652F323030393C2F666F726D61743E3C2F666F726D6174733E504B03041400060808005B53DA40D486FD9CA0000000F4000000130000005B436F6E74656E745F54797065735D2E786D6C7D8EC10E82300C865F65E91D8A1E8C310C0EEA1BF002731658846E
311
D98AC1B77784ABF1D8FE5FBFBF75BBCE937A534CCEB38643598122B6FEE978D0B0485F9C41B54DDD7D022595594E1A469170414C76A4D9A4D207E29CF43ECE46F218070CC6BECC4078ACAA135ACF422C856C0E68EA1BF5669944DDD7BCDE7B1F8E415D77AECB980613C2E4AC91FC167A2B244592486606FC29C8FD7F045B9A
311
EF7053A7E60B504B03041400060808005B53DA40A16E077FEB0000007C01000008000000636F72652E786D6C8D90416EC3201045AF82665BE100A1B4B130515CD727E80510262E4A0C9681AAC72F4E1CA9DD7535A33FFFCD8CBE3C7E4F57F46597E8826F80560490F5260CCE8F0DE474C6AF808E4A2E21A45F36405E4FB681
311
550625C725E479934CF0C9FA54541F06BB893A469B00996B691A88E6D34EBAD2391547BC54B336173DDA8A3EBA02E7EC06743FE286B2CF9D9D5D4071D1F66DC70F98BD098AF9A923F874E01D6EB9D8F72FEFA463AC97BB155632B9E971DF2C56273B806284324C0466E283929A89FA993F115A132277ABFD0F94E7E19F5076
311
3EEDD9F6EE1D8BA06879E4365072B76651CA2DA852D7DCD40F504B03041400060808005B53DA4055019EA25F0000007C00000007000000636E782E786D6C4DCB3B0E80201045D1AD90E915ED2CF8AC45050C11660C8261F98AB1B07AC9C97D42D718D865D3E909258CFD00CCE24AC6E326A164D74DC0B4128928FF32603847
311
2BA13128B1252AC747C6BAB984FC68F0B87FE8960A5C09FE86CFB69FBA01504B03041400060808005B53DA407884EFA868010000020300000C0000006662782F636F72652E786D6C8D52ED6E8320147D15C2DF4541EADCDA204D3BD727D80B50A58E54C120983EFEAE1F4DD7A569161324E7DC73EFB947F9F6D2366850AED7
311
D6E438892946CA94B6D2A6CE71F0A7E81DA3ADE0CE5AFFAB0C23235B95E311C682D7CE866E814A6BBC321E50632BB580B2EF95C7A86CE092E3BEFC56AD8C65F050D19FE34E966759AB388981863AC17BEFC0009A878C2716A7E3859319173C045D2DACAE609A3E69E5B048B3FD615FA4EB887D644994EE0A1AEDD66911EDD3
311
6C7578FBA40563074E46B1E05EB75777A553D2AB0A0B461316D12C62D95742372CDBBCA62F34D950CAC9587E270A5DF54F51D0C6AFD8627796F55824606422FE6C0B1179D4CB01FC10C1C91822BCA684EF83864020642F8FCD758F3340832ABD752930950D376A904D503095A2E9E16466A1F3D400367BD8873DE9F3BC077C
311
40696AB0263D5C8FC18FD3F93C7589A2532E1AFC0519EB5AD9DCCCCD166FE76DD04379691BEBFEA326CBAA6409938C7FAFF801504B03041400060808005B53DA40A80C84D57D0000009D0000000B0000006662782F636E782E786D6C4DCCD10A83201886E15B91FFDC954336033534BD90581632D3703A76F9ABD1C18E3E78
311
F87879FF59037ABBFCF2290A209716908B8F34F9B808A865C60C502F794EA9FCDD00C57175020E06C9979CEA76D2E4E6B186B26BF0F179A219DA9B569DC203B10C5376D5586B33604B3BCB08B3CAD03B349237BFD2BE47587E01504B03041400060808005B53DA40FBABA4D12E01000015020000310000006662782F444330
311
36424139412D433145382D343832422D424244432D4534394538313845414434372F636F72652E786D6C8D515B6EC23010BC4AE42FAA2A89ED86109063442037E805826DA805B1233F2A8EDF7513A4F68F1FAF353B333BDA65FBC778CFBE95F3DA9A169102A34C1961A536D716C570C91B94ED3973D6863F34949961542D4A
311
30E2ECEA6C9C164858139409801A2BD5020EDEAB803271874F8BBCF852E3500C3100C3DF8A6910B7E1AA0A52401B789CF9E02040360F492FE2A723AEBBC3F6901F49DFE45543BBBCEB4EC7BCAFB67D439AFE70AA36AC9C859CC5A8E522D712E2E88B56EE559324E62CE8F1195F3835042511A798D01CD739AD3F09DED17AB7
311
AEDE31D961CCCA44FF278A937C5114B5091F74893BCB3CE2849573833369E3F9FE0CA31E9375214BF3565E8937C47181F17AB3A555BD66E5CC850D80695D2DA63E58071B5EDDCE4027C04ACE75C559998E04E5F78250D341F90F504B03041400060808005B53DA405FFB16504D01000033030000300000006662782F444330
311
36424139412D433145382D343832422D424244432D4534394538313845414434372F636E782E786D6CD593CD6EC32010845F0571ADFC5BD7AA224CA41EFA043DF48A6193D260B0F8A99AB7EF929034971C7AEC0559B3C3CCEA1366DBEFC5902FF0413B3BD1AE6E29012B9DD2763FD11477D533255BCEBC73F1C64689150B4C
311
34CB94B3BD77692D92829D4826A26AB43D14D14370C94B0828E79BC438290C0680AD128AB0CCA014287235E2D70E3CAE82E27C24F103C8EBCB3B71F327C818589353386B720767F92C4D37264AA411214C34C80F58442D52740AC2A156228ABAAB2F5D7776FA4D22F9C2A532794D72F944F34979D9A8468EACC12167217AA4
311
574CF1B802E5625D8D962222E4E6643C7B384BDAC671285E8DE03DBABBF1711830EC34E32CEA058A437A101114E57DDBF5553B56FDF8D6B59B7EDC3C0D0F6DB7695BD6643B67B373A65CC218F06E25D2D9083652DEB1268FEFE12B3EA2B447D6CE1FFF00120194D6339D6BC67FE6D39CDE37E2F2F817F01F504B0304140006
311
0808005B53DA40A96908C89A0500007B100000340000006662782F44433036424139412D433145382D343832422D424244432D4534394538313845414434372F6F626A656374732E786D6CAD575D739B3814FD2B0CFB0C18DB699C1D4227B19B8EA79BB6534F3BFB90198F0041B4111F2389D4E9AFDF2310185C3BF5EEF405
311
9090AEEE3DF7DC0F056F7739B79EA990AC2CAE6DDF9DD8162DE2326145766DD72A7516B6F5360C4459AAC132DB2A484EAF6D3D6D874126CABA3253094D49CDD5C1ECDDEDDF968C69416D2BE644CA6B5BC68F34272EA9559950F9E4264411374B77AEEFB60BC7623341AAC703A11511B450D014F305A458AD52FE7838B1BD30
311
F0F4FF30D04FB36A767A95D7D8333E9F15529122FEE9B00331337FBE7A37BDB8722EE6F399337F33F59DDBBBDB95E35FCE26CB37CBE5D5CDBB2B1C2C958024A389A0A91DBE073682C581D7FE0A839A156A36354B8C833C419F99F6941D4E2D3FF0DA35BD75C6C863EAC76551D0B8C10A6834F619D109AD6891C0E78C4A6836
311
4068321EFA1AC7C1EF991E9B2387D3E72130DC3110D4E9DEBD879A96D13F30419EC32021A966608BA531B4E5EA648F705496DCFC63D2CA89A282116E711609225EEC104BF592301889D14C163A1AB40576082FB4BFC7744118FD9AE7C7B44C6BCE358DEDB089822D62852AD968C67E50B1D77E880C7482AF341B16C620F552
311
513BBC6A29B23860530BA4957292C1E53053EF9C4D0F0C5DEA385DAFECF0C35DB4DBE8D83D7E7825CA8A0AA5E9036A758EEBDE1A25A3937F96E7F406FB40953D285F80FC4784FA5E15F84DB0DD7C3737A728410A999622876FAC89E54CF098587EF3D4DF83AFC0EB378FBD770A4F385B43F51BF01CDB30F4E500CE307806E1
311
4B3133A66D62C29136EE59018034492C5E620A79388D7676B846964356C62EC2431F2643DD677C069E118344D19C347817C0F2202D9E91A0015BC348A8D192DF28B8F7D34FE9AC39D82C3B05EFC56FA1EBCD6AF361538B94C4F4DEC4F48AA6AC600A256ECF9BA14223CC47163DD197EFA54860E8CF786F8678E7E62809B435
311
E61AF8ACCBE97AB03F7974408C7D59A9D34DF08B1360842EAC03F9F74CC6947352D0B2EECE7DB57EA06CB410EB60D74CEE0BCCBEB08034ED9F831844918E05AB34887DB5EA93A67BC2BAAFEB8F60A41DDEBEFC455E86D92BDAE7DEB8E4A5D8462FDB362D1D85FADB98DB06034F4B01DD9B20E9E2DF80BE4D589AD61249F008
311
AEDFD6CBA1EF745A408AE8A4B6D13287FD082E220C693BB9A8D682A09296C596A16E22EE8E1E30940F480D031A81A7349694A75BC6799D6F53C6518DB639A94EC0F1FFF58FEABCDA92BCAC0B7542F648755487B1EE23F6CAEF44C58F76B869DECE2D726F42931364D0B5E4085623D7CE26F3CB8BE5E5CC595D2DA6CE7CB9F0
311
9DC56AF9C6F1E717E8A59697578BCB79E7A7569330E84ACD30A2E12594B6A016CCB8EFEB1AF16392801DDE13251FDEB7E1D9BDBFAE5DF4C281873DA897FDC69BE4197D1F4D7E2D60BFF2A8A0755E719AD342111D43F7FA837F21E83346CAB4F3EB9C64F40C299FDE6F0E8CC1CC19FB3EEB78A7DF0FF69AD9A50EC8A342D463
311
9D470561FC6063D622E9564566F0EB7CD2BFDB42D30DF5C838069DA92C394B9007132BA3654E15B2E1194548E454827AC39E3E31778F33763FB71DA22211A79D268F044D3297080B50AB8ED578DEFA034D9DEEABAE6D945BF7090F93296C0B9CB9B6D1A42B1653E94628D0BA156A84834BC34E1E8D3F29328E5EBBDDD48FFB
311
5D1A9B5149EE979CD33F19BBDA146E0C401AA9D037A02182771A65C2A0D1CDFC8FFF93E19D3A1651F88C6AD5DBB29FE88D698E4188B64699DB029A982773F40E81FABA59BEDBAC192172D62DEB5512B4521D4544D6DC14B47E46A59BD5670F1D8AB5FE6455BCCEE0CBF325398282CCB50E70B008AC30322BA240D5E59F0F9F
311
45899B6C6EDD3150E06159E6795998C18DB9095B9B47DC6B9307A405AA2F24F2613AF1A70FCD45C0DC4DB61191D425897CC2047C2A580FF1C8F160647B5B44056A7FF4EB3CED84036EAE57962969C8B1DDFA6156D5B0A0E528A885E8D197491D2BC305D5AB7701AF590A1504BAF8F05F504B03041400060800005B53DA4000
311
0000000000000000000000350000006662782F44433036424139412D433145382D343832422D424244432D4534394538313845414434372F76657274696365732E62696E504B03041400060808005B53DA40F270F1330600000004000000360000006662782F44433036424139412D433145382D343832422D424244432D45
311
34394538313845414434372F747269616E676C65732E62696E636660600000504B03041400060800005B53DA40000000000000000000000000370000006662782F44433036424139412D433145382D343832422D424244432D4534394538313845414434372F617474726962757465732E62696E504B03041400060808005B
311
53DA40D5987DFC8F00000041010000360000006662782F44433036424139412D433145382D343832422D424244432D4534394538313845414434372F6469726563746F72792E786D6C858F410EC2201045AF4266AF15DDB800BA74E7C21B903225242D6328188F2FA5C4183471359997F9FF81E89FF3C41E1816475E02DF1F
311
80A11FC8386F25A438EECEC07A250251FC3803E6F58C12560C4AD840E95E91C151A72936F496F35732D860FE635F62C8F2DA16B505C545B74125BAA2FA9E05D7CC053D063734D5C7665FD55B6B8D15D5E9BFEAFD8490FFA45E504B03041400060808005B53DA40B2C529E7FE000000A00100003B0000006662782F44433036
311
424139412D433145382D343832422D424244432D4534394538313845414434372F7265736F75726365732F636F72652E786D6C8D504B4EC33010BD4A345BE4C476836923C7554BE809B880E54C83D5C6AEFC411C1FA70D12ECD8CC8CDE47F3F4E4FE6BBE569F18A2F5AE075653A8D0193F5A37F590D3996CA1DA2B19BC4FBF
311
6450393D630F0B0C4A4EC1E7DB0A19EF12BA5450E7475C411D2326A8CCB51C3D44F381B3AE754E45112FF54D9B8B9EB06675A18B4EC9984209503D9E2C1354C0E873301865F36095CCD98EABC68EE5A73D5B0CA05A713C1D87764BF8AB60A43D0C941C76ED408EADD89C5EDEE8C0F949368B59C964E79F8C26A04E3882E294
311
714205E1E29DD18E8BEEB97DA2ACA354368BFC8F29DFC67F9AB27569C3D7B80F5B04C54A903BA164B3F455D6BDCCB2976ED537504B010214000A00000800005B53DA403DEE336E79000000790000001B00000000000000000000000000000000006175746F6465736B2D64657369676E2D7061636B6167652E786D6C504B01
311
0214001400060808005B53DA40D486FD9CA0000000F40000001300000000000000000000000000B20000005B436F6E74656E745F54797065735D2E786D6C504B010214001400060808005B53DA40A16E077FEB0000007C010000080000000000000000000000000083010000636F72652E786D6C504B010214001400060808
311
005B53DA4055019EA25F0000007C000000070000000000000000000000000094020000636E782E786D6C504B010214001400060808005B53DA407884EFA868010000020300000C00000000000000000000000000180300006662782F636F72652E786D6C504B010214001400060808005B53DA40A80C84D57D0000009D0000
311
000B00000000000000000000000000AA0400006662782F636E782E786D6C504B010214001400060808005B53DA40FBABA4D12E010000150200003100000000000000000000000000500500006662782F44433036424139412D433145382D343832422D424244432D4534394538313845414434372F636F72652E786D6C504B
311
010214001400060808005B53DA405FFB16504D010000330300003000000000000000000000000000CD0600006662782F44433036424139412D433145382D343832422D424244432D4534394538313845414434372F636E782E786D6C504B010214001400060808005B53DA40A96908C89A0500007B10000034000000000000
311
00000000000000680800006662782F44433036424139412D433145382D343832422D424244432D4534394538313845414434372F6F626A656374732E786D6C504B010214001400060800005B53DA400000000000000000000000003500000000000000000000000000540E00006662782F44433036424139412D433145382D
311
343832422D424244432D4534394538313845414434372F76657274696365732E62696E504B010214001400060808005B53DA40F270F13306000000040000003600000000000000000000000000A70E00006662782F44433036424139412D433145382D343832422D424244432D4534394538313845414434372F747269616E
311
676C65732E62696E504B010214001400060800005B53DA400000000000000000000000003700000000000000000000000000010F00006662782F44433036424139412D433145382D343832422D424244432D4534394538313845414434372F617474726962757465732E62696E504B010214001400060808005B53DA40D598
311
7DFC8F000000410100003600000000000000000000000000560F00006662782F44433036424139412D433145382D343832422D424244432D4534394538313845414434372F6469726563746F72792E786D6C504B010214001400060808005B53DA40B2C529E7FE000000A00100003B00000000000000000000000000391000
311
006662782F44433036424139412D433145382D343832422D424244432D4534394538313845414434372F7265736F75726365732F636F72652E786D6C504B0506000000000E000E0080040000901100000000
310
504B03040A00000800005B53DA403DEE336E79000000790000001B0000006175746F6465736B2D64657369676E2D7061636B6167652E786D6C3C3F786D6C2076657273696F6E3D22312E302220656E636F64696E673D227574662D3822203F3E3C666F726D6174733E3C666F726D61743E687474703A2F2F736368656D612E
310
6175746F6465736B2E636F6D2F64657369676E2D7061636B6167652F323030393C2F666F726D61743E3C2F666F726D6174733E504B03041400060808005B53DA40D486FD9CA0000000F4000000130000005B436F6E74656E745F54797065735D2E786D6C7D8EC10E82300C865F65E91D8A1E8C310C0EEA1BF002731658846E
310
D98AC1B77784ABF1D8FE5FBFBF75BBCE937A534CCEB38643598122B6FEE978D0B0485F9C41B54DDD7D022595594E1A469170414C76A4D9A4D207E29CF43ECE46F218070CC6BECC4078ACAA135ACF422C856C0E68EA1BF5669944DDD7BCDE7B1F8E415D77AECB980613C2E4AC91FC167A2B244592486606FC29C8FD7F045B9A
310
EF7053A7E60B504B03041400060808005B53DA40E9EC87C3EB0000007C01000008000000636F72652E786D6C8D90416EC3201045AF82665B6103764D63612239754ED00B204C5C94182C03558F5F9C3852BBEB6A467FFE9B197D71FC9E6FE8CBACC17AD7012D0820E3B41FAD9B3A48F182DF001DA558BD8FBF6C809C9A4D07
310
9B0C524CAB4FCB2E69EFA27131ABCE8F661755082602D2B7DC7410F4A79955A152CC8E702D16A5AF6A32057D76194EC98EE871C48E799FBD58B3826CEA9A537E3AE3FEF07EC6F5A962B82703C7D5D0F7D570E09C374C941B2C45B4F3F3BE5E8D8A6604C90865983498351F94B4AC695FEB17425B4244B9D9FF406919FF0925
310
EB62C5F6771F580049F323F78114E596452EF7A072DD72933F504B03041400060808005B53DA4055019EA25F0000007C00000007000000636E782E786D6C4DCB3B0E80201045D1AD90E915ED2CF8AC45050C11660C8261F98AB1B07AC9C97D42D718D865D3E909258CFD00CCE24AC6E326A164D74DC0B4128928FF32603847
310
2BA13128B1252AC747C6BAB984FC68F0B87FE8960A5C09FE86CFB69FBA01504B03041400060808005B53DA40B8224EDE68010000020300000C0000006662782F636F72652E786D6C8D525B6E833010BC8AE5DFCAD83C0A4D641C893439412FE0804351C046C646397E974794A68AA20AC958333BBBB3037C77ED5A342A3B34
310
46E7380C18464A97A66A749D63EFCEE403A39DE0D618F7AB0C232D3B95E309C682D7D6F87E854AA39DD20E506D2AB582721894C3A86CE192E3A1FC569D0CA47750315C825E961759AB200C80863AC10767C1005A864C2716E7D395D30517DCFBA65AD9A68269CDB951168B3449B230DB1F49B1F93C92641F47A460878CC487
310
A2880F9B2CCBD288D3492CB86BBA9BBBD22AE9548545C4C288B09444E957C8B651BA7D4FDE58B8658CD3A9FC41E4FBEA9F22DF681747ABDD45366011829199F8B32D44E4D02047F04305A75388F09A137E0C1A0281909D3CB5B73D2E008DAA74C626C054C6DFA951B65EC15486E687D38585CE7303D8EC699FE8459FD73DE0
310
034A5D8335E9E07AF26E9ACE97A96B14BDB2647457A48DED647B37B758BC9FF7414FE5A5698DFD8F9AAEABD2354C3AFDBDE207504B03041400060808005B53DA40841DFF027D0000009D0000000B0000006662782F636E782E786D6C4DCCD10A83201886E15B91FFDCE532377F50C3581712CB42663A9C8D5DFE6A74B0A30F
310
1E3E5ED57E9640DE2EBF7C8A1ACE2706C4C57B1A7D9C35AC65A212486B544EA9FCDD80C461711A7606A3E69CD6E741A39B8635944D838F8F031B8EBD95C8280A44DAD4BCA396899A0A7BEB2ED85F25131C2AA3AA5F69DB3D6CBE504B03041400060808005B53DA40457C9A282C01000015020000310000006662782F343339
310
45413839302D393539392D343233422D413035322D3541444236394537383035332F636F72652E786D6C8D515B6EC32010BC0AE22B5585BDC636B1234C94A8B9412FE06092A2C460F1A872FCE2DA91DABFFCB068766676B4CBF78FF18EBE95F3DA9A0E171960A48CB48336D70EC770210D467BC19DB5E10F0D23D38FAAC333
310
8C05BF3A1BA71592D6046542428D1DD40AF6DEAB8091BCA74F87BDFC52639FF5312486BF65532F6FFD55654596DA8927B80F2E0540CB90F9C5A22ADBD3A16981B475DB928A964772809A92FAF07164ED69DB405DF27C110A1EA31E56B91E521C7DD1CABD6A328B050F7A7CC6974EF5410D58502828014628FB2C6047D9AEAE
310
DEA1D801F07CA6FF13C569785114B509255DE32E328F45C1F3A521F860E3F9FE0CA31E937501CDF3365EC9372C200360DB1A5A56F17CE1A60D245356ADA63E589736BCB99D13BD5C9D5925783E1F2995DF0BA63A1F54FC00504B03041400060808005B53DA40395CD9475501000033030000300000006662782F3433394541
310
3839302D393539392D343233422D413035322D3541444236394537383035332F636E782E786D6CBD93CD6EC32010845F0571ADFC1BD78A224CA41EFA043DF48A6193D060B00057CDDB7749489A4B0E95AA5E90353BCCAC3E61B6FD9A0CF9041FB4B3036DCA9A12B0D2296DF7035DE2AE5853B2E5CC3B17EF6C945831C14093
310
4C39DB7BB7CC5952B0138B89A81A6D8F59F410DCE2250494D34D629C140603C0160B8A308DA014287233E2D70E3CAE82E27822F100E4F5E59DB8F103640CAC4A299C55A983B374E6A63B1325D28810061AE40126518A253A05E1582A1145D994D7AE073BFD249174E15AB9784D52F940D34979DEA8448EACC22167217AA497
310
4DF13403E5629E8D962222E4EA6CBC78385BB48D7D97BD1AC17B74AFDA7EBDC6B0F38CB3A827C80EE941445094B775D316755FB4FD5B536FDA7EF3DC3DD5CDA6AE5995EC9C8DCE997C0963C0BB99486723D84879C3AA347E842FFB88D21E593B7FFA054804905B2F746E197FC9A7E9575DF78F7CAAF3FB465C1EFF02FE0D50
310
4B03041400060808005B53DA40C6FA398659070000941B0000340000006662782F34333945413839302D393539392D343233422D413035322D3541444236394537383035332F6F626A656374732E786D6CED595B739B3814FE2B0CFB6C6C62E7B643E8247693F174D376EA6D671F32C3C820136D84602491C4FBEBF7E80206
310
6212BCCDBEF5C106847474CE77AE3A041F9E33EA3C622E48CE2E5CDF9BB80E66719E10965EB8A5DC8CCE5CE74318F03C978D69AEC350862F5C35EC8641CAF3B2B04309DEA092CACEE8F5D55F8E8831C3AE135324C4852BE27B9C210F95324FB078F0122491976E9E3DDF3313DB64538E8AFB0ED10271CC24700AE30CA83886
310
29BFFD3871C7613056EFC340FDDB59D341B366FDB3C65AEA369784098958FC82A50E99E92096A6FE6CF1F1E8F87C743C9B4D47B393237F74757DB518F9A7D3C9FC643E3FBFFC780EECADF39C5A99125C609680FEB66EE80763F5A616DD22B08FEB38670CC71A48804A8BD52548B080AD1AF04DDA8FBE92A8F15A4BD8789EA9
310
F79685C6F0B44DA56FD630205A744110BB5D2571756DCA97AFFF06C1C510A3E4024BE056480EDAB5F070F00A379C0463331A06EB9D2E887032243127883A94AC39E2A01498AAA684815960C928E7E040CA511268CD99D76DDB02CF7CDB75F671B92929559EE186DAB122703F2C85E68CFC83F98EFB2632C013485B1226CF2C
310
97725B60373C0FC67A300CD4657A645F1A209D0D45A9D08898B71D41E7CAF5970B37FC74BD7E5EA970B07FF382E705E652199DD2A3E60B0CD95E154A765B7F90E6D40210C6806A57EE40F906C87F86E8B16305F4C6C9F3EC7966E74A8E98D8E43C03DD3813673481BF89E3EB7F75DFB80BC6F5E2B6F6FAF0043755509DFD3C
310
9E6D19345696FF069C61F008069FF3A97DB58A11057BBE250C005246E2D01C8620B46FD6CF6EB884C009811E56211AFA2032B0FB08B7C1D892D969A5722FEB750C10B57B4C87280960D316096CF4E8E906B20727F14E4D4D11FBE03D7E1773BD5CAC3EAD4ABE4131BEB53EBDC01BC28884ACB99FA116E62D891EF0F629E709
310
08FA12EF5513EFCC6E25006D85B9023EAD40500FBB9D5B1BC4B02ECD55B809DED8018450B9BA41FF968818538A18CECB6ADF3ABA2943AD3DDED60C6E7864209E1E754C98E347A2AA0A709ADD8C16A390F7634E0A05A21BDE18C9EAA0E9F548F77DF9192CB29EDF336BC920F43244FFD4416B0F0E2DCBAE90B640D402AF77E1
310
3CCE69CEA3F5363291CE855A02D8687BCB8F165188F546498A0A7890F6BB2AA4A446DA28219B4D2920AEEE61F1C772DE34878937F58F9DE67FC71967106DC17711B77ED7D92322194A71B44149DF76CDDD6ADA4293EC21CDF186825CE491C86D84643449707A083407113F7F57EA29CD85200C0BC8577BC16FA231F1209018
310
6D562C2BAD76802622CAB044F4100414991E7075DAD1356E0CA5C3DB3CD6D6FB9AC69A44FF278BE0086AC99C45044A51C8216F32EE7BC71043DAE81A943BF882B555B4B518B4841222DE464F98A4F7F210D40DF91EDC6338929432CA0B1483590F20FBC25794523BBCAF51FCA0F2471497F4BD0C4460BA8908A56516C18F30
310
38790C71ED3A30BD8A4283B8897D126750942159F2219B9C1C4F5EEC636A866E086C6CB42114C27694A1A207F55640D4F58853836FA9F728755D664584B2BC64830CC59B76BDC992EFAA55911DC8AF2A15A16CAC085B82614098ACB36A15B3C1D475600537D2816A1B099415D49CC2DE483C7EED4D9A72EF06DCFAE9FB6E90
310
41E1D7A3BD66449D5530581E5B8581784232BE77C395BE8EAEA0FE4E70B24BF555ADD9AC00013115C94B4EAC8ABE2FA1BCB1359A1BDE2229EE6E4CD6ADAEDF971E743F8231AC81DAA55EB85440679849A42A935B7543BF2108C12D1A667CA972EA21542E9344578D885E933E75B6CA88D6A619F18A7BCCF20C7EEC8EB09896
310
09BE438978886E258D5644B16EA5F4325261FCAA805F6E561D78606480485F5581879F3A6BEDE85C954B7B89C8FB325B33442008B6444B8D6EBC82A556239596EBAB3A5340DD050666553CFB75B268B6237E9D2C526B183F75B2B8DAFE81B6CDBE48239DC7CAAE0F3A06D4F94951798F63806E3BD454EB2C6292B995DF3A53
310
0441B18AF283ABB12A6818827D1CFFE7ACDD9705CD761DFE0FCBDAFE8B8AE3A0ACD29AACBA547B2AD76533874D27B3D3E3F9E974B4383F3B1ACDE667FEE86C313F19F9B36368D6CE4FCFCF4E67359ADA51C3A00E663A77C1B3096AD5B07AB218405756E49424709A4F9C1443CC9770A61FD03EE71916903C9BCDEEC436E507
310
AC7E347D4E89D614579CDC2368105301691D302A63D91E777E83D6A48483F6850B4D23EF01FEAC55BA0E649E0B175A0592C458786B6833A9869E260E2957E77E4B0CF0412C5529D12CAA9FEB550A9B56F8AFA70C490356AE560F030AB702BA5FAD0E85E6CDF2141F2478C58E8324DCAE4B09D59A916537500BA3B7D9A9DFC8
310
46097BB05B3F83EBBE2E96EFE9392D44067D3278D5080CD591443CD5FD6EC59865E972F1750C7D3667F9C5296899822E87531A710CC65CAA820AAC08ACC2D22C9004539DFF7EF795E7F089277374557437CFB32C67F6E112CE63097C227256F7F0C127B983B201ABB6BAB83B9AF84777BA9D6D3BECD11A09ECA97A0806AA32
310
4289D03136B0C817AD29DBB81C2B2574A62F178E0D9FD0063016F4A2BB6B3E6F39E03DEA438AF215EDE1959CAF76B4C77A2A5803875E74F82F504B03041400060800005B53DA40000000000000000000000000350000006662782F34333945413839302D393539392D343233422D413035322D354144423639453738303533
310
2F76657274696365732E62696E504B03041400060808005B53DA40F270F1330600000004000000360000006662782F34333945413839302D393539392D343233422D413035322D3541444236394537383035332F747269616E676C65732E62696E636660600000504B03041400060800005B53DA4000000000000000000000
310
0000370000006662782F34333945413839302D393539392D343233422D413035322D3541444236394537383035332F617474726962757465732E62696E504B03041400060808005B53DA40D5987DFC8F00000041010000360000006662782F34333945413839302D393539392D343233422D413035322D3541444236394537
310
383035332F6469726563746F72792E786D6C858F410EC2201045AF4266AF15DDB800BA74E7C21B903225242D6328188F2FA5C4183471359997F9FF81E89FF3C41E1816475E02DF1F80A11FC8386F25A438EECEC07A250251FC3803E6F58C12560C4AD840E95E91C151A72936F496F35732D860FE635F62C8F2DA16B505C545
310
B74125BAA2FA9E05D7CC053D063734D5C7665FD55B6B8D15D5E9BFEAFD8490FFA45E504B03041400060808005B53DA408106DAF2FE000000A00100003B0000006662782F34333945413839302D393539392D343233422D413035322D3541444236394537383035332F7265736F75726365732F636F72652E786D6C8D504B6E
310
833010BD0A9A6D65B00D8526328E444A4FD00B5866925A0936F2A7EAF16B0295DA5D3733A3F7D13C3D71FA9AEFC527FA609CED8195140AB4DA4DC65E7B48F1425EA03849E19D8BBF64505835630F2B0C525CBD4BCB0E696723DA9851EB26DC4115024628F43D1F3D04FD81B32A558A59116EE5A2F44D5DB16465A6B34E8A10
310
7D0E506C4FD609D26370C96B0CA2DA58295232D3AE3153FE692E063DC8B6693AD69D47321C5EDF4873AE3919E8D8917A1C867A3C745DD77251AD6629A2997F326A8F2AE2049253C6096D096FDF193DF2F6F8DC3C5176A45454ABFC8F292DD33F4DC9D858F33DEE660B20590EF220A4A8D6BEF27A9499F7DAADFC06504B0102
310
14000A00000800005B53DA403DEE336E79000000790000001B00000000000000000000000000000000006175746F6465736B2D64657369676E2D7061636B6167652E786D6C504B010214001400060808005B53DA40D486FD9CA0000000F40000001300000000000000000000000000B20000005B436F6E74656E745F547970
310
65735D2E786D6C504B010214001400060808005B53DA40E9EC87C3EB0000007C010000080000000000000000000000000083010000636F72652E786D6C504B010214001400060808005B53DA4055019EA25F0000007C000000070000000000000000000000000094020000636E782E786D6C504B010214001400060808005B
310
53DA40B8224EDE68010000020300000C00000000000000000000000000180300006662782F636F72652E786D6C504B010214001400060808005B53DA40841DFF027D0000009D0000000B00000000000000000000000000AA0400006662782F636E782E786D6C504B010214001400060808005B53DA40457C9A282C01000015
310
0200003100000000000000000000000000500500006662782F34333945413839302D393539392D343233422D413035322D3541444236394537383035332F636F72652E786D6C504B010214001400060808005B53DA40395CD94755010000330300003000000000000000000000000000CB0600006662782F34333945413839
310
302D393539392D343233422D413035322D3541444236394537383035332F636E782E786D6C504B010214001400060808005B53DA40C6FA398659070000941B000034000000000000000000000000006E0800006662782F34333945413839302D393539392D343233422D413035322D3541444236394537383035332F6F626A
310
656374732E786D6C504B010214001400060800005B53DA400000000000000000000000003500000000000000000000000000191000006662782F34333945413839302D393539392D343233422D413035322D3541444236394537383035332F76657274696365732E62696E504B010214001400060808005B53DA40F270F133
310
060000000400000036000000000000000000000000006C1000006662782F34333945413839302D393539392D343233422D413035322D3541444236394537383035332F747269616E676C65732E62696E504B010214001400060800005B53DA400000000000000000000000003700000000000000000000000000C610000066
310
62782F34333945413839302D393539392D343233422D413035322D3541444236394537383035332F617474726962757465732E62696E504B010214001400060808005B53DA40D5987DFC8F0000004101000036000000000000000000000000001B1100006662782F34333945413839302D393539392D343233422D41303532
310
2D3541444236394537383035332F6469726563746F72792E786D6C504B010214001400060808005B53DA408106DAF2FE000000A00100003B00000000000000000000000000FE1100006662782F34333945413839302D393539392D343233422D413035322D3541444236394537383035332F7265736F75726365732F636F72
310
652E786D6C504B0506000000000E000E0080040000551300000000
  0
XRECORD
  5
17
102
{ACAD_REACTORS
330
12
102
}
330
12
100
AcDbXrecord
280
     1
270
     1
271
     1
  0
XRECORD
  5
16
102
{ACAD_REACTORS
330
12
102
}
330
12
100
AcDbXrecord
280
     1
270
     1
271
     1
  0
XRECORD
  5
18
102
{ACAD_REACTORS
330
12
102
}
330
12
100
AcDbXrecord
280
     1
270
     1
271
     1
  0
XRECORD
  5
15
102
{ACAD_REACTORS
330
12
102
}
330
12
100
AcDbXrecord
280
     1
270
     1
271
     1
  0
XRECORD
  5
D43
102
{ACAD_REACTORS
330
22
102
}
330
22
100
AcDbXrecord
280
     1
102
MATERIAL
148
0.0
149
0.0
149
0.0
 93
        0
 94
      127
282
     0
 72
     0
 77
     0
171
     0
175
     0
179
     0
273
     0
  0
XRECORD
  5
24
102
{ACAD_REACTORS
330
22
102
}
330
22
100
AcDbXrecord
280
     1
270
     1
271
     1
  0
XRECORD
  5
23
102
{ACAD_REACTORS
330
22
102
}
330
22
100
AcDbXrecord
280
     1
270
     1
271
     1
  0
XRECORD
  5
27
102
{ACAD_REACTORS
330
22
102
}
330
22
100
AcDbXrecord
280
     1
270
     1
271
     1
  0
XRECORD
  5
26
102
{ACAD_REACTORS
330
22
102
}
330
22
100
AcDbXrecord
280
     1
270
     1
271
     1
  0
XRECORD
  5
28
102
{ACAD_REACTORS
330
22
102
}
330
22
100
AcDbXrecord
280
     1
270
     1
271
     1
  0
XRECORD
  5
25
102
{ACAD_REACTORS
330
22
102
}
330
22
100
AcDbXrecord
280
     1
270
     1
271
     1
  0
XRECORD
  5
8DF
102
{ACAD_REACTORS
330
8DE
102
}
330
8DE
100
AcDbXrecord
280
     1
102
ACAD_ROUNDTRIP_2012_MLEADER_STYLE
298
     1
  0
CELLSTYLEMAP
  5
F7A
102
{ACAD_REACTORS
330
D2C
102
}
330
D2C
100
AcDbCellStyleMap
 90
        3
300
CELLSTYLE
  1
TABLEFORMAT_BEGIN
 90
        5
170
     1
 91
        0
 92
    32768
 62
   257
 93
        1
300
CONTENTFORMAT
  1
CONTENTFORMAT_BEGIN
 90
        0
 91
        0
 92
      512
 93
        0
300

 40
0.0
140
1.0
 94
        5
 62
     0
340
55
144
0.25
309
CONTENTFORMAT_END
171
     1
301
MARGIN
  1
CELLMARGIN_BEGIN
 40
0.06
 40
0.06
 40
0.06
 40
0.06
 40
0.18
 40
0.18
309
CELLMARGIN_END
 94
        6
 95
        1
302
GRIDFORMAT
  1
GRIDFORMAT_BEGIN
 90
        0
 91
        1
 62
     0
 92
       -2
340
0
 93
        0
 40
0.045
309
GRIDFORMAT_END
 95
        2
302
GRIDFORMAT
  1
GRIDFORMAT_BEGIN
 90
        0
 91
        1
 62
     0
 92
       -2
340
0
 93
        0
 40
0.045
309
GRIDFORMAT_END
 95
        4
302
GRIDFORMAT
  1
GRIDFORMAT_BEGIN
 90
        0
 91
        1
 62
     0
 92
       -2
340
0
 93
        0
 40
0.045
309
GRIDFORMAT_END
 95
        8
302
GRIDFORMAT
  1
GRIDFORMAT_BEGIN
 90
        0
 91
        1
 62
     0
 92
       -2
340
0
 93
        0
 40
0.045
309
GRIDFORMAT_END
 95
       16
302
GRIDFORMAT
  1
GRIDFORMAT_BEGIN
 90
        0
 91
        1
 62
     0
 92
       -2
340
0
 93
        0
 40
0.045
309
GRIDFORMAT_END
 95
       32
302
GRIDFORMAT
  1
GRIDFORMAT_BEGIN
 90
        0
 91
        1
 62
     0
 92
       -2
340
0
 93
        0
 40
0.045
309
GRIDFORMAT_END
309
TABLEFORMAT_END
  1
CELLSTYLE_BEGIN
 90
        1
 91
        1
300
_TITLE
309
CELLSTYLE_END
300
CELLSTYLE
  1
TABLEFORMAT_BEGIN
 90
        5
170
     1
 91
        0
 92
        0
 62
   257
 93
        1
300
CONTENTFORMAT
  1
CONTENTFORMAT_BEGIN
 90
        0
 91
        0
 92
      512
 93
        0
300

 40
0.0
140
1.0
 94
        5
 62
     0
340
55
144
0.18
309
CONTENTFORMAT_END
171
     1
301
MARGIN
  1
CELLMARGIN_BEGIN
 40
0.06
 40
0.06
 40
0.06
 40
0.06
 40
0.18
 40
0.18
309
CELLMARGIN_END
 94
        6
 95
        1
302
GRIDFORMAT
  1
GRIDFORMAT_BEGIN
 90
        0
 91
        1
 62
     0
 92
       -2
340
0
 93
        0
 40
0.045
309
GRIDFORMAT_END
 95
        2
302
GRIDFORMAT
  1
GRIDFORMAT_BEGIN
 90
        0
 91
        1
 62
     0
 92
       -2
340
0
 93
        0
 40
0.045
309
GRIDFORMAT_END
 95
        4
302
GRIDFORMAT
  1
GRIDFORMAT_BEGIN
 90
        0
 91
        1
 62
     0
 92
       -2
340
0
 93
        0
 40
0.045
309
GRIDFORMAT_END
 95
        8
302
GRIDFORMAT
  1
GRIDFORMAT_BEGIN
 90
        0
 91
        1
 62
     0
 92
       -2
340
0
 93
        0
 40
0.045
309
GRIDFORMAT_END
 95
       16
302
GRIDFORMAT
  1
GRIDFORMAT_BEGIN
 90
        0
 91
        1
 62
     0
 92
       -2
340
0
 93
        0
 40
0.045
309
GRIDFORMAT_END
 95
       32
302
GRIDFORMAT
  1
GRIDFORMAT_BEGIN
 90
        0
 91
        1
 62
     0
 92
       -2
340
0
 93
        0
 40
0.045
309
GRIDFORMAT_END
309
TABLEFORMAT_END
  1
CELLSTYLE_BEGIN
 90
        2
 91
        1
300
_HEADER
309
CELLSTYLE_END
300
CELLSTYLE
  1
TABLEFORMAT_BEGIN
 90
        5
170
     1
 91
        0
 92
        0
 62
   257
 93
        1
300
CONTENTFORMAT
  1
CONTENTFORMAT_BEGIN
 90
        0
 91
        0
 92
      512
 93
        0
300

 40
0.0
140
1.0
 94
        2
 62
     0
340
55
144
0.18
309
CONTENTFORMAT_END
171
     1
301
MARGIN
  1
CELLMARGIN_BEGIN
 40
0.06
 40
0.06
 40
0.06
 40
0.06
 40
0.18
 40
0.18
309
CELLMARGIN_END
 94
        6
 95
        1
302
GRIDFORMAT
  1
GRIDFORMAT_BEGIN
 90
        0
 91
        1
 62
     0
 92
       -2
340
0
 93
        0
 40
0.045
309
GRIDFORMAT_END
 95
        2
302
GRIDFORMAT
  1
GRIDFORMAT_BEGIN
 90
        0
 91
        1
 62
     0
 92
       -2
340
0
 93
        0
 40
0.045
309
GRIDFORMAT_END
 95
        4
302
GRIDFORMAT
  1
GRIDFORMAT_BEGIN
 90
        0
 91
        1
 62
     0
 92
       -2
340
0
 93
        0
 40
0.045
309
GRIDFORMAT_END
 95
        8
302
GRIDFORMAT
  1
GRIDFORMAT_BEGIN
 90
        0
 91
        1
 62
     0
 92
       -2
340
0
 93
        0
 40
0.045
309
GRIDFORMAT_END
 95
       16
302
GRIDFORMAT
  1
GRIDFORMAT_BEGIN
 90
        0
 91
        1
 62
     0
 92
       -2
340
0
 93
        0
 40
0.045
309
GRIDFORMAT_END
 95
       32
302
GRIDFORMAT
  1
GRIDFORMAT_BEGIN
 90
        0
 91
        1
 62
     0
 92
       -2
340
0
 93
        0
 40
0.045
309
GRIDFORMAT_END
309
TABLEFORMAT_END
  1
CELLSTYLE_BEGIN
 90
        3
 91
        2
300
_DATA
309
CELLSTYLE_END
  0
XRECORD
  5
FC4
102
{ACAD_REACTORS
330
D2C
102
}
330
D2C
100
AcDbXrecord
280
     1
102
ACAD_ROUNDTRIP_PRE2007_TABLESTYLE
 90
      512
 91
        0
  1

 92
      512
 93
        0
  2

 94
      512
 95
        0
  3

  0
XRECORD
  5
F9F
102
{ACAD_REACTORS
330
F9E
102
}
330
F9E
100
AcDbXrecord
280
     1
102
RTVSPropertyOp0
 70
     1
102
RTVSPropertyOp1
 70
     1
102
RTVSPropertyOp2
 70
     1
102
RTVSPropertyOp3
 70
     1
102
RTVSPropertyOp4
 70
     1
102
RTVSPropertyOp5
 70
     1
102
RTVSPropertyOp6
 70
     1
102
RTVSPropertyOp7
 70
     1
102
RTVSPropertyOp8
 70
     1
102
RTVSPropertyOp9
 70
     1
102
RTVSPropertyOp10
 70
     1
102
RTVSPropertyOp11
 70
     1
102
RTVSPropertyOp12
 70
     1
102
RTVSPropertyOp13
 70
     1
102
RTVSPropertyOp14
 70
     1
102
RTVSPropertyOp15
 70
     1
102
RTVSPropertyOp16
 70
     1
102
RTVSPropertyOp17
 70
     1
102
RTVSPropertyOp18
 70
     1
102
RTVSPropertyOp19
 70
     1
102
RTVSPropertyOp20
 70
     1
102
RTVSPropertyOp21
 70
     1
102
RTVSPropertyOp22
 70
     1
102
RTVSPropertyOp23
 70
     1
102
RTVSPropertyOp24
 70
     1
102
RTVSPropertyOp25
 70
     1
102
RTVSPropertyOp26
 70
     1
102
RTVSPropertyOp27
 70
     1
  0
XRECORD
  5
FFC
102
{ACAD_REACTORS
330
FFB
102
}
330
FFB
100
AcDbXrecord
280
     1
102
RTVSPropertyOp0
 70
     1
102
RTVSPropertyOp1
 70
     1
102
RTVSPropertyOp2
 70
     1
102
RTVSPropertyOp3
 70
     1
102
RTVSPropertyOp4
 70
     1
102
RTVSPropertyOp5
 70
     1
102
RTVSPropertyOp6
 70
     1
102
RTVSPropertyOp7
 70
     1
102
RTVSPropertyOp8
 70
     1
102
RTVSPropertyOp9
 70
     1
102
RTVSPropertyOp10
 70
     1
102
RTVSPropertyOp11
 70
     1
102
RTVSPropertyOp12
 70
     1
102
RTVSPropertyOp13
 70
     1
102
RTVSPropertyOp14
 70
     1
102
RTVSPropertyOp15
 70
     1
102
RTVSPropertyOp16
 70
     1
102
RTVSPropertyOp17
 70
     1
102
RTVSPropertyOp18
 70
     1
102
RTVSPropertyOp19
 70
     1
102
RTVSPropertyOp20
 70
     1
102
RTVSPropertyOp21
 70
     1
102
RTVSPropertyOp22
 70
     1
102
RTVSPropertyOp23
 70
     1
102
RTVSPropertyOp24
 70
     1
102
RTVSPropertyOp25
 70
     1
102
RTVSPropertyOp26
 70
     1
102
RTVSPropertyOp27
 70
     1
  0
XRECORD
  5
FFA
102
{ACAD_REACTORS
330
FF9
102
}
330
FF9
100
AcDbXrecord
280
     1
102
RTVSPropertyOp0
 70
     1
102
RTVSPropertyOp1
 70
     1
102
RTVSPropertyOp2
 70
     1
102
RTVSPropertyOp3
 70
     1
102
RTVSPropertyOp4
 70
     1
102
RTVSPropertyOp5
 70
     1
102
RTVSPropertyOp6
 70
     1
102
RTVSPropertyOp7
 70
     1
102
RTVSPropertyOp8
 70
     1
102
RTVSPropertyOp9
 70
     1
102
RTVSPropertyOp10
 70
     1
102
RTVSPropertyOp11
 70
     1
102
RTVSPropertyOp12
 70
     1
102
RTVSPropertyOp13
 70
     1
102
RTVSPropertyOp14
 70
     1
102
RTVSPropertyOp15
 70
     1
102
RTVSPropertyOp16
 70
     1
102
RTVSPropertyOp17
 70
     1
102
RTVSPropertyOp18
 70
     1
102
RTVSPropertyOp19
 70
     1
102
RTVSPropertyOp20
 70
     1
102
RTVSPropertyOp21
 70
     1
102
RTVSPropertyOp22
 70
     1
102
RTVSPropertyOp23
 70
     1
102
RTVSPropertyOp24
 70
     1
102
RTVSPropertyOp25
 70
     1
102
RTVSPropertyOp26
 70
     1
102
RTVSPropertyOp27
 70
     1
  0
XRECORD
  5
F9D
102
{ACAD_REACTORS
330
F9C
102
}
330
F9C
100
AcDbXrecord
280
     1
102
RTVSPropertyOp0
 70
     1
102
RTVSPropertyOp1
 70
     1
102
RTVSPropertyOp2
 70
     1
102
RTVSPropertyOp3
 70
     1
102
RTVSPropertyOp4
 70
     1
102
RTVSPropertyOp5
 70
     1
102
RTVSPropertyOp6
 70
     1
102
RTVSPropertyOp7
 70
     1
102
RTVSPropertyOp8
 70
     1
102
RTVSPropertyOp9
 70
     1
102
RTVSPropertyOp10
 70
     1
102
RTVSPropertyOp11
 70
     1
102
RTVSPropertyOp12
 70
     1
102
RTVSPropertyOp13
 70
     1
102
RTVSPropertyOp14
 70
     1
102
RTVSPropertyOp15
 70
     1
102
RTVSPropertyOp16
 70
     1
102
RTVSPropertyOp17
 70
     1
102
RTVSPropertyOp18
 70
     1
102
RTVSPropertyOp19
 70
     1
102
RTVSPropertyOp20
 70
     1
102
RTVSPropertyOp21
 70
     1
102
RTVSPropertyOp22
 70
     1
102
RTVSPropertyOp23
 70
     1
102
RTVSPropertyOp24
 70
     1
102
RTVSPropertyOp25
 70
     1
102
RTVSPropertyOp26
 70
     1
102
RTVSPropertyOp27
 70
     1
  0
XRECORD
  5
FAB
102
{ACAD_REACTORS
330
FAA
102
}
330
FAA
100
AcDbXrecord
280
     1
102
RTVSPropertyOp0
 70
     1
102
RTVSPropertyOp1
 70
     1
102
RTVSPropertyOp2
 70
     1
102
RTVSPropertyOp3
 70
     1
102
RTVSPropertyOp4
 70
     1
102
RTVSPropertyOp5
 70
     1
102
RTVSPropertyOp6
 70
     1
102
RTVSPropertyOp7
 70
     1
102
RTVSPropertyOp8
 70
     1
102
RTVSPropertyOp9
 70
     1
102
RTVSPropertyOp10
 70
     1
102
RTVSPropertyOp11
 70
     1
102
RTVSPropertyOp12
 70
     1
102
RTVSPropertyOp13
 70
     1
102
RTVSPropertyOp14
 70
     1
102
RTVSPropertyOp15
 70
     1
102
RTVSPropertyOp16
 70
     1
102
RTVSPropertyOp17
 70
     1
102
RTVSPropertyOp18
 70
     1
102
RTVSPropertyOp19
 70
     1
102
RTVSPropertyOp20
 70
     1
102
RTVSPropertyOp21
 70
     1
102
RTVSPropertyOp22
 70
     1
102
RTVSPropertyOp23
 70
     1
102
RTVSPropertyOp24
 70
     1
102
RTVSPropertyOp25
 70
     1
102
RTVSPropertyOp26
 70
     1
102
RTVSPropertyOp27
 70
     1
  0
XRECORD
  5
FB3
102
{ACAD_REACTORS
330
FB2
102
}
330
FB2
100
AcDbXrecord
280
     1
102
RTVSPropertyOp0
 70
     1
102
RTVSPropertyOp1
 70
     1
102
RTVSPropertyOp2
 70
     1
102
RTVSPropertyOp3
 70
     1
102
RTVSPropertyOp4
 70
     1
102
RTVSPropertyOp5
 70
     1
102
RTVSPropertyOp6
 70
     1
102
RTVSPropertyOp7
 70
     1
102
RTVSPropertyOp8
 70
     1
102
RTVSPropertyOp9
 70
     1
102
RTVSPropertyOp10
 70
     1
102
RTVSPropertyOp11
 70
     1
102
RTVSPropertyOp12
 70
     1
102
RTVSPropertyOp13
 70
     1
102
RTVSPropertyOp14
 70
     1
102
RTVSPropertyOp15
 70
     1
102
RTVSPropertyOp16
 70
     1
102
RTVSPropertyOp17
 70
     1
102
RTVSPropertyOp18
 70
     1
102
RTVSPropertyOp19
 70
     1
102
RTVSPropertyOp20
 70
     1
102
RTVSPropertyOp21
 70
     1
102
RTVSPropertyOp22
 70
     1
102
RTVSPropertyOp23
 70
     1
102
RTVSPropertyOp24
 70
     1
102
RTVSPropertyOp25
 70
     1
102
RTVSPropertyOp26
 70
     1
102
RTVSPropertyOp27
 70
     1
  0
XRECORD
  5
FA5
102
{ACAD_REACTORS
330
FA4
102
}
330
FA4
100
AcDbXrecord
280
     1
102
RTVSPropertyOp0
 70
     1
102
RTVSPropertyOp1
 70
     1
102
RTVSPropertyOp2
 70
     1
102
RTVSPropertyOp3
 70
     1
102
RTVSPropertyOp4
 70
     1
102
RTVSPropertyOp5
 70
     1
102
RTVSPropertyOp6
 70
     1
102
RTVSPropertyOp7
 70
     1
102
RTVSPropertyOp8
 70
     1
102
RTVSPropertyOp9
 70
     1
102
RTVSPropertyOp10
 70
     1
102
RTVSPropertyOp11
 70
     1
102
RTVSPropertyOp12
 70
     1
102
RTVSPropertyOp13
 70
     1
102
RTVSPropertyOp14
 70
     1
102
RTVSPropertyOp15
 70
     1
102
RTVSPropertyOp16
 70
     1
102
RTVSPropertyOp17
 70
     1
102
RTVSPropertyOp18
 70
     1
102
RTVSPropertyOp19
 70
     1
102
RTVSPropertyOp20
 70
     1
102
RTVSPropertyOp21
 70
     1
102
RTVSPropertyOp22
 70
     1
102
RTVSPropertyOp23
 70
     1
102
RTVSPropertyOp24
 70
     1
102
RTVSPropertyOp25
 70
     1
102
RTVSPropertyOp26
 70
     1
102
RTVSPropertyOp27
 70
     1
  0
XRECORD
  5
FA9
102
{ACAD_REACTORS
330
FA8
102
}
330
FA8
100
AcDbXrecord
280
     1
102
RTVSPropertyOp0
 70
     1
102
RTVSPropertyOp1
 70
     1
102
RTVSPropertyOp2
 70
     1
102
RTVSPropertyOp3
 70
     1
102
RTVSPropertyOp4
 70
     1
102
RTVSPropertyOp5
 70
     1
102
RTVSPropertyOp6
 70
     1
102
RTVSPropertyOp7
 70
     1
102
RTVSPropertyOp8
 70
     1
102
RTVSPropertyOp9
 70
     1
102
RTVSPropertyOp10
 70
     1
102
RTVSPropertyOp11
 70
     1
102
RTVSPropertyOp12
 70
     1
102
RTVSPropertyOp13
 70
     1
102
RTVSPropertyOp14
 70
     1
102
RTVSPropertyOp15
 70
     1
102
RTVSPropertyOp16
 70
     1
102
RTVSPropertyOp17
 70
     1
102
RTVSPropertyOp18
 70
     1
102
RTVSPropertyOp19
 70
     1
102
RTVSPropertyOp20
 70
     1
102
RTVSPropertyOp21
 70
     1
102
RTVSPropertyOp22
 70
     1
102
RTVSPropertyOp23
 70
     1
102
RTVSPropertyOp24
 70
     1
102
RTVSPropertyOp25
 70
     1
102
RTVSPropertyOp26
 70
     1
102
RTVSPropertyOp27
 70
     1
  0
XRECORD
  5
FC3
102
{ACAD_REACTORS
330
FC2
102
}
330
FC2
100
AcDbXrecord
280
     1
102
RTVSPropertyOp0
 70
     0
102
RTVSPropertyOp1
 70
     0
102
RTVSPropertyOp2
 70
     0
102
RTVSPropertyOp3
 70
     0
102
RTVSPropertyOp4
 70
     0
102
RTVSPropertyOp5
 70
     0
102
RTVSPropertyOp6
 70
     0
102
RTVSPropertyOp7
 70
     0
102
RTVSPropertyOp8
 70
     0
102
RTVSPropertyOp9
 70
     0
102
RTVSPropertyOp10
 70
     0
102
RTVSPropertyOp11
 70
     0
102
RTVSPropertyOp12
 70
     0
102
RTVSPropertyOp13
 70
     0
102
RTVSPropertyOp14
 70
     2
102
RTVSPropertyOp15
 70
     0
102
RTVSPropertyOp16
 70
     0
102
RTVSPropertyOp17
 70
     0
102
RTVSPropertyOp18
 70
     0
102
RTVSPropertyOp19
 70
     0
102
RTVSPropertyOp20
 70
     0
102
RTVSPropertyOp21
 70
     0
102
RTVSPropertyOp22
 70
     0
102
RTVSPropertyOp23
 70
     0
102
RTVSPropertyOp24
 70
     0
102
RTVSPropertyOp25
 70
     0
102
RTVSPropertyOp26
 70
     0
102
RTVSPropertyOp27
 70
     0
  0
XRECORD
  5
FB1
102
{ACAD_REACTORS
330
FB0
102
}
330
FB0
100
AcDbXrecord
280
     1
102
RTVSPropertyOp0
 70
     1
102
RTVSPropertyOp1
 70
     1
102
RTVSPropertyOp2
 70
     1
102
RTVSPropertyOp3
 70
     1
102
RTVSPropertyOp4
 70
     1
102
RTVSPropertyOp5
 70
     1
102
RTVSPropertyOp6
 70
     1
102
RTVSPropertyOp7
 70
     1
102
RTVSPropertyOp8
 70
     1
102
RTVSPropertyOp9
 70
     1
102
RTVSPropertyOp10
 70
     1
102
RTVSPropertyOp11
 70
     1
102
RTVSPropertyOp12
 70
     1
102
RTVSPropertyOp13
 70
     1
102
RTVSPropertyOp14
 70
     1
102
RTVSPropertyOp15
 70
     1
102
RTVSPropertyOp16
 70
     1
102
RTVSPropertyOp17
 70
     1
102
RTVSPropertyOp18
 70
     1
102
RTVSPropertyOp19
 70
     1
102
RTVSPropertyOp20
 70
     1
102
RTVSPropertyOp21
 70
     1
102
RTVSPropertyOp22
 70
     1
102
RTVSPropertyOp23
 70
     1
102
RTVSPropertyOp24
 70
     1
102
RTVSPropertyOp25
 70
     1
102
RTVSPropertyOp26
 70
     1
102
RTVSPropertyOp27
 70
     1
  0
XRECORD
  5
F95
102
{ACAD_REACTORS
330
F94
102
}
330
F94
100
AcDbXrecord
280
     1
102
RTVSPropertyOp0
 70
     1
102
RTVSPropertyOp1
 70
     1
102
RTVSPropertyOp2
 70
     1
102
RTVSPropertyOp3
 70
     1
102
RTVSPropertyOp4
 70
     1
102
RTVSPropertyOp5
 70
     1
102
RTVSPropertyOp6
 70
     1
102
RTVSPropertyOp7
 70
     1
102
RTVSPropertyOp8
 70
     1
102
RTVSPropertyOp9
 70
     1
102
RTVSPropertyOp10
 70
     1
102
RTVSPropertyOp11
 70
     1
102
RTVSPropertyOp12
 70
     1
102
RTVSPropertyOp13
 70
     1
102
RTVSPropertyOp14
 70
     1
102
RTVSPropertyOp15
 70
     1
102
RTVSPropertyOp16
 70
     1
102
RTVSPropertyOp17
 70
     1
102
RTVSPropertyOp18
 70
     1
102
RTVSPropertyOp19
 70
     1
102
RTVSPropertyOp20
 70
     1
102
RTVSPropertyOp21
 70
     1
102
RTVSPropertyOp22
 70
     1
102
RTVSPropertyOp23
 70
     1
102
RTVSPropertyOp24
 70
     1
102
RTVSPropertyOp25
 70
     1
102
RTVSPropertyOp26
 70
     1
102
RTVSPropertyOp27
 70
     1
  0
XRECORD
  5
F97
102
{ACAD_REACTORS
330
F96
102
}
330
F96
100
AcDbXrecord
280
     1
102
RTVSPropertyOp0
 70
     1
102
RTVSPropertyOp1
 70
     1
102
RTVSPropertyOp2
 70
     1
102
RTVSPropertyOp3
 70
     1
102
RTVSPropertyOp4
 70
     1
102
RTVSPropertyOp5
 70
     1
102
RTVSPropertyOp6
 70
     1
102
RTVSPropertyOp7
 70
     1
102
RTVSPropertyOp8
 70
     1
102
RTVSPropertyOp9
 70
     1
102
RTVSPropertyOp10
 70
     1
102
RTVSPropertyOp11
 70
     1
102
RTVSPropertyOp12
 70
     1
102
RTVSPropertyOp13
 70
     1
102
RTVSPropertyOp14
 70
     1
102
RTVSPropertyOp15
 70
     1
102
RTVSPropertyOp16
 70
     1
102
RTVSPropertyOp17
 70
     1
102
RTVSPropertyOp18
 70
     1
102
RTVSPropertyOp19
 70
     1
102
RTVSPropertyOp20
 70
     1
102
RTVSPropertyOp21
 70
     1
102
RTVSPropertyOp22
 70
     1
102
RTVSPropertyOp23
 70
     1
102
RTVSPropertyOp24
 70
     1
102
RTVSPropertyOp25
 70
     1
102
RTVSPropertyOp26
 70
     1
102
RTVSPropertyOp27
 70
     1
  0
XRECORD
  5
F99
102
{ACAD_REACTORS
330
F98
102
}
330
F98
100
AcDbXrecord
280
     1
102
RTVSPropertyOp0
 70
     1
102
RTVSPropertyOp1
 70
     1
102
RTVSPropertyOp2
 70
     1
102
RTVSPropertyOp3
 70
     1
102
RTVSPropertyOp4
 70
     1
102
RTVSPropertyOp5
 70
     1
102
RTVSPropertyOp6
 70
     1
102
RTVSPropertyOp7
 70
     1
102
RTVSPropertyOp8
 70
     1
102
RTVSPropertyOp9
 70
     1
102
RTVSPropertyOp10
 70
     1
102
RTVSPropertyOp11
 70
     1
102
RTVSPropertyOp12
 70
     1
102
RTVSPropertyOp13
 70
     1
102
RTVSPropertyOp14
 70
     1
102
RTVSPropertyOp15
 70
     1
102
RTVSPropertyOp16
 70
     1
102
RTVSPropertyOp17
 70
     1
102
RTVSPropertyOp18
 70
     1
102
RTVSPropertyOp19
 70
     1
102
RTVSPropertyOp20
 70
     1
102
RTVSPropertyOp21
 70
     1
102
RTVSPropertyOp22
 70
     1
102
RTVSPropertyOp23
 70
     1
102
RTVSPropertyOp24
 70
     1
102
RTVSPropertyOp25
 70
     1
102
RTVSPropertyOp26
 70
     1
102
RTVSPropertyOp27
 70
     1
  0
XRECORD
  5
F9B
102
{ACAD_REACTORS
330
F9A
102
}
330
F9A
100
AcDbXrecord
280
     1
102
RTVSPropertyOp0
 70
     1
102
RTVSPropertyOp1
 70
     1
102
RTVSPropertyOp2
 70
     1
102
RTVSPropertyOp3
 70
     1
102
RTVSPropertyOp4
 70
     1
102
RTVSPropertyOp5
 70
     1
102
RTVSPropertyOp6
 70
     1
102
RTVSPropertyOp7
 70
     1
102
RTVSPropertyOp8
 70
     1
102
RTVSPropertyOp9
 70
     1
102
RTVSPropertyOp10
 70
     1
102
RTVSPropertyOp11
 70
     1
102
RTVSPropertyOp12
 70
     1
102
RTVSPropertyOp13
 70
     1
102
RTVSPropertyOp14
 70
     1
102
RTVSPropertyOp15
 70
     1
102
RTVSPropertyOp16
 70
     1
102
RTVSPropertyOp17
 70
     1
102
RTVSPropertyOp18
 70
     1
102
RTVSPropertyOp19
 70
     1
102
RTVSPropertyOp20
 70
     1
102
RTVSPropertyOp21
 70
     1
102
RTVSPropertyOp22
 70
     1
102
RTVSPropertyOp23
 70
     1
102
RTVSPropertyOp24
 70
     1
102
RTVSPropertyOp25
 70
     1
102
RTVSPropertyOp26
 70
     1
102
RTVSPropertyOp27
 70
     1
  0
XRECORD
  5
FA3
102
{ACAD_REACTORS
330
FA2
102
}
330
FA2
100
AcDbXrecord
280
     1
102
RTVSPropertyOp0
 70
     1
102
RTVSPropertyOp1
 70
     1
102
RTVSPropertyOp2
 70
     1
102
RTVSPropertyOp3
 70
     1
102
RTVSPropertyOp4
 70
     1
102
RTVSPropertyOp5
 70
     1
102
RTVSPropertyOp6
 70
     1
102
RTVSPropertyOp7
 70
     1
102
RTVSPropertyOp8
 70
     1
102
RTVSPropertyOp9
 70
     1
102
RTVSPropertyOp10
 70
     1
102
RTVSPropertyOp11
 70
     1
102
RTVSPropertyOp12
 70
     1
102
RTVSPropertyOp13
 70
     1
102
RTVSPropertyOp14
 70
     1
102
RTVSPropertyOp15
 70
     1
102
RTVSPropertyOp16
 70
     1
102
RTVSPropertyOp17
 70
     1
102
RTVSPropertyOp18
 70
     1
102
RTVSPropertyOp19
 70
     1
102
RTVSPropertyOp20
 70
     1
102
RTVSPropertyOp21
 70
     1
102
RTVSPropertyOp22
 70
     1
102
RTVSPropertyOp23
 70
     1
102
RTVSPropertyOp24
 70
     1
102
RTVSPropertyOp25
 70
     1
102
RTVSPropertyOp26
 70
     1
102
RTVSPropertyOp27
 70
     1
  0
XRECORD
  5
FBF
102
{ACAD_REACTORS
330
FBE
102
}
330
FBE
100
AcDbXrecord
280
     1
102
RTVSPropertyOp0
 70
     0
102
RTVSPropertyOp1
 70
     0
102
RTVSPropertyOp2
 70
     0
102
RTVSPropertyOp3
 70
     0
102
RTVSPropertyOp4
 70
     0
102
RTVSPropertyOp5
 70
     0
102
RTVSPropertyOp6
 70
     0
102
RTVSPropertyOp7
 70
     0
102
RTVSPropertyOp8
 70
     0
102
RTVSPropertyOp9
 70
     0
102
RTVSPropertyOp10
 70
     0
102
RTVSPropertyOp11
 70
     0
102
RTVSPropertyOp12
 70
     0
102
RTVSPropertyOp13
 70
     0
102
RTVSPropertyOp14
 70
     2
102
RTVSPropertyOp15
 70
     0
102
RTVSPropertyOp16
 70
     0
102
RTVSPropertyOp17
 70
     0
102
RTVSPropertyOp18
 70
     0
102
RTVSPropertyOp19
 70
     0
102
RTVSPropertyOp20
 70
     0
102
RTVSPropertyOp21
 70
     0
102
RTVSPropertyOp22
 70
     0
102
RTVSPropertyOp23
 70
     0
102
RTVSPropertyOp24
 70
     0
102
RTVSPropertyOp25
 70
     0
102
RTVSPropertyOp26
 70
     0
102
RTVSPropertyOp27
 70
     0
  0
XRECORD
  5
FAF
102
{ACAD_REACTORS
330
FAE
102
}
330
FAE
100
AcDbXrecord
280
     1
102
RTVSPropertyOp0
 70
     1
102
RTVSPropertyOp1
 70
     1
102
RTVSPropertyOp2
 70
     1
102
RTVSPropertyOp3
 70
     1
102
RTVSPropertyOp4
 70
     1
102
RTVSPropertyOp5
 70
     1
102
RTVSPropertyOp6
 70
     1
102
RTVSPropertyOp7
 70
     1
102
RTVSPropertyOp8
 70
     1
102
RTVSPropertyOp9
 70
     1
102
RTVSPropertyOp10
 70
     1
102
RTVSPropertyOp11
 70
     1
102
RTVSPropertyOp12
 70
     1
102
RTVSPropertyOp13
 70
     1
102
RTVSPropertyOp14
 70
     1
102
RTVSPropertyOp15
 70
     1
102
RTVSPropertyOp16
 70
     1
102
RTVSPropertyOp17
 70
     1
102
RTVSPropertyOp18
 70
     1
102
RTVSPropertyOp19
 70
     1
102
RTVSPropertyOp20
 70
     1
102
RTVSPropertyOp21
 70
     1
102
RTVSPropertyOp22
 70
     1
102
RTVSPropertyOp23
 70
     1
102
RTVSPropertyOp24
 70
     1
102
RTVSPropertyOp25
 70
     1
102
RTVSPropertyOp26
 70
     1
102
RTVSPropertyOp27
 70
     1
  0
XRECORD
  5
FC1
102
{ACAD_REACTORS
330
FC0
102
}
330
FC0
100
AcDbXrecord
280
     1
102
RTVSPropertyOp0
 70
     0
102
RTVSPropertyOp1
 70
     0
102
RTVSPropertyOp2
 70
     0
102
RTVSPropertyOp3
 70
     0
102
RTVSPropertyOp4
 70
     0
102
RTVSPropertyOp5
 70
     0
102
RTVSPropertyOp6
 70
     0
102
RTVSPropertyOp7
 70
     0
102
RTVSPropertyOp8
 70
     0
102
RTVSPropertyOp9
 70
     0
102
RTVSPropertyOp10
 70
     0
102
RTVSPropertyOp11
 70
     0
102
RTVSPropertyOp12
 70
     0
102
RTVSPropertyOp13
 70
     0
102
RTVSPropertyOp14
 70
     2
102
RTVSPropertyOp15
 70
     0
102
RTVSPropertyOp16
 70
     0
102
RTVSPropertyOp17
 70
     0
102
RTVSPropertyOp18
 70
     0
102
RTVSPropertyOp19
 70
     0
102
RTVSPropertyOp20
 70
     0
102
RTVSPropertyOp21
 70
     0
102
RTVSPropertyOp22
 70
     0
102
RTVSPropertyOp23
 70
     0
102
RTVSPropertyOp24
 70
     0
102
RTVSPropertyOp25
 70
     0
102
RTVSPropertyOp26
 70
     0
102
RTVSPropertyOp27
 70
     0
  0
XRECORD
  5
FA7
102
{ACAD_REACTORS
330
FA6
102
}
330
FA6
100
AcDbXrecord
280
     1
102
RTVSPropertyOp0
 70
     1
102
RTVSPropertyOp1
 70
     1
102
RTVSPropertyOp2
 70
     1
102
RTVSPropertyOp3
 70
     1
102
RTVSPropertyOp4
 70
     1
102
RTVSPropertyOp5
 70
     1
102
RTVSPropertyOp6
 70
     1
102
RTVSPropertyOp7
 70
     1
102
RTVSPropertyOp8
 70
     1
102
RTVSPropertyOp9
 70
     1
102
RTVSPropertyOp10
 70
     1
102
RTVSPropertyOp11
 70
     1
102
RTVSPropertyOp12
 70
     1
102
RTVSPropertyOp13
 70
     1
102
RTVSPropertyOp14
 70
     1
102
RTVSPropertyOp15
 70
     1
102
RTVSPropertyOp16
 70
     1
102
RTVSPropertyOp17
 70
     1
102
RTVSPropertyOp18
 70
     1
102
RTVSPropertyOp19
 70
     1
102
RTVSPropertyOp20
 70
     1
102
RTVSPropertyOp21
 70
     1
102
RTVSPropertyOp22
 70
     1
102
RTVSPropertyOp23
 70
     1
102
RTVSPropertyOp24
 70
     1
102
RTVSPropertyOp25
 70
     1
102
RTVSPropertyOp26
 70
     1
102
RTVSPropertyOp27
 70
     1
  0
XRECORD
  5
FBD
102
{ACAD_REACTORS
330
FBC
102
}
330
FBC
100
AcDbXrecord
280
     1
102
RTVSPropertyOp0
 70
     1
102
RTVSPropertyOp1
 70
     1
102
RTVSPropertyOp2
 70
     1
102
RTVSPropertyOp3
 70
     1
102
RTVSPropertyOp4
 70
     1
102
RTVSPropertyOp5
 70
     1
102
RTVSPropertyOp6
 70
     1
102
RTVSPropertyOp7
 70
     1
102
RTVSPropertyOp8
 70
     1
102
RTVSPropertyOp9
 70
     1
102
RTVSPropertyOp10
 70
     1
102
RTVSPropertyOp11
 70
     1
102
RTVSPropertyOp12
 70
     1
102
RTVSPropertyOp13
 70
     1
102
RTVSPropertyOp14
 70
     1
102
RTVSPropertyOp15
 70
     1
102
RTVSPropertyOp16
 70
     1
102
RTVSPropertyOp17
 70
     1
102
RTVSPropertyOp18
 70
     1
102
RTVSPropertyOp19
 70
     1
102
RTVSPropertyOp20
 70
     1
102
RTVSPropertyOp21
 70
     1
102
RTVSPropertyOp22
 70
     1
102
RTVSPropertyOp23
 70
     1
102
RTVSPropertyOp24
 70
     1
102
RTVSPropertyOp25
 70
     1
102
RTVSPropertyOp26
 70
     1
102
RTVSPropertyOp27
 70
     1
  0
XRECORD
  5
FBB
102
{ACAD_REACTORS
330
FBA
102
}
330
FBA
100
AcDbXrecord
280
     1
102
RTVSPropertyOp0
 70
     1
102
RTVSPropertyOp1
 70
     1
102
RTVSPropertyOp2
 70
     1
102
RTVSPropertyOp3
 70
     1
102
RTVSPropertyOp4
 70
     1
102
RTVSPropertyOp5
 70
     1
102
RTVSPropertyOp6
 70
     1
102
RTVSPropertyOp7
 70
     1
102
RTVSPropertyOp8
 70
     1
102
RTVSPropertyOp9
 70
     1
102
RTVSPropertyOp10
 70
     1
102
RTVSPropertyOp11
 70
     1
102
RTVSPropertyOp12
 70
     1
102
RTVSPropertyOp13
 70
     1
102
RTVSPropertyOp14
 70
     1
102
RTVSPropertyOp15
 70
     1
102
RTVSPropertyOp16
 70
     1
102
RTVSPropertyOp17
 70
     1
102
RTVSPropertyOp18
 70
     1
102
RTVSPropertyOp19
 70
     1
102
RTVSPropertyOp20
 70
     1
102
RTVSPropertyOp21
 70
     1
102
RTVSPropertyOp22
 70
     1
102
RTVSPropertyOp23
 70
     1
102
RTVSPropertyOp24
 70
     1
102
RTVSPropertyOp25
 70
     1
102
RTVSPropertyOp26
 70
     1
102
RTVSPropertyOp27
 70
     1
  0
XRECORD
  5
FB5
102
{ACAD_REACTORS
330
FB4
102
}
330
FB4
100
AcDbXrecord
280
     1
102
RTVSPropertyOp0
 70
     1
102
RTVSPropertyOp1
 70
     1
102
RTVSPropertyOp2
 70
     1
102
RTVSPropertyOp3
 70
     1
102
RTVSPropertyOp4
 70
     1
102
RTVSPropertyOp5
 70
     1
102
RTVSPropertyOp6
 70
     1
102
RTVSPropertyOp7
 70
     1
102
RTVSPropertyOp8
 70
     1
102
RTVSPropertyOp9
 70
     1
102
RTVSPropertyOp10
 70
     1
102
RTVSPropertyOp11
 70
     1
102
RTVSPropertyOp12
 70
     1
102
RTVSPropertyOp13
 70
     1
102
RTVSPropertyOp14
 70
     1
102
RTVSPropertyOp15
 70
     1
102
RTVSPropertyOp16
 70
     1
102
RTVSPropertyOp17
 70
     1
102
RTVSPropertyOp18
 70
     1
102
RTVSPropertyOp19
 70
     1
102
RTVSPropertyOp20
 70
     1
102
RTVSPropertyOp21
 70
     1
102
RTVSPropertyOp22
 70
     1
102
RTVSPropertyOp23
 70
     1
102
RTVSPropertyOp24
 70
     1
102
RTVSPropertyOp25
 70
     1
102
RTVSPropertyOp26
 70
     1
102
RTVSPropertyOp27
 70
     1
  0
XRECORD
  5
FB7
102
{ACAD_REACTORS
330
FB6
102
}
330
FB6
100
AcDbXrecord
280
     1
102
RTVSPropertyOp0
 70
     1
102
RTVSPropertyOp1
 70
     1
102
RTVSPropertyOp2
 70
     1
102
RTVSPropertyOp3
 70
     1
102
RTVSPropertyOp4
 70
     1
102
RTVSPropertyOp5
 70
     1
102
RTVSPropertyOp6
 70
     1
102
RTVSPropertyOp7
 70
     1
102
RTVSPropertyOp8
 70
     1
102
RTVSPropertyOp9
 70
     1
102
RTVSPropertyOp10
 70
     1
102
RTVSPropertyOp11
 70
     1
102
RTVSPropertyOp12
 70
     1
102
RTVSPropertyOp13
 70
     1
102
RTVSPropertyOp14
 70
     1
102
RTVSPropertyOp15
 70
     1
102
RTVSPropertyOp16
 70
     1
102
RTVSPropertyOp17
 70
     1
102
RTVSPropertyOp18
 70
     1
102
RTVSPropertyOp19
 70
     1
102
RTVSPropertyOp20
 70
     1
102
RTVSPropertyOp21
 70
     1
102
RTVSPropertyOp22
 70
     1
102
RTVSPropertyOp23
 70
     1
102
RTVSPropertyOp24
 70
     1
102
RTVSPropertyOp25
 70
     1
102
RTVSPropertyOp26
 70
     1
102
RTVSPropertyOp27
 70
     1
  0
XRECORD
  5
FAD
102
{ACAD_REACTORS
330
FAC
102
}
330
FAC
100
AcDbXrecord
280
     1
102
RTVSPropertyOp0
 70
     1
102
RTVSPropertyOp1
 70
     1
102
RTVSPropertyOp2
 70
     1
102
RTVSPropertyOp3
 70
     1
102
RTVSPropertyOp4
 70
     1
102
RTVSPropertyOp5
 70
     1
102
RTVSPropertyOp6
 70
     1
102
RTVSPropertyOp7
 70
     1
102
RTVSPropertyOp8
 70
     1
102
RTVSPropertyOp9
 70
     1
102
RTVSPropertyOp10
 70
     1
102
RTVSPropertyOp11
 70
     1
102
RTVSPropertyOp12
 70
     1
102
RTVSPropertyOp13
 70
     1
102
RTVSPropertyOp14
 70
     1
102
RTVSPropertyOp15
 70
     1
102
RTVSPropertyOp16
 70
     1
102
RTVSPropertyOp17
 70
     1
102
RTVSPropertyOp18
 70
     1
102
RTVSPropertyOp19
 70
     1
102
RTVSPropertyOp20
 70
     1
102
RTVSPropertyOp21
 70
     1
102
RTVSPropertyOp22
 70
     1
102
RTVSPropertyOp23
 70
     1
102
RTVSPropertyOp24
 70
     1
102
RTVSPropertyOp25
 70
     1
102
RTVSPropertyOp26
 70
     1
102
RTVSPropertyOp27
 70
     1
  0
XRECORD
  5
FA1
102
{ACAD_REACTORS
330
FA0
102
}
330
FA0
100
AcDbXrecord
280
     1
102
RTVSPropertyOp0
 70
     1
102
RTVSPropertyOp1
 70
     1
102
RTVSPropertyOp2
 70
     1
102
RTVSPropertyOp3
 70
     1
102
RTVSPropertyOp4
 70
     1
102
RTVSPropertyOp5
 70
     1
102
RTVSPropertyOp6
 70
     1
102
RTVSPropertyOp7
 70
     1
102
RTVSPropertyOp8
 70
     1
102
RTVSPropertyOp9
 70
     1
102
RTVSPropertyOp10
 70
     1
102
RTVSPropertyOp11
 70
     1
102
RTVSPropertyOp12
 70
     1
102
RTVSPropertyOp13
 70
     1
102
RTVSPropertyOp14
 70
     1
102
RTVSPropertyOp15
 70
     1
102
RTVSPropertyOp16
 70
     1
102
RTVSPropertyOp17
 70
     1
102
RTVSPropertyOp18
 70
     1
102
RTVSPropertyOp19
 70
     1
102
RTVSPropertyOp20
 70
     1
102
RTVSPropertyOp21
 70
     1
102
RTVSPropertyOp22
 70
     1
102
RTVSPropertyOp23
 70
     1
102
RTVSPropertyOp24
 70
     1
102
RTVSPropertyOp25
 70
     1
102
RTVSPropertyOp26
 70
     1
102
RTVSPropertyOp27
 70
     1
  0
XRECORD
  5
FB9
102
{ACAD_REACTORS
330
FB8
102
}
330
FB8
100
AcDbXrecord
280
     1
102
RTVSPropertyOp0
 70
     1
102
RTVSPropertyOp1
 70
     1
102
RTVSPropertyOp2
 70
     1
102
RTVSPropertyOp3
 70
     1
102
RTVSPropertyOp4
 70
     1
102
RTVSPropertyOp5
 70
     1
102
RTVSPropertyOp6
 70
     1
102
RTVSPropertyOp7
 70
     1
102
RTVSPropertyOp8
 70
     1
102
RTVSPropertyOp9
 70
     1
102
RTVSPropertyOp10
 70
     1
102
RTVSPropertyOp11
 70
     1
102
RTVSPropertyOp12
 70
     1
102
RTVSPropertyOp13
 70
     1
102
RTVSPropertyOp14
 70
     1
102
RTVSPropertyOp15
 70
     1
102
RTVSPropertyOp16
 70
     1
102
RTVSPropertyOp17
 70
     1
102
RTVSPropertyOp18
 70
     1
102
RTVSPropertyOp19
 70
     1
102
RTVSPropertyOp20
 70
     1
102
RTVSPropertyOp21
 70
     1
102
RTVSPropertyOp22
 70
     1
102
RTVSPropertyOp23
 70
     1
102
RTVSPropertyOp24
 70
     1
102
RTVSPropertyOp25
 70
     1
102
RTVSPropertyOp26
 70
     1
102
RTVSPropertyOp27
 70
     1
  0
ENDSEC
  0
EOF
