  0
SECTION
  2
HEADER
  9
$ACADVER
  1
AC1018
  9
$ACADMAINTVER
 70
   104
  9
$DWGCODEPAGE
  3
ANSI_1250
  9
$AUTHOR
  1
tmrtka
  9
$LASTSAVEDBY
  1
onovak
  9
$REVISIONNUMBER
  1
000
  9
$CUSTOMPROPERTYTAG
  1
Vedoucí
  9
$CUSTOMPROPERTY
  1

  9
$CUSTOMPROPERTYTAG
  1
Společnost
  9
$CUSTOMPROPERTY
  1

  9
$CUSTOMPROPERTYTAG
  1
Kategorie
  9
$CUSTOMPROPERTY
  1

  9
$CUSTOMPROPERTYTAG
  1
Číslo součásti
  9
$CUSTOMPROPERTY
  1
414720
  9
$CUSTOMPROPERTYTAG
  1
Popis
  9
$CUSTOMPROPERTY
  1

  9
$CUSTOMPROPERTYTAG
  1
Projekt
  9
$CUSTOMPROPERTY
  1

  9
$CUSTOMPROPERTYTAG
  1
Kreslil
  9
$CUSTOMPROPERTY
  1
tmrtka
  9
$CUSTOMPROPERTYTAG
  1
Schválil
  9
$CUSTOMPROPERTY
  1

  9
$CUSTOMPROPERTYTAG
  1
Zodpovídá
  9
$CUSTOMPROPERTY
  1

  9
$CUSTOMPROPERTYTAG
  1
Nákladové středisko
  9
$CUSTOMPROPERTY
  1

  9
$CUSTOMPROPERTYTAG
  1
Dodavatel
  9
$CUSTOMPROPERTY
  1

  9
$CUSTOMPROPERTYTAG
  1
Uživatelský stav
  9
$CUSTOMPROPERTY
  1

  9
$CUSTOMPROPERTYTAG
  1
Stav návrhu
  9
$CUSTOMPROPERTY
  1
Rozpracováno
  9
$CUSTOMPROPERTYTAG
  1
Zkontroloval
  9
$CUSTOMPROPERTY
  1

  9
$CUSTOMPROPERTYTAG
  1
Techn. kontr. schválil
  9
$CUSTOMPROPERTY
  1

  9
$CUSTOMPROPERTYTAG
  1
Výrobu schválil
  9
$CUSTOMPROPERTY
  1

  9
$CUSTOMPROPERTYTAG
  1
VS_First
  9
$CUSTOMPROPERTY
  1

  9
$CUSTOMPROPERTYTAG
  1
VS_All
  9
$CUSTOMPROPERTY
  1
1:1,
  9
$CUSTOMPROPERTYTAG
  1
Model_Mass_Value
  9
$CUSTOMPROPERTY
  1
,0
  9
$CUSTOMPROPERTYTAG
  1
Model_Mass_Units
  9
$CUSTOMPROPERTY
  1
kg
  9
$CUSTOMPROPERTYTAG
  1
Model_Area_Value
  9
$CUSTOMPROPERTY
  1
2694,0
  9
$CUSTOMPROPERTYTAG
  1
Model_Area_Units
  9
$CUSTOMPROPERTY
  1
mm˛
  9
$CUSTOMPROPERTYTAG
  1
Model_Volume_Value
  9
$CUSTOMPROPERTY
  1
5471,0
  9
$CUSTOMPROPERTYTAG
  1
Model_Volume_Units
  9
$CUSTOMPROPERTY
  1
mmł
  9
$CUSTOMPROPERTYTAG
  1
Model_CogX_Value
  9
$CUSTOMPROPERTY
  1
,0
  9
$CUSTOMPROPERTYTAG
  1
Model_CogY_Value
  9
$CUSTOMPROPERTY
  1
,0
  9
$CUSTOMPROPERTYTAG
  1
Model_CogZ_Value
  9
$CUSTOMPROPERTY
  1
,0
  9
$CUSTOMPROPERTYTAG
  1
Model_Cog_Units
  9
$CUSTOMPROPERTY
  1
mm
  9
$CUSTOMPROPERTYTAG
  1
Model_Ixx_Value
  9
$CUSTOMPROPERTY
  1
,0
  9
$CUSTOMPROPERTYTAG
  1
Model_Iyy_Value
  9
$CUSTOMPROPERTY
  1
,0
  9
$CUSTOMPROPERTYTAG
  1
Model_Izz_Value
  9
$CUSTOMPROPERTY
  1
,0
  9
$CUSTOMPROPERTYTAG
  1
Model_Ixy_Value
  9
$CUSTOMPROPERTY
  1
,0
  9
$CUSTOMPROPERTYTAG
  1
Model_Iyz_Value
  9
$CUSTOMPROPERTY
  1
,0
  9
$CUSTOMPROPERTYTAG
  1
Model_Ixz_Value
  9
$CUSTOMPROPERTY
  1
,0
  9
$CUSTOMPROPERTYTAG
  1
Model_MassMom_Units
  9
$CUSTOMPROPERTY
  1
kg mm˛
  9
$CUSTOMPROPERTYTAG
  1
FirstViewScale
  9
$CUSTOMPROPERTY
  1

  9
$CUSTOMPROPERTYTAG
  1
AllViewScales
  9
$CUSTOMPROPERTY
  1

  9
$CUSTOMPROPERTYTAG
  1
SaveDate
  9
$CUSTOMPROPERTY
  1
09/12/2007
  9
$CUSTOMPROPERTYTAG
  1
SaveTime
  9
$CUSTOMPROPERTY
  1
10:32
  9
$CUSTOMPROPERTYTAG
  1
PaperSize
  9
$CUSTOMPROPERTY
  1
A3
  9
$CUSTOMPROPERTYTAG
  1
DateSaved
  9
$CUSTOMPROPERTY
  1
12.09.2007
  9
$CUSTOMPROPERTYTAG
  1
TimeSaved
  9
$CUSTOMPROPERTY
  1
10:32 dop.
  9
$INSBASE
 10
0.0
 20
0.0
 30
0.0
  9
$EXTMIN
 10
6.036988778548447
 20
49.57628741089298
 30
-0.0000000000112498
  9
$EXTMAX
 10
354.0289318096229
 20
427.8393412266618
 30
0.0000000000002956
  9
$LIMMIN
 10
0.0
 20
0.0
  9
$LIMMAX
 10
630.0
 20
445.5
  9
$ORTHOMODE
 70
     1
  9
$REGENMODE
 70
     1
  9
$FILLMODE
 70
     1
  9
$QTEXTMODE
 70
     0
  9
$MIRRTEXT
 70
     0
  9
$LTSCALE
 40
1.5
  9
$ATTMODE
 70
     1
  9
$TEXTSIZE
 40
0.2
  9
$TRACEWID
 40
0.05
  9
$TEXTSTYLE
  7
Standard
  9
$CLAYER
  8
Viditelná tenká (ISO)
  9
$CELTYPE
  6
ByLayer
  9
$CECOLOR
 62
   256
  9
$CELTSCALE
 40
1.0
  9
$DISPSILH
 70
     0
  9
$DIMSCALE
 40
1.0
  9
$DIMASZ
 40
1.799999999999999
  9
$DIMEXO
 40
0.0625
  9
$DIMDLI
 40
0.38
  9
$DIMRND
 40
0.0
  9
$DIMDLE
 40
0.0
  9
$DIMEXE
 40
0.18
  9
$DIMTP
 40
0.0
  9
$DIMTM
 40
0.0
  9
$DIMTXT
 40
0.3499999940395355
  9
$DIMCEN
 40
0.09
  9
$DIMTSZ
 40
0.0
  9
$DIMTOL
 70
     0
  9
$DIMLIM
 70
     0
  9
$DIMTIH
 70
     1
  9
$DIMTOH
 70
     1
  9
$DIMSE1
 70
     0
  9
$DIMSE2
 70
     0
  9
$DIMTAD
 70
     0
  9
$DIMZIN
 70
     0
  9
$DIMBLK
  1

  9
$DIMASO
 70
     1
  9
$DIMSHO
 70
     1
  9
$DIMPOST
  1

  9
$DIMAPOST
  1

  9
$DIMALT
 70
     0
  9
$DIMALTD
 70
     2
  9
$DIMALTF
 40
25.4
  9
$DIMLFAC
 40
1.0
  9
$DIMTOFL
 70
     0
  9
$DIMTVP
 40
0.0
  9
$DIMTIX
 70
     0
  9
$DIMSOXD
 70
     0
  9
$DIMSAH
 70
     0
  9
$DIMBLK1
  1

  9
$DIMBLK2
  1

  9
$DIMSTYLE
  2
Standard
  9
$DIMCLRD
 70
     0
  9
$DIMCLRE
 70
     0
  9
$DIMCLRT
 70
     0
  9
$DIMTFAC
 40
1.0
  9
$DIMGAP
 40
0.09
  9
$DIMJUST
 70
     0
  9
$DIMSD1
 70
     0
  9
$DIMSD2
 70
     0
  9
$DIMTOLJ
 70
     1
  9
$DIMTZIN
 70
     0
  9
$DIMALTZ
 70
     0
  9
$DIMALTTZ
 70
     0
  9
$DIMUPT
 70
     0
  9
$DIMDEC
 70
     4
  9
$DIMTDEC
 70
     4
  9
$DIMALTU
 70
     2
  9
$DIMALTTD
 70
     2
  9
$DIMTXSTY
  7
Standard
  9
$DIMAUNIT
 70
     0
  9
$DIMADEC
 70
     0
  9
$DIMALTRND
 40
0.0
  9
$DIMAZIN
 70
     0
  9
$DIMDSEP
 70
    46
  9
$DIMATFIT
 70
     3
  9
$DIMFRAC
 70
     0
  9
$DIMLDRBLK
  1

  9
$DIMLUNIT
 70
     2
  9
$DIMLWD
 70
    -2
  9
$DIMLWE
 70
    -2
  9
$DIMTMOVE
 70
     0
  9
$LUNITS
 70
     2
  9
$LUPREC
 70
     2
  9
$SKETCHINC
 40
0.1
  9
$FILLETRAD
 40
0.0
  9
$AUNITS
 70
     0
  9
$AUPREC
 70
     0
  9
$MENU
  1
.
  9
$ELEVATION
 40
0.0
  9
$PELEVATION
 40
0.0
  9
$THICKNESS
 40
0.0
  9
$LIMCHECK
 70
     0
  9
$CHAMFERA
 40
0.0
  9
$CHAMFERB
 40
0.0
  9
$CHAMFERC
 40
0.0
  9
$CHAMFERD
 40
0.0
  9
$SKPOLY
 70
     0
  9
$TDCREATE
 40
2456105.446688102
  9
$TDUCREATE
 40
2456105.363354769
  9
$TDUPDATE
 40
2456112.475382338
  9
$TDUUPDATE
 40
2456112.392049005
  9
$TDINDWG
 40
0.0190394676
  9
$TDUSRTIMER
 40
0.0190394676
  9
$USRTIMER
 70
     1
  9
$ANGBASE
 50
0.0
  9
$ANGDIR
 70
     0
  9
$PDMODE
 70
     0
  9
$PDSIZE
 40
0.0
  9
$PLINEWID
 40
0.0
  9
$SPLFRAME
 70
     0
  9
$SPLINETYPE
 70
     6
  9
$SPLINESEGS
 70
     8
  9
$HANDSEED
  5
1374
  9
$SURFTAB1
 70
     6
  9
$SURFTAB2
 70
     6
  9
$SURFTYPE
 70
     6
  9
$SURFU
 70
     6
  9
$SURFV
 70
     6
  9
$UCSBASE
  2

  9
$UCSNAME
  2

  9
$UCSORG
 10
0.0
 20
0.0
 30
0.0
  9
$UCSXDIR
 10
1.0
 20
0.0
 30
0.0
  9
$UCSYDIR
 10
0.0
 20
1.0
 30
0.0
  9
$UCSORTHOREF
  2

  9
$UCSORTHOVIEW
 70
     0
  9
$UCSORGTOP
 10
0.0
 20
0.0
 30
0.0
  9
$UCSORGBOTTOM
 10
0.0
 20
0.0
 30
0.0
  9
$UCSORGLEFT
 10
0.0
 20
0.0
 30
0.0
  9
$UCSORGRIGHT
 10
0.0
 20
0.0
 30
0.0
  9
$UCSORGFRONT
 10
0.0
 20
0.0
 30
0.0
  9
$UCSORGBACK
 10
0.0
 20
0.0
 30
0.0
  9
$PUCSBASE
  2

  9
$PUCSNAME
  2

  9
$PUCSORG
 10
0.0
 20
0.0
 30
0.0
  9
$PUCSXDIR
 10
1.0
 20
0.0
 30
0.0
  9
$PUCSYDIR
 10
0.0
 20
1.0
 30
0.0
  9
$PUCSORTHOREF
  2

  9
$PUCSORTHOVIEW
 70
     0
  9
$PUCSORGTOP
 10
0.0
 20
0.0
 30
0.0
  9
$PUCSORGBOTTOM
 10
0.0
 20
0.0
 30
0.0
  9
$PUCSORGLEFT
 10
0.0
 20
0.0
 30
0.0
  9
$PUCSORGRIGHT
 10
0.0
 20
0.0
 30
0.0
  9
$PUCSORGFRONT
 10
0.0
 20
0.0
 30
0.0
  9
$PUCSORGBACK
 10
0.0
 20
0.0
 30
0.0
  9
$USERI1
 70
     0
  9
$USERI2
 70
     0
  9
$USERI3
 70
     0
  9
$USERI4
 70
     0
  9
$USERI5
 70
     0
  9
$USERR1
 40
0.0
  9
$USERR2
 40
0.0
  9
$USERR3
 40
0.0
  9
$USERR4
 40
0.0
  9
$USERR5
 40
0.0
  9
$WORLDVIEW
 70
     1
  9
$SHADEDGE
 70
     3
  9
$SHADEDIF
 70
    70
  9
$TILEMODE
 70
     1
  9
$MAXACTVP
 70
    64
  9
$PINSBASE
 10
0.0
 20
0.0
 30
0.0
  9
$PLIMCHECK
 70
     0
  9
$PEXTMIN
 10
0.0
 20
0.0
 30
0.0
  9
$PEXTMAX
 10
630.0
 20
445.5
 30
0.0
  9
$PLIMMIN
 10
0.0
 20
0.0
  9
$PLIMMAX
 10
630.0
 20
445.5
  9
$UNITMODE
 70
     0
  9
$VISRETAIN
 70
     1
  9
$PLINEGEN
 70
     0
  9
$PSLTSCALE
 70
     1
  9
$TREEDEPTH
 70
  3020
  9
$CMLSTYLE
  2
Standard
  9
$CMLJUST
 70
     0
  9
$CMLSCALE
 40
1.0
  9
$PROXYGRAPHICS
 70
     1
  9
$MEASUREMENT
 70
     1
  9
$CELWEIGHT
370
    -1
  9
$ENDCAPS
280
     0
  9
$JOINSTYLE
280
     0
  9
$LWDISPLAY
290
     0
  9
$INSUNITS
 70
     4
  9
$HYPERLINKBASE
  1

  9
$STYLESHEET
  1

  9
$XEDIT
290
     1
  9
$CEPSNTYPE
380
     0
  9
$PSTYLEMODE
290
     1
  9
$FINGERPRINTGUID
  2
{8086D079-ED36-4AA1-AD6F-E7B77EB3DBC2}
  9
$VERSIONGUID
  2
{43C6F4B6-9F87-436C-9832-378842F07E2F}
  9
$EXTNAMES
290
     1
  9
$PSVPSCALE
 40
0.0
  9
$OLESTARTUP
290
     0
  9
$SORTENTS
280
   127
  9
$INDEXCTL
280
     0
  9
$HIDETEXT
280
     1
  9
$XCLIPFRAME
290
     0
  9
$HALOGAP
280
     0
  9
$OBSCOLOR
 70
   257
  9
$OBSLTYPE
280
     0
  9
$INTERSECTIONDISPLAY
280
     0
  9
$INTERSECTIONCOLOR
 70
   257
  9
$DIMASSOC
280
     1
  9
$PROJECTNAME
  1

  0
ENDSEC
  0
SECTION
  2
CLASSES
  0
CLASS
  1
ACDBDICTIONARYWDFLT
  2
AcDbDictionaryWithDefault
  3
ObjectDBX Classes
 90
        0
 91
        1
280
     0
281
     0
  0
CLASS
  1
MATERIAL
  2
AcDbMaterial
  3
ObjectDBX Classes
 90
     1153
 91
        3
280
     0
281
     0
  0
CLASS
  1
VISUALSTYLE
  2
AcDbVisualStyle
  3
ObjectDBX Classes
 90
     4095
 91
       26
280
     0
281
     0
  0
CLASS
  1
SCALE
  2
AcDbScale
  3
ObjectDBX Classes
 90
     1153
 91
       17
280
     0
281
     0
  0
CLASS
  1
TABLESTYLE
  2
AcDbTableStyle
  3
ObjectDBX Classes
 90
     4095
 91
        1
280
     0
281
     0
  0
CLASS
  1
MLEADERSTYLE
  2
AcDbMLeaderStyle
  3
ACDB_MLEADERSTYLE_CLASS
 90
     4095
 91
        1
280
     0
281
     0
  0
CLASS
  1
DICTIONARYVAR
  2
AcDbDictionaryVar
  3
ObjectDBX Classes
 90
        0
 91
       11
280
     0
281
     0
  0
CLASS
  1
ACME_DOCUMENT
  2
AcMeDbDoc
  3
AcMeServices
 90
     1024
 91
        1
280
     0
281
     0
  0
CLASS
  1
AMGSETTINGSOBJ
  2
AmgSettingsObj
  3
"AcadM|Product Description: AutoCAD Mechanical|Company: Autodesk, Inc."
 90
     1024
 91
        2
280
     0
281
     0
  0
CLASS
  1
ACMESCOPE
  2
AcMeScope
  3
AcMeServices
 90
     1024
 91
        1
280
     0
281
     0
  0
CLASS
  1
ACMECOMMANDHISTORY
  2
AcMeCommandHistory
  3
AcMeServices
 90
     1024
 91
        1
280
     0
281
     0
  0
CLASS
  1
ACIMSYSVARMAN
  2
AcImSysVarManager
  3
AcMeServices
 90
     1024
 91
        5
280
     0
281
     0
  0
CLASS
  1
ACIMINTSYSVAR
  2
AcImIntSysVar
  3
AcMeServices
 90
     1024
 91
       27
280
     0
281
     0
  0
CLASS
  1
ACMEDRAWINGMAN
  2
AcMeDrawingMan
  3
AcMeServices
 90
     1024
 91
        1
280
     0
281
     0
  0
CLASS
  1
ACMEVIEW
  2
AcMeView
  3
AcMeServices
 90
     1024
 91
        1
280
     0
281
     0
  0
CLASS
  1
ACDBENTITYCACHE
  2
AcMeEntityCache
  3
AcMeServices
 90
     1024
 91
        1
280
     0
281
     0
  0
CLASS
  1
ACMESTATEMGR
  2
AcMeStateMgr
  3
AcMeServices
 90
     1024
 91
        1
280
     0
281
     0
  0
CLASS
  1
ACGREFMASTER
  2
AcGrefMaster
  3
AcAttribServices
 90
     1024
 91
        1
280
     0
281
     0
  0
CLASS
  1
AM_DRAWING_MGR
  2
AcDmDwgMgr
  3
AcMechDwgViewMgmt
 90
     1024
 91
        1
280
     0
281
     0
  0
CLASS
  1
AM_DWG_DOCUMENT
  2
AcDmDwgDocument
  3
AcMechDwgViewMgmt
 90
     1024
 91
        1
280
     0
281
     0
  0
CLASS
  1
AM_DWG_SHEET
  2
AcDmSheet
  3
AcMechDwgViewMgmt
 90
     1024
 91
        2
280
     0
281
     0
  0
CLASS
  1
AM_VIEWDIMPARMAP
  2
AcDmViewDimParMap
  3
AcMechDwgViewMgmt
 90
     1024
 91
        2
280
     0
281
     0
  0
CLASS
  1
AMDTINTERNALREACTOR
  2
AmdtInternalReactor
  3
AcMeServices
 90
     1024
 91
        1
280
     0
281
     0
  0
CLASS
  1
ACIMREALSYSVAR
  2
AcImRealSysVar
  3
AcMeServices
 90
     1024
 91
        1
280
     0
281
     0
  0
CLASS
  1
AM_DWGMGR_NAME
  2
AcDmDwgMgrName
  3
AcMechDwgViewMgmt
 90
     1024
 91
        1
280
     0
281
     0
  0
CLASS
  1
ACME_DATABASE
  2
AcMeDbDatabase
  3
AcMeServices
 90
     1024
 91
        1
280
     0
281
     0
  0
CLASS
  1
ACRFINSADJUSTERMGR
  2
AcRfInsAdjusterMgr
  3
AcMeServices
 90
     1024
 91
        1
280
     0
281
     0
  0
CLASS
  1
ACGREFACADMASTER
  2
AcGrefacadMaster
  3
AcGrefServices
 90
     1024
 91
        1
280
     0
281
     0
  0
CLASS
  1
AMDTMENUSTATEMGR
  2
AmdtMenuStateMgr
  3
McadcomServices
 90
     1024
 91
        1
280
     0
281
     0
  0
CLASS
  1
AMDTMCOMMENUSTATE
  2
AmdtMcomMenuState
  3
McadcomServices
 90
     1024
 91
        1
280
     0
281
     0
  0
CLASS
  1
AMIMASTER
  2
AmiMaster
  3
AmiServices
 90
     1024
 91
        1
280
     0
281
     0
  0
CLASS
  1
MAPIAMMOUDLE
  2
MApiAmModule
  3
MApiAmServices
 90
     1024
 91
        1
280
     0
281
     0
  0
CLASS
  1
ACIMSTRSYSVAR
  2
AcImStrSysVar
  3
AcMeServices
 90
     1024
 91
        5
280
     0
281
     0
  0
CLASS
  1
AMDTADMENUSTATE
  2
AmdtAdMenuState
  3
DesignerServices
 90
     1024
 91
        1
280
     0
281
     0
  0
CLASS
  1
ADAPPL
  2
AcAdAppl
  3
DesignerServices
 90
     1024
 91
        1
280
     0
281
     0
  0
CLASS
  1
DEPMGR
  2
AcAdDepMgr
  3
DesignerServices
 90
     1024
 91
        1
280
     0
281
     0
  0
CLASS
  1
PARAMMGR
  2
AcAdParamMgr
  3
DesignerServices
 90
     1024
 91
        1
280
     0
281
     0
  0
CLASS
  1
PARAMSCOPE
  2
AcAdParamScope
  3
DesignerServices
 90
     1024
 91
        1
280
     0
281
     0
  0
CLASS
  1
NAMEDAPPL
  2
AcAdNamedAppl
  3
DesignerServices
 90
     1024
 91
        1
280
     0
281
     0
  0
CLASS
  1
AMDTDMMENUSTATE
  2
AmdtDmMenuState
  3
AcMechDwgViewMgmt
 90
     1024
 91
        1
280
     0
281
     0
  0
CLASS
  1
AMDTAMMENUSTATE
  2
AmdtAmMenuState
  3
DesignerAssemblies
 90
     1024
 91
        1
280
     0
281
     0
  0
CLASS
  1
ACAMPROJECT
  2
AcAmProject
  3
DesignerAssemblies
 90
     1024
 91
        1
280
     0
281
     0
  0
CLASS
  1
ACAMGRCOMPDEF
  2
AcAmGrCompDef
  3
DesignerAssemblies
 90
     1024
 91
        1
280
     0
281
     0
  0
CLASS
  1
ACAMCOMPDEF
  2
AcAmCompDef
  3
DesignerAssemblies
 90
     1024
 91
        1
280
     0
281
     0
  0
CLASS
  1
ACAMCOMPDEFMGR
  2
AcAmCompDefMgr
  3
DesignerAssemblies
 90
     1024
 91
        1
280
     0
281
     0
  0
CLASS
  1
AMCONTEXTMGR
  2
AcAmContextMgr
  3
DesignerAssemblies
 90
     1024
 91
        1
280
     0
281
     0
  0
CLASS
  1
ACAMCONTEXTMODELER
  2
AcAmContextModeler
  3
DesignerAssemblies
 90
     1024
 91
        1
280
     0
281
     0
  0
CLASS
  1
ACMDATADICTIONARY
  2
AcmDataDictionary
  3
"AcmSymBB|Product Description: AutoCAD Mechanical|Company: Autodesk, Inc."
 90
     1024
 91
        1
280
     0
281
     0
  0
CLASS
  1
CATALOGSTATE
  2
AcAmCatalogState
  3
DesignerAssemblies
 90
     1024
 91
        1
280
     0
281
     0
  0
CLASS
  1
ACAMGRCOMPDEFSET
  2
AcAmGrCompDefSet
  3
DesignerAssemblies
 90
     1024
 91
        1
280
     0
281
     0
  0
CLASS
  1
AMDTBROWSERDBTAB
  2
AmdtBrowserDbTab
  3
McadcomServices
 90
     1024
 91
        1
280
     0
281
     0
  0
CLASS
  1
CBROWSERAPPOBJECT
  2
CBrowserAppObject
  3
McadcomServices
 90
     1024
 91
        2
280
     0
281
     0
  0
CLASS
  1
DM_PLACEHOLDER
  2
AcDmSelsetPlaceholder
  3
AcMechDwgViewMgmt
 90
     1024
 91
        1
280
     0
281
     0
  0
CLASS
  1
ACMSTANDARDISO
  2
AcmStandardISO
  3
"Amdt_StdImp|Product Description: AutoCAD Mechanical|Company: Autodesk, Inc."
 90
     1024
 91
        1
280
     0
281
     0
  0
CLASS
  1
AMDTEDGESTANDARDISO13715
  2
AmdtEdgeStdISO13715
  3
"Amdt_StdImp|Product Description: AutoCAD Mechanical|Company: Autodesk, Inc."
 90
     1024
 91
        1
280
     0
281
     0
  0
CLASS
  1
ACMSURFSTANDARDISO2002
  2
AcmSurfTextStdISO2002
  3
"Amdt_StdImp|Product Description: AutoCAD Mechanical|Company: Autodesk, Inc."
 90
     1024
 91
        1
280
     0
281
     0
  0
CLASS
  1
ACMFCFSTANDARDISO
  2
AcmFCFStdISO
  3
"Amdt_StdImp|Product Description: AutoCAD Mechanical|Company: Autodesk, Inc."
 90
     1024
 91
        1
280
     0
281
     0
  0
CLASS
  1
ACMWELDSTANDARDISO
  2
AcmWeldingStdISO
  3
"Amdt_StdImp|Product Description: AutoCAD Mechanical|Company: Autodesk, Inc."
 90
     1024
 91
        1
280
     0
281
     0
  0
CLASS
  1
ACMIDSTANDARDISO
  2
AcmIdStdISO
  3
"Amdt_StdImp|Product Description: AutoCAD Mechanical|Company: Autodesk, Inc."
 90
     1024
 91
        1
280
     0
281
     0
  0
CLASS
  1
ACMDATUMSTANDARDISO
  2
AcmDatumStdISO
  3
"Amdt_StdImp|Product Description: AutoCAD Mechanical|Company: Autodesk, Inc."
 90
     1024
 91
        1
280
     0
281
     0
  0
CLASS
  1
ACMBOMSTANDARDISO
  2
AcmBOMStdISO
  3
"Amdt_StdImp|Product Description: AutoCAD Mechanical|Company: Autodesk, Inc."
 90
     1024
 91
        1
280
     0
281
     0
  0
CLASS
  1
ACMDETAILSTANDARDISO
  2
AmdtDetailSymStdISO
  3
"Amdt_StdImp|Product Description: AutoCAD Mechanical|Company: Autodesk, Inc."
 90
     1024
 91
        1
280
     0
281
     0
  0
CLASS
  1
ACMSECTIONSTANDARDISO2001
  2
AmdtSectionSymStdISO2001
  3
"Amdt_StdImp|Product Description: AutoCAD Mechanical|Company: Autodesk, Inc."
 90
     1024
 91
        1
280
     0
281
     0
  0
CLASS
  1
ACMCENTERLINESTANDARDISO
  2
AmdtCenterLineStdISO
  3
"Amdt_StdImp|Product Description: AutoCAD Mechanical|Company: Autodesk, Inc."
 90
     1024
 91
        1
280
     0
281
     0
  0
CLASS
  1
ACMTHREADLINESTANDARDISO
  2
AmdtThreadLineStdISO
  3
"Amdt_StdImp|Product Description: AutoCAD Mechanical|Company: Autodesk, Inc."
 90
     1024
 91
        1
280
     0
281
     0
  0
CLASS
  1
ACMNOTESTANDARDISO
  2
AmdtNoteStdISO
  3
"Amdt_StdImp|Product Description: AutoCAD Mechanical|Company: Autodesk, Inc."
 90
     1024
 91
        1
280
     0
281
     0
  0
CLASS
  1
ACMTAPERSTANDARDISO
  2
AcmTaperStdISO
  3
"Amdt_StdImp|Product Description: AutoCAD Mechanical|Company: Autodesk, Inc."
 90
     1024
 91
        1
280
     0
281
     0
  0
CLASS
  1
ACMANOOTATIONVIEWSTANDARDISO
  2
AmdtAnViewStdISO
  3
"Amdt_StdImp|Product Description: AutoCAD Mechanical|Company: Autodesk, Inc."
 90
     1024
 91
        1
280
     0
281
     0
  0
CLASS
  1
ACAMGLAYSTD
  2
AcAmgLayStd
  3
"AmgLay|Product Description: AutoCAD Mechanical|Company: Autodesk, Inc."
 90
     1024
 91
        1
280
     0
281
     0
  0
CLASS
  1
ACAMGDIMSTD
  2
AcAmgDimStd
  3
"AmgDim|Product Description: AutoCAD Mechanical|Company: Autodesk, Inc."
 90
     1024
 91
        1
280
     0
281
     0
  0
CLASS
  1
AMGOBJPROPCFG
  2
AmgObjPropCfg
  3
"AmgLay|Product Description: AutoCAD Mechanical|Company: Autodesk, Inc."
 90
     1025
 91
        1
280
     0
281
     0
  0
CLASS
  1
ACAMGHOLECHARTSTDISO
  2
AcAmgHoleChartStdISO
  3
AmgDim|Product Description: AutoCAD Mechanical|Company: Autodesk, Inc.
 90
     1024
 91
        1
280
     0
281
     0
  0
CLASS
  1
ACAMGTITLESTD
  2
AcAmgTitleStd
  3
"AmgTitle|Product Description: AutoCAD Mechanical|Company: Autodesk, Inc."
 90
     4095
 91
        1
280
     0
281
     0
  0
CLASS
  1
AMDTNOTETEMPLATEDB
  2
AmdtNoteTemplateDB
  3
AcmSymBB|Product Description: AutoCAD Mechanical|Company: Autodesk, Inc.
 90
     1024
 91
        6
280
     0
281
     0
  0
CLASS
  1
ACAMGFILTERDAT
  2
AcAmgFilterDat
  3
"AcadM|Product Description: AutoCAD Mechanical|Company: Autodesk, Inc."
 90
     1024
 91
        0
280
     0
281
     0
  0
CLASS
  1
AEC_REFEDIT_STATUS_TRACKER
  2
AecDbRefEditStatusTracker
  3
AecArchBase60|Product Desc: Autodesk Architectural Desktop 2007 |Company: Autodesk,Inc. |WEB Address: www.autodesk.com
 90
      129
 91
        0
280
     0
281
     0
  0
CLASS
  1
NPOCOLLECTION
  2
AcDbImpNonPersistentObjectsCollection
  3
ObjectDBX Classes
 90
     1153
 91
        0
280
     0
281
     0
  0
CLASS
  1
CAMSSTRUCTBTNSTATE
  2
StructBtnState
  3
DesignerAssemblies
 90
     1024
 91
        0
280
     0
281
     0
  0
CLASS
  1
CELLSTYLEMAP
  2
AcDbCellStyleMap
  3
ObjectDBX Classes
 90
     1152
 91
        3
280
     0
281
     0
  0
ENDSEC
  0
SECTION
  2
TABLES
  0
TABLE
  2
VPORT
  5
8
330
0
100
AcDbSymbolTable
 70
     1
  0
VPORT
  5
57
330
8
100
AcDbSymbolTableRecord
100
AcDbViewportTableRecord
  2
*Active
 70
     0
 10
0.0
 20
0.0
 11
1.0
 21
1.0
 12
180.0329602940857
 22
238.7078143187775
 13
0.0
 23
0.0
 14
1.0
 24
1.0
 15
0.0
 25
0.0
 16
0.0
 26
0.0
 36
1.0
 17
0.0
 27
0.0
 37
0.0
 40
380.6904103108434
 41
1.576017130620984
 42
50.0
 43
0.0
 44
0.0
 50
0.0
 51
0.0
 71
     0
 72
   100
 73
     1
 74
     1
 75
     0
 76
     0
 77
     0
 78
     0
281
     0
 65
     0
110
0.0
120
0.0
130
0.0
111
1.0
121
0.0
131
0.0
112
0.0
122
1.0
132
0.0
 79
     0
146
0.0
  0
ENDTAB
  0
TABLE
  2
LTYPE
  5
5
330
0
100
AcDbSymbolTable
 70
    15
  0
LTYPE
  5
5B
330
5
100
AcDbSymbolTableRecord
100
AcDbLinetypeTableRecord
  2
ByBlock
 70
     0
  3

 72
    65
 73
     0
 40
0.0
  0
LTYPE
  5
5C
330
5
100
AcDbSymbolTableRecord
100
AcDbLinetypeTableRecord
  2
ByLayer
 70
     0
  3

 72
    65
 73
     0
 40
0.0
  0
LTYPE
  5
5D
330
5
100
AcDbSymbolTableRecord
100
AcDbLinetypeTableRecord
  2
Continuous
 70
     0
  3
Solid line
 72
    65
 73
     0
 40
0.0
  0
LTYPE
  5
974
330
5
100
AcDbSymbolTableRecord
100
AcDbLinetypeTableRecord
  2
HIDDEN
 70
     0
  3
Skrytá __ __ __ __ __ __ __ __ __ __ __ __ __ __
 72
    65
 73
     2
 40
9.525
 49
6.349999999999997
 74
     0
 49
-3.174999999999998
 74
     0
  0
LTYPE
  5
975
330
5
100
AcDbSymbolTableRecord
100
AcDbLinetypeTableRecord
  2
PHANTOM2
 70
     0
  3
Sdružená (.5x) ___ _ _ ___ _ _ ___ _ _ ___ _ _
 72
    65
 73
     6
 40
31.75
 49
15.875
 74
     0
 49
-3.174999999999998
 74
     0
 49
3.174999999999998
 74
     0
 49
-3.174999999999998
 74
     0
 49
3.174999999999998
 74
     0
 49
-3.174999999999998
 74
     0
  0
LTYPE
  5
976
330
5
100
AcDbSymbolTableRecord
100
AcDbLinetypeTableRecord
  2
CENTER
 70
     0
  3
Středová ____ _ ____ _ ____ _ ____ _ ____ _ ____
 72
    65
 73
     4
 40
50.8
 49
31.75
 74
     0
 49
-6.349999999999997
 74
     0
 49
6.349999999999997
 74
     0
 49
-6.349999999999997
 74
     0
  0
LTYPE
  5
9BC
330
5
100
AcDbSymbolTableRecord
100
AcDbLinetypeTableRecord
  2
AM_ISO02W050
 70
     0
  3
__ __ __ __ __ __ __ __ __ __ __ __ __ __ __
 72
    65
 73
     2
 40
7.5
 49
6.0
 74
     0
 49
-1.5
 74
     0
  0
LTYPE
  5
9BD
330
5
100
AcDbSymbolTableRecord
100
AcDbLinetypeTableRecord
  2
AM_ISO08W050
 70
     0
  3
____ . ____ . ____ . ____ . ____ . ____ . ____
 72
    65
 73
     4
 40
18.0
 49
12.0
 74
     0
 49
-1.5
 74
     0
 49
3.0
 74
     0
 49
-1.5
 74
     0
  0
LTYPE
  5
9BE
330
5
100
AcDbSymbolTableRecord
100
AcDbLinetypeTableRecord
  2
AM_ISO09W050
 70
     0
  3
_____ . . _____ . . _____ . . ____ .. ____
 72
    65
 73
     6
 40
22.5
 49
12.0
 74
     0
 49
-1.5
 74
     0
 49
3.0
 74
     0
 49
-1.5
 74
     0
 49
3.0
 74
     0
 49
-1.5
 74
     0
  0
LTYPE
  5
9BF
330
5
100
AcDbSymbolTableRecord
100
AcDbLinetypeTableRecord
  2
Amconstr
 70
     0
  3
_______________________
 72
    65
 73
     2
 40
9999.0
 49
9999.0
 74
     0
 49
0.0
 74
     0
  0
LTYPE
  5
9C0
330
5
100
AcDbSymbolTableRecord
100
AcDbLinetypeTableRecord
  2
AM_ISO08W050x2
 70
     0
  3
__ . __ . __ . __ . __ . __
 72
    65
 73
     4
 40
9.0
 49
6.0
 74
     0
 49
-0.75
 74
     0
 49
1.5
 74
     0
 49
-0.75
 74
     0
  0
LTYPE
  5
9C1
330
5
100
AcDbSymbolTableRecord
100
AcDbLinetypeTableRecord
  2
AM_ISO02W050x2
 70
     0
  3
 _ _ _ _ _ _ _ _ _ _ _ _
 72
    65
 73
     2
 40
3.75
 49
3.0
 74
     0
 49
-0.75
 74
     0
  0
LTYPE
  5
9C4
330
5
100
AcDbSymbolTableRecord
100
AcDbLinetypeTableRecord
  2
Amzigzag
 70
     0
  3
/\/-/\/-/\/-/\/-/\/-/\/
 72
    65
 73
     2
 40
11.0001
 49
0.0001
 74
     4
 75
   136
340
9C3
 46
0.04
 50
0.0
 44
0.0
 45
0.0
 49
-11.0
 74
     0
  0
LTYPE
  5
9D3
330
5
100
AcDbSymbolTableRecord
100
AcDbLinetypeTableRecord
  2
ACISOWELD
 70
     0
  3
_ _ _ _ _
 72
    65
 73
     2
 40
2.0
 49
2.0
 74
     0
 49
-1.0
 74
     0
  0
LTYPE
  5
9D4
330
5
100
AcDbSymbolTableRecord
100
AcDbLinetypeTableRecord
  2
ACISOTGB
 70
     0
  3
__ . . __ . .
 72
    65
 73
     6
 40
9.0
 49
4.0
 74
     0
 49
-1.0
 74
     0
 49
1.0
 74
     0
 49
-1.0
 74
     0
 49
1.0
 74
     0
 49
-1.0
 74
     0
  0
LTYPE
  5
9D5
330
5
100
AcDbSymbolTableRecord
100
AcDbLinetypeTableRecord
  2
ACISOTGL
 70
     0
  3
_ _ _ _ _
 72
    65
 73
     2
 40
3.0
 49
2.0
 74
     0
 49
-1.0
 74
     0
  0
LTYPE
  5
A20
330
5
100
AcDbSymbolTableRecord
100
AcDbLinetypeTableRecord
  2
GEN7
 70
     0
  3
____ . ____ . ____ . ____ . ____ . ____ . ____
 72
    65
 73
     4
 40
13.75
 49
10.0
 74
     0
 49
-1.25
 74
     0
 49
1.25
 74
     0
 49
-1.25
 74
     0
  0
ENDTAB
  0
TABLE
  2
LAYER
  5
2
102
{ACAD_XDICTIONARY
360
A28
102
}
330
0
100
AcDbSymbolTable
 70
    18
  0
LAYER
  5
54
330
2
100
AcDbSymbolTableRecord
100
AcDbLayerTableRecord
  2
0
 70
     0
 62
     7
  6
Continuous
370
    -3
390
F
  0
LAYER
  5
78
330
2
100
AcDbSymbolTableRecord
100
AcDbLayerTableRecord
  2
Geometrie náčrtu (ISO)
 70
     0
 62
     7
  6
Continuous
370
     9
390
F
  0
LAYER
  5
79
330
2
100
AcDbSymbolTableRecord
100
AcDbLayerTableRecord
  2
KOPF
 70
     0
 62
     8
420
  8421504
  6
Continuous
370
     9
390
F
  0
LAYER
  5
7A
330
2
100
AcDbSymbolTableRecord
100
AcDbLayerTableRecord
  2
Kóta (ISO)
 70
     0
 62
     5
420
      255
  6
Continuous
370
     9
390
F
  0
LAYER
  5
7B
330
2
100
AcDbSymbolTableRecord
100
AcDbLayerTableRecord
  2
Nadpis (ISO)
 70
     0
 62
     7
  6
Continuous
370
    18
390
F
  0
LAYER
  5
7D
330
2
100
AcDbSymbolTableRecord
100
AcDbLayerTableRecord
  2
Osa (ISO)
 70
     0
 62
     1
420
 16711680
  6
Continuous
370
     9
390
F
  0
LAYER
  5
85
330
2
100
AcDbSymbolTableRecord
100
AcDbLayerTableRecord
  2
Rámeček (ISO)
 70
     0
 62
     7
  6
Continuous
370
    35
390
F
  0
LAYER
  5
88
330
2
100
AcDbSymbolTableRecord
100
AcDbLayerTableRecord
  2
Skrytá (ISO)
 70
     0
 62
   142
420
    32960
  6
Continuous
370
     9
390
F
  0
LAYER
  5
89
330
2
100
AcDbSymbolTableRecord
100
AcDbLayerTableRecord
  2
Středová značka (ISO)
 70
     0
 62
     1
420
 16711680
  6
Continuous
370
     9
390
F
  0
LAYER
  5
8B
330
2
100
AcDbSymbolTableRecord
100
AcDbLayerTableRecord
  2
TEXT35
 70
     0
 62
    12
420
 13369344
  6
Continuous
370
    20
390
F
  0
LAYER
  5
8C
330
2
100
AcDbSymbolTableRecord
100
AcDbLayerTableRecord
  2
TEXT50
 70
     0
 62
     7
  6
Continuous
370
    20
390
F
  0
LAYER
  5
8D
330
2
100
AcDbSymbolTableRecord
100
AcDbLayerTableRecord
  2
Viditelná (ISO)
 70
     0
 62
     7
  6
Continuous
370
    35
390
F
  0
LAYER
  5
8E
330
2
100
AcDbSymbolTableRecord
100
AcDbLayerTableRecord
  2
Viditelná tenká (ISO)
 70
     0
 62
     7
  6
Continuous
370
     9
390
F
  0
LAYER
  5
8F
330
2
100
AcDbSymbolTableRecord
100
AcDbLayerTableRecord
  2
Značka (ISO)
 70
     0
 62
     5
420
      255
  6
Continuous
370
     9
390
F
  0
LAYER
  5
55D
330
2
100
AcDbSymbolTableRecord
100
AcDbLayerTableRecord
  2
Defpoints
 70
     0
 62
     7
  6
Continuous
290
     0
370
    -3
390
F
  0
LAYER
  5
A21
102
{ACAD_XDICTIONARY
360
A22
102
}
330
2
100
AcDbSymbolTableRecord
100
AcDbLayerTableRecord
  2
7
 70
     0
 62
     4
  6
GEN7
370
    -3
390
F
  0
LAYER
  5
A23
102
{ACAD_XDICTIONARY
360
A24
102
}
330
2
100
AcDbSymbolTableRecord
100
AcDbLayerTableRecord
  2
5
 70
     0
 62
     3
  6
Continuous
370
    -3
390
F
  0
LAYER
  5
E1C
330
2
100
AcDbSymbolTableRecord
100
AcDbLayerTableRecord
  2
AM_5
 70
     0
 62
    92
  6
Continuous
370
    25
390
F
1001
AcAecLayerStandard
1000

1000

  0
ENDTAB
  0
TABLE
  2
STYLE
  5
3
330
0
100
AcDbSymbolTable
 70
    21
  0
STYLE
  5
55
330
3
100
AcDbSymbolTableRecord
100
AcDbTextStyleTableRecord
  2
Standard
 70
     0
 40
0.0
 41
1.0
 50
0.0
 71
     0
 42
0.2
  3
TAHOMA.TTF
  4

1001
ACAD
1000
Tahoma
1071
      256
  0
STYLE
  5
5A
330
3
100
AcDbSymbolTableRecord
100
AcDbTextStyleTableRecord
  2
Annotative
 70
     0
 40
0.0
 41
1.0
 50
0.0
 71
     0
 42
0.2
  3
txt
  4

1001
AcadAnnotative
1000
AnnotativeData
1002
{
1070
     1
1070
     1
1002
}
  0
STYLE
  5
90
330
3
100
AcDbSymbolTableRecord
100
AcDbTextStyleTableRecord
  2
ITALICC8_57
 70
     0
 40
0.0
 41
1.0
 50
0.0
 71
     0
 42
0.2
  3
TAHOMA.TTF
  4

1001
ACAD
1000
Tahoma
1071
      256
  0
STYLE
  5
91
330
3
100
AcDbSymbolTableRecord
100
AcDbTextStyleTableRecord
  2
kusovnik
 70
     0
 40
0.0
 41
1.0
 50
0.0
 71
     0
 42
0.2
  3
ARIAL.TTF
  4

1001
ACAD
1000
Arial
1071
      256
  0
STYLE
  5
92
330
3
100
AcDbSymbolTableRecord
100
AcDbTextStyleTableRecord
  2
ROMANS8_69
 70
     0
 40
0.0
 41
1.0
 50
0.0
 71
     0
 42
0.2
  3
TAHOMA.TTF
  4

1001
ACAD
1000
Tahoma
1071
      256
  0
STYLE
  5
93
330
3
100
AcDbSymbolTableRecord
100
AcDbTextStyleTableRecord
  2
Text popisu (ISO)
 70
     0
 40
0.0
 41
1.0
 50
0.0
 71
     0
 42
0.2
  3
TAHOMA.TTF
  4

1001
ACAD
1000
Tahoma
1071
      256
  0
STYLE
  5
94
330
3
100
AcDbSymbolTableRecord
100
AcDbTextStyleTableRecord
  2
Text poznámky (DIN)
 70
     0
 40
0.0
 41
1.0
 50
0.0
 71
     0
 42
0.2
  3
isocpeur.ttf
  4

1001
ACAD
1000
ISOCPEUR
1071
      256
  0
STYLE
  5
95
330
3
100
AcDbSymbolTableRecord
100
AcDbTextStyleTableRecord
  2
Text poznámky (ISO)
 70
     0
 40
0.0
 41
1.0
 50
0.0
 71
     0
 42
0.2
  3
TAHOMA.TTF
  4

1001
ACAD
1000
Tahoma
1071
      256
  0
STYLE
  5
96
330
3
100
AcDbSymbolTableRecord
100
AcDbTextStyleTableRecord
  2
TEXT20_41
 70
     0
 40
0.0
 41
1.0
 50
0.0
 71
     0
 42
0.2
  3
TAHOMA.TTF
  4

1001
ACAD
1000
Tahoma
1071
      256
  0
STYLE
  5
97
330
3
100
AcDbSymbolTableRecord
100
AcDbTextStyleTableRecord
  2
TEXT20_59
 70
     0
 40
0.0
 41
1.0
 50
0.0
 71
     0
 42
0.2
  3
TAHOMA.TTF
  4

1001
ACAD
1000
Tahoma
1071
      256
  0
STYLE
  5
1D7
330
3
100
AcDbSymbolTableRecord
100
AcDbTextStyleTableRecord
  2
Styl textu62
 70
     0
 40
0.0
 41
0.8000000119209289
 50
0.0
 71
     0
 42
0.2
  3
TAHOMA.TTF
  4

1001
ACAD
1000
Tahoma
1071
      256
  0
STYLE
  5
1DE
330
3
100
AcDbSymbolTableRecord
100
AcDbTextStyleTableRecord
  2
Styl textu58
 70
     0
 40
0.0
 41
0.8000000119209289
 50
0.0
 71
     0
 42
0.2
  3
TAHOMA.TTF
  4

1001
ACAD
1000
Tahoma
1071
      256
  0
STYLE
  5
1E0
330
3
100
AcDbSymbolTableRecord
100
AcDbTextStyleTableRecord
  2
Styl textu63
 70
     0
 40
0.0
 41
0.75
 50
0.0
 71
     0
 42
0.2
  3
TAHOMA.TTF
  4

1001
ACAD
1000
Tahoma
1071
      256
  0
STYLE
  5
1E4
330
3
100
AcDbSymbolTableRecord
100
AcDbTextStyleTableRecord
  2
Styl textu75
 70
     0
 40
0.0
 41
0.8000000119209289
 50
0.0
 71
     0
 42
0.2
  3
TAHOMA.TTF
  4

1001
ACAD
1000
Tahoma
1071
      256
  0
STYLE
  5
1E6
330
3
100
AcDbSymbolTableRecord
100
AcDbTextStyleTableRecord
  2
Styl textu72
 70
     0
 40
0.0
 41
0.6999999880790711
 50
0.0
 71
     0
 42
0.2
  3
TAHOMA.TTF
  4

1001
ACAD
1000
Tahoma
1071
      256
  0
STYLE
  5
1FC
330
3
100
AcDbSymbolTableRecord
100
AcDbTextStyleTableRecord
  2
Styl textu9
 70
     0
 40
0.0
 41
1.0
 50
0.0
 71
     0
 42
0.2
  3
ARIAL.TTF
  4

1001
ACAD
1000
Arial
1071
      256
  0
STYLE
  5
200
330
3
100
AcDbSymbolTableRecord
100
AcDbTextStyleTableRecord
  2
Styl textu40
 70
     0
 40
0.0
 41
1.0
 50
0.0
 71
     0
 42
0.2
  3
ARIAL.TTF
  4

1001
ACAD
1000
Arial
1071
      256
  0
STYLE
  5
204
330
3
100
AcDbSymbolTableRecord
100
AcDbTextStyleTableRecord
  2
Styl textu94
 70
     0
 40
0.0
 41
1.0
 50
0.0
 71
     0
 42
0.2
  3
TAHOMA.TTF
  4

1001
ACAD
1000
Tahoma
1071
      256
  0
STYLE
  5
9C3
330
3
100
AcDbSymbolTableRecord
100
AcDbTextStyleTableRecord
  2

 70
     1
 40
0.0
 41
1.0
 50
0.0
 71
     0
 42
0.2
  3
genltshp.shx
  4

  0
STYLE
  5
9D1
330
3
100
AcDbSymbolTableRecord
100
AcDbTextStyleTableRecord
  2
ACISOTS
 70
     0
 40
1.0
 41
1.0
 50
0.0
 71
     0
 42
0.2
  3
isocp.shx
  4

  0
STYLE
  5
9D2
330
3
100
AcDbSymbolTableRecord
100
AcDbTextStyleTableRecord
  2
ACISOGDT
 70
     0
 40
0.0
 41
1.0
 50
0.0
 71
     0
 42
0.2
  3
amgdt.shx
  4

  0
ENDTAB
  0
TABLE
  2
VIEW
  5
6
330
0
100
AcDbSymbolTable
 70
     0
  0
ENDTAB
  0
TABLE
  2
UCS
  5
7
330
0
100
AcDbSymbolTable
 70
     0
  0
ENDTAB
  0
TABLE
  2
APPID
  5
9
330
0
100
AcDbSymbolTable
 70
    23
  0
APPID
  5
56
330
9
100
AcDbSymbolTableRecord
100
AcDbRegAppTableRecord
  2
ACAD
 70
     0
  0
APPID
  5
5E
330
9
100
AcDbSymbolTableRecord
100
AcDbRegAppTableRecord
  2
AcadAnnotative
 70
     0
  0
APPID
  5
1FF
330
9
100
AcDbSymbolTableRecord
100
AcDbRegAppTableRecord
  2
AcadAnnoPO
 70
     0
  0
APPID
  5
7BB
330
9
100
AcDbSymbolTableRecord
100
AcDbRegAppTableRecord
  2
ACAD_DSTYLE_DIMRADIAL_EXTENSION
 70
     0
  0
APPID
  5
947
330
9
100
AcDbSymbolTableRecord
100
AcDbRegAppTableRecord
  2
MCAD_NO_VIS
 70
     0
  0
APPID
  5
948
330
9
100
AcDbSymbolTableRecord
100
AcDbRegAppTableRecord
  2
ACAD_TEMP_GRAPHIC
 70
     0
  0
APPID
  5
978
330
9
100
AcDbSymbolTableRecord
100
AcDbRegAppTableRecord
  2
AD_DRAW
 70
     0
  0
APPID
  5
97B
330
9
100
AcDbSymbolTableRecord
100
AcDbRegAppTableRecord
  2
ACATTRIBSERVICES
 70
     0
  0
APPID
  5
99B
330
9
100
AcDbSymbolTableRecord
100
AcDbRegAppTableRecord
  2
DESIGNERASSEMBLIES
 70
     0
  0
APPID
  5
9A1
330
9
100
AcDbSymbolTableRecord
100
AcDbRegAppTableRecord
  2
ACADM_DIM_EDIT
 70
     0
  0
APPID
  5
9A2
330
9
100
AcDbSymbolTableRecord
100
AcDbRegAppTableRecord
  2
AMDT_DM_ADJ
 70
     0
  0
APPID
  5
9B9
330
9
100
AcDbSymbolTableRecord
100
AcDbRegAppTableRecord
  2
ACAD_DSTYLE_DIMJAG
 70
     0
  0
APPID
  5
9BA
330
9
100
AcDbSymbolTableRecord
100
AcDbRegAppTableRecord
  2
ACAD_DSTYLE_DIMBREAK
 70
     0
  0
APPID
  5
A26
330
9
100
AcDbSymbolTableRecord
100
AcDbRegAppTableRecord
  2
ACAD_DSTYLE_DIMINSPECT
 70
     0
  0
APPID
  5
A27
330
9
100
AcDbSymbolTableRecord
100
AcDbRegAppTableRecord
  2
ACAD_DSTYLE_DIMTALN
 70
     0
  0
APPID
  5
DFB
330
9
100
AcDbSymbolTableRecord
100
AcDbRegAppTableRecord
  2
ACAD_EXEMPT_FROM_CAD_STANDARDS
 70
     0
  0
APPID
  5
E1D
330
9
100
AcDbSymbolTableRecord
100
AcDbRegAppTableRecord
  2
AcAecLayerStandard
 70
     0
  0
APPID
  5
FB2
330
9
100
AcDbSymbolTableRecord
100
AcDbRegAppTableRecord
  2
GENIUS_GENDTOL_13
 70
     0
  0
APPID
  5
1079
330
9
100
AcDbSymbolTableRecord
100
AcDbRegAppTableRecord
  2
ACAD_MLEADERVER
 70
     0
  0
APPID
  5
10B4
330
9
100
AcDbSymbolTableRecord
100
AcDbRegAppTableRecord
  2
ACAD_DSTYLE_DIMARC_LENGTH_SYMBOL
 70
     0
  0
APPID
  5
10B5
330
9
100
AcDbSymbolTableRecord
100
AcDbRegAppTableRecord
  2
ACAD_DSTYLE_DIM_LINETYPE
 70
     0
  0
APPID
  5
10B6
330
9
100
AcDbSymbolTableRecord
100
AcDbRegAppTableRecord
  2
ACAD_DSTYLE_DIM_EXT1_LINETYPE
 70
     0
  0
APPID
  5
10B7
330
9
100
AcDbSymbolTableRecord
100
AcDbRegAppTableRecord
  2
ACAD_DSTYLE_DIM_EXT2_LINETYPE
 70
     0
  0
ENDTAB
  0
TABLE
  2
DIMSTYLE
  5
A
330
0
100
AcDbSymbolTable
 70
    25
100
AcDbDimStyleTable
 71
     3
340
58
340
A25
340
B1
  0
DIMSTYLE
105
58
330
A
100
AcDbSymbolTableRecord
100
AcDbDimStyleTableRecord
  2
Standard
 70
     0
340
55
  0
DIMSTYLE
105
59
330
A
100
AcDbSymbolTableRecord
100
AcDbDimStyleTableRecord
  2
Annotative
 70
     0
340
55
1001
AcadAnnotative
1000
AnnotativeData
1002
{
1070
     1
1070
     1
1002
}
  0
DIMSTYLE
105
A7
330
A
100
AcDbSymbolTableRecord
100
AcDbDimStyleTableRecord
  2
Různé objekty (ISO)
 70
     0
 40
1.5
 41
2.5
 42
0.0
 43
5.999999999999999
 44
1.0
 45
0.00000001
 46
10.0
 73
     0
 74
     0
 77
     1
 78
     8
 79
     2
140
5.25
143
0.03937
146
0.6676571709769112
147
0.762
171
     3
172
     1
176
   256
177
   256
178
   256
179
     2
271
     2
272
     2
274
     3
278
    44
284
     8
340
93
341
98
371
    -1
372
    -1
  0
DIMSTYLE
105
A8
330
A
100
AcDbSymbolTableRecord
100
AcDbDimStyleTableRecord
  2
Různé objekty (ISO)$7
 70
     0
 40
1.5
 41
5.0
 42
0.0
 43
5.999999999999999
 44
1.0
 45
0.00000001
 46
10.0
 73
     0
 74
     0
 77
     1
 78
     8
 79
     2
140
5.25
143
0.03937
146
0.6676571709769112
147
0.762
171
     3
172
     1
176
   256
177
   256
178
   256
179
     2
271
     2
272
     2
274
     3
278
    44
284
     8
340
93
341
98
371
    25
372
    -1
  0
DIMSTYLE
105
A9
330
A
100
AcDbSymbolTableRecord
100
AcDbDimStyleTableRecord
  2
Výchozí - Metoda 1b (ISO)
 70
     0
 40
1.5
 41
2.5
 42
0.0
 43
5.999999999999999
 44
1.0
 45
0.00000001
 46
10.0
 73
     0
 77
     1
 78
     8
 79
     2
140
3.5
143
0.03937
147
0.762
171
     3
172
     1
176
   256
177
   256
178
   256
179
     2
271
     2
272
     2
274
     3
278
    44
284
     8
286
     8
340
95
371
    -1
372
    -1
  0
DIMSTYLE
105
AA
330
A
100
AcDbSymbolTableRecord
100
AcDbDimStyleTableRecord
  2
Výchozí - Metoda 1b (ISO)$7
 70
     0
 40
1.5
 41
2.5
 42
0.0
 43
5.999999999999999
 44
1.0
 45
0.00000001
 46
10.0
 73
     0
 77
     1
 78
     8
 79
     2
140
3.5
143
0.03937
147
0.762
171
     3
172
     1
176
   256
177
   256
178
   256
179
     2
271
     2
272
     2
274
     3
278
    44
284
     8
286
     8
340
95
371
    -1
372
    -1
  0
DIMSTYLE
105
AB
330
A
100
AcDbSymbolTableRecord
100
AcDbDimStyleTableRecord
  2
Výchozí - Metoda 2a (ISO)
 70
     0
 40
1.5
 41
2.5
 42
0.0
 43
5.999999999999999
 44
1.0
 45
0.00000001
 46
10.0
 77
     1
 78
     8
 79
     2
140
3.5
143
0.03937
147
0.762
171
     3
172
     1
176
   256
177
   256
178
   256
179
     2
271
     2
272
     2
274
     3
278
    44
284
     8
286
     8
340
95
371
    -1
372
    -1
  0
DIMSTYLE
105
AC
330
A
100
AcDbSymbolTableRecord
100
AcDbDimStyleTableRecord
  2
Výchozí - Metoda 2a (ISO)$7
 70
     0
 40
1.5
 41
2.5
 42
0.0
 43
5.999999999999999
 44
1.0
 45
0.00000001
 46
10.0
 77
     1
 78
     8
 79
     2
140
3.5
143
0.03937
147
0.762
171
     3
172
     1
176
   256
177
   256
178
   256
179
     2
271
     2
272
     2
274
     3
278
    44
284
     8
286
     8
340
95
371
    -1
372
    -1
  0
DIMSTYLE
105
AD
330
A
100
AcDbSymbolTableRecord
100
AcDbDimStyleTableRecord
  2
Výchozí - Metoda 2b (ISO)
 70
     0
 40
1.5
 41
2.5
 42
0.0
 43
5.999999999999999
 44
1.0
 45
0.00000001
 46
10.0
 77
     1
 78
     8
 79
     2
140
3.5
143
0.03937
147
0.762
171
     3
172
     1
176
   256
177
   256
178
   256
179
     2
271
     2
272
     2
274
     3
278
    44
284
     8
286
     8
340
95
371
    -1
372
    -1
  0
DIMSTYLE
105
AE
330
A
100
AcDbSymbolTableRecord
100
AcDbDimStyleTableRecord
  2
Výchozí - Metoda 2b (ISO)$7
 70
     0
 40
1.5
 41
2.5
 42
0.0
 43
5.999999999999999
 44
1.0
 45
0.00000001
 46
10.0
 77
     1
 78
     8
 79
     2
140
3.5
143
0.03937
147
0.762
171
     3
172
     1
176
   256
177
   256
178
   256
179
     2
271
     2
272
     2
274
     3
278
    44
284
     8
286
     8
340
95
371
    -1
372
    -1
  0
DIMSTYLE
105
AF
330
A
100
AcDbSymbolTableRecord
100
AcDbDimStyleTableRecord
  2
Výchozí - mm [palce] (ISO)
 70
     0
  4
 in
 40
1.5
 41
2.5
 42
0.0
 43
5.999999999999999
 44
3.174999999999998
 45
0.00000001
 46
10.0
 73
     0
 74
     0
 77
     1
 78
     8
 79
     2
140
3.5
143
0.03937
147
0.762
170
     1
171
     3
172
     1
176
   256
177
   256
178
   256
179
     3
271
     3
272
     2
274
     3
275
     1
278
    44
284
     8
285
     8
286
     8
340
95
371
    -1
372
    -1
  0
DIMSTYLE
105
B0
330
A
100
AcDbSymbolTableRecord
100
AcDbDimStyleTableRecord
  2
Výchozí - mm [palce] (ISO)$7
 70
     0
  4
 in
 40
1.5
 41
2.5
 42
0.0
 43
5.999999999999999
 44
3.174999999999998
 45
0.00000001
 46
10.0
 73
     0
 74
     0
 77
     1
 78
     8
 79
     2
140
3.5
143
0.03937
147
0.762
170
     1
171
     3
172
     1
176
   256
177
   256
178
   256
179
     3
271
     3
272
     2
274
     3
275
     1
278
    44
284
     8
285
     8
286
     8
340
95
371
    -1
372
    -1
  0
DIMSTYLE
105
B1
330
A
100
AcDbSymbolTableRecord
100
AcDbDimStyleTableRecord
  2
Výchozí (ISO)
 70
     0
 40
1.5
 41
2.5
 42
0.0
 43
5.999999999999999
 44
1.0
 45
0.00000001
 46
10.0
 73
     0
 74
     0
 77
     1
 78
     8
 79
     2
140
3.5
143
0.03937
146
1.001485756465366
147
0.762
171
     3
172
     1
176
   256
177
   256
178
   256
179
     2
271
     2
272
     2
274
     3
278
    44
284
     8
340
95
371
    -1
372
    -1
  0
DIMSTYLE
105
B2
330
A
100
AcDbSymbolTableRecord
100
AcDbDimStyleTableRecord
  2
Výchozí (ISO)$7
 70
     0
 40
1.5
 41
2.5
 42
0.0
 43
5.999999999999999
 44
1.0
 45
0.00000001
 46
10.0
 73
     0
 74
     0
 77
     1
 78
     8
 79
     2
140
3.5
143
0.03937
146
1.001485756465366
147
0.762
171
     3
172
     1
176
   256
177
   256
178
   256
179
     2
271
     2
272
     2
274
     3
278
    44
284
     8
340
95
371
    -1
372
    -1
  0
DIMSTYLE
105
B3
330
A
100
AcDbSymbolTableRecord
100
AcDbDimStyleTableRecord
  2
Alternativní (ISO)
 70
     0
 40
1.5
 41
2.5
340
55
342
B4
  0
DIMSTYLE
105
C5
330
A
100
AcDbSymbolTableRecord
100
AcDbDimStyleTableRecord
  2
Základny (ISO)
 70
     0
 40
1.5
 41
2.5
340
55
342
B4
  0
DIMSTYLE
105
9B8
102
{ACAD_REACTORS
330
1246
102
}
330
A
100
AcDbSymbolTableRecord
100
AcDbDimStyleTableRecord
  2
AM_ISO
 70
     0
  4
"
 41
3.5
 42
1.0
 43
10.0
 44
1.0
 47
0.1
 48
0.1
 73
     0
 74
     0
 77
     1
 78
     8
 79
     2
140
3.5
141
0.0
143
0.0393701
146
0.71
147
1.5
172
     1
176
   256
177
   256
178
   140
271
     2
272
     3
274
     4
283
     0
284
     8
340
55
371
    -1
372
    -1
1001
ACAD_DSTYLE_DIMJAG
1070
   388
1040
1.5
1001
ACAD_DSTYLE_DIMBREAK
1070
   391
1040
3.75
1001
ACAD_DSTYLE_DIMARC_LENGTH_SYMBOL
1070
   379
1070
     1
1001
ACAD_DSTYLE_DIM_LINETYPE
1070
   380
1005
5B
1001
ACAD_DSTYLE_DIM_EXT1_LINETYPE
1070
   381
1005
5B
1001
ACAD_DSTYLE_DIM_EXT2_LINETYPE
1070
   382
1005
5B
  0
DIMSTYLE
105
9C5
330
A
100
AcDbSymbolTableRecord
100
AcDbDimStyleTableRecord
  2
AM_ISO$3
 70
     0
  4
"
 41
3.5
 42
1.0
 43
10.0
 44
1.0
 47
0.1
 48
0.1
 73
     0
 77
     1
 78
     8
 79
     2
140
3.5
141
0.0
143
0.0393701
146
0.71
147
1.5
176
   256
177
   256
178
   140
271
     2
272
     3
274
     4
283
     0
284
     8
288
     1
289
     0
340
55
371
    -1
372
    -1
1001
ACAD_DSTYLE_DIMBREAK
1070
   391
1040
3.75
1001
ACAD_DSTYLE_DIMJAG
1070
   388
1040
1.5
1001
ACAD_DSTYLE_DIMARC_LENGTH_SYMBOL
1070
   379
1070
     1
1001
ACAD_DSTYLE_DIM_LINETYPE
1070
   380
1005
5B
1001
ACAD_DSTYLE_DIM_EXT1_LINETYPE
1070
   381
1005
5B
1001
ACAD_DSTYLE_DIM_EXT2_LINETYPE
1070
   382
1005
5B
  0
DIMSTYLE
105
9C6
330
A
100
AcDbSymbolTableRecord
100
AcDbDimStyleTableRecord
  2
AM_ISO$4
 70
     0
  4
"
 41
3.5
 42
1.0
 43
10.0
 44
1.0
 47
0.1
 48
0.1
 73
     0
 77
     1
 78
     8
 79
     2
140
3.5
141
0.0
143
0.0393701
146
0.71
147
1.5
176
   256
177
   256
178
   140
271
     2
272
     3
274
     4
283
     0
284
     8
288
     1
289
     0
340
55
371
    -1
372
    -1
1001
ACAD_DSTYLE_DIMBREAK
1070
   391
1040
3.75
1001
ACAD_DSTYLE_DIMJAG
1070
   388
1040
1.5
1001
ACAD_DSTYLE_DIMARC_LENGTH_SYMBOL
1070
   379
1070
     1
1001
ACAD_DSTYLE_DIM_LINETYPE
1070
   380
1005
5B
1001
ACAD_DSTYLE_DIM_EXT1_LINETYPE
1070
   381
1005
5B
1001
ACAD_DSTYLE_DIM_EXT2_LINETYPE
1070
   382
1005
5B
  0
DIMSTYLE
105
9C7
330
A
100
AcDbSymbolTableRecord
100
AcDbDimStyleTableRecord
  2
AM_ISO$6
 70
     0
  4
"
 41
3.5
 42
1.0
 43
10.0
 44
1.0
 47
0.1
 48
0.1
 73
     0
 74
     0
 78
     8
 79
     2
140
3.5
141
0.0
143
0.0393701
146
0.71
147
1.5
172
     1
176
   256
177
   256
178
   140
271
     2
272
     3
274
     4
283
     0
284
     8
340
55
371
    -1
372
    -1
1001
ACAD_DSTYLE_DIMBREAK
1070
   391
1040
3.75
1001
ACAD_DSTYLE_DIMJAG
1070
   388
1040
1.5
1001
ACAD_DSTYLE_DIMARC_LENGTH_SYMBOL
1070
   379
1070
     1
1001
ACAD_DSTYLE_DIM_LINETYPE
1070
   380
1005
5B
1001
ACAD_DSTYLE_DIM_EXT1_LINETYPE
1070
   381
1005
5B
1001
ACAD_DSTYLE_DIM_EXT2_LINETYPE
1070
   382
1005
5B
  0
DIMSTYLE
105
9C8
330
A
100
AcDbSymbolTableRecord
100
AcDbDimStyleTableRecord
  2
AM_ISO$7
 70
     0
  4
"
 41
3.5
 42
1.0
 43
10.0
 44
1.0
 47
0.1
 48
0.1
 73
     0
 74
     0
 77
     1
 78
     8
 79
     2
140
3.5
141
0.0
143
0.0393701
146
0.71
147
1.5
172
     1
176
   256
177
   256
178
   140
271
     2
272
     3
274
     4
283
     0
284
     8
340
55
371
    -1
372
    -1
1001
ACAD_DSTYLE_DIMBREAK
1070
   391
1040
3.75
1001
ACAD_DSTYLE_DIMJAG
1070
   388
1040
1.5
1001
ACAD_DSTYLE_DIMARC_LENGTH_SYMBOL
1070
   379
1070
     1
1001
ACAD_DSTYLE_DIM_LINETYPE
1070
   380
1005
5B
1001
ACAD_DSTYLE_DIM_EXT1_LINETYPE
1070
   381
1005
5B
1001
ACAD_DSTYLE_DIM_EXT2_LINETYPE
1070
   382
1005
5B
  0
DIMSTYLE
105
9C9
330
A
100
AcDbSymbolTableRecord
100
AcDbDimStyleTableRecord
  2
AM_ISO$SF
 70
     0
  4
"
 41
3.5
 42
1.0
 43
10.0
 44
1.0
 47
0.1
 48
0.1
 73
     0
 74
     0
 75
     1
 76
     1
 77
     1
 78
     8
 79
     2
140
3.5
141
0.0
143
0.0393701
146
0.71
147
1.5
172
     1
176
   256
177
   256
178
   140
271
     2
272
     3
274
     4
283
     0
284
     8
340
55
371
    -1
372
    -1
1001
ACAD_DSTYLE_DIMBREAK
1070
   391
1040
3.75
1001
ACAD_DSTYLE_DIMJAG
1070
   388
1040
1.5
1001
ACAD_DSTYLE_DIMARC_LENGTH_SYMBOL
1070
   379
1070
     1
1001
ACAD_DSTYLE_DIM_LINETYPE
1070
   380
1005
5B
1001
ACAD_DSTYLE_DIM_EXT1_LINETYPE
1070
   381
1005
5B
1001
ACAD_DSTYLE_DIM_EXT2_LINETYPE
1070
   382
1005
5B
  0
DIMSTYLE
105
9CE
330
A
100
AcDbSymbolTableRecord
100
AcDbDimStyleTableRecord
  2
AM_ISO$SH
 70
     0
  4
"
 41
3.5
 42
1.0
 43
10.0
 44
1.0
 47
0.1
 48
0.1
 73
     0
 74
     0
 75
     1
 76
     1
 77
     1
 78
     8
 79
     2
140
3.5
141
0.0
143
0.0393701
144
2.0
146
0.71
147
1.5
172
     1
173
     1
176
   256
177
   256
178
   140
271
     2
272
     3
274
     4
283
     0
284
     8
340
55
343
9CA
371
    -1
372
    -1
1001
ACAD_DSTYLE_DIMBREAK
1070
   391
1040
3.75
1001
ACAD_DSTYLE_DIMJAG
1070
   388
1040
1.5
1001
ACAD_DSTYLE_DIMARC_LENGTH_SYMBOL
1070
   379
1070
     1
1001
ACAD_DSTYLE_DIM_LINETYPE
1070
   380
1005
5B
1001
ACAD_DSTYLE_DIM_EXT1_LINETYPE
1070
   381
1005
5B
1001
ACAD_DSTYLE_DIM_EXT2_LINETYPE
1070
   382
1005
5B
  0
DIMSTYLE
105
A25
102
{ACAD_REACTORS
330
E6E
330
E4C
330
EB2
330
E20
330
EF6
330
ED4
330
E90
102
}
330
A
100
AcDbSymbolTableRecord
100
AcDbDimStyleTableRecord
  2
GEN-ISO
 70
     0
  3
<>
  4
"
 40
2.0
 41
2.5
 42
1.0
 43
7.0
 44
1.0
 47
0.1
 48
0.1
 73
     0
 74
     0
 77
     1
 78
     8
140
7.0
141
0.0
143
0.0393701
146
0.71
147
0.6
172
     1
176
   256
177
   256
178
     7
271
     2
272
     2
283
     0
340
55
1001
ACAD_DSTYLE_DIMJAG
1070
   388
1040
1.5
1001
ACAD_DSTYLE_DIMTALN
1070
   392
1070
     0
  0
DIMSTYLE
105
E1E
330
A
100
AcDbSymbolTableRecord
100
AcDbDimStyleTableRecord
  2
Standard$0
 70
     0
340
55
1001
ACAD_DSTYLE_DIMBREAK
1070
   391
1040
3.75
1001
ACAD_DSTYLE_DIMJAG
1070
   388
1040
1.5
  0
ENDTAB
  0
TABLE
  2
BLOCK_RECORD
  5
1
330
0
100
AcDbSymbolTable
 70
    54
  0
BLOCK_RECORD
  5
6C
330
1
100
AcDbSymbolTableRecord
100
AcDbBlockTableRecord
  2
*Model_Space
340
6F
  0
BLOCK_RECORD
  5
68
330
1
100
AcDbSymbolTableRecord
100
AcDbBlockTableRecord
  2
*Paper_Space
340
6B
  0
BLOCK_RECORD
  5
70
330
1
100
AcDbSymbolTableRecord
100
AcDbBlockTableRecord
  2
*Paper_Space0
340
73
  0
BLOCK_RECORD
  5
98
330
1
100
AcDbSymbolTableRecord
100
AcDbBlockTableRecord
  2
Filled-1
340
0
  0
BLOCK_RECORD
  5
B4
330
1
100
AcDbSymbolTableRecord
100
AcDbBlockTableRecord
  2
_Closed
340
0
  0
BLOCK_RECORD
  5
BB
330
1
100
AcDbSymbolTableRecord
100
AcDbBlockTableRecord
  2
DatumFilled45
340
0
  0
BLOCK_RECORD
  5
C6
330
1
100
AcDbSymbolTableRecord
100
AcDbBlockTableRecord
  2
WIG-svarovani
340
0
  0
BLOCK_RECORD
  5
CB
330
1
100
AcDbSymbolTableRecord
100
AcDbBlockTableRecord
  2
Popis kotvy_srouby
340
0
  0
BLOCK_RECORD
  5
CF
330
1
100
AcDbSymbolTableRecord
100
AcDbBlockTableRecord
  2
Mater. provedeni Art.
340
0
  0
BLOCK_RECORD
  5
F1
330
1
100
AcDbSymbolTableRecord
100
AcDbBlockTableRecord
  2
Art. s popisy
340
0
  0
BLOCK_RECORD
  5
113
330
1
100
AcDbSymbolTableRecord
100
AcDbBlockTableRecord
  2
Tryskat
340
0
  0
BLOCK_RECORD
  5
117
330
1
100
AcDbSymbolTableRecord
100
AcDbBlockTableRecord
  2
Morit
340
0
  0
BLOCK_RECORD
  5
11B
330
1
100
AcDbSymbolTableRecord
100
AcDbBlockTableRecord
  2
zinkovat
340
0
  0
BLOCK_RECORD
  5
11F
330
1
100
AcDbSymbolTableRecord
100
AcDbBlockTableRecord
  2
Nater
340
0
  0
BLOCK_RECORD
  5
123
330
1
100
AcDbSymbolTableRecord
100
AcDbBlockTableRecord
  2
Brus
340
0
  0
BLOCK_RECORD
  5
127
330
1
100
AcDbSymbolTableRecord
100
AcDbBlockTableRecord
  2
Elektroliticky lestit
340
0
  0
BLOCK_RECORD
  5
12B
330
1
100
AcDbSymbolTableRecord
100
AcDbBlockTableRecord
  2
Mořit de.
340
0
  0
BLOCK_RECORD
  5
12F
330
1
100
AcDbSymbolTableRecord
100
AcDbBlockTableRecord
  2
Žlab bez spádu De.
340
0
  0
BLOCK_RECORD
  5
133
330
1
100
AcDbSymbolTableRecord
100
AcDbBlockTableRecord
  2
Žlab bez spádu Ang.
340
0
  0
BLOCK_RECORD
  5
137
330
1
100
AcDbSymbolTableRecord
100
AcDbBlockTableRecord
  2
Aschl Nirotec-tryskání
340
0
  0
BLOCK_RECORD
  5
13B
330
1
100
AcDbSymbolTableRecord
100
AcDbBlockTableRecord
  2
Popis šrouby_kotvy Ang.
340
0
  0
BLOCK_RECORD
  5
13F
330
1
100
AcDbSymbolTableRecord
100
AcDbBlockTableRecord
  2
Spád žlabu Ang.
340
0
  0
BLOCK_RECORD
  5
143
330
1
100
AcDbSymbolTableRecord
100
AcDbBlockTableRecord
  2
Spád žlabu De.
340
0
  0
BLOCK_RECORD
  5
147
330
1
100
AcDbSymbolTableRecord
100
AcDbBlockTableRecord
  2
Kartáč + folie
340
0
  0
BLOCK_RECORD
  5
14B
330
1
100
AcDbSymbolTableRecord
100
AcDbBlockTableRecord
  2
Komplet tryskat De.
340
0
  0
BLOCK_RECORD
  5
14F
330
1
100
AcDbSymbolTableRecord
100
AcDbBlockTableRecord
  2
Mořit Ang.
340
0
  0
BLOCK_RECORD
  5
153
330
1
100
AcDbSymbolTableRecord
100
AcDbBlockTableRecord
  2
Rámečky Default Border
340
0
  0
BLOCK_RECORD
  5
19A
330
1
100
AcDbSymbolTableRecord
100
AcDbBlockTableRecord
  2
Rohová razítka ACO-razitko
340
0
  0
BLOCK_RECORD
  5
4F3
330
1
100
AcDbSymbolTableRecord
100
AcDbBlockTableRecord
  2
KUSOVNÍK
340
0
  0
BLOCK_RECORD
  5
55E
330
1
100
AcDbSymbolTableRecord
100
AcDbBlockTableRecord
  2
*D27
340
0
  0
BLOCK_RECORD
  5
641
330
1
100
AcDbSymbolTableRecord
100
AcDbBlockTableRecord
  2
*D28
340
0
  0
BLOCK_RECORD
  5
723
330
1
100
AcDbSymbolTableRecord
100
AcDbBlockTableRecord
  2
*D29
340
0
  0
BLOCK_RECORD
  5
7CB
330
1
100
AcDbSymbolTableRecord
100
AcDbBlockTableRecord
  2
*D30
340
0
  0
BLOCK_RECORD
  5
8AC
330
1
100
AcDbSymbolTableRecord
100
AcDbBlockTableRecord
  2
Pozice1
340
0
  0
BLOCK_RECORD
  5
8BE
330
1
100
AcDbSymbolTableRecord
100
AcDbBlockTableRecord
  2
Pozice2
340
0
  0
BLOCK_RECORD
  5
8D0
330
1
100
AcDbSymbolTableRecord
100
AcDbBlockTableRecord
  2
Pozice3
340
0
  0
BLOCK_RECORD
  5
8E6
330
1
100
AcDbSymbolTableRecord
100
AcDbBlockTableRecord
  2
Pozice4
340
0
  0
BLOCK_RECORD
  5
9CA
330
1
100
AcDbSymbolTableRecord
100
AcDbBlockTableRecord
  2
GENAXEH
340
0
  0
BLOCK_RECORD
  5
9E4
330
1
100
AcDbSymbolTableRecord
100
AcDbBlockTableRecord
  2
*D36
340
0
  0
BLOCK_RECORD
  5
9F0
330
1
100
AcDbSymbolTableRecord
100
AcDbBlockTableRecord
  2
*D37
340
0
  0
BLOCK_RECORD
  5
9FC
330
1
100
AcDbSymbolTableRecord
100
AcDbBlockTableRecord
  2
*D38
340
0
  0
BLOCK_RECORD
  5
A08
330
1
100
AcDbSymbolTableRecord
100
AcDbBlockTableRecord
  2
*D39
340
0
  0
BLOCK_RECORD
  5
A14
330
1
100
AcDbSymbolTableRecord
100
AcDbBlockTableRecord
  2
*D40
340
0
  0
BLOCK_RECORD
  5
D65
330
1
100
AcDbSymbolTableRecord
100
AcDbBlockTableRecord
  2
*D41
340
0
  0
BLOCK_RECORD
  5
D71
330
1
100
AcDbSymbolTableRecord
100
AcDbBlockTableRecord
  2
*D42
340
0
  0
BLOCK_RECORD
  5
D7D
330
1
100
AcDbSymbolTableRecord
100
AcDbBlockTableRecord
  2
*D43
340
0
  0
BLOCK_RECORD
  5
D89
330
1
100
AcDbSymbolTableRecord
100
AcDbBlockTableRecord
  2
*D44
340
0
  0
BLOCK_RECORD
  5
D95
330
1
100
AcDbSymbolTableRecord
100
AcDbBlockTableRecord
  2
*D45
340
0
  0
BLOCK_RECORD
  5
E21
330
1
100
AcDbSymbolTableRecord
100
AcDbBlockTableRecord
  2
*D46
340
0
  0
BLOCK_RECORD
  5
E4D
330
1
100
AcDbSymbolTableRecord
100
AcDbBlockTableRecord
  2
*D47
340
0
  0
BLOCK_RECORD
  5
E6F
330
1
100
AcDbSymbolTableRecord
100
AcDbBlockTableRecord
  2
*D48
340
0
  0
BLOCK_RECORD
  5
E91
330
1
100
AcDbSymbolTableRecord
100
AcDbBlockTableRecord
  2
*D49
340
0
  0
BLOCK_RECORD
  5
EB3
330
1
100
AcDbSymbolTableRecord
100
AcDbBlockTableRecord
  2
*D50
340
0
  0
BLOCK_RECORD
  5
ED5
330
1
100
AcDbSymbolTableRecord
100
AcDbBlockTableRecord
  2
*D51
340
0
  0
BLOCK_RECORD
  5
EF7
330
1
100
AcDbSymbolTableRecord
100
AcDbBlockTableRecord
  2
*D52
340
0
  0
ENDTAB
  0
ENDSEC
  0
SECTION
  2
BLOCKS
  0
BLOCK
  5
6D
330
6C
100
AcDbEntity
  8
0
100
AcDbBlockBegin
  2
*Model_Space
 70
     0
 10
0.0
 20
0.0
 30
0.0
  3
*Model_Space
  1

  0
ENDBLK
  5
6E
330
6C
100
AcDbEntity
  8
0
100
AcDbBlockEnd
  0
BLOCK
  5
69
330
68
100
AcDbEntity
 67
     1
  8
0
100
AcDbBlockBegin
  2
*Paper_Space
 70
     0
 10
0.0
 20
0.0
 30
0.0
  3
*Paper_Space
  1

  0
ENDBLK
  5
6A
330
68
100
AcDbEntity
 67
     1
  8
0
100
AcDbBlockEnd
  0
BLOCK
  5
71
330
70
100
AcDbEntity
 67
     1
  8
0
100
AcDbBlockBegin
  2
*Paper_Space0
 70
     0
 10
0.0
 20
0.0
 30
0.0
  3
*Paper_Space0
  1

  0
ENDBLK
  5
72
330
70
100
AcDbEntity
 67
     1
  8
0
100
AcDbBlockEnd
  0
BLOCK
  5
99
330
98
100
AcDbEntity
  8
0
100
AcDbBlockBegin
  2
Filled-1
 70
     0
 10
0.0
 20
0.0
 30
0.0
  3
Filled-1
  1

  0
LINE
  5
9B
330
98
100
AcDbEntity
  8
0
 62
     0
100
AcDbLine
 10
-1.0
 20
0.0
 30
0.0
 11
0.0
 21
0.0
 31
0.0
  0
POLYLINE
  5
9D
330
98
100
AcDbEntity
  8
0
 62
     0
100
AcDb2dPolyline
 66
     1
 10
0.0
 20
0.0
 30
0.0
 70
   128
  0
VERTEX
  5
9E
330
9D
100
AcDbEntity
  8
0
 62
     0
100
AcDbVertex
100
AcDb2dVertex
 10
-1.0
 20
-0.1
 30
0.0
  0
VERTEX
  5
9F
330
9D
100
AcDbEntity
  8
0
 62
     0
100
AcDbVertex
100
AcDb2dVertex
 10
0.0
 20
0.0
 30
0.0
  0
VERTEX
  5
A1
330
9D
100
AcDbEntity
  8
0
 62
     0
100
AcDbVertex
100
AcDb2dVertex
 10
-1.0
 20
0.1
 30
0.0
  0
VERTEX
  5
A2
330
9D
100
AcDbEntity
  8
0
 62
     0
100
AcDbVertex
100
AcDb2dVertex
 10
-1.0
 20
-0.1
 30
0.0
  0
SEQEND
  5
A0
330
9D
100
AcDbEntity
  8
0
 62
     0
  0
SOLID
  5
A3
330
98
100
AcDbEntity
  8
0
 62
     0
100
AcDbTrace
 10
-1.0
 20
-0.1
 30
0.0
 11
0.0
 21
0.0
 31
0.0
 12
-1.0
 22
0.1
 32
0.0
 13
-1.0
 23
-0.1
 33
0.0
  0
LINE
  5
A4
330
98
100
AcDbEntity
  8
0
 62
     0
100
AcDbLine
 10
-1.0
 20
-0.1
 30
0.0
 11
0.0
 21
0.0
 31
0.0
  0
LINE
  5
A5
330
98
100
AcDbEntity
  8
0
 62
     0
100
AcDbLine
 10
0.0
 20
0.0
 30
0.0
 11
-1.0
 21
0.1
 31
0.0
  0
LINE
  5
A6
330
98
100
AcDbEntity
  8
0
 62
     0
100
AcDbLine
 10
-1.0
 20
0.1
 30
0.0
 11
-1.0
 21
-0.1
 31
0.0
  0
ENDBLK
  5
9A
330
98
100
AcDbEntity
  8
0
100
AcDbBlockEnd
  0
BLOCK
  5
B9
330
B4
100
AcDbEntity
  8
0
100
AcDbBlockBegin
  2
_Closed
 70
     0
 10
0.0
 20
0.0
 30
0.0
  3
_Closed
  1

  0
LINE
  5
B5
330
B4
100
AcDbEntity
  8
0
  6
ByBlock
 62
     0
370
    -2
100
AcDbLine
 10
-1.0
 20
0.1666666666666666
 30
0.0
 11
0.0
 21
0.0
 31
0.0
  0
LINE
  5
B6
330
B4
100
AcDbEntity
  8
0
  6
ByBlock
 62
     0
370
    -2
100
AcDbLine
 10
0.0
 20
0.0
 30
0.0
 11
-1.0
 21
-0.1666666666666666
 31
0.0
  0
LINE
  5
B7
330
B4
100
AcDbEntity
  8
0
  6
ByBlock
 62
     0
370
    -2
100
AcDbLine
 10
-1.0
 20
0.1666666666666666
 30
0.0
 11
-1.0
 21
-0.1666666666666666
 31
0.0
  0
LINE
  5
B8
330
B4
100
AcDbEntity
  8
0
  6
ByBlock
 62
     0
370
    -2
100
AcDbLine
 10
0.0
 20
0.0
 30
0.0
 11
-1.0
 21
0.0
 31
0.0
  0
ENDBLK
  5
BA
330
B4
100
AcDbEntity
  8
0
100
AcDbBlockEnd
  0
BLOCK
  5
BC
330
BB
100
AcDbEntity
  8
0
100
AcDbBlockBegin
  2
DatumFilled45
 70
     0
 10
0.0
 20
0.0
 30
0.0
  3
DatumFilled45
  1

  0
POLYLINE
  5
BE
330
BB
100
AcDbEntity
  8
0
 62
     0
100
AcDb2dPolyline
 66
     1
 10
0.0
 20
0.0
 30
0.0
 70
   128
  0
VERTEX
  5
BF
330
BE
100
AcDbEntity
  8
0
 62
     0
100
AcDbVertex
100
AcDb2dVertex
 10
0.0
 20
1.0
 30
0.0
  0
VERTEX
  5
C0
330
BE
100
AcDbEntity
  8
0
 62
     0
100
AcDbVertex
100
AcDb2dVertex
 10
0.0
 20
-1.0
 30
0.0
  0
VERTEX
  5
C2
330
BE
100
AcDbEntity
  8
0
 62
     0
100
AcDbVertex
100
AcDb2dVertex
 10
-1.0
 20
0.0
 30
0.0
  0
VERTEX
  5
C3
330
BE
100
AcDbEntity
  8
0
 62
     0
100
AcDbVertex
100
AcDb2dVertex
 10
0.0
 20
1.0
 30
0.0
  0
SEQEND
  5
C1
330
BE
100
AcDbEntity
  8
0
 62
     0
  0
SOLID
  5
C4
330
BB
100
AcDbEntity
  8
0
 62
     0
100
AcDbTrace
 10
0.0
 20
1.0
 30
0.0
 11
0.0
 21
-1.0
 31
0.0
 12
-1.0
 22
0.0
 32
0.0
 13
0.0
 23
1.0
 33
0.0
  0
ENDBLK
  5
BD
330
BB
100
AcDbEntity
  8
0
100
AcDbBlockEnd
  0
BLOCK
  5
C7
330
C6
100
AcDbEntity
  8
0
100
AcDbBlockBegin
  2
WIG-svarovani
 70
     0
 10
0.0
 20
0.0
 30
0.0
  3
WIG-svarovani
  1

  0
MTEXT
  5
C9
102
{ACAD_XDICTIONARY
360
12F1
102
}
330
C6
100
AcDbEntity
  8
Značka (ISO)
100
AcDbMText
 10
-57.87338256835937
 20
16.31795931607484
 30
0.0
 40
3.499999940395355
 41
115.7467651367187
 71
     1
 72
     1
  1
WIG Schweisung, Nahte sauber geschliffen und poliert\PSichtstege geschliffen mit 240 Korn und abgeklebt.\P{\H0.85714x; \P\H1.1667x;WIG svarovani- svary dle potreby zabrousit.\PPohledove plochy brousit (vel. brusnych zrn 240)\Pa polepit paskou}
  7
Text poznámky (ISO)
 73
     1
 44
0.9596589207649227
  0
ENDBLK
  5
C8
330
C6
100
AcDbEntity
  8
0
100
AcDbBlockEnd
  0
BLOCK
  5
CC
330
CB
100
AcDbEntity
  8
0
100
AcDbBlockBegin
  2
Popis kotvy_srouby
 70
     0
 10
0.0
 20
0.0
 30
0.0
  3
Popis kotvy_srouby
  1

  0
MTEXT
  5
CE
330
CB
100
AcDbEntity
  8
Značka (ISO)
100
AcDbMText
 10
-39.79761123657226
 20
21.84130281209946
 30
0.0
 40
3.499999940395355
 41
0.0
 71
     1
 72
     1
  1
Vzdalenost nivel. sroubu ca. 1500\PVzdalenost kotev ca. 400\PVzdalenost dist. koliku ca. 250\P\PAbstand der Nivellieschraben ca.1500\PAbstand der Maueranker ca.400\PAbstand der Distanzstege ca.250\P
  7
Text poznámky (ISO)
 73
     2
 44
0.9878841638565063
  0
ENDBLK
  5
CD
330
CB
100
AcDbEntity
  8
0
100
AcDbBlockEnd
  0
BLOCK
  5
D0
330
CF
100
AcDbEntity
  8
0
100
AcDbBlockBegin
  2
Mater. provedeni Art.
 70
     0
 10
0.0
 20
0.0
 30
0.0
  3
Mater. provedeni Art.
  1

  0
LINE
  5
D2
330
CF
100
AcDbEntity
  8
Geometrie náčrtu (ISO)
100
AcDbLine
 10
-35.0
 20
-22.5
 30
0.0
 11
35.0
 21
-22.5
 31
0.0
  0
LINE
  5
D3
330
CF
100
AcDbEntity
  8
Geometrie náčrtu (ISO)
100
AcDbLine
 10
35.0
 20
-22.5
 30
0.0
 11
34.99999999999996
 21
-13.49999999999998
 31
0.0
  0
LINE
  5
D4
330
CF
100
AcDbEntity
  8
Geometrie náčrtu (ISO)
100
AcDbLine
 10
34.99999999999996
 20
-13.49999999999998
 30
0.0
 11
-35.00000000000003
 21
-13.49999999999998
 31
0.0
  0
LINE
  5
D5
330
CF
100
AcDbEntity
  8
Geometrie náčrtu (ISO)
100
AcDbLine
 10
-35.00000000000003
 20
-13.49999999999998
 30
0.0
 11
-35.0
 21
-22.5
 31
0.0
  0
LINE
  5
D6
330
CF
100
AcDbEntity
  8
Geometrie náčrtu (ISO)
100
AcDbLine
 10
-35.00000000000003
 20
-13.49999999999998
 30
0.0
 11
34.99999999999996
 21
-13.49999999999998
 31
0.0
  0
LINE
  5
D7
330
CF
100
AcDbEntity
  8
Geometrie náčrtu (ISO)
100
AcDbLine
 10
34.99999999999996
 20
-13.49999999999998
 30
0.0
 11
34.99999999999996
 21
-4.499999999999992
 31
0.0
  0
LINE
  5
D8
330
CF
100
AcDbEntity
  8
Geometrie náčrtu (ISO)
100
AcDbLine
 10
34.99999999999996
 20
-4.499999999999992
 30
0.0
 11
-35.00000000000003
 21
-4.499999999999992
 31
0.0
  0
LINE
  5
D9
330
CF
100
AcDbEntity
  8
Geometrie náčrtu (ISO)
100
AcDbLine
 10
-35.00000000000003
 20
-4.499999999999992
 30
0.0
 11
-35.00000000000003
 21
-13.49999999999998
 31
0.0
  0
LINE
  5
DA
330
CF
100
AcDbEntity
  8
Geometrie náčrtu (ISO)
100
AcDbLine
 10
-35.00000000000003
 20
-4.499999999999992
 30
0.0
 11
34.99999999999996
 21
-4.499999999999992
 31
0.0
  0
LINE
  5
DB
330
CF
100
AcDbEntity
  8
Geometrie náčrtu (ISO)
100
AcDbLine
 10
34.99999999999996
 20
-4.499999999999992
 30
0.0
 11
34.99999999999996
 21
4.499999999999992
 31
0.0
  0
LINE
  5
DC
330
CF
100
AcDbEntity
  8
Geometrie náčrtu (ISO)
100
AcDbLine
 10
34.99999999999996
 20
4.499999999999992
 30
0.0
 11
-35.00000000000003
 21
4.499999999999992
 31
0.0
  0
LINE
  5
DD
330
CF
100
AcDbEntity
  8
Geometrie náčrtu (ISO)
100
AcDbLine
 10
-35.00000000000003
 20
4.499999999999992
 30
0.0
 11
-35.00000000000003
 21
-4.499999999999992
 31
0.0
  0
LINE
  5
DE
330
CF
100
AcDbEntity
  8
Geometrie náčrtu (ISO)
100
AcDbLine
 10
-35.00000000000003
 20
4.499999999999992
 30
0.0
 11
34.99999999999996
 21
4.499999999999992
 31
0.0
  0
LINE
  5
DF
330
CF
100
AcDbEntity
  8
Geometrie náčrtu (ISO)
100
AcDbLine
 10
34.99999999999996
 20
4.499999999999992
 30
0.0
 11
34.99999999999996
 21
13.50000000000001
 31
0.0
  0
LINE
  5
E0
330
CF
100
AcDbEntity
  8
Geometrie náčrtu (ISO)
100
AcDbLine
 10
34.99999999999996
 20
13.50000000000001
 30
0.0
 11
-35.00000000000003
 21
13.50000000000001
 31
0.0
  0
LINE
  5
E1
330
CF
100
AcDbEntity
  8
Geometrie náčrtu (ISO)
100
AcDbLine
 10
-35.00000000000003
 20
13.50000000000001
 30
0.0
 11
-35.00000000000003
 21
4.499999999999992
 31
0.0
  0
LINE
  5
E2
330
CF
100
AcDbEntity
  8
Geometrie náčrtu (ISO)
100
AcDbLine
 10
-35.00000000000003
 20
13.50000000000001
 30
0.0
 11
34.99999999999996
 21
13.50000000000001
 31
0.0
  0
LINE
  5
E3
330
CF
100
AcDbEntity
  8
Geometrie náčrtu (ISO)
100
AcDbLine
 10
34.99999999999996
 20
13.50000000000001
 30
0.0
 11
34.99999999999996
 21
22.5
 31
0.0
  0
LINE
  5
E4
330
CF
100
AcDbEntity
  8
Geometrie náčrtu (ISO)
100
AcDbLine
 10
34.99999999999996
 20
22.5
 30
0.0
 11
-35.00000000000003
 21
22.5
 31
0.0
  0
LINE
  5
E5
330
CF
100
AcDbEntity
  8
Geometrie náčrtu (ISO)
100
AcDbLine
 10
-35.00000000000003
 20
22.5
 30
0.0
 11
-35.00000000000003
 21
13.50000000000001
 31
0.0
  0
LINE
  5
E6
330
CF
100
AcDbEntity
  8
Geometrie náčrtu (ISO)
100
AcDbLine
 10
-6.999999999999992
 20
22.5
 30
0.0
 11
-6.999999999999992
 21
-22.5
 31
0.0
  0
MTEXT
  5
E7
330
CF
100
AcDbEntity
  8
Značka (ISO)
100
AcDbMText
 10
-5.126613448311374
 20
11.7684641726084
 30
0.0
 40
5.0
 41
0.0
 71
     1
 72
     1
  1
\fTahoma|b0|i0;\H5.0000;xxxxxxxxxxx
  7
Text poznámky (ISO)
 73
     1
 44
1.0
  0
MTEXT
  5
E8
330
CF
100
AcDbEntity
  8
Značka (ISO)
100
AcDbMText
 10
-33.0130165251342
 20
11.7684641726084
 30
0.0
 40
5.0
 41
20.42139291763306
 71
     1
 72
     1
  1
\fTahoma|b0|i0;\H5.0000;xxxxxx
  7
Text poznámky (ISO)
 73
     1
 44
1.0
  0
MTEXT
  5
E9
330
CF
100
AcDbEntity
  8
Značka (ISO)
100
AcDbMText
 10
-32.07756235018873
 20
20.30710993714994
 30
0.0
 40
5.0
 41
13.92583036716939
 71
     1
 72
     1
  1
\fTahoma|b0|i0;\H5.0000;Art.
  7
Text poznámky (ISO)
 73
     1
 44
1.0
  0
MTEXT
  5
EA
330
CF
100
AcDbEntity
  8
Značka (ISO)
100
AcDbMText
 10
4.291672002492318
 20
20.30710993714994
 30
0.0
 40
5.0
 41
0.0
 71
     1
 72
     1
  1
\fTahoma|b0|i0;\H5.0000;Mat.
  7
Text poznámky (ISO)
 73
     1
 44
1.0
  0
MTEXT
  5
EB
330
CF
100
AcDbEntity
  8
Značka (ISO)
100
AcDbMText
 10
-33.0130165251342
 20
2.473781856899818
 30
0.0
 40
5.0
 41
20.42139291763306
 71
     1
 72
     1
  1
\fTahoma|b0|i0;\H5.0000;xxxxxx
  7
Text poznámky (ISO)
 73
     1
 44
1.0
  0
MTEXT
  5
EC
330
CF
100
AcDbEntity
  8
Značka (ISO)
100
AcDbMText
 10
-5.126613448311374
 20
2.473781856899818
 30
0.0
 40
5.0
 41
0.0
 71
     1
 72
     1
  1
\fTahoma|b0|i0;\H5.0000;xxxxxxxxxxx
  7
Text poznámky (ISO)
 73
     1
 44
1.0
  0
MTEXT
  5
ED
330
CF
100
AcDbEntity
  8
Značka (ISO)
100
AcDbMText
 10
-33.0130165251342
 20
-6.862452441171491
 30
0.0
 40
5.0
 41
20.42139291763306
 71
     1
 72
     1
  1
\fTahoma|b0|i0;\H5.0000;xxxxxx
  7
Text poznámky (ISO)
 73
     1
 44
1.0
  0
MTEXT
  5
EE
330
CF
100
AcDbEntity
  8
Značka (ISO)
100
AcDbMText
 10
-5.126613448311374
 20
-6.862452441171491
 30
0.0
 40
5.0
 41
0.0
 71
     1
 72
     1
  1
\fTahoma|b0|i0;\H5.0000;xxxxxxxxxxx
  7
Text poznámky (ISO)
 73
     1
 44
1.0
  0
MTEXT
  5
EF
330
CF
100
AcDbEntity
  8
Značka (ISO)
100
AcDbMText
 10
-33.0130165251342
 20
-15.52177565039578
 30
0.0
 40
5.0
 41
20.42139291763306
 71
     1
 72
     1
  1
\fTahoma|b0|i0;\H5.0000;xxxxxx
  7
Text poznámky (ISO)
 73
     1
 44
1.0
  0
MTEXT
  5
F0
330
CF
100
AcDbEntity
  8
Značka (ISO)
100
AcDbMText
 10
-5.126613448311374
 20
-15.52177565039578
 30
0.0
 40
5.0
 41
0.0
 71
     1
 72
     1
  1
\fTahoma|b0|i0;\H5.0000;xxxxxxxxxxx
  7
Text poznámky (ISO)
 73
     1
 44
1.0
  0
ENDBLK
  5
D1
330
CF
100
AcDbEntity
  8
0
100
AcDbBlockEnd
  0
BLOCK
  5
F2
330
F1
100
AcDbEntity
  8
0
100
AcDbBlockBegin
  2
Art. s popisy
 70
     0
 10
0.0
 20
0.0
 30
0.0
  3
Art. s popisy
  1

  0
LINE
  5
F4
330
F1
100
AcDbEntity
  8
Geometrie náčrtu (ISO)
100
AcDbLine
 10
-60.00000000000081
 20
-22.5
 30
0.0
 11
59.99999999999911
 21
-22.5
 31
0.0
  0
LINE
  5
F5
330
F1
100
AcDbEntity
  8
Geometrie náčrtu (ISO)
100
AcDbLine
 10
59.99999999999911
 20
-22.5
 30
0.0
 11
60.00000000000081
 21
-13.50000000000001
 31
0.0
  0
LINE
  5
F6
330
F1
100
AcDbEntity
  8
Geometrie náčrtu (ISO)
100
AcDbLine
 10
60.00000000000081
 20
-13.50000000000001
 30
0.0
 11
-60.00000000000081
 21
-13.49999999999998
 31
0.0
  0
LINE
  5
F7
330
F1
100
AcDbEntity
  8
Geometrie náčrtu (ISO)
100
AcDbLine
 10
-60.00000000000081
 20
-13.49999999999998
 30
0.0
 11
-60.00000000000081
 21
-22.5
 31
0.0
  0
LINE
  5
F8
330
F1
100
AcDbEntity
  8
Geometrie náčrtu (ISO)
100
AcDbLine
 10
-60.00000000000081
 20
-13.49999999999998
 30
0.0
 11
60.00000000000081
 21
-13.50000000000001
 31
0.0
  0
LINE
  5
F9
330
F1
100
AcDbEntity
  8
Geometrie náčrtu (ISO)
100
AcDbLine
 10
60.00000000000081
 20
-13.50000000000001
 30
0.0
 11
59.99999999999911
 21
-4.500000000000028
 31
0.0
  0
LINE
  5
FA
330
F1
100
AcDbEntity
  8
Geometrie náčrtu (ISO)
100
AcDbLine
 10
59.99999999999911
 20
-4.500000000000028
 30
0.0
 11
-60.00000000000081
 21
-4.499999999999992
 31
0.0
  0
LINE
  5
FB
330
F1
100
AcDbEntity
  8
Geometrie náčrtu (ISO)
100
AcDbLine
 10
-60.00000000000081
 20
-4.499999999999992
 30
0.0
 11
-60.00000000000081
 21
-13.49999999999998
 31
0.0
  0
LINE
  5
FC
330
F1
100
AcDbEntity
  8
Geometrie náčrtu (ISO)
100
AcDbLine
 10
-60.00000000000081
 20
-4.499999999999992
 30
0.0
 11
59.99999999999911
 21
-4.500000000000028
 31
0.0
  0
LINE
  5
FD
330
F1
100
AcDbEntity
  8
Geometrie náčrtu (ISO)
100
AcDbLine
 10
59.99999999999911
 20
-4.500000000000028
 30
0.0
 11
59.99999999999911
 21
4.499999999999957
 31
0.0
  0
LINE
  5
FE
330
F1
100
AcDbEntity
  8
Geometrie náčrtu (ISO)
100
AcDbLine
 10
59.99999999999911
 20
4.499999999999957
 30
0.0
 11
-60.00000000000081
 21
4.499999999999992
 31
0.0
  0
LINE
  5
FF
330
F1
100
AcDbEntity
  8
Geometrie náčrtu (ISO)
100
AcDbLine
 10
-60.00000000000081
 20
4.499999999999992
 30
0.0
 11
-60.00000000000081
 21
-4.499999999999992
 31
0.0
  0
LINE
  5
100
330
F1
100
AcDbEntity
  8
Geometrie náčrtu (ISO)
100
AcDbLine
 10
-60.00000000000081
 20
4.499999999999992
 30
0.0
 11
59.99999999999911
 21
4.499999999999957
 31
0.0
  0
LINE
  5
101
330
F1
100
AcDbEntity
  8
Geometrie náčrtu (ISO)
100
AcDbLine
 10
59.99999999999911
 20
4.499999999999957
 30
0.0
 11
59.99999999999911
 21
13.49999999999998
 31
0.0
  0
LINE
  5
102
330
F1
100
AcDbEntity
  8
Geometrie náčrtu (ISO)
100
AcDbLine
 10
59.99999999999911
 20
13.49999999999998
 30
0.0
 11
-60.00000000000081
 21
13.50000000000001
 31
0.0
  0
LINE
  5
103
330
F1
100
AcDbEntity
  8
Geometrie náčrtu (ISO)
100
AcDbLine
 10
-60.00000000000081
 20
13.50000000000001
 30
0.0
 11
-60.00000000000081
 21
4.499999999999992
 31
0.0
  0
LINE
  5
104
330
F1
100
AcDbEntity
  8
Geometrie náčrtu (ISO)
100
AcDbLine
 10
-60.00000000000081
 20
13.50000000000001
 30
0.0
 11
59.99999999999911
 21
13.49999999999998
 31
0.0
  0
LINE
  5
105
330
F1
100
AcDbEntity
  8
Geometrie náčrtu (ISO)
100
AcDbLine
 10
59.99999999999911
 20
13.49999999999998
 30
0.0
 11
59.99999999999911
 21
22.49999999999996
 31
0.0
  0
LINE
  5
106
330
F1
100
AcDbEntity
  8
Geometrie náčrtu (ISO)
100
AcDbLine
 10
59.99999999999911
 20
22.49999999999996
 30
0.0
 11
-60.00000000000081
 21
22.5
 31
0.0
  0
LINE
  5
107
330
F1
100
AcDbEntity
  8
Geometrie náčrtu (ISO)
100
AcDbLine
 10
-60.00000000000081
 20
22.5
 30
0.0
 11
-60.00000000000081
 21
13.50000000000001
 31
0.0
  0
LINE
  5
108
330
F1
100
AcDbEntity
  8
Geometrie náčrtu (ISO)
100
AcDbLine
 10
-32.00000000000081
 20
22.5
 30
0.0
 11
-32.00000000000081
 21
-22.5
 31
0.0
  0
MTEXT
  5
109
330
F1
100
AcDbEntity
  8
Značka (ISO)
100
AcDbMText
 10
-27.63552601875791
 20
11.7684641726084
 30
0.0
 40
5.0
 41
0.0
 71
     1
 72
     1
  1
\fTahoma|b0|i0;\H5.0000;xxxxxxxxxxx
  7
Text poznámky (ISO)
 73
     1
 44
1.0
  0
MTEXT
  5
10A
330
F1
100
AcDbEntity
  8
Značka (ISO)
100
AcDbMText
 10
-55.52192909558073
 20
11.7684641726084
 30
0.0
 40
5.0
 41
20.42139291763306
 71
     1
 72
     1
  1
\fTahoma|b0|i0;\H5.0000;xxxxxx
  7
Text poznámky (ISO)
 73
     1
 44
1.0
  0
MTEXT
  5
10B
330
F1
100
AcDbEntity
  8
Značka (ISO)
100
AcDbMText
 10
-54.58647492063526
 20
20.30710993714994
 30
0.0
 40
5.0
 41
13.92583036716939
 71
     1
 72
     1
  1
\fTahoma|b0|i0;\H5.0000;Art.
  7
Text poznámky (ISO)
 73
     1
 44
1.0
  0
MTEXT
  5
10C
330
F1
100
AcDbEntity
  8
Značka (ISO)
100
AcDbMText
 10
-18.21724056795421
 20
20.30710993714994
 30
0.0
 40
5.0
 41
0.0
 71
     1
 72
     1
  1
\fTahoma|b0|i0;\H5.0000;Popis.
  7
Text poznámky (ISO)
 73
     1
 44
1.0
  0
MTEXT
  5
10D
330
F1
100
AcDbEntity
  8
Značka (ISO)
100
AcDbMText
 10
-55.52192909558073
 20
2.473781856899818
 30
0.0
 40
5.0
 41
20.42139291763306
 71
     1
 72
     1
  1
\fTahoma|b0|i0;\H5.0000;xxxxxx
  7
Text poznámky (ISO)
 73
     1
 44
1.0
  0
MTEXT
  5
10E
330
F1
100
AcDbEntity
  8
Značka (ISO)
100
AcDbMText
 10
-27.63552601875791
 20
2.473781856899818
 30
0.0
 40
5.0
 41
0.0
 71
     1
 72
     1
  1
\fTahoma|b0|i0;\H5.0000;xxxxxxxxxxx
  7
Text poznámky (ISO)
 73
     1
 44
1.0
  0
MTEXT
  5
10F
330
F1
100
AcDbEntity
  8
Značka (ISO)
100
AcDbMText
 10
-55.52192909558073
 20
-6.862452441171491
 30
0.0
 40
5.0
 41
20.42139291763306
 71
     1
 72
     1
  1
\fTahoma|b0|i0;\H5.0000;xxxxxx
  7
Text poznámky (ISO)
 73
     1
 44
1.0
  0
MTEXT
  5
110
330
F1
100
AcDbEntity
  8
Značka (ISO)
100
AcDbMText
 10
-27.63552601875791
 20
-6.862452441171491
 30
0.0
 40
5.0
 41
0.0
 71
     1
 72
     1
  1
\fTahoma|b0|i0;\H5.0000;xxxxxxxxxxx
  7
Text poznámky (ISO)
 73
     1
 44
1.0
  0
MTEXT
  5
111
330
F1
100
AcDbEntity
  8
Značka (ISO)
100
AcDbMText
 10
-55.52192909558073
 20
-15.52177565039578
 30
0.0
 40
5.0
 41
20.42139291763306
 71
     1
 72
     1
  1
\fTahoma|b0|i0;\H5.0000;xxxxxx
  7
Text poznámky (ISO)
 73
     1
 44
1.0
  0
MTEXT
  5
112
330
F1
100
AcDbEntity
  8
Značka (ISO)
100
AcDbMText
 10
-27.63552601875791
 20
-15.52177565039578
 30
0.0
 40
5.0
 41
0.0
 71
     1
 72
     1
  1
\fTahoma|b0|i0;\H5.0000;xxxxxxxxxxx
  7
Text poznámky (ISO)
 73
     1
 44
1.0
  0
ENDBLK
  5
F3
330
F1
100
AcDbEntity
  8
0
100
AcDbBlockEnd
  0
BLOCK
  5
114
330
113
100
AcDbEntity
  8
0
100
AcDbBlockBegin
  2
Tryskat
 70
     0
 10
0.0
 20
0.0
 30
0.0
  3
Tryskat
  1

  0
MTEXT
  5
116
330
113
100
AcDbEntity
  8
Značka (ISO)
100
AcDbMText
 10
-30.20239114761352
 20
5.036920197308063
 30
0.0
 40
3.499999940395355
 41
0.0
 71
     1
 72
     1
  1
Tryskat \P( Blasted , Glasperlstrahken)
  7
Text poznámky (ISO)
 73
     2
 44
0.9878841638565063
  0
ENDBLK
  5
115
330
113
100
AcDbEntity
  8
0
100
AcDbBlockEnd
  0
BLOCK
  5
118
330
117
100
AcDbEntity
  8
0
100
AcDbBlockBegin
  2
Morit
 70
     0
 10
0.0
 20
0.0
 30
0.0
  3
Morit
  1

  0
MTEXT
  5
11A
330
117
100
AcDbEntity
  8
Značka (ISO)
100
AcDbMText
 10
-19.08124089241028
 20
5.11633675545454
 30
0.0
 40
3.499999940395355
 41
0.0
 71
     1
 72
     1
  1
Morit a pasivovat\P(Pickled, gebeitzt)
  7
Text poznámky (ISO)
 73
     2
 44
0.9878841638565063
  0
ENDBLK
  5
119
330
117
100
AcDbEntity
  8
0
100
AcDbBlockEnd
  0
BLOCK
  5
11C
330
11B
100
AcDbEntity
  8
0
100
AcDbBlockBegin
  2
zinkovat
 70
     0
 10
0.0
 20
0.0
 30
0.0
  3
zinkovat
  1

  0
MTEXT
  5
11E
330
11B
100
AcDbEntity
  8
Značka (ISO)
100
AcDbMText
 10
-27.74189710617065
 20
5.049683563411233
 30
0.0
 40
3.499999940395355
 41
0.0
 71
     1
 72
     1
  1
Zarove zinkovat\P(hot galvanized, verzinkt )
  7
Text poznámky (ISO)
 73
     2
 44
0.9878841638565063
  0
ENDBLK
  5
11D
330
11B
100
AcDbEntity
  8
0
100
AcDbBlockEnd
  0
BLOCK
  5
120
330
11F
100
AcDbEntity
  8
0
100
AcDbBlockBegin
  2
Nater
 70
     0
 10
0.0
 20
0.0
 30
0.0
  3
Nater
  1

  0
MTEXT
  5
122
330
11F
100
AcDbEntity
  8
Značka (ISO)
100
AcDbMText
 10
-25.88411808013916
 20
1.864870421122757
 30
0.0
 40
3.499999940395355
 41
0.0
 71
     1
 72
     1
  1
Lackiert Farbe RAL 5002
  7
Text poznámky (ISO)
 73
     1
 44
1.0
  0
ENDBLK
  5
121
330
11F
100
AcDbEntity
  8
0
100
AcDbBlockEnd
  0
BLOCK
  5
124
330
123
100
AcDbEntity
  8
0
100
AcDbBlockBegin
  2
Brus
 70
     0
 10
0.0
 20
0.0
 30
0.0
  3
Brus
  1

  0
MTEXT
  5
126
330
123
100
AcDbEntity
  8
Značka (ISO)
100
AcDbMText
 10
-23.46616744995117
 20
5.11633675545454
 30
0.0
 40
3.499999940395355
 41
0.0
 71
     1
 72
     1
  1
Brousit\P(geburstet , brushed )
  7
Text poznámky (ISO)
 73
     2
 44
0.9878841638565063
  0
ENDBLK
  5
125
330
123
100
AcDbEntity
  8
0
100
AcDbBlockEnd
  0
BLOCK
  5
128
330
127
100
AcDbEntity
  8
0
100
AcDbBlockBegin
  2
Elektroliticky lestit
 70
     0
 10
0.0
 20
0.0
 30
0.0
  3
Elektroliticky lestit
  1

  0
MTEXT
  5
12A
330
127
100
AcDbEntity
  8
Značka (ISO)
100
AcDbMText
 10
-18.68841171264648
 20
5.036920197308063
 30
0.0
 40
3.499999940395355
 41
0.0
 71
     1
 72
     1
  1
Elektrolit. lestit\P(Elektropolished )
  7
Text poznámky (ISO)
 73
     2
 44
0.9878841638565063
  0
ENDBLK
  5
129
330
127
100
AcDbEntity
  8
0
100
AcDbBlockEnd
  0
BLOCK
  5
12C
330
12B
100
AcDbEntity
  8
0
100
AcDbBlockBegin
  2
Mořit de.
 70
     0
 10
0.0
 20
0.0
 30
0.0
  3
Mořit de.
  1

  0
MTEXT
  5
12E
102
{ACAD_XDICTIONARY
360
133A
102
}
330
12B
100
AcDbEntity
  8
Značka (ISO)
100
AcDbMText
 10
-21.33184909820557
 20
4.448386959265915
 30
0.0
 40
3.499999940395355
 41
0.0
 71
     1
 72
     1
  1
Mo\U+0159it a opl\U+00E1chnout\PBeizen und Pasiviert
  7
Text poznámky (ISO)
 73
     2
 44
0.9878841638565063
  0
ENDBLK
  5
12D
330
12B
100
AcDbEntity
  8
0
100
AcDbBlockEnd
  0
BLOCK
  5
130
330
12F
100
AcDbEntity
  8
0
100
AcDbBlockBegin
  2
Žlab bez spádu De.
 70
     0
 10
0.0
 20
0.0
 30
0.0
  3
Žlab bez spádu De.
  1

  0
MTEXT
  5
132
102
{ACAD_XDICTIONARY
360
133C
102
}
330
12F
100
AcDbEntity
  8
Značka (ISO)
100
AcDbMText
 10
-20.81989526748657
 20
4.01017793221399
 30
0.0
 40
3.499999940395355
 41
0.0
 71
     1
 72
     1
  1
\U+017Dlab bez sp\U+00E1du!\PRinne ohne Gef\U+00E4lle!
  7
Text poznámky (ISO)
 73
     2
 44
0.9878841638565063
  0
ENDBLK
  5
131
330
12F
100
AcDbEntity
  8
0
100
AcDbBlockEnd
  0
BLOCK
  5
134
330
133
100
AcDbEntity
  8
0
100
AcDbBlockBegin
  2
Žlab bez spádu Ang.
 70
     0
 10
0.0
 20
0.0
 30
0.0
  3
Žlab bez spádu Ang.
  1

  0
MTEXT
  5
136
102
{ACAD_XDICTIONARY
360
133E
102
}
330
133
100
AcDbEntity
  8
Značka (ISO)
100
AcDbMText
 10
-24.31422233581541
 20
4.456895925104618
 30
0.0
 40
3.499999940395355
 41
0.0
 71
     1
 72
     1
  1
\U+017Dlab bez sp\U+00E1du!\PChannel without slope!
  7
Text poznámky (ISO)
 73
     2
 44
0.9878841638565063
  0
ENDBLK
  5
135
330
133
100
AcDbEntity
  8
0
100
AcDbBlockEnd
  0
BLOCK
  5
138
330
137
100
AcDbEntity
  8
0
100
AcDbBlockBegin
  2
Aschl Nirotec-tryskání
 70
     0
 10
0.0
 20
0.0
 30
0.0
  3
Aschl Nirotec-tryskání
  1

  0
MTEXT
  5
13A
102
{ACAD_XDICTIONARY
360
1340
102
}
330
137
100
AcDbEntity
  8
Značka (ISO)
100
AcDbMText
 10
-58.85332584381103
 20
10.67052584141493
 30
0.0
 40
3.499999940395355
 41
0.0
 71
     1
 72
     1
  1
Povrchov\U+00E1 \U+00FAprava/Oberfl\U+00E4che:\PTryskat pouze vnit\U+0159ek \U+017Elabu, v\U+010Detn\U+011B pohledov\U+00FDch ploch!\PP\U+0159\U+00EDruby proti trysk\U+00E1n\U+00ED chr\U+00E1nit!\PFlansches per strahlung beh\U+00FCtent!
  7
Text poznámky (ISO)
 73
     2
 44
0.9878841638565063
  0
ENDBLK
  5
139
330
137
100
AcDbEntity
  8
0
100
AcDbBlockEnd
  0
BLOCK
  5
13C
330
13B
100
AcDbEntity
  8
0
100
AcDbBlockBegin
  2
Popis šrouby_kotvy Ang.
 70
     0
 10
0.0
 20
0.0
 30
0.0
  3
Popis šrouby_kotvy Ang.
  1

  0
MTEXT
  5
13E
102
{ACAD_XDICTIONARY
360
1342
102
}
330
13B
100
AcDbEntity
  8
Značka (ISO)
100
AcDbMText
 10
-62.9617118835449
 20
22.19584088772535
 30
0.0
 40
3.499999940395355
 41
0.0
 71
     1
 72
     1
  3
Vzd\U+00E1lenost nivela\U+010Dn\U+00EDch \U+0161roubu ca. 1500mm.\PVzd\U+00E1lenost kotev ca. 400mm.\PPohledov\U+00E9 plochy brousit(vel.brusn\U+00FDch zrn 240)\Pa polepit p\U+00E1skou.\P\PDistance of leveling feets ca. 1500 mm.\PDistance of fixing t
  1
angs ca. 400 mm.\PVisible surfaces to be grinded and covered by protectiv foil.
  7
Text poznámky (ISO)
 73
     2
 44
0.9878841638565063
  0
ENDBLK
  5
13D
330
13B
100
AcDbEntity
  8
0
100
AcDbBlockEnd
  0
BLOCK
  5
140
330
13F
100
AcDbEntity
  8
0
100
AcDbBlockBegin
  2
Spád žlabu Ang.
 70
     0
 10
0.0
 20
0.0
 30
0.0
  3
Spád žlabu Ang.
  1

  0
MTEXT
  5
142
102
{ACAD_XDICTIONARY
360
1344
102
}
330
13F
100
AcDbEntity
  8
Značka (ISO)
100
AcDbMText
 10
-61.18476867675779
 20
16.15664371056482
 30
0.0
 40
3.499999940395355
 41
0.0
 71
     1
 72
     1
  1
POZOR:\PSp\U+00E1d \U+017Elabu je men\U+0161\U+00ED ne\U+017E 1% - nebezpe\U+010D\U+00ED vzniku prohlubn\U+00ED\Pse stojatou vodou.\PAUTENTION:\PThe gradient of the bottom is minor then 1%.\PThat can be reason of slack water.
  7
Text poznámky (ISO)
 73
     2
 44
0.9878841638565063
  0
ENDBLK
  5
141
330
13F
100
AcDbEntity
  8
0
100
AcDbBlockEnd
  0
BLOCK
  5
144
330
143
100
AcDbEntity
  8
0
100
AcDbBlockBegin
  2
Spád žlabu De.
 70
     0
 10
0.0
 20
0.0
 30
0.0
  3
Spád žlabu De.
  1

  0
MTEXT
  5
146
102
{ACAD_XDICTIONARY
360
1346
102
}
330
143
100
AcDbEntity
  8
Značka (ISO)
100
AcDbMText
 10
-61.18476867675779
 20
16.61612506955862
 30
0.0
 40
3.499999940395355
 41
0.0
 71
     1
 72
     1
  1
POZOR:\PSp\U+00E1d \U+017Elabu je men\U+0161\U+00ED ne\U+017E 1% - nebezpe\U+010D\U+00ED vzniku prohlubn\U+00ED\Pse stojatou vodou.\PACHTUNG:\PDas Bodengef\U+00E4lle ist kleiner als 1%. Das Gefahr der\PSenkungsentstehung mit dem stehenden Wasser.
  7
Text poznámky (ISO)
 73
     2
 44
0.9878841638565063
  0
ENDBLK
  5
145
330
143
100
AcDbEntity
  8
0
100
AcDbBlockEnd
  0
BLOCK
  5
148
330
147
100
AcDbEntity
  8
0
100
AcDbBlockBegin
  2
Kartáč + folie
 70
     0
 10
0.0
 20
0.0
 30
0.0
  3
Kartáč + folie
  1

  0
MTEXT
  5
14A
102
{ACAD_XDICTIONARY
360
1348
102
}
330
147
100
AcDbEntity
  8
Značka (ISO)
100
AcDbMText
 10
-39.86001014709473
 20
4.448386959265915
 30
0.0
 40
3.499999940395355
 41
0.0
 71
     1
 72
     1
  1
Kart\U+00E1\U+010Dov\U+00E1no + folie\PGeburstet mit abziehbarer Schutzfolie
  7
Text poznámky (ISO)
 73
     2
 44
0.9878841638565063
  0
ENDBLK
  5
149
330
147
100
AcDbEntity
  8
0
100
AcDbBlockEnd
  0
BLOCK
  5
14C
330
14B
100
AcDbEntity
  8
0
100
AcDbBlockBegin
  2
Komplet tryskat De.
 70
     0
 10
0.0
 20
0.0
 30
0.0
  3
Komplet tryskat De.
  1

  0
MTEXT
  5
14E
330
14B
100
AcDbEntity
  8
Značka (ISO)
100
AcDbMText
 10
-37.33711719512939
 20
7.475785464048382
 30
0.0
 40
3.499999940395355
 41
0.0
 71
     1
 72
     1
  1
KOMPLETT GLASPER GESTRAHLT !\PKOMPLET ZHORA TRYSKAT ! \P
  7
Text poznámky (ISO)
 73
     2
 44
0.9878841638565063
  0
ENDBLK
  5
14D
330
14B
100
AcDbEntity
  8
0
100
AcDbBlockEnd
  0
BLOCK
  5
150
330
14F
100
AcDbEntity
  8
0
100
AcDbBlockBegin
  2
Mořit Ang.
 70
     0
 10
0.0
 20
0.0
 30
0.0
  3
Mořit Ang.
  1

  0
MTEXT
  5
152
102
{ACAD_XDICTIONARY
360
134A
102
}
330
14F
100
AcDbEntity
  8
Značka (ISO)
100
AcDbMText
 10
-19.84846115112304
 20
4.448386959265915
 30
0.0
 40
3.499999940395355
 41
0.0
 71
     1
 72
     1
  1
Mo\U+0159it a opl\U+00E1chnout\PPickled and wash
  7
Text poznámky (ISO)
 73
     2
 44
0.9878841638565063
  0
ENDBLK
  5
151
330
14F
100
AcDbEntity
  8
0
100
AcDbBlockEnd
  0
BLOCK
  5
154
330
153
100
AcDbEntity
  8
0
100
AcDbBlockBegin
  2
Rámečky Default Border
 70
     0
 10
0.0
 20
0.0
 30
0.0
  3
Rámečky Default Border
  1

  0
POLYLINE
  5
156
330
153
100
AcDbEntity
  8
Rámeček (ISO)
100
AcDb2dPolyline
 66
     1
 10
0.0
 20
0.0
 30
0.0
 70
   128
  0
VERTEX
  5
157
330
156
100
AcDbEntity
  8
Rámeček (ISO)
100
AcDbVertex
100
AcDb2dVertex
 10
10.0
 20
10.0
 30
0.0
  0
VERTEX
  5
158
330
156
100
AcDbEntity
  8
Rámeček (ISO)
100
AcDbVertex
100
AcDb2dVertex
 10
10.0
 20
287.0000076293946
 30
0.0
  0
VERTEX
  5
15A
330
156
100
AcDbEntity
  8
Rámeček (ISO)
100
AcDbVertex
100
AcDb2dVertex
 10
410.0
 20
287.0000076293946
 30
0.0
  0
VERTEX
  5
15B
330
156
100
AcDbEntity
  8
Rámeček (ISO)
100
AcDbVertex
100
AcDb2dVertex
 10
410.0
 20
10.0
 30
0.0
  0
VERTEX
  5
15C
330
156
100
AcDbEntity
  8
Rámeček (ISO)
100
AcDbVertex
100
AcDb2dVertex
 10
10.0
 20
10.0
 30
0.0
  0
SEQEND
  5
159
330
156
100
AcDbEntity
  8
Rámeček (ISO)
  0
POLYLINE
  5
15D
330
153
100
AcDbEntity
  8
Rámeček (ISO)
100
AcDb2dPolyline
 66
     1
 10
0.0
 20
0.0
 30
0.0
 70
   128
  0
VERTEX
  5
15E
330
15D
100
AcDbEntity
  8
Rámeček (ISO)
100
AcDbVertex
100
AcDb2dVertex
 10
210.0
 20
0.0
 30
0.0
  0
VERTEX
  5
15F
330
15D
100
AcDbEntity
  8
Rámeček (ISO)
100
AcDbVertex
100
AcDb2dVertex
 10
210.0
 20
10.0
 30
0.0
  0
VERTEX
  5
161
330
15D
100
AcDbEntity
  8
Rámeček (ISO)
100
AcDbVertex
100
AcDb2dVertex
 10
207.1132469177246
 20
5.0
 30
0.0
  0
VERTEX
  5
162
330
15D
100
AcDbEntity
  8
Rámeček (ISO)
100
AcDbVertex
100
AcDb2dVertex
 10
212.8867530822754
 20
5.0
 30
0.0
  0
VERTEX
  5
163
330
15D
100
AcDbEntity
  8
Rámeček (ISO)
100
AcDbVertex
100
AcDb2dVertex
 10
210.0
 20
10.0
 30
0.0
  0
SEQEND
  5
160
330
15D
100
AcDbEntity
  8
Rámeček (ISO)
  0
POLYLINE
  5
164
330
153
100
AcDbEntity
  8
Rámeček (ISO)
100
AcDb2dPolyline
 66
     1
 10
0.0
 20
0.0
 30
0.0
 70
   128
  0
VERTEX
  5
165
330
164
100
AcDbEntity
  8
Rámeček (ISO)
100
AcDbVertex
100
AcDb2dVertex
 10
210.0
 20
297.0000076293946
 30
0.0
  0
VERTEX
  5
166
330
164
100
AcDbEntity
  8
Rámeček (ISO)
100
AcDbVertex
100
AcDb2dVertex
 10
210.0
 20
287.0000076293946
 30
0.0
  0
VERTEX
  5
168
330
164
100
AcDbEntity
  8
Rámeček (ISO)
100
AcDbVertex
100
AcDb2dVertex
 10
207.1132469177246
 20
292.0000076293945
 30
0.0
  0
VERTEX
  5
169
330
164
100
AcDbEntity
  8
Rámeček (ISO)
100
AcDbVertex
100
AcDb2dVertex
 10
212.8867530822754
 20
292.0000076293945
 30
0.0
  0
VERTEX
  5
16A
330
164
100
AcDbEntity
  8
Rámeček (ISO)
100
AcDbVertex
100
AcDb2dVertex
 10
210.0
 20
287.0000076293946
 30
0.0
  0
SEQEND
  5
167
330
164
100
AcDbEntity
  8
Rámeček (ISO)
  0
POLYLINE
  5
16B
330
153
100
AcDbEntity
  8
Rámeček (ISO)
100
AcDb2dPolyline
 66
     1
 10
0.0
 20
0.0
 30
0.0
 70
   128
  0
VERTEX
  5
16C
330
16B
100
AcDbEntity
  8
Rámeček (ISO)
100
AcDbVertex
100
AcDb2dVertex
 10
0.0
 20
148.5000038146973
 30
0.0
  0
VERTEX
  5
16D
330
16B
100
AcDbEntity
  8
Rámeček (ISO)
100
AcDbVertex
100
AcDb2dVertex
 10
10.0
 20
148.5000038146973
 30
0.0
  0
VERTEX
  5
16F
330
16B
100
AcDbEntity
  8
Rámeček (ISO)
100
AcDbVertex
100
AcDb2dVertex
 10
5.0
 20
151.3867473602295
 30
0.0
  0
VERTEX
  5
170
330
16B
100
AcDbEntity
  8
Rámeček (ISO)
100
AcDbVertex
100
AcDb2dVertex
 10
5.0
 20
145.6132507324219
 30
0.0
  0
VERTEX
  5
171
330
16B
100
AcDbEntity
  8
Rámeček (ISO)
100
AcDbVertex
100
AcDb2dVertex
 10
10.0
 20
148.5000038146973
 30
0.0
  0
SEQEND
  5
16E
330
16B
100
AcDbEntity
  8
Rámeček (ISO)
  0
POLYLINE
  5
172
330
153
100
AcDbEntity
  8
Rámeček (ISO)
100
AcDb2dPolyline
 66
     1
 10
0.0
 20
0.0
 30
0.0
 70
   128
  0
VERTEX
  5
173
330
172
100
AcDbEntity
  8
Rámeček (ISO)
100
AcDbVertex
100
AcDb2dVertex
 10
420.0
 20
148.5000038146973
 30
0.0
  0
VERTEX
  5
174
330
172
100
AcDbEntity
  8
Rámeček (ISO)
100
AcDbVertex
100
AcDb2dVertex
 10
410.0
 20
148.5000038146973
 30
0.0
  0
VERTEX
  5
176
330
172
100
AcDbEntity
  8
Rámeček (ISO)
100
AcDbVertex
100
AcDb2dVertex
 10
415.0
 20
151.3867473602295
 30
0.0
  0
VERTEX
  5
177
330
172
100
AcDbEntity
  8
Rámeček (ISO)
100
AcDbVertex
100
AcDb2dVertex
 10
415.0
 20
145.6132507324219
 30
0.0
  0
VERTEX
  5
178
330
172
100
AcDbEntity
  8
Rámeček (ISO)
100
AcDbVertex
100
AcDb2dVertex
 10
410.0
 20
148.5000038146973
 30
0.0
  0
SEQEND
  5
175
330
172
100
AcDbEntity
  8
Rámeček (ISO)
  0
LINE
  5
179
330
153
100
AcDbEntity
  8
Rámeček (ISO)
100
AcDbLine
 10
70.0
 20
10.0
 30
0.0
 11
70.0
 21
6.100000143051147
 31
0.0
  0
LINE
  5
17A
330
153
100
AcDbEntity
  8
Rámeček (ISO)
100
AcDbLine
 10
70.0
 20
287.0000076293946
 30
0.0
 11
70.0
 21
290.9000015258789
 31
0.0
  0
LINE
  5
17B
330
153
100
AcDbEntity
  8
Rámeček (ISO)
100
AcDbLine
 10
140.0
 20
10.0
 30
0.0
 11
140.0
 21
6.100000143051147
 31
0.0
  0
LINE
  5
17C
330
153
100
AcDbEntity
  8
Rámeček (ISO)
100
AcDbLine
 10
140.0
 20
287.0000076293946
 30
0.0
 11
140.0
 21
290.9000015258789
 31
0.0
  0
LINE
  5
17D
330
153
100
AcDbEntity
  8
Rámeček (ISO)
100
AcDbLine
 10
280.0
 20
10.0
 30
0.0
 11
280.0
 21
6.100000143051147
 31
0.0
  0
LINE
  5
17E
330
153
100
AcDbEntity
  8
Rámeček (ISO)
100
AcDbLine
 10
280.0
 20
287.0000076293946
 30
0.0
 11
280.0
 21
290.9000015258789
 31
0.0
  0
LINE
  5
17F
330
153
100
AcDbEntity
  8
Rámeček (ISO)
100
AcDbLine
 10
350.0
 20
10.0
 30
0.0
 11
350.0
 21
6.100000143051147
 31
0.0
  0
LINE
  5
180
330
153
100
AcDbEntity
  8
Rámeček (ISO)
100
AcDbLine
 10
350.0
 20
287.0000076293946
 30
0.0
 11
350.0
 21
290.9000015258789
 31
0.0
  0
MTEXT
  5
181
330
153
100
AcDbEntity
  8
Rámeček (ISO)
100
AcDbMText
 10
384.2103922448459
 20
287.4
 30
0.0
 40
3.499999940395355
 41
0.0
 71
     7
 72
     1
  1
1
  7
Text poznámky (ISO)
 73
     1
 44
1.0
  0
MTEXT
  5
182
330
153
100
AcDbEntity
  8
Rámeček (ISO)
100
AcDbMText
 10
384.2103922448459
 20
6.100000059604642
 30
0.0
 40
3.499999940395355
 41
0.0
 71
     7
 72
     1
  1
1
  7
Text poznámky (ISO)
 73
     1
 44
1.0
  0
MTEXT
  5
183
330
153
100
AcDbEntity
  8
Rámeček (ISO)
100
AcDbMText
 10
313.9387915541735
 20
287.4
 30
0.0
 40
3.499999940395355
 41
0.0
 71
     7
 72
     1
  1
2
  7
Text poznámky (ISO)
 73
     1
 44
1.0
  0
MTEXT
  5
184
330
153
100
AcDbEntity
  8
Rámeček (ISO)
100
AcDbMText
 10
313.9387915541735
 20
6.100000059604642
 30
0.0
 40
3.499999940395355
 41
0.0
 71
     7
 72
     1
  1
2
  7
Text poznámky (ISO)
 73
     1
 44
1.0
  0
MTEXT
  5
185
330
153
100
AcDbEntity
  8
Rámeček (ISO)
100
AcDbMText
 10
243.9107914829702
 20
287.3262560764327
 30
0.0
 40
3.499999940395355
 41
0.0
 71
     7
 72
     1
  1
3
  7
Text poznámky (ISO)
 73
     1
 44
1.0
  0
MTEXT
  5
186
330
153
100
AcDbEntity
  8
Rámeček (ISO)
100
AcDbMText
 10
243.9107914829702
 20
6.026256136037407
 30
0.0
 40
3.499999940395355
 41
0.0
 71
     7
 72
     1
  1
3
  7
Text poznámky (ISO)
 73
     1
 44
1.0
  0
MTEXT
  5
187
330
153
100
AcDbEntity
  8
Rámeček (ISO)
100
AcDbMText
 10
173.7791911483144
 20
287.4
 30
0.0
 40
3.499999940395355
 41
0.0
 71
     7
 72
     1
  1
4
  7
Text poznámky (ISO)
 73
     1
 44
1.0
  0
MTEXT
  5
188
330
153
100
AcDbEntity
  8
Rámeček (ISO)
100
AcDbMText
 10
173.7791911483144
 20
6.100000059604642
 30
0.0
 40
3.499999940395355
 41
0.0
 71
     7
 72
     1
  1
4
  7
Text poznámky (ISO)
 73
     1
 44
1.0
  0
MTEXT
  5
189
330
153
100
AcDbEntity
  8
Rámeček (ISO)
100
AcDbMText
 10
103.9751916467378
 20
287.3262560764327
 30
0.0
 40
3.499999940395355
 41
0.0
 71
     7
 72
     1
  1
5
  7
Text poznámky (ISO)
 73
     1
 44
1.0
  0
MTEXT
  5
18A
330
153
100
AcDbEntity
  8
Rámeček (ISO)
100
AcDbMText
 10
103.9751916467378
 20
6.026256136037407
 30
0.0
 40
3.499999940395355
 41
0.0
 71
     7
 72
     1
  1
5
  7
Text poznámky (ISO)
 73
     1
 44
1.0
  0
MTEXT
  5
18B
330
153
100
AcDbEntity
  8
Rámeček (ISO)
100
AcDbMText
 10
33.88279141176685
 20
287.3262560764327
 30
0.0
 40
3.499999940395355
 41
0.0
 71
     7
 72
     1
  1
6
  7
Text poznámky (ISO)
 73
     1
 44
1.0
  0
MTEXT
  5
18C
330
153
100
AcDbEntity
  8
Rámeček (ISO)
100
AcDbMText
 10
33.88279141176685
 20
6.026256136037407
 30
0.0
 40
3.499999940395355
 41
0.0
 71
     7
 72
     1
  1
6
  7
Text poznámky (ISO)
 73
     1
 44
1.0
  0
LINE
  5
18D
330
153
100
AcDbEntity
  8
Rámeček (ISO)
100
AcDbLine
 10
10.0
 20
74.25000190734862
 30
0.0
 11
6.100000143051147
 21
74.25000190734862
 31
0.0
  0
LINE
  5
18E
330
153
100
AcDbEntity
  8
Rámeček (ISO)
100
AcDbLine
 10
410.0
 20
74.25000190734862
 30
0.0
 11
413.8999938964841
 21
74.25000190734862
 31
0.0
  0
LINE
  5
18F
330
153
100
AcDbEntity
  8
Rámeček (ISO)
100
AcDbLine
 10
10.0
 20
222.7499961853027
 30
0.0
 11
6.100000143051147
 21
222.7499961853027
 31
0.0
  0
LINE
  5
190
330
153
100
AcDbEntity
  8
Rámeček (ISO)
100
AcDbLine
 10
410.0
 20
222.7499961853027
 30
0.0
 11
413.8999938964841
 21
222.7499961853027
 31
0.0
  0
MTEXT
  5
191
330
153
100
AcDbEntity
  8
Rámeček (ISO)
100
AcDbMText
 10
6.361230343933396
 20
35.37500002980233
 30
0.0
 40
3.499999940395355
 41
0.0
 71
     7
 72
     1
  1
A
  7
Text poznámky (ISO)
 73
     1
 44
1.0
  0
MTEXT
  5
192
330
153
100
AcDbEntity
  8
Rámeček (ISO)
100
AcDbMText
 10
410.6612302843286
 20
35.37500002980233
 30
0.0
 40
3.499999940395355
 41
0.0
 71
     7
 72
     1
  1
A
  7
Text poznámky (ISO)
 73
     1
 44
1.0
  0
MTEXT
  5
193
330
153
100
AcDbEntity
  8
Rámeček (ISO)
100
AcDbMText
 10
6.781848468328937
 20
109.6250000298023
 30
0.0
 40
3.499999940395355
 41
0.0
 71
     7
 72
     1
  1
B
  7
Text poznámky (ISO)
 73
     1
 44
1.0
  0
MTEXT
  5
194
330
153
100
AcDbEntity
  8
Rámeček (ISO)
100
AcDbMText
 10
411.0818484087242
 20
109.6250000298023
 30
0.0
 40
3.499999940395355
 41
0.0
 71
     7
 72
     1
  1
B
  7
Text poznámky (ISO)
 73
     1
 44
1.0
  0
MTEXT
  5
195
330
153
100
AcDbEntity
  8
Rámeček (ISO)
100
AcDbMText
 10
6.558903094188357
 20
183.8126013241708
 30
0.0
 40
3.499999940395355
 41
0.0
 71
     7
 72
     1
  1
C
  7
Text poznámky (ISO)
 73
     1
 44
1.0
  0
MTEXT
  5
196
330
153
100
AcDbEntity
  8
Rámeček (ISO)
100
AcDbMText
 10
410.8589030345836
 20
183.8126013241708
 30
0.0
 40
3.499999940395355
 41
0.0
 71
     7
 72
     1
  1
C
  7
Text poznámky (ISO)
 73
     1
 44
1.0
  0
MTEXT
  5
197
330
153
100
AcDbEntity
  8
Rámeček (ISO)
100
AcDbMText
 10
6.56770745709084
 20
258.1250000298023
 30
0.0
 40
3.499999940395355
 41
0.0
 71
     7
 72
     1
  1
D
  7
Text poznámky (ISO)
 73
     1
 44
1.0
  0
MTEXT
  5
198
330
153
100
AcDbEntity
  8
Rámeček (ISO)
100
AcDbMText
 10
410.8677073974861
 20
258.1250000298023
 30
0.0
 40
3.499999940395355
 41
0.0
 71
     7
 72
     1
  1
D
  7
Text poznámky (ISO)
 73
     1
 44
1.0
  0
ENDBLK
  5
155
330
153
100
AcDbEntity
  8
0
100
AcDbBlockEnd
  0
BLOCK
  5
19B
330
19A
100
AcDbEntity
  8
0
100
AcDbBlockBegin
  2
Rohová razítka ACO-razitko
 70
     2
 10
0.0
 20
0.0
 30
0.0
  3
Rohová razítka ACO-razitko
  1

  0
LINE
  5
19D
330
19A
100
AcDbEntity
  8
KOPF
  6
Continuous
370
    25
100
AcDbLine
 10
271.0
 20
94.01203200000002
 30
0.0
 11
271.0
 21
74.00000000000004
 31
0.0
  0
LINE
  5
19E
330
19A
100
AcDbEntity
  8
KOPF
  6
Continuous
370
    25
100
AcDbLine
 10
271.0
 20
94.01203200000002
 30
0.0
 11
271.0
 21
74.00000000000004
 31
0.0
  0
CIRCLE
  5
19F
330
19A
100
AcDbEntity
  8
TEXT50
  6
Continuous
370
    25
100
AcDbCircle
 10
228.4029491544077
 20
82.96404964998812
 30
0.0
 40
1.979948192651899
  0
LINE
  5
1A0
330
19A
100
AcDbEntity
  8
TEXT50
  6
Continuous
370
    25
100
AcDbLine
 10
243.3885593590108
 20
84.94399784264013
 30
0.0
 11
243.3885593590108
 21
80.98410145733607
 31
0.0
  0
LINE
  5
1A1
330
19A
100
AcDbEntity
  8
TEXT50
  6
Continuous
370
    25
100
AcDbLine
 10
234.8388431898113
 20
86.98698300161327
 30
0.0
 11
234.8388431898113
 21
78.94111629836295
 31
0.0
  0
LINE
  5
1A2
330
19A
100
AcDbEntity
  8
TEXT50
  6
Continuous
370
    25
100
AcDbLine
 10
243.3885593590108
 20
84.94399784264013
 30
0.0
 11
234.8388431898113
 21
86.98698300161327
 31
0.0
  0
CIRCLE
  5
1A3
330
19A
100
AcDbEntity
  8
TEXT50
  6
Continuous
370
    25
100
AcDbCircle
 10
228.4029491544077
 20
82.96404964998812
 30
0.0
 40
4.022933351625178
  0
LINE
  5
1A4
330
19A
100
AcDbEntity
  8
TEXT50
  6
Continuous
370
    25
100
AcDbLine
 10
234.8388431898113
 20
78.94111629836295
 30
0.0
 11
243.3885593590108
 21
80.98410145733607
 31
0.0
  0
CIRCLE
  5
1A5
330
19A
100
AcDbEntity
  8
TEXT35
  6
Continuous
370
    25
100
AcDbCircle
 10
221.0936673107637
 20
101.9131972309053
 30
0.0
 40
2.281499999999998
  0
CIRCLE
  5
1A6
330
19A
100
AcDbEntity
  8
TEXT35
  6
Continuous
370
    25
100
AcDbCircle
 10
221.0936673107637
 20
101.9131972309053
 30
0.0
 40
1.579499999999999
  0
ARC
  5
1A7
330
19A
100
AcDbEntity
  8
TEXT35
  6
Continuous
370
    25
100
AcDbCircle
 10
214.6291610736662
 20
101.9131972309054
 30
0.0
 40
1.57950000000007
100
AcDbArc
 50
31.05580049908738
 51
329.9999999999987
  0
LINE
  5
1A8
330
19A
100
AcDbEntity
  8
TEXT35
  6
Continuous
370
    25
100
AcDbLine
 10
215.9822639109751
 20
102.7280180465864
 30
0.0
 11
216.5902852082589
 21
103.0790593062462
 31
0.0
  0
ARC
  5
1A9
330
19A
100
AcDbEntity
  8
TEXT35
  6
Continuous
370
    25
100
AcDbCircle
 10
214.6291610736662
 20
101.9131972309052
 30
0.0
 40
2.281500000000015
100
AcDbArc
 50
30.73091726592628
 51
330.0000000000017
  0
LINE
  5
1AA
330
19A
100
AcDbEntity
  8
TEXT35
  6
Continuous
370
    25
100
AcDbLine
 10
216.6049980324005
 20
100.7724472309053
 30
0.0
 11
215.9970481989438
 21
101.1234472309053
 31
0.0
  0
LINE
  5
1AB
330
19A
100
AcDbEntity
  8
TEXT35
  6
Continuous
370
    25
100
AcDbLine
 10
211.8347763192409
 20
111.6789659312995
 30
0.0
 11
211.8347763192409
 21
98.44416361029551
 31
0.0
  0
LINE
  5
1AC
330
19A
100
AcDbEntity
  8
TEXT35
  6
Continuous
370
    25
100
AcDbLine
 10
211.8347763192409
 20
98.44416361029551
 30
0.0
 11
217.4235458280916
 21
98.44416361029551
 31
0.0
  0
LINE
  5
1AD
330
19A
100
AcDbEntity
  8
TEXT35
  6
Continuous
370
    25
100
AcDbLine
 10
217.4235458280916
 20
98.44416361029551
 30
0.0
 11
217.4235458280916
 21
111.6789659312995
 31
0.0
  0
LINE
  5
1AE
330
19A
100
AcDbEntity
  8
TEXT35
  6
Continuous
370
    25
100
AcDbLine
 10
217.4235458280916
 20
111.6789659312995
 30
0.0
 11
211.8347763192409
 21
111.6789659312995
 31
0.0
  0
LINE
  5
1AF
330
19A
100
AcDbEntity
  8
TEXT35
  6
Continuous
370
    25
100
AcDbLine
 10
223.888052065189
 20
111.6789659312995
 30
0.0
 11
223.888052065189
 21
98.44416361029551
 31
0.0
  0
LINE
  5
1B0
330
19A
100
AcDbEntity
  8
TEXT35
  6
Continuous
370
    25
100
AcDbLine
 10
223.888052065189
 20
98.44416361029551
 30
0.0
 11
218.2992825563384
 21
98.44416361029551
 31
0.0
  0
LINE
  5
1B1
330
19A
100
AcDbEntity
  8
TEXT35
  6
Continuous
370
    25
100
AcDbLine
 10
218.2992825563384
 20
98.44416361029551
 30
0.0
 11
218.2992825563384
 21
111.6789659312995
 31
0.0
  0
LINE
  5
1B2
330
19A
100
AcDbEntity
  8
TEXT35
  6
Continuous
370
    25
100
AcDbLine
 10
218.2992825563384
 20
111.6789659312995
 30
0.0
 11
223.888052065189
 21
111.6789659312995
 31
0.0
  0
ARC
  5
1B3
330
19A
100
AcDbEntity
  8
TEXT35
  6
Continuous
370
    25
100
AcDbCircle
 10
211.499154836569
 20
99.57623034270234
 30
0.0
 40
4.914000000000251
100
AcDbArc
 50
172.305837035409
 51
179.7113029220757
  0
LINE
  5
1B4
330
19A
100
AcDbEntity
  8
TEXT35
  6
Continuous
370
    25
100
AcDbLine
 10
206.6293963427935
 20
100.2341423522474
 30
0.0
 11
209.6999133303443
 21
100.2341423522474
 31
0.0
  0
ARC
  5
1B5
330
19A
100
AcDbEntity
  8
TEXT35
  6
Continuous
370
    25
100
AcDbCircle
 10
204.8301548365688
 20
99.57623034270323
 30
0.0
 40
4.914000000000132
100
AcDbArc
 50
0.2886970779141535
 51
7.694162964580896
  0
LINE
  5
1B6
330
19A
100
AcDbEntity
  8
TEXT35
  6
Continuous
370
    25
100
AcDbLine
 10
209.7440924568018
 20
99.60099048123304
 30
0.0
 11
210.4461002543538
 21
99.60099048123304
 31
0.0
  0
ARC
  5
1B7
330
19A
100
AcDbEntity
  8
TEXT35
  6
Continuous
370
    25
100
AcDbCircle
 10
204.8301548365688
 20
99.5762303427033
 30
0.0
 40
5.616000000000016
100
AcDbArc
 50
0.2526096926473688
 51
53.57642635766914
  0
ARC
  5
1B8
330
19A
100
AcDbEntity
  8
TEXT35
  6
Continuous
370
    25
100
AcDbCircle
 10
211.4991548365688
 20
99.57623034270323
 30
0.0
 40
5.616000000000023
100
AcDbArc
 50
126.4235736423304
 51
179.7473903073512
  0
LINE
  5
1B9
330
19A
100
AcDbEntity
  8
TEXT35
  6
Continuous
370
    25
100
AcDbLine
 10
205.8832094187838
 20
99.60099048123304
 30
0.0
 11
206.5852172163358
 21
99.60099048123304
 31
0.0
  0
LINE
  5
1BA
330
19A
100
AcDbEntity
  8
TEXT35
  6
Continuous
370
    25
100
AcDbLine
 10
205.3702700821435
 20
111.6789659312995
 30
0.0
 11
205.3702700821435
 21
98.44416361029551
 31
0.0
  0
LINE
  5
1BB
330
19A
100
AcDbEntity
  8
TEXT35
  6
Continuous
370
    25
100
AcDbLine
 10
205.3702700821435
 20
98.44416361029551
 30
0.0
 11
210.9590395909941
 21
98.44416361029551
 31
0.0
  0
LINE
  5
1BC
330
19A
100
AcDbEntity
  8
TEXT35
  6
Continuous
370
    25
100
AcDbLine
 10
210.9590395909941
 20
98.44416361029551
 30
0.0
 11
210.9590395909941
 21
111.6789659312995
 31
0.0
  0
LINE
  5
1BD
330
19A
100
AcDbEntity
  8
TEXT35
  6
Continuous
370
    25
100
AcDbLine
 10
210.9590395909941
 20
111.6789659312995
 30
0.0
 11
205.3702700821435
 21
111.6789659312995
 31
0.0
  0
ARC
  5
1BE
330
19A
100
AcDbEntity
  8
TEXT35
  6
Continuous
370
    25
100
AcDbCircle
 10
204.830154836569
 20
99.57623034270341
 30
0.0
 40
4.913999999999818
100
AcDbArc
 50
16.0658750272321
 51
47.26788995739759
  0
LINE
  5
1BF
330
19A
100
AcDbEntity
  8
TEXT35
  6
Continuous
370
    25
100
AcDbLine
 10
209.5522343918387
 20
100.9361423522474
 30
0.0
 11
206.7770752812989
 21
100.9361423522474
 31
0.0
  0
ARC
  5
1C0
330
19A
100
AcDbEntity
  8
TEXT35
  6
Continuous
370
    25
100
AcDbCircle
 10
211.4991548365683
 20
99.57623034270341
 30
0.0
 40
4.913999999999566
100
AcDbArc
 50
132.7321100425983
 51
163.9341249727667
  0
LINE
  5
1C1
330
19A
100
AcDbEntity
  8
Nadpis (ISO)
100
AcDbLine
 10
304.0
 20
114.0000000000001
 30
0.0
 11
304.0
 21
45.0
 31
0.0
  0
LINE
  5
1C2
330
19A
100
AcDbEntity
  8
Nadpis (ISO)
100
AcDbLine
 10
304.0
 20
45.0
 30
0.0
 11
117.0
 21
44.99999999999999
 31
0.0
  0
LINE
  5
1C3
330
19A
100
AcDbEntity
  8
Nadpis (ISO)
100
AcDbLine
 10
117.0
 20
44.99999999999999
 30
0.0
 11
117.0
 21
114.0
 31
0.0
  0
LINE
  5
1C4
330
19A
100
AcDbEntity
  8
Nadpis (ISO)
100
AcDbLine
 10
117.0
 20
114.0
 30
0.0
 11
304.0
 21
114.0000000000001
 31
0.0
  0
LINE
  5
1C5
330
19A
100
AcDbEntity
  8
Nadpis (ISO)
100
AcDbLine
 10
199.0
 20
114.0
 30
0.0
 11
199.0
 21
93.99999999999998
 31
0.0
  0
LINE
  5
1C6
330
19A
100
AcDbEntity
  8
KOPF
100
AcDbLine
 10
199.0
 20
104.0
 30
0.0
 11
117.0
 21
104.0
 31
0.0
  0
LINE
  5
1C7
330
19A
100
AcDbEntity
  8
Nadpis (ISO)
100
AcDbLine
 10
199.0
 20
93.99999999999998
 30
0.0
 11
117.0
 21
93.99999999999996
 31
0.0
  0
LINE
  5
1C8
330
19A
100
AcDbEntity
  8
KOPF
100
AcDbLine
 10
158.0
 20
93.99999999999998
 30
0.0
 11
158.0
 21
114.0
 31
0.0
  0
LINE
  5
1C9
330
19A
100
AcDbEntity
  8
Nadpis (ISO)
100
AcDbLine
 10
199.0
 20
93.99999999999998
 30
0.0
 11
304.0
 21
94.00000000000003
 31
0.0
  0
LINE
  5
1CA
330
19A
100
AcDbEntity
  8
Nadpis (ISO)
100
AcDbLine
 10
223.0
 20
94.00000000000003
 30
0.0
 11
223.0
 21
44.99999999999999
 31
0.0
  0
LINE
  5
1CB
330
19A
100
AcDbEntity
  8
Nadpis (ISO)
100
AcDbLine
 10
304.0
 20
74.00000000000004
 30
0.0
 11
117.0
 21
73.99999999999998
 31
0.0
  0
LINE
  5
1CC
330
19A
100
AcDbEntity
  8
Nadpis (ISO)
100
AcDbLine
 10
186.0
 20
94.0
 30
0.0
 11
186.0
 21
74.00000000000002
 31
0.0
  0
LINE
  5
1CD
330
19A
100
AcDbEntity
  8
KOPF
100
AcDbLine
 10
144.0
 20
93.99999999999996
 30
0.0
 11
144.0
 21
74.00000000000004
 31
0.0
  0
LINE
  5
1CE
330
19A
100
AcDbEntity
  8
KOPF
100
AcDbLine
 10
169.0
 20
93.99999999999996
 30
0.0
 11
169.0
 21
74.00000000000004
 31
0.0
  0
LINE
  5
1CF
330
19A
100
AcDbEntity
  8
KOPF
100
AcDbLine
 10
186.0
 20
84.0
 30
0.0
 11
117.0
 21
83.99999999999996
 31
0.0
  0
LINE
  5
1D0
330
19A
100
AcDbEntity
  8
KOPF
100
AcDbLine
 10
186.0
 20
79.0
 30
0.0
 11
117.0
 21
78.99999999999997
 31
0.0
  0
LINE
  5
1D1
330
19A
100
AcDbEntity
  8
KOPF
100
AcDbLine
 10
186.0
 20
89.0
 30
0.0
 11
117.0
 21
88.99999999999996
 31
0.0
  0
LINE
  5
1D2
330
19A
100
AcDbEntity
  8
KOPF
100
AcDbLine
 10
223.0
 20
49.99999999999996
 30
0.0
 11
304.0
 21
50.00000000000003
 31
0.0
  0
LINE
  5
1D3
330
19A
100
AcDbEntity
  8
KOPF
100
AcDbLine
 10
245.0
 20
94.00000000000003
 30
0.0
 11
245.0
 21
74.00000000000004
 31
0.0
  0
LINE
  5
1D4
330
19A
100
AcDbEntity
  8
Nadpis (ISO)
100
AcDbLine
 10
292.0
 20
74.00000000000004
 30
0.0
 11
292.0
 21
50.00000000000007
 31
0.0
  0
LINE
  5
1D5
330
19A
100
AcDbEntity
  8
KOPF
100
AcDbLine
 10
292.0
 20
50.0
 30
0.0
 11
292.0
 21
45.0
 31
0.0
  0
LINE
  5
1D6
330
19A
100
AcDbEntity
  8
Nadpis (ISO)
100
AcDbLine
 10
260.9160465310349
 20
50.0
 30
0.0
 11
260.9160465310349
 21
45.0
 31
0.0
  0
TEXT
  5
1D8
330
19A
100
AcDbEntity
  8
Viditelná tenká (ISO)
100
AcDbText
 10
273.0
 20
84.97994933403731
 30
0.0
 40
1.539999991655349
  1
zum Zweck anderweitiger Benutzung
 41
0.7999999523162842
  7
Styl textu62
100
AcDbText
  0
TEXT
  5
1DA
330
19A
100
AcDbEntity
  8
Viditelná tenká (ISO)
100
AcDbText
 10
273.0
 20
82.63814072439636
 30
0.0
 40
1.539999991655349
  1
mitgeteilt werden und bleibt unser
 41
0.7999999523162842
  7
Styl textu62
100
AcDbText
  0
TEXT
  5
1DB
330
19A
100
AcDbEntity
  8
Viditelná tenká (ISO)
100
AcDbText
 10
273.0
 20
87.26106040199923
 30
0.0
 40
1.539999991655349
  1
noch dritten Personen, insbesondere
 41
0.7999999523162842
  7
Styl textu62
100
AcDbText
  0
TEXT
  5
1DC
330
19A
100
AcDbEntity
  8
Viditelná tenká (ISO)
100
AcDbText
 10
273.0
 20
89.62823225872142
 30
0.0
 40
1.539999991655349
  1
Diese Zeichnung darf weder kopiert
 41
0.7999999523162842
  7
Styl textu62
100
AcDbText
  0
TEXT
  5
1DD
330
19A
100
AcDbEntity
  8
Viditelná tenká (ISO)
100
AcDbText
 10
273.0
 20
80.37532604459601
 30
0.0
 40
1.539999991655349
  1
Eigentum.
 41
0.7999999523162842
  7
Styl textu62
100
AcDbText
  0
TEXT
  5
1DF
330
19A
100
AcDbEntity
  8
Viditelná tenká (ISO)
100
AcDbText
 10
223.6386390092129
 20
91.29914147596016
 30
0.0
 40
2.000000029802321
  1
Projektion: ISO-E
 41
0.7999999523162842
  7
Styl textu58
100
AcDbText
  0
TEXT
  5
1E1
330
19A
100
AcDbEntity
  8
Viditelná tenká (ISO)
100
AcDbText
 10
273.0
 20
77.30982488917629
 30
0.0
 40
1.539999991655349
  1
Schutzvermerk nach DIN 34 beachten
 41
0.75
  7
Styl textu63
100
AcDbText
  0
TEXT
  5
1E2
330
19A
100
AcDbEntity
  8
Viditelná tenká (ISO)
100
AcDbText
 10
236.2487793316645
 20
99.38243367792949
 30
0.0
 40
2.000000029802321
  1
582 22 Přibyslav; CZ
 41
0.7999999523162842
  7
Styl textu58
100
AcDbText
  0
TEXT
  5
1E3
330
19A
100
AcDbEntity
  8
Viditelná tenká (ISO)
100
AcDbText
 10
236.5351154208068
 20
103.0087314099309
 30
0.0
 40
2.000000029802321
  1
Havlíčkova 260
 41
0.7999999523162842
  7
Styl textu58
100
AcDbText
  0
TEXT
  5
1E5
330
19A
100
AcDbEntity
  8
TEXT35
100
AcDbText
 10
235.9801354774567
 20
108.2018007493417
 30
0.0
 40
3.000000119209288
  1
ACO Industries k.s.
 41
0.7999999523162842
  7
Styl textu75
100
AcDbText
  0
TEXT
  5
1E7
330
19A
100
AcDbEntity
  8
Viditelná tenká (ISO)
100
AcDbText
 10
261.6456899832647
 20
102.9064533471121
 30
0.0
 40
2.099999934434889
  1
Tel.: +420 569 491 111
 41
0.7000000476837159
  7
Styl textu72
100
AcDbText
  0
MTEXT
  5
1E8
330
19A
100
AcDbEntity
  8
Viditelná tenká (ISO)
100
AcDbMText
 10
223.7412519286358
 20
73.27889989032858
 30
0.0
 40
2.000000029802321
 41
34.87667701558774
 71
     1
 72
     1
  1
\fArial|b0|i0;\H2.0000;Zeichnung Nr.\fTahoma|b0|i0;\H2.0000;/Drawing No:
  7
Text poznámky (ISO)
 73
     1
 44
1.0
  0
MTEXT
  5
1E9
330
19A
100
AcDbEntity
  8
Viditelná tenká (ISO)
100
AcDbMText
 10
292.8014921014588
 20
72.84063462326732
 30
0.0
 40
2.000000029802321
 41
7.016185171142836
 71
     1
 72
     1
  1
\fArial|b0|i0;\H2.0000;Index
  7
Text poznámky (ISO)
 73
     1
 44
1.0
  0
MTEXT
  5
1EA
330
19A
100
AcDbEntity
  8
Viditelná tenká (ISO)
100
AcDbMText
 10
188.9161081342839
 20
93.0
 30
0.0
 40
2.000000029802321
 41
0.0
 71
     1
 72
     1
  1
\fArial|b0|i0;\H2.0000;Massstab\fTahoma|b0|i0;\H2.0000;/Scale:
  7
Text poznámky (ISO)
 73
     1
 44
1.0
  0
MTEXT
  5
1EB
330
19A
100
AcDbEntity
  8
Viditelná tenká (ISO)
100
AcDbMText
 10
118.0
 20
113.0
 30
0.0
 40
2.000000029802321
 41
0.0
 71
     1
 72
     1
  1
\fArial|b0|i0;\H2.0000;Werkstoff/Material:
  7
Text poznámky (ISO)
 73
     1
 44
1.0
  0
MTEXT
  5
1EC
330
19A
100
AcDbEntity
  8
Viditelná tenká (ISO)
100
AcDbMText
 10
159.0
 20
113.0
 30
0.0
 40
2.000000029802321
 41
0.0
 71
     1
 72
     1
  1
\fArial|b0|i0;\H2.0000;Gewicht/Weight:
  7
Text poznámky (ISO)
 73
     1
 44
1.0
  0
MTEXT
  5
1ED
330
19A
100
AcDbEntity
  8
Viditelná tenká (ISO)
100
AcDbMText
 10
118.0
 20
103.0
 30
0.0
 40
2.000000029802321
 41
0.0
 71
     1
 72
     1
  1
\fArial|b0|i0;\H2.0000;zul.Abweich.\fTahoma|b0|i0;\H2.0000;/Tolerance:
  7
Text poznámky (ISO)
 73
     1
 44
1.0
  0
MTEXT
  5
1EE
330
19A
100
AcDbEntity
  8
Viditelná tenká (ISO)
100
AcDbMText
 10
159.0
 20
103.0
 30
0.0
 40
2.000000029802321
 41
0.0
 71
     1
 72
     1
  1
\fArial|b0|i0;\H2.0000;Oberflache\fTahoma|b0|i0;\H2.0000;/Surface:
  7
Text poznámky (ISO)
 73
     1
 44
1.0
  0
MTEXT
  5
1EF
330
19A
100
AcDbEntity
  8
Viditelná tenká (ISO)
100
AcDbMText
 10
118.2064366962235
 20
87.52498463872976
 30
0.0
 40
2.000000029802321
 41
0.0
 71
     1
 72
     1
  1
\fArial|b0|i0;\H2.0000;Gezeichnet\fTahoma|b0|i0;\H2.0000;/Drawn:
  7
Text poznámky (ISO)
 73
     1
 44
1.0
  0
MTEXT
  5
1F0
102
{ACAD_XDICTIONARY
360
134C
102
}
330
19A
100
AcDbEntity
  8
Viditelná tenká (ISO)
100
AcDbMText
 10
118.2064366962235
 20
82.79398756785594
 30
0.0
 40
2.000000029802321
 41
0.0
 71
     1
 72
     1
  1
\fArial|b0|i0;\H2.0000;Gepr\U+00FCft\fTahoma|b0|i0;\H2.0000;/Checked by:
  7
Text poznámky (ISO)
 73
     1
 44
1.0
  0
MTEXT
  5
1F1
330
19A
100
AcDbEntity
  8
Viditelná tenká (ISO)
100
AcDbMText
 10
118.2064366962235
 20
77.59713566222233
 30
0.0
 40
2.000000029802321
 41
0.0
 71
     1
 72
     1
  1
\fArial|b0|i0;\H2.0000;Update\fTahoma|b0|i0;\H2.0000;:
  7
Text poznámky (ISO)
 73
     1
 44
1.0
  0
MTEXT
  5
1F2
330
19A
100
AcDbEntity
  8
Viditelná tenká (ISO)
100
AcDbMText
 10
148.0773056067903
 20
93.0
 30
0.0
 40
2.000000029802321
 41
15.9304416179657
 71
     1
 72
     1
  1
\fArial|b0|i0;\H2.0000;Datum\fTahoma|b0|i0;\H2.0000;/Date:
  7
Text poznámky (ISO)
 73
     1
 44
1.0
  0
MTEXT
  5
1F3
330
19A
100
AcDbEntity
  8
Viditelná tenká (ISO)
100
AcDbMText
 10
171.7579499603394
 20
93.0
 30
0.0
 40
2.000000029802321
 41
7.452743649482727
 71
     1
 72
     1
  1
\fArial|b0|i0;\H2.0000;Name
  7
Text poznámky (ISO)
 73
     1
 44
1.0
  0
MTEXT
  5
1F4
102
{ACAD_XDICTIONARY
360
134E
102
}
330
19A
100
AcDbEntity
  8
Nadpis (ISO)
100
AcDbMText
 10
118.0
 20
71.0
 30
0.0
 40
3.499999940395355
 41
0.0
 71
     1
 72
     1
  1
ACO vpust 142 sestava vod. dvoud\U+00EDln\U+00E1 DN70 12mm priruba bez ZU V2A
  7
Text poznámky (ISO)
 73
     1
 44
1.0
  0
MTEXT
  5
1F5
330
19A
100
AcDbEntity
  8
Nadpis (ISO)
100
AcDbMText
 10
147.8345772780873
 20
87.78242706242744
 30
0.0
 40
2.000000029802321
 41
29.41232473017148
 71
     1
 72
     1
  1
\fTahoma|b0|i0;\H2.0000;19.9.2011
  7
Text poznámky (ISO)
 73
     1
 44
1.0
  0
MTEXT
  5
1F6
330
19A
100
AcDbEntity
  8
Nadpis (ISO)
100
AcDbMText
 10
118.9147684950603
 20
98.79632878646518
 30
0.0
 40
3.499999940395355
 41
0.0
 71
     1
 72
     1
  1
ISO 2768-m
  7
Text poznámky (ISO)
 73
     1
 44
1.0
  0
MTEXT
  5
1F7
330
19A
100
AcDbEntity
  8
Nadpis (ISO)
100
AcDbMText
 10
162.5831033854
 20
99.20167780246003
 30
0.0
 40
3.499999940395355
 41
0.0
 71
     1
 72
     1
  1
DIN ISO 1302
  7
Text poznámky (ISO)
 73
     1
 44
1.0
  0
MTEXT
  5
1F8
330
19A
100
AcDbEntity
  8
Nadpis (ISO)
100
AcDbMText
 10
262.4743825961981
 20
49.17778241269704
 30
0.0
 40
3.499999940395355
 41
0.0
 71
     1
 72
     1
  1
\fArial|b0|i0;\H3.5000;List:\fArial|b0|i0;\H3.5000;1 \fArial|b0|i0;\H3.5000;/\fArial|b0|i0;\H3.5000;1 
  7
Text poznámky (ISO)
 73
     1
 44
1.0
  0
MTEXT
  5
1F9
102
{ACAD_XDICTIONARY
360
1350
102
}
330
19A
100
AcDbEntity
  8
Nadpis (ISO)
100
AcDbMText
 10
159.4396788094336
 20
109.2360383310952
 30
0.0
 40
3.499999940395355
 41
29.10098367733216
 71
     1
 72
     1
  1
Nen\U+00ED k dispozici
  7
Text poznámky (ISO)
 73
     2
 44
0.9878841638565063
  0
MTEXT
  5
1FA
330
19A
100
AcDbEntity
  8
Nadpis (ISO)
100
AcDbMText
 10
246.4026076227944
 20
91.02705239790408
 30
0.0
 40
1.500000059604644
 41
0.0
 71
     1
 72
     1
  1
\fTahoma|b0|i0;\W0.80;\H1.5000;The drawing is property \Pof company ACO \Pand must not be neither \Pcopied nor used\Pfor other unauthorized purposes. \PTrademark according to DIN 34\P
  7
Text poznámky (ISO)
 73
     2
 44
0.8232368230819702
  0
MTEXT
  5
1FB
330
19A
100
AcDbEntity
  8
Nadpis (ISO)
100
AcDbMText
 10
261.7171631717141
 20
101.5413993827952
 30
0.0
 40
2.099999934434889
 41
0.0
 71
     1
 72
     1
  1
\fTahoma|b0|i0;\H2.1000;www.aco.com
  7
Text poznámky (ISO)
 73
     1
 44
1.0
  0
ATTDEF
  5
1FD
102
{ACAD_XDICTIONARY
360
8FF
102
}
330
19A
100
AcDbEntity
  8
Nadpis (ISO)
100
AcDbText
 10
292.1851661835569
 20
62.4856753668063
 30
0.0
 40
3.499999940395355
  1
000
  7
Styl textu9
100
AcDbAttributeDefinition
  3
ČÍSLO REVIZE
  2
ČÍSLO_REVIZE_001
 70
     0
  0
ATTDEF
  5
201
102
{ACAD_XDICTIONARY
360
902
102
}
330
19A
100
AcDbEntity
  8
Nadpis (ISO)
100
AcDbText
 10
294.5873446304243
 20
46.32882590415592
 30
0.0
 40
2.000000029802321
  1
A3
  7
Styl textu40
100
AcDbAttributeDefinition
  3
Sheet Size
  2
Sheet_Size_001
 70
     0
  0
ATTDEF
  5
202
102
{ACAD_XDICTIONARY
360
905
102
}
330
19A
100
AcDbEntity
  8
Nadpis (ISO)
100
AcDbText
 10
224.4232249036362
 20
62.42713236440501
 30
0.0
 40
3.499999940395355
  1
414720
  7
Text poznámky (ISO)
100
AcDbAttributeDefinition
  3
PART NUMBER
  2
PART_NUMBER_001
 70
     0
  0
ATTDEF
  5
203
102
{ACAD_XDICTIONARY
360
908
102
}
330
19A
100
AcDbEntity
  8
Nadpis (ISO)
100
AcDbText
 10
118.0
 20
56.50000005960464
 30
0.0
 40
3.499999940395355
  1

  7
Text poznámky (ISO)
 11
118.0
 21
60.0
 31
0.0
100
AcDbAttributeDefinition
  3
PROJECT
  2
PROJECT
 70
     0
 74
     3
  0
ATTDEF
  5
205
102
{ACAD_XDICTIONARY
360
90B
102
}
330
19A
100
AcDbEntity
  8
Nadpis (ISO)
100
AcDbText
 10
117.8119543349687
 20
47.7481777837024
 30
0.0
 40
6.99999988079071
  1
414720
  7
Styl textu94
100
AcDbAttributeDefinition
  3
SKLADOVÉ ČÍSLO
  2
SKLADOVÉ_ČÍSLO_001
 70
     0
  0
ATTDEF
  5
206
102
{ACAD_XDICTIONARY
360
90E
102
}
330
19A
100
AcDbEntity
  8
Nadpis (ISO)
100
AcDbText
 10
117.5939056808251
 20
105.1756658592857
 30
0.0
 40
3.499999940395355
  1

  7
Text poznámky (ISO)
 11
117.5939056808251
 21
108.6756657996811
 31
0.0
100
AcDbAttributeDefinition
  3
MATERIAL
  2
MATERIAL
 70
     0
 74
     3
  0
ATTDEF
  5
207
102
{ACAD_XDICTIONARY
360
911
102
}
330
19A
100
AcDbEntity
  8
Nadpis (ISO)
100
AcDbText
 10
171.1119787164545
 20
85.78242703262512
 30
0.0
 40
2.000000029802321
  1
pmacoun
  7
Styl textu40
100
AcDbAttributeDefinition
  3
AUTHOR
  2
AUTHOR_001
 70
     0
  0
ATTDEF
  5
208
102
{ACAD_XDICTIONARY
360
914
102
}
330
19A
100
AcDbEntity
  8
Nadpis (ISO)
100
AcDbText
 10
189.1855699863978
 20
82.50038826992808
 30
0.0
 40
3.499999940395355
  1

  7
Text poznámky (ISO)
 11
189.1855699863978
 21
86.00038821032343
 31
0.0
100
AcDbAttributeDefinition
  3
FirstViewScale
  2
FirstViewScale
 70
     0
 74
     3
  0
ENDBLK
  5
19C
330
19A
100
AcDbEntity
  8
0
100
AcDbBlockEnd
  0
BLOCK
  5
4F4
330
4F3
100
AcDbEntity
  8
0
100
AcDbBlockBegin
  2
KUSOVNÍK
 70
     0
 10
0.0
 20
0.0
 30
0.0
  3
KUSOVNÍK
  1

  0
LINE
  5
4F6
330
4F3
100
AcDbEntity
  8
Značka (ISO)
100
AcDbLine
 10
410.0
 20
174.2305179536343
 30
0.0
 11
188.7707980492068
 21
174.2305179536343
 31
0.0
  0
LINE
  5
4F7
330
4F3
100
AcDbEntity
  8
Značka (ISO)
100
AcDbLine
 10
410.0
 20
174.2305179536343
 30
0.0
 11
410.0
 21
167.8818167567254
 31
0.0
  0
LINE
  5
4F8
330
4F3
100
AcDbEntity
  8
Značka (ISO)
100
AcDbLine
 10
188.7707980492068
 20
174.2305179536343
 30
0.0
 11
188.7707980492068
 21
167.8818167567254
 31
0.0
  0
MTEXT
  5
4F9
102
{ACAD_XDICTIONARY
360
1352
102
}
330
4F3
100
AcDbEntity
  8
Značka (ISO)
100
AcDbMText
 10
288.8420206130728
 20
168.6064920037985
 30
0.0
 40
3.499999940395355
 41
0.0
 71
     7
 72
     1
  1
KUSOVN\U+00CDK
  7
Text poznámky (DIN)
 73
     1
 44
1.0
  0
LINE
  5
4FB
330
4F3
100
AcDbEntity
  8
Značka (ISO)
100
AcDbLine
 10
410.0
 20
167.8818167567254
 30
0.0
 11
188.7707980492068
 21
167.8818167567254
 31
0.0
  0
LINE
  5
4FC
330
4F3
100
AcDbEntity
  8
Značka (ISO)
100
AcDbLine
 10
410.0
 20
167.8818167567254
 30
0.0
 11
410.0
 21
161.5331155598164
 31
0.0
  0
MTEXT
  5
4FD
102
{ACAD_XDICTIONARY
360
1354
102
}
330
4F3
100
AcDbEntity
  8
Značka (ISO)
100
AcDbMText
 10
384.0665194359815
 20
162.2577908068896
 30
0.0
 40
3.499999940395355
 41
0.0
 71
     7
 72
     1
  1
MATERI\U+00C1L
  7
Text poznámky (DIN)
 73
     1
 44
1.0
  0
LINE
  5
4FE
330
4F3
100
AcDbEntity
  8
Značka (ISO)
100
AcDbLine
 10
378.5184969813402
 20
167.8818167567254
 30
0.0
 11
378.5184969813402
 21
161.5331155598164
 31
0.0
  0
MTEXT
  5
4FF
330
4F3
100
AcDbEntity
  8
Značka (ISO)
100
AcDbMText
 10
351.5228474402402
 20
162.9574661880732
 30
0.0
 40
3.499999940395355
 41
0.0
 71
     7
 72
     1
  1
HMOTNOST
  7
Text poznámky (DIN)
 73
     1
 44
1.0
  0
LINE
  5
500
330
4F3
100
AcDbEntity
  8
Značka (ISO)
100
AcDbLine
 10
346.6626555316803
 20
167.8818167567254
 30
0.0
 11
346.6626555316803
 21
161.5331155598164
 31
0.0
  0
MTEXT
  5
501
102
{ACAD_XDICTIONARY
360
1356
102
}
330
4F3
100
AcDbEntity
  8
Značka (ISO)
100
AcDbMText
 10
314.2982886872718
 20
162.2577908068896
 30
0.0
 40
3.499999940395355
 41
0.0
 71
     7
 72
     1
  1
SKLADOV\U+00C9 \U+010C\U+00CDS
  7
Text poznámky (DIN)
 73
     1
 44
1.0
  0
LINE
  5
502
330
4F3
100
AcDbEntity
  8
Značka (ISO)
100
AcDbLine
 10
312.8161322143559
 20
167.8818167567254
 30
0.0
 11
312.8161322143559
 21
161.5331155598164
 31
0.0
  0
MTEXT
  5
503
330
4F3
100
AcDbEntity
  8
Značka (ISO)
100
AcDbMText
 10
259.8198122683291
 20
162.9574661880732
 30
0.0
 40
3.499999940395355
 41
0.0
 71
     7
 72
     1
  1
POPIS
  7
Text poznámky (DIN)
 73
     1
 44
1.0
  0
LINE
  5
504
330
4F3
100
AcDbEntity
  8
Značka (ISO)
100
AcDbLine
 10
218.4621965006338
 20
167.8818167567254
 30
0.0
 11
218.4621965006338
 21
161.5331155598164
 31
0.0
  0
MTEXT
  5
505
330
4F3
100
AcDbEntity
  8
Značka (ISO)
100
AcDbMText
 10
211.3003271342293
 20
162.9574661880732
 30
0.0
 40
3.499999940395355
 41
0.0
 71
     7
 72
     1
  1
KS
  7
Text poznámky (DIN)
 73
     1
 44
1.0
  0
LINE
  5
506
330
4F3
100
AcDbEntity
  8
Značka (ISO)
100
AcDbLine
 10
209.1310586832551
 20
167.8818167567254
 30
0.0
 11
209.1310586832551
 21
161.5331155598164
 31
0.0
  0
MTEXT
  5
507
330
4F3
100
AcDbEntity
  8
Značka (ISO)
100
AcDbMText
 10
192.0828748715399
 20
162.9574661880732
 30
0.0
 40
3.499999940395355
 41
0.0
 71
     7
 72
     1
  1
POZICE
  7
Text poznámky (DIN)
 73
     1
 44
1.0
  0
LINE
  5
508
330
4F3
100
AcDbEntity
  8
Značka (ISO)
100
AcDbLine
 10
188.7707980492068
 20
167.8818167567254
 30
0.0
 11
188.7707980492068
 21
161.5331155598164
 31
0.0
  0
MTEXT
  5
509
330
4F3
100
AcDbEntity
  8
Značka (ISO)
100
AcDbMText
 10
379.7208977503363
 20
156.6087649911643
 30
0.0
 40
3.499999940395355
 41
0.0
 71
     7
 72
     1
  1
PVC-U
  7
Text poznámky (DIN)
 73
     1
 44
1.0
  0
MTEXT
  5
50A
330
4F3
100
AcDbEntity
  8
Značka (ISO)
100
AcDbMText
 10
347.8650563006764
 20
155.5600637346507
 30
0.0
 40
3.499999940395355
 41
0.0
 71
     7
 72
     1
  1
0,042 kg
  7
Text poznámky (DIN)
 73
     1
 44
1.0
  0
MTEXT
  5
50B
330
4F3
100
AcDbEntity
  8
Značka (ISO)
100
AcDbMText
 10
314.018532983352
 20
156.6087649911643
 30
0.0
 40
3.499999940395355
 41
0.0
 71
     7
 72
     1
  1
NM 6701
  7
Text poznámky (DIN)
 73
     1
 44
1.0
  0
MTEXT
  5
50C
102
{ACAD_XDICTIONARY
360
1358
102
}
330
4F3
100
AcDbEntity
  8
Značka (ISO)
100
AcDbMText
 10
219.66459726963
 20
155.38636238873
 30
0.0
 40
3.499999940395355
 41
0.0
 71
     7
 72
     1
  1
n\U+00E1vlek sunap-DN70
  7
Text poznámky (DIN)
 73
     1
 44
1.0
  0
MTEXT
  5
50D
330
4F3
100
AcDbEntity
  8
Značka (ISO)
100
AcDbMText
 10
213.2212283687214
 20
156.6087649911643
 30
0.0
 40
3.499999940395355
 41
0.0
 71
     7
 72
     1
  1
1
  7
Text poznámky (DIN)
 73
     1
 44
1.0
  0
MTEXT
  5
50E
330
4F3
100
AcDbEntity
  8
Značka (ISO)
100
AcDbMText
 10
198.3755291430079
 20
156.6087649911643
 30
0.0
 40
3.499999940395355
 41
0.0
 71
     7
 72
     1
  1
1
  7
Text poznámky (DIN)
 73
     1
 44
1.0
  0
LINE
  5
50F
330
4F3
100
AcDbEntity
  8
Značka (ISO)
100
AcDbLine
 10
410.0
 20
161.5331155598164
 30
0.0
 11
188.7707980492068
 21
161.5331155598164
 31
0.0
  0
MTEXT
  5
510
330
4F3
100
AcDbEntity
  8
Značka (ISO)
100
AcDbMText
 10
379.7208977503363
 20
150.2600637942553
 30
0.0
 40
3.499999940395355
 41
0.0
 71
     7
 72
     1
  1
Guma
  7
Text poznámky (DIN)
 73
     1
 44
1.0
  0
MTEXT
  5
511
330
4F3
100
AcDbEntity
  8
Značka (ISO)
100
AcDbMText
 10
347.8650563006764
 20
149.2113625377417
 30
0.0
 40
3.499999940395355
 41
0.0
 71
     7
 72
     1
  1
0,084 kg
  7
Text poznámky (DIN)
 73
     1
 44
1.0
  0
MTEXT
  5
512
330
4F3
100
AcDbEntity
  8
Značka (ISO)
100
AcDbMText
 10
314.018532983352
 20
150.2600637942553
 30
0.0
 40
3.499999940395355
 41
0.0
 71
     7
 72
     1
  1
E55520
  7
Text poznámky (DIN)
 73
     1
 44
1.0
  0
MTEXT
  5
513
330
4F3
100
AcDbEntity
  8
Značka (ISO)
100
AcDbMText
 10
219.66459726963
 20
149.2113625377417
 30
0.0
 40
3.499999940395355
 41
0.0
 71
     7
 72
     1
  1
ACO vpust drenazni krouzek komplet 142
  7
Text poznámky (DIN)
 73
     1
 44
1.0
  0
MTEXT
  5
514
330
4F3
100
AcDbEntity
  8
Značka (ISO)
100
AcDbMText
 10
213.2212283687214
 20
150.2600637942553
 30
0.0
 40
3.499999940395355
 41
0.0
 71
     7
 72
     1
  1
1
  7
Text poznámky (DIN)
 73
     1
 44
1.0
  0
MTEXT
  5
515
330
4F3
100
AcDbEntity
  8
Značka (ISO)
100
AcDbMText
 10
198.0293032002925
 20
150.2600637942553
 30
0.0
 40
3.499999940395355
 41
0.0
 71
     7
 72
     1
  1
2
  7
Text poznámky (DIN)
 73
     1
 44
1.0
  0
LINE
  5
516
330
4F3
100
AcDbEntity
  8
Značka (ISO)
100
AcDbLine
 10
410.0
 20
155.1844143629075
 30
0.0
 11
188.7707980492068
 21
155.1844143629075
 31
0.0
  0
MTEXT
  5
517
330
4F3
100
AcDbEntity
  8
Značka (ISO)
100
AcDbMText
 10
379.7208977503363
 20
143.9113625973464
 30
0.0
 40
3.499999940395355
 41
0.0
 71
     7
 72
     1
  1
Mosaz
  7
Text poznámky (DIN)
 73
     1
 44
1.0
  0
MTEXT
  5
518
330
4F3
100
AcDbEntity
  8
Značka (ISO)
100
AcDbMText
 10
347.8650563006764
 20
142.8626613408328
 30
0.0
 40
3.499999940395355
 41
0.0
 71
     7
 72
     1
  1
0,005 kg
  7
Text poznámky (DIN)
 73
     1
 44
1.0
  0
MTEXT
  5
519
330
4F3
100
AcDbEntity
  8
Značka (ISO)
100
AcDbMText
 10
314.018532983352
 20
143.9113625973464
 30
0.0
 40
3.499999940395355
 41
0.0
 71
     7
 72
     1
  1
90678
  7
Text poznámky (DIN)
 73
     1
 44
1.0
  0
MTEXT
  5
51A
330
4F3
100
AcDbEntity
  8
Značka (ISO)
100
AcDbMText
 10
219.66459726963
 20
143.9113625973464
 30
0.0
 40
3.499999940395355
 41
0.0
 71
     7
 72
     1
  1
Matice M8 DIN 934
  7
Text poznámky (DIN)
 73
     1
 44
1.0
  0
MTEXT
  5
51B
330
4F3
100
AcDbEntity
  8
Značka (ISO)
100
AcDbMText
 10
213.2212283687214
 20
143.9113625973464
 30
0.0
 40
3.499999940395355
 41
0.0
 71
     7
 72
     1
  1
1
  7
Text poznámky (DIN)
 73
     1
 44
1.0
  0
MTEXT
  5
51C
330
4F3
100
AcDbEntity
  8
Značka (ISO)
100
AcDbMText
 10
198.0293032002925
 20
143.9113625973464
 30
0.0
 40
3.499999940395355
 41
0.0
 71
     7
 72
     1
  1
3
  7
Text poznámky (DIN)
 73
     1
 44
1.0
  0
LINE
  5
51D
330
4F3
100
AcDbEntity
  8
Značka (ISO)
100
AcDbLine
 10
410.0
 20
148.8357131659985
 30
0.0
 11
188.7707980492068
 21
148.8357131659985
 31
0.0
  0
MTEXT
  5
51E
330
4F3
100
AcDbEntity
  8
Značka (ISO)
100
AcDbMText
 10
379.7208977503363
 20
137.5626614004374
 30
0.0
 40
3.499999940395355
 41
0.0
 71
     7
 72
     1
  1
Plast ABS
  7
Text poznámky (DIN)
 73
     1
 44
1.0
  0
MTEXT
  5
51F
330
4F3
100
AcDbEntity
  8
Značka (ISO)
100
AcDbMText
 10
347.8650563006764
 20
136.5139601439238
 30
0.0
 40
3.499999940395355
 41
0.0
 71
     7
 72
     1
  1
0,002 kg
  7
Text poznámky (DIN)
 73
     1
 44
1.0
  0
MTEXT
  5
520
330
4F3
100
AcDbEntity
  8
Značka (ISO)
100
AcDbMText
 10
314.018532983352
 20
137.5626614004374
 30
0.0
 40
3.499999940395355
 41
0.0
 71
     7
 72
     1
  1
91363
  7
Text poznámky (DIN)
 73
     1
 44
1.0
  0
MTEXT
  5
521
330
4F3
100
AcDbEntity
  8
Značka (ISO)
100
AcDbMText
 10
219.66459726963
 20
136.5139601439238
 30
0.0
 40
3.499999940395355
 41
0.0
 71
     7
 72
     1
  1
Krytka  matic
  7
Text poznámky (DIN)
 73
     1
 44
1.0
  0
MTEXT
  5
522
330
4F3
100
AcDbEntity
  8
Značka (ISO)
100
AcDbMText
 10
213.2212283687214
 20
137.5626614004374
 30
0.0
 40
3.499999940395355
 41
0.0
 71
     7
 72
     1
  1
1
  7
Text poznámky (DIN)
 73
     1
 44
1.0
  0
MTEXT
  5
523
330
4F3
100
AcDbEntity
  8
Značka (ISO)
100
AcDbMText
 10
197.8539785218714
 20
137.5626614004374
 30
0.0
 40
3.499999940395355
 41
0.0
 71
     7
 72
     1
  1
4
  7
Text poznámky (DIN)
 73
     1
 44
1.0
  0
LINE
  5
524
330
4F3
100
AcDbEntity
  8
Značka (ISO)
100
AcDbLine
 10
410.0
 20
142.4870119690896
 30
0.0
 11
188.7707980492068
 21
142.4870119690896
 31
0.0
  0
MTEXT
  5
525
330
4F3
100
AcDbEntity
  8
Značka (ISO)
100
AcDbMText
 10
379.7208977503363
 20
131.2139602035285
 30
0.0
 40
3.499999940395355
 41
0.0
 71
     7
 72
     1
  1
AISI 304
  7
Text poznámky (DIN)
 73
     1
 44
1.0
  0
MTEXT
  5
526
330
4F3
100
AcDbEntity
  8
Značka (ISO)
100
AcDbMText
 10
347.8650563006764
 20
130.1652589470149
 30
0.0
 40
3.499999940395355
 41
0.0
 71
     7
 72
     1
  1
0,782 kg
  7
Text poznámky (DIN)
 73
     1
 44
1.0
  0
MTEXT
  5
527
330
4F3
100
AcDbEntity
  8
Značka (ISO)
100
AcDbMText
 10
314.018532983352
 20
131.2139602035285
 30
0.0
 40
3.499999940395355
 41
0.0
 71
     7
 72
     1
  1
E55496
  7
Text poznámky (DIN)
 73
     1
 44
1.0
  0
MTEXT
  5
528
102
{ACAD_XDICTIONARY
360
135A
102
}
330
4F3
100
AcDbEntity
  8
Značka (ISO)
100
AcDbMText
 10
219.66459726963
 20
129.9915576010943
 30
0.0
 40
3.499999940395355
 41
0.0
 71
     7
 72
     1
  1
ACO vpust 142 svarenec vod. dvoud\U+00EDln\U+00E1 
  7
Text poznámky (DIN)
 73
     1
 44
1.0
  0
MTEXT
  5
529
102
{ACAD_XDICTIONARY
360
135C
102
}
330
4F3
100
AcDbEntity
  8
Značka (ISO)
100
AcDbMText
 10
219.6617972625096
 20
123.6428564816714
 30
0.0
 40
3.499999940395355
 41
0.0
 71
     7
 72
     1
  1
12mm p\U+0159\U+00EDruba DN70 V2A
  7
Text poznámky (DIN)
 73
     1
 44
1.0
  0
MTEXT
  5
52A
330
4F3
100
AcDbEntity
  8
Značka (ISO)
100
AcDbMText
 10
213.2212283687214
 20
131.2139602035285
 30
0.0
 40
3.499999940395355
 41
0.0
 71
     7
 72
     1
  1
1
  7
Text poznámky (DIN)
 73
     1
 44
1.0
  0
MTEXT
  5
52B
330
4F3
100
AcDbEntity
  8
Značka (ISO)
100
AcDbMText
 10
198.0293032002925
 20
131.2139602035285
 30
0.0
 40
3.499999940395355
 41
0.0
 71
     7
 72
     1
  1
5
  7
Text poznámky (DIN)
 73
     1
 44
1.0
  0
LINE
  5
52C
330
4F3
100
AcDbEntity
  8
Značka (ISO)
100
AcDbLine
 10
410.0
 20
136.1383107721806
 30
0.0
 11
188.7707980492068
 21
136.1383107721806
 31
0.0
  0
MTEXT
  5
52D
102
{ACAD_XDICTIONARY
360
135E
102
}
330
4F3
100
AcDbEntity
  8
Značka (ISO)
100
AcDbMText
 10
379.7208977503363
 20
117.2941552072764
 30
0.0
 40
3.499999940395355
 41
0.0
 71
     7
 72
     1
  1
Pap\U+00EDr
  7
Text poznámky (DIN)
 73
     1
 44
1.0
  0
MTEXT
  5
52E
330
4F3
100
AcDbEntity
  8
Značka (ISO)
100
AcDbMText
 10
347.8650563006764
 20
117.467856553197
 30
0.0
 40
3.499999940395355
 41
0.0
 71
     7
 72
     1
  1
0 kg
  7
Text poznámky (DIN)
 73
     1
 44
1.0
  0
MTEXT
  5
52F
330
4F3
100
AcDbEntity
  8
Značka (ISO)
100
AcDbMText
 10
314.018532983352
 20
118.5165578097106
 30
0.0
 40
3.499999940395355
 41
0.0
 71
     7
 72
     1
  1
91018
  7
Text poznámky (DIN)
 73
     1
 44
1.0
  0
MTEXT
  5
530
330
4F3
100
AcDbEntity
  8
Značka (ISO)
100
AcDbMText
 10
219.66459726963
 20
118.5165578097106
 30
0.0
 40
3.499999940395355
 41
0.0
 71
     7
 72
     1
  1
Etiketa
  7
Text poznámky (DIN)
 73
     1
 44
1.0
  0
MTEXT
  5
531
330
4F3
100
AcDbEntity
  8
Značka (ISO)
100
AcDbMText
 10
213.2212283687214
 20
118.5165578097106
 30
0.0
 40
3.499999940395355
 41
0.0
 71
     7
 72
     1
  1
1
  7
Text poznámky (DIN)
 73
     1
 44
1.0
  0
MTEXT
  5
532
330
4F3
100
AcDbEntity
  8
Značka (ISO)
100
AcDbMText
 10
198.0293032002925
 20
118.5165578097106
 30
0.0
 40
3.499999940395355
 41
0.0
 71
     7
 72
     1
  1
6
  7
Text poznámky (DIN)
 73
     1
 44
1.0
  0
LINE
  5
533
330
4F3
100
AcDbEntity
  8
Značka (ISO)
100
AcDbLine
 10
410.0
 20
123.4409083783627
 30
0.0
 11
188.7707980492068
 21
123.4409083783627
 31
0.0
  0
MTEXT
  5
534
102
{ACAD_XDICTIONARY
360
1360
102
}
330
4F3
100
AcDbEntity
  8
Značka (ISO)
100
AcDbMText
 10
379.7208977503363
 20
110.9454540103675
 30
0.0
 40
3.499999940395355
 41
0.0
 71
     7
 72
     1
  1
Polykarbon\U+00E1t,
  7
Text poznámky (DIN)
 73
     1
 44
1.0
  0
MTEXT
  5
535
102
{ACAD_XDICTIONARY
360
1362
102
}
330
4F3
100
AcDbEntity
  8
Značka (ISO)
100
AcDbMText
 10
379.4184969813402
 20
104.5967528909446
 30
0.0
 40
3.499999940395355
 41
0.0
 71
     7
 72
     1
  1
 kou\U+0159ov\U+00FD
  7
Text poznámky (DIN)
 73
     1
 44
1.0
  0
MTEXT
  5
536
330
4F3
100
AcDbEntity
  8
Značka (ISO)
100
AcDbMText
 10
347.8650563006764
 20
111.119155356288
 30
0.0
 40
3.499999940395355
 41
0.0
 71
     7
 72
     1
  1
0,025 kg
  7
Text poznámky (DIN)
 73
     1
 44
1.0
  0
MTEXT
  5
537
330
4F3
100
AcDbEntity
  8
Značka (ISO)
100
AcDbMText
 10
314.018532983352
 20
112.1678566128016
 30
0.0
 40
3.499999940395355
 41
0.0
 71
     7
 72
     1
  1
E55477
  7
Text poznámky (DIN)
 73
     1
 44
1.0
  0
MTEXT
  5
538
102
{ACAD_XDICTIONARY
360
1364
102
}
330
4F3
100
AcDbEntity
  8
Značka (ISO)
100
AcDbMText
 10
219.66459726963
 20
110.9454540103675
 30
0.0
 40
3.499999940395355
 41
0.0
 71
     7
 72
     1
  1
ACO vpust 142 kryt plastov\U+00FD 157 pro 
  7
Text poznámky (DIN)
 73
     1
 44
1.0
  0
MTEXT
  5
539
102
{ACAD_XDICTIONARY
360
1366
102
}
330
4F3
100
AcDbEntity
  8
Značka (ISO)
100
AcDbMText
 10
219.66459726963
 20
105.6454541474582
 30
0.0
 40
3.499999940395355
 41
0.0
 71
     7
 72
     1
  1
balen\U+00ED PP 12mm
  7
Text poznámky (DIN)
 73
     1
 44
1.0
  0
MTEXT
  5
53A
330
4F3
100
AcDbEntity
  8
Značka (ISO)
100
AcDbMText
 10
213.2212283687214
 20
112.1678566128016
 30
0.0
 40
3.499999940395355
 41
0.0
 71
     7
 72
     1
  1
1
  7
Text poznámky (DIN)
 73
     1
 44
1.0
  0
MTEXT
  5
53B
330
4F3
100
AcDbEntity
  8
Značka (ISO)
100
AcDbMText
 10
197.1515031335675
 20
112.1678566128016
 30
0.0
 40
3.499999940395355
 41
0.0
 71
     7
 72
     1
  1
17
  7
Text poznámky (DIN)
 73
     1
 44
1.0
  0
LINE
  5
53C
330
4F3
100
AcDbEntity
  8
Značka (ISO)
100
AcDbLine
 10
410.0
 20
117.0922071814538
 30
0.0
 11
188.7707980492068
 21
117.0922071814538
 31
0.0
  0
MTEXT
  5
53D
330
4F3
100
AcDbEntity
  8
Značka (ISO)
100
AcDbMText
 10
379.7208977503363
 20
99.4704542189838
 30
0.0
 40
3.499999940395355
 41
0.0
 71
     7
 72
     1
  1
PE-HD
  7
Text poznámky (DIN)
 73
     1
 44
1.0
  0
MTEXT
  5
53E
330
4F3
100
AcDbEntity
  8
Značka (ISO)
100
AcDbMText
 10
347.8650563006764
 20
98.4217529624702
 30
0.0
 40
3.499999940395355
 41
0.0
 71
     7
 72
     1
  1
0,002 kg
  7
Text poznámky (DIN)
 73
     1
 44
1.0
  0
MTEXT
  5
53F
330
4F3
100
AcDbEntity
  8
Značka (ISO)
100
AcDbMText
 10
314.018532983352
 20
99.4704542189838
 30
0.0
 40
3.499999940395355
 41
0.0
 71
     7
 72
     1
  1
NM6373
  7
Text poznámky (DIN)
 73
     1
 44
1.0
  0
MTEXT
  5
540
330
4F3
100
AcDbEntity
  8
Značka (ISO)
100
AcDbMText
 10
219.66459726963
 20
99.4704542189838
 30
0.0
 40
3.499999940395355
 41
0.0
 71
     7
 72
     1
  1
Effidrain lubricant
  7
Text poznámky (DIN)
 73
     1
 44
1.0
  0
MTEXT
  5
541
330
4F3
100
AcDbEntity
  8
Značka (ISO)
100
AcDbMText
 10
213.2212283687214
 20
99.4704542189838
 30
0.0
 40
3.499999940395355
 41
0.0
 71
     7
 72
     1
  1
1
  7
Text poznámky (DIN)
 73
     1
 44
1.0
  0
MTEXT
  5
542
330
4F3
100
AcDbEntity
  8
Značka (ISO)
100
AcDbMText
 10
197.1515031335675
 20
99.4704542189838
 30
0.0
 40
3.499999940395355
 41
0.0
 71
     7
 72
     1
  1
18
  7
Text poznámky (DIN)
 73
     1
 44
1.0
  0
LINE
  5
543
330
4F3
100
AcDbEntity
  8
Značka (ISO)
100
AcDbLine
 10
410.0
 20
104.3948047876359
 30
0.0
 11
188.7707980492068
 21
104.3948047876359
 31
0.0
  0
MTEXT
  5
544
330
4F3
100
AcDbEntity
  8
Značka (ISO)
100
AcDbMText
 10
379.4184969813402
 20
93.12175302207482
 30
0.0
 40
3.499999940395355
 41
0.0
 71
     7
 72
     1
  1
 
  7
Text poznámky (DIN)
 73
     1
 44
1.0
  0
MTEXT
  5
545
330
4F3
100
AcDbEntity
  8
Značka (ISO)
100
AcDbMText
 10
347.8650563006764
 20
92.07305176556122
 30
0.0
 40
3.499999940395355
 41
0.0
 71
     7
 72
     1
  1
0,052 kg
  7
Text poznámky (DIN)
 73
     1
 44
1.0
  0
MTEXT
  5
546
330
4F3
100
AcDbEntity
  8
Značka (ISO)
100
AcDbMText
 10
314.018532983352
 20
93.12175302207482
 30
0.0
 40
3.499999940395355
 41
0.0
 71
     7
 72
     1
  1
E56574
  7
Text poznámky (DIN)
 73
     1
 44
1.0
  0
MTEXT
  5
547
102
{ACAD_XDICTIONARY
360
1368
102
}
330
4F3
100
AcDbEntity
  8
Značka (ISO)
100
AcDbMText
 10
219.66459726963
 20
91.89935041964066
 30
0.0
 40
3.499999940395355
 41
0.0
 71
     7
 72
     1
  1
Effidrain karton - dren\U+00E1\U+017En\U+00ED pro mont\U+00E1\U+017E 
  7
Text poznámky (DIN)
 73
     1
 44
1.0
  0
MTEXT
  5
548
330
4F3
100
AcDbEntity
  8
Značka (ISO)
100
AcDbMText
 10
219.6617972625096
 20
86.59935055673134
 30
0.0
 40
3.499999940395355
 41
0.0
 71
     7
 72
     1
  1
142
  7
Text poznámky (DIN)
 73
     1
 44
1.0
  0
MTEXT
  5
549
330
4F3
100
AcDbEntity
  8
Značka (ISO)
100
AcDbMText
 10
213.2212283687214
 20
93.12175302207482
 30
0.0
 40
3.499999940395355
 41
0.0
 71
     7
 72
     1
  1
1
  7
Text poznámky (DIN)
 73
     1
 44
1.0
  0
MTEXT
  5
54A
330
4F3
100
AcDbEntity
  8
Značka (ISO)
100
AcDbMText
 10
197.1515031335675
 20
93.12175302207482
 30
0.0
 40
3.499999940395355
 41
0.0
 71
     7
 72
     1
  1
19
  7
Text poznámky (DIN)
 73
     1
 44
1.0
  0
LINE
  5
54B
330
4F3
100
AcDbEntity
  8
Značka (ISO)
100
AcDbLine
 10
410.0
 20
98.04610359072695
 30
0.0
 11
188.7707980492068
 21
98.04610359072695
 31
0.0
  0
MTEXT
  5
54C
330
4F3
100
AcDbEntity
  8
Značka (ISO)
100
AcDbMText
 10
379.7208977503363
 20
79.37564937174332
 30
0.0
 40
3.499999940395355
 41
0.0
 71
     7
 72
     1
  1
plast
  7
Text poznámky (DIN)
 73
     1
 44
1.0
  0
MTEXT
  5
54D
330
4F3
100
AcDbEntity
  8
Značka (ISO)
100
AcDbMText
 10
347.8650563006764
 20
79.37564937174332
 30
0.0
 40
3.499999940395355
 41
0.0
 71
     7
 72
     1
  1
0,02 kg
  7
Text poznámky (DIN)
 73
     1
 44
1.0
  0
MTEXT
  5
54E
330
4F3
100
AcDbEntity
  8
Značka (ISO)
100
AcDbMText
 10
314.018532983352
 20
80.42435062825692
 30
0.0
 40
3.499999940395355
 41
0.0
 71
     7
 72
     1
  1
NM6522
  7
Text poznámky (DIN)
 73
     1
 44
1.0
  0
MTEXT
  5
54F
102
{ACAD_XDICTIONARY
360
136A
102
}
330
4F3
100
AcDbEntity
  8
Značka (ISO)
100
AcDbMText
 10
219.66459726963
 20
80.25064928233636
 30
0.0
 40
3.499999940395355
 41
0.0
 71
     7
 72
     1
  1
ochran\U+00E1 s\U+00ED\U+0165ka
  7
Text poznámky (DIN)
 73
     1
 44
1.0
  0
MTEXT
  5
550
330
4F3
100
AcDbEntity
  8
Značka (ISO)
100
AcDbMText
 10
213.2212283687214
 20
80.42435062825692
 30
0.0
 40
3.499999940395355
 41
0.0
 71
     7
 72
     1
  1
1
  7
Text poznámky (DIN)
 73
     1
 44
1.0
  0
MTEXT
  5
551
330
4F3
100
AcDbEntity
  8
Značka (ISO)
100
AcDbMText
 10
197.1543031406878
 20
80.42435062825692
 30
0.0
 40
3.499999940395355
 41
0.0
 71
     7
 72
     1
  1
21
  7
Text poznámky (DIN)
 73
     1
 44
1.0
  0
LINE
  5
552
330
4F3
100
AcDbEntity
  8
Značka (ISO)
100
AcDbLine
 10
410.0
 20
85.34870119690905
 30
0.0
 11
188.7707980492068
 21
85.34870119690905
 31
0.0
  0
LINE
  5
553
330
4F3
100
AcDbEntity
  8
Značka (ISO)
100
AcDbLine
 10
410.0
 20
79.00000000000012
 30
0.0
 11
188.7707980492068
 21
79.00000000000012
 31
0.0
  0
LINE
  5
554
330
4F3
100
AcDbEntity
  8
Značka (ISO)
100
AcDbLine
 10
410.0
 20
161.5331155598164
 30
0.0
 11
410.0
 21
79.00000000000012
 31
0.0
  0
LINE
  5
555
330
4F3
100
AcDbEntity
  8
Značka (ISO)
100
AcDbLine
 10
378.5184969813402
 20
161.5331155598164
 30
0.0
 11
378.5184969813402
 21
79.00000000000012
 31
0.0
  0
LINE
  5
556
330
4F3
100
AcDbEntity
  8
Značka (ISO)
100
AcDbLine
 10
346.6626555316803
 20
161.5331155598164
 30
0.0
 11
346.6626555316803
 21
79.00000000000012
 31
0.0
  0
LINE
  5
557
330
4F3
100
AcDbEntity
  8
Značka (ISO)
100
AcDbLine
 10
312.8161322143559
 20
161.5331155598164
 30
0.0
 11
312.8161322143559
 21
79.00000000000012
 31
0.0
  0
LINE
  5
558
330
4F3
100
AcDbEntity
  8
Značka (ISO)
100
AcDbLine
 10
218.4621965006338
 20
161.5331155598164
 30
0.0
 11
218.4621965006338
 21
79.00000000000012
 31
0.0
  0
LINE
  5
559
330
4F3
100
AcDbEntity
  8
Značka (ISO)
100
AcDbLine
 10
209.1310586832551
 20
161.5331155598164
 30
0.0
 11
209.1310586832551
 21
79.00000000000012
 31
0.0
  0
LINE
  5
55A
330
4F3
100
AcDbEntity
  8
Značka (ISO)
100
AcDbLine
 10
188.7707980492068
 20
161.5331155598164
 30
0.0
 11
188.7707980492068
 21
79.00000000000012
 31
0.0
  0
ENDBLK
  5
4F5
330
4F3
100
AcDbEntity
  8
0
100
AcDbBlockEnd
  0
BLOCK
  5
55F
330
55E
100
AcDbEntity
  8
0
100
AcDbBlockBegin
  2
*D27
 70
     1
 10
0.0
 20
0.0
 30
0.0
  3
*D27
  1

  0
LINE
  5
637
330
55E
100
AcDbEntity
  8
Kóta (ISO)
440
 16777216
100
AcDbLine
 10
268.689710020923
 20
342.6597046637391
 30
0.0
 11
295.1357748361814
 21
342.6597046637391
 31
0.0
  0
LINE
  5
638
330
55E
100
AcDbEntity
  8
Kóta (ISO)
440
 16777216
100
AcDbLine
 10
268.689710020923
 20
267.6597046637391
 30
0.0
 11
295.1357748361814
 21
267.6597046637391
 31
0.0
  0
LINE
  5
639
330
55E
100
AcDbEntity
  8
Kóta (ISO)
440
 16777216
100
AcDbLine
 10
293.6357748361814
 20
338.9097046637392
 30
0.0
 11
293.6357748361814
 21
271.4097046637391
 31
0.0
  0
SOLID
  5
63A
330
55E
100
AcDbEntity
  8
Kóta (ISO)
440
 16777216
100
AcDbTrace
 10
293.0107748361814
 20
338.9097046637392
 30
0.0
 11
294.2607748361814
 21
338.9097046637392
 31
0.0
 12
293.6357748361814
 22
342.6597046637391
 32
0.0
 13
293.6357748361814
 23
342.6597046637391
 33
0.0
  0
SOLID
  5
63B
330
55E
100
AcDbEntity
  8
Kóta (ISO)
440
 16777216
100
AcDbTrace
 10
293.0107748361814
 20
271.4097046637391
 30
0.0
 11
294.2607748361814
 21
271.4097046637391
 31
0.0
 12
293.6357748361814
 22
267.6597046637391
 32
0.0
 13
293.6357748361814
 23
267.6597046637391
 33
0.0
  0
MTEXT
  5
63C
330
55E
100
AcDbEntity
  8
Kóta (ISO)
440
 16777216
100
AcDbMText
 10
284.5936289754718
 20
298.5710167252961
 30
0.0
 40
5.25
 41
0.0
 71
     1
 72
     1
  1
\A1;{\fAIGDT|b0|i0;\H5.2500;\ln\fTahoma|b0|i0;\H5.2500;}75
  7
Text poznámky (ISO)
 11
0.0000000000000001
 21
1.0
 31
0.0
 73
     1
 44
1.0
  0
POINT
  5
63D
330
55E
100
AcDbEntity
  8
Defpoints
 62
     0
440
 16777216
100
AcDbPoint
 10
268.689710020923
 20
342.6597046637391
 30
0.0
  0
POINT
  5
63E
330
55E
100
AcDbEntity
  8
Defpoints
 62
     0
440
 16777216
100
AcDbPoint
 10
268.689710020923
 20
267.6597046637391
 30
0.0
  0
POINT
  5
63F
330
55E
100
AcDbEntity
  8
Defpoints
 62
     0
440
 16777216
100
AcDbPoint
 10
293.6357748361814
 20
267.6597046637391
 30
0.0
  0
ENDBLK
  5
560
330
55E
100
AcDbEntity
  8
0
100
AcDbBlockEnd
  0
BLOCK
  5
642
330
641
100
AcDbEntity
  8
0
100
AcDbBlockBegin
  2
*D28
 70
     1
 10
0.0
 20
0.0
 30
0.0
  3
*D28
  1

  0
LINE
  5
719
330
641
100
AcDbEntity
  8
Kóta (ISO)
440
 16777216
100
AcDbLine
 10
85.16449748473389
 20
273.4097046637292
 30
0.0
 11
39.34910774048363
 21
273.4097046637292
 31
0.0
  0
LINE
  5
71A
330
641
100
AcDbEntity
  8
Kóta (ISO)
440
 16777216
100
AcDbLine
 10
45.98425450013349
 20
382.6645528637291
 30
0.0
 11
39.34910774048365
 21
382.6645528637291
 31
0.0
  0
LINE
  5
71B
330
641
100
AcDbEntity
  8
Kóta (ISO)
440
 16777216
100
AcDbLine
 10
40.84910774048363
 20
277.1597046637292
 30
0.0
 11
40.84910774048363
 21
378.9145528637291
 31
0.0
  0
SOLID
  5
71C
330
641
100
AcDbEntity
  8
Kóta (ISO)
440
 16777216
100
AcDbTrace
 10
40.22410774048363
 20
277.1597046637292
 30
0.0
 11
41.47410774048363
 21
277.1597046637292
 31
0.0
 12
40.84910774048363
 22
273.4097046637292
 32
0.0
 13
40.84910774048363
 23
273.4097046637292
 33
0.0
  0
SOLID
  5
71D
330
641
100
AcDbEntity
  8
Kóta (ISO)
440
 16777216
100
AcDbTrace
 10
40.22410774048363
 20
378.9145528637291
 30
0.0
 11
41.47410774048363
 21
378.9145528637291
 31
0.0
 12
40.84910774048363
 22
382.6645528637291
 32
0.0
 13
40.84910774048363
 23
382.6645528637291
 33
0.0
  0
MTEXT
  5
71E
330
641
100
AcDbEntity
  8
Kóta (ISO)
440
 16777216
100
AcDbMText
 10
33.04223937245136
 20
317.6764000867648
 30
0.0
 40
5.25
 41
0.0
 71
     1
 72
     1
  1
\A1;109,25
  7
Text poznámky (ISO)
 11
0.0000000000000001
 21
1.0
 31
0.0
 73
     1
 44
1.0
  0
POINT
  5
71F
330
641
100
AcDbEntity
  8
Defpoints
 62
     0
440
 16777216
100
AcDbPoint
 10
85.16449748473389
 20
273.4097046637292
 30
0.0
  0
POINT
  5
720
330
641
100
AcDbEntity
  8
Defpoints
 62
     0
440
 16777216
100
AcDbPoint
 10
45.98425450013349
 20
382.6645528637291
 30
0.0
  0
POINT
  5
721
330
641
100
AcDbEntity
  8
Defpoints
 62
     0
440
 16777216
100
AcDbPoint
 10
40.84910774048363
 20
382.6645528637291
 30
0.0
  0
ENDBLK
  5
643
330
641
100
AcDbEntity
  8
0
100
AcDbBlockEnd
  0
BLOCK
  5
724
330
723
100
AcDbEntity
  8
0
100
AcDbBlockBegin
  2
*D29
 70
     1
 10
0.0
 20
0.0
 30
0.0
  3
*D29
  1

  0
LINE
  5
7C3
330
723
100
AcDbEntity
  8
Kóta (ISO)
440
 16777216
100
AcDbLine
 10
183.5208156487178
 20
80.01898560724781
 30
0.0
 11
72.85860439300654
 21
190.6811968629258
 31
0.0
  0
LINE
  5
7C4
330
723
100
AcDbEntity
  8
Kóta (ISO)
440
 16777216
100
AcDbLine
 10
70.2069539635566
 20
193.332847292375
 30
0.0
 11
50.68481657242984
 21
212.8549846834959
 31
0.0
  0
SOLID
  5
7C5
330
723
100
AcDbEntity
  8
Kóta (ISO)
440
 16777216
100
AcDbTrace
 10
183.9627573869593
 20
80.46092734548942
 30
0.0
 11
183.0788739104763
 21
79.57704386900613
 31
0.0
 12
186.1724660781678
 22
77.36733517779862
 32
0.0
 13
186.1724660781678
 23
77.36733517779862
 33
0.0
  0
SOLID
  5
7C6
330
723
100
AcDbEntity
  8
Kóta (ISO)
440
 16777216
100
AcDbTrace
 10
73.30054613124807
 20
191.1231386011675
 30
0.0
 11
72.41666265476502
 21
190.2392551246841
 31
0.0
 12
70.2069539635566
 22
193.332847292375
 32
0.0
 13
70.2069539635566
 23
193.332847292375
 33
0.0
  0
MTEXT
  5
7C7
102
{ACAD_XDICTIONARY
360
136C
102
}
330
723
100
AcDbEntity
  8
Kóta (ISO)
440
 16777216
100
AcDbMText
 10
56.5321499074562
 20
217.0858719167313
 30
0.0
 40
5.25
 41
0.0
 71
     1
 72
     1
  1
\A1;\U+2205164
  7
Text poznámky (ISO)
 11
0.7071067811866536
 21
-0.7071067811864415
 31
0.0
 73
     1
 44
1.0
  0
POINT
  5
7C8
330
723
100
AcDbEntity
  8
Defpoints
 62
     0
440
 16777216
100
AcDbPoint
 10
70.2069539635566
 20
193.332847292375
 30
0.0
  0
POINT
  5
7C9
330
723
100
AcDbEntity
  8
Defpoints
 62
     0
440
 16777216
100
AcDbPoint
 10
186.1724660781678
 20
77.36733517779862
 30
0.0
  0
ENDBLK
  5
725
330
723
100
AcDbEntity
  8
0
100
AcDbBlockEnd
  0
BLOCK
  5
7CC
330
7CB
100
AcDbEntity
  8
0
100
AcDbBlockBegin
  2
*D30
 70
     1
 10
0.0
 20
0.0
 30
0.0
  3
*D30
  1

  0
LINE
  5
8A3
330
7CB
100
AcDbEntity
  8
Kóta (ISO)
440
 16777216
100
AcDbLine
 10
56.939710020923
 20
352.8454286303704
 30
0.0
 11
56.939710020923
 21
351.0248467955912
 31
0.0
  0
LINE
  5
8A4
330
7CB
100
AcDbEntity
  8
Kóta (ISO)
440
 16777216
100
AcDbLine
 10
199.439710020923
 20
352.8454286303705
 30
0.0
 11
199.439710020923
 21
351.0248467955912
 31
0.0
  0
LINE
  5
8A5
330
7CB
100
AcDbEntity
  8
Kóta (ISO)
440
 16777216
100
AcDbLine
 10
60.689710020923
 20
352.5248467955912
 30
0.0
 11
195.6897100209229
 21
352.5248467955912
 31
0.0
  0
SOLID
  5
8A6
330
7CB
100
AcDbEntity
  8
Kóta (ISO)
440
 16777216
100
AcDbTrace
 10
60.689710020923
 20
353.1498467955911
 30
0.0
 11
60.689710020923
 21
351.8998467955912
 31
0.0
 12
56.939710020923
 22
352.5248467955912
 32
0.0
 13
56.939710020923
 23
352.5248467955912
 33
0.0
  0
SOLID
  5
8A7
330
7CB
100
AcDbEntity
  8
Kóta (ISO)
440
 16777216
100
AcDbTrace
 10
195.6897100209229
 20
353.1498467955911
 30
0.0
 11
195.6897100209229
 21
351.8998467955912
 31
0.0
 12
199.439710020923
 22
352.5248467955912
 32
0.0
 13
199.439710020923
 23
352.5248467955912
 33
0.0
  0
MTEXT
  5
8A8
102
{ACAD_XDICTIONARY
360
136E
102
}
330
7CB
100
AcDbEntity
  8
Kóta (ISO)
440
 16777216
100
AcDbMText
 10
97.49564161557792
 20
360.5467923966656
 30
0.0
 40
5.25
 41
0.0
 71
     1
 72
     1
  1
\A1;{\U+00D8}142,5
  7
Text poznámky (ISO)
 73
     1
 44
1.0
  0
POINT
  5
8A9
330
7CB
100
AcDbEntity
  8
Defpoints
 62
     0
440
 16777216
100
AcDbPoint
 10
56.939710020923
 20
352.8454286303704
 30
0.0
  0
POINT
  5
8AA
330
7CB
100
AcDbEntity
  8
Defpoints
 62
     0
440
 16777216
100
AcDbPoint
 10
199.439710020923
 20
352.8454286303705
 30
0.0
  0
POINT
  5
8AB
330
7CB
100
AcDbEntity
  8
Defpoints
 62
     0
440
 16777216
100
AcDbPoint
 10
199.439710020923
 20
352.5248467955912
 30
0.0
  0
ENDBLK
  5
7CD
330
7CB
100
AcDbEntity
  8
0
100
AcDbBlockEnd
  0
BLOCK
  5
8AD
330
8AC
100
AcDbEntity
  8
0
100
AcDbBlockBegin
  2
Pozice1
 70
     0
 10
0.0
 20
0.0
 30
0.0
  3
Pozice1
  1

  0
LINE
  5
8AF
330
8AC
100
AcDbEntity
  8
Značka (ISO)
100
AcDbLine
 10
186.7798583834127
 20
230.7598548119563
 30
0.0
 11
185.0120914304461
 21
228.9920878589902
 31
0.0
  0
POLYLINE
  5
8B0
330
8AC
100
AcDbEntity
  8
Značka (ISO)
100
AcDb2dPolyline
 66
     1
 10
0.0
 20
0.0
 30
0.0
 70
   128
  0
VERTEX
  5
8B1
330
8B0
100
AcDbEntity
  8
Značka (ISO)
100
AcDbVertex
100
AcDb2dVertex
 10
186.4262962341308
 20
231.1134147644043
 30
0.0
  0
VERTEX
  5
8B2
330
8B0
100
AcDbEntity
  8
Značka (ISO)
100
AcDbVertex
100
AcDb2dVertex
 10
185.012092590332
 20
228.9920806884766
 30
0.0
  0
VERTEX
  5
8B4
330
8B0
100
AcDbEntity
  8
Značka (ISO)
100
AcDbVertex
100
AcDb2dVertex
 10
187.1334075927734
 20
230.4063034057617
 30
0.0
  0
VERTEX
  5
8B5
330
8B0
100
AcDbEntity
  8
Značka (ISO)
100
AcDbVertex
100
AcDb2dVertex
 10
186.4262962341308
 20
231.1134147644043
 30
0.0
  0
SEQEND
  5
8B3
330
8B0
100
AcDbEntity
  8
Značka (ISO)
  0
SOLID
  5
8B6
330
8AC
100
AcDbEntity
  8
Značka (ISO)
100
AcDbTrace
 10
186.4262962341308
 20
231.1134147644043
 30
0.0
 11
185.012092590332
 21
228.9920806884766
 31
0.0
 12
187.1334075927734
 22
230.4063034057617
 32
0.0
 13
186.4262962341308
 23
231.1134147644043
 33
0.0
  0
LINE
  5
8B7
330
8AC
100
AcDbEntity
  8
Značka (ISO)
100
AcDbLine
 10
186.4263049928195
 20
231.1134082025496
 30
0.0
 11
185.0120914304461
 21
228.9920878589902
 31
0.0
  0
LINE
  5
8B8
330
8AC
100
AcDbEntity
  8
Značka (ISO)
100
AcDbLine
 10
185.0120914304461
 20
228.9920878589902
 30
0.0
 11
187.133411774006
 21
230.406301421363
 31
0.0
  0
LINE
  5
8B9
330
8AC
100
AcDbEntity
  8
Značka (ISO)
100
AcDbLine
 10
187.133411774006
 20
230.406301421363
 30
0.0
 11
186.4263049928195
 21
231.1134082025496
 31
0.0
  0
LINE
  5
8BA
330
8AC
100
AcDbEntity
  8
Značka (ISO)
100
AcDbLine
 10
186.7798583834127
 20
230.7598548119563
 30
0.0
 11
193.4795090140644
 21
237.459505442606
 31
0.0
  0
MTEXT
  5
8BB
330
8AC
100
AcDbEntity
  8
Značka (ISO)
100
AcDbMText
 10
201.3545086564365
 20
244.0305140056477
 30
0.0
 40
5.24999976158142
 41
0.0
 71
     5
 72
     1
  1
1
  7
Text popisu (ISO)
 73
     1
 44
1.0
  0
LINE
  5
8BC
330
8AC
100
AcDbEntity
  8
Značka (ISO)
100
AcDbLine
 10
193.4795090140644
 20
237.459505442606
 30
0.0
 11
209.2295082988087
 21
237.459505442606
 31
0.0
  0
ENDBLK
  5
8AE
330
8AC
100
AcDbEntity
  8
0
100
AcDbBlockEnd
  0
BLOCK
  5
8BF
330
8BE
100
AcDbEntity
  8
0
100
AcDbBlockBegin
  2
Pozice2
 70
     0
 10
0.0
 20
0.0
 30
0.0
  3
Pozice2
  1

  0
LINE
  5
8C1
330
8BE
100
AcDbEntity
  8
Značka (ISO)
100
AcDbLine
 10
146.6777576426334
 20
230.6048666186202
 30
0.0
 11
145.427757642633
 21
228.4398031091594
 31
0.0
  0
POLYLINE
  5
8C2
330
8BE
100
AcDbEntity
  8
Značka (ISO)
100
AcDb2dPolyline
 66
     1
 10
0.0
 20
0.0
 30
0.0
 70
   128
  0
VERTEX
  5
8C3
330
8C2
100
AcDbEntity
  8
Značka (ISO)
100
AcDbVertex
100
AcDb2dVertex
 10
146.2447452545166
 20
230.8548736572266
 30
0.0
  0
VERTEX
  5
8C4
330
8C2
100
AcDbEntity
  8
Značka (ISO)
100
AcDbVertex
100
AcDb2dVertex
 10
145.4277610778808
 20
228.4398078918457
 30
0.0
  0
VERTEX
  5
8C6
330
8C2
100
AcDbEntity
  8
Značka (ISO)
100
AcDbVertex
100
AcDb2dVertex
 10
147.1107673645019
 20
230.3548622131348
 30
0.0
  0
VERTEX
  5
8C7
330
8C2
100
AcDbEntity
  8
Značka (ISO)
100
AcDbVertex
100
AcDb2dVertex
 10
146.2447452545166
 20
230.8548736572266
 30
0.0
  0
SEQEND
  5
8C5
330
8C2
100
AcDbEntity
  8
Značka (ISO)
  0
SOLID
  5
8C8
330
8BE
100
AcDbEntity
  8
Značka (ISO)
100
AcDbTrace
 10
146.2447452545166
 20
230.8548736572266
 30
0.0
 11
145.4277610778808
 21
228.4398078918457
 31
0.0
 12
147.1107673645019
 22
230.3548622131348
 32
0.0
 13
146.2447452545166
 23
230.8548736572266
 33
0.0
  0
LINE
  5
8C9
330
8BE
100
AcDbEntity
  8
Značka (ISO)
100
AcDbLine
 10
146.2447449407411
 20
230.8548666186203
 30
0.0
 11
145.427757642633
 21
228.4398031091594
 31
0.0
  0
LINE
  5
8CA
330
8BE
100
AcDbEntity
  8
Značka (ISO)
100
AcDbLine
 10
145.427757642633
 20
228.4398031091594
 30
0.0
 11
147.1107703445255
 21
230.3548666186202
 31
0.0
  0
LINE
  5
8CB
330
8BE
100
AcDbEntity
  8
Značka (ISO)
100
AcDbLine
 10
147.1107703445255
 20
230.3548666186202
 30
0.0
 11
146.2447449407411
 21
230.8548666186203
 31
0.0
  0
LINE
  5
8CC
330
8BE
100
AcDbEntity
  8
Značka (ISO)
100
AcDbLine
 10
146.6777576426334
 20
230.6048666186202
 30
0.0
 11
151.8585231248085
 21
239.5782156558425
 31
0.0
  0
MTEXT
  5
8CD
330
8BE
100
AcDbEntity
  8
Značka (ISO)
100
AcDbMText
 10
159.7335227671806
 20
246.3066391683832
 30
0.0
 40
5.24999976158142
 41
0.0
 71
     5
 72
     1
  1
5
  7
Text popisu (ISO)
 73
     1
 44
1.0
  0
LINE
  5
8CE
330
8BE
100
AcDbEntity
  8
Značka (ISO)
100
AcDbLine
 10
151.8585231248085
 20
239.5782156558425
 30
0.0
 11
167.6085224095528
 21
239.5782156558425
 31
0.0
  0
ENDBLK
  5
8C0
330
8BE
100
AcDbEntity
  8
0
100
AcDbBlockEnd
  0
BLOCK
  5
8D1
330
8D0
100
AcDbEntity
  8
0
100
AcDbBlockBegin
  2
Pozice3
 70
     0
 10
0.0
 20
0.0
 30
0.0
  3
Pozice3
  1

  0
LINE
  5
8D3
330
8D0
100
AcDbEntity
  8
Značka (ISO)
100
AcDbLine
 10
145.913993104042
 20
264.3066704277396
 30
0.0
 11
143.9598066806153
 21
262.747454143033
 31
0.0
  0
POLYLINE
  5
8D4
330
8D0
100
AcDbEntity
  8
Značka (ISO)
100
AcDb2dPolyline
 66
     1
 10
0.0
 20
0.0
 30
0.0
 70
   128
  0
VERTEX
  5
8D5
330
8D4
100
AcDbEntity
  8
Značka (ISO)
100
AcDbVertex
100
AcDb2dVertex
 10
145.6021499633789
 20
264.6975135803223
 30
0.0
  0
VERTEX
  5
8D6
330
8D4
100
AcDbEntity
  8
Značka (ISO)
100
AcDbVertex
100
AcDb2dVertex
 10
143.9598083496093
 20
262.7474594116211
 30
0.0
  0
VERTEX
  5
8D8
330
8D4
100
AcDbEntity
  8
Značka (ISO)
100
AcDbVertex
100
AcDb2dVertex
 10
146.2258338928221
 20
263.9158248901367
 30
0.0
  0
VERTEX
  5
8D9
330
8D4
100
AcDbEntity
  8
Značka (ISO)
100
AcDbVertex
100
AcDb2dVertex
 10
145.6021499633789
 20
264.6975135803223
 30
0.0
  0
SEQEND
  5
8D7
330
8D4
100
AcDbEntity
  8
Značka (ISO)
  0
SOLID
  5
8DA
330
8D0
100
AcDbEntity
  8
Značka (ISO)
100
AcDbTrace
 10
145.6021499633789
 20
264.6975135803223
 30
0.0
 11
143.9598083496093
 21
262.7474594116211
 31
0.0
 12
146.2258338928221
 22
263.9158248901367
 32
0.0
 13
145.6021499633789
 23
264.6975135803223
 33
0.0
  0
LINE
  5
8DB
330
8D0
100
AcDbEntity
  8
Značka (ISO)
100
AcDbLine
 10
145.6021498471008
 20
264.6975077124249
 30
0.0
 11
143.9598066806153
 21
262.747454143033
 31
0.0
  0
LINE
  5
8DC
330
8D0
100
AcDbEntity
  8
Značka (ISO)
100
AcDbLine
 10
143.9598066806153
 20
262.747454143033
 30
0.0
 11
146.2258363609834
 21
263.9158331430542
 31
0.0
  0
LINE
  5
8DD
330
8D0
100
AcDbEntity
  8
Značka (ISO)
100
AcDbLine
 10
146.2258363609834
 20
263.9158331430542
 30
0.0
 11
145.6021498471008
 21
264.6975077124249
 31
0.0
  0
LINE
  5
8DE
330
8D0
100
AcDbEntity
  8
Značka (ISO)
100
AcDbLine
 10
145.913993104042
 20
264.3066704277396
 30
0.0
 11
151.7505948040545
 21
268.9636081225817
 31
0.0
  0
MTEXT
  5
8DF
330
8D0
100
AcDbEntity
  8
Značka (ISO)
100
AcDbMText
 10
159.6255944464267
 20
275.5261078245585
 30
0.0
 40
5.24999976158142
 41
0.0
 71
     5
 72
     1
  1
4
  7
Text popisu (ISO)
 73
     1
 44
1.0
  0
LINE
  5
8E0
330
8D0
100
AcDbEntity
  8
Značka (ISO)
100
AcDbLine
 10
151.7505948040545
 20
268.9636081225817
 30
0.0
 11
167.5005940887988
 21
268.9636081225817
 31
0.0
  0
MTEXT
  5
8E1
330
8D0
100
AcDbEntity
  8
Značka (ISO)
100
AcDbMText
 10
175.3755937311709
 20
275.747339381056
 30
0.0
 40
5.24999976158142
 41
0.0
 71
     5
 72
     1
  1
3
  7
Text popisu (ISO)
 73
     1
 44
1.0
  0
LINE
  5
8E2
330
8D0
100
AcDbEntity
  8
Značka (ISO)
100
AcDbLine
 10
167.5005940887988
 20
268.9636081225817
 30
0.0
 11
169.0755940172732
 21
267.3886081941073
 31
0.0
  0
LINE
  5
8E3
330
8D0
100
AcDbEntity
  8
Značka (ISO)
100
AcDbLine
 10
169.0755940172732
 20
267.3886081941073
 30
0.0
 11
170.6505939457477
 21
268.9636081225817
 31
0.0
  0
LINE
  5
8E4
330
8D0
100
AcDbEntity
  8
Značka (ISO)
100
AcDbLine
 10
170.6505939457477
 20
268.9636081225817
 30
0.0
 11
183.2505933735431
 21
268.9636081225817
 31
0.0
  0
ENDBLK
  5
8D2
330
8D0
100
AcDbEntity
  8
0
100
AcDbBlockEnd
  0
BLOCK
  5
8E7
330
8E6
100
AcDbEntity
  8
0
100
AcDbBlockBegin
  2
Pozice4
 70
     0
 10
0.0
 20
0.0
 30
0.0
  3
Pozice4
  1

  0
LINE
  5
8E9
330
8E6
100
AcDbEntity
  8
Značka (ISO)
100
AcDbLine
 10
306.22484034265
 20
242.5485302959949
 30
0.0
 11
307.9926072956167
 21
244.316297248961
 31
0.0
  0
POLYLINE
  5
8EA
330
8E6
100
AcDbEntity
  8
Značka (ISO)
100
AcDb2dPolyline
 66
     1
 10
0.0
 20
0.0
 30
0.0
 70
   128
  0
VERTEX
  5
8EB
330
8EA
100
AcDbEntity
  8
Značka (ISO)
100
AcDbVertex
100
AcDb2dVertex
 10
306.5783882141113
 20
242.1949768066406
 30
0.0
  0
VERTEX
  5
8EC
330
8EA
100
AcDbEntity
  8
Značka (ISO)
100
AcDbVertex
100
AcDb2dVertex
 10
307.9926109313965
 20
244.316291809082
 30
0.0
  0
VERTEX
  5
8EE
330
8EA
100
AcDbEntity
  8
Značka (ISO)
100
AcDbVertex
100
AcDb2dVertex
 10
305.8712959289551
 20
242.9020881652832
 30
0.0
  0
VERTEX
  5
8EF
330
8EA
100
AcDbEntity
  8
Značka (ISO)
100
AcDbVertex
100
AcDb2dVertex
 10
306.5783882141113
 20
242.1949768066406
 30
0.0
  0
SEQEND
  5
8ED
330
8EA
100
AcDbEntity
  8
Značka (ISO)
  0
SOLID
  5
8F0
330
8E6
100
AcDbEntity
  8
Značka (ISO)
100
AcDbTrace
 10
306.5783882141113
 20
242.1949768066406
 30
0.0
 11
307.9926109313965
 21
244.316291809082
 31
0.0
 12
305.8712959289551
 22
242.9020881652832
 32
0.0
 13
306.5783882141113
 23
242.1949768066406
 33
0.0
  0
LINE
  5
8F1
330
8E6
100
AcDbEntity
  8
Značka (ISO)
100
AcDbLine
 10
306.5783937332433
 20
242.1949769054016
 30
0.0
 11
307.9926072956167
 21
244.316297248961
 31
0.0
  0
LINE
  5
8F2
330
8E6
100
AcDbEntity
  8
Značka (ISO)
100
AcDbLine
 10
307.9926072956167
 20
244.316297248961
 30
0.0
 11
305.8712869520568
 21
242.9020836865882
 31
0.0
  0
LINE
  5
8F3
330
8E6
100
AcDbEntity
  8
Značka (ISO)
100
AcDbLine
 10
305.8712869520568
 20
242.9020836865882
 30
0.0
 11
306.5783937332433
 21
242.1949769054016
 31
0.0
  0
LINE
  5
8F4
330
8E6
100
AcDbEntity
  8
Značka (ISO)
100
AcDbLine
 10
306.22484034265
 20
242.5485302959949
 30
0.0
 11
289.2434071850831
 21
225.5670971384329
 31
0.0
  0
MTEXT
  5
8F5
330
8E6
100
AcDbEntity
  8
Značka (ISO)
100
AcDbMText
 10
281.368407542711
 20
232.1849045863432
 30
0.0
 40
5.24999976158142
 41
0.0
 71
     5
 72
     1
  1
2
  7
Text popisu (ISO)
 73
     1
 44
1.0
  0
LINE
  5
8F6
330
8E6
100
AcDbEntity
  8
Značka (ISO)
100
AcDbLine
 10
289.2434071850831
 20
225.5670971384329
 30
0.0
 11
273.4934079003389
 21
225.5670971384329
 31
0.0
  0
ENDBLK
  5
8E8
330
8E6
100
AcDbEntity
  8
0
100
AcDbBlockEnd
  0
BLOCK
  5
9CC
330
9CA
100
AcDbEntity
  8
0
100
AcDbBlockBegin
  2
GENAXEH
 70
     0
 10
0.0
 20
0.0
 30
0.0
  3
GENAXEH
  1

  0
LINE
  5
9CB
330
9CA
100
AcDbEntity
  8
0
100
AcDbLine
 10
-1.0
 20
0.0
 30
0.0
 11
1.0
 21
0.0
 31
0.0
  0
ENDBLK
  5
9CD
330
9CA
100
AcDbEntity
  8
0
100
AcDbBlockEnd
  0
BLOCK
  5
9E5
330
9E4
100
AcDbEntity
  8
0
100
AcDbBlockBegin
  2
*D36
 70
     1
 10
0.0
 20
0.0
 30
0.0
  3
*D36
  1

  0
LINE
  5
9E6
330
9E4
100
AcDbEntity
  8
5
370
    -2
100
AcDbLine
 10
190.7484010263487
 20
425.3547425829133
 30
0.0
 11
190.7484010263487
 21
393.2637493238215
 31
0.0
  0
LINE
  5
9E7
330
9E4
100
AcDbEntity
  8
5
370
    -2
100
AcDbLine
 10
300.7484010263488
 20
425.3547425829133
 30
0.0
 11
300.7484010263488
 21
393.2637493238215
 31
0.0
  0
LINE
  5
9E8
330
9E4
100
AcDbEntity
  8
5
370
    -2
100
AcDbLine
 10
195.7484010263487
 20
395.2637493238214
 30
0.0
 11
295.7484010263488
 21
395.2637493238214
 31
0.0
  0
SOLID
  5
9E9
330
9E4
100
AcDbEntity
  8
5
100
AcDbTrace
 10
195.7484010263487
 20
396.0970826571548
 30
0.0
 11
195.7484010263487
 21
394.4304159904882
 31
0.0
 12
190.7484010263487
 22
395.2637493238214
 32
0.0
 13
190.7484010263487
 23
395.2637493238214
 33
0.0
  0
SOLID
  5
9EA
330
9E4
100
AcDbEntity
  8
5
100
AcDbTrace
 10
295.7484010263488
 20
396.0970826571548
 30
0.0
 11
295.7484010263488
 21
394.4304159904882
 31
0.0
 12
300.7484010263488
 22
395.2637493238214
 32
0.0
 13
300.7484010263488
 23
395.2637493238214
 33
0.0
  0
MTEXT
  5
9EB
330
9E4
100
AcDbEntity
  8
5
 62
     7
100
AcDbMText
 10
245.7484010263488
 20
404.4415867986367
 30
0.0
 40
14.0
 41
0.0
 71
     5
 72
     1
  1
%%c110
 73
     1
 44
1.0
  0
POINT
  5
9EC
330
9E4
100
AcDbEntity
  8
Defpoints
 62
     0
100
AcDbPoint
 10
190.7484010263487
 20
427.3547425829132
 30
0.0
  0
POINT
  5
9ED
330
9E4
100
AcDbEntity
  8
Defpoints
 62
     0
100
AcDbPoint
 10
300.7484010263488
 20
427.3547425829132
 30
0.0
  0
POINT
  5
9EE
330
9E4
100
AcDbEntity
  8
Defpoints
 62
     0
100
AcDbPoint
 10
300.7484010263488
 20
395.2637493238214
 30
0.0
  0
ENDBLK
  5
9EF
330
9E4
100
AcDbEntity
  8
0
100
AcDbBlockEnd
  0
BLOCK
  5
9F1
330
9F0
100
AcDbEntity
  8
0
100
AcDbBlockBegin
  2
*D37
 70
     1
 10
0.0
 20
0.0
 30
0.0
  3
*D37
  1

  0
LINE
  5
9F2
330
9F0
100
AcDbEntity
  8
5
370
    -2
100
AcDbLine
 10
174.4984010263487
 20
534.8927538798103
 30
0.0
 11
174.4984010263487
 21
367.1011858907307
 31
0.0
  0
LINE
  5
9F3
330
9F0
100
AcDbEntity
  8
5
370
    -2
100
AcDbLine
 10
316.9984010263488
 20
534.8927538798103
 30
0.0
 11
316.9984010263488
 21
367.1011858907307
 31
0.0
  0
LINE
  5
9F4
330
9F0
100
AcDbEntity
  8
5
370
    -2
100
AcDbLine
 10
179.4984010263487
 20
369.1011858907307
 30
0.0
 11
311.9984010263488
 21
369.1011858907307
 31
0.0
  0
SOLID
  5
9F5
330
9F0
100
AcDbEntity
  8
5
100
AcDbTrace
 10
179.4984010263487
 20
369.934519224064
 30
0.0
 11
179.4984010263487
 21
368.2678525573974
 31
0.0
 12
174.4984010263487
 22
369.1011858907307
 32
0.0
 13
174.4984010263487
 23
369.1011858907307
 33
0.0
  0
SOLID
  5
9F6
330
9F0
100
AcDbEntity
  8
5
100
AcDbTrace
 10
311.9984010263488
 20
369.934519224064
 30
0.0
 11
311.9984010263488
 21
368.2678525573974
 31
0.0
 12
316.9984010263488
 22
369.1011858907307
 32
0.0
 13
316.9984010263488
 23
369.1011858907307
 33
0.0
  0
MTEXT
  5
9F7
330
9F0
100
AcDbEntity
  8
5
 62
     7
100
AcDbMText
 10
245.7484010263487
 20
378.2790233655461
 30
0.0
 40
14.0
 41
0.0
 71
     5
 72
     1
  1
%%c142
 73
     1
 44
1.0
  0
POINT
  5
9F8
330
9F0
100
AcDbEntity
  8
Defpoints
 62
     0
100
AcDbPoint
 10
174.4984010263487
 20
536.8927538798105
 30
0.0
  0
POINT
  5
9F9
330
9F0
100
AcDbEntity
  8
Defpoints
 62
     0
100
AcDbPoint
 10
316.9984010263488
 20
536.8927538798105
 30
0.0
  0
POINT
  5
9FA
330
9F0
100
AcDbEntity
  8
Defpoints
 62
     0
100
AcDbPoint
 10
316.9984010263488
 20
369.1011858907307
 30
0.0
  0
ENDBLK
  5
9FB
330
9F0
100
AcDbEntity
  8
0
100
AcDbBlockEnd
  0
BLOCK
  5
9FD
330
9FC
100
AcDbEntity
  8
0
100
AcDbBlockBegin
  2
*D38
 70
     1
 10
0.0
 20
0.0
 30
0.0
  3
*D38
  1

  0
LINE
  5
9FE
330
9FC
100
AcDbEntity
  8
5
370
    -2
100
AcDbLine
 10
300.7484010263488
 20
419.3640309774258
 30
0.0
 11
454.5962410466291
 21
419.3640309774258
 31
0.0
  0
LINE
  5
9FF
330
9FC
100
AcDbEntity
  8
5
370
    -2
100
AcDbLine
 10
419.8484010263488
 20
627.5748651616436
 30
0.0
 11
454.5962410466291
 21
627.5748651616436
 31
0.0
  0
LINE
  5
A00
330
9FC
100
AcDbEntity
  8
5
370
    -2
100
AcDbLine
 10
452.596241046629
 20
424.364030977426
 30
0.0
 11
452.596241046629
 21
622.5748651616436
 31
0.0
  0
SOLID
  5
A01
330
9FC
100
AcDbEntity
  8
5
100
AcDbTrace
 10
451.7629077132958
 20
424.364030977426
 30
0.0
 11
453.4295743799623
 21
424.364030977426
 31
0.0
 12
452.596241046629
 22
419.3640309774258
 32
0.0
 13
452.596241046629
 23
419.3640309774258
 33
0.0
  0
SOLID
  5
A02
330
9FC
100
AcDbEntity
  8
5
100
AcDbTrace
 10
451.7629077132958
 20
622.5748651616436
 30
0.0
 11
453.4295743799623
 21
622.5748651616436
 31
0.0
 12
452.596241046629
 22
627.5748651616436
 32
0.0
 13
452.596241046629
 23
627.5748651616436
 33
0.0
  0
MTEXT
  5
A03
330
9FC
100
AcDbEntity
  8
5
 62
     7
100
AcDbMText
 10
444.0765634106317
 20
523.469448069535
 30
0.0
 40
14.0
 41
0.0
 71
     5
 72
     1
  1
208
 11
0.0000000000000001
 21
1.0
 31
0.0
 73
     1
 44
1.0
  0
POINT
  5
A04
330
9FC
100
AcDbEntity
  8
Defpoints
 62
     0
100
AcDbPoint
 10
298.7484010263488
 20
419.3640309774258
 30
0.0
  0
POINT
  5
A05
330
9FC
100
AcDbEntity
  8
Defpoints
 62
     0
100
AcDbPoint
 10
417.8484010263487
 20
627.5748651616436
 30
0.0
  0
POINT
  5
A06
330
9FC
100
AcDbEntity
  8
Defpoints
 62
     0
100
AcDbPoint
 10
452.596241046629
 20
627.5748651616436
 30
0.0
  0
ENDBLK
  5
A07
330
9FC
100
AcDbEntity
  8
0
100
AcDbBlockEnd
  0
BLOCK
  5
A09
330
A08
100
AcDbEntity
  8
0
100
AcDbBlockBegin
  2
*D39
 70
     1
 10
0.0
 20
0.0
 30
0.0
  3
*D39
  1

  0
LINE
  5
A0A
330
A08
100
AcDbEntity
  8
5
370
    -2
100
AcDbLine
 10
419.8484010263488
 20
627.5748651616436
 30
0.0
 11
431.8484010263488
 21
627.5748651616436
 31
0.0
  0
LINE
  5
A0B
330
A08
100
AcDbEntity
  8
5
370
    -2
100
AcDbLine
 10
304.2307629361435
 20
521.4258723597404
 30
0.0
 11
431.8484010263488
 21
521.4258723597404
 31
0.0
  0
LINE
  5
A0C
330
A08
100
AcDbEntity
  8
5
370
    -2
100
AcDbLine
 10
429.8484010263488
 20
622.5748651616436
 30
0.0
 11
429.8484010263488
 21
526.4258723597404
 31
0.0
  0
SOLID
  5
A0D
330
A08
100
AcDbEntity
  8
5
100
AcDbTrace
 10
429.0150676930155
 20
622.5748651616436
 30
0.0
 11
430.6817343596821
 21
622.5748651616436
 31
0.0
 12
429.8484010263488
 22
627.5748651616436
 32
0.0
 13
429.8484010263488
 23
627.5748651616436
 33
0.0
  0
SOLID
  5
A0E
330
A08
100
AcDbEntity
  8
5
100
AcDbTrace
 10
429.0150676930155
 20
526.4258723597404
 30
0.0
 11
430.6817343596821
 21
526.4258723597404
 31
0.0
 12
429.8484010263488
 22
521.4258723597404
 32
0.0
 13
429.8484010263488
 23
521.4258723597404
 33
0.0
  0
MTEXT
  5
A0F
330
A08
100
AcDbEntity
  8
5
 62
     7
100
AcDbMText
 10
421.3616313822923
 20
574.5003687606921
 30
0.0
 40
14.0
 41
0.0
 71
     5
 72
     1
  1
106
 11
0.0000000000000001
 21
1.0
 31
0.0
 73
     1
 44
1.0
  0
POINT
  5
A10
330
A08
100
AcDbEntity
  8
Defpoints
 62
     0
100
AcDbPoint
 10
417.8484010263487
 20
627.5748651616436
 30
0.0
  0
POINT
  5
A11
330
A08
100
AcDbEntity
  8
Defpoints
 62
     0
100
AcDbPoint
 10
302.2307629361435
 20
521.4258723597404
 30
0.0
  0
POINT
  5
A12
330
A08
100
AcDbEntity
  8
Defpoints
 62
     0
100
AcDbPoint
 10
429.8484010263488
 20
521.4258723597404
 30
0.0
  0
ENDBLK
  5
A13
330
A08
100
AcDbEntity
  8
0
100
AcDbBlockEnd
  0
BLOCK
  5
A15
330
A14
100
AcDbEntity
  8
0
100
AcDbBlockBegin
  2
*D40
 70
     1
 10
0.0
 20
0.0
 30
0.0
  3
*D40
  1

  0
LINE
  5
A16
330
A14
100
AcDbEntity
  8
5
370
    -2
100
AcDbLine
 10
417.8484010263487
 20
629.5748651616436
 30
0.0
 11
417.8484010263487
 21
660.128099113148
 31
0.0
  0
LINE
  5
A17
330
A14
100
AcDbEntity
  8
5
370
    -2
100
AcDbLine
 10
73.64840102634873
 20
629.5748651616436
 30
0.0
 11
73.64840102634873
 21
660.128099113148
 31
0.0
  0
LINE
  5
A18
330
A14
100
AcDbEntity
  8
5
370
    -2
100
AcDbLine
 10
412.8484010263488
 20
658.1280991131477
 30
0.0
 11
78.64840102634873
 21
658.1280991131477
 31
0.0
  0
SOLID
  5
A19
330
A14
100
AcDbEntity
  8
5
100
AcDbTrace
 10
412.8484010263488
 20
658.9614324464812
 30
0.0
 11
412.8484010263488
 21
657.2947657798144
 31
0.0
 12
417.8484010263487
 22
658.1280991131477
 32
0.0
 13
417.8484010263487
 23
658.1280991131477
 33
0.0
  0
SOLID
  5
A1A
330
A14
100
AcDbEntity
  8
5
100
AcDbTrace
 10
78.64840102634873
 20
658.9614324464812
 30
0.0
 11
78.64840102634873
 21
657.2947657798144
 31
0.0
 12
73.64840102634873
 22
658.1280991131477
 32
0.0
 13
73.64840102634873
 23
658.1280991131477
 33
0.0
  0
MTEXT
  5
A1B
330
A14
100
AcDbEntity
  8
5
 62
     7
100
AcDbMText
 10
245.7484010263488
 20
667.3059365879632
 30
0.0
 40
14.0
 41
0.0
 71
     5
 72
     1
  1
%%c344
 73
     1
 44
1.0
  0
POINT
  5
A1C
330
A14
100
AcDbEntity
  8
Defpoints
 62
     0
100
AcDbPoint
 10
417.8484010263487
 20
627.5748651616436
 30
0.0
  0
POINT
  5
A1D
330
A14
100
AcDbEntity
  8
Defpoints
 62
     0
100
AcDbPoint
 10
73.64840102634873
 20
627.5748651616436
 30
0.0
  0
POINT
  5
A1E
330
A14
100
AcDbEntity
  8
Defpoints
 62
     0
100
AcDbPoint
 10
73.64840102634873
 20
658.1280991131477
 30
0.0
  0
ENDBLK
  5
A1F
330
A14
100
AcDbEntity
  8
0
100
AcDbBlockEnd
  0
BLOCK
  5
D66
330
D65
100
AcDbEntity
  8
0
100
AcDbBlockBegin
  2
*D41
 70
     1
 10
0.0
 20
0.0
 30
0.0
  3
*D41
  1

  0
LINE
  5
DCE
330
D65
100
AcDbEntity
  8
5
370
    -2
100
AcDbLine
 10
488.8881704594546
 20
216.4925083185363
 30
0.0
 11
488.8881704594546
 21
184.4015150594444
 31
0.0
  0
LINE
  5
DCF
330
D65
100
AcDbEntity
  8
5
370
    -2
100
AcDbLine
 10
598.8881704594547
 20
216.4925083185363
 30
0.0
 11
598.8881704594547
 21
184.4015150594444
 31
0.0
  0
LINE
  5
DD0
330
D65
100
AcDbEntity
  8
5
370
    -2
100
AcDbLine
 10
493.8881704594546
 20
186.4015150594444
 30
0.0
 11
593.8881704594547
 21
186.4015150594444
 31
0.0
  0
SOLID
  5
DD1
330
D65
100
AcDbEntity
  8
5
100
AcDbTrace
 10
493.8881704594546
 20
187.2348483927778
 30
0.0
 11
493.8881704594546
 21
185.5681817261111
 31
0.0
 12
488.8881704594546
 22
186.4015150594444
 32
0.0
 13
488.8881704594546
 23
186.4015150594444
 33
0.0
  0
SOLID
  5
DD2
330
D65
100
AcDbEntity
  8
5
100
AcDbTrace
 10
593.8881704594547
 20
187.2348483927778
 30
0.0
 11
593.8881704594547
 21
185.5681817261111
 31
0.0
 12
598.8881704594547
 22
186.4015150594444
 32
0.0
 13
598.8881704594547
 23
186.4015150594444
 33
0.0
  0
MTEXT
  5
DD3
330
D65
100
AcDbEntity
  8
5
 62
     7
100
AcDbMText
 10
543.8881704594548
 20
195.5793525342596
 30
0.0
 40
14.0
 41
0.0
 71
     5
 72
     1
  1
%%c110
 73
     1
 44
1.0
  0
POINT
  5
DD4
330
D65
100
AcDbEntity
  8
Defpoints
 62
     0
100
AcDbPoint
 10
488.8881704594546
 20
218.4925083185363
 30
0.0
  0
POINT
  5
DD5
330
D65
100
AcDbEntity
  8
Defpoints
 62
     0
100
AcDbPoint
 10
598.8881704594547
 20
218.4925083185363
 30
0.0
  0
POINT
  5
DD6
330
D65
100
AcDbEntity
  8
Defpoints
 62
     0
100
AcDbPoint
 10
598.8881704594547
 20
186.4015150594444
 30
0.0
  0
ENDBLK
  5
D67
330
D65
100
AcDbEntity
  8
0
100
AcDbBlockEnd
  0
BLOCK
  5
D72
330
D71
100
AcDbEntity
  8
0
100
AcDbBlockBegin
  2
*D42
 70
     1
 10
0.0
 20
0.0
 30
0.0
  3
*D42
  1

  0
LINE
  5
DD7
330
D71
100
AcDbEntity
  8
5
370
    -2
100
AcDbLine
 10
472.6381704594547
 20
326.0305196154335
 30
0.0
 11
472.6381704594547
 21
158.2389516263537
 31
0.0
  0
LINE
  5
DD8
330
D71
100
AcDbEntity
  8
5
370
    -2
100
AcDbLine
 10
615.1381704594547
 20
326.0305196154335
 30
0.0
 11
615.1381704594547
 21
158.2389516263537
 31
0.0
  0
LINE
  5
DD9
330
D71
100
AcDbEntity
  8
5
370
    -2
100
AcDbLine
 10
477.6381704594546
 20
160.2389516263537
 30
0.0
 11
610.1381704594547
 21
160.2389516263537
 31
0.0
  0
SOLID
  5
DDA
330
D71
100
AcDbEntity
  8
5
100
AcDbTrace
 10
477.6381704594546
 20
161.072284959687
 30
0.0
 11
477.6381704594546
 21
159.4056182930203
 31
0.0
 12
472.6381704594547
 22
160.2389516263537
 32
0.0
 13
472.6381704594547
 23
160.2389516263537
 33
0.0
  0
SOLID
  5
DDB
330
D71
100
AcDbEntity
  8
5
100
AcDbTrace
 10
610.1381704594547
 20
161.072284959687
 30
0.0
 11
610.1381704594547
 21
159.4056182930203
 31
0.0
 12
615.1381704594547
 22
160.2389516263537
 32
0.0
 13
615.1381704594547
 23
160.2389516263537
 33
0.0
  0
MTEXT
  5
DDC
330
D71
100
AcDbEntity
  8
5
 62
     7
100
AcDbMText
 10
543.8881704594546
 20
169.416789101169
 30
0.0
 40
14.0
 41
0.0
 71
     5
 72
     1
  1
%%c142
 73
     1
 44
1.0
  0
POINT
  5
DDD
330
D71
100
AcDbEntity
  8
Defpoints
 62
     0
100
AcDbPoint
 10
472.6381704594547
 20
328.0305196154335
 30
0.0
  0
POINT
  5
DDE
330
D71
100
AcDbEntity
  8
Defpoints
 62
     0
100
AcDbPoint
 10
615.1381704594547
 20
328.0305196154335
 30
0.0
  0
POINT
  5
DDF
330
D71
100
AcDbEntity
  8
Defpoints
 62
     0
100
AcDbPoint
 10
615.1381704594547
 20
160.2389516263537
 30
0.0
  0
ENDBLK
  5
D73
330
D71
100
AcDbEntity
  8
0
100
AcDbBlockEnd
  0
BLOCK
  5
D7E
330
D7D
100
AcDbEntity
  8
0
100
AcDbBlockBegin
  2
*D43
 70
     1
 10
0.0
 20
0.0
 30
0.0
  3
*D43
  1

  0
LINE
  5
DE0
330
D7D
100
AcDbEntity
  8
5
370
    -2
100
AcDbLine
 10
598.8881704594547
 20
210.501796713049
 30
0.0
 11
752.7360104797351
 21
210.501796713049
 31
0.0
  0
LINE
  5
DE1
330
D7D
100
AcDbEntity
  8
5
370
    -2
100
AcDbLine
 10
717.9881704594547
 20
418.7126308972666
 30
0.0
 11
752.7360104797352
 21
418.7126308972666
 31
0.0
  0
LINE
  5
DE2
330
D7D
100
AcDbEntity
  8
5
370
    -2
100
AcDbLine
 10
750.7360104797351
 20
215.501796713049
 30
0.0
 11
750.7360104797352
 21
413.7126308972666
 31
0.0
  0
SOLID
  5
DE3
330
D7D
100
AcDbEntity
  8
5
100
AcDbTrace
 10
749.9026771464018
 20
215.501796713049
 30
0.0
 11
751.5693438130687
 21
215.501796713049
 31
0.0
 12
750.7360104797351
 22
210.501796713049
 32
0.0
 13
750.7360104797351
 23
210.501796713049
 33
0.0
  0
SOLID
  5
DE4
330
D7D
100
AcDbEntity
  8
5
100
AcDbTrace
 10
749.9026771464018
 20
413.7126308972666
 30
0.0
 11
751.5693438130687
 21
413.7126308972666
 31
0.0
 12
750.7360104797352
 22
418.7126308972666
 32
0.0
 13
750.7360104797352
 23
418.7126308972666
 33
0.0
  0
MTEXT
  5
DE5
330
D7D
100
AcDbEntity
  8
5
 62
     7
100
AcDbMText
 10
742.2163328437378
 20
314.6072138051581
 30
0.0
 40
14.0
 41
0.0
 71
     5
 72
     1
  1
208
 11
0.0000000000000001
 21
1.0
 31
0.0
 73
     1
 44
1.0
  0
POINT
  5
DE6
330
D7D
100
AcDbEntity
  8
Defpoints
 62
     0
100
AcDbPoint
 10
596.8881704594547
 20
210.501796713049
 30
0.0
  0
POINT
  5
DE7
330
D7D
100
AcDbEntity
  8
Defpoints
 62
     0
100
AcDbPoint
 10
715.9881704594547
 20
418.7126308972666
 30
0.0
  0
POINT
  5
DE8
330
D7D
100
AcDbEntity
  8
Defpoints
 62
     0
100
AcDbPoint
 10
750.7360104797352
 20
418.7126308972666
 30
0.0
  0
ENDBLK
  5
D7F
330
D7D
100
AcDbEntity
  8
0
100
AcDbBlockEnd
  0
BLOCK
  5
D8A
330
D89
100
AcDbEntity
  8
0
100
AcDbBlockBegin
  2
*D44
 70
     1
 10
0.0
 20
0.0
 30
0.0
  3
*D44
  1

  0
LINE
  5
DE9
330
D89
100
AcDbEntity
  8
5
370
    -2
100
AcDbLine
 10
717.9881704594547
 20
418.7126308972666
 30
0.0
 11
729.9881704594547
 21
418.7126308972666
 31
0.0
  0
LINE
  5
DEA
330
D89
100
AcDbEntity
  8
5
370
    -2
100
AcDbLine
 10
602.3705323692495
 20
312.5636380953634
 30
0.0
 11
729.9881704594547
 21
312.5636380953634
 31
0.0
  0
LINE
  5
DEB
330
D89
100
AcDbEntity
  8
5
370
    -2
100
AcDbLine
 10
727.988170459455
 20
413.7126308972666
 30
0.0
 11
727.988170459455
 21
317.5636380953634
 31
0.0
  0
SOLID
  5
DEC
330
D89
100
AcDbEntity
  8
5
100
AcDbTrace
 10
727.1548371261218
 20
413.7126308972666
 30
0.0
 11
728.8215037927884
 21
413.7126308972666
 31
0.0
 12
727.988170459455
 22
418.7126308972666
 32
0.0
 13
727.988170459455
 23
418.7126308972666
 33
0.0
  0
SOLID
  5
DED
330
D89
100
AcDbEntity
  8
5
100
AcDbTrace
 10
727.1548371261218
 20
317.5636380953634
 30
0.0
 11
728.8215037927884
 21
317.5636380953634
 31
0.0
 12
727.988170459455
 22
312.5636380953634
 32
0.0
 13
727.988170459455
 23
312.5636380953634
 33
0.0
  0
MTEXT
  5
DEE
330
D89
100
AcDbEntity
  8
5
 62
     7
100
AcDbMText
 10
719.5014008153982
 20
365.6381344963151
 30
0.0
 40
14.0
 41
0.0
 71
     5
 72
     1
  1
106
 11
0.0000000000000001
 21
1.0
 31
0.0
 73
     1
 44
1.0
  0
POINT
  5
DEF
330
D89
100
AcDbEntity
  8
Defpoints
 62
     0
100
AcDbPoint
 10
715.9881704594547
 20
418.7126308972666
 30
0.0
  0
POINT
  5
DF0
330
D89
100
AcDbEntity
  8
Defpoints
 62
     0
100
AcDbPoint
 10
600.3705323692495
 20
312.5636380953634
 30
0.0
  0
POINT
  5
DF1
330
D89
100
AcDbEntity
  8
Defpoints
 62
     0
100
AcDbPoint
 10
727.988170459455
 20
312.5636380953634
 30
0.0
  0
ENDBLK
  5
D8B
330
D89
100
AcDbEntity
  8
0
100
AcDbBlockEnd
  0
BLOCK
  5
D96
330
D95
100
AcDbEntity
  8
0
100
AcDbBlockBegin
  2
*D45
 70
     1
 10
0.0
 20
0.0
 30
0.0
  3
*D45
  1

  0
LINE
  5
DF2
330
D95
100
AcDbEntity
  8
5
370
    -2
100
AcDbLine
 10
715.9881704594547
 20
420.7126308972664
 30
0.0
 11
715.9881704594547
 21
451.2658648487708
 31
0.0
  0
LINE
  5
DF3
330
D95
100
AcDbEntity
  8
5
370
    -2
100
AcDbLine
 10
371.7881704594548
 20
420.7126308972664
 30
0.0
 11
371.7881704594548
 21
451.2658648487708
 31
0.0
  0
LINE
  5
DF4
330
D95
100
AcDbEntity
  8
5
370
    -2
100
AcDbLine
 10
710.9881704594547
 20
449.2658648487709
 30
0.0
 11
376.7881704594548
 21
449.2658648487709
 31
0.0
  0
SOLID
  5
DF5
330
D95
100
AcDbEntity
  8
5
100
AcDbTrace
 10
710.9881704594547
 20
450.0991981821042
 30
0.0
 11
710.9881704594547
 21
448.4325315154373
 31
0.0
 12
715.9881704594547
 22
449.2658648487709
 32
0.0
 13
715.9881704594547
 23
449.2658648487709
 33
0.0
  0
SOLID
  5
DF6
330
D95
100
AcDbEntity
  8
5
100
AcDbTrace
 10
376.7881704594548
 20
450.0991981821042
 30
0.0
 11
376.7881704594548
 21
448.4325315154373
 31
0.0
 12
371.7881704594548
 22
449.2658648487709
 32
0.0
 13
371.7881704594548
 23
449.2658648487709
 33
0.0
  0
MTEXT
  5
DF7
330
D95
100
AcDbEntity
  8
5
 62
     7
100
AcDbMText
 10
543.8881704594548
 20
458.4437023235862
 30
0.0
 40
14.0
 41
0.0
 71
     5
 72
     1
  1
%%c344
 73
     1
 44
1.0
  0
POINT
  5
DF8
330
D95
100
AcDbEntity
  8
Defpoints
 62
     0
100
AcDbPoint
 10
715.9881704594547
 20
418.7126308972666
 30
0.0
  0
POINT
  5
DF9
330
D95
100
AcDbEntity
  8
Defpoints
 62
     0
100
AcDbPoint
 10
371.7881704594548
 20
418.7126308972666
 30
0.0
  0
POINT
  5
DFA
330
D95
100
AcDbEntity
  8
Defpoints
 62
     0
100
AcDbPoint
 10
371.7881704594548
 20
449.2658648487709
 30
0.0
  0
ENDBLK
  5
D97
330
D95
100
AcDbEntity
  8
0
100
AcDbBlockEnd
  0
BLOCK
  5
E22
330
E21
100
AcDbEntity
  8
0
100
AcDbBlockBegin
  2
*D46
 70
     1
 10
0.0
 20
0.0
 30
0.0
  3
*D46
  1

  0
LINE
  5
1260
330
E21
100
AcDbEntity
  8
5
370
    -2
100
AcDbLine
 10
210.189710020923
 20
384.6645528637292
 30
0.0
 11
210.189710020923
 21
408.2720459194987
 31
0.0
  0
LINE
  5
1261
330
E21
100
AcDbEntity
  8
5
370
    -2
100
AcDbLine
 10
46.18971002092297
 20
384.6645528637291
 30
0.0
 11
46.18971002092297
 21
408.2720459194987
 31
0.0
  0
LINE
  5
1262
330
E21
100
AcDbEntity
  8
5
370
    -2
100
AcDbLine
 10
205.189710020923
 20
406.2720459194987
 30
0.0
 11
51.18971002092297
 21
406.2720459194987
 31
0.0
  0
SOLID
  5
1263
330
E21
100
AcDbEntity
  8
5
100
AcDbTrace
 10
205.189710020923
 20
407.105379252832
 30
0.0
 11
205.189710020923
 21
405.4387125861654
 31
0.0
 12
210.189710020923
 22
406.2720459194987
 32
0.0
 13
210.189710020923
 23
406.2720459194987
 33
0.0
  0
SOLID
  5
1264
330
E21
100
AcDbEntity
  8
5
100
AcDbTrace
 10
51.18971002092297
 20
407.105379252832
 30
0.0
 11
51.18971002092297
 21
405.4387125861654
 31
0.0
 12
46.18971002092297
 22
406.2720459194987
 32
0.0
 13
46.18971002092297
 23
406.2720459194987
 33
0.0
  0
MTEXT
  5
1265
330
E21
100
AcDbEntity
  8
5
 62
     7
100
AcDbMText
 10
128.189710020923
 20
415.449883394314
 30
0.0
 40
14.0
 41
0.0
 71
     5
 72
     1
  1
%%c164
 73
     1
 44
1.0
  0
POINT
  5
1266
330
E21
100
AcDbEntity
  8
Defpoints
 62
     0
100
AcDbPoint
 10
210.189710020923
 20
382.6645528637292
 30
0.0
  0
POINT
  5
1267
330
E21
100
AcDbEntity
  8
Defpoints
 62
     0
100
AcDbPoint
 10
46.18971002092297
 20
382.6645528637291
 30
0.0
  0
POINT
  5
1268
330
E21
100
AcDbEntity
  8
Defpoints
 62
     0
100
AcDbPoint
 10
46.18971002092297
 20
406.2720459194987
 30
0.0
  0
ENDBLK
  5
E23
330
E21
100
AcDbEntity
  8
0
100
AcDbBlockEnd
  0
BLOCK
  5
E4E
330
E4D
100
AcDbEntity
  8
0
100
AcDbBlockBegin
  2
*D47
 70
     1
 10
0.0
 20
0.0
 30
0.0
  3
*D47
  1

  0
LINE
  5
1152
330
E4D
100
AcDbEntity
  8
5
370
    -2
100
AcDbLine
 10
199.439710020923
 20
336.909704663739
 30
0.0
 11
199.439710020923
 21
252.2311734848925
 31
0.0
  0
LINE
  5
1153
330
E4D
100
AcDbEntity
  8
5
370
    -2
100
AcDbLine
 10
56.939710020923
 20
289.9532757847305
 30
0.0
 11
56.939710020923
 21
252.2311734848925
 31
0.0
  0
LINE
  5
1154
330
E4D
100
AcDbEntity
  8
5
370
    -2
100
AcDbLine
 10
194.439710020923
 20
254.2311734848925
 30
0.0
 11
61.939710020923
 21
254.2311734848925
 31
0.0
  0
SOLID
  5
1155
330
E4D
100
AcDbEntity
  8
5
100
AcDbTrace
 10
194.439710020923
 20
255.0645068182259
 30
0.0
 11
194.439710020923
 21
253.3978401515592
 31
0.0
 12
199.439710020923
 22
254.2311734848925
 32
0.0
 13
199.439710020923
 23
254.2311734848925
 33
0.0
  0
SOLID
  5
1156
330
E4D
100
AcDbEntity
  8
5
100
AcDbTrace
 10
61.939710020923
 20
255.0645068182259
 30
0.0
 11
61.939710020923
 21
253.3978401515592
 31
0.0
 12
56.939710020923
 22
254.2311734848925
 32
0.0
 13
56.939710020923
 23
254.2311734848925
 33
0.0
  0
MTEXT
  5
1157
330
E4D
100
AcDbEntity
  8
5
 62
     7
100
AcDbMText
 10
128.189710020923
 20
262.5769088777736
 30
0.0
 40
14.0
 41
0.0
 71
     5
 72
     1
  1
142
 73
     1
 44
1.0
  0
POINT
  5
1158
330
E4D
100
AcDbEntity
  8
Defpoints
 62
     0
100
AcDbPoint
 10
199.439710020923
 20
338.909704663739
 30
0.0
  0
POINT
  5
1159
330
E4D
100
AcDbEntity
  8
Defpoints
 62
     0
100
AcDbPoint
 10
56.939710020923
 20
291.9532757847305
 30
0.0
  0
POINT
  5
115A
330
E4D
100
AcDbEntity
  8
Defpoints
 62
     0
100
AcDbPoint
 10
56.939710020923
 20
254.2311734848925
 30
0.0
  0
ENDBLK
  5
E4F
330
E4D
100
AcDbEntity
  8
0
100
AcDbBlockEnd
  0
BLOCK
  5
E70
330
E6F
100
AcDbEntity
  8
0
100
AcDbBlockBegin
  2
*D48
 70
     1
 10
0.0
 20
0.0
 30
0.0
  3
*D48
  1

  0
LINE
  5
FE0
330
E6F
100
AcDbEntity
  8
5
370
    -2
100
AcDbLine
 10
278.689710020923
 20
266.6647169741374
 30
0.0
 11
278.689710020923
 21
234.016847792112
 31
0.0
  0
LINE
  5
FE1
330
E6F
100
AcDbEntity
  8
5
370
    -2
100
AcDbLine
 10
128.189710020923
 20
246.237270872276
 30
0.0
 11
128.189710020923
 21
234.016847792112
 31
0.0
  0
LINE
  5
FE2
330
E6F
100
AcDbEntity
  8
5
370
    -2
100
AcDbLine
 10
273.689710020923
 20
236.016847792112
 30
0.0
 11
133.1897100209229
 21
236.016847792112
 31
0.0
  0
SOLID
  5
FE3
330
E6F
100
AcDbEntity
  8
5
100
AcDbTrace
 10
273.689710020923
 20
236.8501811254454
 30
0.0
 11
273.689710020923
 21
235.1835144587786
 31
0.0
 12
278.689710020923
 22
236.016847792112
 32
0.0
 13
278.689710020923
 23
236.016847792112
 33
0.0
  0
SOLID
  5
FE4
330
E6F
100
AcDbEntity
  8
5
100
AcDbTrace
 10
133.1897100209229
 20
236.8501811254454
 30
0.0
 11
133.1897100209229
 21
235.1835144587786
 31
0.0
 12
128.189710020923
 22
236.016847792112
 32
0.0
 13
128.189710020923
 23
236.016847792112
 33
0.0
  0
MTEXT
  5
FE5
330
E6F
100
AcDbEntity
  8
5
 62
     7
100
AcDbMText
 10
203.439710020923
 20
244.3860888935224
 30
0.0
 40
14.0
 41
0.0
 71
     5
 72
     1
  1
151
 73
     1
 44
1.0
  0
POINT
  5
FE6
330
E6F
100
AcDbEntity
  8
Defpoints
 62
     0
100
AcDbPoint
 10
278.689710020923
 20
268.6647169741374
 30
0.0
  0
POINT
  5
FE7
330
E6F
100
AcDbEntity
  8
Defpoints
 62
     0
100
AcDbPoint
 10
128.189710020923
 20
248.237270872276
 30
0.0
  0
POINT
  5
FE8
330
E6F
100
AcDbEntity
  8
Defpoints
 62
     0
100
AcDbPoint
 10
128.189710020923
 20
236.016847792112
 30
0.0
  0
ENDBLK
  5
E71
330
E6F
100
AcDbEntity
  8
0
100
AcDbBlockEnd
  0
BLOCK
  5
E92
330
E91
100
AcDbEntity
  8
0
100
AcDbBlockBegin
  2
*D49
 70
     1
 10
0.0
 20
0.0
 30
0.0
  3
*D49
  1

  0
LINE
  5
1021
330
E91
100
AcDbEntity
  8
5
370
    -2
100
AcDbLine
 10
270.689710020923
 20
342.6597046637391
 30
0.0
 11
308.9623291161493
 21
342.6597046637391
 31
0.0
  0
LINE
  5
1022
330
E91
100
AcDbEntity
  8
5
370
    -2
100
AcDbLine
 10
270.689710020923
 20
267.6597046637391
 30
0.0
 11
308.9623291161493
 21
267.6597046637391
 31
0.0
  0
LINE
  5
1023
330
E91
100
AcDbEntity
  8
5
370
    -2
100
AcDbLine
 10
306.9623291161493
 20
337.6597046637392
 30
0.0
 11
306.9623291161493
 21
272.6597046637391
 31
0.0
  0
SOLID
  5
1024
330
E91
100
AcDbEntity
  8
5
100
AcDbTrace
 10
306.128995782816
 20
337.6597046637392
 30
0.0
 11
307.7956624494826
 21
337.6597046637392
 31
0.0
 12
306.9623291161493
 22
342.6597046637391
 32
0.0
 13
306.9623291161493
 23
342.6597046637391
 33
0.0
  0
SOLID
  5
1025
330
E91
100
AcDbEntity
  8
5
100
AcDbTrace
 10
306.128995782816
 20
272.6597046637391
 30
0.0
 11
307.7956624494826
 21
272.6597046637391
 31
0.0
 12
306.9623291161493
 22
267.6597046637391
 32
0.0
 13
306.9623291161493
 23
267.6597046637391
 33
0.0
  0
MTEXT
  5
1026
330
E91
100
AcDbEntity
  8
5
 62
     7
100
AcDbMText
 10
297.784491641334
 20
305.1597046637391
 30
0.0
 40
14.0
 41
0.0
 71
     5
 72
     1
  1
%%c75
 11
0.0000000000000001
 21
1.0
 31
0.0
 73
     1
 44
1.0
  0
POINT
  5
1027
330
E91
100
AcDbEntity
  8
Defpoints
 62
     0
100
AcDbPoint
 10
268.689710020923
 20
342.6597046637391
 30
0.0
  0
POINT
  5
1028
330
E91
100
AcDbEntity
  8
Defpoints
 62
     0
100
AcDbPoint
 10
268.689710020923
 20
267.6597046637391
 30
0.0
  0
POINT
  5
1029
330
E91
100
AcDbEntity
  8
Defpoints
 62
     0
100
AcDbPoint
 10
306.9623291161493
 20
267.6597046637391
 30
0.0
  0
ENDBLK
  5
E93
330
E91
100
AcDbEntity
  8
0
100
AcDbBlockEnd
  0
BLOCK
  5
EB4
330
EB3
100
AcDbEntity
  8
0
100
AcDbBlockBegin
  2
*D50
 70
     1
 10
0.0
 20
0.0
 30
0.0
  3
*D50
  1

  0
LINE
  5
F34
330
EB3
100
AcDbEntity
  8
5
370
    -2
100
AcDbLine
 10
44.18971002092296
 20
382.6645528637291
 30
0.0
 11
24.79781234757663
 21
382.6645528637291
 31
0.0
  0
LINE
  5
F35
330
EB3
100
AcDbEntity
  8
5
370
    -2
100
AcDbLine
 10
83.16449748473393
 20
273.4097046637291
 30
0.0
 11
24.7978123475766
 21
273.4097046637291
 31
0.0
  0
LINE
  5
F36
330
EB3
100
AcDbEntity
  8
5
370
    -2
100
AcDbLine
 10
26.79781234757662
 20
377.6645528637291
 30
0.0
 11
26.79781234757661
 21
278.4097046637291
 31
0.0
  0
SOLID
  5
F37
330
EB3
100
AcDbEntity
  8
5
100
AcDbTrace
 10
25.96447901424329
 20
377.6645528637291
 30
0.0
 11
27.63114568090995
 21
377.6645528637291
 31
0.0
 12
26.79781234757662
 22
382.6645528637291
 32
0.0
 13
26.79781234757662
 23
382.6645528637291
 33
0.0
  0
SOLID
  5
F38
330
EB3
100
AcDbEntity
  8
5
100
AcDbTrace
 10
25.96447901424327
 20
278.4097046637291
 30
0.0
 11
27.63114568090993
 21
278.4097046637291
 31
0.0
 12
26.79781234757661
 22
273.4097046637291
 32
0.0
 13
26.79781234757661
 23
273.4097046637291
 33
0.0
  0
MTEXT
  5
F39
330
EB3
100
AcDbEntity
  8
5
 62
     7
100
AcDbMText
 10
18.31104270352014
 20
328.0371287637291
 30
0.0
 40
14.0
 41
0.0
 71
     5
 72
     1
  1
109
 11
0.0000000000000001
 21
1.0
 31
0.0
 73
     1
 44
1.0
  0
POINT
  5
F3A
330
EB3
100
AcDbEntity
  8
Defpoints
 62
     0
100
AcDbPoint
 10
46.18971002092297
 20
382.6645528637291
 30
0.0
  0
POINT
  5
F3B
330
EB3
100
AcDbEntity
  8
Defpoints
 62
     0
100
AcDbPoint
 10
85.16449748473389
 20
273.4097046637291
 30
0.0
  0
POINT
  5
F3C
330
EB3
100
AcDbEntity
  8
Defpoints
 62
     0
100
AcDbPoint
 10
26.79781234757661
 20
273.4097046637291
 30
0.0
  0
ENDBLK
  5
EB5
330
EB3
100
AcDbEntity
  8
0
100
AcDbBlockEnd
  0
BLOCK
  5
ED6
330
ED5
100
AcDbEntity
  8
0
100
AcDbBlockBegin
  2
*D51
 70
     1
 10
0.0
 20
0.0
 30
0.0
  3
*D51
  1

  0
LINE
  5
100F
330
ED5
100
AcDbEntity
  8
5
370
    -2
100
AcDbLine
 10
270.689710020923
 20
267.6597046637391
 30
0.0
 11
353.5194822419617
 21
267.6597046637391
 31
0.0
  0
LINE
  5
1010
330
ED5
100
AcDbEntity
  8
5
370
    -2
100
AcDbLine
 10
211.9854513458442
 20
382.6645528637291
 30
0.0
 11
353.5194822419617
 21
382.6645528637291
 31
0.0
  0
LINE
  5
1011
330
ED5
100
AcDbEntity
  8
5
370
    -2
100
AcDbLine
 10
351.5194822419617
 20
272.6597046637391
 30
0.0
 11
351.5194822419617
 21
377.6645528637291
 31
0.0
  0
SOLID
  5
1012
330
ED5
100
AcDbEntity
  8
5
100
AcDbTrace
 10
350.6861489086284
 20
272.6597046637391
 30
0.0
 11
352.352815575295
 21
272.6597046637391
 31
0.0
 12
351.5194822419617
 22
267.6597046637391
 32
0.0
 13
351.5194822419617
 23
267.6597046637391
 33
0.0
  0
SOLID
  5
1013
330
ED5
100
AcDbEntity
  8
5
100
AcDbTrace
 10
350.6861489086284
 20
377.6645528637291
 30
0.0
 11
352.352815575295
 21
377.6645528637291
 31
0.0
 12
351.5194822419617
 22
382.6645528637291
 32
0.0
 13
351.5194822419617
 23
382.6645528637291
 33
0.0
  0
MTEXT
  5
1014
330
ED5
100
AcDbEntity
  8
5
 62
     7
100
AcDbMText
 10
343.1502411405513
 20
325.1621287637342
 30
0.0
 40
14.0
 41
0.0
 71
     5
 72
     1
  1
115
 11
0.0000000000000001
 21
1.0
 31
0.0
 73
     1
 44
1.0
  0
POINT
  5
1015
330
ED5
100
AcDbEntity
  8
Defpoints
 62
     0
100
AcDbPoint
 10
268.689710020923
 20
267.6597046637391
 30
0.0
  0
POINT
  5
1016
330
ED5
100
AcDbEntity
  8
Defpoints
 62
     0
100
AcDbPoint
 10
209.9854513458442
 20
382.6645528637291
 30
0.0
  0
POINT
  5
1017
330
ED5
100
AcDbEntity
  8
Defpoints
 62
     0
100
AcDbPoint
 10
351.5194822419617
 20
382.6645528637291
 30
0.0
  0
ENDBLK
  5
ED7
330
ED5
100
AcDbEntity
  8
0
100
AcDbBlockEnd
  0
BLOCK
  5
EF8
330
EF7
100
AcDbEntity
  8
0
100
AcDbBlockBegin
  2
*D52
 70
     1
 10
0.0
 20
0.0
 30
0.0
  3
*D52
  1

  0
LINE
  5
1018
330
EF7
100
AcDbEntity
  8
5
370
    -2
100
AcDbLine
 10
212.189710020923
 20
382.6645528637291
 30
0.0
 11
331.6675054702606
 21
382.6645528637291
 31
0.0
  0
LINE
  5
1019
330
EF7
100
AcDbEntity
  8
5
370
    -2
100
AcDbLine
 10
308.9623291161493
 20
305.159704663739
 30
0.0
 11
331.6675054702606
 21
305.159704663739
 31
0.0
  0
LINE
  5
101A
330
EF7
100
AcDbEntity
  8
5
370
    -2
100
AcDbLine
 10
329.6675054702606
 20
377.6645528637291
 30
0.0
 11
329.6675054702606
 21
310.159704663739
 31
0.0
  0
SOLID
  5
101B
330
EF7
100
AcDbEntity
  8
5
100
AcDbTrace
 10
328.8341721369272
 20
377.6645528637291
 30
0.0
 11
330.5008388035939
 21
377.6645528637291
 31
0.0
 12
329.6675054702606
 22
382.6645528637291
 32
0.0
 13
329.6675054702606
 23
382.6645528637291
 33
0.0
  0
SOLID
  5
101C
330
EF7
100
AcDbEntity
  8
5
100
AcDbTrace
 10
328.8341721369272
 20
310.159704663739
 30
0.0
 11
330.5008388035939
 21
310.159704663739
 31
0.0
 12
329.6675054702606
 22
305.159704663739
 32
0.0
 13
329.6675054702606
 23
305.159704663739
 33
0.0
  0
MTEXT
  5
101D
330
EF7
100
AcDbEntity
  8
5
 62
     7
100
AcDbMText
 10
321.4675054702605
 20
343.9121287637342
 30
0.0
 40
14.0
 41
0.0
 71
     5
 72
     1
  1
77
 11
0.0000000000000001
 21
1.0
 31
0.0
 73
     1
 44
1.0
  0
POINT
  5
101E
330
EF7
100
AcDbEntity
  8
Defpoints
 62
     0
100
AcDbPoint
 10
210.189710020923
 20
382.6645528637291
 30
0.0
  0
POINT
  5
101F
330
EF7
100
AcDbEntity
  8
Defpoints
 62
     0
100
AcDbPoint
 10
306.9623291161493
 20
305.159704663739
 30
0.0
  0
POINT
  5
1020
330
EF7
100
AcDbEntity
  8
Defpoints
 62
     0
100
AcDbPoint
 10
329.6675054702606
 20
305.159704663739
 30
0.0
  0
ENDBLK
  5
EF9
330
EF7
100
AcDbEntity
  8
0
100
AcDbBlockEnd
  0
ENDSEC
  0
SECTION
  2
ENTITIES
  0
LINE
  5
214
330
6C
100
AcDbEntity
  8
0
100
AcDbLine
 10
68.32920593718346
 20
382.6645528637334
 30
0.0
 11
71.97078669068726
 21
382.6645528637337
 31
0.0
  0
LINE
  5
215
330
6C
100
AcDbEntity
  8
0
100
AcDbLine
 10
184.4086333511588
 20
382.6645528637337
 30
0.0
 11
188.0502141046628
 21
382.6645528637336
 31
0.0
  0
LINE
  5
216
330
6C
100
AcDbEntity
  8
0
100
AcDbLine
 10
125.4897100209232
 20
382.6645528637353
 30
0.0
 11
130.8897100209229
 21
382.6645528637353
 31
0.0
  0
LINE
  5
22B
330
6C
100
AcDbEntity
  8
0
100
AcDbLine
 10
171.2149225571121
 20
273.4097046637291
 30
0.0
 11
85.16449748473393
 21
273.4097046637291
 31
0.0
  0
LINE
  5
22C
330
6C
100
AcDbEntity
  8
0
100
AcDbLine
 10
197.8843163468903
 20
345.1651666308957
 30
0.0
 11
58.49510369495561
 21
345.1651666308957
 31
0.0
  0
LINE
  5
22D
330
6C
100
AcDbEntity
  8
0
100
AcDbLine
 10
210.1897100209229
 20
381.4145528637291
 30
0.0
 11
46.189710020923
 21
381.4145528637291
 31
0.0
  0
ARC
  5
22E
330
6C
100
AcDbEntity
  8
0
100
AcDbCircle
 10
71.939710020923
 20
291.9532757847305
 30
0.0
 40
15.0
100
AcDbArc
 50
180.0
 51
255.0
  0
LINE
  5
22F
330
6C
100
AcDbEntity
  8
0
100
AcDbLine
 10
81.28221180819611
 20
273.9208172693931
 30
0.0
 11
68.05742434438518
 21
277.4643883903944
 31
0.0
  0
ARC
  5
230
330
6C
100
AcDbEntity
  8
0
100
AcDbCircle
 10
85.16449748473389
 20
288.4097046637291
 30
0.0
 40
14.99999999999946
100
AcDbArc
 50
255.0
 51
270.0
  0
LINE
  5
231
330
6C
100
AcDbEntity
  8
0
100
AcDbLine
 10
56.939710020923
 20
291.9532757847305
 30
0.0
 11
56.939710020923
 21
342.6229979804982
 31
0.0
  0
LINE
  5
232
330
6C
100
AcDbEntity
  8
0
100
AcDbLine
 10
199.439710020923
 20
338.909704663739
 30
0.0
 11
199.439710020923
 21
342.6229979804983
 31
0.0
  0
ARC
  5
233
330
6C
100
AcDbEntity
  8
0
100
AcDbCircle
 10
196.5845258072517
 20
342.6229979804983
 30
0.0
 40
2.855184213671287
100
AcDbArc
 50
0.0
 51
62.91970206174955
  0
ARC
  5
234
330
6C
100
AcDbEntity
  8
0
100
AcDbCircle
 10
59.79489423459429
 20
342.6229979804982
 30
0.0
 40
2.855184213671287
100
AcDbArc
 50
117.0802979382504
 51
180.0
  0
ARC
  5
235
330
6C
100
AcDbEntity
  8
0
100
AcDbCircle
 10
197.939710020923
 20
347.6645528637291
 30
0.0
 40
2.5
100
AcDbArc
 50
104.6586757351011
 51
268.7303666035435
  0
ARC
  5
236
330
6C
100
AcDbEntity
  8
0
100
AcDbCircle
 10
58.43971002092299
 20
347.6645528637291
 30
0.0
 40
2.5
100
AcDbArc
 50
271.2696333964567
 51
75.34132426489891
  0
ARC
  5
237
330
6C
100
AcDbEntity
  8
0
100
AcDbCircle
 10
196.5845258072518
 20
352.8454286303704
 30
0.0
 40
2.855184213671287
100
AcDbArc
 50
284.6586757351012
 51
0.0
  0
ARC
  5
238
330
6C
100
AcDbEntity
  8
0
100
AcDbCircle
 10
59.79489423459409
 20
352.8454286303703
 30
0.0
 40
2.855184213671287
100
AcDbArc
 50
180.0
 51
255.3413242648989
  0
LINE
  5
239
330
6C
100
AcDbEntity
  8
0
100
AcDbLine
 10
56.939710020923
 20
352.8454286303704
 30
0.0
 11
56.93971002092297
 21
375.414552863729
 31
0.0
  0
LINE
  5
23A
330
6C
100
AcDbEntity
  8
0
100
AcDbLine
 10
199.439710020923
 20
352.8454286303705
 30
0.0
 11
199.439710020923
 21
375.4145528637291
 31
0.0
  0
ARC
  5
23B
330
6C
100
AcDbEntity
  8
0
100
AcDbCircle
 10
205.4397100209228
 20
375.4145528637291
 30
0.0
 40
6.000000000000023
100
AcDbArc
 50
90.00000000000023
 51
180.0
  0
ARC
  5
23C
330
6C
100
AcDbEntity
  8
0
100
AcDbCircle
 10
50.93971002092316
 20
375.4145528637291
 30
0.0
 40
6.000000000000023
100
AcDbArc
 50
0.0
 51
90.0
  0
LINE
  5
23D
330
6C
100
AcDbEntity
  8
0
100
AcDbLine
 10
46.18971002092297
 20
381.4145528637291
 30
0.0
 11
46.18971002092297
 21
382.6645528637291
 31
0.0
  0
LINE
  5
23E
330
6C
100
AcDbEntity
  8
0
100
AcDbLine
 10
210.189710020923
 20
381.4145528637291
 30
0.0
 11
210.189710020923
 21
382.6645528637291
 31
0.0
  0
ARC
  5
23F
330
6C
100
AcDbEntity
  8
0
100
AcDbCircle
 10
201.439710020923
 20
338.9097046637392
 30
0.0
 40
2.0
100
AcDbArc
 50
180.0
 51
270.0
  0
LINE
  5
240
330
6C
100
AcDbEntity
  8
0
100
AcDbLine
 10
204.189710020923
 20
273.4097046637391
 30
0.0
 11
171.2149225571121
 21
273.4097046637391
 31
0.0
  0
LINE
  5
241
330
6C
100
AcDbEntity
  8
0
100
AcDbLine
 10
204.189710020923
 20
336.9097046637392
 30
0.0
 11
201.439710020923
 21
336.9097046637392
 31
0.0
  0
LINE
  5
247
330
6C
100
AcDbEntity
  8
0
100
AcDbLine
 10
238.689710020923
 20
342.6597046637391
 30
0.0
 11
268.689710020923
 21
342.6597046637391
 31
0.0
  0
LINE
  5
248
330
6C
100
AcDbEntity
  8
0
100
AcDbLine
 10
238.689710020923
 20
267.6597046637391
 30
0.0
 11
268.689710020923
 21
267.6597046637391
 31
0.0
  0
LINE
  5
249
330
6C
100
AcDbEntity
  8
0
100
AcDbLine
 10
278.5606292527824
 20
268.6517441980358
 30
0.0
 11
268.689710020923
 21
267.6597046637391
 31
0.0
  0
LINE
  5
24A
330
6C
100
AcDbEntity
  8
0
100
AcDbLine
 10
278.5606292527824
 20
341.6676651294423
 30
0.0
 11
268.689710020923
 21
342.6597046637391
 31
0.0
  0
LINE
  5
255
330
6C
100
AcDbEntity
  8
0
100
AcDbLine
 10
212.4222395836735
 20
267.6597046637391
 30
0.0
 11
212.4222395836735
 21
342.6597046637391
 31
0.0
  0
LINE
  5
256
330
6C
100
AcDbEntity
  8
0
100
AcDbLine
 10
278.689710020923
 20
268.6647169741374
 30
0.0
 11
278.689710020923
 21
341.6546923533407
 31
0.0
  0
LINE
  5
257
330
6C
100
AcDbEntity
  8
0
100
AcDbLine
 10
204.189710020923
 20
273.336451707464
 30
0.0
 11
204.189710020923
 21
336.9829576200142
 31
0.0
  0
LINE
  5
258
330
6C
100
AcDbEntity
  8
0
100
AcDbLine
 10
212.4222395836735
 20
342.6597046637391
 30
0.0
 11
238.689710020923
 21
342.6597046637391
 31
0.0
  0
LINE
  5
259
330
6C
100
AcDbEntity
  8
0
100
AcDbLine
 10
212.4222395836735
 20
267.6597046637391
 30
0.0
 11
238.689710020923
 21
267.6597046637391
 31
0.0
  0
LINE
  5
25A
330
6C
100
AcDbEntity
  8
0
100
AcDbLine
 10
278.689710020923
 20
268.6647169741374
 30
0.0
 11
278.5606292527824
 21
268.6517441980358
 31
0.0
  0
LINE
  5
25B
330
6C
100
AcDbEntity
  8
0
100
AcDbLine
 10
278.689710020923
 20
341.6546923533407
 30
0.0
 11
278.5606292527824
 21
341.6676651294423
 31
0.0
  0
LINE
  5
25C
330
6C
100
AcDbEntity
  8
0
100
AcDbLine
 10
204.189710020923
 20
336.9829576200142
 30
0.0
 11
212.4222395836734
 21
342.6597046637391
 31
0.0
  0
LINE
  5
25D
330
6C
100
AcDbEntity
  8
0
100
AcDbLine
 10
204.189710020923
 20
273.336451707464
 30
0.0
 11
212.4222395836735
 21
267.6597046637391
 31
0.0
  0
LINE
  5
270
330
6C
100
AcDbEntity
  8
0
100
AcDbLine
 10
246.4536420434232
 20
342.6597046637391
 30
0.0
 11
238.689710020923
 21
342.6597046637391
 31
0.0
  0
LINE
  5
277
330
6C
100
AcDbEntity
  8
0
100
AcDbLine
 10
264.4536420434232
 20
267.6597046637391
 30
0.0
 11
258.9257779984228
 21
267.6597046637391
 31
0.0
  0
LINE
  5
2DD
330
6C
100
AcDbEntity
  8
0
100
AcDbLine
 10
188.231587098624
 20
382.6645528637292
 30
0.0
 11
188.227009969566
 21
382.6645528637292
 31
0.0
  0
LINE
  5
2DE
330
6C
100
AcDbEntity
  8
0
100
AcDbLine
 10
188.0502141046628
 20
382.6645528637292
 30
0.0
 11
188.227009969566
 21
382.6645528637292
 31
0.0
  0
LINE
  5
2E0
330
6C
100
AcDbEntity
  8
0
100
AcDbLine
 10
184.4086333511586
 20
382.6645528637292
 30
0.0
 11
184.4039030417805
 21
382.6645528637292
 31
0.0
  0
LINE
  5
2E1
330
6C
100
AcDbEntity
  8
0
100
AcDbLine
 10
130.8962913737566
 20
382.6645528637292
 30
0.0
 11
130.8897100209229
 21
382.6645528637292
 31
0.0
  0
LINE
  5
2E4
330
6C
100
AcDbEntity
  8
0
100
AcDbLine
 10
125.4897100209229
 20
382.6645528637292
 30
0.0
 11
125.4831286680893
 21
382.6645528637292
 31
0.0
  0
LINE
  5
2E5
330
6C
100
AcDbEntity
  8
0
100
AcDbLine
 10
71.97551700006535
 20
382.6645528637291
 30
0.0
 11
71.97078669068726
 21
382.6645528637291
 31
0.0
  0
LINE
  5
2E7
330
6C
100
AcDbEntity
  8
0
100
AcDbLine
 10
68.15241007227992
 20
382.6645528637291
 30
0.0
 11
68.32920593718316
 21
382.6645528637291
 31
0.0
  0
LINE
  5
2E9
330
6C
100
AcDbEntity
  8
0
100
AcDbLine
 10
68.15241007227992
 20
382.6645528637291
 30
0.0
 11
68.14783294322189
 21
382.6645528637291
 31
0.0
  0
LINE
  5
2EA
330
6C
100
AcDbEntity
  8
0
100
AcDbLine
 10
45.98425450013349
 20
382.6645528637291
 30
0.0
 11
45.98414618529043
 21
382.6645528637291
 31
0.0
  0
LINE
  5
315
330
6C
100
AcDbEntity
  8
0
100
AcDbLine
 10
184.4039030417805
 20
382.6645528637291
 30
0.0
 11
130.8962913737566
 21
382.6645528637291
 31
0.0
  0
LINE
  5
316
330
6C
100
AcDbEntity
  8
0
100
AcDbLine
 10
125.4831286680893
 20
382.6645528637291
 30
0.0
 11
71.97551700006528
 21
382.6645528637291
 31
0.0
  0
LINE
  5
317
330
6C
100
AcDbEntity
  8
0
100
AcDbLine
 10
68.14783294322186
 20
382.6645528637291
 30
0.0
 11
46.18971002092297
 21
382.6645528637291
 31
0.0
  0
LINE
  5
318
330
6C
100
AcDbEntity
  8
0
100
AcDbLine
 10
209.9854513458442
 20
382.6645528637291
 30
0.0
 11
188.2315870986239
 21
382.6645528637291
 31
0.0
  0
LINE
  5
34F
330
6C
100
AcDbEntity
  8
0
100
AcDbLine
 10
214.939710020923
 20
402.6645528637291
 30
0.0
 11
199.9397100209229
 21
402.6645528637291
 31
0.0
  0
LINE
  5
352
330
6C
100
AcDbEntity
  8
0
100
AcDbLine
 10
198.939710020923
 20
383.6645528637292
 30
0.0
 11
198.4397100209229
 21
382.6645528637292
 31
0.0
  0
LINE
  5
353
330
6C
100
AcDbEntity
  8
0
100
AcDbLine
 10
198.939710020923
 20
383.6645528637292
 30
0.0
 11
198.939710020923
 21
387.3934482271781
 31
0.0
  0
LINE
  5
354
330
6C
100
AcDbEntity
  8
0
100
AcDbLine
 10
198.939710020923
 20
387.6227283031625
 30
0.0
 11
198.9397100209229
 21
400.6645528637291
 31
0.0
  0
LINE
  5
355
330
6C
100
AcDbEntity
  8
0
100
AcDbLine
 10
215.939710020923
 20
387.1227283031625
 30
0.0
 11
215.939710020923
 21
400.6645528637291
 31
0.0
  0
LINE
  5
356
330
6C
100
AcDbEntity
  8
0
100
AcDbLine
 10
214.939710020923
 20
402.6645528637291
 30
0.0
 11
215.939710020923
 21
400.6645528637291
 31
0.0
  0
LINE
  5
357
330
6C
100
AcDbEntity
  8
0
100
AcDbLine
 10
199.9397100209229
 20
402.6645528637291
 30
0.0
 11
198.939710020923
 21
400.6645528637291
 31
0.0
  0
LINE
  5
358
330
6C
100
AcDbEntity
  8
0
100
AcDbLine
 10
216.439710020923
 20
382.6645528637292
 30
0.0
 11
209.9854513458442
 21
382.6645528637292
 31
0.0
  0
LINE
  5
35A
330
6C
100
AcDbEntity
  8
0
100
AcDbLine
 10
215.939710020923
 20
383.6645528637292
 30
0.0
 11
216.439710020923
 21
382.6645528637292
 31
0.0
  0
LINE
  5
35B
330
6C
100
AcDbEntity
  8
0
100
AcDbLine
 10
198.939710020923
 20
387.3934482271781
 30
0.0
 11
198.939710020923
 21
387.6227283031625
 31
0.0
  0
LINE
  5
35C
330
6C
100
AcDbEntity
  8
0
100
AcDbLine
 10
215.939710020923
 20
383.6645528637292
 30
0.0
 11
215.939710020923
 21
387.1227283031625
 31
0.0
  0
LINE
  5
3A7
330
6C
100
AcDbEntity
  8
0
100
AcDbLine
 10
238.6897100208623
 20
172.8500912350637
 30
0.0
 11
268.6897100208622
 21
172.8500912350637
 31
0.0
  0
LINE
  5
3A8
330
6C
100
AcDbEntity
  8
0
100
AcDbLine
 10
238.6897100208623
 20
97.85009123506377
 30
0.0
 11
268.6897100208622
 21
97.85009123506377
 31
0.0
  0
LINE
  5
3A9
330
6C
100
AcDbEntity
  8
0
100
AcDbLine
 10
278.5606292527217
 20
98.84213076936045
 30
0.0
 11
268.6897100208622
 21
97.85009123506377
 31
0.0
  0
LINE
  5
3AA
330
6C
100
AcDbEntity
  8
0
100
AcDbLine
 10
278.5606292527217
 20
171.8580517007671
 30
0.0
 11
268.6897100208622
 21
172.8500912350637
 31
0.0
  0
LINE
  5
3B7
330
6C
100
AcDbEntity
  8
0
100
AcDbLine
 10
212.4222395836127
 20
144.0204083663179
 30
0.0
 11
212.4222395836127
 21
172.8500912350637
 31
0.0
  0
LINE
  5
3B8
330
6C
100
AcDbEntity
  8
0
100
AcDbLine
 10
212.4222395836127
 20
97.85009123506377
 30
0.0
 11
212.4222395836127
 21
126.6797741038329
 31
0.0
  0
LINE
  5
3B9
330
6C
100
AcDbEntity
  8
0
100
AcDbLine
 10
278.6897100208623
 20
98.85510354546212
 30
0.0
 11
278.6897100208623
 21
171.8450789246654
 31
0.0
  0
LINE
  5
3BA
330
6C
100
AcDbEntity
  8
0
100
AcDbLine
 10
212.4222395836127
 20
172.8500912350637
 30
0.0
 11
238.6897100208623
 21
172.8500912350637
 31
0.0
  0
LINE
  5
3BB
330
6C
100
AcDbEntity
  8
0
100
AcDbLine
 10
212.4222395836127
 20
97.85009123506377
 30
0.0
 11
238.6897100208623
 21
97.85009123506377
 31
0.0
  0
LINE
  5
3BC
330
6C
100
AcDbEntity
  8
0
100
AcDbLine
 10
278.6897100208623
 20
98.85510354546212
 30
0.0
 11
278.5606292527217
 21
98.84213076936045
 31
0.0
  0
LINE
  5
3BD
330
6C
100
AcDbEntity
  8
0
100
AcDbLine
 10
278.6897100208623
 20
171.8450789246654
 30
0.0
 11
278.5606292527217
 21
171.8580517007671
 31
0.0
  0
LINE
  5
3BE
330
6C
100
AcDbEntity
  8
0
100
AcDbLine
 10
204.2791428348263
 20
167.23501265647
 30
0.0
 11
212.4222395836127
 21
172.8500912350637
 31
0.0
  0
LINE
  5
3BF
330
6C
100
AcDbEntity
  8
0
100
AcDbLine
 10
204.2791428348263
 20
103.4651698136574
 30
0.0
 11
212.4222395836127
 21
97.85009123506377
 31
0.0
  0
LINE
  5
3CF
330
6C
100
AcDbEntity
  8
0
100
AcDbLine
 10
246.4536420433625
 20
172.8500912350638
 30
0.0
 11
238.6897100208623
 21
172.8500912350638
 31
0.0
  0
ARC
  5
441
330
6C
100
AcDbEntity
  8
0
100
AcDbCircle
 10
128.1897100208622
 20
135.350091235089
 30
0.0
 40
82.5
100
AcDbArc
 50
6.751453648696482
 51
353.2485463513045
  0
ARC
  5
442
330
6C
100
AcDbEntity
  8
0
100
AcDbCircle
 10
210.2169182227551
 20
125.6394210932642
 30
0.0
 40
0.100000000000049
100
AcDbArc
 50
105.9602924617205
 51
173.2485463513031
  0
ARC
  5
443
330
6C
100
AcDbEntity
  8
0
100
AcDbCircle
 10
210.2169182227549
 20
145.060761376915
 30
0.0
 40
0.100000000000019
100
AcDbArc
 50
186.7514536487156
 51
254.03970753829
  0
CIRCLE
  5
444
330
6C
100
AcDbEntity
  8
0
100
AcDbCircle
 10
207.4397100208623
 20
135.3500912350943
 30
0.0
 40
9.250000000060706
  0
LINE
  5
4E5
330
6C
100
AcDbEntity
  8
7
  6
Continuous
100
AcDbLine
 10
128.189710020923
 20
270.1708172693931
 30
0.0
 11
128.189710020923
 21
386.4145528637291
 31
0.0
  0
LINE
  5
4E6
330
6C
100
AcDbEntity
  8
7
  6
Continuous
100
AcDbLine
 10
207.939710020923
 20
305.1597046637391
 30
0.0
 11
167.4649225571121
 21
305.1597046637391
 31
0.0
  0
LINE
  5
4E8
330
6C
100
AcDbEntity
  8
7
  6
Continuous
100
AcDbLine
 10
278.4397100209232
 20
305.1597046637393
 30
0.0
 11
202.6533558024743
 21
305.1597046637389
 31
0.0
  0
LINE
  5
4ED
330
6C
100
AcDbEntity
  8
7
  6
Continuous
100
AcDbLine
 10
183.1305237632525
 20
135.3500912350868
 30
0.0
 11
42.43971002086225
 21
135.3500912350868
 31
0.0
  0
LINE
  5
4EE
330
6C
100
AcDbEntity
  8
7
  6
Continuous
100
AcDbLine
 10
128.1897100208622
 20
221.1000912350868
 30
0.0
 11
128.1897100208622
 21
49.6000912350868
 31
0.0
  0
LINE
  5
4F2
330
6C
100
AcDbEntity
  8
7
  6
Continuous
100
AcDbLine
 10
278.4397100208623
 20
135.3500912350638
 30
0.0
 11
234.9397100208623
 21
135.3500912350638
 31
0.0
  0
CIRCLE
  5
E04
330
6C
100
AcDbEntity
  8
0
100
AcDbCircle
 10
128.1897100208622
 20
135.3500912350868
 30
0.0
 40
66.00903102561227
  0
CIRCLE
  5
E05
330
6C
100
AcDbEntity
  8
0
100
AcDbCircle
 10
128.1897100208622
 20
135.3500912350868
 30
0.0
 40
69.99999999993926
  0
LINE
  5
E06
330
6C
100
AcDbEntity
  8
0
100
AcDbLine
 10
198.939710020923
 20
400.6645528637291
 30
0.0
 11
215.939710020923
 21
400.6645528637291
 31
0.0
  0
LINE
  5
E07
330
6C
100
AcDbEntity
  8
0
100
AcDbLine
 10
268.689710020923
 20
342.6597046637391
 30
0.0
 11
268.689710020923
 21
267.6597046637391
 31
0.0
  0
DIMENSION
  5
E20
330
6C
100
AcDbEntity
  8
5
100
AcDbDimension
  2
*D46
 10
46.18971002092297
 20
406.2720459194987
 30
0.0
 11
128.189710020923
 21
406.2720459194987
 31
0.0
 70
   160
  1
%%c<>
 71
     5
 42
164.0
  3
GEN-ISO
100
AcDbAlignedDimension
 13
210.189710020923
 23
382.6645528637292
 33
0.0
 14
46.18971002092297
 24
382.6645528637291
 34
0.0
 50
0.0000000000000114
100
AcDbRotatedDimension
1001
ACAD
1000
DSTYLE
1002
{
1070
     3
1000

1070
   271
1070
     0
1002
}
1001
ACAD_DSTYLE_DIMINSPECT
1070
   396
1000
100%
1070
   395
1000

1070
   394
1070
    33
1070
   393
1070
     0
  0
DIMENSION
  5
E4C
330
6C
100
AcDbEntity
  8
5
100
AcDbDimension
  2
*D47
 10
56.939710020923
 20
254.2311734848925
 30
0.0
 11
128.189710020923
 21
262.5769088777736
 31
0.0
 70
    32
  1
142
 71
     5
 42
142.5
  3
GEN-ISO
100
AcDbAlignedDimension
 13
199.439710020923
 23
338.909704663739
 33
0.0
 14
56.939710020923
 24
291.9532757847305
 34
0.0
 50
0.0000000000001132
100
AcDbRotatedDimension
1001
ACAD
1000
DSTYLE
1002
{
1070
     3
1000

1070
   271
1070
     0
1002
}
1001
ACAD_DSTYLE_DIMINSPECT
1070
   396
1000
100%
1070
   395
1000

1070
   394
1070
    33
1070
   393
1070
     0
  0
DIMENSION
  5
E6E
330
6C
100
AcDbEntity
  8
5
100
AcDbDimension
  2
*D48
 10
128.189710020923
 20
236.016847792112
 30
0.0
 11
203.439710020923
 21
236.016847792112
 31
0.0
 70
   160
 71
     5
 42
150.5
  3
GEN-ISO
100
AcDbAlignedDimension
 13
278.689710020923
 23
268.6647169741374
 33
0.0
 14
128.189710020923
 24
248.237270872276
 34
0.0
 50
0.0000000000001132
100
AcDbRotatedDimension
1001
ACAD_DSTYLE_DIMINSPECT
1070
   396
1000
100%
1070
   395
1000

1070
   394
1070
    33
1070
   393
1070
     0
1001
ACAD
1000
DSTYLE
1002
{
1070
     3
1000

1070
   271
1070
     0
1002
}
  0
DIMENSION
  5
E90
330
6C
100
AcDbEntity
  8
5
100
AcDbDimension
  2
*D49
 10
306.9623291161493
 20
267.6597046637391
 30
0.0
 11
306.9623291161493
 21
305.1597046637391
 31
0.0
 70
   160
  1
%%c<>
 71
     5
 42
75.0
  3
GEN-ISO
100
AcDbAlignedDimension
 13
268.689710020923
 23
342.6597046637391
 33
0.0
 14
268.689710020923
 24
267.6597046637391
 34
0.0
 50
90.0
100
AcDbRotatedDimension
1001
ACAD
1000
DSTYLE
1002
{
1070
     3
1000

1070
   271
1070
     0
1002
}
1001
ACAD_DSTYLE_DIMINSPECT
1070
   396
1000
100%
1070
   395
1000

1070
   394
1070
    33
1070
   393
1070
     0
  0
DIMENSION
  5
EB2
330
6C
100
AcDbEntity
  8
5
100
AcDbDimension
  2
*D50
 10
26.79781234757661
 20
273.4097046637291
 30
0.0
 11
18.31104270352014
 21
328.0371287637291
 31
0.0
 70
    32
 71
     5
 42
109.2548482
  3
GEN-ISO
100
AcDbAlignedDimension
 13
46.18971002092297
 23
382.6645528637291
 33
0.0
 14
85.16449748473389
 24
273.4097046637291
 34
0.0
 50
90.00000000000005
100
AcDbRotatedDimension
1001
ACAD_DSTYLE_DIMINSPECT
1070
   396
1000
100%
1070
   395
1000

1070
   394
1070
    33
1070
   393
1070
     0
1001
ACAD
1000
DSTYLE
1002
{
1070
     3
1000

1070
   271
1070
     0
1002
}
  0
DIMENSION
  5
ED4
330
6C
100
AcDbEntity
  8
5
100
AcDbDimension
  2
*D51
 10
351.5194822419617
 20
382.6645528637291
 30
0.0
 11
351.5194822419617
 21
325.1621287637342
 31
0.0
 70
   160
 71
     5
 42
115.00484819999
  3
GEN-ISO
100
AcDbAlignedDimension
 13
268.689710020923
 23
267.6597046637391
 33
0.0
 14
209.9854513458442
 24
382.6645528637291
 34
0.0
 50
90.0
100
AcDbRotatedDimension
1001
ACAD_DSTYLE_DIMINSPECT
1070
   396
1000
100%
1070
   395
1000

1070
   394
1070
    33
1070
   393
1070
     0
1001
ACAD
1000
DSTYLE
1002
{
1070
     3
1000

1070
   271
1070
     0
1002
}
  0
DIMENSION
  5
EF6
330
6C
100
AcDbEntity
  8
5
100
AcDbDimension
  2
*D52
 10
329.6675054702606
 20
305.159704663739
 30
0.0
 11
329.6675054702605
 21
343.9121287637342
 31
0.0
 70
   160
  1
77
 71
     5
 42
77.50484819999008
  3
GEN-ISO
100
AcDbAlignedDimension
 13
210.189710020923
 23
382.6645528637291
 33
0.0
 14
306.9623291161493
 24
305.159704663739
 34
0.0
 50
90.00000000000005
100
AcDbRotatedDimension
1001
ACAD
1000
DSTYLE
1002
{
1070
     3
1000

1070
   271
1070
     0
1002
}
1001
ACAD_DSTYLE_DIMINSPECT
1070
   396
1000
100%
1070
   395
1000

1070
   394
1070
    33
1070
   393
1070
     0
  0
LINE
  5
100E
330
6C
100
AcDbEntity
  8
0
100
AcDbLine
 10
268.6897100208622
 20
172.8500912350637
 30
0.0
 11
268.6897100208622
 21
97.85009123506377
 31
0.0
  0
ENDSEC
  0
SECTION
  2
OBJECTS
  0
DICTIONARY
  5
C
330
0
100
AcDbDictionary
281
     1
  3
ACAD_2007HEADERVARS_RT
350
1304
  3
ACAD_CIP_PREVIOUS_PRODUCT_INFO
350
8FA
  3
ACAD_COLOR
350
63
  3
ACAD_GROUP
350
D
  3
ACAD_LAYOUT
350
62
  3
ACAD_MATERIAL
350
10
  3
ACAD_MLEADERSTYLE
350
66
  3
ACAD_MLINESTYLE
350
5F
  3
ACAD_PLOTSETTINGS
350
61
  3
ACAD_PLOTSTYLENAME
350
E
  3
ACAD_SCALELIST
350
42
  3
ACAD_TABLESTYLE
350
64
  3
ACAD_VISUALSTYLE
350
29
  3
ACDB_RECOMPOSE_DATA
350
1303
  3
AcDbVariableDictionary
350
930
  3
AcmDictionary
350
99C
  3
AEC_PROPERTY_SET_DEFS
350
BC6
  3
AMG
350
942
  3
AMGSNAPSETTINGS
350
9DC
  0
DICTIONARY
  5
A28
330
2
100
AcDbDictionary
280
     1
281
     1
  3
ACAD_LAYERSTATES
360
A29
  0
DICTIONARY
  5
A22
330
A21
100
AcDbDictionary
280
     1
281
     1
  0
DICTIONARY
  5
A24
330
A23
100
AcDbDictionary
280
     1
281
     1
  0
DICTIONARY
  5
12F1
330
C9
100
AcDbDictionary
280
     1
281
     1
  3
ACAD_MTEXT_2008_RT
360
12F2
  0
DICTIONARY
  5
133A
330
12E
100
AcDbDictionary
280
     1
281
     1
  3
ACAD_MTEXT_2008_RT
360
133B
  0
DICTIONARY
  5
133C
330
132
100
AcDbDictionary
280
     1
281
     1
  3
ACAD_MTEXT_2008_RT
360
133D
  0
DICTIONARY
  5
133E
330
136
100
AcDbDictionary
280
     1
281
     1
  3
ACAD_MTEXT_2008_RT
360
133F
  0
DICTIONARY
  5
1340
330
13A
100
AcDbDictionary
280
     1
281
     1
  3
ACAD_MTEXT_2008_RT
360
1341
  0
DICTIONARY
  5
1342
330
13E
100
AcDbDictionary
280
     1
281
     1
  3
ACAD_MTEXT_2008_RT
360
1343
  0
DICTIONARY
  5
1344
330
142
100
AcDbDictionary
280
     1
281
     1
  3
ACAD_MTEXT_2008_RT
360
1345
  0
DICTIONARY
  5
1346
330
146
100
AcDbDictionary
280
     1
281
     1
  3
ACAD_MTEXT_2008_RT
360
1347
  0
DICTIONARY
  5
1348
330
14A
100
AcDbDictionary
280
     1
281
     1
  3
ACAD_MTEXT_2008_RT
360
1349
  0
DICTIONARY
  5
134A
330
152
100
AcDbDictionary
280
     1
281
     1
  3
ACAD_MTEXT_2008_RT
360
134B
  0
DICTIONARY
  5
134C
330
1F0
100
AcDbDictionary
280
     1
281
     1
  3
ACAD_MTEXT_2008_RT
360
134D
  0
DICTIONARY
  5
134E
330
1F4
100
AcDbDictionary
280
     1
281
     1
  3
ACAD_MTEXT_2008_RT
360
134F
  0
DICTIONARY
  5
1350
330
1F9
100
AcDbDictionary
280
     1
281
     1
  3
ACAD_MTEXT_2008_RT
360
1351
  0
DICTIONARY
  5
8FF
330
1FD
100
AcDbDictionary
280
     1
281
     1
  3
ACAD_MLATT
360
12F4
  3
ACAD_XREC_ROUNDTRIP
360
12F3
  0
DICTIONARY
  5
902
330
201
100
AcDbDictionary
280
     1
281
     1
  3
ACAD_MLATT
360
12F6
  3
ACAD_XREC_ROUNDTRIP
360
12F5
  0
DICTIONARY
  5
905
330
202
100
AcDbDictionary
280
     1
281
     1
  3
ACAD_MLATT
360
12F8
  3
ACAD_XREC_ROUNDTRIP
360
12F7
  0
DICTIONARY
  5
908
330
203
100
AcDbDictionary
280
     1
281
     1
  3
ACAD_MLATT
360
12FA
  3
ACAD_XREC_ROUNDTRIP
360
12F9
  0
DICTIONARY
  5
90B
330
205
100
AcDbDictionary
280
     1
281
     1
  3
ACAD_MLATT
360
12FC
  3
ACAD_XREC_ROUNDTRIP
360
12FB
  0
DICTIONARY
  5
90E
330
206
100
AcDbDictionary
280
     1
281
     1
  3
ACAD_MLATT
360
12FE
  3
ACAD_XREC_ROUNDTRIP
360
12FD
  0
DICTIONARY
  5
911
330
207
100
AcDbDictionary
280
     1
281
     1
  3
ACAD_MLATT
360
1300
  3
ACAD_XREC_ROUNDTRIP
360
12FF
  0
DICTIONARY
  5
914
330
208
100
AcDbDictionary
280
     1
281
     1
  3
ACAD_MLATT
360
1302
  3
ACAD_XREC_ROUNDTRIP
360
1301
  0
DICTIONARY
  5
1352
330
4F9
100
AcDbDictionary
280
     1
281
     1
  3
ACAD_MTEXT_2008_RT
360
1353
  0
DICTIONARY
  5
1354
330
4FD
100
AcDbDictionary
280
     1
281
     1
  3
ACAD_MTEXT_2008_RT
360
1355
  0
DICTIONARY
  5
1356
330
501
100
AcDbDictionary
280
     1
281
     1
  3
ACAD_MTEXT_2008_RT
360
1357
  0
DICTIONARY
  5
1358
330
50C
100
AcDbDictionary
280
     1
281
     1
  3
ACAD_MTEXT_2008_RT
360
1359
  0
DICTIONARY
  5
135A
330
528
100
AcDbDictionary
280
     1
281
     1
  3
ACAD_MTEXT_2008_RT
360
135B
  0
DICTIONARY
  5
135C
330
529
100
AcDbDictionary
280
     1
281
     1
  3
ACAD_MTEXT_2008_RT
360
135D
  0
DICTIONARY
  5
135E
330
52D
100
AcDbDictionary
280
     1
281
     1
  3
ACAD_MTEXT_2008_RT
360
135F
  0
DICTIONARY
  5
1360
330
534
100
AcDbDictionary
280
     1
281
     1
  3
ACAD_MTEXT_2008_RT
360
1361
  0
DICTIONARY
  5
1362
330
535
100
AcDbDictionary
280
     1
281
     1
  3
ACAD_MTEXT_2008_RT
360
1363
  0
DICTIONARY
  5
1364
330
538
100
AcDbDictionary
280
     1
281
     1
  3
ACAD_MTEXT_2008_RT
360
1365
  0
DICTIONARY
  5
1366
330
539
100
AcDbDictionary
280
     1
281
     1
  3
ACAD_MTEXT_2008_RT
360
1367
  0
DICTIONARY
  5
1368
330
547
100
AcDbDictionary
280
     1
281
     1
  3
ACAD_MTEXT_2008_RT
360
1369
  0
DICTIONARY
  5
136A
330
54F
100
AcDbDictionary
280
     1
281
     1
  3
ACAD_MTEXT_2008_RT
360
136B
  0
DICTIONARY
  5
136C
330
7C7
100
AcDbDictionary
280
     1
281
     1
  3
ACAD_MTEXT_2008_RT
360
136D
  0
DICTIONARY
  5
136E
330
8A8
100
AcDbDictionary
280
     1
281
     1
  3
ACAD_MTEXT_2008_RT
360
136F
  0
DICTIONARY
  5
1304
102
{ACAD_REACTORS
330
C
102
}
330
C
100
AcDbDictionary
281
     1
  3
DIMARCSYM
350
1305
  3
DIMLTEX1
350
1307
  3
DIMLTEX2
350
1308
  3
DIMLTYPE
350
1306
  0
XRECORD
  5
8FA
102
{ACAD_REACTORS
330
C
102
}
330
C
100
AcDbXrecord
280
     1
300
INVNTOR
300
2012
300
PDSP_F_S
  0
DICTIONARY
  5
63
102
{ACAD_REACTORS
330
C
102
}
330
C
100
AcDbDictionary
281
     1
  0
DICTIONARY
  5
D
102
{ACAD_REACTORS
330
C
102
}
330
C
100
AcDbDictionary
281
     1
  0
DICTIONARY
  5
62
102
{ACAD_REACTORS
330
C
102
}
330
C
100
AcDbDictionary
281
     1
  3
Layout1
350
6B
  3
Layout2
350
73
  3
Model
350
6F
  0
DICTIONARY
  5
10
102
{ACAD_REACTORS
330
C
102
}
330
C
100
AcDbDictionary
281
     1
  3
ByBlock
350
19
  3
ByLayer
350
11
  3
Global
350
21
  0
DICTIONARY
  5
66
102
{ACAD_REACTORS
330
C
102
}
330
C
100
AcDbDictionary
281
     1
  3
Standard
350
67
  0
DICTIONARY
  5
5F
102
{ACAD_REACTORS
330
C
102
}
330
C
100
AcDbDictionary
281
     1
  3
Standard
350
60
  0
DICTIONARY
  5
61
102
{ACAD_REACTORS
330
C
102
}
330
C
100
AcDbDictionary
281
     1
  0
ACDBDICTIONARYWDFLT
  5
E
102
{ACAD_REACTORS
330
C
102
}
330
C
100
AcDbDictionary
281
     1
  3
Normal
350
F
100
AcDbDictionaryWithDefault
340
F
  0
DICTIONARY
  5
42
102
{ACAD_REACTORS
330
C
102
}
330
C
100
AcDbDictionary
281
     1
  3
A0
350
43
  3
A1
350
44
  3
A2
350
45
  3
A3
350
46
  3
A4
350
47
  3
A5
350
48
  3
A6
350
49
  3
A7
350
4A
  3
A8
350
4B
  3
A9
350
4C
  3
B0
350
4D
  3
B1
350
4E
  3
B2
350
4F
  3
B3
350
50
  3
B4
350
51
  3
B5
350
52
  3
B6
350
53
  0
DICTIONARY
  5
64
102
{ACAD_REACTORS
330
C
102
}
330
C
100
AcDbDictionary
281
     1
  3
Standard
350
65
  0
DICTIONARY
  5
29
102
{ACAD_REACTORS
330
C
102
}
330
C
100
AcDbDictionary
281
     1
  3
2dWireframe
350
2F
  3
3D Hidden
350
936
  3
3dWireframe
350
935
  3
Basic
350
2E
  3
Brighten
350
35
  3
ColorChange
350
39
  3
Conceptual
350
32
  3
Dim
350
34
  3
EdgeColorOff
350
41
  3
Facepattern
350
38
  3
Flat
350
2A
  3
FlatWithEdges
350
2B
  3
Gouraud
350
2C
  3
GouraudWithEdges
350
2D
  3
Hidden
350
31
  3
JitterOff
350
3F
  3
Linepattern
350
37
  3
OverhangOff
350
40
  3
Realistic
350
33
  3
Shaded
350
3E
  3
Shaded with edges
350
3D
  3
Shades of Gray
350
3A
  3
Sketchy
350
3B
  3
Thicken
350
36
  3
Wireframe
350
30
  3
X-Ray
350
3C
  0
XRECORD
  5
1303
102
{ACAD_REACTORS
330
C
102
}
330
C
100
AcDbXrecord
280
     1
 90
        1
330
65
330
C9
330
1FD
330
201
330
202
330
203
330
205
330
206
330
207
330
208
  0
DICTIONARY
  5
930
102
{ACAD_REACTORS
330
C
102
}
330
C
100
AcDbDictionary
281
     1
  3
CANNOSCALE
350
933
  3
CMLEADERSTYLE
350
932
  3
CTABLESTYLE
350
931
  3
LAYEREVAL
350
102C
  3
LAYERNOTIFY
350
102D
  3
LIGHTINGUNITS
350
102B
  3
MSLTSCALE
350
102A
  3
SOLIDHIST
350
102E
  3
XCLIPFRAME
350
12EF
  0
DICTIONARY
  5
99C
102
{ACAD_REACTORS
330
C
102
}
330
C
100
AcDbDictionary
281
     1
  3
AcmStdDictionary
350
9A6
  0
DICTIONARY
  5
BC6
102
{ACAD_REACTORS
330
C
102
}
330
C
100
AcDbDictionary
281
     1
  0
DICTIONARY
  5
942
102
{ACAD_REACTORS
330
C
102
}
330
C
100
AcDbDictionary
281
     1
  0
DICTIONARY
  5
9DC
102
{ACAD_REACTORS
330
C
102
}
330
C
100
AcDbDictionary
281
     1
  0
DICTIONARY
  5
A29
102
{ACAD_REACTORS
330
A28
102
}
330
A28
100
AcDbDictionary
281
     1
  0
XRECORD
  5
12F2
102
{ACAD_REACTORS
330
12F1
102
}
330
12F1
100
AcDbXrecord
280
     1
 40
2697178.0
  1
\pxsm0.94;WIG Schweisung, Nahte sauber geschliffen und poliert\PSichtstege geschliffen mit 240 Korn und abgeklebt.\P\fTahoma|b0|i0;\H3.0000; \P\fTahoma|b0|i0;\H3.5000;WIG svarovani- svary dle potreby zabrousit.\PPohledove plochy brousit (vel. brusnyc
  1
h zrn 240)\Pa polepit paskou
  0
XRECORD
  5
133B
102
{ACAD_REACTORS
330
133A
102
}
330
133A
100
AcDbXrecord
280
     1
 40
128335.0
  1
Mořit a opláchnout\PBeizen und Pasiviert
  0
XRECORD
  5
133D
102
{ACAD_REACTORS
330
133C
102
}
330
133C
100
AcDbXrecord
280
     1
 40
118263.0
  1
Žlab bez spádu!\PRinne ohne Gefälle!
  0
XRECORD
  5
133F
102
{ACAD_REACTORS
330
133E
102
}
330
133E
100
AcDbXrecord
280
     1
 40
119399.0
  1
Žlab bez spádu!\PChannel without slope!
  0
XRECORD
  5
1341
102
{ACAD_REACTORS
330
1340
102
}
330
1340
100
AcDbXrecord
280
     1
 40
2320136.0
  1
Povrchová úprava/Oberfläche:\PTryskat pouze vnitřek žlabu, včetně pohledových ploch!\PPříruby proti tryskání chránit!\PFlansches per strahlung behütent!
  0
XRECORD
  5
1343
102
{ACAD_REACTORS
330
1342
102
}
330
1342
100
AcDbXrecord
280
     1
 40
4745921.0
  1
Vzdálenost nivelačních šroubu ca. 1500mm.\PVzdálenost kotev ca. 400mm.\PPohledové plochy brousit(vel.brusných zrn 240)\Pa polepit páskou.\P\PDistance of leveling feets ca. 1500 mm.\PDistance of fixing tangs ca. 400 mm.\PVisible surfaces to be grinded
  1
 and covered by protectiv foil.
  0
XRECORD
  5
1345
102
{ACAD_REACTORS
330
1344
102
}
330
1344
100
AcDbXrecord
280
     1
 40
2193518.0
  1
POZOR:\PSpád žlabu je menší než 1% - nebezpečí vzniku prohlubní\Pse stojatou vodou.\PAUTENTION:\PThe gradient of the bottom is minor then 1%.\PThat can be reason of slack water.
  0
XRECORD
  5
1347
102
{ACAD_REACTORS
330
1346
102
}
330
1346
100
AcDbXrecord
280
     1
 40
2672228.0
  1
POZOR:\PSpád žlabu je menší než 1% - nebezpečí vzniku prohlubní\Pse stojatou vodou.\PACHTUNG:\PDas Bodengefälle ist kleiner als 1%. Das Gefahr der\PSenkungsentstehung mit dem stehenden Wasser.
  0
XRECORD
  5
1349
102
{ACAD_REACTORS
330
1348
102
}
330
1348
100
AcDbXrecord
280
     1
 40
275286.0
  1
Kartáčováno + folie\PGeburstet mit abziehbarer Schutzfolie
  0
XRECORD
  5
134B
102
{ACAD_REACTORS
330
134A
102
}
330
134A
100
AcDbXrecord
280
     1
 40
105970.0
  1
Mořit a opláchnout\PPickled and wash
  0
XRECORD
  5
134D
102
{ACAD_REACTORS
330
134C
102
}
330
134C
100
AcDbXrecord
280
     1
 40
209162.0
  1
\fArial|b0|i0;\H2.0000;Geprüft\fTahoma|b0|i0;\H2.0000;/Checked by:
  0
XRECORD
  5
134F
102
{ACAD_REACTORS
330
134E
102
}
330
134E
100
AcDbXrecord
280
     1
 40
232767.0
  1
ACO vpust 142 sestava vod. dvoudílná DN70 12mm priruba bez ZU V2A
  0
XRECORD
  5
1351
102
{ACAD_REACTORS
330
1350
102
}
330
1350
100
AcDbXrecord
280
     1
 40
23258.0
  1
Není k dispozici
  0
XRECORD
  5
12F4
102
{ACAD_REACTORS
330
8FF
102
}
330
8FF
100
AcDbXrecord
280
     1
 70
     4
 70
     0
 70
     0
 40
1.0
  2
ČÍSLO_REVIZE
  1
Embedded Object
 10
292.3880993315334
 20
66.0
 30
0.0
 40
3.499999940395355
 41
34.661232501043
 46
0.0
 71
     1
 72
     5
  1
000
  7
Styl textu9
 73
     1
 44
1.0
  0
XRECORD
  5
12F3
102
{ACAD_REACTORS
330
8FF
102
}
330
8FF
100
AcDbXrecord
280
     1
102
ACAD_MATT_HEIGHT
140
3.499999940395355
  0
XRECORD
  5
12F6
102
{ACAD_REACTORS
330
902
102
}
330
902
100
AcDbXrecord
280
     1
 70
     4
 70
     0
 70
     0
 40
1.0
  2
Sheet_Size
  1
Embedded Object
 10
294.5873446304243
 20
48.33701147296152
 30
0.0
 40
2.000000029802321
 41
19.44201149373395
 46
0.0
 71
     1
 72
     5
  1
A3
  7
Styl textu40
 73
     1
 44
1.0
  0
XRECORD
  5
12F5
102
{ACAD_REACTORS
330
902
102
}
330
902
100
AcDbXrecord
280
     1
102
ACAD_MATT_HEIGHT
140
2.000000029802321
  0
XRECORD
  5
12F8
102
{ACAD_REACTORS
330
905
102
}
330
905
100
AcDbXrecord
280
     1
 70
     4
 70
     0
 70
     0
 40
1.0
  2
PART_NUMBER
  1
Embedded Object
 10
224.5172477361519
 20
66.0
 30
0.0
 40
3.499999940395355
 41
42.57494038810881
 46
0.0
 71
     1
 72
     5
  1
414720
  7
Text poznámky (ISO)
 73
     1
 44
1.0
  0
XRECORD
  5
12F7
102
{ACAD_REACTORS
330
905
102
}
330
905
100
AcDbXrecord
280
     1
102
ACAD_MATT_HEIGHT
140
3.499999940395355
  0
XRECORD
  5
12FA
102
{ACAD_REACTORS
330
908
102
}
330
908
100
AcDbXrecord
280
     1
 70
     4
 70
     0
 70
     0
 40
1.0
  2
PROJECT
  1
Embedded Object
 10
118.0
 20
60.0
 30
0.0
 40
3.499999940395355
 41
0.0
 46
0.0
 71
     1
 72
     5
  1

  7
Text poznámky (ISO)
 73
     1
 44
1.0
  0
XRECORD
  5
12F9
102
{ACAD_REACTORS
330
908
102
}
330
908
100
AcDbXrecord
280
     1
102
ACAD_MATT_HEIGHT
140
3.499999940395355
  0
XRECORD
  5
12FC
102
{ACAD_REACTORS
330
90B
102
}
330
90B
100
AcDbXrecord
280
     1
 70
     4
 70
     0
 70
     0
 40
1.0
  2
SKLADOVÉ_ČÍSLO
  1
Embedded Object
 10
118.0
 20
54.89391305489238
 30
0.0
 40
6.99999988079071
 41
153.2966041564941
 46
0.0
 71
     1
 72
     5
  1
414720
  7
Styl textu94
 73
     1
 44
1.0
  0
XRECORD
  5
12FB
102
{ACAD_REACTORS
330
90B
102
}
330
90B
100
AcDbXrecord
280
     1
102
ACAD_MATT_HEIGHT
140
6.99999988079071
  0
XRECORD
  5
12FE
102
{ACAD_REACTORS
330
90E
102
}
330
90E
100
AcDbXrecord
280
     1
 70
     4
 70
     0
 70
     0
 40
1.0
  2
MATERIAL
  1
Embedded Object
 10
117.5939056808251
 20
108.6756657996811
 30
0.0
 40
3.499999940395355
 41
0.0
 46
0.0
 71
     1
 72
     5
  1

  7
Text poznámky (ISO)
 73
     1
 44
1.0
  0
XRECORD
  5
12FD
102
{ACAD_REACTORS
330
90E
102
}
330
90E
100
AcDbXrecord
280
     1
102
ACAD_MATT_HEIGHT
140
3.499999940395355
  0
XRECORD
  5
1300
102
{ACAD_REACTORS
330
911
102
}
330
911
100
AcDbXrecord
280
     1
 70
     4
 70
     0
 70
     0
 40
1.0
  2
AUTHOR
  1
Embedded Object
 10
171.2961533440284
 20
87.78242706242744
 30
0.0
 40
2.000000029802321
 41
13.919832764198
 46
0.0
 71
     1
 72
     5
  1
pmacoun
  7
Styl textu40
 73
     1
 44
1.0
  0
XRECORD
  5
12FF
102
{ACAD_REACTORS
330
911
102
}
330
911
100
AcDbXrecord
280
     1
102
ACAD_MATT_HEIGHT
140
2.000000029802321
  0
XRECORD
  5
1302
102
{ACAD_REACTORS
330
914
102
}
330
914
100
AcDbXrecord
280
     1
 70
     4
 70
     0
 70
     0
 40
1.0
  2
FirstViewScale
  1
Embedded Object
 10
189.1855699863978
 20
86.00038821032343
 30
0.0
 40
3.499999940395355
 41
24.15597186978378
 46
0.0
 71
     1
 72
     5
  1

  7
Text poznámky (ISO)
 73
     1
 44
1.0
  0
XRECORD
  5
1301
102
{ACAD_REACTORS
330
914
102
}
330
914
100
AcDbXrecord
280
     1
102
ACAD_MATT_HEIGHT
140
3.499999940395355
  0
XRECORD
  5
1353
102
{ACAD_REACTORS
330
1352
102
}
330
1352
100
AcDbXrecord
280
     1
 40
7165.0
  1
KUSOVNÍK
  0
XRECORD
  5
1355
102
{ACAD_REACTORS
330
1354
102
}
330
1354
100
AcDbXrecord
280
     1
 40
6807.0
  1
MATERIÁL
  0
XRECORD
  5
1357
102
{ACAD_REACTORS
330
1356
102
}
330
1356
100
AcDbXrecord
280
     1
 40
29499.0
  1
SKLADOVÉ ČÍS
  0
XRECORD
  5
1359
102
{ACAD_REACTORS
330
1358
102
}
330
1358
100
AcDbXrecord
280
     1
 40
22034.0
  1
návlek sunap-DN70
  0
XRECORD
  5
135B
102
{ACAD_REACTORS
330
135A
102
}
330
135A
100
AcDbXrecord
280
     1
 40
98046.0
  1
ACO vpust 142 svarenec vod. dvoudílná 
  0
XRECORD
  5
135D
102
{ACAD_REACTORS
330
135C
102
}
330
135C
100
AcDbXrecord
280
     1
 40
37980.0
  1
12mm příruba DN70 V2A
  0
XRECORD
  5
135F
102
{ACAD_REACTORS
330
135E
102
}
330
135E
100
AcDbXrecord
280
     1
 40
4936.0
  1
Papír
  0
XRECORD
  5
1361
102
{ACAD_REACTORS
330
1360
102
}
330
1360
100
AcDbXrecord
280
     1
 40
14752.0
  1
Polykarbonát,
  0
XRECORD
  5
1363
102
{ACAD_REACTORS
330
1362
102
}
330
1362
100
AcDbXrecord
280
     1
 40
14787.0
  1
 kouřový
  0
XRECORD
  5
1365
102
{ACAD_REACTORS
330
1364
102
}
330
1364
100
AcDbXrecord
280
     1
 40
69594.0
  1
ACO vpust 142 kryt plastový 157 pro 
  0
XRECORD
  5
1367
102
{ACAD_REACTORS
330
1366
102
}
330
1366
100
AcDbXrecord
280
     1
 40
14780.0
  1
balení PP 12mm
  0
XRECORD
  5
1369
102
{ACAD_REACTORS
330
1368
102
}
330
1368
100
AcDbXrecord
280
     1
 40
172970.0
  1
Effidrain karton - drenážní pro montáž 
  0
XRECORD
  5
136B
102
{ACAD_REACTORS
330
136A
102
}
330
136A
100
AcDbXrecord
280
     1
 40
34155.0
  1
ochraná síťka
  0
XRECORD
  5
136D
102
{ACAD_REACTORS
330
136C
102
}
330
136C
100
AcDbXrecord
280
     1
 40
5807.0
  1
\A1;\U+2205164
  0
XRECORD
  5
136F
102
{ACAD_REACTORS
330
136E
102
}
330
136E
100
AcDbXrecord
280
     1
 40
10636.0
  1
\A1;{\U+00D8}142,5
  0
XRECORD
  5
1305
102
{ACAD_REACTORS
330
1304
102
}
330
1304
100
AcDbXrecord
280
     1
 70
     1
  0
XRECORD
  5
1307
102
{ACAD_REACTORS
330
1304
102
}
330
1304
100
AcDbXrecord
280
     1
340
5B
  0
XRECORD
  5
1308
102
{ACAD_REACTORS
330
1304
102
}
330
1304
100
AcDbXrecord
280
     1
340
5B
  0
XRECORD
  5
1306
102
{ACAD_REACTORS
330
1304
102
}
330
1304
100
AcDbXrecord
280
     1
340
5B
  0
LAYOUT
  5
6B
102
{ACAD_REACTORS
330
62
102
}
330
62
100
AcDbPlotSettings
  1

  2

  4

  6

 40
0.0
 41
0.0
 42
0.0
 43
0.0
 44
0.0
 45
0.0
 46
0.0
 47
0.0
 48
0.0
 49
0.0
140
0.0
141
0.0
142
1.0
143
1.0
 70
   688
 72
     0
 73
     0
 74
     5
  7

 75
    16
147
1.0
 76
     0
 77
     2
 78
   300
148
0.0
149
0.0
100
AcDbLayout
  1
Layout1
 70
     1
 71
     1
 10
0.0
 20
0.0
 11
630.0
 21
445.5
 12
0.0
 22
0.0
 32
0.0
 14
0.0
 24
0.0
 34
0.0
 15
630.0
 25
445.5
 35
0.0
146
0.0
 13
0.0
 23
0.0
 33
0.0
 16
1.0
 26
0.0
 36
0.0
 17
0.0
 27
1.0
 37
0.0
 76
     0
330
68
  0
LAYOUT
  5
73
102
{ACAD_REACTORS
330
62
102
}
330
62
100
AcDbPlotSettings
  1

  2

  4

  6

 40
0.0
 41
0.0
 42
0.0
 43
0.0
 44
0.0
 45
0.0
 46
0.0
 47
0.0
 48
0.0
 49
0.0
140
0.0
141
0.0
142
1.0
143
1.0
 70
   688
 72
     0
 73
     0
 74
     5
  7

 75
    16
147
1.0
 76
     0
 77
     2
 78
   300
148
0.0
149
0.0
100
AcDbLayout
  1
Layout2
 70
     1
 71
     2
 10
0.0
 20
0.0
 11
12.0
 21
9.0
 12
0.0
 22
0.0
 32
0.0
 14
0.0
 24
0.0
 34
0.0
 15
0.0
 25
0.0
 35
0.0
146
0.0
 13
0.0
 23
0.0
 33
0.0
 16
1.0
 26
0.0
 36
0.0
 17
0.0
 27
1.0
 37
0.0
 76
     0
330
70
  0
LAYOUT
  5
6F
102
{ACAD_REACTORS
330
62
102
}
330
62
100
AcDbPlotSettings
  1

  2

  4

  6

 40
0.0
 41
0.0
 42
0.0
 43
0.0
 44
0.0
 45
0.0
 46
0.0
 47
0.0
 48
0.0
 49
0.0
140
0.0
141
0.0
142
1.0
143
1.0
 70
  1712
 72
     0
 73
     0
 74
     0
  7

 75
     0
147
1.0
 76
     0
 77
     2
 78
   300
148
0.0
149
0.0
100
AcDbLayout
  1
Model
 70
     1
 71
     0
 10
0.0
 20
0.0
 11
12.0
 21
9.0
 12
0.0
 22
0.0
 32
0.0
 14
0.0
 24
0.0
 34
0.0
 15
0.0
 25
0.0
 35
0.0
146
0.0
 13
0.0
 23
0.0
 33
0.0
 16
1.0
 26
0.0
 36
0.0
 17
0.0
 27
1.0
 37
0.0
 76
     0
330
6C
331
57
  0
MATERIAL
  5
19
102
{ACAD_XDICTIONARY
360
1A
102
}
102
{ACAD_REACTORS
330
10
102
}
330
10
100
AcDbMaterial
  1
ByBlock
 72
     0
 43
0.0208333333333333
 43
0.0
 43
0.0
 43
0.0
 43
0.0
 43
0.0208333333333333
 43
0.0
 43
0.0
 43
0.0
 43
0.0
 43
1.0
 43
0.0
 43
0.0
 43
0.0
 43
0.0
 43
1.0
 77
     0
 47
0.0208333333333333
 47
0.0
 47
0.0
 47
0.0
 47
0.0
 47
0.0208333333333333
 47
0.0
 47
0.0
 47
0.0
 47
0.0
 47
1.0
 47
0.0
 47
0.0
 47
0.0
 47
0.0
 47
1.0
171
     0
 49
0.0208333333333333
 49
0.0
 49
0.0
 49
0.0
 49
0.0
 49
0.0208333333333333
 49
0.0
 49
0.0
 49
0.0
 49
0.0
 49
1.0
 49
0.0
 49
0.0
 49
0.0
 49
0.0
 49
1.0
175
     0
142
0.0208333333333333
142
0.0
142
0.0
142
0.0
142
0.0
142
0.0208333333333333
142
0.0
142
0.0
142
0.0
142
0.0
142
1.0
142
0.0
142
0.0
142
0.0
142
0.0
142
1.0
179
     0
144
0.0208333333333333
144
0.0
144
0.0
144
0.0
144
0.0
144
0.0208333333333333
144
0.0
144
0.0
144
0.0
144
0.0
144
1.0
144
0.0
144
0.0
144
0.0
144
0.0
144
1.0
147
0.0208333333333333
147
0.0
147
0.0
147
0.0
147
0.0
147
0.0208333333333333
147
0.0
147
0.0
147
0.0
147
0.0
147
1.0
147
0.0
147
0.0
147
0.0
147
0.0
147
1.0
  0
MATERIAL
  5
11
102
{ACAD_XDICTIONARY
360
12
102
}
102
{ACAD_REACTORS
330
10
102
}
330
10
100
AcDbMaterial
  1
ByLayer
 72
     0
 43
0.0208333333333333
 43
0.0
 43
0.0
 43
0.0
 43
0.0
 43
0.0208333333333333
 43
0.0
 43
0.0
 43
0.0
 43
0.0
 43
1.0
 43
0.0
 43
0.0
 43
0.0
 43
0.0
 43
1.0
 77
     0
 47
0.0208333333333333
 47
0.0
 47
0.0
 47
0.0
 47
0.0
 47
0.0208333333333333
 47
0.0
 47
0.0
 47
0.0
 47
0.0
 47
1.0
 47
0.0
 47
0.0
 47
0.0
 47
0.0
 47
1.0
171
     0
 49
0.0208333333333333
 49
0.0
 49
0.0
 49
0.0
 49
0.0
 49
0.0208333333333333
 49
0.0
 49
0.0
 49
0.0
 49
0.0
 49
1.0
 49
0.0
 49
0.0
 49
0.0
 49
0.0
 49
1.0
175
     0
142
0.0208333333333333
142
0.0
142
0.0
142
0.0
142
0.0
142
0.0208333333333333
142
0.0
142
0.0
142
0.0
142
0.0
142
1.0
142
0.0
142
0.0
142
0.0
142
0.0
142
1.0
179
     0
144
0.0208333333333333
144
0.0
144
0.0
144
0.0
144
0.0
144
0.0208333333333333
144
0.0
144
0.0
144
0.0
144
0.0
144
1.0
144
0.0
144
0.0
144
0.0
144
0.0
144
1.0
147
0.0208333333333333
147
0.0
147
0.0
147
0.0
147
0.0
147
0.0208333333333333
147
0.0
147
0.0
147
0.0
147
0.0
147
1.0
147
0.0
147
0.0
147
0.0
147
0.0
147
1.0
  0
MATERIAL
  5
21
102
{ACAD_XDICTIONARY
360
22
102
}
102
{ACAD_REACTORS
330
10
102
}
330
10
100
AcDbMaterial
  1
Global
 72
     0
 43
0.0208333333333333
 43
0.0
 43
0.0
 43
0.0
 43
0.0
 43
0.0208333333333333
 43
0.0
 43
0.0
 43
0.0
 43
0.0
 43
1.0
 43
0.0
 43
0.0
 43
0.0
 43
0.0
 43
1.0
 77
     0
 47
0.0208333333333333
 47
0.0
 47
0.0
 47
0.0
 47
0.0
 47
0.0208333333333333
 47
0.0
 47
0.0
 47
0.0
 47
0.0
 47
1.0
 47
0.0
 47
0.0
 47
0.0
 47
0.0
 47
1.0
171
     0
 49
0.0208333333333333
 49
0.0
 49
0.0
 49
0.0
 49
0.0
 49
0.0208333333333333
 49
0.0
 49
0.0
 49
0.0
 49
0.0
 49
1.0
 49
0.0
 49
0.0
 49
0.0
 49
0.0
 49
1.0
175
     0
142
0.0208333333333333
142
0.0
142
0.0
142
0.0
142
0.0
142
0.0208333333333333
142
0.0
142
0.0
142
0.0
142
0.0
142
1.0
142
0.0
142
0.0
142
0.0
142
0.0
142
1.0
179
     0
144
0.0208333333333333
144
0.0
144
0.0
144
0.0
144
0.0
144
0.0208333333333333
144
0.0
144
0.0
144
0.0
144
0.0
144
1.0
144
0.0
144
0.0
144
0.0
144
0.0
144
1.0
147
0.0208333333333333
147
0.0
147
0.0
147
0.0
147
0.0
147
0.0208333333333333
147
0.0
147
0.0
147
0.0
147
0.0
147
1.0
147
0.0
147
0.0
147
0.0
147
0.0
147
1.0
  0
MLEADERSTYLE
  5
67
102
{ACAD_XDICTIONARY
360
8FB
102
}
102
{ACAD_REACTORS
330
66
102
}
330
66
100
AcDbMLeaderStyle
170
     2
171
     1
172
     0
 90
        2
 40
0.0
 41
0.0
173
     1
 91
-1056964608
340
5B
 92
       -2
290
     1
 42
0.09
291
     1
 43
0.36
  3
Standard
 44
0.18
300

342
55
174
     1
178
     6
175
     1
176
     0
 93
-1056964608
 45
0.18
292
     0
297
     0
 46
0.18
 94
-1056964608
 47
1.0
 49
1.0
140
1.0
293
     1
141
0.0
294
     1
177
     0
142
1.0
295
     0
296
     0
143
0.125
1001
ACAD_MLEADERVER
1070
     2
  0
MLINESTYLE
  5
60
102
{ACAD_REACTORS
330
5F
102
}
330
5F
100
AcDbMlineStyle
  2
STANDARD
 70
     0
  3

 62
   256
 51
90.0
 52
90.0
 71
     2
 49
0.5
 62
   256
  6
BYLAYER
 49
-0.5
 62
   256
  6
BYLAYER
  0
ACDBPLACEHOLDER
  5
F
102
{ACAD_REACTORS
330
E
102
}
330
E
  0
SCALE
  5
43
102
{ACAD_REACTORS
330
42
102
}
330
42
100
AcDbScale
 70
     0
300
1:1
140
1.0
141
1.0
290
     1
  0
SCALE
  5
44
102
{ACAD_REACTORS
330
42
102
}
330
42
100
AcDbScale
 70
     0
300
1/128" = 1'-0"
140
0.0078125
141
12.0
290
     0
  0
SCALE
  5
45
102
{ACAD_REACTORS
330
42
102
}
330
42
100
AcDbScale
 70
     0
300
1/64" = 1'-0"
140
0.015625
141
12.0
290
     0
  0
SCALE
  5
46
102
{ACAD_REACTORS
330
42
102
}
330
42
100
AcDbScale
 70
     0
300
1/32" = 1'-0"
140
0.03125
141
12.0
290
     0
  0
SCALE
  5
47
102
{ACAD_REACTORS
330
42
102
}
330
42
100
AcDbScale
 70
     0
300
1/16" = 1'-0"
140
0.0625
141
12.0
290
     0
  0
SCALE
  5
48
102
{ACAD_REACTORS
330
42
102
}
330
42
100
AcDbScale
 70
     0
300
3/32" = 1'-0"
140
0.09375
141
12.0
290
     0
  0
SCALE
  5
49
102
{ACAD_REACTORS
330
42
102
}
330
42
100
AcDbScale
 70
     0
300
1/8" = 1'-0"
140
0.125
141
12.0
290
     0
  0
SCALE
  5
4A
102
{ACAD_REACTORS
330
42
102
}
330
42
100
AcDbScale
 70
     0
300
3/16" = 1'-0"
140
0.1875
141
12.0
290
     0
  0
SCALE
  5
4B
102
{ACAD_REACTORS
330
42
102
}
330
42
100
AcDbScale
 70
     0
300
1/4" = 1'-0"
140
0.25
141
12.0
290
     0
  0
SCALE
  5
4C
102
{ACAD_REACTORS
330
42
102
}
330
42
100
AcDbScale
 70
     0
300
3/8" = 1'-0"
140
0.375
141
12.0
290
     0
  0
SCALE
  5
4D
102
{ACAD_REACTORS
330
42
102
}
330
42
100
AcDbScale
 70
     0
300
1/2" = 1'-0"
140
0.5
141
12.0
290
     0
  0
SCALE
  5
4E
102
{ACAD_REACTORS
330
42
102
}
330
42
100
AcDbScale
 70
     0
300
3/4" = 1'-0"
140
0.75
141
12.0
290
     0
  0
SCALE
  5
4F
102
{ACAD_REACTORS
330
42
102
}
330
42
100
AcDbScale
 70
     0
300
1" = 1'-0"
140
1.0
141
12.0
290
     0
  0
SCALE
  5
50
102
{ACAD_REACTORS
330
42
102
}
330
42
100
AcDbScale
 70
     0
300
1-1/2" = 1'-0"
140
1.5
141
12.0
290
     0
  0
SCALE
  5
51
102
{ACAD_REACTORS
330
42
102
}
330
42
100
AcDbScale
 70
     0
300
3" = 1'-0"
140
3.0
141
12.0
290
     0
  0
SCALE
  5
52
102
{ACAD_REACTORS
330
42
102
}
330
42
100
AcDbScale
 70
     0
300
6" = 1'-0"
140
6.0
141
12.0
290
     0
  0
SCALE
  5
53
102
{ACAD_REACTORS
330
42
102
}
330
42
100
AcDbScale
 70
     0
300
1'-0" = 1'-0"
140
12.0
141
12.0
290
     0
  0
TABLESTYLE
  5
65
102
{ACAD_XDICTIONARY
360
1030
102
}
102
{ACAD_REACTORS
330
64
102
}
330
64
100
AcDbTableStyle
  3
Standard
 70
     0
 71
     0
 40
0.06
 41
0.06
280
     0
281
     0
  7
Standard
140
0.18
170
     2
 62
     0
 63
     7
283
     0
274
    -2
284
     1
 64
     0
275
    -2
285
     1
 65
     0
276
    -2
286
     1
 66
     0
277
    -2
287
     1
 67
     0
278
    -2
288
     1
 68
     0
279
    -2
289
     1
 69
     0
  7
Standard
140
0.25
170
     5
 62
     0
 63
     7
283
     0
274
    -2
284
     1
 64
     0
275
    -2
285
     1
 65
     0
276
    -2
286
     1
 66
     0
277
    -2
287
     1
 67
     0
278
    -2
288
     1
 68
     0
279
    -2
289
     1
 69
     0
  7
Standard
140
0.18
170
     5
 62
     0
 63
     7
283
     0
274
    -2
284
     1
 64
     0
275
    -2
285
     1
 65
     0
276
    -2
286
     1
 66
     0
277
    -2
287
     1
 67
     0
278
    -2
288
     1
 68
     0
279
    -2
289
     1
 69
     0
  0
VISUALSTYLE
  5
2F
102
{ACAD_XDICTIONARY
360
1313
102
}
102
{ACAD_REACTORS
330
29
102
}
330
29
100
AcDbVisualStyle
  2

 70
     4
 71
     0
 72
     2
 73
     0
 90
        0
 40
-0.6
 41
-30.0
 62
     5
 63
     7
421
 16777215
 74
     1
 91
        4
 64
     7
 65
   257
 75
     1
175
     1
 42
1.0
 92
        0
 66
   257
 43
1.0
 76
     1
 77
     6
 78
     2
 67
     7
 79
     5
170
     0
171
     0
290
     0
174
     0
 93
        1
 44
0.0
173
     0
291
     0
 45
0.0
1001
ACAD
1000
AcDbSavedByObjectVersion
1070
     0
  0
VISUALSTYLE
  5
936
102
{ACAD_XDICTIONARY
360
1372
102
}
102
{ACAD_REACTORS
330
29
102
}
330
29
100
AcDbVisualStyle
  2

 70
     6
 71
     1
 72
     2
 73
     2
 90
        0
 40
-0.6
 41
-30.0
 62
     5
 63
     7
421
 16777215
 74
     2
 91
        2
 64
     7
 65
   257
 75
     2
175
     1
 42
179.0
 92
        0
 66
   257
 43
1.0
 76
     1
 77
     6
 78
     2
 67
     7
 79
     3
170
     0
171
     0
290
     0
174
     0
 93
        1
 44
0.0
173
     0
291
     0
 45
0.0
1001
ACAD
1000
AcDbSavedByObjectVersion
1070
     0
  0
VISUALSTYLE
  5
935
102
{ACAD_XDICTIONARY
360
1370
102
}
102
{ACAD_REACTORS
330
29
102
}
330
29
100
AcDbVisualStyle
  2

 70
     5
 71
     0
 72
     2
 73
     0
 90
        0
 40
-0.6
 41
-30.0
 62
     5
 63
     7
421
 16777215
 74
     1
 91
        4
 64
     7
 65
   257
 75
     1
175
     1
 42
1.0
 92
        0
 66
   257
 43
1.0
 76
     1
 77
     6
 78
     2
 67
     7
 79
     5
170
     0
171
     0
290
     0
174
     0
 93
        1
 44
0.0
173
     0
291
     0
 45
0.0
1001
ACAD
1000
AcDbSavedByObjectVersion
1070
     0
  0
VISUALSTYLE
  5
2E
102
{ACAD_XDICTIONARY
360
1311
102
}
102
{ACAD_REACTORS
330
29
102
}
330
29
100
AcDbVisualStyle
  2

 70
     7
 71
     1
 72
     0
 73
     1
 90
        0
 40
-0.6
 41
-30.0
 62
     5
 63
     7
421
 16777215
 74
     0
 91
        4
 64
     7
 65
   257
 75
     1
175
     1
 42
1.0
 92
        8
 66
     7
 43
1.0
 76
     1
 77
     6
 78
     2
 67
     7
 79
     5
170
     0
171
     0
290
     0
174
     0
 93
        1
 44
0.0
173
     0
291
     1
 45
0.0
1001
ACAD
1000
AcDbSavedByObjectVersion
1070
     0
  0
VISUALSTYLE
  5
35
102
{ACAD_XDICTIONARY
360
131F
102
}
102
{ACAD_REACTORS
330
29
102
}
330
29
100
AcDbVisualStyle
  2

 70
    12
 71
     2
 72
     2
 73
     0
 90
        0
 40
-0.6
 41
-30.0
 62
     5
 63
     7
421
 16777215
 74
     1
 91
        4
 64
     7
 65
   257
 75
     1
175
     1
 42
1.0
 92
        8
 66
     7
 43
1.0
 76
     1
 77
     6
 78
     2
 67
     7
 79
     5
170
     0
171
     0
290
     0
174
     0
 93
        1
 44
50.0
173
     0
291
     1
 45
0.0
1001
ACAD
1000
AcDbSavedByObjectVersion
1070
     0
  0
VISUALSTYLE
  5
39
102
{ACAD_XDICTIONARY
360
1327
102
}
102
{ACAD_REACTORS
330
29
102
}
330
29
100
AcDbVisualStyle
  2

 70
    16
 71
     2
 72
     2
 73
     3
 90
        0
 40
-0.6
 41
-30.0
 62
     5
 63
     8
421
  8421504
 74
     1
 91
        4
 64
     7
 65
   257
 75
     1
175
     1
 42
1.0
 92
        8
 66
     8
424
  8421504
 43
1.0
 76
     1
 77
     6
 78
     2
 67
     7
 79
     5
170
     0
171
     0
290
     0
174
     0
 93
        1
 44
0.0
173
     0
291
     1
 45
0.0
1001
ACAD
1000
AcDbSavedByObjectVersion
1070
     0
  0
VISUALSTYLE
  5
32
102
{ACAD_XDICTIONARY
360
1319
102
}
102
{ACAD_REACTORS
330
29
102
}
330
29
100
AcDbVisualStyle
  2

 70
     9
 71
     3
 72
     2
 73
     0
 90
        0
 40
-0.6
 41
-30.0
 62
     5
 63
     7
421
 16777215
 74
     2
 91
        2
 64
     7
 65
   257
 75
     1
175
     1
 42
179.0
 92
        8
 66
     7
 43
1.0
 76
     1
 77
     6
 78
     2
 67
     7
 79
     3
170
     0
171
     0
290
     0
174
     0
 93
        1
 44
0.0
173
     0
291
     0
 45
0.0
1001
ACAD
1000
AcDbSavedByObjectVersion
1070
     0
  0
VISUALSTYLE
  5
34
102
{ACAD_XDICTIONARY
360
131D
102
}
102
{ACAD_REACTORS
330
29
102
}
330
29
100
AcDbVisualStyle
  2

 70
    11
 71
     2
 72
     2
 73
     0
 90
        0
 40
-0.6
 41
-30.0
 62
     5
 63
     7
421
 16777215
 74
     1
 91
        4
 64
     7
 65
   257
 75
     1
175
     1
 42
1.0
 92
        8
 66
     7
 43
1.0
 76
     1
 77
     6
 78
     2
 67
     7
 79
     5
170
     0
171
     0
290
     0
174
     0
 93
        1
 44
-50.0
173
     0
291
     1
 45
0.0
1001
ACAD
1000
AcDbSavedByObjectVersion
1070
     0
  0
VISUALSTYLE
  5
41
102
{ACAD_XDICTIONARY
360
1337
102
}
102
{ACAD_REACTORS
330
29
102
}
330
29
100
AcDbVisualStyle
  2

 70
    22
 71
     2
 72
     2
 73
     0
 90
        0
 40
-0.6
 41
-30.0
 62
     5
 63
     7
421
 16777215
 74
     1
 91
        4
 64
     7
 65
   257
 75
     1
175
     1
 42
1.0
 92
        8
 66
     7
 43
1.0
 76
     1
 77
     6
 78
     2
 67
     7
 79
     5
170
     0
171
     0
290
     0
174
     0
 93
        1
 44
0.0
173
     0
291
     1
 45
0.0
1001
ACAD
1000
AcDbSavedByObjectVersion
1070
     0
  0
VISUALSTYLE
  5
38
102
{ACAD_XDICTIONARY
360
1325
102
}
102
{ACAD_REACTORS
330
29
102
}
330
29
100
AcDbVisualStyle
  2

 70
    15
 71
     2
 72
     2
 73
     0
 90
        0
 40
-0.6
 41
-30.0
 62
     5
 63
     7
421
 16777215
 74
     1
 91
        4
 64
     7
 65
   257
 75
     1
175
     1
 42
1.0
 92
        8
 66
     7
 43
1.0
 76
     1
 77
     6
 78
     2
 67
     7
 79
     5
170
     0
171
     0
290
     0
174
     0
 93
        1
 44
0.0
173
     0
291
     1
 45
0.0
1001
ACAD
1000
AcDbSavedByObjectVersion
1070
     0
  0
VISUALSTYLE
  5
2A
102
{ACAD_XDICTIONARY
360
1309
102
}
102
{ACAD_REACTORS
330
29
102
}
330
29
100
AcDbVisualStyle
  2

 70
     0
 71
     2
 72
     1
 73
     1
 90
        2
 40
-0.6
 41
30.0
 62
     5
 63
     7
421
 16777215
 74
     0
 91
        0
 64
     7
 65
   257
 75
     1
175
     1
 42
1.0
 92
        8
 66
     7
 43
1.0
 76
     1
 77
     6
 78
     2
 67
     7
 79
     5
170
     0
171
     0
290
     0
174
     0
 93
       13
 44
0.0
173
     0
291
     1
 45
0.0
1001
ACAD
1000
AcDbSavedByObjectVersion
1070
     0
  0
VISUALSTYLE
  5
2B
102
{ACAD_XDICTIONARY
360
130B
102
}
102
{ACAD_REACTORS
330
29
102
}
330
29
100
AcDbVisualStyle
  2

 70
     1
 71
     2
 72
     1
 73
     1
 90
        2
 40
-0.6
 41
30.0
 62
     5
 63
     7
421
 16777215
 74
     1
 91
        0
 64
     7
 65
   257
 75
     1
175
     1
 42
1.0
 92
        0
 66
   257
 43
1.0
 76
     1
 77
     6
 78
     2
 67
     7
 79
     5
170
     0
171
     0
290
     0
174
     0
 93
       13
 44
0.0
173
     0
291
     1
 45
0.0
1001
ACAD
1000
AcDbSavedByObjectVersion
1070
     0
  0
VISUALSTYLE
  5
2C
102
{ACAD_XDICTIONARY
360
130D
102
}
102
{ACAD_REACTORS
330
29
102
}
330
29
100
AcDbVisualStyle
  2

 70
     2
 71
     2
 72
     2
 73
     1
 90
        2
 40
-0.6
 41
30.0
 62
     5
 63
     7
421
 16777215
 74
     0
 91
        0
 64
     7
 65
   257
 75
     1
175
     1
 42
1.0
 92
        0
 66
     7
 43
1.0
 76
     1
 77
     6
 78
     2
 67
     7
 79
     5
170
     0
171
     0
290
     0
174
     0
 93
       13
 44
0.0
173
     0
291
     1
 45
0.0
1001
ACAD
1000
AcDbSavedByObjectVersion
1070
     0
  0
VISUALSTYLE
  5
2D
102
{ACAD_XDICTIONARY
360
130F
102
}
102
{ACAD_REACTORS
330
29
102
}
330
29
100
AcDbVisualStyle
  2

 70
     3
 71
     2
 72
     2
 73
     1
 90
        2
 40
-0.6
 41
30.0
 62
     5
 63
     7
421
 16777215
 74
     1
 91
        0
 64
     7
 65
   257
 75
     1
175
     1
 42
1.0
 92
        0
 66
   257
 43
1.0
 76
     1
 77
     6
 78
     2
 67
     7
 79
     5
170
     0
171
     0
290
     0
174
     0
 93
       13
 44
0.0
173
     0
291
     1
 45
0.0
1001
ACAD
1000
AcDbSavedByObjectVersion
1070
     0
  0
VISUALSTYLE
  5
31
102
{ACAD_XDICTIONARY
360
1317
102
}
102
{ACAD_REACTORS
330
29
102
}
330
29
100
AcDbVisualStyle
  2

 70
     6
 71
     1
 72
     2
 73
     2
 90
        0
 40
-0.6
 41
-30.0
 62
     5
 63
     7
421
 16777215
 74
     2
 91
        2
 64
     7
 65
   257
 75
     2
175
     1
 42
40.0
 92
        0
 66
   257
 43
1.0
 76
     1
 77
     6
 78
     2
 67
     7
 79
     3
170
     0
171
     0
290
     0
174
     0
 93
        1
 44
0.0
173
     0
291
     0
 45
0.0
1001
ACAD
1000
AcDbSavedByObjectVersion
1070
     0
  0
VISUALSTYLE
  5
3F
102
{ACAD_XDICTIONARY
360
1333
102
}
102
{ACAD_REACTORS
330
29
102
}
330
29
100
AcDbVisualStyle
  2

 70
    20
 71
     2
 72
     2
 73
     0
 90
        0
 40
-0.6
 41
-30.0
 62
     5
 63
     7
421
 16777215
 74
     1
 91
        4
 64
     7
 65
   257
 75
     1
175
     1
 42
1.0
 92
       10
 66
     7
 43
1.0
 76
     1
 77
     6
 78
     2
 67
     7
 79
     5
170
     0
171
     0
290
     0
174
     0
 93
        1
 44
0.0
173
     0
291
     1
 45
0.0
1001
ACAD
1000
AcDbSavedByObjectVersion
1070
     0
  0
VISUALSTYLE
  5
37
102
{ACAD_XDICTIONARY
360
1323
102
}
102
{ACAD_REACTORS
330
29
102
}
330
29
100
AcDbVisualStyle
  2

 70
    14
 71
     2
 72
     2
 73
     0
 90
        0
 40
-0.6
 41
-30.0
 62
     5
 63
     7
421
 16777215
 74
     1
 91
        4
 64
     7
 65
   257
 75
     7
175
     7
 42
1.0
 92
        8
 66
     7
 43
1.0
 76
     1
 77
     6
 78
     2
 67
     7
 79
     5
170
     0
171
     0
290
     0
174
     0
 93
        1
 44
0.0
173
     0
291
     1
 45
0.0
1001
ACAD
1000
AcDbSavedByObjectVersion
1070
     0
  0
VISUALSTYLE
  5
40
102
{ACAD_XDICTIONARY
360
1335
102
}
102
{ACAD_REACTORS
330
29
102
}
330
29
100
AcDbVisualStyle
  2

 70
    21
 71
     2
 72
     2
 73
     0
 90
        0
 40
-0.6
 41
-30.0
 62
     5
 63
     7
421
 16777215
 74
     1
 91
        4
 64
     7
 65
   257
 75
     1
175
     1
 42
1.0
 92
        9
 66
     7
 43
1.0
 76
     1
 77
     6
 78
     2
 67
     7
 79
     5
170
     0
171
     0
290
     0
174
     0
 93
        1
 44
0.0
173
     0
291
     1
 45
0.0
1001
ACAD
1000
AcDbSavedByObjectVersion
1070
     0
  0
VISUALSTYLE
  5
33
102
{ACAD_XDICTIONARY
360
131B
102
}
102
{ACAD_REACTORS
330
29
102
}
330
29
100
AcDbVisualStyle
  2

 70
     8
 71
     2
 72
     3
 73
     0
 90
        2
 40
-0.6
 41
30.0
 62
     5
 63
     7
421
 16777215
 74
     0
 91
        0
 64
     7
 65
   257
 75
     1
175
     1
 42
1.0
 92
        8
 66
   257
 43
1.0
 76
     1
 77
     6
 78
     2
 67
     7
 79
     3
170
     0
171
     0
290
     0
174
     0
 93
       13
 44
0.0
173
     0
291
     0
 45
0.0
1001
ACAD
1000
AcDbSavedByObjectVersion
1070
     0
  0
VISUALSTYLE
  5
3E
102
{ACAD_XDICTIONARY
360
1331
102
}
102
{ACAD_REACTORS
330
29
102
}
330
29
100
AcDbVisualStyle
  2

 70
    27
 71
     2
 72
     2
 73
     1
 90
        2
 40
-0.6
 41
30.0
 62
     5
 63
     7
421
 16777215
 74
     0
 91
        4
 64
     7
 65
   257
 75
     1
175
     1
 42
1.0
 92
        8
 66
   257
 43
1.0
 76
     1
 77
     6
 78
     2
 67
     8
425
  7895160
 79
     3
170
     0
171
     0
290
     0
174
     0
 93
        5
 44
0.0
173
     0
291
     0
 45
0.0
1001
ACAD
1000
AcDbSavedByObjectVersion
1070
     0
  0
VISUALSTYLE
  5
3D
102
{ACAD_XDICTIONARY
360
132F
102
}
102
{ACAD_REACTORS
330
29
102
}
330
29
100
AcDbVisualStyle
  2

 70
    26
 71
     2
 72
     2
 73
     1
 90
        2
 40
-0.6
 41
30.0
 62
     5
 63
     7
421
 16777215
 74
     1
 91
       10
 64
     7
 65
   257
 75
     2
175
     1
 42
1.0
 92
        8
 66
   257
 43
1.0
 76
     1
 77
     6
 78
     2
 67
     7
 79
     3
170
     0
171
     0
290
     0
174
     0
 93
        5
 44
0.0
173
     0
291
     0
 45
0.0
1001
ACAD
1000
AcDbSavedByObjectVersion
1070
     0
  0
VISUALSTYLE
  5
3A
102
{ACAD_XDICTIONARY
360
1329
102
}
102
{ACAD_REACTORS
330
29
102
}
330
29
100
AcDbVisualStyle
  2

 70
    23
 71
     2
 72
     2
 73
     3
 90
        0
 40
-0.6
 41
-30.0
 62
     5
 63
     7
421
 16777215
 74
     2
 91
        2
 64
     7
 65
     7
 75
     1
175
     1
 42
40.0
 92
        8
 66
     7
 43
1.0
 76
     1
 77
     6
 78
     2
 67
     7
 79
     3
170
     0
171
     0
290
     0
174
     0
 93
        1
 44
0.0
173
     0
291
     0
 45
0.0
1001
ACAD
1000
AcDbSavedByObjectVersion
1070
     0
  0
VISUALSTYLE
  5
3B
102
{ACAD_XDICTIONARY
360
132B
102
}
102
{ACAD_REACTORS
330
29
102
}
330
29
100
AcDbVisualStyle
  2

 70
    24
 71
     1
 72
     2
 73
     2
 90
        0
 40
-0.6
 41
-30.0
 62
     5
 63
     7
421
 16777215
 74
     2
 91
        2
 64
     7
 65
     7
 75
     1
175
     1
 42
40.0
 92
       11
 66
     7
 43
1.0
 76
     1
 77
     6
 78
     2
 67
     7
 79
     6
170
     0
171
     0
290
     0
174
     0
 93
        1
 44
0.0
173
     0
291
     0
 45
0.0
1001
ACAD
1000
AcDbSavedByObjectVersion
1070
     0
  0
VISUALSTYLE
  5
36
102
{ACAD_XDICTIONARY
360
1321
102
}
102
{ACAD_REACTORS
330
29
102
}
330
29
100
AcDbVisualStyle
  2

 70
    13
 71
     2
 72
     2
 73
     0
 90
        0
 40
-0.6
 41
-30.0
 62
     5
 63
     7
421
 16777215
 74
     1
 91
        4
 64
     7
 65
   257
 75
     1
175
     1
 42
1.0
 92
       12
 66
     7
 43
1.0
 76
     1
 77
     6
 78
     2
 67
     7
 79
     5
170
     0
171
     0
290
     0
174
     0
 93
        1
 44
0.0
173
     0
291
     1
 45
0.0
1001
ACAD
1000
AcDbSavedByObjectVersion
1070
     0
  0
VISUALSTYLE
  5
30
102
{ACAD_XDICTIONARY
360
1315
102
}
102
{ACAD_REACTORS
330
29
102
}
330
29
100
AcDbVisualStyle
  2

 70
     5
 71
     0
 72
     2
 73
     0
 90
        0
 40
-0.6
 41
-30.0
 62
     5
 63
     7
421
 16777215
 74
     1
 91
        4
 64
     7
 65
   257
 75
     1
175
     1
 42
1.0
 92
        0
 66
   257
 43
1.0
 76
     1
 77
     6
 78
     2
 67
     7
 79
     3
170
     0
171
     0
290
     0
174
     0
 93
        1
 44
0.0
173
     0
291
     0
 45
0.0
1001
ACAD
1000
AcDbSavedByObjectVersion
1070
     0
  0
VISUALSTYLE
  5
3C
102
{ACAD_XDICTIONARY
360
132D
102
}
102
{ACAD_REACTORS
330
29
102
}
330
29
100
AcDbVisualStyle
  2

 70
    25
 71
     2
 72
     2
 73
     1
 90
        1
 40
0.5
 41
-30.0
 62
     5
 63
     7
421
 16777215
 74
     1
 91
        0
 64
     7
 65
   257
 75
     1
175
     1
 42
1.0
 92
        8
 66
     7
 43
1.0
 76
     1
 77
     6
 78
     2
 67
     7
 79
     3
170
     0
171
     0
290
     0
174
     0
 93
       13
 44
0.0
173
     0
291
     0
 45
0.0
1001
ACAD
1000
AcDbSavedByObjectVersion
1070
     0
  0
DICTIONARYVAR
  5
933
102
{ACAD_REACTORS
330
930
102
}
330
930
100
DictionaryVariables
280
     0
  1
1:1
  0
DICTIONARYVAR
  5
932
102
{ACAD_REACTORS
330
930
102
}
330
930
100
DictionaryVariables
280
     0
  1
STANDARD
  0
DICTIONARYVAR
  5
931
102
{ACAD_REACTORS
330
930
102
}
330
930
100
DictionaryVariables
280
     0
  1
STANDARD
  0
DICTIONARYVAR
  5
102C
102
{ACAD_REACTORS
330
930
102
}
330
930
100
DictionaryVariables
280
     0
  1
0
  0
DICTIONARYVAR
  5
102D
102
{ACAD_REACTORS
330
930
102
}
330
930
100
DictionaryVariables
280
     0
  1
0
  0
DICTIONARYVAR
  5
102B
102
{ACAD_REACTORS
330
930
102
}
330
930
100
DictionaryVariables
280
     0
  1
2
  0
DICTIONARYVAR
  5
102A
102
{ACAD_REACTORS
330
930
102
}
330
930
100
DictionaryVariables
280
     0
  1
1
  0
DICTIONARYVAR
  5
102E
102
{ACAD_REACTORS
330
930
102
}
330
930
100
DictionaryVariables
280
     0
  1
0
  0
DICTIONARYVAR
  5
12EF
102
{ACAD_REACTORS
330
930
102
}
330
930
100
DictionaryVariables
280
     0
  1
2
  0
DICTIONARY
  5
9A6
102
{ACAD_REACTORS
330
99C
102
}
330
99C
100
AcDbDictionary
281
     1
  0
DICTIONARY
  5
1A
330
19
100
AcDbDictionary
280
     1
281
     1
  3
ACAD_XREC_ROUNDTRIP
360
1046
  3
BUMPTILE
360
1C
  3
DIFFUSETILE
360
1B
  3
OPACITYTILE
360
1F
  3
REFLECTIONTILE
360
1E
  3
REFRACTIONTILE
360
20
  3
SPECULARTILE
360
1D
  0
DICTIONARY
  5
12
330
11
100
AcDbDictionary
280
     1
281
     1
  3
ACAD_XREC_ROUNDTRIP
360
1045
  3
BUMPTILE
360
14
  3
DIFFUSETILE
360
13
  3
FBXASSET
360
9C
  3
OPACITYTILE
360
17
  3
REFLECTIONTILE
360
16
  3
REFRACTIONTILE
360
18
  3
SPECULARTILE
360
15
  0
DICTIONARY
  5
22
330
21
100
AcDbDictionary
280
     1
281
     1
  3
ACAD_XREC_ROUNDTRIP
360
1047
  3
BUMPTILE
360
24
  3
DIFFUSETILE
360
23
  3
OPACITYTILE
360
27
  3
REFLECTIONTILE
360
26
  3
REFRACTIONTILE
360
28
  3
SPECULARTILE
360
25
  0
DICTIONARY
  5
8FB
330
67
100
AcDbDictionary
280
     1
281
     1
  3
ACAD_XREC_ROUNDTRIP
360
8FC
  0
DICTIONARY
  5
1030
330
65
100
AcDbDictionary
280
     1
281
     1
  3
ACAD_ROUNDTRIP_2008_TABLESTYLE_CELLSTYLEMAP
360
12F0
  3
ACAD_XREC_ROUNDTRIP
360
1339
  0
DICTIONARY
  5
1313
330
2F
100
AcDbDictionary
280
     1
281
     1
  3
ACAD_XREC_ROUNDTRIP
360
1314
  0
DICTIONARY
  5
1372
330
936
100
AcDbDictionary
280
     1
281
     1
  3
ACAD_XREC_ROUNDTRIP
360
1373
  0
DICTIONARY
  5
1370
330
935
100
AcDbDictionary
280
     1
281
     1
  3
ACAD_XREC_ROUNDTRIP
360
1371
  0
DICTIONARY
  5
1311
330
2E
100
AcDbDictionary
280
     1
281
     1
  3
ACAD_XREC_ROUNDTRIP
360
1312
  0
DICTIONARY
  5
131F
330
35
100
AcDbDictionary
280
     1
281
     1
  3
ACAD_XREC_ROUNDTRIP
360
1320
  0
DICTIONARY
  5
1327
330
39
100
AcDbDictionary
280
     1
281
     1
  3
ACAD_XREC_ROUNDTRIP
360
1328
  0
DICTIONARY
  5
1319
330
32
100
AcDbDictionary
280
     1
281
     1
  3
ACAD_XREC_ROUNDTRIP
360
131A
  0
DICTIONARY
  5
131D
330
34
100
AcDbDictionary
280
     1
281
     1
  3
ACAD_XREC_ROUNDTRIP
360
131E
  0
DICTIONARY
  5
1337
330
41
100
AcDbDictionary
280
     1
281
     1
  3
ACAD_XREC_ROUNDTRIP
360
1338
  0
DICTIONARY
  5
1325
330
38
100
AcDbDictionary
280
     1
281
     1
  3
ACAD_XREC_ROUNDTRIP
360
1326
  0
DICTIONARY
  5
1309
330
2A
100
AcDbDictionary
280
     1
281
     1
  3
ACAD_XREC_ROUNDTRIP
360
130A
  0
DICTIONARY
  5
130B
330
2B
100
AcDbDictionary
280
     1
281
     1
  3
ACAD_XREC_ROUNDTRIP
360
130C
  0
DICTIONARY
  5
130D
330
2C
100
AcDbDictionary
280
     1
281
     1
  3
ACAD_XREC_ROUNDTRIP
360
130E
  0
DICTIONARY
  5
130F
330
2D
100
AcDbDictionary
280
     1
281
     1
  3
ACAD_XREC_ROUNDTRIP
360
1310
  0
DICTIONARY
  5
1317
330
31
100
AcDbDictionary
280
     1
281
     1
  3
ACAD_XREC_ROUNDTRIP
360
1318
  0
DICTIONARY
  5
1333
330
3F
100
AcDbDictionary
280
     1
281
     1
  3
ACAD_XREC_ROUNDTRIP
360
1334
  0
DICTIONARY
  5
1323
330
37
100
AcDbDictionary
280
     1
281
     1
  3
ACAD_XREC_ROUNDTRIP
360
1324
  0
DICTIONARY
  5
1335
330
40
100
AcDbDictionary
280
     1
281
     1
  3
ACAD_XREC_ROUNDTRIP
360
1336
  0
DICTIONARY
  5
131B
330
33
100
AcDbDictionary
280
     1
281
     1
  3
ACAD_XREC_ROUNDTRIP
360
131C
  0
DICTIONARY
  5
1331
330
3E
100
AcDbDictionary
280
     1
281
     1
  3
ACAD_XREC_ROUNDTRIP
360
1332
  0
DICTIONARY
  5
132F
330
3D
100
AcDbDictionary
280
     1
281
     1
  3
ACAD_XREC_ROUNDTRIP
360
1330
  0
DICTIONARY
  5
1329
330
3A
100
AcDbDictionary
280
     1
281
     1
  3
ACAD_XREC_ROUNDTRIP
360
132A
  0
DICTIONARY
  5
132B
330
3B
100
AcDbDictionary
280
     1
281
     1
  3
ACAD_XREC_ROUNDTRIP
360
132C
  0
DICTIONARY
  5
1321
330
36
100
AcDbDictionary
280
     1
281
     1
  3
ACAD_XREC_ROUNDTRIP
360
1322
  0
DICTIONARY
  5
1315
330
30
100
AcDbDictionary
280
     1
281
     1
  3
ACAD_XREC_ROUNDTRIP
360
1316
  0
DICTIONARY
  5
132D
330
3C
100
AcDbDictionary
280
     1
281
     1
  3
ACAD_XREC_ROUNDTRIP
360
132E
  0
XRECORD
  5
1046
102
{ACAD_REACTORS
330
1A
102
}
330
1A
100
AcDbXrecord
280
     1
102
MATERIAL
148
0.0
149
0.0
149
0.0
 93
        0
 94
      127
282
     0
 72
     0
 77
     0
171
     0
175
     0
179
     0
273
     0
  0
XRECORD
  5
1C
102
{ACAD_REACTORS
330
1A
102
}
330
1A
100
AcDbXrecord
280
     1
270
     1
271
     1
  0
XRECORD
  5
1B
102
{ACAD_REACTORS
330
1A
102
}
330
1A
100
AcDbXrecord
280
     1
270
     1
271
     1
  0
XRECORD
  5
1F
102
{ACAD_REACTORS
330
1A
102
}
330
1A
100
AcDbXrecord
280
     1
270
     1
271
     1
  0
XRECORD
  5
1E
102
{ACAD_REACTORS
330
1A
102
}
330
1A
100
AcDbXrecord
280
     1
270
     1
271
     1
  0
XRECORD
  5
20
102
{ACAD_REACTORS
330
1A
102
}
330
1A
100
AcDbXrecord
280
     1
270
     1
271
     1
  0
XRECORD
  5
1D
102
{ACAD_REACTORS
330
1A
102
}
330
1A
100
AcDbXrecord
280
     1
270
     1
271
     1
  0
XRECORD
  5
1045
102
{ACAD_REACTORS
330
12
102
}
330
12
100
AcDbXrecord
280
     1
102
MATERIAL
148
0.0
149
0.0
149
0.0
 93
        0
 94
      127
282
     0
 72
     0
 77
     0
171
     0
175
     0
179
     0
273
     0
  0
XRECORD
  5
14
102
{ACAD_REACTORS
330
12
102
}
330
12
100
AcDbXrecord
280
     1
270
     1
271
     1
  0
XRECORD
  5
13
102
{ACAD_REACTORS
330
12
102
}
330
12
100
AcDbXrecord
280
     1
270
     1
271
     1
  0
XRECORD
  5
9C
102
{ACAD_REACTORS
330
12
102
}
330
12
100
AcDbXrecord
280
     1
 70
     1
 90
1959938040
 71
     1
  1
F32B44BB-F7E1-4B35-ABCC-0ABA2651C29B
311
504B03040A00000800006855DA403DEE336E79000000790000001B0000006175746F6465736B2D64657369676E2D7061636B6167652E786D6C3C3F786D6C2076657273696F6E3D22312E302220656E636F64696E673D227574662D3822203F3E3C666F726D6174733E3C666F726D61743E687474703A2F2F736368656D612E
311
6175746F6465736B2E636F6D2F64657369676E2D7061636B6167652F323030393C2F666F726D61743E3C2F666F726D6174733E504B03041400060808006855DA40D486FD9CA0000000F4000000130000005B436F6E74656E745F54797065735D2E786D6C7D8EC10E82300C865F65E91D8A1E8C310C0EEA1BF002731658846E
311
D98AC1B77784ABF1D8FE5FBFBF75BBCE937A534CCEB38643598122B6FEE978D0B0485F9C41B54DDD7D022595594E1A469170414C76A4D9A4D207E29CF43ECE46F218070CC6BECC4078ACAA135ACF422C856C0E68EA1BF5669944DDD7BCDE7B1F8E415D77AECB980613C2E4AC91FC167A2B244592486606FC29C8FD7F045B9A
311
EF7053A7E60B504B03041400060808006855DA402DB6A2F7EC0000007C01000008000000636F72652E786D6C8D90416EC3201045AF82D856D8E038185B98A8AED313F40208888B128365A0EAF18B13476A775DCDE8CF7F33A3CF4FDFF30D7C993558EF7A480A0C8171CA6BEBA61EA678410C8293E0ABF7F1970D022767D3C3
311
4D86824FAB4FCB2E29EFA27131ABCE6BB38B3204132150B7DCF430A84F33CB42A6981DE15A2C525DE5640AF2EC329C92D5E071C4EABCCF5EAC59A160F43C8C0D3BA323ADDF51FDCA1A340C8CA12379A363D336746C5B5E6EB0E0D1CECFFB6A35321A0D45854985304515FD20B8AB0F1D695E30E930E6E566FF03A545FF134A
311
D6C543B5BFFBC00214243F721F085E6E59E4720F2AD72D37F103504B03041400060808006855DA4055019EA25F0000007C00000007000000636E782E786D6C4DCB3B0E80201045D1AD90E915ED2CF8AC45050C11660C8261F98AB1B07AC9C97D42D718D865D3E909258CFD00CCE24AC6E326A164D74DC0B4128928FF326038
311
472BA13128B1252AC747C6BAB984FC68F0B87FE8960A5C09FE86CFB69FBA01504B03041400060808006855DA40BCC44BA769010000020300000C0000006662782F636F72652E786D6C8D52ED8E8230107C95A67F2FA50511D0949AF3F49EE05EA042E588D092D2121FFF960FE37931E642529A999DDDD901BEBBB60D1A94ED
311
6BA3731C060C23A50B53D6BACAB177679261B413DC1AE37E9561A465AB723CC258F0CA1ADF2D5061B453DA01AA4DA91650F6BD7218150D5C72DC17DFAA9581F40E2AFA4BD0C9E2222B158401D0502778EF2C1840F390F1C4E27CBA723AE3827B5F970B5B9730AD3ED7CA629125C7FD21CD8E649DC49F247ECF52B2DF671959
311
871FC921DDA4C961B3E174140BEEEAF6E6AEB04A3A556211B130222C2151F215B26DBCDA86E91B0BB78C713A963F887C57FE53E46BED56D1627796F55884606422FE6C0B1139D4CB01FC50C1E91822BCA6841F8386402064274FCD6D8F0B40832A9CB13130A5F1776A908D573095A1E9E17466A1F3D400367BDA277AD1E775
311
0FF8805257604D3AB89EBC1BA7F379EA1245A72C19DC1569635BD9DCCDCD16EFE77DD05379611A63FFA3A6CBAA7409938E7FAFF801504B03041400060808006855DA4012A5AC807E0000009D0000000B0000006662782F636E782E786D6C4DCCD10A83201886E15B91FFDCA5D3D2400DAAED3E625944A6C3E9D8E5AF46073B
311
FAE0E1E355CD6773E86DE36B095E03BD1040D63FC2B8F859434E1396801AA36208E9EF06C80F9BD570301835C7909F278D761AB24BBBBAC5AF27569292FA2A18AE4A2630EF698925613D165D7DE79CB51D6F6F501855FC4AFB1E61F305504B03041400060808006855DA40B5742AD12D01000015020000310000006662782F
311
36383130393237332D363533372D344431352D383033442D3743394634343342433442452F636F72652E786D6C8D515B6EC32010BC0AE22B55651BFCC04E848994A43D412FE06292A2C460F1A872FC2EB523B57FF961D1ECCCEC6897EFEFD30D7D2BE7B5353DA639C1481969476D2E3D8EE19C7518ED0577D6863F348CCC30
311
A91E27180B7E7136CE2B24AD09CA04408D1DD50A0EDEAB8091BCC1A7C75E7EA969C8871880E1AFF93CC8EB705139CDA10D3CC17D7010002D43D28B05EB28D9966D95B1A66AB3FA449BAC23D5296B8FDBF7BAAE0EC7FAF0C68B4528788C7A5CE57A8438FAAC957BD62489050F7A7AC4974E0D418D58948496196159C93E28D9
311
D5D58EB6AF84EE08E145A2FF13C5797C5214B50955B9C65D641E0BCA8BA521F868E3E7ED1146DD67EB024AF3365EC9172C484E48D3548C760D2F162E6C004C59BD9AFA601D6C7873FD043A05567266B5E0453A1294DF0B424D07153F504B03041400060808006855DA40CDACE16E4E01000033030000300000006662782F36
311
383130393237332D363533372D344431352D383033442D3743394634343342433442452F636E782E786D6CD593CD6EC32010845F0571ADFC4362B9558489D4439FA0875E316C121A0C16E0AA79FB2E094973C9A1C75E90353BCCAC3E61BEFD9E2CF982108D770365754B0938E5B571FB812E6957BD50B2153C789FEE6C9438
311
39C140B34C05DF07BFCC45D2B0938B4DA85AE38E450C10FD12144494F34D62BD921603C0550B8A308DA035687233E2D70E02AE82E27822E900E4EDF583F8F113548ABCC9298237B943F07C96A63B1325CACA18071AD5012659CB25790DF1586B9964CDEA6BD7839D7E9348BE70AD5C8221B97CA0F9A4A26C542347DEE050F0
311
9802D22BA6749A810A39CFD62899107273365E3C822FC6A5BE2B5E83E003BA59BFEE3A0C3BCF044F6682E2500164024DC5AA65ABAAEDAB55FFCEDA4DB7DEB0E7A7966DDA9637D92EF8E8BD2D973006829F89F22E814B5430DEE4F1237CC547B409C8DA87D31F402280D27AA173CBF8CF7C9AF3FB465C01FF02F103504B0304
311
1400060808006855DA40B9B4E0469B0500007B100000340000006662782F36383130393237332D363533372D344431352D383033442D3743394634343342433442452F6F626A656374732E786D6CAD575B8F9B3814FE2B887D064292693B2B862A974E1575A7AD1AB5DA8791220386F18EB9C836D34C7FFD7E0643204DA6D9
311
555F001BFBF89CEF7CE7E2E0ED3EE7D613159295C58DEDBB13DBA2455C26ACC86EEC5AA5CE1BDB7A1B06A22CD560996D1524A737B69EB6C32013655D99A984A6A4E6EA68F676F9B725635A50DB8A3991F2C696F103CD894B6A5526543EBA0951C4CDD2BDEBBBEDC2B1D84C90EAE1486845042D1434C57C012956AB943F1E4E
311
6C2F0C3CFD3F0CF4D3AC9A9D5FE535F68CCF678554A4887F3AEC48CCCC9FAFDF4DAFAE9DABF97CE6CC5F4D7D6779BB5C3BFEEBD964F56AB5BA5EBCBBC6C1520948329A089ADAE17B6023581C78EDAF30A859A16653B3C438C813F489694FD9E1D4F203AF5DD35B678C3CA57E5C16058D1BAC8046639F119DD08A16097CCEA8
311
8466038426E3A1AF711CFC9EE9B13972387D1902C31D03419DEEDD7BA86919FD0313E4250C12926A06B6581A435BAE4E0E084765C9CD3F26AD9C282A18E116679120E2D90EB1542F09839118CD64A1A3415B6087F042FB7B4C1784D1AF797E4ACBB4E65CD3D80E9B28D82156A8928D66EC071507ED87C84027F84AB3E18D31
311
483D57D40EAF5B8ABC3962530BA4957292C1E53053EF9C4D8F0C5DE938DDACEDF0C36DB4DFEAD83D7D7825CA8A0AA5E9036A758EEBDE1A25A3937F91E7F406FB489503285F80FC4784FA4115F84DB0FD7C3F37A728410A999622876FAC89E54CF098587EF3D4DF83AFC0EB378FBD770E4F385B43F51BF01CDB30F4E500CE30
311
7802E14B3133A66D63C29136EE58018034492C5E620A79388DF676B841964356C62EC2431F2643DD277C069E118344D19C347817C0F2282D5E90A0015BC348A8D192DF2878F0D34FE9AC39D82C3B07EFD56FA1EB62BDFDB0AD454A627A67627A4D535630851277E0CD50A111E6238B1EE9F3F7522430F467BCB743BC737394
311
04DA1A730D7CD6E5743D389C3C3A20C6BEACD4E926F8C509304217D681FC3B2663CA3929685977E7BE583F50365A8875B06B26F705E65058409AF6CF510CA248C782551AC4BE5AF549D33D63DDD7CD4730D20E97CF7F91E761F68A0EB9372E792976D1F3AE4D4B27A1FE36E6B6C1C0D35240F72648BAF837A0EF1296A6B544
311
123C81EBB7CD6AE83B9D1690223AA96DB4CC613F828B0843DA4E2EAAB520A8A465B163A89B88BB93070CE50352C38046E0398D25E5E98E715EE7BB947154A35D4EAA3370FC7FFDA33AAF76242FEB429D913D521DD561ACFB88BDF23B51F1831D6E9BB7B344EE4D6872860CBA969CC06AE4DADBD974399F2F97CEEDEB77BE33
311
5FCEAE9CC572B572268BE562FAEACA5F4DAF979D9F5A4DC2A02B35C388869750DA825A30E3BEAF1BC48F490276784794BC7FDF8667F7FEBA71D10B071EF6A05EF61B17C913FA3E9AFC5AC061E549419BBCE234A785223A86EEF407FF42D0678C9469E73739C9E805523EBDDF1E1983990BF67DD6F14EBF1FED35B32B1D9027
311
85A8873A8F0AC2F8D1C6AC45D2AD8ACCE0D7F9A47FB785A61BEA91710C3A53597296200F265646CB9C2A64C30B8A90C8A904F5863D7D62EE1E17EC7E6A3B4445224E3B4D1E089A642E1116A0561DABF1BCF5079A3ADD57DDD828B7EE231E2653D816387363A349572CA6D28D50A0752BD4080797869D3C1A7F52641CBD76BB
311
A91FF7BB3436A392DC2FB9A47F3276B529DC18803452A16F404304EF34CA8441A39BF91FFF27C33B752CA2F019D5AAB7E530D11BD31C83106D8D32B70534318FE6E83D02F565B37CB7593342E4A25BD68B2468A53A8A88ACB92968FD8C4A8BF5670F1D8AB5F96455BCCEE0CBCB25398282CCB50E70B008AC30322BA240D5D5
311
9FF79F45899B6C6EDD3250E07E55E6795998C1C2DC84ADED03EEB5C93DD202D51712793F9DF8D3FBE62260EE26BB8848EA92443E62023E15AC8778E47830B2BD2DA202B53FFA759E76C21137376BCB94B439841AA20CB3AA86052D47412D448FBE4CEA58192EA85EBC0B78CD52A820D0C587FF02504B030414000608000068
311
55DA40000000000000000000000000350000006662782F36383130393237332D363533372D344431352D383033442D3743394634343342433442452F76657274696365732E62696E504B03041400060808006855DA40F270F1330600000004000000360000006662782F36383130393237332D363533372D344431352D3830
311
33442D3743394634343342433442452F747269616E676C65732E62696E636660600000504B03041400060800006855DA40000000000000000000000000370000006662782F36383130393237332D363533372D344431352D383033442D3743394634343342433442452F617474726962757465732E62696E504B0304140006
311
0808006855DA40D5987DFC8F00000041010000360000006662782F36383130393237332D363533372D344431352D383033442D3743394634343342433442452F6469726563746F72792E786D6C858F410EC2201045AF4266AF15DDB800BA74E7C21B903225242D6328188F2FA5C4183471359997F9FF81E89FF3C41E181647
311
5E02DF1F80A11FC8386F25A438EECEC07A250251FC3803E6F58C12560C4AD840E95E91C151A72936F496F35732D860FE635F62C8F2DA16B505C545B74125BAA2FA9E05D7CC053D063734D5C7665FD55B6B8D15D5E9BFEAFD8490FFA45E504B03041400060808006855DA403E1D8C6FFF000000A00100003B0000006662782F
311
36383130393237332D363533372D344431352D383033442D3743394634343342433442452F7265736F75726365732F636F72652E786D6C8D50594EC33010BD4A34BFC8899DB6CE22C7152570022E6039D360B5B12B2F88E3E3B441823F7E66466FD13C3D71FC5AAEC527FA609C1D8095140AB4DA4DC6CE03A478262D144729
311
BC73F1970C0AAB161C6085418AD9BB74DB20ED6C441B336ADD841BA842C00885BEE66380A03F7051A54A312BC2A5BC297D513396ACCC74D64911A2CF018AC7937582F4185CF21A83A81EAC14299969D39829FF3467831E64CB5F4F63D38EE4C0F76F64FFDC36E4746A5B72602F7C6CBA868F5D27AAD52C4534CB4F46ED5145
311
9C40D694D5847252F37746FBFDAE67CD13653DA5A25AE57F4CE936FDD3948C8DBB7A8BFBB005902C07B91352546B5F79DDCBCC7BED567E03504B010214000A00000800006855DA403DEE336E79000000790000001B00000000000000000000000000000000006175746F6465736B2D64657369676E2D7061636B6167652E78
311
6D6C504B010214001400060808006855DA40D486FD9CA0000000F40000001300000000000000000000000000B20000005B436F6E74656E745F54797065735D2E786D6C504B010214001400060808006855DA402DB6A2F7EC0000007C010000080000000000000000000000000083010000636F72652E786D6C504B01021400
311
1400060808006855DA4055019EA25F0000007C000000070000000000000000000000000095020000636E782E786D6C504B010214001400060808006855DA40BCC44BA769010000020300000C00000000000000000000000000190300006662782F636F72652E786D6C504B010214001400060808006855DA4012A5AC807E00
311
00009D0000000B00000000000000000000000000AC0400006662782F636E782E786D6C504B010214001400060808006855DA40B5742AD12D010000150200003100000000000000000000000000530500006662782F36383130393237332D363533372D344431352D383033442D3743394634343342433442452F636F72652E
311
786D6C504B010214001400060808006855DA40CDACE16E4E010000330300003000000000000000000000000000CF0600006662782F36383130393237332D363533372D344431352D383033442D3743394634343342433442452F636E782E786D6C504B010214001400060808006855DA40B9B4E0469B0500007B1000003400
311
0000000000000000000000006B0800006662782F36383130393237332D363533372D344431352D383033442D3743394634343342433442452F6F626A656374732E786D6C504B010214001400060800006855DA400000000000000000000000003500000000000000000000000000580E00006662782F36383130393237332D
311
363533372D344431352D383033442D3743394634343342433442452F76657274696365732E62696E504B010214001400060808006855DA40F270F13306000000040000003600000000000000000000000000AB0E00006662782F36383130393237332D363533372D344431352D383033442D3743394634343342433442452F
311
747269616E676C65732E62696E504B010214001400060800006855DA400000000000000000000000003700000000000000000000000000050F00006662782F36383130393237332D363533372D344431352D383033442D3743394634343342433442452F617474726962757465732E62696E504B0102140014000608080068
311
55DA40D5987DFC8F0000004101000036000000000000000000000000005A0F00006662782F36383130393237332D363533372D344431352D383033442D3743394634343342433442452F6469726563746F72792E786D6C504B010214001400060808006855DA403E1D8C6FFF000000A00100003B0000000000000000000000
311
00003D1000006662782F36383130393237332D363533372D344431352D383033442D3743394634343342433442452F7265736F75726365732F636F72652E786D6C504B0506000000000E000E0080040000951100000000
310
504B03040A00000800006855DA403DEE336E79000000790000001B0000006175746F6465736B2D64657369676E2D7061636B6167652E786D6C3C3F786D6C2076657273696F6E3D22312E302220656E636F64696E673D227574662D3822203F3E3C666F726D6174733E3C666F726D61743E687474703A2F2F736368656D612E
310
6175746F6465736B2E636F6D2F64657369676E2D7061636B6167652F323030393C2F666F726D61743E3C2F666F726D6174733E504B03041400060808006855DA40D486FD9CA0000000F4000000130000005B436F6E74656E745F54797065735D2E786D6C7D8EC10E82300C865F65E91D8A1E8C310C0EEA1BF002731658846E
310
D98AC1B77784ABF1D8FE5FBFBF75BBCE937A534CCEB38643598122B6FEE978D0B0485F9C41B54DDD7D022595594E1A469170414C76A4D9A4D207E29CF43ECE46F218070CC6BECC4078ACAA135ACF422C856C0E68EA1BF5669944DDD7BCDE7B1F8E415D77AECB980613C2E4AC91FC167A2B244592486606FC29C8FD7F045B9A
310
EF7053A7E60B504B03041400060808006855DA4014E392F1EA0000007C01000008000000636F72652E786D6C8D904D6EC3201085AF82665B6103FE8D85895A593D412F8080B828315806AA1EBF3871A476D7D58CDEBC6F66F4F8F97BB9A12FB305EBDD08B420808C535E5B378F90E205F780CE826FDEC75F36404E2E66845D
310
06C1E7CDA7F5909477D1B89855E7B5394419828980D42D372304F5691659C814B3235C8B55AAAB9C4D419F5D8653B21A3D8E589DF7D98B351B88A669A79A5514F7DD74C2359B7ADC3336E1AE995EDF4F555FBD75352F7758F06897E77DB519198D06C1086598B498B51F940C7535D0EE85D081105EEEF63F505AF53FA1645D
310
ACD8F1EE030B20687EE43E10BCDCB3C8E51E54AE7B6EE207504B03041400060808006855DA4055019EA25F0000007C00000007000000636E782E786D6C4DCB3B0E80201045D1AD90E915ED2CF8AC45050C11660C8261F98AB1B07AC9C97D42D718D865D3E909258CFD00CCE24AC6E326A164D74DC0B4128928FF326038472B
310
A13128B1252AC747C6BAB984FC68F0B87FE8960A5C09FE86CFB69FBA01504B03041400060808006855DA406202FA8567010000020300000C0000006662782F636F72652E786D6C8D52ED8A8330107C9590BF478C465B6D892977C83DC1BD40AAA927D54462227DFC5B3F8AD7A39443886166677776949F6E5D8B466587C6E8
310
1C47418891D2A5A91A5DE7D8BB0BC9303A096E8D71BFCA30D2B253399E602C786D8DEF57A834DA29ED00D5A6522B288741398CCA162E391ECA6FD5C9407A0715C335E8657995B50AA20068A8137C70160CA065C874627139DF385D70C1BD6FAA956D2A98D65C1A65B1D8EDF645C2E28864697120092B32923156907457BC7F
310
1EE22CFE48134E27B1E0AEE9EEEE4AABA45315162C8C1809F784EDBFA2F098C4C7287D0BA36318723A953F887C5FFD53E41BED62B6DA5D640316111899893FDB42440E0D72043F54703A8508AF39E1C7A0211008D9C9737BDFE30AD0A84A676C024C65FC468DB2F50AA686687E385D58E83C3780CD9EF6612FFABCEE011F50
310
EA1AAC4907D7B377D374BE4C5DA3E89525A3BB216D6C27DBCDDC62713BB7414FE5A5698DFD8F9AAEABD2354C3AFDBDE207504B03041400060808006855DA40DCE4B4607D0000009D0000000B0000006662782F636E782E786D6C4DCCD10A83201886E15B91FFDC6ABA35053532EA3E625948A6C3E9D8E5AF46073BFAE0E1E3
310
15CD6773E86DE2CB062FE15254808C7F84C9FA45424E3366801A256208E9EF06C88F9B91703028B1C4909F274D661EB34BBB3AEBD7132925FD9DD714EB96D7F8CA7A8659472AAC39D174E0DD6DD0044A25CA5F69DF23ACBE504B03041400060808006855DA40FE7D9BB82C01000015020000310000006662782F3333324537
310
3936332D424139362D343845382D384332302D4239324233463943354642322F636F72652E786D6C8D515B6E833010BC0AF257AACAE00731101947254A4ED00B1070522BC1467E54397EED42A4F62F3F5E6B766676B4CBF78FE99E7D4BEB94D12DC0390299D4831995BEB620F80BAC41B617DC1AE3FFD040A6FB49B620C140
310
F0AB35615EA1C1682FB58FA836A35CC1DE39E94136DCE3A7056EF892539FF7C14786BBE5733FDCFAABCC711EDB9127B8F33606C89621E905825272AC1A4661F7D13058D6C71AD6078260D7908E9E9AC3F6D4115E2C42C14350E32A57638CA32E4ADA574D925870AFA667FCC1CADECB11088230818841C23E31DA957487AB77
310
847708F122D1FF89C23CBE280A4A7B4AD6B88BCC018179B134041F4D38DF9F61E46336D66769DEC6C9E10D089423C42A8AD0366E60E1C60D445356AEA6CE1B1B37BCB99D239DAECEAC14BC48478AE5F782B1A6838A1F504B03041400060808006855DA40AB0B2E795601000033030000300000006662782F33333245373936
310
332D424139362D343845382D384332302D4239324233463943354642322F636E782E786D6CBD93CD6EC32010845F0571ADFC8363B9518489D4439FA0875E316C121A1B2CC055F3F65D1292E69243A5AA1764CD0E33AB4F986FBFA6917C820FC6D99EB2B2A604AC72DAD87D4F97B82BD6946C05F7CEC53B1B25564ED0D32453
310
C1F7DE2D739634ECE432465447638F59F410DCE2150494D34D323A25470C005B2C28C23480D6A0C9CD885F3BF0B80A8AC389C40390D79777E2860F5031F02AA5085EA50EC1D3999BEE4C94A85186D0D3A00E30C9522ED16908C752CB284B565EBB1EECF49344D2856BE5E20D49E53D4D271579A31239F20A878287E8915E36
310
C5D30C54C8791E8D9211215767E3C523F8626CECDAEC3508DEA37BD574EB35869D678247334176280F3282A6A2A95953D45DD1746FACDEB4AB0D7B7EAAD9A6AE7995EC820FCE8DF912C680773351CE46B0910AC6AB347E842FFB88361E593B7FFA054804905B2F746E197FC98775ABB6FD473ED5F97D232E8F7F81F806504B
310
03041400060808006855DA40C7BA178C5A070000941B0000340000006662782F33333245373936332D424139362D343845382D384332302D4239324233463943354642322F6F626A656374732E786D6CED59DD739B3810FF5718EED9D8D84EDADC103AB1D3643CBDB49DFADAB987CC3032C8441721184924F1FDF5B7FA0003
310
3109BEE6DEFA6003425AEDFEF6534BF0E129A3CE03E682E4ECDCF5BD89EB6016E70961E9B95BCAEDE8BDEB7C08039EE7B231CD7518CAF0B9AB86DD3048795E167628C15B5452D919BD5AFCE5881833EC3A3145429CBB22BEC319F25029F3048B7B2F411279E9F6C9F33D33B14D36E5A8B8EB102D10C74C02A730CE808A6398
310
F2DB8F13771C0663F53E0CD4BF9D351B346BDE3F6BACA56E7349989088C5CF58EA90990D6269E6CF2F3F4E4FCE4627F3F96C343F9DFAA3C5D5E272E4BF9B4D96A7CBE5D9C5C733606F93E7D4CA94E002B304F4B773433F18AB37B5E81681435CC7396338D64002545AAC2E4182056CD5806FD27EF495448DD75AC2C6F35CBD
310
B72C3486676D2A7DB38601D1A20B82D8ED2A89AB6B53BE7CF337082E861825175802B74272D0AE85878357B8E124189BD130D8EC7541849321893941D4A164C31107A5C05435250CCC024B46390707528E92406BCEBC6EDB1678E6EBAE7388CB6D49A9F20C37D48E1581FB61293467E41FCCF7DC3791019E40DA9230F9DE72
310
29770576C3B360AC07C3405D6653FBD200E96C294A8546C4BCED08BA54AEBFBA74C34F579BA7B50A0787372F785E602E95D1293D6ABEC090ED55A164B7F507694E2D00610CA876E51E946F80FC67881E7B56406F9C3CCD9FE676AEE488896DCE33D08D33714613F89B38BEFE57F78DBB605C2F6E6BAF0F4F705305D5FB9FC7
310
B32D83C6CAF2DF80330C1EC0E0733EB3AFD631A260CF37840140CA481C9AC31084F6EDE6C90D57103821D0C32A44431F4406761FE036185B327BAD54EE65BD8E01A2768FD91025016CDA22818D1E3D5D43F6E024DEABA929621FBC276F62AE1797EB4FEB926F518C6FAC4F5FE22D614442D63CCC500BF39644F778F798F304
310
047D8EF7BA897766B71280B6C25C019F5620A887FDCEAD0D625897E62ADC04AFEC0042A85CDDA07F43448C29450CE765B56F1DDD94A1D61E6F6B06379C1A8867D38E0973FC405455014EB39FD16214F27ECC49A14074C36B23591D34BD1EE9BEAF3E8345D6F37B66AD18845E86E89F3A681DC0A165D915D216885AE0CD3E9C
310
C739CD79B4D94526D2B9504B001B6D6FF9D1220AB1DE284951010FD27E578594D4481B2564BB2D05C4D5032CFE582D9BE630F166FE89D3FCEF38E31CA22DF82EE2D6EF3A7B442443298EB628E9DBAEB95B4D5B68923DA439DE52908B3C10B98B908C26094E8F81E628E2676F4A3DA5B910846101F9EA20F84D34261E0412A3
310
CD8A65A5D50ED044441996881E838022D303AE4E3BBAC68DA174789DC7DA7A5FD25893E8FF64111C412D99B38840290A39E455C67DEF0462481B5D8372075FB0B68AB61683965042C4BBE81193F44E1E83BA21DF837B0C4792524679816230EB01649FF98A526A87F70D8AEF55FE88E292BE9581084CB711A1B4CC22F81106
310
278F21AE5D07A61751681037B14FE20C8A32244B3E6493D393C9B37D4CCDD00D818D8DB68442D88E3254F4A0DE0A88BA1E716AF02DF51EA56ECAAC885096976C90A178B3AE3759F25DB52AB203F955A522948D15614B300C08937556AD623698BA0EACE0463A50ED2281B2829A53D82B89C7AFBD4953EEDD805B3F7DDB0D32
310
28FC7AB4D78CA8F30A06CB63AB30108F48C6776EB8D6D7D102EAEF0427FB545FD59ACD0A10105391BCE4C4AAE8FB0ACA1B5BA3B9E10D92E2F6DA64DDEAFA7DE541F72318C31AA85DEA852B0574869944AA32B95137F41B8210DCA261C6572AA71E43E5224974D588E815E95367AB8C686D9A11AFB8C32CCFE0C76E098B6999
310
E05B9488FBE846D2684D14EB564A2F2315C62F0AF8E57ADD8107460688F4551578F8B1B3D68E2E55B9749088BC2BB30D430482604BB4D4E8C62B586A355269B9BEAA3305D45D606056C5F35F278B663BE2D7C922B586F153278BC5EE0FB46BF6451AE93C56767DD431A0CE4F8ACA5B1C0374DBA1A65A671193CCADFCD69922
310
088A55941F5C8D5541C310ECE3F83F67EDBE2C68B6EBF07F5CD6F69F551C476595D664D5A53A50B9AE9A39EC6A365DCCE78BC5E8EADD477F345FCC4E46178BE57234B9585C4C4F4FFCE5F46C51A3A91D350CEA60A673173C9BA0560DAB278B017465454E4902A7F9C44931C47C0967FA01ED739E6101C9B3D9EC4E6C537EC0
310
EA07D3E794684371C5C91D8206311590D601A33296ED71E737684D4A38689FBBD034F2EEE1CF5AA5EB40E63977A15520498C85B78136936AE869E2907275EEB7C4001FC4529512CDA2FAB95EA5B06985FF7ACA903460E56AF530A0702BA0FBD5EA5068DE2C4FF1518257EC3848C2EDA69450AD1959F603B5307A9BBDFA8D6C
310
94B07BBBF513B8EECB62F99E9ED34264D02783178DC0501D49C453DDEF568C59962E2EBF8EA1CFE6ACBE38052D53D0E5704A238EC1984B555081158155589A059260AACBDF6FBFF21C3EF1648EAE8A6E977996E5CC3E5CC0792C814F44CEFA0E3EF824B7503660D55617B7D3893FBDD5ED6CDB618F3648604FD54330509511
310
4A848EB181453E6B4DD9C6E55829A1337D75E9D8F0096D006341CFBABBE6F39603DEA33EA4285FD11E5EC9F962477BACA7823570E84587FF02504B03041400060800006855DA40000000000000000000000000350000006662782F33333245373936332D424139362D343845382D384332302D423932423346394335464232
310
2F76657274696365732E62696E504B03041400060808006855DA40F270F1330600000004000000360000006662782F33333245373936332D424139362D343845382D384332302D4239324233463943354642322F747269616E676C65732E62696E636660600000504B03041400060800006855DA4000000000000000000000
310
0000370000006662782F33333245373936332D424139362D343845382D384332302D4239324233463943354642322F617474726962757465732E62696E504B03041400060808006855DA40D5987DFC8F00000041010000360000006662782F33333245373936332D424139362D343845382D384332302D4239324233463943
310
354642322F6469726563746F72792E786D6C858F410EC2201045AF4266AF15DDB800BA74E7C21B903225242D6328188F2FA5C4183471359997F9FF81E89FF3C41E1816475E02DF1F80A11FC8386F25A438EECEC07A250251FC3803E6F58C12560C4AD840E95E91C151A72936F496F35732D860FE635F62C8F2DA16B505C545
310
B74125BAA2FA9E05D7CC053D063734D5C7665FD55B6B8D15D5E9BFEAFD8490FFA45E504B03041400060808006855DA400748BC69FD000000A00100003B0000006662782F33333245373936332D424139362D343845382D384332302D4239324233463943354642322F7265736F75726365732F636F72652E786D6C8D504B6E
310
833010BD0A9A6D65B00D01121947AD504FD00B586642AC043BF2A7EAF16B0295DA5D3733A3F7D13C3D71FE5AEEC527FA609C1D8095140AB4DA4DC6CE03A478213D146729BC73F1970C0AAB161C6085418AD9BBF4D821ED6C441B336ADD843BA842C00885BEE76380A0AFB8A852A59815E1563E94BEA9194B56663AEBA408D1
310
E700C5F6649D203D0697BCC620AA8D95222533ED1A33E59FE662D0833C1CDAB1E135257D371E49C3C79EF49C8FA43B8CAFEFC7BAAFDFBA4654AB598A68969F8CDAA38A3881E49471425BC2DB0F464F4D7D62DD0B65274A45B5CAFF98D263FAA729191B6BBEC7DD6C0124CB419E8414D5DA575ECF32F35EBB95DF504B010214
310
000A00000800006855DA403DEE336E79000000790000001B00000000000000000000000000000000006175746F6465736B2D64657369676E2D7061636B6167652E786D6C504B010214001400060808006855DA40D486FD9CA0000000F40000001300000000000000000000000000B20000005B436F6E74656E745F54797065
310
735D2E786D6C504B010214001400060808006855DA4014E392F1EA0000007C010000080000000000000000000000000083010000636F72652E786D6C504B010214001400060808006855DA4055019EA25F0000007C000000070000000000000000000000000093020000636E782E786D6C504B010214001400060808006855
310
DA406202FA8567010000020300000C00000000000000000000000000170300006662782F636F72652E786D6C504B010214001400060808006855DA40DCE4B4607D0000009D0000000B00000000000000000000000000A80400006662782F636E782E786D6C504B010214001400060808006855DA40FE7D9BB82C0100001502
310
000031000000000000000000000000004E0500006662782F33333245373936332D424139362D343845382D384332302D4239324233463943354642322F636F72652E786D6C504B010214001400060808006855DA40AB0B2E7956010000330300003000000000000000000000000000C90600006662782F3333324537393633
310
2D424139362D343845382D384332302D4239324233463943354642322F636E782E786D6C504B010214001400060808006855DA40C7BA178C5A070000941B000034000000000000000000000000006D0800006662782F33333245373936332D424139362D343845382D384332302D4239324233463943354642322F6F626A65
310
6374732E786D6C504B010214001400060800006855DA400000000000000000000000003500000000000000000000000000191000006662782F33333245373936332D424139362D343845382D384332302D4239324233463943354642322F76657274696365732E62696E504B010214001400060808006855DA40F270F13306
310
0000000400000036000000000000000000000000006C1000006662782F33333245373936332D424139362D343845382D384332302D4239324233463943354642322F747269616E676C65732E62696E504B010214001400060800006855DA400000000000000000000000003700000000000000000000000000C61000006662
310
782F33333245373936332D424139362D343845382D384332302D4239324233463943354642322F617474726962757465732E62696E504B010214001400060808006855DA40D5987DFC8F0000004101000036000000000000000000000000001B1100006662782F33333245373936332D424139362D343845382D384332302D
310
4239324233463943354642322F6469726563746F72792E786D6C504B010214001400060808006855DA400748BC69FD000000A00100003B00000000000000000000000000FE1100006662782F33333245373936332D424139362D343845382D384332302D4239324233463943354642322F7265736F75726365732F636F7265
310
2E786D6C504B0506000000000E000E0080040000541300000000
  0
XRECORD
  5
17
102
{ACAD_REACTORS
330
12
102
}
330
12
100
AcDbXrecord
280
     1
270
     1
271
     1
  0
XRECORD
  5
16
102
{ACAD_REACTORS
330
12
102
}
330
12
100
AcDbXrecord
280
     1
270
     1
271
     1
  0
XRECORD
  5
18
102
{ACAD_REACTORS
330
12
102
}
330
12
100
AcDbXrecord
280
     1
270
     1
271
     1
  0
XRECORD
  5
15
102
{ACAD_REACTORS
330
12
102
}
330
12
100
AcDbXrecord
280
     1
270
     1
271
     1
  0
XRECORD
  5
1047
102
{ACAD_REACTORS
330
22
102
}
330
22
100
AcDbXrecord
280
     1
102
MATERIAL
148
0.0
149
0.0
149
0.0
 93
        0
 94
      127
282
     0
 72
     0
 77
     0
171
     0
175
     0
179
     0
273
     0
  0
XRECORD
  5
24
102
{ACAD_REACTORS
330
22
102
}
330
22
100
AcDbXrecord
280
     1
270
     1
271
     1
  0
XRECORD
  5
23
102
{ACAD_REACTORS
330
22
102
}
330
22
100
AcDbXrecord
280
     1
270
     1
271
     1
  0
XRECORD
  5
27
102
{ACAD_REACTORS
330
22
102
}
330
22
100
AcDbXrecord
280
     1
270
     1
271
     1
  0
XRECORD
  5
26
102
{ACAD_REACTORS
330
22
102
}
330
22
100
AcDbXrecord
280
     1
270
     1
271
     1
  0
XRECORD
  5
28
102
{ACAD_REACTORS
330
22
102
}
330
22
100
AcDbXrecord
280
     1
270
     1
271
     1
  0
XRECORD
  5
25
102
{ACAD_REACTORS
330
22
102
}
330
22
100
AcDbXrecord
280
     1
270
     1
271
     1
  0
XRECORD
  5
8FC
102
{ACAD_REACTORS
330
8FB
102
}
330
8FB
100
AcDbXrecord
280
     1
102
ACAD_ROUNDTRIP_2012_MLEADER_STYLE
298
     1
  0
CELLSTYLEMAP
  5
12F0
102
{ACAD_REACTORS
330
1030
102
}
330
1030
100
AcDbCellStyleMap
 90
        3
300
CELLSTYLE
  1
TABLEFORMAT_BEGIN
 90
        5
170
     1
 91
        0
 92
    32768
 62
   257
 93
        1
300
CONTENTFORMAT
  1
CONTENTFORMAT_BEGIN
 90
        0
 91
        0
 92
      512
 93
        0
300

 40
0.0
140
1.0
 94
        5
 62
     0
340
55
144
0.25
309
CONTENTFORMAT_END
171
     1
301
MARGIN
  1
CELLMARGIN_BEGIN
 40
0.06
 40
0.06
 40
0.06
 40
0.06
 40
0.18
 40
0.18
309
CELLMARGIN_END
 94
        6
 95
        1
302
GRIDFORMAT
  1
GRIDFORMAT_BEGIN
 90
        0
 91
        1
 62
     0
 92
       -2
340
0
 93
        0
 40
0.045
309
GRIDFORMAT_END
 95
        2
302
GRIDFORMAT
  1
GRIDFORMAT_BEGIN
 90
        0
 91
        1
 62
     0
 92
       -2
340
0
 93
        0
 40
0.045
309
GRIDFORMAT_END
 95
        4
302
GRIDFORMAT
  1
GRIDFORMAT_BEGIN
 90
        0
 91
        1
 62
     0
 92
       -2
340
0
 93
        0
 40
0.045
309
GRIDFORMAT_END
 95
        8
302
GRIDFORMAT
  1
GRIDFORMAT_BEGIN
 90
        0
 91
        1
 62
     0
 92
       -2
340
0
 93
        0
 40
0.045
309
GRIDFORMAT_END
 95
       16
302
GRIDFORMAT
  1
GRIDFORMAT_BEGIN
 90
        0
 91
        1
 62
     0
 92
       -2
340
0
 93
        0
 40
0.045
309
GRIDFORMAT_END
 95
       32
302
GRIDFORMAT
  1
GRIDFORMAT_BEGIN
 90
        0
 91
        1
 62
     0
 92
       -2
340
0
 93
        0
 40
0.045
309
GRIDFORMAT_END
309
TABLEFORMAT_END
  1
CELLSTYLE_BEGIN
 90
        1
 91
        1
300
_TITLE
309
CELLSTYLE_END
300
CELLSTYLE
  1
TABLEFORMAT_BEGIN
 90
        5
170
     1
 91
        0
 92
        0
 62
   257
 93
        1
300
CONTENTFORMAT
  1
CONTENTFORMAT_BEGIN
 90
        0
 91
        0
 92
      512
 93
        0
300

 40
0.0
140
1.0
 94
        5
 62
     0
340
55
144
0.18
309
CONTENTFORMAT_END
171
     1
301
MARGIN
  1
CELLMARGIN_BEGIN
 40
0.06
 40
0.06
 40
0.06
 40
0.06
 40
0.18
 40
0.18
309
CELLMARGIN_END
 94
        6
 95
        1
302
GRIDFORMAT
  1
GRIDFORMAT_BEGIN
 90
        0
 91
        1
 62
     0
 92
       -2
340
0
 93
        0
 40
0.045
309
GRIDFORMAT_END
 95
        2
302
GRIDFORMAT
  1
GRIDFORMAT_BEGIN
 90
        0
 91
        1
 62
     0
 92
       -2
340
0
 93
        0
 40
0.045
309
GRIDFORMAT_END
 95
        4
302
GRIDFORMAT
  1
GRIDFORMAT_BEGIN
 90
        0
 91
        1
 62
     0
 92
       -2
340
0
 93
        0
 40
0.045
309
GRIDFORMAT_END
 95
        8
302
GRIDFORMAT
  1
GRIDFORMAT_BEGIN
 90
        0
 91
        1
 62
     0
 92
       -2
340
0
 93
        0
 40
0.045
309
GRIDFORMAT_END
 95
       16
302
GRIDFORMAT
  1
GRIDFORMAT_BEGIN
 90
        0
 91
        1
 62
     0
 92
       -2
340
0
 93
        0
 40
0.045
309
GRIDFORMAT_END
 95
       32
302
GRIDFORMAT
  1
GRIDFORMAT_BEGIN
 90
        0
 91
        1
 62
     0
 92
       -2
340
0
 93
        0
 40
0.045
309
GRIDFORMAT_END
309
TABLEFORMAT_END
  1
CELLSTYLE_BEGIN
 90
        2
 91
        1
300
_HEADER
309
CELLSTYLE_END
300
CELLSTYLE
  1
TABLEFORMAT_BEGIN
 90
        5
170
     1
 91
        0
 92
        0
 62
   257
 93
        1
300
CONTENTFORMAT
  1
CONTENTFORMAT_BEGIN
 90
        0
 91
        0
 92
      512
 93
        0
300

 40
0.0
140
1.0
 94
        2
 62
     0
340
55
144
0.18
309
CONTENTFORMAT_END
171
     1
301
MARGIN
  1
CELLMARGIN_BEGIN
 40
0.06
 40
0.06
 40
0.06
 40
0.06
 40
0.18
 40
0.18
309
CELLMARGIN_END
 94
        6
 95
        1
302
GRIDFORMAT
  1
GRIDFORMAT_BEGIN
 90
        0
 91
        1
 62
     0
 92
       -2
340
0
 93
        0
 40
0.045
309
GRIDFORMAT_END
 95
        2
302
GRIDFORMAT
  1
GRIDFORMAT_BEGIN
 90
        0
 91
        1
 62
     0
 92
       -2
340
0
 93
        0
 40
0.045
309
GRIDFORMAT_END
 95
        4
302
GRIDFORMAT
  1
GRIDFORMAT_BEGIN
 90
        0
 91
        1
 62
     0
 92
       -2
340
0
 93
        0
 40
0.045
309
GRIDFORMAT_END
 95
        8
302
GRIDFORMAT
  1
GRIDFORMAT_BEGIN
 90
        0
 91
        1
 62
     0
 92
       -2
340
0
 93
        0
 40
0.045
309
GRIDFORMAT_END
 95
       16
302
GRIDFORMAT
  1
GRIDFORMAT_BEGIN
 90
        0
 91
        1
 62
     0
 92
       -2
340
0
 93
        0
 40
0.045
309
GRIDFORMAT_END
 95
       32
302
GRIDFORMAT
  1
GRIDFORMAT_BEGIN
 90
        0
 91
        1
 62
     0
 92
       -2
340
0
 93
        0
 40
0.045
309
GRIDFORMAT_END
309
TABLEFORMAT_END
  1
CELLSTYLE_BEGIN
 90
        3
 91
        2
300
_DATA
309
CELLSTYLE_END
  0
XRECORD
  5
1339
102
{ACAD_REACTORS
330
1030
102
}
330
1030
100
AcDbXrecord
280
     1
102
ACAD_ROUNDTRIP_PRE2007_TABLESTYLE
 90
      512
 91
        0
  1

 92
      512
 93
        0
  2

 94
      512
 95
        0
  3

  0
XRECORD
  5
1314
102
{ACAD_REACTORS
330
1313
102
}
330
1313
100
AcDbXrecord
280
     1
102
RTVSPropertyOp0
 70
     1
102
RTVSPropertyOp1
 70
     1
102
RTVSPropertyOp2
 70
     1
102
RTVSPropertyOp3
 70
     1
102
RTVSPropertyOp4
 70
     1
102
RTVSPropertyOp5
 70
     1
102
RTVSPropertyOp6
 70
     1
102
RTVSPropertyOp7
 70
     1
102
RTVSPropertyOp8
 70
     1
102
RTVSPropertyOp9
 70
     1
102
RTVSPropertyOp10
 70
     1
102
RTVSPropertyOp11
 70
     1
102
RTVSPropertyOp12
 70
     1
102
RTVSPropertyOp13
 70
     1
102
RTVSPropertyOp14
 70
     1
102
RTVSPropertyOp15
 70
     1
102
RTVSPropertyOp16
 70
     1
102
RTVSPropertyOp17
 70
     1
102
RTVSPropertyOp18
 70
     1
102
RTVSPropertyOp19
 70
     1
102
RTVSPropertyOp20
 70
     1
102
RTVSPropertyOp21
 70
     1
102
RTVSPropertyOp22
 70
     1
102
RTVSPropertyOp23
 70
     1
102
RTVSPropertyOp24
 70
     1
102
RTVSPropertyOp25
 70
     1
102
RTVSPropertyOp26
 70
     1
102
RTVSPropertyOp27
 70
     1
  0
XRECORD
  5
1373
102
{ACAD_REACTORS
330
1372
102
}
330
1372
100
AcDbXrecord
280
     1
102
RTVSPropertyOp0
 70
     1
102
RTVSPropertyOp1
 70
     1
102
RTVSPropertyOp2
 70
     1
102
RTVSPropertyOp3
 70
     1
102
RTVSPropertyOp4
 70
     1
102
RTVSPropertyOp5
 70
     1
102
RTVSPropertyOp6
 70
     1
102
RTVSPropertyOp7
 70
     1
102
RTVSPropertyOp8
 70
     1
102
RTVSPropertyOp9
 70
     1
102
RTVSPropertyOp10
 70
     1
102
RTVSPropertyOp11
 70
     1
102
RTVSPropertyOp12
 70
     1
102
RTVSPropertyOp13
 70
     1
102
RTVSPropertyOp14
 70
     1
102
RTVSPropertyOp15
 70
     1
102
RTVSPropertyOp16
 70
     1
102
RTVSPropertyOp17
 70
     1
102
RTVSPropertyOp18
 70
     1
102
RTVSPropertyOp19
 70
     1
102
RTVSPropertyOp20
 70
     1
102
RTVSPropertyOp21
 70
     1
102
RTVSPropertyOp22
 70
     1
102
RTVSPropertyOp23
 70
     1
102
RTVSPropertyOp24
 70
     1
102
RTVSPropertyOp25
 70
     1
102
RTVSPropertyOp26
 70
     1
102
RTVSPropertyOp27
 70
     1
  0
XRECORD
  5
1371
102
{ACAD_REACTORS
330
1370
102
}
330
1370
100
AcDbXrecord
280
     1
102
RTVSPropertyOp0
 70
     1
102
RTVSPropertyOp1
 70
     1
102
RTVSPropertyOp2
 70
     1
102
RTVSPropertyOp3
 70
     1
102
RTVSPropertyOp4
 70
     1
102
RTVSPropertyOp5
 70
     1
102
RTVSPropertyOp6
 70
     1
102
RTVSPropertyOp7
 70
     1
102
RTVSPropertyOp8
 70
     1
102
RTVSPropertyOp9
 70
     1
102
RTVSPropertyOp10
 70
     1
102
RTVSPropertyOp11
 70
     1
102
RTVSPropertyOp12
 70
     1
102
RTVSPropertyOp13
 70
     1
102
RTVSPropertyOp14
 70
     1
102
RTVSPropertyOp15
 70
     1
102
RTVSPropertyOp16
 70
     1
102
RTVSPropertyOp17
 70
     1
102
RTVSPropertyOp18
 70
     1
102
RTVSPropertyOp19
 70
     1
102
RTVSPropertyOp20
 70
     1
102
RTVSPropertyOp21
 70
     1
102
RTVSPropertyOp22
 70
     1
102
RTVSPropertyOp23
 70
     1
102
RTVSPropertyOp24
 70
     1
102
RTVSPropertyOp25
 70
     1
102
RTVSPropertyOp26
 70
     1
102
RTVSPropertyOp27
 70
     1
  0
XRECORD
  5
1312
102
{ACAD_REACTORS
330
1311
102
}
330
1311
100
AcDbXrecord
280
     1
102
RTVSPropertyOp0
 70
     1
102
RTVSPropertyOp1
 70
     1
102
RTVSPropertyOp2
 70
     1
102
RTVSPropertyOp3
 70
     1
102
RTVSPropertyOp4
 70
     1
102
RTVSPropertyOp5
 70
     1
102
RTVSPropertyOp6
 70
     1
102
RTVSPropertyOp7
 70
     1
102
RTVSPropertyOp8
 70
     1
102
RTVSPropertyOp9
 70
     1
102
RTVSPropertyOp10
 70
     1
102
RTVSPropertyOp11
 70
     1
102
RTVSPropertyOp12
 70
     1
102
RTVSPropertyOp13
 70
     1
102
RTVSPropertyOp14
 70
     1
102
RTVSPropertyOp15
 70
     1
102
RTVSPropertyOp16
 70
     1
102
RTVSPropertyOp17
 70
     1
102
RTVSPropertyOp18
 70
     1
102
RTVSPropertyOp19
 70
     1
102
RTVSPropertyOp20
 70
     1
102
RTVSPropertyOp21
 70
     1
102
RTVSPropertyOp22
 70
     1
102
RTVSPropertyOp23
 70
     1
102
RTVSPropertyOp24
 70
     1
102
RTVSPropertyOp25
 70
     1
102
RTVSPropertyOp26
 70
     1
102
RTVSPropertyOp27
 70
     1
  0
XRECORD
  5
1320
102
{ACAD_REACTORS
330
131F
102
}
330
131F
100
AcDbXrecord
280
     1
102
RTVSPropertyOp0
 70
     1
102
RTVSPropertyOp1
 70
     1
102
RTVSPropertyOp2
 70
     1
102
RTVSPropertyOp3
 70
     1
102
RTVSPropertyOp4
 70
     1
102
RTVSPropertyOp5
 70
     1
102
RTVSPropertyOp6
 70
     1
102
RTVSPropertyOp7
 70
     1
102
RTVSPropertyOp8
 70
     1
102
RTVSPropertyOp9
 70
     1
102
RTVSPropertyOp10
 70
     1
102
RTVSPropertyOp11
 70
     1
102
RTVSPropertyOp12
 70
     1
102
RTVSPropertyOp13
 70
     1
102
RTVSPropertyOp14
 70
     1
102
RTVSPropertyOp15
 70
     1
102
RTVSPropertyOp16
 70
     1
102
RTVSPropertyOp17
 70
     1
102
RTVSPropertyOp18
 70
     1
102
RTVSPropertyOp19
 70
     1
102
RTVSPropertyOp20
 70
     1
102
RTVSPropertyOp21
 70
     1
102
RTVSPropertyOp22
 70
     1
102
RTVSPropertyOp23
 70
     1
102
RTVSPropertyOp24
 70
     1
102
RTVSPropertyOp25
 70
     1
102
RTVSPropertyOp26
 70
     1
102
RTVSPropertyOp27
 70
     1
  0
XRECORD
  5
1328
102
{ACAD_REACTORS
330
1327
102
}
330
1327
100
AcDbXrecord
280
     1
102
RTVSPropertyOp0
 70
     1
102
RTVSPropertyOp1
 70
     1
102
RTVSPropertyOp2
 70
     1
102
RTVSPropertyOp3
 70
     1
102
RTVSPropertyOp4
 70
     1
102
RTVSPropertyOp5
 70
     1
102
RTVSPropertyOp6
 70
     1
102
RTVSPropertyOp7
 70
     1
102
RTVSPropertyOp8
 70
     1
102
RTVSPropertyOp9
 70
     1
102
RTVSPropertyOp10
 70
     1
102
RTVSPropertyOp11
 70
     1
102
RTVSPropertyOp12
 70
     1
102
RTVSPropertyOp13
 70
     1
102
RTVSPropertyOp14
 70
     1
102
RTVSPropertyOp15
 70
     1
102
RTVSPropertyOp16
 70
     1
102
RTVSPropertyOp17
 70
     1
102
RTVSPropertyOp18
 70
     1
102
RTVSPropertyOp19
 70
     1
102
RTVSPropertyOp20
 70
     1
102
RTVSPropertyOp21
 70
     1
102
RTVSPropertyOp22
 70
     1
102
RTVSPropertyOp23
 70
     1
102
RTVSPropertyOp24
 70
     1
102
RTVSPropertyOp25
 70
     1
102
RTVSPropertyOp26
 70
     1
102
RTVSPropertyOp27
 70
     1
  0
XRECORD
  5
131A
102
{ACAD_REACTORS
330
1319
102
}
330
1319
100
AcDbXrecord
280
     1
102
RTVSPropertyOp0
 70
     1
102
RTVSPropertyOp1
 70
     1
102
RTVSPropertyOp2
 70
     1
102
RTVSPropertyOp3
 70
     1
102
RTVSPropertyOp4
 70
     1
102
RTVSPropertyOp5
 70
     1
102
RTVSPropertyOp6
 70
     1
102
RTVSPropertyOp7
 70
     1
102
RTVSPropertyOp8
 70
     1
102
RTVSPropertyOp9
 70
     1
102
RTVSPropertyOp10
 70
     1
102
RTVSPropertyOp11
 70
     1
102
RTVSPropertyOp12
 70
     1
102
RTVSPropertyOp13
 70
     1
102
RTVSPropertyOp14
 70
     1
102
RTVSPropertyOp15
 70
     1
102
RTVSPropertyOp16
 70
     1
102
RTVSPropertyOp17
 70
     1
102
RTVSPropertyOp18
 70
     1
102
RTVSPropertyOp19
 70
     1
102
RTVSPropertyOp20
 70
     1
102
RTVSPropertyOp21
 70
     1
102
RTVSPropertyOp22
 70
     1
102
RTVSPropertyOp23
 70
     1
102
RTVSPropertyOp24
 70
     1
102
RTVSPropertyOp25
 70
     1
102
RTVSPropertyOp26
 70
     1
102
RTVSPropertyOp27
 70
     1
  0
XRECORD
  5
131E
102
{ACAD_REACTORS
330
131D
102
}
330
131D
100
AcDbXrecord
280
     1
102
RTVSPropertyOp0
 70
     1
102
RTVSPropertyOp1
 70
     1
102
RTVSPropertyOp2
 70
     1
102
RTVSPropertyOp3
 70
     1
102
RTVSPropertyOp4
 70
     1
102
RTVSPropertyOp5
 70
     1
102
RTVSPropertyOp6
 70
     1
102
RTVSPropertyOp7
 70
     1
102
RTVSPropertyOp8
 70
     1
102
RTVSPropertyOp9
 70
     1
102
RTVSPropertyOp10
 70
     1
102
RTVSPropertyOp11
 70
     1
102
RTVSPropertyOp12
 70
     1
102
RTVSPropertyOp13
 70
     1
102
RTVSPropertyOp14
 70
     1
102
RTVSPropertyOp15
 70
     1
102
RTVSPropertyOp16
 70
     1
102
RTVSPropertyOp17
 70
     1
102
RTVSPropertyOp18
 70
     1
102
RTVSPropertyOp19
 70
     1
102
RTVSPropertyOp20
 70
     1
102
RTVSPropertyOp21
 70
     1
102
RTVSPropertyOp22
 70
     1
102
RTVSPropertyOp23
 70
     1
102
RTVSPropertyOp24
 70
     1
102
RTVSPropertyOp25
 70
     1
102
RTVSPropertyOp26
 70
     1
102
RTVSPropertyOp27
 70
     1
  0
XRECORD
  5
1338
102
{ACAD_REACTORS
330
1337
102
}
330
1337
100
AcDbXrecord
280
     1
102
RTVSPropertyOp0
 70
     0
102
RTVSPropertyOp1
 70
     0
102
RTVSPropertyOp2
 70
     0
102
RTVSPropertyOp3
 70
     0
102
RTVSPropertyOp4
 70
     0
102
RTVSPropertyOp5
 70
     0
102
RTVSPropertyOp6
 70
     0
102
RTVSPropertyOp7
 70
     0
102
RTVSPropertyOp8
 70
     0
102
RTVSPropertyOp9
 70
     0
102
RTVSPropertyOp10
 70
     0
102
RTVSPropertyOp11
 70
     0
102
RTVSPropertyOp12
 70
     0
102
RTVSPropertyOp13
 70
     0
102
RTVSPropertyOp14
 70
     2
102
RTVSPropertyOp15
 70
     0
102
RTVSPropertyOp16
 70
     0
102
RTVSPropertyOp17
 70
     0
102
RTVSPropertyOp18
 70
     0
102
RTVSPropertyOp19
 70
     0
102
RTVSPropertyOp20
 70
     0
102
RTVSPropertyOp21
 70
     0
102
RTVSPropertyOp22
 70
     0
102
RTVSPropertyOp23
 70
     0
102
RTVSPropertyOp24
 70
     0
102
RTVSPropertyOp25
 70
     0
102
RTVSPropertyOp26
 70
     0
102
RTVSPropertyOp27
 70
     0
  0
XRECORD
  5
1326
102
{ACAD_REACTORS
330
1325
102
}
330
1325
100
AcDbXrecord
280
     1
102
RTVSPropertyOp0
 70
     1
102
RTVSPropertyOp1
 70
     1
102
RTVSPropertyOp2
 70
     1
102
RTVSPropertyOp3
 70
     1
102
RTVSPropertyOp4
 70
     1
102
RTVSPropertyOp5
 70
     1
102
RTVSPropertyOp6
 70
     1
102
RTVSPropertyOp7
 70
     1
102
RTVSPropertyOp8
 70
     1
102
RTVSPropertyOp9
 70
     1
102
RTVSPropertyOp10
 70
     1
102
RTVSPropertyOp11
 70
     1
102
RTVSPropertyOp12
 70
     1
102
RTVSPropertyOp13
 70
     1
102
RTVSPropertyOp14
 70
     1
102
RTVSPropertyOp15
 70
     1
102
RTVSPropertyOp16
 70
     1
102
RTVSPropertyOp17
 70
     1
102
RTVSPropertyOp18
 70
     1
102
RTVSPropertyOp19
 70
     1
102
RTVSPropertyOp20
 70
     1
102
RTVSPropertyOp21
 70
     1
102
RTVSPropertyOp22
 70
     1
102
RTVSPropertyOp23
 70
     1
102
RTVSPropertyOp24
 70
     1
102
RTVSPropertyOp25
 70
     1
102
RTVSPropertyOp26
 70
     1
102
RTVSPropertyOp27
 70
     1
  0
XRECORD
  5
130A
102
{ACAD_REACTORS
330
1309
102
}
330
1309
100
AcDbXrecord
280
     1
102
RTVSPropertyOp0
 70
     1
102
RTVSPropertyOp1
 70
     1
102
RTVSPropertyOp2
 70
     1
102
RTVSPropertyOp3
 70
     1
102
RTVSPropertyOp4
 70
     1
102
RTVSPropertyOp5
 70
     1
102
RTVSPropertyOp6
 70
     1
102
RTVSPropertyOp7
 70
     1
102
RTVSPropertyOp8
 70
     1
102
RTVSPropertyOp9
 70
     1
102
RTVSPropertyOp10
 70
     1
102
RTVSPropertyOp11
 70
     1
102
RTVSPropertyOp12
 70
     1
102
RTVSPropertyOp13
 70
     1
102
RTVSPropertyOp14
 70
     1
102
RTVSPropertyOp15
 70
     1
102
RTVSPropertyOp16
 70
     1
102
RTVSPropertyOp17
 70
     1
102
RTVSPropertyOp18
 70
     1
102
RTVSPropertyOp19
 70
     1
102
RTVSPropertyOp20
 70
     1
102
RTVSPropertyOp21
 70
     1
102
RTVSPropertyOp22
 70
     1
102
RTVSPropertyOp23
 70
     1
102
RTVSPropertyOp24
 70
     1
102
RTVSPropertyOp25
 70
     1
102
RTVSPropertyOp26
 70
     1
102
RTVSPropertyOp27
 70
     1
  0
XRECORD
  5
130C
102
{ACAD_REACTORS
330
130B
102
}
330
130B
100
AcDbXrecord
280
     1
102
RTVSPropertyOp0
 70
     1
102
RTVSPropertyOp1
 70
     1
102
RTVSPropertyOp2
 70
     1
102
RTVSPropertyOp3
 70
     1
102
RTVSPropertyOp4
 70
     1
102
RTVSPropertyOp5
 70
     1
102
RTVSPropertyOp6
 70
     1
102
RTVSPropertyOp7
 70
     1
102
RTVSPropertyOp8
 70
     1
102
RTVSPropertyOp9
 70
     1
102
RTVSPropertyOp10
 70
     1
102
RTVSPropertyOp11
 70
     1
102
RTVSPropertyOp12
 70
     1
102
RTVSPropertyOp13
 70
     1
102
RTVSPropertyOp14
 70
     1
102
RTVSPropertyOp15
 70
     1
102
RTVSPropertyOp16
 70
     1
102
RTVSPropertyOp17
 70
     1
102
RTVSPropertyOp18
 70
     1
102
RTVSPropertyOp19
 70
     1
102
RTVSPropertyOp20
 70
     1
102
RTVSPropertyOp21
 70
     1
102
RTVSPropertyOp22
 70
     1
102
RTVSPropertyOp23
 70
     1
102
RTVSPropertyOp24
 70
     1
102
RTVSPropertyOp25
 70
     1
102
RTVSPropertyOp26
 70
     1
102
RTVSPropertyOp27
 70
     1
  0
XRECORD
  5
130E
102
{ACAD_REACTORS
330
130D
102
}
330
130D
100
AcDbXrecord
280
     1
102
RTVSPropertyOp0
 70
     1
102
RTVSPropertyOp1
 70
     1
102
RTVSPropertyOp2
 70
     1
102
RTVSPropertyOp3
 70
     1
102
RTVSPropertyOp4
 70
     1
102
RTVSPropertyOp5
 70
     1
102
RTVSPropertyOp6
 70
     1
102
RTVSPropertyOp7
 70
     1
102
RTVSPropertyOp8
 70
     1
102
RTVSPropertyOp9
 70
     1
102
RTVSPropertyOp10
 70
     1
102
RTVSPropertyOp11
 70
     1
102
RTVSPropertyOp12
 70
     1
102
RTVSPropertyOp13
 70
     1
102
RTVSPropertyOp14
 70
     1
102
RTVSPropertyOp15
 70
     1
102
RTVSPropertyOp16
 70
     1
102
RTVSPropertyOp17
 70
     1
102
RTVSPropertyOp18
 70
     1
102
RTVSPropertyOp19
 70
     1
102
RTVSPropertyOp20
 70
     1
102
RTVSPropertyOp21
 70
     1
102
RTVSPropertyOp22
 70
     1
102
RTVSPropertyOp23
 70
     1
102
RTVSPropertyOp24
 70
     1
102
RTVSPropertyOp25
 70
     1
102
RTVSPropertyOp26
 70
     1
102
RTVSPropertyOp27
 70
     1
  0
XRECORD
  5
1310
102
{ACAD_REACTORS
330
130F
102
}
330
130F
100
AcDbXrecord
280
     1
102
RTVSPropertyOp0
 70
     1
102
RTVSPropertyOp1
 70
     1
102
RTVSPropertyOp2
 70
     1
102
RTVSPropertyOp3
 70
     1
102
RTVSPropertyOp4
 70
     1
102
RTVSPropertyOp5
 70
     1
102
RTVSPropertyOp6
 70
     1
102
RTVSPropertyOp7
 70
     1
102
RTVSPropertyOp8
 70
     1
102
RTVSPropertyOp9
 70
     1
102
RTVSPropertyOp10
 70
     1
102
RTVSPropertyOp11
 70
     1
102
RTVSPropertyOp12
 70
     1
102
RTVSPropertyOp13
 70
     1
102
RTVSPropertyOp14
 70
     1
102
RTVSPropertyOp15
 70
     1
102
RTVSPropertyOp16
 70
     1
102
RTVSPropertyOp17
 70
     1
102
RTVSPropertyOp18
 70
     1
102
RTVSPropertyOp19
 70
     1
102
RTVSPropertyOp20
 70
     1
102
RTVSPropertyOp21
 70
     1
102
RTVSPropertyOp22
 70
     1
102
RTVSPropertyOp23
 70
     1
102
RTVSPropertyOp24
 70
     1
102
RTVSPropertyOp25
 70
     1
102
RTVSPropertyOp26
 70
     1
102
RTVSPropertyOp27
 70
     1
  0
XRECORD
  5
1318
102
{ACAD_REACTORS
330
1317
102
}
330
1317
100
AcDbXrecord
280
     1
102
RTVSPropertyOp0
 70
     1
102
RTVSPropertyOp1
 70
     1
102
RTVSPropertyOp2
 70
     1
102
RTVSPropertyOp3
 70
     1
102
RTVSPropertyOp4
 70
     1
102
RTVSPropertyOp5
 70
     1
102
RTVSPropertyOp6
 70
     1
102
RTVSPropertyOp7
 70
     1
102
RTVSPropertyOp8
 70
     1
102
RTVSPropertyOp9
 70
     1
102
RTVSPropertyOp10
 70
     1
102
RTVSPropertyOp11
 70
     1
102
RTVSPropertyOp12
 70
     1
102
RTVSPropertyOp13
 70
     1
102
RTVSPropertyOp14
 70
     1
102
RTVSPropertyOp15
 70
     1
102
RTVSPropertyOp16
 70
     1
102
RTVSPropertyOp17
 70
     1
102
RTVSPropertyOp18
 70
     1
102
RTVSPropertyOp19
 70
     1
102
RTVSPropertyOp20
 70
     1
102
RTVSPropertyOp21
 70
     1
102
RTVSPropertyOp22
 70
     1
102
RTVSPropertyOp23
 70
     1
102
RTVSPropertyOp24
 70
     1
102
RTVSPropertyOp25
 70
     1
102
RTVSPropertyOp26
 70
     1
102
RTVSPropertyOp27
 70
     1
  0
XRECORD
  5
1334
102
{ACAD_REACTORS
330
1333
102
}
330
1333
100
AcDbXrecord
280
     1
102
RTVSPropertyOp0
 70
     0
102
RTVSPropertyOp1
 70
     0
102
RTVSPropertyOp2
 70
     0
102
RTVSPropertyOp3
 70
     0
102
RTVSPropertyOp4
 70
     0
102
RTVSPropertyOp5
 70
     0
102
RTVSPropertyOp6
 70
     0
102
RTVSPropertyOp7
 70
     0
102
RTVSPropertyOp8
 70
     0
102
RTVSPropertyOp9
 70
     0
102
RTVSPropertyOp10
 70
     0
102
RTVSPropertyOp11
 70
     0
102
RTVSPropertyOp12
 70
     0
102
RTVSPropertyOp13
 70
     0
102
RTVSPropertyOp14
 70
     2
102
RTVSPropertyOp15
 70
     0
102
RTVSPropertyOp16
 70
     0
102
RTVSPropertyOp17
 70
     0
102
RTVSPropertyOp18
 70
     0
102
RTVSPropertyOp19
 70
     0
102
RTVSPropertyOp20
 70
     0
102
RTVSPropertyOp21
 70
     0
102
RTVSPropertyOp22
 70
     0
102
RTVSPropertyOp23
 70
     0
102
RTVSPropertyOp24
 70
     0
102
RTVSPropertyOp25
 70
     0
102
RTVSPropertyOp26
 70
     0
102
RTVSPropertyOp27
 70
     0
  0
XRECORD
  5
1324
102
{ACAD_REACTORS
330
1323
102
}
330
1323
100
AcDbXrecord
280
     1
102
RTVSPropertyOp0
 70
     1
102
RTVSPropertyOp1
 70
     1
102
RTVSPropertyOp2
 70
     1
102
RTVSPropertyOp3
 70
     1
102
RTVSPropertyOp4
 70
     1
102
RTVSPropertyOp5
 70
     1
102
RTVSPropertyOp6
 70
     1
102
RTVSPropertyOp7
 70
     1
102
RTVSPropertyOp8
 70
     1
102
RTVSPropertyOp9
 70
     1
102
RTVSPropertyOp10
 70
     1
102
RTVSPropertyOp11
 70
     1
102
RTVSPropertyOp12
 70
     1
102
RTVSPropertyOp13
 70
     1
102
RTVSPropertyOp14
 70
     1
102
RTVSPropertyOp15
 70
     1
102
RTVSPropertyOp16
 70
     1
102
RTVSPropertyOp17
 70
     1
102
RTVSPropertyOp18
 70
     1
102
RTVSPropertyOp19
 70
     1
102
RTVSPropertyOp20
 70
     1
102
RTVSPropertyOp21
 70
     1
102
RTVSPropertyOp22
 70
     1
102
RTVSPropertyOp23
 70
     1
102
RTVSPropertyOp24
 70
     1
102
RTVSPropertyOp25
 70
     1
102
RTVSPropertyOp26
 70
     1
102
RTVSPropertyOp27
 70
     1
  0
XRECORD
  5
1336
102
{ACAD_REACTORS
330
1335
102
}
330
1335
100
AcDbXrecord
280
     1
102
RTVSPropertyOp0
 70
     0
102
RTVSPropertyOp1
 70
     0
102
RTVSPropertyOp2
 70
     0
102
RTVSPropertyOp3
 70
     0
102
RTVSPropertyOp4
 70
     0
102
RTVSPropertyOp5
 70
     0
102
RTVSPropertyOp6
 70
     0
102
RTVSPropertyOp7
 70
     0
102
RTVSPropertyOp8
 70
     0
102
RTVSPropertyOp9
 70
     0
102
RTVSPropertyOp10
 70
     0
102
RTVSPropertyOp11
 70
     0
102
RTVSPropertyOp12
 70
     0
102
RTVSPropertyOp13
 70
     0
102
RTVSPropertyOp14
 70
     2
102
RTVSPropertyOp15
 70
     0
102
RTVSPropertyOp16
 70
     0
102
RTVSPropertyOp17
 70
     0
102
RTVSPropertyOp18
 70
     0
102
RTVSPropertyOp19
 70
     0
102
RTVSPropertyOp20
 70
     0
102
RTVSPropertyOp21
 70
     0
102
RTVSPropertyOp22
 70
     0
102
RTVSPropertyOp23
 70
     0
102
RTVSPropertyOp24
 70
     0
102
RTVSPropertyOp25
 70
     0
102
RTVSPropertyOp26
 70
     0
102
RTVSPropertyOp27
 70
     0
  0
XRECORD
  5
131C
102
{ACAD_REACTORS
330
131B
102
}
330
131B
100
AcDbXrecord
280
     1
102
RTVSPropertyOp0
 70
     1
102
RTVSPropertyOp1
 70
     1
102
RTVSPropertyOp2
 70
     1
102
RTVSPropertyOp3
 70
     1
102
RTVSPropertyOp4
 70
     1
102
RTVSPropertyOp5
 70
     1
102
RTVSPropertyOp6
 70
     1
102
RTVSPropertyOp7
 70
     1
102
RTVSPropertyOp8
 70
     1
102
RTVSPropertyOp9
 70
     1
102
RTVSPropertyOp10
 70
     1
102
RTVSPropertyOp11
 70
     1
102
RTVSPropertyOp12
 70
     1
102
RTVSPropertyOp13
 70
     1
102
RTVSPropertyOp14
 70
     1
102
RTVSPropertyOp15
 70
     1
102
RTVSPropertyOp16
 70
     1
102
RTVSPropertyOp17
 70
     1
102
RTVSPropertyOp18
 70
     1
102
RTVSPropertyOp19
 70
     1
102
RTVSPropertyOp20
 70
     1
102
RTVSPropertyOp21
 70
     1
102
RTVSPropertyOp22
 70
     1
102
RTVSPropertyOp23
 70
     1
102
RTVSPropertyOp24
 70
     1
102
RTVSPropertyOp25
 70
     1
102
RTVSPropertyOp26
 70
     1
102
RTVSPropertyOp27
 70
     1
  0
XRECORD
  5
1332
102
{ACAD_REACTORS
330
1331
102
}
330
1331
100
AcDbXrecord
280
     1
102
RTVSPropertyOp0
 70
     1
102
RTVSPropertyOp1
 70
     1
102
RTVSPropertyOp2
 70
     1
102
RTVSPropertyOp3
 70
     1
102
RTVSPropertyOp4
 70
     1
102
RTVSPropertyOp5
 70
     1
102
RTVSPropertyOp6
 70
     1
102
RTVSPropertyOp7
 70
     1
102
RTVSPropertyOp8
 70
     1
102
RTVSPropertyOp9
 70
     1
102
RTVSPropertyOp10
 70
     1
102
RTVSPropertyOp11
 70
     1
102
RTVSPropertyOp12
 70
     1
102
RTVSPropertyOp13
 70
     1
102
RTVSPropertyOp14
 70
     1
102
RTVSPropertyOp15
 70
     1
102
RTVSPropertyOp16
 70
     1
102
RTVSPropertyOp17
 70
     1
102
RTVSPropertyOp18
 70
     1
102
RTVSPropertyOp19
 70
     1
102
RTVSPropertyOp20
 70
     1
102
RTVSPropertyOp21
 70
     1
102
RTVSPropertyOp22
 70
     1
102
RTVSPropertyOp23
 70
     1
102
RTVSPropertyOp24
 70
     1
102
RTVSPropertyOp25
 70
     1
102
RTVSPropertyOp26
 70
     1
102
RTVSPropertyOp27
 70
     1
  0
XRECORD
  5
1330
102
{ACAD_REACTORS
330
132F
102
}
330
132F
100
AcDbXrecord
280
     1
102
RTVSPropertyOp0
 70
     1
102
RTVSPropertyOp1
 70
     1
102
RTVSPropertyOp2
 70
     1
102
RTVSPropertyOp3
 70
     1
102
RTVSPropertyOp4
 70
     1
102
RTVSPropertyOp5
 70
     1
102
RTVSPropertyOp6
 70
     1
102
RTVSPropertyOp7
 70
     1
102
RTVSPropertyOp8
 70
     1
102
RTVSPropertyOp9
 70
     1
102
RTVSPropertyOp10
 70
     1
102
RTVSPropertyOp11
 70
     1
102
RTVSPropertyOp12
 70
     1
102
RTVSPropertyOp13
 70
     1
102
RTVSPropertyOp14
 70
     1
102
RTVSPropertyOp15
 70
     1
102
RTVSPropertyOp16
 70
     1
102
RTVSPropertyOp17
 70
     1
102
RTVSPropertyOp18
 70
     1
102
RTVSPropertyOp19
 70
     1
102
RTVSPropertyOp20
 70
     1
102
RTVSPropertyOp21
 70
     1
102
RTVSPropertyOp22
 70
     1
102
RTVSPropertyOp23
 70
     1
102
RTVSPropertyOp24
 70
     1
102
RTVSPropertyOp25
 70
     1
102
RTVSPropertyOp26
 70
     1
102
RTVSPropertyOp27
 70
     1
  0
XRECORD
  5
132A
102
{ACAD_REACTORS
330
1329
102
}
330
1329
100
AcDbXrecord
280
     1
102
RTVSPropertyOp0
 70
     1
102
RTVSPropertyOp1
 70
     1
102
RTVSPropertyOp2
 70
     1
102
RTVSPropertyOp3
 70
     1
102
RTVSPropertyOp4
 70
     1
102
RTVSPropertyOp5
 70
     1
102
RTVSPropertyOp6
 70
     1
102
RTVSPropertyOp7
 70
     1
102
RTVSPropertyOp8
 70
     1
102
RTVSPropertyOp9
 70
     1
102
RTVSPropertyOp10
 70
     1
102
RTVSPropertyOp11
 70
     1
102
RTVSPropertyOp12
 70
     1
102
RTVSPropertyOp13
 70
     1
102
RTVSPropertyOp14
 70
     1
102
RTVSPropertyOp15
 70
     1
102
RTVSPropertyOp16
 70
     1
102
RTVSPropertyOp17
 70
     1
102
RTVSPropertyOp18
 70
     1
102
RTVSPropertyOp19
 70
     1
102
RTVSPropertyOp20
 70
     1
102
RTVSPropertyOp21
 70
     1
102
RTVSPropertyOp22
 70
     1
102
RTVSPropertyOp23
 70
     1
102
RTVSPropertyOp24
 70
     1
102
RTVSPropertyOp25
 70
     1
102
RTVSPropertyOp26
 70
     1
102
RTVSPropertyOp27
 70
     1
  0
XRECORD
  5
132C
102
{ACAD_REACTORS
330
132B
102
}
330
132B
100
AcDbXrecord
280
     1
102
RTVSPropertyOp0
 70
     1
102
RTVSPropertyOp1
 70
     1
102
RTVSPropertyOp2
 70
     1
102
RTVSPropertyOp3
 70
     1
102
RTVSPropertyOp4
 70
     1
102
RTVSPropertyOp5
 70
     1
102
RTVSPropertyOp6
 70
     1
102
RTVSPropertyOp7
 70
     1
102
RTVSPropertyOp8
 70
     1
102
RTVSPropertyOp9
 70
     1
102
RTVSPropertyOp10
 70
     1
102
RTVSPropertyOp11
 70
     1
102
RTVSPropertyOp12
 70
     1
102
RTVSPropertyOp13
 70
     1
102
RTVSPropertyOp14
 70
     1
102
RTVSPropertyOp15
 70
     1
102
RTVSPropertyOp16
 70
     1
102
RTVSPropertyOp17
 70
     1
102
RTVSPropertyOp18
 70
     1
102
RTVSPropertyOp19
 70
     1
102
RTVSPropertyOp20
 70
     1
102
RTVSPropertyOp21
 70
     1
102
RTVSPropertyOp22
 70
     1
102
RTVSPropertyOp23
 70
     1
102
RTVSPropertyOp24
 70
     1
102
RTVSPropertyOp25
 70
     1
102
RTVSPropertyOp26
 70
     1
102
RTVSPropertyOp27
 70
     1
  0
XRECORD
  5
1322
102
{ACAD_REACTORS
330
1321
102
}
330
1321
100
AcDbXrecord
280
     1
102
RTVSPropertyOp0
 70
     1
102
RTVSPropertyOp1
 70
     1
102
RTVSPropertyOp2
 70
     1
102
RTVSPropertyOp3
 70
     1
102
RTVSPropertyOp4
 70
     1
102
RTVSPropertyOp5
 70
     1
102
RTVSPropertyOp6
 70
     1
102
RTVSPropertyOp7
 70
     1
102
RTVSPropertyOp8
 70
     1
102
RTVSPropertyOp9
 70
     1
102
RTVSPropertyOp10
 70
     1
102
RTVSPropertyOp11
 70
     1
102
RTVSPropertyOp12
 70
     1
102
RTVSPropertyOp13
 70
     1
102
RTVSPropertyOp14
 70
     1
102
RTVSPropertyOp15
 70
     1
102
RTVSPropertyOp16
 70
     1
102
RTVSPropertyOp17
 70
     1
102
RTVSPropertyOp18
 70
     1
102
RTVSPropertyOp19
 70
     1
102
RTVSPropertyOp20
 70
     1
102
RTVSPropertyOp21
 70
     1
102
RTVSPropertyOp22
 70
     1
102
RTVSPropertyOp23
 70
     1
102
RTVSPropertyOp24
 70
     1
102
RTVSPropertyOp25
 70
     1
102
RTVSPropertyOp26
 70
     1
102
RTVSPropertyOp27
 70
     1
  0
XRECORD
  5
1316
102
{ACAD_REACTORS
330
1315
102
}
330
1315
100
AcDbXrecord
280
     1
102
RTVSPropertyOp0
 70
     1
102
RTVSPropertyOp1
 70
     1
102
RTVSPropertyOp2
 70
     1
102
RTVSPropertyOp3
 70
     1
102
RTVSPropertyOp4
 70
     1
102
RTVSPropertyOp5
 70
     1
102
RTVSPropertyOp6
 70
     1
102
RTVSPropertyOp7
 70
     1
102
RTVSPropertyOp8
 70
     1
102
RTVSPropertyOp9
 70
     1
102
RTVSPropertyOp10
 70
     1
102
RTVSPropertyOp11
 70
     1
102
RTVSPropertyOp12
 70
     1
102
RTVSPropertyOp13
 70
     1
102
RTVSPropertyOp14
 70
     1
102
RTVSPropertyOp15
 70
     1
102
RTVSPropertyOp16
 70
     1
102
RTVSPropertyOp17
 70
     1
102
RTVSPropertyOp18
 70
     1
102
RTVSPropertyOp19
 70
     1
102
RTVSPropertyOp20
 70
     1
102
RTVSPropertyOp21
 70
     1
102
RTVSPropertyOp22
 70
     1
102
RTVSPropertyOp23
 70
     1
102
RTVSPropertyOp24
 70
     1
102
RTVSPropertyOp25
 70
     1
102
RTVSPropertyOp26
 70
     1
102
RTVSPropertyOp27
 70
     1
  0
XRECORD
  5
132E
102
{ACAD_REACTORS
330
132D
102
}
330
132D
100
AcDbXrecord
280
     1
102
RTVSPropertyOp0
 70
     1
102
RTVSPropertyOp1
 70
     1
102
RTVSPropertyOp2
 70
     1
102
RTVSPropertyOp3
 70
     1
102
RTVSPropertyOp4
 70
     1
102
RTVSPropertyOp5
 70
     1
102
RTVSPropertyOp6
 70
     1
102
RTVSPropertyOp7
 70
     1
102
RTVSPropertyOp8
 70
     1
102
RTVSPropertyOp9
 70
     1
102
RTVSPropertyOp10
 70
     1
102
RTVSPropertyOp11
 70
     1
102
RTVSPropertyOp12
 70
     1
102
RTVSPropertyOp13
 70
     1
102
RTVSPropertyOp14
 70
     1
102
RTVSPropertyOp15
 70
     1
102
RTVSPropertyOp16
 70
     1
102
RTVSPropertyOp17
 70
     1
102
RTVSPropertyOp18
 70
     1
102
RTVSPropertyOp19
 70
     1
102
RTVSPropertyOp20
 70
     1
102
RTVSPropertyOp21
 70
     1
102
RTVSPropertyOp22
 70
     1
102
RTVSPropertyOp23
 70
     1
102
RTVSPropertyOp24
 70
     1
102
RTVSPropertyOp25
 70
     1
102
RTVSPropertyOp26
 70
     1
102
RTVSPropertyOp27
 70
     1
  0
ENDSEC
  0
EOF
