  0
SECTION
  2
HEADER
  9
$ACADVER
  1
AC1018
  9
$ACADMAINTVER
 70
   104
  9
$DWGCODEPAGE
  3
ANSI_1250
  9
$AUTHOR
  1
tmrtka
  9
$LASTSAVEDBY
  1
onovak
  9
$REVISIONNUMBER
  1
000
  9
$CUSTOMPROPERTYTAG
  1
Vedoucí
  9
$CUSTOMPROPERTY
  1

  9
$CUSTOMPROPERTYTAG
  1
Společnost
  9
$CUSTOMPROPERTY
  1

  9
$CUSTOMPROPERTYTAG
  1
Kategorie
  9
$CUSTOMPROPERTY
  1

  9
$CUSTOMPROPERTYTAG
  1
Číslo součásti
  9
$CUSTOMPROPERTY
  1
414708
  9
$CUSTOMPROPERTYTAG
  1
Popis
  9
$CUSTOMPROPERTY
  1

  9
$CUSTOMPROPERTYTAG
  1
Projekt
  9
$CUSTOMPROPERTY
  1

  9
$CUSTOMPROPERTYTAG
  1
Kreslil
  9
$CUSTOMPROPERTY
  1
tmrtka
  9
$CUSTOMPROPERTYTAG
  1
Schválil
  9
$CUSTOMPROPERTY
  1

  9
$CUSTOMPROPERTYTAG
  1
Zodpovídá
  9
$CUSTOMPROPERTY
  1

  9
$CUSTOMPROPERTYTAG
  1
Nákladové středisko
  9
$CUSTOMPROPERTY
  1

  9
$CUSTOMPROPERTYTAG
  1
Dodavatel
  9
$CUSTOMPROPERTY
  1

  9
$CUSTOMPROPERTYTAG
  1
Uživatelský stav
  9
$CUSTOMPROPERTY
  1

  9
$CUSTOMPROPERTYTAG
  1
Stav návrhu
  9
$CUSTOMPROPERTY
  1
Rozpracováno
  9
$CUSTOMPROPERTYTAG
  1
Zkontroloval
  9
$CUSTOMPROPERTY
  1

  9
$CUSTOMPROPERTYTAG
  1
Techn. kontr. schválil
  9
$CUSTOMPROPERTY
  1

  9
$CUSTOMPROPERTYTAG
  1
Výrobu schválil
  9
$CUSTOMPROPERTY
  1

  9
$CUSTOMPROPERTYTAG
  1
VS_First
  9
$CUSTOMPROPERTY
  1

  9
$CUSTOMPROPERTYTAG
  1
VS_All
  9
$CUSTOMPROPERTY
  1
1:1,
  9
$CUSTOMPROPERTYTAG
  1
Model_Mass_Value
  9
$CUSTOMPROPERTY
  1
,0
  9
$CUSTOMPROPERTYTAG
  1
Model_Mass_Units
  9
$CUSTOMPROPERTY
  1
kg
  9
$CUSTOMPROPERTYTAG
  1
Model_Area_Value
  9
$CUSTOMPROPERTY
  1
2694,0
  9
$CUSTOMPROPERTYTAG
  1
Model_Area_Units
  9
$CUSTOMPROPERTY
  1
mm˛
  9
$CUSTOMPROPERTYTAG
  1
Model_Volume_Value
  9
$CUSTOMPROPERTY
  1
5471,0
  9
$CUSTOMPROPERTYTAG
  1
Model_Volume_Units
  9
$CUSTOMPROPERTY
  1
mmł
  9
$CUSTOMPROPERTYTAG
  1
Model_CogX_Value
  9
$CUSTOMPROPERTY
  1
,0
  9
$CUSTOMPROPERTYTAG
  1
Model_CogY_Value
  9
$CUSTOMPROPERTY
  1
,0
  9
$CUSTOMPROPERTYTAG
  1
Model_CogZ_Value
  9
$CUSTOMPROPERTY
  1
,0
  9
$CUSTOMPROPERTYTAG
  1
Model_Cog_Units
  9
$CUSTOMPROPERTY
  1
mm
  9
$CUSTOMPROPERTYTAG
  1
Model_Ixx_Value
  9
$CUSTOMPROPERTY
  1
,0
  9
$CUSTOMPROPERTYTAG
  1
Model_Iyy_Value
  9
$CUSTOMPROPERTY
  1
,0
  9
$CUSTOMPROPERTYTAG
  1
Model_Izz_Value
  9
$CUSTOMPROPERTY
  1
,0
  9
$CUSTOMPROPERTYTAG
  1
Model_Ixy_Value
  9
$CUSTOMPROPERTY
  1
,0
  9
$CUSTOMPROPERTYTAG
  1
Model_Iyz_Value
  9
$CUSTOMPROPERTY
  1
,0
  9
$CUSTOMPROPERTYTAG
  1
Model_Ixz_Value
  9
$CUSTOMPROPERTY
  1
,0
  9
$CUSTOMPROPERTYTAG
  1
Model_MassMom_Units
  9
$CUSTOMPROPERTY
  1
kg mm˛
  9
$CUSTOMPROPERTYTAG
  1
FirstViewScale
  9
$CUSTOMPROPERTY
  1

  9
$CUSTOMPROPERTYTAG
  1
AllViewScales
  9
$CUSTOMPROPERTY
  1

  9
$CUSTOMPROPERTYTAG
  1
SaveDate
  9
$CUSTOMPROPERTY
  1
09/12/2007
  9
$CUSTOMPROPERTYTAG
  1
SaveTime
  9
$CUSTOMPROPERTY
  1
10:32
  9
$CUSTOMPROPERTYTAG
  1
PaperSize
  9
$CUSTOMPROPERTY
  1
A3
  9
$CUSTOMPROPERTYTAG
  1
DateSaved
  9
$CUSTOMPROPERTY
  1
12.09.2007
  9
$CUSTOMPROPERTYTAG
  1
TimeSaved
  9
$CUSTOMPROPERTY
  1
10:32 dop.
  9
$INSBASE
 10
0.0
 20
0.0
 30
0.0
  9
$EXTMIN
 10
58.47610627123618
 20
-17.98097209719049
 30
-0.000000000000013
  9
$EXTMAX
 10
288.1315623481425
 20
436.2852598793044
 30
0.0000000000000023
  9
$LIMMIN
 10
0.0
 20
0.0
  9
$LIMMAX
 10
630.0
 20
445.5
  9
$ORTHOMODE
 70
     1
  9
$REGENMODE
 70
     1
  9
$FILLMODE
 70
     1
  9
$QTEXTMODE
 70
     0
  9
$MIRRTEXT
 70
     0
  9
$LTSCALE
 40
1.5
  9
$ATTMODE
 70
     1
  9
$TEXTSIZE
 40
0.2
  9
$TRACEWID
 40
0.05
  9
$TEXTSTYLE
  7
Standard
  9
$CLAYER
  8
0
  9
$CELTYPE
  6
ByLayer
  9
$CECOLOR
 62
   256
  9
$CELTSCALE
 40
1.0
  9
$DISPSILH
 70
     0
  9
$DIMSCALE
 40
1.0
  9
$DIMASZ
 40
1.799999999999999
  9
$DIMEXO
 40
0.0625
  9
$DIMDLI
 40
0.38
  9
$DIMRND
 40
0.0
  9
$DIMDLE
 40
0.0
  9
$DIMEXE
 40
0.18
  9
$DIMTP
 40
0.0
  9
$DIMTM
 40
0.0
  9
$DIMTXT
 40
0.3499999940395355
  9
$DIMCEN
 40
0.09
  9
$DIMTSZ
 40
0.0
  9
$DIMTOL
 70
     0
  9
$DIMLIM
 70
     0
  9
$DIMTIH
 70
     1
  9
$DIMTOH
 70
     1
  9
$DIMSE1
 70
     0
  9
$DIMSE2
 70
     0
  9
$DIMTAD
 70
     0
  9
$DIMZIN
 70
     0
  9
$DIMBLK
  1

  9
$DIMASO
 70
     1
  9
$DIMSHO
 70
     1
  9
$DIMPOST
  1

  9
$DIMAPOST
  1

  9
$DIMALT
 70
     0
  9
$DIMALTD
 70
     2
  9
$DIMALTF
 40
25.4
  9
$DIMLFAC
 40
1.0
  9
$DIMTOFL
 70
     0
  9
$DIMTVP
 40
0.0
  9
$DIMTIX
 70
     0
  9
$DIMSOXD
 70
     0
  9
$DIMSAH
 70
     0
  9
$DIMBLK1
  1

  9
$DIMBLK2
  1

  9
$DIMSTYLE
  2
Standard
  9
$DIMCLRD
 70
     0
  9
$DIMCLRE
 70
     0
  9
$DIMCLRT
 70
     0
  9
$DIMTFAC
 40
1.0
  9
$DIMGAP
 40
0.09
  9
$DIMJUST
 70
     0
  9
$DIMSD1
 70
     0
  9
$DIMSD2
 70
     0
  9
$DIMTOLJ
 70
     1
  9
$DIMTZIN
 70
     0
  9
$DIMALTZ
 70
     0
  9
$DIMALTTZ
 70
     0
  9
$DIMUPT
 70
     0
  9
$DIMDEC
 70
     4
  9
$DIMTDEC
 70
     4
  9
$DIMALTU
 70
     2
  9
$DIMALTTD
 70
     2
  9
$DIMTXSTY
  7
Standard
  9
$DIMAUNIT
 70
     0
  9
$DIMADEC
 70
     0
  9
$DIMALTRND
 40
0.0
  9
$DIMAZIN
 70
     0
  9
$DIMDSEP
 70
    46
  9
$DIMATFIT
 70
     3
  9
$DIMFRAC
 70
     0
  9
$DIMLDRBLK
  1

  9
$DIMLUNIT
 70
     2
  9
$DIMLWD
 70
    -2
  9
$DIMLWE
 70
    -2
  9
$DIMTMOVE
 70
     0
  9
$LUNITS
 70
     2
  9
$LUPREC
 70
     2
  9
$SKETCHINC
 40
0.1
  9
$FILLETRAD
 40
0.0
  9
$AUNITS
 70
     0
  9
$AUPREC
 70
     0
  9
$MENU
  1
.
  9
$ELEVATION
 40
0.0
  9
$PELEVATION
 40
0.0
  9
$THICKNESS
 40
0.0
  9
$LIMCHECK
 70
     0
  9
$CHAMFERA
 40
0.0
  9
$CHAMFERB
 40
0.0
  9
$CHAMFERC
 40
0.0
  9
$CHAMFERD
 40
0.0
  9
$SKPOLY
 70
     0
  9
$TDCREATE
 40
2456105.424910914
  9
$TDUCREATE
 40
2456105.341577581
  9
$TDUPDATE
 40
2456112.465140625
  9
$TDUUPDATE
 40
2456112.381807292
  9
$TDINDWG
 40
0.0255043981
  9
$TDUSRTIMER
 40
0.0255042130
  9
$USRTIMER
 70
     1
  9
$ANGBASE
 50
0.0
  9
$ANGDIR
 70
     0
  9
$PDMODE
 70
     0
  9
$PDSIZE
 40
0.0
  9
$PLINEWID
 40
0.0
  9
$SPLFRAME
 70
     0
  9
$SPLINETYPE
 70
     6
  9
$SPLINESEGS
 70
     8
  9
$HANDSEED
  5
1855
  9
$SURFTAB1
 70
     6
  9
$SURFTAB2
 70
     6
  9
$SURFTYPE
 70
     6
  9
$SURFU
 70
     6
  9
$SURFV
 70
     6
  9
$UCSBASE
  2

  9
$UCSNAME
  2

  9
$UCSORG
 10
0.0
 20
0.0
 30
0.0
  9
$UCSXDIR
 10
1.0
 20
0.0
 30
0.0
  9
$UCSYDIR
 10
0.0
 20
1.0
 30
0.0
  9
$UCSORTHOREF
  2

  9
$UCSORTHOVIEW
 70
     0
  9
$UCSORGTOP
 10
0.0
 20
0.0
 30
0.0
  9
$UCSORGBOTTOM
 10
0.0
 20
0.0
 30
0.0
  9
$UCSORGLEFT
 10
0.0
 20
0.0
 30
0.0
  9
$UCSORGRIGHT
 10
0.0
 20
0.0
 30
0.0
  9
$UCSORGFRONT
 10
0.0
 20
0.0
 30
0.0
  9
$UCSORGBACK
 10
0.0
 20
0.0
 30
0.0
  9
$PUCSBASE
  2

  9
$PUCSNAME
  2

  9
$PUCSORG
 10
0.0
 20
0.0
 30
0.0
  9
$PUCSXDIR
 10
1.0
 20
0.0
 30
0.0
  9
$PUCSYDIR
 10
0.0
 20
1.0
 30
0.0
  9
$PUCSORTHOREF
  2

  9
$PUCSORTHOVIEW
 70
     0
  9
$PUCSORGTOP
 10
0.0
 20
0.0
 30
0.0
  9
$PUCSORGBOTTOM
 10
0.0
 20
0.0
 30
0.0
  9
$PUCSORGLEFT
 10
0.0
 20
0.0
 30
0.0
  9
$PUCSORGRIGHT
 10
0.0
 20
0.0
 30
0.0
  9
$PUCSORGFRONT
 10
0.0
 20
0.0
 30
0.0
  9
$PUCSORGBACK
 10
0.0
 20
0.0
 30
0.0
  9
$USERI1
 70
     0
  9
$USERI2
 70
     0
  9
$USERI3
 70
     0
  9
$USERI4
 70
     0
  9
$USERI5
 70
     0
  9
$USERR1
 40
0.0
  9
$USERR2
 40
0.0
  9
$USERR3
 40
0.0
  9
$USERR4
 40
0.0
  9
$USERR5
 40
0.0
  9
$WORLDVIEW
 70
     1
  9
$SHADEDGE
 70
     3
  9
$SHADEDIF
 70
    70
  9
$TILEMODE
 70
     1
  9
$MAXACTVP
 70
    64
  9
$PINSBASE
 10
0.0
 20
0.0
 30
0.0
  9
$PLIMCHECK
 70
     0
  9
$PEXTMIN
 10
0.0
 20
0.0
 30
0.0
  9
$PEXTMAX
 10
630.0
 20
445.5
 30
0.0
  9
$PLIMMIN
 10
0.0
 20
0.0
  9
$PLIMMAX
 10
630.0
 20
445.5
  9
$UNITMODE
 70
     0
  9
$VISRETAIN
 70
     1
  9
$PLINEGEN
 70
     0
  9
$PSLTSCALE
 70
     1
  9
$TREEDEPTH
 70
  3020
  9
$CMLSTYLE
  2
Standard
  9
$CMLJUST
 70
     0
  9
$CMLSCALE
 40
1.0
  9
$PROXYGRAPHICS
 70
     1
  9
$MEASUREMENT
 70
     1
  9
$CELWEIGHT
370
    -1
  9
$ENDCAPS
280
     0
  9
$JOINSTYLE
280
     0
  9
$LWDISPLAY
290
     0
  9
$INSUNITS
 70
     4
  9
$HYPERLINKBASE
  1

  9
$STYLESHEET
  1

  9
$XEDIT
290
     1
  9
$CEPSNTYPE
380
     0
  9
$PSTYLEMODE
290
     1
  9
$FINGERPRINTGUID
  2
{E2B6C298-BEFD-4983-91CD-44466EA9A6E0}
  9
$VERSIONGUID
  2
{59FDB5B1-6E01-4AC4-A429-01F9ED941E08}
  9
$EXTNAMES
290
     1
  9
$PSVPSCALE
 40
0.0
  9
$OLESTARTUP
290
     0
  9
$SORTENTS
280
   127
  9
$INDEXCTL
280
     0
  9
$HIDETEXT
280
     1
  9
$XCLIPFRAME
290
     0
  9
$HALOGAP
280
     0
  9
$OBSCOLOR
 70
   257
  9
$OBSLTYPE
280
     0
  9
$INTERSECTIONDISPLAY
280
     0
  9
$INTERSECTIONCOLOR
 70
   257
  9
$DIMASSOC
280
     1
  9
$PROJECTNAME
  1

  0
ENDSEC
  0
SECTION
  2
CLASSES
  0
CLASS
  1
ACDBDICTIONARYWDFLT
  2
AcDbDictionaryWithDefault
  3
ObjectDBX Classes
 90
        0
 91
        1
280
     0
281
     0
  0
CLASS
  1
MATERIAL
  2
AcDbMaterial
  3
ObjectDBX Classes
 90
     1153
 91
        3
280
     0
281
     0
  0
CLASS
  1
VISUALSTYLE
  2
AcDbVisualStyle
  3
ObjectDBX Classes
 90
     4095
 91
       26
280
     0
281
     0
  0
CLASS
  1
SCALE
  2
AcDbScale
  3
ObjectDBX Classes
 90
     1153
 91
       17
280
     0
281
     0
  0
CLASS
  1
TABLESTYLE
  2
AcDbTableStyle
  3
ObjectDBX Classes
 90
     4095
 91
        1
280
     0
281
     0
  0
CLASS
  1
MLEADERSTYLE
  2
AcDbMLeaderStyle
  3
ACDB_MLEADERSTYLE_CLASS
 90
     4095
 91
        1
280
     0
281
     0
  0
CLASS
  1
DICTIONARYVAR
  2
AcDbDictionaryVar
  3
ObjectDBX Classes
 90
        0
 91
       10
280
     0
281
     0
  0
CLASS
  1
ACME_DOCUMENT
  2
AcMeDbDoc
  3
AcMeServices
 90
     1024
 91
        1
280
     0
281
     0
  0
CLASS
  1
AMGSETTINGSOBJ
  2
AmgSettingsObj
  3
"AcadM|Product Description: AutoCAD Mechanical|Company: Autodesk, Inc."
 90
     1024
 91
        2
280
     0
281
     0
  0
CLASS
  1
ACMESCOPE
  2
AcMeScope
  3
AcMeServices
 90
     1024
 91
        1
280
     0
281
     0
  0
CLASS
  1
ACMECOMMANDHISTORY
  2
AcMeCommandHistory
  3
AcMeServices
 90
     1024
 91
        1
280
     0
281
     0
  0
CLASS
  1
ACIMSYSVARMAN
  2
AcImSysVarManager
  3
AcMeServices
 90
     1024
 91
        5
280
     0
281
     0
  0
CLASS
  1
ACIMINTSYSVAR
  2
AcImIntSysVar
  3
AcMeServices
 90
     1024
 91
       27
280
     0
281
     0
  0
CLASS
  1
ACMEDRAWINGMAN
  2
AcMeDrawingMan
  3
AcMeServices
 90
     1024
 91
        1
280
     0
281
     0
  0
CLASS
  1
ACMEVIEW
  2
AcMeView
  3
AcMeServices
 90
     1024
 91
        1
280
     0
281
     0
  0
CLASS
  1
ACDBENTITYCACHE
  2
AcMeEntityCache
  3
AcMeServices
 90
     1024
 91
        1
280
     0
281
     0
  0
CLASS
  1
ACMESTATEMGR
  2
AcMeStateMgr
  3
AcMeServices
 90
     1024
 91
        1
280
     0
281
     0
  0
CLASS
  1
ACGREFMASTER
  2
AcGrefMaster
  3
AcAttribServices
 90
     1024
 91
        1
280
     0
281
     0
  0
CLASS
  1
AM_DRAWING_MGR
  2
AcDmDwgMgr
  3
AcMechDwgViewMgmt
 90
     1024
 91
        1
280
     0
281
     0
  0
CLASS
  1
AM_DWG_DOCUMENT
  2
AcDmDwgDocument
  3
AcMechDwgViewMgmt
 90
     1024
 91
        1
280
     0
281
     0
  0
CLASS
  1
AM_DWG_SHEET
  2
AcDmSheet
  3
AcMechDwgViewMgmt
 90
     1024
 91
        2
280
     0
281
     0
  0
CLASS
  1
AM_VIEWDIMPARMAP
  2
AcDmViewDimParMap
  3
AcMechDwgViewMgmt
 90
     1024
 91
        2
280
     0
281
     0
  0
CLASS
  1
AMDTINTERNALREACTOR
  2
AmdtInternalReactor
  3
AcMeServices
 90
     1024
 91
        1
280
     0
281
     0
  0
CLASS
  1
ACIMREALSYSVAR
  2
AcImRealSysVar
  3
AcMeServices
 90
     1024
 91
        1
280
     0
281
     0
  0
CLASS
  1
AM_DWGMGR_NAME
  2
AcDmDwgMgrName
  3
AcMechDwgViewMgmt
 90
     1024
 91
        1
280
     0
281
     0
  0
CLASS
  1
ACME_DATABASE
  2
AcMeDbDatabase
  3
AcMeServices
 90
     1024
 91
        1
280
     0
281
     0
  0
CLASS
  1
ACRFINSADJUSTERMGR
  2
AcRfInsAdjusterMgr
  3
AcMeServices
 90
     1024
 91
        1
280
     0
281
     0
  0
CLASS
  1
ACGREFACADMASTER
  2
AcGrefacadMaster
  3
AcGrefServices
 90
     1024
 91
        1
280
     0
281
     0
  0
CLASS
  1
AMDTMENUSTATEMGR
  2
AmdtMenuStateMgr
  3
McadcomServices
 90
     1024
 91
        1
280
     0
281
     0
  0
CLASS
  1
AMDTMCOMMENUSTATE
  2
AmdtMcomMenuState
  3
McadcomServices
 90
     1024
 91
        1
280
     0
281
     0
  0
CLASS
  1
AMIMASTER
  2
AmiMaster
  3
AmiServices
 90
     1024
 91
        1
280
     0
281
     0
  0
CLASS
  1
MAPIAMMOUDLE
  2
MApiAmModule
  3
MApiAmServices
 90
     1024
 91
        1
280
     0
281
     0
  0
CLASS
  1
ACIMSTRSYSVAR
  2
AcImStrSysVar
  3
AcMeServices
 90
     1024
 91
        5
280
     0
281
     0
  0
CLASS
  1
AMDTADMENUSTATE
  2
AmdtAdMenuState
  3
DesignerServices
 90
     1024
 91
        1
280
     0
281
     0
  0
CLASS
  1
ADAPPL
  2
AcAdAppl
  3
DesignerServices
 90
     1024
 91
        1
280
     0
281
     0
  0
CLASS
  1
DEPMGR
  2
AcAdDepMgr
  3
DesignerServices
 90
     1024
 91
        1
280
     0
281
     0
  0
CLASS
  1
PARAMMGR
  2
AcAdParamMgr
  3
DesignerServices
 90
     1024
 91
        1
280
     0
281
     0
  0
CLASS
  1
PARAMSCOPE
  2
AcAdParamScope
  3
DesignerServices
 90
     1024
 91
        1
280
     0
281
     0
  0
CLASS
  1
NAMEDAPPL
  2
AcAdNamedAppl
  3
DesignerServices
 90
     1024
 91
        1
280
     0
281
     0
  0
CLASS
  1
AMDTDMMENUSTATE
  2
AmdtDmMenuState
  3
AcMechDwgViewMgmt
 90
     1024
 91
        1
280
     0
281
     0
  0
CLASS
  1
AMDTAMMENUSTATE
  2
AmdtAmMenuState
  3
DesignerAssemblies
 90
     1024
 91
        1
280
     0
281
     0
  0
CLASS
  1
ACAMPROJECT
  2
AcAmProject
  3
DesignerAssemblies
 90
     1024
 91
        1
280
     0
281
     0
  0
CLASS
  1
ACAMGRCOMPDEF
  2
AcAmGrCompDef
  3
DesignerAssemblies
 90
     1024
 91
        1
280
     0
281
     0
  0
CLASS
  1
ACAMCOMPDEF
  2
AcAmCompDef
  3
DesignerAssemblies
 90
     1024
 91
        1
280
     0
281
     0
  0
CLASS
  1
ACAMCOMPDEFMGR
  2
AcAmCompDefMgr
  3
DesignerAssemblies
 90
     1024
 91
        1
280
     0
281
     0
  0
CLASS
  1
AMCONTEXTMGR
  2
AcAmContextMgr
  3
DesignerAssemblies
 90
     1024
 91
        1
280
     0
281
     0
  0
CLASS
  1
ACAMCONTEXTMODELER
  2
AcAmContextModeler
  3
DesignerAssemblies
 90
     1024
 91
        1
280
     0
281
     0
  0
CLASS
  1
ACMDATADICTIONARY
  2
AcmDataDictionary
  3
"AcmSymBB|Product Description: AutoCAD Mechanical|Company: Autodesk, Inc."
 90
     1024
 91
        1
280
     0
281
     0
  0
CLASS
  1
CATALOGSTATE
  2
AcAmCatalogState
  3
DesignerAssemblies
 90
     1024
 91
        1
280
     0
281
     0
  0
CLASS
  1
ACAMGRCOMPDEFSET
  2
AcAmGrCompDefSet
  3
DesignerAssemblies
 90
     1024
 91
        1
280
     0
281
     0
  0
CLASS
  1
AMDTBROWSERDBTAB
  2
AmdtBrowserDbTab
  3
McadcomServices
 90
     1024
 91
        1
280
     0
281
     0
  0
CLASS
  1
CBROWSERAPPOBJECT
  2
CBrowserAppObject
  3
McadcomServices
 90
     1024
 91
        2
280
     0
281
     0
  0
CLASS
  1
DM_PLACEHOLDER
  2
AcDmSelsetPlaceholder
  3
AcMechDwgViewMgmt
 90
     1024
 91
        1
280
     0
281
     0
  0
CLASS
  1
ACMSTANDARDISO
  2
AcmStandardISO
  3
"Amdt_StdImp|Product Description: AutoCAD Mechanical|Company: Autodesk, Inc."
 90
     1024
 91
        1
280
     0
281
     0
  0
CLASS
  1
AMDTEDGESTANDARDISO13715
  2
AmdtEdgeStdISO13715
  3
"Amdt_StdImp|Product Description: AutoCAD Mechanical|Company: Autodesk, Inc."
 90
     1024
 91
        1
280
     0
281
     0
  0
CLASS
  1
ACMSURFSTANDARDISO2002
  2
AcmSurfTextStdISO2002
  3
"Amdt_StdImp|Product Description: AutoCAD Mechanical|Company: Autodesk, Inc."
 90
     1024
 91
        1
280
     0
281
     0
  0
CLASS
  1
ACMFCFSTANDARDISO
  2
AcmFCFStdISO
  3
"Amdt_StdImp|Product Description: AutoCAD Mechanical|Company: Autodesk, Inc."
 90
     1024
 91
        1
280
     0
281
     0
  0
CLASS
  1
ACMWELDSTANDARDISO
  2
AcmWeldingStdISO
  3
"Amdt_StdImp|Product Description: AutoCAD Mechanical|Company: Autodesk, Inc."
 90
     1024
 91
        1
280
     0
281
     0
  0
CLASS
  1
ACMIDSTANDARDISO
  2
AcmIdStdISO
  3
"Amdt_StdImp|Product Description: AutoCAD Mechanical|Company: Autodesk, Inc."
 90
     1024
 91
        1
280
     0
281
     0
  0
CLASS
  1
ACMDATUMSTANDARDISO
  2
AcmDatumStdISO
  3
"Amdt_StdImp|Product Description: AutoCAD Mechanical|Company: Autodesk, Inc."
 90
     1024
 91
        1
280
     0
281
     0
  0
CLASS
  1
ACMBOMSTANDARDISO
  2
AcmBOMStdISO
  3
"Amdt_StdImp|Product Description: AutoCAD Mechanical|Company: Autodesk, Inc."
 90
     1024
 91
        1
280
     0
281
     0
  0
CLASS
  1
ACMDETAILSTANDARDISO
  2
AmdtDetailSymStdISO
  3
"Amdt_StdImp|Product Description: AutoCAD Mechanical|Company: Autodesk, Inc."
 90
     1024
 91
        1
280
     0
281
     0
  0
CLASS
  1
ACMSECTIONSTANDARDISO2001
  2
AmdtSectionSymStdISO2001
  3
"Amdt_StdImp|Product Description: AutoCAD Mechanical|Company: Autodesk, Inc."
 90
     1024
 91
        1
280
     0
281
     0
  0
CLASS
  1
ACMCENTERLINESTANDARDISO
  2
AmdtCenterLineStdISO
  3
"Amdt_StdImp|Product Description: AutoCAD Mechanical|Company: Autodesk, Inc."
 90
     1024
 91
        1
280
     0
281
     0
  0
CLASS
  1
ACMTHREADLINESTANDARDISO
  2
AmdtThreadLineStdISO
  3
"Amdt_StdImp|Product Description: AutoCAD Mechanical|Company: Autodesk, Inc."
 90
     1024
 91
        1
280
     0
281
     0
  0
CLASS
  1
ACMNOTESTANDARDISO
  2
AmdtNoteStdISO
  3
"Amdt_StdImp|Product Description: AutoCAD Mechanical|Company: Autodesk, Inc."
 90
     1024
 91
        1
280
     0
281
     0
  0
CLASS
  1
ACMTAPERSTANDARDISO
  2
AcmTaperStdISO
  3
"Amdt_StdImp|Product Description: AutoCAD Mechanical|Company: Autodesk, Inc."
 90
     1024
 91
        1
280
     0
281
     0
  0
CLASS
  1
ACMANOOTATIONVIEWSTANDARDISO
  2
AmdtAnViewStdISO
  3
"Amdt_StdImp|Product Description: AutoCAD Mechanical|Company: Autodesk, Inc."
 90
     1024
 91
        1
280
     0
281
     0
  0
CLASS
  1
ACAMGLAYSTD
  2
AcAmgLayStd
  3
"AmgLay|Product Description: AutoCAD Mechanical|Company: Autodesk, Inc."
 90
     1024
 91
        1
280
     0
281
     0
  0
CLASS
  1
ACAMGDIMSTD
  2
AcAmgDimStd
  3
"AmgDim|Product Description: AutoCAD Mechanical|Company: Autodesk, Inc."
 90
     1024
 91
        1
280
     0
281
     0
  0
CLASS
  1
AMGOBJPROPCFG
  2
AmgObjPropCfg
  3
"AmgLay|Product Description: AutoCAD Mechanical|Company: Autodesk, Inc."
 90
     1025
 91
        1
280
     0
281
     0
  0
CLASS
  1
ACAMGHOLECHARTSTDISO
  2
AcAmgHoleChartStdISO
  3
AmgDim|Product Description: AutoCAD Mechanical|Company: Autodesk, Inc.
 90
     1024
 91
        1
280
     0
281
     0
  0
CLASS
  1
ACAMGTITLESTD
  2
AcAmgTitleStd
  3
"AmgTitle|Product Description: AutoCAD Mechanical|Company: Autodesk, Inc."
 90
     4095
 91
        1
280
     0
281
     0
  0
CLASS
  1
AMDTNOTETEMPLATEDB
  2
AmdtNoteTemplateDB
  3
AcmSymBB|Product Description: AutoCAD Mechanical|Company: Autodesk, Inc.
 90
     1024
 91
        6
280
     0
281
     0
  0
CLASS
  1
ACAMGFILTERDAT
  2
AcAmgFilterDat
  3
"AcadM|Product Description: AutoCAD Mechanical|Company: Autodesk, Inc."
 90
     1024
 91
        0
280
     0
281
     0
  0
CLASS
  1
AEC_REFEDIT_STATUS_TRACKER
  2
AecDbRefEditStatusTracker
  3
AecArchBase60|Product Desc: Autodesk Architectural Desktop 2007 |Company: Autodesk,Inc. |WEB Address: www.autodesk.com
 90
      129
 91
        1
280
     0
281
     0
  0
CLASS
  1
NPOCOLLECTION
  2
AcDbImpNonPersistentObjectsCollection
  3
ObjectDBX Classes
 90
     1153
 91
        1
280
     0
281
     0
  0
CLASS
  1
CAMSSTRUCTBTNSTATE
  2
StructBtnState
  3
DesignerAssemblies
 90
     1024
 91
        0
280
     0
281
     0
  0
CLASS
  1
CELLSTYLEMAP
  2
AcDbCellStyleMap
  3
ObjectDBX Classes
 90
     1152
 91
        2
280
     0
281
     0
  0
ENDSEC
  0
SECTION
  2
TABLES
  0
TABLE
  2
VPORT
  5
8
330
0
100
AcDbSymbolTable
 70
     1
  0
VPORT
  5
57
330
8
100
AcDbSymbolTableRecord
100
AcDbViewportTableRecord
  2
*Active
 70
     0
 10
0.0
 20
0.0
 11
1.0
 21
1.0
 12
173.3038343096893
 22
209.152143891057
 13
0.0
 23
0.0
 14
1.0
 24
1.0
 15
0.0
 25
0.0
 16
0.0
 26
0.0
 36
1.0
 17
0.0
 27
0.0
 37
0.0
 40
457.1813094009431
 41
1.576017130620984
 42
50.0
 43
0.0
 44
0.0
 50
0.0
 51
0.0
 71
     0
 72
   100
 73
     1
 74
     1
 75
     0
 76
     0
 77
     0
 78
     0
281
     0
 65
     0
110
0.0
120
0.0
130
0.0
111
1.0
121
0.0
131
0.0
112
0.0
122
1.0
132
0.0
 79
     0
146
0.0
  0
ENDTAB
  0
TABLE
  2
LTYPE
  5
5
330
0
100
AcDbSymbolTable
 70
    16
  0
LTYPE
  5
5B
330
5
100
AcDbSymbolTableRecord
100
AcDbLinetypeTableRecord
  2
ByBlock
 70
     0
  3

 72
    65
 73
     0
 40
0.0
  0
LTYPE
  5
5C
330
5
100
AcDbSymbolTableRecord
100
AcDbLinetypeTableRecord
  2
ByLayer
 70
     0
  3

 72
    65
 73
     0
 40
0.0
  0
LTYPE
  5
5D
330
5
100
AcDbSymbolTableRecord
100
AcDbLinetypeTableRecord
  2
Continuous
 70
     0
  3
Solid line
 72
    65
 73
     0
 40
0.0
  0
LTYPE
  5
957
330
5
100
AcDbSymbolTableRecord
100
AcDbLinetypeTableRecord
  2
HIDDEN
 70
     0
  3
Skrytá __ __ __ __ __ __ __ __ __ __ __ __ __ __
 72
    65
 73
     2
 40
9.525
 49
6.349999999999997
 74
     0
 49
-3.174999999999998
 74
     0
  0
LTYPE
  5
958
330
5
100
AcDbSymbolTableRecord
100
AcDbLinetypeTableRecord
  2
PHANTOM2
 70
     0
  3
Sdružená (.5x) ___ _ _ ___ _ _ ___ _ _ ___ _ _
 72
    65
 73
     6
 40
31.75
 49
15.875
 74
     0
 49
-3.174999999999998
 74
     0
 49
3.174999999999998
 74
     0
 49
-3.174999999999998
 74
     0
 49
3.174999999999998
 74
     0
 49
-3.174999999999998
 74
     0
  0
LTYPE
  5
959
330
5
100
AcDbSymbolTableRecord
100
AcDbLinetypeTableRecord
  2
CENTER
 70
     0
  3
Středová ____ _ ____ _ ____ _ ____ _ ____ _ ____
 72
    65
 73
     4
 40
50.8
 49
31.75
 74
     0
 49
-6.349999999999997
 74
     0
 49
6.349999999999997
 74
     0
 49
-6.349999999999997
 74
     0
  0
LTYPE
  5
99F
330
5
100
AcDbSymbolTableRecord
100
AcDbLinetypeTableRecord
  2
AM_ISO02W050
 70
     0
  3
__ __ __ __ __ __ __ __ __ __ __ __ __ __ __
 72
    65
 73
     2
 40
7.5
 49
6.0
 74
     0
 49
-1.5
 74
     0
  0
LTYPE
  5
9A0
330
5
100
AcDbSymbolTableRecord
100
AcDbLinetypeTableRecord
  2
AM_ISO08W050
 70
     0
  3
____ . ____ . ____ . ____ . ____ . ____ . ____
 72
    65
 73
     4
 40
18.0
 49
12.0
 74
     0
 49
-1.5
 74
     0
 49
3.0
 74
     0
 49
-1.5
 74
     0
  0
LTYPE
  5
9A1
330
5
100
AcDbSymbolTableRecord
100
AcDbLinetypeTableRecord
  2
AM_ISO09W050
 70
     0
  3
_____ . . _____ . . _____ . . ____ .. ____
 72
    65
 73
     6
 40
22.5
 49
12.0
 74
     0
 49
-1.5
 74
     0
 49
3.0
 74
     0
 49
-1.5
 74
     0
 49
3.0
 74
     0
 49
-1.5
 74
     0
  0
LTYPE
  5
9A2
330
5
100
AcDbSymbolTableRecord
100
AcDbLinetypeTableRecord
  2
Amconstr
 70
     0
  3
_______________________
 72
    65
 73
     2
 40
9999.0
 49
9999.0
 74
     0
 49
0.0
 74
     0
  0
LTYPE
  5
9A3
330
5
100
AcDbSymbolTableRecord
100
AcDbLinetypeTableRecord
  2
AM_ISO08W050x2
 70
     0
  3
__ . __ . __ . __ . __ . __
 72
    65
 73
     4
 40
9.0
 49
6.0
 74
     0
 49
-0.75
 74
     0
 49
1.5
 74
     0
 49
-0.75
 74
     0
  0
LTYPE
  5
9A4
330
5
100
AcDbSymbolTableRecord
100
AcDbLinetypeTableRecord
  2
AM_ISO02W050x2
 70
     0
  3
 _ _ _ _ _ _ _ _ _ _ _ _
 72
    65
 73
     2
 40
3.75
 49
3.0
 74
     0
 49
-0.75
 74
     0
  0
LTYPE
  5
9A7
330
5
100
AcDbSymbolTableRecord
100
AcDbLinetypeTableRecord
  2
Amzigzag
 70
     0
  3
/\/-/\/-/\/-/\/-/\/-/\/
 72
    65
 73
     2
 40
11.0001
 49
0.0001
 74
     4
 75
   136
340
9A6
 46
0.04
 50
0.0
 44
0.0
 45
0.0
 49
-11.0
 74
     0
  0
LTYPE
  5
9B6
330
5
100
AcDbSymbolTableRecord
100
AcDbLinetypeTableRecord
  2
ACISOWELD
 70
     0
  3
_ _ _ _ _
 72
    65
 73
     2
 40
2.0
 49
2.0
 74
     0
 49
-1.0
 74
     0
  0
LTYPE
  5
9B7
330
5
100
AcDbSymbolTableRecord
100
AcDbLinetypeTableRecord
  2
ACISOTGB
 70
     0
  3
__ . . __ . .
 72
    65
 73
     6
 40
9.0
 49
4.0
 74
     0
 49
-1.0
 74
     0
 49
1.0
 74
     0
 49
-1.0
 74
     0
 49
1.0
 74
     0
 49
-1.0
 74
     0
  0
LTYPE
  5
9B8
330
5
100
AcDbSymbolTableRecord
100
AcDbLinetypeTableRecord
  2
ACISOTGL
 70
     0
  3
_ _ _ _ _
 72
    65
 73
     2
 40
3.0
 49
2.0
 74
     0
 49
-1.0
 74
     0
  0
LTYPE
  5
E4D
330
5
100
AcDbSymbolTableRecord
100
AcDbLinetypeTableRecord
  2
GEN7
 70
     0
  3
____ . ____ . ____ . ____ . ____ . ____ . ____
 72
    65
 73
     4
 40
13.75
 49
10.0
 74
     0
 49
-1.25
 74
     0
 49
1.25
 74
     0
 49
-1.25
 74
     0
  0
ENDTAB
  0
TABLE
  2
LAYER
  5
2
102
{ACAD_XDICTIONARY
360
E54
102
}
330
0
100
AcDbSymbolTable
 70
    18
  0
LAYER
  5
54
330
2
100
AcDbSymbolTableRecord
100
AcDbLayerTableRecord
  2
0
 70
     0
 62
     7
  6
Continuous
370
    -3
390
F
  0
LAYER
  5
78
330
2
100
AcDbSymbolTableRecord
100
AcDbLayerTableRecord
  2
Geometrie náčrtu (ISO)
 70
     0
 62
     7
  6
Continuous
370
     9
390
F
  0
LAYER
  5
79
330
2
100
AcDbSymbolTableRecord
100
AcDbLayerTableRecord
  2
KOPF
 70
     0
 62
     8
420
  8421504
  6
Continuous
370
     9
390
F
  0
LAYER
  5
7A
330
2
100
AcDbSymbolTableRecord
100
AcDbLayerTableRecord
  2
Kóta (ISO)
 70
     0
 62
     5
420
      255
  6
Continuous
370
     9
390
F
  0
LAYER
  5
7B
330
2
100
AcDbSymbolTableRecord
100
AcDbLayerTableRecord
  2
Nadpis (ISO)
 70
     0
 62
     7
  6
Continuous
370
    18
390
F
  0
LAYER
  5
7D
330
2
100
AcDbSymbolTableRecord
100
AcDbLayerTableRecord
  2
Osa (ISO)
 70
     0
 62
     1
420
 16711680
  6
Continuous
370
     9
390
F
  0
LAYER
  5
85
330
2
100
AcDbSymbolTableRecord
100
AcDbLayerTableRecord
  2
Rámeček (ISO)
 70
     0
 62
     7
  6
Continuous
370
    35
390
F
  0
LAYER
  5
88
330
2
100
AcDbSymbolTableRecord
100
AcDbLayerTableRecord
  2
Skrytá (ISO)
 70
     0
 62
   142
420
    32960
  6
Continuous
370
     9
390
F
  0
LAYER
  5
89
330
2
100
AcDbSymbolTableRecord
100
AcDbLayerTableRecord
  2
Středová značka (ISO)
 70
     0
 62
     1
420
 16711680
  6
Continuous
370
     9
390
F
  0
LAYER
  5
8B
330
2
100
AcDbSymbolTableRecord
100
AcDbLayerTableRecord
  2
TEXT35
 70
     0
 62
    12
420
 13369344
  6
Continuous
370
    20
390
F
  0
LAYER
  5
8C
330
2
100
AcDbSymbolTableRecord
100
AcDbLayerTableRecord
  2
TEXT50
 70
     0
 62
     7
  6
Continuous
370
    20
390
F
  0
LAYER
  5
8D
330
2
100
AcDbSymbolTableRecord
100
AcDbLayerTableRecord
  2
Viditelná (ISO)
 70
     0
 62
     7
  6
Continuous
370
    35
390
F
  0
LAYER
  5
8E
330
2
100
AcDbSymbolTableRecord
100
AcDbLayerTableRecord
  2
Viditelná tenká (ISO)
 70
     0
 62
     7
  6
Continuous
370
     9
390
F
  0
LAYER
  5
8F
330
2
100
AcDbSymbolTableRecord
100
AcDbLayerTableRecord
  2
Značka (ISO)
 70
     0
 62
     5
420
      255
  6
Continuous
370
     9
390
F
  0
LAYER
  5
53D
330
2
100
AcDbSymbolTableRecord
100
AcDbLayerTableRecord
  2
Defpoints
 70
     0
 62
     7
  6
Continuous
290
     0
370
    -3
390
F
  0
LAYER
  5
9C6
330
2
100
AcDbSymbolTableRecord
100
AcDbLayerTableRecord
  2
AM_5
 70
     0
 62
    92
  6
Continuous
370
    25
390
F
1001
AcAecLayerStandard
1000

1000

  0
LAYER
  5
E4E
102
{ACAD_XDICTIONARY
360
E4F
102
}
330
2
100
AcDbSymbolTableRecord
100
AcDbLayerTableRecord
  2
7
 70
     0
 62
     4
  6
GEN7
370
    -3
390
F
  0
LAYER
  5
E50
102
{ACAD_XDICTIONARY
360
E51
102
}
330
2
100
AcDbSymbolTableRecord
100
AcDbLayerTableRecord
  2
5
 70
     0
 62
     3
  6
Continuous
370
    -3
390
F
  0
ENDTAB
  0
TABLE
  2
STYLE
  5
3
330
0
100
AcDbSymbolTable
 70
    21
  0
STYLE
  5
55
330
3
100
AcDbSymbolTableRecord
100
AcDbTextStyleTableRecord
  2
Standard
 70
     0
 40
0.0
 41
1.0
 50
0.0
 71
     0
 42
0.2
  3
TAHOMA.TTF
  4

1001
ACAD
1000
Tahoma
1071
      256
  0
STYLE
  5
5A
330
3
100
AcDbSymbolTableRecord
100
AcDbTextStyleTableRecord
  2
Annotative
 70
     0
 40
0.0
 41
1.0
 50
0.0
 71
     0
 42
0.2
  3
txt
  4

1001
AcadAnnotative
1000
AnnotativeData
1002
{
1070
     1
1070
     1
1002
}
  0
STYLE
  5
90
330
3
100
AcDbSymbolTableRecord
100
AcDbTextStyleTableRecord
  2
ITALICC8_57
 70
     0
 40
0.0
 41
1.0
 50
0.0
 71
     0
 42
0.2
  3
TAHOMA.TTF
  4

1001
ACAD
1000
Tahoma
1071
      256
  0
STYLE
  5
91
330
3
100
AcDbSymbolTableRecord
100
AcDbTextStyleTableRecord
  2
kusovnik
 70
     0
 40
0.0
 41
1.0
 50
0.0
 71
     0
 42
0.2
  3
ARIAL.TTF
  4

1001
ACAD
1000
Arial
1071
      256
  0
STYLE
  5
92
330
3
100
AcDbSymbolTableRecord
100
AcDbTextStyleTableRecord
  2
ROMANS8_69
 70
     0
 40
0.0
 41
1.0
 50
0.0
 71
     0
 42
0.2
  3
TAHOMA.TTF
  4

1001
ACAD
1000
Tahoma
1071
      256
  0
STYLE
  5
93
330
3
100
AcDbSymbolTableRecord
100
AcDbTextStyleTableRecord
  2
Text popisu (ISO)
 70
     0
 40
0.0
 41
1.0
 50
0.0
 71
     0
 42
0.2
  3
TAHOMA.TTF
  4

1001
ACAD
1000
Tahoma
1071
      256
  0
STYLE
  5
94
330
3
100
AcDbSymbolTableRecord
100
AcDbTextStyleTableRecord
  2
Text poznámky (DIN)
 70
     0
 40
0.0
 41
1.0
 50
0.0
 71
     0
 42
0.2
  3
isocpeur.ttf
  4

1001
ACAD
1000
ISOCPEUR
1071
      256
  0
STYLE
  5
95
330
3
100
AcDbSymbolTableRecord
100
AcDbTextStyleTableRecord
  2
Text poznámky (ISO)
 70
     0
 40
0.0
 41
1.0
 50
0.0
 71
     0
 42
0.2
  3
TAHOMA.TTF
  4

1001
ACAD
1000
Tahoma
1071
      256
  0
STYLE
  5
96
330
3
100
AcDbSymbolTableRecord
100
AcDbTextStyleTableRecord
  2
TEXT20_41
 70
     0
 40
0.0
 41
1.0
 50
0.0
 71
     0
 42
0.2
  3
TAHOMA.TTF
  4

1001
ACAD
1000
Tahoma
1071
      256
  0
STYLE
  5
97
330
3
100
AcDbSymbolTableRecord
100
AcDbTextStyleTableRecord
  2
TEXT20_59
 70
     0
 40
0.0
 41
1.0
 50
0.0
 71
     0
 42
0.2
  3
TAHOMA.TTF
  4

1001
ACAD
1000
Tahoma
1071
      256
  0
STYLE
  5
1D7
330
3
100
AcDbSymbolTableRecord
100
AcDbTextStyleTableRecord
  2
Styl textu62
 70
     0
 40
0.0
 41
0.8000000119209289
 50
0.0
 71
     0
 42
0.2
  3
TAHOMA.TTF
  4

1001
ACAD
1000
Tahoma
1071
      256
  0
STYLE
  5
1DE
330
3
100
AcDbSymbolTableRecord
100
AcDbTextStyleTableRecord
  2
Styl textu58
 70
     0
 40
0.0
 41
0.8000000119209289
 50
0.0
 71
     0
 42
0.2
  3
TAHOMA.TTF
  4

1001
ACAD
1000
Tahoma
1071
      256
  0
STYLE
  5
1E0
330
3
100
AcDbSymbolTableRecord
100
AcDbTextStyleTableRecord
  2
Styl textu63
 70
     0
 40
0.0
 41
0.75
 50
0.0
 71
     0
 42
0.2
  3
TAHOMA.TTF
  4

1001
ACAD
1000
Tahoma
1071
      256
  0
STYLE
  5
1E4
330
3
100
AcDbSymbolTableRecord
100
AcDbTextStyleTableRecord
  2
Styl textu75
 70
     0
 40
0.0
 41
0.8000000119209289
 50
0.0
 71
     0
 42
0.2
  3
TAHOMA.TTF
  4

1001
ACAD
1000
Tahoma
1071
      256
  0
STYLE
  5
1E6
330
3
100
AcDbSymbolTableRecord
100
AcDbTextStyleTableRecord
  2
Styl textu72
 70
     0
 40
0.0
 41
0.6999999880790711
 50
0.0
 71
     0
 42
0.2
  3
TAHOMA.TTF
  4

1001
ACAD
1000
Tahoma
1071
      256
  0
STYLE
  5
1FC
330
3
100
AcDbSymbolTableRecord
100
AcDbTextStyleTableRecord
  2
Styl textu9
 70
     0
 40
0.0
 41
1.0
 50
0.0
 71
     0
 42
0.2
  3
ARIAL.TTF
  4

1001
ACAD
1000
Arial
1071
      256
  0
STYLE
  5
200
330
3
100
AcDbSymbolTableRecord
100
AcDbTextStyleTableRecord
  2
Styl textu40
 70
     0
 40
0.0
 41
1.0
 50
0.0
 71
     0
 42
0.2
  3
ARIAL.TTF
  4

1001
ACAD
1000
Arial
1071
      256
  0
STYLE
  5
204
330
3
100
AcDbSymbolTableRecord
100
AcDbTextStyleTableRecord
  2
Styl textu94
 70
     0
 40
0.0
 41
1.0
 50
0.0
 71
     0
 42
0.2
  3
TAHOMA.TTF
  4

1001
ACAD
1000
Tahoma
1071
      256
  0
STYLE
  5
9A6
330
3
100
AcDbSymbolTableRecord
100
AcDbTextStyleTableRecord
  2

 70
     1
 40
0.0
 41
1.0
 50
0.0
 71
     0
 42
0.2
  3
genltshp.shx
  4

  0
STYLE
  5
9B4
330
3
100
AcDbSymbolTableRecord
100
AcDbTextStyleTableRecord
  2
ACISOTS
 70
     0
 40
1.0
 41
1.0
 50
0.0
 71
     0
 42
0.2
  3
isocp.shx
  4

  0
STYLE
  5
9B5
330
3
100
AcDbSymbolTableRecord
100
AcDbTextStyleTableRecord
  2
ACISOGDT
 70
     0
 40
0.0
 41
1.0
 50
0.0
 71
     0
 42
0.2
  3
amgdt.shx
  4

  0
ENDTAB
  0
TABLE
  2
VIEW
  5
6
330
0
100
AcDbSymbolTable
 70
     0
  0
ENDTAB
  0
TABLE
  2
UCS
  5
7
330
0
100
AcDbSymbolTable
 70
     0
  0
ENDTAB
  0
TABLE
  2
APPID
  5
9
330
0
100
AcDbSymbolTable
 70
    23
  0
APPID
  5
56
330
9
100
AcDbSymbolTableRecord
100
AcDbRegAppTableRecord
  2
ACAD
 70
     0
  0
APPID
  5
5E
330
9
100
AcDbSymbolTableRecord
100
AcDbRegAppTableRecord
  2
AcadAnnotative
 70
     0
  0
APPID
  5
1FF
330
9
100
AcDbSymbolTableRecord
100
AcDbRegAppTableRecord
  2
AcadAnnoPO
 70
     0
  0
APPID
  5
792
330
9
100
AcDbSymbolTableRecord
100
AcDbRegAppTableRecord
  2
ACAD_DSTYLE_DIMRADIAL_EXTENSION
 70
     0
  0
APPID
  5
92A
330
9
100
AcDbSymbolTableRecord
100
AcDbRegAppTableRecord
  2
MCAD_NO_VIS
 70
     0
  0
APPID
  5
92B
330
9
100
AcDbSymbolTableRecord
100
AcDbRegAppTableRecord
  2
ACAD_TEMP_GRAPHIC
 70
     0
  0
APPID
  5
95B
330
9
100
AcDbSymbolTableRecord
100
AcDbRegAppTableRecord
  2
AD_DRAW
 70
     0
  0
APPID
  5
95E
330
9
100
AcDbSymbolTableRecord
100
AcDbRegAppTableRecord
  2
ACATTRIBSERVICES
 70
     0
  0
APPID
  5
97E
330
9
100
AcDbSymbolTableRecord
100
AcDbRegAppTableRecord
  2
DESIGNERASSEMBLIES
 70
     0
  0
APPID
  5
984
330
9
100
AcDbSymbolTableRecord
100
AcDbRegAppTableRecord
  2
ACADM_DIM_EDIT
 70
     0
  0
APPID
  5
985
330
9
100
AcDbSymbolTableRecord
100
AcDbRegAppTableRecord
  2
AMDT_DM_ADJ
 70
     0
  0
APPID
  5
99C
330
9
100
AcDbSymbolTableRecord
100
AcDbRegAppTableRecord
  2
ACAD_DSTYLE_DIMJAG
 70
     0
  0
APPID
  5
99D
330
9
100
AcDbSymbolTableRecord
100
AcDbRegAppTableRecord
  2
ACAD_DSTYLE_DIMBREAK
 70
     0
  0
APPID
  5
9C7
330
9
100
AcDbSymbolTableRecord
100
AcDbRegAppTableRecord
  2
AcAecLayerStandard
 70
     0
  0
APPID
  5
9E2
330
9
100
AcDbSymbolTableRecord
100
AcDbRegAppTableRecord
  2
ACAD_DSTYLE_DIMINSPECT
 70
     0
  0
APPID
  5
9F7
330
9
100
AcDbSymbolTableRecord
100
AcDbRegAppTableRecord
  2
ACAD_EXEMPT_FROM_CAD_STANDARDS
 70
     0
  0
APPID
  5
E53
330
9
100
AcDbSymbolTableRecord
100
AcDbRegAppTableRecord
  2
ACAD_DSTYLE_DIMTALN
 70
     0
  0
APPID
  5
13CB
330
9
100
AcDbSymbolTableRecord
100
AcDbRegAppTableRecord
  2
ACAD_MLEADERVER
 70
     0
  0
APPID
  5
1406
330
9
100
AcDbSymbolTableRecord
100
AcDbRegAppTableRecord
  2
ACAD_DSTYLE_DIMARC_LENGTH_SYMBOL
 70
     0
  0
APPID
  5
1407
330
9
100
AcDbSymbolTableRecord
100
AcDbRegAppTableRecord
  2
ACAD_DSTYLE_DIM_LINETYPE
 70
     0
  0
APPID
  5
1408
330
9
100
AcDbSymbolTableRecord
100
AcDbRegAppTableRecord
  2
ACAD_DSTYLE_DIM_EXT1_LINETYPE
 70
     0
  0
APPID
  5
1409
330
9
100
AcDbSymbolTableRecord
100
AcDbRegAppTableRecord
  2
ACAD_DSTYLE_DIM_EXT2_LINETYPE
 70
     0
  0
APPID
  5
1492
330
9
100
AcDbSymbolTableRecord
100
AcDbRegAppTableRecord
  2
GENIUS_GENDTOL_13
 70
     0
  0
ENDTAB
  0
TABLE
  2
DIMSTYLE
  5
A
330
0
100
AcDbSymbolTable
 70
    26
100
AcDbDimStyleTable
 71
     3
340
58
340
E52
340
B1
  0
DIMSTYLE
105
58
330
A
100
AcDbSymbolTableRecord
100
AcDbDimStyleTableRecord
  2
Standard
 70
     0
340
55
  0
DIMSTYLE
105
59
330
A
100
AcDbSymbolTableRecord
100
AcDbDimStyleTableRecord
  2
Annotative
 70
     0
340
55
1001
AcadAnnotative
1000
AnnotativeData
1002
{
1070
     1
1070
     1
1002
}
  0
DIMSTYLE
105
A7
330
A
100
AcDbSymbolTableRecord
100
AcDbDimStyleTableRecord
  2
Různé objekty (ISO)
 70
     0
 40
1.5
 41
2.5
 42
0.0
 43
5.999999999999999
 44
1.0
 45
0.00000001
 46
10.0
 73
     0
 74
     0
 77
     1
 78
     8
 79
     2
140
5.25
143
0.03937
146
0.6676571709769112
147
0.762
171
     3
172
     1
176
   256
177
   256
178
   256
179
     2
271
     2
272
     2
274
     3
278
    44
284
     8
340
93
341
98
371
    -1
372
    -1
  0
DIMSTYLE
105
A8
330
A
100
AcDbSymbolTableRecord
100
AcDbDimStyleTableRecord
  2
Různé objekty (ISO)$7
 70
     0
 40
1.5
 41
5.0
 42
0.0
 43
5.999999999999999
 44
1.0
 45
0.00000001
 46
10.0
 73
     0
 74
     0
 77
     1
 78
     8
 79
     2
140
5.25
143
0.03937
146
0.6676571709769112
147
0.762
171
     3
172
     1
176
   256
177
   256
178
   256
179
     2
271
     2
272
     2
274
     3
278
    44
284
     8
340
93
341
98
371
    25
372
    -1
  0
DIMSTYLE
105
A9
330
A
100
AcDbSymbolTableRecord
100
AcDbDimStyleTableRecord
  2
Výchozí - Metoda 1b (ISO)
 70
     0
 40
1.5
 41
2.5
 42
0.0
 43
5.999999999999999
 44
1.0
 45
0.00000001
 46
10.0
 73
     0
 77
     1
 78
     8
 79
     2
140
3.5
143
0.03937
147
0.762
171
     3
172
     1
176
   256
177
   256
178
   256
179
     2
271
     2
272
     2
274
     3
278
    44
284
     8
286
     8
340
95
371
    -1
372
    -1
  0
DIMSTYLE
105
AA
330
A
100
AcDbSymbolTableRecord
100
AcDbDimStyleTableRecord
  2
Výchozí - Metoda 1b (ISO)$7
 70
     0
 40
1.5
 41
2.5
 42
0.0
 43
5.999999999999999
 44
1.0
 45
0.00000001
 46
10.0
 73
     0
 77
     1
 78
     8
 79
     2
140
3.5
143
0.03937
147
0.762
171
     3
172
     1
176
   256
177
   256
178
   256
179
     2
271
     2
272
     2
274
     3
278
    44
284
     8
286
     8
340
95
371
    -1
372
    -1
  0
DIMSTYLE
105
AB
330
A
100
AcDbSymbolTableRecord
100
AcDbDimStyleTableRecord
  2
Výchozí - Metoda 2a (ISO)
 70
     0
 40
1.5
 41
2.5
 42
0.0
 43
5.999999999999999
 44
1.0
 45
0.00000001
 46
10.0
 77
     1
 78
     8
 79
     2
140
3.5
143
0.03937
147
0.762
171
     3
172
     1
176
   256
177
   256
178
   256
179
     2
271
     2
272
     2
274
     3
278
    44
284
     8
286
     8
340
95
371
    -1
372
    -1
  0
DIMSTYLE
105
AC
330
A
100
AcDbSymbolTableRecord
100
AcDbDimStyleTableRecord
  2
Výchozí - Metoda 2a (ISO)$7
 70
     0
 40
1.5
 41
2.5
 42
0.0
 43
5.999999999999999
 44
1.0
 45
0.00000001
 46
10.0
 77
     1
 78
     8
 79
     2
140
3.5
143
0.03937
147
0.762
171
     3
172
     1
176
   256
177
   256
178
   256
179
     2
271
     2
272
     2
274
     3
278
    44
284
     8
286
     8
340
95
371
    -1
372
    -1
  0
DIMSTYLE
105
AD
330
A
100
AcDbSymbolTableRecord
100
AcDbDimStyleTableRecord
  2
Výchozí - Metoda 2b (ISO)
 70
     0
 40
1.5
 41
2.5
 42
0.0
 43
5.999999999999999
 44
1.0
 45
0.00000001
 46
10.0
 77
     1
 78
     8
 79
     2
140
3.5
143
0.03937
147
0.762
171
     3
172
     1
176
   256
177
   256
178
   256
179
     2
271
     2
272
     2
274
     3
278
    44
284
     8
286
     8
340
95
371
    -1
372
    -1
  0
DIMSTYLE
105
AE
330
A
100
AcDbSymbolTableRecord
100
AcDbDimStyleTableRecord
  2
Výchozí - Metoda 2b (ISO)$7
 70
     0
 40
1.5
 41
2.5
 42
0.0
 43
5.999999999999999
 44
1.0
 45
0.00000001
 46
10.0
 77
     1
 78
     8
 79
     2
140
3.5
143
0.03937
147
0.762
171
     3
172
     1
176
   256
177
   256
178
   256
179
     2
271
     2
272
     2
274
     3
278
    44
284
     8
286
     8
340
95
371
    -1
372
    -1
  0
DIMSTYLE
105
AF
330
A
100
AcDbSymbolTableRecord
100
AcDbDimStyleTableRecord
  2
Výchozí - mm [palce] (ISO)
 70
     0
  4
 in
 40
1.5
 41
2.5
 42
0.0
 43
5.999999999999999
 44
3.174999999999998
 45
0.00000001
 46
10.0
 73
     0
 74
     0
 77
     1
 78
     8
 79
     2
140
3.5
143
0.03937
147
0.762
170
     1
171
     3
172
     1
176
   256
177
   256
178
   256
179
     3
271
     3
272
     2
274
     3
275
     1
278
    44
284
     8
285
     8
286
     8
340
95
371
    -1
372
    -1
  0
DIMSTYLE
105
B0
330
A
100
AcDbSymbolTableRecord
100
AcDbDimStyleTableRecord
  2
Výchozí - mm [palce] (ISO)$7
 70
     0
  4
 in
 40
1.5
 41
2.5
 42
0.0
 43
5.999999999999999
 44
3.174999999999998
 45
0.00000001
 46
10.0
 73
     0
 74
     0
 77
     1
 78
     8
 79
     2
140
3.5
143
0.03937
147
0.762
170
     1
171
     3
172
     1
176
   256
177
   256
178
   256
179
     3
271
     3
272
     2
274
     3
275
     1
278
    44
284
     8
285
     8
286
     8
340
95
371
    -1
372
    -1
  0
DIMSTYLE
105
B1
330
A
100
AcDbSymbolTableRecord
100
AcDbDimStyleTableRecord
  2
Výchozí (ISO)
 70
     0
 40
1.5
 41
2.5
 42
0.0
 43
5.999999999999999
 44
1.0
 45
0.00000001
 46
10.0
 73
     0
 74
     0
 77
     1
 78
     8
 79
     2
140
3.5
143
0.03937
146
1.001485756465366
147
0.762
171
     3
172
     1
176
   256
177
   256
178
   256
179
     2
271
     2
272
     2
274
     3
278
    44
284
     8
340
95
371
    -1
372
    -1
  0
DIMSTYLE
105
B2
330
A
100
AcDbSymbolTableRecord
100
AcDbDimStyleTableRecord
  2
Výchozí (ISO)$7
 70
     0
 40
1.5
 41
2.5
 42
0.0
 43
5.999999999999999
 44
1.0
 45
0.00000001
 46
10.0
 73
     0
 74
     0
 77
     1
 78
     8
 79
     2
140
3.5
143
0.03937
146
1.001485756465366
147
0.762
171
     3
172
     1
176
   256
177
   256
178
   256
179
     2
271
     2
272
     2
274
     3
278
    44
284
     8
340
95
371
    -1
372
    -1
  0
DIMSTYLE
105
B3
330
A
100
AcDbSymbolTableRecord
100
AcDbDimStyleTableRecord
  2
Alternativní (ISO)
 70
     0
 40
1.5
 41
2.5
340
55
342
B4
  0
DIMSTYLE
105
C5
330
A
100
AcDbSymbolTableRecord
100
AcDbDimStyleTableRecord
  2
Základny (ISO)
 70
     0
 40
1.5
 41
2.5
340
55
342
B4
  0
DIMSTYLE
105
99B
102
{ACAD_REACTORS
330
17AD
102
}
330
A
100
AcDbSymbolTableRecord
100
AcDbDimStyleTableRecord
  2
AM_ISO
 70
     0
  4
"
 41
3.5
 42
1.0
 43
10.0
 44
1.0
 47
0.1
 48
0.1
 73
     0
 74
     0
 77
     1
 78
     8
 79
     2
140
3.5
141
0.0
143
0.0393701
146
0.71
147
1.5
172
     1
176
   256
177
   256
178
   140
271
     2
272
     3
274
     4
283
     0
284
     8
340
55
371
    -1
372
    -1
1001
ACAD_DSTYLE_DIMJAG
1070
   388
1040
1.5
1001
ACAD_DSTYLE_DIMBREAK
1070
   391
1040
3.75
1001
ACAD_DSTYLE_DIMARC_LENGTH_SYMBOL
1070
   379
1070
     1
1001
ACAD_DSTYLE_DIM_LINETYPE
1070
   380
1005
5B
1001
ACAD_DSTYLE_DIM_EXT1_LINETYPE
1070
   381
1005
5B
1001
ACAD_DSTYLE_DIM_EXT2_LINETYPE
1070
   382
1005
5B
  0
DIMSTYLE
105
9A8
330
A
100
AcDbSymbolTableRecord
100
AcDbDimStyleTableRecord
  2
AM_ISO$3
 70
     0
  4
"
 41
3.5
 42
1.0
 43
10.0
 44
1.0
 47
0.1
 48
0.1
 73
     0
 77
     1
 78
     8
 79
     2
140
3.5
141
0.0
143
0.0393701
146
0.71
147
1.5
176
   256
177
   256
178
   140
271
     2
272
     3
274
     4
283
     0
284
     8
288
     1
289
     0
340
55
371
    -1
372
    -1
1001
ACAD_DSTYLE_DIMBREAK
1070
   391
1040
3.75
1001
ACAD_DSTYLE_DIMJAG
1070
   388
1040
1.5
1001
ACAD_DSTYLE_DIMARC_LENGTH_SYMBOL
1070
   379
1070
     1
1001
ACAD_DSTYLE_DIM_LINETYPE
1070
   380
1005
5B
1001
ACAD_DSTYLE_DIM_EXT1_LINETYPE
1070
   381
1005
5B
1001
ACAD_DSTYLE_DIM_EXT2_LINETYPE
1070
   382
1005
5B
  0
DIMSTYLE
105
9A9
330
A
100
AcDbSymbolTableRecord
100
AcDbDimStyleTableRecord
  2
AM_ISO$4
 70
     0
  4
"
 41
3.5
 42
1.0
 43
10.0
 44
1.0
 47
0.1
 48
0.1
 73
     0
 77
     1
 78
     8
 79
     2
140
3.5
141
0.0
143
0.0393701
146
0.71
147
1.5
176
   256
177
   256
178
   140
271
     2
272
     3
274
     4
283
     0
284
     8
288
     1
289
     0
340
55
371
    -1
372
    -1
1001
ACAD_DSTYLE_DIMBREAK
1070
   391
1040
3.75
1001
ACAD_DSTYLE_DIMJAG
1070
   388
1040
1.5
1001
ACAD_DSTYLE_DIMARC_LENGTH_SYMBOL
1070
   379
1070
     1
1001
ACAD_DSTYLE_DIM_LINETYPE
1070
   380
1005
5B
1001
ACAD_DSTYLE_DIM_EXT1_LINETYPE
1070
   381
1005
5B
1001
ACAD_DSTYLE_DIM_EXT2_LINETYPE
1070
   382
1005
5B
  0
DIMSTYLE
105
9AA
330
A
100
AcDbSymbolTableRecord
100
AcDbDimStyleTableRecord
  2
AM_ISO$6
 70
     0
  4
"
 41
3.5
 42
1.0
 43
10.0
 44
1.0
 47
0.1
 48
0.1
 73
     0
 74
     0
 78
     8
 79
     2
140
3.5
141
0.0
143
0.0393701
146
0.71
147
1.5
172
     1
176
   256
177
   256
178
   140
271
     2
272
     3
274
     4
283
     0
284
     8
340
55
371
    -1
372
    -1
1001
ACAD_DSTYLE_DIMBREAK
1070
   391
1040
3.75
1001
ACAD_DSTYLE_DIMJAG
1070
   388
1040
1.5
1001
ACAD_DSTYLE_DIMARC_LENGTH_SYMBOL
1070
   379
1070
     1
1001
ACAD_DSTYLE_DIM_LINETYPE
1070
   380
1005
5B
1001
ACAD_DSTYLE_DIM_EXT1_LINETYPE
1070
   381
1005
5B
1001
ACAD_DSTYLE_DIM_EXT2_LINETYPE
1070
   382
1005
5B
  0
DIMSTYLE
105
9AB
330
A
100
AcDbSymbolTableRecord
100
AcDbDimStyleTableRecord
  2
AM_ISO$7
 70
     0
  4
"
 41
3.5
 42
1.0
 43
10.0
 44
1.0
 47
0.1
 48
0.1
 73
     0
 74
     0
 77
     1
 78
     8
 79
     2
140
3.5
141
0.0
143
0.0393701
146
0.71
147
1.5
172
     1
176
   256
177
   256
178
   140
271
     2
272
     3
274
     4
283
     0
284
     8
340
55
371
    -1
372
    -1
1001
ACAD_DSTYLE_DIMBREAK
1070
   391
1040
3.75
1001
ACAD_DSTYLE_DIMJAG
1070
   388
1040
1.5
1001
ACAD_DSTYLE_DIMARC_LENGTH_SYMBOL
1070
   379
1070
     1
1001
ACAD_DSTYLE_DIM_LINETYPE
1070
   380
1005
5B
1001
ACAD_DSTYLE_DIM_EXT1_LINETYPE
1070
   381
1005
5B
1001
ACAD_DSTYLE_DIM_EXT2_LINETYPE
1070
   382
1005
5B
  0
DIMSTYLE
105
9AC
330
A
100
AcDbSymbolTableRecord
100
AcDbDimStyleTableRecord
  2
AM_ISO$SF
 70
     0
  4
"
 41
3.5
 42
1.0
 43
10.0
 44
1.0
 47
0.1
 48
0.1
 73
     0
 74
     0
 75
     1
 76
     1
 77
     1
 78
     8
 79
     2
140
3.5
141
0.0
143
0.0393701
146
0.71
147
1.5
172
     1
176
   256
177
   256
178
   140
271
     2
272
     3
274
     4
283
     0
284
     8
340
55
371
    -1
372
    -1
1001
ACAD_DSTYLE_DIMBREAK
1070
   391
1040
3.75
1001
ACAD_DSTYLE_DIMJAG
1070
   388
1040
1.5
1001
ACAD_DSTYLE_DIMARC_LENGTH_SYMBOL
1070
   379
1070
     1
1001
ACAD_DSTYLE_DIM_LINETYPE
1070
   380
1005
5B
1001
ACAD_DSTYLE_DIM_EXT1_LINETYPE
1070
   381
1005
5B
1001
ACAD_DSTYLE_DIM_EXT2_LINETYPE
1070
   382
1005
5B
  0
DIMSTYLE
105
9B1
330
A
100
AcDbSymbolTableRecord
100
AcDbDimStyleTableRecord
  2
AM_ISO$SH
 70
     0
  4
"
 41
3.5
 42
1.0
 43
10.0
 44
1.0
 47
0.1
 48
0.1
 73
     0
 74
     0
 75
     1
 76
     1
 77
     1
 78
     8
 79
     2
140
3.5
141
0.0
143
0.0393701
144
2.0
146
0.71
147
1.5
172
     1
173
     1
176
   256
177
   256
178
   140
271
     2
272
     3
274
     4
283
     0
284
     8
340
55
343
9AD
371
    -1
372
    -1
1001
ACAD_DSTYLE_DIMBREAK
1070
   391
1040
3.75
1001
ACAD_DSTYLE_DIMJAG
1070
   388
1040
1.5
1001
ACAD_DSTYLE_DIMARC_LENGTH_SYMBOL
1070
   379
1070
     1
1001
ACAD_DSTYLE_DIM_LINETYPE
1070
   380
1005
5B
1001
ACAD_DSTYLE_DIM_EXT1_LINETYPE
1070
   381
1005
5B
1001
ACAD_DSTYLE_DIM_EXT2_LINETYPE
1070
   382
1005
5B
  0
DIMSTYLE
105
9C8
330
A
100
AcDbSymbolTableRecord
100
AcDbDimStyleTableRecord
  2
Standard$0
 70
     0
340
55
1001
ACAD_DSTYLE_DIMBREAK
1070
   391
1040
3.75
1001
ACAD_DSTYLE_DIMJAG
1070
   388
1040
1.5
  0
DIMSTYLE
105
E52
102
{ACAD_REACTORS
330
53C
330
11D1
330
11FD
330
121F
330
1335
102
}
330
A
100
AcDbSymbolTableRecord
100
AcDbDimStyleTableRecord
  2
GEN-ISO
 70
     0
  3
<>
  4
"
 40
2.0
 41
2.5
 42
1.0
 43
7.0
 44
1.0
 47
0.1
 48
0.1
 73
     0
 74
     0
 77
     1
 78
     8
140
7.0
141
0.0
143
0.0393701
146
0.71
147
0.6
172
     1
176
   256
177
   256
178
     7
271
     2
272
     2
283
     0
340
55
1001
ACAD_DSTYLE_DIMJAG
1070
   388
1040
1.5
1001
ACAD_DSTYLE_DIMTALN
1070
   392
1070
     0
  0
ENDTAB
  0
TABLE
  2
BLOCK_RECORD
  5
1
330
0
100
AcDbSymbolTable
 70
    55
  0
BLOCK_RECORD
  5
6C
330
1
100
AcDbSymbolTableRecord
100
AcDbBlockTableRecord
  2
*Model_Space
340
6F
  0
BLOCK_RECORD
  5
68
330
1
100
AcDbSymbolTableRecord
100
AcDbBlockTableRecord
  2
*Paper_Space
340
6B
  0
BLOCK_RECORD
  5
70
330
1
100
AcDbSymbolTableRecord
100
AcDbBlockTableRecord
  2
*Paper_Space0
340
73
  0
BLOCK_RECORD
  5
98
330
1
100
AcDbSymbolTableRecord
100
AcDbBlockTableRecord
  2
Filled-1
340
0
  0
BLOCK_RECORD
  5
B4
330
1
100
AcDbSymbolTableRecord
100
AcDbBlockTableRecord
  2
_Closed
340
0
  0
BLOCK_RECORD
  5
BB
330
1
100
AcDbSymbolTableRecord
100
AcDbBlockTableRecord
  2
DatumFilled45
340
0
  0
BLOCK_RECORD
  5
C6
330
1
100
AcDbSymbolTableRecord
100
AcDbBlockTableRecord
  2
WIG-svarovani
340
0
  0
BLOCK_RECORD
  5
CB
330
1
100
AcDbSymbolTableRecord
100
AcDbBlockTableRecord
  2
Popis kotvy_srouby
340
0
  0
BLOCK_RECORD
  5
CF
330
1
100
AcDbSymbolTableRecord
100
AcDbBlockTableRecord
  2
Mater. provedeni Art.
340
0
  0
BLOCK_RECORD
  5
F1
330
1
100
AcDbSymbolTableRecord
100
AcDbBlockTableRecord
  2
Art. s popisy
340
0
  0
BLOCK_RECORD
  5
113
330
1
100
AcDbSymbolTableRecord
100
AcDbBlockTableRecord
  2
Tryskat
340
0
  0
BLOCK_RECORD
  5
117
330
1
100
AcDbSymbolTableRecord
100
AcDbBlockTableRecord
  2
Morit
340
0
  0
BLOCK_RECORD
  5
11B
330
1
100
AcDbSymbolTableRecord
100
AcDbBlockTableRecord
  2
zinkovat
340
0
  0
BLOCK_RECORD
  5
11F
330
1
100
AcDbSymbolTableRecord
100
AcDbBlockTableRecord
  2
Nater
340
0
  0
BLOCK_RECORD
  5
123
330
1
100
AcDbSymbolTableRecord
100
AcDbBlockTableRecord
  2
Brus
340
0
  0
BLOCK_RECORD
  5
127
330
1
100
AcDbSymbolTableRecord
100
AcDbBlockTableRecord
  2
Elektroliticky lestit
340
0
  0
BLOCK_RECORD
  5
12B
330
1
100
AcDbSymbolTableRecord
100
AcDbBlockTableRecord
  2
Mořit de.
340
0
  0
BLOCK_RECORD
  5
12F
330
1
100
AcDbSymbolTableRecord
100
AcDbBlockTableRecord
  2
Žlab bez spádu De.
340
0
  0
BLOCK_RECORD
  5
133
330
1
100
AcDbSymbolTableRecord
100
AcDbBlockTableRecord
  2
Žlab bez spádu Ang.
340
0
  0
BLOCK_RECORD
  5
137
330
1
100
AcDbSymbolTableRecord
100
AcDbBlockTableRecord
  2
Aschl Nirotec-tryskání
340
0
  0
BLOCK_RECORD
  5
13B
330
1
100
AcDbSymbolTableRecord
100
AcDbBlockTableRecord
  2
Popis šrouby_kotvy Ang.
340
0
  0
BLOCK_RECORD
  5
13F
330
1
100
AcDbSymbolTableRecord
100
AcDbBlockTableRecord
  2
Spád žlabu Ang.
340
0
  0
BLOCK_RECORD
  5
143
330
1
100
AcDbSymbolTableRecord
100
AcDbBlockTableRecord
  2
Spád žlabu De.
340
0
  0
BLOCK_RECORD
  5
147
330
1
100
AcDbSymbolTableRecord
100
AcDbBlockTableRecord
  2
Kartáč + folie
340
0
  0
BLOCK_RECORD
  5
14B
330
1
100
AcDbSymbolTableRecord
100
AcDbBlockTableRecord
  2
Komplet tryskat De.
340
0
  0
BLOCK_RECORD
  5
14F
330
1
100
AcDbSymbolTableRecord
100
AcDbBlockTableRecord
  2
Mořit Ang.
340
0
  0
BLOCK_RECORD
  5
153
330
1
100
AcDbSymbolTableRecord
100
AcDbBlockTableRecord
  2
Rámečky Default Border
340
0
  0
BLOCK_RECORD
  5
19A
330
1
100
AcDbSymbolTableRecord
100
AcDbBlockTableRecord
  2
Rohová razítka ACO-razitko
340
0
  0
BLOCK_RECORD
  5
452
330
1
100
AcDbSymbolTableRecord
100
AcDbBlockTableRecord
  2
KUSOVNÍK
340
0
  0
BLOCK_RECORD
  5
53E
330
1
100
AcDbSymbolTableRecord
100
AcDbBlockTableRecord
  2
*D27
340
0
  0
BLOCK_RECORD
  5
621
330
1
100
AcDbSymbolTableRecord
100
AcDbBlockTableRecord
  2
*D28
340
0
  0
BLOCK_RECORD
  5
6FA
330
1
100
AcDbSymbolTableRecord
100
AcDbBlockTableRecord
  2
*D29
340
0
  0
BLOCK_RECORD
  5
7A1
330
1
100
AcDbSymbolTableRecord
100
AcDbBlockTableRecord
  2
Pozice1
340
0
  0
BLOCK_RECORD
  5
7B3
330
1
100
AcDbSymbolTableRecord
100
AcDbBlockTableRecord
  2
Pozice2
340
0
  0
BLOCK_RECORD
  5
7C5
330
1
100
AcDbSymbolTableRecord
100
AcDbBlockTableRecord
  2
Pozice3
340
0
  0
BLOCK_RECORD
  5
7D8
330
1
100
AcDbSymbolTableRecord
100
AcDbBlockTableRecord
  2
Pozice4
340
0
  0
BLOCK_RECORD
  5
7F1
330
1
100
AcDbSymbolTableRecord
100
AcDbBlockTableRecord
  2
*D34
340
0
  0
BLOCK_RECORD
  5
9AD
330
1
100
AcDbSymbolTableRecord
100
AcDbBlockTableRecord
  2
GENAXEH
340
0
  0
BLOCK_RECORD
  5
9CB
330
1
100
AcDbSymbolTableRecord
100
AcDbBlockTableRecord
  2
*D36
340
0
  0
BLOCK_RECORD
  5
E05
330
1
100
AcDbSymbolTableRecord
100
AcDbBlockTableRecord
  2
*D37
340
0
  0
BLOCK_RECORD
  5
E11
330
1
100
AcDbSymbolTableRecord
100
AcDbBlockTableRecord
  2
*D38
340
0
  0
BLOCK_RECORD
  5
E1D
330
1
100
AcDbSymbolTableRecord
100
AcDbBlockTableRecord
  2
*D39
340
0
  0
BLOCK_RECORD
  5
E29
330
1
100
AcDbSymbolTableRecord
100
AcDbBlockTableRecord
  2
*D40
340
0
  0
BLOCK_RECORD
  5
E35
330
1
100
AcDbSymbolTableRecord
100
AcDbBlockTableRecord
  2
*D41
340
0
  0
BLOCK_RECORD
  5
E41
330
1
100
AcDbSymbolTableRecord
100
AcDbBlockTableRecord
  2
*D42
340
0
  0
BLOCK_RECORD
  5
1153
330
1
100
AcDbSymbolTableRecord
100
AcDbBlockTableRecord
  2
*D43
340
0
  0
BLOCK_RECORD
  5
115F
330
1
100
AcDbSymbolTableRecord
100
AcDbBlockTableRecord
  2
*D44
340
0
  0
BLOCK_RECORD
  5
116B
330
1
100
AcDbSymbolTableRecord
100
AcDbBlockTableRecord
  2
*D45
340
0
  0
BLOCK_RECORD
  5
1177
330
1
100
AcDbSymbolTableRecord
100
AcDbBlockTableRecord
  2
*D46
340
0
  0
BLOCK_RECORD
  5
1183
330
1
100
AcDbSymbolTableRecord
100
AcDbBlockTableRecord
  2
*D47
340
0
  0
BLOCK_RECORD
  5
118F
330
1
100
AcDbSymbolTableRecord
100
AcDbBlockTableRecord
  2
*D48
340
0
  0
BLOCK_RECORD
  5
11D2
330
1
100
AcDbSymbolTableRecord
100
AcDbBlockTableRecord
  2
*D49
340
0
  0
BLOCK_RECORD
  5
11FE
330
1
100
AcDbSymbolTableRecord
100
AcDbBlockTableRecord
  2
*D50
340
0
  0
BLOCK_RECORD
  5
1220
330
1
100
AcDbSymbolTableRecord
100
AcDbBlockTableRecord
  2
*D51
340
0
  0
BLOCK_RECORD
  5
1336
330
1
100
AcDbSymbolTableRecord
100
AcDbBlockTableRecord
  2
*D52
340
0
  0
ENDTAB
  0
ENDSEC
  0
SECTION
  2
BLOCKS
  0
BLOCK
  5
6D
330
6C
100
AcDbEntity
  8
0
100
AcDbBlockBegin
  2
*Model_Space
 70
     0
 10
0.0
 20
0.0
 30
0.0
  3
*Model_Space
  1

  0
ENDBLK
  5
6E
330
6C
100
AcDbEntity
  8
0
100
AcDbBlockEnd
  0
BLOCK
  5
69
330
68
100
AcDbEntity
 67
     1
  8
0
100
AcDbBlockBegin
  2
*Paper_Space
 70
     0
 10
0.0
 20
0.0
 30
0.0
  3
*Paper_Space
  1

  0
ENDBLK
  5
6A
330
68
100
AcDbEntity
 67
     1
  8
0
100
AcDbBlockEnd
  0
BLOCK
  5
71
330
70
100
AcDbEntity
 67
     1
  8
0
100
AcDbBlockBegin
  2
*Paper_Space0
 70
     0
 10
0.0
 20
0.0
 30
0.0
  3
*Paper_Space0
  1

  0
ENDBLK
  5
72
330
70
100
AcDbEntity
 67
     1
  8
0
100
AcDbBlockEnd
  0
BLOCK
  5
99
330
98
100
AcDbEntity
  8
0
100
AcDbBlockBegin
  2
Filled-1
 70
     0
 10
0.0
 20
0.0
 30
0.0
  3
Filled-1
  1

  0
LINE
  5
9B
330
98
100
AcDbEntity
  8
0
 62
     0
100
AcDbLine
 10
-1.0
 20
0.0
 30
0.0
 11
0.0
 21
0.0
 31
0.0
  0
POLYLINE
  5
9D
330
98
100
AcDbEntity
  8
0
 62
     0
100
AcDb2dPolyline
 66
     1
 10
0.0
 20
0.0
 30
0.0
 70
   128
  0
VERTEX
  5
9E
330
9D
100
AcDbEntity
  8
0
 62
     0
100
AcDbVertex
100
AcDb2dVertex
 10
-1.0
 20
-0.1
 30
0.0
  0
VERTEX
  5
9F
330
9D
100
AcDbEntity
  8
0
 62
     0
100
AcDbVertex
100
AcDb2dVertex
 10
0.0
 20
0.0
 30
0.0
  0
VERTEX
  5
A1
330
9D
100
AcDbEntity
  8
0
 62
     0
100
AcDbVertex
100
AcDb2dVertex
 10
-1.0
 20
0.1
 30
0.0
  0
VERTEX
  5
A2
330
9D
100
AcDbEntity
  8
0
 62
     0
100
AcDbVertex
100
AcDb2dVertex
 10
-1.0
 20
-0.1
 30
0.0
  0
SEQEND
  5
A0
330
9D
100
AcDbEntity
  8
0
 62
     0
  0
SOLID
  5
A3
330
98
100
AcDbEntity
  8
0
 62
     0
100
AcDbTrace
 10
-1.0
 20
-0.1
 30
0.0
 11
0.0
 21
0.0
 31
0.0
 12
-1.0
 22
0.1
 32
0.0
 13
-1.0
 23
-0.1
 33
0.0
  0
LINE
  5
A4
330
98
100
AcDbEntity
  8
0
 62
     0
100
AcDbLine
 10
-1.0
 20
-0.1
 30
0.0
 11
0.0
 21
0.0
 31
0.0
  0
LINE
  5
A5
330
98
100
AcDbEntity
  8
0
 62
     0
100
AcDbLine
 10
0.0
 20
0.0
 30
0.0
 11
-1.0
 21
0.1
 31
0.0
  0
LINE
  5
A6
330
98
100
AcDbEntity
  8
0
 62
     0
100
AcDbLine
 10
-1.0
 20
0.1
 30
0.0
 11
-1.0
 21
-0.1
 31
0.0
  0
ENDBLK
  5
9A
330
98
100
AcDbEntity
  8
0
100
AcDbBlockEnd
  0
BLOCK
  5
B9
330
B4
100
AcDbEntity
  8
0
100
AcDbBlockBegin
  2
_Closed
 70
     0
 10
0.0
 20
0.0
 30
0.0
  3
_Closed
  1

  0
LINE
  5
B5
330
B4
100
AcDbEntity
  8
0
  6
ByBlock
 62
     0
370
    -2
100
AcDbLine
 10
-1.0
 20
0.1666666666666666
 30
0.0
 11
0.0
 21
0.0
 31
0.0
  0
LINE
  5
B6
330
B4
100
AcDbEntity
  8
0
  6
ByBlock
 62
     0
370
    -2
100
AcDbLine
 10
0.0
 20
0.0
 30
0.0
 11
-1.0
 21
-0.1666666666666666
 31
0.0
  0
LINE
  5
B7
330
B4
100
AcDbEntity
  8
0
  6
ByBlock
 62
     0
370
    -2
100
AcDbLine
 10
-1.0
 20
0.1666666666666666
 30
0.0
 11
-1.0
 21
-0.1666666666666666
 31
0.0
  0
LINE
  5
B8
330
B4
100
AcDbEntity
  8
0
  6
ByBlock
 62
     0
370
    -2
100
AcDbLine
 10
0.0
 20
0.0
 30
0.0
 11
-1.0
 21
0.0
 31
0.0
  0
ENDBLK
  5
BA
330
B4
100
AcDbEntity
  8
0
100
AcDbBlockEnd
  0
BLOCK
  5
BC
330
BB
100
AcDbEntity
  8
0
100
AcDbBlockBegin
  2
DatumFilled45
 70
     0
 10
0.0
 20
0.0
 30
0.0
  3
DatumFilled45
  1

  0
POLYLINE
  5
BE
330
BB
100
AcDbEntity
  8
0
 62
     0
100
AcDb2dPolyline
 66
     1
 10
0.0
 20
0.0
 30
0.0
 70
   128
  0
VERTEX
  5
BF
330
BE
100
AcDbEntity
  8
0
 62
     0
100
AcDbVertex
100
AcDb2dVertex
 10
0.0
 20
1.0
 30
0.0
  0
VERTEX
  5
C0
330
BE
100
AcDbEntity
  8
0
 62
     0
100
AcDbVertex
100
AcDb2dVertex
 10
0.0
 20
-1.0
 30
0.0
  0
VERTEX
  5
C2
330
BE
100
AcDbEntity
  8
0
 62
     0
100
AcDbVertex
100
AcDb2dVertex
 10
-1.0
 20
0.0
 30
0.0
  0
VERTEX
  5
C3
330
BE
100
AcDbEntity
  8
0
 62
     0
100
AcDbVertex
100
AcDb2dVertex
 10
0.0
 20
1.0
 30
0.0
  0
SEQEND
  5
C1
330
BE
100
AcDbEntity
  8
0
 62
     0
  0
SOLID
  5
C4
330
BB
100
AcDbEntity
  8
0
 62
     0
100
AcDbTrace
 10
0.0
 20
1.0
 30
0.0
 11
0.0
 21
-1.0
 31
0.0
 12
-1.0
 22
0.0
 32
0.0
 13
0.0
 23
1.0
 33
0.0
  0
ENDBLK
  5
BD
330
BB
100
AcDbEntity
  8
0
100
AcDbBlockEnd
  0
BLOCK
  5
C7
330
C6
100
AcDbEntity
  8
0
100
AcDbBlockBegin
  2
WIG-svarovani
 70
     0
 10
0.0
 20
0.0
 30
0.0
  3
WIG-svarovani
  1

  0
MTEXT
  5
C9
102
{ACAD_XDICTIONARY
360
17D2
102
}
330
C6
100
AcDbEntity
  8
Značka (ISO)
100
AcDbMText
 10
-57.87338256835937
 20
16.31795931607484
 30
0.0
 40
3.499999940395355
 41
115.7467651367187
 71
     1
 72
     1
  1
WIG Schweisung, Nahte sauber geschliffen und poliert\PSichtstege geschliffen mit 240 Korn und abgeklebt.\P{\H0.85714x; \P\H1.1667x;WIG svarovani- svary dle potreby zabrousit.\PPohledove plochy brousit (vel. brusnych zrn 240)\Pa polepit paskou}
  7
Text poznámky (ISO)
 73
     1
 44
0.9596589207649227
  0
ENDBLK
  5
C8
330
C6
100
AcDbEntity
  8
0
100
AcDbBlockEnd
  0
BLOCK
  5
CC
330
CB
100
AcDbEntity
  8
0
100
AcDbBlockBegin
  2
Popis kotvy_srouby
 70
     0
 10
0.0
 20
0.0
 30
0.0
  3
Popis kotvy_srouby
  1

  0
MTEXT
  5
CE
330
CB
100
AcDbEntity
  8
Značka (ISO)
100
AcDbMText
 10
-39.79761123657226
 20
21.84130281209946
 30
0.0
 40
3.499999940395355
 41
0.0
 71
     1
 72
     1
  1
Vzdalenost nivel. sroubu ca. 1500\PVzdalenost kotev ca. 400\PVzdalenost dist. koliku ca. 250\P\PAbstand der Nivellieschraben ca.1500\PAbstand der Maueranker ca.400\PAbstand der Distanzstege ca.250\P
  7
Text poznámky (ISO)
 73
     2
 44
0.9878841638565063
  0
ENDBLK
  5
CD
330
CB
100
AcDbEntity
  8
0
100
AcDbBlockEnd
  0
BLOCK
  5
D0
330
CF
100
AcDbEntity
  8
0
100
AcDbBlockBegin
  2
Mater. provedeni Art.
 70
     0
 10
0.0
 20
0.0
 30
0.0
  3
Mater. provedeni Art.
  1

  0
LINE
  5
D2
330
CF
100
AcDbEntity
  8
Geometrie náčrtu (ISO)
100
AcDbLine
 10
-35.0
 20
-22.5
 30
0.0
 11
35.0
 21
-22.5
 31
0.0
  0
LINE
  5
D3
330
CF
100
AcDbEntity
  8
Geometrie náčrtu (ISO)
100
AcDbLine
 10
35.0
 20
-22.5
 30
0.0
 11
34.99999999999996
 21
-13.49999999999998
 31
0.0
  0
LINE
  5
D4
330
CF
100
AcDbEntity
  8
Geometrie náčrtu (ISO)
100
AcDbLine
 10
34.99999999999996
 20
-13.49999999999998
 30
0.0
 11
-35.00000000000003
 21
-13.49999999999998
 31
0.0
  0
LINE
  5
D5
330
CF
100
AcDbEntity
  8
Geometrie náčrtu (ISO)
100
AcDbLine
 10
-35.00000000000003
 20
-13.49999999999998
 30
0.0
 11
-35.0
 21
-22.5
 31
0.0
  0
LINE
  5
D6
330
CF
100
AcDbEntity
  8
Geometrie náčrtu (ISO)
100
AcDbLine
 10
-35.00000000000003
 20
-13.49999999999998
 30
0.0
 11
34.99999999999996
 21
-13.49999999999998
 31
0.0
  0
LINE
  5
D7
330
CF
100
AcDbEntity
  8
Geometrie náčrtu (ISO)
100
AcDbLine
 10
34.99999999999996
 20
-13.49999999999998
 30
0.0
 11
34.99999999999996
 21
-4.499999999999992
 31
0.0
  0
LINE
  5
D8
330
CF
100
AcDbEntity
  8
Geometrie náčrtu (ISO)
100
AcDbLine
 10
34.99999999999996
 20
-4.499999999999992
 30
0.0
 11
-35.00000000000003
 21
-4.499999999999992
 31
0.0
  0
LINE
  5
D9
330
CF
100
AcDbEntity
  8
Geometrie náčrtu (ISO)
100
AcDbLine
 10
-35.00000000000003
 20
-4.499999999999992
 30
0.0
 11
-35.00000000000003
 21
-13.49999999999998
 31
0.0
  0
LINE
  5
DA
330
CF
100
AcDbEntity
  8
Geometrie náčrtu (ISO)
100
AcDbLine
 10
-35.00000000000003
 20
-4.499999999999992
 30
0.0
 11
34.99999999999996
 21
-4.499999999999992
 31
0.0
  0
LINE
  5
DB
330
CF
100
AcDbEntity
  8
Geometrie náčrtu (ISO)
100
AcDbLine
 10
34.99999999999996
 20
-4.499999999999992
 30
0.0
 11
34.99999999999996
 21
4.499999999999992
 31
0.0
  0
LINE
  5
DC
330
CF
100
AcDbEntity
  8
Geometrie náčrtu (ISO)
100
AcDbLine
 10
34.99999999999996
 20
4.499999999999992
 30
0.0
 11
-35.00000000000003
 21
4.499999999999992
 31
0.0
  0
LINE
  5
DD
330
CF
100
AcDbEntity
  8
Geometrie náčrtu (ISO)
100
AcDbLine
 10
-35.00000000000003
 20
4.499999999999992
 30
0.0
 11
-35.00000000000003
 21
-4.499999999999992
 31
0.0
  0
LINE
  5
DE
330
CF
100
AcDbEntity
  8
Geometrie náčrtu (ISO)
100
AcDbLine
 10
-35.00000000000003
 20
4.499999999999992
 30
0.0
 11
34.99999999999996
 21
4.499999999999992
 31
0.0
  0
LINE
  5
DF
330
CF
100
AcDbEntity
  8
Geometrie náčrtu (ISO)
100
AcDbLine
 10
34.99999999999996
 20
4.499999999999992
 30
0.0
 11
34.99999999999996
 21
13.50000000000001
 31
0.0
  0
LINE
  5
E0
330
CF
100
AcDbEntity
  8
Geometrie náčrtu (ISO)
100
AcDbLine
 10
34.99999999999996
 20
13.50000000000001
 30
0.0
 11
-35.00000000000003
 21
13.50000000000001
 31
0.0
  0
LINE
  5
E1
330
CF
100
AcDbEntity
  8
Geometrie náčrtu (ISO)
100
AcDbLine
 10
-35.00000000000003
 20
13.50000000000001
 30
0.0
 11
-35.00000000000003
 21
4.499999999999992
 31
0.0
  0
LINE
  5
E2
330
CF
100
AcDbEntity
  8
Geometrie náčrtu (ISO)
100
AcDbLine
 10
-35.00000000000003
 20
13.50000000000001
 30
0.0
 11
34.99999999999996
 21
13.50000000000001
 31
0.0
  0
LINE
  5
E3
330
CF
100
AcDbEntity
  8
Geometrie náčrtu (ISO)
100
AcDbLine
 10
34.99999999999996
 20
13.50000000000001
 30
0.0
 11
34.99999999999996
 21
22.5
 31
0.0
  0
LINE
  5
E4
330
CF
100
AcDbEntity
  8
Geometrie náčrtu (ISO)
100
AcDbLine
 10
34.99999999999996
 20
22.5
 30
0.0
 11
-35.00000000000003
 21
22.5
 31
0.0
  0
LINE
  5
E5
330
CF
100
AcDbEntity
  8
Geometrie náčrtu (ISO)
100
AcDbLine
 10
-35.00000000000003
 20
22.5
 30
0.0
 11
-35.00000000000003
 21
13.50000000000001
 31
0.0
  0
LINE
  5
E6
330
CF
100
AcDbEntity
  8
Geometrie náčrtu (ISO)
100
AcDbLine
 10
-6.999999999999992
 20
22.5
 30
0.0
 11
-6.999999999999992
 21
-22.5
 31
0.0
  0
MTEXT
  5
E7
330
CF
100
AcDbEntity
  8
Značka (ISO)
100
AcDbMText
 10
-5.126613448311374
 20
11.7684641726084
 30
0.0
 40
5.0
 41
0.0
 71
     1
 72
     1
  1
\fTahoma|b0|i0;\H5.0000;xxxxxxxxxxx
  7
Text poznámky (ISO)
 73
     1
 44
1.0
  0
MTEXT
  5
E8
330
CF
100
AcDbEntity
  8
Značka (ISO)
100
AcDbMText
 10
-33.0130165251342
 20
11.7684641726084
 30
0.0
 40
5.0
 41
20.42139291763306
 71
     1
 72
     1
  1
\fTahoma|b0|i0;\H5.0000;xxxxxx
  7
Text poznámky (ISO)
 73
     1
 44
1.0
  0
MTEXT
  5
E9
330
CF
100
AcDbEntity
  8
Značka (ISO)
100
AcDbMText
 10
-32.07756235018873
 20
20.30710993714994
 30
0.0
 40
5.0
 41
13.92583036716939
 71
     1
 72
     1
  1
\fTahoma|b0|i0;\H5.0000;Art.
  7
Text poznámky (ISO)
 73
     1
 44
1.0
  0
MTEXT
  5
EA
330
CF
100
AcDbEntity
  8
Značka (ISO)
100
AcDbMText
 10
4.291672002492318
 20
20.30710993714994
 30
0.0
 40
5.0
 41
0.0
 71
     1
 72
     1
  1
\fTahoma|b0|i0;\H5.0000;Mat.
  7
Text poznámky (ISO)
 73
     1
 44
1.0
  0
MTEXT
  5
EB
330
CF
100
AcDbEntity
  8
Značka (ISO)
100
AcDbMText
 10
-33.0130165251342
 20
2.473781856899818
 30
0.0
 40
5.0
 41
20.42139291763306
 71
     1
 72
     1
  1
\fTahoma|b0|i0;\H5.0000;xxxxxx
  7
Text poznámky (ISO)
 73
     1
 44
1.0
  0
MTEXT
  5
EC
330
CF
100
AcDbEntity
  8
Značka (ISO)
100
AcDbMText
 10
-5.126613448311374
 20
2.473781856899818
 30
0.0
 40
5.0
 41
0.0
 71
     1
 72
     1
  1
\fTahoma|b0|i0;\H5.0000;xxxxxxxxxxx
  7
Text poznámky (ISO)
 73
     1
 44
1.0
  0
MTEXT
  5
ED
330
CF
100
AcDbEntity
  8
Značka (ISO)
100
AcDbMText
 10
-33.0130165251342
 20
-6.862452441171491
 30
0.0
 40
5.0
 41
20.42139291763306
 71
     1
 72
     1
  1
\fTahoma|b0|i0;\H5.0000;xxxxxx
  7
Text poznámky (ISO)
 73
     1
 44
1.0
  0
MTEXT
  5
EE
330
CF
100
AcDbEntity
  8
Značka (ISO)
100
AcDbMText
 10
-5.126613448311374
 20
-6.862452441171491
 30
0.0
 40
5.0
 41
0.0
 71
     1
 72
     1
  1
\fTahoma|b0|i0;\H5.0000;xxxxxxxxxxx
  7
Text poznámky (ISO)
 73
     1
 44
1.0
  0
MTEXT
  5
EF
330
CF
100
AcDbEntity
  8
Značka (ISO)
100
AcDbMText
 10
-33.0130165251342
 20
-15.52177565039578
 30
0.0
 40
5.0
 41
20.42139291763306
 71
     1
 72
     1
  1
\fTahoma|b0|i0;\H5.0000;xxxxxx
  7
Text poznámky (ISO)
 73
     1
 44
1.0
  0
MTEXT
  5
F0
330
CF
100
AcDbEntity
  8
Značka (ISO)
100
AcDbMText
 10
-5.126613448311374
 20
-15.52177565039578
 30
0.0
 40
5.0
 41
0.0
 71
     1
 72
     1
  1
\fTahoma|b0|i0;\H5.0000;xxxxxxxxxxx
  7
Text poznámky (ISO)
 73
     1
 44
1.0
  0
ENDBLK
  5
D1
330
CF
100
AcDbEntity
  8
0
100
AcDbBlockEnd
  0
BLOCK
  5
F2
330
F1
100
AcDbEntity
  8
0
100
AcDbBlockBegin
  2
Art. s popisy
 70
     0
 10
0.0
 20
0.0
 30
0.0
  3
Art. s popisy
  1

  0
LINE
  5
F4
330
F1
100
AcDbEntity
  8
Geometrie náčrtu (ISO)
100
AcDbLine
 10
-60.00000000000081
 20
-22.5
 30
0.0
 11
59.99999999999911
 21
-22.5
 31
0.0
  0
LINE
  5
F5
330
F1
100
AcDbEntity
  8
Geometrie náčrtu (ISO)
100
AcDbLine
 10
59.99999999999911
 20
-22.5
 30
0.0
 11
60.00000000000081
 21
-13.50000000000001
 31
0.0
  0
LINE
  5
F6
330
F1
100
AcDbEntity
  8
Geometrie náčrtu (ISO)
100
AcDbLine
 10
60.00000000000081
 20
-13.50000000000001
 30
0.0
 11
-60.00000000000081
 21
-13.49999999999998
 31
0.0
  0
LINE
  5
F7
330
F1
100
AcDbEntity
  8
Geometrie náčrtu (ISO)
100
AcDbLine
 10
-60.00000000000081
 20
-13.49999999999998
 30
0.0
 11
-60.00000000000081
 21
-22.5
 31
0.0
  0
LINE
  5
F8
330
F1
100
AcDbEntity
  8
Geometrie náčrtu (ISO)
100
AcDbLine
 10
-60.00000000000081
 20
-13.49999999999998
 30
0.0
 11
60.00000000000081
 21
-13.50000000000001
 31
0.0
  0
LINE
  5
F9
330
F1
100
AcDbEntity
  8
Geometrie náčrtu (ISO)
100
AcDbLine
 10
60.00000000000081
 20
-13.50000000000001
 30
0.0
 11
59.99999999999911
 21
-4.500000000000028
 31
0.0
  0
LINE
  5
FA
330
F1
100
AcDbEntity
  8
Geometrie náčrtu (ISO)
100
AcDbLine
 10
59.99999999999911
 20
-4.500000000000028
 30
0.0
 11
-60.00000000000081
 21
-4.499999999999992
 31
0.0
  0
LINE
  5
FB
330
F1
100
AcDbEntity
  8
Geometrie náčrtu (ISO)
100
AcDbLine
 10
-60.00000000000081
 20
-4.499999999999992
 30
0.0
 11
-60.00000000000081
 21
-13.49999999999998
 31
0.0
  0
LINE
  5
FC
330
F1
100
AcDbEntity
  8
Geometrie náčrtu (ISO)
100
AcDbLine
 10
-60.00000000000081
 20
-4.499999999999992
 30
0.0
 11
59.99999999999911
 21
-4.500000000000028
 31
0.0
  0
LINE
  5
FD
330
F1
100
AcDbEntity
  8
Geometrie náčrtu (ISO)
100
AcDbLine
 10
59.99999999999911
 20
-4.500000000000028
 30
0.0
 11
59.99999999999911
 21
4.499999999999957
 31
0.0
  0
LINE
  5
FE
330
F1
100
AcDbEntity
  8
Geometrie náčrtu (ISO)
100
AcDbLine
 10
59.99999999999911
 20
4.499999999999957
 30
0.0
 11
-60.00000000000081
 21
4.499999999999992
 31
0.0
  0
LINE
  5
FF
330
F1
100
AcDbEntity
  8
Geometrie náčrtu (ISO)
100
AcDbLine
 10
-60.00000000000081
 20
4.499999999999992
 30
0.0
 11
-60.00000000000081
 21
-4.499999999999992
 31
0.0
  0
LINE
  5
100
330
F1
100
AcDbEntity
  8
Geometrie náčrtu (ISO)
100
AcDbLine
 10
-60.00000000000081
 20
4.499999999999992
 30
0.0
 11
59.99999999999911
 21
4.499999999999957
 31
0.0
  0
LINE
  5
101
330
F1
100
AcDbEntity
  8
Geometrie náčrtu (ISO)
100
AcDbLine
 10
59.99999999999911
 20
4.499999999999957
 30
0.0
 11
59.99999999999911
 21
13.49999999999998
 31
0.0
  0
LINE
  5
102
330
F1
100
AcDbEntity
  8
Geometrie náčrtu (ISO)
100
AcDbLine
 10
59.99999999999911
 20
13.49999999999998
 30
0.0
 11
-60.00000000000081
 21
13.50000000000001
 31
0.0
  0
LINE
  5
103
330
F1
100
AcDbEntity
  8
Geometrie náčrtu (ISO)
100
AcDbLine
 10
-60.00000000000081
 20
13.50000000000001
 30
0.0
 11
-60.00000000000081
 21
4.499999999999992
 31
0.0
  0
LINE
  5
104
330
F1
100
AcDbEntity
  8
Geometrie náčrtu (ISO)
100
AcDbLine
 10
-60.00000000000081
 20
13.50000000000001
 30
0.0
 11
59.99999999999911
 21
13.49999999999998
 31
0.0
  0
LINE
  5
105
330
F1
100
AcDbEntity
  8
Geometrie náčrtu (ISO)
100
AcDbLine
 10
59.99999999999911
 20
13.49999999999998
 30
0.0
 11
59.99999999999911
 21
22.49999999999996
 31
0.0
  0
LINE
  5
106
330
F1
100
AcDbEntity
  8
Geometrie náčrtu (ISO)
100
AcDbLine
 10
59.99999999999911
 20
22.49999999999996
 30
0.0
 11
-60.00000000000081
 21
22.5
 31
0.0
  0
LINE
  5
107
330
F1
100
AcDbEntity
  8
Geometrie náčrtu (ISO)
100
AcDbLine
 10
-60.00000000000081
 20
22.5
 30
0.0
 11
-60.00000000000081
 21
13.50000000000001
 31
0.0
  0
LINE
  5
108
330
F1
100
AcDbEntity
  8
Geometrie náčrtu (ISO)
100
AcDbLine
 10
-32.00000000000081
 20
22.5
 30
0.0
 11
-32.00000000000081
 21
-22.5
 31
0.0
  0
MTEXT
  5
109
330
F1
100
AcDbEntity
  8
Značka (ISO)
100
AcDbMText
 10
-27.63552601875791
 20
11.7684641726084
 30
0.0
 40
5.0
 41
0.0
 71
     1
 72
     1
  1
\fTahoma|b0|i0;\H5.0000;xxxxxxxxxxx
  7
Text poznámky (ISO)
 73
     1
 44
1.0
  0
MTEXT
  5
10A
330
F1
100
AcDbEntity
  8
Značka (ISO)
100
AcDbMText
 10
-55.52192909558073
 20
11.7684641726084
 30
0.0
 40
5.0
 41
20.42139291763306
 71
     1
 72
     1
  1
\fTahoma|b0|i0;\H5.0000;xxxxxx
  7
Text poznámky (ISO)
 73
     1
 44
1.0
  0
MTEXT
  5
10B
330
F1
100
AcDbEntity
  8
Značka (ISO)
100
AcDbMText
 10
-54.58647492063526
 20
20.30710993714994
 30
0.0
 40
5.0
 41
13.92583036716939
 71
     1
 72
     1
  1
\fTahoma|b0|i0;\H5.0000;Art.
  7
Text poznámky (ISO)
 73
     1
 44
1.0
  0
MTEXT
  5
10C
330
F1
100
AcDbEntity
  8
Značka (ISO)
100
AcDbMText
 10
-18.21724056795421
 20
20.30710993714994
 30
0.0
 40
5.0
 41
0.0
 71
     1
 72
     1
  1
\fTahoma|b0|i0;\H5.0000;Popis.
  7
Text poznámky (ISO)
 73
     1
 44
1.0
  0
MTEXT
  5
10D
330
F1
100
AcDbEntity
  8
Značka (ISO)
100
AcDbMText
 10
-55.52192909558073
 20
2.473781856899818
 30
0.0
 40
5.0
 41
20.42139291763306
 71
     1
 72
     1
  1
\fTahoma|b0|i0;\H5.0000;xxxxxx
  7
Text poznámky (ISO)
 73
     1
 44
1.0
  0
MTEXT
  5
10E
330
F1
100
AcDbEntity
  8
Značka (ISO)
100
AcDbMText
 10
-27.63552601875791
 20
2.473781856899818
 30
0.0
 40
5.0
 41
0.0
 71
     1
 72
     1
  1
\fTahoma|b0|i0;\H5.0000;xxxxxxxxxxx
  7
Text poznámky (ISO)
 73
     1
 44
1.0
  0
MTEXT
  5
10F
330
F1
100
AcDbEntity
  8
Značka (ISO)
100
AcDbMText
 10
-55.52192909558073
 20
-6.862452441171491
 30
0.0
 40
5.0
 41
20.42139291763306
 71
     1
 72
     1
  1
\fTahoma|b0|i0;\H5.0000;xxxxxx
  7
Text poznámky (ISO)
 73
     1
 44
1.0
  0
MTEXT
  5
110
330
F1
100
AcDbEntity
  8
Značka (ISO)
100
AcDbMText
 10
-27.63552601875791
 20
-6.862452441171491
 30
0.0
 40
5.0
 41
0.0
 71
     1
 72
     1
  1
\fTahoma|b0|i0;\H5.0000;xxxxxxxxxxx
  7
Text poznámky (ISO)
 73
     1
 44
1.0
  0
MTEXT
  5
111
330
F1
100
AcDbEntity
  8
Značka (ISO)
100
AcDbMText
 10
-55.52192909558073
 20
-15.52177565039578
 30
0.0
 40
5.0
 41
20.42139291763306
 71
     1
 72
     1
  1
\fTahoma|b0|i0;\H5.0000;xxxxxx
  7
Text poznámky (ISO)
 73
     1
 44
1.0
  0
MTEXT
  5
112
330
F1
100
AcDbEntity
  8
Značka (ISO)
100
AcDbMText
 10
-27.63552601875791
 20
-15.52177565039578
 30
0.0
 40
5.0
 41
0.0
 71
     1
 72
     1
  1
\fTahoma|b0|i0;\H5.0000;xxxxxxxxxxx
  7
Text poznámky (ISO)
 73
     1
 44
1.0
  0
ENDBLK
  5
F3
330
F1
100
AcDbEntity
  8
0
100
AcDbBlockEnd
  0
BLOCK
  5
114
330
113
100
AcDbEntity
  8
0
100
AcDbBlockBegin
  2
Tryskat
 70
     0
 10
0.0
 20
0.0
 30
0.0
  3
Tryskat
  1

  0
MTEXT
  5
116
330
113
100
AcDbEntity
  8
Značka (ISO)
100
AcDbMText
 10
-30.20239114761352
 20
5.036920197308063
 30
0.0
 40
3.499999940395355
 41
0.0
 71
     1
 72
     1
  1
Tryskat \P( Blasted , Glasperlstrahken)
  7
Text poznámky (ISO)
 73
     2
 44
0.9878841638565063
  0
ENDBLK
  5
115
330
113
100
AcDbEntity
  8
0
100
AcDbBlockEnd
  0
BLOCK
  5
118
330
117
100
AcDbEntity
  8
0
100
AcDbBlockBegin
  2
Morit
 70
     0
 10
0.0
 20
0.0
 30
0.0
  3
Morit
  1

  0
MTEXT
  5
11A
330
117
100
AcDbEntity
  8
Značka (ISO)
100
AcDbMText
 10
-19.08124089241028
 20
5.11633675545454
 30
0.0
 40
3.499999940395355
 41
0.0
 71
     1
 72
     1
  1
Morit a pasivovat\P(Pickled, gebeitzt)
  7
Text poznámky (ISO)
 73
     2
 44
0.9878841638565063
  0
ENDBLK
  5
119
330
117
100
AcDbEntity
  8
0
100
AcDbBlockEnd
  0
BLOCK
  5
11C
330
11B
100
AcDbEntity
  8
0
100
AcDbBlockBegin
  2
zinkovat
 70
     0
 10
0.0
 20
0.0
 30
0.0
  3
zinkovat
  1

  0
MTEXT
  5
11E
330
11B
100
AcDbEntity
  8
Značka (ISO)
100
AcDbMText
 10
-27.74189710617065
 20
5.049683563411233
 30
0.0
 40
3.499999940395355
 41
0.0
 71
     1
 72
     1
  1
Zarove zinkovat\P(hot galvanized, verzinkt )
  7
Text poznámky (ISO)
 73
     2
 44
0.9878841638565063
  0
ENDBLK
  5
11D
330
11B
100
AcDbEntity
  8
0
100
AcDbBlockEnd
  0
BLOCK
  5
120
330
11F
100
AcDbEntity
  8
0
100
AcDbBlockBegin
  2
Nater
 70
     0
 10
0.0
 20
0.0
 30
0.0
  3
Nater
  1

  0
MTEXT
  5
122
330
11F
100
AcDbEntity
  8
Značka (ISO)
100
AcDbMText
 10
-25.88411808013916
 20
1.864870421122756
 30
0.0
 40
3.499999940395355
 41
0.0
 71
     1
 72
     1
  1
Lackiert Farbe RAL 5002
  7
Text poznámky (ISO)
 73
     1
 44
1.0
  0
ENDBLK
  5
121
330
11F
100
AcDbEntity
  8
0
100
AcDbBlockEnd
  0
BLOCK
  5
124
330
123
100
AcDbEntity
  8
0
100
AcDbBlockBegin
  2
Brus
 70
     0
 10
0.0
 20
0.0
 30
0.0
  3
Brus
  1

  0
MTEXT
  5
126
330
123
100
AcDbEntity
  8
Značka (ISO)
100
AcDbMText
 10
-23.46616744995117
 20
5.11633675545454
 30
0.0
 40
3.499999940395355
 41
0.0
 71
     1
 72
     1
  1
Brousit\P(geburstet , brushed )
  7
Text poznámky (ISO)
 73
     2
 44
0.9878841638565063
  0
ENDBLK
  5
125
330
123
100
AcDbEntity
  8
0
100
AcDbBlockEnd
  0
BLOCK
  5
128
330
127
100
AcDbEntity
  8
0
100
AcDbBlockBegin
  2
Elektroliticky lestit
 70
     0
 10
0.0
 20
0.0
 30
0.0
  3
Elektroliticky lestit
  1

  0
MTEXT
  5
12A
330
127
100
AcDbEntity
  8
Značka (ISO)
100
AcDbMText
 10
-18.68841171264648
 20
5.036920197308063
 30
0.0
 40
3.499999940395355
 41
0.0
 71
     1
 72
     1
  1
Elektrolit. lestit\P(Elektropolished )
  7
Text poznámky (ISO)
 73
     2
 44
0.9878841638565063
  0
ENDBLK
  5
129
330
127
100
AcDbEntity
  8
0
100
AcDbBlockEnd
  0
BLOCK
  5
12C
330
12B
100
AcDbEntity
  8
0
100
AcDbBlockBegin
  2
Mořit de.
 70
     0
 10
0.0
 20
0.0
 30
0.0
  3
Mořit de.
  1

  0
MTEXT
  5
12E
102
{ACAD_XDICTIONARY
360
181B
102
}
330
12B
100
AcDbEntity
  8
Značka (ISO)
100
AcDbMText
 10
-21.33184909820557
 20
4.448386959265913
 30
0.0
 40
3.499999940395355
 41
0.0
 71
     1
 72
     1
  1
Mo\U+0159it a opl\U+00E1chnout\PBeizen und Pasiviert
  7
Text poznámky (ISO)
 73
     2
 44
0.9878841638565063
  0
ENDBLK
  5
12D
330
12B
100
AcDbEntity
  8
0
100
AcDbBlockEnd
  0
BLOCK
  5
130
330
12F
100
AcDbEntity
  8
0
100
AcDbBlockBegin
  2
Žlab bez spádu De.
 70
     0
 10
0.0
 20
0.0
 30
0.0
  3
Žlab bez spádu De.
  1

  0
MTEXT
  5
132
102
{ACAD_XDICTIONARY
360
181D
102
}
330
12F
100
AcDbEntity
  8
Značka (ISO)
100
AcDbMText
 10
-20.81989526748657
 20
4.01017793221399
 30
0.0
 40
3.499999940395355
 41
0.0
 71
     1
 72
     1
  1
\U+017Dlab bez sp\U+00E1du!\PRinne ohne Gef\U+00E4lle!
  7
Text poznámky (ISO)
 73
     2
 44
0.9878841638565063
  0
ENDBLK
  5
131
330
12F
100
AcDbEntity
  8
0
100
AcDbBlockEnd
  0
BLOCK
  5
134
330
133
100
AcDbEntity
  8
0
100
AcDbBlockBegin
  2
Žlab bez spádu Ang.
 70
     0
 10
0.0
 20
0.0
 30
0.0
  3
Žlab bez spádu Ang.
  1

  0
MTEXT
  5
136
102
{ACAD_XDICTIONARY
360
181F
102
}
330
133
100
AcDbEntity
  8
Značka (ISO)
100
AcDbMText
 10
-24.31422233581541
 20
4.456895925104618
 30
0.0
 40
3.499999940395355
 41
0.0
 71
     1
 72
     1
  1
\U+017Dlab bez sp\U+00E1du!\PChannel without slope!
  7
Text poznámky (ISO)
 73
     2
 44
0.9878841638565063
  0
ENDBLK
  5
135
330
133
100
AcDbEntity
  8
0
100
AcDbBlockEnd
  0
BLOCK
  5
138
330
137
100
AcDbEntity
  8
0
100
AcDbBlockBegin
  2
Aschl Nirotec-tryskání
 70
     0
 10
0.0
 20
0.0
 30
0.0
  3
Aschl Nirotec-tryskání
  1

  0
MTEXT
  5
13A
102
{ACAD_XDICTIONARY
360
1821
102
}
330
137
100
AcDbEntity
  8
Značka (ISO)
100
AcDbMText
 10
-58.85332584381103
 20
10.67052584141493
 30
0.0
 40
3.499999940395355
 41
0.0
 71
     1
 72
     1
  1
Povrchov\U+00E1 \U+00FAprava/Oberfl\U+00E4che:\PTryskat pouze vnit\U+0159ek \U+017Elabu, v\U+010Detn\U+011B pohledov\U+00FDch ploch!\PP\U+0159\U+00EDruby proti trysk\U+00E1n\U+00ED chr\U+00E1nit!\PFlansches per strahlung beh\U+00FCtent!
  7
Text poznámky (ISO)
 73
     2
 44
0.9878841638565063
  0
ENDBLK
  5
139
330
137
100
AcDbEntity
  8
0
100
AcDbBlockEnd
  0
BLOCK
  5
13C
330
13B
100
AcDbEntity
  8
0
100
AcDbBlockBegin
  2
Popis šrouby_kotvy Ang.
 70
     0
 10
0.0
 20
0.0
 30
0.0
  3
Popis šrouby_kotvy Ang.
  1

  0
MTEXT
  5
13E
102
{ACAD_XDICTIONARY
360
1823
102
}
330
13B
100
AcDbEntity
  8
Značka (ISO)
100
AcDbMText
 10
-62.9617118835449
 20
22.19584088772535
 30
0.0
 40
3.499999940395355
 41
0.0
 71
     1
 72
     1
  3
Vzd\U+00E1lenost nivela\U+010Dn\U+00EDch \U+0161roubu ca. 1500mm.\PVzd\U+00E1lenost kotev ca. 400mm.\PPohledov\U+00E9 plochy brousit(vel.brusn\U+00FDch zrn 240)\Pa polepit p\U+00E1skou.\P\PDistance of leveling feets ca. 1500 mm.\PDistance of fixing t
  1
angs ca. 400 mm.\PVisible surfaces to be grinded and covered by protectiv foil.
  7
Text poznámky (ISO)
 73
     2
 44
0.9878841638565063
  0
ENDBLK
  5
13D
330
13B
100
AcDbEntity
  8
0
100
AcDbBlockEnd
  0
BLOCK
  5
140
330
13F
100
AcDbEntity
  8
0
100
AcDbBlockBegin
  2
Spád žlabu Ang.
 70
     0
 10
0.0
 20
0.0
 30
0.0
  3
Spád žlabu Ang.
  1

  0
MTEXT
  5
142
102
{ACAD_XDICTIONARY
360
1825
102
}
330
13F
100
AcDbEntity
  8
Značka (ISO)
100
AcDbMText
 10
-61.18476867675779
 20
16.15664371056482
 30
0.0
 40
3.499999940395355
 41
0.0
 71
     1
 72
     1
  1
POZOR:\PSp\U+00E1d \U+017Elabu je men\U+0161\U+00ED ne\U+017E 1% - nebezpe\U+010D\U+00ED vzniku prohlubn\U+00ED\Pse stojatou vodou.\PAUTENTION:\PThe gradient of the bottom is minor then 1%.\PThat can be reason of slack water.
  7
Text poznámky (ISO)
 73
     2
 44
0.9878841638565063
  0
ENDBLK
  5
141
330
13F
100
AcDbEntity
  8
0
100
AcDbBlockEnd
  0
BLOCK
  5
144
330
143
100
AcDbEntity
  8
0
100
AcDbBlockBegin
  2
Spád žlabu De.
 70
     0
 10
0.0
 20
0.0
 30
0.0
  3
Spád žlabu De.
  1

  0
MTEXT
  5
146
102
{ACAD_XDICTIONARY
360
1827
102
}
330
143
100
AcDbEntity
  8
Značka (ISO)
100
AcDbMText
 10
-61.18476867675779
 20
16.61612506955862
 30
0.0
 40
3.499999940395355
 41
0.0
 71
     1
 72
     1
  1
POZOR:\PSp\U+00E1d \U+017Elabu je men\U+0161\U+00ED ne\U+017E 1% - nebezpe\U+010D\U+00ED vzniku prohlubn\U+00ED\Pse stojatou vodou.\PACHTUNG:\PDas Bodengef\U+00E4lle ist kleiner als 1%. Das Gefahr der\PSenkungsentstehung mit dem stehenden Wasser.
  7
Text poznámky (ISO)
 73
     2
 44
0.9878841638565063
  0
ENDBLK
  5
145
330
143
100
AcDbEntity
  8
0
100
AcDbBlockEnd
  0
BLOCK
  5
148
330
147
100
AcDbEntity
  8
0
100
AcDbBlockBegin
  2
Kartáč + folie
 70
     0
 10
0.0
 20
0.0
 30
0.0
  3
Kartáč + folie
  1

  0
MTEXT
  5
14A
102
{ACAD_XDICTIONARY
360
1829
102
}
330
147
100
AcDbEntity
  8
Značka (ISO)
100
AcDbMText
 10
-39.86001014709473
 20
4.448386959265913
 30
0.0
 40
3.499999940395355
 41
0.0
 71
     1
 72
     1
  1
Kart\U+00E1\U+010Dov\U+00E1no + folie\PGeburstet mit abziehbarer Schutzfolie
  7
Text poznámky (ISO)
 73
     2
 44
0.9878841638565063
  0
ENDBLK
  5
149
330
147
100
AcDbEntity
  8
0
100
AcDbBlockEnd
  0
BLOCK
  5
14C
330
14B
100
AcDbEntity
  8
0
100
AcDbBlockBegin
  2
Komplet tryskat De.
 70
     0
 10
0.0
 20
0.0
 30
0.0
  3
Komplet tryskat De.
  1

  0
MTEXT
  5
14E
330
14B
100
AcDbEntity
  8
Značka (ISO)
100
AcDbMText
 10
-37.33711719512939
 20
7.475785464048382
 30
0.0
 40
3.499999940395355
 41
0.0
 71
     1
 72
     1
  1
KOMPLETT GLASPER GESTRAHLT !\PKOMPLET ZHORA TRYSKAT ! \P
  7
Text poznámky (ISO)
 73
     2
 44
0.9878841638565063
  0
ENDBLK
  5
14D
330
14B
100
AcDbEntity
  8
0
100
AcDbBlockEnd
  0
BLOCK
  5
150
330
14F
100
AcDbEntity
  8
0
100
AcDbBlockBegin
  2
Mořit Ang.
 70
     0
 10
0.0
 20
0.0
 30
0.0
  3
Mořit Ang.
  1

  0
MTEXT
  5
152
102
{ACAD_XDICTIONARY
360
182B
102
}
330
14F
100
AcDbEntity
  8
Značka (ISO)
100
AcDbMText
 10
-19.84846115112304
 20
4.448386959265913
 30
0.0
 40
3.499999940395355
 41
0.0
 71
     1
 72
     1
  1
Mo\U+0159it a opl\U+00E1chnout\PPickled and wash
  7
Text poznámky (ISO)
 73
     2
 44
0.9878841638565063
  0
ENDBLK
  5
151
330
14F
100
AcDbEntity
  8
0
100
AcDbBlockEnd
  0
BLOCK
  5
154
330
153
100
AcDbEntity
  8
0
100
AcDbBlockBegin
  2
Rámečky Default Border
 70
     0
 10
0.0
 20
0.0
 30
0.0
  3
Rámečky Default Border
  1

  0
POLYLINE
  5
156
330
153
100
AcDbEntity
  8
Rámeček (ISO)
100
AcDb2dPolyline
 66
     1
 10
0.0
 20
0.0
 30
0.0
 70
   128
  0
VERTEX
  5
157
330
156
100
AcDbEntity
  8
Rámeček (ISO)
100
AcDbVertex
100
AcDb2dVertex
 10
10.0
 20
10.0
 30
0.0
  0
VERTEX
  5
158
330
156
100
AcDbEntity
  8
Rámeček (ISO)
100
AcDbVertex
100
AcDb2dVertex
 10
10.0
 20
287.0000076293946
 30
0.0
  0
VERTEX
  5
15A
330
156
100
AcDbEntity
  8
Rámeček (ISO)
100
AcDbVertex
100
AcDb2dVertex
 10
410.0
 20
287.0000076293946
 30
0.0
  0
VERTEX
  5
15B
330
156
100
AcDbEntity
  8
Rámeček (ISO)
100
AcDbVertex
100
AcDb2dVertex
 10
410.0
 20
10.0
 30
0.0
  0
VERTEX
  5
15C
330
156
100
AcDbEntity
  8
Rámeček (ISO)
100
AcDbVertex
100
AcDb2dVertex
 10
10.0
 20
10.0
 30
0.0
  0
SEQEND
  5
159
330
156
100
AcDbEntity
  8
Rámeček (ISO)
  0
POLYLINE
  5
15D
330
153
100
AcDbEntity
  8
Rámeček (ISO)
100
AcDb2dPolyline
 66
     1
 10
0.0
 20
0.0
 30
0.0
 70
   128
  0
VERTEX
  5
15E
330
15D
100
AcDbEntity
  8
Rámeček (ISO)
100
AcDbVertex
100
AcDb2dVertex
 10
210.0
 20
0.0
 30
0.0
  0
VERTEX
  5
15F
330
15D
100
AcDbEntity
  8
Rámeček (ISO)
100
AcDbVertex
100
AcDb2dVertex
 10
210.0
 20
10.0
 30
0.0
  0
VERTEX
  5
161
330
15D
100
AcDbEntity
  8
Rámeček (ISO)
100
AcDbVertex
100
AcDb2dVertex
 10
207.1132469177246
 20
5.0
 30
0.0
  0
VERTEX
  5
162
330
15D
100
AcDbEntity
  8
Rámeček (ISO)
100
AcDbVertex
100
AcDb2dVertex
 10
212.8867530822754
 20
5.0
 30
0.0
  0
VERTEX
  5
163
330
15D
100
AcDbEntity
  8
Rámeček (ISO)
100
AcDbVertex
100
AcDb2dVertex
 10
210.0
 20
10.0
 30
0.0
  0
SEQEND
  5
160
330
15D
100
AcDbEntity
  8
Rámeček (ISO)
  0
POLYLINE
  5
164
330
153
100
AcDbEntity
  8
Rámeček (ISO)
100
AcDb2dPolyline
 66
     1
 10
0.0
 20
0.0
 30
0.0
 70
   128
  0
VERTEX
  5
165
330
164
100
AcDbEntity
  8
Rámeček (ISO)
100
AcDbVertex
100
AcDb2dVertex
 10
210.0
 20
297.0000076293946
 30
0.0
  0
VERTEX
  5
166
330
164
100
AcDbEntity
  8
Rámeček (ISO)
100
AcDbVertex
100
AcDb2dVertex
 10
210.0
 20
287.0000076293946
 30
0.0
  0
VERTEX
  5
168
330
164
100
AcDbEntity
  8
Rámeček (ISO)
100
AcDbVertex
100
AcDb2dVertex
 10
207.1132469177246
 20
292.0000076293945
 30
0.0
  0
VERTEX
  5
169
330
164
100
AcDbEntity
  8
Rámeček (ISO)
100
AcDbVertex
100
AcDb2dVertex
 10
212.8867530822754
 20
292.0000076293945
 30
0.0
  0
VERTEX
  5
16A
330
164
100
AcDbEntity
  8
Rámeček (ISO)
100
AcDbVertex
100
AcDb2dVertex
 10
210.0
 20
287.0000076293946
 30
0.0
  0
SEQEND
  5
167
330
164
100
AcDbEntity
  8
Rámeček (ISO)
  0
POLYLINE
  5
16B
330
153
100
AcDbEntity
  8
Rámeček (ISO)
100
AcDb2dPolyline
 66
     1
 10
0.0
 20
0.0
 30
0.0
 70
   128
  0
VERTEX
  5
16C
330
16B
100
AcDbEntity
  8
Rámeček (ISO)
100
AcDbVertex
100
AcDb2dVertex
 10
0.0
 20
148.5000038146973
 30
0.0
  0
VERTEX
  5
16D
330
16B
100
AcDbEntity
  8
Rámeček (ISO)
100
AcDbVertex
100
AcDb2dVertex
 10
10.0
 20
148.5000038146973
 30
0.0
  0
VERTEX
  5
16F
330
16B
100
AcDbEntity
  8
Rámeček (ISO)
100
AcDbVertex
100
AcDb2dVertex
 10
5.0
 20
151.3867473602295
 30
0.0
  0
VERTEX
  5
170
330
16B
100
AcDbEntity
  8
Rámeček (ISO)
100
AcDbVertex
100
AcDb2dVertex
 10
5.0
 20
145.6132507324219
 30
0.0
  0
VERTEX
  5
171
330
16B
100
AcDbEntity
  8
Rámeček (ISO)
100
AcDbVertex
100
AcDb2dVertex
 10
10.0
 20
148.5000038146973
 30
0.0
  0
SEQEND
  5
16E
330
16B
100
AcDbEntity
  8
Rámeček (ISO)
  0
POLYLINE
  5
172
330
153
100
AcDbEntity
  8
Rámeček (ISO)
100
AcDb2dPolyline
 66
     1
 10
0.0
 20
0.0
 30
0.0
 70
   128
  0
VERTEX
  5
173
330
172
100
AcDbEntity
  8
Rámeček (ISO)
100
AcDbVertex
100
AcDb2dVertex
 10
420.0
 20
148.5000038146973
 30
0.0
  0
VERTEX
  5
174
330
172
100
AcDbEntity
  8
Rámeček (ISO)
100
AcDbVertex
100
AcDb2dVertex
 10
410.0
 20
148.5000038146973
 30
0.0
  0
VERTEX
  5
176
330
172
100
AcDbEntity
  8
Rámeček (ISO)
100
AcDbVertex
100
AcDb2dVertex
 10
415.0
 20
151.3867473602295
 30
0.0
  0
VERTEX
  5
177
330
172
100
AcDbEntity
  8
Rámeček (ISO)
100
AcDbVertex
100
AcDb2dVertex
 10
415.0
 20
145.6132507324219
 30
0.0
  0
VERTEX
  5
178
330
172
100
AcDbEntity
  8
Rámeček (ISO)
100
AcDbVertex
100
AcDb2dVertex
 10
410.0
 20
148.5000038146973
 30
0.0
  0
SEQEND
  5
175
330
172
100
AcDbEntity
  8
Rámeček (ISO)
  0
LINE
  5
179
330
153
100
AcDbEntity
  8
Rámeček (ISO)
100
AcDbLine
 10
70.0
 20
10.0
 30
0.0
 11
70.0
 21
6.100000143051147
 31
0.0
  0
LINE
  5
17A
330
153
100
AcDbEntity
  8
Rámeček (ISO)
100
AcDbLine
 10
70.0
 20
287.0000076293946
 30
0.0
 11
70.0
 21
290.9000015258789
 31
0.0
  0
LINE
  5
17B
330
153
100
AcDbEntity
  8
Rámeček (ISO)
100
AcDbLine
 10
140.0
 20
10.0
 30
0.0
 11
140.0
 21
6.100000143051147
 31
0.0
  0
LINE
  5
17C
330
153
100
AcDbEntity
  8
Rámeček (ISO)
100
AcDbLine
 10
140.0
 20
287.0000076293946
 30
0.0
 11
140.0
 21
290.9000015258789
 31
0.0
  0
LINE
  5
17D
330
153
100
AcDbEntity
  8
Rámeček (ISO)
100
AcDbLine
 10
280.0
 20
10.0
 30
0.0
 11
280.0
 21
6.100000143051147
 31
0.0
  0
LINE
  5
17E
330
153
100
AcDbEntity
  8
Rámeček (ISO)
100
AcDbLine
 10
280.0
 20
287.0000076293946
 30
0.0
 11
280.0
 21
290.9000015258789
 31
0.0
  0
LINE
  5
17F
330
153
100
AcDbEntity
  8
Rámeček (ISO)
100
AcDbLine
 10
350.0
 20
10.0
 30
0.0
 11
350.0
 21
6.100000143051147
 31
0.0
  0
LINE
  5
180
330
153
100
AcDbEntity
  8
Rámeček (ISO)
100
AcDbLine
 10
350.0
 20
287.0000076293946
 30
0.0
 11
350.0
 21
290.9000015258789
 31
0.0
  0
MTEXT
  5
181
330
153
100
AcDbEntity
  8
Rámeček (ISO)
100
AcDbMText
 10
384.2103922448459
 20
287.4
 30
0.0
 40
3.499999940395355
 41
0.0
 71
     7
 72
     1
  1
1
  7
Text poznámky (ISO)
 73
     1
 44
1.0
  0
MTEXT
  5
182
330
153
100
AcDbEntity
  8
Rámeček (ISO)
100
AcDbMText
 10
384.2103922448459
 20
6.100000059604642
 30
0.0
 40
3.499999940395355
 41
0.0
 71
     7
 72
     1
  1
1
  7
Text poznámky (ISO)
 73
     1
 44
1.0
  0
MTEXT
  5
183
330
153
100
AcDbEntity
  8
Rámeček (ISO)
100
AcDbMText
 10
313.9387915541735
 20
287.4
 30
0.0
 40
3.499999940395355
 41
0.0
 71
     7
 72
     1
  1
2
  7
Text poznámky (ISO)
 73
     1
 44
1.0
  0
MTEXT
  5
184
330
153
100
AcDbEntity
  8
Rámeček (ISO)
100
AcDbMText
 10
313.9387915541735
 20
6.100000059604642
 30
0.0
 40
3.499999940395355
 41
0.0
 71
     7
 72
     1
  1
2
  7
Text poznámky (ISO)
 73
     1
 44
1.0
  0
MTEXT
  5
185
330
153
100
AcDbEntity
  8
Rámeček (ISO)
100
AcDbMText
 10
243.9107914829702
 20
287.3262560764327
 30
0.0
 40
3.499999940395355
 41
0.0
 71
     7
 72
     1
  1
3
  7
Text poznámky (ISO)
 73
     1
 44
1.0
  0
MTEXT
  5
186
330
153
100
AcDbEntity
  8
Rámeček (ISO)
100
AcDbMText
 10
243.9107914829702
 20
6.026256136037407
 30
0.0
 40
3.499999940395355
 41
0.0
 71
     7
 72
     1
  1
3
  7
Text poznámky (ISO)
 73
     1
 44
1.0
  0
MTEXT
  5
187
330
153
100
AcDbEntity
  8
Rámeček (ISO)
100
AcDbMText
 10
173.7791911483144
 20
287.4
 30
0.0
 40
3.499999940395355
 41
0.0
 71
     7
 72
     1
  1
4
  7
Text poznámky (ISO)
 73
     1
 44
1.0
  0
MTEXT
  5
188
330
153
100
AcDbEntity
  8
Rámeček (ISO)
100
AcDbMText
 10
173.7791911483144
 20
6.100000059604642
 30
0.0
 40
3.499999940395355
 41
0.0
 71
     7
 72
     1
  1
4
  7
Text poznámky (ISO)
 73
     1
 44
1.0
  0
MTEXT
  5
189
330
153
100
AcDbEntity
  8
Rámeček (ISO)
100
AcDbMText
 10
103.9751916467378
 20
287.3262560764327
 30
0.0
 40
3.499999940395355
 41
0.0
 71
     7
 72
     1
  1
5
  7
Text poznámky (ISO)
 73
     1
 44
1.0
  0
MTEXT
  5
18A
330
153
100
AcDbEntity
  8
Rámeček (ISO)
100
AcDbMText
 10
103.9751916467378
 20
6.026256136037407
 30
0.0
 40
3.499999940395355
 41
0.0
 71
     7
 72
     1
  1
5
  7
Text poznámky (ISO)
 73
     1
 44
1.0
  0
MTEXT
  5
18B
330
153
100
AcDbEntity
  8
Rámeček (ISO)
100
AcDbMText
 10
33.88279141176685
 20
287.3262560764327
 30
0.0
 40
3.499999940395355
 41
0.0
 71
     7
 72
     1
  1
6
  7
Text poznámky (ISO)
 73
     1
 44
1.0
  0
MTEXT
  5
18C
330
153
100
AcDbEntity
  8
Rámeček (ISO)
100
AcDbMText
 10
33.88279141176685
 20
6.026256136037407
 30
0.0
 40
3.499999940395355
 41
0.0
 71
     7
 72
     1
  1
6
  7
Text poznámky (ISO)
 73
     1
 44
1.0
  0
LINE
  5
18D
330
153
100
AcDbEntity
  8
Rámeček (ISO)
100
AcDbLine
 10
10.0
 20
74.25000190734862
 30
0.0
 11
6.100000143051147
 21
74.25000190734862
 31
0.0
  0
LINE
  5
18E
330
153
100
AcDbEntity
  8
Rámeček (ISO)
100
AcDbLine
 10
410.0
 20
74.25000190734862
 30
0.0
 11
413.8999938964841
 21
74.25000190734862
 31
0.0
  0
LINE
  5
18F
330
153
100
AcDbEntity
  8
Rámeček (ISO)
100
AcDbLine
 10
10.0
 20
222.7499961853027
 30
0.0
 11
6.100000143051147
 21
222.7499961853027
 31
0.0
  0
LINE
  5
190
330
153
100
AcDbEntity
  8
Rámeček (ISO)
100
AcDbLine
 10
410.0
 20
222.7499961853027
 30
0.0
 11
413.8999938964841
 21
222.7499961853027
 31
0.0
  0
MTEXT
  5
191
330
153
100
AcDbEntity
  8
Rámeček (ISO)
100
AcDbMText
 10
6.361230343933396
 20
35.37500002980233
 30
0.0
 40
3.499999940395355
 41
0.0
 71
     7
 72
     1
  1
A
  7
Text poznámky (ISO)
 73
     1
 44
1.0
  0
MTEXT
  5
192
330
153
100
AcDbEntity
  8
Rámeček (ISO)
100
AcDbMText
 10
410.6612302843286
 20
35.37500002980233
 30
0.0
 40
3.499999940395355
 41
0.0
 71
     7
 72
     1
  1
A
  7
Text poznámky (ISO)
 73
     1
 44
1.0
  0
MTEXT
  5
193
330
153
100
AcDbEntity
  8
Rámeček (ISO)
100
AcDbMText
 10
6.781848468328937
 20
109.6250000298023
 30
0.0
 40
3.499999940395355
 41
0.0
 71
     7
 72
     1
  1
B
  7
Text poznámky (ISO)
 73
     1
 44
1.0
  0
MTEXT
  5
194
330
153
100
AcDbEntity
  8
Rámeček (ISO)
100
AcDbMText
 10
411.0818484087242
 20
109.6250000298023
 30
0.0
 40
3.499999940395355
 41
0.0
 71
     7
 72
     1
  1
B
  7
Text poznámky (ISO)
 73
     1
 44
1.0
  0
MTEXT
  5
195
330
153
100
AcDbEntity
  8
Rámeček (ISO)
100
AcDbMText
 10
6.558903094188357
 20
183.8126013241708
 30
0.0
 40
3.499999940395355
 41
0.0
 71
     7
 72
     1
  1
C
  7
Text poznámky (ISO)
 73
     1
 44
1.0
  0
MTEXT
  5
196
330
153
100
AcDbEntity
  8
Rámeček (ISO)
100
AcDbMText
 10
410.8589030345836
 20
183.8126013241708
 30
0.0
 40
3.499999940395355
 41
0.0
 71
     7
 72
     1
  1
C
  7
Text poznámky (ISO)
 73
     1
 44
1.0
  0
MTEXT
  5
197
330
153
100
AcDbEntity
  8
Rámeček (ISO)
100
AcDbMText
 10
6.56770745709084
 20
258.1250000298023
 30
0.0
 40
3.499999940395355
 41
0.0
 71
     7
 72
     1
  1
D
  7
Text poznámky (ISO)
 73
     1
 44
1.0
  0
MTEXT
  5
198
330
153
100
AcDbEntity
  8
Rámeček (ISO)
100
AcDbMText
 10
410.8677073974861
 20
258.1250000298023
 30
0.0
 40
3.499999940395355
 41
0.0
 71
     7
 72
     1
  1
D
  7
Text poznámky (ISO)
 73
     1
 44
1.0
  0
ENDBLK
  5
155
330
153
100
AcDbEntity
  8
0
100
AcDbBlockEnd
  0
BLOCK
  5
19B
330
19A
100
AcDbEntity
  8
0
100
AcDbBlockBegin
  2
Rohová razítka ACO-razitko
 70
     2
 10
0.0
 20
0.0
 30
0.0
  3
Rohová razítka ACO-razitko
  1

  0
LINE
  5
19D
330
19A
100
AcDbEntity
  8
KOPF
  6
Continuous
370
    25
100
AcDbLine
 10
271.0
 20
94.01203200000002
 30
0.0
 11
271.0
 21
74.00000000000004
 31
0.0
  0
LINE
  5
19E
330
19A
100
AcDbEntity
  8
KOPF
  6
Continuous
370
    25
100
AcDbLine
 10
271.0
 20
94.01203200000002
 30
0.0
 11
271.0
 21
74.00000000000004
 31
0.0
  0
CIRCLE
  5
19F
330
19A
100
AcDbEntity
  8
TEXT50
  6
Continuous
370
    25
100
AcDbCircle
 10
228.4029491544077
 20
82.96404964998812
 30
0.0
 40
1.979948192651899
  0
LINE
  5
1A0
330
19A
100
AcDbEntity
  8
TEXT50
  6
Continuous
370
    25
100
AcDbLine
 10
243.3885593590108
 20
84.94399784264013
 30
0.0
 11
243.3885593590108
 21
80.98410145733607
 31
0.0
  0
LINE
  5
1A1
330
19A
100
AcDbEntity
  8
TEXT50
  6
Continuous
370
    25
100
AcDbLine
 10
234.8388431898113
 20
86.98698300161327
 30
0.0
 11
234.8388431898113
 21
78.94111629836295
 31
0.0
  0
LINE
  5
1A2
330
19A
100
AcDbEntity
  8
TEXT50
  6
Continuous
370
    25
100
AcDbLine
 10
243.3885593590108
 20
84.94399784264013
 30
0.0
 11
234.8388431898113
 21
86.98698300161327
 31
0.0
  0
CIRCLE
  5
1A3
330
19A
100
AcDbEntity
  8
TEXT50
  6
Continuous
370
    25
100
AcDbCircle
 10
228.4029491544077
 20
82.96404964998812
 30
0.0
 40
4.022933351625178
  0
LINE
  5
1A4
330
19A
100
AcDbEntity
  8
TEXT50
  6
Continuous
370
    25
100
AcDbLine
 10
234.8388431898113
 20
78.94111629836295
 30
0.0
 11
243.3885593590108
 21
80.98410145733607
 31
0.0
  0
CIRCLE
  5
1A5
330
19A
100
AcDbEntity
  8
TEXT35
  6
Continuous
370
    25
100
AcDbCircle
 10
221.0936673107637
 20
101.9131972309053
 30
0.0
 40
2.281499999999998
  0
CIRCLE
  5
1A6
330
19A
100
AcDbEntity
  8
TEXT35
  6
Continuous
370
    25
100
AcDbCircle
 10
221.0936673107637
 20
101.9131972309053
 30
0.0
 40
1.579499999999999
  0
ARC
  5
1A7
330
19A
100
AcDbEntity
  8
TEXT35
  6
Continuous
370
    25
100
AcDbCircle
 10
214.6291610736662
 20
101.9131972309054
 30
0.0
 40
1.57950000000007
100
AcDbArc
 50
31.05580049908738
 51
329.9999999999987
  0
LINE
  5
1A8
330
19A
100
AcDbEntity
  8
TEXT35
  6
Continuous
370
    25
100
AcDbLine
 10
215.9822639109751
 20
102.7280180465864
 30
0.0
 11
216.5902852082589
 21
103.0790593062462
 31
0.0
  0
ARC
  5
1A9
330
19A
100
AcDbEntity
  8
TEXT35
  6
Continuous
370
    25
100
AcDbCircle
 10
214.6291610736662
 20
101.9131972309052
 30
0.0
 40
2.281500000000015
100
AcDbArc
 50
30.73091726592628
 51
330.0000000000017
  0
LINE
  5
1AA
330
19A
100
AcDbEntity
  8
TEXT35
  6
Continuous
370
    25
100
AcDbLine
 10
216.6049980324005
 20
100.7724472309053
 30
0.0
 11
215.9970481989438
 21
101.1234472309053
 31
0.0
  0
LINE
  5
1AB
330
19A
100
AcDbEntity
  8
TEXT35
  6
Continuous
370
    25
100
AcDbLine
 10
211.8347763192409
 20
111.6789659312995
 30
0.0
 11
211.8347763192409
 21
98.44416361029551
 31
0.0
  0
LINE
  5
1AC
330
19A
100
AcDbEntity
  8
TEXT35
  6
Continuous
370
    25
100
AcDbLine
 10
211.8347763192409
 20
98.44416361029551
 30
0.0
 11
217.4235458280916
 21
98.44416361029551
 31
0.0
  0
LINE
  5
1AD
330
19A
100
AcDbEntity
  8
TEXT35
  6
Continuous
370
    25
100
AcDbLine
 10
217.4235458280916
 20
98.44416361029551
 30
0.0
 11
217.4235458280916
 21
111.6789659312995
 31
0.0
  0
LINE
  5
1AE
330
19A
100
AcDbEntity
  8
TEXT35
  6
Continuous
370
    25
100
AcDbLine
 10
217.4235458280916
 20
111.6789659312995
 30
0.0
 11
211.8347763192409
 21
111.6789659312995
 31
0.0
  0
LINE
  5
1AF
330
19A
100
AcDbEntity
  8
TEXT35
  6
Continuous
370
    25
100
AcDbLine
 10
223.888052065189
 20
111.6789659312995
 30
0.0
 11
223.888052065189
 21
98.44416361029551
 31
0.0
  0
LINE
  5
1B0
330
19A
100
AcDbEntity
  8
TEXT35
  6
Continuous
370
    25
100
AcDbLine
 10
223.888052065189
 20
98.44416361029551
 30
0.0
 11
218.2992825563384
 21
98.44416361029551
 31
0.0
  0
LINE
  5
1B1
330
19A
100
AcDbEntity
  8
TEXT35
  6
Continuous
370
    25
100
AcDbLine
 10
218.2992825563384
 20
98.44416361029551
 30
0.0
 11
218.2992825563384
 21
111.6789659312995
 31
0.0
  0
LINE
  5
1B2
330
19A
100
AcDbEntity
  8
TEXT35
  6
Continuous
370
    25
100
AcDbLine
 10
218.2992825563384
 20
111.6789659312995
 30
0.0
 11
223.888052065189
 21
111.6789659312995
 31
0.0
  0
ARC
  5
1B3
330
19A
100
AcDbEntity
  8
TEXT35
  6
Continuous
370
    25
100
AcDbCircle
 10
211.499154836569
 20
99.57623034270234
 30
0.0
 40
4.914000000000251
100
AcDbArc
 50
172.305837035409
 51
179.7113029220757
  0
LINE
  5
1B4
330
19A
100
AcDbEntity
  8
TEXT35
  6
Continuous
370
    25
100
AcDbLine
 10
206.6293963427935
 20
100.2341423522474
 30
0.0
 11
209.6999133303443
 21
100.2341423522474
 31
0.0
  0
ARC
  5
1B5
330
19A
100
AcDbEntity
  8
TEXT35
  6
Continuous
370
    25
100
AcDbCircle
 10
204.8301548365688
 20
99.57623034270323
 30
0.0
 40
4.914000000000132
100
AcDbArc
 50
0.2886970779141535
 51
7.694162964580896
  0
LINE
  5
1B6
330
19A
100
AcDbEntity
  8
TEXT35
  6
Continuous
370
    25
100
AcDbLine
 10
209.7440924568018
 20
99.60099048123304
 30
0.0
 11
210.4461002543538
 21
99.60099048123304
 31
0.0
  0
ARC
  5
1B7
330
19A
100
AcDbEntity
  8
TEXT35
  6
Continuous
370
    25
100
AcDbCircle
 10
204.8301548365688
 20
99.5762303427033
 30
0.0
 40
5.616000000000016
100
AcDbArc
 50
0.2526096926473688
 51
53.57642635766914
  0
ARC
  5
1B8
330
19A
100
AcDbEntity
  8
TEXT35
  6
Continuous
370
    25
100
AcDbCircle
 10
211.4991548365688
 20
99.57623034270323
 30
0.0
 40
5.616000000000023
100
AcDbArc
 50
126.4235736423304
 51
179.7473903073512
  0
LINE
  5
1B9
330
19A
100
AcDbEntity
  8
TEXT35
  6
Continuous
370
    25
100
AcDbLine
 10
205.8832094187838
 20
99.60099048123304
 30
0.0
 11
206.5852172163358
 21
99.60099048123304
 31
0.0
  0
LINE
  5
1BA
330
19A
100
AcDbEntity
  8
TEXT35
  6
Continuous
370
    25
100
AcDbLine
 10
205.3702700821435
 20
111.6789659312995
 30
0.0
 11
205.3702700821435
 21
98.44416361029551
 31
0.0
  0
LINE
  5
1BB
330
19A
100
AcDbEntity
  8
TEXT35
  6
Continuous
370
    25
100
AcDbLine
 10
205.3702700821435
 20
98.44416361029551
 30
0.0
 11
210.9590395909941
 21
98.44416361029551
 31
0.0
  0
LINE
  5
1BC
330
19A
100
AcDbEntity
  8
TEXT35
  6
Continuous
370
    25
100
AcDbLine
 10
210.9590395909941
 20
98.44416361029551
 30
0.0
 11
210.9590395909941
 21
111.6789659312995
 31
0.0
  0
LINE
  5
1BD
330
19A
100
AcDbEntity
  8
TEXT35
  6
Continuous
370
    25
100
AcDbLine
 10
210.9590395909941
 20
111.6789659312995
 30
0.0
 11
205.3702700821435
 21
111.6789659312995
 31
0.0
  0
ARC
  5
1BE
330
19A
100
AcDbEntity
  8
TEXT35
  6
Continuous
370
    25
100
AcDbCircle
 10
204.830154836569
 20
99.57623034270341
 30
0.0
 40
4.913999999999818
100
AcDbArc
 50
16.0658750272321
 51
47.26788995739759
  0
LINE
  5
1BF
330
19A
100
AcDbEntity
  8
TEXT35
  6
Continuous
370
    25
100
AcDbLine
 10
209.5522343918387
 20
100.9361423522474
 30
0.0
 11
206.7770752812989
 21
100.9361423522474
 31
0.0
  0
ARC
  5
1C0
330
19A
100
AcDbEntity
  8
TEXT35
  6
Continuous
370
    25
100
AcDbCircle
 10
211.4991548365683
 20
99.57623034270341
 30
0.0
 40
4.913999999999566
100
AcDbArc
 50
132.7321100425983
 51
163.9341249727667
  0
LINE
  5
1C1
330
19A
100
AcDbEntity
  8
Nadpis (ISO)
100
AcDbLine
 10
304.0
 20
114.0000000000001
 30
0.0
 11
304.0
 21
45.0
 31
0.0
  0
LINE
  5
1C2
330
19A
100
AcDbEntity
  8
Nadpis (ISO)
100
AcDbLine
 10
304.0
 20
45.0
 30
0.0
 11
117.0
 21
44.99999999999999
 31
0.0
  0
LINE
  5
1C3
330
19A
100
AcDbEntity
  8
Nadpis (ISO)
100
AcDbLine
 10
117.0
 20
44.99999999999999
 30
0.0
 11
117.0
 21
114.0
 31
0.0
  0
LINE
  5
1C4
330
19A
100
AcDbEntity
  8
Nadpis (ISO)
100
AcDbLine
 10
117.0
 20
114.0
 30
0.0
 11
304.0
 21
114.0000000000001
 31
0.0
  0
LINE
  5
1C5
330
19A
100
AcDbEntity
  8
Nadpis (ISO)
100
AcDbLine
 10
199.0
 20
114.0
 30
0.0
 11
199.0
 21
93.99999999999998
 31
0.0
  0
LINE
  5
1C6
330
19A
100
AcDbEntity
  8
KOPF
100
AcDbLine
 10
199.0
 20
104.0
 30
0.0
 11
117.0
 21
104.0
 31
0.0
  0
LINE
  5
1C7
330
19A
100
AcDbEntity
  8
Nadpis (ISO)
100
AcDbLine
 10
199.0
 20
93.99999999999998
 30
0.0
 11
117.0
 21
93.99999999999996
 31
0.0
  0
LINE
  5
1C8
330
19A
100
AcDbEntity
  8
KOPF
100
AcDbLine
 10
158.0
 20
93.99999999999998
 30
0.0
 11
158.0
 21
114.0
 31
0.0
  0
LINE
  5
1C9
330
19A
100
AcDbEntity
  8
Nadpis (ISO)
100
AcDbLine
 10
199.0
 20
93.99999999999998
 30
0.0
 11
304.0
 21
94.00000000000003
 31
0.0
  0
LINE
  5
1CA
330
19A
100
AcDbEntity
  8
Nadpis (ISO)
100
AcDbLine
 10
223.0
 20
94.00000000000003
 30
0.0
 11
223.0
 21
44.99999999999999
 31
0.0
  0
LINE
  5
1CB
330
19A
100
AcDbEntity
  8
Nadpis (ISO)
100
AcDbLine
 10
304.0
 20
74.00000000000004
 30
0.0
 11
117.0
 21
73.99999999999998
 31
0.0
  0
LINE
  5
1CC
330
19A
100
AcDbEntity
  8
Nadpis (ISO)
100
AcDbLine
 10
186.0
 20
94.0
 30
0.0
 11
186.0
 21
74.00000000000002
 31
0.0
  0
LINE
  5
1CD
330
19A
100
AcDbEntity
  8
KOPF
100
AcDbLine
 10
144.0
 20
93.99999999999996
 30
0.0
 11
144.0
 21
74.00000000000004
 31
0.0
  0
LINE
  5
1CE
330
19A
100
AcDbEntity
  8
KOPF
100
AcDbLine
 10
169.0
 20
93.99999999999996
 30
0.0
 11
169.0
 21
74.00000000000004
 31
0.0
  0
LINE
  5
1CF
330
19A
100
AcDbEntity
  8
KOPF
100
AcDbLine
 10
186.0
 20
84.0
 30
0.0
 11
117.0
 21
83.99999999999996
 31
0.0
  0
LINE
  5
1D0
330
19A
100
AcDbEntity
  8
KOPF
100
AcDbLine
 10
186.0
 20
79.0
 30
0.0
 11
117.0
 21
78.99999999999997
 31
0.0
  0
LINE
  5
1D1
330
19A
100
AcDbEntity
  8
KOPF
100
AcDbLine
 10
186.0
 20
89.0
 30
0.0
 11
117.0
 21
88.99999999999996
 31
0.0
  0
LINE
  5
1D2
330
19A
100
AcDbEntity
  8
KOPF
100
AcDbLine
 10
223.0
 20
49.99999999999996
 30
0.0
 11
304.0
 21
50.00000000000003
 31
0.0
  0
LINE
  5
1D3
330
19A
100
AcDbEntity
  8
KOPF
100
AcDbLine
 10
245.0
 20
94.00000000000003
 30
0.0
 11
245.0
 21
74.00000000000004
 31
0.0
  0
LINE
  5
1D4
330
19A
100
AcDbEntity
  8
Nadpis (ISO)
100
AcDbLine
 10
292.0
 20
74.00000000000004
 30
0.0
 11
292.0
 21
50.00000000000007
 31
0.0
  0
LINE
  5
1D5
330
19A
100
AcDbEntity
  8
KOPF
100
AcDbLine
 10
292.0
 20
50.0
 30
0.0
 11
292.0
 21
45.0
 31
0.0
  0
LINE
  5
1D6
330
19A
100
AcDbEntity
  8
Nadpis (ISO)
100
AcDbLine
 10
260.9160465310349
 20
50.0
 30
0.0
 11
260.9160465310349
 21
45.0
 31
0.0
  0
TEXT
  5
1D8
330
19A
100
AcDbEntity
  8
Viditelná tenká (ISO)
100
AcDbText
 10
273.0
 20
84.97994933403731
 30
0.0
 40
1.539999991655349
  1
zum Zweck anderweitiger Benutzung
 41
0.7999999523162842
  7
Styl textu62
100
AcDbText
  0
TEXT
  5
1DA
330
19A
100
AcDbEntity
  8
Viditelná tenká (ISO)
100
AcDbText
 10
273.0
 20
82.63814072439636
 30
0.0
 40
1.539999991655349
  1
mitgeteilt werden und bleibt unser
 41
0.7999999523162842
  7
Styl textu62
100
AcDbText
  0
TEXT
  5
1DB
330
19A
100
AcDbEntity
  8
Viditelná tenká (ISO)
100
AcDbText
 10
273.0
 20
87.26106040199923
 30
0.0
 40
1.539999991655349
  1
noch dritten Personen, insbesondere
 41
0.7999999523162842
  7
Styl textu62
100
AcDbText
  0
TEXT
  5
1DC
330
19A
100
AcDbEntity
  8
Viditelná tenká (ISO)
100
AcDbText
 10
273.0
 20
89.62823225872142
 30
0.0
 40
1.539999991655349
  1
Diese Zeichnung darf weder kopiert
 41
0.7999999523162842
  7
Styl textu62
100
AcDbText
  0
TEXT
  5
1DD
330
19A
100
AcDbEntity
  8
Viditelná tenká (ISO)
100
AcDbText
 10
273.0
 20
80.37532604459601
 30
0.0
 40
1.539999991655349
  1
Eigentum.
 41
0.7999999523162842
  7
Styl textu62
100
AcDbText
  0
TEXT
  5
1DF
330
19A
100
AcDbEntity
  8
Viditelná tenká (ISO)
100
AcDbText
 10
223.6386390092129
 20
91.29914147596016
 30
0.0
 40
2.000000029802321
  1
Projektion: ISO-E
 41
0.7999999523162842
  7
Styl textu58
100
AcDbText
  0
TEXT
  5
1E1
330
19A
100
AcDbEntity
  8
Viditelná tenká (ISO)
100
AcDbText
 10
273.0
 20
77.30982488917629
 30
0.0
 40
1.539999991655349
  1
Schutzvermerk nach DIN 34 beachten
 41
0.75
  7
Styl textu63
100
AcDbText
  0
TEXT
  5
1E2
330
19A
100
AcDbEntity
  8
Viditelná tenká (ISO)
100
AcDbText
 10
236.2487793316645
 20
99.38243367792949
 30
0.0
 40
2.000000029802321
  1
582 22 Přibyslav; CZ
 41
0.7999999523162842
  7
Styl textu58
100
AcDbText
  0
TEXT
  5
1E3
330
19A
100
AcDbEntity
  8
Viditelná tenká (ISO)
100
AcDbText
 10
236.5351154208068
 20
103.0087314099309
 30
0.0
 40
2.000000029802321
  1
Havlíčkova 260
 41
0.7999999523162842
  7
Styl textu58
100
AcDbText
  0
TEXT
  5
1E5
330
19A
100
AcDbEntity
  8
TEXT35
100
AcDbText
 10
235.9801354774567
 20
108.2018007493417
 30
0.0
 40
3.000000119209288
  1
ACO Industries k.s.
 41
0.7999999523162842
  7
Styl textu75
100
AcDbText
  0
TEXT
  5
1E7
330
19A
100
AcDbEntity
  8
Viditelná tenká (ISO)
100
AcDbText
 10
261.6456899832647
 20
102.9064533471121
 30
0.0
 40
2.099999934434889
  1
Tel.: +420 569 491 111
 41
0.7000000476837159
  7
Styl textu72
100
AcDbText
  0
MTEXT
  5
1E8
330
19A
100
AcDbEntity
  8
Viditelná tenká (ISO)
100
AcDbMText
 10
223.7412519286358
 20
73.27889989032858
 30
0.0
 40
2.000000029802321
 41
34.87667701558774
 71
     1
 72
     1
  1
\fArial|b0|i0;\H2.0000;Zeichnung Nr.\fTahoma|b0|i0;\H2.0000;/Drawing No:
  7
Text poznámky (ISO)
 73
     1
 44
1.0
  0
MTEXT
  5
1E9
330
19A
100
AcDbEntity
  8
Viditelná tenká (ISO)
100
AcDbMText
 10
292.8014921014588
 20
72.84063462326732
 30
0.0
 40
2.000000029802321
 41
7.016185171142836
 71
     1
 72
     1
  1
\fArial|b0|i0;\H2.0000;Index
  7
Text poznámky (ISO)
 73
     1
 44
1.0
  0
MTEXT
  5
1EA
330
19A
100
AcDbEntity
  8
Viditelná tenká (ISO)
100
AcDbMText
 10
188.9161081342839
 20
93.0
 30
0.0
 40
2.000000029802321
 41
0.0
 71
     1
 72
     1
  1
\fArial|b0|i0;\H2.0000;Massstab\fTahoma|b0|i0;\H2.0000;/Scale:
  7
Text poznámky (ISO)
 73
     1
 44
1.0
  0
MTEXT
  5
1EB
330
19A
100
AcDbEntity
  8
Viditelná tenká (ISO)
100
AcDbMText
 10
118.0
 20
113.0
 30
0.0
 40
2.000000029802321
 41
0.0
 71
     1
 72
     1
  1
\fArial|b0|i0;\H2.0000;Werkstoff/Material:
  7
Text poznámky (ISO)
 73
     1
 44
1.0
  0
MTEXT
  5
1EC
330
19A
100
AcDbEntity
  8
Viditelná tenká (ISO)
100
AcDbMText
 10
159.0
 20
113.0
 30
0.0
 40
2.000000029802321
 41
0.0
 71
     1
 72
     1
  1
\fArial|b0|i0;\H2.0000;Gewicht/Weight:
  7
Text poznámky (ISO)
 73
     1
 44
1.0
  0
MTEXT
  5
1ED
330
19A
100
AcDbEntity
  8
Viditelná tenká (ISO)
100
AcDbMText
 10
118.0
 20
103.0
 30
0.0
 40
2.000000029802321
 41
0.0
 71
     1
 72
     1
  1
\fArial|b0|i0;\H2.0000;zul.Abweich.\fTahoma|b0|i0;\H2.0000;/Tolerance:
  7
Text poznámky (ISO)
 73
     1
 44
1.0
  0
MTEXT
  5
1EE
330
19A
100
AcDbEntity
  8
Viditelná tenká (ISO)
100
AcDbMText
 10
159.0
 20
103.0
 30
0.0
 40
2.000000029802321
 41
0.0
 71
     1
 72
     1
  1
\fArial|b0|i0;\H2.0000;Oberflache\fTahoma|b0|i0;\H2.0000;/Surface:
  7
Text poznámky (ISO)
 73
     1
 44
1.0
  0
MTEXT
  5
1EF
330
19A
100
AcDbEntity
  8
Viditelná tenká (ISO)
100
AcDbMText
 10
118.2064366962235
 20
87.52498463872976
 30
0.0
 40
2.000000029802321
 41
0.0
 71
     1
 72
     1
  1
\fArial|b0|i0;\H2.0000;Gezeichnet\fTahoma|b0|i0;\H2.0000;/Drawn:
  7
Text poznámky (ISO)
 73
     1
 44
1.0
  0
MTEXT
  5
1F0
102
{ACAD_XDICTIONARY
360
182D
102
}
330
19A
100
AcDbEntity
  8
Viditelná tenká (ISO)
100
AcDbMText
 10
118.2064366962235
 20
82.79398756785594
 30
0.0
 40
2.000000029802321
 41
0.0
 71
     1
 72
     1
  1
\fArial|b0|i0;\H2.0000;Gepr\U+00FCft\fTahoma|b0|i0;\H2.0000;/Checked by:
  7
Text poznámky (ISO)
 73
     1
 44
1.0
  0
MTEXT
  5
1F1
330
19A
100
AcDbEntity
  8
Viditelná tenká (ISO)
100
AcDbMText
 10
118.2064366962235
 20
77.59713566222233
 30
0.0
 40
2.000000029802321
 41
0.0
 71
     1
 72
     1
  1
\fArial|b0|i0;\H2.0000;Update\fTahoma|b0|i0;\H2.0000;:
  7
Text poznámky (ISO)
 73
     1
 44
1.0
  0
MTEXT
  5
1F2
330
19A
100
AcDbEntity
  8
Viditelná tenká (ISO)
100
AcDbMText
 10
148.0773056067903
 20
93.0
 30
0.0
 40
2.000000029802321
 41
15.9304416179657
 71
     1
 72
     1
  1
\fArial|b0|i0;\H2.0000;Datum\fTahoma|b0|i0;\H2.0000;/Date:
  7
Text poznámky (ISO)
 73
     1
 44
1.0
  0
MTEXT
  5
1F3
330
19A
100
AcDbEntity
  8
Viditelná tenká (ISO)
100
AcDbMText
 10
171.7579499603394
 20
93.0
 30
0.0
 40
2.000000029802321
 41
7.452743649482727
 71
     1
 72
     1
  1
\fArial|b0|i0;\H2.0000;Name
  7
Text poznámky (ISO)
 73
     1
 44
1.0
  0
MTEXT
  5
1F4
102
{ACAD_XDICTIONARY
360
182F
102
}
330
19A
100
AcDbEntity
  8
Nadpis (ISO)
100
AcDbMText
 10
118.0
 20
71.0
 30
0.0
 40
3.499999940395355
 41
0.0
 71
     1
 72
     1
  1
ACO vpust 142 sestava svis. dvoud\U+00EDln\U+00E1 DN70 12mm priruba bez ZU V2A
  7
Text poznámky (ISO)
 73
     1
 44
1.0
  0
MTEXT
  5
1F5
330
19A
100
AcDbEntity
  8
Nadpis (ISO)
100
AcDbMText
 10
147.8345772780873
 20
87.78242706242744
 30
0.0
 40
2.000000029802321
 41
29.41232473017148
 71
     1
 72
     1
  1
\fTahoma|b0|i0;\H2.0000;16.9.2011
  7
Text poznámky (ISO)
 73
     1
 44
1.0
  0
MTEXT
  5
1F6
330
19A
100
AcDbEntity
  8
Nadpis (ISO)
100
AcDbMText
 10
118.9147684950603
 20
98.79632878646518
 30
0.0
 40
3.499999940395355
 41
0.0
 71
     1
 72
     1
  1
ISO 2768-m
  7
Text poznámky (ISO)
 73
     1
 44
1.0
  0
MTEXT
  5
1F7
330
19A
100
AcDbEntity
  8
Nadpis (ISO)
100
AcDbMText
 10
162.5831033854
 20
99.20167780246003
 30
0.0
 40
3.499999940395355
 41
0.0
 71
     1
 72
     1
  1
DIN ISO 1302
  7
Text poznámky (ISO)
 73
     1
 44
1.0
  0
MTEXT
  5
1F8
330
19A
100
AcDbEntity
  8
Nadpis (ISO)
100
AcDbMText
 10
262.4743825961981
 20
49.17778241269704
 30
0.0
 40
3.499999940395355
 41
0.0
 71
     1
 72
     1
  1
\fArial|b0|i0;\H3.5000;List:\fArial|b0|i0;\H3.5000;1 \fArial|b0|i0;\H3.5000;/\fArial|b0|i0;\H3.5000;1 
  7
Text poznámky (ISO)
 73
     1
 44
1.0
  0
MTEXT
  5
1F9
102
{ACAD_XDICTIONARY
360
1831
102
}
330
19A
100
AcDbEntity
  8
Nadpis (ISO)
100
AcDbMText
 10
159.4396788094336
 20
109.2360383310952
 30
0.0
 40
3.499999940395355
 41
29.10098367733216
 71
     1
 72
     1
  1
Nen\U+00ED k dispozici
  7
Text poznámky (ISO)
 73
     2
 44
0.9878841638565063
  0
MTEXT
  5
1FA
330
19A
100
AcDbEntity
  8
Nadpis (ISO)
100
AcDbMText
 10
246.4026076227944
 20
91.02705239790408
 30
0.0
 40
1.500000059604644
 41
0.0
 71
     1
 72
     1
  1
\fTahoma|b0|i0;\W0.80;\H1.5000;The drawing is property \Pof company ACO \Pand must not be neither \Pcopied nor used\Pfor other unauthorized purposes. \PTrademark according to DIN 34\P
  7
Text poznámky (ISO)
 73
     2
 44
0.8232368230819702
  0
MTEXT
  5
1FB
330
19A
100
AcDbEntity
  8
Nadpis (ISO)
100
AcDbMText
 10
261.7171631717141
 20
101.5413993827952
 30
0.0
 40
2.099999934434889
 41
0.0
 71
     1
 72
     1
  1
\fTahoma|b0|i0;\H2.1000;www.aco.com
  7
Text poznámky (ISO)
 73
     1
 44
1.0
  0
ATTDEF
  5
1FD
102
{ACAD_XDICTIONARY
360
8E2
102
}
330
19A
100
AcDbEntity
  8
Nadpis (ISO)
100
AcDbText
 10
292.1851661835569
 20
62.4856753668063
 30
0.0
 40
3.499999940395355
  1
000
  7
Styl textu9
100
AcDbAttributeDefinition
  3
ČÍSLO REVIZE
  2
ČÍSLO_REVIZE_001
 70
     0
  0
ATTDEF
  5
201
102
{ACAD_XDICTIONARY
360
8E5
102
}
330
19A
100
AcDbEntity
  8
Nadpis (ISO)
100
AcDbText
 10
294.5873446304243
 20
46.32882590415592
 30
0.0
 40
2.000000029802321
  1
A3
  7
Styl textu40
100
AcDbAttributeDefinition
  3
Sheet Size
  2
Sheet_Size_001
 70
     0
  0
ATTDEF
  5
202
102
{ACAD_XDICTIONARY
360
8E8
102
}
330
19A
100
AcDbEntity
  8
Nadpis (ISO)
100
AcDbText
 10
224.4232249036362
 20
62.42008065196634
 30
0.0
 40
3.499999940395355
  1
414708
  7
Text poznámky (ISO)
100
AcDbAttributeDefinition
  3
PART NUMBER
  2
PART_NUMBER_001
 70
     0
  0
ATTDEF
  5
203
102
{ACAD_XDICTIONARY
360
8EB
102
}
330
19A
100
AcDbEntity
  8
Nadpis (ISO)
100
AcDbText
 10
118.0
 20
56.50000005960464
 30
0.0
 40
3.499999940395355
  1

  7
Text poznámky (ISO)
 11
118.0
 21
60.0
 31
0.0
100
AcDbAttributeDefinition
  3
PROJECT
  2
PROJECT
 70
     0
 74
     3
  0
ATTDEF
  5
205
102
{ACAD_XDICTIONARY
360
8EE
102
}
330
19A
100
AcDbEntity
  8
Nadpis (ISO)
100
AcDbText
 10
117.8119543349687
 20
47.73407435882505
 30
0.0
 40
6.99999988079071
  1
414708
  7
Styl textu94
100
AcDbAttributeDefinition
  3
SKLADOVÉ ČÍSLO
  2
SKLADOVÉ_ČÍSLO_001
 70
     0
  0
ATTDEF
  5
206
102
{ACAD_XDICTIONARY
360
8F1
102
}
330
19A
100
AcDbEntity
  8
Nadpis (ISO)
100
AcDbText
 10
117.5939056808251
 20
105.1756658592857
 30
0.0
 40
3.499999940395355
  1

  7
Text poznámky (ISO)
 11
117.5939056808251
 21
108.6756657996811
 31
0.0
100
AcDbAttributeDefinition
  3
MATERIAL
  2
MATERIAL
 70
     0
 74
     3
  0
ATTDEF
  5
207
102
{ACAD_XDICTIONARY
360
8F4
102
}
330
19A
100
AcDbEntity
  8
Nadpis (ISO)
100
AcDbText
 10
171.1119787164545
 20
85.78242703262512
 30
0.0
 40
2.000000029802321
  1
pmacoun
  7
Styl textu40
100
AcDbAttributeDefinition
  3
AUTHOR
  2
AUTHOR_001
 70
     0
  0
ATTDEF
  5
208
102
{ACAD_XDICTIONARY
360
8F7
102
}
330
19A
100
AcDbEntity
  8
Nadpis (ISO)
100
AcDbText
 10
189.1855699863978
 20
82.50038826992808
 30
0.0
 40
3.499999940395355
  1

  7
Text poznámky (ISO)
 11
189.1855699863978
 21
86.00038821032343
 31
0.0
100
AcDbAttributeDefinition
  3
FirstViewScale
  2
FirstViewScale
 70
     0
 74
     3
  0
ENDBLK
  5
19C
330
19A
100
AcDbEntity
  8
0
100
AcDbBlockEnd
  0
BLOCK
  5
453
330
452
100
AcDbEntity
  8
0
100
AcDbBlockBegin
  2
KUSOVNÍK
 70
     0
 10
0.0
 20
0.0
 30
0.0
  3
KUSOVNÍK
  1

  0
LINE
  5
455
330
452
100
AcDbEntity
  8
Značka (ISO)
100
AcDbLine
 10
410.0
 20
171.6967117231812
 30
0.0
 11
163.0166628488798
 21
171.6967117231812
 31
0.0
  0
LINE
  5
456
330
452
100
AcDbEntity
  8
Značka (ISO)
100
AcDbLine
 10
410.0
 20
171.6967117231812
 30
0.0
 11
410.0
 21
165.3480105262723
 31
0.0
  0
LINE
  5
457
330
452
100
AcDbEntity
  8
Značka (ISO)
100
AcDbLine
 10
163.0166628488798
 20
171.6967117231812
 30
0.0
 11
163.0166628488798
 21
165.3480105262723
 31
0.0
  0
MTEXT
  5
458
102
{ACAD_XDICTIONARY
360
1833
102
}
330
452
100
AcDbEntity
  8
Značka (ISO)
100
AcDbMText
 10
275.9649530129093
 20
166.0726857733455
 30
0.0
 40
3.499999940395355
 41
0.0
 71
     7
 72
     1
  1
KUSOVN\U+00CDK
  7
Text poznámky (DIN)
 73
     1
 44
1.0
  0
LINE
  5
45A
330
452
100
AcDbEntity
  8
Značka (ISO)
100
AcDbLine
 10
410.0
 20
165.3480105262723
 30
0.0
 11
163.0166628488798
 21
165.3480105262723
 31
0.0
  0
LINE
  5
45B
330
452
100
AcDbEntity
  8
Značka (ISO)
100
AcDbLine
 10
410.0
 20
165.3480105262723
 30
0.0
 11
410.0
 21
158.9993093293633
 31
0.0
  0
MTEXT
  5
45C
102
{ACAD_XDICTIONARY
360
1835
102
}
330
452
100
AcDbEntity
  8
Značka (ISO)
100
AcDbMText
 10
383.0047326387576
 20
159.7239845764365
 30
0.0
 40
3.499999940395355
 41
0.0
 71
     7
 72
     1
  1
MATERI\U+00C1L
  7
Text poznámky (DIN)
 73
     1
 44
1.0
  0
LINE
  5
45D
330
452
100
AcDbEntity
  8
Značka (ISO)
100
AcDbLine
 10
376.3949233868923
 20
165.3480105262723
 30
0.0
 11
376.3949233868923
 21
158.9993093293633
 31
0.0
  0
MTEXT
  5
45E
330
452
100
AcDbEntity
  8
Značka (ISO)
100
AcDbMText
 10
348.5246562640686
 20
160.4236599576201
 30
0.0
 40
3.499999940395355
 41
0.0
 71
     7
 72
     1
  1
HMOTNOST
  7
Text poznámky (DIN)
 73
     1
 44
1.0
  0
LINE
  5
45F
330
452
100
AcDbEntity
  8
Značka (ISO)
100
AcDbLine
 10
342.7898467737847
 20
165.3480105262723
 30
0.0
 11
342.7898467737847
 21
158.9993093293633
 31
0.0
  0
MTEXT
  5
460
102
{ACAD_XDICTIONARY
360
1837
102
}
330
452
100
AcDbEntity
  8
Značka (ISO)
100
AcDbMText
 10
310.5462032814845
 20
159.7239845764365
 30
0.0
 40
3.499999940395355
 41
0.0
 71
     7
 72
     1
  1
SKLADOV\U+00C9 \U+010C\U+00CDS
  7
Text poznámky (DIN)
 73
     1
 44
1.0
  0
LINE
  5
461
330
452
100
AcDbEntity
  8
Značka (ISO)
100
AcDbLine
 10
309.1847701606769
 20
165.3480105262723
 30
0.0
 11
309.1847701606769
 21
158.9993093293633
 31
0.0
  0
MTEXT
  5
462
330
452
100
AcDbEntity
  8
Značka (ISO)
100
AcDbMText
 10
245.8523633103533
 20
160.4236599576201
 30
0.0
 40
3.499999940395355
 41
0.0
 71
     7
 72
     1
  1
POPIS
  7
Text poznámky (DIN)
 73
     1
 44
1.0
  0
LINE
  5
463
330
452
100
AcDbEntity
  8
Značka (ISO)
100
AcDbLine
 10
194.1586606383613
 20
165.3480105262723
 30
0.0
 11
194.1586606383613
 21
158.9993093293633
 31
0.0
  0
MTEXT
  5
464
330
452
100
AcDbEntity
  8
Značka (ISO)
100
AcDbMText
 10
186.7688508069207
 20
160.4236599576201
 30
0.0
 40
3.499999940395355
 41
0.0
 71
     7
 72
     1
  1
KS
  7
Text poznámky (DIN)
 73
     1
 44
1.0
  0
LINE
  5
465
330
452
100
AcDbEntity
  8
Značka (ISO)
100
AcDbLine
 10
184.3716418909103
 20
165.3480105262723
 30
0.0
 11
184.3716418909103
 21
158.9993093293633
 31
0.0
  0
MTEXT
  5
466
330
452
100
AcDbEntity
  8
Značka (ISO)
100
AcDbMText
 10
166.8260988752041
 20
160.4236599576201
 30
0.0
 40
3.499999940395355
 41
0.0
 71
     7
 72
     1
  1
POZICE
  7
Text poznámky (DIN)
 73
     1
 44
1.0
  0
LINE
  5
467
330
452
100
AcDbEntity
  8
Značka (ISO)
100
AcDbLine
 10
163.0166628488798
 20
165.3480105262723
 30
0.0
 11
163.0166628488798
 21
158.9993093293633
 31
0.0
  0
MTEXT
  5
468
330
452
100
AcDbEntity
  8
Značka (ISO)
100
AcDbMText
 10
377.5973241558884
 20
154.0749587607112
 30
0.0
 40
3.499999940395355
 41
0.0
 71
     7
 72
     1
  1
PVC-U
  7
Text poznámky (DIN)
 73
     1
 44
1.0
  0
MTEXT
  5
469
330
452
100
AcDbEntity
  8
Značka (ISO)
100
AcDbMText
 10
343.9922475427807
 20
153.0262575041976
 30
0.0
 40
3.499999940395355
 41
0.0
 71
     7
 72
     1
  1
0,042 kg
  7
Text poznámky (DIN)
 73
     1
 44
1.0
  0
MTEXT
  5
46A
330
452
100
AcDbEntity
  8
Značka (ISO)
100
AcDbMText
 10
310.387170929673
 20
154.0749587607112
 30
0.0
 40
3.499999940395355
 41
0.0
 71
     7
 72
     1
  1
NM 6701
  7
Text poznámky (DIN)
 73
     1
 44
1.0
  0
MTEXT
  5
46B
102
{ACAD_XDICTIONARY
360
1839
102
}
330
452
100
AcDbEntity
  8
Značka (ISO)
100
AcDbMText
 10
195.3610614073574
 20
152.852556158277
 30
0.0
 40
3.499999940395355
 41
0.0
 71
     7
 72
     1
  1
n\U+00E1vlek sunap-DN70
  7
Text poznámky (DIN)
 73
     1
 44
1.0
  0
MTEXT
  5
46C
330
452
100
AcDbEntity
  8
Značka (ISO)
100
AcDbMText
 10
188.6897520414128
 20
154.0749587607112
 30
0.0
 40
3.499999940395355
 41
0.0
 71
     7
 72
     1
  1
1
  7
Text poznámky (DIN)
 73
     1
 44
1.0
  0
MTEXT
  5
46D
330
452
100
AcDbEntity
  8
Značka (ISO)
100
AcDbMText
 10
173.118753146672
 20
154.0749587607112
 30
0.0
 40
3.499999940395355
 41
0.0
 71
     7
 72
     1
  1
1
  7
Text poznámky (DIN)
 73
     1
 44
1.0
  0
LINE
  5
46E
330
452
100
AcDbEntity
  8
Značka (ISO)
100
AcDbLine
 10
410.0
 20
158.9993093293633
 30
0.0
 11
163.0166628488798
 21
158.9993093293633
 31
0.0
  0
MTEXT
  5
46F
330
452
100
AcDbEntity
  8
Značka (ISO)
100
AcDbMText
 10
377.5973241558884
 20
147.7262575638022
 30
0.0
 40
3.499999940395355
 41
0.0
 71
     7
 72
     1
  1
Guma
  7
Text poznámky (DIN)
 73
     1
 44
1.0
  0
MTEXT
  5
470
330
452
100
AcDbEntity
  8
Značka (ISO)
100
AcDbMText
 10
343.9922475427807
 20
146.6775563072886
 30
0.0
 40
3.499999940395355
 41
0.0
 71
     7
 72
     1
  1
0,084 kg
  7
Text poznámky (DIN)
 73
     1
 44
1.0
  0
MTEXT
  5
471
330
452
100
AcDbEntity
  8
Značka (ISO)
100
AcDbMText
 10
310.387170929673
 20
147.7262575638022
 30
0.0
 40
3.499999940395355
 41
0.0
 71
     7
 72
     1
  1
E55520
  7
Text poznámky (DIN)
 73
     1
 44
1.0
  0
MTEXT
  5
472
330
452
100
AcDbEntity
  8
Značka (ISO)
100
AcDbMText
 10
195.3610614073574
 20
146.6775563072886
 30
0.0
 40
3.499999940395355
 41
0.0
 71
     7
 72
     1
  1
ACO vpust drenazni krouzek komplet 142
  7
Text poznámky (DIN)
 73
     1
 44
1.0
  0
MTEXT
  5
473
330
452
100
AcDbEntity
  8
Značka (ISO)
100
AcDbMText
 10
188.6897520414128
 20
147.7262575638022
 30
0.0
 40
3.499999940395355
 41
0.0
 71
     7
 72
     1
  1
1
  7
Text poznámky (DIN)
 73
     1
 44
1.0
  0
MTEXT
  5
474
330
452
100
AcDbEntity
  8
Značka (ISO)
100
AcDbMText
 10
172.7725272039566
 20
147.7262575638022
 30
0.0
 40
3.499999940395355
 41
0.0
 71
     7
 72
     1
  1
2
  7
Text poznámky (DIN)
 73
     1
 44
1.0
  0
LINE
  5
475
330
452
100
AcDbEntity
  8
Značka (ISO)
100
AcDbLine
 10
410.0
 20
152.6506081324544
 30
0.0
 11
163.0166628488798
 21
152.6506081324544
 31
0.0
  0
MTEXT
  5
476
330
452
100
AcDbEntity
  8
Značka (ISO)
100
AcDbMText
 10
377.5973241558884
 20
141.3775563668933
 30
0.0
 40
3.499999940395355
 41
0.0
 71
     7
 72
     1
  1
Mosaz
  7
Text poznámky (DIN)
 73
     1
 44
1.0
  0
MTEXT
  5
477
330
452
100
AcDbEntity
  8
Značka (ISO)
100
AcDbMText
 10
343.9922475427807
 20
140.3288551103797
 30
0.0
 40
3.499999940395355
 41
0.0
 71
     7
 72
     1
  1
0,005 kg
  7
Text poznámky (DIN)
 73
     1
 44
1.0
  0
MTEXT
  5
478
330
452
100
AcDbEntity
  8
Značka (ISO)
100
AcDbMText
 10
310.387170929673
 20
141.3775563668933
 30
0.0
 40
3.499999940395355
 41
0.0
 71
     7
 72
     1
  1
90678
  7
Text poznámky (DIN)
 73
     1
 44
1.0
  0
MTEXT
  5
479
330
452
100
AcDbEntity
  8
Značka (ISO)
100
AcDbMText
 10
195.3610614073574
 20
141.3775563668933
 30
0.0
 40
3.499999940395355
 41
0.0
 71
     7
 72
     1
  1
Matice M8 DIN 934
  7
Text poznámky (DIN)
 73
     1
 44
1.0
  0
MTEXT
  5
47A
330
452
100
AcDbEntity
  8
Značka (ISO)
100
AcDbMText
 10
188.6897520414128
 20
141.3775563668933
 30
0.0
 40
3.499999940395355
 41
0.0
 71
     7
 72
     1
  1
1
  7
Text poznámky (DIN)
 73
     1
 44
1.0
  0
MTEXT
  5
47B
330
452
100
AcDbEntity
  8
Značka (ISO)
100
AcDbMText
 10
172.7725272039566
 20
141.3775563668933
 30
0.0
 40
3.499999940395355
 41
0.0
 71
     7
 72
     1
  1
3
  7
Text poznámky (DIN)
 73
     1
 44
1.0
  0
LINE
  5
47C
330
452
100
AcDbEntity
  8
Značka (ISO)
100
AcDbLine
 10
410.0
 20
146.3019069355454
 30
0.0
 11
163.0166628488798
 21
146.3019069355454
 31
0.0
  0
MTEXT
  5
47D
330
452
100
AcDbEntity
  8
Značka (ISO)
100
AcDbMText
 10
377.5973241558884
 20
135.0288551699843
 30
0.0
 40
3.499999940395355
 41
0.0
 71
     7
 72
     1
  1
Plast ABS
  7
Text poznámky (DIN)
 73
     1
 44
1.0
  0
MTEXT
  5
47E
330
452
100
AcDbEntity
  8
Značka (ISO)
100
AcDbMText
 10
343.9922475427807
 20
133.9801539134707
 30
0.0
 40
3.499999940395355
 41
0.0
 71
     7
 72
     1
  1
0,002 kg
  7
Text poznámky (DIN)
 73
     1
 44
1.0
  0
MTEXT
  5
47F
330
452
100
AcDbEntity
  8
Značka (ISO)
100
AcDbMText
 10
310.387170929673
 20
135.0288551699843
 30
0.0
 40
3.499999940395355
 41
0.0
 71
     7
 72
     1
  1
91363
  7
Text poznámky (DIN)
 73
     1
 44
1.0
  0
MTEXT
  5
480
330
452
100
AcDbEntity
  8
Značka (ISO)
100
AcDbMText
 10
195.3610614073574
 20
133.9801539134707
 30
0.0
 40
3.499999940395355
 41
0.0
 71
     7
 72
     1
  1
Krytka  matic 
  7
Text poznámky (DIN)
 73
     1
 44
1.0
  0
MTEXT
  5
481
330
452
100
AcDbEntity
  8
Značka (ISO)
100
AcDbMText
 10
188.6897520414128
 20
135.0288551699843
 30
0.0
 40
3.499999940395355
 41
0.0
 71
     7
 72
     1
  1
1
  7
Text poznámky (DIN)
 73
     1
 44
1.0
  0
MTEXT
  5
482
330
452
100
AcDbEntity
  8
Značka (ISO)
100
AcDbMText
 10
172.5972025255356
 20
135.0288551699843
 30
0.0
 40
3.499999940395355
 41
0.0
 71
     7
 72
     1
  1
4
  7
Text poznámky (DIN)
 73
     1
 44
1.0
  0
LINE
  5
483
330
452
100
AcDbEntity
  8
Značka (ISO)
100
AcDbLine
 10
410.0
 20
139.9532057386364
 30
0.0
 11
163.0166628488798
 21
139.9532057386364
 31
0.0
  0
MTEXT
  5
484
330
452
100
AcDbEntity
  8
Značka (ISO)
100
AcDbMText
 10
377.5973241558884
 20
128.6801539730754
 30
0.0
 40
3.499999940395355
 41
0.0
 71
     7
 72
     1
  1
AISI 304
  7
Text poznámky (DIN)
 73
     1
 44
1.0
  0
MTEXT
  5
485
330
452
100
AcDbEntity
  8
Značka (ISO)
100
AcDbMText
 10
343.9922475427807
 20
127.6314527165618
 30
0.0
 40
3.499999940395355
 41
0.0
 71
     7
 72
     1
  1
0,781 kg
  7
Text poznámky (DIN)
 73
     1
 44
1.0
  0
MTEXT
  5
486
330
452
100
AcDbEntity
  8
Značka (ISO)
100
AcDbMText
 10
310.387170929673
 20
128.6801539730754
 30
0.0
 40
3.499999940395355
 41
0.0
 71
     7
 72
     1
  1
E55480
  7
Text poznámky (DIN)
 73
     1
 44
1.0
  0
MTEXT
  5
487
102
{ACAD_XDICTIONARY
360
183B
102
}
330
452
100
AcDbEntity
  8
Značka (ISO)
100
AcDbMText
 10
195.3610614073574
 20
127.4577513706412
 30
0.0
 40
3.499999940395355
 41
0.0
 71
     7
 72
     1
  1
ACO vpust 142 svarenec svis. dvoud\U+00EDln\U+00E1 12mm 
  7
Text poznámky (DIN)
 73
     1
 44
1.0
  0
MTEXT
  5
488
102
{ACAD_XDICTIONARY
360
183D
102
}
330
452
100
AcDbEntity
  8
Značka (ISO)
100
AcDbMText
 10
195.3610614073574
 20
121.1090502512183
 30
0.0
 40
3.499999940395355
 41
0.0
 71
     7
 72
     1
  1
p\U+0159\U+00EDruba DN70 V2A
  7
Text poznámky (DIN)
 73
     1
 44
1.0
  0
MTEXT
  5
489
330
452
100
AcDbEntity
  8
Značka (ISO)
100
AcDbMText
 10
188.6897520414128
 20
128.6801539730754
 30
0.0
 40
3.499999940395355
 41
0.0
 71
     7
 72
     1
  1
1
  7
Text poznámky (DIN)
 73
     1
 44
1.0
  0
MTEXT
  5
48A
330
452
100
AcDbEntity
  8
Značka (ISO)
100
AcDbMText
 10
172.7725272039566
 20
128.6801539730754
 30
0.0
 40
3.499999940395355
 41
0.0
 71
     7
 72
     1
  1
5
  7
Text poznámky (DIN)
 73
     1
 44
1.0
  0
LINE
  5
48B
330
452
100
AcDbEntity
  8
Značka (ISO)
100
AcDbLine
 10
410.0
 20
133.6045045417276
 30
0.0
 11
163.0166628488798
 21
133.6045045417276
 31
0.0
  0
MTEXT
  5
48C
102
{ACAD_XDICTIONARY
360
183F
102
}
330
452
100
AcDbEntity
  8
Značka (ISO)
100
AcDbMText
 10
377.5973241558884
 20
114.7603489768233
 30
0.0
 40
3.499999940395355
 41
0.0
 71
     7
 72
     1
  1
Pap\U+00EDr
  7
Text poznámky (DIN)
 73
     1
 44
1.0
  0
MTEXT
  5
48D
330
452
100
AcDbEntity
  8
Značka (ISO)
100
AcDbMText
 10
343.9922475427807
 20
114.9340503227439
 30
0.0
 40
3.499999940395355
 41
0.0
 71
     7
 72
     1
  1
0 kg
  7
Text poznámky (DIN)
 73
     1
 44
1.0
  0
MTEXT
  5
48E
330
452
100
AcDbEntity
  8
Značka (ISO)
100
AcDbMText
 10
310.387170929673
 20
115.9827515792575
 30
0.0
 40
3.499999940395355
 41
0.0
 71
     7
 72
     1
  1
91018
  7
Text poznámky (DIN)
 73
     1
 44
1.0
  0
MTEXT
  5
48F
330
452
100
AcDbEntity
  8
Značka (ISO)
100
AcDbMText
 10
195.3610614073574
 20
115.9827515792575
 30
0.0
 40
3.499999940395355
 41
0.0
 71
     7
 72
     1
  1
Etiketa
  7
Text poznámky (DIN)
 73
     1
 44
1.0
  0
MTEXT
  5
490
330
452
100
AcDbEntity
  8
Značka (ISO)
100
AcDbMText
 10
188.6897520414128
 20
115.9827515792575
 30
0.0
 40
3.499999940395355
 41
0.0
 71
     7
 72
     1
  1
1
  7
Text poznámky (DIN)
 73
     1
 44
1.0
  0
MTEXT
  5
491
330
452
100
AcDbEntity
  8
Značka (ISO)
100
AcDbMText
 10
172.7725272039566
 20
115.9827515792575
 30
0.0
 40
3.499999940395355
 41
0.0
 71
     7
 72
     1
  1
6
  7
Text poznámky (DIN)
 73
     1
 44
1.0
  0
LINE
  5
492
330
452
100
AcDbEntity
  8
Značka (ISO)
100
AcDbLine
 10
410.0
 20
120.9071021479096
 30
0.0
 11
163.0166628488798
 21
120.9071021479096
 31
0.0
  0
MTEXT
  5
493
102
{ACAD_XDICTIONARY
360
1841
102
}
330
452
100
AcDbEntity
  8
Značka (ISO)
100
AcDbMText
 10
377.5973241558884
 20
108.4116477799144
 30
0.0
 40
3.499999940395355
 41
0.0
 71
     7
 72
     1
  1
Polykarbon\U+00E1t, 
  7
Text poznámky (DIN)
 73
     1
 44
1.0
  0
MTEXT
  5
494
102
{ACAD_XDICTIONARY
360
1843
102
}
330
452
100
AcDbEntity
  8
Značka (ISO)
100
AcDbMText
 10
377.5973241558884
 20
102.0629466604915
 30
0.0
 40
3.499999940395355
 41
0.0
 71
     7
 72
     1
  1
kou\U+0159ov\U+00FD
  7
Text poznámky (DIN)
 73
     1
 44
1.0
  0
MTEXT
  5
495
330
452
100
AcDbEntity
  8
Značka (ISO)
100
AcDbMText
 10
343.9922475427807
 20
108.5853491258349
 30
0.0
 40
3.499999940395355
 41
0.0
 71
     7
 72
     1
  1
0,025 kg
  7
Text poznámky (DIN)
 73
     1
 44
1.0
  0
MTEXT
  5
496
330
452
100
AcDbEntity
  8
Značka (ISO)
100
AcDbMText
 10
310.387170929673
 20
109.6340503823485
 30
0.0
 40
3.499999940395355
 41
0.0
 71
     7
 72
     1
  1
E55477
  7
Text poznámky (DIN)
 73
     1
 44
1.0
  0
MTEXT
  5
497
102
{ACAD_XDICTIONARY
360
1845
102
}
330
452
100
AcDbEntity
  8
Značka (ISO)
100
AcDbMText
 10
195.3610614073574
 20
108.4116477799144
 30
0.0
 40
3.499999940395355
 41
0.0
 71
     7
 72
     1
  1
ACO vpust 142 kryt plastov\U+00FD 157 pro balen\U+00ED PP 
  7
Text poznámky (DIN)
 73
     1
 44
1.0
  0
MTEXT
  5
498
330
452
100
AcDbEntity
  8
Značka (ISO)
100
AcDbMText
 10
195.3582614002371
 20
103.1116479170051
 30
0.0
 40
3.499999940395355
 41
0.0
 71
     7
 72
     1
  1
12mm
  7
Text poznámky (DIN)
 73
     1
 44
1.0
  0
MTEXT
  5
499
330
452
100
AcDbEntity
  8
Značka (ISO)
100
AcDbMText
 10
188.6897520414128
 20
109.6340503823485
 30
0.0
 40
3.499999940395355
 41
0.0
 71
     7
 72
     1
  1
1
  7
Text poznámky (DIN)
 73
     1
 44
1.0
  0
MTEXT
  5
49A
330
452
100
AcDbEntity
  8
Značka (ISO)
100
AcDbMText
 10
171.548501269022
 20
109.6340503823485
 30
0.0
 40
3.499999940395355
 41
0.0
 71
     7
 72
     1
  1
27
  7
Text poznámky (DIN)
 73
     1
 44
1.0
  0
LINE
  5
49B
330
452
100
AcDbEntity
  8
Značka (ISO)
100
AcDbLine
 10
410.0
 20
114.5584009510007
 30
0.0
 11
163.0166628488798
 21
114.5584009510007
 31
0.0
  0
MTEXT
  5
49C
330
452
100
AcDbEntity
  8
Značka (ISO)
100
AcDbMText
 10
377.5973241558884
 20
96.9366479885307
 30
0.0
 40
3.499999940395355
 41
0.0
 71
     7
 72
     1
  1
PE-HD
  7
Text poznámky (DIN)
 73
     1
 44
1.0
  0
MTEXT
  5
49D
330
452
100
AcDbEntity
  8
Značka (ISO)
100
AcDbMText
 10
343.9922475427807
 20
95.88794673201709
 30
0.0
 40
3.499999940395355
 41
0.0
 71
     7
 72
     1
  1
0,002 kg
  7
Text poznámky (DIN)
 73
     1
 44
1.0
  0
MTEXT
  5
49E
330
452
100
AcDbEntity
  8
Značka (ISO)
100
AcDbMText
 10
310.387170929673
 20
96.9366479885307
 30
0.0
 40
3.499999940395355
 41
0.0
 71
     7
 72
     1
  1
NM6373
  7
Text poznámky (DIN)
 73
     1
 44
1.0
  0
MTEXT
  5
49F
330
452
100
AcDbEntity
  8
Značka (ISO)
100
AcDbMText
 10
195.3610614073574
 20
96.9366479885307
 30
0.0
 40
3.499999940395355
 41
0.0
 71
     7
 72
     1
  1
Effidrain lubricant
  7
Text poznámky (DIN)
 73
     1
 44
1.0
  0
MTEXT
  5
4A0
330
452
100
AcDbEntity
  8
Značka (ISO)
100
AcDbMText
 10
188.6897520414128
 20
96.9366479885307
 30
0.0
 40
3.499999940395355
 41
0.0
 71
     7
 72
     1
  1
1
  7
Text poznámky (DIN)
 73
     1
 44
1.0
  0
MTEXT
  5
4A1
330
452
100
AcDbEntity
  8
Značka (ISO)
100
AcDbMText
 10
171.548501269022
 20
96.9366479885307
 30
0.0
 40
3.499999940395355
 41
0.0
 71
     7
 72
     1
  1
28
  7
Text poznámky (DIN)
 73
     1
 44
1.0
  0
LINE
  5
4A2
330
452
100
AcDbEntity
  8
Značka (ISO)
100
AcDbLine
 10
410.0
 20
101.8609985571828
 30
0.0
 11
163.0166628488798
 21
101.8609985571828
 31
0.0
  0
MTEXT
  5
4A3
330
452
100
AcDbEntity
  8
Značka (ISO)
100
AcDbMText
 10
377.2949233868923
 20
90.58794679162174
 30
0.0
 40
3.499999940395355
 41
0.0
 71
     7
 72
     1
  1
 
  7
Text poznámky (DIN)
 73
     1
 44
1.0
  0
MTEXT
  5
4A4
330
452
100
AcDbEntity
  8
Značka (ISO)
100
AcDbMText
 10
343.9922475427807
 20
89.53924553510814
 30
0.0
 40
3.499999940395355
 41
0.0
 71
     7
 72
     1
  1
0,052 kg
  7
Text poznámky (DIN)
 73
     1
 44
1.0
  0
MTEXT
  5
4A5
330
452
100
AcDbEntity
  8
Značka (ISO)
100
AcDbMText
 10
310.387170929673
 20
90.58794679162174
 30
0.0
 40
3.499999940395355
 41
0.0
 71
     7
 72
     1
  1
E56574
  7
Text poznámky (DIN)
 73
     1
 44
1.0
  0
MTEXT
  5
4A6
102
{ACAD_XDICTIONARY
360
1847
102
}
330
452
100
AcDbEntity
  8
Značka (ISO)
100
AcDbMText
 10
195.3610614073574
 20
89.36554418918758
 30
0.0
 40
3.499999940395355
 41
0.0
 71
     7
 72
     1
  1
Effidrain karton - dren\U+00E1\U+017En\U+00ED pro mont\U+00E1\U+017E 142
  7
Text poznámky (DIN)
 73
     1
 44
1.0
  0
MTEXT
  5
4A7
330
452
100
AcDbEntity
  8
Značka (ISO)
100
AcDbMText
 10
188.6897520414128
 20
90.58794679162174
 30
0.0
 40
3.499999940395355
 41
0.0
 71
     7
 72
     1
  1
1
  7
Text poznámky (DIN)
 73
     1
 44
1.0
  0
MTEXT
  5
4A8
330
452
100
AcDbEntity
  8
Značka (ISO)
100
AcDbMText
 10
171.548501269022
 20
90.58794679162174
 30
0.0
 40
3.499999940395355
 41
0.0
 71
     7
 72
     1
  1
29
  7
Text poznámky (DIN)
 73
     1
 44
1.0
  0
LINE
  5
4A9
330
452
100
AcDbEntity
  8
Značka (ISO)
100
AcDbLine
 10
410.0
 20
95.51229736027387
 30
0.0
 11
163.0166628488798
 21
95.51229736027387
 31
0.0
  0
MTEXT
  5
4AA
330
452
100
AcDbEntity
  8
Značka (ISO)
100
AcDbMText
 10
377.5973241558884
 20
83.19054433819919
 30
0.0
 40
3.499999940395355
 41
0.0
 71
     7
 72
     1
  1
plast
  7
Text poznámky (DIN)
 73
     1
 44
1.0
  0
MTEXT
  5
4AB
330
452
100
AcDbEntity
  8
Značka (ISO)
100
AcDbMText
 10
343.9922475427807
 20
83.19054433819919
 30
0.0
 40
3.499999940395355
 41
0.0
 71
     7
 72
     1
  1
0,02 kg
  7
Text poznámky (DIN)
 73
     1
 44
1.0
  0
MTEXT
  5
4AC
330
452
100
AcDbEntity
  8
Značka (ISO)
100
AcDbMText
 10
310.387170929673
 20
84.23924559471275
 30
0.0
 40
3.499999940395355
 41
0.0
 71
     7
 72
     1
  1
NM6522
  7
Text poznámky (DIN)
 73
     1
 44
1.0
  0
MTEXT
  5
4AD
102
{ACAD_XDICTIONARY
360
1849
102
}
330
452
100
AcDbEntity
  8
Značka (ISO)
100
AcDbMText
 10
195.3610614073574
 20
84.06554424879219
 30
0.0
 40
3.499999940395355
 41
0.0
 71
     7
 72
     1
  1
ochran\U+00E1 s\U+00ED\U+0165ka
  7
Text poznámky (DIN)
 73
     1
 44
1.0
  0
MTEXT
  5
4AE
330
452
100
AcDbEntity
  8
Značka (ISO)
100
AcDbMText
 10
188.6897520414128
 20
84.23924559471275
 30
0.0
 40
3.499999940395355
 41
0.0
 71
     7
 72
     1
  1
1
  7
Text poznámky (DIN)
 73
     1
 44
1.0
  0
MTEXT
  5
4AF
330
452
100
AcDbEntity
  8
Značka (ISO)
100
AcDbMText
 10
171.8975271443519
 20
84.23924559471275
 30
0.0
 40
3.499999940395355
 41
0.0
 71
     7
 72
     1
  1
31
  7
Text poznámky (DIN)
 73
     1
 44
1.0
  0
LINE
  5
4B0
330
452
100
AcDbEntity
  8
Značka (ISO)
100
AcDbLine
 10
410.0
 20
89.16359616336492
 30
0.0
 11
163.0166628488798
 21
89.16359616336492
 31
0.0
  0
LINE
  5
4B1
330
452
100
AcDbEntity
  8
Značka (ISO)
100
AcDbLine
 10
410.0
 20
82.81489496645598
 30
0.0
 11
163.0166628488798
 21
82.81489496645598
 31
0.0
  0
LINE
  5
4B2
330
452
100
AcDbEntity
  8
Značka (ISO)
100
AcDbLine
 10
410.0
 20
158.9993093293633
 30
0.0
 11
410.0
 21
82.81489496645598
 31
0.0
  0
LINE
  5
4B3
330
452
100
AcDbEntity
  8
Značka (ISO)
100
AcDbLine
 10
376.3949233868923
 20
158.9993093293633
 30
0.0
 11
376.3949233868923
 21
82.81489496645598
 31
0.0
  0
LINE
  5
4B4
330
452
100
AcDbEntity
  8
Značka (ISO)
100
AcDbLine
 10
342.7898467737847
 20
158.9993093293633
 30
0.0
 11
342.7898467737847
 21
82.81489496645598
 31
0.0
  0
LINE
  5
4B5
330
452
100
AcDbEntity
  8
Značka (ISO)
100
AcDbLine
 10
309.1847701606769
 20
158.9993093293633
 30
0.0
 11
309.1847701606769
 21
82.81489496645598
 31
0.0
  0
LINE
  5
4B6
330
452
100
AcDbEntity
  8
Značka (ISO)
100
AcDbLine
 10
194.1586606383613
 20
158.9993093293633
 30
0.0
 11
194.1586606383613
 21
82.81489496645598
 31
0.0
  0
LINE
  5
4B7
330
452
100
AcDbEntity
  8
Značka (ISO)
100
AcDbLine
 10
184.3716418909103
 20
158.9993093293633
 30
0.0
 11
184.3716418909103
 21
82.81489496645598
 31
0.0
  0
LINE
  5
4B8
330
452
100
AcDbEntity
  8
Značka (ISO)
100
AcDbLine
 10
163.0166628488798
 20
158.9993093293633
 30
0.0
 11
163.0166628488798
 21
82.81489496645598
 31
0.0
  0
ENDBLK
  5
454
330
452
100
AcDbEntity
  8
0
100
AcDbBlockEnd
  0
BLOCK
  5
53F
330
53E
100
AcDbEntity
  8
0
100
AcDbBlockBegin
  2
*D27
 70
     1
 10
0.0
 20
0.0
 30
0.0
  3
*D27
  1

  0
LINE
  5
12EE
330
53E
100
AcDbEntity
  8
5
370
    -2
100
AcDbLine
 10
117.787926921269
 20
205.923836564736
 30
0.0
 11
117.787926921269
 21
175.2232651057169
 31
0.0
  0
LINE
  5
12EF
330
53E
100
AcDbEntity
  8
5
370
    -2
100
AcDbLine
 10
192.787926921269
 20
205.923836564736
 30
0.0
 11
192.787926921269
 21
175.2232651057169
 31
0.0
  0
LINE
  5
12F0
330
53E
100
AcDbEntity
  8
5
370
    -2
100
AcDbLine
 10
122.787926921269
 20
177.2232651057169
 30
0.0
 11
187.787926921269
 21
177.2232651057169
 31
0.0
  0
SOLID
  5
12F1
330
53E
100
AcDbEntity
  8
5
100
AcDbTrace
 10
122.787926921269
 20
178.0565984390502
 30
0.0
 11
122.787926921269
 21
176.3899317723835
 31
0.0
 12
117.787926921269
 22
177.2232651057169
 32
0.0
 13
117.787926921269
 23
177.2232651057169
 33
0.0
  0
SOLID
  5
12F2
330
53E
100
AcDbEntity
  8
5
100
AcDbTrace
 10
187.787926921269
 20
178.0565984390502
 30
0.0
 11
187.787926921269
 21
176.3899317723835
 31
0.0
 12
192.787926921269
 22
177.2232651057169
 32
0.0
 13
192.787926921269
 23
177.2232651057169
 33
0.0
  0
MTEXT
  5
12F3
330
53E
100
AcDbEntity
  8
5
 62
     7
100
AcDbMText
 10
138.7775172503489
 20
194.3789400553475
 30
0.0
 40
14.0
 41
0.0
 71
     1
 72
     1
  1
%%c75
 73
     1
 44
1.0
  0
POINT
  5
12F4
330
53E
100
AcDbEntity
  8
Defpoints
 62
     0
100
AcDbPoint
 10
117.787926921269
 20
207.923836564736
 30
0.0
  0
POINT
  5
12F5
330
53E
100
AcDbEntity
  8
Defpoints
 62
     0
100
AcDbPoint
 10
192.787926921269
 20
207.923836564736
 30
0.0
  0
POINT
  5
12F6
330
53E
100
AcDbEntity
  8
Defpoints
 62
     0
100
AcDbPoint
 10
192.787926921269
 20
177.2232651057169
 30
0.0
  0
ENDBLK
  5
540
330
53E
100
AcDbEntity
  8
0
100
AcDbBlockEnd
  0
BLOCK
  5
622
330
621
100
AcDbEntity
  8
0
100
AcDbBlockBegin
  2
*D28
 70
     1
 10
0.0
 20
0.0
 30
0.0
  3
*D28
  1

  0
LINE
  5
6F2
330
621
100
AcDbEntity
  8
Kóta (ISO)
440
 16777216
100
AcDbLine
 10
222.7879269212691
 20
319.762742152915
 30
0.0
 11
87.78792692126911
 21
319.762742152915
 31
0.0
  0
SOLID
  5
6F3
330
621
100
AcDbEntity
  8
Kóta (ISO)
440
 16777216
100
AcDbTrace
 10
222.7879269212691
 20
320.387742152915
 30
0.0
 11
222.7879269212691
 21
319.1377421529149
 31
0.0
 12
226.5379269212691
 22
319.762742152915
 32
0.0
 13
226.5379269212691
 23
319.762742152915
 33
0.0
  0
SOLID
  5
6F4
330
621
100
AcDbEntity
  8
Kóta (ISO)
440
 16777216
100
AcDbTrace
 10
87.78792692126911
 20
320.387742152915
 30
0.0
 11
87.78792692126911
 21
319.1377421529149
 31
0.0
 12
84.03792692126911
 22
319.762742152915
 32
0.0
 13
84.03792692126911
 23
319.762742152915
 33
0.0
  0
MTEXT
  5
6F5
102
{ACAD_XDICTIONARY
360
184B
102
}
330
621
100
AcDbEntity
  8
Kóta (ISO)
440
 16777216
100
AcDbMText
 10
130.6646956972216
 20
327.7846877539895
 30
0.0
 40
5.25
 41
0.0
 71
     1
 72
     1
  1
\A1;{\U+00D8}142,5
  7
Text poznámky (ISO)
 73
     1
 44
1.0
  0
POINT
  5
6F6
330
621
100
AcDbEntity
  8
Defpoints
 62
     0
440
 16777216
100
AcDbPoint
 10
226.5379269212691
 20
315.1353004812346
 30
0.0
  0
POINT
  5
6F7
330
621
100
AcDbEntity
  8
Defpoints
 62
     0
440
 16777216
100
AcDbPoint
 10
84.03792692126911
 20
315.1353004812346
 30
0.0
  0
POINT
  5
6F8
330
621
100
AcDbEntity
  8
Defpoints
 62
     0
440
 16777216
100
AcDbPoint
 10
84.03792692126911
 20
319.762742152915
 30
0.0
  0
ENDBLK
  5
623
330
621
100
AcDbEntity
  8
0
100
AcDbBlockEnd
  0
BLOCK
  5
6FB
330
6FA
100
AcDbEntity
  8
0
100
AcDbBlockBegin
  2
*D29
 70
     1
 10
0.0
 20
0.0
 30
0.0
  3
*D29
  1

  0
LINE
  5
79A
330
6FA
100
AcDbEntity
  8
Kóta (ISO)
440
 16777216
100
AcDbLine
 10
210.6190325490651
 20
46.77787483547667
 30
0.0
 11
99.95682129335337
 21
157.4400860911546
 31
0.0
  0
LINE
  5
79B
330
6FA
100
AcDbEntity
  8
Kóta (ISO)
440
 16777216
100
AcDbLine
 10
97.30517086390342
 20
160.0917365206038
 30
0.0
 11
77.17051455880528
 21
180.2263928256957
 31
0.0
  0
SOLID
  5
79C
330
6FA
100
AcDbEntity
  8
Kóta (ISO)
440
 16777216
100
AcDbTrace
 10
211.0609742873067
 20
47.21981657371832
 30
0.0
 11
210.1770908108236
 21
46.335933097235
 31
0.0
 12
213.2706829785151
 22
44.12622440602752
 32
0.0
 13
213.2706829785151
 23
44.12622440602752
 33
0.0
  0
SOLID
  5
79D
330
6FA
100
AcDbEntity
  8
Kóta (ISO)
440
 16777216
100
AcDbTrace
 10
100.3987630315949
 20
157.8820278293963
 30
0.0
 11
99.51487955511186
 21
156.998144352913
 31
0.0
 12
97.30517086390342
 22
160.0917365206038
 32
0.0
 13
97.30517086390342
 23
160.0917365206038
 33
0.0
  0
MTEXT
  5
79E
102
{ACAD_XDICTIONARY
360
184D
102
}
330
6FA
100
AcDbEntity
  8
Kóta (ISO)
440
 16777216
100
AcDbMText
 10
83.01784789383168
 20
184.4572800589313
 30
0.0
 40
5.25
 41
0.0
 71
     1
 72
     1
  1
\A1;\U+2205164
  7
Text poznámky (ISO)
 11
0.7071067811866556
 21
-0.7071067811864396
 31
0.0
 73
     1
 44
1.0
  0
POINT
  5
79F
330
6FA
100
AcDbEntity
  8
Defpoints
 62
     0
440
 16777216
100
AcDbPoint
 10
97.30517086390342
 20
160.0917365206038
 30
0.0
  0
POINT
  5
7A0
330
6FA
100
AcDbEntity
  8
Defpoints
 62
     0
440
 16777216
100
AcDbPoint
 10
213.2706829785151
 20
44.12622440602752
 30
0.0
  0
ENDBLK
  5
6FC
330
6FA
100
AcDbEntity
  8
0
100
AcDbBlockEnd
  0
BLOCK
  5
7A2
330
7A1
100
AcDbEntity
  8
0
100
AcDbBlockBegin
  2
Pozice1
 70
     0
 10
0.0
 20
0.0
 30
0.0
  3
Pozice1
  1

  0
LINE
  5
7A4
330
7A1
100
AcDbEntity
  8
Značka (ISO)
100
AcDbLine
 10
75.2839177904886
 20
141.3196149230894
 30
0.0
 11
77.19195128084601
 21
139.7042486489354
 31
0.0
  0
POLYLINE
  5
7A5
330
7A1
100
AcDbEntity
  8
Značka (ISO)
100
AcDb2dPolyline
 66
     1
 10
0.0
 20
0.0
 30
0.0
 70
   128
  0
VERTEX
  5
7A6
330
7A5
100
AcDbEntity
  8
Značka (ISO)
100
AcDbVertex
100
AcDb2dVertex
 10
74.96084690093994
 20
140.9380054473877
 30
0.0
  0
VERTEX
  5
7A7
330
7A5
100
AcDbEntity
  8
Značka (ISO)
100
AcDbVertex
100
AcDb2dVertex
 10
77.1919536590576
 20
139.7042465209961
 30
0.0
  0
VERTEX
  5
7A9
330
7A5
100
AcDbEntity
  8
Značka (ISO)
100
AcDbVertex
100
AcDb2dVertex
 10
75.60698986053465
 20
141.7012214660644
 30
0.0
  0
VERTEX
  5
7AA
330
7A5
100
AcDbEntity
  8
Značka (ISO)
100
AcDbVertex
100
AcDb2dVertex
 10
74.96084690093994
 20
140.9380054473877
 30
0.0
  0
SEQEND
  5
7A8
330
7A5
100
AcDbEntity
  8
Značka (ISO)
  0
SOLID
  5
7AB
330
7A1
100
AcDbEntity
  8
Značka (ISO)
100
AcDbTrace
 10
74.96084690093994
 20
140.9380054473877
 30
0.0
 11
77.1919536590576
 21
139.7042465209961
 31
0.0
 12
75.60698986053465
 22
141.7012214660644
 32
0.0
 13
74.96084690093994
 23
140.9380054473877
 33
0.0
  0
LINE
  5
7AC
330
7A1
100
AcDbEntity
  8
Značka (ISO)
100
AcDbLine
 10
74.96084453565777
 20
140.938008225018
 30
0.0
 11
77.19195128084601
 21
139.7042486489354
 31
0.0
  0
LINE
  5
7AD
330
7A1
100
AcDbEntity
  8
Značka (ISO)
100
AcDbLine
 10
77.19195128084601
 20
139.7042486489354
 30
0.0
 11
75.6069910453194
 21
141.7012216211609
 31
0.0
  0
LINE
  5
7AE
330
7A1
100
AcDbEntity
  8
Značka (ISO)
100
AcDbLine
 10
75.6069910453194
 20
141.7012216211609
 30
0.0
 11
74.96084453565777
 21
140.938008225018
 31
0.0
  0
LINE
  5
7AF
330
7A1
100
AcDbEntity
  8
Značka (ISO)
100
AcDbLine
 10
75.2839177904886
 20
141.3196149230894
 30
0.0
 11
65.36793082285092
 21
149.7146200440283
 31
0.0
  0
MTEXT
  5
7B0
330
7A1
100
AcDbEntity
  8
Značka (ISO)
100
AcDbMText
 10
57.49293118047879
 20
156.28562860707
 30
0.0
 40
5.24999976158142
 41
0.0
 71
     5
 72
     1
  1
1
  7
Text popisu (ISO)
 73
     1
 44
1.0
  0
LINE
  5
7B1
330
7A1
100
AcDbEntity
  8
Značka (ISO)
100
AcDbLine
 10
65.36793082285092
 20
149.7146200440283
 30
0.0
 11
49.61793153810666
 21
149.7146200440283
 31
0.0
  0
ENDBLK
  5
7A3
330
7A1
100
AcDbEntity
  8
0
100
AcDbBlockEnd
  0
BLOCK
  5
7B4
330
7B3
100
AcDbEntity
  8
0
100
AcDbBlockBegin
  2
Pozice2
 70
     0
 10
0.0
 20
0.0
 30
0.0
  3
Pozice2
  1

  0
LINE
  5
7B6
330
7B3
100
AcDbEntity
  8
Značka (ISO)
100
AcDbLine
 10
62.18709416315378
 20
196.1931663255025
 30
0.0
 11
63.43709416315419
 21
198.3582298349633
 31
0.0
  0
POLYLINE
  5
7B7
330
7B3
100
AcDbEntity
  8
Značka (ISO)
100
AcDb2dPolyline
 66
     1
 10
0.0
 20
0.0
 30
0.0
 70
   128
  0
VERTEX
  5
7B8
330
7B7
100
AcDbEntity
  8
Značka (ISO)
100
AcDbVertex
100
AcDb2dVertex
 10
62.6201057434082
 20
195.9431648254394
 30
0.0
  0
VERTEX
  5
7B9
330
7B7
100
AcDbEntity
  8
Značka (ISO)
100
AcDbVertex
100
AcDb2dVertex
 10
63.43709468841552
 20
198.3582305908203
 30
0.0
  0
VERTEX
  5
7BB
330
7B7
100
AcDbEntity
  8
Značka (ISO)
100
AcDbVertex
100
AcDb2dVertex
 10
61.75408363342285
 20
196.4431571960449
 30
0.0
  0
VERTEX
  5
7BC
330
7B7
100
AcDbEntity
  8
Značka (ISO)
100
AcDbVertex
100
AcDb2dVertex
 10
62.6201057434082
 20
195.9431648254394
 30
0.0
  0
SEQEND
  5
7BA
330
7B7
100
AcDbEntity
  8
Značka (ISO)
  0
SOLID
  5
7BD
330
7B3
100
AcDbEntity
  8
Značka (ISO)
100
AcDbTrace
 10
62.6201057434082
 20
195.9431648254394
 30
0.0
 11
63.43709468841552
 21
198.3582305908203
 31
0.0
 12
61.75408363342285
 22
196.4431571960449
 32
0.0
 13
62.6201057434082
 23
195.9431648254394
 33
0.0
  0
LINE
  5
7BE
330
7B3
100
AcDbEntity
  8
Značka (ISO)
100
AcDbLine
 10
62.62010686504595
 20
195.9431663255024
 30
0.0
 11
63.43709416315419
 21
198.3582298349633
 31
0.0
  0
LINE
  5
7BF
330
7B3
100
AcDbEntity
  8
Značka (ISO)
100
AcDbLine
 10
63.43709416315419
 20
198.3582298349633
 30
0.0
 11
61.7540814612616
 21
196.4431663255026
 31
0.0
  0
LINE
  5
7C0
330
7B3
100
AcDbEntity
  8
Značka (ISO)
100
AcDbLine
 10
61.7540814612616
 20
196.4431663255026
 30
0.0
 11
62.62010686504595
 21
195.9431663255024
 31
0.0
  0
LINE
  5
7C1
330
7B3
100
AcDbEntity
  8
Značka (ISO)
100
AcDbLine
 10
62.18709416315378
 20
196.1931663255025
 30
0.0
 11
51.90730019271757
 21
178.3880408773749
 31
0.0
  0
MTEXT
  5
7C2
330
7B3
100
AcDbEntity
  8
Značka (ISO)
100
AcDbMText
 10
44.03230055034543
 20
185.1164643899157
 30
0.0
 40
5.24999976158142
 41
0.0
 71
     5
 72
     1
  1
5
  7
Text popisu (ISO)
 73
     1
 44
1.0
  0
LINE
  5
7C3
330
7B3
100
AcDbEntity
  8
Značka (ISO)
100
AcDbLine
 10
51.90730019271757
 20
178.3880408773749
 30
0.0
 11
36.15730090797331
 21
178.3880408773749
 31
0.0
  0
ENDBLK
  5
7B5
330
7B3
100
AcDbEntity
  8
0
100
AcDbBlockEnd
  0
BLOCK
  5
7C6
330
7C5
100
AcDbEntity
  8
0
100
AcDbBlockBegin
  2
Pozice3
 70
     0
 10
0.0
 20
0.0
 30
0.0
  3
Pozice3
  1

  0
LINE
  5
7C8
330
7C5
100
AcDbEntity
  8
Značka (ISO)
100
AcDbLine
 10
48.69203661711441
 20
271.1276558433653
 30
0.0
 11
50.58922991340762
 21
269.4995718171246
 31
0.0
  0
POLYLINE
  5
7C9
330
7C5
100
AcDbEntity
  8
Značka (ISO)
100
AcDb2dPolyline
 66
     1
 10
0.0
 20
0.0
 30
0.0
 70
   128
  0
VERTEX
  5
7CA
330
7C9
100
AcDbEntity
  8
Značka (ISO)
100
AcDbVertex
100
AcDb2dVertex
 10
48.36641788482666
 20
270.7482147216797
 30
0.0
  0
VERTEX
  5
7CB
330
7C9
100
AcDbEntity
  8
Značka (ISO)
100
AcDbVertex
100
AcDb2dVertex
 10
50.5892276763916
 20
269.499568939209
 30
0.0
  0
VERTEX
  5
7CD
330
7C9
100
AcDbEntity
  8
Značka (ISO)
100
AcDbVertex
100
AcDb2dVertex
 10
49.01765346527099
 20
271.5070915222168
 30
0.0
  0
VERTEX
  5
7CE
330
7C9
100
AcDbEntity
  8
Značka (ISO)
100
AcDbVertex
100
AcDb2dVertex
 10
48.36641788482666
 20
270.7482147216797
 30
0.0
  0
SEQEND
  5
7CC
330
7C9
100
AcDbEntity
  8
Značka (ISO)
  0
SOLID
  5
7CF
330
7C5
100
AcDbEntity
  8
Značka (ISO)
100
AcDbTrace
 10
48.36641788482666
 20
270.7482147216797
 30
0.0
 11
50.5892276763916
 21
269.499568939209
 31
0.0
 12
49.01765346527099
 22
271.5070915222168
 32
0.0
 13
48.36641788482666
 23
270.7482147216797
 33
0.0
  0
LINE
  5
7D0
330
7C5
100
AcDbEntity
  8
Značka (ISO)
100
AcDbLine
 10
48.36641981186629
 20
270.7482171841067
 30
0.0
 11
50.58922991340762
 21
269.4995718171246
 31
0.0
  0
LINE
  5
7D1
330
7C5
100
AcDbEntity
  8
Značka (ISO)
100
AcDbLine
 10
50.58922991340762
 20
269.4995718171246
 30
0.0
 11
49.01765342236256
 21
271.507094502624
 31
0.0
  0
LINE
  5
7D2
330
7C5
100
AcDbEntity
  8
Značka (ISO)
100
AcDbLine
 10
49.01765342236256
 20
271.507094502624
 30
0.0
 11
48.36641981186629
 21
270.7482171841067
 31
0.0
  0
LINE
  5
7D3
330
7C5
100
AcDbEntity
  8
Značka (ISO)
100
AcDbLine
 10
48.69203661711441
 20
271.1276558433653
 30
0.0
 11
44.84143423127335
 21
274.4320657039952
 31
0.0
  0
LINE
  5
7D4
330
7C5
100
AcDbEntity
  8
Značka (ISO)
100
AcDbLine
 10
44.84143423127335
 20
274.4320657039952
 30
0.0
 11
39.57803526010998
 21
254.7887933231272
 31
0.0
  0
MTEXT
  5
7D5
330
7C5
100
AcDbEntity
  8
Značka (ISO)
100
AcDbMText
 10
31.70303561773785
 20
261.4066007710375
 30
0.0
 40
5.24999976158142
 41
0.0
 71
     5
 72
     1
  1
2
  7
Text popisu (ISO)
 73
     1
 44
1.0
  0
LINE
  5
7D6
330
7C5
100
AcDbEntity
  8
Značka (ISO)
100
AcDbLine
 10
39.57803526010998
 20
254.7887933231272
 30
0.0
 11
23.82803597536572
 21
254.7887933231272
 31
0.0
  0
ENDBLK
  5
7C7
330
7C5
100
AcDbEntity
  8
0
100
AcDbBlockEnd
  0
BLOCK
  5
7D9
330
7D8
100
AcDbEntity
  8
0
100
AcDbBlockBegin
  2
Pozice4
 70
     0
 10
0.0
 20
0.0
 30
0.0
  3
Pozice4
  1

  0
LINE
  5
7DB
330
7D8
100
AcDbEntity
  8
Značka (ISO)
100
AcDbLine
 10
163.2752846141798
 20
275.9155970058294
 30
0.0
 11
162.0252846141793
 21
278.0806605152903
 31
0.0
  0
POLYLINE
  5
7DC
330
7D8
100
AcDbEntity
  8
Značka (ISO)
100
AcDb2dPolyline
 66
     1
 10
0.0
 20
0.0
 30
0.0
 70
   128
  0
VERTEX
  5
7DD
330
7DC
100
AcDbEntity
  8
Značka (ISO)
100
AcDbVertex
100
AcDb2dVertex
 10
163.7083053588867
 20
276.1655998229981
 30
0.0
  0
VERTEX
  5
7DE
330
7DC
100
AcDbEntity
  8
Značka (ISO)
100
AcDbVertex
100
AcDb2dVertex
 10
162.0252799987793
 20
278.0806541442871
 30
0.0
  0
VERTEX
  5
7E0
330
7DC
100
AcDbEntity
  8
Značka (ISO)
100
AcDbVertex
100
AcDb2dVertex
 10
162.8422737121582
 20
275.6655883789063
 30
0.0
  0
VERTEX
  5
7E1
330
7DC
100
AcDbEntity
  8
Značka (ISO)
100
AcDbVertex
100
AcDb2dVertex
 10
163.7083053588867
 20
276.1655998229981
 30
0.0
  0
SEQEND
  5
7DF
330
7DC
100
AcDbEntity
  8
Značka (ISO)
  0
SOLID
  5
7E2
330
7D8
100
AcDbEntity
  8
Značka (ISO)
100
AcDbTrace
 10
163.7083053588867
 20
276.1655998229981
 30
0.0
 11
162.0252799987793
 21
278.0806541442871
 31
0.0
 12
162.8422737121582
 22
275.6655883789063
 32
0.0
 13
163.7083053588867
 23
276.1655998229981
 33
0.0
  0
LINE
  5
7E3
330
7D8
100
AcDbEntity
  8
Značka (ISO)
100
AcDbLine
 10
163.708297316072
 20
276.1655970058295
 30
0.0
 11
162.0252846141793
 21
278.0806605152903
 31
0.0
  0
LINE
  5
7E4
330
7D8
100
AcDbEntity
  8
Značka (ISO)
100
AcDbLine
 10
162.0252846141793
 20
278.0806605152903
 30
0.0
 11
162.8422719122876
 21
275.6655970058293
 31
0.0
  0
LINE
  5
7E5
330
7D8
100
AcDbEntity
  8
Značka (ISO)
100
AcDbLine
 10
162.8422719122876
 20
275.6655970058293
 30
0.0
 11
163.708297316072
 21
276.1655970058295
 31
0.0
  0
LINE
  5
7E6
330
7D8
100
AcDbEntity
  8
Značka (ISO)
100
AcDbLine
 10
163.2752846141798
 20
275.9155970058294
 30
0.0
 11
169.3220398704686
 21
265.4423096810077
 31
0.0
  0
MTEXT
  5
7E7
330
7D8
100
AcDbEntity
  8
Značka (ISO)
100
AcDbMText
 10
177.1970395128407
 20
272.0048093829845
 30
0.0
 40
5.24999976158142
 41
0.0
 71
     5
 72
     1
  1
4
  7
Text popisu (ISO)
 73
     1
 44
1.0
  0
LINE
  5
7E8
330
7D8
100
AcDbEntity
  8
Značka (ISO)
100
AcDbLine
 10
169.3220398704686
 20
265.4423096810077
 30
0.0
 11
185.0720391552129
 21
265.4423096810077
 31
0.0
  0
MTEXT
  5
7E9
330
7D8
100
AcDbEntity
  8
Značka (ISO)
100
AcDbMText
 10
192.947038797585
 20
272.226040939482
 30
0.0
 40
5.24999976158142
 41
0.0
 71
     5
 72
     1
  1
3
  7
Text popisu (ISO)
 73
     1
 44
1.0
  0
LINE
  5
7EA
330
7D8
100
AcDbEntity
  8
Značka (ISO)
100
AcDbLine
 10
185.0720391552129
 20
265.4423096810077
 30
0.0
 11
186.6470390836873
 21
263.8673097525333
 31
0.0
  0
LINE
  5
7EB
330
7D8
100
AcDbEntity
  8
Značka (ISO)
100
AcDbLine
 10
186.6470390836873
 20
263.8673097525333
 30
0.0
 11
188.2220390121617
 21
265.4423096810077
 31
0.0
  0
LINE
  5
7EC
330
7D8
100
AcDbEntity
  8
Značka (ISO)
100
AcDbLine
 10
188.2220390121617
 20
265.4423096810077
 30
0.0
 11
200.8220384399572
 21
265.4423096810077
 31
0.0
  0
ENDBLK
  5
7DA
330
7D8
100
AcDbEntity
  8
0
100
AcDbBlockEnd
  0
BLOCK
  5
7F2
330
7F1
100
AcDbEntity
  8
0
100
AcDbBlockBegin
  2
*D34
 70
     1
 10
0.0
 20
0.0
 30
0.0
  3
*D34
  1

  0
LINE
  5
8D4
330
7F1
100
AcDbEntity
  8
Kóta (ISO)
440
 16777216
100
AcDbLine
 10
73.08247140047967
 20
402.7083434286143
 30
0.0
 11
25.37604610694347
 21
402.7083434286143
 31
0.0
  0
LINE
  5
8D5
330
7F1
100
AcDbEntity
  8
Kóta (ISO)
440
 16777216
100
AcDbLine
 10
114.804046252597
 20
289.1598612364492
 30
0.0
 11
25.37604610694346
 21
289.1598612364492
 31
0.0
  0
LINE
  5
8D6
330
7F1
100
AcDbEntity
  8
Kóta (ISO)
440
 16777216
100
AcDbLine
 10
26.87604610694347
 20
398.9583434286144
 30
0.0
 11
26.87604610694345
 21
292.9098612364492
 31
0.0
  0
SOLID
  5
8D7
330
7F1
100
AcDbEntity
  8
Kóta (ISO)
440
 16777216
100
AcDbTrace
 10
26.25104610694347
 20
398.9583434286144
 30
0.0
 11
27.50104610694347
 21
398.9583434286144
 31
0.0
 12
26.87604610694347
 22
402.7083434286143
 32
0.0
 13
26.87604610694347
 23
402.7083434286143
 33
0.0
  0
SOLID
  5
8D8
330
7F1
100
AcDbEntity
  8
Kóta (ISO)
440
 16777216
100
AcDbTrace
 10
26.25104610694345
 20
292.9098612364492
 30
0.0
 11
27.50104610694345
 21
292.9098612364492
 31
0.0
 12
26.87604610694345
 22
289.1598612364492
 32
0.0
 13
26.87604610694345
 23
289.1598612364492
 33
0.0
  0
MTEXT
  5
8D9
102
{ACAD_XDICTIONARY
360
184F
102
}
330
7F1
100
AcDbEntity
  8
Kóta (ISO)
440
 16777216
100
AcDbMText
 10
19.06917773891117
 20
331.0732737227265
 30
0.0
 40
5.25
 41
0.0
 71
     1
 72
     1
  1
\A1;113,55{\H5.257800;\U+00B11}
  7
Text poznámky (ISO)
 11
0.0000000000000001
 21
1.0
 31
0.0
 73
     1
 44
1.0
  0
POINT
  5
8DA
330
7F1
100
AcDbEntity
  8
Defpoints
 62
     0
440
 16777216
100
AcDbPoint
 10
73.08247140047967
 20
402.7083434286143
 30
0.0
  0
POINT
  5
8DB
330
7F1
100
AcDbEntity
  8
Defpoints
 62
     0
440
 16777216
100
AcDbPoint
 10
114.804046252597
 20
289.1598612364492
 30
0.0
  0
POINT
  5
8DC
330
7F1
100
AcDbEntity
  8
Defpoints
 62
     0
440
 16777216
100
AcDbPoint
 10
26.87604610694345
 20
289.1598612364492
 30
0.0
  0
ENDBLK
  5
7F3
330
7F1
100
AcDbEntity
  8
0
100
AcDbBlockEnd
  0
BLOCK
  5
9AF
330
9AD
100
AcDbEntity
  8
0
100
AcDbBlockBegin
  2
GENAXEH
 70
     0
 10
0.0
 20
0.0
 30
0.0
  3
GENAXEH
  1

  0
LINE
  5
9AE
330
9AD
100
AcDbEntity
  8
0
100
AcDbLine
 10
-1.0
 20
0.0
 30
0.0
 11
1.0
 21
0.0
 31
0.0
  0
ENDBLK
  5
9B0
330
9AD
100
AcDbEntity
  8
0
100
AcDbBlockEnd
  0
BLOCK
  5
9CC
330
9CB
100
AcDbEntity
  8
0
100
AcDbBlockBegin
  2
*D36
 70
     1
 10
0.0
 20
0.0
 30
0.0
  3
*D36
  1

  0
LINE
  5
9ED
330
9CB
100
AcDbEntity
  8
AM_5
 62
     0
370
    -2
100
AcDbLine
 10
190.3510491257211
 20
200.1599045422358
 30
0.0
 11
254.7391300914136
 21
200.1599045422358
 31
0.0
  0
LINE
  5
9EE
330
9CB
100
AcDbEntity
  8
AM_5
 62
     0
370
    -2
100
AcDbLine
 10
190.3510491257211
 20
296.1599045422358
 30
0.0
 11
254.7391300914136
 21
296.1599045422358
 31
0.0
  0
LINE
  5
9EF
330
9CB
100
AcDbEntity
  8
AM_5
 62
     0
370
    -2
100
AcDbLine
 10
254.5591300914136
 20
201.9599045422358
 30
0.0
 11
254.5591300914136
 21
247.8877353042367
 31
0.0
  0
LINE
  5
9F0
330
9CB
100
AcDbEntity
  8
AM_5
 62
     0
370
    -2
100
AcDbLine
 10
254.5591300914136
 20
294.3599045422358
 30
0.0
 11
254.5591300914136
 21
248.4320737802349
 31
0.0
  0
SOLID
  5
9F1
330
9CB
100
AcDbEntity
  8
AM_5
 62
     0
100
AcDbTrace
 10
254.2591300914136
 20
201.9599045422358
 30
0.0
 11
254.8591300914136
 21
201.9599045422358
 31
0.0
 12
254.5591300914136
 22
200.1599045422358
 32
0.0
 13
254.5591300914136
 23
200.1599045422358
 33
0.0
  0
SOLID
  5
9F2
330
9CB
100
AcDbEntity
  8
AM_5
 62
     0
100
AcDbTrace
 10
254.2591300914136
 20
294.3599045422358
 30
0.0
 11
254.8591300914136
 21
294.3599045422358
 31
0.0
 12
254.5591300914136
 22
296.1599045422358
 32
0.0
 13
254.5591300914136
 23
296.1599045422358
 33
0.0
  0
MTEXT
  5
9F3
330
9CB
100
AcDbEntity
  8
AM_5
 62
     0
100
AcDbMText
 10
254.5591300914136
 20
248.1599045422358
 30
0.0
 40
0.3499999940395355
 41
0.0
 71
     5
 72
     1
  1
\A1;96.0000
 73
     1
 44
1.0
  0
POINT
  5
9F4
330
9CB
100
AcDbEntity
  8
Defpoints
 62
     0
100
AcDbPoint
 10
190.2885491257212
 20
200.1599045422358
 30
0.0
  0
POINT
  5
9F5
330
9CB
100
AcDbEntity
  8
Defpoints
 62
     0
100
AcDbPoint
 10
190.2885491257212
 20
296.1599045422358
 30
0.0
  0
POINT
  5
9F6
330
9CB
100
AcDbEntity
  8
Defpoints
 62
     0
100
AcDbPoint
 10
254.5591300914136
 20
296.1599045422358
 30
0.0
  0
ENDBLK
  5
9CD
330
9CB
100
AcDbEntity
  8
0
100
AcDbBlockEnd
  0
BLOCK
  5
E06
330
E05
100
AcDbEntity
  8
0
100
AcDbBlockBegin
  2
*D37
 70
     1
 10
0.0
 20
0.0
 30
0.0
  3
*D37
  1

  0
LINE
  5
E07
330
E05
100
AcDbEntity
  8
5
370
    -2
100
AcDbLine
 10
393.5632639783807
 20
647.570704312658
 30
0.0
 11
393.5632639783807
 21
678.1579128791172
 31
0.0
  0
LINE
  5
E08
330
E05
100
AcDbEntity
  8
5
370
    -2
100
AcDbLine
 10
193.5632639783805
 20
647.570704312658
 30
0.0
 11
193.5632639783805
 21
678.1579128791172
 31
0.0
  0
LINE
  5
E09
330
E05
100
AcDbEntity
  8
5
370
    -2
100
AcDbLine
 10
388.5632639783807
 20
676.1579128791172
 30
0.0
 11
198.5632639783805
 21
676.1579128791172
 31
0.0
  0
SOLID
  5
E0A
330
E05
100
AcDbEntity
  8
5
100
AcDbTrace
 10
388.5632639783807
 20
676.9912462124506
 30
0.0
 11
388.5632639783807
 21
675.3245795457837
 31
0.0
 12
393.5632639783807
 22
676.1579128791172
 32
0.0
 13
393.5632639783807
 23
676.1579128791172
 33
0.0
  0
SOLID
  5
E0B
330
E05
100
AcDbEntity
  8
5
100
AcDbTrace
 10
198.5632639783805
 20
676.9912462124506
 30
0.0
 11
198.5632639783805
 21
675.3245795457837
 31
0.0
 12
193.5632639783805
 22
676.1579128791172
 32
0.0
 13
193.5632639783805
 23
676.1579128791172
 33
0.0
  0
MTEXT
  5
E0C
330
E05
100
AcDbEntity
  8
5
 62
     7
100
AcDbMText
 10
293.5632639783806
 20
684.6493836648792
 30
0.0
 40
14.0
 41
0.0
 71
     5
 72
     1
  1
{\Famgdt;o}200
 73
     1
 44
1.0
  0
POINT
  5
E0D
330
E05
100
AcDbEntity
  8
Defpoints
 62
     0
100
AcDbPoint
 10
393.5632639783807
 20
645.5707043126579
 30
0.0
  0
POINT
  5
E0E
330
E05
100
AcDbEntity
  8
Defpoints
 62
     0
100
AcDbPoint
 10
193.5632639783805
 20
645.5707043126579
 30
0.0
  0
POINT
  5
E0F
330
E05
100
AcDbEntity
  8
Defpoints
 62
     0
100
AcDbPoint
 10
193.5632639783805
 20
676.1579128791172
 30
0.0
  0
ENDBLK
  5
E10
330
E05
100
AcDbEntity
  8
0
100
AcDbBlockEnd
  0
BLOCK
  5
E12
330
E11
100
AcDbEntity
  8
0
100
AcDbBlockBegin
  2
*D38
 70
     1
 10
0.0
 20
0.0
 30
0.0
  3
*D38
  1

  0
LINE
  5
E13
330
E11
100
AcDbEntity
  8
5
370
    -2
100
AcDbLine
 10
350.7199798262682
 20
511.8180078343893
 30
0.0
 11
417.6826854573393
 21
511.8180078343893
 31
0.0
  0
LINE
  5
E14
330
E11
100
AcDbEntity
  8
5
370
    -2
100
AcDbLine
 10
394.8861396339129
 20
647.0707043126581
 30
0.0
 11
417.6826854573394
 21
647.0707043126581
 31
0.0
  0
LINE
  5
E15
330
E11
100
AcDbEntity
  8
5
370
    -2
100
AcDbLine
 10
415.6826854573393
 20
516.8180078343891
 30
0.0
 11
415.6826854573393
 21
642.0707043126581
 31
0.0
  0
SOLID
  5
E16
330
E11
100
AcDbEntity
  8
5
100
AcDbTrace
 10
414.849352124006
 20
516.8180078343891
 30
0.0
 11
416.5160187906725
 21
516.8180078343891
 31
0.0
 12
415.6826854573393
 22
511.8180078343893
 32
0.0
 13
415.6826854573393
 23
511.8180078343893
 33
0.0
  0
SOLID
  5
E17
330
E11
100
AcDbEntity
  8
5
100
AcDbTrace
 10
414.8493521240061
 20
642.0707043126581
 30
0.0
 11
416.5160187906725
 21
642.0707043126581
 31
0.0
 12
415.6826854573393
 22
647.0707043126581
 32
0.0
 13
415.6826854573393
 23
647.0707043126581
 33
0.0
  0
MTEXT
  5
E18
330
E11
100
AcDbEntity
  8
5
 62
     7
100
AcDbMText
 10
407.1912146715768
 20
579.4443560735238
 30
0.0
 40
14.0
 41
0.0
 71
     5
 72
     1
  1
135
 11
0.0000000000000001
 21
1.0
 31
0.0
 73
     1
 44
1.0
  0
POINT
  5
E19
330
E11
100
AcDbEntity
  8
Defpoints
 62
     0
100
AcDbPoint
 10
348.7199798262682
 20
511.8180078343893
 30
0.0
  0
POINT
  5
E1A
330
E11
100
AcDbEntity
  8
Defpoints
 62
     0
100
AcDbPoint
 10
392.8861396339129
 20
647.0707043126581
 30
0.0
  0
POINT
  5
E1B
330
E11
100
AcDbEntity
  8
Defpoints
 62
     0
100
AcDbPoint
 10
415.6826854573393
 20
647.0707043126581
 30
0.0
  0
ENDBLK
  5
E1C
330
E11
100
AcDbEntity
  8
0
100
AcDbBlockEnd
  0
BLOCK
  5
E1E
330
E1D
100
AcDbEntity
  8
0
100
AcDbBlockBegin
  2
*D39
 70
     1
 10
0.0
 20
0.0
 30
0.0
  3
*D39
  1

  0
LINE
  5
E1F
330
E1D
100
AcDbEntity
  8
5
370
    -2
100
AcDbLine
 10
222.3132639783806
 20
526.6142754336592
 30
0.0
 11
222.3132639783806
 21
366.5079629232823
 31
0.0
  0
LINE
  5
E20
330
E1D
100
AcDbEntity
  8
5
370
    -2
100
AcDbLine
 10
364.8132639783807
 20
526.6142754336592
 30
0.0
 11
364.8132639783807
 21
366.5079629232823
 31
0.0
  0
LINE
  5
E21
330
E1D
100
AcDbEntity
  8
5
370
    -2
100
AcDbLine
 10
227.3132639783806
 20
368.5079629232823
 30
0.0
 11
359.8132639783807
 21
368.5079629232823
 31
0.0
  0
SOLID
  5
E22
330
E1D
100
AcDbEntity
  8
5
100
AcDbTrace
 10
227.3132639783806
 20
369.3412962566156
 30
0.0
 11
227.3132639783806
 21
367.6746295899491
 31
0.0
 12
222.3132639783806
 22
368.5079629232823
 32
0.0
 13
222.3132639783806
 23
368.5079629232823
 33
0.0
  0
SOLID
  5
E23
330
E1D
100
AcDbEntity
  8
5
100
AcDbTrace
 10
359.8132639783807
 20
369.3412962566156
 30
0.0
 11
359.8132639783807
 21
367.6746295899491
 31
0.0
 12
364.8132639783807
 22
368.5079629232823
 32
0.0
 13
364.8132639783807
 23
368.5079629232823
 33
0.0
  0
MTEXT
  5
E24
330
E1D
100
AcDbEntity
  8
5
 62
     7
100
AcDbMText
 10
293.5632639783806
 20
377.6858003980976
 30
0.0
 40
14.0
 41
0.0
 71
     5
 72
     1
  1
%%c142
 73
     1
 44
1.0
  0
POINT
  5
E25
330
E1D
100
AcDbEntity
  8
Defpoints
 62
     0
100
AcDbPoint
 10
222.3132639783806
 20
528.6142754336593
 30
0.0
  0
POINT
  5
E26
330
E1D
100
AcDbEntity
  8
Defpoints
 62
     0
100
AcDbPoint
 10
364.8132639783807
 20
528.6142754336593
 30
0.0
  0
POINT
  5
E27
330
E1D
100
AcDbEntity
  8
Defpoints
 62
     0
100
AcDbPoint
 10
364.8132639783807
 20
368.5079629232823
 30
0.0
  0
ENDBLK
  5
E28
330
E1D
100
AcDbEntity
  8
0
100
AcDbBlockEnd
  0
BLOCK
  5
E2A
330
E29
100
AcDbEntity
  8
0
100
AcDbBlockBegin
  2
*D40
 70
     1
 10
0.0
 20
0.0
 30
0.0
  3
*D40
  1

  0
LINE
  5
E2B
330
E29
100
AcDbEntity
  8
5
370
    -2
100
AcDbLine
 10
256.0632639783806
 20
421.5712854044364
 30
0.0
 11
256.0632639783806
 21
390.8261466910261
 31
0.0
  0
LINE
  5
E2C
330
E29
100
AcDbEntity
  8
5
370
    -2
100
AcDbLine
 10
331.0632639783805
 20
421.5712854044364
 30
0.0
 11
331.0632639783805
 21
390.8261466910261
 31
0.0
  0
LINE
  5
E2D
330
E29
100
AcDbEntity
  8
5
370
    -2
100
AcDbLine
 10
261.0632639783806
 20
392.8261466910262
 30
0.0
 11
326.0632639783805
 21
392.8261466910262
 31
0.0
  0
SOLID
  5
E2E
330
E29
100
AcDbEntity
  8
5
100
AcDbTrace
 10
261.0632639783806
 20
393.6594800243595
 30
0.0
 11
261.0632639783806
 21
391.9928133576929
 31
0.0
 12
256.0632639783806
 22
392.8261466910262
 32
0.0
 13
256.0632639783806
 23
392.8261466910262
 33
0.0
  0
SOLID
  5
E2F
330
E29
100
AcDbEntity
  8
5
100
AcDbTrace
 10
326.0632639783805
 20
393.6594800243595
 30
0.0
 11
326.0632639783805
 21
391.9928133576929
 31
0.0
 12
331.0632639783805
 22
392.8261466910262
 32
0.0
 13
331.0632639783805
 23
392.8261466910262
 33
0.0
  0
MTEXT
  5
E30
330
E29
100
AcDbEntity
  8
5
 62
     7
100
AcDbMText
 10
293.5632639783805
 20
402.0039841658415
 30
0.0
 40
14.0
 41
0.0
 71
     5
 72
     1
  1
%%c75
 73
     1
 44
1.0
  0
POINT
  5
E31
330
E29
100
AcDbEntity
  8
Defpoints
 62
     0
100
AcDbPoint
 10
256.0632639783806
 20
423.5712854044363
 30
0.0
  0
POINT
  5
E32
330
E29
100
AcDbEntity
  8
Defpoints
 62
     0
100
AcDbPoint
 10
331.0632639783805
 20
423.5712854044363
 30
0.0
  0
POINT
  5
E33
330
E29
100
AcDbEntity
  8
Defpoints
 62
     0
100
AcDbPoint
 10
331.0632639783805
 20
392.8261466910262
 30
0.0
  0
ENDBLK
  5
E34
330
E29
100
AcDbEntity
  8
0
100
AcDbBlockEnd
  0
BLOCK
  5
E36
330
E35
100
AcDbEntity
  8
0
100
AcDbBlockBegin
  2
*D41
 70
     1
 10
0.0
 20
0.0
 30
0.0
  3
*D41
  1

  0
LINE
  5
E37
330
E35
100
AcDbEntity
  8
5
370
    -2
100
AcDbLine
 10
394.8861396339129
 20
647.0707043126581
 30
0.0
 11
448.9654646184901
 21
647.0707043126581
 31
0.0
  0
LINE
  5
E38
330
E35
100
AcDbEntity
  8
5
370
    -2
100
AcDbLine
 10
331.0632639783805
 20
414.7479478291138
 30
0.0
 11
448.9654646184901
 21
414.7479478291137
 31
0.0
  0
LINE
  5
E39
330
E35
100
AcDbEntity
  8
5
370
    -2
100
AcDbLine
 10
446.9654646184902
 20
642.0707043126581
 30
0.0
 11
446.9654646184901
 21
419.7479478291134
 31
0.0
  0
SOLID
  5
E3A
330
E35
100
AcDbEntity
  8
5
100
AcDbTrace
 10
446.1321312851567
 20
642.0707043126581
 30
0.0
 11
447.7987979518235
 21
642.0707043126581
 31
0.0
 12
446.9654646184902
 22
647.0707043126581
 32
0.0
 13
446.9654646184902
 23
647.0707043126581
 33
0.0
  0
SOLID
  5
E3B
330
E35
100
AcDbEntity
  8
5
100
AcDbTrace
 10
446.1321312851567
 20
419.7479478291134
 30
0.0
 11
447.7987979518235
 21
419.7479478291134
 31
0.0
 12
446.9654646184901
 22
414.7479478291137
 32
0.0
 13
446.9654646184901
 23
414.7479478291137
 33
0.0
  0
MTEXT
  5
E3C
330
E35
100
AcDbEntity
  8
5
 62
     7
100
AcDbMText
 10
438.4739938327276
 20
530.9093260708862
 30
0.0
 40
14.0
 41
0.0
 71
     5
 72
     1
  1
233
 11
0.0000000000000001
 21
1.0
 31
0.0
 73
     1
 44
1.0
  0
POINT
  5
E3D
330
E35
100
AcDbEntity
  8
Defpoints
 62
     0
100
AcDbPoint
 10
392.8861396339129
 20
647.0707043126581
 30
0.0
  0
POINT
  5
E3E
330
E35
100
AcDbEntity
  8
Defpoints
 62
     0
100
AcDbPoint
 10
329.0632639783805
 20
414.7479478291138
 30
0.0
  0
POINT
  5
E3F
330
E35
100
AcDbEntity
  8
Defpoints
 62
     0
100
AcDbPoint
 10
446.9654646184901
 20
414.7479478291137
 30
0.0
  0
ENDBLK
  5
E40
330
E35
100
AcDbEntity
  8
0
100
AcDbBlockEnd
  0
BLOCK
  5
E42
330
E41
100
AcDbEntity
  8
0
100
AcDbBlockBegin
  2
*D42
 70
     1
 10
0.0
 20
0.0
 30
0.0
  3
*D42
  1

  0
LINE
  5
E43
330
E41
100
AcDbEntity
  8
5
370
    -2
100
AcDbLine
 10
192.240388322848
 20
647.0707043126577
 30
0.0
 11
148.5107182955949
 21
647.0707043126577
 31
0.0
  0
LINE
  5
E44
330
E41
100
AcDbEntity
  8
5
370
    -2
100
AcDbLine
 10
192.240388322848
 20
622.0707043126577
 30
0.0
 11
148.5107182955949
 21
622.0707043126577
 31
0.0
  0
LINE
  5
E45
330
E41
100
AcDbEntity
  8
5
370
    -2
100
AcDbLine
 10
150.5107182955948
 20
642.0707043126578
 30
0.0
 11
150.5107182955948
 21
627.0707043126577
 31
0.0
  0
SOLID
  5
E46
330
E41
100
AcDbEntity
  8
5
100
AcDbTrace
 10
149.6773849622615
 20
642.0707043126578
 30
0.0
 11
151.3440516289282
 21
642.0707043126578
 31
0.0
 12
150.5107182955948
 22
647.0707043126577
 32
0.0
 13
150.5107182955948
 23
647.0707043126577
 33
0.0
  0
SOLID
  5
E47
330
E41
100
AcDbEntity
  8
5
100
AcDbTrace
 10
149.6773849622615
 20
627.0707043126577
 30
0.0
 11
151.3440516289282
 21
627.0707043126577
 31
0.0
 12
150.5107182955948
 22
622.0707043126577
 32
0.0
 13
150.5107182955948
 23
622.0707043126577
 33
0.0
  0
MTEXT
  5
E48
330
E41
100
AcDbEntity
  8
5
 62
     7
100
AcDbMText
 10
142.0192475098325
 20
634.5707043126577
 30
0.0
 40
14.0
 41
0.0
 71
     5
 72
     1
  1
25
 11
0.0000000000000001
 21
1.0
 31
0.0
 73
     1
 44
1.0
  0
POINT
  5
E49
330
E41
100
AcDbEntity
  8
Defpoints
 62
     0
100
AcDbPoint
 10
194.240388322848
 20
647.0707043126577
 30
0.0
  0
POINT
  5
E4A
330
E41
100
AcDbEntity
  8
Defpoints
 62
     0
100
AcDbPoint
 10
194.240388322848
 20
622.0707043126577
 30
0.0
  0
POINT
  5
E4B
330
E41
100
AcDbEntity
  8
Defpoints
 62
     0
100
AcDbPoint
 10
150.5107182955948
 20
622.0707043126577
 30
0.0
  0
ENDBLK
  5
E4C
330
E41
100
AcDbEntity
  8
0
100
AcDbBlockEnd
  0
BLOCK
  5
1154
330
1153
100
AcDbEntity
  8
0
100
AcDbBlockBegin
  2
*D43
 70
     1
 10
0.0
 20
0.0
 30
0.0
  3
*D43
  1

  0
LINE
  5
119B
330
1153
100
AcDbEntity
  8
5
370
    -2
100
AcDbLine
 10
606.5766560770355
 20
409.0743006280098
 30
0.0
 11
606.5766560770355
 21
439.6615091944693
 31
0.0
  0
LINE
  5
119C
330
1153
100
AcDbEntity
  8
5
370
    -2
100
AcDbLine
 10
406.5766560770352
 20
409.0743006280098
 30
0.0
 11
406.5766560770352
 21
439.6615091944693
 31
0.0
  0
LINE
  5
119D
330
1153
100
AcDbEntity
  8
5
370
    -2
100
AcDbLine
 10
601.5766560770355
 20
437.6615091944692
 30
0.0
 11
411.5766560770352
 21
437.6615091944692
 31
0.0
  0
SOLID
  5
119E
330
1153
100
AcDbEntity
  8
5
100
AcDbTrace
 10
601.5766560770355
 20
438.4948425278026
 30
0.0
 11
601.5766560770355
 21
436.828175861136
 31
0.0
 12
606.5766560770355
 22
437.6615091944692
 32
0.0
 13
606.5766560770355
 23
437.6615091944692
 33
0.0
  0
SOLID
  5
119F
330
1153
100
AcDbEntity
  8
5
100
AcDbTrace
 10
411.5766560770352
 20
438.4948425278026
 30
0.0
 11
411.5766560770352
 21
436.828175861136
 31
0.0
 12
406.5766560770352
 22
437.6615091944692
 32
0.0
 13
406.5766560770352
 23
437.6615091944692
 33
0.0
  0
MTEXT
  5
11A0
330
1153
100
AcDbEntity
  8
5
 62
     7
100
AcDbMText
 10
506.5766560770352
 20
446.1529799802313
 30
0.0
 40
14.0
 41
0.0
 71
     5
 72
     1
  1
{\Famgdt;o}200
 73
     1
 44
1.0
  0
POINT
  5
11A1
330
1153
100
AcDbEntity
  8
Defpoints
 62
     0
100
AcDbPoint
 10
606.5766560770355
 20
407.0743006280099
 30
0.0
  0
POINT
  5
11A2
330
1153
100
AcDbEntity
  8
Defpoints
 62
     0
100
AcDbPoint
 10
406.5766560770352
 20
407.0743006280099
 30
0.0
  0
POINT
  5
11A3
330
1153
100
AcDbEntity
  8
Defpoints
 62
     0
100
AcDbPoint
 10
406.5766560770352
 20
437.6615091944692
 30
0.0
  0
ENDBLK
  5
1155
330
1153
100
AcDbEntity
  8
0
100
AcDbBlockEnd
  0
BLOCK
  5
1160
330
115F
100
AcDbEntity
  8
0
100
AcDbBlockBegin
  2
*D44
 70
     1
 10
0.0
 20
0.0
 30
0.0
  3
*D44
  1

  0
LINE
  5
11A4
330
115F
100
AcDbEntity
  8
5
370
    -2
100
AcDbLine
 10
563.7333719249227
 20
273.3216041497414
 30
0.0
 11
630.696077555994
 21
273.3216041497414
 31
0.0
  0
LINE
  5
11A5
330
115F
100
AcDbEntity
  8
5
370
    -2
100
AcDbLine
 10
607.8995317325676
 20
408.5743006280101
 30
0.0
 11
630.696077555994
 21
408.5743006280101
 31
0.0
  0
LINE
  5
11A6
330
115F
100
AcDbEntity
  8
5
370
    -2
100
AcDbLine
 10
628.6960775559943
 20
278.3216041497414
 30
0.0
 11
628.6960775559943
 21
403.57430062801
 31
0.0
  0
SOLID
  5
11A7
330
115F
100
AcDbEntity
  8
5
100
AcDbTrace
 10
627.8627442226607
 20
278.3216041497414
 30
0.0
 11
629.5294108893274
 21
278.3216041497414
 31
0.0
 12
628.6960775559943
 22
273.3216041497414
 32
0.0
 13
628.6960775559943
 23
273.3216041497414
 33
0.0
  0
SOLID
  5
11A8
330
115F
100
AcDbEntity
  8
5
100
AcDbTrace
 10
627.8627442226607
 20
403.57430062801
 30
0.0
 11
629.5294108893274
 21
403.57430062801
 31
0.0
 12
628.6960775559943
 22
408.5743006280101
 32
0.0
 13
628.6960775559943
 23
408.5743006280101
 33
0.0
  0
MTEXT
  5
11A9
330
115F
100
AcDbEntity
  8
5
 62
     7
100
AcDbMText
 10
620.2046067702317
 20
340.9479523888759
 30
0.0
 40
14.0
 41
0.0
 71
     5
 72
     1
  1
135
 11
0.0000000000000001
 21
1.0
 31
0.0
 73
     1
 44
1.0
  0
POINT
  5
11AA
330
115F
100
AcDbEntity
  8
Defpoints
 62
     0
100
AcDbPoint
 10
561.7333719249228
 20
273.3216041497414
 30
0.0
  0
POINT
  5
11AB
330
115F
100
AcDbEntity
  8
Defpoints
 62
     0
100
AcDbPoint
 10
605.8995317325676
 20
408.5743006280101
 30
0.0
  0
POINT
  5
11AC
330
115F
100
AcDbEntity
  8
Defpoints
 62
     0
100
AcDbPoint
 10
628.6960775559943
 20
408.5743006280101
 30
0.0
  0
ENDBLK
  5
1161
330
115F
100
AcDbEntity
  8
0
100
AcDbBlockEnd
  0
BLOCK
  5
116C
330
116B
100
AcDbEntity
  8
0
100
AcDbBlockBegin
  2
*D45
 70
     1
 10
0.0
 20
0.0
 30
0.0
  3
*D45
  1

  0
LINE
  5
11AD
330
116B
100
AcDbEntity
  8
5
370
    -2
100
AcDbLine
 10
435.3266560770353
 20
288.1178717490113
 30
0.0
 11
435.3266560770353
 21
128.0115592386344
 31
0.0
  0
LINE
  5
11AE
330
116B
100
AcDbEntity
  8
5
370
    -2
100
AcDbLine
 10
577.8266560770354
 20
288.1178717490113
 30
0.0
 11
577.8266560770354
 21
128.0115592386344
 31
0.0
  0
LINE
  5
11AF
330
116B
100
AcDbEntity
  8
5
370
    -2
100
AcDbLine
 10
440.3266560770354
 20
130.0115592386344
 30
0.0
 11
572.8266560770355
 21
130.0115592386344
 31
0.0
  0
SOLID
  5
11B0
330
116B
100
AcDbEntity
  8
5
100
AcDbTrace
 10
440.3266560770354
 20
130.8448925719677
 30
0.0
 11
440.3266560770354
 21
129.178225905301
 31
0.0
 12
435.3266560770353
 22
130.0115592386344
 32
0.0
 13
435.3266560770353
 23
130.0115592386344
 33
0.0
  0
SOLID
  5
11B1
330
116B
100
AcDbEntity
  8
5
100
AcDbTrace
 10
572.8266560770355
 20
130.8448925719677
 30
0.0
 11
572.8266560770355
 21
129.178225905301
 31
0.0
 12
577.8266560770354
 22
130.0115592386344
 32
0.0
 13
577.8266560770354
 23
130.0115592386344
 33
0.0
  0
MTEXT
  5
11B2
330
116B
100
AcDbEntity
  8
5
 62
     7
100
AcDbMText
 10
506.5766560770352
 20
139.1893967134497
 30
0.0
 40
14.0
 41
0.0
 71
     5
 72
     1
  1
%%c142
 73
     1
 44
1.0
  0
POINT
  5
11B3
330
116B
100
AcDbEntity
  8
Defpoints
 62
     0
100
AcDbPoint
 10
435.3266560770353
 20
290.1178717490113
 30
0.0
  0
POINT
  5
11B4
330
116B
100
AcDbEntity
  8
Defpoints
 62
     0
100
AcDbPoint
 10
577.8266560770354
 20
290.1178717490113
 30
0.0
  0
POINT
  5
11B5
330
116B
100
AcDbEntity
  8
Defpoints
 62
     0
100
AcDbPoint
 10
577.8266560770354
 20
130.0115592386344
 30
0.0
  0
ENDBLK
  5
116D
330
116B
100
AcDbEntity
  8
0
100
AcDbBlockEnd
  0
BLOCK
  5
1178
330
1177
100
AcDbEntity
  8
0
100
AcDbBlockBegin
  2
*D46
 70
     1
 10
0.0
 20
0.0
 30
0.0
  3
*D46
  1

  0
LINE
  5
11B6
330
1177
100
AcDbEntity
  8
5
370
    -2
100
AcDbLine
 10
469.0766560770352
 20
183.0748817197884
 30
0.0
 11
469.0766560770352
 21
152.3297430063782
 31
0.0
  0
LINE
  5
11B7
330
1177
100
AcDbEntity
  8
5
370
    -2
100
AcDbLine
 10
544.0766560770351
 20
183.0748817197884
 30
0.0
 11
544.0766560770351
 21
152.3297430063782
 31
0.0
  0
LINE
  5
11B8
330
1177
100
AcDbEntity
  8
5
370
    -2
100
AcDbLine
 10
474.0766560770352
 20
154.3297430063782
 30
0.0
 11
539.0766560770352
 21
154.3297430063782
 31
0.0
  0
SOLID
  5
11B9
330
1177
100
AcDbEntity
  8
5
100
AcDbTrace
 10
474.0766560770352
 20
155.1630763397116
 30
0.0
 11
474.0766560770352
 21
153.4964096730449
 31
0.0
 12
469.0766560770352
 22
154.3297430063782
 32
0.0
 13
469.0766560770352
 23
154.3297430063782
 33
0.0
  0
SOLID
  5
11BA
330
1177
100
AcDbEntity
  8
5
100
AcDbTrace
 10
539.0766560770352
 20
155.1630763397116
 30
0.0
 11
539.0766560770352
 21
153.4964096730449
 31
0.0
 12
544.0766560770351
 22
154.3297430063782
 32
0.0
 13
544.0766560770351
 23
154.3297430063782
 33
0.0
  0
MTEXT
  5
11BB
330
1177
100
AcDbEntity
  8
5
 62
     7
100
AcDbMText
 10
506.5766560770352
 20
163.5075804811935
 30
0.0
 40
14.0
 41
0.0
 71
     5
 72
     1
  1
%%c75
 73
     1
 44
1.0
  0
POINT
  5
11BC
330
1177
100
AcDbEntity
  8
Defpoints
 62
     0
100
AcDbPoint
 10
469.0766560770352
 20
185.0748817197884
 30
0.0
  0
POINT
  5
11BD
330
1177
100
AcDbEntity
  8
Defpoints
 62
     0
100
AcDbPoint
 10
544.0766560770351
 20
185.0748817197884
 30
0.0
  0
POINT
  5
11BE
330
1177
100
AcDbEntity
  8
Defpoints
 62
     0
100
AcDbPoint
 10
544.0766560770351
 20
154.3297430063782
 30
0.0
  0
ENDBLK
  5
1179
330
1177
100
AcDbEntity
  8
0
100
AcDbBlockEnd
  0
BLOCK
  5
1184
330
1183
100
AcDbEntity
  8
0
100
AcDbBlockBegin
  2
*D47
 70
     1
 10
0.0
 20
0.0
 30
0.0
  3
*D47
  1

  0
LINE
  5
11BF
330
1183
100
AcDbEntity
  8
5
370
    -2
100
AcDbLine
 10
607.8995317325676
 20
408.5743006280101
 30
0.0
 11
661.978856717145
 21
408.5743006280101
 31
0.0
  0
LINE
  5
11C0
330
1183
100
AcDbEntity
  8
5
370
    -2
100
AcDbLine
 10
544.0766560770351
 20
176.2515441444659
 30
0.0
 11
661.9788567171448
 21
176.2515441444659
 31
0.0
  0
LINE
  5
11C1
330
1183
100
AcDbEntity
  8
5
370
    -2
100
AcDbLine
 10
659.978856717145
 20
403.57430062801
 30
0.0
 11
659.9788567171448
 21
181.2515441444659
 31
0.0
  0
SOLID
  5
11C2
330
1183
100
AcDbEntity
  8
5
100
AcDbTrace
 10
659.1455233838116
 20
403.57430062801
 30
0.0
 11
660.8121900504783
 21
403.57430062801
 31
0.0
 12
659.978856717145
 22
408.5743006280101
 32
0.0
 13
659.978856717145
 23
408.5743006280101
 33
0.0
  0
SOLID
  5
11C3
330
1183
100
AcDbEntity
  8
5
100
AcDbTrace
 10
659.1455233838112
 20
181.2515441444659
 30
0.0
 11
660.8121900504783
 21
181.2515441444659
 31
0.0
 12
659.9788567171448
 22
176.2515441444659
 32
0.0
 13
659.9788567171448
 23
176.2515441444659
 33
0.0
  0
MTEXT
  5
11C4
330
1183
100
AcDbEntity
  8
5
 62
     7
100
AcDbMText
 10
651.4873859313827
 20
292.4129223862381
 30
0.0
 40
14.0
 41
0.0
 71
     5
 72
     1
  1
233
 11
0.0000000000000001
 21
1.0
 31
0.0
 73
     1
 44
1.0
  0
POINT
  5
11C5
330
1183
100
AcDbEntity
  8
Defpoints
 62
     0
100
AcDbPoint
 10
605.8995317325676
 20
408.5743006280101
 30
0.0
  0
POINT
  5
11C6
330
1183
100
AcDbEntity
  8
Defpoints
 62
     0
100
AcDbPoint
 10
542.0766560770353
 20
176.2515441444659
 30
0.0
  0
POINT
  5
11C7
330
1183
100
AcDbEntity
  8
Defpoints
 62
     0
100
AcDbPoint
 10
659.9788567171448
 20
176.2515441444659
 30
0.0
  0
ENDBLK
  5
1185
330
1183
100
AcDbEntity
  8
0
100
AcDbBlockEnd
  0
BLOCK
  5
1190
330
118F
100
AcDbEntity
  8
0
100
AcDbBlockBegin
  2
*D48
 70
     1
 10
0.0
 20
0.0
 30
0.0
  3
*D48
  1

  0
LINE
  5
11C8
330
118F
100
AcDbEntity
  8
5
370
    -2
100
AcDbLine
 10
405.2537804215027
 20
408.5743006280098
 30
0.0
 11
361.5241103942496
 21
408.5743006280099
 31
0.0
  0
LINE
  5
11C9
330
118F
100
AcDbEntity
  8
5
370
    -2
100
AcDbLine
 10
405.2537804215027
 20
383.5743006280099
 30
0.0
 11
361.5241103942496
 21
383.5743006280099
 31
0.0
  0
LINE
  5
11CA
330
118F
100
AcDbEntity
  8
5
370
    -2
100
AcDbLine
 10
363.5241103942496
 20
403.5743006280099
 30
0.0
 11
363.5241103942496
 21
388.5743006280099
 31
0.0
  0
SOLID
  5
11CB
330
118F
100
AcDbEntity
  8
5
100
AcDbTrace
 10
362.6907770609163
 20
403.5743006280099
 30
0.0
 11
364.357443727583
 21
403.5743006280099
 31
0.0
 12
363.5241103942496
 22
408.5743006280099
 32
0.0
 13
363.5241103942496
 23
408.5743006280099
 33
0.0
  0
SOLID
  5
11CC
330
118F
100
AcDbEntity
  8
5
100
AcDbTrace
 10
362.6907770609163
 20
388.5743006280099
 30
0.0
 11
364.357443727583
 21
388.5743006280099
 31
0.0
 12
363.5241103942496
 22
383.5743006280099
 32
0.0
 13
363.5241103942496
 23
383.5743006280099
 33
0.0
  0
MTEXT
  5
11CD
330
118F
100
AcDbEntity
  8
5
 62
     7
100
AcDbMText
 10
355.0326396084873
 20
396.0743006280099
 30
0.0
 40
14.0
 41
0.0
 71
     5
 72
     1
  1
25
 11
0.0000000000000001
 21
1.0
 31
0.0
 73
     1
 44
1.0
  0
POINT
  5
11CE
330
118F
100
AcDbEntity
  8
Defpoints
 62
     0
100
AcDbPoint
 10
407.2537804215028
 20
408.5743006280098
 30
0.0
  0
POINT
  5
11CF
330
118F
100
AcDbEntity
  8
Defpoints
 62
     0
100
AcDbPoint
 10
407.2537804215028
 20
383.5743006280099
 30
0.0
  0
POINT
  5
11D0
330
118F
100
AcDbEntity
  8
Defpoints
 62
     0
100
AcDbPoint
 10
363.5241103942496
 20
383.5743006280099
 30
0.0
  0
ENDBLK
  5
1191
330
118F
100
AcDbEntity
  8
0
100
AcDbBlockEnd
  0
BLOCK
  5
11D3
330
11D2
100
AcDbEntity
  8
0
100
AcDbBlockBegin
  2
*D49
 70
     1
 10
0.0
 20
0.0
 30
0.0
  3
*D49
  1

  0
LINE
  5
1493
330
11D2
100
AcDbEntity
  8
5
370
    -2
100
AcDbLine
 10
84.03792692126911
 20
310.026232146781
 30
0.0
 11
84.03792692126911
 21
155.7855019123852
 31
0.0
  0
LINE
  5
1494
330
11D2
100
AcDbEntity
  8
5
370
    -2
100
AcDbLine
 10
226.5379269212691
 20
310.026232146781
 30
0.0
 11
226.5379269212691
 21
155.7855019123852
 31
0.0
  0
LINE
  5
1495
330
11D2
100
AcDbEntity
  8
5
370
    -2
100
AcDbLine
 10
89.03792692126911
 20
157.7855019123852
 30
0.0
 11
221.5379269212691
 21
157.7855019123852
 31
0.0
  0
SOLID
  5
1496
330
11D2
100
AcDbEntity
  8
5
100
AcDbTrace
 10
89.03792692126911
 20
158.6188352457185
 30
0.0
 11
89.03792692126911
 21
156.9521685790518
 31
0.0
 12
84.03792692126911
 22
157.7855019123852
 32
0.0
 13
84.03792692126911
 23
157.7855019123852
 33
0.0
  0
SOLID
  5
1497
330
11D2
100
AcDbEntity
  8
5
100
AcDbTrace
 10
221.5379269212691
 20
158.6188352457185
 30
0.0
 11
221.5379269212691
 21
156.9521685790518
 31
0.0
 12
226.5379269212691
 22
157.7855019123852
 32
0.0
 13
226.5379269212691
 23
157.7855019123852
 33
0.0
  0
MTEXT
  5
1498
330
11D2
100
AcDbEntity
  8
5
 62
     7
100
AcDbMText
 10
155.2879269212691
 20
166.9633393872005
 30
0.0
 40
14.0
 41
0.0
 71
     5
 72
     1
  1
%%c142
 73
     1
 44
1.0
  0
POINT
  5
1499
330
11D2
100
AcDbEntity
  8
Defpoints
 62
     0
100
AcDbPoint
 10
84.03792692126911
 20
312.026232146781
 30
0.0
  0
POINT
  5
149A
330
11D2
100
AcDbEntity
  8
Defpoints
 62
     0
100
AcDbPoint
 10
226.5379269212691
 20
312.026232146781
 30
0.0
  0
POINT
  5
149B
330
11D2
100
AcDbEntity
  8
Defpoints
 62
     0
100
AcDbPoint
 10
226.5379269212691
 20
157.7855019123852
 30
0.0
  0
ENDBLK
  5
11D4
330
11D2
100
AcDbEntity
  8
0
100
AcDbBlockEnd
  0
BLOCK
  5
11FF
330
11FE
100
AcDbEntity
  8
0
100
AcDbBlockBegin
  2
*D50
 70
     1
 10
0.0
 20
0.0
 30
0.0
  3
*D50
  1

  0
LINE
  5
12CA
330
11FE
100
AcDbEntity
  8
5
370
    -2
100
AcDbLine
 10
239.2879269212691
 20
402.7083434286143
 30
0.0
 11
287.6188642253456
 21
402.7083434286143
 31
0.0
  0
LINE
  5
12CB
330
11FE
100
AcDbEntity
  8
5
370
    -2
100
AcDbLine
 10
192.787926921269
 20
198.1599045422358
 30
0.0
 11
287.6188642253455
 21
198.1599045422358
 31
0.0
  0
LINE
  5
12CC
330
11FE
100
AcDbEntity
  8
5
370
    -2
100
AcDbLine
 10
285.6188642253456
 20
397.7083434286143
 30
0.0
 11
285.6188642253455
 21
203.1599045422358
 31
0.0
  0
SOLID
  5
12CD
330
11FE
100
AcDbEntity
  8
5
100
AcDbTrace
 10
284.7855308920123
 20
397.7083434286143
 30
0.0
 11
286.4521975586789
 21
397.7083434286143
 31
0.0
 12
285.6188642253456
 22
402.7083434286143
 32
0.0
 13
285.6188642253456
 23
402.7083434286143
 33
0.0
  0
SOLID
  5
12CE
330
11FE
100
AcDbEntity
  8
5
100
AcDbTrace
 10
284.7855308920122
 20
203.1599045422358
 30
0.0
 11
286.4521975586789
 21
203.1599045422358
 31
0.0
 12
285.6188642253455
 22
198.1599045422358
 32
0.0
 13
285.6188642253455
 23
198.1599045422358
 33
0.0
  0
MTEXT
  5
12CF
330
11FE
100
AcDbEntity
  8
5
 62
     7
100
AcDbMText
 10
277.1273934395832
 20
300.4341239854251
 30
0.0
 40
14.0
 41
0.0
 71
     5
 72
     1
  1
205
 11
0.0000000000000001
 21
1.0
 31
0.0
 73
     1
 44
1.0
  0
POINT
  5
12D0
330
11FE
100
AcDbEntity
  8
Defpoints
 62
     0
100
AcDbPoint
 10
237.2879269212691
 20
402.7083434286143
 30
0.0
  0
POINT
  5
12D1
330
11FE
100
AcDbEntity
  8
Defpoints
 62
     0
100
AcDbPoint
 10
190.787926921269
 20
198.1599045422358
 30
0.0
  0
POINT
  5
12D2
330
11FE
100
AcDbEntity
  8
Defpoints
 62
     0
100
AcDbPoint
 10
285.6188642253455
 20
198.1599045422358
 30
0.0
  0
ENDBLK
  5
1200
330
11FE
100
AcDbEntity
  8
0
100
AcDbBlockEnd
  0
BLOCK
  5
1221
330
1220
100
AcDbEntity
  8
0
100
AcDbBlockBegin
  2
*D51
 70
     1
 10
0.0
 20
0.0
 30
0.0
  3
*D51
  1

  0
LINE
  5
12D3
330
1220
100
AcDbEntity
  8
5
370
    -2
100
AcDbLine
 10
239.2879269212691
 20
402.7083434286143
 30
0.0
 11
262.5335207722999
 21
402.7083434286143
 31
0.0
  0
LINE
  5
12D4
330
1220
100
AcDbEntity
  8
5
370
    -2
100
AcDbLine
 10
208.6633745398289
 20
293.931662218698
 30
0.0
 11
262.5335207722999
 21
293.931662218698
 31
0.0
  0
LINE
  5
12D5
330
1220
100
AcDbEntity
  8
5
370
    -2
100
AcDbLine
 10
260.5335207722999
 20
397.7083434286143
 30
0.0
 11
260.5335207722999
 21
298.931662218698
 31
0.0
  0
SOLID
  5
12D6
330
1220
100
AcDbEntity
  8
5
100
AcDbTrace
 10
259.7001874389666
 20
397.7083434286143
 30
0.0
 11
261.3668541056333
 21
397.7083434286143
 31
0.0
 12
260.5335207722999
 22
402.7083434286143
 32
0.0
 13
260.5335207722999
 23
402.7083434286143
 33
0.0
  0
SOLID
  5
12D7
330
1220
100
AcDbEntity
  8
5
100
AcDbTrace
 10
259.7001874389666
 20
298.931662218698
 30
0.0
 11
261.3668541056332
 21
298.931662218698
 31
0.0
 12
260.5335207722999
 22
293.931662218698
 32
0.0
 13
260.5335207722999
 23
293.931662218698
 33
0.0
  0
MTEXT
  5
12D8
330
1220
100
AcDbEntity
  8
5
 62
     7
100
AcDbMText
 10
252.0467511282435
 20
348.3200028236562
 30
0.0
 40
14.0
 41
0.0
 71
     5
 72
     1
  1
109
 11
0.0000000000000001
 21
1.0
 31
0.0
 73
     1
 44
1.0
  0
POINT
  5
12D9
330
1220
100
AcDbEntity
  8
Defpoints
 62
     0
100
AcDbPoint
 10
237.2879269212691
 20
402.7083434286143
 30
0.0
  0
POINT
  5
12DA
330
1220
100
AcDbEntity
  8
Defpoints
 62
     0
100
AcDbPoint
 10
206.6633745398289
 20
293.931662218698
 30
0.0
  0
POINT
  5
12DB
330
1220
100
AcDbEntity
  8
Defpoints
 62
     0
100
AcDbPoint
 10
260.5335207722999
 20
293.931662218698
 30
0.0
  0
ENDBLK
  5
1222
330
1220
100
AcDbEntity
  8
0
100
AcDbBlockEnd
  0
BLOCK
  5
1337
330
1336
100
AcDbEntity
  8
0
100
AcDbBlockBegin
  2
*D52
 70
     1
 10
0.0
 20
0.0
 30
0.0
  3
*D52
  1

  0
LINE
  5
1373
330
1336
100
AcDbEntity
  8
5
370
    -2
100
AcDbLine
 10
73.28792692126912
 20
404.7083434286141
 30
0.0
 11
73.28792692126912
 21
416.7083434286143
 31
0.0
  0
LINE
  5
1374
330
1336
100
AcDbEntity
  8
5
370
    -2
100
AcDbLine
 10
237.2879269212691
 20
404.7083434286141
 30
0.0
 11
237.2879269212691
 21
416.7083434286143
 31
0.0
  0
LINE
  5
1375
330
1336
100
AcDbEntity
  8
5
370
    -2
100
AcDbLine
 10
78.28792692126912
 20
414.7083434286143
 30
0.0
 11
232.2879269212691
 21
414.7083434286143
 31
0.0
  0
SOLID
  5
1376
330
1336
100
AcDbEntity
  8
5
100
AcDbTrace
 10
78.28792692126912
 20
415.5416767619476
 30
0.0
 11
78.28792692126912
 21
413.8750100952808
 31
0.0
 12
73.28792692126912
 22
414.7083434286143
 32
0.0
 13
73.28792692126912
 23
414.7083434286143
 33
0.0
  0
SOLID
  5
1377
330
1336
100
AcDbEntity
  8
5
100
AcDbTrace
 10
232.2879269212691
 20
415.5416767619476
 30
0.0
 11
232.2879269212691
 21
413.8750100952808
 31
0.0
 12
237.2879269212691
 22
414.7083434286143
 32
0.0
 13
237.2879269212691
 23
414.7083434286143
 33
0.0
  0
MTEXT
  5
1378
330
1336
100
AcDbEntity
  8
5
 62
     7
100
AcDbMText
 10
155.2879269212691
 20
423.8861809034296
 30
0.0
 40
14.0
 41
0.0
 71
     5
 72
     1
  1
%%c164
 73
     1
 44
1.0
  0
POINT
  5
1379
330
1336
100
AcDbEntity
  8
Defpoints
 62
     0
100
AcDbPoint
 10
73.28792692126912
 20
402.7083434286143
 30
0.0
  0
POINT
  5
137A
330
1336
100
AcDbEntity
  8
Defpoints
 62
     0
100
AcDbPoint
 10
237.2879269212691
 20
402.7083434286143
 30
0.0
  0
POINT
  5
137B
330
1336
100
AcDbEntity
  8
Defpoints
 62
     0
100
AcDbPoint
 10
237.2879269212691
 20
414.7083434286143
 30
0.0
  0
ENDBLK
  5
1338
330
1336
100
AcDbEntity
  8
0
100
AcDbBlockEnd
  0
ENDSEC
  0
SECTION
  2
ENTITIES
  0
LINE
  5
214
330
6C
100
AcDbEntity
  8
0
100
AcDbLine
 10
211.5068502515048
 20
402.7083434286143
 30
0.0
 11
215.1484310050089
 21
402.7083434286143
 31
0.0
  0
LINE
  5
215
330
6C
100
AcDbEntity
  8
0
100
AcDbLine
 10
152.5879269212693
 20
402.7083434286143
 30
0.0
 11
157.9879269212691
 21
402.7083434286143
 31
0.0
  0
LINE
  5
216
330
6C
100
AcDbEntity
  8
0
100
AcDbLine
 10
95.4274228375292
 20
402.7083434286143
 30
0.0
 11
99.06900359103341
 21
402.7083434286143
 31
0.0
  0
LINE
  5
22F
330
6C
100
AcDbEntity
  8
0
100
AcDbLine
 10
117.7879269212691
 20
284.1599045422356
 30
0.0
 11
192.7879269212691
 21
284.1599045422356
 31
0.0
  0
LINE
  5
230
330
6C
100
AcDbEntity
  8
0
100
AcDbLine
 10
73.28792692126914
 20
401.4583434286143
 30
0.0
 11
237.2879269212691
 21
401.4583434286143
 31
0.0
  0
ARC
  5
231
330
6C
100
AcDbEntity
  8
0
100
AcDbCircle
 10
86.72792692126913
 20
372.75710565316
 30
0.0
 40
2.689999999999998
100
AcDbArc
 50
180.0
 51
256.6026401077059
  0
ARC
  5
232
330
6C
100
AcDbEntity
  8
0
100
AcDbCircle
 10
223.8479269212691
 20
372.75710565316
 30
0.0
 40
2.689999999999998
100
AcDbArc
 50
283.3973598922943
 51
0.0
  0
ARC
  5
233
330
6C
100
AcDbEntity
  8
0
100
AcDbCircle
 10
85.52538794061181
 20
367.7083434286144
 30
0.0
 40
2.5
100
AcDbArc
 50
283.397359892294
 51
76.60264010770659
  0
ARC
  5
234
330
6C
100
AcDbEntity
  8
0
100
AcDbCircle
 10
225.0504659019264
 20
367.7083434286144
 30
0.0
 40
2.5
100
AcDbArc
 50
103.397359892294
 51
256.6026401077059
  0
ARC
  5
235
330
6C
100
AcDbEntity
  8
0
100
AcDbCircle
 10
86.72792692126913
 20
362.6595812040686
 30
0.0
 40
2.689999999999998
100
AcDbArc
 50
103.397359892294
 51
180.0
  0
ARC
  5
236
330
6C
100
AcDbEntity
  8
0
100
AcDbCircle
 10
223.8479269212691
 20
362.6595812040686
 30
0.0
 40
2.689999999999998
100
AcDbArc
 50
0.0
 51
76.60264010770568
  0
LINE
  5
237
330
6C
100
AcDbEntity
  8
0
100
AcDbLine
 10
226.5379269212691
 20
362.6595812040686
 30
0.0
 11
226.5379269212691
 21
312.026232146781
 31
0.0
  0
LINE
  5
238
330
6C
100
AcDbEntity
  8
0
100
AcDbLine
 10
84.03792692126911
 20
362.6595812040686
 30
0.0
 11
84.03792692126911
 21
312.026232146781
 31
0.0
  0
ARC
  5
239
330
6C
100
AcDbEntity
  8
0
100
AcDbCircle
 10
99.03792692126913
 20
312.026232146781
 30
0.0
 40
14.99999999999997
100
AcDbArc
 50
180.0
 51
255.0
  0
ARC
  5
23A
330
6C
100
AcDbEntity
  8
0
100
AcDbCircle
 10
211.5379269212691
 20
312.026232146781
 30
0.0
 40
14.99999999999998
100
AcDbArc
 50
285.0
 51
0.0
  0
LINE
  5
23B
330
6C
100
AcDbEntity
  8
0
100
AcDbLine
 10
100.1312110733817
 20
296.2041448349733
 30
0.0
 11
95.15564124473131
 21
297.537344752445
 31
0.0
  0
LINE
  5
23C
330
6C
100
AcDbEntity
  8
0
100
AcDbLine
 10
210.4446427691565
 20
296.2041448349733
 30
0.0
 11
215.4202125978069
 21
297.537344752445
 31
0.0
  0
ARC
  5
23D
330
6C
100
AcDbEntity
  8
0
100
AcDbCircle
 10
98.0606587125615
 20
288.4767382246608
 30
0.0
 40
8.000000000000165
100
AcDbArc
 50
42.98959228769636
 51
74.99999999999984
  0
ARC
  5
23E
330
6C
100
AcDbEntity
  8
0
100
AcDbCircle
 10
212.5151951299768
 20
288.4767382246608
 30
0.0
 40
8.000000000000165
100
AcDbArc
 50
105.0000000000001
 51
137.0104077123036
  0
ARC
  5
23F
330
6C
100
AcDbEntity
  8
0
100
AcDbCircle
 10
114.8846429092365
 20
304.1596447075177
 30
0.0
 40
15.0
100
AcDbArc
 50
222.9895922876959
 51
269.692141967441
  0
ARC
  5
240
330
6C
100
AcDbEntity
  8
0
100
AcDbCircle
 10
195.6912109333018
 20
304.1596447075177
 30
0.0
 40
15.0
100
AcDbArc
 50
270.3078580325589
 51
317.010407712304
  0
ARC
  5
241
330
6C
100
AcDbEntity
  8
0
100
AcDbCircle
 10
114.7879269212691
 20
286.1599045422357
 30
0.0
 40
3.0
100
AcDbArc
 50
0.0
 51
89.69214196744093
  0
ARC
  5
242
330
6C
100
AcDbEntity
  8
0
100
AcDbCircle
 10
195.7879269212691
 20
286.1599045422357
 30
0.0
 40
3.0
100
AcDbArc
 50
90.30785803255879
 51
180.0
  0
LINE
  5
243
330
6C
100
AcDbEntity
  8
0
100
AcDbLine
 10
192.7879269212691
 20
286.1599045422357
 30
0.0
 11
192.7879269212691
 21
284.1599045422356
 31
0.0
  0
LINE
  5
244
330
6C
100
AcDbEntity
  8
0
100
AcDbLine
 10
117.7879269212691
 20
286.1599045422357
 30
0.0
 11
117.7879269212691
 21
284.1599045422356
 31
0.0
  0
LINE
  5
245
330
6C
100
AcDbEntity
  8
0
100
AcDbLine
 10
237.2879269212691
 20
402.7083434286143
 30
0.0
 11
237.2879269212691
 21
401.4583434286143
 31
0.0
  0
LINE
  5
246
330
6C
100
AcDbEntity
  8
0
100
AcDbLine
 10
73.28792692126912
 20
402.7083434286143
 30
0.0
 11
73.28792692126912
 21
401.4583434286143
 31
0.0
  0
ARC
  5
247
330
6C
100
AcDbEntity
  8
0
100
AcDbCircle
 10
78.03792692126911
 20
395.4583434286143
 30
0.0
 40
6.000000000000023
100
AcDbArc
 50
0.0
 51
90.0
  0
ARC
  5
248
330
6C
100
AcDbEntity
  8
0
100
AcDbCircle
 10
232.5379269212692
 20
395.4583434286143
 30
0.0
 40
6.000000000000023
100
AcDbArc
 50
90.0
 51
180.0
  0
LINE
  5
249
330
6C
100
AcDbEntity
  8
0
100
AcDbLine
 10
226.5379269212691
 20
395.4583434286143
 30
0.0
 11
226.5379269212691
 21
393.0308441807812
 31
0.0
  0
LINE
  5
24A
330
6C
100
AcDbEntity
  8
0
100
AcDbLine
 10
226.5379269212691
 20
390.9458750761551
 30
0.0
 11
226.5379269212691
 21
372.75710565316
 31
0.0
  0
LINE
  5
24B
330
6C
100
AcDbEntity
  8
0
100
AcDbLine
 10
84.03792692126911
 20
395.4583434286143
 30
0.0
 11
84.03792692126911
 21
372.75710565316
 31
0.0
  0
LINE
  5
262
330
6C
100
AcDbEntity
  8
0
100
AcDbLine
 10
192.7879269212691
 20
284.1599045422356
 30
0.0
 11
117.7879269212691
 21
284.1599045422356
 31
0.0
  0
LINE
  5
263
330
6C
100
AcDbEntity
  8
0
100
AcDbLine
 10
190.787926921269
 20
198.1599045422358
 30
0.0
 11
119.787926921269
 21
198.1599045422358
 31
0.0
  0
LINE
  5
264
330
6C
100
AcDbEntity
  8
0
100
AcDbLine
 10
117.7879269212691
 20
238.1599045422357
 30
0.0
 11
117.7879269212691
 21
247.9682532265904
 31
0.0
  0
LINE
  5
265
330
6C
100
AcDbEntity
  8
0
100
AcDbLine
 10
192.787926921269
 20
238.1599045422357
 30
0.0
 11
192.7879269212691
 21
247.9682532265904
 31
0.0
  0
ARC
  5
266
330
6C
100
AcDbEntity
  8
0
100
AcDbCircle
 10
191.7879269212691
 20
247.9682532265904
 30
0.0
 40
0.9999999999999998
100
AcDbArc
 50
0.0
 51
21.6985124898525
  0
ARC
  5
267
330
6C
100
AcDbEntity
  8
0
100
AcDbCircle
 10
118.7879269212691
 20
247.9682532265904
 30
0.0
 40
1.0
100
AcDbArc
 50
158.3014875101475
 51
180.0
  0
LINE
  5
268
330
6C
100
AcDbEntity
  8
0
100
AcDbLine
 10
191.5733558359852
 20
251.2122175668849
 30
0.0
 11
192.7170690918367
 21
248.3379758616465
 31
0.0
  0
LINE
  5
269
330
6C
100
AcDbEntity
  8
0
100
AcDbLine
 10
119.0024980065529
 20
251.2122175668849
 30
0.0
 11
117.8587847507014
 21
248.3379758616464
 31
0.0
  0
ARC
  5
26A
330
6C
100
AcDbEntity
  8
0
100
AcDbCircle
 10
192.0379269212691
 20
251.397078884413
 30
0.0
 40
0.4999999999999984
100
AcDbArc
 50
180.0
 51
201.6985124898463
  0
ARC
  5
26B
330
6C
100
AcDbEntity
  8
0
100
AcDbCircle
 10
118.5379269212691
 20
251.397078884413
 30
0.0
 40
0.4999999999999984
100
AcDbArc
 50
338.3014875101537
 51
0.0
  0
LINE
  5
26C
330
6C
100
AcDbEntity
  8
0
100
AcDbLine
 10
119.0379269212691
 20
251.397078884413
 30
0.0
 11
119.0379269212691
 21
280.5310788844129
 31
0.0
  0
LINE
  5
26D
330
6C
100
AcDbEntity
  8
0
100
AcDbLine
 10
191.537926921269
 20
251.397078884413
 30
0.0
 11
191.5379269212691
 21
280.5310788844129
 31
0.0
  0
ARC
  5
26E
330
6C
100
AcDbEntity
  8
0
100
AcDbCircle
 10
192.0379269212691
 20
280.5310788844129
 30
0.0
 40
0.5
100
AcDbArc
 50
158.3014875101469
 51
180.0
  0
ARC
  5
26F
330
6C
100
AcDbEntity
  8
0
100
AcDbCircle
 10
118.5379269212691
 20
280.5310788844129
 30
0.0
 40
0.5000000000000001
100
AcDbArc
 50
0.0
 51
21.69851248985194
  0
LINE
  5
270
330
6C
100
AcDbEntity
  8
0
100
AcDbLine
 10
119.0024980065529
 20
280.715940201941
 30
0.0
 11
117.8587847507014
 21
283.5901819071795
 31
0.0
  0
LINE
  5
271
330
6C
100
AcDbEntity
  8
0
100
AcDbLine
 10
191.5733558359853
 20
280.715940201941
 30
0.0
 11
192.7170690918368
 21
283.5901819071795
 31
0.0
  0
ARC
  5
272
330
6C
100
AcDbEntity
  8
0
100
AcDbCircle
 10
191.7879269212691
 20
283.9599045422356
 30
0.0
 40
1.0
100
AcDbArc
 50
338.3014875101475
 51
0.0
  0
ARC
  5
273
330
6C
100
AcDbEntity
  8
0
100
AcDbCircle
 10
118.7879269212691
 20
283.9599045422356
 30
0.0
 40
1.0
100
AcDbArc
 50
180.0
 51
201.6985124898522
  0
LINE
  5
274
330
6C
100
AcDbEntity
  8
0
100
AcDbLine
 10
117.7879269212691
 20
283.9599045422356
 30
0.0
 11
117.7879269212691
 21
284.1599045422356
 31
0.0
  0
LINE
  5
275
330
6C
100
AcDbEntity
  8
0
100
AcDbLine
 10
192.7879269212691
 20
283.9599045422356
 30
0.0
 11
192.7879269212691
 21
284.1599045422356
 31
0.0
  0
LINE
  5
278
330
6C
100
AcDbEntity
  8
0
100
AcDbLine
 10
117.787926921269
 20
206.1506161477231
 30
0.0
 11
117.7879269212691
 21
238.1599045422357
 31
0.0
  0
LINE
  5
279
330
6C
100
AcDbEntity
  8
0
100
AcDbLine
 10
192.787926921269
 20
206.1506161477231
 30
0.0
 11
192.787926921269
 21
238.1599045422357
 31
0.0
  0
LINE
  5
27C
330
6C
100
AcDbEntity
  8
0
100
AcDbLine
 10
119.787926921269
 20
198.1599045422358
 30
0.0
 11
117.787926921269
 21
206.1506161477231
 31
0.0
  0
LINE
  5
27D
330
6C
100
AcDbEntity
  8
0
100
AcDbLine
 10
190.787926921269
 20
198.1599045422358
 30
0.0
 11
192.787926921269
 21
206.1506161477231
 31
0.0
  0
LINE
  5
2D5
330
6C
100
AcDbEntity
  8
0
100
AcDbLine
 10
157.9945082741027
 20
402.7083434286143
 30
0.0
 11
157.9879269212691
 21
402.7083434286143
 31
0.0
  0
LINE
  5
2D8
330
6C
100
AcDbEntity
  8
0
100
AcDbLine
 10
152.5879269212691
 20
402.7083434286143
 30
0.0
 11
152.5813455684355
 21
402.7083434286143
 31
0.0
  0
LINE
  5
311
330
6C
100
AcDbEntity
  8
0
100
AcDbLine
 10
99.07373390041151
 20
402.7083434286143
 30
0.0
 11
99.06900359103341
 21
402.7083434286143
 31
0.0
  0
LINE
  5
312
330
6C
100
AcDbEntity
  8
0
100
AcDbLine
 10
95.25062697262603
 20
402.7083434286143
 30
0.0
 11
95.42742283752932
 21
402.7083434286143
 31
0.0
  0
LINE
  5
314
330
6C
100
AcDbEntity
  8
0
100
AcDbLine
 10
95.25062697262603
 20
402.7083434286143
 30
0.0
 11
95.24604984356804
 21
402.7083434286143
 31
0.0
  0
LINE
  5
316
330
6C
100
AcDbEntity
  8
0
100
AcDbLine
 10
215.3298039989702
 20
402.7083434286143
 30
0.0
 11
215.3252268699122
 21
402.7083434286143
 31
0.0
  0
LINE
  5
317
330
6C
100
AcDbEntity
  8
0
100
AcDbLine
 10
215.1484310050089
 20
402.7083434286143
 30
0.0
 11
215.3252268699122
 21
402.7083434286143
 31
0.0
  0
LINE
  5
31A
330
6C
100
AcDbEntity
  8
0
100
AcDbLine
 10
211.5068502515048
 20
402.7083434286143
 30
0.0
 11
211.5021199421267
 21
402.7083434286143
 31
0.0
  0
LINE
  5
346
330
6C
100
AcDbEntity
  8
0
100
AcDbLine
 10
95.24604984356813
 20
402.7083434286143
 30
0.0
 11
73.28792692126912
 21
402.7083434286143
 31
0.0
  0
LINE
  5
347
330
6C
100
AcDbEntity
  8
0
100
AcDbLine
 10
237.0836682461903
 20
402.7083434286143
 30
0.0
 11
215.3298039989702
 21
402.7083434286143
 31
0.0
  0
LINE
  5
348
330
6C
100
AcDbEntity
  8
0
100
AcDbLine
 10
211.5021199421267
 20
402.7083434286143
 30
0.0
 11
157.9945082741027
 21
402.7083434286143
 31
0.0
  0
LINE
  5
349
330
6C
100
AcDbEntity
  8
0
100
AcDbLine
 10
152.5813455684354
 20
402.7083434286143
 30
0.0
 11
99.07373390041144
 21
402.7083434286143
 31
0.0
  0
ARC
  5
355
330
6C
100
AcDbEntity
  8
0
100
AcDbCircle
 10
224.8344376395091
 20
391.9883596284681
 30
0.0
 40
2.0
100
AcDbArc
 50
328.4019362146016
 51
31.59806378539709
  0
LINE
  5
36F
330
6C
100
AcDbEntity
  8
0
100
AcDbLine
 10
235.7673679287644
 20
403.7083434286143
 30
0.0
 11
226.0379269212691
 21
403.7083434286143
 31
0.0
  0
LINE
  5
370
330
6C
100
AcDbEntity
  8
0
100
AcDbLine
 10
243.0379269212691
 20
420.7083434286143
 30
0.0
 11
226.0379269212691
 21
420.7083434286143
 31
0.0
  0
LINE
  5
371
330
6C
100
AcDbEntity
  8
0
100
AcDbLine
 10
242.0379269212691
 20
422.7083434286143
 30
0.0
 11
227.0379269212691
 21
422.7083434286143
 31
0.0
  0
LINE
  5
374
330
6C
100
AcDbEntity
  8
0
100
AcDbLine
 10
226.0379269212691
 20
403.7083434286143
 30
0.0
 11
225.537926921269
 21
402.7083434286143
 31
0.0
  0
LINE
  5
375
330
6C
100
AcDbEntity
  8
0
100
AcDbLine
 10
226.0379269212691
 20
403.7083434286143
 30
0.0
 11
226.0379269212691
 21
407.4372387920631
 31
0.0
  0
LINE
  5
376
330
6C
100
AcDbEntity
  8
0
100
AcDbLine
 10
226.0379269212691
 20
407.6665188680476
 30
0.0
 11
226.0379269212691
 21
420.7083434286143
 31
0.0
  0
LINE
  5
377
330
6C
100
AcDbEntity
  8
0
100
AcDbLine
 10
243.0379269212691
 20
407.1665188680476
 30
0.0
 11
243.0379269212691
 21
420.7083434286143
 31
0.0
  0
LINE
  5
378
330
6C
100
AcDbEntity
  8
0
100
AcDbLine
 10
242.0379269212691
 20
422.7083434286143
 30
0.0
 11
243.0379269212691
 21
420.7083434286143
 31
0.0
  0
LINE
  5
379
330
6C
100
AcDbEntity
  8
0
100
AcDbLine
 10
227.037926921269
 20
422.7083434286143
 30
0.0
 11
226.0379269212691
 21
420.7083434286143
 31
0.0
  0
LINE
  5
37A
330
6C
100
AcDbEntity
  8
0
100
AcDbLine
 10
243.5379269212691
 20
402.7083434286143
 30
0.0
 11
237.0836682461903
 21
402.7083434286143
 31
0.0
  0
LINE
  5
37B
330
6C
100
AcDbEntity
  8
0
100
AcDbLine
 10
243.0379269212691
 20
403.7083434286143
 30
0.0
 11
235.7673679287644
 21
403.7083434286143
 31
0.0
  0
LINE
  5
37C
330
6C
100
AcDbEntity
  8
0
100
AcDbLine
 10
243.0379269212691
 20
403.7083434286143
 30
0.0
 11
243.5379269212691
 21
402.7083434286143
 31
0.0
  0
LINE
  5
37D
330
6C
100
AcDbEntity
  8
0
100
AcDbLine
 10
226.0379269212691
 20
407.4372387920631
 30
0.0
 11
226.0379269212691
 21
407.6665188680476
 31
0.0
  0
LINE
  5
37E
330
6C
100
AcDbEntity
  8
0
100
AcDbLine
 10
243.0379269212691
 20
403.7083434286143
 30
0.0
 11
243.0379269212691
 21
407.1665188680476
 31
0.0
  0
LINE
  5
4BC
330
6C
100
AcDbEntity
  8
7
  6
Continuous
100
AcDbLine
 10
155.287926921269
 20
198.4099045422357
 30
0.0
 11
155.6166663131246
 21
404.3078620912819
 31
0.0
  0
ARC
  5
530
330
6C
100
AcDbEntity
  8
0
100
AcDbCircle
 10
155.263004667514
 20
67.37866882960066
 30
0.0
 40
82.47615998696728
100
AcDbArc
 50
6.457934915346112
 51
353.5420650846539
  0
ARC
  5
531
330
6C
100
AcDbEntity
  8
0
100
AcDbCircle
 10
237.3151351231619
 20
58.09051134630957
 30
0.0
 40
0.1000000000000492
100
AcDbArc
 50
105.9602924617205
 51
173.2485463512954
  0
ARC
  5
532
330
6C
100
AcDbEntity
  8
0
100
AcDbCircle
 10
237.3151351231619
 20
77.5118516299605
 30
0.0
 40
0.1000000000000192
100
AcDbArc
 50
186.7514536487004
 51
254.03970753829
  0
CIRCLE
  5
533
330
6C
100
AcDbEntity
  8
0
100
AcDbCircle
 10
234.5379269212692
 20
67.80118148813963
 30
0.0
 40
9.250000000060254
  0
LINE
  5
539
330
6C
100
AcDbEntity
  8
7
  6
Continuous
100
AcDbLine
 10
155.287926921269
 20
153.551181488133
 30
0.0
 11
155.287926921269
 21
-17.94881851186701
 31
0.0
  0
DIMENSION
  5
53C
330
6C
100
AcDbEntity
  8
5
100
AcDbDimension
  2
*D27
 10
192.787926921269
 20
177.2232651057169
 30
0.0
 11
155.287926921269
 21
177.2232651057169
 31
0.0
 70
   160
  1
%%c<>
 71
     5
 42
75.0
  3
GEN-ISO
100
AcDbAlignedDimension
 13
117.787926921269
 23
207.923836564736
 33
0.0
 14
192.787926921269
 24
207.923836564736
 34
0.0
 50
180.0
100
AcDbRotatedDimension
1001
ACAD
1000
DSTYLE
1002
{
1070
     3
1000

1070
   271
1070
     0
1002
}
1001
ACAD_DSTYLE_DIMINSPECT
1070
   396
1000
100%
1070
   395
1000

1070
   394
1070
    33
1070
   393
1070
     0
  0
CIRCLE
  5
E02
330
6C
100
AcDbEntity
  8
0
100
AcDbCircle
 10
155.287926921269
 20
67.80118148813297
 30
0.0
 40
69.99999999993986
  0
CIRCLE
  5
E03
330
6C
100
AcDbEntity
  8
0
100
AcDbCircle
 10
155.287926921269
 20
67.80118148813297
 30
0.0
 40
66.01253898059718
  0
DIMENSION
  5
11D1
330
6C
100
AcDbEntity
  8
5
100
AcDbDimension
  2
*D49
 10
226.5379269212691
 20
157.7855019123852
 30
0.0
 11
155.2879269212691
 21
157.7855019123852
 31
0.0
 70
   160
  1
%%c142
 71
     5
 42
142.5
  3
GEN-ISO
100
AcDbAlignedDimension
 13
84.03792692126911
 23
312.026232146781
 33
0.0
 14
226.5379269212691
 24
312.026232146781
 34
0.0
 50
0.0000000000001132
100
AcDbRotatedDimension
1001
ACAD
1000
DSTYLE
1002
{
1070
     3
1000

1070
   271
1070
     0
1002
}
1001
ACAD_DSTYLE_DIMINSPECT
1070
   396
1000
100%
1070
   395
1000

1070
   394
1070
    33
1070
   393
1070
     0
  0
DIMENSION
  5
11FD
330
6C
100
AcDbEntity
  8
5
100
AcDbDimension
  2
*D50
 10
285.6188642253455
 20
198.1599045422358
 30
0.0
 11
277.1273934395832
 21
300.4341239854251
 31
0.0
 70
    32
 71
     5
 42
204.5484388863785
  3
GEN-ISO
100
AcDbAlignedDimension
 13
237.2879269212691
 23
402.7083434286143
 33
0.0
 14
190.787926921269
 24
198.1599045422358
 34
0.0
 50
90.00000000000005
100
AcDbRotatedDimension
1001
ACAD_DSTYLE_DIMINSPECT
1070
   396
1000
100%
1070
   395
1000

1070
   394
1070
    33
1070
   393
1070
     0
1001
ACAD
1000
DSTYLE
1002
{
1070
     3
1000

1070
   271
1070
     0
1002
}
  0
DIMENSION
  5
121F
330
6C
100
AcDbEntity
  8
5
100
AcDbDimension
  2
*D51
 10
260.5335207722999
 20
293.931662218698
 30
0.0
 11
252.0467511282435
 21
348.3200028236562
 31
0.0
 70
    32
 71
     5
 42
108.7766812099162
  3
GEN-ISO
100
AcDbAlignedDimension
 13
237.2879269212691
 23
402.7083434286143
 33
0.0
 14
206.6633745398289
 24
293.931662218698
 34
0.0
 50
90.00000000000005
100
AcDbRotatedDimension
1001
ACAD_DSTYLE_DIMINSPECT
1070
   396
1000
100%
1070
   395
1000

1070
   394
1070
    33
1070
   393
1070
     0
1001
ACAD
1000
DSTYLE
1002
{
1070
     3
1000

1070
   271
1070
     0
1002
}
  0
DIMENSION
  5
1335
330
6C
100
AcDbEntity
  8
5
100
AcDbDimension
  2
*D52
 10
237.2879269212691
 20
414.7083434286143
 30
0.0
 11
155.2879269212691
 21
423.8861809034296
 31
0.0
 70
    32
  1
%%c<>
 71
     5
 42
164.0
  3
GEN-ISO
100
AcDbAlignedDimension
 13
73.28792692126912
 23
402.7083434286143
 33
0.0
 14
237.2879269212691
 24
402.7083434286143
 34
0.0
 50
0.0000000000000114
100
AcDbRotatedDimension
1001
ACAD
1000
DSTYLE
1002
{
1070
     3
1000

1070
   271
1070
     0
1002
}
1001
ACAD_DSTYLE_DIMINSPECT
1070
   396
1000
100%
1070
   395
1000

1070
   394
1070
    33
1070
   393
1070
     0
  0
CIRCLE
  5
14AF
330
6C
100
AcDbEntity
  8
0
100
AcDbCircle
 10
155.287926921269
 20
67.80118148813297
 30
0.0
 40
36.2499999999999
  0
CIRCLE
  5
14B0
330
6C
100
AcDbEntity
  8
0
100
AcDbCircle
 10
155.287926921269
 20
67.80118148813297
 30
0.0
 40
35.24999999999987
  0
LINE
  5
16BF
330
6C
100
AcDbEntity
  8
0
100
AcDbLine
 10
206.6633745398289
 20
293.9316622186981
 30
0.0
 11
103.9124793027094
 21
293.9316622186981
 31
0.0
  0
LINE
  5
16C2
330
6C
100
AcDbEntity
  8
0
100
AcDbLine
 10
226.5379269212691
 20
312.026232146781
 30
0.0
 11
84.03792692126916
 21
312.026232146781
 31
0.0
  0
LINE
  5
17CD
330
6C
100
AcDbEntity
  8
7
100
AcDbLine
 10
58.4870530482674
 20
67.801181488133
 30
0.0
 11
258.9246257389862
 21
67.801181488133
 31
0.0
  0
ENDSEC
  0
SECTION
  2
OBJECTS
  0
DICTIONARY
  5
C
330
0
100
AcDbDictionary
281
     1
  3
ACAD_2007HEADERVARS_RT
350
17E5
  3
ACAD_CIP_PREVIOUS_PRODUCT_INFO
350
8DD
  3
ACAD_COLOR
350
63
  3
ACAD_GROUP
350
D
  3
ACAD_LAYOUT
350
62
  3
ACAD_MATERIAL
350
10
  3
ACAD_MLEADERSTYLE
350
66
  3
ACAD_MLINESTYLE
350
5F
  3
ACAD_PLOTSETTINGS
350
61
  3
ACAD_PLOTSTYLENAME
350
E
  3
ACAD_SCALELIST
350
42
  3
ACAD_TABLESTYLE
350
64
  3
ACAD_VISUALSTYLE
350
29
  3
ACDB_RECOMPOSE_DATA
350
17E4
  3
AcDbVariableDictionary
350
913
  3
AcmDictionary
350
97F
  3
AEC_PROPERTY_SET_DEFS
350
FD5
  3
AMG
350
925
  3
AMGSNAPSETTINGS
350
9BF
  0
DICTIONARY
  5
E54
330
2
100
AcDbDictionary
280
     1
281
     1
  3
ACAD_LAYERSTATES
360
E55
  0
DICTIONARY
  5
E4F
330
E4E
100
AcDbDictionary
280
     1
281
     1
  0
DICTIONARY
  5
E51
330
E50
100
AcDbDictionary
280
     1
281
     1
  0
DICTIONARY
  5
17D2
330
C9
100
AcDbDictionary
280
     1
281
     1
  3
ACAD_MTEXT_2008_RT
360
17D3
  0
DICTIONARY
  5
181B
330
12E
100
AcDbDictionary
280
     1
281
     1
  3
ACAD_MTEXT_2008_RT
360
181C
  0
DICTIONARY
  5
181D
330
132
100
AcDbDictionary
280
     1
281
     1
  3
ACAD_MTEXT_2008_RT
360
181E
  0
DICTIONARY
  5
181F
330
136
100
AcDbDictionary
280
     1
281
     1
  3
ACAD_MTEXT_2008_RT
360
1820
  0
DICTIONARY
  5
1821
330
13A
100
AcDbDictionary
280
     1
281
     1
  3
ACAD_MTEXT_2008_RT
360
1822
  0
DICTIONARY
  5
1823
330
13E
100
AcDbDictionary
280
     1
281
     1
  3
ACAD_MTEXT_2008_RT
360
1824
  0
DICTIONARY
  5
1825
330
142
100
AcDbDictionary
280
     1
281
     1
  3
ACAD_MTEXT_2008_RT
360
1826
  0
DICTIONARY
  5
1827
330
146
100
AcDbDictionary
280
     1
281
     1
  3
ACAD_MTEXT_2008_RT
360
1828
  0
DICTIONARY
  5
1829
330
14A
100
AcDbDictionary
280
     1
281
     1
  3
ACAD_MTEXT_2008_RT
360
182A
  0
DICTIONARY
  5
182B
330
152
100
AcDbDictionary
280
     1
281
     1
  3
ACAD_MTEXT_2008_RT
360
182C
  0
DICTIONARY
  5
182D
330
1F0
100
AcDbDictionary
280
     1
281
     1
  3
ACAD_MTEXT_2008_RT
360
182E
  0
DICTIONARY
  5
182F
330
1F4
100
AcDbDictionary
280
     1
281
     1
  3
ACAD_MTEXT_2008_RT
360
1830
  0
DICTIONARY
  5
1831
330
1F9
100
AcDbDictionary
280
     1
281
     1
  3
ACAD_MTEXT_2008_RT
360
1832
  0
DICTIONARY
  5
8E2
330
1FD
100
AcDbDictionary
280
     1
281
     1
  3
ACAD_MLATT
360
17D5
  3
ACAD_XREC_ROUNDTRIP
360
17D4
  0
DICTIONARY
  5
8E5
330
201
100
AcDbDictionary
280
     1
281
     1
  3
ACAD_MLATT
360
17D7
  3
ACAD_XREC_ROUNDTRIP
360
17D6
  0
DICTIONARY
  5
8E8
330
202
100
AcDbDictionary
280
     1
281
     1
  3
ACAD_MLATT
360
17D9
  3
ACAD_XREC_ROUNDTRIP
360
17D8
  0
DICTIONARY
  5
8EB
330
203
100
AcDbDictionary
280
     1
281
     1
  3
ACAD_MLATT
360
17DB
  3
ACAD_XREC_ROUNDTRIP
360
17DA
  0
DICTIONARY
  5
8EE
330
205
100
AcDbDictionary
280
     1
281
     1
  3
ACAD_MLATT
360
17DD
  3
ACAD_XREC_ROUNDTRIP
360
17DC
  0
DICTIONARY
  5
8F1
330
206
100
AcDbDictionary
280
     1
281
     1
  3
ACAD_MLATT
360
17DF
  3
ACAD_XREC_ROUNDTRIP
360
17DE
  0
DICTIONARY
  5
8F4
330
207
100
AcDbDictionary
280
     1
281
     1
  3
ACAD_MLATT
360
17E1
  3
ACAD_XREC_ROUNDTRIP
360
17E0
  0
DICTIONARY
  5
8F7
330
208
100
AcDbDictionary
280
     1
281
     1
  3
ACAD_MLATT
360
17E3
  3
ACAD_XREC_ROUNDTRIP
360
17E2
  0
DICTIONARY
  5
1833
330
458
100
AcDbDictionary
280
     1
281
     1
  3
ACAD_MTEXT_2008_RT
360
1834
  0
DICTIONARY
  5
1835
330
45C
100
AcDbDictionary
280
     1
281
     1
  3
ACAD_MTEXT_2008_RT
360
1836
  0
DICTIONARY
  5
1837
330
460
100
AcDbDictionary
280
     1
281
     1
  3
ACAD_MTEXT_2008_RT
360
1838
  0
DICTIONARY
  5
1839
330
46B
100
AcDbDictionary
280
     1
281
     1
  3
ACAD_MTEXT_2008_RT
360
183A
  0
DICTIONARY
  5
183B
330
487
100
AcDbDictionary
280
     1
281
     1
  3
ACAD_MTEXT_2008_RT
360
183C
  0
DICTIONARY
  5
183D
330
488
100
AcDbDictionary
280
     1
281
     1
  3
ACAD_MTEXT_2008_RT
360
183E
  0
DICTIONARY
  5
183F
330
48C
100
AcDbDictionary
280
     1
281
     1
  3
ACAD_MTEXT_2008_RT
360
1840
  0
DICTIONARY
  5
1841
330
493
100
AcDbDictionary
280
     1
281
     1
  3
ACAD_MTEXT_2008_RT
360
1842
  0
DICTIONARY
  5
1843
330
494
100
AcDbDictionary
280
     1
281
     1
  3
ACAD_MTEXT_2008_RT
360
1844
  0
DICTIONARY
  5
1845
330
497
100
AcDbDictionary
280
     1
281
     1
  3
ACAD_MTEXT_2008_RT
360
1846
  0
DICTIONARY
  5
1847
330
4A6
100
AcDbDictionary
280
     1
281
     1
  3
ACAD_MTEXT_2008_RT
360
1848
  0
DICTIONARY
  5
1849
330
4AD
100
AcDbDictionary
280
     1
281
     1
  3
ACAD_MTEXT_2008_RT
360
184A
  0
DICTIONARY
  5
184B
330
6F5
100
AcDbDictionary
280
     1
281
     1
  3
ACAD_MTEXT_2008_RT
360
184C
  0
DICTIONARY
  5
184D
330
79E
100
AcDbDictionary
280
     1
281
     1
  3
ACAD_MTEXT_2008_RT
360
184E
  0
DICTIONARY
  5
184F
330
8D9
100
AcDbDictionary
280
     1
281
     1
  3
ACAD_MTEXT_2008_RT
360
1850
  0
DICTIONARY
  5
17E5
102
{ACAD_REACTORS
330
C
102
}
330
C
100
AcDbDictionary
281
     1
  3
DIMARCSYM
350
17E6
  3
DIMLTEX1
350
17E8
  3
DIMLTEX2
350
17E9
  3
DIMLTYPE
350
17E7
  0
XRECORD
  5
8DD
102
{ACAD_REACTORS
330
C
102
}
330
C
100
AcDbXrecord
280
     1
300
INVNTOR
300
2012
300
PDSP_F_S
  0
DICTIONARY
  5
63
102
{ACAD_REACTORS
330
C
102
}
330
C
100
AcDbDictionary
281
     1
  0
DICTIONARY
  5
D
102
{ACAD_REACTORS
330
C
102
}
330
C
100
AcDbDictionary
281
     1
  0
DICTIONARY
  5
62
102
{ACAD_REACTORS
330
C
102
}
330
C
100
AcDbDictionary
281
     1
  3
Layout1
350
6B
  3
Layout2
350
73
  3
Model
350
6F
  0
DICTIONARY
  5
10
102
{ACAD_REACTORS
330
C
102
}
330
C
100
AcDbDictionary
281
     1
  3
ByBlock
350
19
  3
ByLayer
350
11
  3
Global
350
21
  0
DICTIONARY
  5
66
102
{ACAD_REACTORS
330
C
102
}
330
C
100
AcDbDictionary
281
     1
  3
Standard
350
67
  0
DICTIONARY
  5
5F
102
{ACAD_REACTORS
330
C
102
}
330
C
100
AcDbDictionary
281
     1
  3
Standard
350
60
  0
DICTIONARY
  5
61
102
{ACAD_REACTORS
330
C
102
}
330
C
100
AcDbDictionary
281
     1
  0
ACDBDICTIONARYWDFLT
  5
E
102
{ACAD_REACTORS
330
C
102
}
330
C
100
AcDbDictionary
281
     1
  3
Normal
350
F
100
AcDbDictionaryWithDefault
340
F
  0
DICTIONARY
  5
42
102
{ACAD_REACTORS
330
C
102
}
330
C
100
AcDbDictionary
281
     1
  3
A0
350
43
  3
A1
350
44
  3
A2
350
45
  3
A3
350
46
  3
A4
350
47
  3
A5
350
48
  3
A6
350
49
  3
A7
350
4A
  3
A8
350
4B
  3
A9
350
4C
  3
B0
350
4D
  3
B1
350
4E
  3
B2
350
4F
  3
B3
350
50
  3
B4
350
51
  3
B5
350
52
  3
B6
350
53
  0
DICTIONARY
  5
64
102
{ACAD_REACTORS
330
C
102
}
330
C
100
AcDbDictionary
281
     1
  3
Standard
350
65
  0
DICTIONARY
  5
29
102
{ACAD_REACTORS
330
C
102
}
330
C
100
AcDbDictionary
281
     1
  3
2dWireframe
350
2F
  3
3D Hidden
350
919
  3
3dWireframe
350
918
  3
Basic
350
2E
  3
Brighten
350
35
  3
ColorChange
350
39
  3
Conceptual
350
32
  3
Dim
350
34
  3
EdgeColorOff
350
41
  3
Facepattern
350
38
  3
Flat
350
2A
  3
FlatWithEdges
350
2B
  3
Gouraud
350
2C
  3
GouraudWithEdges
350
2D
  3
Hidden
350
31
  3
JitterOff
350
3F
  3
Linepattern
350
37
  3
OverhangOff
350
40
  3
Realistic
350
33
  3
Shaded
350
3E
  3
Shaded with edges
350
3D
  3
Shades of Gray
350
3A
  3
Sketchy
350
3B
  3
Thicken
350
36
  3
Wireframe
350
30
  3
X-Ray
350
3C
  0
XRECORD
  5
17E4
102
{ACAD_REACTORS
330
C
102
}
330
C
100
AcDbXrecord
280
     1
 90
        1
330
65
330
C9
330
1FD
330
201
330
202
330
203
330
205
330
206
330
207
330
208
  0
DICTIONARY
  5
913
102
{ACAD_REACTORS
330
C
102
}
330
C
100
AcDbDictionary
281
     1
  3
CANNOSCALE
350
916
  3
CMLEADERSTYLE
350
915
  3
CTABLESTYLE
350
914
  3
LAYEREVAL
350
137E
  3
LAYERNOTIFY
350
137F
  3
LIGHTINGUNITS
350
137D
  3
MSLTSCALE
350
137C
  3
SOLIDHIST
350
1380
  3
XCLIPFRAME
350
17D0
  0
DICTIONARY
  5
97F
102
{ACAD_REACTORS
330
C
102
}
330
C
100
AcDbDictionary
281
     1
  3
AcmStdDictionary
350
989
  0
DICTIONARY
  5
FD5
102
{ACAD_REACTORS
330
C
102
}
330
C
100
AcDbDictionary
281
     1
  0
DICTIONARY
  5
925
102
{ACAD_REACTORS
330
C
102
}
330
C
100
AcDbDictionary
281
     1
  0
DICTIONARY
  5
9BF
102
{ACAD_REACTORS
330
C
102
}
330
C
100
AcDbDictionary
281
     1
  0
DICTIONARY
  5
E55
102
{ACAD_REACTORS
330
E54
102
}
330
E54
100
AcDbDictionary
281
     1
  0
XRECORD
  5
17D3
102
{ACAD_REACTORS
330
17D2
102
}
330
17D2
100
AcDbXrecord
280
     1
 40
2697178.0
  1
\pxsm0.94;WIG Schweisung, Nahte sauber geschliffen und poliert\PSichtstege geschliffen mit 240 Korn und abgeklebt.\P\fTahoma|b0|i0;\H3.0000; \P\fTahoma|b0|i0;\H3.5000;WIG svarovani- svary dle potreby zabrousit.\PPohledove plochy brousit (vel. brusnyc
  1
h zrn 240)\Pa polepit paskou
  0
XRECORD
  5
181C
102
{ACAD_REACTORS
330
181B
102
}
330
181B
100
AcDbXrecord
280
     1
 40
128335.0
  1
Mořit a opláchnout\PBeizen und Pasiviert
  0
XRECORD
  5
181E
102
{ACAD_REACTORS
330
181D
102
}
330
181D
100
AcDbXrecord
280
     1
 40
118263.0
  1
Žlab bez spádu!\PRinne ohne Gefälle!
  0
XRECORD
  5
1820
102
{ACAD_REACTORS
330
181F
102
}
330
181F
100
AcDbXrecord
280
     1
 40
119399.0
  1
Žlab bez spádu!\PChannel without slope!
  0
XRECORD
  5
1822
102
{ACAD_REACTORS
330
1821
102
}
330
1821
100
AcDbXrecord
280
     1
 40
2320136.0
  1
Povrchová úprava/Oberfläche:\PTryskat pouze vnitřek žlabu, včetně pohledových ploch!\PPříruby proti tryskání chránit!\PFlansches per strahlung behütent!
  0
XRECORD
  5
1824
102
{ACAD_REACTORS
330
1823
102
}
330
1823
100
AcDbXrecord
280
     1
 40
4745921.0
  1
Vzdálenost nivelačních šroubu ca. 1500mm.\PVzdálenost kotev ca. 400mm.\PPohledové plochy brousit(vel.brusných zrn 240)\Pa polepit páskou.\P\PDistance of leveling feets ca. 1500 mm.\PDistance of fixing tangs ca. 400 mm.\PVisible surfaces to be grinded
  1
 and covered by protectiv foil.
  0
XRECORD
  5
1826
102
{ACAD_REACTORS
330
1825
102
}
330
1825
100
AcDbXrecord
280
     1
 40
2193518.0
  1
POZOR:\PSpád žlabu je menší než 1% - nebezpečí vzniku prohlubní\Pse stojatou vodou.\PAUTENTION:\PThe gradient of the bottom is minor then 1%.\PThat can be reason of slack water.
  0
XRECORD
  5
1828
102
{ACAD_REACTORS
330
1827
102
}
330
1827
100
AcDbXrecord
280
     1
 40
2672228.0
  1
POZOR:\PSpád žlabu je menší než 1% - nebezpečí vzniku prohlubní\Pse stojatou vodou.\PACHTUNG:\PDas Bodengefälle ist kleiner als 1%. Das Gefahr der\PSenkungsentstehung mit dem stehenden Wasser.
  0
XRECORD
  5
182A
102
{ACAD_REACTORS
330
1829
102
}
330
1829
100
AcDbXrecord
280
     1
 40
275286.0
  1
Kartáčováno + folie\PGeburstet mit abziehbarer Schutzfolie
  0
XRECORD
  5
182C
102
{ACAD_REACTORS
330
182B
102
}
330
182B
100
AcDbXrecord
280
     1
 40
105970.0
  1
Mořit a opláchnout\PPickled and wash
  0
XRECORD
  5
182E
102
{ACAD_REACTORS
330
182D
102
}
330
182D
100
AcDbXrecord
280
     1
 40
209162.0
  1
\fArial|b0|i0;\H2.0000;Geprüft\fTahoma|b0|i0;\H2.0000;/Checked by:
  0
XRECORD
  5
1830
102
{ACAD_REACTORS
330
182F
102
}
330
182F
100
AcDbXrecord
280
     1
 40
239922.0
  1
ACO vpust 142 sestava svis. dvoudílná DN70 12mm priruba bez ZU V2A
  0
XRECORD
  5
1832
102
{ACAD_REACTORS
330
1831
102
}
330
1831
100
AcDbXrecord
280
     1
 40
23258.0
  1
Není k dispozici
  0
XRECORD
  5
17D5
102
{ACAD_REACTORS
330
8E2
102
}
330
8E2
100
AcDbXrecord
280
     1
 70
     4
 70
     0
 70
     0
 40
1.0
  2
ČÍSLO_REVIZE
  1
Embedded Object
 10
292.3880993315334
 20
66.0
 30
0.0
 40
3.499999940395355
 41
34.661232501043
 46
0.0
 71
     1
 72
     5
  1
000
  7
Styl textu9
 73
     1
 44
1.0
  0
XRECORD
  5
17D4
102
{ACAD_REACTORS
330
8E2
102
}
330
8E2
100
AcDbXrecord
280
     1
102
ACAD_MATT_HEIGHT
140
3.499999940395355
  0
XRECORD
  5
17D7
102
{ACAD_REACTORS
330
8E5
102
}
330
8E5
100
AcDbXrecord
280
     1
 70
     4
 70
     0
 70
     0
 40
1.0
  2
Sheet_Size
  1
Embedded Object
 10
294.5873446304243
 20
48.33701147296152
 30
0.0
 40
2.000000029802321
 41
19.44201149373395
 46
0.0
 71
     1
 72
     5
  1
A3
  7
Styl textu40
 73
     1
 44
1.0
  0
XRECORD
  5
17D6
102
{ACAD_REACTORS
330
8E5
102
}
330
8E5
100
AcDbXrecord
280
     1
102
ACAD_MATT_HEIGHT
140
2.000000029802321
  0
XRECORD
  5
17D9
102
{ACAD_REACTORS
330
8E8
102
}
330
8E8
100
AcDbXrecord
280
     1
 70
     4
 70
     0
 70
     0
 40
1.0
  2
PART_NUMBER
  1
Embedded Object
 10
224.5172477361519
 20
66.0
 30
0.0
 40
3.499999940395355
 41
42.57494038810881
 46
0.0
 71
     1
 72
     5
  1
414708
  7
Text poznámky (ISO)
 73
     1
 44
1.0
  0
XRECORD
  5
17D8
102
{ACAD_REACTORS
330
8E8
102
}
330
8E8
100
AcDbXrecord
280
     1
102
ACAD_MATT_HEIGHT
140
3.499999940395355
  0
XRECORD
  5
17DB
102
{ACAD_REACTORS
330
8EB
102
}
330
8EB
100
AcDbXrecord
280
     1
 70
     4
 70
     0
 70
     0
 40
1.0
  2
PROJECT
  1
Embedded Object
 10
118.0
 20
60.0
 30
0.0
 40
3.499999940395355
 41
0.0
 46
0.0
 71
     1
 72
     5
  1

  7
Text poznámky (ISO)
 73
     1
 44
1.0
  0
XRECORD
  5
17DA
102
{ACAD_REACTORS
330
8EB
102
}
330
8EB
100
AcDbXrecord
280
     1
102
ACAD_MATT_HEIGHT
140
3.499999940395355
  0
XRECORD
  5
17DD
102
{ACAD_REACTORS
330
8EE
102
}
330
8EE
100
AcDbXrecord
280
     1
 70
     4
 70
     0
 70
     0
 40
1.0
  2
SKLADOVÉ_ČÍSLO
  1
Embedded Object
 10
118.0
 20
54.89391305489238
 30
0.0
 40
6.99999988079071
 41
153.2966041564941
 46
0.0
 71
     1
 72
     5
  1
414708
  7
Styl textu94
 73
     1
 44
1.0
  0
XRECORD
  5
17DC
102
{ACAD_REACTORS
330
8EE
102
}
330
8EE
100
AcDbXrecord
280
     1
102
ACAD_MATT_HEIGHT
140
6.99999988079071
  0
XRECORD
  5
17DF
102
{ACAD_REACTORS
330
8F1
102
}
330
8F1
100
AcDbXrecord
280
     1
 70
     4
 70
     0
 70
     0
 40
1.0
  2
MATERIAL
  1
Embedded Object
 10
117.5939056808251
 20
108.6756657996811
 30
0.0
 40
3.499999940395355
 41
0.0
 46
0.0
 71
     1
 72
     5
  1

  7
Text poznámky (ISO)
 73
     1
 44
1.0
  0
XRECORD
  5
17DE
102
{ACAD_REACTORS
330
8F1
102
}
330
8F1
100
AcDbXrecord
280
     1
102
ACAD_MATT_HEIGHT
140
3.499999940395355
  0
XRECORD
  5
17E1
102
{ACAD_REACTORS
330
8F4
102
}
330
8F4
100
AcDbXrecord
280
     1
 70
     4
 70
     0
 70
     0
 40
1.0
  2
AUTHOR
  1
Embedded Object
 10
171.2961533440284
 20
87.78242706242744
 30
0.0
 40
2.000000029802321
 41
13.919832764198
 46
0.0
 71
     1
 72
     5
  1
pmacoun
  7
Styl textu40
 73
     1
 44
1.0
  0
XRECORD
  5
17E0
102
{ACAD_REACTORS
330
8F4
102
}
330
8F4
100
AcDbXrecord
280
     1
102
ACAD_MATT_HEIGHT
140
2.000000029802321
  0
XRECORD
  5
17E3
102
{ACAD_REACTORS
330
8F7
102
}
330
8F7
100
AcDbXrecord
280
     1
 70
     4
 70
     0
 70
     0
 40
1.0
  2
FirstViewScale
  1
Embedded Object
 10
189.1855699863978
 20
86.00038821032343
 30
0.0
 40
3.499999940395355
 41
24.15597186978378
 46
0.0
 71
     1
 72
     5
  1

  7
Text poznámky (ISO)
 73
     1
 44
1.0
  0
XRECORD
  5
17E2
102
{ACAD_REACTORS
330
8F7
102
}
330
8F7
100
AcDbXrecord
280
     1
102
ACAD_MATT_HEIGHT
140
3.499999940395355
  0
XRECORD
  5
1834
102
{ACAD_REACTORS
330
1833
102
}
330
1833
100
AcDbXrecord
280
     1
 40
7165.0
  1
KUSOVNÍK
  0
XRECORD
  5
1836
102
{ACAD_REACTORS
330
1835
102
}
330
1835
100
AcDbXrecord
280
     1
 40
6807.0
  1
MATERIÁL
  0
XRECORD
  5
1838
102
{ACAD_REACTORS
330
1837
102
}
330
1837
100
AcDbXrecord
280
     1
 40
29499.0
  1
SKLADOVÉ ČÍS
  0
XRECORD
  5
183A
102
{ACAD_REACTORS
330
1839
102
}
330
1839
100
AcDbXrecord
280
     1
 40
22034.0
  1
návlek sunap-DN70
  0
XRECORD
  5
183C
102
{ACAD_REACTORS
330
183B
102
}
330
183B
100
AcDbXrecord
280
     1
 40
122016.0
  1
ACO vpust 142 svarenec svis. dvoudílná 12mm 
  0
XRECORD
  5
183E
102
{ACAD_REACTORS
330
183D
102
}
330
183D
100
AcDbXrecord
280
     1
 40
27248.0
  1
příruba DN70 V2A
  0
XRECORD
  5
1840
102
{ACAD_REACTORS
330
183F
102
}
330
183F
100
AcDbXrecord
280
     1
 40
4936.0
  1
Papír
  0
XRECORD
  5
1842
102
{ACAD_REACTORS
330
1841
102
}
330
1841
100
AcDbXrecord
280
     1
 40
15392.0
  1
Polykarbonát, 
  0
XRECORD
  5
1844
102
{ACAD_REACTORS
330
1843
102
}
330
1843
100
AcDbXrecord
280
     1
 40
13310.0
  1
kouřový
  0
XRECORD
  5
1846
102
{ACAD_REACTORS
330
1845
102
}
330
1845
100
AcDbXrecord
280
     1
 40
128412.0
  1
ACO vpust 142 kryt plastový 157 pro balení PP 
  0
XRECORD
  5
1848
102
{ACAD_REACTORS
330
1847
102
}
330
1847
100
AcDbXrecord
280
     1
 40
183692.0
  1
Effidrain karton - drenážní pro montáž 142
  0
XRECORD
  5
184A
102
{ACAD_REACTORS
330
1849
102
}
330
1849
100
AcDbXrecord
280
     1
 40
34155.0
  1
ochraná síťka
  0
XRECORD
  5
184C
102
{ACAD_REACTORS
330
184B
102
}
330
184B
100
AcDbXrecord
280
     1
 40
10636.0
  1
\A1;{\U+00D8}142,5
  0
XRECORD
  5
184E
102
{ACAD_REACTORS
330
184D
102
}
330
184D
100
AcDbXrecord
280
     1
 40
5807.0
  1
\A1;\U+2205164
  0
XRECORD
  5
1850
102
{ACAD_REACTORS
330
184F
102
}
330
184F
100
AcDbXrecord
280
     1
 40
31095.0
  1
\A1;113,55{\H5.257800;±1}
  0
XRECORD
  5
17E6
102
{ACAD_REACTORS
330
17E5
102
}
330
17E5
100
AcDbXrecord
280
     1
 70
     1
  0
XRECORD
  5
17E8
102
{ACAD_REACTORS
330
17E5
102
}
330
17E5
100
AcDbXrecord
280
     1
340
5B
  0
XRECORD
  5
17E9
102
{ACAD_REACTORS
330
17E5
102
}
330
17E5
100
AcDbXrecord
280
     1
340
5B
  0
XRECORD
  5
17E7
102
{ACAD_REACTORS
330
17E5
102
}
330
17E5
100
AcDbXrecord
280
     1
340
5B
  0
LAYOUT
  5
6B
102
{ACAD_REACTORS
330
62
102
}
330
62
100
AcDbPlotSettings
  1

  2

  4

  6

 40
0.0
 41
0.0
 42
0.0
 43
0.0
 44
0.0
 45
0.0
 46
0.0
 47
0.0
 48
0.0
 49
0.0
140
0.0
141
0.0
142
1.0
143
1.0
 70
   688
 72
     0
 73
     0
 74
     5
  7

 75
    16
147
1.0
 76
     0
 77
     2
 78
   300
148
0.0
149
0.0
100
AcDbLayout
  1
Layout1
 70
     1
 71
     1
 10
0.0
 20
0.0
 11
630.0
 21
445.5
 12
0.0
 22
0.0
 32
0.0
 14
0.0
 24
0.0
 34
0.0
 15
630.0
 25
445.5
 35
0.0
146
0.0
 13
0.0
 23
0.0
 33
0.0
 16
1.0
 26
0.0
 36
0.0
 17
0.0
 27
1.0
 37
0.0
 76
     0
330
68
  0
LAYOUT
  5
73
102
{ACAD_REACTORS
330
62
102
}
330
62
100
AcDbPlotSettings
  1

  2

  4

  6

 40
0.0
 41
0.0
 42
0.0
 43
0.0
 44
0.0
 45
0.0
 46
0.0
 47
0.0
 48
0.0
 49
0.0
140
0.0
141
0.0
142
1.0
143
1.0
 70
   688
 72
     0
 73
     0
 74
     5
  7

 75
    16
147
1.0
 76
     0
 77
     2
 78
   300
148
0.0
149
0.0
100
AcDbLayout
  1
Layout2
 70
     1
 71
     2
 10
0.0
 20
0.0
 11
12.0
 21
9.0
 12
0.0
 22
0.0
 32
0.0
 14
0.0
 24
0.0
 34
0.0
 15
0.0
 25
0.0
 35
0.0
146
0.0
 13
0.0
 23
0.0
 33
0.0
 16
1.0
 26
0.0
 36
0.0
 17
0.0
 27
1.0
 37
0.0
 76
     0
330
70
  0
LAYOUT
  5
6F
102
{ACAD_REACTORS
330
62
102
}
330
62
100
AcDbPlotSettings
  1

  2

  4

  6

 40
0.0
 41
0.0
 42
0.0
 43
0.0
 44
0.0
 45
0.0
 46
0.0
 47
0.0
 48
0.0
 49
0.0
140
0.0
141
0.0
142
1.0
143
1.0
 70
  1712
 72
     0
 73
     0
 74
     0
  7

 75
     0
147
1.0
 76
     0
 77
     2
 78
   300
148
0.0
149
0.0
100
AcDbLayout
  1
Model
 70
     1
 71
     0
 10
0.0
 20
0.0
 11
12.0
 21
9.0
 12
0.0
 22
0.0
 32
0.0
 14
0.0
 24
0.0
 34
0.0
 15
0.0
 25
0.0
 35
0.0
146
0.0
 13
0.0
 23
0.0
 33
0.0
 16
1.0
 26
0.0
 36
0.0
 17
0.0
 27
1.0
 37
0.0
 76
     0
330
6C
331
57
  0
MATERIAL
  5
19
102
{ACAD_XDICTIONARY
360
1A
102
}
102
{ACAD_REACTORS
330
10
102
}
330
10
100
AcDbMaterial
  1
ByBlock
 72
     0
 43
0.0208333333333333
 43
0.0
 43
0.0
 43
0.0
 43
0.0
 43
0.0208333333333333
 43
0.0
 43
0.0
 43
0.0
 43
0.0
 43
1.0
 43
0.0
 43
0.0
 43
0.0
 43
0.0
 43
1.0
 77
     0
 47
0.0208333333333333
 47
0.0
 47
0.0
 47
0.0
 47
0.0
 47
0.0208333333333333
 47
0.0
 47
0.0
 47
0.0
 47
0.0
 47
1.0
 47
0.0
 47
0.0
 47
0.0
 47
0.0
 47
1.0
171
     0
 49
0.0208333333333333
 49
0.0
 49
0.0
 49
0.0
 49
0.0
 49
0.0208333333333333
 49
0.0
 49
0.0
 49
0.0
 49
0.0
 49
1.0
 49
0.0
 49
0.0
 49
0.0
 49
0.0
 49
1.0
175
     0
142
0.0208333333333333
142
0.0
142
0.0
142
0.0
142
0.0
142
0.0208333333333333
142
0.0
142
0.0
142
0.0
142
0.0
142
1.0
142
0.0
142
0.0
142
0.0
142
0.0
142
1.0
179
     0
144
0.0208333333333333
144
0.0
144
0.0
144
0.0
144
0.0
144
0.0208333333333333
144
0.0
144
0.0
144
0.0
144
0.0
144
1.0
144
0.0
144
0.0
144
0.0
144
0.0
144
1.0
147
0.0208333333333333
147
0.0
147
0.0
147
0.0
147
0.0
147
0.0208333333333333
147
0.0
147
0.0
147
0.0
147
0.0
147
1.0
147
0.0
147
0.0
147
0.0
147
0.0
147
1.0
  0
MATERIAL
  5
11
102
{ACAD_XDICTIONARY
360
12
102
}
102
{ACAD_REACTORS
330
10
102
}
330
10
100
AcDbMaterial
  1
ByLayer
 72
     0
 43
0.0208333333333333
 43
0.0
 43
0.0
 43
0.0
 43
0.0
 43
0.0208333333333333
 43
0.0
 43
0.0
 43
0.0
 43
0.0
 43
1.0
 43
0.0
 43
0.0
 43
0.0
 43
0.0
 43
1.0
 77
     0
 47
0.0208333333333333
 47
0.0
 47
0.0
 47
0.0
 47
0.0
 47
0.0208333333333333
 47
0.0
 47
0.0
 47
0.0
 47
0.0
 47
1.0
 47
0.0
 47
0.0
 47
0.0
 47
0.0
 47
1.0
171
     0
 49
0.0208333333333333
 49
0.0
 49
0.0
 49
0.0
 49
0.0
 49
0.0208333333333333
 49
0.0
 49
0.0
 49
0.0
 49
0.0
 49
1.0
 49
0.0
 49
0.0
 49
0.0
 49
0.0
 49
1.0
175
     0
142
0.0208333333333333
142
0.0
142
0.0
142
0.0
142
0.0
142
0.0208333333333333
142
0.0
142
0.0
142
0.0
142
0.0
142
1.0
142
0.0
142
0.0
142
0.0
142
0.0
142
1.0
179
     0
144
0.0208333333333333
144
0.0
144
0.0
144
0.0
144
0.0
144
0.0208333333333333
144
0.0
144
0.0
144
0.0
144
0.0
144
1.0
144
0.0
144
0.0
144
0.0
144
0.0
144
1.0
147
0.0208333333333333
147
0.0
147
0.0
147
0.0
147
0.0
147
0.0208333333333333
147
0.0
147
0.0
147
0.0
147
0.0
147
1.0
147
0.0
147
0.0
147
0.0
147
0.0
147
1.0
  0
MATERIAL
  5
21
102
{ACAD_XDICTIONARY
360
22
102
}
102
{ACAD_REACTORS
330
10
102
}
330
10
100
AcDbMaterial
  1
Global
 72
     0
 43
0.0208333333333333
 43
0.0
 43
0.0
 43
0.0
 43
0.0
 43
0.0208333333333333
 43
0.0
 43
0.0
 43
0.0
 43
0.0
 43
1.0
 43
0.0
 43
0.0
 43
0.0
 43
0.0
 43
1.0
 77
     0
 47
0.0208333333333333
 47
0.0
 47
0.0
 47
0.0
 47
0.0
 47
0.0208333333333333
 47
0.0
 47
0.0
 47
0.0
 47
0.0
 47
1.0
 47
0.0
 47
0.0
 47
0.0
 47
0.0
 47
1.0
171
     0
 49
0.0208333333333333
 49
0.0
 49
0.0
 49
0.0
 49
0.0
 49
0.0208333333333333
 49
0.0
 49
0.0
 49
0.0
 49
0.0
 49
1.0
 49
0.0
 49
0.0
 49
0.0
 49
0.0
 49
1.0
175
     0
142
0.0208333333333333
142
0.0
142
0.0
142
0.0
142
0.0
142
0.0208333333333333
142
0.0
142
0.0
142
0.0
142
0.0
142
1.0
142
0.0
142
0.0
142
0.0
142
0.0
142
1.0
179
     0
144
0.0208333333333333
144
0.0
144
0.0
144
0.0
144
0.0
144
0.0208333333333333
144
0.0
144
0.0
144
0.0
144
0.0
144
1.0
144
0.0
144
0.0
144
0.0
144
0.0
144
1.0
147
0.0208333333333333
147
0.0
147
0.0
147
0.0
147
0.0
147
0.0208333333333333
147
0.0
147
0.0
147
0.0
147
0.0
147
1.0
147
0.0
147
0.0
147
0.0
147
0.0
147
1.0
  0
MLEADERSTYLE
  5
67
102
{ACAD_XDICTIONARY
360
8DE
102
}
102
{ACAD_REACTORS
330
66
102
}
330
66
100
AcDbMLeaderStyle
170
     2
171
     1
172
     0
 90
        2
 40
0.0
 41
0.0
173
     1
 91
-1056964608
340
5B
 92
       -2
290
     1
 42
0.09
291
     1
 43
0.36
  3
Standard
 44
0.18
300

342
55
174
     1
178
     6
175
     1
176
     0
 93
-1056964608
 45
0.18
292
     0
297
     0
 46
0.18
 94
-1056964608
 47
1.0
 49
1.0
140
1.0
293
     1
141
0.0
294
     1
177
     0
142
1.0
295
     0
296
     0
143
0.125
1001
ACAD_MLEADERVER
1070
     2
  0
MLINESTYLE
  5
60
102
{ACAD_REACTORS
330
5F
102
}
330
5F
100
AcDbMlineStyle
  2
STANDARD
 70
     0
  3

 62
   256
 51
90.0
 52
90.0
 71
     2
 49
0.5
 62
   256
  6
BYLAYER
 49
-0.5
 62
   256
  6
BYLAYER
  0
ACDBPLACEHOLDER
  5
F
102
{ACAD_REACTORS
330
E
102
}
330
E
  0
SCALE
  5
43
102
{ACAD_REACTORS
330
42
102
}
330
42
100
AcDbScale
 70
     0
300
1:1
140
1.0
141
1.0
290
     1
  0
SCALE
  5
44
102
{ACAD_REACTORS
330
42
102
}
330
42
100
AcDbScale
 70
     0
300
1/128" = 1'-0"
140
0.0078125
141
12.0
290
     0
  0
SCALE
  5
45
102
{ACAD_REACTORS
330
42
102
}
330
42
100
AcDbScale
 70
     0
300
1/64" = 1'-0"
140
0.015625
141
12.0
290
     0
  0
SCALE
  5
46
102
{ACAD_REACTORS
330
42
102
}
330
42
100
AcDbScale
 70
     0
300
1/32" = 1'-0"
140
0.03125
141
12.0
290
     0
  0
SCALE
  5
47
102
{ACAD_REACTORS
330
42
102
}
330
42
100
AcDbScale
 70
     0
300
1/16" = 1'-0"
140
0.0625
141
12.0
290
     0
  0
SCALE
  5
48
102
{ACAD_REACTORS
330
42
102
}
330
42
100
AcDbScale
 70
     0
300
3/32" = 1'-0"
140
0.09375
141
12.0
290
     0
  0
SCALE
  5
49
102
{ACAD_REACTORS
330
42
102
}
330
42
100
AcDbScale
 70
     0
300
1/8" = 1'-0"
140
0.125
141
12.0
290
     0
  0
SCALE
  5
4A
102
{ACAD_REACTORS
330
42
102
}
330
42
100
AcDbScale
 70
     0
300
3/16" = 1'-0"
140
0.1875
141
12.0
290
     0
  0
SCALE
  5
4B
102
{ACAD_REACTORS
330
42
102
}
330
42
100
AcDbScale
 70
     0
300
1/4" = 1'-0"
140
0.25
141
12.0
290
     0
  0
SCALE
  5
4C
102
{ACAD_REACTORS
330
42
102
}
330
42
100
AcDbScale
 70
     0
300
3/8" = 1'-0"
140
0.375
141
12.0
290
     0
  0
SCALE
  5
4D
102
{ACAD_REACTORS
330
42
102
}
330
42
100
AcDbScale
 70
     0
300
1/2" = 1'-0"
140
0.5
141
12.0
290
     0
  0
SCALE
  5
4E
102
{ACAD_REACTORS
330
42
102
}
330
42
100
AcDbScale
 70
     0
300
3/4" = 1'-0"
140
0.75
141
12.0
290
     0
  0
SCALE
  5
4F
102
{ACAD_REACTORS
330
42
102
}
330
42
100
AcDbScale
 70
     0
300
1" = 1'-0"
140
1.0
141
12.0
290
     0
  0
SCALE
  5
50
102
{ACAD_REACTORS
330
42
102
}
330
42
100
AcDbScale
 70
     0
300
1-1/2" = 1'-0"
140
1.5
141
12.0
290
     0
  0
SCALE
  5
51
102
{ACAD_REACTORS
330
42
102
}
330
42
100
AcDbScale
 70
     0
300
3" = 1'-0"
140
3.0
141
12.0
290
     0
  0
SCALE
  5
52
102
{ACAD_REACTORS
330
42
102
}
330
42
100
AcDbScale
 70
     0
300
6" = 1'-0"
140
6.0
141
12.0
290
     0
  0
SCALE
  5
53
102
{ACAD_REACTORS
330
42
102
}
330
42
100
AcDbScale
 70
     0
300
1'-0" = 1'-0"
140
12.0
141
12.0
290
     0
  0
TABLESTYLE
  5
65
102
{ACAD_XDICTIONARY
360
1382
102
}
102
{ACAD_REACTORS
330
64
102
}
330
64
100
AcDbTableStyle
  3
Standard
 70
     0
 71
     0
 40
0.06
 41
0.06
280
     0
281
     0
  7
Standard
140
0.18
170
     2
 62
     0
 63
     7
283
     0
274
    -2
284
     1
 64
     0
275
    -2
285
     1
 65
     0
276
    -2
286
     1
 66
     0
277
    -2
287
     1
 67
     0
278
    -2
288
     1
 68
     0
279
    -2
289
     1
 69
     0
  7
Standard
140
0.25
170
     5
 62
     0
 63
     7
283
     0
274
    -2
284
     1
 64
     0
275
    -2
285
     1
 65
     0
276
    -2
286
     1
 66
     0
277
    -2
287
     1
 67
     0
278
    -2
288
     1
 68
     0
279
    -2
289
     1
 69
     0
  7
Standard
140
0.18
170
     5
 62
     0
 63
     7
283
     0
274
    -2
284
     1
 64
     0
275
    -2
285
     1
 65
     0
276
    -2
286
     1
 66
     0
277
    -2
287
     1
 67
     0
278
    -2
288
     1
 68
     0
279
    -2
289
     1
 69
     0
  0
VISUALSTYLE
  5
2F
102
{ACAD_XDICTIONARY
360
17F4
102
}
102
{ACAD_REACTORS
330
29
102
}
330
29
100
AcDbVisualStyle
  2

 70
     4
 71
     0
 72
     2
 73
     0
 90
        0
 40
-0.6
 41
-30.0
 62
     5
 63
     7
421
 16777215
 74
     1
 91
        4
 64
     7
 65
   257
 75
     1
175
     1
 42
1.0
 92
        0
 66
   257
 43
1.0
 76
     1
 77
     6
 78
     2
 67
     7
 79
     5
170
     0
171
     0
290
     0
174
     0
 93
        1
 44
0.0
173
     0
291
     0
 45
0.0
1001
ACAD
1000
AcDbSavedByObjectVersion
1070
     0
  0
VISUALSTYLE
  5
919
102
{ACAD_XDICTIONARY
360
1853
102
}
102
{ACAD_REACTORS
330
29
102
}
330
29
100
AcDbVisualStyle
  2

 70
     6
 71
     1
 72
     2
 73
     2
 90
        0
 40
-0.6
 41
-30.0
 62
     5
 63
     7
421
 16777215
 74
     2
 91
        2
 64
     7
 65
   257
 75
     2
175
     1
 42
179.0
 92
        0
 66
   257
 43
1.0
 76
     1
 77
     6
 78
     2
 67
     7
 79
     3
170
     0
171
     0
290
     0
174
     0
 93
        1
 44
0.0
173
     0
291
     0
 45
0.0
1001
ACAD
1000
AcDbSavedByObjectVersion
1070
     0
  0
VISUALSTYLE
  5
918
102
{ACAD_XDICTIONARY
360
1851
102
}
102
{ACAD_REACTORS
330
29
102
}
330
29
100
AcDbVisualStyle
  2

 70
     5
 71
     0
 72
     2
 73
     0
 90
        0
 40
-0.6
 41
-30.0
 62
     5
 63
     7
421
 16777215
 74
     1
 91
        4
 64
     7
 65
   257
 75
     1
175
     1
 42
1.0
 92
        0
 66
   257
 43
1.0
 76
     1
 77
     6
 78
     2
 67
     7
 79
     5
170
     0
171
     0
290
     0
174
     0
 93
        1
 44
0.0
173
     0
291
     0
 45
0.0
1001
ACAD
1000
AcDbSavedByObjectVersion
1070
     0
  0
VISUALSTYLE
  5
2E
102
{ACAD_XDICTIONARY
360
17F2
102
}
102
{ACAD_REACTORS
330
29
102
}
330
29
100
AcDbVisualStyle
  2

 70
     7
 71
     1
 72
     0
 73
     1
 90
        0
 40
-0.6
 41
-30.0
 62
     5
 63
     7
421
 16777215
 74
     0
 91
        4
 64
     7
 65
   257
 75
     1
175
     1
 42
1.0
 92
        8
 66
     7
 43
1.0
 76
     1
 77
     6
 78
     2
 67
     7
 79
     5
170
     0
171
     0
290
     0
174
     0
 93
        1
 44
0.0
173
     0
291
     1
 45
0.0
1001
ACAD
1000
AcDbSavedByObjectVersion
1070
     0
  0
VISUALSTYLE
  5
35
102
{ACAD_XDICTIONARY
360
1800
102
}
102
{ACAD_REACTORS
330
29
102
}
330
29
100
AcDbVisualStyle
  2

 70
    12
 71
     2
 72
     2
 73
     0
 90
        0
 40
-0.6
 41
-30.0
 62
     5
 63
     7
421
 16777215
 74
     1
 91
        4
 64
     7
 65
   257
 75
     1
175
     1
 42
1.0
 92
        8
 66
     7
 43
1.0
 76
     1
 77
     6
 78
     2
 67
     7
 79
     5
170
     0
171
     0
290
     0
174
     0
 93
        1
 44
50.0
173
     0
291
     1
 45
0.0
1001
ACAD
1000
AcDbSavedByObjectVersion
1070
     0
  0
VISUALSTYLE
  5
39
102
{ACAD_XDICTIONARY
360
1808
102
}
102
{ACAD_REACTORS
330
29
102
}
330
29
100
AcDbVisualStyle
  2

 70
    16
 71
     2
 72
     2
 73
     3
 90
        0
 40
-0.6
 41
-30.0
 62
     5
 63
     8
421
  8421504
 74
     1
 91
        4
 64
     7
 65
   257
 75
     1
175
     1
 42
1.0
 92
        8
 66
     8
424
  8421504
 43
1.0
 76
     1
 77
     6
 78
     2
 67
     7
 79
     5
170
     0
171
     0
290
     0
174
     0
 93
        1
 44
0.0
173
     0
291
     1
 45
0.0
1001
ACAD
1000
AcDbSavedByObjectVersion
1070
     0
  0
VISUALSTYLE
  5
32
102
{ACAD_XDICTIONARY
360
17FA
102
}
102
{ACAD_REACTORS
330
29
102
}
330
29
100
AcDbVisualStyle
  2

 70
     9
 71
     3
 72
     2
 73
     0
 90
        0
 40
-0.6
 41
-30.0
 62
     5
 63
     7
421
 16777215
 74
     2
 91
        2
 64
     7
 65
   257
 75
     1
175
     1
 42
179.0
 92
        8
 66
     7
 43
1.0
 76
     1
 77
     6
 78
     2
 67
     7
 79
     3
170
     0
171
     0
290
     0
174
     0
 93
        1
 44
0.0
173
     0
291
     0
 45
0.0
1001
ACAD
1000
AcDbSavedByObjectVersion
1070
     0
  0
VISUALSTYLE
  5
34
102
{ACAD_XDICTIONARY
360
17FE
102
}
102
{ACAD_REACTORS
330
29
102
}
330
29
100
AcDbVisualStyle
  2

 70
    11
 71
     2
 72
     2
 73
     0
 90
        0
 40
-0.6
 41
-30.0
 62
     5
 63
     7
421
 16777215
 74
     1
 91
        4
 64
     7
 65
   257
 75
     1
175
     1
 42
1.0
 92
        8
 66
     7
 43
1.0
 76
     1
 77
     6
 78
     2
 67
     7
 79
     5
170
     0
171
     0
290
     0
174
     0
 93
        1
 44
-50.0
173
     0
291
     1
 45
0.0
1001
ACAD
1000
AcDbSavedByObjectVersion
1070
     0
  0
VISUALSTYLE
  5
41
102
{ACAD_XDICTIONARY
360
1818
102
}
102
{ACAD_REACTORS
330
29
102
}
330
29
100
AcDbVisualStyle
  2

 70
    22
 71
     2
 72
     2
 73
     0
 90
        0
 40
-0.6
 41
-30.0
 62
     5
 63
     7
421
 16777215
 74
     1
 91
        4
 64
     7
 65
   257
 75
     1
175
     1
 42
1.0
 92
        8
 66
     7
 43
1.0
 76
     1
 77
     6
 78
     2
 67
     7
 79
     5
170
     0
171
     0
290
     0
174
     0
 93
        1
 44
0.0
173
     0
291
     1
 45
0.0
1001
ACAD
1000
AcDbSavedByObjectVersion
1070
     0
  0
VISUALSTYLE
  5
38
102
{ACAD_XDICTIONARY
360
1806
102
}
102
{ACAD_REACTORS
330
29
102
}
330
29
100
AcDbVisualStyle
  2

 70
    15
 71
     2
 72
     2
 73
     0
 90
        0
 40
-0.6
 41
-30.0
 62
     5
 63
     7
421
 16777215
 74
     1
 91
        4
 64
     7
 65
   257
 75
     1
175
     1
 42
1.0
 92
        8
 66
     7
 43
1.0
 76
     1
 77
     6
 78
     2
 67
     7
 79
     5
170
     0
171
     0
290
     0
174
     0
 93
        1
 44
0.0
173
     0
291
     1
 45
0.0
1001
ACAD
1000
AcDbSavedByObjectVersion
1070
     0
  0
VISUALSTYLE
  5
2A
102
{ACAD_XDICTIONARY
360
17EA
102
}
102
{ACAD_REACTORS
330
29
102
}
330
29
100
AcDbVisualStyle
  2

 70
     0
 71
     2
 72
     1
 73
     1
 90
        2
 40
-0.6
 41
30.0
 62
     5
 63
     7
421
 16777215
 74
     0
 91
        0
 64
     7
 65
   257
 75
     1
175
     1
 42
1.0
 92
        8
 66
     7
 43
1.0
 76
     1
 77
     6
 78
     2
 67
     7
 79
     5
170
     0
171
     0
290
     0
174
     0
 93
       13
 44
0.0
173
     0
291
     1
 45
0.0
1001
ACAD
1000
AcDbSavedByObjectVersion
1070
     0
  0
VISUALSTYLE
  5
2B
102
{ACAD_XDICTIONARY
360
17EC
102
}
102
{ACAD_REACTORS
330
29
102
}
330
29
100
AcDbVisualStyle
  2

 70
     1
 71
     2
 72
     1
 73
     1
 90
        2
 40
-0.6
 41
30.0
 62
     5
 63
     7
421
 16777215
 74
     1
 91
        0
 64
     7
 65
   257
 75
     1
175
     1
 42
1.0
 92
        0
 66
   257
 43
1.0
 76
     1
 77
     6
 78
     2
 67
     7
 79
     5
170
     0
171
     0
290
     0
174
     0
 93
       13
 44
0.0
173
     0
291
     1
 45
0.0
1001
ACAD
1000
AcDbSavedByObjectVersion
1070
     0
  0
VISUALSTYLE
  5
2C
102
{ACAD_XDICTIONARY
360
17EE
102
}
102
{ACAD_REACTORS
330
29
102
}
330
29
100
AcDbVisualStyle
  2

 70
     2
 71
     2
 72
     2
 73
     1
 90
        2
 40
-0.6
 41
30.0
 62
     5
 63
     7
421
 16777215
 74
     0
 91
        0
 64
     7
 65
   257
 75
     1
175
     1
 42
1.0
 92
        0
 66
     7
 43
1.0
 76
     1
 77
     6
 78
     2
 67
     7
 79
     5
170
     0
171
     0
290
     0
174
     0
 93
       13
 44
0.0
173
     0
291
     1
 45
0.0
1001
ACAD
1000
AcDbSavedByObjectVersion
1070
     0
  0
VISUALSTYLE
  5
2D
102
{ACAD_XDICTIONARY
360
17F0
102
}
102
{ACAD_REACTORS
330
29
102
}
330
29
100
AcDbVisualStyle
  2

 70
     3
 71
     2
 72
     2
 73
     1
 90
        2
 40
-0.6
 41
30.0
 62
     5
 63
     7
421
 16777215
 74
     1
 91
        0
 64
     7
 65
   257
 75
     1
175
     1
 42
1.0
 92
        0
 66
   257
 43
1.0
 76
     1
 77
     6
 78
     2
 67
     7
 79
     5
170
     0
171
     0
290
     0
174
     0
 93
       13
 44
0.0
173
     0
291
     1
 45
0.0
1001
ACAD
1000
AcDbSavedByObjectVersion
1070
     0
  0
VISUALSTYLE
  5
31
102
{ACAD_XDICTIONARY
360
17F8
102
}
102
{ACAD_REACTORS
330
29
102
}
330
29
100
AcDbVisualStyle
  2

 70
     6
 71
     1
 72
     2
 73
     2
 90
        0
 40
-0.6
 41
-30.0
 62
     5
 63
     7
421
 16777215
 74
     2
 91
        2
 64
     7
 65
   257
 75
     2
175
     1
 42
40.0
 92
        0
 66
   257
 43
1.0
 76
     1
 77
     6
 78
     2
 67
     7
 79
     3
170
     0
171
     0
290
     0
174
     0
 93
        1
 44
0.0
173
     0
291
     0
 45
0.0
1001
ACAD
1000
AcDbSavedByObjectVersion
1070
     0
  0
VISUALSTYLE
  5
3F
102
{ACAD_XDICTIONARY
360
1814
102
}
102
{ACAD_REACTORS
330
29
102
}
330
29
100
AcDbVisualStyle
  2

 70
    20
 71
     2
 72
     2
 73
     0
 90
        0
 40
-0.6
 41
-30.0
 62
     5
 63
     7
421
 16777215
 74
     1
 91
        4
 64
     7
 65
   257
 75
     1
175
     1
 42
1.0
 92
       10
 66
     7
 43
1.0
 76
     1
 77
     6
 78
     2
 67
     7
 79
     5
170
     0
171
     0
290
     0
174
     0
 93
        1
 44
0.0
173
     0
291
     1
 45
0.0
1001
ACAD
1000
AcDbSavedByObjectVersion
1070
     0
  0
VISUALSTYLE
  5
37
102
{ACAD_XDICTIONARY
360
1804
102
}
102
{ACAD_REACTORS
330
29
102
}
330
29
100
AcDbVisualStyle
  2

 70
    14
 71
     2
 72
     2
 73
     0
 90
        0
 40
-0.6
 41
-30.0
 62
     5
 63
     7
421
 16777215
 74
     1
 91
        4
 64
     7
 65
   257
 75
     7
175
     7
 42
1.0
 92
        8
 66
     7
 43
1.0
 76
     1
 77
     6
 78
     2
 67
     7
 79
     5
170
     0
171
     0
290
     0
174
     0
 93
        1
 44
0.0
173
     0
291
     1
 45
0.0
1001
ACAD
1000
AcDbSavedByObjectVersion
1070
     0
  0
VISUALSTYLE
  5
40
102
{ACAD_XDICTIONARY
360
1816
102
}
102
{ACAD_REACTORS
330
29
102
}
330
29
100
AcDbVisualStyle
  2

 70
    21
 71
     2
 72
     2
 73
     0
 90
        0
 40
-0.6
 41
-30.0
 62
     5
 63
     7
421
 16777215
 74
     1
 91
        4
 64
     7
 65
   257
 75
     1
175
     1
 42
1.0
 92
        9
 66
     7
 43
1.0
 76
     1
 77
     6
 78
     2
 67
     7
 79
     5
170
     0
171
     0
290
     0
174
     0
 93
        1
 44
0.0
173
     0
291
     1
 45
0.0
1001
ACAD
1000
AcDbSavedByObjectVersion
1070
     0
  0
VISUALSTYLE
  5
33
102
{ACAD_XDICTIONARY
360
17FC
102
}
102
{ACAD_REACTORS
330
29
102
}
330
29
100
AcDbVisualStyle
  2

 70
     8
 71
     2
 72
     3
 73
     0
 90
        2
 40
-0.6
 41
30.0
 62
     5
 63
     7
421
 16777215
 74
     0
 91
        0
 64
     7
 65
   257
 75
     1
175
     1
 42
1.0
 92
        8
 66
   257
 43
1.0
 76
     1
 77
     6
 78
     2
 67
     7
 79
     3
170
     0
171
     0
290
     0
174
     0
 93
       13
 44
0.0
173
     0
291
     0
 45
0.0
1001
ACAD
1000
AcDbSavedByObjectVersion
1070
     0
  0
VISUALSTYLE
  5
3E
102
{ACAD_XDICTIONARY
360
1812
102
}
102
{ACAD_REACTORS
330
29
102
}
330
29
100
AcDbVisualStyle
  2

 70
    27
 71
     2
 72
     2
 73
     1
 90
        2
 40
-0.6
 41
30.0
 62
     5
 63
     7
421
 16777215
 74
     0
 91
        4
 64
     7
 65
   257
 75
     1
175
     1
 42
1.0
 92
        8
 66
   257
 43
1.0
 76
     1
 77
     6
 78
     2
 67
     8
425
  7895160
 79
     3
170
     0
171
     0
290
     0
174
     0
 93
        5
 44
0.0
173
     0
291
     0
 45
0.0
1001
ACAD
1000
AcDbSavedByObjectVersion
1070
     0
  0
VISUALSTYLE
  5
3D
102
{ACAD_XDICTIONARY
360
1810
102
}
102
{ACAD_REACTORS
330
29
102
}
330
29
100
AcDbVisualStyle
  2

 70
    26
 71
     2
 72
     2
 73
     1
 90
        2
 40
-0.6
 41
30.0
 62
     5
 63
     7
421
 16777215
 74
     1
 91
       10
 64
     7
 65
   257
 75
     2
175
     1
 42
1.0
 92
        8
 66
   257
 43
1.0
 76
     1
 77
     6
 78
     2
 67
     7
 79
     3
170
     0
171
     0
290
     0
174
     0
 93
        5
 44
0.0
173
     0
291
     0
 45
0.0
1001
ACAD
1000
AcDbSavedByObjectVersion
1070
     0
  0
VISUALSTYLE
  5
3A
102
{ACAD_XDICTIONARY
360
180A
102
}
102
{ACAD_REACTORS
330
29
102
}
330
29
100
AcDbVisualStyle
  2

 70
    23
 71
     2
 72
     2
 73
     3
 90
        0
 40
-0.6
 41
-30.0
 62
     5
 63
     7
421
 16777215
 74
     2
 91
        2
 64
     7
 65
     7
 75
     1
175
     1
 42
40.0
 92
        8
 66
     7
 43
1.0
 76
     1
 77
     6
 78
     2
 67
     7
 79
     3
170
     0
171
     0
290
     0
174
     0
 93
        1
 44
0.0
173
     0
291
     0
 45
0.0
1001
ACAD
1000
AcDbSavedByObjectVersion
1070
     0
  0
VISUALSTYLE
  5
3B
102
{ACAD_XDICTIONARY
360
180C
102
}
102
{ACAD_REACTORS
330
29
102
}
330
29
100
AcDbVisualStyle
  2

 70
    24
 71
     1
 72
     2
 73
     2
 90
        0
 40
-0.6
 41
-30.0
 62
     5
 63
     7
421
 16777215
 74
     2
 91
        2
 64
     7
 65
     7
 75
     1
175
     1
 42
40.0
 92
       11
 66
     7
 43
1.0
 76
     1
 77
     6
 78
     2
 67
     7
 79
     6
170
     0
171
     0
290
     0
174
     0
 93
        1
 44
0.0
173
     0
291
     0
 45
0.0
1001
ACAD
1000
AcDbSavedByObjectVersion
1070
     0
  0
VISUALSTYLE
  5
36
102
{ACAD_XDICTIONARY
360
1802
102
}
102
{ACAD_REACTORS
330
29
102
}
330
29
100
AcDbVisualStyle
  2

 70
    13
 71
     2
 72
     2
 73
     0
 90
        0
 40
-0.6
 41
-30.0
 62
     5
 63
     7
421
 16777215
 74
     1
 91
        4
 64
     7
 65
   257
 75
     1
175
     1
 42
1.0
 92
       12
 66
     7
 43
1.0
 76
     1
 77
     6
 78
     2
 67
     7
 79
     5
170
     0
171
     0
290
     0
174
     0
 93
        1
 44
0.0
173
     0
291
     1
 45
0.0
1001
ACAD
1000
AcDbSavedByObjectVersion
1070
     0
  0
VISUALSTYLE
  5
30
102
{ACAD_XDICTIONARY
360
17F6
102
}
102
{ACAD_REACTORS
330
29
102
}
330
29
100
AcDbVisualStyle
  2

 70
     5
 71
     0
 72
     2
 73
     0
 90
        0
 40
-0.6
 41
-30.0
 62
     5
 63
     7
421
 16777215
 74
     1
 91
        4
 64
     7
 65
   257
 75
     1
175
     1
 42
1.0
 92
        0
 66
   257
 43
1.0
 76
     1
 77
     6
 78
     2
 67
     7
 79
     3
170
     0
171
     0
290
     0
174
     0
 93
        1
 44
0.0
173
     0
291
     0
 45
0.0
1001
ACAD
1000
AcDbSavedByObjectVersion
1070
     0
  0
VISUALSTYLE
  5
3C
102
{ACAD_XDICTIONARY
360
180E
102
}
102
{ACAD_REACTORS
330
29
102
}
330
29
100
AcDbVisualStyle
  2

 70
    25
 71
     2
 72
     2
 73
     1
 90
        1
 40
0.5
 41
-30.0
 62
     5
 63
     7
421
 16777215
 74
     1
 91
        0
 64
     7
 65
   257
 75
     1
175
     1
 42
1.0
 92
        8
 66
     7
 43
1.0
 76
     1
 77
     6
 78
     2
 67
     7
 79
     3
170
     0
171
     0
290
     0
174
     0
 93
       13
 44
0.0
173
     0
291
     0
 45
0.0
1001
ACAD
1000
AcDbSavedByObjectVersion
1070
     0
  0
DICTIONARYVAR
  5
916
102
{ACAD_REACTORS
330
913
102
}
330
913
100
DictionaryVariables
280
     0
  1
1:1
  0
DICTIONARYVAR
  5
915
102
{ACAD_REACTORS
330
913
102
}
330
913
100
DictionaryVariables
280
     0
  1
STANDARD
  0
DICTIONARYVAR
  5
914
102
{ACAD_REACTORS
330
913
102
}
330
913
100
DictionaryVariables
280
     0
  1
STANDARD
  0
DICTIONARYVAR
  5
137E
102
{ACAD_REACTORS
330
913
102
}
330
913
100
DictionaryVariables
280
     0
  1
0
  0
DICTIONARYVAR
  5
137F
102
{ACAD_REACTORS
330
913
102
}
330
913
100
DictionaryVariables
280
     0
  1
0
  0
DICTIONARYVAR
  5
137D
102
{ACAD_REACTORS
330
913
102
}
330
913
100
DictionaryVariables
280
     0
  1
2
  0
DICTIONARYVAR
  5
137C
102
{ACAD_REACTORS
330
913
102
}
330
913
100
DictionaryVariables
280
     0
  1
1
  0
DICTIONARYVAR
  5
1380
102
{ACAD_REACTORS
330
913
102
}
330
913
100
DictionaryVariables
280
     0
  1
0
  0
DICTIONARYVAR
  5
17D0
102
{ACAD_REACTORS
330
913
102
}
330
913
100
DictionaryVariables
280
     0
  1
2
  0
DICTIONARY
  5
989
102
{ACAD_REACTORS
330
97F
102
}
330
97F
100
AcDbDictionary
281
     1
  0
DICTIONARY
  5
1A
330
19
100
AcDbDictionary
280
     1
281
     1
  3
ACAD_XREC_ROUNDTRIP
360
1398
  3
BUMPTILE
360
1C
  3
DIFFUSETILE
360
1B
  3
OPACITYTILE
360
1F
  3
REFLECTIONTILE
360
1E
  3
REFRACTIONTILE
360
20
  3
SPECULARTILE
360
1D
  0
DICTIONARY
  5
12
330
11
100
AcDbDictionary
280
     1
281
     1
  3
ACAD_XREC_ROUNDTRIP
360
1397
  3
BUMPTILE
360
14
  3
DIFFUSETILE
360
13
  3
FBXASSET
360
9C
  3
OPACITYTILE
360
17
  3
REFLECTIONTILE
360
16
  3
REFRACTIONTILE
360
18
  3
SPECULARTILE
360
15
  0
DICTIONARY
  5
22
330
21
100
AcDbDictionary
280
     1
281
     1
  3
ACAD_XREC_ROUNDTRIP
360
1399
  3
BUMPTILE
360
24
  3
DIFFUSETILE
360
23
  3
OPACITYTILE
360
27
  3
REFLECTIONTILE
360
26
  3
REFRACTIONTILE
360
28
  3
SPECULARTILE
360
25
  0
DICTIONARY
  5
8DE
330
67
100
AcDbDictionary
280
     1
281
     1
  3
ACAD_XREC_ROUNDTRIP
360
8DF
  0
DICTIONARY
  5
1382
330
65
100
AcDbDictionary
280
     1
281
     1
  3
ACAD_ROUNDTRIP_2008_TABLESTYLE_CELLSTYLEMAP
360
17D1
  3
ACAD_XREC_ROUNDTRIP
360
181A
  0
DICTIONARY
  5
17F4
330
2F
100
AcDbDictionary
280
     1
281
     1
  3
ACAD_XREC_ROUNDTRIP
360
17F5
  0
DICTIONARY
  5
1853
330
919
100
AcDbDictionary
280
     1
281
     1
  3
ACAD_XREC_ROUNDTRIP
360
1854
  0
DICTIONARY
  5
1851
330
918
100
AcDbDictionary
280
     1
281
     1
  3
ACAD_XREC_ROUNDTRIP
360
1852
  0
DICTIONARY
  5
17F2
330
2E
100
AcDbDictionary
280
     1
281
     1
  3
ACAD_XREC_ROUNDTRIP
360
17F3
  0
DICTIONARY
  5
1800
330
35
100
AcDbDictionary
280
     1
281
     1
  3
ACAD_XREC_ROUNDTRIP
360
1801
  0
DICTIONARY
  5
1808
330
39
100
AcDbDictionary
280
     1
281
     1
  3
ACAD_XREC_ROUNDTRIP
360
1809
  0
DICTIONARY
  5
17FA
330
32
100
AcDbDictionary
280
     1
281
     1
  3
ACAD_XREC_ROUNDTRIP
360
17FB
  0
DICTIONARY
  5
17FE
330
34
100
AcDbDictionary
280
     1
281
     1
  3
ACAD_XREC_ROUNDTRIP
360
17FF
  0
DICTIONARY
  5
1818
330
41
100
AcDbDictionary
280
     1
281
     1
  3
ACAD_XREC_ROUNDTRIP
360
1819
  0
DICTIONARY
  5
1806
330
38
100
AcDbDictionary
280
     1
281
     1
  3
ACAD_XREC_ROUNDTRIP
360
1807
  0
DICTIONARY
  5
17EA
330
2A
100
AcDbDictionary
280
     1
281
     1
  3
ACAD_XREC_ROUNDTRIP
360
17EB
  0
DICTIONARY
  5
17EC
330
2B
100
AcDbDictionary
280
     1
281
     1
  3
ACAD_XREC_ROUNDTRIP
360
17ED
  0
DICTIONARY
  5
17EE
330
2C
100
AcDbDictionary
280
     1
281
     1
  3
ACAD_XREC_ROUNDTRIP
360
17EF
  0
DICTIONARY
  5
17F0
330
2D
100
AcDbDictionary
280
     1
281
     1
  3
ACAD_XREC_ROUNDTRIP
360
17F1
  0
DICTIONARY
  5
17F8
330
31
100
AcDbDictionary
280
     1
281
     1
  3
ACAD_XREC_ROUNDTRIP
360
17F9
  0
DICTIONARY
  5
1814
330
3F
100
AcDbDictionary
280
     1
281
     1
  3
ACAD_XREC_ROUNDTRIP
360
1815
  0
DICTIONARY
  5
1804
330
37
100
AcDbDictionary
280
     1
281
     1
  3
ACAD_XREC_ROUNDTRIP
360
1805
  0
DICTIONARY
  5
1816
330
40
100
AcDbDictionary
280
     1
281
     1
  3
ACAD_XREC_ROUNDTRIP
360
1817
  0
DICTIONARY
  5
17FC
330
33
100
AcDbDictionary
280
     1
281
     1
  3
ACAD_XREC_ROUNDTRIP
360
17FD
  0
DICTIONARY
  5
1812
330
3E
100
AcDbDictionary
280
     1
281
     1
  3
ACAD_XREC_ROUNDTRIP
360
1813
  0
DICTIONARY
  5
1810
330
3D
100
AcDbDictionary
280
     1
281
     1
  3
ACAD_XREC_ROUNDTRIP
360
1811
  0
DICTIONARY
  5
180A
330
3A
100
AcDbDictionary
280
     1
281
     1
  3
ACAD_XREC_ROUNDTRIP
360
180B
  0
DICTIONARY
  5
180C
330
3B
100
AcDbDictionary
280
     1
281
     1
  3
ACAD_XREC_ROUNDTRIP
360
180D
  0
DICTIONARY
  5
1802
330
36
100
AcDbDictionary
280
     1
281
     1
  3
ACAD_XREC_ROUNDTRIP
360
1803
  0
DICTIONARY
  5
17F6
330
30
100
AcDbDictionary
280
     1
281
     1
  3
ACAD_XREC_ROUNDTRIP
360
17F7
  0
DICTIONARY
  5
180E
330
3C
100
AcDbDictionary
280
     1
281
     1
  3
ACAD_XREC_ROUNDTRIP
360
180F
  0
XRECORD
  5
1398
102
{ACAD_REACTORS
330
1A
102
}
330
1A
100
AcDbXrecord
280
     1
102
MATERIAL
148
0.0
149
0.0
149
0.0
 93
        0
 94
      127
282
     0
 72
     0
 77
     0
171
     0
175
     0
179
     0
273
     0
  0
XRECORD
  5
1C
102
{ACAD_REACTORS
330
1A
102
}
330
1A
100
AcDbXrecord
280
     1
270
     1
271
     1
  0
XRECORD
  5
1B
102
{ACAD_REACTORS
330
1A
102
}
330
1A
100
AcDbXrecord
280
     1
270
     1
271
     1
  0
XRECORD
  5
1F
102
{ACAD_REACTORS
330
1A
102
}
330
1A
100
AcDbXrecord
280
     1
270
     1
271
     1
  0
XRECORD
  5
1E
102
{ACAD_REACTORS
330
1A
102
}
330
1A
100
AcDbXrecord
280
     1
270
     1
271
     1
  0
XRECORD
  5
20
102
{ACAD_REACTORS
330
1A
102
}
330
1A
100
AcDbXrecord
280
     1
270
     1
271
     1
  0
XRECORD
  5
1D
102
{ACAD_REACTORS
330
1A
102
}
330
1A
100
AcDbXrecord
280
     1
270
     1
271
     1
  0
XRECORD
  5
1397
102
{ACAD_REACTORS
330
12
102
}
330
12
100
AcDbXrecord
280
     1
102
MATERIAL
148
0.0
149
0.0
149
0.0
 93
        0
 94
      127
282
     0
 72
     0
 77
     0
171
     0
175
     0
179
     0
273
     0
  0
XRECORD
  5
14
102
{ACAD_REACTORS
330
12
102
}
330
12
100
AcDbXrecord
280
     1
270
     1
271
     1
  0
XRECORD
  5
13
102
{ACAD_REACTORS
330
12
102
}
330
12
100
AcDbXrecord
280
     1
270
     1
271
     1
  0
XRECORD
  5
9C
102
{ACAD_REACTORS
330
12
102
}
330
12
100
AcDbXrecord
280
     1
 70
     1
 90
1959938040
 71
     1
  1
EFF0A1CA-B2DB-4624-ACF5-36CECE05263B
311
504B03040A00000800007B51DA403DEE336E79000000790000001B0000006175746F6465736B2D64657369676E2D7061636B6167652E786D6C3C3F786D6C2076657273696F6E3D22312E302220656E636F64696E673D227574662D3822203F3E3C666F726D6174733E3C666F726D61743E687474703A2F2F736368656D612E
311
6175746F6465736B2E636F6D2F64657369676E2D7061636B6167652F323030393C2F666F726D61743E3C2F666F726D6174733E504B03041400060808007B51DA40D486FD9CA0000000F4000000130000005B436F6E74656E745F54797065735D2E786D6C7D8EC10E82300C865F65E91D8A1E8C310C0EEA1BF002731658846E
311
D98AC1B77784ABF1D8FE5FBFBF75BBCE937A534CCEB38643598122B6FEE978D0B0485F9C41B54DDD7D022595594E1A469170414C76A4D9A4D207E29CF43ECE46F218070CC6BECC4078ACAA135ACF422C856C0E68EA1BF5669944DDD7BCDE7B1F8E415D77AECB980613C2E4AC91FC167A2B244592486606FC29C8FD7F045B9A
311
EF7053A7E60B504B03041400060808007B51DA408868C77FEB0000007C01000008000000636F72652E786D6C8D904D6EC3201085AF82665B6183FF125998284EEA13F40208888B128365A0CAF18313476A775DCDE8CDFB66468F1DEED30DFDE8C51B673BA01901A4AD74CAD8B183182E780FE8C0D9E25CF8650364C5A43B58
311
65E06C5C5C9C37493A1BB40D49B54EE94D14DEEB0048DE52D38197DF7A1299882139FC359B85BC8A5167F4DD253846A3D0EB8851699FB918BD001FFAF39E92B2C67D437A5C7D1E2BDCD3E380CFA7D3500E55B92B871DCB5798B360A6F77DB96811B4025E105A60D2E0A2F9A2A4A5B4ADEB0F425B4258BEDAFF407156FF84A2
311
B1A12CB6775F98074ED323CF0167F99A452ACFA0525D73E30F504B03041400060808007B51DA4055019EA25F0000007C00000007000000636E782E786D6C4DCB3B0E80201045D1AD90E915ED2CF8AC45050C11660C8261F98AB1B07AC9C97D42D718D865D3E909258CFD00CCE24AC6E326A164D74DC0B4128928FF32603847
311
2BA13128B1252AC747C6BAB984FC68F0B87FE8960A5C09FE86CFB69FBA01504B03041400060808007B51DA403D98D71868010000020300000C0000006662782F636F72652E786D6C8D52ED8E8320107C15C2DF8B026A3FD2204D6DCF27B817A04A3D53058360FAF8B77E34BD5E2E4D6382646667777694EF6F6D830665FBDA
311
E814B39062A47461CA5A5729F6EE126C31DA0B6E8D71BFCA30D2B255291E612C78658DEF16A830DA29ED00D5A6540B28FB5E398C8A062E29EE8B6FD5CA507A0715FD35EC647195950A590834D409DE3B0B06D03C643CB1B89C6F9CCCB8E0DED7E5C2D6254CAB2FB5B258E4D969CB68BC0AB235CD82E4F39004193BE4C1E978
311
CCE33C893771BEE164140BEEEAF6EEAEB04A3A556211511605741D44EB2F46778CED56AB0FCA76947232963F897C57BE29F2B57671B4D89D653D160C8C4CC49F6D2122877A39801F2238194384D794F073D0100884ECE4B9B9EF7105685085333601A634FE410DB2F10AA652343D9CCC2C749E1AC066FFF6895EF479DD033E
311
A0D41558930EAE67EFC6E97C9EBA44D1291B0CEE86B4B1AD6C1EE6668B8FF331E85F79611A63DF51936555B28449C6BF57FC00504B03041400060808007B51DA407415735F7D0000009D0000000B0000006662782F636E782E786D6C4DCCD10AC2201805E05791FFDEE6DAD2027524E67B8CE686E4344CA3C7CFC52EBA3A9C
311
8FC3E1C367F5E86DD3CBC520A03D104036DCE3E4C222A0E4199F010D92A718F3DF0C5018572B6063907C49B13C779AEC3C169FAB7A171E3BAA4EB71D3B114C8D66B8A73DC31766AEB59AA356E44649A7A091BCF93DD5DC8EE517504B03041400060808007B51DA400073844A2B01000015020000310000006662782F423344
311
31333735302D364644372D343634372D393746412D3646463244423045363033422F636F72652E786D6C8D515B6EC32010BC0AE22B55651BFCC04D84891AA539412F406CE2A2C460F1A872FC2EB523B57FF9616198991DEDF2FD7DBAA16FE5BCB6A6C334271829D3DB419BB1C3315CB2378CF6823B6BC31F1A46464EAAC309
311
C6828FCEC679857A6B823201506307B582D27B1530EA6F70E9B0EFBFD42473190330FC359F657F95A3CA690EDFC013DC070701D0D2249D581CAA23ADDA8664EC746CB39AD56DB66D4FEFF03C95C703F960A43AF062110A1EA31E56B91E208EBE68E59E354962C1839E1EF17BA76450031625A165465856B24F4A7694EE9AE6
311
95D01D21BC48F47FA2380F4F8AA236A12AD7B88BCC634179B17C083ED878BE3DC2A8FB6C5D40A9DFC6ABFE050B9213D2B484B65BD02C5C980098B27A35F5C13A98F0E67A063A6D1667560B5EA42541F9DD20D4B450F103504B03041400060808007B51DA40E0BCD8EF4E01000033030000300000006662782F423344313337
311
35302D364644372D343634372D393746412D3646463244423045363033422F636E782E786D6CD593CD6E022114855F85B06DE607AB93C6309874D127E8A25B84AB521998F0D3D4B7EF45D1BA71D165376472EEE19C9B2F0CDF7C4F967C4188C6BB91B2B6A7049CF2DAB8FD4873DA352F946C040FDEA73B1B254E4E30D22253
311
C1F7C1E7B94A1A7632DB84AA35EE58C500D1E7A020A25C6E12EB95B41800AEC928C2B405AD41939B11BF7610701514B727920E40DE5E3F88DF7E824A91772545F0AE74085ECEDA7467A2445919E348A33AC0245B9993D7108FAD9649B6ACBD763DD8E93789940BD7CA1C0C29E5232D271575A31639F20E8782C714905E35A5
311
D30C54C879B646C98490BBB3F1E2113C1B978665F51A041FD0CD86E7E512C3CE33C19399A03A5400994053B1E8D9A2E9876631BCB37ECDD87AB57AEAD9BAEF7957EC826FBDB7F512C640F03351DE2570890AC6BB327E84AFFA88360159FB70FA034804505B2F746E19FF994F777EDF882BE05F207E00504B03041400060808
311
007B51DA40717C5FDF9A0500007B100000340000006662782F42334431333735302D364644372D343634372D393746412D3646463244423045363033422F6F626A656374732E786D6CAD575B8F9B3814FE2B887D0E842433DB593154B94CAAA83B6DD5A8D53E8C1419308C77CC45B699C9ECAFDFCF6008A4C934BBEA0B6063
311
1F9FF39DEF5CECBFDF67DC7AA642B222BFB53D676C5B348F8A98E5E9AD5DA964F4CEB6DE07BE280AD55B665B39C9E8ADADA7EDC04F455195662AA609A9B83A9A5D2FFEB26444736A5B112752DEDA327AA4197148A58A98CA2727268A3869B2773CA75938149B0A523E1E092D89A0B982A698CF21C56A94F286C3B1ED06BEAB
311
FF07BE7E9A55D3F3ABDCDA9EE1F92C978AE4D10F871D89997AB3D5DDE4EA6674359B4D47B3EB89375AAC17AB91F7FB74BCBC5E2E6FE6773738582A0149461341133BF8006C048B7CB7F915F815CBD57462961807B9823E33ED293B98589EEF366B3AEB8C91A7D48F8A3CA7518D15D0A8ED33A2635AD23C86CF1995D0AC87D0
311
7838F4348EBDDF533D3647F6A72F43A0BFA327A8D5BD7DF7352DC2BF6182BC84414252CDC0064B6368C3D5F101E1B028B8F9C7A49511450523DCE22C1444BCDA0196EA25813F10A3992C7434680BEC005E687E0FE98230FA39CF4F6999549C6B1ADB411D053BC40A55B2D68CFD43C541FB3E32D009BED26C78670C52AF25B5
311
839B8622EF8ED8D40069259CA47039CCD43BA7932343973A4E372B3BF8B80EF75B1DBBA70F2F455152A1347D40ADD671ED5BA36474F22EF29CDE601FA97200E52B90FF84503FA802BF09B69FED67E61425482E934264F08D35B646633CC696573FF577EFCB77BBCD43EF9DC313CED650FD023C8736F47DD98333F09F41F842
311
4C8D69DB8870A48D7B9603204D128B1798421E4EC2BD1D6C90E59095B18BF0C083C950F7199FBE6BC42051D427F5DE39B03C4A8B172468C05633126A34E4370A1EFCF4433AAB0F36CBCEC17BF54BE83A5F6D3F6E2B919088DE9B985ED184E54CA1C41D78D3576880F9C0A227FAFA52881886FE88F7B68F77668E92405B63AE
311
814FDB9CAE078793070744D897163ADDF83F390146E8C2DA937FCF64443927392DAAF6DC37EB07CA4603B10E76CDE4AEC01C0A0B48D3FC398A4114E948B05283D855AB2E693A67ACFBB6F90446DAC1E2F54FF2DACF5EE121F746052FC42E7CDD3569E924D4DF87DC3618B85A0AE85E07491BFF06F45DCC92A49248822770FD
311
BE59F67DA7D30252442BB5899619EC4770116148DBCA45B5160495B4C8770C75137177F280BE7C406A18500B3CA7B1A43CD931CEAB6C97308E6AB4CB4879068EFFAF7F5865E58E644595AB33B207AAA33A0C751FB057BE10153DDAC1B67E8F16C8BD318DCF9041D79213580D5C7BB75E8FE7DE723E5A4C560BDD3FCD46F3E5
311
FA6A34BD5EDE2DEFC65793EBE9A2F553A349E0B7A5A61FD1F0124A9B5F0966DCF76D83F83149C00EEE89920F1F9AF06CDFDF360E7A61DFC51ED4CB6EE33C7E46DF47E39F0B38AC3C296893959C66345744C7D0BDFEE05F09FA8C8132CDFC262329BD40CAE70FDB23633073C1BE2F3ADEE9CBD15E33BBD4017952887AACB230
311
278C1F6D4C1B249D324F0D7EAD4FBA775368DAA11E19C7A03395056731F2606CA5B4C8A84236BCA008898C4A50AFDFD3C7E6EE71C1EEE7A6435424E4B4D5E491A049E61261016A55911ACE5BBFA1A9D37DD5AD8D72EB3CE16132856D8133B7369A74C5222A9D10055AB742B57070A9DFC9A3F12779CAD16B379BBA71B74B63
311
3328C9DD924BFA27635793C28D01482325FA063444F04EAD4CE0D7BA99FFD17F32BC55C7220A9F61A53A5B0E139D31F53108D1C628735B4013F3648EDE2350DF36CB73EA3503442EBA65BD498246EA481191D63705AD9F5169BEFAE2A243B1369FAD9257297C79B9A491A02073A5031C2C022B8CCC92285075F9C7C31751E0
311
269B596B060A3C2C8B2C2B7233989B9BB0B57DC4BD367E405AA0FA42221F26636FF2505F04CCDD641712491D12CB274CC0A78275100F1C0F4636B74554A0E647B7CED54E38E2E66665999236835043947E56D5B0A0E5C8A985E8D197491D2BFD05E59B7701B75E0A1504BAF8E05F504B03041400060800007B51DA40000000
311
000000000000000000350000006662782F42334431333735302D364644372D343634372D393746412D3646463244423045363033422F76657274696365732E62696E504B03041400060808007B51DA40F270F1330600000004000000360000006662782F42334431333735302D364644372D343634372D393746412D364646
311
3244423045363033422F747269616E676C65732E62696E636660600000504B03041400060800007B51DA40000000000000000000000000370000006662782F42334431333735302D364644372D343634372D393746412D3646463244423045363033422F617474726962757465732E62696E504B03041400060808007B51DA
311
40D5987DFC8F00000041010000360000006662782F42334431333735302D364644372D343634372D393746412D3646463244423045363033422F6469726563746F72792E786D6C858F410EC2201045AF4266AF15DDB800BA74E7C21B903225242D6328188F2FA5C4183471359997F9FF81E89FF3C41E1816475E02DF1F80A1
311
1FC8386F25A438EECEC07A250251FC3803E6F58C12560C4AD840E95E91C151A72936F496F35732D860FE635F62C8F2DA16B505C545B74125BAA2FA9E05D7CC053D063734D5C7665FD55B6B8D15D5E9BFEAFD8490FFA45E504B03041400060808007B51DA409BC3E9E7FD000000A00100003B0000006662782F423344313337
311
35302D364644372D343634372D393746412D3646463244423045363033422F7265736F75726365732F636F72652E786D6C8D50596E833010BD0A9ADFCA600359848CA3909413F4029699102BC1465EAA1EBF2650A9FDEBCFCCE82D9AA7C74F5FD333FB44E7B5352DB09C428646D9419BB185186EE408D94970676DF82583CC
311
C8095B5860107C7436CE1BA4AC096842428D1D7003A5F7182053CF74B4E0D51D2799CB1892C23FF259AA871C316779A2934E701F5C0A90AD4F9609C2A1B7D129F4BC5859C163D4C3A6D143FAA96F1A1D88BEBB1E19AD6AD2ED6947EAF773BAD8B927D7CBA5AFFABA3A54FD81178B59F0A0A79F8CCAA10C388028292B09DD93
311
72FFC168C358B3DBBD51D650CA8B45FEC714E7E19FA6A84DA8CA2DEE6AF320580AF222042F96BED27A9599F6D2ADF806504B010214000A00000800007B51DA403DEE336E79000000790000001B00000000000000000000000000000000006175746F6465736B2D64657369676E2D7061636B6167652E786D6C504B01021400
311
1400060808007B51DA40D486FD9CA0000000F40000001300000000000000000000000000B20000005B436F6E74656E745F54797065735D2E786D6C504B010214001400060808007B51DA408868C77FEB0000007C010000080000000000000000000000000083010000636F72652E786D6C504B010214001400060808007B51
311
DA4055019EA25F0000007C000000070000000000000000000000000094020000636E782E786D6C504B010214001400060808007B51DA403D98D71868010000020300000C00000000000000000000000000180300006662782F636F72652E786D6C504B010214001400060808007B51DA407415735F7D0000009D0000000B00
311
000000000000000000000000AA0400006662782F636E782E786D6C504B010214001400060808007B51DA400073844A2B010000150200003100000000000000000000000000500500006662782F42334431333735302D364644372D343634372D393746412D3646463244423045363033422F636F72652E786D6C504B010214
311
001400060808007B51DA40E0BCD8EF4E010000330300003000000000000000000000000000CA0600006662782F42334431333735302D364644372D343634372D393746412D3646463244423045363033422F636E782E786D6C504B010214001400060808007B51DA40717C5FDF9A0500007B10000034000000000000000000
311
00000000660800006662782F42334431333735302D364644372D343634372D393746412D3646463244423045363033422F6F626A656374732E786D6C504B010214001400060800007B51DA400000000000000000000000003500000000000000000000000000520E00006662782F42334431333735302D364644372D343634
311
372D393746412D3646463244423045363033422F76657274696365732E62696E504B010214001400060808007B51DA40F270F13306000000040000003600000000000000000000000000A50E00006662782F42334431333735302D364644372D343634372D393746412D3646463244423045363033422F747269616E676C65
311
732E62696E504B010214001400060800007B51DA400000000000000000000000003700000000000000000000000000FF0E00006662782F42334431333735302D364644372D343634372D393746412D3646463244423045363033422F617474726962757465732E62696E504B010214001400060808007B51DA40D5987DFC8F
311
000000410100003600000000000000000000000000540F00006662782F42334431333735302D364644372D343634372D393746412D3646463244423045363033422F6469726563746F72792E786D6C504B010214001400060808007B51DA409BC3E9E7FD000000A00100003B00000000000000000000000000371000006662
311
782F42334431333735302D364644372D343634372D393746412D3646463244423045363033422F7265736F75726365732F636F72652E786D6C504B0506000000000E000E00800400008D1100000000
310
504B03040A00000800007B51DA403DEE336E79000000790000001B0000006175746F6465736B2D64657369676E2D7061636B6167652E786D6C3C3F786D6C2076657273696F6E3D22312E302220656E636F64696E673D227574662D3822203F3E3C666F726D6174733E3C666F726D61743E687474703A2F2F736368656D612E
310
6175746F6465736B2E636F6D2F64657369676E2D7061636B6167652F323030393C2F666F726D61743E3C2F666F726D6174733E504B03041400060808007B51DA40D486FD9CA0000000F4000000130000005B436F6E74656E745F54797065735D2E786D6C7D8EC10E82300C865F65E91D8A1E8C310C0EEA1BF002731658846E
310
D98AC1B77784ABF1D8FE5FBFBF75BBCE937A534CCEB38643598122B6FEE978D0B0485F9C41B54DDD7D022595594E1A469170414C76A4D9A4D207E29CF43ECE46F218070CC6BECC4078ACAA135ACF422C856C0E68EA1BF5669944DDD7BCDE7B1F8E415D77AECB980613C2E4AC91FC167A2B244592486606FC29C8FD7F045B9A
310
EF7053A7E60B504B03041400060808007B51DA4053E56D04EA0000007C01000008000000636F72652E786D6C8D90416EC3201045AF82665B61831D3BB185891A7C845E0001715162B00C543D7E71E248EDAEAB19FDF96F66F4D9F97BBEA32FB306EBDD00B420808C535E5B370D90E2159F009D395BBD8FBF6C809C9CCD009B
310
0C9C4DAB4FCB2E29EFA27131ABCE6BB38B32041301A97B6E0608EAD3CCB290296647B8158B5437399982BEBA0CA764357A1EB13AEFB3576B56E0A23D12DAD1161FDF6B810F15A971371E04BE8C17211AD1B52732B27283398B767EDD57AB91D168E015A115262DAEDA0F4A7A4AFBA67923B42784959BFD0F9416FD4F285917
310
EB6A7FF78905E0343FF21870566E59E4F2082AD72D37FE03504B03041400060808007B51DA4055019EA25F0000007C00000007000000636E782E786D6C4DCB3B0E80201045D1AD90E915ED2CF8AC45050C11660C8261F98AB1B07AC9C97D42D718D865D3E909258CFD00CCE24AC6E326A164D74DC0B4128928FF326038472B
310
A13128B1252AC747C6BAB984FC68F0B87FE8960A5C09FE86CFB69FBA01504B03041400060808007B51DA4059AF8C7B66010000020300000C0000006662782F636F72652E786D6C8D52ED8E8230107C95A67F2FD016154F536A4E7C847B810A956B84969496F8F8B77C18CE8B3186A434333BBBB303FC706B6AD42BD7696B32
310
CC628A9132852DB5A9321CFC25FAC4E820B8B3D6FF29C3C8C846657880B1E095B3A19DA1C21AAF8C07D4D852CDA0EC3AE5312A6AB864B82B7E542363193C5474D7B895C555562A6631D0502778E71D1840D390E1C4E272BE7132E18287A0CB99D5254CD317AD1C1679BAA56CC7D268FBB5CAA3754257D1EEB4CEA3E3E998E7
310
9B7C977ED21327835870AF9BBBBBC229E9558945425912D1344AD26F46F78CED379B0FCAF6947232943F88425BBE290ADAF85532DB9D641D160C8C8CC4BF6D21228F3AD9831F2238194284D798F063D0100884ECE5B9BEEF7105A85785B76E0D4C69C342F5B20E0AA652343E9C4C2C741E1BC0664FFB242FFABCEE011F509A
310
0AAC490FD773F0C3743E4D9DA368958B7A7F43C6BA46D68BB9C9E2722E839ECA0B5B5BF78E9ACCAB92394C32FCBDE217504B03041400060808007B51DA40709E64A57E0000009D0000000B0000006662782F636E782E786D6C4DCCD10A83201886E15B91FFDC95A199A0C66AEE3E625948A6C3E5D8E5AF46073BFAE0E1E395
310
ED67F5E86DD3CBC5A0805C4A40363CE2E8C2AC206F136E00B55AA618B7BF1BA030AC56C1C1A0E59C627E9E34DA69C87EDBD5BBB09C683A226E9C322C4C6D30AD18C55746282E7BDE54B5E87A6EEE506859FC4AFB1E61FD05504B03041400060808007B51DA40F442EB132C01000015020000310000006662782F4542313944
310
3734352D394536452D343235342D413531342D3043373832363942433745462F636F72652E786D6C8D515B6EC32010BC0AE22B55651B1C8C93081335A97B825EC00192A2C460F1A872FC42ED48ED5F7E58343B333BDA65FBFB7803DFCA796D4D07718920504658A9CDA583319C8B0D047BCE9CB5E10F0D02338CAA8319869C
310
5D9C8DD302096B823221A1C64AB58083F72A40206EE9D3412FBED43894430C89E1AFE53488EB7051252E533BF138F3C1A500601E925FC8FB03DEBEB7A429B63DED0B5237A4786B3029D0B1DDD4747B38B6FD07AB662167316AB9C8B54C71F4592BF7AC49167316F4F8882F9C1A829290D708D705A2454D3F31DA61BC6B9A57
310
847708B12AD3FF89E2249F14456DC2BA5EE2CE320F3966D5DCE04CDA78BA3DC2A8FB645D0079DECA2BF102392A11A22D452D21AC9AB96903C99492C5D407EBD28657D753A2AF17674A38ABF29152F9BD60AAF9A0FC07504B03041400060808007B51DA40861B17F85601000033030000300000006662782F45423139443734
310
352D394536452D343235342D413531342D3043373832363942433745462F636E782E786D6CBD93CD6EC32010845F0571ADFC839358518489D4439FA0875E096C521A0C16E0AA79FB2E094973C9A152D50BB2668799D527CCB75FA3259F10A2F16EA0AC6E2901A7BC36EE30D039EDAB35255BC183F7E9CE468993230C34CB54
310
F043F0F354240D7B39DB84AA35EE58C400D1CF41414439DF24D62B6931005C35A308E30EB4064D6E46FCDA43C05550DC9D487A07F2F2FC46FCEE03548ABCC9298237B943F07C96A63B1325CACA18071AD53B8CB29673F21AE2B1D632C99AD5D7AE073BFD24917CE15A39074372F940F34945D9A8468EBCC1A1E03105A4574C
310
E9340115729AAC513221E4E66CBC78049F8D4BFDB2780D820FE85E74FD7A8D61E799E0C98C501C2A804CA0A9E85AD6556D5F75FD2B6B378C6D56ABA7966DDA9637D92EF8CE7B5B2E610C043F11E55D0297A860BCC9E347F88A8F681390B50FA75F804400A5F542E796F1977C58BF582EFF914F737EDF882BE05F20BE01504B
310
03041400060808007B51DA40AFA0492E59070000941B0000340000006662782F45423139443734352D394536452D343235342D413531342D3043373832363942433745462F6F626A656374732E786D6CED595B73A33614FE2B0C7D3636B6936E3A849DC4B98CA7CDEECEBABBD307CF3032C8448D108C2492B8BFBE47173010
310
93E06EFAB60F3620A4A373BE73D521F8F89C51E71173417276EEFADEC475308BF384B0F4DC2DE576F4C1753E8601CF73D998E63A0C65F8DC55C36E18A43C2F0B3B94E02D2AA9EC8CDE5CFEE5881833EC3A3145429CBB22BEC719F25029F3048B072F411279E9F6D9F33D33B14D36E5A8B8EF102D10C74C02A730CE808A6398
310
F2DB8F13771C0663F53E0CD4BF9D351B346BDE3F6BACA56E7349989088C52F58EA90990D6269E6CFAFAEA72767A393F97C369A9F4EFDD1E5CDE5D5C8FF7536599C2E166717D767C0DE26CFA99529C1056609E86FE7867E30566F6AD12D0287B88E73C670AC8104A8B4585D82040BD8AA01DFA4FDE82B891AAFB5848DE7B97A
310
6F59680CCFDA54FA660D03A2451704B1DB551257D7A67CF9E66F105C0C314A2EB0046E85E4A05D0B0F07AF70C3493036A361B0D9EB82082743127382A843C986230E4A81A96A4A189805968C720E0EA41C2581D69C79DDB62DF0CCB75DE71097DB9252E5196EA81D2B02F7C35268CEC83F98EFB96F22033C81B42561F283E5
310
52EE0AEC8667C1580F8681BACCA6F6A501D2D952940A8D8879DB1174A15C7F79E586BFDF6C9E572A1C1CDEBCE07981B95446A7F4A8F90243B6578592DDD61FA439B5008431A0DA957B50BE02F29F207AEC5901BD71F23C7F9EDBB9922326B639CF4037CEC4194DE06FE2F8FA5FDD37EE8271BDB8ADBD3E3CC14D15541F7E1C
310
CFB60C1A2BCB7F03CE30780483CFF9CCBE5AC588823DDF110600292371680E4310DAB79B67375C42E084400FAB100D7D1019D87D84DB606CC9ECB552B997F53A0688DA3D66439404B0698B04367AF4740BD9839378AFA6A6887DF09EBC8BB95E5CAD7E5F957C8B627C677DFA0A6F092312B2E661865A98B7247AC0BBA79C27
310
20E84BBC574DBC33BB9500B415E60AF8B402413DEC776E6D10C3BA3457E1267863071042E5EA06FD3B22624C2962382FAB7DEBE8A60CB5F6785B33B8E1D4403C9B764C98E347A2AA0A709AFD8C16A390F7634E0A05A21BDE1AC9EAA0E9F548F76DF9092CB29EDF336BC920F43244FFD441EB000E2DCBAE90B640D4026FF6E1
310
3CCE69CEA3CD2E3291CE855A02D8687BCBF7165188F546498A0A7890F6BB2AA4A446DA2821DB6D2920AE1E60F1FB72D134878937F34F9CE67FC719E7106DC17711B77ED7D92322194A71B44549DF76CDDD6ADA4293EC21CDF196825CE491C85D84643449707A0C3447113F7B57EA29CD85200C0BC85707C16FA231F1209018
310
6D562C2BAD76802622CAB044F4180414991E7075DAD1356E0CA5C3DB3CD6D6FB9AC69A44FF278BE0086AC99C45044A51C8216F32EE7B271043DAE81A943BF882B555B4B518B4841222DE454F98A4F7F218D40DF91EDC6338929432CA0B1483590F20FBC25794523BBC6F50FCA0F2471497F4BD0C4460BA8D08A56516C18F30
310
38790C71ED3A30BD8A4283B8897D126750942159F2219B9C9E4C5EEC636A866E086C6CB42514C27694A1A207F55640D4F58853836FA9F7287553664584B2BC64830CC59B75BDC992EFAA55911DC8AF2A15A16CAC085B82614098ACB36A15B3C1D475600537D2816A17099415D49CC2DE483C7EED4D9A72EF06DCFAE9FB6E90
310
41E1D7A3BD66449D5730581E5B8581784232BE77C395BE8E2EA1FE4E70B24FF555ADD9AC00013115C94B4EAC8ABE2DA1BCB1359A1BDE2129D6B726EB56D76F4B0FBA1FC118D640ED522F5C2AA033CC245295C99DBAA15F1184E0160D33BE5439F5182A1749A2AB46446F489F3A5B65446BD38C78C53D6679063FB6262CA665
310
82D728110FD19DA4D18A28D6AD945E462A8C5F15F0F3EDAA030F8C0C10E98B2AF0F05367AD1D5DA872E92011795F661B860804C19668A9D18D57B0D46AA4D2727D55670AA8BBC0C0AC8AE73F4F16CD76C4CF93456A0DE3874E1697BB3FD0AED91769A4F358D9F551C7803A3F292AEF710CD06D879A6A9D454C32B7F25B678A
310
202856517E703556050D43B08FE3FF9CB5FBB2A0D9AEC3FF7159DB7F51711C95555A935597EA40E5BA6CE6B0EB9B9BC985BFB8185D4EAF2E5583763EBA58DC9C8C66A78BEBC5F5E4647A3ABBACD1D48E1A067530D3B90B9E4D50AB86D593C500BAB222A72481D37CE2A41862BE8433FD80F639CFB080E4D96C7627B6293F60
310
F5A3E9734AB4A1B8E2E41E4183980A48EB805119CBF6B8F30BB426251CB4CF5D681A790FF067ADD27520F39CBBD02A9024C6C2DB409B4935F4347148B93AF75B62800F62A94A896651FD5CAF52D8B4C27F3D65481AB072B57A1850B815D0FD6A7528346F96A7F828C12B761C24E176534AA8D68C2CFB815A18BDCD5EFD4636
310
4AD883DDFA195CF775B17C4FCF692132E893C1AB4660A88E24E2A9EE772BC62C4B17575FC6D06773969F9D829629E87238A511C760CCA52AA8C08AC02A2CCD024930D5C56FEB2F3C874F3C99A3ABA2F522CFB29CD9870B388F25F089C859DDC3079F640D6503566D75B19E4EFCE95AB7B36D873DDA20813D550FC140554628
310
113AC60616F9A235651B9763A584CEF4E59563C327B4018C05BDE8EE9ACF5B0E788FFA90A27C457B7825E7AB1DEDB19E0AD6C0A1171DFE0B504B03041400060800007B51DA40000000000000000000000000350000006662782F45423139443734352D394536452D343235342D413531342D3043373832363942433745462F
310
76657274696365732E62696E504B03041400060808007B51DA40F270F1330600000004000000360000006662782F45423139443734352D394536452D343235342D413531342D3043373832363942433745462F747269616E676C65732E62696E636660600000504B03041400060800007B51DA400000000000000000000000
310
00370000006662782F45423139443734352D394536452D343235342D413531342D3043373832363942433745462F617474726962757465732E62696E504B03041400060808007B51DA40D5987DFC8F00000041010000360000006662782F45423139443734352D394536452D343235342D413531342D304337383236394243
310
3745462F6469726563746F72792E786D6C858F410EC2201045AF4266AF15DDB800BA74E7C21B903225242D6328188F2FA5C4183471359997F9FF81E89FF3C41E1816475E02DF1F80A11FC8386F25A438EECEC07A250251FC3803E6F58C12560C4AD840E95E91C151A72936F496F35732D860FE635F62C8F2DA16B505C545B7
310
4125BAA2FA9E05D7CC053D063734D5C7665FD55B6B8D15D5E9BFEAFD8490FFA45E504B03041400060808007B51DA403B0F3035FC000000A00100003B0000006662782F45423139443734352D394536452D343235342D413531342D3043373832363942433745462F7265736F75726365732F636F72652E786D6C8D504B6E83
310
3010BD0A9A6D65B02190808CA3861CA117B0CC84580936F2A7EAF16B0295DA5D3733A3F7D13C3D7EFE9A9FD9273AAFADE981E5143234CA8EDA4C3DC4702327C8CE823B6BC32F196446CED8C30A83E093B371D921654D4013126AEC883B28BDC700997AA6A307AFEE38CB5CC69014FE912F523DE48439CB139D7482FBE05280
310
6C7BB24E100EBD8D4EA1E7C5C60A1EA31E778D1ED34F7DD3E8400CCD91B296D5E4F85E0DE450D28AB4D7C3402ED7CB30D443DB9CE89517AB59F0A0E79F8CCAA10C388228292B096D48D97C30DA31D6D5F51B651DA5BC58E57F4C7119FF698ADA84AADCE36E360F82A5202F42F062ED2BAD579969AFDD8A6F504B010214000A
310
00000800007B51DA403DEE336E79000000790000001B00000000000000000000000000000000006175746F6465736B2D64657369676E2D7061636B6167652E786D6C504B010214001400060808007B51DA40D486FD9CA0000000F40000001300000000000000000000000000B20000005B436F6E74656E745F54797065735D
310
2E786D6C504B010214001400060808007B51DA4053E56D04EA0000007C010000080000000000000000000000000083010000636F72652E786D6C504B010214001400060808007B51DA4055019EA25F0000007C000000070000000000000000000000000093020000636E782E786D6C504B010214001400060808007B51DA40
310
59AF8C7B66010000020300000C00000000000000000000000000170300006662782F636F72652E786D6C504B010214001400060808007B51DA40709E64A57E0000009D0000000B00000000000000000000000000A70400006662782F636E782E786D6C504B010214001400060808007B51DA40F442EB132C01000015020000
310
31000000000000000000000000004E0500006662782F45423139443734352D394536452D343235342D413531342D3043373832363942433745462F636F72652E786D6C504B010214001400060808007B51DA40861B17F856010000330300003000000000000000000000000000C90600006662782F45423139443734352D39
310
4536452D343235342D413531342D3043373832363942433745462F636E782E786D6C504B010214001400060808007B51DA40AFA0492E59070000941B000034000000000000000000000000006D0800006662782F45423139443734352D394536452D343235342D413531342D3043373832363942433745462F6F626A656374
310
732E786D6C504B010214001400060800007B51DA400000000000000000000000003500000000000000000000000000181000006662782F45423139443734352D394536452D343235342D413531342D3043373832363942433745462F76657274696365732E62696E504B010214001400060808007B51DA40F270F133060000
310
000400000036000000000000000000000000006B1000006662782F45423139443734352D394536452D343235342D413531342D3043373832363942433745462F747269616E676C65732E62696E504B010214001400060800007B51DA400000000000000000000000003700000000000000000000000000C51000006662782F
310
45423139443734352D394536452D343235342D413531342D3043373832363942433745462F617474726962757465732E62696E504B010214001400060808007B51DA40D5987DFC8F0000004101000036000000000000000000000000001A1100006662782F45423139443734352D394536452D343235342D413531342D3043
310
373832363942433745462F6469726563746F72792E786D6C504B010214001400060808007B51DA403B0F3035FC000000A00100003B00000000000000000000000000FD1100006662782F45423139443734352D394536452D343235342D413531342D3043373832363942433745462F7265736F75726365732F636F72652E78
310
6D6C504B0506000000000E000E0080040000521300000000
  0
XRECORD
  5
17
102
{ACAD_REACTORS
330
12
102
}
330
12
100
AcDbXrecord
280
     1
270
     1
271
     1
  0
XRECORD
  5
16
102
{ACAD_REACTORS
330
12
102
}
330
12
100
AcDbXrecord
280
     1
270
     1
271
     1
  0
XRECORD
  5
18
102
{ACAD_REACTORS
330
12
102
}
330
12
100
AcDbXrecord
280
     1
270
     1
271
     1
  0
XRECORD
  5
15
102
{ACAD_REACTORS
330
12
102
}
330
12
100
AcDbXrecord
280
     1
270
     1
271
     1
  0
XRECORD
  5
1399
102
{ACAD_REACTORS
330
22
102
}
330
22
100
AcDbXrecord
280
     1
102
MATERIAL
148
0.0
149
0.0
149
0.0
 93
        0
 94
      127
282
     0
 72
     0
 77
     0
171
     0
175
     0
179
     0
273
     0
  0
XRECORD
  5
24
102
{ACAD_REACTORS
330
22
102
}
330
22
100
AcDbXrecord
280
     1
270
     1
271
     1
  0
XRECORD
  5
23
102
{ACAD_REACTORS
330
22
102
}
330
22
100
AcDbXrecord
280
     1
270
     1
271
     1
  0
XRECORD
  5
27
102
{ACAD_REACTORS
330
22
102
}
330
22
100
AcDbXrecord
280
     1
270
     1
271
     1
  0
XRECORD
  5
26
102
{ACAD_REACTORS
330
22
102
}
330
22
100
AcDbXrecord
280
     1
270
     1
271
     1
  0
XRECORD
  5
28
102
{ACAD_REACTORS
330
22
102
}
330
22
100
AcDbXrecord
280
     1
270
     1
271
     1
  0
XRECORD
  5
25
102
{ACAD_REACTORS
330
22
102
}
330
22
100
AcDbXrecord
280
     1
270
     1
271
     1
  0
XRECORD
  5
8DF
102
{ACAD_REACTORS
330
8DE
102
}
330
8DE
100
AcDbXrecord
280
     1
102
ACAD_ROUNDTRIP_2012_MLEADER_STYLE
298
     1
  0
CELLSTYLEMAP
  5
17D1
102
{ACAD_REACTORS
330
1382
102
}
330
1382
100
AcDbCellStyleMap
 90
        3
300
CELLSTYLE
  1
TABLEFORMAT_BEGIN
 90
        5
170
     1
 91
        0
 92
    32768
 62
   257
 93
        1
300
CONTENTFORMAT
  1
CONTENTFORMAT_BEGIN
 90
        0
 91
        0
 92
      512
 93
        0
300

 40
0.0
140
1.0
 94
        5
 62
     0
340
55
144
0.25
309
CONTENTFORMAT_END
171
     1
301
MARGIN
  1
CELLMARGIN_BEGIN
 40
0.06
 40
0.06
 40
0.06
 40
0.06
 40
0.18
 40
0.18
309
CELLMARGIN_END
 94
        6
 95
        1
302
GRIDFORMAT
  1
GRIDFORMAT_BEGIN
 90
        0
 91
        1
 62
     0
 92
       -2
340
0
 93
        0
 40
0.045
309
GRIDFORMAT_END
 95
        2
302
GRIDFORMAT
  1
GRIDFORMAT_BEGIN
 90
        0
 91
        1
 62
     0
 92
       -2
340
0
 93
        0
 40
0.045
309
GRIDFORMAT_END
 95
        4
302
GRIDFORMAT
  1
GRIDFORMAT_BEGIN
 90
        0
 91
        1
 62
     0
 92
       -2
340
0
 93
        0
 40
0.045
309
GRIDFORMAT_END
 95
        8
302
GRIDFORMAT
  1
GRIDFORMAT_BEGIN
 90
        0
 91
        1
 62
     0
 92
       -2
340
0
 93
        0
 40
0.045
309
GRIDFORMAT_END
 95
       16
302
GRIDFORMAT
  1
GRIDFORMAT_BEGIN
 90
        0
 91
        1
 62
     0
 92
       -2
340
0
 93
        0
 40
0.045
309
GRIDFORMAT_END
 95
       32
302
GRIDFORMAT
  1
GRIDFORMAT_BEGIN
 90
        0
 91
        1
 62
     0
 92
       -2
340
0
 93
        0
 40
0.045
309
GRIDFORMAT_END
309
TABLEFORMAT_END
  1
CELLSTYLE_BEGIN
 90
        1
 91
        1
300
_TITLE
309
CELLSTYLE_END
300
CELLSTYLE
  1
TABLEFORMAT_BEGIN
 90
        5
170
     1
 91
        0
 92
        0
 62
   257
 93
        1
300
CONTENTFORMAT
  1
CONTENTFORMAT_BEGIN
 90
        0
 91
        0
 92
      512
 93
        0
300

 40
0.0
140
1.0
 94
        5
 62
     0
340
55
144
0.18
309
CONTENTFORMAT_END
171
     1
301
MARGIN
  1
CELLMARGIN_BEGIN
 40
0.06
 40
0.06
 40
0.06
 40
0.06
 40
0.18
 40
0.18
309
CELLMARGIN_END
 94
        6
 95
        1
302
GRIDFORMAT
  1
GRIDFORMAT_BEGIN
 90
        0
 91
        1
 62
     0
 92
       -2
340
0
 93
        0
 40
0.045
309
GRIDFORMAT_END
 95
        2
302
GRIDFORMAT
  1
GRIDFORMAT_BEGIN
 90
        0
 91
        1
 62
     0
 92
       -2
340
0
 93
        0
 40
0.045
309
GRIDFORMAT_END
 95
        4
302
GRIDFORMAT
  1
GRIDFORMAT_BEGIN
 90
        0
 91
        1
 62
     0
 92
       -2
340
0
 93
        0
 40
0.045
309
GRIDFORMAT_END
 95
        8
302
GRIDFORMAT
  1
GRIDFORMAT_BEGIN
 90
        0
 91
        1
 62
     0
 92
       -2
340
0
 93
        0
 40
0.045
309
GRIDFORMAT_END
 95
       16
302
GRIDFORMAT
  1
GRIDFORMAT_BEGIN
 90
        0
 91
        1
 62
     0
 92
       -2
340
0
 93
        0
 40
0.045
309
GRIDFORMAT_END
 95
       32
302
GRIDFORMAT
  1
GRIDFORMAT_BEGIN
 90
        0
 91
        1
 62
     0
 92
       -2
340
0
 93
        0
 40
0.045
309
GRIDFORMAT_END
309
TABLEFORMAT_END
  1
CELLSTYLE_BEGIN
 90
        2
 91
        1
300
_HEADER
309
CELLSTYLE_END
300
CELLSTYLE
  1
TABLEFORMAT_BEGIN
 90
        5
170
     1
 91
        0
 92
        0
 62
   257
 93
        1
300
CONTENTFORMAT
  1
CONTENTFORMAT_BEGIN
 90
        0
 91
        0
 92
      512
 93
        0
300

 40
0.0
140
1.0
 94
        2
 62
     0
340
55
144
0.18
309
CONTENTFORMAT_END
171
     1
301
MARGIN
  1
CELLMARGIN_BEGIN
 40
0.06
 40
0.06
 40
0.06
 40
0.06
 40
0.18
 40
0.18
309
CELLMARGIN_END
 94
        6
 95
        1
302
GRIDFORMAT
  1
GRIDFORMAT_BEGIN
 90
        0
 91
        1
 62
     0
 92
       -2
340
0
 93
        0
 40
0.045
309
GRIDFORMAT_END
 95
        2
302
GRIDFORMAT
  1
GRIDFORMAT_BEGIN
 90
        0
 91
        1
 62
     0
 92
       -2
340
0
 93
        0
 40
0.045
309
GRIDFORMAT_END
 95
        4
302
GRIDFORMAT
  1
GRIDFORMAT_BEGIN
 90
        0
 91
        1
 62
     0
 92
       -2
340
0
 93
        0
 40
0.045
309
GRIDFORMAT_END
 95
        8
302
GRIDFORMAT
  1
GRIDFORMAT_BEGIN
 90
        0
 91
        1
 62
     0
 92
       -2
340
0
 93
        0
 40
0.045
309
GRIDFORMAT_END
 95
       16
302
GRIDFORMAT
  1
GRIDFORMAT_BEGIN
 90
        0
 91
        1
 62
     0
 92
       -2
340
0
 93
        0
 40
0.045
309
GRIDFORMAT_END
 95
       32
302
GRIDFORMAT
  1
GRIDFORMAT_BEGIN
 90
        0
 91
        1
 62
     0
 92
       -2
340
0
 93
        0
 40
0.045
309
GRIDFORMAT_END
309
TABLEFORMAT_END
  1
CELLSTYLE_BEGIN
 90
        3
 91
        2
300
_DATA
309
CELLSTYLE_END
  0
XRECORD
  5
181A
102
{ACAD_REACTORS
330
1382
102
}
330
1382
100
AcDbXrecord
280
     1
102
ACAD_ROUNDTRIP_PRE2007_TABLESTYLE
 90
      512
 91
        0
  1

 92
      512
 93
        0
  2

 94
      512
 95
        0
  3

  0
XRECORD
  5
17F5
102
{ACAD_REACTORS
330
17F4
102
}
330
17F4
100
AcDbXrecord
280
     1
102
RTVSPropertyOp0
 70
     1
102
RTVSPropertyOp1
 70
     1
102
RTVSPropertyOp2
 70
     1
102
RTVSPropertyOp3
 70
     1
102
RTVSPropertyOp4
 70
     1
102
RTVSPropertyOp5
 70
     1
102
RTVSPropertyOp6
 70
     1
102
RTVSPropertyOp7
 70
     1
102
RTVSPropertyOp8
 70
     1
102
RTVSPropertyOp9
 70
     1
102
RTVSPropertyOp10
 70
     1
102
RTVSPropertyOp11
 70
     1
102
RTVSPropertyOp12
 70
     1
102
RTVSPropertyOp13
 70
     1
102
RTVSPropertyOp14
 70
     1
102
RTVSPropertyOp15
 70
     1
102
RTVSPropertyOp16
 70
     1
102
RTVSPropertyOp17
 70
     1
102
RTVSPropertyOp18
 70
     1
102
RTVSPropertyOp19
 70
     1
102
RTVSPropertyOp20
 70
     1
102
RTVSPropertyOp21
 70
     1
102
RTVSPropertyOp22
 70
     1
102
RTVSPropertyOp23
 70
     1
102
RTVSPropertyOp24
 70
     1
102
RTVSPropertyOp25
 70
     1
102
RTVSPropertyOp26
 70
     1
102
RTVSPropertyOp27
 70
     1
  0
XRECORD
  5
1854
102
{ACAD_REACTORS
330
1853
102
}
330
1853
100
AcDbXrecord
280
     1
102
RTVSPropertyOp0
 70
     1
102
RTVSPropertyOp1
 70
     1
102
RTVSPropertyOp2
 70
     1
102
RTVSPropertyOp3
 70
     1
102
RTVSPropertyOp4
 70
     1
102
RTVSPropertyOp5
 70
     1
102
RTVSPropertyOp6
 70
     1
102
RTVSPropertyOp7
 70
     1
102
RTVSPropertyOp8
 70
     1
102
RTVSPropertyOp9
 70
     1
102
RTVSPropertyOp10
 70
     1
102
RTVSPropertyOp11
 70
     1
102
RTVSPropertyOp12
 70
     1
102
RTVSPropertyOp13
 70
     1
102
RTVSPropertyOp14
 70
     1
102
RTVSPropertyOp15
 70
     1
102
RTVSPropertyOp16
 70
     1
102
RTVSPropertyOp17
 70
     1
102
RTVSPropertyOp18
 70
     1
102
RTVSPropertyOp19
 70
     1
102
RTVSPropertyOp20
 70
     1
102
RTVSPropertyOp21
 70
     1
102
RTVSPropertyOp22
 70
     1
102
RTVSPropertyOp23
 70
     1
102
RTVSPropertyOp24
 70
     1
102
RTVSPropertyOp25
 70
     1
102
RTVSPropertyOp26
 70
     1
102
RTVSPropertyOp27
 70
     1
  0
XRECORD
  5
1852
102
{ACAD_REACTORS
330
1851
102
}
330
1851
100
AcDbXrecord
280
     1
102
RTVSPropertyOp0
 70
     1
102
RTVSPropertyOp1
 70
     1
102
RTVSPropertyOp2
 70
     1
102
RTVSPropertyOp3
 70
     1
102
RTVSPropertyOp4
 70
     1
102
RTVSPropertyOp5
 70
     1
102
RTVSPropertyOp6
 70
     1
102
RTVSPropertyOp7
 70
     1
102
RTVSPropertyOp8
 70
     1
102
RTVSPropertyOp9
 70
     1
102
RTVSPropertyOp10
 70
     1
102
RTVSPropertyOp11
 70
     1
102
RTVSPropertyOp12
 70
     1
102
RTVSPropertyOp13
 70
     1
102
RTVSPropertyOp14
 70
     1
102
RTVSPropertyOp15
 70
     1
102
RTVSPropertyOp16
 70
     1
102
RTVSPropertyOp17
 70
     1
102
RTVSPropertyOp18
 70
     1
102
RTVSPropertyOp19
 70
     1
102
RTVSPropertyOp20
 70
     1
102
RTVSPropertyOp21
 70
     1
102
RTVSPropertyOp22
 70
     1
102
RTVSPropertyOp23
 70
     1
102
RTVSPropertyOp24
 70
     1
102
RTVSPropertyOp25
 70
     1
102
RTVSPropertyOp26
 70
     1
102
RTVSPropertyOp27
 70
     1
  0
XRECORD
  5
17F3
102
{ACAD_REACTORS
330
17F2
102
}
330
17F2
100
AcDbXrecord
280
     1
102
RTVSPropertyOp0
 70
     1
102
RTVSPropertyOp1
 70
     1
102
RTVSPropertyOp2
 70
     1
102
RTVSPropertyOp3
 70
     1
102
RTVSPropertyOp4
 70
     1
102
RTVSPropertyOp5
 70
     1
102
RTVSPropertyOp6
 70
     1
102
RTVSPropertyOp7
 70
     1
102
RTVSPropertyOp8
 70
     1
102
RTVSPropertyOp9
 70
     1
102
RTVSPropertyOp10
 70
     1
102
RTVSPropertyOp11
 70
     1
102
RTVSPropertyOp12
 70
     1
102
RTVSPropertyOp13
 70
     1
102
RTVSPropertyOp14
 70
     1
102
RTVSPropertyOp15
 70
     1
102
RTVSPropertyOp16
 70
     1
102
RTVSPropertyOp17
 70
     1
102
RTVSPropertyOp18
 70
     1
102
RTVSPropertyOp19
 70
     1
102
RTVSPropertyOp20
 70
     1
102
RTVSPropertyOp21
 70
     1
102
RTVSPropertyOp22
 70
     1
102
RTVSPropertyOp23
 70
     1
102
RTVSPropertyOp24
 70
     1
102
RTVSPropertyOp25
 70
     1
102
RTVSPropertyOp26
 70
     1
102
RTVSPropertyOp27
 70
     1
  0
XRECORD
  5
1801
102
{ACAD_REACTORS
330
1800
102
}
330
1800
100
AcDbXrecord
280
     1
102
RTVSPropertyOp0
 70
     1
102
RTVSPropertyOp1
 70
     1
102
RTVSPropertyOp2
 70
     1
102
RTVSPropertyOp3
 70
     1
102
RTVSPropertyOp4
 70
     1
102
RTVSPropertyOp5
 70
     1
102
RTVSPropertyOp6
 70
     1
102
RTVSPropertyOp7
 70
     1
102
RTVSPropertyOp8
 70
     1
102
RTVSPropertyOp9
 70
     1
102
RTVSPropertyOp10
 70
     1
102
RTVSPropertyOp11
 70
     1
102
RTVSPropertyOp12
 70
     1
102
RTVSPropertyOp13
 70
     1
102
RTVSPropertyOp14
 70
     1
102
RTVSPropertyOp15
 70
     1
102
RTVSPropertyOp16
 70
     1
102
RTVSPropertyOp17
 70
     1
102
RTVSPropertyOp18
 70
     1
102
RTVSPropertyOp19
 70
     1
102
RTVSPropertyOp20
 70
     1
102
RTVSPropertyOp21
 70
     1
102
RTVSPropertyOp22
 70
     1
102
RTVSPropertyOp23
 70
     1
102
RTVSPropertyOp24
 70
     1
102
RTVSPropertyOp25
 70
     1
102
RTVSPropertyOp26
 70
     1
102
RTVSPropertyOp27
 70
     1
  0
XRECORD
  5
1809
102
{ACAD_REACTORS
330
1808
102
}
330
1808
100
AcDbXrecord
280
     1
102
RTVSPropertyOp0
 70
     1
102
RTVSPropertyOp1
 70
     1
102
RTVSPropertyOp2
 70
     1
102
RTVSPropertyOp3
 70
     1
102
RTVSPropertyOp4
 70
     1
102
RTVSPropertyOp5
 70
     1
102
RTVSPropertyOp6
 70
     1
102
RTVSPropertyOp7
 70
     1
102
RTVSPropertyOp8
 70
     1
102
RTVSPropertyOp9
 70
     1
102
RTVSPropertyOp10
 70
     1
102
RTVSPropertyOp11
 70
     1
102
RTVSPropertyOp12
 70
     1
102
RTVSPropertyOp13
 70
     1
102
RTVSPropertyOp14
 70
     1
102
RTVSPropertyOp15
 70
     1
102
RTVSPropertyOp16
 70
     1
102
RTVSPropertyOp17
 70
     1
102
RTVSPropertyOp18
 70
     1
102
RTVSPropertyOp19
 70
     1
102
RTVSPropertyOp20
 70
     1
102
RTVSPropertyOp21
 70
     1
102
RTVSPropertyOp22
 70
     1
102
RTVSPropertyOp23
 70
     1
102
RTVSPropertyOp24
 70
     1
102
RTVSPropertyOp25
 70
     1
102
RTVSPropertyOp26
 70
     1
102
RTVSPropertyOp27
 70
     1
  0
XRECORD
  5
17FB
102
{ACAD_REACTORS
330
17FA
102
}
330
17FA
100
AcDbXrecord
280
     1
102
RTVSPropertyOp0
 70
     1
102
RTVSPropertyOp1
 70
     1
102
RTVSPropertyOp2
 70
     1
102
RTVSPropertyOp3
 70
     1
102
RTVSPropertyOp4
 70
     1
102
RTVSPropertyOp5
 70
     1
102
RTVSPropertyOp6
 70
     1
102
RTVSPropertyOp7
 70
     1
102
RTVSPropertyOp8
 70
     1
102
RTVSPropertyOp9
 70
     1
102
RTVSPropertyOp10
 70
     1
102
RTVSPropertyOp11
 70
     1
102
RTVSPropertyOp12
 70
     1
102
RTVSPropertyOp13
 70
     1
102
RTVSPropertyOp14
 70
     1
102
RTVSPropertyOp15
 70
     1
102
RTVSPropertyOp16
 70
     1
102
RTVSPropertyOp17
 70
     1
102
RTVSPropertyOp18
 70
     1
102
RTVSPropertyOp19
 70
     1
102
RTVSPropertyOp20
 70
     1
102
RTVSPropertyOp21
 70
     1
102
RTVSPropertyOp22
 70
     1
102
RTVSPropertyOp23
 70
     1
102
RTVSPropertyOp24
 70
     1
102
RTVSPropertyOp25
 70
     1
102
RTVSPropertyOp26
 70
     1
102
RTVSPropertyOp27
 70
     1
  0
XRECORD
  5
17FF
102
{ACAD_REACTORS
330
17FE
102
}
330
17FE
100
AcDbXrecord
280
     1
102
RTVSPropertyOp0
 70
     1
102
RTVSPropertyOp1
 70
     1
102
RTVSPropertyOp2
 70
     1
102
RTVSPropertyOp3
 70
     1
102
RTVSPropertyOp4
 70
     1
102
RTVSPropertyOp5
 70
     1
102
RTVSPropertyOp6
 70
     1
102
RTVSPropertyOp7
 70
     1
102
RTVSPropertyOp8
 70
     1
102
RTVSPropertyOp9
 70
     1
102
RTVSPropertyOp10
 70
     1
102
RTVSPropertyOp11
 70
     1
102
RTVSPropertyOp12
 70
     1
102
RTVSPropertyOp13
 70
     1
102
RTVSPropertyOp14
 70
     1
102
RTVSPropertyOp15
 70
     1
102
RTVSPropertyOp16
 70
     1
102
RTVSPropertyOp17
 70
     1
102
RTVSPropertyOp18
 70
     1
102
RTVSPropertyOp19
 70
     1
102
RTVSPropertyOp20
 70
     1
102
RTVSPropertyOp21
 70
     1
102
RTVSPropertyOp22
 70
     1
102
RTVSPropertyOp23
 70
     1
102
RTVSPropertyOp24
 70
     1
102
RTVSPropertyOp25
 70
     1
102
RTVSPropertyOp26
 70
     1
102
RTVSPropertyOp27
 70
     1
  0
XRECORD
  5
1819
102
{ACAD_REACTORS
330
1818
102
}
330
1818
100
AcDbXrecord
280
     1
102
RTVSPropertyOp0
 70
     0
102
RTVSPropertyOp1
 70
     0
102
RTVSPropertyOp2
 70
     0
102
RTVSPropertyOp3
 70
     0
102
RTVSPropertyOp4
 70
     0
102
RTVSPropertyOp5
 70
     0
102
RTVSPropertyOp6
 70
     0
102
RTVSPropertyOp7
 70
     0
102
RTVSPropertyOp8
 70
     0
102
RTVSPropertyOp9
 70
     0
102
RTVSPropertyOp10
 70
     0
102
RTVSPropertyOp11
 70
     0
102
RTVSPropertyOp12
 70
     0
102
RTVSPropertyOp13
 70
     0
102
RTVSPropertyOp14
 70
     2
102
RTVSPropertyOp15
 70
     0
102
RTVSPropertyOp16
 70
     0
102
RTVSPropertyOp17
 70
     0
102
RTVSPropertyOp18
 70
     0
102
RTVSPropertyOp19
 70
     0
102
RTVSPropertyOp20
 70
     0
102
RTVSPropertyOp21
 70
     0
102
RTVSPropertyOp22
 70
     0
102
RTVSPropertyOp23
 70
     0
102
RTVSPropertyOp24
 70
     0
102
RTVSPropertyOp25
 70
     0
102
RTVSPropertyOp26
 70
     0
102
RTVSPropertyOp27
 70
     0
  0
XRECORD
  5
1807
102
{ACAD_REACTORS
330
1806
102
}
330
1806
100
AcDbXrecord
280
     1
102
RTVSPropertyOp0
 70
     1
102
RTVSPropertyOp1
 70
     1
102
RTVSPropertyOp2
 70
     1
102
RTVSPropertyOp3
 70
     1
102
RTVSPropertyOp4
 70
     1
102
RTVSPropertyOp5
 70
     1
102
RTVSPropertyOp6
 70
     1
102
RTVSPropertyOp7
 70
     1
102
RTVSPropertyOp8
 70
     1
102
RTVSPropertyOp9
 70
     1
102
RTVSPropertyOp10
 70
     1
102
RTVSPropertyOp11
 70
     1
102
RTVSPropertyOp12
 70
     1
102
RTVSPropertyOp13
 70
     1
102
RTVSPropertyOp14
 70
     1
102
RTVSPropertyOp15
 70
     1
102
RTVSPropertyOp16
 70
     1
102
RTVSPropertyOp17
 70
     1
102
RTVSPropertyOp18
 70
     1
102
RTVSPropertyOp19
 70
     1
102
RTVSPropertyOp20
 70
     1
102
RTVSPropertyOp21
 70
     1
102
RTVSPropertyOp22
 70
     1
102
RTVSPropertyOp23
 70
     1
102
RTVSPropertyOp24
 70
     1
102
RTVSPropertyOp25
 70
     1
102
RTVSPropertyOp26
 70
     1
102
RTVSPropertyOp27
 70
     1
  0
XRECORD
  5
17EB
102
{ACAD_REACTORS
330
17EA
102
}
330
17EA
100
AcDbXrecord
280
     1
102
RTVSPropertyOp0
 70
     1
102
RTVSPropertyOp1
 70
     1
102
RTVSPropertyOp2
 70
     1
102
RTVSPropertyOp3
 70
     1
102
RTVSPropertyOp4
 70
     1
102
RTVSPropertyOp5
 70
     1
102
RTVSPropertyOp6
 70
     1
102
RTVSPropertyOp7
 70
     1
102
RTVSPropertyOp8
 70
     1
102
RTVSPropertyOp9
 70
     1
102
RTVSPropertyOp10
 70
     1
102
RTVSPropertyOp11
 70
     1
102
RTVSPropertyOp12
 70
     1
102
RTVSPropertyOp13
 70
     1
102
RTVSPropertyOp14
 70
     1
102
RTVSPropertyOp15
 70
     1
102
RTVSPropertyOp16
 70
     1
102
RTVSPropertyOp17
 70
     1
102
RTVSPropertyOp18
 70
     1
102
RTVSPropertyOp19
 70
     1
102
RTVSPropertyOp20
 70
     1
102
RTVSPropertyOp21
 70
     1
102
RTVSPropertyOp22
 70
     1
102
RTVSPropertyOp23
 70
     1
102
RTVSPropertyOp24
 70
     1
102
RTVSPropertyOp25
 70
     1
102
RTVSPropertyOp26
 70
     1
102
RTVSPropertyOp27
 70
     1
  0
XRECORD
  5
17ED
102
{ACAD_REACTORS
330
17EC
102
}
330
17EC
100
AcDbXrecord
280
     1
102
RTVSPropertyOp0
 70
     1
102
RTVSPropertyOp1
 70
     1
102
RTVSPropertyOp2
 70
     1
102
RTVSPropertyOp3
 70
     1
102
RTVSPropertyOp4
 70
     1
102
RTVSPropertyOp5
 70
     1
102
RTVSPropertyOp6
 70
     1
102
RTVSPropertyOp7
 70
     1
102
RTVSPropertyOp8
 70
     1
102
RTVSPropertyOp9
 70
     1
102
RTVSPropertyOp10
 70
     1
102
RTVSPropertyOp11
 70
     1
102
RTVSPropertyOp12
 70
     1
102
RTVSPropertyOp13
 70
     1
102
RTVSPropertyOp14
 70
     1
102
RTVSPropertyOp15
 70
     1
102
RTVSPropertyOp16
 70
     1
102
RTVSPropertyOp17
 70
     1
102
RTVSPropertyOp18
 70
     1
102
RTVSPropertyOp19
 70
     1
102
RTVSPropertyOp20
 70
     1
102
RTVSPropertyOp21
 70
     1
102
RTVSPropertyOp22
 70
     1
102
RTVSPropertyOp23
 70
     1
102
RTVSPropertyOp24
 70
     1
102
RTVSPropertyOp25
 70
     1
102
RTVSPropertyOp26
 70
     1
102
RTVSPropertyOp27
 70
     1
  0
XRECORD
  5
17EF
102
{ACAD_REACTORS
330
17EE
102
}
330
17EE
100
AcDbXrecord
280
     1
102
RTVSPropertyOp0
 70
     1
102
RTVSPropertyOp1
 70
     1
102
RTVSPropertyOp2
 70
     1
102
RTVSPropertyOp3
 70
     1
102
RTVSPropertyOp4
 70
     1
102
RTVSPropertyOp5
 70
     1
102
RTVSPropertyOp6
 70
     1
102
RTVSPropertyOp7
 70
     1
102
RTVSPropertyOp8
 70
     1
102
RTVSPropertyOp9
 70
     1
102
RTVSPropertyOp10
 70
     1
102
RTVSPropertyOp11
 70
     1
102
RTVSPropertyOp12
 70
     1
102
RTVSPropertyOp13
 70
     1
102
RTVSPropertyOp14
 70
     1
102
RTVSPropertyOp15
 70
     1
102
RTVSPropertyOp16
 70
     1
102
RTVSPropertyOp17
 70
     1
102
RTVSPropertyOp18
 70
     1
102
RTVSPropertyOp19
 70
     1
102
RTVSPropertyOp20
 70
     1
102
RTVSPropertyOp21
 70
     1
102
RTVSPropertyOp22
 70
     1
102
RTVSPropertyOp23
 70
     1
102
RTVSPropertyOp24
 70
     1
102
RTVSPropertyOp25
 70
     1
102
RTVSPropertyOp26
 70
     1
102
RTVSPropertyOp27
 70
     1
  0
XRECORD
  5
17F1
102
{ACAD_REACTORS
330
17F0
102
}
330
17F0
100
AcDbXrecord
280
     1
102
RTVSPropertyOp0
 70
     1
102
RTVSPropertyOp1
 70
     1
102
RTVSPropertyOp2
 70
     1
102
RTVSPropertyOp3
 70
     1
102
RTVSPropertyOp4
 70
     1
102
RTVSPropertyOp5
 70
     1
102
RTVSPropertyOp6
 70
     1
102
RTVSPropertyOp7
 70
     1
102
RTVSPropertyOp8
 70
     1
102
RTVSPropertyOp9
 70
     1
102
RTVSPropertyOp10
 70
     1
102
RTVSPropertyOp11
 70
     1
102
RTVSPropertyOp12
 70
     1
102
RTVSPropertyOp13
 70
     1
102
RTVSPropertyOp14
 70
     1
102
RTVSPropertyOp15
 70
     1
102
RTVSPropertyOp16
 70
     1
102
RTVSPropertyOp17
 70
     1
102
RTVSPropertyOp18
 70
     1
102
RTVSPropertyOp19
 70
     1
102
RTVSPropertyOp20
 70
     1
102
RTVSPropertyOp21
 70
     1
102
RTVSPropertyOp22
 70
     1
102
RTVSPropertyOp23
 70
     1
102
RTVSPropertyOp24
 70
     1
102
RTVSPropertyOp25
 70
     1
102
RTVSPropertyOp26
 70
     1
102
RTVSPropertyOp27
 70
     1
  0
XRECORD
  5
17F9
102
{ACAD_REACTORS
330
17F8
102
}
330
17F8
100
AcDbXrecord
280
     1
102
RTVSPropertyOp0
 70
     1
102
RTVSPropertyOp1
 70
     1
102
RTVSPropertyOp2
 70
     1
102
RTVSPropertyOp3
 70
     1
102
RTVSPropertyOp4
 70
     1
102
RTVSPropertyOp5
 70
     1
102
RTVSPropertyOp6
 70
     1
102
RTVSPropertyOp7
 70
     1
102
RTVSPropertyOp8
 70
     1
102
RTVSPropertyOp9
 70
     1
102
RTVSPropertyOp10
 70
     1
102
RTVSPropertyOp11
 70
     1
102
RTVSPropertyOp12
 70
     1
102
RTVSPropertyOp13
 70
     1
102
RTVSPropertyOp14
 70
     1
102
RTVSPropertyOp15
 70
     1
102
RTVSPropertyOp16
 70
     1
102
RTVSPropertyOp17
 70
     1
102
RTVSPropertyOp18
 70
     1
102
RTVSPropertyOp19
 70
     1
102
RTVSPropertyOp20
 70
     1
102
RTVSPropertyOp21
 70
     1
102
RTVSPropertyOp22
 70
     1
102
RTVSPropertyOp23
 70
     1
102
RTVSPropertyOp24
 70
     1
102
RTVSPropertyOp25
 70
     1
102
RTVSPropertyOp26
 70
     1
102
RTVSPropertyOp27
 70
     1
  0
XRECORD
  5
1815
102
{ACAD_REACTORS
330
1814
102
}
330
1814
100
AcDbXrecord
280
     1
102
RTVSPropertyOp0
 70
     0
102
RTVSPropertyOp1
 70
     0
102
RTVSPropertyOp2
 70
     0
102
RTVSPropertyOp3
 70
     0
102
RTVSPropertyOp4
 70
     0
102
RTVSPropertyOp5
 70
     0
102
RTVSPropertyOp6
 70
     0
102
RTVSPropertyOp7
 70
     0
102
RTVSPropertyOp8
 70
     0
102
RTVSPropertyOp9
 70
     0
102
RTVSPropertyOp10
 70
     0
102
RTVSPropertyOp11
 70
     0
102
RTVSPropertyOp12
 70
     0
102
RTVSPropertyOp13
 70
     0
102
RTVSPropertyOp14
 70
     2
102
RTVSPropertyOp15
 70
     0
102
RTVSPropertyOp16
 70
     0
102
RTVSPropertyOp17
 70
     0
102
RTVSPropertyOp18
 70
     0
102
RTVSPropertyOp19
 70
     0
102
RTVSPropertyOp20
 70
     0
102
RTVSPropertyOp21
 70
     0
102
RTVSPropertyOp22
 70
     0
102
RTVSPropertyOp23
 70
     0
102
RTVSPropertyOp24
 70
     0
102
RTVSPropertyOp25
 70
     0
102
RTVSPropertyOp26
 70
     0
102
RTVSPropertyOp27
 70
     0
  0
XRECORD
  5
1805
102
{ACAD_REACTORS
330
1804
102
}
330
1804
100
AcDbXrecord
280
     1
102
RTVSPropertyOp0
 70
     1
102
RTVSPropertyOp1
 70
     1
102
RTVSPropertyOp2
 70
     1
102
RTVSPropertyOp3
 70
     1
102
RTVSPropertyOp4
 70
     1
102
RTVSPropertyOp5
 70
     1
102
RTVSPropertyOp6
 70
     1
102
RTVSPropertyOp7
 70
     1
102
RTVSPropertyOp8
 70
     1
102
RTVSPropertyOp9
 70
     1
102
RTVSPropertyOp10
 70
     1
102
RTVSPropertyOp11
 70
     1
102
RTVSPropertyOp12
 70
     1
102
RTVSPropertyOp13
 70
     1
102
RTVSPropertyOp14
 70
     1
102
RTVSPropertyOp15
 70
     1
102
RTVSPropertyOp16
 70
     1
102
RTVSPropertyOp17
 70
     1
102
RTVSPropertyOp18
 70
     1
102
RTVSPropertyOp19
 70
     1
102
RTVSPropertyOp20
 70
     1
102
RTVSPropertyOp21
 70
     1
102
RTVSPropertyOp22
 70
     1
102
RTVSPropertyOp23
 70
     1
102
RTVSPropertyOp24
 70
     1
102
RTVSPropertyOp25
 70
     1
102
RTVSPropertyOp26
 70
     1
102
RTVSPropertyOp27
 70
     1
  0
XRECORD
  5
1817
102
{ACAD_REACTORS
330
1816
102
}
330
1816
100
AcDbXrecord
280
     1
102
RTVSPropertyOp0
 70
     0
102
RTVSPropertyOp1
 70
     0
102
RTVSPropertyOp2
 70
     0
102
RTVSPropertyOp3
 70
     0
102
RTVSPropertyOp4
 70
     0
102
RTVSPropertyOp5
 70
     0
102
RTVSPropertyOp6
 70
     0
102
RTVSPropertyOp7
 70
     0
102
RTVSPropertyOp8
 70
     0
102
RTVSPropertyOp9
 70
     0
102
RTVSPropertyOp10
 70
     0
102
RTVSPropertyOp11
 70
     0
102
RTVSPropertyOp12
 70
     0
102
RTVSPropertyOp13
 70
     0
102
RTVSPropertyOp14
 70
     2
102
RTVSPropertyOp15
 70
     0
102
RTVSPropertyOp16
 70
     0
102
RTVSPropertyOp17
 70
     0
102
RTVSPropertyOp18
 70
     0
102
RTVSPropertyOp19
 70
     0
102
RTVSPropertyOp20
 70
     0
102
RTVSPropertyOp21
 70
     0
102
RTVSPropertyOp22
 70
     0
102
RTVSPropertyOp23
 70
     0
102
RTVSPropertyOp24
 70
     0
102
RTVSPropertyOp25
 70
     0
102
RTVSPropertyOp26
 70
     0
102
RTVSPropertyOp27
 70
     0
  0
XRECORD
  5
17FD
102
{ACAD_REACTORS
330
17FC
102
}
330
17FC
100
AcDbXrecord
280
     1
102
RTVSPropertyOp0
 70
     1
102
RTVSPropertyOp1
 70
     1
102
RTVSPropertyOp2
 70
     1
102
RTVSPropertyOp3
 70
     1
102
RTVSPropertyOp4
 70
     1
102
RTVSPropertyOp5
 70
     1
102
RTVSPropertyOp6
 70
     1
102
RTVSPropertyOp7
 70
     1
102
RTVSPropertyOp8
 70
     1
102
RTVSPropertyOp9
 70
     1
102
RTVSPropertyOp10
 70
     1
102
RTVSPropertyOp11
 70
     1
102
RTVSPropertyOp12
 70
     1
102
RTVSPropertyOp13
 70
     1
102
RTVSPropertyOp14
 70
     1
102
RTVSPropertyOp15
 70
     1
102
RTVSPropertyOp16
 70
     1
102
RTVSPropertyOp17
 70
     1
102
RTVSPropertyOp18
 70
     1
102
RTVSPropertyOp19
 70
     1
102
RTVSPropertyOp20
 70
     1
102
RTVSPropertyOp21
 70
     1
102
RTVSPropertyOp22
 70
     1
102
RTVSPropertyOp23
 70
     1
102
RTVSPropertyOp24
 70
     1
102
RTVSPropertyOp25
 70
     1
102
RTVSPropertyOp26
 70
     1
102
RTVSPropertyOp27
 70
     1
  0
XRECORD
  5
1813
102
{ACAD_REACTORS
330
1812
102
}
330
1812
100
AcDbXrecord
280
     1
102
RTVSPropertyOp0
 70
     1
102
RTVSPropertyOp1
 70
     1
102
RTVSPropertyOp2
 70
     1
102
RTVSPropertyOp3
 70
     1
102
RTVSPropertyOp4
 70
     1
102
RTVSPropertyOp5
 70
     1
102
RTVSPropertyOp6
 70
     1
102
RTVSPropertyOp7
 70
     1
102
RTVSPropertyOp8
 70
     1
102
RTVSPropertyOp9
 70
     1
102
RTVSPropertyOp10
 70
     1
102
RTVSPropertyOp11
 70
     1
102
RTVSPropertyOp12
 70
     1
102
RTVSPropertyOp13
 70
     1
102
RTVSPropertyOp14
 70
     1
102
RTVSPropertyOp15
 70
     1
102
RTVSPropertyOp16
 70
     1
102
RTVSPropertyOp17
 70
     1
102
RTVSPropertyOp18
 70
     1
102
RTVSPropertyOp19
 70
     1
102
RTVSPropertyOp20
 70
     1
102
RTVSPropertyOp21
 70
     1
102
RTVSPropertyOp22
 70
     1
102
RTVSPropertyOp23
 70
     1
102
RTVSPropertyOp24
 70
     1
102
RTVSPropertyOp25
 70
     1
102
RTVSPropertyOp26
 70
     1
102
RTVSPropertyOp27
 70
     1
  0
XRECORD
  5
1811
102
{ACAD_REACTORS
330
1810
102
}
330
1810
100
AcDbXrecord
280
     1
102
RTVSPropertyOp0
 70
     1
102
RTVSPropertyOp1
 70
     1
102
RTVSPropertyOp2
 70
     1
102
RTVSPropertyOp3
 70
     1
102
RTVSPropertyOp4
 70
     1
102
RTVSPropertyOp5
 70
     1
102
RTVSPropertyOp6
 70
     1
102
RTVSPropertyOp7
 70
     1
102
RTVSPropertyOp8
 70
     1
102
RTVSPropertyOp9
 70
     1
102
RTVSPropertyOp10
 70
     1
102
RTVSPropertyOp11
 70
     1
102
RTVSPropertyOp12
 70
     1
102
RTVSPropertyOp13
 70
     1
102
RTVSPropertyOp14
 70
     1
102
RTVSPropertyOp15
 70
     1
102
RTVSPropertyOp16
 70
     1
102
RTVSPropertyOp17
 70
     1
102
RTVSPropertyOp18
 70
     1
102
RTVSPropertyOp19
 70
     1
102
RTVSPropertyOp20
 70
     1
102
RTVSPropertyOp21
 70
     1
102
RTVSPropertyOp22
 70
     1
102
RTVSPropertyOp23
 70
     1
102
RTVSPropertyOp24
 70
     1
102
RTVSPropertyOp25
 70
     1
102
RTVSPropertyOp26
 70
     1
102
RTVSPropertyOp27
 70
     1
  0
XRECORD
  5
180B
102
{ACAD_REACTORS
330
180A
102
}
330
180A
100
AcDbXrecord
280
     1
102
RTVSPropertyOp0
 70
     1
102
RTVSPropertyOp1
 70
     1
102
RTVSPropertyOp2
 70
     1
102
RTVSPropertyOp3
 70
     1
102
RTVSPropertyOp4
 70
     1
102
RTVSPropertyOp5
 70
     1
102
RTVSPropertyOp6
 70
     1
102
RTVSPropertyOp7
 70
     1
102
RTVSPropertyOp8
 70
     1
102
RTVSPropertyOp9
 70
     1
102
RTVSPropertyOp10
 70
     1
102
RTVSPropertyOp11
 70
     1
102
RTVSPropertyOp12
 70
     1
102
RTVSPropertyOp13
 70
     1
102
RTVSPropertyOp14
 70
     1
102
RTVSPropertyOp15
 70
     1
102
RTVSPropertyOp16
 70
     1
102
RTVSPropertyOp17
 70
     1
102
RTVSPropertyOp18
 70
     1
102
RTVSPropertyOp19
 70
     1
102
RTVSPropertyOp20
 70
     1
102
RTVSPropertyOp21
 70
     1
102
RTVSPropertyOp22
 70
     1
102
RTVSPropertyOp23
 70
     1
102
RTVSPropertyOp24
 70
     1
102
RTVSPropertyOp25
 70
     1
102
RTVSPropertyOp26
 70
     1
102
RTVSPropertyOp27
 70
     1
  0
XRECORD
  5
180D
102
{ACAD_REACTORS
330
180C
102
}
330
180C
100
AcDbXrecord
280
     1
102
RTVSPropertyOp0
 70
     1
102
RTVSPropertyOp1
 70
     1
102
RTVSPropertyOp2
 70
     1
102
RTVSPropertyOp3
 70
     1
102
RTVSPropertyOp4
 70
     1
102
RTVSPropertyOp5
 70
     1
102
RTVSPropertyOp6
 70
     1
102
RTVSPropertyOp7
 70
     1
102
RTVSPropertyOp8
 70
     1
102
RTVSPropertyOp9
 70
     1
102
RTVSPropertyOp10
 70
     1
102
RTVSPropertyOp11
 70
     1
102
RTVSPropertyOp12
 70
     1
102
RTVSPropertyOp13
 70
     1
102
RTVSPropertyOp14
 70
     1
102
RTVSPropertyOp15
 70
     1
102
RTVSPropertyOp16
 70
     1
102
RTVSPropertyOp17
 70
     1
102
RTVSPropertyOp18
 70
     1
102
RTVSPropertyOp19
 70
     1
102
RTVSPropertyOp20
 70
     1
102
RTVSPropertyOp21
 70
     1
102
RTVSPropertyOp22
 70
     1
102
RTVSPropertyOp23
 70
     1
102
RTVSPropertyOp24
 70
     1
102
RTVSPropertyOp25
 70
     1
102
RTVSPropertyOp26
 70
     1
102
RTVSPropertyOp27
 70
     1
  0
XRECORD
  5
1803
102
{ACAD_REACTORS
330
1802
102
}
330
1802
100
AcDbXrecord
280
     1
102
RTVSPropertyOp0
 70
     1
102
RTVSPropertyOp1
 70
     1
102
RTVSPropertyOp2
 70
     1
102
RTVSPropertyOp3
 70
     1
102
RTVSPropertyOp4
 70
     1
102
RTVSPropertyOp5
 70
     1
102
RTVSPropertyOp6
 70
     1
102
RTVSPropertyOp7
 70
     1
102
RTVSPropertyOp8
 70
     1
102
RTVSPropertyOp9
 70
     1
102
RTVSPropertyOp10
 70
     1
102
RTVSPropertyOp11
 70
     1
102
RTVSPropertyOp12
 70
     1
102
RTVSPropertyOp13
 70
     1
102
RTVSPropertyOp14
 70
     1
102
RTVSPropertyOp15
 70
     1
102
RTVSPropertyOp16
 70
     1
102
RTVSPropertyOp17
 70
     1
102
RTVSPropertyOp18
 70
     1
102
RTVSPropertyOp19
 70
     1
102
RTVSPropertyOp20
 70
     1
102
RTVSPropertyOp21
 70
     1
102
RTVSPropertyOp22
 70
     1
102
RTVSPropertyOp23
 70
     1
102
RTVSPropertyOp24
 70
     1
102
RTVSPropertyOp25
 70
     1
102
RTVSPropertyOp26
 70
     1
102
RTVSPropertyOp27
 70
     1
  0
XRECORD
  5
17F7
102
{ACAD_REACTORS
330
17F6
102
}
330
17F6
100
AcDbXrecord
280
     1
102
RTVSPropertyOp0
 70
     1
102
RTVSPropertyOp1
 70
     1
102
RTVSPropertyOp2
 70
     1
102
RTVSPropertyOp3
 70
     1
102
RTVSPropertyOp4
 70
     1
102
RTVSPropertyOp5
 70
     1
102
RTVSPropertyOp6
 70
     1
102
RTVSPropertyOp7
 70
     1
102
RTVSPropertyOp8
 70
     1
102
RTVSPropertyOp9
 70
     1
102
RTVSPropertyOp10
 70
     1
102
RTVSPropertyOp11
 70
     1
102
RTVSPropertyOp12
 70
     1
102
RTVSPropertyOp13
 70
     1
102
RTVSPropertyOp14
 70
     1
102
RTVSPropertyOp15
 70
     1
102
RTVSPropertyOp16
 70
     1
102
RTVSPropertyOp17
 70
     1
102
RTVSPropertyOp18
 70
     1
102
RTVSPropertyOp19
 70
     1
102
RTVSPropertyOp20
 70
     1
102
RTVSPropertyOp21
 70
     1
102
RTVSPropertyOp22
 70
     1
102
RTVSPropertyOp23
 70
     1
102
RTVSPropertyOp24
 70
     1
102
RTVSPropertyOp25
 70
     1
102
RTVSPropertyOp26
 70
     1
102
RTVSPropertyOp27
 70
     1
  0
XRECORD
  5
180F
102
{ACAD_REACTORS
330
180E
102
}
330
180E
100
AcDbXrecord
280
     1
102
RTVSPropertyOp0
 70
     1
102
RTVSPropertyOp1
 70
     1
102
RTVSPropertyOp2
 70
     1
102
RTVSPropertyOp3
 70
     1
102
RTVSPropertyOp4
 70
     1
102
RTVSPropertyOp5
 70
     1
102
RTVSPropertyOp6
 70
     1
102
RTVSPropertyOp7
 70
     1
102
RTVSPropertyOp8
 70
     1
102
RTVSPropertyOp9
 70
     1
102
RTVSPropertyOp10
 70
     1
102
RTVSPropertyOp11
 70
     1
102
RTVSPropertyOp12
 70
     1
102
RTVSPropertyOp13
 70
     1
102
RTVSPropertyOp14
 70
     1
102
RTVSPropertyOp15
 70
     1
102
RTVSPropertyOp16
 70
     1
102
RTVSPropertyOp17
 70
     1
102
RTVSPropertyOp18
 70
     1
102
RTVSPropertyOp19
 70
     1
102
RTVSPropertyOp20
 70
     1
102
RTVSPropertyOp21
 70
     1
102
RTVSPropertyOp22
 70
     1
102
RTVSPropertyOp23
 70
     1
102
RTVSPropertyOp24
 70
     1
102
RTVSPropertyOp25
 70
     1
102
RTVSPropertyOp26
 70
     1
102
RTVSPropertyOp27
 70
     1
  0
ENDSEC
  0
EOF
