  0
SECTION
  2
HEADER
  9
$ACADVER
  1
AC1015
  9
$ACADMAINTVER
 70
    20
  9
$DWGCODEPAGE
  3
ANSI_1252
  9
$INSBASE
 10
0.0
 20
0.0
 30
0.0
  9
$EXTMIN
 10
1067.246233523067
 20
1087.345525667612
 30
0.0
  9
$EXTMAX
 10
3155.948692655731
 20
4339.601660424947
 30
0.0
  9
$LIMMIN
 10
0.0
 20
0.0
  9
$LIMMAX
 10
420.0
 20
297.0
  9
$ORTHOMODE
 70
     0
  9
$REGENMODE
 70
     1
  9
$FILLMODE
 70
     1
  9
$QTEXTMODE
 70
     0
  9
$MIRRTEXT
 70
     1
  9
$LTSCALE
 40
1.0
  9
$ATTMODE
 70
     1
  9
$TEXTSIZE
 40
2.5
  9
$TRACEWID
 40
1.0
  9
$TEXTSTYLE
  7
STANDARD
  9
$CLAYER
  8
0
  9
$CELTYPE
  6
ByLayer
  9
$CECOLOR
 62
   256
  9
$CELTSCALE
 40
1.0
  9
$DISPSILH
 70
     0
  9
$DIMSCALE
 40
1.0
  9
$DIMASZ
 40
2.5
  9
$DIMEXO
 40
1.0
  9
$DIMDLI
 40
10.0
  9
$DIMRND
 40
0.0
  9
$DIMDLE
 40
0.0
  9
$DIMEXE
 40
1.0
  9
$DIMTP
 40
0.1
  9
$DIMTM
 40
0.1
  9
$DIMTXT
 40
3.5
  9
$DIMCEN
 40
0.0
  9
$DIMTSZ
 40
0.0
  9
$DIMTOL
 70
     0
  9
$DIMLIM
 70
     0
  9
$DIMTIH
 70
     0
  9
$DIMTOH
 70
     0
  9
$DIMSE1
 70
     0
  9
$DIMSE2
 70
     0
  9
$DIMTAD
 70
     1
  9
$DIMZIN
 70
     8
  9
$DIMBLK
  1

  9
$DIMASO
 70
     1
  9
$DIMSHO
 70
     1
  9
$DIMPOST
  1

  9
$DIMAPOST
  1
"
  9
$DIMALT
 70
     0
  9
$DIMALTD
 70
     2
  9
$DIMALTF
 40
0.0393701
  9
$DIMLFAC
 40
1.0
  9
$DIMTOFL
 70
     1
  9
$DIMTVP
 40
0.0
  9
$DIMTIX
 70
     0
  9
$DIMSOXD
 70
     0
  9
$DIMSAH
 70
     0
  9
$DIMBLK1
  1

  9
$DIMBLK2
  1

  9
$DIMSTYLE
  2
AM_DIN
  9
$DIMCLRD
 70
   256
  9
$DIMCLRE
 70
   256
  9
$DIMCLRT
 70
     2
  9
$DIMTFAC
 40
0.71
  9
$DIMGAP
 40
1.5
  9
$DIMJUST
 70
     0
  9
$DIMSD1
 70
     0
  9
$DIMSD2
 70
     0
  9
$DIMTOLJ
 70
     0
  9
$DIMTZIN
 70
     8
  9
$DIMALTZ
 70
     0
  9
$DIMALTTZ
 70
     0
  9
$DIMUPT
 70
     0
  9
$DIMDEC
 70
     2
  9
$DIMTDEC
 70
     3
  9
$DIMALTU
 70
     2
  9
$DIMALTTD
 70
     4
  9
$DIMTXSTY
  7
STANDARD
  9
$DIMAUNIT
 70
     0
  9
$DIMADEC
 70
     0
  9
$DIMALTRND
 40
0.0
  9
$DIMAZIN
 70
     2
  9
$DIMDSEP
 70
    46
  9
$DIMATFIT
 70
     3
  9
$DIMFRAC
 70
     0
  9
$DIMLDRBLK
  1

  9
$DIMLUNIT
 70
     2
  9
$DIMLWD
 70
    -1
  9
$DIMLWE
 70
    -1
  9
$DIMTMOVE
 70
     0
  9
$LUNITS
 70
     2
  9
$LUPREC
 70
     2
  9
$SKETCHINC
 40
1.0
  9
$FILLETRAD
 40
2.5
  9
$AUNITS
 70
     0
  9
$AUPREC
 70
     0
  9
$MENU
  1
.
  9
$ELEVATION
 40
0.0
  9
$PELEVATION
 40
0.0
  9
$THICKNESS
 40
0.0
  9
$LIMCHECK
 70
     0
  9
$CHAMFERA
 40
2.5
  9
$CHAMFERB
 40
2.5
  9
$CHAMFERC
 40
20.0
  9
$CHAMFERD
 40
0.0
  9
$SKPOLY
 70
     0
  9
$TDCREATE
 40
2454026.534744641
  9
$TDUCREATE
 40
2454026.451411308
  9
$TDUPDATE
 40
2454026.535122060
  9
$TDUUPDATE
 40
2454026.451788727
  9
$TDINDWG
 40
0.0003781481
  9
$TDUSRTIMER
 40
0.0003779630
  9
$USRTIMER
 70
     1
  9
$ANGBASE
 50
0.0
  9
$ANGDIR
 70
     0
  9
$PDMODE
 70
     0
  9
$PDSIZE
 40
0.0
  9
$PLINEWID
 40
0.0
  9
$SPLFRAME
 70
     0
  9
$SPLINETYPE
 70
     6
  9
$SPLINESEGS
 70
     8
  9
$HANDSEED
  5
E00
  9
$SURFTAB1
 70
     6
  9
$SURFTAB2
 70
     6
  9
$SURFTYPE
 70
     6
  9
$SURFU
 70
     6
  9
$SURFV
 70
     6
  9
$UCSBASE
  2

  9
$UCSNAME
  2

  9
$UCSORG
 10
0.0
 20
0.0
 30
0.0
  9
$UCSXDIR
 10
1.0
 20
0.0
 30
0.0
  9
$UCSYDIR
 10
0.0
 20
1.0
 30
0.0
  9
$UCSORTHOREF
  2

  9
$UCSORTHOVIEW
 70
     0
  9
$UCSORGTOP
 10
0.0
 20
0.0
 30
0.0
  9
$UCSORGBOTTOM
 10
0.0
 20
0.0
 30
0.0
  9
$UCSORGLEFT
 10
0.0
 20
0.0
 30
0.0
  9
$UCSORGRIGHT
 10
0.0
 20
0.0
 30
0.0
  9
$UCSORGFRONT
 10
0.0
 20
0.0
 30
0.0
  9
$UCSORGBACK
 10
0.0
 20
0.0
 30
0.0
  9
$PUCSBASE
  2

  9
$PUCSNAME
  2

  9
$PUCSORG
 10
0.0
 20
0.0
 30
0.0
  9
$PUCSXDIR
 10
1.0
 20
0.0
 30
0.0
  9
$PUCSYDIR
 10
0.0
 20
1.0
 30
0.0
  9
$PUCSORTHOREF
  2

  9
$PUCSORTHOVIEW
 70
     0
  9
$PUCSORGTOP
 10
0.0
 20
0.0
 30
0.0
  9
$PUCSORGBOTTOM
 10
0.0
 20
0.0
 30
0.0
  9
$PUCSORGLEFT
 10
0.0
 20
0.0
 30
0.0
  9
$PUCSORGRIGHT
 10
0.0
 20
0.0
 30
0.0
  9
$PUCSORGFRONT
 10
0.0
 20
0.0
 30
0.0
  9
$PUCSORGBACK
 10
0.0
 20
0.0
 30
0.0
  9
$USERI1
 70
     0
  9
$USERI2
 70
     0
  9
$USERI3
 70
     0
  9
$USERI4
 70
     0
  9
$USERI5
 70
     0
  9
$USERR1
 40
0.0
  9
$USERR2
 40
0.0
  9
$USERR3
 40
0.0
  9
$USERR4
 40
0.0
  9
$USERR5
 40
0.0
  9
$WORLDVIEW
 70
     1
  9
$SHADEDGE
 70
     3
  9
$SHADEDIF
 70
    70
  9
$TILEMODE
 70
     1
  9
$MAXACTVP
 70
    64
  9
$PINSBASE
 10
0.0
 20
0.0
 30
0.0
  9
$PLIMCHECK
 70
     0
  9
$PEXTMIN
 10
1.000000000000000E+20
 20
1.000000000000000E+20
 30
1.000000000000000E+20
  9
$PEXTMAX
 10
-1.000000000000000E+20
 20
-1.000000000000000E+20
 30
-1.000000000000000E+20
  9
$PLIMMIN
 10
0.0
 20
0.0
  9
$PLIMMAX
 10
420.0
 20
297.0
  9
$UNITMODE
 70
     0
  9
$VISRETAIN
 70
     1
  9
$PLINEGEN
 70
     0
  9
$PSLTSCALE
 70
     1
  9
$TREEDEPTH
 70
  3020
  9
$CMLSTYLE
  2
Standard
  9
$CMLJUST
 70
     0
  9
$CMLSCALE
 40
20.0
  9
$PROXYGRAPHICS
 70
     1
  9
$MEASUREMENT
 70
     1
  9
$CELWEIGHT
370
    -1
  9
$ENDCAPS
280
     0
  9
$JOINSTYLE
280
     0
  9
$LWDISPLAY
290
     0
  9
$INSUNITS
 70
     4
  9
$HYPERLINKBASE
  1

  9
$STYLESHEET
  1

  9
$XEDIT
290
     1
  9
$CEPSNTYPE
380
     0
  9
$PSTYLEMODE
290
     1
  9
$FINGERPRINTGUID
  2
{62B98E76-DDEA-41A1-A4B9-DD728A23D69A}
  9
$VERSIONGUID
  2
{099A5036-59C2-4F98-AC7E-9D97AED2A915}
  9
$EXTNAMES
290
     1
  9
$PSVPSCALE
 40
0.0
  9
$OLESTARTUP
290
     0
  0
ENDSEC
  0
SECTION
  2
CLASSES
  0
CLASS
  1
ACDBDICTIONARYWDFLT
  2
AcDbDictionaryWithDefault
  3
ObjectDBX Classes
 90
        0
280
     0
281
     0
  0
CLASS
  1
ACDBPLACEHOLDER
  2
AcDbPlaceHolder
  3
ObjectDBX Classes
 90
        0
280
     0
281
     0
  0
CLASS
  1
LAYOUT
  2
AcDbLayout
  3
ObjectDBX Classes
 90
        0
280
     0
281
     0
  0
CLASS
  1
AMGSETTINGSOBJ
  2
AmgSettingsObj
  3
"AcadM|Product Description: AutoCAD Mechanical 2000|Company: Autodesk"
 90
        0
280
     0
281
     0
  0
CLASS
  1
ACME_DOCUMENT
  2
AcMeDbDoc
  3
AcMeServices
 90
        0
280
     0
281
     0
  0
CLASS
  1
ACMESCOPE
  2
AcMeScope
  3
AcMeServices
 90
        0
280
     0
281
     0
  0
CLASS
  1
ACMECOMMANDHISTORY
  2
AcMeCommandHistory
  3
AcMeServices
 90
        0
280
     0
281
     0
  0
CLASS
  1
DICTIONARYVAR
  2
AcDbDictionaryVar
  3
ObjectDBX Classes
 90
        0
280
     0
281
     0
  0
CLASS
  1
ACIMSYSVARMAN
  2
AcImSysVarManager
  3
AcMeServices
 90
        0
280
     0
281
     0
  0
CLASS
  1
ACIMREALSYSVAR
  2
AcImRealSysVar
  3
AcMeServices
 90
        0
280
     0
281
     0
  0
CLASS
  1
ACIMINTSYSVAR
  2
AcImIntSysVar
  3
AcMeServices
 90
        0
280
     0
281
     0
  0
CLASS
  1
ACMEDRAWINGMAN
  2
AcMeDrawingMan
  3
AcMeServices
 90
        0
280
     0
281
     0
  0
CLASS
  1
ACMEVIEW
  2
AcMeView
  3
AcMeServices
 90
        0
280
     0
281
     0
  0
CLASS
  1
ACDBENTITYCACHE
  2
AcMeEntityCache
  3
AcMeServices
 90
        0
280
     0
281
     0
  0
CLASS
  1
GSMANAGER
  2
AcMeGSManager
  3
AcMeServices
 90
        0
280
     0
281
     0
  0
CLASS
  1
AMDTINTERNALREACTOR
  2
AmdtInternalReactor
  3
AcMeServices
 90
        0
280
     0
281
     0
  0
CLASS
  1
ACMESTATEMGR
  2
AcMeStateMgr
  3
AcMeServices
 90
        0
280
     0
281
     0
  0
CLASS
  1
ACGREFMASTER
  2
AcGrefMaster
  3
AcAttribServices
 90
        0
280
     0
281
     0
  0
CLASS
  1
ACME_DATABASE
  2
AcMeDbDatabase
  3
AcMeServices
 90
        0
280
     0
281
     0
  0
CLASS
  1
ACRFINSADJUSTERMGR
  2
AcRfInsAdjusterMgr
  3
AcMeServices
 90
        0
280
     0
281
     0
  0
CLASS
  1
ACGREFACADMASTER
  2
AcGrefacadMaster
  3
AcGrefServices
 90
        0
280
     0
281
     0
  0
CLASS
  1
AMIMASTER
  2
AmiMaster
  3
AmiServices
 90
        0
280
     0
281
     0
  0
CLASS
  1
ACIMSTRSYSVAR
  2
AcImStrSysVar
  3
AcMeServices
 90
        0
280
     0
281
     0
  0
CLASS
  1
ACMSTANDARDDIN
  2
AcmStandardDIN
  3
"Amdt_StdImp|Product Description: AutoCAD Mechanical 2004 DX|Company: Autodesk"
 90
        0
280
     0
281
     0
  0
CLASS
  1
AMGOBJPROPCFG
  2
AmgObjPropCfg
  3
"AmgLay|Product Description: AutoCAD Mechanical 2000|Company: Autodesk"
 90
        1
280
     0
281
     0
  0
CLASS
  1
AMDTEDGESTANDARDDIN
  2
AmdtEdgeStdDIN
  3
"Amdt_StdImp|Product Description: AutoCAD Mechanical 2004 DX|Company: Autodesk"
 90
        0
280
     0
281
     0
  0
CLASS
  1
ACMSURFSTANDARDDIN
  2
AcmSurfTextStdDIN
  3
"Amdt_StdImp|Product Description: AutoCAD Mechanical 2004 DX|Company: Autodesk"
 90
        0
280
     0
281
     0
  0
CLASS
  1
ACMFCFSTANDARDDIN
  2
AcmFCFStdDIN
  3
"Amdt_StdImp|Product Description: AutoCAD Mechanical 2004 DX|Company: Autodesk"
 90
        0
280
     0
281
     0
  0
CLASS
  1
ACMWELDSTANDARDDIN
  2
AcmWeldingStdDIN
  3
"Amdt_StdImp|Product Description: AutoCAD Mechanical 2004 DX|Company: Autodesk"
 90
        0
280
     0
281
     0
  0
CLASS
  1
ACMIDSTANDARDDIN
  2
AcmIdStdDIN
  3
"Amdt_StdImp|Product Description: AutoCAD Mechanical 2004 DX|Company: Autodesk"
 90
        0
280
     0
281
     0
  0
CLASS
  1
ACMDATUMSTANDARDDIN
  2
AcmDatumStdDIN
  3
"Amdt_StdImp|Product Description: AutoCAD Mechanical 2004 DX|Company: Autodesk"
 90
        0
280
     0
281
     0
  0
CLASS
  1
ACMBOMSTANDARDDIN
  2
AcmBOMStdDIN
  3
"Amdt_StdImp|Product Description: AutoCAD Mechanical 2004 DX|Company: Autodesk"
 90
        0
280
     0
281
     0
  0
CLASS
  1
ACMDETAILSTANDARDDIN
  2
AmdtDetailSymStdDIN
  3
"Amdt_StdImp|Product Description: AutoCAD Mechanical 2004 DX|Company: Autodesk"
 90
        0
280
     0
281
     0
  0
CLASS
  1
ACMSECTIONSTANDARDDIN
  2
AmdtSectionSymStdDIN
  3
"Amdt_StdImp|Product Description: AutoCAD Mechanical 2004 DX|Company: Autodesk"
 90
        0
280
     0
281
     0
  0
CLASS
  1
ACMCENTERLINESTANDARDDIN
  2
AmdtCenterLineStdDIN
  3
"Amdt_StdImp|Product Description: AutoCAD Mechanical 2004 DX|Company: Autodesk"
 90
        0
280
     0
281
     0
  0
CLASS
  1
ACMTHREADLINESTANDARDDIN
  2
AmdtThreadLineStdDIN
  3
"Amdt_StdImp|Product Description: AutoCAD Mechanical 2004 DX|Company: Autodesk"
 90
        0
280
     0
281
     0
  0
CLASS
  1
ACAMGLAYSTD
  2
AcAmgLayStd
  3
"AcAmgLayStd|Product Description: AutoCAD Mechanical 2000|Company: Autodesk"
 90
        0
280
     0
281
     0
  0
CLASS
  1
ACAMGDIMSTD
  2
AcAmgDimStd
  3
"AcAmgDimStd|Product Description: AutoCAD Mechanical 2000|Company: Autodesk"
 90
        0
280
     0
281
     0
  0
CLASS
  1
ACAMGTITLESTD
  2
AcAmgTitleStd
  3
"TITLEAPP"
 90
        0
280
     0
281
     0
  0
CLASS
  1
ACMDATADICTIONARY
  2
AcmDataDictionary
  3
"AcmSymBB|Product Description: AutoCAD Mechanical 2004 DX|Company: Autodesk"
 90
        0
280
     0
281
     0
  0
CLASS
  1
ACMDATAENTRYBLOCK
  2
AcmDataEntryBlock
  3
"AcmSymBB|Product Description: AutoCAD Mechanical 2004 DX|Company: Autodesk"
 90
        0
280
     0
281
     0
  0
CLASS
  1
LAYER_INDEX
  2
AcDbLayerIndex
  3
ObjectDBX Classes
 90
    32768
280
     0
281
     0
  0
CLASS
  1
IDBUFFER
  2
AcDbIdBuffer
  3
ObjectDBX Classes
 90
    32768
280
     0
281
     0
  0
CLASS
  1
ACMNOTESTANDARDDIN
  2
AmdtNoteStdDIN
  3
"Amdt_StdImp|Product Description: AutoCAD Mechanical 2004 DX|Company: Autodesk"
 90
        0
280
     0
281
     0
  0
CLASS
  1
ACAMGHOLECHARTSTDDIN
  2
AcAmgHoleChartStdDIN
  3
ACMSYMBB_MODULE_NAME
 90
        0
280
     0
281
     0
  0
CLASS
  1
AM_DRAWING_MGR
  2
AcDmDwgMgr
  3
AcMechDwgViewMgmt
 90
        0
280
     0
281
     0
  0
CLASS
  1
AM_DWG_DOCUMENT
  2
AcDmDwgDocument
  3
AcMechDwgViewMgmt
 90
        0
280
     0
281
     0
  0
CLASS
  1
AM_DWG_SHEET
  2
AcDmSheet
  3
AcMechDwgViewMgmt
 90
        0
280
     0
281
     0
  0
CLASS
  1
AM_VIEWDIMPARMAP
  2
AcDmViewDimParMap
  3
AcMechDwgViewMgmt
 90
        0
280
     0
281
     0
  0
CLASS
  1
AM_DWGMGR_NAME
  2
AcDmDwgMgrName
  3
AcMechDwgViewMgmt
 90
        0
280
     0
281
     0
  0
CLASS
  1
AMDTMENUSTATEMGR
  2
AmdtMenuStateMgr
  3
McadcomServices
 90
        0
280
     0
281
     0
  0
CLASS
  1
AMDTMCOMMENUSTATE
  2
AmdtMcomMenuState
  3
McadcomServices
 90
        0
280
     0
281
     0
  0
CLASS
  1
MAPIAMMOUDLE
  2
MApiAmModule
  3
MApiAmServices
 90
        0
280
     0
281
     0
  0
CLASS
  1
AMDTADMENUSTATE
  2
AmdtAdMenuState
  3
DesignerServices
 90
        0
280
     0
281
     0
  0
CLASS
  1
ADAPPL
  2
AcAdAppl
  3
DesignerServices
 90
        0
280
     0
281
     0
  0
CLASS
  1
DEPMGR
  2
AcAdDepMgr
  3
DesignerServices
 90
        0
280
     0
281
     0
  0
CLASS
  1
PARAMMGR
  2
AcAdParamMgr
  3
DesignerServices
 90
        0
280
     0
281
     0
  0
CLASS
  1
PARAMSCOPE
  2
AcAdParamScope
  3
DesignerServices
 90
        0
280
     0
281
     0
  0
CLASS
  1
NAMEDAPPL
  2
AcAdNamedAppl
  3
DesignerServices
 90
        0
280
     0
281
     0
  0
CLASS
  1
AMDTDMMENUSTATE
  2
AmdtDmMenuState
  3
AcMechDwgViewMgmt
 90
        0
280
     0
281
     0
  0
CLASS
  1
AMDTAMMENUSTATE
  2
AmdtAmMenuState
  3
DesignerAssemblies
 90
        0
280
     0
281
     0
  0
CLASS
  1
ACAMPROJECT
  2
AcAmProject
  3
DesignerAssemblies
 90
        0
280
     0
281
     0
  0
CLASS
  1
ACAMGRCOMPDEF
  2
AcAmGrCompDef
  3
DesignerAssemblies
 90
        0
280
     0
281
     0
  0
CLASS
  1
ACCMCONTEXT
  2
AcCmContext
  3
DesignerAssemblies
 90
        0
280
     0
281
     0
  0
CLASS
  1
ACAMCOMPDEF
  2
AcAmCompDef
  3
DesignerAssemblies
 90
        0
280
     0
281
     0
  0
CLASS
  1
ACAMCOMPDEFMGR
  2
AcAmCompDefMgr
  3
DesignerAssemblies
 90
        0
280
     0
281
     0
  0
CLASS
  1
AMCONTEXTMGR
  2
AcAmContextMgr
  3
DesignerAssemblies
 90
        0
280
     0
281
     0
  0
CLASS
  1
ACAMCONTEXTMODELER
  2
AcAmContextModeler
  3
DesignerAssemblies
 90
        0
280
     0
281
     0
  0
CLASS
  1
CATALOGSTATE
  2
AcAmCatalogState
  3
DesignerAssemblies
 90
        0
280
     0
281
     0
  0
CLASS
  1
ACAMGRCOMPDEFSET
  2
AcAmGrCompDefSet
  3
DesignerAssemblies
 90
        0
280
     0
281
     0
  0
CLASS
  1
AMDTBROWSERDBTAB
  2
AmdtBrowserDbTab
  3
McadcomServices
 90
        0
280
     0
281
     0
  0
CLASS
  1
CBROWSERAPPOBJECT
  2
CBrowserAppObject
  3
McadcomServices
 90
        0
280
     0
281
     0
  0
CLASS
  1
DM_PLACEHOLDER
  2
AcDmSelsetPlaceholder
  3
AcMechDwgViewMgmt
 90
        0
280
     0
281
     0
  0
CLASS
  1
TABLESTYLE
  2
AcDbTableStyle
  3
ObjectDBX Classes
 90
     2047
280
     0
281
     0
  0
CLASS
  1
VAACXREFPANELOBJECT
  2
VaAcXREFPanelObject
  3
VAAC_ADDIN
 90
    32768
280
     0
281
     0
  0
CLASS
  1
VAACIMAGEINVENTORY
  2
VaAcImageInventory
  3
VAAC_ADDIN
 90
    32768
280
     0
281
     0
  0
CLASS
  1
AMDTNOTETEMPLATEDB
  2
AmdtNoteTemplateDB
  3
AMDT_STDIMP_MODULE_NAME
 90
        0
280
     0
281
     0
  0
CLASS
  1
ACAMGFILTERDAT
  2
AcAmgFilterDat
  3
"AcadM|Product Description: AutoCAD Mechanical 2000|Company: Autodesk"
 90
        0
280
     0
281
     0
  0
CLASS
  1
ACMBOM
  2
AcmBom
  3
"AcmSymBB|Product Description: AutoCAD Mechanical 2004 DX|Company: Autodesk"
 90
    32768
280
     0
281
     0
  0
CLASS
  1
AMDTFORMULAUPDATEDISPATCHER
  2
AmdtFormulaUpdateDispatcher
  3
AcMeServices
 90
    32768
280
     0
281
     0
  0
CLASS
  1
SORTENTSTABLE
  2
AcDbSortentsTable
  3
ObjectDBX Classes
 90
        0
280
     0
281
     0
  0
CLASS
  1
ACRFATTGENMGR
  2
AcRfAttGeneralMgr
  3
AcAttribServices
 90
        0
280
     0
281
     0
  0
ENDSEC
  0
SECTION
  2
TABLES
  0
TABLE
  2
VPORT
  5
8
330
0
100
AcDbSymbolTable
 70
     3
  0
VPORT
  5
DF7
330
8
100
AcDbSymbolTableRecord
100
AcDbViewportTableRecord
  2
*Active
 70
     0
 10
0.0
 20
0.0
 11
1.0
 21
1.0
 12
2111.597463089399
 22
2713.47359304628
 13
0.0
 23
0.0
 14
2.5
 24
2.5
 15
10.0
 25
10.0
 16
0.0
 26
0.0
 36
1.0
 17
0.0
 27
0.0
 37
0.0
 40
3274.230838370561
 41
1.378804960541149
 42
50.0
 43
0.0
 44
0.0
 50
0.0
 51
0.0
 71
     0
 72
   100
 73
     1
 74
     3
 75
     0
 76
     0
 77
     0
 78
     0
281
     0
 65
     1
110
0.0
120
0.0
130
0.0
111
1.0
121
0.0
131
0.0
112
0.0
122
1.0
132
0.0
 79
     0
146
0.0
  0
ENDTAB
  0
TABLE
  2
LTYPE
  5
5
330
0
100
AcDbSymbolTable
 70
    22
  0
LTYPE
  5
14
330
5
100
AcDbSymbolTableRecord
100
AcDbLinetypeTableRecord
  2
ByBlock
 70
     0
  3

 72
    65
 73
     0
 40
0.0
  0
LTYPE
  5
15
330
5
100
AcDbSymbolTableRecord
100
AcDbLinetypeTableRecord
  2
ByLayer
 70
     0
  3

 72
    65
 73
     0
 40
0.0
  0
LTYPE
  5
16
330
5
100
AcDbSymbolTableRecord
100
AcDbLinetypeTableRecord
  2
Continuous
 70
     0
  3
Solid line
 72
    65
 73
     0
 40
0.0
  0
LTYPE
  5
50
330
5
100
AcDbSymbolTableRecord
100
AcDbLinetypeTableRecord
  2
Amconstr
 70
     0
  3
_______________________
 72
    65
 73
     2
 40
9999.0
 49
9999.0
 74
     0
 49
0.0
 74
     0
  0
LTYPE
  5
55
330
5
100
AcDbSymbolTableRecord
100
AcDbLinetypeTableRecord
  2
Amzigzag
 70
     0
  3
/\/-/\/-/\/-/\/-/\/-/\/
 72
    65
 73
     2
 40
11.0001
 49
0.0001
 74
     4
 75
   136
340
285
 46
0.04
 50
0.0
 44
0.0
 45
0.0
 49
-11.0
 74
     0
  0
LTYPE
  5
56
330
5
100
AcDbSymbolTableRecord
100
AcDbLinetypeTableRecord
  2
AM_DIN_F_W050
 70
     0
  3
__ __ __ __ __ __ __ __ __ __ __ __ __ __ __
 72
    65
 73
     2
 40
6.25
 49
4.75
 74
     0
 49
-1.5
 74
     0
  0
LTYPE
  5
57
330
5
100
AcDbSymbolTableRecord
100
AcDbLinetypeTableRecord
  2
AM_DIN_G_W050
 70
     0
  3
____ . ____ . ____ . ____ . ____ . ____ . ____
 72
    65
 73
     4
 40
13.75
 49
9.75
 74
     0
 49
-1.5
 74
     0
 49
1.0
 74
     0
 49
-1.5
 74
     0
  0
LTYPE
  5
58
330
5
100
AcDbSymbolTableRecord
100
AcDbLinetypeTableRecord
  2
AM_DIN_K_W050
 70
     0
  3
_____ . . _____ . . _____ . . ____ .. ____
 72
    65
 73
     6
 40
16.25
 49
9.75
 74
     0
 49
-1.5
 74
     0
 49
1.0
 74
     0
 49
-1.5
 74
     0
 49
1.0
 74
     0
 49
-1.5
 74
     0
  0
LTYPE
  5
59
330
5
100
AcDbSymbolTableRecord
100
AcDbLinetypeTableRecord
  2
AM_DIN_G_W050x2
 70
     0
  3
__ . __ . __ . __ . __ . __
 72
    65
 73
     4
 40
6.875
 49
4.75
 74
     0
 49
-0.875
 74
     0
 49
0.375
 74
     0
 49
-0.875
 74
     0
  0
LTYPE
  5
5A
330
5
100
AcDbSymbolTableRecord
100
AcDbLinetypeTableRecord
  2
AM_DIN_F_W050x2
 70
     0
  3
 _ _ _ _ _ _ _ _ _ _ _ _
 72
    65
 73
     2
 40
3.125
 49
2.25
 74
     0
 49
-0.875
 74
     0
  0
LTYPE
  5
68
330
5
100
AcDbSymbolTableRecord
100
AcDbLinetypeTableRecord
  2
ACDINWELD
 70
     0
  3
_ _ _ _ _
 72
    65
 73
     2
 40
2.0
 49
2.0
 74
     0
 49
-1.0
 74
     0
  0
LTYPE
  5
69
330
5
100
AcDbSymbolTableRecord
100
AcDbLinetypeTableRecord
  2
ACDINTGB
 70
     0
  3
__ . . __ . .
 72
    65
 73
     6
 40
9.0
 49
4.0
 74
     0
 49
-1.0
 74
     0
 49
1.0
 74
     0
 49
-1.0
 74
     0
 49
1.0
 74
     0
 49
-1.0
 74
     0
  0
LTYPE
  5
6A
330
5
100
AcDbSymbolTableRecord
100
AcDbLinetypeTableRecord
  2
ACDINTGL
 70
     0
  3
_ _ _ _ _
 72
    65
 73
     2
 40
3.0
 49
2.0
 74
     0
 49
-1.0
 74
     0
  0
LTYPE
  5
6C
330
5
100
AcDbSymbolTableRecord
100
AcDbLinetypeTableRecord
  2
CENTER
 70
     0
  3
__ . __
 72
    65
 73
     4
 40
7.0
 49
4.0
 74
     0
 49
-1.0
 74
     0
 49
1.0
 74
     0
 49
-1.0
 74
     0
  0
LTYPE
  5
F2
330
5
100
AcDbSymbolTableRecord
100
AcDbLinetypeTableRecord
  2
HIDDEN
 70
     0
  3
Hidden __ __ __ __ __ __ __ __ __ __ __ __ __ _
 72
    65
 73
     2
 40
9.524999999999998
 49
6.349999999999999
 74
     0
 49
-3.174999999999999
 74
     0
  0
LTYPE
  5
F3
330
5
100
AcDbSymbolTableRecord
100
AcDbLinetypeTableRecord
  2
PHANTOM2
 70
     0
  3
Phantom (.5x) ___ _ _ ___ _ _ ___ _ _ ___ _ _
 72
    65
 73
     6
 40
31.75
 49
15.875
 74
     0
 49
-3.174999999999999
 74
     0
 49
3.174999999999999
 74
     0
 49
-3.174999999999999
 74
     0
 49
3.174999999999999
 74
     0
 49
-3.174999999999999
 74
     0
  0
LTYPE
  5
3B5
330
5
100
AcDbSymbolTableRecord
100
AcDbLinetypeTableRecord
  2
VERDECKT
 70
     0
  3
Verdeckt __ __ __ __ __ __ __ _
 72
    65
 73
     2
 40
9.525
 49
6.349999999999999
 74
     0
 49
-3.174999999999999
 74
     0
  0
LTYPE
  5
3B6
330
5
100
AcDbSymbolTableRecord
100
AcDbLinetypeTableRecord
  2
AUSGEZOGEN
 70
     0
  3
_______________________________________________
 72
    65
 73
     0
 40
0.0
  0
ENDTAB
  0
TABLE
  2
LAYER
  5
2
102
{ACAD_XDICTIONARY
360
C0
102
}
330
0
100
AcDbSymbolTable
 70
    12
  0
LAYER
  5
10
330
2
100
AcDbSymbolTableRecord
100
AcDbLayerTableRecord
  2
0
 70
     0
 62
     7
  6
Continuous
370
    -3
390
F
  0
LAYER
  5
3B7
330
2
100
AcDbSymbolTableRecord
100
AcDbLayerTableRecord
  2
AM_7
 70
     0
 62
     4
  6
AM_DIN_G_W050
370
    25
390
F
  0
LAYER
  5
3B8
330
2
100
AcDbSymbolTableRecord
100
AcDbLayerTableRecord
  2
DEFPOINTS
 70
     0
 62
     7
  6
Continuous
290
     0
370
    -3
390
F
  0
LAYER
  5
3B9
330
2
100
AcDbSymbolTableRecord
100
AcDbLayerTableRecord
  2
BILD
 70
     0
 62
     7
  6
Continuous
370
    -3
390
F
  0
LAYER
  5
3BA
330
2
100
AcDbSymbolTableRecord
100
AcDbLayerTableRecord
  2
TEXT
 70
     0
 62
     7
  6
Continuous
370
    -3
390
F
  0
LAYER
  5
3BB
330
2
100
AcDbSymbolTableRecord
100
AcDbLayerTableRecord
  2
406
 70
     0
 62
     7
  6
Continuous
370
    -3
390
F
  0
LAYER
  5
3BC
330
2
100
AcDbSymbolTableRecord
100
AcDbLayerTableRecord
  2
AM_5
 70
     0
 62
     3
  6
Continuous
370
    25
390
F
  0
LAYER
  5
3BD
330
2
100
AcDbSymbolTableRecord
100
AcDbLayerTableRecord
  2
AM_4
 70
     0
 62
     3
  6
Continuous
370
    25
390
F
  0
LAYER
  5
3BE
330
2
100
AcDbSymbolTableRecord
100
AcDbLayerTableRecord
  2
AM_6
 70
     0
 62
     2
  6
Continuous
370
    35
390
F
  0
LAYER
  5
3BF
330
2
100
AcDbSymbolTableRecord
100
AcDbLayerTableRecord
  2
AM_8
 70
     0
 62
     1
  6
Continuous
370
    25
390
F
  0
LAYER
  5
3C0
330
2
100
AcDbSymbolTableRecord
100
AcDbLayerTableRecord
  2
DEFAULT_1
 70
     0
 62
     7
  6
CENTER
370
    -3
390
F
  0
ENDTAB
  0
TABLE
  2
STYLE
  5
3
330
0
100
AcDbSymbolTable
 70
     8
  0
STYLE
  5
11
330
3
100
AcDbSymbolTableRecord
100
AcDbTextStyleTableRecord
  2
STANDARD
 70
     0
 40
0.0
 41
1.0
 50
0.0
 71
     0
 42
2.5
  3
ISOCP.SHX
  4
bigfont.shx
  0
STYLE
  5
5B
330
3
100
AcDbSymbolTableRecord
100
AcDbTextStyleTableRecord
  2
ACDINTS
 70
     0
 40
1.0
 41
1.0
 50
0.0
 71
     0
 42
2.5
  3
isocp.shx
  4
bigfont.shx
  0
STYLE
  5
67
330
3
100
AcDbSymbolTableRecord
100
AcDbTextStyleTableRecord
  2
ACDINGDT
 70
     0
 40
0.0
 41
1.0
 50
0.0
 71
     0
 42
2.5
  3
AMGDT
  4
bigfont.shx
  0
STYLE
  5
285
330
3
100
AcDbSymbolTableRecord
100
AcDbTextStyleTableRecord
  2

 70
     1
 40
0.0
 41
1.0
 50
0.0
 71
     0
 42
2.5
  3
genltshp.shx
  4

  0
ENDTAB
  0
TABLE
  2
VIEW
  5
6
330
0
100
AcDbSymbolTable
 70
     0
  0
ENDTAB
  0
TABLE
  2
UCS
  5
7
330
0
100
AcDbSymbolTable
 70
     0
  0
ENDTAB
  0
TABLE
  2
APPID
  5
9
330
0
100
AcDbSymbolTable
 70
    15
  0
APPID
  5
12
330
9
100
AcDbSymbolTableRecord
100
AcDbRegAppTableRecord
  2
ACAD
 70
     0
  0
APPID
  5
30
330
9
100
AcDbSymbolTableRecord
100
AcDbRegAppTableRecord
  2
MCAD_NO_VIS
 70
     0
  0
APPID
  5
31
330
9
100
AcDbSymbolTableRecord
100
AcDbRegAppTableRecord
  2
ACAD_TEMP_GRAPHIC
 70
     0
  0
APPID
  5
44
330
9
100
AcDbSymbolTableRecord
100
AcDbRegAppTableRecord
  2
ACATTRIBSERVICES
 70
     0
  0
APPID
  5
108
330
9
100
AcDbSymbolTableRecord
100
AcDbRegAppTableRecord
  2
AD_DRAW
 70
     0
  0
APPID
  5
126
330
9
100
AcDbSymbolTableRecord
100
AcDbRegAppTableRecord
  2
DESIGNERASSEMBLIES
 70
     0
  0
APPID
  5
12A
330
9
100
AcDbSymbolTableRecord
100
AcDbRegAppTableRecord
  2
ACADM_DIM_EDIT
 70
     0
  0
APPID
  5
12B
330
9
100
AcDbSymbolTableRecord
100
AcDbRegAppTableRecord
  2
AMDT_DM_ADJ
 70
     0
  0
APPID
  5
1A4
330
9
100
AcDbSymbolTableRecord
100
AcDbRegAppTableRecord
  2
ACAD_DSTYLE_DIMARC_LENGTH_SYMBOL
 70
     0
  0
APPID
  5
1A5
330
9
100
AcDbSymbolTableRecord
100
AcDbRegAppTableRecord
  2
ACAD_DSTYLE_DIMJOGGED_JOGANGLE_SYMBOL
 70
     0
  0
APPID
  5
22C
330
9
100
AcDbSymbolTableRecord
100
AcDbRegAppTableRecord
  2
AcAecLayerStandard
 70
     0
  0
APPID
  5
3C5
330
9
100
AcDbSymbolTableRecord
100
AcDbRegAppTableRecord
  2
GENIUS_GENODEF_13
 70
     0
  0
APPID
  5
3C6
330
9
100
AcDbSymbolTableRecord
100
AcDbRegAppTableRecord
  2
GENIUS_GENOBJ-N-CEN_13
 70
     0
  0
APPID
  5
3C7
330
9
100
AcDbSymbolTableRecord
100
AcDbRegAppTableRecord
  2
ACAD_PSEXT
 70
     0
  0
APPID
  5
3C8
330
9
100
AcDbSymbolTableRecord
100
AcDbRegAppTableRecord
  2
GENIUS_GENCEN_19
 70
     0
  0
ENDTAB
  0
TABLE
  2
DIMSTYLE
  5
A
330
0
100
AcDbSymbolTable
 70
    12
100
AcDbDimStyleTable
 71
     1
340
6F
  0
DIMSTYLE
105
6F
102
{ACAD_REACTORS
330
4B
102
}
330
A
100
AcDbSymbolTableRecord
100
AcDbDimStyleTableRecord
  2
AM_DIN
 70
     0
  4
"
 41
2.5
 42
1.0
 43
10.0
 44
1.0
 47
0.1
 48
0.1
 73
     0
 74
     0
 77
     1
 78
     8
 79
     2
140
3.5
141
0.0
143
0.0393701
146
0.71
147
1.5
172
     1
176
   256
177
   256
178
     2
271
     2
272
     3
274
     4
283
     0
284
     8
340
11
371
    -1
372
    -1
1001
ACAD_DSTYLE_DIMARC_LENGTH_SYMBOL
1070
   379
1070
     0
1001
ACAD_DSTYLE_DIMJOGGED_JOGANGLE_SYMBOL
1070
   384
1040
1.570796326794896
  0
DIMSTYLE
105
70
330
A
100
AcDbSymbolTableRecord
100
AcDbDimStyleTableRecord
  2
AM_DIN$3
 70
     0
  4
"
 41
2.5
 42
1.0
 43
10.0
 44
1.0
 47
0.1
 48
0.1
 73
     0
 77
     1
 78
     8
 79
     2
140
3.5
141
0.0
143
0.0393701
146
0.71
147
1.5
176
   256
177
   256
178
     2
271
     2
272
     3
274
     4
283
     0
284
     8
288
     1
289
     0
340
11
371
    -1
372
    -1
1001
ACAD_DSTYLE_DIMARC_LENGTH_SYMBOL
1070
   379
1070
     0
1001
ACAD_DSTYLE_DIMJOGGED_JOGANGLE_SYMBOL
1070
   384
1040
1.570796326794896
  0
DIMSTYLE
105
71
330
A
100
AcDbSymbolTableRecord
100
AcDbDimStyleTableRecord
  2
AM_DIN$4
 70
     0
  4
"
 41
2.5
 42
1.0
 43
10.0
 44
1.0
 47
0.1
 48
0.1
 73
     0
 77
     1
 78
     8
 79
     2
140
3.5
141
0.0
143
0.0393701
146
0.71
147
1.5
176
   256
177
   256
178
     2
271
     2
272
     3
274
     4
283
     0
284
     8
288
     1
289
     0
340
11
371
    -1
372
    -1
1001
ACAD_DSTYLE_DIMARC_LENGTH_SYMBOL
1070
   379
1070
     0
1001
ACAD_DSTYLE_DIMJOGGED_JOGANGLE_SYMBOL
1070
   384
1040
1.570796326794896
  0
DIMSTYLE
105
72
330
A
100
AcDbSymbolTableRecord
100
AcDbDimStyleTableRecord
  2
AM_DIN$6
 70
     0
  4
"
 41
2.5
 42
1.0
 43
10.0
 44
1.0
 47
0.1
 48
0.1
 73
     0
 74
     0
 78
     8
 79
     2
140
3.5
141
0.0
143
0.0393701
146
0.71
147
1.5
172
     1
176
   256
177
   256
178
     2
271
     2
272
     3
274
     4
283
     0
284
     8
340
11
371
    -1
372
    -1
1001
ACAD_DSTYLE_DIMARC_LENGTH_SYMBOL
1070
   379
1070
     0
1001
ACAD_DSTYLE_DIMJOGGED_JOGANGLE_SYMBOL
1070
   384
1040
1.570796326794896
  0
DIMSTYLE
105
73
330
A
100
AcDbSymbolTableRecord
100
AcDbDimStyleTableRecord
  2
AM_DIN$7
 70
     0
  4
"
 41
2.5
 42
1.0
 43
10.0
 44
1.0
 47
0.1
 48
0.1
 73
     0
 74
     0
 77
     1
 78
     8
 79
     2
140
5.0
141
0.0
143
0.0393701
146
0.71
147
1.5
172
     1
176
   256
177
   256
178
     2
271
     2
272
     3
274
     4
283
     0
284
     8
340
11
371
    -1
372
    -1
1001
ACAD_DSTYLE_DIMARC_LENGTH_SYMBOL
1070
   379
1070
     0
1001
ACAD_DSTYLE_DIMJOGGED_JOGANGLE_SYMBOL
1070
   384
1040
1.570796326794896
  0
DIMSTYLE
105
74
330
A
100
AcDbSymbolTableRecord
100
AcDbDimStyleTableRecord
  2
AM_DIN$SF
 70
     0
  4
"
 41
2.5
 42
1.0
 43
10.0
 44
1.0
 47
0.1
 48
0.1
 73
     0
 74
     0
 75
     1
 76
     1
 77
     1
 78
     8
 79
     2
140
3.5
141
0.0
143
0.0393701
146
0.71
147
1.5
172
     1
176
   256
177
   256
178
     2
271
     2
272
     3
274
     4
283
     0
284
     8
340
11
371
    -1
372
    -1
1001
ACAD_DSTYLE_DIMARC_LENGTH_SYMBOL
1070
   379
1070
     0
1001
ACAD_DSTYLE_DIMJOGGED_JOGANGLE_SYMBOL
1070
   384
1040
1.570796326794896
  0
DIMSTYLE
105
79
330
A
100
AcDbSymbolTableRecord
100
AcDbDimStyleTableRecord
  2
AM_DIN$SH
 70
     0
  4
"
 41
2.5
 42
1.0
 43
10.0
 44
1.0
 47
0.1
 48
0.1
 73
     0
 74
     0
 75
     1
 76
     1
 77
     1
 78
     8
 79
     2
140
3.5
141
0.0
143
0.0393701
144
2.0
146
0.71
147
1.5
172
     1
173
     1
176
   256
177
   256
178
     2
271
     2
272
     3
274
     4
283
     0
284
     8
340
11
343
75
371
    -1
372
    -1
1001
ACAD_DSTYLE_DIMARC_LENGTH_SYMBOL
1070
   379
1070
     0
1001
ACAD_DSTYLE_DIMJOGGED_JOGANGLE_SYMBOL
1070
   384
1040
1.570796326794896
  0
DIMSTYLE
105
3C1
330
A
100
AcDbSymbolTableRecord
100
AcDbDimStyleTableRecord
  2
AM_ISO
 70
     0
  4
"
 41
2.5
 42
1.0
 43
10.0
 44
1.0
 47
0.1
 48
0.1
 73
     0
 74
     0
 77
     1
 78
     8
 79
     2
140
3.5
141
0.0
143
0.0393701
146
0.71
147
1.5
172
     1
176
   256
177
   256
178
     2
271
     2
272
     3
274
     4
283
     0
284
     8
340
11
371
    -1
372
    -1
  0
DIMSTYLE
105
3C3
102
{ACAD_REACTORS
330
3D0
330
3CC
330
3CE
330
3D2
330
3CB
330
3CD
330
3D1
330
3CF
330
88F
330
890
330
891
330
892
330
893
330
894
330
895
330
896
102
}
330
A
100
AcDbSymbolTableRecord
100
AcDbDimStyleTableRecord
  2
AM_ISO$0
 70
     0
  4
"
 41
2.5
 42
1.0
 43
10.0
 44
1.0
 47
0.1
 48
0.1
 73
     0
 74
     0
 77
     1
 78
     8
 79
     2
140
3.5
141
0.0
143
0.0393701
146
0.71
147
1.5
172
     1
176
     3
177
     3
178
     2
271
     2
272
     2
283
     0
284
     8
340
11
371
    -1
372
    -1
1001
ACAD_DSTYLE_DIMARC_LENGTH_SYMBOL
1070
   379
1070
     1
1001
ACAD_DSTYLE_DIMJOGGED_JOGANGLE_SYMBOL
1070
   384
1040
0.7853981633974483
  0
ENDTAB
  0
TABLE
  2
BLOCK_RECORD
  5
1
330
0
100
AcDbSymbolTable
 70
    26
  0
BLOCK_RECORD
  5
1F
102
{ACAD_XDICTIONARY
360
83
102
}
330
1
100
AcDbSymbolTableRecord
100
AcDbBlockTableRecord
  2
*Model_Space
340
22
  0
BLOCK_RECORD
  5
1B
330
1
100
AcDbSymbolTableRecord
100
AcDbBlockTableRecord
  2
*Paper_Space
340
1E
  0
BLOCK_RECORD
  5
23
330
1
100
AcDbSymbolTableRecord
100
AcDbBlockTableRecord
  2
*Paper_Space0
340
26
  0
BLOCK_RECORD
  5
75
330
1
100
AcDbSymbolTableRecord
100
AcDbBlockTableRecord
  2
GENAXEH
340
0
  0
BLOCK_RECORD
  5
36F
330
1
100
AcDbSymbolTableRecord
100
AcDbBlockTableRecord
  2
asver
340
0
310
2800000020000000200000000100080000000000000400000000000000000000000000000000000000000000000080000080000000808000800000008000800080800000C0C0C000C0DCC000F0CAA6000020400000206000002080000020A0000020C0000020E00000400000004020000040400000406000004080000040A0
310
000040C0000040E00000600000006020000060400000606000006080000060A0000060C0000060E00000800000008020000080400000806000008080000080A0000080C0000080E00000A0000000A0200000A0400000A0600000A0800000A0A00000A0C00000A0E00000C0000000C0200000C0400000C0600000C0800000C0
310
A00000C0C00000C0E00000E0000000E0200000E0400000E0600000E0800000E0A00000E0C00000E0E00040000000400020004000400040006000400080004000A0004000C0004000E00040200000402020004020400040206000402080004020A0004020C0004020E000404000004040200040404000404060004040800040
310
40A0004040C0004040E00040600000406020004060400040606000406080004060A0004060C0004060E00040800000408020004080400040806000408080004080A0004080C0004080E00040A0000040A0200040A0400040A0600040A0800040A0A00040A0C00040A0E00040C0000040C0200040C0400040C0600040C08000
310
40C0A00040C0C00040C0E00040E0000040E0200040E0400040E0600040E0800040E0A00040E0C00040E0E00080000000800020008000400080006000800080008000A0008000C0008000E00080200000802020008020400080206000802080008020A0008020C0008020E00080400000804020008040400080406000804080
310
008040A0008040C0008040E00080600000806020008060400080606000806080008060A0008060C0008060E00080800000808020008080400080806000808080008080A0008080C0008080E00080A0000080A0200080A0400080A0600080A0800080A0A00080A0C00080A0E00080C0000080C0200080C0400080C0600080C0
310
800080C0A00080C0C00080C0E00080E0000080E0200080E0400080E0600080E0800080E0A00080E0C00080E0E000C0000000C0002000C0004000C0006000C0008000C000A000C000C000C000E000C0200000C0202000C0204000C0206000C0208000C020A000C020C000C020E000C0400000C0402000C0404000C0406000C0
310
408000C040A000C040C000C040E000C0600000C0602000C0604000C0606000C0608000C060A000C060C000C060E000C0800000C0802000C0804000C0806000C0808000C080A000C080C000C080E000C0A00000C0A02000C0A04000C0A06000C0A08000C0A0A000C0A0C000C0A0E000C0C00000C0C02000C0C04000C0C06000
310
C0C08000C0C0A000F0FBFF00A4A0A000808080000000FF0000FF000000FFFF00FF000000FF00FF00FFFF0000FFFFFF000000000000000000000000000000000000000000000000000000000000000000000000000000000000FAFAFAFAFAFAFAFAFAFAFAFAFAFA000000000000000000000000000000000000FA0000000000
310
00000000000000FA000000000000000000000000000000000000FA00FAFAFA00000000FAFAFA00FA000000000000000000000000000000000000FAFAFAFAFAFA0000FAFAFAFAFAFA000000000000000000000000000000000000FA00FAFAFAFA000000FAFAFAFAFA000000000000000000000000000000000000FA00FAFAFA
310
00000000FAFAFA00FA000000000000000000000000000000000000FAFAFAFAFAFAFAFAFAFAFAFAFAFA000000000000000000000000000000000000FA000000000000000000000000FA000000000000000000000000000000000000FA000000000000000000000000FA000000000000000000000000000000000000FA000000
310
000000000000000000FA000000000000000000000000000000000000FA000000000000000000000000FA000000000000000000000000000000000000FA000000000000000000000000FA000000000000000000000000000000000000FA000000000000000000000000FA000000000000000000000000000000000000FA0000
310
00000000000000000000FA000000000000000000000000000000000000FA000000000000000000000000FA000000000000000000000000000000000000FA000000000000000000000000FA000000000000000000000000000000000000FA000000000000000000000000FA000000000000000000000000000000000000FA00
310
0000000000000000000000FA000000000000000000000000000000000000FA000000000000000000000000FA000000000000000000000000000000000000FA000000000000000000000000FA000000000000000000000000000000000000FA000000000000000000000000FA000000000000000000000000000000000000FA
310
000000000000000000000000FA000000000000000000000000000000000000FA000000000000000000000000FA000000000000000000000000000000000000FA000000000000000000000000FA000000000000000000000000000000000000FA000000000000000000000000FA000000000000000000000000000000000000
310
FA000000000000000000000000FA000000000000000000000000000000000000FA000000000000000000000000FA000000000000000000000000000000000000FA000000000000000000000000FA000000000000000000000000000000000000FA000000000000000000000000FA0000000000000000000000000000000000
310
00FAFAFAFAFAFAFAFAFAFAFAFAFAFA0000000000000000000000000000000000000000000000000000000000000000000000000000000000
102
{BLKREFS
331
410
331
411
331
8D4
331
8D5
102
}
1001
ACAD
1000
DesignCenter Data
1002
{
1070
     1
1070
     4
1002
}
  0
BLOCK_RECORD
  5
393
330
1
100
AcDbSymbolTableRecord
100
AcDbBlockTableRecord
  2
NXXXX80
340
0
102
{BLKREFS
331
4A4
331
4EA
331
968
331
9AE
102
}
  0
BLOCK_RECORD
  5
39E
330
1
100
AcDbSymbolTableRecord
100
AcDbBlockTableRecord
  2
N_GF_5
340
0
102
{BLKREFS
331
3A6
102
}
  0
BLOCK_RECORD
  5
3A3
330
1
100
AcDbSymbolTableRecord
100
AcDbBlockTableRecord
  2
NXXXX93
340
0
102
{BLKREFS
331
4B7
331
4FD
331
97B
331
9C1
102
}
  0
BLOCK_RECORD
  5
3A9
330
1
100
AcDbSymbolTableRecord
100
AcDbBlockTableRecord
  2
N_GF_7
340
0
102
{BLKREFS
331
3B1
102
}
  0
BLOCK_RECORD
  5
3AE
330
1
100
AcDbSymbolTableRecord
100
AcDbBlockTableRecord
  2
NXXXX95
340
0
102
{BLKREFS
331
4CA
331
510
331
98E
331
9D4
102
}
  0
BLOCK_RECORD
  5
D4D
330
1
100
AcDbSymbolTableRecord
100
AcDbBlockTableRecord
  2
*D18
340
0
  0
BLOCK_RECORD
  5
D59
330
1
100
AcDbSymbolTableRecord
100
AcDbBlockTableRecord
  2
*D19
340
0
  0
BLOCK_RECORD
  5
D65
330
1
100
AcDbSymbolTableRecord
100
AcDbBlockTableRecord
  2
*D20
340
0
  0
BLOCK_RECORD
  5
D71
330
1
100
AcDbSymbolTableRecord
100
AcDbBlockTableRecord
  2
*D21
340
0
  0
BLOCK_RECORD
  5
D7D
330
1
100
AcDbSymbolTableRecord
100
AcDbBlockTableRecord
  2
*D22
340
0
  0
BLOCK_RECORD
  5
D89
330
1
100
AcDbSymbolTableRecord
100
AcDbBlockTableRecord
  2
*D23
340
0
  0
BLOCK_RECORD
  5
D95
330
1
100
AcDbSymbolTableRecord
100
AcDbBlockTableRecord
  2
*D24
340
0
  0
BLOCK_RECORD
  5
DA1
330
1
100
AcDbSymbolTableRecord
100
AcDbBlockTableRecord
  2
*D25
340
0
  0
ENDTAB
  0
ENDSEC
  0
SECTION
  2
BLOCKS
  0
BLOCK
  5
20
330
1F
100
AcDbEntity
  8
0
100
AcDbBlockBegin
  2
*Model_Space
 70
     0
 10
0.0
 20
0.0
 30
0.0
  3
*Model_Space
  1

  0
ENDBLK
  5
21
330
1F
100
AcDbEntity
  8
0
100
AcDbBlockEnd
  0
BLOCK
  5
1C
330
1B
100
AcDbEntity
 67
     1
  8
0
100
AcDbBlockBegin
  2
*Paper_Space
 70
     0
 10
0.0
 20
0.0
 30
0.0
  3
*Paper_Space
  1

  0
ENDBLK
  5
1D
330
1B
100
AcDbEntity
 67
     1
  8
0
100
AcDbBlockEnd
  0
BLOCK
  5
24
330
23
100
AcDbEntity
 67
     1
  8
0
100
AcDbBlockBegin
  2
*Paper_Space0
 70
     0
 10
0.0
 20
0.0
 30
0.0
  3
*Paper_Space0
  1

  0
ENDBLK
  5
25
330
23
100
AcDbEntity
 67
     1
  8
0
100
AcDbBlockEnd
  0
BLOCK
  5
77
330
75
100
AcDbEntity
  8
0
100
AcDbBlockBegin
  2
GENAXEH
 70
     0
 10
0.0
 20
0.0
 30
0.0
  3
GENAXEH
  1

  0
LINE
  5
76
330
75
100
AcDbEntity
  8
0
100
AcDbLine
 10
-1.0
 20
0.0
 30
0.0
 11
1.0
 21
0.0
 31
0.0
  0
ENDBLK
  5
78
330
75
100
AcDbEntity
  8
0
100
AcDbBlockEnd
  0
BLOCK
  5
370
330
36F
100
AcDbEntity
  8
0
100
AcDbBlockBegin
  2
asver
 70
     0
 10
0.0
 20
0.0
 30
0.0
  3
asver
  1

  0
LINE
  5
371
330
36F
100
AcDbEntity
  8
0
 62
     3
100
AcDbLine
 10
-20034.11803663987
 20
4945.546841299362
 30
0.0
 11
-19999.11803663987
 21
4945.546903389384
 31
0.0
  0
LINE
  5
372
330
36F
100
AcDbEntity
  8
0
 62
     3
100
AcDbLine
 10
-19999.117730789
 20
4799.340794298523
 30
0.0
 11
-20030.65038533446
 21
4799.340736807753
 31
0.0
  0
LINE
  5
373
330
36F
100
AcDbEntity
  8
0
 62
     3
100
AcDbLine
 10
-20034.11777218236
 20
4830.54684129938
 30
0.0
 11
-19964.11777218236
 21
4830.546965479428
 31
0.0
  0
LINE
  5
374
330
36F
100
AcDbEntity
  8
0
 62
     3
100
AcDbLine
 10
-20034.11777218236
 20
4830.546841299366
 30
0.0
 11
-20034.11803663987
 21
4945.546841299362
 31
0.0
  0
POINT
  5
375
330
36F
100
AcDbEntity
  8
0
 62
     3
100
AcDbPoint
 10
-20034.11777218236
 20
4830.546841299366
 30
0.0
  0
ARC
  5
376
330
36F
100
AcDbEntity
  8
0
 62
     3
100
AcDbCircle
 10
-20030.65042212854
 20
4827.079500444091
 30
0.0
 40
3.467345454545453
100
AcDbArc
 50
90.00007600002845
 51
180.000030000003
  0
ARC
  5
377
330
36F
100
AcDbEntity
  8
0
 62
     3
100
AcDbCircle
 10
-20030.65038993373
 20
4802.808082262298
 30
0.0
 40
3.467345454545453
100
AcDbArc
 50
180.000030000003
 51
270.0000760000285
  0
LINE
  5
378
330
36F
100
AcDbEntity
  8
0
 62
     3
100
AcDbLine
 10
-20034.11773538827
 20
4802.808077663041
 30
0.0
 11
-20034.11776758309
 21
4827.079495844839
 31
0.0
  0
LINE
  5
379
330
36F
100
AcDbEntity
  8
0
 62
     3
100
AcDbLine
 10
-19964.11777218236
 20
4830.546965479428
 30
0.0
 11
-19964.11803663987
 21
4945.546965479428
 31
0.0
  0
LINE
  5
37A
330
36F
100
AcDbEntity
  8
0
 62
     3
100
AcDbLine
 10
-19977.81750523331
 20
4806.49222936789
 30
0.0
 11
-19977.81752765471
 21
4823.39553845879
 31
0.0
  0
ARC
  5
37B
330
36F
100
AcDbEntity
  8
0
 62
     3
100
AcDbCircle
 10
-19967.58511303763
 20
4827.079615425631
 30
0.0
 40
3.467345454545453
100
AcDbArc
 50
0.0001220000018565
 51
90.00007600002845
  0
POINT
  5
37C
330
36F
100
AcDbEntity
  8
0
 62
     3
100
AcDbPoint
 10
-19964.11777218236
 20
4830.546965479428
 30
0.0
  0
ARC
  5
37D
330
36F
100
AcDbEntity
  8
0
 62
     3
100
AcDbCircle
 10
-19967.58508084281
 20
4802.808197243837
 30
0.0
 40
3.467345454545453
100
AcDbArc
 50
270.0
 51
0.0000760000024379
  0
LINE
  5
37E
330
36F
100
AcDbEntity
  8
0
 62
     3
100
AcDbLine
 10
-19969.3585973765
 20
4814.943954945381
 30
0.0
 11
-19974.2381736224
 21
4806.492253619516
 31
0.0
  0
LINE
  5
37F
330
36F
100
AcDbEntity
  8
0
 62
     3
100
AcDbLine
 10
-19969.35867409157
 20
4814.943993952926
 30
0.0
 11
-19974.23821944841
 21
4823.395583514457
 31
0.0
  0
LINE
  5
380
330
36F
100
AcDbEntity
  8
0
 62
     3
100
AcDbLine
 10
-19964.11773538827
 20
4802.808201843091
 30
0.0
 11
-19964.11776758309
 21
4827.079620024888
 31
0.0
  0
LINE
  5
381
330
36F
100
AcDbEntity
  8
0
 62
     3
100
AcDbLine
 10
-19983.99724581556
 20
4806.49222117078
 30
0.0
 11
-19988.87688219043
 21
4814.943968062987
 31
0.0
  0
LINE
  5
382
330
36F
100
AcDbEntity
  8
0
 62
     3
100
AcDbLine
 10
-19983.99734755254
 20
4823.395570569452
 30
0.0
 11
-19988.87682237877
 21
4814.94400837096
 31
0.0
  0
LINE
  5
383
330
36F
100
AcDbEntity
  8
0
 62
     3
100
AcDbLine
 10
-19980.41801432422
 20
4806.49222591845
 30
0.0
 11
-19980.41803674562
 21
4823.39553500934
 31
0.0
  0
LINE
  5
384
330
36F
100
AcDbEntity
  8
0
 62
     3
100
AcDbLine
 10
-19983.99738786037
 20
4823.395530261516
 30
0.0
 11
-19974.23823635166
 21
4823.395543206544
 31
0.0
  0
LINE
  5
385
330
36F
100
AcDbEntity
  8
0
 62
     3
100
AcDbLine
 10
-19983.99726531938
 20
4806.492221170746
 30
0.0
 11
-19974.23823343408
 21
4806.492234115622
 31
0.0
  0
LINE
  5
386
330
36F
100
AcDbEntity
  8
0
 62
     3
100
AcDbLine
 10
-19999.117730789
 20
4799.340794298523
 30
0.0
 11
-19967.58507624354
 21
4799.340851789295
 31
0.0
  0
CIRCLE
  5
387
330
36F
100
AcDbEntity
  8
0
 62
     3
100
AcDbCircle
 10
-19979.11775148564
 20
4814.94388218865
 30
0.0
 40
8.451635041636361
  0
LINE
  5
388
330
36F
100
AcDbEntity
  8
0
 62
     3
100
AcDbLine
 10
-19964.11803663987
 20
4945.546965479428
 30
0.0
 11
-19999.11803663987
 21
4945.546903389384
 31
0.0
  0
LINE
  5
389
330
36F
100
AcDbEntity
  8
0
 62
     3
100
AcDbLine
 10
-20020.41798242174
 20
4806.492151698106
 30
0.0
 11
-20020.41802163704
 21
4823.395460788976
 31
0.0
  0
LINE
  5
38A
330
36F
100
AcDbEntity
  8
0
 62
     3
100
AcDbLine
 10
-20028.8769210971
 20
4814.943846430745
 30
0.0
 11
-20023.99731403271
 21
4806.492162897959
 31
0.0
  0
LINE
  5
38B
330
36F
100
AcDbEntity
  8
0
 62
     3
100
AcDbLine
 10
-20028.87684438217
 20
4814.943885438569
 30
0.0
 11
-20023.99732984348
 21
4823.395492792954
 31
0.0
  0
LINE
  5
38C
330
36F
100
AcDbEntity
  8
0
 62
     3
100
AcDbLine
 10
-20014.23824183951
 20
4806.492166034975
 30
0.0
 11
-20009.35863628335
 21
4814.943930720367
 31
0.0
  0
LINE
  5
38D
330
36F
100
AcDbEntity
  8
0
 62
     3
100
AcDbLine
 10
-20014.23820173937
 20
4823.395515433906
 30
0.0
 11
-20009.35869609516
 21
4814.943971028122
 31
0.0
  0
LINE
  5
38E
330
36F
100
AcDbEntity
  8
0
 62
     3
100
AcDbLine
 10
-20017.81747333084
 20
4806.492157731236
 30
0.0
 11
-20017.81751254613
 21
4823.395466822095
 31
0.0
  0
LINE
  5
38F
330
36F
100
AcDbEntity
  8
0
 62
     3
100
AcDbLine
 10
-20014.23816143139
 20
4823.395475126116
 30
0.0
 11
-20023.99731294008
 21
4823.395452485102
 31
0.0
  0
LINE
  5
390
330
36F
100
AcDbEntity
  8
0
 62
     3
100
AcDbLine
 10
-20014.23822233568
 20
4806.492166035012
 30
0.0
 11
-20023.99725422097
 21
4806.492143394282
 31
0.0
  0
CIRCLE
  5
391
330
36F
100
AcDbEntity
  8
0
 62
     3
100
AcDbCircle
 10
-20019.11776698776
 20
4814.943809260066
 30
0.0
 40
8.451635041636359
  0
ENDBLK
  5
392
330
36F
100
AcDbEntity
  8
0
100
AcDbBlockEnd
  0
BLOCK
  5
394
330
393
100
AcDbEntity
  8
0
  6
Continuous
100
AcDbBlockBegin
  2
NXXXX80
 70
     0
 10
0.0
 20
0.0
 30
0.0
  3
NXXXX80
  1

  0
ATTDEF
  5
395
330
393
100
AcDbEntity
  8
0
  6
Continuous
 62
     7
100
AcDbText
 10
391.0630000000002
 20
1476.628
 30
0.0
 40
1.0
  1
XXXX80
100
AcDbAttributeDefinition
  3
XXXXXXXX
  2
GRUPPE
 70
     3
  0
LINE
  5
396
330
393
100
AcDbEntity
  8
TEXT
  6
Continuous
 62
     7
100
AcDbLine
 10
390.064
 20
1461.051
 30
0.0
 11
383.564
 21
1457.297999999999
 31
0.0
  0
POLYLINE
  5
397
330
393
100
AcDbEntity
  8
TEXT
  6
Continuous
 62
     7
100
AcDb2dPolyline
 66
     1
 10
0.0
 20
0.0
 30
0.0
  0
VERTEX
  5
398
330
397
100
AcDbEntity
  8
TEXT
  6
Continuous
 62
     7
100
AcDbVertex
100
AcDb2dVertex
 10
390.0630000000002
 20
1464.876
 30
0.0
  0
VERTEX
  5
399
330
397
100
AcDbEntity
  8
TEXT
  6
Continuous
 62
     7
100
AcDbVertex
100
AcDb2dVertex
 10
383.563
 20
1464.876
 30
0.0
  0
VERTEX
  5
39A
330
397
100
AcDbEntity
  8
TEXT
  6
Continuous
 62
     7
100
AcDbVertex
100
AcDb2dVertex
 10
383.563
 20
1472.298
 30
0.0
  0
VERTEX
  5
39B
330
397
100
AcDbEntity
  8
TEXT
  6
Continuous
 62
     7
100
AcDbVertex
100
AcDb2dVertex
 10
390.064
 20
1476.051
 30
0.0
  0
SEQEND
  5
39C
330
397
100
AcDbEntity
  8
TEXT
  6
Continuous
 62
     7
  0
ENDBLK
  5
39D
330
393
100
AcDbEntity
  8
AM_7
100
AcDbBlockEnd
  0
BLOCK
  5
39F
330
39E
100
AcDbEntity
  8
0
  6
Continuous
100
AcDbBlockBegin
  2
N_GF_5
 70
     0
 10
0.0
 20
0.0
 30
0.0
  3
N_GF_5
  1

  0
ATTDEF
  5
3A0
330
39E
100
AcDbEntity
  8
0
  6
Continuous
 62
     7
100
AcDbText
 10
528.064
 20
1508.627
 30
0.0
 40
1.0
  1
_GF_5
100
AcDbAttributeDefinition
  3
_GF_XXXX
  2
GRUPPE
 70
     3
  0
LINE
  5
3A1
330
39E
100
AcDbEntity
  8
TEXT
  6
Continuous
 62
     7
100
AcDbLine
 10
401.5629999999998
 20
1865.523
 30
0.0
 11
585.5629999999997
 21
1865.523
 31
0.0
  0
ENDBLK
  5
3A2
330
39E
100
AcDbEntity
  8
AM_7
100
AcDbBlockEnd
  0
BLOCK
  5
3A4
330
3A3
100
AcDbEntity
  8
0
  6
Continuous
100
AcDbBlockBegin
  2
NXXXX93
 70
     0
 10
0.0
 20
0.0
 30
0.0
  3
NXXXX93
  1

  0
ATTDEF
  5
3A5
330
3A3
100
AcDbEntity
  8
0
  6
VERDECKT
 62
     2
100
AcDbText
 10
788.0639999999997
 20
1793.523
 30
0.0
 40
1.0
  1
XXXX93
100
AcDbAttributeDefinition
  3
XXXXXXXX
  2
GRUPPE
 70
     3
  0
INSERT
  5
3A6
330
3A3
100
AcDbEntity
  8
0
100
AcDbBlockReference
  2
N_GF_5
 10
0.0
 20
0.0
 30
0.0
  0
LINE
  5
3A7
330
3A3
100
AcDbEntity
  8
TEXT
  6
Continuous
 62
     7
100
AcDbLine
 10
585.564
 20
1793.523
 30
0.0
 11
383.064
 21
1793.523
 31
0.0
  0
ENDBLK
  5
3A8
330
3A3
100
AcDbEntity
  8
AM_7
100
AcDbBlockEnd
  0
BLOCK
  5
3AA
330
3A9
100
AcDbEntity
  8
0
  6
Continuous
100
AcDbBlockBegin
  2
N_GF_7
 70
     0
 10
0.0
 20
0.0
 30
0.0
  3
N_GF_7
  1

  0
ATTDEF
  5
3AB
330
3A9
100
AcDbEntity
  8
0
  6
Continuous
 62
     7
100
AcDbText
 10
528.064
 20
1508.627
 30
0.0
 40
1.0
  1
_GF_7
100
AcDbAttributeDefinition
  3
_GF_XXXX
  2
GRUPPE
 70
     3
  0
LINE
  5
3AC
330
3A9
100
AcDbEntity
  8
TEXT
  6
Continuous
 62
     7
100
AcDbLine
 10
769.564
 20
1865.523
 30
0.0
 11
585.564
 21
1865.523
 31
0.0
  0
ENDBLK
  5
3AD
330
3A9
100
AcDbEntity
  8
AM_7
100
AcDbBlockEnd
  0
BLOCK
  5
3AF
330
3AE
100
AcDbEntity
  8
0
  6
Continuous
100
AcDbBlockBegin
  2
NXXXX95
 70
     0
 10
0.0
 20
0.0
 30
0.0
  3
NXXXX95
  1

  0
ATTDEF
  5
3B0
330
3AE
100
AcDbEntity
  8
0
  6
VERDECKT
 62
     2
100
AcDbText
 10
383.064
 20
1793.523
 30
0.0
 40
1.0
  1
XXXX95
100
AcDbAttributeDefinition
  3
XXXXXXXX
  2
GRUPPE
 70
     3
  0
INSERT
  5
3B1
330
3AE
100
AcDbEntity
  8
0
100
AcDbBlockReference
  2
N_GF_7
 10
0.0
 20
0.0
 30
0.0
  0
LINE
  5
3B2
330
3AE
100
AcDbEntity
  8
TEXT
  6
Continuous
 62
     7
100
AcDbLine
 10
585.564
 20
1793.523
 30
0.0
 11
788.0639999999997
 21
1793.523
 31
0.0
  0
ENDBLK
  5
3B3
330
3AE
100
AcDbEntity
  8
AM_7
100
AcDbBlockEnd
  0
BLOCK
  5
D57
330
D4D
100
AcDbEntity
  8
0
100
AcDbBlockBegin
  2
*D18
 70
     1
 10
0.0
 20
0.0
 30
0.0
  3
*D18
  1

  0
LINE
  5
DAD
330
D4D
100
AcDbEntity
  8
AM_5
 62
     3
100
AcDbLine
 10
1488.229967660719
 20
3024.601660424945
 30
0.0
 11
1190.009802148195
 21
3024.601660424945
 31
0.0
  0
LINE
  5
DAE
330
D4D
100
AcDbEntity
  8
AM_5
 62
     3
100
AcDbLine
 10
1365.729967660719
 20
4029.601660424945
 30
0.0
 11
1190.009802148195
 21
4029.601660424945
 31
0.0
  0
LINE
  5
DAF
330
D4D
100
AcDbEntity
  8
AM_5
 62
     3
100
AcDbLine
 10
1200.009802148195
 20
3049.601660424946
 30
0.0
 11
1200.009802148195
 21
4004.601660424945
 31
0.0
  0
SOLID
  5
DB0
330
D4D
100
AcDbEntity
  8
AM_5
 62
     3
100
AcDbTrace
 10
1195.843135481528
 20
3049.601660424946
 30
0.0
 11
1204.176468814862
 21
3049.601660424946
 31
0.0
 12
1200.009802148195
 22
3024.601660424945
 32
0.0
 13
1200.009802148195
 23
3024.601660424945
 33
0.0
  0
SOLID
  5
DB1
330
D4D
100
AcDbEntity
  8
AM_5
 62
     3
100
AcDbTrace
 10
1195.843135481528
 20
4004.601660424945
 30
0.0
 11
1204.176468814862
 21
4004.601660424945
 31
0.0
 12
1200.009802148195
 22
4029.601660424945
 32
0.0
 13
1200.009802148195
 23
4029.601660424945
 33
0.0
  0
MTEXT
  5
DB2
330
D4D
100
AcDbEntity
  8
AM_5
 62
     2
100
AcDbMText
 10
1167.509802148194
 20
3629.601660420222
 30
0.0
 40
35.0
 41
0.0
 71
     5
 72
     1
  1
1000
 11
0.0000000000000001
 21
1.0
 31
0.0
 73
     1
 44
1.0
1001
ACAD
1000
MTEXTBEGIN
1070
    73
1070
     1
1070
    44
1040
1.0
1070
    74
1070
     0
1000
MTEXTEND
  0
POINT
  5
DB3
330
D4D
100
AcDbEntity
  8
DEFPOINTS
 62
     0
100
AcDbPoint
 10
1498.229967660719
 20
3024.601660424945
 30
0.0
  0
POINT
  5
DB4
330
D4D
100
AcDbEntity
  8
DEFPOINTS
 62
     0
100
AcDbPoint
 10
1375.729967660719
 20
4029.601660424945
 30
0.0
  0
POINT
  5
DB5
330
D4D
100
AcDbEntity
  8
DEFPOINTS
 62
     0
100
AcDbPoint
 10
1200.009802148195
 20
4029.601660424945
 30
0.0
  0
ENDBLK
  5
D58
330
D4D
100
AcDbEntity
  8
0
100
AcDbBlockEnd
  0
BLOCK
  5
D63
330
D59
100
AcDbEntity
  8
0
100
AcDbBlockBegin
  2
*D19
 70
     1
 10
0.0
 20
0.0
 30
0.0
  3
*D19
  1

  0
LINE
  5
DB6
330
D59
100
AcDbEntity
  8
AM_5
 62
     3
100
AcDbLine
 10
2646.697954367542
 20
3026.079475128227
 30
0.0
 11
3065.246373239775
 21
3026.079475128227
 31
0.0
  0
LINE
  5
DB7
330
D59
100
AcDbEntity
  8
AM_5
 62
     3
100
AcDbLine
 10
2745.229967660723
 20
3959.601660424946
 30
0.0
 11
3065.246373239776
 21
3959.601660424946
 31
0.0
  0
LINE
  5
DB8
330
D59
100
AcDbEntity
  8
AM_5
 62
     3
100
AcDbLine
 10
3055.246373239775
 20
3051.079475128227
 30
0.0
 11
3055.246373239775
 21
3934.601660424945
 31
0.0
  0
SOLID
  5
DB9
330
D59
100
AcDbEntity
  8
AM_5
 62
     3
100
AcDbTrace
 10
3051.079706573109
 20
3051.079475128227
 30
0.0
 11
3059.413039906442
 21
3051.079475128227
 31
0.0
 12
3055.246373239775
 22
3026.079475128227
 32
0.0
 13
3055.246373239775
 23
3026.079475128227
 33
0.0
  0
SOLID
  5
DBA
330
D59
100
AcDbEntity
  8
AM_5
 62
     3
100
AcDbTrace
 10
3051.079706573109
 20
3934.601660424945
 30
0.0
 11
3059.413039906442
 21
3934.601660424945
 31
0.0
 12
3055.246373239775
 22
3959.601660424946
 32
0.0
 13
3055.246373239775
 23
3959.601660424946
 33
0.0
  0
MTEXT
  5
DBB
330
D59
100
AcDbEntity
  8
AM_5
 62
     2
100
AcDbMText
 10
3022.746373239775
 20
3594.601660424947
 30
0.0
 40
35.0
 41
0.0
 71
     5
 72
     1
  1
930
 11
0.0000000000000001
 21
1.0
 31
0.0
 73
     1
 44
1.0
1001
ACAD
1000
MTEXTBEGIN
1070
    73
1070
     1
1070
    44
1040
1.0
1070
    74
1070
     0
1000
MTEXTEND
  0
POINT
  5
DBC
330
D59
100
AcDbEntity
  8
DEFPOINTS
 62
     0
100
AcDbPoint
 10
2636.697954367542
 20
3026.079475128227
 30
0.0
  0
POINT
  5
DBD
330
D59
100
AcDbEntity
  8
DEFPOINTS
 62
     0
100
AcDbPoint
 10
2735.229967660723
 20
3959.601660424946
 30
0.0
  0
POINT
  5
DBE
330
D59
100
AcDbEntity
  8
DEFPOINTS
 62
     0
100
AcDbPoint
 10
3055.246373239775
 20
3959.601660424946
 30
0.0
  0
ENDBLK
  5
D64
330
D59
100
AcDbEntity
  8
0
100
AcDbBlockEnd
  0
BLOCK
  5
D6F
330
D65
100
AcDbEntity
  8
0
100
AcDbBlockBegin
  2
*D20
 70
     1
 10
0.0
 20
0.0
 30
0.0
  3
*D20
  1

  0
LINE
  5
DBF
330
D65
100
AcDbEntity
  8
AM_5
 62
     3
100
AcDbLine
 10
1365.729246699088
 20
4024.601660420222
 30
0.0
 11
1259.389586271752
 21
4024.601660420222
 31
0.0
  0
LINE
  5
DC0
330
D65
100
AcDbEntity
  8
AM_5
 62
     3
100
AcDbLine
 10
1365.729246699088
 20
4134.601660420219
 30
0.0
 11
1259.389586271752
 21
4134.601660420219
 31
0.0
  0
LINE
  5
DC1
330
D65
100
AcDbEntity
  8
AM_5
 62
     3
100
AcDbLine
 10
1269.389586271752
 20
4049.601660420221
 30
0.0
 11
1269.389586271752
 21
4109.60166042022
 31
0.0
  0
SOLID
  5
DC2
330
D65
100
AcDbEntity
  8
AM_5
 62
     3
100
AcDbTrace
 10
1265.222919605086
 20
4049.601660420221
 30
0.0
 11
1273.556252938419
 21
4049.601660420221
 31
0.0
 12
1269.389586271752
 22
4024.601660420222
 32
0.0
 13
1269.389586271752
 23
4024.601660420222
 33
0.0
  0
SOLID
  5
DC3
330
D65
100
AcDbEntity
  8
AM_5
 62
     3
100
AcDbTrace
 10
1265.222919605086
 20
4109.60166042022
 30
0.0
 11
1273.556252938419
 21
4109.60166042022
 31
0.0
 12
1269.389586271752
 22
4134.601660420219
 32
0.0
 13
1269.389586271752
 23
4134.601660420219
 33
0.0
  0
MTEXT
  5
DC4
330
D65
100
AcDbEntity
  8
AM_5
 62
     2
100
AcDbMText
 10
1236.889586271752
 20
4081.822291930549
 30
0.0
 40
35.0
 41
0.0
 71
     5
 72
     1
  1
%%c110
 11
0.0000000000000001
 21
1.0
 31
0.0
 73
     1
 44
1.0
1001
ACAD
1000
MTEXTBEGIN
1070
    73
1070
     1
1070
    44
1040
1.0
1070
    74
1070
     0
1000
MTEXTEND
  0
POINT
  5
DC5
330
D65
100
AcDbEntity
  8
DEFPOINTS
 62
     0
100
AcDbPoint
 10
1375.729246699088
 20
4024.601660420222
 30
0.0
  0
POINT
  5
DC6
330
D65
100
AcDbEntity
  8
DEFPOINTS
 62
     0
100
AcDbPoint
 10
1375.729246699088
 20
4134.601660420219
 30
0.0
  0
POINT
  5
DC7
330
D65
100
AcDbEntity
  8
DEFPOINTS
 62
     0
100
AcDbPoint
 10
1269.389586271752
 20
4134.601660420219
 30
0.0
  0
ENDBLK
  5
D70
330
D65
100
AcDbEntity
  8
0
100
AcDbBlockEnd
  0
BLOCK
  5
D7B
330
D71
100
AcDbEntity
  8
0
100
AcDbBlockBegin
  2
*D21
 70
     1
 10
0.0
 20
0.0
 30
0.0
  3
*D21
  1

  0
LINE
  5
DC8
330
D71
100
AcDbEntity
  8
AM_5
 62
     3
100
AcDbLine
 10
2745.229967660723
 20
3954.601660424945
 30
0.0
 11
2899.752396608806
 21
3954.601660424945
 31
0.0
  0
LINE
  5
DC9
330
D71
100
AcDbEntity
  8
AM_5
 62
     3
100
AcDbLine
 10
2745.229967660723
 20
4064.601660424945
 30
0.0
 11
2899.752396608806
 21
4064.601660424945
 31
0.0
  0
LINE
  5
DCA
330
D71
100
AcDbEntity
  8
AM_5
 62
     3
100
AcDbLine
 10
2889.752396608806
 20
3979.601660424945
 30
0.0
 11
2889.752396608806
 21
4039.601660424945
 31
0.0
  0
SOLID
  5
DCB
330
D71
100
AcDbEntity
  8
AM_5
 62
     3
100
AcDbTrace
 10
2885.585729942139
 20
3979.601660424945
 30
0.0
 11
2893.919063275473
 21
3979.601660424945
 31
0.0
 12
2889.752396608806
 22
3954.601660424945
 32
0.0
 13
2889.752396608806
 23
3954.601660424945
 33
0.0
  0
SOLID
  5
DCC
330
D71
100
AcDbEntity
  8
AM_5
 62
     3
100
AcDbTrace
 10
2885.585729942139
 20
4039.601660424945
 30
0.0
 11
2893.919063275473
 21
4039.601660424945
 31
0.0
 12
2889.752396608806
 22
4064.601660424945
 32
0.0
 13
2889.752396608806
 23
4064.601660424945
 33
0.0
  0
MTEXT
  5
DCD
330
D71
100
AcDbEntity
  8
AM_5
 62
     2
100
AcDbMText
 10
2857.252396608806
 20
4009.601660424945
 30
0.0
 40
35.0
 41
0.0
 71
     5
 72
     1
  1
%%c110
 11
0.0000000000000001
 21
1.0
 31
0.0
 73
     1
 44
1.0
1001
ACAD
1000
MTEXTBEGIN
1070
    73
1070
     1
1070
    44
1040
1.0
1070
    74
1070
     0
1000
MTEXTEND
  0
POINT
  5
DCE
330
D71
100
AcDbEntity
  8
DEFPOINTS
 62
     0
100
AcDbPoint
 10
2735.229967660723
 20
3954.601660424945
 30
0.0
  0
POINT
  5
DCF
330
D71
100
AcDbEntity
  8
DEFPOINTS
 62
     0
100
AcDbPoint
 10
2735.229967660723
 20
4064.601660424945
 30
0.0
  0
POINT
  5
DD0
330
D71
100
AcDbEntity
  8
DEFPOINTS
 62
     0
100
AcDbPoint
 10
2889.752396608806
 20
4064.601660424945
 30
0.0
  0
ENDBLK
  5
D7C
330
D71
100
AcDbEntity
  8
0
100
AcDbBlockEnd
  0
BLOCK
  5
D87
330
D7D
100
AcDbEntity
  8
0
100
AcDbBlockBegin
  2
*D22
 70
     1
 10
0.0
 20
0.0
 30
0.0
  3
*D22
  1

  0
LINE
  5
DD1
330
D7D
100
AcDbEntity
  8
AM_5
 62
     3
100
AcDbLine
 10
1375.729967660723
 20
1626.350095447026
 30
0.0
 11
1375.729967660723
 21
1087.345525667612
 31
0.0
  0
LINE
  5
DD2
330
D7D
100
AcDbEntity
  8
AM_5
 62
     3
100
AcDbLine
 10
2735.229967660723
 20
1626.350095447025
 30
0.0
 11
2735.229967660723
 21
1087.345525667612
 31
0.0
  0
LINE
  5
DD3
330
D7D
100
AcDbEntity
  8
AM_5
 62
     3
100
AcDbLine
 10
1400.729967660723
 20
1097.345525667612
 30
0.0
 11
2710.229967660723
 21
1097.345525667612
 31
0.0
  0
SOLID
  5
DD4
330
D7D
100
AcDbEntity
  8
AM_5
 62
     3
100
AcDbTrace
 10
1400.729967660723
 20
1101.512192334278
 30
0.0
 11
1400.729967660723
 21
1093.178859000945
 31
0.0
 12
1375.729967660723
 22
1097.345525667612
 32
0.0
 13
1375.729967660723
 23
1097.345525667612
 33
0.0
  0
SOLID
  5
DD5
330
D7D
100
AcDbEntity
  8
AM_5
 62
     3
100
AcDbTrace
 10
2710.229967660723
 20
1101.512192334278
 30
0.0
 11
2710.229967660723
 21
1093.178859000945
 31
0.0
 12
2735.229967660723
 22
1097.345525667612
 32
0.0
 13
2735.229967660723
 23
1097.345525667612
 33
0.0
  0
MTEXT
  5
DD6
330
D7D
100
AcDbEntity
  8
AM_5
 62
     2
100
AcDbMText
 10
2052.446071335545
 20
1129.845525667612
 30
0.0
 40
35.0
 41
0.0
 71
     5
 72
     1
  1
1360
 73
     1
 44
1.0
1001
ACAD
1000
MTEXTBEGIN
1070
    73
1070
     1
1070
    44
1040
1.0
1070
    74
1070
     0
1000
MTEXTEND
  0
POINT
  5
DD7
330
D7D
100
AcDbEntity
  8
DEFPOINTS
 62
     0
100
AcDbPoint
 10
1375.729967660723
 20
1636.350095447026
 30
0.0
  0
POINT
  5
DD8
330
D7D
100
AcDbEntity
  8
DEFPOINTS
 62
     0
100
AcDbPoint
 10
2735.229967660723
 20
1636.350095447025
 30
0.0
  0
POINT
  5
DD9
330
D7D
100
AcDbEntity
  8
DEFPOINTS
 62
     0
100
AcDbPoint
 10
2735.229967660723
 20
1097.345525667612
 30
0.0
  0
ENDBLK
  5
D88
330
D7D
100
AcDbEntity
  8
0
100
AcDbBlockEnd
  0
BLOCK
  5
D93
330
D89
100
AcDbEntity
  8
0
100
AcDbBlockBegin
  2
*D23
 70
     1
 10
0.0
 20
0.0
 30
0.0
  3
*D23
  1

  0
LINE
  5
DDA
330
D89
100
AcDbEntity
  8
AM_5
 62
     3
100
AcDbLine
 10
2646.697954367542
 20
3026.079475128227
 30
0.0
 11
3155.94869265573
 21
3026.079475128227
 31
0.0
  0
LINE
  5
DDB
330
D89
100
AcDbEntity
  8
AM_5
 62
     3
100
AcDbLine
 10
2534.730467660717
 20
4339.601660424947
 30
0.0
 11
3155.948692655731
 21
4339.601660424947
 31
0.0
  0
LINE
  5
DDC
330
D89
100
AcDbEntity
  8
AM_5
 62
     3
100
AcDbLine
 10
3145.948692655731
 20
3051.079475128227
 30
0.0
 11
3145.948692655731
 21
4314.601660424947
 31
0.0
  0
SOLID
  5
DDD
330
D89
100
AcDbEntity
  8
AM_5
 62
     3
100
AcDbTrace
 10
3141.782025989064
 20
3051.079475128227
 30
0.0
 11
3150.115359322397
 21
3051.079475128227
 31
0.0
 12
3145.948692655731
 22
3026.079475128227
 32
0.0
 13
3145.948692655731
 23
3026.079475128227
 33
0.0
  0
SOLID
  5
DDE
330
D89
100
AcDbEntity
  8
AM_5
 62
     3
100
AcDbTrace
 10
3141.782025989065
 20
4314.601660424947
 30
0.0
 11
3150.115359322398
 21
4314.601660424947
 31
0.0
 12
3145.948692655731
 22
4339.601660424947
 32
0.0
 13
3145.948692655731
 23
4339.601660424947
 33
0.0
  0
MTEXT
  5
DDF
330
D89
100
AcDbEntity
  8
AM_5
 62
     2
100
AcDbMText
 10
3113.44869265573
 20
3694.601660424945
 30
0.0
 40
35.0
 41
0.0
 71
     5
 72
     1
  1
1350
 11
0.0000000000000001
 21
1.0
 31
0.0
 73
     1
 44
1.0
1001
ACAD
1000
MTEXTBEGIN
1070
    73
1070
     1
1070
    44
1040
1.0
1070
    74
1070
     0
1000
MTEXTEND
  0
POINT
  5
DE0
330
D89
100
AcDbEntity
  8
DEFPOINTS
 62
     0
100
AcDbPoint
 10
2636.697954367542
 20
3026.079475128227
 30
0.0
  0
POINT
  5
DE1
330
D89
100
AcDbEntity
  8
DEFPOINTS
 62
     0
100
AcDbPoint
 10
2524.730467660717
 20
4339.601660424947
 30
0.0
  0
POINT
  5
DE2
330
D89
100
AcDbEntity
  8
DEFPOINTS
 62
     0
100
AcDbPoint
 10
3145.948692655731
 20
4339.601660424947
 30
0.0
  0
ENDBLK
  5
D94
330
D89
100
AcDbEntity
  8
0
100
AcDbBlockEnd
  0
BLOCK
  5
D9F
330
D95
100
AcDbEntity
  8
0
100
AcDbBlockBegin
  2
*D24
 70
     1
 10
0.0
 20
0.0
 30
0.0
  3
*D24
  1

  0
LINE
  5
DE3
330
D95
100
AcDbEntity
  8
AM_5
 62
     3
100
AcDbLine
 10
1980.729967660722
 20
2041.350095447027
 30
0.0
 11
1105.510013050627
 21
2041.350095447027
 31
0.0
  0
LINE
  5
DE4
330
D95
100
AcDbEntity
  8
AM_5
 62
     3
100
AcDbLine
 10
1975.729967660723
 20
1341.350095447026
 30
0.0
 11
1105.510013050626
 21
1341.350095447026
 31
0.0
  0
LINE
  5
DE5
330
D95
100
AcDbEntity
  8
AM_5
 62
     3
100
AcDbLine
 10
1115.510013050626
 20
2016.350095447027
 30
0.0
 11
1115.510013050626
 21
1366.350095447027
 31
0.0
  0
SOLID
  5
DE6
330
D95
100
AcDbEntity
  8
AM_5
 62
     3
100
AcDbTrace
 10
1111.34334638396
 20
2016.350095447027
 30
0.0
 11
1119.676679717293
 21
2016.350095447027
 31
0.0
 12
1115.510013050626
 22
2041.350095447027
 32
0.0
 13
1115.510013050626
 23
2041.350095447027
 33
0.0
  0
SOLID
  5
DE7
330
D95
100
AcDbEntity
  8
AM_5
 62
     3
100
AcDbTrace
 10
1111.343346383959
 20
1366.350095447027
 30
0.0
 11
1119.676679717293
 21
1366.350095447027
 31
0.0
 12
1115.510013050626
 22
1341.350095447026
 32
0.0
 13
1115.510013050626
 23
1341.350095447026
 33
0.0
  0
MTEXT
  5
DE8
330
D95
100
AcDbEntity
  8
AM_5
 62
     2
100
AcDbMText
 10
1083.010013050626
 20
1691.350095447026
 30
0.0
 40
35.0
 41
0.0
 71
     5
 72
     1
  1
700
 11
0.0000000000000001
 21
1.0
 31
0.0
 73
     1
 44
1.0
1001
ACAD
1000
MTEXTBEGIN
1070
    73
1070
     1
1070
    44
1040
1.0
1070
    74
1070
     0
1000
MTEXTEND
  0
POINT
  5
DE9
330
D95
100
AcDbEntity
  8
DEFPOINTS
 62
     0
100
AcDbPoint
 10
1990.729967660723
 20
2041.350095447027
 30
0.0
  0
POINT
  5
DEA
330
D95
100
AcDbEntity
  8
DEFPOINTS
 62
     0
100
AcDbPoint
 10
1985.729967660723
 20
1341.350095447026
 30
0.0
  0
POINT
  5
DEB
330
D95
100
AcDbEntity
  8
DEFPOINTS
 62
     0
100
AcDbPoint
 10
1115.510013050626
 20
1341.350095447026
 30
0.0
  0
ENDBLK
  5
DA0
330
D95
100
AcDbEntity
  8
0
100
AcDbBlockEnd
  0
BLOCK
  5
DAB
330
DA1
100
AcDbEntity
  8
0
100
AcDbBlockBegin
  2
*D25
 70
     1
 10
0.0
 20
0.0
 30
0.0
  3
*D25
  1

  0
LINE
  5
DEC
330
DA1
100
AcDbEntity
  8
AM_5
 62
     3
100
AcDbLine
 10
1473.229967660719
 20
3039.60166042495
 30
0.0
 11
1473.229967660719
 21
2915.720803978397
 31
0.0
  0
LINE
  5
DED
330
DA1
100
AcDbEntity
  8
AM_5
 62
     3
100
AcDbLine
 10
2653.229967660719
 20
3039.60166042495
 30
0.0
 11
2653.229967660719
 21
2915.720803978397
 31
0.0
  0
LINE
  5
DEE
330
DA1
100
AcDbEntity
  8
AM_5
 62
     3
100
AcDbLine
 10
1498.229967660719
 20
2925.720803978397
 30
0.0
 11
2628.229967660719
 21
2925.720803978397
 31
0.0
  0
SOLID
  5
DEF
330
DA1
100
AcDbEntity
  8
AM_5
 62
     3
100
AcDbTrace
 10
1498.229967660719
 20
2929.887470645063
 30
0.0
 11
1498.229967660719
 21
2921.55413731173
 31
0.0
 12
1473.229967660719
 22
2925.720803978397
 32
0.0
 13
1473.229967660719
 23
2925.720803978397
 33
0.0
  0
SOLID
  5
DF0
330
DA1
100
AcDbEntity
  8
AM_5
 62
     3
100
AcDbTrace
 10
2628.229967660719
 20
2929.887470645063
 30
0.0
 11
2628.229967660719
 21
2921.55413731173
 31
0.0
 12
2653.229967660719
 22
2925.720803978397
 32
0.0
 13
2653.229967660719
 23
2925.720803978397
 33
0.0
  0
MTEXT
  5
DF1
330
DA1
100
AcDbEntity
  8
AM_5
 62
     2
100
AcDbMText
 10
2063.229967660719
 20
2958.224248860286
 30
0.0
 40
35.0
 41
0.0
 71
     5
 72
     1
  1
1200
 73
     1
 44
1.0
1001
ACAD
1000
MTEXTBEGIN
1070
    73
1070
     1
1070
    44
1040
1.0
1070
    74
1070
     0
1000
MTEXTEND
  0
POINT
  5
DF2
330
DA1
100
AcDbEntity
  8
DEFPOINTS
 62
     0
100
AcDbPoint
 10
1473.229967660719
 20
3049.60166042495
 30
0.0
  0
POINT
  5
DF3
330
DA1
100
AcDbEntity
  8
DEFPOINTS
 62
     0
100
AcDbPoint
 10
2653.229967660719
 20
3049.60166042495
 30
0.0
  0
POINT
  5
DF4
330
DA1
100
AcDbEntity
  8
DEFPOINTS
 62
     0
100
AcDbPoint
 10
2653.229967660719
 20
2925.720803978397
 30
0.0
  0
ENDBLK
  5
DAC
330
DA1
100
AcDbEntity
  8
0
100
AcDbBlockEnd
  0
ENDSEC
  0
SECTION
  2
ENTITIES
  0
DIMENSION
  5
88F
330
1F
100
AcDbEntity
  8
AM_5
100
AcDbDimension
  2
*D18
 10
1200.009802148195
 20
4029.601660424945
 30
0.0
 11
1200.009802148194
 21
3629.601660420222
 31
0.0
 70
   160
  1
1000
 71
     5
 42
1005.0
  3
AM_ISO$0
100
AcDbAlignedDimension
 13
1498.229967660719
 23
3024.601660424945
 33
0.0
 14
1375.729967660719
 24
4029.601660424945
 34
0.0
 50
90.0
100
AcDbRotatedDimension
1001
ACAD
1000
DSTYLE
1002
{
1070
    40
1040
10.0
1070
   271
1070
     0
1002
}
  0
DIMENSION
  5
890
330
1F
100
AcDbEntity
  8
AM_5
100
AcDbDimension
  2
*D19
 10
3055.246373239775
 20
3959.601660424946
 30
0.0
 11
3055.246373239775
 21
3594.601660424947
 31
0.0
 70
   160
  1
930
 71
     5
 42
933.5221852967183
  3
AM_ISO$0
100
AcDbAlignedDimension
 13
2636.697954367542
 23
3026.079475128227
 33
0.0
 14
2735.229967660723
 24
3959.601660424946
 34
0.0
 50
90.0
100
AcDbRotatedDimension
1001
ACAD
1000
DSTYLE
1002
{
1070
    40
1040
10.0
1070
   271
1070
     0
1002
}
  0
DIMENSION
  5
891
330
1F
100
AcDbEntity
  8
AM_5
100
AcDbDimension
  2
*D20
 10
1269.389586271752
 20
4134.601660420219
 30
0.0
 11
1269.389586271752
 21
4081.822291930549
 31
0.0
 70
   160
  1
%%c<>
 71
     5
 42
109.9999999999977
  3
AM_ISO$0
100
AcDbAlignedDimension
 13
1375.729246699088
 23
4024.601660420222
 33
0.0
 14
1375.729246699088
 24
4134.601660420219
 34
0.0
 50
90.0
100
AcDbRotatedDimension
1001
ACAD
1000
DSTYLE
1002
{
1070
    40
1040
10.0
1070
   271
1070
     0
1002
}
  0
DIMENSION
  5
892
330
1F
100
AcDbEntity
  8
AM_5
100
AcDbDimension
  2
*D21
 10
2889.752396608806
 20
4064.601660424945
 30
0.0
 11
2889.752396608806
 21
4009.601660424945
 31
0.0
 70
   160
  1
%%c<>
 71
     5
 42
110.0
  3
AM_ISO$0
100
AcDbAlignedDimension
 13
2735.229967660723
 23
3954.601660424945
 33
0.0
 14
2735.229967660723
 24
4064.601660424945
 34
0.0
 50
90.0
100
AcDbRotatedDimension
1001
ACAD
1000
DSTYLE
1002
{
1070
    40
1040
10.0
1070
   271
1070
     0
1002
}
  0
DIMENSION
  5
893
330
1F
100
AcDbEntity
  8
AM_5
100
AcDbDimension
  2
*D22
 10
2735.229967660723
 20
1097.345525667612
 30
0.0
 11
2052.446071335545
 21
1097.345525667612
 31
0.0
 70
   160
 71
     5
 42
1359.5
  3
AM_ISO$0
100
AcDbAlignedDimension
 13
1375.729967660723
 23
1636.350095447026
 33
0.0
 14
2735.229967660723
 24
1636.350095447025
 34
0.0
100
AcDbRotatedDimension
1001
ACAD
1000
DSTYLE
1002
{
1070
    40
1040
10.0
1070
   271
1070
     0
1002
}
  0
DIMENSION
  5
894
330
1F
100
AcDbEntity
  8
AM_5
100
AcDbDimension
  2
*D23
 10
3145.948692655731
 20
4339.601660424947
 30
0.0
 11
3145.948692655731
 21
3694.601660424945
 31
0.0
 70
   160
  1
1350
 71
     5
 42
1313.52218529672
  3
AM_ISO$0
100
AcDbAlignedDimension
 13
2636.697954367542
 23
3026.079475128227
 33
0.0
 14
2524.730467660717
 24
4339.601660424947
 34
0.0
 50
90.0
100
AcDbRotatedDimension
1001
ACAD
1000
DSTYLE
1002
{
1070
    40
1040
10.0
1070
   271
1070
     0
1002
}
  0
DIMENSION
  5
895
330
1F
100
AcDbEntity
  8
AM_5
100
AcDbDimension
  2
*D24
 10
1115.510013050626
 20
1341.350095447026
 30
0.0
 11
1115.510013050626
 21
1691.350095447026
 31
0.0
 70
   160
 71
     5
 42
700.0
  3
AM_ISO$0
100
AcDbAlignedDimension
 13
1990.729967660723
 23
2041.350095447027
 33
0.0
 14
1985.729967660723
 24
1341.350095447026
 34
0.0
 50
90.0
100
AcDbRotatedDimension
1001
ACAD
1000
DSTYLE
1002
{
1070
    40
1040
10.0
1070
   271
1070
     0
1002
}
  0
DIMENSION
  5
896
330
1F
100
AcDbEntity
  8
AM_5
100
AcDbDimension
  2
*D25
 10
2653.229967660719
 20
2925.720803978397
 30
0.0
 11
2063.229967660719
 21
2958.224248860286
 31
0.0
 70
    32
  1
1200
 71
     5
 42
1180.0
  3
AM_ISO$0
100
AcDbAlignedDimension
 13
1473.229967660719
 23
3049.60166042495
 33
0.0
 14
2653.229967660719
 24
3049.60166042495
 34
0.0
100
AcDbRotatedDimension
1001
ACAD
1000
DSTYLE
1002
{
1070
    40
1040
10.0
1070
   271
1070
     0
1002
}
  0
TEXT
  5
897
330
1F
100
AcDbEntity
  8
AM_6
100
AcDbText
 10
1148.552442519126
 20
1782.997800527021
 30
0.0
 40
27.0
  1
Zulauf
100
AcDbText
  0
TEXT
  5
898
330
1F
100
AcDbEntity
  8
AM_6
100
AcDbText
 10
1148.552442519126
 20
1745.497800527021
 30
0.0
 40
27.0
  1
DN 100
100
AcDbText
  0
LINE
  5
899
330
1F
100
AcDbEntity
  8
406
  6
AUSGEZOGEN
 62
     7
100
AcDbLine
 10
1306.390268207892
 20
1689.475095447026
 30
0.0
 11
1306.390268207892
 21
1693.225827867024
 31
0.0
  0
LINE
  5
89A
330
1F
100
AcDbEntity
  8
406
  6
AUSGEZOGEN
 62
     7
100
AcDbLine
 10
1305.140268207892
 20
1688.225095447026
 30
0.0
 11
1305.140268207892
 21
1694.475827867024
 31
0.0
  0
LINE
  5
89B
330
1F
100
AcDbEntity
  8
406
  6
AUSGEZOGEN
 62
     7
100
AcDbLine
 10
1303.890268207892
 20
1686.975095447026
 30
0.0
 11
1303.890268207892
 21
1695.725827867024
 31
0.0
  0
LINE
  5
89C
330
1F
100
AcDbEntity
  8
406
  6
AUSGEZOGEN
 62
     7
100
AcDbLine
 10
1302.640268207892
 20
1685.725095447026
 30
0.0
 11
1302.640268207892
 21
1696.975827867024
 31
0.0
  0
LINE
  5
89D
330
1F
100
AcDbEntity
  8
406
  6
AUSGEZOGEN
 62
     7
100
AcDbLine
 10
1301.390268207892
 20
1684.475095447026
 30
0.0
 11
1301.390268207892
 21
1698.225827867023
 31
0.0
  0
LINE
  5
89E
330
1F
100
AcDbEntity
  8
406
  6
AUSGEZOGEN
 62
     7
100
AcDbLine
 10
1300.140268207892
 20
1683.225095447026
 30
0.0
 11
1300.140268207892
 21
1699.475827867024
 31
0.0
  0
LINE
  5
89F
330
1F
100
AcDbEntity
  8
406
  6
AUSGEZOGEN
 62
     7
100
AcDbLine
 10
1298.890268207892
 20
1681.975095447026
 30
0.0
 11
1298.890268207892
 21
1700.725827867024
 31
0.0
  0
LINE
  5
8A0
330
1F
100
AcDbEntity
  8
406
  6
AUSGEZOGEN
 62
     7
100
AcDbLine
 10
1297.640268207892
 20
1680.725095447026
 30
0.0
 11
1297.640268207892
 21
1701.975827867024
 31
0.0
  0
LINE
  5
8A1
330
1F
100
AcDbEntity
  8
406
  6
AUSGEZOGEN
 62
     7
100
AcDbLine
 10
1296.390268207892
 20
1679.475095447026
 30
0.0
 11
1296.390268207892
 21
1703.225827867024
 31
0.0
  0
LINE
  5
8A2
330
1F
100
AcDbEntity
  8
406
  6
AUSGEZOGEN
 62
     7
100
AcDbLine
 10
1295.140268207892
 20
1678.225095447026
 30
0.0
 11
1295.140268207892
 21
1704.475827867024
 31
0.0
  0
LINE
  5
8A3
330
1F
100
AcDbEntity
  8
406
  6
AUSGEZOGEN
 62
     7
100
AcDbLine
 10
1293.890268207892
 20
1676.975095447026
 30
0.0
 11
1293.890268207892
 21
1705.725827867024
 31
0.0
  0
LINE
  5
8A4
330
1F
100
AcDbEntity
  8
406
  6
AUSGEZOGEN
 62
     7
100
AcDbLine
 10
1292.640268207892
 20
1675.724363027021
 30
0.0
 11
1292.640268207892
 21
1706.974851307026
 31
0.0
  0
LINE
  5
8A5
330
1F
100
AcDbEntity
  8
406
  6
AUSGEZOGEN
 62
     7
100
AcDbLine
 10
1291.390268207892
 20
1674.474363027021
 30
0.0
 11
1291.390268207892
 21
1708.224851307027
 31
0.0
  0
LINE
  5
8A6
330
1F
100
AcDbEntity
  8
406
  6
AUSGEZOGEN
 62
     7
100
AcDbLine
 10
1290.140268207892
 20
1673.224363027021
 30
0.0
 11
1290.140268207892
 21
1709.474851307026
 31
0.0
  0
LINE
  5
8A7
330
1F
100
AcDbEntity
  8
406
  6
AUSGEZOGEN
 62
     7
100
AcDbLine
 10
1288.890268207892
 20
1671.974363027021
 30
0.0
 11
1288.890268207892
 21
1710.724851307027
 31
0.0
  0
LINE
  5
8A8
330
1F
100
AcDbEntity
  8
406
  6
AUSGEZOGEN
 62
     7
100
AcDbLine
 10
1287.640268207892
 20
1670.724363027021
 30
0.0
 11
1287.640268207892
 21
1711.974851307027
 31
0.0
  0
LINE
  5
8A9
330
1F
100
AcDbEntity
  8
406
  6
AUSGEZOGEN
 62
     7
100
AcDbLine
 10
1286.390268207892
 20
1669.474363027021
 30
0.0
 11
1286.390268207892
 21
1713.224851307026
 31
0.0
  0
LINE
  5
8AA
330
1F
100
AcDbEntity
  8
406
  6
AUSGEZOGEN
 62
     7
100
AcDbLine
 10
1285.140268207892
 20
1668.224363027021
 30
0.0
 11
1285.140268207892
 21
1714.474851307027
 31
0.0
  0
LINE
  5
8AB
330
1F
100
AcDbEntity
  8
406
  6
AUSGEZOGEN
 62
     7
100
AcDbLine
 10
1283.890268207892
 20
1666.974363027021
 30
0.0
 11
1283.890268207892
 21
1715.725339587025
 31
0.0
  0
LINE
  5
8AC
330
1F
100
AcDbEntity
  8
406
  6
AUSGEZOGEN
 62
     7
100
AcDbLine
 10
1282.640268207892
 20
1665.724363027021
 30
0.0
 11
1282.640268207892
 21
1716.974851307027
 31
0.0
  0
LINE
  5
8AD
330
1F
100
AcDbEntity
  8
406
  6
AUSGEZOGEN
 62
     7
100
AcDbLine
 10
1281.390268207892
 20
1664.474363027021
 30
0.0
 11
1281.390268207892
 21
1718.224851307027
 31
0.0
  0
LINE
  5
8AE
330
1F
100
AcDbEntity
  8
406
  6
AUSGEZOGEN
 62
     7
100
AcDbLine
 10
1280.140268207892
 20
1663.224363027021
 30
0.0
 11
1280.140268207892
 21
1719.474851307026
 31
0.0
  0
LINE
  5
8AF
330
1F
100
AcDbEntity
  8
406
  6
AUSGEZOGEN
 62
     7
100
AcDbLine
 10
1278.8902682079
 20
1661.974363027021
 30
0.0
 11
1278.8902682079
 21
1720.725339587025
 31
0.0
  0
LINE
  5
8B0
330
1F
100
AcDbEntity
  8
406
  6
AUSGEZOGEN
 62
     7
100
AcDbLine
 10
1277.015268207892
 20
1660.100095447026
 30
0.0
 11
1277.015268207892
 21
1722.600095447026
 31
0.0
  0
LINE
  5
8B1
330
1F
100
AcDbEntity
  8
406
  6
AUSGEZOGEN
 62
     7
100
AcDbLine
 10
1277.640268207892
 20
1660.724363027021
 30
0.0
 11
1277.640268207892
 21
1721.975339587025
 31
0.0
  0
LINE
  5
8B2
330
1F
100
AcDbEntity
  8
406
  6
AUSGEZOGEN
 62
     7
100
AcDbLine
 10
1277.015268207892
 20
1722.600095447026
 30
0.0
 11
1308.2652682079
 21
1691.350095447026
 31
0.0
  0
LINE
  5
8B3
330
1F
100
AcDbEntity
  8
406
  6
AUSGEZOGEN
 62
     7
100
AcDbLine
 10
1308.2652682079
 20
1691.350095447026
 30
0.0
 11
1277.015268207892
 21
1660.100095447026
 31
0.0
  0
LINE
  5
8B4
330
1F
100
AcDbEntity
  8
406
  6
AUSGEZOGEN
 62
     7
100
AcDbLine
 10
1277.015268207892
 20
1691.350095447026
 30
0.0
 11
1216.613412737898
 21
1691.350095447026
 31
0.0
  0
TEXT
  5
8B5
330
1F
100
AcDbEntity
  8
AM_6
100
AcDbText
 10
2851.799018581581
 20
1781.296628647021
 30
0.0
 40
27.0
  1
Ablauf
100
AcDbText
  0
TEXT
  5
8B6
330
1F
100
AcDbEntity
  8
AM_6
100
AcDbText
 10
2851.799018581581
 20
1743.796628647021
 30
0.0
 40
27.0
  1
DN 100
100
AcDbText
  0
LINE
  5
8B7
330
1F
100
AcDbEntity
  8
406
  6
AUSGEZOGEN
 62
     7
100
AcDbLine
 10
2915.897529321578
 20
1691.350095447025
 30
0.0
 11
2865.22919436158
 21
1691.350095447025
 31
0.0
  0
LINE
  5
8B8
330
1F
100
AcDbEntity
  8
406
  6
AUSGEZOGEN
 62
     7
100
AcDbLine
 10
2946.522529321578
 20
1690.725095447025
 30
0.0
 11
2946.522529321578
 21
1691.975827867023
 31
0.0
  0
LINE
  5
8B9
330
1F
100
AcDbEntity
  8
406
  6
AUSGEZOGEN
 62
     7
100
AcDbLine
 10
2945.272529321578
 20
1689.475095447025
 30
0.0
 11
2945.272529321578
 21
1693.225827867024
 31
0.0
  0
LINE
  5
8BA
330
1F
100
AcDbEntity
  8
406
  6
AUSGEZOGEN
 62
     7
100
AcDbLine
 10
2944.022529321578
 20
1688.225095447025
 30
0.0
 11
2944.022529321578
 21
1694.475827867024
 31
0.0
  0
LINE
  5
8BB
330
1F
100
AcDbEntity
  8
406
  6
AUSGEZOGEN
 62
     7
100
AcDbLine
 10
2942.772529321578
 20
1686.975095447025
 30
0.0
 11
2942.772529321578
 21
1695.725827867024
 31
0.0
  0
LINE
  5
8BC
330
1F
100
AcDbEntity
  8
406
  6
AUSGEZOGEN
 62
     7
100
AcDbLine
 10
2941.522529321578
 20
1685.725095447025
 30
0.0
 11
2941.522529321578
 21
1696.975827867024
 31
0.0
  0
LINE
  5
8BD
330
1F
100
AcDbEntity
  8
406
  6
AUSGEZOGEN
 62
     7
100
AcDbLine
 10
2940.272529321578
 20
1684.475095447025
 30
0.0
 11
2940.272529321578
 21
1698.225827867023
 31
0.0
  0
LINE
  5
8BE
330
1F
100
AcDbEntity
  8
406
  6
AUSGEZOGEN
 62
     7
100
AcDbLine
 10
2939.022529321578
 20
1683.225095447025
 30
0.0
 11
2939.022529321578
 21
1699.475827867024
 31
0.0
  0
LINE
  5
8BF
330
1F
100
AcDbEntity
  8
406
  6
AUSGEZOGEN
 62
     7
100
AcDbLine
 10
2937.772529321578
 20
1681.975095447024
 30
0.0
 11
2937.772529321578
 21
1700.725827867024
 31
0.0
  0
LINE
  5
8C0
330
1F
100
AcDbEntity
  8
406
  6
AUSGEZOGEN
 62
     7
100
AcDbLine
 10
2936.522529321579
 20
1680.725095447025
 30
0.0
 11
2936.522529321579
 21
1701.975827867024
 31
0.0
  0
LINE
  5
8C1
330
1F
100
AcDbEntity
  8
406
  6
AUSGEZOGEN
 62
     7
100
AcDbLine
 10
2935.272529321578
 20
1679.475095447025
 30
0.0
 11
2935.272529321578
 21
1703.225827867024
 31
0.0
  0
LINE
  5
8C2
330
1F
100
AcDbEntity
  8
406
  6
AUSGEZOGEN
 62
     7
100
AcDbLine
 10
2934.022529321578
 20
1678.225095447025
 30
0.0
 11
2934.022529321578
 21
1704.475827867023
 31
0.0
  0
LINE
  5
8C3
330
1F
100
AcDbEntity
  8
406
  6
AUSGEZOGEN
 62
     7
100
AcDbLine
 10
2932.772529321578
 20
1676.975095447025
 30
0.0
 11
2932.772529321578
 21
1705.725827867024
 31
0.0
  0
LINE
  5
8C4
330
1F
100
AcDbEntity
  8
406
  6
AUSGEZOGEN
 62
     7
100
AcDbLine
 10
2931.522529321578
 20
1675.72436302702
 30
0.0
 11
2931.522529321578
 21
1706.974851307026
 31
0.0
  0
LINE
  5
8C5
330
1F
100
AcDbEntity
  8
406
  6
AUSGEZOGEN
 62
     7
100
AcDbLine
 10
2930.272529321579
 20
1674.47436302702
 30
0.0
 11
2930.272529321579
 21
1708.224851307027
 31
0.0
  0
LINE
  5
8C6
330
1F
100
AcDbEntity
  8
406
  6
AUSGEZOGEN
 62
     7
100
AcDbLine
 10
2929.022529321578
 20
1673.22436302702
 30
0.0
 11
2929.022529321578
 21
1709.474851307026
 31
0.0
  0
LINE
  5
8C7
330
1F
100
AcDbEntity
  8
406
  6
AUSGEZOGEN
 62
     7
100
AcDbLine
 10
2927.772529321578
 20
1671.97436302702
 30
0.0
 11
2927.772529321578
 21
1710.724851307027
 31
0.0
  0
LINE
  5
8C8
330
1F
100
AcDbEntity
  8
406
  6
AUSGEZOGEN
 62
     7
100
AcDbLine
 10
2926.522529321578
 20
1670.72436302702
 30
0.0
 11
2926.522529321578
 21
1711.974851307027
 31
0.0
  0
LINE
  5
8C9
330
1F
100
AcDbEntity
  8
406
  6
AUSGEZOGEN
 62
     7
100
AcDbLine
 10
2925.272529321578
 20
1669.47436302702
 30
0.0
 11
2925.272529321578
 21
1713.224851307026
 31
0.0
  0
LINE
  5
8CA
330
1F
100
AcDbEntity
  8
406
  6
AUSGEZOGEN
 62
     7
100
AcDbLine
 10
2924.022529321579
 20
1668.22436302702
 30
0.0
 11
2924.022529321579
 21
1714.474851307025
 31
0.0
  0
LINE
  5
8CB
330
1F
100
AcDbEntity
  8
406
  6
AUSGEZOGEN
 62
     7
100
AcDbLine
 10
2922.772529321578
 20
1666.97436302702
 30
0.0
 11
2922.772529321578
 21
1715.725339587024
 31
0.0
  0
LINE
  5
8CC
330
1F
100
AcDbEntity
  8
406
  6
AUSGEZOGEN
 62
     7
100
AcDbLine
 10
2947.147529321578
 20
1691.350095447025
 30
0.0
 11
2915.897529321578
 21
1660.100095447025
 31
0.0
  0
LINE
  5
8CD
330
1F
100
AcDbEntity
  8
406
  6
AUSGEZOGEN
 62
     7
100
AcDbLine
 10
2915.897529321578
 20
1722.600095447025
 30
0.0
 11
2947.147529321578
 21
1691.350095447025
 31
0.0
  0
LINE
  5
8CE
330
1F
100
AcDbEntity
  8
406
  6
AUSGEZOGEN
 62
     7
100
AcDbLine
 10
2915.897529321578
 20
1660.100095447025
 30
0.0
 11
2915.897529321578
 21
1722.600095447025
 31
0.0
  0
LINE
  5
8CF
330
1F
100
AcDbEntity
  8
406
  6
AUSGEZOGEN
 62
     7
100
AcDbLine
 10
2921.522529321578
 20
1665.72436302702
 30
0.0
 11
2921.522529321578
 21
1716.974851307027
 31
0.0
  0
LINE
  5
8D0
330
1F
100
AcDbEntity
  8
406
  6
AUSGEZOGEN
 62
     7
100
AcDbLine
 10
2920.272529321578
 20
1664.47436302702
 30
0.0
 11
2920.272529321578
 21
1718.224851307026
 31
0.0
  0
LINE
  5
8D1
330
1F
100
AcDbEntity
  8
406
  6
AUSGEZOGEN
 62
     7
100
AcDbLine
 10
2919.022529321578
 20
1663.22436302702
 30
0.0
 11
2919.022529321578
 21
1719.474851307026
 31
0.0
  0
LINE
  5
8D2
330
1F
100
AcDbEntity
  8
406
  6
AUSGEZOGEN
 62
     7
100
AcDbLine
 10
2917.772529321578
 20
1661.97436302702
 30
0.0
 11
2917.772529321578
 21
1720.725339587024
 31
0.0
  0
LINE
  5
8D3
330
1F
100
AcDbEntity
  8
406
  6
AUSGEZOGEN
 62
     7
100
AcDbLine
 10
2916.522529321578
 20
1660.72436302702
 30
0.0
 11
2916.522529321578
 21
1721.975339587024
 31
0.0
  0
INSERT
  5
8D4
330
1F
100
AcDbEntity
  8
0
100
AcDbBlockReference
  2
asver
 10
21329.84751159102
 20
-808.445305056845
 30
0.0
  0
INSERT
  5
8D5
330
1F
100
AcDbEntity
  8
0
100
AcDbBlockReference
  2
asver
 10
22779.34787207184
 20
-878.4451808744183
 30
0.0
  0
LWPOLYLINE
  5
8D6
330
1F
100
AcDbEntity
  8
0
 62
     9
100
AcDbPolyline
 90
        7
 70
     0
 43
0.0
 10
1738.297094368719
 20
3677.497100242945
 10
1786.907060929721
 20
3673.266943705445
 10
1830.183384282221
 20
3670.995892188444
 10
1868.620352031722
 20
3669.744243569945
 10
1902.775007053221
 20
3669.050218111945
 10
1933.254967652218
 20
3668.675757229445
 10
1960.72996073372
 20
3668.495550986445
  0
LWPOLYLINE
  5
8D7
330
1F
100
AcDbEntity
  8
0
 62
     9
100
AcDbPolyline
 90
        7
 70
     0
 43
0.0
 10
1734.615456711222
 20
3663.198760856945
 10
1783.867113326721
 20
3657.967708888446
 10
1827.741075023719
 20
3655.155503237946
 10
1866.740331591719
 20
3653.603810656945
 10
1901.424650768721
 20
3652.742485807445
 10
1932.405497011722
 20
3652.277368528445
 10
1960.358008347722
 20
3652.053488247446
  0
LWPOLYLINE
  5
8D8
330
1F
100
AcDbEntity
  8
0
 62
     9
100
AcDbPolyline
 90
        6
 70
     0
 43
0.0
 10
1960.35684327822
 20
3826.810797142445
 10
1925.030606196219
 20
3826.422976578446
 10
1885.720919829721
 20
3825.549437412945
 10
1841.53491832022
 20
3823.838158600946
 10
1791.71224989972
 20
3820.572352904945
 10
1735.550903639721
 20
3814.217673884945
  0
LWPOLYLINE
  5
8D9
330
1F
100
AcDbEntity
  8
0
 62
     9
100
AcDbPolyline
 90
        6
 70
     0
 43
0.0
 10
1960.72995798972
 20
3809.639502950446
 10
1925.99043603522
 20
3809.327125707945
 10
1887.29845991372
 20
3808.623226011445
 10
1843.768881567722
 20
3807.243058440946
 10
1794.645072948719
 20
3804.606540810944
 10
1739.22855768072
 20
3799.468579556946
  0
LWPOLYLINE
  5
8DA
330
1F
100
AcDbEntity
  8
0
 62
     9
100
AcDbPolyline
 90
        6
 70
     0
 43
0.0
 10
1960.729948528723
 20
3470.248525206446
 10
1927.039667665221
 20
3469.977101151945
 10
1889.027410441719
 20
3469.355663879446
 10
1845.60230810622
 20
3468.095957231446
 10
1795.83305882122
 20
3465.576204423945
 10
1738.870778977719
 20
3460.360402287444
  0
LWPOLYLINE
  5
8DB
330
1F
100
AcDbEntity
  8
0
 62
     9
100
AcDbPolyline
 90
        6
 70
     0
 43
0.0
 10
1960.357479269221
 20
3486.110780076446
 10
1926.08862746022
 20
3485.773651575444
 10
1887.464063796223
 20
3485.002056429445
 10
1843.384084390223
 20
3483.439739438946
 10
1792.914320088222
 20
3480.318703996945
 10
1735.19159481422
 20
3473.867795606945
  0
LINE
  5
8DC
330
1F
100
AcDbEntity
  8
0
100
AcDbLine
 10
1721.918307774221
 20
3024.601660424945
 30
0.0
 11
2628.229967660723
 21
3024.601660424945
 31
0.0
  0
LWPOLYLINE
  5
8DD
330
1F
100
AcDbEntity
  8
0
 62
     9
100
AcDbPolyline
 90
        4
 70
     0
 43
0.0
 10
1735.19159481422
 20
3473.867795606945
 10
1734.783422131223
 20
3536.961469609445
 10
1734.591360104722
 20
3600.077051450446
 10
1734.615456711222
 20
3663.198760856945
  0
ARC
  5
8DE
330
1F
100
AcDbEntity
  8
0
100
AcDbCircle
 10
5478.229967660723
 20
3624.601660424946
 30
0.0
 40
4000.0
100
AcDbArc
 50
174.5758794238149
 51
185.4609587072028
  0
LWPOLYLINE
  5
8DF
330
1F
100
AcDbEntity
  8
0
 62
     9
100
AcDbPolyline
 90
        4
 70
     0
 43
0.0
 10
1738.522741787031
 20
3243.931787443946
 10
1738.15694607372
 20
3261.598348563444
 10
1737.519029850723
 20
3295.445607817945
 10
1736.943524642721
 20
3329.316733655946
  0
ARC
  5
8E0
330
1F
100
AcDbEntity
  8
0
100
AcDbCircle
 10
1498.229967660719
 20
3049.601660424946
 30
0.0
 40
25.0
100
AcDbArc
 50
180.0
 51
270.0
  0
LINE
  5
8E1
330
1F
100
AcDbEntity
  8
0
100
AcDbLine
 10
1473.229967660719
 20
3049.601660424946
 30
0.0
 11
1473.229967660719
 21
3227.281152349446
 31
0.0
  0
LINE
  5
8E2
330
1F
100
AcDbEntity
  8
0
100
AcDbLine
 10
1498.229967660719
 20
3024.601660424945
 30
0.0
 11
1720.110566874221
 21
3024.601660424945
 31
0.0
  0
LINE
  5
8E3
330
1F
100
AcDbEntity
  8
0
 62
     9
100
AcDbLine
 10
1473.229967660719
 20
3049.601660424946
 30
0.0
 11
2653.229967660723
 21
3049.601660424946
 31
0.0
  0
LINE
  5
8E4
330
1F
100
AcDbEntity
  8
0
100
AcDbLine
 10
1480.729967660719
 20
3240.271533405945
 30
0.0
 11
1487.06971362322
 21
3243.931787443946
 31
0.0
  0
ARC
  5
8E5
330
1F
100
AcDbEntity
  8
0
100
AcDbCircle
 10
1488.229967660719
 20
3227.281152349446
 30
0.0
 40
15.0
100
AcDbArc
 50
120.0000000000038
 51
180.0
  0
LWPOLYLINE
  5
8E6
330
1F
100
AcDbEntity
  8
0
 62
     9
100
AcDbPolyline
 90
       19
 70
     0
 43
0.0
 10
1738.870778977719
 20
3460.360402287444
 10
1718.954882748222
 20
3457.266837373945
 10
1701.84979034172
 20
3453.257478988446
 10
1687.279126339222
 20
3448.316271958446
 10
1675.093768307722
 20
3442.440636740945
 10
1665.377847897719
 20
3435.783853690946
 10
1658.07968179022
 20
3428.556238370946
 10
1652.985261952222
 20
3420.868221025445
 10
1649.893599162723
 20
3412.580745936945
 10
1648.920283178719
 20
3403.635752911445
 10
1650.26878624272
 20
3394.533478042446
 10
1653.79072836322
 20
3385.901774212445
 10
1659.256613500221
 20
3377.916320217444
 10
1666.777026702724
 20
3370.419541109445
 10
1676.583950543719
 20
3363.429077776946
 10
1688.819728373223
 20
3357.113275022444
 10
1703.44574978072
 20
3351.671501721444
 10
1720.619776770219
 20
3347.158846458946
 10
1740.61524818372
 20
3343.612728045945
  0
LWPOLYLINE
  5
8E7
330
1F
100
AcDbEntity
  8
0
 62
     9
100
AcDbPolyline
 90
       19
 70
     0
 43
0.0
 10
1735.19159481422
 20
3473.867795606945
 10
1714.160459482221
 20
3470.043373302445
 10
1696.092002166221
 20
3465.088069344445
 10
1680.692187253219
 20
3458.981149051945
 10
1667.803476859722
 20
3451.718068564446
 10
1657.515003186721
 20
3443.485634115944
 10
1649.774020860722
 20
3434.540092012445
 10
1644.358159623222
 20
3425.014365313446
 10
1641.06059876872
 20
3414.734763741944
 10
1640.00966002022
 20
3403.634038577446
 10
1641.42374225122
 20
3392.338567749444
 10
1645.145990722221
 20
3381.632539970946
 10
1650.928941859719
 20
3371.737628679444
 10
1658.884232646721
 20
3362.457979310446
 10
1669.254990419221
 20
3353.811866147446
 10
1682.191236289219
 20
3346.003990393445
 10
1697.65289435272
 20
3339.278018146944
 10
1715.806975878721
 20
3333.700503790946
 10
1736.943524642721
 20
3329.316733655946
  0
LWPOLYLINE
  5
8E8
330
1F
100
AcDbEntity
  8
0
 62
     9
100
AcDbPolyline
 90
        4
 70
     0
 43
0.0
 10
1736.94352137622
 20
3329.316723832945
 10
1737.935008839719
 20
3334.673358641945
 10
1739.202407294223
 20
3339.608017068446
 10
1740.615247265222
 20
3343.612705256445
  0
LWPOLYLINE
  5
8E9
330
1F
100
AcDbEntity
  8
0
 62
     9
100
AcDbPolyline
 90
        4
 70
     0
 43
0.0
 10
1735.191590698218
 20
3473.867815542945
 10
1736.187782251721
 20
3468.605655910946
 10
1737.457285344721
 20
3463.944943096445
 10
1738.870778069723
 20
3460.360450164944
  0
LWPOLYLINE
  5
8EA
330
1F
100
AcDbEntity
  8
0
 62
     9
100
AcDbPolyline
 90
        4
 70
     0
 43
0.0
 10
1735.550903639721
 20
3814.217673884945
 10
1737.344753927719
 20
3943.882641359446
 10
1740.051542621722
 20
4073.209324181445
 10
1743.178325404719
 20
4184.601660424945
  0
LWPOLYLINE
  5
8EB
330
1F
100
AcDbEntity
  8
0
 62
     9
100
AcDbPolyline
 90
       19
 70
     0
 43
0.0
 10
1735.550903639721
 20
3814.217673884945
 10
1712.534677559722
 20
3810.038371944445
 10
1692.77357656022
 20
3804.553563098446
 10
1676.02607140772
 20
3797.799372570446
 10
1662.101828202722
 20
3789.840424324945
 10
1650.932748937223
 20
3780.855137485946
 10
1642.412886934723
 20
3771.091173346946
 10
1636.31029731772
 20
3760.651337076944
 10
1632.457391257722
 20
3749.339274480945
 10
1631.07612848072
 20
3737.385500497445
 10
1632.303189749721
 20
3725.620575036945
 10
1635.902700647221
 20
3714.698450481945
 10
1641.770191718719
 20
3704.539097933944
 10
1650.174831569719
 20
3694.969511263945
 10
1661.298333223721
 20
3686.231421881445
 10
1675.179812274219
 20
3678.598839232446
 10
1691.909512393221
 20
3672.195557213445
 10
1711.64779268672
 20
3667.062209398944
 10
1734.615456711222
 20
3663.198760856945
  0
LWPOLYLINE
  5
8EC
330
1F
100
AcDbEntity
  8
0
 62
     9
100
AcDbPolyline
 90
       23
 70
     0
 43
0.0
 10
1739.22855768072
 20
3799.468579556946
 10
1721.165037712723
 20
3796.782770116945
 10
1705.18824611772
 20
3793.385322543445
 10
1691.176471465719
 20
3789.291776148444
 10
1679.009496623222
 20
3784.520440349445
 10
1668.620371109221
 20
3779.116794834945
 10
1659.975464415221
 20
3773.169048936445
 10
1653.021131465722
 20
3766.790692121946
 10
1647.664817707723
 20
3760.083349662445
 10
1643.730332313721
 20
3752.943164954944
 10
1641.239119064722
 20
3745.312218199446
 10
1640.350067711723
 20
3737.413782847946
 10
1641.112742087219
 20
3729.617498194944
 10
1643.41478437372
 20
3722.230852373945
 10
1647.121588220719
 20
3715.338352627945
 10
1652.321580497723
 20
3708.775881519445
 10
1659.194385510222
 20
3702.525062256946
 10
1667.798255685721
 20
3696.740775587445
 10
1678.15261926072
 20
3691.545483657945
 10
1690.29668639222
 20
3687.004194125945
 10
1704.301107126722
 20
3683.145319699445
 10
1720.26324336022
 20
3679.977038230946
 10
1738.297094368719
 20
3677.497100242945
  0
LWPOLYLINE
  5
8ED
330
1F
100
AcDbEntity
  8
0
 62
     9
100
AcDbPolyline
 90
        4
 70
     0
 43
0.0
 10
1734.61545414672
 20
3663.198753450444
 10
1735.57893018772
 20
3668.820461509946
 10
1736.85507476272
 20
3673.776607792444
 10
1738.297093748221
 20
3677.497082388946
  0
LWPOLYLINE
  5
8EE
330
1F
100
AcDbEntity
  8
0
 62
     9
100
AcDbPolyline
 90
        4
 70
     0
 43
0.0
 10
1735.550901868221
 20
3814.217693494446
 10
1736.511832719222
 20
3808.541361791946
 10
1737.786854623221
 20
3803.427947708446
 10
1739.228557278723
 20
3799.468626071444
  0
LINE
  5
8EF
330
1F
100
AcDbEntity
  8
0
100
AcDbLine
 10
1375.729967660719
 20
4134.601660424945
 30
0.0
 11
1493.321245532222
 21
4134.601660424945
 31
0.0
  0
LINE
  5
8F0
330
1F
100
AcDbEntity
  8
0
100
AcDbLine
 10
1375.729967660719
 20
4024.601660424945
 30
0.0
 11
1476.230626937221
 21
4024.601660424945
 31
0.0
  0
LINE
  5
8F1
330
1F
100
AcDbEntity
  8
0
100
AcDbLine
 10
1375.729967660719
 20
4024.601660424945
 30
0.0
 11
1375.729967660719
 21
4134.601660424945
 31
0.0
  0
LWPOLYLINE
  5
8F2
330
1F
100
AcDbEntity
  8
0
 62
     9
100
AcDbPolyline
 90
       14
 70
     0
 43
0.0
 10
1521.076453788221
 20
4150.909619364445
 10
1521.17756215622
 20
4149.751483762946
 10
1521.448284401723
 20
4146.416999001445
 10
1521.807447661221
 20
4141.252909885444
 10
1522.156097759723
 20
4134.734771392944
 10
1522.406812398721
 20
4127.454244608945
 10
1522.511370876721
 20
4119.982743581944
 10
1522.46346477472
 20
4112.663910380944
 10
1522.278769552719
 20
4105.674745362945
 10
1521.981148956221
 20
4099.098438047946
 10
1521.594258086222
 20
4092.946156366444
 10
1521.136349016223
 20
4087.175037399446
 10
1520.617781499722
 20
4081.704706435945
 10
1520.040528831222
 20
4076.432506195945
  0
ARC
  5
8F3
330
1F
100
AcDbEntity
  8
0
100
AcDbCircle
 10
1476.23062693872
 20
4004.601904744444
 30
0.0
 40
19.999934848
100
AcDbArc
 50
354.5757978483071
 51
90.00000000625322
  0
LWPOLYLINE
  5
8F4
330
1F
100
AcDbEntity
  8
0
 62
     9
100
AcDbPolyline
 90
       13
 70
     0
 43
0.0
 10
1520.040528831222
 20
4076.432506195945
 10
1519.261197656721
 20
4070.204152295445
 10
1518.333203353221
 20
4063.684187882445
 10
1517.22690393922
 20
4056.781829995945
 10
1515.913403377221
 20
4049.448142209945
 10
1514.37277736922
 20
4041.698161003945
 10
1512.600828425221
 20
4033.612277350445
 10
1510.636556686219
 20
4025.417556388946
 10
1508.614518215222
 20
4017.625404919445
 10
1506.768703632723
 20
4010.963280352945
 10
1505.326250228722
 20
4006.005322284445
 10
1504.416182133221
 20
4002.975053674445
 10
1504.10511130072
 20
4001.955110203446
  0
ARC
  5
8F5
330
1F
100
AcDbEntity
  8
0
100
AcDbCircle
 10
5478.229967660723
 20
3624.601660424946
 30
0.0
 40
4000.0
100
AcDbArc
 50
171.682751287642
 51
172.4240290968514
  0
ARC
  5
8F6
330
1F
100
AcDbEntity
  8
0
100
AcDbCircle
 10
1493.321245533222
 20
4154.601176583945
 30
0.0
 40
19.9998709755
100
AcDbArc
 50
269.9999999983325
 51
352.4238898652356
  0
LINE
  5
8F7
330
1F
100
AcDbEntity
  8
0
100
AcDbLine
 10
1545.037879801723
 20
4224.601660424945
 30
0.0
 11
1960.729967660723
 21
4224.601660424945
 31
0.0
  0
ARC
  5
8F8
330
1F
100
AcDbEntity
  8
0
100
AcDbCircle
 10
1545.037879801723
 20
4199.601660424945
 30
0.0
 40
25.0
100
AcDbArc
 50
90.0
 51
171.682751287642
  0
LINE
  5
8F9
330
1F
100
AcDbEntity
  8
0
 62
     9
100
AcDbLine
 10
1960.357479269221
 20
3486.110780076446
 30
0.0
 11
1960.358008347722
 21
3652.053488247446
 31
0.0
  0
ARC
  5
8FA
330
1F
100
AcDbEntity
  8
0
100
AcDbCircle
 10
-1351.770032339281
 20
3624.601660424946
 30
0.0
 40
4000.0
100
AcDbArc
 50
354.5390412927972
 51
4.028898304111541
  0
LINE
  5
8FB
330
1F
100
AcDbEntity
  8
0
100
AcDbLine
 10
2653.229967660723
 20
3049.601660424946
 30
0.0
 11
2653.229967660723
 21
3227.281152349446
 31
0.0
  0
ARC
  5
8FC
330
1F
100
AcDbEntity
  8
0
100
AcDbCircle
 10
2628.229967660723
 20
3049.601660424946
 30
0.0
 40
25.0
100
AcDbArc
 50
270.0
 51
0.0
  0
LINE
  5
8FD
330
1F
100
AcDbEntity
  8
0
100
AcDbLine
 10
2645.729967660723
 20
3240.271533405945
 30
0.0
 11
2639.39022169872
 21
3243.931787443946
 31
0.0
  0
ARC
  5
8FE
330
1F
100
AcDbEntity
  8
0
100
AcDbCircle
 10
2638.229967660723
 20
3227.281152349446
 30
0.0
 40
15.0
100
AcDbArc
 50
0.0
 51
59.9999999999962
  0
LINE
  5
8FF
330
1F
100
AcDbEntity
  8
0
 62
     9
100
AcDbLine
 10
1960.729971562444
 20
3334.628790901361
 30
0.0
 11
1960.729948528723
 21
3470.248525206446
 31
0.0
  0
LWPOLYLINE
  5
900
330
1F
100
AcDbEntity
  8
0
 62
     9
100
AcDbPolyline
 90
        5
 70
     0
 43
0.0
 10
1960.357467940722
 20
3486.110770482445
 10
1960.40992000972
 20
3480.891476600946
 10
1960.49563368622
 20
3476.155383849946
 10
1960.606394847223
 20
3472.462356455446
 10
1960.729964565719
 20
3470.248524066945
  0
LWPOLYLINE
  5
901
330
1F
100
AcDbEntity
  8
0
 62
     9
100
AcDbPolyline
 90
        6
 70
     0
 43
0.0
 10
1977.729967660723
 20
3486.700536070445
 10
1976.87474964322
 20
3486.516116180445
 10
1974.395143051221
 20
3486.350127703945
 10
1970.540630075721
 20
3486.219273590445
 10
1965.699027630221
 20
3486.136719750444
 10
1960.357467940722
 20
3486.110770482445
  0
LWPOLYLINE
  5
902
330
1F
100
AcDbEntity
  8
0
100
AcDbPolyline
 90
        6
 70
     0
 43
0.0
 10
1977.729967660723
 20
3486.700505623945
 10
1976.940330721722
 20
3481.817345804446
 10
1974.56618783822
 20
3477.239005704945
 10
1970.804100906223
 20
3473.532373112445
 10
1966.029251272223
 20
3471.114498825946
 10
1960.729967660723
 20
3470.248524066945
  0
LINE
  5
903
330
1F
100
AcDbEntity
  8
0
100
AcDbLine
 10
2621.411684415137
 20
3954.601660424945
 30
0.0
 11
2735.229967660723
 21
3954.601660424945
 31
0.0
  0
LINE
  5
904
330
1F
100
AcDbEntity
  8
0
100
AcDbLine
 10
2610.28516538322
 20
4064.601660424945
 30
0.0
 11
2735.229967660723
 21
4064.601660424945
 31
0.0
  0
LWPOLYLINE
  5
905
330
1F
100
AcDbEntity
  8
0
100
AcDbPolyline
 90
       25
 70
     0
 43
0.0
 10
2635.149274141721
 20
3913.708891945946
 10
2630.965244372995
 20
3924.448298621379
 10
2627.371327361224
 20
3935.160811568445
 10
2627.153508419721
 20
3935.815261934446
 10
2626.933345920221
 20
3936.480396308945
 10
2626.710773117223
 20
3937.156607487445
 10
2626.485724154221
 20
3937.844298452945
 10
2626.258134338722
 20
3938.543882308444
 10
2626.027940437723
 20
3939.255782214445
 10
2625.795080980724
 20
3939.980431321444
 10
2625.559496579722
 20
3940.718272709945
 10
2625.321130260721
 20
3941.469759318445
 10
2625.079927816221
 20
3942.235353876446
 10
2624.835838171222
 20
3943.015528829945
 10
2624.588813769719
 20
3943.810766260945
 10
2624.33881098222
 20
3944.621557802446
 10
2624.085790531224
 20
3945.448404546445
 10
2623.82971794322
 20
3946.291816939446
 10
2623.570386913723
 20
3947.152905176945
 10
2623.304997441724
 20
3948.041550156946
 10
2623.02878787672
 20
3948.974655610946
 10
2622.738318671721
 20
3949.965262929445
 10
2622.435559612219
 20
3951.008283792946
 10
2622.12384318372
 20
3952.093740077946
 10
2605.793671538851
 20
4009.601660424942
  0
LINE
  5
906
330
1F
100
AcDbEntity
  8
0
 62
     9
100
AcDbLine
 10
1960.72996073372
 20
3668.495550986445
 30
0.0
 11
1960.72995798972
 21
3809.639502950446
 31
0.0
  0
LWPOLYLINE
  5
907
330
1F
100
AcDbEntity
  8
0
 62
     9
100
AcDbPolyline
 90
        5
 70
     0
 43
0.0
 10
1960.72996432622
 20
3668.495552024446
 10
1960.607178855721
 20
3666.384732192446
 10
1960.49515714272
 20
3662.647154042945
 10
1960.408395658721
 20
3657.668904832445
 10
1960.35800202172
 20
3652.053496160445
  0
LWPOLYLINE
  5
908
330
1F
100
AcDbEntity
  8
0
 62
     9
100
AcDbPolyline
 90
        6
 70
     0
 43
0.0
 10
1977.729967660723
 20
3651.936595273945
 10
1976.897928942723
 20
3657.053592805445
 10
1974.48325685972
 20
3661.669705450446
 10
1970.722316544722
 20
3665.333072980944
 10
1965.983255011721
 20
3667.685099486445
 10
1960.729967660723
 20
3668.495552024446
  0
LWPOLYLINE
  5
909
330
1F
100
AcDbEntity
  8
0
 62
     9
100
AcDbPolyline
 90
        6
 70
     0
 43
0.0
 10
1977.729967660723
 20
3651.936592024445
 10
1976.918382616721
 20
3652.272912492445
 10
1974.480181764223
 20
3652.415439988445
 10
1970.625985654719
 20
3652.388738506445
 10
1965.74877531422
 20
3652.245030721945
 10
1960.35800202172
 20
3652.053496160445
  0
LWPOLYLINE
  5
90A
330
1F
100
AcDbEntity
  8
0
 62
     9
100
AcDbPolyline
 90
        5
 70
     0
 43
0.0
 10
1960.356838282723
 20
3826.810796620945
 10
1960.405255940722
 20
3821.316654583945
 10
1960.490238471219
 20
3816.208808382446
 10
1960.603018999719
 20
3812.143260894445
 10
1960.72996749072
 20
3809.639502906445
  0
LWPOLYLINE
  5
90B
330
1F
100
AcDbEntity
  8
0
 62
     9
100
AcDbPolyline
 90
        6
 70
     0
 43
0.0
 10
1977.729967660723
 20
3825.949686353945
 10
1976.874714009221
 20
3826.220088268445
 10
1974.394999450721
 20
3826.463040460446
 10
1970.54032738322
 20
3826.654099882446
 10
1965.698548996222
 20
3826.774042619945
 10
1960.356838282723
 20
3826.810796620945
  0
LWPOLYLINE
  5
90C
330
1F
100
AcDbEntity
  8
0
100
AcDbPolyline
 90
        6
 70
     0
 43
0.0
 10
1977.729967660723
 20
3825.949645538445
 10
1976.94395062772
 20
3821.132755936446
 10
1974.57258252972
 20
3816.597515105445
 10
1970.810633708222
 20
3812.918059397946
 10
1966.033995393723
 20
3810.511359973946
 10
1960.729967660723
 20
3809.639502906445
  0
LINE
  5
90D
330
1F
100
AcDbEntity
  8
0
100
AcDbLine
 10
2637.07469306222
 20
3908.856567283445
 30
0.0
 11
2636.701912169721
 21
3909.784363933944
 31
0.0
  0
LINE
  5
90E
330
1F
100
AcDbEntity
  8
0
100
AcDbLine
 10
2636.701912169721
 20
3909.784363933944
 30
0.0
 11
2636.349320733721
 21
3910.667199506945
 31
0.0
  0
LINE
  5
90F
330
1F
100
AcDbEntity
  8
0
100
AcDbLine
 10
2638.344928720338
 20
3905.640087562968
 30
0.0
 11
2635.94250834972
 21
3911.691995663445
 31
0.0
  0
LINE
  5
910
330
1F
100
AcDbEntity
  8
0
100
AcDbLine
 10
2635.94250834972
 20
3911.691995663445
 30
0.0
 11
2635.537090238222
 21
3912.719654965946
 31
0.0
  0
LINE
  5
911
330
1F
100
AcDbEntity
  8
0
100
AcDbLine
 10
2635.537090238222
 20
3912.719654965946
 30
0.0
 11
2635.149274141721
 21
3913.708891945946
 31
0.0
  0
LINE
  5
912
330
1F
100
AcDbEntity
  8
0
100
AcDbLine
 10
2015.729967660723
 20
4224.601660424945
 30
0.0
 11
2581.42205552022
 21
4224.601660424945
 31
0.0
  0
LINE
  5
913
330
1F
100
AcDbEntity
  8
0
100
AcDbLine
 10
1985.729967660723
 20
3243.931787443946
 30
0.0
 11
1985.729967660723
 21
4199.601660424945
 31
0.0
  0
LINE
  5
914
330
1F
100
AcDbEntity
  8
0
100
AcDbLine
 10
1990.729967660723
 20
3243.931787443946
 30
0.0
 11
1990.729967660723
 21
4199.601660424945
 31
0.0
  0
LINE
  5
915
330
1F
100
AcDbEntity
  8
0
 62
     9
100
AcDbLine
 10
1960.361313216651
 20
3826.81076583086
 30
0.0
 11
1960.347283409222
 21
4202.060779921946
 31
0.0
  0
ARC
  5
916
330
1F
100
AcDbEntity
  8
0
100
AcDbCircle
 10
1960.729967660723
 20
4199.601660424945
 30
0.0
 40
25.0
100
AcDbArc
 50
0.0
 51
90.0
  0
ARC
  5
917
330
1F
100
AcDbEntity
  8
0
100
AcDbCircle
 10
2015.729967660723
 20
4199.601660424945
 30
0.0
 40
25.0
100
AcDbArc
 50
90.0
 51
180.0
  0
LINE
  5
918
330
1F
100
AcDbEntity
  8
0
 62
     9
100
AcDbLine
 10
1960.347962295223
 20
4202.060779921946
 30
0.0
 11
1520.131817625814
 21
4202.060779921946
 31
0.0
  0
LINE
  5
919
330
1F
100
AcDbEntity
  8
0
100
AcDbLine
 10
2058.242324686221
 20
4232.731139097944
 30
0.0
 11
2058.241976378221
 21
4224.601660424945
 31
0.0
  0
LINE
  5
91A
330
1F
100
AcDbEntity
  8
0
100
AcDbLine
 10
2056.242397906721
 20
4234.731208842444
 30
0.0
 11
2055.65021908622
 21
4234.727861777945
 31
0.0
  0
LINE
  5
91B
330
1F
100
AcDbEntity
  8
0
100
AcDbLine
 10
2056.019508438222
 20
4234.729149150946
 30
0.0
 11
2053.183078826719
 21
4234.723813679946
 31
0.0
  0
LINE
  5
91C
330
1F
100
AcDbEntity
  8
0
100
AcDbLine
 10
2053.953176093722
 20
4234.724863633444
 30
0.0
 11
2046.676027476723
 21
4234.719069091445
 31
0.0
  0
LINE
  5
91D
330
1F
100
AcDbEntity
  8
0
100
AcDbLine
 10
2054.195222847223
 20
4234.737535247944
 30
0.0
 11
2056.01925832822
 21
4234.733320165445
 31
0.0
  0
LINE
  5
91E
330
1F
100
AcDbEntity
  8
0
100
AcDbLine
 10
2056.01925832822
 20
4234.733320165445
 30
0.0
 11
2056.242410378219
 21
4234.731224465446
 31
0.0
  0
ARC
  5
91F
330
1F
100
AcDbEntity
  8
0
100
AcDbCircle
 10
2056.242324688222
 20
4232.731224788445
 30
0.0
 40
2.0
100
AcDbArc
 50
359.9975451569947
 51
89.99754515689049
  0
LINE
  5
920
330
1F
100
AcDbEntity
  8
0
100
AcDbLine
 10
2025.748815505723
 20
4234.715253762945
 30
0.0
 11
2033.331275828722
 21
4234.715495283944
 31
0.0
  0
LINE
  5
921
330
1F
100
AcDbEntity
  8
0
100
AcDbLine
 10
2025.748815505723
 20
4234.715253762945
 30
0.0
 11
2011.026065326719
 21
4234.718028760444
 31
0.0
  0
LINE
  5
922
330
1F
100
AcDbEntity
  8
0
100
AcDbLine
 10
2015.746489349222
 20
4234.716764433446
 30
0.0
 11
2002.563582181222
 21
4234.722294709945
 31
0.0
  0
LWPOLYLINE
  5
923
330
1F
100
AcDbEntity
  8
0
 62
     9
100
AcDbPolyline
 90
        8
 70
     0
 43
0.0
 10
2025.749149822223
 20
4232.714121136445
 10
2033.521349323722
 20
4232.714323276945
 10
2040.84687793272
 20
4232.715583354946
 10
2047.30418535672
 20
4232.717832768445
 10
2052.49870012172
 20
4232.720934753944
 10
2056.13355894122
 20
4232.724705915945
 10
2058.00598381072
 20
4232.728933025444
 10
2058.242324686221
 20
4232.731139119445
  0
LINE
  5
924
330
1F
100
AcDbEntity
  8
0
100
AcDbLine
 10
2048.756967171722
 20
4234.720396851446
 30
0.0
 11
2025.748815505723
 21
4234.715253762945
 31
0.0
  0
LINE
  5
925
330
1F
100
AcDbEntity
  8
0
100
AcDbLine
 10
1995.242410434222
 20
4234.733838015945
 30
0.0
 11
1996.28001563772
 21
4234.738261723945
 31
0.0
  0
LINE
  5
926
330
1F
100
AcDbEntity
  8
0
100
AcDbLine
 10
1996.28001563772
 20
4234.738261723945
 30
0.0
 11
1997.191287110219
 21
4234.739831384945
 31
0.0
  0
LINE
  5
927
330
1F
100
AcDbEntity
  8
0
100
AcDbLine
 10
1995.46556306072
 20
4234.731742328944
 30
0.0
 11
1997.227841647721
 21
4234.727621254445
 31
0.0
  0
LINE
  5
928
330
1F
100
AcDbEntity
  8
0
100
AcDbLine
 10
1995.245204764721
 20
4234.733837930445
 30
0.0
 11
1995.46556306072
 21
4234.731742328944
 31
0.0
  0
ARC
  5
929
330
1F
100
AcDbEntity
  8
0
100
AcDbCircle
 10
1995.242324744221
 20
4232.733838338945
 30
0.0
 40
2.0
100
AcDbArc
 50
89.99754515689049
 51
179.9975451569947
  0
LINE
  5
92A
330
1F
100
AcDbEntity
  8
0
100
AcDbLine
 10
1993.24232474572
 20
4232.733924028945
 30
0.0
 11
1993.241354070219
 21
4210.078453247444
 31
0.0
  0
LINE
  5
92B
330
1F
100
AcDbEntity
  8
0
100
AcDbLine
 10
2004.881650232722
 20
4234.720900858444
 30
0.0
 11
1996.689925665721
 21
4234.728516609944
 31
0.0
  0
LWPOLYLINE
  5
92C
330
1F
100
AcDbEntity
  8
0
 62
     9
100
AcDbPolyline
 90
        8
 70
     0
 43
0.0
 10
1993.24232474572
 20
4232.733924007945
 10
1993.480388082223
 20
4232.731689598446
 10
1995.355930419719
 20
4232.727302707444
 10
1998.99382784572
 20
4232.723220704945
 10
2004.191739108222
 20
4232.719674263944
 10
2010.651389181222
 20
4232.716873036444
 10
2017.97647599772
 20
4232.714987459945
 10
2025.749149822223
 20
4232.714121136445
  0
LWPOLYLINE
  5
92D
330
1F
100
AcDbEntity
  8
0
100
AcDbPolyline
 90
        5
 70
     0
 43
0.0
 10
2613.164294516221
 20
4089.783892653445
 10
2614.825156561224
 20
4099.084681395445
 10
2616.45438365172
 20
4106.990956855445
 10
2617.545855629721
 20
4111.818536492445
 10
2617.930971812221
 20
4113.449447128945
  0
LWPOLYLINE
  5
92E
330
1F
100
AcDbEntity
  8
0
100
AcDbPolyline
 90
        3
 70
     0
 43
0.0
 10
2605.128180014582
 20
4009.601660424945
 10
2611.63254290072
 20
4078.971637875945
 10
2613.163043266221
 20
4089.779205686945
  0
ARC
  5
92F
330
1F
100
AcDbEntity
  8
0
100
AcDbCircle
 10
-1351.770032339281
 20
3624.601660424946
 30
0.0
 40
4000.0
100
AcDbArc
 50
7.045251275673898
 51
8.317248712357947
  0
LINE
  5
930
330
1F
100
AcDbEntity
  8
0
100
AcDbLine
 10
2618.027659860223
 20
4115.214385620946
 30
0.0
 11
2617.930864734722
 21
4113.449472694945
 31
0.0
  0
ARC
  5
931
330
1F
100
AcDbEntity
  8
0
100
AcDbCircle
 10
2581.42205552022
 20
4199.601660424945
 30
0.0
 40
25.0
100
AcDbArc
 50
8.317248712357947
 51
90.0
  0
LINE
  5
932
330
1F
100
AcDbEntity
  8
0
100
AcDbLine
 10
2735.229967660723
 20
3954.601660424945
 30
0.0
 11
2735.229967660723
 21
4064.601660424945
 31
0.0
  0
LINE
  5
933
330
1F
100
AcDbEntity
  8
0
100
AcDbLine
 10
1487.06971362322
 20
3243.931787443946
 30
0.0
 11
2639.39022169872
 21
3243.931787443946
 31
0.0
  0
LWPOLYLINE
  5
934
330
1F
100
AcDbEntity
  8
0
 62
     9
100
AcDbPolyline
 90
        7
 70
     0
 43
0.0
 10
1736.943523940722
 20
3329.316731239445
 10
1786.195180556221
 20
3324.085679270946
 10
1830.069142253219
 20
3321.273473620446
 10
1869.06839882122
 20
3319.721781039445
 10
1903.752717998221
 20
3318.860456189945
 10
1934.733564241222
 20
3318.395338910945
 10
1962.686075577222
 20
3318.171458629946
  0
LWPOLYLINE
  5
935
330
1F
100
AcDbEntity
  8
0
 62
     9
100
AcDbPolyline
 90
        7
 70
     0
 43
0.0
 10
1740.625161598219
 20
3343.615070625445
 10
1789.235128159221
 20
3339.384914087945
 10
1832.511451511721
 20
3337.113862570945
 10
1870.948419261222
 20
3335.862213952445
 10
1905.103074282721
 20
3335.168188494445
 10
1935.583034881719
 20
3334.793727611945
 10
1963.05802796322
 20
3334.613521368945
  0
LWPOLYLINE
  5
936
330
1F
100
AcDbEntity
  8
0
 62
     9
100
AcDbPolyline
 90
        6
 70
     0
 43
0.0
 10
1980.058034890223
 20
3318.054562406945
 10
1979.246449846222
 20
3318.390882874945
 10
1976.808248993723
 20
3318.533410370945
 10
1972.95405288422
 20
3318.506708888945
 10
1968.076842543721
 20
3318.363001104444
 10
1962.686069251221
 20
3318.171466542945
  0
LWPOLYLINE
  5
937
330
1F
100
AcDbEntity
  8
0
 62
     9
100
AcDbPolyline
 90
        6
 70
     0
 43
0.0
 10
1980.058034890223
 20
3318.054565656445
 10
1979.225996172224
 20
3323.171563187945
 10
1976.811324089221
 20
3327.787675832946
 10
1973.050383774222
 20
3331.451043363444
 10
1968.311322241222
 20
3333.803069868945
 10
1963.058034890223
 20
3334.613522406946
  0
LWPOLYLINE
  5
938
330
1F
100
AcDbEntity
  8
0
 62
     9
100
AcDbPolyline
 90
        5
 70
     0
 43
0.0
 10
1963.058031555721
 20
3334.613522406946
 10
1962.935246085221
 20
3332.502702574946
 10
1962.82322437222
 20
3328.765124425445
 10
1962.736462888221
 20
3323.786875214945
 10
1962.686069251221
 20
3318.171466542945
  0
LINE
  5
939
330
1F
100
AcDbEntity
  8
0
 62
     9
100
AcDbLine
 10
1962.685838877374
 20
3243.931787443946
 30
0.0
 11
1962.686075577222
 21
3318.171458629946
 31
0.0
  0
LWPOLYLINE
  5
93A
330
1F
100
AcDbEntity
  8
0
 62
     9
100
AcDbPolyline
 90
        4
 70
     0
 43
0.0
 10
2390.90903168222
 20
3814.217673884945
 10
2389.11518139422
 20
3943.882641359446
 10
2386.408392700222
 20
4073.209324181445
 10
2383.28160991722
 20
4184.601660424945
  0
LWPOLYLINE
  5
93B
330
1F
100
AcDbEntity
  8
0
 62
     9
100
AcDbPolyline
 90
       19
 70
     0
 43
0.0
 10
2391.268340507719
 20
3473.867795606946
 10
2412.299475839719
 20
3470.043373302445
 10
2430.367933155722
 20
3465.088069344445
 10
2445.767748068721
 20
3458.981149051946
 10
2458.656458462222
 20
3451.718068564446
 10
2468.944932135223
 20
3443.485634115944
 10
2476.685914461222
 20
3434.540092012445
 10
2482.101775698721
 20
3425.014365313446
 10
2485.399336553224
 20
3414.734763741947
 10
2486.450275301724
 20
3403.634038577446
 10
2485.036193070723
 20
3392.338567749447
 10
2481.313944599723
 20
3381.632539970946
 10
2475.530993462221
 20
3371.737628679446
 10
2467.575702675223
 20
3362.457979310446
 10
2457.204944902719
 20
3353.811866147446
 10
2444.268699032721
 20
3346.003990393445
 10
2428.807040969224
 20
3339.278018146946
 10
2410.652959443222
 20
3333.700503790946
 10
2389.516410679223
 20
3329.316733655946
  0
LWPOLYLINE
  5
93C
330
1F
100
AcDbEntity
  8
0
 62
     9
100
AcDbPolyline
 90
       19
 70
     0
 43
0.0
 10
2387.589156344221
 20
3460.360402287447
 10
2407.505052573722
 20
3457.266837373945
 10
2424.610144980224
 20
3453.257478988446
 10
2439.180808982722
 20
3448.316271958446
 10
2451.366167014222
 20
3442.440636740947
 10
2461.082087424221
 20
3435.783853690946
 10
2468.380253531724
 20
3428.556238370946
 10
2473.474673369722
 20
3420.868221025447
 10
2476.566336159224
 20
3412.580745936946
 10
2477.53965214322
 20
3403.635752911445
 10
2476.19114907922
 20
3394.533478042446
 10
2472.669206958724
 20
3385.901774212445
 10
2467.203321821719
 20
3377.916320217446
 10
2459.682908619224
 20
3370.419541109446
 10
2449.875984778222
 20
3363.429077776946
 10
2437.640206948724
 20
3357.113275022447
 10
2423.014185541223
 20
3351.671501721444
 10
2405.840158551721
 20
3347.158846458946
 10
2385.84468713822
 20
3343.612728045946
  0
LWPOLYLINE
  5
93D
330
1F
100
AcDbEntity
  8
0
 62
     9
100
AcDbPolyline
 90
        7
 70
     0
 43
0.0
 10
2385.834773723721
 20
3343.615070625445
 10
2337.224807162719
 20
3339.384914087945
 10
2293.948483810223
 20
3337.113862570945
 10
2255.511516060721
 20
3335.862213952445
 10
2221.356861039222
 20
3335.168188494445
 10
2040.876900649401
 20
3334.79933579591
 10
2013.4019075679
 20
3334.61912955291
  0
LWPOLYLINE
  5
93E
330
1F
100
AcDbEntity
  8
0
 62
     9
100
AcDbPolyline
 90
        7
 70
     0
 43
0.0
 10
2389.516411381222
 20
3329.316731239445
 10
2340.264754765719
 20
3324.085679270946
 10
2296.390793068721
 20
3321.273473620446
 10
2257.391536500721
 20
3319.721781039445
 10
2222.707217323722
 20
3318.860456189945
 10
2191.726371080721
 20
3318.395338910945
 10
2013.773859953902
 20
3318.177066813909
  0
LWPOLYLINE
  5
93F
330
1F
100
AcDbEntity
  8
0
 62
     9
100
AcDbPolyline
 90
        4
 70
     0
 43
0.0
 10
2387.937193534913
 20
3243.931787443946
 10
2388.302989248224
 20
3261.598348563446
 10
2388.940905471224
 20
3295.445607817945
 10
2389.516410679223
 20
3329.316733655946
  0
LWPOLYLINE
  5
940
330
1F
100
AcDbEntity
  8
0
 62
     9
100
AcDbPolyline
 90
        4
 70
     0
 43
0.0
 10
2389.51641394572
 20
3329.316723832946
 10
2388.524926482221
 20
3334.673358641945
 10
2387.257528027724
 20
3339.608017068446
 10
2385.844688056722
 20
3343.612705256446
  0
LWPOLYLINE
  5
941
330
1F
100
AcDbEntity
  8
0
 62
     9
100
AcDbPolyline
 90
        6
 70
     0
 43
0.0
 10
2016.102456261899
 20
3486.116388260409
 10
2200.371307861723
 20
3485.773651575446
 10
2238.995871525721
 20
3485.002056429445
 10
2283.075850931721
 20
3483.439739438946
 10
2333.545615233722
 20
3480.318703996945
 10
2391.268340507719
 20
3473.867795606946
  0
LWPOLYLINE
  5
942
330
1F
100
AcDbEntity
  8
0
 62
     9
100
AcDbPolyline
 90
        6
 70
     0
 43
0.0
 10
2015.729987002401
 20
3470.254133390409
 10
2199.420267656723
 20
3469.977101151945
 10
2237.432524880221
 20
3469.355663879446
 10
2280.857627215723
 20
3468.095957231446
 10
2330.62687650072
 20
3465.576204423945
 10
2387.589156344221
 20
3460.360402287447
  0
LWPOLYLINE
  5
943
330
1F
100
AcDbEntity
  8
0
 62
     9
100
AcDbPolyline
 90
        6
 70
     0
 43
0.0
 10
2015.729977541401
 20
3809.645111134409
 10
2200.46949928672
 20
3809.327125707945
 10
2239.16147540822
 20
3808.623226011445
 10
2282.691053754222
 20
3807.243058440946
 10
2331.814862373221
 20
3804.606540810946
 10
2387.23137764122
 20
3799.468579556946
  0
LWPOLYLINE
  5
944
330
1F
100
AcDbEntity
  8
0
 62
     9
100
AcDbPolyline
 90
        6
 70
     0
 43
0.0
 10
2016.1030922529
 20
3826.81640532641
 10
2201.429329125721
 20
3826.422976578446
 10
2240.739015492219
 20
3825.549437412945
 10
2284.92501700172
 20
3823.838158600946
 10
2334.74768542222
 20
3820.572352904946
 10
2390.90903168222
 20
3814.217673884945
  0
LWPOLYLINE
  5
945
330
1F
100
AcDbEntity
  8
0
 62
     9
100
AcDbPolyline
 90
        7
 70
     0
 43
0.0
 10
2391.844478610722
 20
3663.198760856945
 10
2342.59282199522
 20
3657.967708888446
 10
2298.718860298222
 20
3655.155503237946
 10
2259.719603730221
 20
3653.603810656945
 10
2225.035284553219
 20
3652.742485807445
 10
2194.054438310221
 20
3652.277368528445
 10
2016.101927183402
 20
3652.059096431409
  0
LWPOLYLINE
  5
946
330
1F
100
AcDbEntity
  8
0
 62
     9
100
AcDbPolyline
 90
        7
 70
     0
 43
0.0
 10
2388.162840953222
 20
3677.497100242945
 10
2339.55287439222
 20
3673.266943705445
 10
2296.276551039723
 20
3670.995892188447
 10
2257.839583290222
 20
3669.744243569945
 10
2223.684928268719
 20
3669.050218111945
 10
2193.204967669721
 20
3668.675757229445
 10
2015.7299747974
 20
3668.50115917041
  0
LWPOLYLINE
  5
947
330
1F
100
AcDbEntity
  8
0
 62
     9
100
AcDbPolyline
 90
       23
 70
     0
 43
0.0
 10
2387.23137764122
 20
3799.468579556946
 10
2405.29489760922
 20
3796.782770116946
 10
2421.27168920422
 20
3793.385322543445
 10
2435.283463856221
 20
3789.291776148446
 10
2447.450438698718
 20
3784.520440349446
 10
2457.839564212723
 20
3779.116794834945
 10
2466.484470906719
 20
3773.169048936447
 10
2473.438803856219
 20
3766.790692121946
 10
2478.79511761422
 20
3760.083349662445
 10
2482.729603008223
 20
3752.943164954946
 10
2485.220816257222
 20
3745.312218199446
 10
2486.10986761022
 20
3737.413782847946
 10
2485.347193234721
 20
3729.617498194946
 10
2483.045150948224
 20
3722.230852373945
 10
2479.338347101221
 20
3715.338352627945
 10
2474.13835482422
 20
3708.775881519445
 10
2467.265549811721
 20
3702.525062256946
 10
2458.661679636222
 20
3696.740775587447
 10
2448.30731606122
 20
3691.545483657945
 10
2436.16324892972
 20
3687.004194125946
 10
2422.158828195222
 20
3683.145319699446
 10
2406.19669196172
 20
3679.977038230946
 10
2388.162840953222
 20
3677.497100242945
  0
LWPOLYLINE
  5
948
330
1F
100
AcDbEntity
  8
0
 62
     9
100
AcDbPolyline
 90
       19
 70
     0
 43
0.0
 10
2390.90903168222
 20
3814.217673884945
 10
2413.925257762219
 20
3810.038371944445
 10
2433.68635876172
 20
3804.553563098446
 10
2450.433863914224
 20
3797.799372570446
 10
2464.358107119221
 20
3789.840424324946
 10
2475.527186384721
 20
3780.855137485946
 10
2484.047048387221
 20
3771.091173346946
 10
2490.149638004224
 20
3760.651337076946
 10
2494.002544064221
 20
3749.339274480946
 10
2495.383806841223
 20
3737.385500497447
 10
2494.156745572219
 20
3725.620575036947
 10
2490.557234674722
 20
3714.698450481945
 10
2484.689743603221
 20
3704.539097933947
 10
2476.285103752221
 20
3694.969511263945
 10
2465.161602098219
 20
3686.231421881446
 10
2451.280123047721
 20
3678.598839232446
 10
2434.550422928719
 20
3672.195557213447
 10
2414.812142635224
 20
3667.062209398946
 10
2391.844478610722
 20
3663.198760856945
  0
LWPOLYLINE
  5
949
330
1F
100
AcDbEntity
  8
0
 62
     9
100
AcDbPolyline
 90
        4
 70
     0
 43
0.0
 10
2391.268340507719
 20
3473.867795606946
 10
2391.67651319072
 20
3536.961469609445
 10
2391.868575217221
 20
3600.077051450446
 10
2391.844478610722
 20
3663.198760856945
  0
LWPOLYLINE
  5
94A
330
1F
100
AcDbEntity
  8
0
 62
     9
100
AcDbPolyline
 90
        4
 70
     0
 43
0.0
 10
2391.268344623722
 20
3473.867815542946
 10
2390.27215307022
 20
3468.605655910946
 10
2389.002649977222
 20
3463.944943096445
 10
2387.589157252224
 20
3460.360450164947
  0
LWPOLYLINE
  5
94B
330
1F
100
AcDbEntity
  8
0
 62
     9
100
AcDbPolyline
 90
        4
 70
     0
 43
0.0
 10
2391.844481175221
 20
3663.198753450446
 10
2390.881005134223
 20
3668.820461509946
 10
2389.604860559223
 20
3673.776607792446
 10
2388.162841573722
 20
3677.497082388946
  0
LWPOLYLINE
  5
94C
330
1F
100
AcDbEntity
  8
0
 62
     9
100
AcDbPolyline
 90
        4
 70
     0
 43
0.0
 10
2390.909033453719
 20
3814.217693494446
 10
2389.948102602722
 20
3808.541361791946
 10
2388.673080698719
 20
3803.427947708446
 10
2387.231378043221
 20
3799.468626071446
  0
LINE
  5
94D
330
1F
100
AcDbEntity
  8
0
 62
     9
100
AcDbLine
 10
2016.098622314473
 20
3826.816374014825
 30
0.0
 11
2016.112652121899
 21
4202.06638810591
 31
0.0
  0
LINE
  5
94E
330
1F
100
AcDbEntity
  8
0
 62
     9
100
AcDbLine
 10
2015.729963968676
 20
3334.634399085326
 30
0.0
 11
2015.729987002401
 21
3470.254133390409
 31
0.0
  0
LWPOLYLINE
  5
94F
330
1F
100
AcDbEntity
  8
0
 62
     9
100
AcDbPolyline
 90
        5
 70
     0
 43
0.0
 10
2013.401903975399
 20
3334.619130590909
 10
2013.524689445899
 20
3332.508310758909
 10
2013.6367111589
 20
3328.77073260941
 10
2013.723472642903
 20
3323.792483398909
 10
2013.773866279903
 20
3318.177074726909
  0
LWPOLYLINE
  5
950
330
1F
100
AcDbEntity
  8
0
 62
     9
100
AcDbPolyline
 90
        6
 70
     0
 43
0.0
 10
1996.401900640901
 20
3318.06017384041
 10
1997.2339393589
 20
3323.177171371908
 10
1999.648611441899
 20
3327.793284016909
 10
2003.409551756901
 20
3331.456651547409
 10
2008.148613289902
 20
3333.808678052908
 10
2013.401900640901
 20
3334.619130590909
  0
LWPOLYLINE
  5
951
330
1F
100
AcDbEntity
  8
0
 62
     9
100
AcDbPolyline
 90
        6
 70
     0
 43
0.0
 10
1996.401900640901
 20
3318.060170590908
 10
1997.213485684902
 20
3318.39649105891
 10
1999.6516865374
 20
3318.53901855491
 10
2003.5058826469
 20
3318.512317072909
 10
2008.383092987403
 20
3318.368609288409
 10
2013.773866279903
 20
3318.177074726909
  0
LINE
  5
952
330
1F
100
AcDbEntity
  8
0
 62
     9
100
AcDbLine
 10
2013.774096653747
 20
3243.937395627908
 30
0.0
 11
2013.773859953902
 21
3318.177066813909
 31
0.0
  0
LINE
  5
953
330
1F
100
AcDbEntity
  8
0
 62
     9
100
AcDbLine
 10
2015.7299747974
 20
3668.50115917041
 30
0.0
 11
2015.729977541401
 21
3809.645111134409
 31
0.0
  0
LINE
  5
954
330
1F
100
AcDbEntity
  8
0
 62
     9
100
AcDbLine
 10
2016.102456261899
 20
3486.116388260409
 30
0.0
 11
2016.101927183402
 21
3652.059096431409
 31
0.0
  0
LWPOLYLINE
  5
955
330
1F
100
AcDbEntity
  8
0
100
AcDbPolyline
 90
        6
 70
     0
 43
0.0
 10
1998.729967870401
 20
3486.70611380791
 10
1999.519604809401
 20
3481.822953988409
 10
2001.8937476929
 20
3477.244613888908
 10
2005.655834624901
 20
3473.537981296409
 10
2010.430684258901
 20
3471.120107009909
 10
2015.729967870401
 20
3470.25413225091
  0
LWPOLYLINE
  5
956
330
1F
100
AcDbEntity
  8
0
 62
     9
100
AcDbPolyline
 90
        5
 70
     0
 43
0.0
 10
2016.102467590398
 20
3486.116378666409
 10
2016.0500155214
 20
3480.897084784909
 10
2015.9643018449
 20
3476.160992033909
 10
2015.853540683901
 20
3472.467964639409
 10
2015.729970965401
 20
3470.25413225091
  0
LWPOLYLINE
  5
957
330
1F
100
AcDbEntity
  8
0
 62
     9
100
AcDbPolyline
 90
        6
 70
     0
 43
0.0
 10
1998.729967870401
 20
3486.706144254409
 10
1999.5851858879
 20
3486.52172436441
 10
2002.064792479899
 20
3486.35573588791
 10
2005.919305455399
 20
3486.22488177441
 10
2010.760907900899
 20
3486.142327934409
 10
2016.102467590398
 20
3486.116378666409
  0
LWPOLYLINE
  5
958
330
1F
100
AcDbEntity
  8
0
 62
     9
100
AcDbPolyline
 90
        6
 70
     0
 43
0.0
 10
1998.729967870401
 20
3651.942200208408
 10
1999.541552914402
 20
3652.278520676409
 10
2001.979753766901
 20
3652.42104817241
 10
2005.833949876401
 20
3652.394346690409
 10
2010.7111602169
 20
3652.250638905909
 10
2016.1019335094
 20
3652.059104344409
  0
LWPOLYLINE
  5
959
330
1F
100
AcDbEntity
  8
0
 62
     9
100
AcDbPolyline
 90
        6
 70
     0
 43
0.0
 10
1998.729967870401
 20
3651.94220345791
 10
1999.5620065884
 20
3657.059200989408
 10
2001.9766786714
 20
3661.675313634409
 10
2005.737618986402
 20
3665.33868116491
 10
2010.476680519402
 20
3667.690707670408
 10
2015.729967870401
 20
3668.501160208409
  0
LWPOLYLINE
  5
95A
330
1F
100
AcDbEntity
  8
0
 62
     9
100
AcDbPolyline
 90
        5
 70
     0
 43
0.0
 10
2015.7299712049
 20
3668.501160208409
 10
2015.852756675399
 20
3666.390340376409
 10
2015.9647783884
 20
3662.65276222691
 10
2016.051539872403
 20
3657.674513016409
 10
2016.1019335094
 20
3652.059104344409
  0
LWPOLYLINE
  5
95B
330
1F
100
AcDbEntity
  8
0
100
AcDbPolyline
 90
        6
 70
     0
 43
0.0
 10
1998.729967870401
 20
3825.95525372241
 10
1999.5159849034
 20
3821.138364120409
 10
2001.8873530014
 20
3816.603123289409
 10
2005.649301822902
 20
3812.923667581909
 10
2010.425940137401
 20
3810.516968157909
 10
2015.729967870401
 20
3809.645111090409
  0
LWPOLYLINE
  5
95C
330
1F
100
AcDbEntity
  8
0
 62
     9
100
AcDbPolyline
 90
        5
 70
     0
 43
0.0
 10
2016.103097248401
 20
3826.81640480491
 10
2016.054679590402
 20
3821.322262767909
 10
2015.969697059901
 20
3816.214416566409
 10
2015.856916531401
 20
3812.148869078408
 10
2015.729968040401
 20
3809.645111090409
  0
LWPOLYLINE
  5
95D
330
1F
100
AcDbEntity
  8
0
 62
     9
100
AcDbPolyline
 90
        6
 70
     0
 43
0.0
 10
1998.729967870401
 20
3825.955294537909
 10
1999.585221521899
 20
3826.22569645241
 10
2002.064936080399
 20
3826.46864864441
 10
2005.9196081479
 20
3826.659708066409
 10
2010.761386534898
 20
3826.779650803909
 10
2016.103097248401
 20
3826.81640480491
  0
LINE
  5
95E
330
1F
100
AcDbEntity
  8
0
100
AcDbLine
 10
1985.729967660723
 20
4163.948730048114
 30
0.0
 11
1990.729967660723
 21
4163.948730048114
 31
0.0
  0
LINE
  5
95F
330
1F
100
AcDbEntity
  8
0
 62
     9
100
AcDbLine
 10
2016.111973026223
 20
4202.060779921946
 30
0.0
 11
2606.328117695627
 21
4202.060779921946
 31
0.0
  0
LINE
  5
960
330
1F
100
AcDbEntity
  8
0
 62
     9
100
AcDbLine
 10
2016.098622104794
 20
3826.81076583086
 30
0.0
 11
2016.11265191222
 21
4202.060779921946
 31
0.0
  0
LINE
  5
961
330
1F
100
AcDbEntity
  8
0
 62
     9
100
AcDbLine
 10
1473.229967660719
 20
3227.281152349446
 30
0.0
 11
2653.229967660723
 21
3227.281152349446
 31
0.0
  0
LINE
  5
962
330
1F
100
AcDbEntity
  8
TEXT
  6
Continuous
 62
     7
100
AcDbLine
 10
2523.730467660721
 20
4259.024660424945
 30
0.0
 11
2530.230467660721
 21
4255.271660424945
 31
0.0
  0
POLYLINE
  5
963
330
1F
100
AcDbEntity
  8
TEXT
  6
Continuous
 62
     7
100
AcDb2dPolyline
 66
     1
 10
0.0
 20
0.0
 30
0.0
  0
VERTEX
  5
964
330
963
100
AcDbEntity
  8
TEXT
  6
Continuous
 62
     7
100
AcDbVertex
100
AcDb2dVertex
 10
2530.230467660721
 20
4267.601660424945
 30
0.0
  0
VERTEX
  5
965
330
963
100
AcDbEntity
  8
TEXT
  6
Continuous
 62
     7
100
AcDbVertex
100
AcDb2dVertex
 10
2530.230467660721
 20
4262.848660424944
 30
0.0
  0
VERTEX
  5
966
330
963
100
AcDbEntity
  8
TEXT
  6
Continuous
 62
     7
100
AcDbVertex
100
AcDb2dVertex
 10
2523.730467660721
 20
4262.848660424944
 30
0.0
  0
SEQEND
  5
967
330
963
100
AcDbEntity
  8
TEXT
  6
Continuous
 62
     7
  0
INSERT
  5
968
330
1F
100
AcDbEntity
  8
0
100
AcDbBlockReference
  2
NXXXX80
 10
1767.666467660719
 20
2789.973660424946
 30
0.0
  0
LINE
  5
969
330
1F
100
AcDbEntity
  8
TEXT
  6
Continuous
 62
     7
100
AcDbLine
 10
2151.229467660721
 20
4247.270660424945
 30
0.0
 11
2151.229467660721
 21
4244.601660424945
 31
0.0
  0
LINE
  5
96A
330
1F
100
AcDbEntity
  8
TEXT
  6
Continuous
 62
     7
100
AcDbLine
 10
2157.730467660721
 20
4267.601660424945
 30
0.0
 11
2157.730467660721
 21
4266.023660424945
 31
0.0
  0
LINE
  5
96B
330
1F
100
AcDbEntity
  8
TEXT
  6
Continuous
 62
     7
100
AcDbLine
 10
2157.730467660721
 20
4254.848660424944
 30
0.0
 11
2157.730467660721
 21
4251.023660424945
 31
0.0
  0
LINE
  5
96C
330
1F
100
AcDbEntity
  8
TEXT
  6
Continuous
 62
     7
100
AcDbLine
 10
2523.730467660721
 20
4262.848660424944
 30
0.0
 11
2523.730467660721
 21
4259.024660424945
 31
0.0
  0
POLYLINE
  5
96D
330
1F
100
AcDbEntity
  8
TEXT
  6
Continuous
 62
     7
100
AcDb2dPolyline
 66
     1
 10
0.0
 20
0.0
 30
0.0
  0
VERTEX
  5
96E
330
96D
100
AcDbEntity
  8
TEXT
  6
Continuous
 62
     7
100
AcDbVertex
100
AcDb2dVertex
 10
2148.229467660721
 20
4234.600660424945
 30
0.0
  0
VERTEX
  5
96F
330
96D
100
AcDbEntity
  8
TEXT
  6
Continuous
 62
     7
100
AcDbVertex
100
AcDb2dVertex
 10
2148.229467660721
 20
4244.601660424945
 30
0.0
  0
VERTEX
  5
970
330
96D
100
AcDbEntity
  8
TEXT
  6
Continuous
 62
     7
100
AcDbVertex
100
AcDb2dVertex
 10
2151.229467660721
 20
4244.601660424945
 30
0.0
  0
SEQEND
  5
971
330
96D
100
AcDbEntity
  8
TEXT
  6
Continuous
 62
     7
  0
POLYLINE
  5
972
330
1F
100
AcDbEntity
  8
TEXT
  6
Continuous
 62
     7
100
AcDb2dPolyline
 66
     1
 10
0.0
 20
0.0
 30
0.0
  0
VERTEX
  5
973
330
972
100
AcDbEntity
  8
TEXT
  6
Continuous
 62
     7
100
AcDbVertex
100
AcDb2dVertex
 10
2530.230467660721
 20
4255.271660424945
 30
0.0
  0
VERTEX
  5
974
330
972
100
AcDbEntity
  8
TEXT
  6
Continuous
 62
     7
100
AcDbVertex
100
AcDb2dVertex
 10
2530.230467660721
 20
4244.601660424945
 30
0.0
  0
VERTEX
  5
975
330
972
100
AcDbEntity
  8
TEXT
  6
Continuous
 62
     7
100
AcDbVertex
100
AcDb2dVertex
 10
2533.230467660721
 20
4244.601660424945
 30
0.0
  0
VERTEX
  5
976
330
972
100
AcDbEntity
  8
TEXT
  6
Continuous
 62
     7
100
AcDbVertex
100
AcDb2dVertex
 10
2533.230467660721
 20
4234.601660424945
 30
0.0
  0
SEQEND
  5
977
330
972
100
AcDbEntity
  8
TEXT
  6
Continuous
 62
     7
  0
ARC
  5
978
330
1F
100
AcDbEntity
  8
BILD
  6
Continuous
 62
     7
100
AcDbCircle
 10
2543.230467660725
 20
4234.601660424947
 30
0.0
 40
10.00000000000159
100
AcDbArc
 50
180.0
 51
270.0
  0
ARC
  5
979
330
1F
100
AcDbEntity
  8
BILD
  6
Continuous
 62
     7
100
AcDbCircle
 10
2138.229467660721
 20
4234.601660424947
 30
0.0
 40
10.00000000000136
100
AcDbArc
 50
270.0
 51
359.9999999999479
  0
LINE
  5
97A
330
1F
100
AcDbEntity
  8
AM_8
  6
Continuous
100
AcDbLine
 10
2151.86746766072
 20
4262.639660424945
 30
0.0
 11
2151.229467660721
 21
4262.001660424945
 31
0.0
  0
INSERT
  5
97B
330
1F
100
AcDbEntity
  8
0
100
AcDbBlockReference
  2
NXXXX93
 10
1755.166467660719
 20
2474.078660424947
 30
0.0
  0
POLYLINE
  5
97C
330
1F
100
AcDbEntity
  8
TEXT
  6
Continuous
 62
     7
100
AcDb2dPolyline
 66
     1
 10
0.0
 20
0.0
 30
0.0
  0
VERTEX
  5
97D
330
97C
100
AcDbEntity
  8
TEXT
  6
Continuous
 62
     7
100
AcDbVertex
100
AcDb2dVertex
 10
2138.230467660721
 20
4267.601660424946
 30
0.0
  0
VERTEX
  5
97E
330
97C
100
AcDbEntity
  8
TEXT
  6
Continuous
 62
     7
100
AcDbVertex
100
AcDb2dVertex
 10
2138.230467660721
 20
4269.601660424947
 30
0.0
 42
-0.414213562373
  0
VERTEX
  5
97F
330
97C
100
AcDbEntity
  8
TEXT
  6
Continuous
 62
     7
100
AcDbVertex
100
AcDb2dVertex
 10
2141.230467660721
 20
4272.601660424947
 30
0.0
  0
VERTEX
  5
980
330
97C
100
AcDbEntity
  8
TEXT
  6
Continuous
 62
     7
100
AcDbVertex
100
AcDb2dVertex
 10
2340.730467660721
 20
4272.601660424947
 30
0.0
  0
SEQEND
  5
981
330
97C
100
AcDbEntity
  8
TEXT
  6
Continuous
 62
     7
  0
POLYLINE
  5
982
330
1F
100
AcDbEntity
  8
TEXT
  6
Continuous
 62
     7
100
AcDb2dPolyline
 66
     1
 10
0.0
 20
0.0
 30
0.0
  0
VERTEX
  5
983
330
982
100
AcDbEntity
  8
TEXT
  6
Continuous
 62
     7
100
AcDbVertex
100
AcDb2dVertex
 10
2156.729467660721
 20
4339.601660424947
 30
0.0
 42
0.414213562373
  0
VERTEX
  5
984
330
982
100
AcDbEntity
  8
TEXT
  6
Continuous
 62
     7
100
AcDbVertex
100
AcDb2dVertex
 10
2153.729467660721
 20
4336.601660424947
 30
0.0
  0
VERTEX
  5
985
330
982
100
AcDbEntity
  8
TEXT
  6
Continuous
 62
     7
100
AcDbVertex
100
AcDb2dVertex
 10
2153.729467660721
 20
4325.844660424945
 30
0.0
 42
-0.19891236738
  0
VERTEX
  5
986
330
982
100
AcDbEntity
  8
TEXT
  6
Continuous
 62
     7
100
AcDbVertex
100
AcDb2dVertex
 10
2152.85046766072
 20
4323.722660424946
 30
0.0
  0
VERTEX
  5
987
330
982
100
AcDbEntity
  8
TEXT
  6
Continuous
 62
     7
100
AcDbVertex
100
AcDb2dVertex
 10
2147.609147317163
 20
4318.479980768507
 30
0.0
 42
0.19891236738
  0
VERTEX
  5
988
330
982
100
AcDbEntity
  8
TEXT
  6
Continuous
 62
     7
100
AcDbVertex
100
AcDb2dVertex
 10
2146.730467660721
 20
4316.358660424946
 30
0.0
  0
VERTEX
  5
989
330
982
100
AcDbEntity
  8
TEXT
  6
Continuous
 62
     7
100
AcDbVertex
100
AcDb2dVertex
 10
2146.730467660721
 20
4275.601660424947
 30
0.0
 42
-0.414213562373
  0
VERTEX
  5
98A
330
982
100
AcDbEntity
  8
TEXT
  6
Continuous
 62
     7
100
AcDbVertex
100
AcDb2dVertex
 10
2143.730467660721
 20
4272.601660424947
 30
0.0
  0
SEQEND
  5
98B
330
982
100
AcDbEntity
  8
TEXT
  6
Continuous
 62
     7
  0
LINE
  5
98C
330
1F
100
AcDbEntity
  8
AM_4
100
AcDbLine
 10
2154.08246766072
 20
4324.850660424947
 30
0.0
 11
2340.730467660721
 21
4324.850660424947
 31
0.0
  0
LINE
  5
98D
330
1F
100
AcDbEntity
  8
AM_4
100
AcDbLine
 10
2148.087467660721
 20
4316.919660424946
 30
0.0
 11
2340.729467660721
 21
4316.919660424946
 31
0.0
  0
INSERT
  5
98E
330
1F
100
AcDbEntity
  8
0
100
AcDbBlockReference
  2
NXXXX95
 10
1755.166467660719
 20
2474.078660424947
 30
0.0
  0
POLYLINE
  5
98F
330
1F
100
AcDbEntity
  8
TEXT
  6
Continuous
 62
     7
100
AcDb2dPolyline
 66
     1
 10
0.0
 20
0.0
 30
0.0
  0
VERTEX
  5
990
330
98F
100
AcDbEntity
  8
TEXT
  6
Continuous
 62
     7
100
AcDbVertex
100
AcDb2dVertex
 10
2543.230467660718
 20
4267.601660424946
 30
0.0
  0
VERTEX
  5
991
330
98F
100
AcDbEntity
  8
TEXT
  6
Continuous
 62
     7
100
AcDbVertex
100
AcDb2dVertex
 10
2543.230467660718
 20
4269.601660424947
 30
0.0
 42
0.414213562373
  0
VERTEX
  5
992
330
98F
100
AcDbEntity
  8
TEXT
  6
Continuous
 62
     7
100
AcDbVertex
100
AcDb2dVertex
 10
2540.230467660717
 20
4272.601660424947
 30
0.0
  0
VERTEX
  5
993
330
98F
100
AcDbEntity
  8
TEXT
  6
Continuous
 62
     7
100
AcDbVertex
100
AcDb2dVertex
 10
2340.730467660721
 20
4272.601660424947
 30
0.0
  0
SEQEND
  5
994
330
98F
100
AcDbEntity
  8
TEXT
  6
Continuous
 62
     7
  0
POLYLINE
  5
995
330
1F
100
AcDbEntity
  8
TEXT
  6
Continuous
 62
     7
100
AcDb2dPolyline
 66
     1
 10
0.0
 20
0.0
 30
0.0
  0
VERTEX
  5
996
330
995
100
AcDbEntity
  8
TEXT
  6
Continuous
 62
     7
100
AcDbVertex
100
AcDb2dVertex
 10
2537.729467660721
 20
4272.601660424947
 30
0.0
 42
-0.414213562373
  0
VERTEX
  5
997
330
995
100
AcDbEntity
  8
TEXT
  6
Continuous
 62
     7
100
AcDbVertex
100
AcDb2dVertex
 10
2534.729467660721
 20
4275.601660424947
 30
0.0
  0
VERTEX
  5
998
330
995
100
AcDbEntity
  8
TEXT
  6
Continuous
 62
     7
100
AcDbVertex
100
AcDb2dVertex
 10
2534.729467660721
 20
4316.358660424946
 30
0.0
 42
0.19891236738
  0
VERTEX
  5
999
330
995
100
AcDbEntity
  8
TEXT
  6
Continuous
 62
     7
100
AcDbVertex
100
AcDb2dVertex
 10
2533.850788004283
 20
4318.479980768507
 30
0.0
  0
VERTEX
  5
99A
330
995
100
AcDbEntity
  8
TEXT
  6
Continuous
 62
     7
100
AcDbVertex
100
AcDb2dVertex
 10
2528.609467660718
 20
4323.722660424946
 30
0.0
 42
-0.19891236738
  0
VERTEX
  5
99B
330
995
100
AcDbEntity
  8
TEXT
  6
Continuous
 62
     7
100
AcDbVertex
100
AcDb2dVertex
 10
2527.730467660717
 20
4325.844660424945
 30
0.0
  0
VERTEX
  5
99C
330
995
100
AcDbEntity
  8
TEXT
  6
Continuous
 62
     7
100
AcDbVertex
100
AcDb2dVertex
 10
2527.730467660717
 20
4336.601660424947
 30
0.0
 42
0.414213562373
  0
VERTEX
  5
99D
330
995
100
AcDbEntity
  8
TEXT
  6
Continuous
 62
     7
100
AcDbVertex
100
AcDb2dVertex
 10
2524.730467660721
 20
4339.601660424947
 30
0.0
  0
SEQEND
  5
99E
330
995
100
AcDbEntity
  8
TEXT
  6
Continuous
 62
     7
  0
LINE
  5
99F
330
1F
100
AcDbEntity
  8
AM_4
100
AcDbLine
 10
2527.377467660722
 20
4324.850660424947
 30
0.0
 11
2340.730467660721
 21
4324.850660424947
 31
0.0
  0
LINE
  5
9A0
330
1F
100
AcDbEntity
  8
AM_4
100
AcDbLine
 10
2533.373467660721
 20
4316.919660424946
 30
0.0
 11
2340.730467660721
 21
4316.919660424946
 31
0.0
  0
LINE
  5
9A1
330
1F
100
AcDbEntity
  8
0
100
AcDbLine
 10
2148.229467660721
 20
4244.601660424945
 30
0.0
 11
2533.230467660721
 21
4244.601660424945
 31
0.0
  0
LINE
  5
9A2
330
1F
100
AcDbEntity
  8
0
100
AcDbLine
 10
2151.229467660721
 20
4247.270660424945
 30
0.0
 11
2530.230467660721
 21
4255.271660424945
 31
0.0
  0
LINE
  5
9A3
330
1F
100
AcDbEntity
  8
0
100
AcDbLine
 10
2157.730467660721
 20
4251.023660424945
 30
0.0
 11
2523.730467660721
 21
4259.024660424945
 31
0.0
  0
LINE
  5
9A4
330
1F
100
AcDbEntity
  8
0
100
AcDbLine
 10
2151.229467660721
 20
4254.849660424945
 30
0.0
 11
2332.748090457867
 21
4254.849660424945
 31
0.0
  0
LINE
  5
9A5
330
1F
100
AcDbEntity
  8
0
100
AcDbLine
 10
2151.229467660721
 20
4262.271660424945
 30
0.0
 11
2403.707324178647
 21
4267.601660424945
 31
0.0
  0
LINE
  5
9A6
330
1F
100
AcDbEntity
  8
0
100
AcDbLine
 10
2157.730467660721
 20
4266.024660424945
 30
0.0
 11
2229.86920031914
 21
4267.601660424945
 31
0.0
  0
LINE
  5
9A7
330
1F
100
AcDbEntity
  8
0
100
AcDbLine
 10
2530.230467660721
 20
4262.848660424944
 30
0.0
 11
2151.86746766072
 21
4262.639660424945
 31
0.0
  0
LINE
  5
9A8
330
1F
100
AcDbEntity
  8
TEXT
  6
Continuous
 62
     7
100
AcDbLine
 10
1918.730467660721
 20
4259.024660424945
 30
0.0
 11
1925.230467660721
 21
4255.271660424945
 31
0.0
  0
POLYLINE
  5
9A9
330
1F
100
AcDbEntity
  8
TEXT
  6
Continuous
 62
     7
100
AcDb2dPolyline
 66
     1
 10
0.0
 20
0.0
 30
0.0
  0
VERTEX
  5
9AA
330
9A9
100
AcDbEntity
  8
TEXT
  6
Continuous
 62
     7
100
AcDbVertex
100
AcDb2dVertex
 10
1925.230467660721
 20
4267.601660424945
 30
0.0
  0
VERTEX
  5
9AB
330
9A9
100
AcDbEntity
  8
TEXT
  6
Continuous
 62
     7
100
AcDbVertex
100
AcDb2dVertex
 10
1925.230467660721
 20
4262.848660424944
 30
0.0
  0
VERTEX
  5
9AC
330
9A9
100
AcDbEntity
  8
TEXT
  6
Continuous
 62
     7
100
AcDbVertex
100
AcDb2dVertex
 10
1918.730467660721
 20
4262.848660424944
 30
0.0
  0
SEQEND
  5
9AD
330
9A9
100
AcDbEntity
  8
TEXT
  6
Continuous
 62
     7
  0
INSERT
  5
9AE
330
1F
100
AcDbEntity
  8
0
100
AcDbBlockReference
  2
NXXXX80
 10
1162.666467660722
 20
2789.973660424946
 30
0.0
  0
LINE
  5
9AF
330
1F
100
AcDbEntity
  8
TEXT
  6
Continuous
 62
     7
100
AcDbLine
 10
1546.229467660721
 20
4247.270660424945
 30
0.0
 11
1546.229467660721
 21
4244.601660424945
 31
0.0
  0
LINE
  5
9B0
330
1F
100
AcDbEntity
  8
TEXT
  6
Continuous
 62
     7
100
AcDbLine
 10
1552.730467660721
 20
4267.601660424945
 30
0.0
 11
1552.730467660721
 21
4266.023660424945
 31
0.0
  0
LINE
  5
9B1
330
1F
100
AcDbEntity
  8
TEXT
  6
Continuous
 62
     7
100
AcDbLine
 10
1552.730467660721
 20
4254.848660424944
 30
0.0
 11
1552.730467660721
 21
4251.023660424945
 31
0.0
  0
LINE
  5
9B2
330
1F
100
AcDbEntity
  8
TEXT
  6
Continuous
 62
     7
100
AcDbLine
 10
1918.730467660721
 20
4262.848660424944
 30
0.0
 11
1918.730467660721
 21
4259.024660424945
 31
0.0
  0
POLYLINE
  5
9B3
330
1F
100
AcDbEntity
  8
TEXT
  6
Continuous
 62
     7
100
AcDb2dPolyline
 66
     1
 10
0.0
 20
0.0
 30
0.0
  0
VERTEX
  5
9B4
330
9B3
100
AcDbEntity
  8
TEXT
  6
Continuous
 62
     7
100
AcDbVertex
100
AcDb2dVertex
 10
1543.229467660721
 20
4234.600660424945
 30
0.0
  0
VERTEX
  5
9B5
330
9B3
100
AcDbEntity
  8
TEXT
  6
Continuous
 62
     7
100
AcDbVertex
100
AcDb2dVertex
 10
1543.229467660721
 20
4244.601660424945
 30
0.0
  0
VERTEX
  5
9B6
330
9B3
100
AcDbEntity
  8
TEXT
  6
Continuous
 62
     7
100
AcDbVertex
100
AcDb2dVertex
 10
1546.229467660721
 20
4244.601660424945
 30
0.0
  0
SEQEND
  5
9B7
330
9B3
100
AcDbEntity
  8
TEXT
  6
Continuous
 62
     7
  0
POLYLINE
  5
9B8
330
1F
100
AcDbEntity
  8
TEXT
  6
Continuous
 62
     7
100
AcDb2dPolyline
 66
     1
 10
0.0
 20
0.0
 30
0.0
  0
VERTEX
  5
9B9
330
9B8
100
AcDbEntity
  8
TEXT
  6
Continuous
 62
     7
100
AcDbVertex
100
AcDb2dVertex
 10
1925.230467660721
 20
4255.271660424945
 30
0.0
  0
VERTEX
  5
9BA
330
9B8
100
AcDbEntity
  8
TEXT
  6
Continuous
 62
     7
100
AcDbVertex
100
AcDb2dVertex
 10
1925.230467660721
 20
4244.601660424945
 30
0.0
  0
VERTEX
  5
9BB
330
9B8
100
AcDbEntity
  8
TEXT
  6
Continuous
 62
     7
100
AcDbVertex
100
AcDb2dVertex
 10
1928.230467660721
 20
4244.601660424945
 30
0.0
  0
VERTEX
  5
9BC
330
9B8
100
AcDbEntity
  8
TEXT
  6
Continuous
 62
     7
100
AcDbVertex
100
AcDb2dVertex
 10
1928.230467660721
 20
4234.601660424945
 30
0.0
  0
SEQEND
  5
9BD
330
9B8
100
AcDbEntity
  8
TEXT
  6
Continuous
 62
     7
  0
ARC
  5
9BE
330
1F
100
AcDbEntity
  8
BILD
  6
Continuous
 62
     7
100
AcDbCircle
 10
1938.230467660724
 20
4234.601660424947
 30
0.0
 40
10.00000000000159
100
AcDbArc
 50
180.0
 51
270.0
  0
ARC
  5
9BF
330
1F
100
AcDbEntity
  8
BILD
  6
Continuous
 62
     7
100
AcDbCircle
 10
1533.229467660717
 20
4234.601660424947
 30
0.0
 40
10.00000000000136
100
AcDbArc
 50
270.0
 51
359.9999999999479
  0
LINE
  5
9C0
330
1F
100
AcDbEntity
  8
AM_8
  6
Continuous
100
AcDbLine
 10
1546.867467660719
 20
4262.639660424945
 30
0.0
 11
1546.229467660721
 21
4262.001660424945
 31
0.0
  0
INSERT
  5
9C1
330
1F
100
AcDbEntity
  8
0
100
AcDbBlockReference
  2
NXXXX93
 10
1150.166467660722
 20
2474.078660424947
 30
0.0
  0
POLYLINE
  5
9C2
330
1F
100
AcDbEntity
  8
TEXT
  6
Continuous
 62
     7
100
AcDb2dPolyline
 66
     1
 10
0.0
 20
0.0
 30
0.0
  0
VERTEX
  5
9C3
330
9C2
100
AcDbEntity
  8
TEXT
  6
Continuous
 62
     7
100
AcDbVertex
100
AcDb2dVertex
 10
1533.230467660721
 20
4267.601660424946
 30
0.0
  0
VERTEX
  5
9C4
330
9C2
100
AcDbEntity
  8
TEXT
  6
Continuous
 62
     7
100
AcDbVertex
100
AcDb2dVertex
 10
1533.230467660721
 20
4269.601660424947
 30
0.0
 42
-0.414213562373
  0
VERTEX
  5
9C5
330
9C2
100
AcDbEntity
  8
TEXT
  6
Continuous
 62
     7
100
AcDbVertex
100
AcDb2dVertex
 10
1536.230467660721
 20
4272.601660424947
 30
0.0
  0
VERTEX
  5
9C6
330
9C2
100
AcDbEntity
  8
TEXT
  6
Continuous
 62
     7
100
AcDbVertex
100
AcDb2dVertex
 10
1735.730467660721
 20
4272.601660424947
 30
0.0
  0
SEQEND
  5
9C7
330
9C2
100
AcDbEntity
  8
TEXT
  6
Continuous
 62
     7
  0
POLYLINE
  5
9C8
330
1F
100
AcDbEntity
  8
TEXT
  6
Continuous
 62
     7
100
AcDb2dPolyline
 66
     1
 10
0.0
 20
0.0
 30
0.0
  0
VERTEX
  5
9C9
330
9C8
100
AcDbEntity
  8
TEXT
  6
Continuous
 62
     7
100
AcDbVertex
100
AcDb2dVertex
 10
1551.72946766072
 20
4339.601660424947
 30
0.0
 42
0.414213562373
  0
VERTEX
  5
9CA
330
9C8
100
AcDbEntity
  8
TEXT
  6
Continuous
 62
     7
100
AcDbVertex
100
AcDb2dVertex
 10
1548.729467660721
 20
4336.601660424947
 30
0.0
  0
VERTEX
  5
9CB
330
9C8
100
AcDbEntity
  8
TEXT
  6
Continuous
 62
     7
100
AcDbVertex
100
AcDb2dVertex
 10
1548.729467660721
 20
4325.844660424945
 30
0.0
 42
-0.19891236738
  0
VERTEX
  5
9CC
330
9C8
100
AcDbEntity
  8
TEXT
  6
Continuous
 62
     7
100
AcDbVertex
100
AcDb2dVertex
 10
1547.85046766072
 20
4323.722660424946
 30
0.0
  0
VERTEX
  5
9CD
330
9C8
100
AcDbEntity
  8
TEXT
  6
Continuous
 62
     7
100
AcDbVertex
100
AcDb2dVertex
 10
1542.609147317159
 20
4318.479980768507
 30
0.0
 42
0.19891236738
  0
VERTEX
  5
9CE
330
9C8
100
AcDbEntity
  8
TEXT
  6
Continuous
 62
     7
100
AcDbVertex
100
AcDb2dVertex
 10
1541.730467660721
 20
4316.358660424946
 30
0.0
  0
VERTEX
  5
9CF
330
9C8
100
AcDbEntity
  8
TEXT
  6
Continuous
 62
     7
100
AcDbVertex
100
AcDb2dVertex
 10
1541.730467660721
 20
4275.601660424947
 30
0.0
 42
-0.414213562373
  0
VERTEX
  5
9D0
330
9C8
100
AcDbEntity
  8
TEXT
  6
Continuous
 62
     7
100
AcDbVertex
100
AcDb2dVertex
 10
1538.730467660721
 20
4272.601660424947
 30
0.0
  0
SEQEND
  5
9D1
330
9C8
100
AcDbEntity
  8
TEXT
  6
Continuous
 62
     7
  0
LINE
  5
9D2
330
1F
100
AcDbEntity
  8
AM_4
100
AcDbLine
 10
1549.08246766072
 20
4324.850660424947
 30
0.0
 11
1735.730467660721
 21
4324.850660424947
 31
0.0
  0
LINE
  5
9D3
330
1F
100
AcDbEntity
  8
AM_4
100
AcDbLine
 10
1543.087467660721
 20
4316.919660424946
 30
0.0
 11
1735.729467660721
 21
4316.919660424946
 31
0.0
  0
INSERT
  5
9D4
330
1F
100
AcDbEntity
  8
0
100
AcDbBlockReference
  2
NXXXX95
 10
1150.166467660722
 20
2474.078660424947
 30
0.0
  0
POLYLINE
  5
9D5
330
1F
100
AcDbEntity
  8
TEXT
  6
Continuous
 62
     7
100
AcDb2dPolyline
 66
     1
 10
0.0
 20
0.0
 30
0.0
  0
VERTEX
  5
9D6
330
9D5
100
AcDbEntity
  8
TEXT
  6
Continuous
 62
     7
100
AcDbVertex
100
AcDb2dVertex
 10
1938.230467660717
 20
4267.601660424946
 30
0.0
  0
VERTEX
  5
9D7
330
9D5
100
AcDbEntity
  8
TEXT
  6
Continuous
 62
     7
100
AcDbVertex
100
AcDb2dVertex
 10
1938.230467660717
 20
4269.601660424947
 30
0.0
 42
0.414213562373
  0
VERTEX
  5
9D8
330
9D5
100
AcDbEntity
  8
TEXT
  6
Continuous
 62
     7
100
AcDbVertex
100
AcDb2dVertex
 10
1935.230467660717
 20
4272.601660424947
 30
0.0
  0
VERTEX
  5
9D9
330
9D5
100
AcDbEntity
  8
TEXT
  6
Continuous
 62
     7
100
AcDbVertex
100
AcDb2dVertex
 10
1735.730467660721
 20
4272.601660424947
 30
0.0
  0
SEQEND
  5
9DA
330
9D5
100
AcDbEntity
  8
TEXT
  6
Continuous
 62
     7
  0
POLYLINE
  5
9DB
330
1F
100
AcDbEntity
  8
TEXT
  6
Continuous
 62
     7
100
AcDb2dPolyline
 66
     1
 10
0.0
 20
0.0
 30
0.0
  0
VERTEX
  5
9DC
330
9DB
100
AcDbEntity
  8
TEXT
  6
Continuous
 62
     7
100
AcDbVertex
100
AcDb2dVertex
 10
1932.72946766072
 20
4272.601660424947
 30
0.0
 42
-0.414213562373
  0
VERTEX
  5
9DD
330
9DB
100
AcDbEntity
  8
TEXT
  6
Continuous
 62
     7
100
AcDbVertex
100
AcDb2dVertex
 10
1929.729467660721
 20
4275.601660424947
 30
0.0
  0
VERTEX
  5
9DE
330
9DB
100
AcDbEntity
  8
TEXT
  6
Continuous
 62
     7
100
AcDbVertex
100
AcDb2dVertex
 10
1929.729467660721
 20
4316.358660424946
 30
0.0
 42
0.19891236738
  0
VERTEX
  5
9DF
330
9DB
100
AcDbEntity
  8
TEXT
  6
Continuous
 62
     7
100
AcDbVertex
100
AcDb2dVertex
 10
1928.850788004282
 20
4318.479980768507
 30
0.0
  0
VERTEX
  5
9E0
330
9DB
100
AcDbEntity
  8
TEXT
  6
Continuous
 62
     7
100
AcDbVertex
100
AcDb2dVertex
 10
1923.609467660718
 20
4323.722660424946
 30
0.0
 42
-0.19891236738
  0
VERTEX
  5
9E1
330
9DB
100
AcDbEntity
  8
TEXT
  6
Continuous
 62
     7
100
AcDbVertex
100
AcDb2dVertex
 10
1922.730467660717
 20
4325.844660424945
 30
0.0
  0
VERTEX
  5
9E2
330
9DB
100
AcDbEntity
  8
TEXT
  6
Continuous
 62
     7
100
AcDbVertex
100
AcDb2dVertex
 10
1922.730467660717
 20
4336.601660424947
 30
0.0
 42
0.414213562373
  0
VERTEX
  5
9E3
330
9DB
100
AcDbEntity
  8
TEXT
  6
Continuous
 62
     7
100
AcDbVertex
100
AcDb2dVertex
 10
1919.730467660721
 20
4339.601660424947
 30
0.0
  0
SEQEND
  5
9E4
330
9DB
100
AcDbEntity
  8
TEXT
  6
Continuous
 62
     7
  0
LINE
  5
9E5
330
1F
100
AcDbEntity
  8
AM_4
100
AcDbLine
 10
1922.377467660721
 20
4324.850660424947
 30
0.0
 11
1735.730467660721
 21
4324.850660424947
 31
0.0
  0
LINE
  5
9E6
330
1F
100
AcDbEntity
  8
AM_4
100
AcDbLine
 10
1928.373467660721
 20
4316.919660424946
 30
0.0
 11
1735.730467660721
 21
4316.919660424946
 31
0.0
  0
LINE
  5
9E7
330
1F
100
AcDbEntity
  8
0
100
AcDbLine
 10
1543.229467660721
 20
4244.601660424945
 30
0.0
 11
1928.230467660721
 21
4244.601660424945
 31
0.0
  0
LINE
  5
9E8
330
1F
100
AcDbEntity
  8
0
100
AcDbLine
 10
1546.229467660721
 20
4247.270660424945
 30
0.0
 11
1925.230467660721
 21
4255.271660424945
 31
0.0
  0
LINE
  5
9E9
330
1F
100
AcDbEntity
  8
0
100
AcDbLine
 10
1552.730467660721
 20
4251.023660424945
 30
0.0
 11
1918.730467660721
 21
4259.024660424945
 31
0.0
  0
LINE
  5
9EA
330
1F
100
AcDbEntity
  8
0
100
AcDbLine
 10
1546.229467660721
 20
4254.849660424945
 30
0.0
 11
1727.748090457867
 21
4254.849660424945
 31
0.0
  0
LINE
  5
9EB
330
1F
100
AcDbEntity
  8
0
100
AcDbLine
 10
1546.229467660721
 20
4262.271660424945
 30
0.0
 11
1798.707324178646
 21
4267.601660424945
 31
0.0
  0
LINE
  5
9EC
330
1F
100
AcDbEntity
  8
0
100
AcDbLine
 10
1552.730467660721
 20
4266.024660424945
 30
0.0
 11
1624.869200319136
 21
4267.601660424945
 31
0.0
  0
LINE
  5
9ED
330
1F
100
AcDbEntity
  8
0
100
AcDbLine
 10
1925.230467660721
 20
4262.848660424944
 30
0.0
 11
1546.867467660719
 21
4262.639660424945
 31
0.0
  0
LINE
  5
9EE
330
1F
100
AcDbEntity
  8
AM_7
  6
AM_DIN_G_W050x2
100
AcDbLine
 10
1345.729967660719
 20
4079.601660424945
 30
0.0
 11
1537.131552009746
 21
4079.601660424945
 31
0.0
1001
GENIUS_GENODEF_13
1002
{
1000
HIER
1070
     0
1002
}
1002
{
1000
MANEDIT
1070
     0
1002
}
1002
{
1000
NOSEL
1070
     0
1002
}
1002
{
1000
BEHIND
1070
     0
1002
}
1002
{
1000
OTHER
1070
     0
1002
}
1002
{
1000
REACTOR
1002
}
1001
GENIUS_GENOBJ-N-CEN_13
1002
{
1000
OWNER
1000
GEN
1002
}
1001
GENIUS_GENCEN_19
1002
{
1040
30.0
1002
}
  0
LINE
  5
9EF
330
1F
100
AcDbEntity
  8
AM_7
  6
AM_DIN_G_W050x2
100
AcDbLine
 10
2765.229967660723
 20
4009.601660424945
 30
0.0
 11
2554.225937956156
 21
4009.601660424945
 31
0.0
1001
GENIUS_GENOBJ-N-CEN_13
1002
{
1000
OWNER
1000
GEN
1002
}
1001
GENIUS_GENODEF_13
1002
{
1000
HIER
1070
     0
1002
}
1002
{
1000
MANEDIT
1070
     0
1002
}
1002
{
1000
NOSEL
1070
     0
1002
}
1002
{
1000
BEHIND
1070
     0
1002
}
1002
{
1000
OTHER
1070
     0
1002
}
1002
{
1000
REACTOR
1002
}
1001
GENIUS_GENCEN_19
1002
{
1040
30.0
1002
}
  0
LINE
  5
9F0
330
1F
100
AcDbEntity
  8
0
100
AcDbLine
 10
1375.729967660723
 20
1746.350095447026
 30
0.0
 11
1375.729967660723
 21
1636.350095447026
 31
0.0
  0
LINE
  5
9F1
330
1F
100
AcDbEntity
  8
0
 62
     9
100
AcDbLine
 10
1506.95844999822
 20
1754.463038562527
 30
0.0
 11
1505.832594590222
 21
1751.613941318026
 31
0.0
  0
LWPOLYLINE
  5
9F2
330
1F
100
AcDbEntity
  8
0
100
AcDbPolyline
 90
        7
 70
     0
 43
0.0
 10
1506.862927027222
 20
1752.758663165527
 10
1506.924930864222
 20
1752.871407427527
 10
1506.238862691222
 20
1751.999368441026
 10
1504.414798497722
 20
1750.268876155026
 10
1501.284411774221
 20
1748.276615244027
 10
1496.807701363222
 20
1746.737528659527
 10
1493.001864434723
 20
1746.350057215527
  0
LWPOLYLINE
  5
9F3
330
1F
100
AcDbEntity
  8
0
 62
     9
100
AcDbPolyline
 90
        5
 70
     0
 43
0.0
 10
1506.73312754522
 20
1628.749849306527
 10
1508.573995564719
 20
1624.972680857527
 10
1510.08727743472
 20
1622.635902305027
 10
1511.316435728721
 20
1621.394600742527
 10
1512.314507489723
 20
1621.019620005027
  0
LINE
  5
9F4
330
1F
100
AcDbEntity
  8
0
 62
     9
100
AcDbLine
 10
1505.838690629721
 20
1631.079684909527
 30
0.0
 11
1506.73312754522
 21
1628.749849306527
 31
0.0
  0
LINE
  5
9F5
330
1F
100
AcDbEntity
  8
0
 62
     9
100
AcDbLine
 10
1629.242886304721
 20
1964.476154023527
 30
0.0
 11
1633.575899477721
 21
1967.457470217527
 31
0.0
  0
LWPOLYLINE
  5
9F6
330
1F
100
AcDbEntity
  8
0
 62
     9
100
AcDbPolyline
 90
        3
 70
     0
 43
0.0
 10
1633.575899477721
 20
1967.457470217527
 10
1640.063877684724
 20
1971.564046668026
 10
1648.975609303722
 20
1976.750567314527
  0
LWPOLYLINE
  5
9F7
330
1F
100
AcDbEntity
  8
0
 62
     9
100
AcDbPolyline
 90
        4
 70
     0
 43
0.0
 10
1633.57034934322
 20
1415.246385347526
 10
1629.23934857822
 20
1418.226607079527
 10
1626.980386635722
 20
1420.008291249526
 10
1627.04208981622
 20
1420.350638000526
  0
LINE
  5
9F8
330
1F
100
AcDbEntity
  8
0
 62
     9
100
AcDbLine
 10
1634.080240560219
 20
1965.979499206027
 30
0.0
 11
1629.486209552721
 21
1963.512360501526
 31
0.0
  0
LWPOLYLINE
  5
9F9
330
1F
100
AcDbEntity
  8
0
 62
     9
100
AcDbPolyline
 90
        6
 70
     0
 43
0.0
 10
1648.975609303722
 20
1976.750567314527
 10
1660.409699184723
 20
1982.784913464026
 10
1674.397160069723
 20
1989.341198070027
 10
1691.032657753222
 20
1996.073862828526
 10
1710.462600601223
 20
2002.595614279527
 10
1732.882921342721
 20
2008.453861598527
  0
LWPOLYLINE
  5
9FA
330
1F
100
AcDbEntity
  8
0
100
AcDbPolyline
 90
       12
 70
     0
 43
0.0
 10
1649.85739376922
 20
1974.326422849526
 10
1646.913097031222
 20
1972.831627576526
 10
1644.16458465072
 20
1971.411296496527
 10
1641.623683116723
 20
1970.078552863026
 10
1639.29986378472
 20
1968.845502889527
 10
1637.208878311722
 20
1967.726927315526
 10
1635.36880580122
 20
1966.738632431026
 10
1633.800182907221
 20
1965.897383805527
 10
1632.526201769721
 20
1965.219981120526
 10
1631.582197734719
 20
1964.726908411027
 10
1631.047246831721
 20
1964.456022536026
 10
1631.006923445723
 20
1964.436249742527
  0
LINE
  5
9FB
330
1F
100
AcDbEntity
  8
0
100
AcDbLine
 10
1652.985254816722
 20
1975.882969127027
 30
0.0
 11
1649.85739376922
 21
1974.326422849526
 31
0.0
  0
LWPOLYLINE
  5
9FC
330
1F
100
AcDbEntity
  8
0
 62
     9
100
AcDbPolyline
 90
        4
 70
     0
 43
0.0
 10
1629.486209552721
 20
1963.512360501526
 10
1627.04112460672
 20
1962.349230896026
 10
1626.98147839122
 20
1962.692951803527
 10
1629.242886304721
 20
1964.476154023527
  0
LINE
  5
9FD
330
1F
100
AcDbEntity
  8
0
 62
     9
100
AcDbLine
 10
1733.820240194721
 20
2004.228704275526
 30
0.0
 11
1733.983857600219
 21
2004.293282688027
 31
0.0
  0
LINE
  5
9FE
330
1F
100
AcDbEntity
  8
0
 62
     9
100
AcDbLine
 10
1733.820241046721
 20
1378.471490461526
 30
0.0
 11
1733.98383433322
 21
1378.406914752027
 31
0.0
  0
LWPOLYLINE
  5
9FF
330
1F
100
AcDbEntity
  8
0
100
AcDbPolyline
 90
       29
 70
     0
 43
0.0
 10
1631.115484545223
 20
1418.215632892527
 10
1631.044746747721
 20
1418.247403331526
 10
1631.070103289222
 20
1418.232884767526
 10
1631.721341808222
 20
1417.901434371527
 10
1632.852483997722
 20
1417.307608354527
 10
1634.379182535221
 20
1416.492793236527
 10
1636.26185991522
 20
1415.481714332027
 10
1638.469981233223
 20
1414.297782097026
 10
1640.975557833722
 20
1412.964292679026
 10
1643.753234605721
 20
1411.503432078526
 10
1646.78834576572
 20
1409.932520643527
 10
1650.065029404222
 20
1408.269428337527
 10
1653.567191524221
 20
1406.531295217027
 10
1657.286750902721
 20
1404.731750902526
 10
1661.213546795222
 20
1402.885169614026
 10
1665.336094270221
 20
1401.005454287026
 10
1669.648780865723
 20
1399.104099945026
 10
1674.146544823722
 20
1397.192304935027
 10
1678.826372265722
 20
1395.279571851527
 10
1683.688920291222
 20
1393.374162554527
 10
1688.736693420721
 20
1391.484274734027
 10
1693.970963212222
 20
1389.618336913027
 10
1699.39342309472
 20
1387.784674684027
 10
1705.007992163221
 20
1385.991838847526
 10
1710.817561249722
 20
1384.248909379027
 10
1716.825105789224
 20
1382.564925741527
 10
1723.034549250221
 20
1380.949416864527
 10
1729.450133058222
 20
1379.412613811527
 10
1733.984157929722
 20
1378.406844874026
  0
LWPOLYLINE
  5
A00
330
1F
100
AcDbEntity
  8
0
 62
     9
100
AcDbPolyline
 90
        3
 70
     0
 43
0.0
 10
1627.04208981622
 20
1420.350638000526
 10
1629.488131101222
 20
1419.186828676026
 10
1634.082330133221
 20
1416.719558196026
  0
LWPOLYLINE
  5
A01
330
1F
100
AcDbEntity
  8
0
 62
     9
100
AcDbPolyline
 90
        8
 70
     0
 43
0.0
 10
1634.082330133221
 20
1416.719558196026
 10
1640.750990042722
 20
1413.128111121527
 10
1649.74118131922
 20
1408.468490422027
 10
1661.210365024221
 20
1402.919016359026
 10
1675.239475737221
 20
1396.769231584026
 10
1691.88988218772
 20
1390.378644049527
 10
1711.346533638222
 20
1384.125343211527
 10
1733.820242914223
 20
1378.471498880027
  0
LWPOLYLINE
  5
A02
330
1F
100
AcDbEntity
  8
0
 62
     9
100
AcDbPolyline
 90
        9
 70
     0
 43
0.0
 10
2361.62772248122
 20
1373.323578198026
 10
2389.382728824724
 20
1377.788004246527
 10
2413.535281045222
 20
1383.674130327526
 10
2434.463421000224
 20
1390.340845358526
 10
2452.454181628721
 20
1397.281767007526
 10
2467.528047336223
 20
1403.984440222027
 10
2479.743748821723
 20
1410.007878348527
 10
2488.86341144722
 20
1414.817263303027
 10
2495.078727746722
 20
1418.181154019026
  0
LWPOLYLINE
  5
A03
330
1F
100
AcDbEntity
  8
0
100
AcDbPolyline
 90
       32
 70
     0
 43
0.0
 10
2361.546221692723
 20
1373.284520916027
 10
2366.901852190223
 20
1373.956922621027
 10
2374.415065724222
 20
1375.050658009527
 10
2381.684422750722
 20
1376.277372239527
 10
2388.715177984724
 20
1377.622636130526
 10
2395.512980579724
 20
1379.073101922026
 10
2402.082649176221
 20
1380.616569289526
 10
2408.429607631723
 20
1382.241428931526
 10
2414.560270037223
 20
1383.936731272027
 10
2420.480127898723
 20
1385.692365932526
 10
2426.193322661221
 20
1387.498814039526
 10
2431.704794110721
 20
1389.346931735027
 10
2437.019760351222
 20
1391.227930187527
 10
2442.141452422221
 20
1393.133479383026
 10
2447.07202688672
 20
1395.055191728027
 10
2451.814847969724
 20
1396.984889281527
 10
2456.373318317722
 20
1398.914768454027
 10
2460.745596823724
 20
1400.835867149527
 10
2464.92683977122
 20
1402.737301700526
 10
2468.908917978222
 20
1404.605813553527
 10
2472.680758977223
 20
1406.427218412026
 10
2476.226220247723
 20
1408.184605315027
 10
2479.532431553221
 20
1409.861327917027
 10
2482.589312907222
 20
1411.442052871026
 10
2485.377861916223
 20
1412.907691045527
 10
2487.879270870724
 20
1414.238710568526
 10
2490.075054819722
 20
1415.415699834527
 10
2491.943419550223
 20
1416.418984886027
 10
2493.459758096721
 20
1417.229236421527
 10
2494.590196174221
 20
1417.824681411527
 10
2495.29468283722
 20
1418.185455238526
 10
2495.362900600722
 20
1418.219435983526
  0
LWPOLYLINE
  5
A04
330
1F
100
AcDbEntity
  8
0
 62
     9
100
AcDbPolyline
 90
        7
 70
     0
 43
0.0
 10
2362.167565433721
 20
1368.852369533027
 10
2290.624250289719
 20
1361.024652470526
 10
2225.520217209222
 20
1355.369996402026
 10
2166.202153589221
 20
1351.425397896027
 10
2111.98021731222
 20
1348.821289542026
 10
2062.152085057723
 20
1347.268749421527
 10
2015.933296058222
 20
1346.546893065527
  0
LINE
  5
A05
330
1F
100
AcDbEntity
  8
0
100
AcDbLine
 10
1985.729967660723
 20
1341.350095447026
 30
0.0
 11
1990.729967660723
 21
1341.350095447026
 31
0.0
  0
LWPOLYLINE
  5
A06
330
1F
100
AcDbEntity
  8
0
 62
     9
100
AcDbPolyline
 90
        4
 70
     0
 43
0.0
 10
1848.184711398219
 20
1359.517759362527
 10
1879.954039861219
 20
1356.235292161527
 10
1909.002939230221
 20
1353.985623560026
 10
1935.638340443719
 20
1352.552912848527
  0
LWPOLYLINE
  5
A07
330
1F
100
AcDbEntity
  8
0
 62
     9
100
AcDbPolyline
 90
        3
 70
     0
 43
0.0
 10
1775.350929934721
 20
1370.294430204526
 10
1813.405920154223
 20
1364.098043757027
 10
1848.184711398219
 20
1359.517759362527
  0
LWPOLYLINE
  5
A08
330
1F
100
AcDbEntity
  8
0
100
AcDbPolyline
 90
        4
 70
     0
 43
0.0
 10
1733.98383433322
 20
1378.406914752027
 10
1800.522417049219
 20
1366.026068061027
 10
1877.53917047022
 20
1356.422803125027
 10
1960.188644237719
 20
1351.733477646027
  0
LINE
  5
A09
330
1F
100
AcDbEntity
  8
0
 62
     9
100
AcDbLine
 10
1733.820242914223
 20
1378.471498880027
 30
0.0
 11
1775.350929934721
 21
1370.294430204526
 31
0.0
  0
LWPOLYLINE
  5
A0A
330
1F
100
AcDbEntity
  8
0
 62
     9
100
AcDbPolyline
 90
        8
 70
     0
 43
0.0
 10
1732.882921342721
 20
1374.246329295526
 10
1710.459184014221
 20
1380.105602739027
 10
1691.02667001322
 20
1386.628555325527
 10
1674.390212824223
 20
1393.362039320526
 10
1660.401579917722
 20
1399.919337780527
 10
1648.967205764221
 20
1405.954302446026
 10
1640.056858275723
 20
1411.140419602526
 10
1633.57034934322
 20
1415.246385347526
  0
LINE
  5
A0B
330
1F
100
AcDbEntity
  8
0
 62
     9
100
AcDbLine
 10
1998.096589052221
 20
2023.841899308526
 30
0.0
 11
2003.321350624222
 21
2027.818135374026
 31
0.0
  0
LINE
  5
A0C
330
1F
100
AcDbEntity
  8
0
 62
     9
100
AcDbLine
 10
2003.321350624222
 20
2027.818135374026
 30
0.0
 11
2009.409797810721
 21
2030.299764867027
 31
0.0
  0
LINE
  5
A0D
330
1F
100
AcDbEntity
  8
0
 62
     9
100
AcDbLine
 10
1966.771558286721
 20
1352.499807528526
 30
0.0
 11
1960.181247891721
 21
1351.765739797526
 31
0.0
  0
LINE
  5
A0E
330
1F
100
AcDbEntity
  8
0
 62
     9
100
AcDbLine
 10
2280.570036380222
 20
1364.842190829526
 30
0.0
 11
2361.62772248122
 21
1373.323578198026
 31
0.0
  0
LINE
  5
A0F
330
1F
100
AcDbEntity
  8
0
 62
     9
100
AcDbLine
 10
2206.036117281223
 20
1358.864413460026
 30
0.0
 11
2280.570036380222
 21
1364.842190829526
 31
0.0
  0
LINE
  5
A10
330
1F
100
AcDbEntity
  8
0
 62
     9
100
AcDbLine
 10
2137.485163615723
 20
1354.917588535027
 30
0.0
 11
2206.036117281223
 21
1358.864413460026
 31
0.0
  0
LINE
  5
A11
330
1F
100
AcDbEntity
  8
0
 62
     9
100
AcDbLine
 10
2074.338729477223
 20
1352.602214784027
 30
0.0
 11
2137.485163615723
 21
1354.917588535027
 31
0.0
  0
LWPOLYLINE
  5
A12
330
1F
100
AcDbEntity
  8
0
100
AcDbPolyline
 90
        4
 70
     0
 43
0.0
 10
2015.930683139723
 20
1351.558012560027
 10
2139.099393372221
 20
1354.961503423526
 10
2255.943540160723
 20
1362.642328447527
 10
2361.546273048222
 20
1373.284530462027
  0
LINE
  5
A13
330
1F
100
AcDbEntity
  8
0
 62
     9
100
AcDbLine
 10
2015.933364484224
 20
1351.590178771526
 30
0.0
 11
2074.338729477223
 21
1352.602214784027
 31
0.0
  0
LINE
  5
A14
330
1F
100
AcDbEntity
  8
0
 62
     9
100
AcDbLine
 10
1991.617297127222
 20
1365.116455738026
 30
0.0
 11
1985.729967660723
 21
1365.061199986527
 31
0.0
  0
LINE
  5
A15
330
1F
100
AcDbEntity
  8
0
 62
     9
100
AcDbLine
 10
1990.11170184572
 20
1383.420221362026
 30
0.0
 11
1990.730358499223
 21
1383.424134298026
 31
0.0
  0
LINE
  5
A16
330
1F
100
AcDbEntity
  8
0
 62
     9
100
AcDbLine
 10
1985.729967660723
 20
1348.850095447026
 30
0.0
 11
1990.729967660723
 21
1348.850095447026
 31
0.0
  0
LINE
  5
A17
330
1F
100
AcDbEntity
  8
0
 62
     9
100
AcDbLine
 10
1990.729967660723
 20
1355.189841409527
 30
0.0
 11
1985.729967660723
 21
1355.189841409527
 31
0.0
  0
LINE
  5
A18
330
1F
100
AcDbEntity
  8
0
100
AcDbLine
 10
1990.729967660723
 20
1357.538127824027
 30
0.0
 11
1985.729967660723
 21
1357.538127824027
 31
0.0
  0
LINE
  5
A19
330
1F
100
AcDbEntity
  8
0
 62
     9
100
AcDbLine
 10
1990.729967660723
 20
1362.363287203526
 30
0.0
 11
1985.729967660723
 21
1362.363287203526
 31
0.0
  0
LINE
  5
A1A
330
1F
100
AcDbEntity
  8
0
 62
     9
100
AcDbLine
 10
1985.729967660723
 20
1383.456219853026
 30
0.0
 11
1990.11170184572
 21
1383.420221362026
 31
0.0
  0
LINE
  5
A1B
330
1F
100
AcDbEntity
  8
0
 62
     9
100
AcDbLine
 10
1990.015171177723
 20
1367.192277368526
 30
0.0
 11
1991.329662120222
 21
1367.170102593027
 31
0.0
  0
LWPOLYLINE
  5
A1C
330
1F
100
AcDbEntity
  8
0
 62
     9
100
AcDbPolyline
 90
        9
 70
     0
 43
0.0
 10
1960.182968013222
 20
1346.724200690526
 10
1939.221585616219
 20
1347.372384926027
 10
1916.651548931722
 20
1348.492903272026
 10
1892.19937263172
 20
1350.203035052526
 10
1865.598379008222
 20
1352.652464197526
 10
1836.592987909223
 20
1356.027970745526
 10
1804.943214599222
 20
1360.558676219526
 10
1770.43259656122
 20
1366.521519810027
 10
1732.882921342721
 20
1374.246329295526
  0
LINE
  5
A1D
330
1F
100
AcDbEntity
  8
0
 62
     9
100
AcDbLine
 10
1935.638340443719
 20
1352.552912848527
 30
0.0
 11
1960.181254094224
 21
1351.765740484527
 31
0.0
  0
LINE
  5
A1E
330
1F
100
AcDbEntity
  8
0
 62
     9
100
AcDbLine
 10
1985.729967660723
 20
1365.061199986527
 30
0.0
 11
1984.81017838022
 21
1365.094699418027
 31
0.0
  0
LINE
  5
A1F
330
1F
100
AcDbEntity
  8
0
 62
     9
100
AcDbLine
 10
1713.662361807722
 20
1379.859413886527
 30
0.0
 11
1713.077129232723
 21
1377.703807237526
 31
0.0
  0
LINE
  5
A20
330
1F
100
AcDbEntity
  8
0
 62
     9
100
AcDbLine
 10
1960.181248069221
 20
2030.934451107527
 30
0.0
 11
1960.20298330722
 21
2030.967019500027
 31
0.0
  0
LINE
  5
A21
330
1F
100
AcDbEntity
  8
0
 62
     9
100
AcDbLine
 10
1994.085754469223
 20
2018.637949889027
 30
0.0
 11
1998.096589052221
 21
2023.841899308526
 31
0.0
  0
LINE
  5
A22
330
1F
100
AcDbEntity
  8
0
 62
     9
100
AcDbLine
 10
2015.96578933522
 20
2031.141833125027
 30
0.0
 11
2015.933404755721
 21
2031.110017049027
 31
0.0
  0
LWPOLYLINE
  5
A23
330
1F
100
AcDbEntity
  8
0
 62
     9
100
AcDbPolyline
 90
        5
 70
     0
 43
0.0
 10
1512.314507489723
 20
1761.680570889027
 10
1511.357088685222
 20
1761.333805584027
 10
1510.17742823072
 20
1760.177882207026
 10
1508.725313031221
 20
1757.994698854027
 10
1506.95844999822
 20
1754.463038562527
  0
LINE
  5
A24
330
1F
100
AcDbEntity
  8
0
 62
     9
100
AcDbLine
 10
1960.729967660723
 20
1413.441916180027
 30
0.0
 11
1985.729967660723
 21
1413.441916180027
 31
0.0
  0
LINE
  5
A25
330
1F
100
AcDbEntity
  8
0
 62
     9
100
AcDbLine
 10
2025.729967660723
 20
1421.350095447026
 30
0.0
 11
1990.729967660723
 21
1421.350095447026
 31
0.0
  0
LINE
  5
A26
330
1F
100
AcDbEntity
  8
0
100
AcDbLine
 10
2025.729967660723
 20
1436.350095447026
 30
0.0
 11
2005.729967660723
 21
1436.350095447026
 31
0.0
  0
LINE
  5
A27
330
1F
100
AcDbEntity
  8
0
 62
     9
100
AcDbLine
 10
2005.729967660723
 20
1438.534857649027
 30
0.0
 11
2025.729967660723
 21
1438.534857649027
 31
0.0
  0
LWPOLYLINE
  5
A28
330
1F
100
AcDbEntity
  8
0
 62
     9
100
AcDbPolyline
 90
        4
 70
     0
 43
0.0
 10
2015.729967660723
 20
1413.261073279026
 10
2009.312595573222
 20
1413.263093459526
 10
2003.280877750721
 20
1413.258778410027
 10
1998.729968000721
 20
1413.261617635027
  0
LINE
  5
A29
330
1F
100
AcDbEntity
  8
0
 62
     9
100
AcDbLine
 10
1998.729968000721
 20
1413.261617635027
 30
0.0
 11
1990.729967660723
 21
1413.261073279026
 31
0.0
  0
LWPOLYLINE
  5
A2A
330
1F
100
AcDbEntity
  8
0
 62
     9
100
AcDbPolyline
 90
        3
 70
     0
 43
0.0
 10
1990.03320618322
 20
1367.120137795527
 10
1990.99887030722
 20
1366.201158819026
 10
1991.515388731223
 20
1365.844057913026
  0
LWPOLYLINE
  5
A2B
330
1F
100
AcDbEntity
  8
0
 62
     9
100
AcDbPolyline
 90
        3
 70
     0
 43
0.0
 10
1990.016851100722
 20
1367.191668576027
 10
1990.043270192223
 20
1367.157864145026
 10
1990.03320618322
 20
1367.120137795527
  0
LINE
  5
A2C
330
1F
100
AcDbEntity
  8
0
 62
     9
100
AcDbLine
 10
1713.66236180272
 20
2002.840777006027
 30
0.0
 11
1713.077129235219
 21
2004.996383657527
 31
0.0
  0
LINE
  5
A2D
330
1F
100
AcDbEntity
  8
0
 62
     9
100
AcDbLine
 10
1732.842428258221
 20
1374.063798395527
 30
0.0
 11
1732.882921342721
 21
1374.246329295526
 31
0.0
  0
LINE
  5
A2E
330
1F
100
AcDbEntity
  8
0
 62
     9
100
AcDbLine
 10
1733.820242914223
 20
1378.471498880027
 30
0.0
 11
1747.31148840622
 21
1439.286060109026
 31
0.0
  0
LWPOLYLINE
  5
A2F
330
1F
100
AcDbEntity
  8
0
 62
     9
100
AcDbPolyline
 90
        3
 70
     0
 43
0.0
 10
1990.729967660723
 20
2011.154708350527
 10
1991.568544314222
 20
2012.594919857527
 10
1991.620688766223
 20
2012.623367396026
  0
LWPOLYLINE
  5
A30
330
1F
100
AcDbEntity
  8
0
100
AcDbPolyline
 90
        4
 70
     0
 43
0.0
 10
2002.507453574222
 20
1926.938639856026
 10
2007.694331368222
 20
1932.567598356526
 10
2014.198786193721
 20
1936.602541460027
 10
2021.545998393722
 20
1938.748925462027
  0
LINE
  5
A31
330
1F
100
AcDbEntity
  8
0
100
AcDbLine
 10
2001.914197165222
 20
1928.737425773027
 30
0.0
 11
2007.52213787472
 21
1934.396675783527
 31
0.0
  0
LINE
  5
A32
330
1F
100
AcDbEntity
  8
0
100
AcDbLine
 10
2004.438227480224
 20
1931.661863497527
 30
0.0
 11
2010.729840638721
 21
1936.549754949026
 31
0.0
  0
LINE
  5
A33
330
1F
100
AcDbEntity
  8
0
100
AcDbLine
 10
2007.52213787472
 20
1934.396675783527
 30
0.0
 11
2014.426688172223
 21
1938.371988571526
 31
0.0
  0
LINE
  5
A34
330
1F
100
AcDbEntity
  8
0
100
AcDbLine
 10
2010.729840638721
 20
1936.549754949026
 30
0.0
 11
2018.08981122272
 21
1939.600411378026
 31
0.0
  0
LINE
  5
A35
330
1F
100
AcDbEntity
  8
0
 62
     9
100
AcDbLine
 10
2001.094712745221
 20
1437.832784355526
 30
0.0
 11
2005.729967660723
 21
1438.534857649027
 31
0.0
  0
LWPOLYLINE
  5
A36
330
1F
100
AcDbEntity
  8
0
 62
     9
100
AcDbPolyline
 90
        5
 70
     0
 43
0.0
 10
2025.729967660723
 20
1438.534857649027
 10
2034.703402979722
 20
1439.631661573026
 10
2043.130606089221
 20
1442.877173332027
 10
2050.431443040722
 20
1448.101987520026
 10
2056.01507321822
 20
1454.899775922527
  0
LINE
  5
A37
330
1F
100
AcDbEntity
  8
0
 62
     9
100
AcDbLine
 10
1988.189423965222
 20
1370.052875210026
 30
0.0
 11
1990.018187772221
 21
1367.192258810527
 31
0.0
  0
LWPOLYLINE
  5
A38
330
1F
100
AcDbEntity
  8
0
 62
     9
100
AcDbPolyline
 90
        3
 70
     0
 43
0.0
 10
1990.729967660723
 20
1371.545488143027
 10
1991.581819565222
 20
1370.093559004526
 10
1991.755528133221
 20
1369.999455225027
  0
LINE
  5
A39
330
1F
100
AcDbEntity
  8
0
 62
     9
100
AcDbLine
 10
1732.842428258221
 20
2008.636392499027
 30
0.0
 11
1732.882921342721
 21
2008.453861598527
 31
0.0
  0
LINE
  5
A3A
330
1F
100
AcDbEntity
  8
0
 62
     9
100
AcDbLine
 10
1747.31148840622
 20
1943.414130785527
 30
0.0
 11
1733.820242914223
 21
2004.228692014527
 31
0.0
  0
LINE
  5
A3B
330
1F
100
AcDbEntity
  8
0
 62
     9
100
AcDbLine
 10
1985.067916366222
 20
2015.775991127027
 30
0.0
 11
1985.729967660723
 21
2017.638990907527
 31
0.0
  0
LINE
  5
A3C
330
1F
100
AcDbEntity
  8
0
 62
     9
100
AcDbLine
 10
1991.57726929872
 20
2012.588026388027
 30
0.0
 11
1994.085754469223
 21
2018.637949889027
 31
0.0
  0
LINE
  5
A3D
330
1F
100
AcDbEntity
  8
0
 62
     9
100
AcDbLine
 10
1734.299797079719
 20
1375.486788162026
 30
0.0
 11
1735.56200197772
 21
1378.113264799526
 31
0.0
  0
LINE
  5
A3E
330
1F
100
AcDbEntity
  8
0
100
AcDbLine
 10
1999.016790319722
 20
1920.126571248026
 30
0.0
 11
2002.507453574222
 21
1926.938639856026
 31
0.0
  0
LINE
  5
A3F
330
1F
100
AcDbEntity
  8
0
100
AcDbLine
 10
1998.001920153224
 20
1921.796940213527
 30
0.0
 11
2001.914197165222
 21
1928.737425773027
 31
0.0
  0
LINE
  5
A40
330
1F
100
AcDbEntity
  8
0
100
AcDbLine
 10
1999.662674452721
 20
1925.284548712527
 30
0.0
 11
2004.438227480224
 21
1931.661863497527
 31
0.0
  0
LINE
  5
A41
330
1F
100
AcDbEntity
  8
0
100
AcDbLine
 10
2048.442249632722
 20
1891.318828636026
 30
0.0
 11
2042.502824495224
 21
1886.008642604526
 31
0.0
  0
LINE
  5
A42
330
1F
100
AcDbEntity
  8
0
100
AcDbLine
 10
2045.554118380221
 20
1888.380489346026
 30
0.0
 11
2038.940275387719
 21
1883.938408754026
 31
0.0
  0
LINE
  5
A43
330
1F
100
AcDbEntity
  8
0
 62
     9
100
AcDbLine
 10
2039.298010413219
 20
1879.394006036526
 30
0.0
 11
2045.450929362721
 21
1883.341880811026
 31
0.0
  0
LINE
  5
A44
330
1F
100
AcDbEntity
  8
0
100
AcDbLine
 10
2042.502824495224
 20
1886.008642604526
 30
0.0
 11
2035.370838789722
 21
1882.457609638027
 31
0.0
  0
LINE
  5
A45
330
1F
100
AcDbEntity
  8
0
 62
     9
100
AcDbLine
 10
2032.97471168322
 20
1877.136076252526
 30
0.0
 11
2039.298010413219
 21
1879.394006036526
 31
0.0
  0
LINE
  5
A46
330
1F
100
AcDbEntity
  8
0
100
AcDbLine
 10
2038.940275387719
 20
1883.938408754026
 30
0.0
 11
2031.387369458223
 21
1881.402892676026
 31
0.0
  0
LINE
  5
A47
330
1F
100
AcDbEntity
  8
0
100
AcDbLine
 10
2005.729967660723
 20
1506.350095447026
 30
0.0
 11
2025.729967660723
 21
1506.350095447026
 31
0.0
  0
LINE
  5
A48
330
1F
100
AcDbEntity
  8
0
 62
     9
100
AcDbLine
 10
1990.729967660723
 20
1521.350095447026
 30
0.0
 11
2025.729967660723
 21
1521.350095447026
 31
0.0
  0
LINE
  5
A49
330
1F
100
AcDbEntity
  8
0
 62
     9
100
AcDbLine
 10
1734.299797013221
 20
2007.213410881027
 30
0.0
 11
1735.562065391223
 21
2004.586806272527
 31
0.0
  0
LINE
  5
A4A
330
1F
100
AcDbEntity
  8
0
 62
     9
100
AcDbLine
 10
1986.608392399722
 20
1373.899094742027
 30
0.0
 11
1988.189423965222
 21
1370.052875210026
 31
0.0
  0
LINE
  5
A4B
330
1F
100
AcDbEntity
  8
0
 62
     9
100
AcDbLine
 10
1985.067916982222
 20
1366.924204190026
 30
0.0
 11
1985.729967660723
 21
1365.061207150026
 31
0.0
  0
LINE
  5
A4C
330
1F
100
AcDbEntity
  8
0
 62
     9
100
AcDbLine
 10
1985.729967660723
 20
1377.118984387526
 30
0.0
 11
1986.608392399722
 21
1373.899094742027
 31
0.0
  0
LWPOLYLINE
  5
A4D
330
1F
100
AcDbEntity
  8
0
100
AcDbPolyline
 90
       11
 70
     0
 43
0.0
 10
1990.729967664721
 20
1376.556840067026
 10
1991.208551475721
 20
1371.688988521026
 10
1993.007996511723
 20
1366.130758088026
 10
1996.238689964721
 20
1360.901905837027
 10
1999.770902314221
 20
1357.313860646026
 10
2003.348120413722
 20
1354.838829142526
 10
2006.57535059322
 20
1353.293692809527
 10
2009.315355931221
 20
1352.394199326526
 10
2011.588588627722
 20
1351.902648388527
 10
2014.711487016223
 20
1351.577992506027
 10
2015.930685105724
 20
1351.558041901026
  0
LINE
  5
A4E
330
1F
100
AcDbEntity
  8
0
 62
     9
100
AcDbLine
 10
1960.182968013222
 20
1346.724200690526
 30
0.0
 11
1960.183007876721
 21
1346.629597773027
 31
0.0
  0
LINE
  5
A4F
330
1F
100
AcDbEntity
  8
0
 62
     9
100
AcDbLine
 10
1960.167511322722
 20
1388.711254238527
 30
0.0
 11
1960.181254094224
 21
1351.765740484527
 31
0.0
  0
LINE
  5
A50
330
1F
100
AcDbEntity
  8
0
 62
     9
100
AcDbLine
 10
1960.178491937721
 20
2022.968944905027
 30
0.0
 11
1960.167511370219
 21
1993.988936657027
 31
0.0
  0
LINE
  5
A51
330
1F
100
AcDbEntity
  8
0
 62
     9
100
AcDbLine
 10
1960.18125309872
 20
2030.934451191527
 30
0.0
 11
1960.178491937721
 21
2022.968944905027
 31
0.0
  0
LINE
  5
A52
330
1F
100
AcDbEntity
  8
0
 62
     9
100
AcDbLine
 10
1960.183007450222
 20
2036.070593112027
 30
0.0
 11
1960.182967340724
 21
2035.975990178027
 31
0.0
  0
LINE
  5
A53
330
1F
100
AcDbEntity
  8
0
 62
     9
100
AcDbLine
 10
1990.729967660723
 20
2006.142918986026
 30
0.0
 11
1991.57726929872
 21
2012.588026388027
 31
0.0
  0
LWPOLYLINE
  5
A54
330
1F
100
AcDbEntity
  8
0
 62
     9
100
AcDbPolyline
 90
        7
 70
     0
 43
0.0
 10
1990.72996789722
 20
2011.158138304027
 10
1991.590615176724
 20
2017.657755469027
 10
1994.113301378723
 20
2023.713064725527
 10
1998.124334983219
 20
2028.903707180527
 10
2003.347548937721
 20
2032.872297492527
 10
2009.423315673722
 20
2035.345591148526
 10
2015.933307684221
 20
2036.153297449527
  0
LWPOLYLINE
  5
A55
330
1F
100
AcDbEntity
  8
0
 62
     9
100
AcDbPolyline
 90
        7
 70
     0
 43
0.0
 10
1990.729967660723
 20
1969.439117648527
 10
1991.594516293721
 20
1975.888324405527
 10
1994.129592996223
 20
1981.893604826026
 10
1998.15470007822
 20
1987.031973727527
 10
2003.399772197722
 20
1990.958040081526
 10
2009.47778977722
 20
1993.390518353527
 10
2015.933927546223
 20
1994.175333920527
  0
LWPOLYLINE
  5
A56
330
1F
100
AcDbEntity
  8
0
100
AcDbPolyline
 90
        7
 70
     0
 43
0.0
 10
1990.729967660723
 20
2006.142918987526
 10
1991.657044910721
 20
2012.887876812526
 10
1994.213795448221
 20
2018.872984994527
 10
1998.241918617722
 20
2024.008211421026
 10
2003.478662999221
 20
2027.935267157526
 10
2010.04058509872
 20
2030.486959252027
 10
2015.930736857224
 20
2031.142139716028
  0
LWPOLYLINE
  5
A57
330
1F
100
AcDbEntity
  8
0
 62
     9
100
AcDbPolyline
 90
        3
 70
     0
 43
0.0
 10
1985.483431699221
 20
2012.826540456527
 10
1985.932722392722
 20
2015.747845888027
 10
1986.601835722221
 20
2017.630829354527
  0
LWPOLYLINE
  5
A58
330
1F
100
AcDbEntity
  8
0
100
AcDbPolyline
 90
        6
 70
     0
 43
0.0
 10
1997.60711358822
 20
1914.035224377026
 10
1999.518897821724
 20
1921.446974802526
 10
2003.345061557721
 20
1928.076404263526
 10
2008.806298549222
 20
1933.439575349027
 10
2015.503943884223
 20
1937.144986163027
 10
2022.949076090722
 20
1938.922149559527
  0
LINE
  5
A59
330
1F
100
AcDbEntity
  8
0
 62
     9
100
AcDbLine
 10
2050.726922507723
 20
1888.744627285527
 30
0.0
 11
2054.78879343372
 21
1895.377298640526
 31
0.0
  0
LINE
  5
A5A
330
1F
100
AcDbEntity
  8
0
100
AcDbLine
 10
2052.766473153221
 20
1898.010298369027
 30
0.0
 11
2048.442249632722
 21
1891.318828636026
 31
0.0
  0
LINE
  5
A5B
330
1F
100
AcDbEntity
  8
0
100
AcDbLine
 10
2050.758266645223
 20
1894.413037684026
 30
0.0
 11
2045.554118380221
 21
1888.380489346026
 31
0.0
  0
LINE
  5
A5C
330
1F
100
AcDbEntity
  8
0
 62
     9
100
AcDbLine
 10
2045.450929362721
 20
1883.341880811026
 30
0.0
 11
2050.726922507723
 21
1888.744627285527
 31
0.0
  0
LINE
  5
A5D
330
1F
100
AcDbEntity
  8
0
100
AcDbLine
 10
1986.306744855724
 20
1784.580108375027
 30
0.0
 11
1985.729967660723
 21
1784.333869102527
 31
0.0
  0
LWPOLYLINE
  5
A5E
330
1F
100
AcDbEntity
  8
0
 62
     9
100
AcDbPolyline
 90
       23
 70
     0
 43
0.0
 10
1512.314507489723
 20
1621.019620005027
 10
1512.988450938222
 20
1621.275094781526
 10
1513.578969576721
 20
1622.078975826526
 10
1514.077531217722
 20
1623.572218224027
 10
1514.459281792221
 20
1625.974210983027
 10
1514.686634562721
 20
1629.585137286027
 10
1514.718964328721
 20
1634.776435464527
 10
1514.531875720223
 20
1641.972577186027
 10
1514.149430463222
 20
1651.504337759526
 10
1513.682252948722
 20
1663.246257515027
 10
1513.297082131722
 20
1676.746583372026
 10
1513.146292422222
 20
1691.275115001027
 10
1513.293559107221
 20
1705.780009504527
 10
1513.674610699721
 20
1719.240107907027
 10
1514.140481337222
 20
1730.983418875027
 10
1514.525321596721
 20
1740.543486942027
 10
1514.717194950722
 20
1747.785332353026
 10
1514.68976426372
 20
1753.013124893527
 10
1514.466647937221
 20
1756.655451019026
 10
1514.087661769722
 20
1759.084296193527
 10
1513.589556328222
 20
1760.599404234027
 10
1512.99626913972
 20
1761.418708633027
 10
1512.314507489723
 20
1761.680570889027
  0
LWPOLYLINE
  5
A5F
330
1F
100
AcDbEntity
  8
0
 62
     9
100
AcDbPolyline
 90
        3
 70
     0
 43
0.0
 10
1985.729967660723
 20
1562.101622515526
 10
1985.951318537221
 20
1562.102683139026
 10
1990.729967660723
 20
1562.081756226526
  0
LINE
  5
A60
330
1F
100
AcDbEntity
  8
0
 62
     9
100
AcDbLine
 10
1985.729967660723
 20
1576.858407009527
 30
0.0
 11
1990.729967660723
 21
1576.858343191527
 31
0.0
  0
LINE
  5
A61
330
1F
100
AcDbEntity
  8
0
 62
     9
100
AcDbLine
 10
1985.729967660723
 20
1581.235718355527
 30
0.0
 11
1990.729967660723
 21
1581.235718355527
 31
0.0
  0
LINE
  5
A62
330
1F
100
AcDbEntity
  8
0
100
AcDbLine
 10
1985.729967660723
 20
1581.292797884026
 30
0.0
 11
1990.729967660723
 21
1581.292797884026
 31
0.0
  0
LWPOLYLINE
  5
A63
330
1F
100
AcDbEntity
  8
0
100
AcDbPolyline
 90
        6
 70
     0
 43
0.0
 10
1493.00202420872
 20
1636.350136344027
 10
1496.81638084622
 20
1635.960890390527
 10
1501.281951767222
 20
1634.424804143026
 10
1504.41012156622
 20
1632.435063281526
 10
1506.24314004722
 20
1630.695956879527
 10
1506.884318767222
 20
1629.888167018526
  0
LINE
  5
A64
330
1F
100
AcDbEntity
  8
0
100
AcDbLine
 10
1985.729967660723
 20
1598.364378658026
 30
0.0
 11
1986.32013656322
 21
1598.091109874026
 31
0.0
  0
LWPOLYLINE
  5
A65
330
1F
100
AcDbEntity
  8
0
 62
     9
100
AcDbPolyline
 90
        3
 70
     0
 43
0.0
 10
1990.03320618322
 20
1367.120137795527
 10
1990.377235766221
 20
1365.816064766527
 10
1990.729967660723
 20
1365.108027258527
  0
LWPOLYLINE
  5
A66
330
1F
100
AcDbEntity
  8
0
 62
     9
100
AcDbPolyline
 90
        7
 70
     0
 43
0.0
 10
1990.729967660723
 20
1413.261073279026
 10
1991.594515863221
 20
1406.811886204026
 10
1994.129591180722
 20
1400.806618668527
 10
1998.154696760223
 20
1395.668253782526
 10
2003.399767084721
 20
1391.742183086527
 10
2009.477784239222
 20
1389.309691962527
 10
2015.933927546223
 20
1388.524856974027
  0
LWPOLYLINE
  5
A67
330
1F
100
AcDbEntity
  8
0
 62
     9
100
AcDbPolyline
 90
        7
 70
     0
 43
0.0
 10
1990.729967664721
 20
1376.556840067026
 10
1991.590618447223
 20
1370.062451234526
 10
1994.113314921223
 20
1364.014795042526
 10
1998.124365698721
 20
1358.830697819026
 10
2003.34760158022
 20
1354.867097707026
 10
2009.423391423724
 20
1352.396896705527
 10
2015.933404657721
 20
1351.590173841026
  0
LWPOLYLINE
  5
A68
330
1F
100
AcDbEntity
  8
0
 62
     9
100
AcDbPolyline
 90
        7
 70
     0
 43
0.0
 10
1990.729967660723
 20
1371.545491794027
 10
1991.577269169721
 20
1365.092174337026
 10
1994.08574717122
 20
1359.034679769026
 10
1998.096564021723
 20
1353.824067207027
 10
2003.321304038223
 20
1349.842878476526
 10
2009.409725720722
 20
1347.358148270527
 10
2015.933307783221
 20
1346.546893445026
  0
LWPOLYLINE
  5
A69
330
1F
100
AcDbEntity
  8
0
 62
     9
100
AcDbPolyline
 90
        3
 70
     0
 43
0.0
 10
1960.325919361222
 20
2032.406733112527
 10
1960.236953962722
 20
2035.044844739028
 10
1960.182960971721
 20
2035.975989984027
  0
LWPOLYLINE
  5
A6A
330
1F
100
AcDbEntity
  8
0
100
AcDbPolyline
 90
        7
 70
     0
 43
0.0
 10
1996.278669111722
 20
1905.846847993026
 10
1996.036219184222
 20
1913.810362248527
 10
1997.907714836722
 20
1921.554637380527
 10
2001.759982229222
 20
1928.528604950527
 10
2007.318898478222
 20
1934.236010736526
 10
2014.18889792272
 20
1938.270727493526
 10
2021.881120088224
 20
1940.345654383026
  0
LINE
  5
A6B
330
1F
100
AcDbEntity
  8
0
 62
     9
100
AcDbLine
 10
1960.366678167219
 20
2030.965968236027
 30
0.0
 11
1960.325919361222
 21
2032.406733112527
 31
0.0
  0
LINE
  5
A6C
330
1F
100
AcDbEntity
  8
0
 62
     9
100
AcDbLine
 10
1960.729967660723
 20
1969.258274714027
 30
0.0
 11
1960.168195064722
 21
1993.988952188026
 31
0.0
  0
LWPOLYLINE
  5
A6D
330
1F
100
AcDbEntity
  8
0
100
AcDbPolyline
 90
        3
 70
     0
 43
0.0
 10
1996.237456374719
 20
1906.103780502027
 10
1996.063699490722
 20
1914.069091728526
 10
1998.001920153224
 20
1921.796940213527
  0
LINE
  5
A6E
330
1F
100
AcDbEntity
  8
0
100
AcDbLine
 10
1985.758542829722
 20
1624.872989749527
 30
0.0
 11
1985.764131753721
 21
1601.342175747527
 31
0.0
  0
LINE
  5
A6F
330
1F
100
AcDbEntity
  8
0
100
AcDbLine
 10
1985.73395660472
 20
1757.814673738527
 30
0.0
 11
1985.729902973221
 21
1772.642571647027
 31
0.0
  0
LINE
  5
A70
330
1F
100
AcDbEntity
  8
0
 62
     9
100
AcDbLine
 10
1960.729967660723
 20
1413.441916180027
 30
0.0
 11
1960.729967660723
 21
1969.258274714527
 31
0.0
  0
LINE
  5
A71
330
1F
100
AcDbEntity
  8
0
 62
     9
100
AcDbLine
 10
1985.729967660723
 20
1341.350095447026
 30
0.0
 11
1985.729967660723
 21
1365.061199986527
 31
0.0
  0
LINE
  5
A72
330
1F
100
AcDbEntity
  8
0
 62
     9
100
AcDbLine
 10
1985.729967660723
 20
2017.638990907527
 30
0.0
 11
1985.729967660723
 21
2041.350095447027
 31
0.0
  0
LINE
  5
A73
330
1F
100
AcDbEntity
  8
0
100
AcDbLine
 10
1985.76186591022
 20
1624.871296542026
 30
0.0
 11
1985.764509403722
 21
1605.647094377026
 31
0.0
  0
LINE
  5
A74
330
1F
100
AcDbEntity
  8
0
 62
     2
100
AcDbLine
 10
1988.229967660723
 20
1701.862595447027
 30
0.0
 11
1988.229967660723
 21
1680.837595447027
 31
0.0
  0
LINE
  5
A75
330
1F
100
AcDbEntity
  8
DEFAULT_1
 62
     2
100
AcDbLine
 10
1988.229967660723
 20
1638.787595447026
 30
0.0
 11
1988.229967660723
 21
1616.350095447026
 31
0.0
  0
LINE
  5
A76
330
1F
100
AcDbEntity
  8
DEFAULT_1
 62
     2
100
AcDbLine
 10
1988.229967660723
 20
1743.912595447026
 30
0.0
 11
1988.229967660723
 21
1766.350095447026
 31
0.0
  0
LINE
  5
A77
330
1F
100
AcDbEntity
  8
0
 62
     9
100
AcDbLine
 10
1990.729967660723
 20
1341.350095447026
 30
0.0
 11
1990.729967660723
 21
1365.108027258527
 31
0.0
  0
LINE
  5
A78
330
1F
100
AcDbEntity
  8
0
 62
     9
100
AcDbLine
 10
1990.729967660723
 20
2017.604854386526
 30
0.0
 11
1990.729967660723
 21
2041.350095447027
 31
0.0
  0
LINE
  5
A79
330
1F
100
AcDbEntity
  8
0
100
AcDbLine
 10
1993.229967750723
 20
1910.908510363527
 30
0.0
 11
1993.23286908622
 21
1869.456709594026
 31
0.0
  0
LINE
  5
A7A
330
1F
100
AcDbEntity
  8
0
 62
     9
100
AcDbLine
 10
2005.729967660723
 20
1436.350095447026
 30
0.0
 11
2005.729967660723
 21
1506.350095447026
 31
0.0
  0
LINE
  5
A7B
330
1F
100
AcDbEntity
  8
0
 62
     9
100
AcDbLine
 10
2005.729967660723
 20
1936.499290329027
 30
0.0
 11
2005.729967660723
 21
1946.350095447026
 31
0.0
  0
LINE
  5
A7C
330
1F
100
AcDbEntity
  8
0
100
AcDbLine
 10
1985.729967660723
 20
2010.982661524026
 30
0.0
 11
1985.729967401222
 21
1371.714025780026
 31
0.0
  0
LINE
  5
A7D
330
1F
100
AcDbEntity
  8
0
100
AcDbLine
 10
1990.72996789722
 20
2011.158138304027
 30
0.0
 11
1990.729967660723
 21
1371.545382956026
 31
0.0
  0
LINE
  5
A7E
330
1F
100
AcDbEntity
  8
0
100
AcDbLine
 10
1985.76424098072
 20
1601.310190767527
 30
0.0
 11
1985.764473912223
 21
1606.086051868526
 31
0.0
  0
LINE
  5
A7F
330
1F
100
AcDbEntity
  8
0
100
AcDbLine
 10
1985.76459426072
 20
1602.208509225026
 30
0.0
 11
1985.764239783723
 21
1601.312449000527
 31
0.0
  0
LINE
  5
A80
330
1F
100
AcDbEntity
  8
0
 62
     9
100
AcDbLine
 10
1990.001333488221
 20
1999.198190681526
 30
0.0
 11
1990.11678229972
 21
2006.080341180528
 31
0.0
  0
LWPOLYLINE
  5
A81
330
1F
100
AcDbEntity
  8
0
 62
     9
100
AcDbPolyline
 90
        3
 70
     0
 43
0.0
 10
2015.933307684221
 20
2036.153297449527
 10
2015.906278183223
 20
2034.712311957027
 10
2015.865118987223
 20
2031.134840830027
  0
LINE
  5
A82
330
1F
100
AcDbEntity
  8
0
 62
     9
100
AcDbLine
 10
1960.729967660723
 20
1413.441916180027
 30
0.0
 11
1960.168195064722
 21
1388.711238706527
 31
0.0
  0
LINE
  5
A83
330
1F
100
AcDbEntity
  8
0
 62
     9
100
AcDbLine
 10
1960.325920395223
 20
1350.293457782526
 30
0.0
 11
1960.367158366222
 21
1351.751160464027
 31
0.0
  0
LINE
  5
A84
330
1F
100
AcDbEntity
  8
0
 62
     9
100
AcDbLine
 10
1990.11678229972
 20
2006.080341180528
 30
0.0
 11
1990.287584066723
 21
2011.758023213027
 31
0.0
  0
LWPOLYLINE
  5
A85
330
1F
100
AcDbEntity
  8
0
100
AcDbPolyline
 90
        7
 70
     0
 43
0.0
 10
1997.494440033221
 20
1908.592032465527
 10
1997.807152116719
 20
1915.433582685526
 10
2000.086337650222
 20
1922.740725059527
 10
2004.23848913422
 20
1929.171007874526
 10
2009.96050290272
 20
1934.255030967027
 10
2016.834676966221
 20
1937.621669935527
 10
2024.359202882221
 20
1939.025167814527
  0
LWPOLYLINE
  5
A86
330
1F
100
AcDbEntity
  8
0
 62
     9
100
AcDbPolyline
 90
        3
 70
     0
 43
0.0
 10
1990.287584066723
 20
2011.758023213027
 10
1990.49832032072
 20
2015.718705988026
 10
1990.729967660723
 20
2017.604854182527
  0
LWPOLYLINE
  5
A87
330
1F
100
AcDbEntity
  8
0
 62
     9
100
AcDbPolyline
 90
        3
 70
     0
 43
0.0
 10
1960.18296108372
 20
1346.724200908526
 10
1960.23695468222
 20
1347.655346149527
 10
1960.325920395223
 20
1350.293457782526
  0
LWPOLYLINE
  5
A88
330
1F
100
AcDbEntity
  8
0
100
AcDbPolyline
 90
        3
 70
     0
 43
0.0
 10
1995.88697463022
 20
1909.950530623026
 10
1996.743003514221
 20
1917.871607540027
 10
1999.662674452721
 20
1925.284548712527
  0
LWPOLYLINE
  5
A89
330
1F
100
AcDbEntity
  8
0
 62
     9
100
AcDbPolyline
 90
        3
 70
     0
 43
0.0
 10
2054.78879343372
 20
1895.377298640526
 10
2057.361558470221
 20
1902.946097140027
 10
2057.610372763721
 20
1905.228659984027
  0
LINE
  5
A8A
330
1F
100
AcDbEntity
  8
0
100
AcDbLine
 10
2054.182400478721
 20
1901.606781541527
 30
0.0
 11
2050.758266645223
 21
1894.413037684026
 31
0.0
  0
LINE
  5
A8B
330
1F
100
AcDbEntity
  8
0
 62
     9
100
AcDbLine
 10
2610.481864905721
 20
1790.379460123527
 30
0.0
 11
2609.449504203721
 21
1790.101900071026
 31
0.0
  0
LINE
  5
A8C
330
1F
100
AcDbEntity
  8
0
100
AcDbLine
 10
1375.729967660723
 20
1636.350095447026
 30
0.0
 11
1492.999454136222
 21
1636.350095447026
 31
0.0
  0
LINE
  5
A8D
330
1F
100
AcDbEntity
  8
0
100
AcDbLine
 10
2614.727597665723
 20
1636.350095447026
 30
0.0
 11
2735.229967660723
 21
1636.350095447026
 31
0.0
  0
LINE
  5
A8E
330
1F
100
AcDbEntity
  8
0
 62
     9
100
AcDbLine
 10
1985.76312827072
 20
1603.037900128526
 30
0.0
 11
1985.729967660723
 21
1603.164332830526
 31
0.0
  0
LWPOLYLINE
  5
A8F
330
1F
100
AcDbEntity
  8
0
100
AcDbPolyline
 90
       11
 70
     0
 43
0.0
 10
1985.729967656721
 20
2005.973019208527
 10
1985.242647874221
 20
2010.884652055526
 10
1983.398175147723
 20
2016.515456632526
 10
1980.108402366722
 20
2021.767392023027
 10
1976.536527329223
 20
2025.341432564027
 10
1972.93392832072
 20
2027.791450163027
 10
1969.695236767719
 20
2029.309753871027
 10
1966.952597723223
 20
2030.185770626526
 10
1964.680597842719
 20
2030.658451296027
 10
1961.48027369272
 20
2030.961312639526
 10
1960.188624207222
 20
2030.966712624027
  0
LWPOLYLINE
  5
A90
330
1F
100
AcDbEntity
  8
0
 62
     9
100
AcDbPolyline
 90
        3
 70
     0
 43
0.0
 10
2015.865190780221
 20
1351.559113631027
 10
2015.906278238724
 20
1347.987878926026
 10
2015.933307783221
 20
1346.546893445026
  0
LINE
  5
A91
330
1F
100
AcDbEntity
  8
0
 62
     9
100
AcDbLine
 10
2015.729967660723
 20
1413.261073279026
 30
0.0
 11
2015.933927546223
 21
1388.524856973527
 31
0.0
  0
LINE
  5
A92
330
1F
100
AcDbEntity
  8
0
100
AcDbLine
 10
2025.737502893219
 20
1940.595190174026
 30
0.0
 11
2025.73787490172
 21
1939.057720837027
 31
0.0
  0
LINE
  5
A93
330
1F
100
AcDbEntity
  8
0
 62
     9
100
AcDbLine
 10
2015.729967660723
 20
1969.438751306026
 30
0.0
 11
2015.729967660723
 21
1946.350095447026
 31
0.0
  0
LINE
  5
A94
330
1F
100
AcDbEntity
  8
0
 62
     9
100
AcDbLine
 10
2015.729967660723
 20
1506.350095447026
 30
0.0
 11
2015.729967660723
 21
1876.350095447026
 31
0.0
  0
LINE
  5
A95
330
1F
100
AcDbEntity
  8
0
 62
     9
100
AcDbLine
 10
2015.729967660723
 20
1413.261227551527
 30
0.0
 11
2015.729967660723
 21
1436.350095447026
 31
0.0
  0
LINE
  5
A96
330
1F
100
AcDbEntity
  8
0
 62
     9
100
AcDbLine
 10
2015.93402350522
 20
1994.175333130027
 30
0.0
 11
2015.933364712722
 21
2031.110012117027
 31
0.0
  0
LINE
  5
A97
330
1F
100
AcDbEntity
  8
0
 62
     9
100
AcDbLine
 10
2015.933364484224
 20
1351.590178771526
 30
0.0
 11
2015.934023516221
 21
1388.524857764526
 31
0.0
  0
LINE
  5
A98
330
1F
100
AcDbEntity
  8
0
 62
     9
100
AcDbLine
 10
2015.933292582221
 20
1346.452586139026
 30
0.0
 11
2015.933296058222
 21
1346.546893065527
 31
0.0
  0
LINE
  5
A99
330
1F
100
AcDbEntity
  8
0
 62
     9
100
AcDbLine
 10
2015.933296210221
 20
2036.153297825527
 30
0.0
 11
2015.933292641724
 21
2036.247604755027
 31
0.0
  0
LINE
  5
A9A
330
1F
100
AcDbEntity
  8
0
 62
     9
100
AcDbLine
 10
2025.729967660723
 20
1421.350095447026
 30
0.0
 11
2025.729967660723
 21
1521.350095447026
 31
0.0
  0
LINE
  5
A9B
330
1F
100
AcDbEntity
  8
0
 62
     9
100
AcDbLine
 10
2025.729967660723
 20
1861.350095447026
 30
0.0
 11
2025.729967660723
 21
1876.350095447026
 31
0.0
  0
LINE
  5
A9C
330
1F
100
AcDbEntity
  8
0
 62
     9
100
AcDbLine
 10
2025.729967660723
 20
1943.409440591026
 30
0.0
 11
2025.729967660723
 21
1961.350095447026
 31
0.0
  0
LINE
  5
A9D
330
1F
100
AcDbEntity
  8
0
 62
     9
100
AcDbLine
 10
2015.729967660723
 20
1969.439117615527
 30
0.0
 11
2015.933927546223
 21
1994.175333921027
 31
0.0
  0
LINE
  5
A9E
330
1F
100
AcDbEntity
  8
0
 62
     9
100
AcDbLine
 10
1985.729967660723
 20
1376.727616881527
 30
0.0
 11
1984.86801284822
 21
1370.227990965027
 31
0.0
  0
LWPOLYLINE
  5
A9F
330
1F
100
AcDbEntity
  8
0
 62
     9
100
AcDbPolyline
 90
        7
 70
     0
 43
0.0
 10
1985.729967660723
 20
1413.441916139526
 10
1984.870615239223
 20
1407.011567688027
 10
1982.321490882224
 20
1400.972715608027
 10
1978.243316053723
 20
1395.788737151027
 10
1972.937620306719
 20
1391.854457009026
 10
1966.764362898722
 20
1389.436315534027
 10
1960.168195064722
 20
1388.711238707527
  0
LWPOLYLINE
  5
AA0
330
1F
100
AcDbEntity
  8
0
 62
     9
100
AcDbPolyline
 90
        7
 70
     0
 43
0.0
 10
1985.729967401222
 20
1371.714025780026
 10
1984.854355076223
 20
1365.159278472026
 10
1982.288852889721
 20
1359.060335477527
 10
1978.21317192022
 20
1353.848024240026
 10
1972.912809635721
 20
1349.887462049527
 10
1966.759051126723
 20
1347.456082373526
 10
1960.18296108372
 20
1346.724200908526
  0
LWPOLYLINE
  5
AA1
330
1F
100
AcDbEntity
  8
0
100
AcDbPolyline
 90
        7
 70
     0
 43
0.0
 10
1985.729967660723
 20
1376.727616880026
 10
1984.78917617472
 20
1369.933907560026
 10
1982.19651184572
 20
1363.914050509026
 10
1978.11810445922
 20
1358.765080760527
 10
1972.805566491724
 20
1354.837438223027
 10
1966.156796113221
 20
1352.323733045026
 10
1960.188487370219
 20
1351.733490600027
  0
LWPOLYLINE
  5
AA2
330
1F
100
AcDbEntity
  8
0
 62
     9
100
AcDbPolyline
 90
        5
 70
     0
 43
0.0
 10
1990.729967660723
 20
1424.190286309526
 10
1991.464119916721
 20
1428.623002630526
 10
1993.594712745221
 20
1432.621813793526
 10
1996.913188876719
 20
1435.795288300026
 10
2001.094712745221
 20
1437.832784355526
  0
LWPOLYLINE
  5
AA3
330
1F
100
AcDbEntity
  8
0
100
AcDbPolyline
 90
        6
 70
     0
 43
0.0
 10
2055.593006576722
 20
1909.704655887027
 10
2054.260250697721
 20
1901.849819283026
 10
2050.89829425122
 20
1894.626798807027
 10
2045.74637026122
 20
1888.549579712527
 10
2039.171083549723
 20
1884.050613203527
 10
2031.64032351822
 20
1881.450043791527
  0
LWPOLYLINE
  5
AA4
330
1F
100
AcDbEntity
  8
0
 62
     9
100
AcDbPolyline
 90
        5
 70
     0
 43
0.0
 10
1990.729967660723
 20
1958.509904585026
 10
1991.464119946221
 20
1954.077188176526
 10
1993.594712824223
 20
1950.078376997026
 10
1996.913188975723
 20
1946.904902525027
 10
2001.094712814721
 20
1944.867406517526
  0
LWPOLYLINE
  5
AA5
330
1F
100
AcDbEntity
  8
0
 62
     9
100
AcDbPolyline
 90
        7
 70
     0
 43
0.0
 10
1985.729967660723
 20
1969.258274714027
 10
1984.870613736723
 20
1975.688609765026
 10
1982.321487736722
 20
1981.727449594026
 10
1978.243312868723
 20
1986.911421590527
 10
1972.937617298722
 20
1990.845704366026
 10
1966.764361360224
 20
1993.263856578026
 10
1960.168195064722
 20
1993.988952187026
  0
LWPOLYLINE
  5
AA6
330
1F
100
AcDbEntity
  8
0
 62
     9
100
AcDbPolyline
 90
        7
 70
     0
 43
0.0
 10
1985.729967656721
 20
2005.973019208527
 10
1984.85428004072
 20
2012.522877676526
 10
1982.288563447722
 20
2018.614314275526
 10
1978.212559163222
 20
2023.820148990027
 10
1972.911811743722
 20
2027.775686237027
 10
1966.757665115224
 20
2030.203821532527
 10
1960.181248069221
 20
2030.934451107527
  0
LWPOLYLINE
  5
AA7
330
1F
100
AcDbEntity
  8
0
 62
     9
100
AcDbPolyline
 90
        7
 70
     0
 43
0.0
 10
1985.729967660723
 20
2010.982562407026
 10
1984.868081564219
 20
2017.490215551527
 10
1982.317162049222
 20
2023.591508840526
 10
1978.24166506972
 20
2028.824251521527
 10
1972.939694612222
 20
2032.797702818527
 10
1966.772938910724
 20
2035.240651760027
 10
1960.182960971721
 20
2035.975989984027
  0
LINE
  5
AA8
330
1F
100
AcDbEntity
  8
0
 62
     9
100
AcDbLine
 10
2059.530557694722
 20
1462.833102077526
 30
0.0
 11
2060.729967660723
 21
1471.350095447026
 31
0.0
  0
LINE
  5
AA9
330
1F
100
AcDbEntity
  8
0
 62
     9
100
AcDbLine
 10
1960.168156754223
 20
1351.733939401027
 30
0.0
 11
1960.181247891721
 21
1351.765739797526
 31
0.0
  0
LINE
  5
AAA
330
1F
100
AcDbEntity
  8
0
 62
     9
100
AcDbLine
 10
1732.88291850422
 20
1374.246316500526
 30
0.0
 11
1734.299797079719
 21
1375.486788162026
 31
0.0
  0
LINE
  5
AAB
330
1F
100
AcDbEntity
  8
0
100
AcDbLine
 10
1375.729967660723
 20
1746.350095447026
 30
0.0
 11
1492.999454136222
 21
1746.350095447026
 31
0.0
  0
LINE
  5
AAC
330
1F
100
AcDbEntity
  8
0
100
AcDbLine
 10
2614.725684052724
 20
1746.350095447026
 30
0.0
 11
2735.229967660723
 21
1746.350095447026
 31
0.0
  0
LINE
  5
AAD
330
1F
100
AcDbEntity
  8
0
 62
     9
100
AcDbLine
 10
2610.481758374223
 20
1592.319582984527
 30
0.0
 11
2609.44947128822
 21
1592.597177329527
 31
0.0
  0
LINE
  5
AAE
330
1F
100
AcDbEntity
  8
0
 62
     9
100
AcDbLine
 10
1732.882919919223
 20
2008.453868015027
 30
0.0
 11
1734.299797013221
 21
2007.213410881027
 31
0.0
  0
LINE
  5
AAF
330
1F
100
AcDbEntity
  8
0
 62
     9
100
AcDbLine
 10
1994.137859469222
 20
1902.771168323527
 30
0.0
 11
1996.818689531724
 21
1895.068243787026
 31
0.0
  0
LINE
  5
AB0
330
1F
100
AcDbEntity
  8
0
100
AcDbLine
 10
2053.667194259219
 20
1921.327242279027
 30
0.0
 11
2055.475324385222
 21
1913.568042975027
 31
0.0
  0
LINE
  5
AB1
330
1F
100
AcDbEntity
  8
0
100
AcDbLine
 10
2053.757386714719
 20
1921.088552525526
 30
0.0
 11
2055.498506697219
 21
1913.314028134027
 31
0.0
  0
LINE
  5
AB2
330
1F
100
AcDbEntity
  8
0
100
AcDbLine
 10
2052.212810788723
 20
1920.829670260026
 30
0.0
 11
2053.992815063223
 21
1912.868622259527
 31
0.0
  0
LINE
  5
AB3
330
1F
100
AcDbEntity
  8
0
 62
     9
100
AcDbLine
 10
1984.86801284822
 20
1370.227990965027
 30
0.0
 11
1982.316885566722
 21
1364.134124175026
 31
0.0
  0
LINE
  5
AB4
330
1F
100
AcDbEntity
  8
0
 62
     9
100
AcDbLine
 10
2056.01507321822
 20
1454.899775922527
 30
0.0
 11
2059.530557694722
 21
1462.833102077526
 31
0.0
  0
LWPOLYLINE
  5
AB5
330
1F
100
AcDbEntity
  8
0
 62
     9
100
AcDbPolyline
 90
        3
 70
     0
 43
0.0
 10
1985.729967660723
 20
1371.717621318027
 10
1984.891655696222
 20
1370.265330595527
 10
1984.830404327219
 20
1370.231627181526
  0
LINE
  5
AB6
330
1F
100
AcDbEntity
  8
0
 62
     9
100
AcDbLine
 10
2362.167566481222
 20
2013.847830037027
 30
0.0
 11
2361.630162729221
 21
2012.947111088527
 31
0.0
  0
LWPOLYLINE
  5
AB7
330
1F
100
AcDbEntity
  8
0
 62
     9
100
AcDbPolyline
 90
       23
 70
     0
 43
0.0
 10
1492.999454136222
 20
1636.350095447026
 10
1493.675544748222
 20
1636.542374018027
 10
1494.259690829721
 20
1637.163087033026
 10
1494.741640792222
 20
1638.322462640527
 10
1495.093899242722
 20
1640.192203277026
 10
1495.275917036223
 20
1643.007513018527
 10
1495.244866620721
 20
1647.059757834027
 10
1494.97664148422
 20
1652.682645965527
 10
1494.501552050719
 20
1660.137852361026
 10
1493.945965206222
 20
1669.328838700026
 10
1493.496166549722
 20
1679.902400531527
 10
1493.321253987223
 20
1691.285727721027
 10
1493.49182763722
 20
1702.651312235527
 10
1493.936596261222
 20
1713.195192661526
 10
1494.490373281221
 20
1722.389487382027
 10
1494.967900037723
 20
1729.869283153527
 10
1495.241380832221
 20
1735.529903676527
 10
1495.277799887722
 20
1739.611765271526
 10
1495.100465684722
 20
1742.452257399026
 10
1494.75136814022
 20
1744.343336452027
 10
1494.27019414922
 20
1745.519980025026
 10
1493.683492737223
 20
1746.152818621027
 10
1492.999454136222
 20
1746.350095447026
  0
LWPOLYLINE
  5
AB8
330
1F
100
AcDbEntity
  8
0
 62
     9
100
AcDbPolyline
 90
        4
 70
     0
 43
0.0
 10
1996.818689531724
 20
1895.068243787026
 10
2001.03423563772
 20
1888.364629407527
 10
2006.508312651721
 20
1882.944088274026
 10
2012.857595004721
 20
1879.064107407527
  0
LINE
  5
AB9
330
1F
100
AcDbEntity
  8
0
 62
     9
100
AcDbLine
 10
2362.167565521723
 20
1368.852368802526
 30
0.0
 11
2361.630163017221
 21
1369.753071204527
 31
0.0
  0
LWPOLYLINE
  5
ABA
330
1F
100
AcDbEntity
  8
0
 62
     9
100
AcDbPolyline
 90
        3
 70
     0
 43
0.0
 10
1985.729967660723
 20
2010.982563637027
 10
1984.878113893222
 20
2012.446870132027
 10
1984.698828681224
 20
2012.544822769027
  0
LINE
  5
ABB
330
1F
100
AcDbEntity
  8
0
100
AcDbLine
 10
2048.543453107724
 20
1927.547063907526
 30
0.0
 11
2052.212810788723
 21
1920.829670260026
 31
0.0
  0
LINE
  5
ABC
330
1F
100
AcDbEntity
  8
0
100
AcDbLine
 10
2049.872063271222
 20
1928.332352086027
 30
0.0
 11
2053.667194259219
 21
1921.327242279027
 31
0.0
  0
LINE
  5
ABD
330
1F
100
AcDbEntity
  8
0
100
AcDbLine
 10
2050.022827503221
 20
1928.126155165027
 30
0.0
 11
2053.757386714719
 21
1921.088552525526
 31
0.0
  0
LINE
  5
ABE
330
1F
100
AcDbEntity
  8
0
100
AcDbLine
 10
2049.354028746723
 20
1926.387399610527
 30
0.0
 11
2052.683697817222
 21
1919.495327059027
 31
0.0
  0
LINE
  5
ABF
330
1F
100
AcDbEntity
  8
0
 62
     9
100
AcDbLine
 10
2056.01507365672
 20
1927.800386822027
 30
0.0
 11
2059.530557927222
 21
1919.867081630527
 31
0.0
  0
LINE
  5
AC0
330
1F
100
AcDbEntity
  8
0
100
AcDbLine
 10
2050.10587762472
 20
1925.188627173526
 30
0.0
 11
2053.087536362721
 21
1918.139013543027
 31
0.0
  0
LINE
  5
AC1
330
1F
100
AcDbEntity
  8
0
100
AcDbLine
 10
2052.065252999721
 20
1924.844873950026
 30
0.0
 11
2054.860001704224
 21
1917.384048121027
 31
0.0
  0
LWPOLYLINE
  5
AC2
330
1F
100
AcDbEntity
  8
0
100
AcDbPolyline
 90
        3
 70
     0
 43
0.0
 10
2050.796981606721
 20
1923.953960898527
 10
2053.423240731722
 20
1916.764366448527
 10
2053.993112000219
 20
1912.864696719526
  0
LINE
  5
AC3
330
1F
100
AcDbEntity
  8
0
 62
     9
100
AcDbLine
 10
1982.316885566722
 20
1364.134124175026
 30
0.0
 11
1978.241064558221
 21
1358.907971885526
 31
0.0
  0
LWPOLYLINE
  5
AC4
330
1F
100
AcDbEntity
  8
0
 62
     9
100
AcDbPolyline
 90
        3
 70
     0
 43
0.0
 10
1990.729967660723
 20
1820.618424542026
 10
1985.94817768272
 20
1820.597507576027
 10
1985.729967660723
 20
1820.598553741026
  0
LINE
  5
AC5
330
1F
100
AcDbEntity
  8
0
100
AcDbLine
 10
1990.729967660723
 20
1801.407393010527
 30
0.0
 11
1985.729967660723
 21
1801.407393010527
 31
0.0
  0
LINE
  5
AC6
330
1F
100
AcDbEntity
  8
0
 62
     9
100
AcDbLine
 10
1990.729967660723
 20
1801.464472539026
 30
0.0
 11
1985.729967660723
 21
1801.464472539026
 31
0.0
  0
LINE
  5
AC7
330
1F
100
AcDbEntity
  8
0
 62
     9
100
AcDbLine
 10
1990.729967660723
 20
1805.841841127026
 30
0.0
 11
1985.729967660723
 21
1805.841794021526
 31
0.0
  0
LWPOLYLINE
  5
AC8
330
1F
100
AcDbEntity
  8
0
100
AcDbPolyline
 90
        5
 70
     0
 43
0.0
 10
2015.885759048722
 20
1882.536067456526
 10
2008.783029137722
 20
1886.145387426527
 10
2002.887200729722
 20
1891.504057097526
 10
1998.61781288272
 20
1898.230763988026
 10
1996.278669111722
 20
1905.846847993026
  0
LWPOLYLINE
  5
AC9
330
1F
100
AcDbEntity
  8
0
100
AcDbPolyline
 90
        5
 70
     0
 43
0.0
 10
2015.642764400222
 20
1882.624759444026
 10
2008.571430169221
 20
1886.295204483526
 10
2002.722039114223
 20
1891.704524682526
 10
1998.510826327722
 20
1898.467804058027
 10
1996.237456374719
 20
1906.103780502027
  0
LINE
  5
ACA
330
1F
100
AcDbEntity
  8
0
100
AcDbLine
 10
2043.209718030722
 20
1933.036959205026
 30
0.0
 11
2048.543453107724
 21
1927.547063907526
 31
0.0
  0
LINE
  5
ACB
330
1F
100
AcDbEntity
  8
0
100
AcDbLine
 10
2044.560576909721
 20
1933.926044589526
 30
0.0
 11
2050.022827503221
 21
1928.126155165027
 31
0.0
  0
LINE
  5
ACC
330
1F
100
AcDbEntity
  8
0
100
AcDbLine
 10
2044.300823072223
 20
1932.136537569027
 30
0.0
 11
2049.354028746723
 21
1926.387399610527
 31
0.0
  0
LINE
  5
ACD
330
1F
100
AcDbEntity
  8
0
 62
     9
100
AcDbLine
 10
2050.431441682221
 20
1934.598215526027
 30
0.0
 11
2056.01507365672
 21
1927.800386822027
 31
0.0
  0
LINE
  5
ACE
330
1F
100
AcDbEntity
  8
0
100
AcDbLine
 10
2045.34580497172
 20
1931.182721054526
 30
0.0
 11
2050.10587762472
 21
1925.188627173526
 31
0.0
  0
LINE
  5
ACF
330
1F
100
AcDbEntity
  8
0
100
AcDbLine
 10
2047.397488578722
 20
1931.301391083026
 30
0.0
 11
2052.065252999721
 21
1924.844873950026
 31
0.0
  0
LINE
  5
AD0
330
1F
100
AcDbEntity
  8
0
100
AcDbLine
 10
2046.341859968722
 20
1930.178067695527
 30
0.0
 11
2050.796981606721
 21
1923.953960898527
 31
0.0
  0
LINE
  5
AD1
330
1F
100
AcDbEntity
  8
0
 62
     9
100
AcDbLine
 10
2015.933404657721
 20
1351.590173841026
 30
0.0
 11
2015.904222582221
 21
1351.557843477027
 31
0.0
  0
LINE
  5
AD2
330
1F
100
AcDbEntity
  8
0
100
AcDbLine
 10
2035.370838789722
 20
1882.457609638027
 30
0.0
 11
2027.553794472723
 21
1880.918420195027
 31
0.0
  0
LINE
  5
AD3
330
1F
100
AcDbEntity
  8
0
100
AcDbLine
 10
2031.64032351822
 20
1881.450043791527
 30
0.0
 11
2023.689969665721
 21
1880.932928285027
 31
0.0
  0
LINE
  5
AD4
330
1F
100
AcDbEntity
  8
0
100
AcDbLine
 10
2031.387369458223
 20
1881.402892676026
 30
0.0
 11
2023.43285497472
 21
1880.954369358526
 31
0.0
  0
LINE
  5
AD5
330
1F
100
AcDbEntity
  8
0
 62
     9
100
AcDbLine
 10
2025.729967660723
 20
1861.350095447026
 30
0.0
 11
1990.729967660723
 21
1861.350095447026
 31
0.0
  0
LINE
  5
AD6
330
1F
100
AcDbEntity
  8
0
100
AcDbLine
 10
2025.729967660723
 20
1876.350095447026
 30
0.0
 11
2005.729967660723
 21
1876.350095447026
 31
0.0
  0
LINE
  5
AD7
330
1F
100
AcDbEntity
  8
0
100
AcDbLine
 10
2027.553794472723
 20
1880.918420195027
 30
0.0
 11
2019.607941276722
 21
1881.500604743526
 31
0.0
  0
LINE
  5
AD8
330
1F
100
AcDbEntity
  8
0
100
AcDbLine
 10
2023.689969665721
 20
1880.932928285027
 30
0.0
 11
2015.885759048722
 21
1882.536067456526
 31
0.0
  0
LINE
  5
AD9
330
1F
100
AcDbEntity
  8
0
100
AcDbLine
 10
2023.43285497472
 20
1880.954369358526
 30
0.0
 11
2015.642764400222
 21
1882.624759444026
 31
0.0
  0
LWPOLYLINE
  5
ADA
330
1F
100
AcDbEntity
  8
0
 62
     9
100
AcDbPolyline
 90
        3
 70
     0
 43
0.0
 10
2012.857595004721
 20
1879.064107407527
 10
2019.53858298122
 20
1876.862762836026
 10
2024.540683648721
 20
1876.350095447026
  0
LWPOLYLINE
  5
ADB
330
1F
100
AcDbEntity
  8
0
100
AcDbPolyline
 90
        5
 70
     0
 43
0.0
 10
2019.607941276722
 20
1881.500604743526
 10
2012.09869476222
 20
1884.162739742027
 10
2005.560402145221
 20
1888.715395292026
 10
2000.458318908722
 20
1894.834614705526
 10
1997.155501881222
 20
1902.084966812026
  0
LINE
  5
ADC
330
1F
100
AcDbEntity
  8
0
100
AcDbLine
 10
2036.600964746221
 20
1936.898594443526
 30
0.0
 11
2043.209718030722
 21
1933.036959205026
 31
0.0
  0
LINE
  5
ADD
330
1F
100
AcDbEntity
  8
0
100
AcDbLine
 10
2037.523199995722
 20
1938.175521695527
 30
0.0
 11
2044.35998787722
 21
1934.084894289027
 31
0.0
  0
LINE
  5
ADE
330
1F
100
AcDbEntity
  8
0
100
AcDbLine
 10
2037.75932314422
 20
1938.075503807526
 30
0.0
 11
2044.560576909721
 21
1933.926044589526
 31
0.0
  0
LINE
  5
ADF
330
1F
100
AcDbEntity
  8
0
100
AcDbLine
 10
2037.892960154223
 20
1936.323055690026
 30
0.0
 11
2044.300823072223
 21
1932.136537569027
 31
0.0
  0
LINE
  5
AE0
330
1F
100
AcDbEntity
  8
0
100
AcDbLine
 10
2039.154799058721
 20
1935.683728115527
 30
0.0
 11
2045.34580497172
 21
1931.182721054526
 31
0.0
  0
LINE
  5
AE1
330
1F
100
AcDbEntity
  8
0
100
AcDbLine
 10
2041.188860646221
 20
1936.294158737526
 30
0.0
 11
2047.397488578722
 21
1931.301391083026
 31
0.0
  0
LINE
  5
AE2
330
1F
100
AcDbEntity
  8
0
100
AcDbLine
 10
2040.383096041723
 20
1934.982327392527
 30
0.0
 11
2046.341859968722
 21
1930.178067695527
 31
0.0
  0
LINE
  5
AE3
330
1F
100
AcDbEntity
  8
0
100
AcDbLine
 10
2044.35998787722
 20
1934.084894289027
 30
0.0
 11
2049.872063271222
 21
1928.332352086027
 31
0.0
  0
LWPOLYLINE
  5
AE4
330
1F
100
AcDbEntity
  8
0
 62
     9
100
AcDbPolyline
 90
        3
 70
     0
 43
0.0
 10
2361.630162729221
 20
2012.947111088527
 10
2360.915835079222
 20
2010.325605678527
 10
2360.76383636522
 20
2009.573866387526
  0
LINE
  5
AE5
330
1F
100
AcDbEntity
  8
0
 62
     9
100
AcDbLine
 10
1978.241064558221
 20
1358.907971885526
 30
0.0
 11
1972.938707815222
 21
1354.939503019526
 31
0.0
  0
LINE
  5
AE6
330
1F
100
AcDbEntity
  8
0
100
AcDbLine
 10
2014.426688172223
 20
1938.371988571526
 30
0.0
 11
2022.136528624223
 21
1940.380489223026
 31
0.0
  0
LINE
  5
AE7
330
1F
100
AcDbEntity
  8
0
100
AcDbLine
 10
2018.08981122272
 20
1939.600411378026
 30
0.0
 11
2025.994413658221
 21
1940.596756153526
 31
0.0
  0
LINE
  5
AE8
330
1F
100
AcDbEntity
  8
0
100
AcDbLine
 10
2021.545998393722
 20
1938.748925462027
 30
0.0
 11
2029.199627530722
 21
1938.850069751027
 31
0.0
  0
LINE
  5
AE9
330
1F
100
AcDbEntity
  8
0
 62
     9
100
AcDbLine
 10
2005.729967660723
 20
1944.165333245526
 30
0.0
 11
2025.729967660723
 21
1944.165333245526
 31
0.0
  0
LINE
  5
AEA
330
1F
100
AcDbEntity
  8
0
100
AcDbLine
 10
2005.729967660723
 20
1946.350095447026
 30
0.0
 11
2025.729967660723
 21
1946.350095447026
 31
0.0
  0
LINE
  5
AEB
330
1F
100
AcDbEntity
  8
0
100
AcDbLine
 10
2021.881120088224
 20
1940.345654383026
 30
0.0
 11
2029.848196357722
 21
1940.313146633027
 31
0.0
  0
LINE
  5
AEC
330
1F
100
AcDbEntity
  8
0
100
AcDbLine
 10
2022.136528624223
 20
1940.380489223026
 30
0.0
 11
2030.103036109221
 21
1940.279258687026
 31
0.0
  0
LINE
  5
AED
330
1F
100
AcDbEntity
  8
0
100
AcDbLine
 10
2022.949076090722
 20
1938.922149559527
 30
0.0
 11
2030.598207882719
 21
1938.641338434526
 31
0.0
  0
LINE
  5
AEE
330
1F
100
AcDbEntity
  8
0
100
AcDbLine
 10
2024.359202882221
 20
1939.025167814527
 30
0.0
 11
2031.984797291222
 21
1938.363075039527
 31
0.0
  0
LINE
  5
AEF
330
1F
100
AcDbEntity
  8
0
 62
     9
100
AcDbLine
 10
2025.729967660723
 20
1944.165333245526
 30
0.0
 11
2034.703403409222
 21
1943.068521984027
 31
0.0
  0
LINE
  5
AF0
330
1F
100
AcDbEntity
  8
0
100
AcDbLine
 10
2025.737502893219
 20
1940.595190174026
 30
0.0
 11
2033.633103122721
 21
1939.534422268526
 31
0.0
  0
LINE
  5
AF1
330
1F
100
AcDbEntity
  8
0
100
AcDbLine
 10
2025.73787490172
 20
1939.057720837027
 30
0.0
 11
2033.35567496422
 21
1938.016028068527
 31
0.0
  0
LINE
  5
AF2
330
1F
100
AcDbEntity
  8
0
100
AcDbLine
 10
2025.994413658221
 20
1940.596756153526
 30
0.0
 11
2033.881167074222
 21
1939.467894590526
 31
0.0
  0
LINE
  5
AF3
330
1F
100
AcDbEntity
  8
0
 62
     9
100
AcDbLine
 10
2001.094712814721
 20
1944.867406517526
 30
0.0
 11
2005.729967660723
 21
1944.165333245526
 31
0.0
  0
LWPOLYLINE
  5
AF4
330
1F
100
AcDbEntity
  8
0
 62
     9
100
AcDbPolyline
 90
        3
 70
     0
 43
0.0
 10
2610.52709953972
 20
1797.794322537527
 10
2611.61112968822
 20
1797.537656856027
 10
2612.910655861722
 20
1796.393404288527
  0
LINE
  5
AF5
330
1F
100
AcDbEntity
  8
0
100
AcDbLine
 10
2029.199627530722
 20
1938.850069751027
 30
0.0
 11
2036.600964746221
 21
1936.898594443526
 31
0.0
  0
LINE
  5
AF6
330
1F
100
AcDbEntity
  8
0
100
AcDbLine
 10
2029.848196357722
 20
1940.313146633027
 30
0.0
 11
2037.523199995722
 21
1938.175521695527
 31
0.0
  0
LINE
  5
AF7
330
1F
100
AcDbEntity
  8
0
100
AcDbLine
 10
2030.103036109221
 20
1940.279258687026
 30
0.0
 11
2037.75932314422
 21
1938.075503807526
 31
0.0
  0
LINE
  5
AF8
330
1F
100
AcDbEntity
  8
0
100
AcDbLine
 10
2030.598207882719
 20
1938.641338434526
 30
0.0
 11
2037.892960154223
 21
1936.323055690026
 31
0.0
  0
LINE
  5
AF9
330
1F
100
AcDbEntity
  8
0
100
AcDbLine
 10
2031.984797291222
 20
1938.363075039527
 30
0.0
 11
2039.154799058721
 21
1935.683728115527
 31
0.0
  0
LWPOLYLINE
  5
AFA
330
1F
100
AcDbEntity
  8
0
 62
     9
100
AcDbPolyline
 90
        3
 70
     0
 43
0.0
 10
2034.703403409222
 20
1943.068521984027
 10
2043.130615769221
 20
1939.822913551526
 10
2050.431441682221
 20
1934.598215526027
  0
LWPOLYLINE
  5
AFB
330
1F
100
AcDbEntity
  8
0
100
AcDbPolyline
 90
        5
 70
     0
 43
0.0
 10
2033.633103122721
 20
1939.534422268526
 10
2040.967923080721
 20
1936.423852161527
 10
2047.21940830422
 20
1931.484829018026
 10
2051.94271022972
 20
1925.068812654527
 10
2054.801724277223
 20
1917.632363838026
  0
LINE
  5
AFC
330
1F
100
AcDbEntity
  8
0
100
AcDbLine
 10
2033.35567496422
 20
1938.016028068527
 30
0.0
 11
2040.383096041723
 21
1934.982327392527
 31
0.0
  0
LINE
  5
AFD
330
1F
100
AcDbEntity
  8
0
100
AcDbLine
 10
2033.881167074222
 20
1939.467894590526
 30
0.0
 11
2041.188860646221
 21
1936.294158737526
 31
0.0
  0
LWPOLYLINE
  5
AFE
330
1F
100
AcDbEntity
  8
0
 62
     9
100
AcDbPolyline
 90
        3
 70
     0
 43
0.0
 10
2361.630163017221
 20
1369.753071204527
 10
2360.915835803223
 20
1372.374566536026
 10
2360.763833925722
 20
1373.126320631526
  0
LINE
  5
AFF
330
1F
100
AcDbEntity
  8
0
 62
     2
100
AcDbLine
 10
2340.729967660723
 20
1701.862595447027
 30
0.0
 11
2340.729967660723
 21
1680.837595447027
 31
0.0
  0
LINE
  5
B00
330
1F
100
AcDbEntity
  8
0
 62
     9
100
AcDbLine
 10
2362.18676369522
 20
2014.006829520527
 30
0.0
 11
2362.167565433721
 21
2013.847821361027
 31
0.0
  0
LINE
  5
B01
330
1F
100
AcDbEntity
  8
0
 62
     9
100
AcDbLine
 10
2354.178695366722
 20
1947.680605700027
 30
0.0
 11
2361.62772248122
 21
2009.376612696527
 31
0.0
  0
LINE
  5
B02
330
1F
100
AcDbEntity
  8
0
 62
     9
100
AcDbLine
 10
1972.938707815222
 20
1354.939503019526
 30
0.0
 11
1966.771558286721
 21
1352.499807528526
 31
0.0
  0
LINE
  5
B03
330
1F
100
AcDbEntity
  8
0
 62
     9
100
AcDbLine
 10
2003.280877750721
 20
1969.441412484527
 30
0.0
 11
1998.081845148223
 21
1969.438168908027
 31
0.0
  0
LWPOLYLINE
  5
B04
330
1F
100
AcDbEntity
  8
0
 62
     9
100
AcDbPolyline
 90
        3
 70
     0
 43
0.0
 10
2015.729967660723
 20
1969.439117615527
 10
2009.312595573222
 20
1969.437097435027
 10
2003.280877750721
 20
1969.441412484527
  0
LINE
  5
B05
330
1F
100
AcDbEntity
  8
0
 62
     9
100
AcDbLine
 10
1990.729967660723
 20
1961.350095447026
 30
0.0
 11
2025.729967660723
 21
1961.350095447026
 31
0.0
  0
LINE
  5
B06
330
1F
100
AcDbEntity
  8
0
 62
     9
100
AcDbLine
 10
1960.729967660723
 20
1969.258274714027
 30
0.0
 11
1985.729967660723
 21
1969.258274714027
 31
0.0
  0
LINE
  5
B07
330
1F
100
AcDbEntity
  8
0
 62
     9
100
AcDbLine
 10
1998.081845148223
 20
1969.438168908027
 30
0.0
 11
1990.729967660723
 21
1969.439117615527
 31
0.0
  0
LINE
  5
B08
330
1F
100
AcDbEntity
  8
0
 62
     9
100
AcDbLine
 10
1985.731190098723
 20
1999.225541606026
 30
0.0
 11
1990.729967660723
 21
1999.193776944027
 31
0.0
  0
LINE
  5
B09
330
1F
100
AcDbEntity
  8
0
 62
     9
100
AcDbLine
 10
2362.18676369522
 20
1368.693361374026
 30
0.0
 11
2362.167565433721
 21
1368.852369533027
 31
0.0
  0
LINE
  5
B0A
330
1F
100
AcDbEntity
  8
0
 62
     9
100
AcDbLine
 10
2361.62772248122
 20
1373.323578198026
 30
0.0
 11
2354.178695366722
 21
1435.019585194027
 31
0.0
  0
LINE
  5
B0B
330
1F
100
AcDbEntity
  8
0
 62
     9
100
AcDbLine
 10
1812.719561332223
 20
2018.501359950526
 30
0.0
 11
1774.947255533222
 21
2012.333388476027
 31
0.0
  0
LINE
  5
B0C
330
1F
100
AcDbEntity
  8
0
 62
     9
100
AcDbLine
 10
2009.409797810721
 20
2030.299764867027
 30
0.0
 11
2015.933404755721
 21
2031.110017049027
 31
0.0
  0
LWPOLYLINE
  5
B0D
330
1F
100
AcDbEntity
  8
0
 62
     9
100
AcDbPolyline
 90
        3
 70
     0
 43
0.0
 10
1879.101777532222
 20
2026.388059877027
 10
1847.346337441221
 20
2023.084162222527
 10
1812.719561332223
 20
2018.501359950526
  0
LWPOLYLINE
  5
B0E
330
1F
100
AcDbEntity
  8
0
100
AcDbPolyline
 90
        4
 70
     0
 43
0.0
 10
1960.188643757724
 20
2030.966713035528
 10
1877.735681858224
 20
2026.295425118027
 10
1800.717137008222
 20
2016.704796205527
 10
1733.983858108721
 20
2004.293280389026
  0
LINE
  5
B0F
330
1F
100
AcDbEntity
  8
0
 62
     9
100
AcDbLine
 10
1984.810178397722
 20
2017.605491422527
 30
0.0
 11
1985.729967660723
 21
2017.638990907527
 31
0.0
  0
LWPOLYLINE
  5
B10
330
1F
100
AcDbEntity
  8
0
 62
     9
100
AcDbPolyline
 90
        4
 70
     0
 43
0.0
 10
1960.18125309872
 20
2030.934451191527
 10
1935.199016403721
 20
2030.128531600527
 10
1908.281703769721
 20
2028.667394561026
 10
1879.101777532222
 20
2026.388059877027
  0
LINE
  5
B11
330
1F
100
AcDbEntity
  8
0
 62
     9
100
AcDbLine
 10
1985.729967660723
 20
2020.336903691027
 30
0.0
 11
1990.729967660723
 21
2020.336903691027
 31
0.0
  0
LINE
  5
B12
330
1F
100
AcDbEntity
  8
0
100
AcDbLine
 10
1985.729967660723
 20
2025.162063070526
 30
0.0
 11
1990.729967660723
 21
2025.162063070526
 31
0.0
  0
LINE
  5
B13
330
1F
100
AcDbEntity
  8
0
 62
     9
100
AcDbLine
 10
1985.729967660723
 20
2027.510349485027
 30
0.0
 11
1990.729967660723
 21
2027.510349485027
 31
0.0
  0
LINE
  5
B14
330
1F
100
AcDbEntity
  8
0
 62
     9
100
AcDbLine
 10
1990.729967660723
 20
2033.850095447027
 30
0.0
 11
1985.729967660723
 21
2033.850095447027
 31
0.0
  0
LINE
  5
B15
330
1F
100
AcDbEntity
  8
0
100
AcDbLine
 10
1990.729967660723
 20
2041.350095447027
 30
0.0
 11
1985.729967660723
 21
2041.350095447027
 31
0.0
  0
LINE
  5
B16
330
1F
100
AcDbEntity
  8
0
 62
     9
100
AcDbLine
 10
1990.729967660723
 20
2017.604854386526
 30
0.0
 11
1991.620044236221
 21
2017.603348872527
 31
0.0
  0
LWPOLYLINE
  5
B17
330
1F
100
AcDbEntity
  8
0
 62
     9
100
AcDbPolyline
 90
        3
 70
     0
 43
0.0
 10
1986.601835722221
 20
2017.630829320527
 10
1988.664178805219
 20
2017.614689738027
 10
1990.729967660723
 20
2017.604854386526
  0
LINE
  5
B18
330
1F
100
AcDbEntity
  8
0
 62
     9
100
AcDbLine
 10
1985.729967660723
 20
2017.638990907527
 30
0.0
 11
1986.601835722221
 21
2017.630829320527
 31
0.0
  0
LWPOLYLINE
  5
B19
330
1F
100
AcDbEntity
  8
0
 62
     9
100
AcDbPolyline
 90
        7
 70
     0
 43
0.0
 10
2015.933296210221
 20
2036.153297825527
 10
2062.123106444721
 20
2035.432110525027
 10
2111.929782415723
 20
2033.880879441027
 10
2166.141455104721
 20
2031.278242207526
 10
2225.462713562222
 20
2027.334574622027
 10
2290.585908487222
 20
2021.679278838527
 10
2362.167565433721
 20
2013.847821361027
  0
LINE
  5
B1A
330
1F
100
AcDbEntity
  8
0
 62
     9
100
AcDbLine
 10
2074.311891885723
 20
2030.098690472027
 30
0.0
 11
2015.933364712722
 21
2031.110012117027
 31
0.0
  0
LWPOLYLINE
  5
B1B
330
1F
100
AcDbEntity
  8
0
 62
     9
100
AcDbPolyline
 90
        3
 70
     0
 43
0.0
 10
2205.991604140721
 20
2023.838823299527
 10
2137.442619016722
 20
2027.784588892527
 10
2074.311891885723
 20
2030.098690472027
  0
LINE
  5
B1C
330
1F
100
AcDbEntity
  8
0
 62
     9
100
AcDbLine
 10
2280.538932631721
 20
2017.860859927028
 30
0.0
 11
2205.991604140721
 21
2023.838823299527
 31
0.0
  0
LWPOLYLINE
  5
B1D
330
1F
100
AcDbEntity
  8
0
100
AcDbPolyline
 90
        4
 70
     0
 43
0.0
 10
2361.546276640719
 20
2009.415660055526
 10
2256.160646949223
 20
2020.039573040527
 10
2139.317019901221
 20
2027.728405106026
 10
2015.930684067223
 20
2031.142178427027
  0
LINE
  5
B1E
330
1F
100
AcDbEntity
  8
0
 62
     9
100
AcDbLine
 10
2361.62772248122
 20
2009.376612696527
 30
0.0
 11
2280.538932631721
 21
2017.860859927028
 31
0.0
  0
LWPOLYLINE
  5
B1F
330
1F
100
AcDbEntity
  8
0
 62
     9
100
AcDbPolyline
 90
        3
 70
     0
 43
0.0
 10
2498.633899472222
 20
1420.020526937026
 10
2499.751828781221
 20
1420.358135075526
 10
2498.598588780723
 20
1419.262757603526
  0
LWPOLYLINE
  5
B20
330
1F
100
AcDbEntity
  8
0
 62
     9
100
AcDbPolyline
 90
        8
 70
     0
 43
0.0
 10
1733.820242914223
 20
2004.228692014527
 10
1711.346272706721
 20
1998.574771690527
 10
1691.88923433072
 20
1992.321316468026
 10
1675.237786554219
 20
1985.930260729026
 10
1661.20912574072
 20
1979.780599707526
 10
1649.73975111972
 20
1974.230979764526
 10
1640.74895022222
 20
1969.570995419027
 10
1634.080240560219
 20
1965.979499206027
  0
LWPOLYLINE
  5
B21
330
1F
100
AcDbEntity
  8
0
100
AcDbPolyline
 90
       19
 70
     0
 43
0.0
 10
1733.984150900219
 20
2004.293345690527
 10
1730.289821897721
 20
2003.478841295027
 10
1724.485931315223
 20
2002.110164653527
 10
1718.849882759722
 20
2000.675968287027
 10
1713.378633257221
 20
1999.183795605527
 10
1708.068888037223
 20
1997.640783612027
 10
1702.91831885772
 20
1996.053597778026
 10
1697.924637764224
 20
1994.428772002027
 10
1693.085564295722
 20
1992.772870512027
 10
1688.39808421172
 20
1991.091936724027
 10
1683.861258072223
 20
1989.392027462526
 10
1679.474050664224
 20
1987.679235864027
 10
1675.234606233721
 20
1985.959517506527
 10
1671.141667364723
 20
1984.238691445526
 10
1667.197097373723
 20
1982.523401660526
 10
1663.404142481221
 20
1980.821361568526
 10
1659.76660398422
 20
1979.140979451026
 10
1656.290668338221
 20
1977.491314982026
 10
1652.985254816722
 20
1975.882969127027
  0
LWPOLYLINE
  5
B22
330
1F
100
AcDbEntity
  8
0
 62
     9
100
AcDbPolyline
 90
        9
 70
     0
 43
0.0
 10
1732.882921342721
 20
2008.453861598527
 10
1770.66257186572
 20
2016.221980398527
 10
1805.32188965672
 20
2022.200994659027
 10
1837.045503117221
 20
2026.730561233527
 10
1866.058061822722
 20
2030.095288691526
 10
1892.608191935721
 20
2032.530001880528
 10
1916.960579068721
 20
2034.225594246526
 10
1939.391251708222
 20
2035.334568489027
 10
1960.182967340724
 20
2035.975990178027
  0
LINE
  5
B23
330
1F
100
AcDbEntity
  8
0
 62
     9
100
AcDbLine
 10
1774.947255533222
 20
2012.333388476027
 30
0.0
 11
1733.820242914223
 21
2004.228692014527
 31
0.0
  0
LWPOLYLINE
  5
B24
330
1F
100
AcDbEntity
  8
0
 62
     9
100
AcDbPolyline
 90
        9
 70
     0
 43
0.0
 10
2362.167565433721
 20
2013.847821361027
 10
2389.894754010723
 20
2009.252825244027
 10
2414.138092474722
 20
2003.147767416027
 10
2435.063879932223
 20
1996.208767946026
 10
2452.938496029722
 20
1988.955604919026
 10
2467.867174611221
 20
1981.868627447527
 10
2479.827940498222
 20
1975.430906135027
 10
2488.903614149223
 20
1970.015228663026
 10
2495.109648129722
 20
1965.960452471026
  0
LWPOLYLINE
  5
B25
330
1F
100
AcDbEntity
  8
0
 62
     9
100
AcDbPolyline
 90
        3
 70
     0
 43
0.0
 10
2612.910655861722
 20
1586.306786606026
 10
2611.611722879222
 20
1585.162884354527
 10
2610.52709953972
 20
1584.905868357026
  0
LINE
  5
B26
330
1F
100
AcDbEntity
  8
0
 62
     9
100
AcDbLine
 10
2495.078727746722
 20
1418.181154019026
 30
0.0
 11
2498.633899472222
 21
1420.020526937026
 31
0.0
  0
LINE
  5
B27
330
1F
100
AcDbEntity
  8
0
 62
     9
100
AcDbLine
 10
2361.62772345822
 20
1373.323570104026
 30
0.0
 11
2361.546273458222
 21
1373.284526990027
 31
0.0
  0
LWPOLYLINE
  5
B28
330
1F
100
AcDbEntity
  8
0
100
AcDbPolyline
 90
       32
 70
     0
 43
0.0
 10
2495.37107649522
 20
1964.472735344027
 10
2495.431977802223
 20
1964.445252249527
 10
2495.373815830721
 20
1964.475352000526
 10
2494.722334531723
 20
1964.806927318027
 10
2493.60650192222
 20
1965.393037041526
 10
2492.07046778622
 20
1966.213082299527
 10
2490.147716765723
 20
1967.245470129526
 10
2487.866491284721
 20
1968.468309929527
 10
2485.253804564222
 20
1969.858139828527
 10
2482.331751642721
 20
1971.392409150527
 10
2479.121695748222
 20
1973.049066231027
 10
2475.644107879722
 20
1974.807074405026
 10
2471.91011152772
 20
1976.649185246527
 10
2467.934953773723
 20
1978.556547848026
 10
2463.736452799222
 20
1980.510585073027
 10
2459.324921609722
 20
1982.496090622026
 10
2454.708890800722
 20
1984.498676174026
 10
2449.892227496724
 20
1986.507139307027
 10
2444.874699295219
 20
1988.512034627526
 10
2439.652003508222
 20
1990.504402808026
 10
2434.221069499222
 20
1992.474877349527
 10
2428.579503397222
 20
1994.413998278027
 10
2422.722047550223
 20
1996.312156421026
 10
2416.642940929721
 20
1998.159186973526
 10
2410.337262374222
 20
1999.944535149026
 10
2403.79960881372
 20
2001.657090268526
 10
2397.022739188721
 20
2003.284772661027
 10
2390.000245963221
 20
2004.814695561027
 10
2382.726728465224
 20
2006.233271217527
 10
2375.195933438224
 20
2007.525727996027
 10
2367.40184961572
 20
2008.675948210527
 10
2361.546219670222
 20
2009.415669768027
  0
LINE
  5
B29
330
1F
100
AcDbEntity
  8
0
 62
     9
100
AcDbLine
 10
2361.627722568222
 20
2009.376613418527
 30
0.0
 11
2361.546276640723
 21
2009.415660055526
 31
0.0
  0
LINE
  5
B2A
330
1F
100
AcDbEntity
  8
0
 62
     9
100
AcDbLine
 10
2498.613555812223
 20
1962.689197675526
 30
0.0
 11
2495.042094863723
 21
1964.538736297526
 31
0.0
  0
LWPOLYLINE
  5
B2B
330
1F
100
AcDbEntity
  8
0
 62
     9
100
AcDbPolyline
 90
        9
 70
     0
 43
0.0
 10
2495.042094863723
 20
1964.538736297526
 10
2488.814321401723
 20
1967.909379350527
 10
2479.685702271222
 20
1972.722135582026
 10
2467.467895588722
 20
1978.744116643026
 10
2452.400671560722
 20
1985.440767237526
 10
2434.41897482122
 20
1992.375089919526
 10
2413.500154138722
 20
1999.036010219027
 10
2389.361227123723
 20
2004.916586820026
 10
2361.62772248122
 20
2009.376612696527
  0
LWPOLYLINE
  5
B2C
330
1F
100
AcDbEntity
  8
0
 62
     9
100
AcDbPolyline
 90
        3
 70
     0
 43
0.0
 10
2610.52709953972
 20
1584.905868357026
 10
2609.360196993222
 20
1586.779968478527
 10
2609.150589791721
 20
1591.987060232027
  0
LWPOLYLINE
  5
B2D
330
1F
100
AcDbEntity
  8
0
100
AcDbPolyline
 90
        9
 70
     0
 43
0.0
 10
2609.495658813723
 20
1589.678291458526
 10
2609.566248744723
 20
1589.529265552027
 10
2609.535687249224
 20
1589.769654070526
 10
2609.423549113222
 20
1591.353986813526
 10
2609.480168718722
 20
1594.069382302526
 10
2609.777349578222
 20
1597.896110721026
 10
2610.334426904222
 20
1602.892667037527
 10
2611.152859978222
 20
1609.142823423527
 10
2612.203773821724
 20
1616.722438285026
  0
LINE
  5
B2E
330
1F
100
AcDbEntity
  8
0
 62
     9
100
AcDbLine
 10
2498.598588780723
 20
1419.262757603526
 30
0.0
 11
2495.047800240221
 21
1416.697311302027
 31
0.0
  0
LWPOLYLINE
  5
B2F
330
1F
100
AcDbEntity
  8
0
 62
     9
100
AcDbPolyline
 90
        9
 70
     0
 43
0.0
 10
2495.047800240221
 20
1416.697311302027
 10
2488.795304405224
 20
1412.617142558526
 10
2479.66509952772
 20
1407.176617317526
 10
2467.640746212722
 20
1400.716527912526
 10
2452.63075511572
 20
1393.608715689527
 10
2434.704053546722
 20
1386.358341493026
 10
2413.86935880772
 20
1379.473628202527
 10
2389.787367167222
 20
1373.424741241027
 10
2362.167565433721
 20
1368.852369533027
  0
LINE
  5
B30
330
1F
100
AcDbEntity
  8
0
 62
     9
100
AcDbLine
 10
2495.109648129722
 20
1965.960452471026
 30
0.0
 11
2498.62498052872
 21
1963.416624412527
 31
0.0
  0
LWPOLYLINE
  5
B31
330
1F
100
AcDbEntity
  8
0
 62
     9
100
AcDbPolyline
 90
        3
 70
     0
 43
0.0
 10
2498.62498052872
 20
1963.416624412527
 10
2499.751946417219
 20
1962.338235017027
 10
2498.613555812223
 20
1962.689197675526
  0
LWPOLYLINE
  5
B32
330
1F
100
AcDbEntity
  8
0
 62
     9
100
AcDbPolyline
 90
        6
 70
     0
 43
0.0
 10
2609.529889189723
 20
1787.973449700027
 10
2612.03513249572
 20
1784.501713273527
 10
2616.679093929223
 20
1775.562288598527
 10
2621.629453806222
 20
1763.234751280527
 10
2626.26970820272
 20
1748.047375005027
 10
2626.639478079721
 20
1746.350095447026
  0
LWPOLYLINE
  5
B33
330
1F
100
AcDbEntity
  8
0
 62
     9
100
AcDbPolyline
 90
        4
 70
     0
 43
0.0
 10
2612.910809496721
 20
1796.393460032027
 10
2613.111829728723
 20
1794.098641860027
 10
2612.238049424222
 20
1791.935186222026
 10
2610.481864905721
 20
1790.379460123527
  0
LWPOLYLINE
  5
B34
330
1F
100
AcDbEntity
  8
0
 62
     9
100
AcDbPolyline
 90
        3
 70
     0
 43
0.0
 10
2609.162911772223
 20
1790.445876804026
 10
2609.330628902722
 20
1795.769103913527
 10
2610.52709953972
 20
1797.794322537527
  0
LWPOLYLINE
  5
B35
330
1F
100
AcDbEntity
  8
0
 62
     9
100
AcDbPolyline
 90
        4
 70
     0
 43
0.0
 10
2612.911444889223
 20
1586.306500498026
 10
2613.111956378225
 20
1588.601054298527
 10
2612.237934993221
 20
1590.764110299527
 10
2610.481758374223
 20
1592.319582984527
  0
LWPOLYLINE
  5
B36
330
1F
100
AcDbEntity
  8
0
 62
     9
100
AcDbPolyline
 90
        4
 70
     0
 43
0.0
 10
2609.150589791721
 20
1591.987060232027
 10
2609.888144055223
 20
1600.161356028026
 10
2611.291957982224
 20
1610.728903209027
 10
2613.064711496722
 20
1623.391054332026
  0
LWPOLYLINE
  5
B37
330
1F
100
AcDbEntity
  8
0
 62
     9
100
AcDbPolyline
 90
        7
 70
     0
 43
0.0
 10
2613.064711496722
 20
1623.391054332026
 10
2615.22797399122
 20
1640.941740617027
 10
2616.959446489721
 20
1660.433261557026
 10
2617.905919005222
 20
1680.923927536027
 10
2617.907036624723
 20
1701.728499415527
 10
2616.962225029221
 20
1722.226399412027
 10
2615.230319534222
 20
1741.736770472026
  0
LWPOLYLINE
  5
B38
330
1F
100
AcDbEntity
  8
0
100
AcDbPolyline
 90
        8
 70
     0
 43
0.0
 10
2613.185245578222
 20
1623.857472995027
 10
2615.120328430222
 20
1639.531105288527
 10
2616.921797748722
 20
1659.310497435526
 10
2617.932487123723
 20
1680.444440063026
 10
2617.937575927722
 20
1702.045818295527
 10
2616.935983859222
 20
1723.188761900527
 10
2615.140563043221
 20
1742.985518630027
 10
2613.185232905723
 20
1758.842813410526
  0
LINE
  5
B39
330
1F
100
AcDbEntity
  8
0
100
AcDbLine
 10
2612.203773821724
 20
1616.722438285026
 30
0.0
 11
2613.184684235724
 21
1623.857275265026
 31
0.0
  0
LINE
  5
B3A
330
1F
100
AcDbEntity
  8
0
 62
     9
100
AcDbLine
 10
2613.064709707721
 20
1623.391054752027
 30
0.0
 11
2613.185209511722
 21
1623.857204371526
 31
0.0
  0
LWPOLYLINE
  5
B3B
330
1F
100
AcDbEntity
  8
0
 62
     9
100
AcDbPolyline
 90
        6
 70
     0
 43
0.0
 10
2612.910655861722
 20
1796.393404288527
 10
2616.748752436722
 20
1790.764244743027
 10
2621.446197501221
 20
1781.219596947027
 10
2626.458506701221
 20
1768.061835501027
 10
2631.159402924224
 20
1751.855322035527
 10
2632.298684162722
 20
1746.350095447026
  0
LINE
  5
B3C
330
1F
100
AcDbEntity
  8
0
 62
     9
100
AcDbLine
 10
2613.063788777724
 20
1759.308920021027
 30
0.0
 11
2613.184482737722
 21
1758.842713060026
 31
0.0
  0
LWPOLYLINE
  5
B3D
330
1F
100
AcDbEntity
  8
0
 62
     9
100
AcDbPolyline
 90
        4
 70
     0
 43
0.0
 10
2613.064711496722
 20
1759.309136562027
 10
2611.311969270222
 20
1771.829315808526
 10
2609.916408179223
 20
1782.302267351027
 10
2609.162911772223
 20
1790.445876804026
  0
LWPOLYLINE
  5
B3E
330
1F
100
AcDbEntity
  8
0
100
AcDbPolyline
 90
        9
 70
     0
 43
0.0
 10
2613.184484388222
 20
1758.842700804026
 10
2612.224922256221
 20
1765.827667649026
 10
2611.171089239219
 20
1773.422457071526
 10
2610.349183303221
 20
1779.689896347526
 10
2609.786699188721
 20
1784.704995051027
 10
2609.484558093221
 20
1788.550384527027
 10
2609.422609484221
 20
1791.292283660527
 10
2609.531205084722
 20
1792.902484114026
 10
2609.567968443721
 20
1793.120541496026
  0
LINE
  5
B3F
330
1F
100
AcDbEntity
  8
0
 62
     9
100
AcDbLine
 10
2615.230319534222
 20
1741.736770472026
 30
0.0
 11
2613.064711496722
 21
1759.309136562027
 31
0.0
  0
LWPOLYLINE
  5
B40
330
1F
100
AcDbEntity
  8
0
 62
     9
100
AcDbPolyline
 90
        6
 70
     0
 43
0.0
 10
2632.298137921222
 20
1636.350095447026
 10
2631.16008295622
 20
1630.847606157026
 10
2626.459403540722
 20
1614.641030650026
 10
2621.447710253223
 20
1601.484080359526
 10
2616.749384069722
 20
1591.937053822027
 10
2612.910655861722
 20
1586.306786606026
  0
LWPOLYLINE
  5
B41
330
1F
100
AcDbEntity
  8
0
 62
     9
100
AcDbPolyline
 90
        6
 70
     0
 43
0.0
 10
2626.639372227722
 20
1636.350095447026
 10
2626.270346025221
 20
1634.655248060527
 10
2621.630337121719
 20
1619.467941001527
 10
2616.680595678722
 20
1607.141184372027
 10
2612.035759580719
 20
1598.199516271027
 10
2609.531384078721
 20
1594.728870517526
  0
LINE
  5
B42
330
1F
100
AcDbEntity
  8
0
100
AcDbLine
 10
2735.229967660723
 20
1746.350095447026
 30
0.0
 11
2735.229967660723
 21
1636.350095447026
 31
0.0
  0
CIRCLE
  5
B43
330
1F
100
AcDbEntity
  8
0
100
AcDbCircle
 10
2025.74382429422
 20
1910.727726007027
 30
0.0
 40
28.33
  0
ARC
  5
B44
330
1F
100
AcDbEntity
  8
0
100
AcDbCircle
 10
2025.717236430221
 20
1911.079250864527
 30
0.0
 40
32.5
100
AcDbArc
 50
3.260577859989327
 51
184.0402039415355
  0
CIRCLE
  5
B45
330
1F
100
AcDbEntity
  8
0
100
AcDbCircle
 10
2025.74232471622
 20
1910.747552306527
 30
0.0
 40
32.5
  0
CIRCLE
  5
B46
330
1F
100
AcDbEntity
  8
0
100
AcDbCircle
 10
2025.743909984221
 20
1910.726593075526
 30
0.0
 40
24.33
  0
ARC
  5
B47
330
1F
100
AcDbEntity
  8
0
100
AcDbCircle
 10
1995.764240751222
 20
1601.312291042527
 30
0.0
 40
10.0
100
AcDbArc
 50
180.0121777323348
 51
239.4474189732518
  0
ARC
  5
B48
330
1F
100
AcDbEntity
  8
0
100
AcDbCircle
 10
1995.726435801222
 20
1781.312287072526
 30
0.0
 40
10.0
100
AcDbArc
 50
120.3094060006938
 51
180.0119748482707
  0
CIRCLE
  5
B49
330
1F
100
AcDbEntity
  8
0
 62
     9
100
AcDbCircle
 10
2025.743909984221
 20
1910.726593075526
 30
0.0
 40
26.329938099
  0
CIRCLE
  5
B4A
330
1F
100
AcDbEntity
  8
0
 62
     9
100
AcDbCircle
 10
2025.74241040622
 20
1910.746419375026
 30
0.0
 40
30.4999449825
  0
ARC
  5
B4B
330
1F
100
AcDbEntity
  8
0
100
AcDbCircle
 10
1798.229967660723
 20
1691.350095447026
 30
0.0
 40
325.0
100
AcDbArc
 50
105.1892867372409
 51
170.2393036587108
  0
ARC
  5
B4C
330
1F
100
AcDbEntity
  8
0
100
AcDbCircle
 10
1798.229967660723
 20
1691.350095447026
 30
0.0
 40
325.0
100
AcDbArc
 50
189.7607132611827
 51
254.8107132627591
  0
ARC
  5
B4D
330
1F
100
AcDbEntity
  8
0
100
AcDbCircle
 10
1990.729967660723
 20
3956.975095447026
 30
0.0
 40
2615.625
100
AcDbArc
 50
270.0
 51
278.4727895980637
  0
ARC
  5
B4E
330
1F
100
AcDbEntity
  8
0
100
AcDbCircle
 10
2328.229967660723
 20
1691.350095447026
 30
0.0
 40
325.0
100
AcDbArc
 50
278.4727895980637
 51
350.2326847629783
  0
ARC
  5
B4F
330
1F
100
AcDbEntity
  8
0
100
AcDbCircle
 10
2328.229967660723
 20
1691.350095447026
 30
0.0
 40
325.0
100
AcDbArc
 50
9.767346449206065
 51
81.52721040193636
  0
ARC
  5
B50
330
1F
100
AcDbEntity
  8
0
100
AcDbCircle
 10
1990.729967660723
 20
-574.2749045529735
 30
0.0
 40
2615.625
100
AcDbArc
 50
81.52721040193636
 51
90.0
  0
ARC
  5
B51
330
1F
100
AcDbEntity
  8
0
100
AcDbCircle
 10
1985.729967660723
 20
1000.725095447026
 30
0.0
 40
1040.625
100
AcDbArc
 50
90.0
 51
105.1892867372409
  0
ARC
  5
B52
330
1F
100
AcDbEntity
  8
0
100
AcDbCircle
 10
1985.729967660723
 20
2381.975095447026
 30
0.0
 40
1040.625
100
AcDbArc
 50
254.8107132627591
 51
270.0
  0
ARC
  5
B53
330
1F
100
AcDbEntity
  8
0
 62
     9
100
AcDbCircle
 10
1985.729967660723
 20
1000.725095447026
 30
0.0
 40
1026.7852594095
100
AcDbArc
 50
90.0
 51
90.34880448892682
  0
ARC
  5
B54
330
1F
100
AcDbEntity
  8
0
100
AcDbCircle
 10
1985.729967660723
 20
1000.725095447026
 30
0.0
 40
1024.436967623
100
AcDbArc
 50
90.0
 51
90.24284898248151
  0
ARC
  5
B55
330
1F
100
AcDbEntity
  8
0
 62
     9
100
AcDbCircle
 10
1990.729967660723
 20
-574.2749045529735
 30
0.0
 40
2601.785254969
100
AcDbArc
 50
89.86348294159691
 51
90.0
  0
ARC
  5
B56
330
1F
100
AcDbEntity
  8
0
100
AcDbCircle
 10
1990.729967660723
 20
-574.2749045529735
 30
0.0
 40
2599.436967623001
100
AcDbArc
 50
89.90573082504763
 51
90.0
  0
ARC
  5
B57
330
1F
100
AcDbEntity
  8
0
 62
     9
100
AcDbCircle
 10
1990.729967660723
 20
3956.975095447026
 30
0.0
 40
2601.785254969
100
AcDbArc
 50
270.0
 51
270.1365170563187
  0
ARC
  5
B58
330
1F
100
AcDbEntity
  8
0
100
AcDbCircle
 10
1990.729967660723
 20
3956.975095447026
 30
0.0
 40
2599.436967623001
100
AcDbArc
 50
270.0
 51
270.0942691749524
  0
ARC
  5
B59
330
1F
100
AcDbEntity
  8
0
 62
     9
100
AcDbCircle
 10
1985.729967660723
 20
2381.975095447026
 30
0.0
 40
1026.7852594095
100
AcDbArc
 50
269.6511954979412
 51
270.0
  0
ARC
  5
B5A
330
1F
100
AcDbEntity
  8
0
100
AcDbCircle
 10
1985.729967660723
 20
2381.975095447026
 30
0.0
 40
1024.436967623
100
AcDbArc
 50
269.7571510185607
 51
270.0
  0
ARC
  5
B5B
330
1F
100
AcDbEntity
  8
0
 62
     9
100
AcDbCircle
 10
1985.729967660723
 20
1000.725095447026
 30
0.0
 40
1019.6118083235
100
AcDbArc
 50
90.0
 51
90.11162973589758
  0
ARC
  5
B5C
330
1F
100
AcDbEntity
  8
0
 62
     9
100
AcDbCircle
 10
1990.729967660723
 20
-574.2749045529735
 30
0.0
 40
2594.6118082575
100
AcDbArc
 50
89.9574610043119
 51
90.0
  0
ARC
  5
B5D
330
1F
100
AcDbEntity
  8
0
 62
     9
100
AcDbCircle
 10
1990.729967660723
 20
3956.975095447026
 30
0.0
 40
2594.6118082575
100
AcDbArc
 50
270.0
 51
270.0425390094452
  0
ARC
  5
B5E
330
1F
100
AcDbEntity
  8
0
 62
     9
100
AcDbCircle
 10
1985.729967660723
 20
2381.975095447026
 30
0.0
 40
1019.6118083235
100
AcDbArc
 50
269.8883706042785
 51
270.0
  0
ARC
  5
B5F
330
1F
100
AcDbEntity
  8
0
 62
     9
100
AcDbCircle
 10
1985.729967660723
 20
2381.975095447026
 30
0.0
 40
1033.1250051925
100
AcDbArc
 50
269.2442143632859
 51
270.0
  0
ARC
  5
B60
330
1F
100
AcDbEntity
  8
0
 62
     9
100
AcDbCircle
 10
1990.729967660723
 20
3956.975095447026
 30
0.0
 40
2608.1250009055
100
AcDbArc
 50
270.0
 51
270.3013644439544
  0
ARC
  5
B61
330
1F
100
AcDbEntity
  8
0
 62
     9
100
AcDbCircle
 10
1990.729967660723
 20
-574.2749045529735
 30
0.0
 40
2608.1250009055
100
AcDbArc
 50
84.09483116954383
 51
89.44506596467158
  0
ARC
  5
B62
330
1F
100
AcDbEntity
  8
0
 62
     9
100
AcDbCircle
 10
1990.729967660723
 20
-574.2749045529735
 30
0.0
 40
2608.1250009055
100
AcDbArc
 50
89.69863543473129
 51
90.0
  0
ARC
  5
B63
330
1F
100
AcDbEntity
  8
0
 62
     9
100
AcDbCircle
 10
1985.729967660723
 20
1000.725095447026
 30
0.0
 40
1033.1250051925
100
AcDbArc
 50
90.0
 51
90.75578443911728
  0
ARC
  5
B64
330
1F
100
AcDbEntity
  8
0
100
AcDbCircle
 10
1990.729967660723
 20
1711.350095447026
 30
0.0
 40
5.0
100
AcDbArc
 50
180.0000004743071
 51
270.0
  0
ARC
  5
B65
330
1F
100
AcDbEntity
  8
0
100
AcDbCircle
 10
1990.729967660723
 20
1671.350095447026
 30
0.0
 40
5.0
100
AcDbArc
 50
90.0
 51
179.9999990929697
  0
ARC
  5
B66
330
1F
100
AcDbEntity
  8
0
100
AcDbCircle
 10
1990.729967660723
 20
1496.350095447026
 30
0.0
 40
5.0
100
AcDbArc
 50
180.0000004743071
 51
270.0
  0
ARC
  5
B67
330
1F
100
AcDbEntity
  8
0
100
AcDbCircle
 10
1990.729967660723
 20
1456.350095447026
 30
0.0
 40
5.0
100
AcDbArc
 50
90.0
 51
179.9999990929697
  0
ARC
  5
B68
330
1F
100
AcDbEntity
  8
0
100
AcDbCircle
 10
1990.729967660723
 20
1926.350095447026
 30
0.0
 40
5.0
100
AcDbArc
 50
180.0000004743071
 51
270.0
  0
ARC
  5
B69
330
1F
100
AcDbEntity
  8
0
100
AcDbCircle
 10
1990.729967660723
 20
1886.350095447026
 30
0.0
 40
5.0
100
AcDbArc
 50
90.0
 51
179.9999990929697
  0
ARC
  5
B6A
330
1F
100
AcDbEntity
  8
0
100
AcDbCircle
 10
1960.729967660723
 20
1371.623635578026
 30
0.0
 40
25.0
100
AcDbArc
 50
268.7463344010768
 51
0.0
  0
ARC
  5
B6B
330
1F
100
AcDbEntity
  8
0
100
AcDbCircle
 10
1960.729967660723
 20
2011.076555316527
 30
0.0
 40
25.0
100
AcDbArc
 50
0.0
 51
91.25366559892318
  0
ARC
  5
B6C
330
1F
100
AcDbEntity
  8
0
100
AcDbCircle
 10
1985.729967660723
 20
2514.006345447026
 30
0.0
 40
1167.65625
100
AcDbArc
 50
257.4919345121439
 51
268.7461258696746
  0
ARC
  5
B6D
330
1F
100
AcDbEntity
  8
0
100
AcDbCircle
 10
1803.229967660723
 20
1691.350095447026
 30
0.0
 40
325.0
100
AcDbArc
 50
102.508065487856
 51
170.2413125240675
  0
ARC
  5
B6E
330
1F
100
AcDbEntity
  8
0
100
AcDbCircle
 10
1803.229967660723
 20
1691.350095447026
 30
0.0
 40
325.0
100
AcDbArc
 50
189.7586874759324
 51
257.4919345121439
  0
ARC
  5
B6F
330
1F
100
AcDbEntity
  8
0
100
AcDbCircle
 10
1985.729967660723
 20
868.6938454470263
 30
0.0
 40
1167.65625
100
AcDbArc
 50
91.25387415242538
 51
102.508065487856
  0
ARC
  5
B70
330
1F
100
AcDbEntity
  8
0
 62
     9
100
AcDbCircle
 10
1985.729967660723
 20
868.6938454470263
 30
0.0
 40
1100.8483378595
100
AcDbArc
 50
91.30128519008543
 51
102.508065487856
  0
ARC
  5
B71
330
1F
100
AcDbEntity
  8
0
 62
     9
100
AcDbCircle
 10
1985.729967660723
 20
868.6938454470263
 30
0.0
 40
1125.585395016
100
AcDbArc
 50
91.30128519008543
 51
102.5080654876412
  0
ARC
  5
B72
330
1F
100
AcDbEntity
  8
0
 62
     9
100
AcDbCircle
 10
1803.229967660723
 20
1691.350095447026
 30
0.0
 40
258.192087749
100
AcDbArc
 50
102.508065487856
 51
149.4729869380671
  0
ARC
  5
B73
330
1F
100
AcDbEntity
  8
0
 62
     9
100
AcDbCircle
 10
1803.229967660723
 20
1691.350095447026
 30
0.0
 40
258.192087749
100
AcDbArc
 50
210.5270130619216
 51
257.4919345121439
  0
ARC
  5
B74
330
1F
100
AcDbEntity
  8
0
 62
     9
100
AcDbCircle
 10
1803.229967660723
 20
1691.350095447026
 30
0.0
 40
282.9291450045
100
AcDbArc
 50
102.5080654874293
 51
257.4919345129974
  0
ARC
  5
B75
330
1F
100
AcDbEntity
  8
0
 62
     9
100
AcDbCircle
 10
1985.729967660723
 20
2514.006345447026
 30
0.0
 40
1100.8483378595
100
AcDbArc
 50
257.4919345121439
 51
268.6987148099146
  0
ARC
  5
B76
330
1F
100
AcDbEntity
  8
0
 62
     9
100
AcDbCircle
 10
1985.729967660723
 20
2514.006345447026
 30
0.0
 40
1125.585395016
100
AcDbArc
 50
257.4919345121439
 51
268.6987148099146
  0
ARC
  5
B77
330
1F
100
AcDbEntity
  8
0
100
AcDbCircle
 10
2005.729967660723
 20
1521.350095447026
 30
0.0
 40
15.0
100
AcDbArc
 50
180.0
 51
270.0
  0
ARC
  5
B78
330
1F
100
AcDbEntity
  8
0
100
AcDbCircle
 10
2025.729967660723
 20
1471.350095447026
 30
0.0
 40
35.0
100
AcDbArc
 50
270.0
 51
90.0
  0
ARC
  5
B79
330
1F
100
AcDbEntity
  8
0
100
AcDbCircle
 10
2005.729967660723
 20
1421.350095447026
 30
0.0
 40
15.0
100
AcDbArc
 50
90.0
 51
180.0
  0
ARC
  5
B7A
330
1F
100
AcDbEntity
  8
0
100
AcDbCircle
 10
2015.729967660723
 20
2011.248409755027
 30
0.0
 40
25.0
100
AcDbArc
 50
89.5340097622874
 51
180.0
  0
ARC
  5
B7B
330
1F
100
AcDbEntity
  8
0
100
AcDbCircle
 10
2005.729967660723
 20
1961.350095447026
 30
0.0
 40
15.0
100
AcDbArc
 50
180.0
 51
270.0
  0
ARC
  5
B7C
330
1F
100
AcDbEntity
  8
0
100
AcDbCircle
 10
2025.729967660723
 20
1911.350095447026
 30
0.0
 40
35.0
100
AcDbArc
 50
270.0
 51
90.0
  0
ARC
  5
B7D
330
1F
100
AcDbEntity
  8
0
100
AcDbCircle
 10
2005.729967660723
 20
1861.350095447026
 30
0.0
 40
15.0
100
AcDbArc
 50
90.0
 51
180.0
  0
ARC
  5
B7E
330
1F
100
AcDbEntity
  8
0
100
AcDbCircle
 10
2015.729967660723
 20
1371.451781139526
 30
0.0
 40
25.0
100
AcDbArc
 50
180.0
 51
270.4659902377126
  0
ARC
  5
B7F
330
1F
100
AcDbEntity
  8
0
100
AcDbCircle
 10
1980.729967660722
 20
1616.350095447026
 30
0.0
 40
10.0
100
AcDbArc
 50
0.0000000161020542
 51
59.66826080775028
  0
ARC
  5
B80
330
1F
100
AcDbEntity
  8
0
100
AcDbCircle
 10
1980.729967660722
 20
1766.350095447026
 30
0.0
 40
10.0
100
AcDbArc
 50
300.3317391922497
 51
359.9999999593019
  0
ARC
  5
B81
330
1F
100
AcDbEntity
  8
0
100
AcDbCircle
 10
1990.729967660723
 20
-1062.556154552973
 30
0.0
 40
3098.90625
100
AcDbArc
 50
83.11556942823704
 51
89.5339809533525
  0
ARC
  5
B82
330
1F
100
AcDbEntity
  8
0
100
AcDbCircle
 10
2323.229967660723
 20
1691.350095447026
 30
0.0
 40
325.0
100
AcDbArc
 50
276.8844305717629
 51
350.2316019179958
  0
ARC
  5
B83
330
1F
100
AcDbEntity
  8
0
100
AcDbCircle
 10
2323.229967660723
 20
1691.350095447026
 30
0.0
 40
325.0
100
AcDbArc
 50
9.768398082004221
 51
83.11556942823704
  0
ARC
  5
B84
330
1F
100
AcDbEntity
  8
0
100
AcDbCircle
 10
1990.729967660723
 20
4445.256345447026
 30
0.0
 40
3098.90625
100
AcDbArc
 50
270.4660190447715
 51
276.8844305717629
  0
ARC
  5
B85
330
1F
100
AcDbEntity
  8
0
 62
     9
100
AcDbCircle
 10
2025.729967660723
 20
1471.350095447026
 30
0.0
 40
49.9998685345
100
AcDbArc
 50
270.0
 51
90.0
  0
ARC
  5
B86
330
1F
100
AcDbEntity
  8
0
 62
     9
100
AcDbCircle
 10
2025.729967660723
 20
1911.350095447026
 30
0.0
 40
49.9998685395
100
AcDbArc
 50
270.0
 51
90.0
  0
ARC
  5
B87
330
1F
100
AcDbEntity
  8
0
 62
     9
100
AcDbCircle
 10
1990.729967660723
 20
4445.256345447026
 30
0.0
 40
3032.0983378595
100
AcDbArc
 50
270.4724156776521
 51
276.8844305717629
  0
ARC
  5
B88
330
1F
100
AcDbEntity
  8
0
 62
     9
100
AcDbCircle
 10
1990.729967660723
 20
4445.256345447026
 30
0.0
 40
3056.835395016
100
AcDbArc
 50
270.4724156534722
 51
276.8844305717629
  0
ARC
  5
B89
330
1F
100
AcDbEntity
  8
0
 62
     9
100
AcDbCircle
 10
2323.229967660723
 20
1691.350095447026
 30
0.0
 40
258.192080916
100
AcDbArc
 50
276.8844305717629
 51
83.11556942823704
  0
ARC
  5
B8A
330
1F
100
AcDbEntity
  8
0
 62
     9
100
AcDbCircle
 10
2323.229967660723
 20
1691.350095447026
 30
0.0
 40
282.9291448335
100
AcDbArc
 50
276.8844305715529
 51
83.11556942865715
  0
ARC
  5
B8B
330
1F
100
AcDbEntity
  8
0
 62
     9
100
AcDbCircle
 10
1990.729967660723
 20
-1062.556154552973
 30
0.0
 40
3032.0983378595
100
AcDbArc
 50
83.11556942823704
 51
89.52758428941313
  0
ARC
  5
B8C
330
1F
100
AcDbEntity
  8
0
 62
     9
100
AcDbCircle
 10
1990.729967660723
 20
-1062.556154552973
 30
0.0
 40
3056.835395016
100
AcDbArc
 50
83.11556942823704
 51
89.52758434652784
  0
LINE
  5
B8D
330
1F
100
AcDbEntity
  8
TEXT
  6
Continuous
 62
     7
100
AcDbLine
 10
1555.292967660724
 20
1640.060095447027
 30
0.0
 11
1540.318967660723
 21
1636.047095447026
 31
0.0
  0
LINE
  5
B8E
330
1F
100
AcDbEntity
  8
TEXT
  6
Continuous
 62
     7
100
AcDbLine
 10
1553.738967660721
 20
1645.855095447026
 30
0.0
 11
1538.765967660722
 21
1641.843095447027
 31
0.0
  0
LINE
  5
B8F
330
1F
100
AcDbEntity
  8
TEXT
  6
Continuous
 62
     7
100
AcDbLine
 10
1574.694967660723
 20
1595.265095447027
 30
0.0
 11
1561.27096766072
 21
1587.514095447027
 31
0.0
  0
LINE
  5
B90
330
1F
100
AcDbEntity
  8
TEXT
  6
Continuous
 62
     7
100
AcDbLine
 10
1571.693967660723
 20
1600.461095447027
 30
0.0
 11
1558.269967660723
 21
1592.710095447027
 31
0.0
  0
LINE
  5
B91
330
1F
100
AcDbEntity
  8
TEXT
  6
Continuous
 62
     7
100
AcDbLine
 10
1605.029967660722
 20
1557.017095447027
 30
0.0
 11
1594.068967660722
 21
1546.056095447026
 31
0.0
  0
LINE
  5
B92
330
1F
100
AcDbEntity
  8
TEXT
  6
Continuous
 62
     7
100
AcDbLine
 10
1600.786967660723
 20
1561.259095447026
 30
0.0
 11
1589.82596766072
 21
1550.298095447027
 31
0.0
  0
LINE
  5
B93
330
1F
100
AcDbEntity
  8
TEXT
  6
Continuous
 62
     7
100
AcDbLine
 10
1644.230967660723
 20
1527.925095447027
 30
0.0
 11
1636.480967660723
 21
1514.500095447026
 31
0.0
  0
LINE
  5
B94
330
1F
100
AcDbEntity
  8
TEXT
  6
Continuous
 62
     7
100
AcDbLine
 10
1639.033967660722
 20
1530.924095447027
 30
0.0
 11
1631.283967660723
 21
1517.500095447026
 31
0.0
  0
LINE
  5
B95
330
1F
100
AcDbEntity
  8
TEXT
  6
Continuous
 62
     7
100
AcDbLine
 10
1689.624967660723
 20
1509.970095447027
 30
0.0
 11
1685.612967660724
 21
1494.997095447027
 31
0.0
  0
LINE
  5
B96
330
1F
100
AcDbEntity
  8
TEXT
  6
Continuous
 62
     7
100
AcDbLine
 10
1683.828967660724
 20
1511.522095447027
 30
0.0
 11
1679.816967660722
 21
1496.548095447027
 31
0.0
  0
LINE
  5
B97
330
1F
100
AcDbEntity
  8
TEXT
  6
Continuous
 62
     7
100
AcDbLine
 10
1738.119967660722
 20
1504.375095447026
 30
0.0
 11
1738.119967660722
 21
1488.874095447027
 31
0.0
  0
LINE
  5
B98
330
1F
100
AcDbEntity
  8
TEXT
  6
Continuous
 62
     7
100
AcDbLine
 10
1732.119967660722
 20
1504.374095447027
 30
0.0
 11
1732.119967660722
 21
1488.873095447026
 31
0.0
  0
LINE
  5
B99
330
1F
100
AcDbEntity
  8
TEXT
  6
Continuous
 62
     7
100
AcDbLine
 10
1786.410967660719
 20
1511.522095447027
 30
0.0
 11
1790.422967660722
 21
1496.549095447027
 31
0.0
  0
LINE
  5
B9A
330
1F
100
AcDbEntity
  8
TEXT
  6
Continuous
 62
     7
100
AcDbLine
 10
1780.615967660721
 20
1509.968095447027
 30
0.0
 11
1784.627967660724
 21
1494.995095447027
 31
0.0
  0
LINE
  5
B9B
330
1F
100
AcDbEntity
  8
TEXT
  6
Continuous
 62
     7
100
AcDbLine
 10
1831.205967660721
 20
1530.925095447027
 30
0.0
 11
1838.955967660721
 21
1517.500095447026
 31
0.0
  0
LINE
  5
B9C
330
1F
100
AcDbEntity
  8
TEXT
  6
Continuous
 62
     7
100
AcDbLine
 10
1826.010967660722
 20
1527.924095447027
 30
0.0
 11
1833.760967660722
 21
1514.499095447027
 31
0.0
  0
LINE
  5
B9D
330
1F
100
AcDbEntity
  8
TEXT
  6
Continuous
 62
     7
100
AcDbLine
 10
1869.452967660721
 20
1561.260095447026
 30
0.0
 11
1880.413967660724
 21
1550.299095447027
 31
0.0
  0
LINE
  5
B9E
330
1F
100
AcDbEntity
  8
TEXT
  6
Continuous
 62
     7
100
AcDbLine
 10
1865.210967660722
 20
1557.017095447027
 30
0.0
 11
1876.171967660722
 21
1546.056095447026
 31
0.0
  0
LINE
  5
B9F
330
1F
100
AcDbEntity
  8
TEXT
  6
Continuous
 62
     7
100
AcDbLine
 10
1898.545967660721
 20
1600.461095447027
 30
0.0
 11
1911.970967660724
 21
1592.710095447027
 31
0.0
  0
LINE
  5
BA0
330
1F
100
AcDbEntity
  8
TEXT
  6
Continuous
 62
     7
100
AcDbLine
 10
1895.545967660721
 20
1595.264095447027
 30
0.0
 11
1908.970967660724
 21
1587.514095447027
 31
0.0
  0
LINE
  5
BA1
330
1F
100
AcDbEntity
  8
TEXT
  6
Continuous
 62
     7
100
AcDbLine
 10
1916.501967660719
 20
1645.856095447027
 30
0.0
 11
1931.475967660722
 21
1641.844095447027
 31
0.0
  0
LINE
  5
BA2
330
1F
100
AcDbEntity
  8
TEXT
  6
Continuous
 62
     7
100
AcDbLine
 10
1914.94896766072
 20
1640.060095447027
 30
0.0
 11
1929.922967660722
 21
1636.048095447027
 31
0.0
  0
LINE
  5
BA3
330
1F
100
AcDbEntity
  8
TEXT
  6
Continuous
 62
     7
100
AcDbLine
 10
1922.096967660721
 20
1694.351095447026
 30
0.0
 11
1937.598967660721
 21
1694.351095447026
 31
0.0
  0
LINE
  5
BA4
330
1F
100
AcDbEntity
  8
TEXT
  6
Continuous
 62
     7
100
AcDbLine
 10
1922.096967660721
 20
1688.351095447027
 30
0.0
 11
1937.598967660721
 21
1688.351095447027
 31
0.0
  0
LINE
  5
BA5
330
1F
100
AcDbEntity
  8
TEXT
  6
Continuous
 62
     7
100
AcDbLine
 10
1914.94896766072
 20
1742.642095447027
 30
0.0
 11
1929.922967660722
 21
1746.654095447026
 31
0.0
  0
LINE
  5
BA6
330
1F
100
AcDbEntity
  8
TEXT
  6
Continuous
 62
     7
100
AcDbLine
 10
1916.501967660719
 20
1736.846095447026
 30
0.0
 11
1931.475967660722
 21
1740.858095447026
 31
0.0
  0
LINE
  5
BA7
330
1F
100
AcDbEntity
  8
TEXT
  6
Continuous
 62
     7
100
AcDbLine
 10
1895.546967660722
 20
1787.437095447026
 30
0.0
 11
1908.971967660721
 21
1795.188095447026
 31
0.0
  0
LINE
  5
BA8
330
1F
100
AcDbEntity
  8
TEXT
  6
Continuous
 62
     7
100
AcDbLine
 10
1898.546967660722
 20
1782.240095447027
 30
0.0
 11
1911.971967660721
 21
1789.992095447026
 31
0.0
  0
LINE
  5
BA9
330
1F
100
AcDbEntity
  8
TEXT
  6
Continuous
 62
     7
100
AcDbLine
 10
1865.211967660723
 20
1825.684095447027
 30
0.0
 11
1876.172967660722
 21
1836.646095447026
 31
0.0
  0
LINE
  5
BAA
330
1F
100
AcDbEntity
  8
TEXT
  6
Continuous
 62
     7
100
AcDbLine
 10
1869.453967660724
 20
1821.441095447027
 30
0.0
 11
1880.41496766072
 21
1832.403095447026
 31
0.0
  0
LINE
  5
BAB
330
1F
100
AcDbEntity
  8
TEXT
  6
Continuous
 62
     7
100
AcDbLine
 10
1826.010967660722
 20
1854.777095447026
 30
0.0
 11
1833.760967660722
 21
1868.203095447026
 31
0.0
  0
LINE
  5
BAC
330
1F
100
AcDbEntity
  8
TEXT
  6
Continuous
 62
     7
100
AcDbLine
 10
1831.205967660721
 20
1851.777095447026
 30
0.0
 11
1838.955967660721
 21
1865.202095447027
 31
0.0
  0
LINE
  5
BAD
330
1F
100
AcDbEntity
  8
TEXT
  6
Continuous
 62
     7
100
AcDbLine
 10
1780.614967660724
 20
1872.733095447026
 30
0.0
 11
1784.62696766072
 21
1887.706095447026
 31
0.0
  0
LINE
  5
BAE
330
1F
100
AcDbEntity
  8
TEXT
  6
Continuous
 62
     7
100
AcDbLine
 10
1786.409967660723
 20
1871.179095447026
 30
0.0
 11
1790.421967660722
 21
1886.153095447026
 31
0.0
  0
LINE
  5
BAF
330
1F
100
AcDbEntity
  8
TEXT
  6
Continuous
 62
     7
100
AcDbLine
 10
1732.119967660722
 20
1878.328095447026
 30
0.0
 11
1732.119967660722
 21
1893.829095447027
 31
0.0
  0
LINE
  5
BB0
330
1F
100
AcDbEntity
  8
TEXT
  6
Continuous
 62
     7
100
AcDbLine
 10
1738.119967660722
 20
1878.327095447027
 30
0.0
 11
1738.119967660722
 21
1893.828095447026
 31
0.0
  0
LINE
  5
BB1
330
1F
100
AcDbEntity
  8
TEXT
  6
Continuous
 62
     7
100
AcDbLine
 10
1683.828967660724
 20
1871.181095447026
 30
0.0
 11
1679.816967660722
 21
1886.154095447026
 31
0.0
  0
LINE
  5
BB2
330
1F
100
AcDbEntity
  8
TEXT
  6
Continuous
 62
     7
100
AcDbLine
 10
1689.624967660723
 20
1872.733095447026
 30
0.0
 11
1685.612967660724
 21
1887.706095447026
 31
0.0
  0
LINE
  5
BB3
330
1F
100
AcDbEntity
  8
TEXT
  6
Continuous
 62
     7
100
AcDbLine
 10
1639.032967660722
 20
1851.777095447026
 30
0.0
 11
1631.282967660722
 21
1865.202095447027
 31
0.0
  0
LINE
  5
BB4
330
1F
100
AcDbEntity
  8
TEXT
  6
Continuous
 62
     7
100
AcDbLine
 10
1644.229967660723
 20
1854.777095447026
 30
0.0
 11
1636.479967660722
 21
1868.202095447027
 31
0.0
  0
LINE
  5
BB5
330
1F
100
AcDbEntity
  8
TEXT
  6
Continuous
 62
     7
100
AcDbLine
 10
1600.785967660719
 20
1821.442095447027
 30
0.0
 11
1589.824967660724
 21
1832.403095447026
 31
0.0
  0
LINE
  5
BB6
330
1F
100
AcDbEntity
  8
TEXT
  6
Continuous
 62
     7
100
AcDbLine
 10
1605.028967660722
 20
1825.684095447027
 30
0.0
 11
1594.067967660722
 21
1836.645095447027
 31
0.0
  0
LINE
  5
BB7
330
1F
100
AcDbEntity
  8
TEXT
  6
Continuous
 62
     7
100
AcDbLine
 10
1571.692967660722
 20
1782.241095447026
 30
0.0
 11
1558.268967660719
 21
1789.992095447026
 31
0.0
  0
LINE
  5
BB8
330
1F
100
AcDbEntity
  8
TEXT
  6
Continuous
 62
     7
100
AcDbLine
 10
1574.693967660723
 20
1787.437095447026
 30
0.0
 11
1561.269967660723
 21
1795.187095447026
 31
0.0
  0
LINE
  5
BB9
330
1F
100
AcDbEntity
  8
TEXT
  6
Continuous
 62
     7
100
AcDbLine
 10
1553.73696766072
 20
1736.846095447026
 30
0.0
 11
1538.763967660722
 21
1740.858095447026
 31
0.0
  0
LINE
  5
BBA
330
1F
100
AcDbEntity
  8
TEXT
  6
Continuous
 62
     7
100
AcDbLine
 10
1555.290967660724
 20
1742.642095447027
 30
0.0
 11
1540.316967660722
 21
1746.654095447026
 31
0.0
  0
LINE
  5
BBB
330
1F
100
AcDbEntity
  8
TEXT
  6
Continuous
 62
     7
100
AcDbLine
 10
1548.144967660723
 20
1688.350095447026
 30
0.0
 11
1532.642967660723
 21
1688.350095447026
 31
0.0
  0
LINE
  5
BBC
330
1F
100
AcDbEntity
  8
TEXT
  6
Continuous
 62
     7
100
AcDbLine
 10
1548.144967660723
 20
1694.350095447026
 30
0.0
 11
1532.642967660723
 21
1694.350095447026
 31
0.0
  0
CIRCLE
  5
BBD
330
1F
100
AcDbEntity
  8
TEXT
  6
Continuous
 62
     7
100
AcDbCircle
 10
1735.119967660722
 20
1691.350095447026
 30
0.0
 40
174.0
  0
CIRCLE
  5
BBE
330
1F
100
AcDbEntity
  8
TEXT
  6
Continuous
 62
     7
100
AcDbCircle
 10
1735.119967660722
 20
1691.350095447026
 30
0.0
 40
187.0
  0
CIRCLE
  5
BBF
330
1F
100
AcDbEntity
  8
TEXT
  6
Continuous
 62
     7
100
AcDbCircle
 10
1735.119967660722
 20
1691.350095447026
 30
0.0
 40
202.5
  0
ARC
  5
BC0
330
1F
100
AcDbEntity
  8
TEXT
  6
Continuous
 62
     7
100
AcDbCircle
 10
1735.119967660722
 20
1691.350095447026
 30
0.0
 40
194.0
100
AcDbArc
 50
150.8859999999797
 51
164.113999999997
  0
ARC
  5
BC1
330
1F
100
AcDbEntity
  8
TEXT
  6
Continuous
 62
     7
100
AcDbCircle
 10
1735.119967660722
 20
1691.350095447026
 30
0.0
 40
194.0
100
AcDbArc
 50
135.8860000001052
 51
149.1139999999797
  0
ARC
  5
BC2
330
1F
100
AcDbEntity
  8
TEXT
  6
Continuous
 62
     7
100
AcDbCircle
 10
1735.119967660722
 20
1691.350095447026
 30
0.0
 40
194.0
100
AcDbArc
 50
120.8860000000493
 51
134.1139999999684
  0
ARC
  5
BC3
330
1F
100
AcDbEntity
  8
TEXT
  6
Continuous
 62
     7
100
AcDbCircle
 10
1735.119967660722
 20
1691.350095447026
 30
0.0
 40
194.0
100
AcDbArc
 50
105.8859999998795
 51
119.1139999998975
  0
ARC
  5
BC4
330
1F
100
AcDbEntity
  8
TEXT
  6
Continuous
 62
     7
100
AcDbCircle
 10
1735.119967660722
 20
1691.350095447026
 30
0.0
 40
194.0
100
AcDbArc
 50
90.88600000001317
 51
104.1140000000029
  0
ARC
  5
BC5
330
1F
100
AcDbEntity
  8
TEXT
  6
Continuous
 62
     7
100
AcDbCircle
 10
1735.119967660722
 20
1691.350095447026
 30
0.0
 40
194.0
100
AcDbArc
 50
165.8860000000097
 51
179.1139999999868
  0
ARC
  5
BC6
330
1F
100
AcDbEntity
  8
TEXT
  6
Continuous
 62
     7
100
AcDbCircle
 10
1735.119967660722
 20
1691.350095447026
 30
0.0
 40
194.0
100
AcDbArc
 50
75.88599999999711
 51
89.11399999998684
  0
ARC
  5
BC7
330
1F
100
AcDbEntity
  8
TEXT
  6
Continuous
 62
     7
100
AcDbCircle
 10
1735.119967660722
 20
1691.350095447026
 30
0.0
 40
194.0
100
AcDbArc
 50
60.88600000010249
 51
74.1140000001205
  0
ARC
  5
BC8
330
1F
100
AcDbEntity
  8
TEXT
  6
Continuous
 62
     7
100
AcDbCircle
 10
1735.119967660722
 20
1691.350095447026
 30
0.0
 40
194.0
100
AcDbArc
 50
45.88600000003159
 51
59.11399999995065
  0
ARC
  5
BC9
330
1F
100
AcDbEntity
  8
TEXT
  6
Continuous
 62
     7
100
AcDbCircle
 10
1735.119967660722
 20
1691.350095447026
 30
0.0
 40
194.0
100
AcDbArc
 50
30.88600000002031
 51
44.11399999989472
  0
ARC
  5
BCA
330
1F
100
AcDbEntity
  8
TEXT
  6
Continuous
 62
     7
100
AcDbCircle
 10
1735.119967660722
 20
1691.350095447026
 30
0.0
 40
194.0
100
AcDbArc
 50
15.88600000000297
 51
29.11400000002025
  0
ARC
  5
BCB
330
1F
100
AcDbEntity
  8
TEXT
  6
Continuous
 62
     7
100
AcDbCircle
 10
1735.119967660722
 20
1691.350095447026
 30
0.0
 40
194.0
100
AcDbArc
 50
0.8859999999610728
 51
14.11399999999026
  0
ARC
  5
BCC
330
1F
100
AcDbEntity
  8
TEXT
  6
Continuous
 62
     7
100
AcDbCircle
 10
1735.119967660722
 20
1691.350095447026
 30
0.0
 40
194.0
100
AcDbArc
 50
345.8860000000097
 51
359.1139999999868
  0
ARC
  5
BCD
330
1F
100
AcDbEntity
  8
TEXT
  6
Continuous
 62
     7
100
AcDbCircle
 10
1735.119967660722
 20
1691.350095447026
 30
0.0
 40
194.0
100
AcDbArc
 50
255.8859999999971
 51
269.1139999999868
  0
ARC
  5
BCE
330
1F
100
AcDbEntity
  8
TEXT
  6
Continuous
 62
     7
100
AcDbCircle
 10
1735.119967660722
 20
1691.350095447026
 30
0.0
 40
194.0
100
AcDbArc
 50
270.8860000000132
 51
284.1140000000029
  0
ARC
  5
BCF
330
1F
100
AcDbEntity
  8
TEXT
  6
Continuous
 62
     7
100
AcDbCircle
 10
1735.119967660722
 20
1691.350095447026
 30
0.0
 40
194.0
100
AcDbArc
 50
285.8859999998795
 51
299.1139999998976
  0
ARC
  5
BD0
330
1F
100
AcDbEntity
  8
TEXT
  6
Continuous
 62
     7
100
AcDbCircle
 10
1735.119967660722
 20
1691.350095447026
 30
0.0
 40
194.0
100
AcDbArc
 50
300.8860000000493
 51
314.1139999999684
  0
ARC
  5
BD1
330
1F
100
AcDbEntity
  8
TEXT
  6
Continuous
 62
     7
100
AcDbCircle
 10
1735.119967660722
 20
1691.350095447026
 30
0.0
 40
194.0
100
AcDbArc
 50
315.8860000001052
 51
329.1139999999797
  0
ARC
  5
BD2
330
1F
100
AcDbEntity
  8
TEXT
  6
Continuous
 62
     7
100
AcDbCircle
 10
1735.119967660722
 20
1691.350095447026
 30
0.0
 40
194.0
100
AcDbArc
 50
330.8859999999797
 51
344.113999999997
  0
ARC
  5
BD3
330
1F
100
AcDbEntity
  8
TEXT
  6
Continuous
 62
     7
100
AcDbCircle
 10
1735.119967660722
 20
1691.350095447026
 30
0.0
 40
194.0
100
AcDbArc
 50
240.8860000001025
 51
254.1140000001205
  0
ARC
  5
BD4
330
1F
100
AcDbEntity
  8
TEXT
  6
Continuous
 62
     7
100
AcDbCircle
 10
1735.119967660722
 20
1691.350095447026
 30
0.0
 40
194.0
100
AcDbArc
 50
225.8860000000316
 51
239.1139999999506
  0
ARC
  5
BD5
330
1F
100
AcDbEntity
  8
TEXT
  6
Continuous
 62
     7
100
AcDbCircle
 10
1735.119967660722
 20
1691.350095447026
 30
0.0
 40
194.0
100
AcDbArc
 50
210.8860000000203
 51
224.1139999998947
  0
ARC
  5
BD6
330
1F
100
AcDbEntity
  8
TEXT
  6
Continuous
 62
     7
100
AcDbCircle
 10
1735.119967660722
 20
1691.350095447026
 30
0.0
 40
194.0
100
AcDbArc
 50
195.8860000000029
 51
209.1140000000202
  0
ARC
  5
BD7
330
1F
100
AcDbEntity
  8
TEXT
  6
Continuous
 62
     7
100
AcDbCircle
 10
1735.119967660722
 20
1691.350095447026
 30
0.0
 40
194.0
100
AcDbArc
 50
180.8859999999611
 51
194.1139999999902
  0
LINE
  5
BD8
330
1F
100
AcDbEntity
  8
AM_7
100
AcDbLine
 10
1735.119967660722
 20
1906.070095447027
 30
0.0
 11
1735.119967660722
 21
1478.977095447027
 31
0.0
  0
LINE
  5
BD9
330
1F
100
AcDbEntity
  8
TEXT
  6
Continuous
 62
     7
100
AcDbLine
 10
2160.292967660724
 20
1640.060095447027
 30
0.0
 11
2145.318967660723
 21
1636.047095447026
 31
0.0
  0
LINE
  5
BDA
330
1F
100
AcDbEntity
  8
TEXT
  6
Continuous
 62
     7
100
AcDbLine
 10
2158.738967660721
 20
1645.855095447026
 30
0.0
 11
2143.765967660723
 21
1641.843095447027
 31
0.0
  0
LINE
  5
BDB
330
1F
100
AcDbEntity
  8
TEXT
  6
Continuous
 62
     7
100
AcDbLine
 10
2179.694967660723
 20
1595.265095447027
 30
0.0
 11
2166.27096766072
 21
1587.514095447027
 31
0.0
  0
LINE
  5
BDC
330
1F
100
AcDbEntity
  8
TEXT
  6
Continuous
 62
     7
100
AcDbLine
 10
2176.693967660723
 20
1600.461095447027
 30
0.0
 11
2163.269967660724
 21
1592.710095447027
 31
0.0
  0
LINE
  5
BDD
330
1F
100
AcDbEntity
  8
TEXT
  6
Continuous
 62
     7
100
AcDbLine
 10
2210.029967660722
 20
1557.017095447027
 30
0.0
 11
2199.068967660723
 21
1546.056095447026
 31
0.0
  0
LINE
  5
BDE
330
1F
100
AcDbEntity
  8
TEXT
  6
Continuous
 62
     7
100
AcDbLine
 10
2205.786967660723
 20
1561.259095447026
 30
0.0
 11
2194.825967660721
 21
1550.298095447027
 31
0.0
  0
LINE
  5
BDF
330
1F
100
AcDbEntity
  8
TEXT
  6
Continuous
 62
     7
100
AcDbLine
 10
2249.230967660723
 20
1527.925095447027
 30
0.0
 11
2241.480967660723
 21
1514.500095447026
 31
0.0
  0
LINE
  5
BE0
330
1F
100
AcDbEntity
  8
TEXT
  6
Continuous
 62
     7
100
AcDbLine
 10
2244.033967660723
 20
1530.924095447027
 30
0.0
 11
2236.283967660723
 21
1517.500095447026
 31
0.0
  0
LINE
  5
BE1
330
1F
100
AcDbEntity
  8
TEXT
  6
Continuous
 62
     7
100
AcDbLine
 10
2294.624967660723
 20
1509.970095447027
 30
0.0
 11
2290.612967660724
 21
1494.997095447027
 31
0.0
  0
LINE
  5
BE2
330
1F
100
AcDbEntity
  8
TEXT
  6
Continuous
 62
     7
100
AcDbLine
 10
2288.828967660725
 20
1511.522095447027
 30
0.0
 11
2284.816967660722
 21
1496.548095447027
 31
0.0
  0
LINE
  5
BE3
330
1F
100
AcDbEntity
  8
TEXT
  6
Continuous
 62
     7
100
AcDbLine
 10
2343.119967660722
 20
1504.375095447026
 30
0.0
 11
2343.119967660722
 21
1488.874095447027
 31
0.0
  0
LINE
  5
BE4
330
1F
100
AcDbEntity
  8
TEXT
  6
Continuous
 62
     7
100
AcDbLine
 10
2337.119967660722
 20
1504.374095447027
 30
0.0
 11
2337.119967660722
 21
1488.873095447026
 31
0.0
  0
LINE
  5
BE5
330
1F
100
AcDbEntity
  8
TEXT
  6
Continuous
 62
     7
100
AcDbLine
 10
2391.41096766072
 20
1511.522095447027
 30
0.0
 11
2395.422967660722
 21
1496.549095447027
 31
0.0
  0
LINE
  5
BE6
330
1F
100
AcDbEntity
  8
TEXT
  6
Continuous
 62
     7
100
AcDbLine
 10
2385.615967660721
 20
1509.968095447027
 30
0.0
 11
2389.627967660723
 21
1494.995095447027
 31
0.0
  0
LINE
  5
BE7
330
1F
100
AcDbEntity
  8
TEXT
  6
Continuous
 62
     7
100
AcDbLine
 10
2436.205967660721
 20
1530.925095447027
 30
0.0
 11
2443.955967660722
 21
1517.500095447026
 31
0.0
  0
LINE
  5
BE8
330
1F
100
AcDbEntity
  8
TEXT
  6
Continuous
 62
     7
100
AcDbLine
 10
2431.010967660722
 20
1527.924095447027
 30
0.0
 11
2438.760967660722
 21
1514.499095447027
 31
0.0
  0
LINE
  5
BE9
330
1F
100
AcDbEntity
  8
TEXT
  6
Continuous
 62
     7
100
AcDbLine
 10
2474.452967660721
 20
1561.260095447026
 30
0.0
 11
2485.413967660724
 21
1550.299095447027
 31
0.0
  0
LINE
  5
BEA
330
1F
100
AcDbEntity
  8
TEXT
  6
Continuous
 62
     7
100
AcDbLine
 10
2470.210967660723
 20
1557.017095447027
 30
0.0
 11
2481.171967660722
 21
1546.056095447026
 31
0.0
  0
LINE
  5
BEB
330
1F
100
AcDbEntity
  8
TEXT
  6
Continuous
 62
     7
100
AcDbLine
 10
2503.545967660722
 20
1600.461095447027
 30
0.0
 11
2516.970967660725
 21
1592.710095447027
 31
0.0
  0
LINE
  5
BEC
330
1F
100
AcDbEntity
  8
TEXT
  6
Continuous
 62
     7
100
AcDbLine
 10
2500.545967660722
 20
1595.264095447027
 30
0.0
 11
2513.970967660725
 21
1587.514095447027
 31
0.0
  0
LINE
  5
BED
330
1F
100
AcDbEntity
  8
TEXT
  6
Continuous
 62
     7
100
AcDbLine
 10
2521.50196766072
 20
1645.856095447027
 30
0.0
 11
2536.475967660722
 21
1641.844095447027
 31
0.0
  0
LINE
  5
BEE
330
1F
100
AcDbEntity
  8
TEXT
  6
Continuous
 62
     7
100
AcDbLine
 10
2519.94896766072
 20
1640.060095447027
 30
0.0
 11
2534.922967660722
 21
1636.048095447027
 31
0.0
  0
LINE
  5
BEF
330
1F
100
AcDbEntity
  8
TEXT
  6
Continuous
 62
     7
100
AcDbLine
 10
2527.096967660722
 20
1694.351095447026
 30
0.0
 11
2542.598967660722
 21
1694.351095447026
 31
0.0
  0
LINE
  5
BF0
330
1F
100
AcDbEntity
  8
TEXT
  6
Continuous
 62
     7
100
AcDbLine
 10
2527.096967660722
 20
1688.351095447027
 30
0.0
 11
2542.598967660722
 21
1688.351095447027
 31
0.0
  0
LINE
  5
BF1
330
1F
100
AcDbEntity
  8
TEXT
  6
Continuous
 62
     7
100
AcDbLine
 10
2519.94896766072
 20
1742.642095447027
 30
0.0
 11
2534.922967660722
 21
1746.654095447026
 31
0.0
  0
LINE
  5
BF2
330
1F
100
AcDbEntity
  8
TEXT
  6
Continuous
 62
     7
100
AcDbLine
 10
2521.50196766072
 20
1736.846095447026
 30
0.0
 11
2536.475967660722
 21
1740.858095447026
 31
0.0
  0
LINE
  5
BF3
330
1F
100
AcDbEntity
  8
TEXT
  6
Continuous
 62
     7
100
AcDbLine
 10
2500.546967660722
 20
1787.437095447026
 30
0.0
 11
2513.971967660721
 21
1795.188095447026
 31
0.0
  0
LINE
  5
BF4
330
1F
100
AcDbEntity
  8
TEXT
  6
Continuous
 62
     7
100
AcDbLine
 10
2503.546967660722
 20
1782.240095447027
 30
0.0
 11
2516.971967660721
 21
1789.992095447026
 31
0.0
  0
LINE
  5
BF5
330
1F
100
AcDbEntity
  8
TEXT
  6
Continuous
 62
     7
100
AcDbLine
 10
2470.211967660723
 20
1825.684095447027
 30
0.0
 11
2481.172967660722
 21
1836.646095447026
 31
0.0
  0
LINE
  5
BF6
330
1F
100
AcDbEntity
  8
TEXT
  6
Continuous
 62
     7
100
AcDbLine
 10
2474.453967660725
 20
1821.441095447027
 30
0.0
 11
2485.41496766072
 21
1832.403095447026
 31
0.0
  0
LINE
  5
BF7
330
1F
100
AcDbEntity
  8
TEXT
  6
Continuous
 62
     7
100
AcDbLine
 10
2431.010967660722
 20
1854.777095447026
 30
0.0
 11
2438.760967660722
 21
1868.203095447026
 31
0.0
  0
LINE
  5
BF8
330
1F
100
AcDbEntity
  8
TEXT
  6
Continuous
 62
     7
100
AcDbLine
 10
2436.205967660721
 20
1851.777095447026
 30
0.0
 11
2443.955967660722
 21
1865.202095447027
 31
0.0
  0
LINE
  5
BF9
330
1F
100
AcDbEntity
  8
TEXT
  6
Continuous
 62
     7
100
AcDbLine
 10
2385.614967660725
 20
1872.733095447026
 30
0.0
 11
2389.62696766072
 21
1887.706095447026
 31
0.0
  0
LINE
  5
BFA
330
1F
100
AcDbEntity
  8
TEXT
  6
Continuous
 62
     7
100
AcDbLine
 10
2391.409967660723
 20
1871.179095447026
 30
0.0
 11
2395.421967660722
 21
1886.153095447026
 31
0.0
  0
LINE
  5
BFB
330
1F
100
AcDbEntity
  8
TEXT
  6
Continuous
 62
     7
100
AcDbLine
 10
2337.119967660722
 20
1878.328095447026
 30
0.0
 11
2337.119967660722
 21
1893.829095447027
 31
0.0
  0
LINE
  5
BFC
330
1F
100
AcDbEntity
  8
TEXT
  6
Continuous
 62
     7
100
AcDbLine
 10
2343.119967660722
 20
1878.327095447027
 30
0.0
 11
2343.119967660722
 21
1893.828095447026
 31
0.0
  0
LINE
  5
BFD
330
1F
100
AcDbEntity
  8
TEXT
  6
Continuous
 62
     7
100
AcDbLine
 10
2288.828967660725
 20
1871.181095447026
 30
0.0
 11
2284.816967660722
 21
1886.154095447026
 31
0.0
  0
LINE
  5
BFE
330
1F
100
AcDbEntity
  8
TEXT
  6
Continuous
 62
     7
100
AcDbLine
 10
2294.624967660723
 20
1872.733095447026
 30
0.0
 11
2290.612967660724
 21
1887.706095447026
 31
0.0
  0
LINE
  5
BFF
330
1F
100
AcDbEntity
  8
TEXT
  6
Continuous
 62
     7
100
AcDbLine
 10
2244.032967660723
 20
1851.777095447026
 30
0.0
 11
2236.282967660723
 21
1865.202095447027
 31
0.0
  0
LINE
  5
C00
330
1F
100
AcDbEntity
  8
TEXT
  6
Continuous
 62
     7
100
AcDbLine
 10
2249.229967660723
 20
1854.777095447026
 30
0.0
 11
2241.479967660723
 21
1868.202095447027
 31
0.0
  0
LINE
  5
C01
330
1F
100
AcDbEntity
  8
TEXT
  6
Continuous
 62
     7
100
AcDbLine
 10
2205.78596766072
 20
1821.442095447027
 30
0.0
 11
2194.824967660724
 21
1832.403095447026
 31
0.0
  0
LINE
  5
C02
330
1F
100
AcDbEntity
  8
TEXT
  6
Continuous
 62
     7
100
AcDbLine
 10
2210.028967660722
 20
1825.684095447027
 30
0.0
 11
2199.067967660722
 21
1836.645095447027
 31
0.0
  0
LINE
  5
C03
330
1F
100
AcDbEntity
  8
TEXT
  6
Continuous
 62
     7
100
AcDbLine
 10
2176.692967660722
 20
1782.241095447026
 30
0.0
 11
2163.268967660719
 21
1789.992095447026
 31
0.0
  0
LINE
  5
C04
330
1F
100
AcDbEntity
  8
TEXT
  6
Continuous
 62
     7
100
AcDbLine
 10
2179.693967660723
 20
1787.437095447026
 30
0.0
 11
2166.269967660724
 21
1795.187095447026
 31
0.0
  0
LINE
  5
C05
330
1F
100
AcDbEntity
  8
TEXT
  6
Continuous
 62
     7
100
AcDbLine
 10
2158.736967660721
 20
1736.846095447026
 30
0.0
 11
2143.763967660722
 21
1740.858095447026
 31
0.0
  0
LINE
  5
C06
330
1F
100
AcDbEntity
  8
TEXT
  6
Continuous
 62
     7
100
AcDbLine
 10
2160.290967660724
 20
1742.642095447027
 30
0.0
 11
2145.316967660722
 21
1746.654095447026
 31
0.0
  0
LINE
  5
C07
330
1F
100
AcDbEntity
  8
TEXT
  6
Continuous
 62
     7
100
AcDbLine
 10
2153.144967660724
 20
1688.350095447026
 30
0.0
 11
2137.642967660723
 21
1688.350095447026
 31
0.0
  0
LINE
  5
C08
330
1F
100
AcDbEntity
  8
TEXT
  6
Continuous
 62
     7
100
AcDbLine
 10
2153.144967660724
 20
1694.350095447026
 30
0.0
 11
2137.642967660723
 21
1694.350095447026
 31
0.0
  0
CIRCLE
  5
C09
330
1F
100
AcDbEntity
  8
TEXT
  6
Continuous
 62
     7
100
AcDbCircle
 10
2340.119967660722
 20
1691.350095447026
 30
0.0
 40
174.0
  0
CIRCLE
  5
C0A
330
1F
100
AcDbEntity
  8
TEXT
  6
Continuous
 62
     7
100
AcDbCircle
 10
2340.119967660722
 20
1691.350095447026
 30
0.0
 40
187.0
  0
CIRCLE
  5
C0B
330
1F
100
AcDbEntity
  8
TEXT
  6
Continuous
 62
     7
100
AcDbCircle
 10
2340.119967660722
 20
1691.350095447026
 30
0.0
 40
202.5
  0
ARC
  5
C0C
330
1F
100
AcDbEntity
  8
TEXT
  6
Continuous
 62
     7
100
AcDbCircle
 10
2340.119967660722
 20
1691.350095447026
 30
0.0
 40
194.0
100
AcDbArc
 50
150.8859999999797
 51
164.113999999997
  0
ARC
  5
C0D
330
1F
100
AcDbEntity
  8
TEXT
  6
Continuous
 62
     7
100
AcDbCircle
 10
2340.119967660722
 20
1691.350095447026
 30
0.0
 40
194.0
100
AcDbArc
 50
135.8860000001052
 51
149.1139999999797
  0
ARC
  5
C0E
330
1F
100
AcDbEntity
  8
TEXT
  6
Continuous
 62
     7
100
AcDbCircle
 10
2340.119967660722
 20
1691.350095447026
 30
0.0
 40
194.0
100
AcDbArc
 50
120.8860000000493
 51
134.1139999999684
  0
ARC
  5
C0F
330
1F
100
AcDbEntity
  8
TEXT
  6
Continuous
 62
     7
100
AcDbCircle
 10
2340.119967660722
 20
1691.350095447026
 30
0.0
 40
194.0
100
AcDbArc
 50
105.8859999998795
 51
119.1139999998975
  0
ARC
  5
C10
330
1F
100
AcDbEntity
  8
TEXT
  6
Continuous
 62
     7
100
AcDbCircle
 10
2340.119967660722
 20
1691.350095447026
 30
0.0
 40
194.0
100
AcDbArc
 50
90.88600000001317
 51
104.1140000000029
  0
ARC
  5
C11
330
1F
100
AcDbEntity
  8
TEXT
  6
Continuous
 62
     7
100
AcDbCircle
 10
2340.119967660722
 20
1691.350095447026
 30
0.0
 40
194.0
100
AcDbArc
 50
165.8860000000097
 51
179.1139999999868
  0
ARC
  5
C12
330
1F
100
AcDbEntity
  8
TEXT
  6
Continuous
 62
     7
100
AcDbCircle
 10
2340.119967660722
 20
1691.350095447026
 30
0.0
 40
194.0
100
AcDbArc
 50
75.88599999999711
 51
89.11399999998684
  0
ARC
  5
C13
330
1F
100
AcDbEntity
  8
TEXT
  6
Continuous
 62
     7
100
AcDbCircle
 10
2340.119967660722
 20
1691.350095447026
 30
0.0
 40
194.0
100
AcDbArc
 50
60.88600000010249
 51
74.1140000001205
  0
ARC
  5
C14
330
1F
100
AcDbEntity
  8
TEXT
  6
Continuous
 62
     7
100
AcDbCircle
 10
2340.119967660722
 20
1691.350095447026
 30
0.0
 40
194.0
100
AcDbArc
 50
45.88600000003159
 51
59.11399999995065
  0
ARC
  5
C15
330
1F
100
AcDbEntity
  8
TEXT
  6
Continuous
 62
     7
100
AcDbCircle
 10
2340.119967660722
 20
1691.350095447026
 30
0.0
 40
194.0
100
AcDbArc
 50
30.88600000002031
 51
44.11399999989472
  0
ARC
  5
C16
330
1F
100
AcDbEntity
  8
TEXT
  6
Continuous
 62
     7
100
AcDbCircle
 10
2340.119967660722
 20
1691.350095447026
 30
0.0
 40
194.0
100
AcDbArc
 50
15.88600000000297
 51
29.11400000002025
  0
ARC
  5
C17
330
1F
100
AcDbEntity
  8
TEXT
  6
Continuous
 62
     7
100
AcDbCircle
 10
2340.119967660722
 20
1691.350095447026
 30
0.0
 40
194.0
100
AcDbArc
 50
0.8859999999610728
 51
14.11399999999026
  0
ARC
  5
C18
330
1F
100
AcDbEntity
  8
TEXT
  6
Continuous
 62
     7
100
AcDbCircle
 10
2340.119967660722
 20
1691.350095447026
 30
0.0
 40
194.0
100
AcDbArc
 50
345.8860000000097
 51
359.1139999999868
  0
ARC
  5
C19
330
1F
100
AcDbEntity
  8
TEXT
  6
Continuous
 62
     7
100
AcDbCircle
 10
2340.119967660722
 20
1691.350095447026
 30
0.0
 40
194.0
100
AcDbArc
 50
255.8859999999971
 51
269.1139999999868
  0
ARC
  5
C1A
330
1F
100
AcDbEntity
  8
TEXT
  6
Continuous
 62
     7
100
AcDbCircle
 10
2340.119967660722
 20
1691.350095447026
 30
0.0
 40
194.0
100
AcDbArc
 50
270.8860000000132
 51
284.1140000000029
  0
ARC
  5
C1B
330
1F
100
AcDbEntity
  8
TEXT
  6
Continuous
 62
     7
100
AcDbCircle
 10
2340.119967660722
 20
1691.350095447026
 30
0.0
 40
194.0
100
AcDbArc
 50
285.8859999998795
 51
299.1139999998976
  0
ARC
  5
C1C
330
1F
100
AcDbEntity
  8
TEXT
  6
Continuous
 62
     7
100
AcDbCircle
 10
2340.119967660722
 20
1691.350095447026
 30
0.0
 40
194.0
100
AcDbArc
 50
300.8860000000493
 51
314.1139999999684
  0
ARC
  5
C1D
330
1F
100
AcDbEntity
  8
TEXT
  6
Continuous
 62
     7
100
AcDbCircle
 10
2340.119967660722
 20
1691.350095447026
 30
0.0
 40
194.0
100
AcDbArc
 50
315.8860000001052
 51
329.1139999999797
  0
ARC
  5
C1E
330
1F
100
AcDbEntity
  8
TEXT
  6
Continuous
 62
     7
100
AcDbCircle
 10
2340.119967660722
 20
1691.350095447026
 30
0.0
 40
194.0
100
AcDbArc
 50
330.8859999999797
 51
344.113999999997
  0
ARC
  5
C1F
330
1F
100
AcDbEntity
  8
TEXT
  6
Continuous
 62
     7
100
AcDbCircle
 10
2340.119967660722
 20
1691.350095447026
 30
0.0
 40
194.0
100
AcDbArc
 50
240.8860000001025
 51
254.1140000001205
  0
ARC
  5
C20
330
1F
100
AcDbEntity
  8
TEXT
  6
Continuous
 62
     7
100
AcDbCircle
 10
2340.119967660722
 20
1691.350095447026
 30
0.0
 40
194.0
100
AcDbArc
 50
225.8860000000316
 51
239.1139999999506
  0
ARC
  5
C21
330
1F
100
AcDbEntity
  8
TEXT
  6
Continuous
 62
     7
100
AcDbCircle
 10
2340.119967660722
 20
1691.350095447026
 30
0.0
 40
194.0
100
AcDbArc
 50
210.8860000000203
 51
224.1139999998947
  0
ARC
  5
C22
330
1F
100
AcDbEntity
  8
TEXT
  6
Continuous
 62
     7
100
AcDbCircle
 10
2340.119967660722
 20
1691.350095447026
 30
0.0
 40
194.0
100
AcDbArc
 50
195.8860000000029
 51
209.1140000000202
  0
ARC
  5
C23
330
1F
100
AcDbEntity
  8
TEXT
  6
Continuous
 62
     7
100
AcDbCircle
 10
2340.119967660722
 20
1691.350095447026
 30
0.0
 40
194.0
100
AcDbArc
 50
180.8859999999611
 51
194.1139999999902
  0
LINE
  5
C24
330
1F
100
AcDbEntity
  8
AM_7
100
AcDbLine
 10
2340.119967660722
 20
1906.070095447027
 30
0.0
 11
2340.119967660722
 21
1478.977095447027
 31
0.0
  0
LINE
  5
C25
330
1F
100
AcDbEntity
  8
AM_7
100
AcDbLine
 10
1345.729967660722
 20
1691.350095447026
 30
0.0
 11
2765.229967660723
 21
1691.350095447025
 31
0.0
1001
GENIUS_GENOBJ-N-CEN_13
1002
{
1000
OWNER
1000
GEN
1002
}
1001
GENIUS_GENODEF_13
1002
{
1000
HIER
1070
     0
1002
}
1002
{
1000
MANEDIT
1070
     0
1002
}
1002
{
1000
NOSEL
1070
     0
1002
}
1002
{
1000
BEHIND
1070
     0
1002
}
1002
{
1000
OTHER
1070
     0
1002
}
1002
{
1000
REACTOR
1002
}
1001
GENIUS_GENCEN_19
1002
{
1040
30.0
1002
}
  0
LINE
  5
C26
330
1F
100
AcDbEntity
  8
0
100
AcDbLine
 10
1995.96426470572
 20
4235.877553762945
 30
0.0
 11
1995.948815519722
 21
4235.865253645445
 31
0.0
  0
LINE
  5
C27
330
1F
100
AcDbEntity
  8
0
100
AcDbLine
 10
1997.265156240924
 20
4244.209101697742
 30
0.0
 11
1995.881714997221
 21
4243.220761235944
 31
0.0
  0
LINE
  5
C28
330
1F
100
AcDbEntity
  8
0
100
AcDbLine
 10
1997.34930420122
 20
4241.869217769944
 30
0.0
 11
1995.881715098222
 21
4240.820761463445
 31
0.0
  0
LINE
  5
C29
330
1F
100
AcDbEntity
  8
0
100
AcDbLine
 10
1997.349304267221
 20
4239.469216314445
 30
0.0
 11
1995.88171516722
 21
4238.420760007444
 31
0.0
  0
LINE
  5
C2A
330
1F
100
AcDbEntity
  8
0
100
AcDbLine
 10
1997.349304112723
 20
4237.069216980444
 30
0.0
 11
1995.88171500672
 21
4236.020760675445
 31
0.0
  0
LINE
  5
C2B
330
1F
100
AcDbEntity
  8
0
100
AcDbLine
 10
1995.991302236719
 20
4240.685653763445
 30
0.0
 11
1995.948815607219
 21
4240.665254418944
 31
0.0
  0
LINE
  5
C2C
330
1F
100
AcDbEntity
  8
0
100
AcDbLine
 10
2054.14849900522
 20
4243.261412602945
 30
0.0
 11
2055.475037875099
 21
4244.209101697743
 31
0.0
  0
LINE
  5
C2D
330
1F
100
AcDbEntity
  8
0
100
AcDbLine
 10
2054.14849906672
 20
4240.861414366944
 30
0.0
 11
2055.615638706223
 21
4241.909549680945
 31
0.0
  0
LINE
  5
C2E
330
1F
100
AcDbEntity
  8
0
100
AcDbLine
 10
2054.148498936721
 20
4238.461413257444
 30
0.0
 11
2055.615638570221
 21
4239.509548571445
 31
0.0
  0
LINE
  5
C2F
330
1F
100
AcDbEntity
  8
0
100
AcDbLine
 10
2054.073769617721
 20
4236.008043515444
 30
0.0
 11
2055.544018389724
 21
4237.058399063944
 31
0.0
  0
LINE
  5
C30
330
1F
100
AcDbEntity
  8
0
100
AcDbLine
 10
1995.953612476221
 20
4243.272107933944
 30
0.0
 11
1995.948815508721
 21
4243.265254202944
 31
0.0
  0
LINE
  5
C31
330
1F
100
AcDbEntity
  8
0
100
AcDbLine
 10
1995.95361258922
 20
4240.872108169944
 30
0.0
 11
1995.948815607219
 21
4240.865254418944
 31
0.0
  0
LINE
  5
C32
330
1F
100
AcDbEntity
  8
0
100
AcDbLine
 10
1995.953612666221
 20
4238.472106719444
 30
0.0
 11
1995.948815685221
 21
4238.465252969445
 31
0.0
  0
LINE
  5
C33
330
1F
100
AcDbEntity
  8
0
100
AcDbLine
 10
1995.953612484723
 20
4236.072107372444
 30
0.0
 11
1995.948815519722
 21
4236.065253645445
 31
0.0
  0
LINE
  5
C34
330
1F
100
AcDbEntity
  8
0
100
AcDbLine
 10
2055.548815464722
 20
4241.865254755944
 30
0.0
 11
2055.544018488222
 21
4241.858401012444
 31
0.0
  0
LINE
  5
C35
330
1F
100
AcDbEntity
  8
0
100
AcDbLine
 10
2055.548815348721
 20
4239.465253665444
 30
0.0
 11
2055.544018365222
 21
4239.458399912444
 31
0.0
  0
LINE
  5
C36
330
1F
100
AcDbEntity
  8
0
100
AcDbLine
 10
2055.548815364721
 20
4237.065252804944
 30
0.0
 11
2055.544018389724
 21
4237.058399063944
 31
0.0
  0
LINE
  5
C37
330
1F
100
AcDbEntity
  8
0
100
AcDbLine
 10
1995.948815607219
 20
4240.865254418944
 30
0.0
 11
1995.948815607219
 21
4240.665254418944
 31
0.0
  0
LINE
  5
C38
330
1F
100
AcDbEntity
  8
0
100
AcDbLine
 10
1995.948815519722
 20
4236.065253645445
 30
0.0
 11
1995.948815519722
 21
4235.865253645445
 31
0.0
  0
LINE
  5
C39
330
1F
100
AcDbEntity
  8
0
100
AcDbLine
 10
1995.948815685221
 20
4238.465252969445
 30
0.0
 11
1995.948815685221
 21
4238.265252969443
 31
0.0
  0
LINE
  5
C3A
330
1F
100
AcDbEntity
  8
0
100
AcDbLine
 10
2054.078815505721
 20
4234.715253762945
 30
0.0
 11
2054.078815505721
 21
4236.015252804944
 31
0.0
  0
LINE
  5
C3B
330
1F
100
AcDbEntity
  8
0
100
AcDbLine
 10
2054.078815505721
 20
4238.322462094443
 30
0.0
 11
2054.078815505721
 21
4240.722462967944
 31
0.0
  0
LINE
  5
C3C
330
1F
100
AcDbEntity
  8
0
100
AcDbLine
 10
2055.548815348721
 20
4239.465253665444
 30
0.0
 11
2055.548815348721
 21
4239.665253665445
 31
0.0
  0
LINE
  5
C3D
330
1F
100
AcDbEntity
  8
0
100
AcDbLine
 10
1995.948815519722
 20
4235.865253645445
 30
0.0
 11
1995.953612484723
 21
4235.858399918444
 31
0.0
  0
LINE
  5
C3E
330
1F
100
AcDbEntity
  8
0
100
AcDbLine
 10
1995.948815685221
 20
4238.265252969443
 30
0.0
 11
1995.953612666221
 21
4238.258399219944
 31
0.0
  0
LINE
  5
C3F
330
1F
100
AcDbEntity
  8
0
100
AcDbLine
 10
1995.948815607219
 20
4240.665254418944
 30
0.0
 11
1995.95361258922
 21
4240.658400667944
 31
0.0
  0
LINE
  5
C40
330
1F
100
AcDbEntity
  8
0
100
AcDbLine
 10
1995.948815508721
 20
4243.065254202944
 30
0.0
 11
1995.953612476221
 21
4243.058400472444
 31
0.0
  0
LINE
  5
C41
330
1F
100
AcDbEntity
  8
0
100
AcDbLine
 10
2055.544018389724
 20
4237.272106545943
 30
0.0
 11
2055.548815364721
 21
4237.265252804944
 31
0.0
  0
LINE
  5
C42
330
1F
100
AcDbEntity
  8
0
100
AcDbLine
 10
2055.544018365222
 20
4239.672107418944
 30
0.0
 11
2055.548815348721
 21
4239.665253665445
 31
0.0
  0
LINE
  5
C43
330
1F
100
AcDbEntity
  8
0
100
AcDbLine
 10
2055.544018488222
 20
4242.072108499944
 30
0.0
 11
2055.548815464722
 21
4242.065254755945
 31
0.0
  0
LINE
  5
C44
330
1F
100
AcDbEntity
  8
0
100
AcDbLine
 10
1995.881992259224
 20
4235.909548592444
 30
0.0
 11
1997.349131899719
 21
4234.861413279444
 31
0.0
  0
LINE
  5
C45
330
1F
100
AcDbEntity
  8
0
100
AcDbLine
 10
1995.88199246322
 20
4238.309547877944
 30
0.0
 11
1997.34913209522
 21
4237.261412564444
 31
0.0
  0
LINE
  5
C46
330
1F
100
AcDbEntity
  8
0
100
AcDbLine
 10
1995.881992378721
 20
4240.709549330944
 30
0.0
 11
1997.349132015221
 21
4239.661414016944
 31
0.0
  0
LINE
  5
C47
330
1F
100
AcDbEntity
  8
0
100
AcDbLine
 10
1995.881992252719
 20
4243.109549144445
 30
0.0
 11
1997.349131894219
 21
4242.061413830944
 31
0.0
  0
LINE
  5
C48
330
1F
100
AcDbEntity
  8
0
100
AcDbLine
 10
2055.615915883221
 20
4237.220759837945
 30
0.0
 11
2054.14832678222
 21
4238.269216143944
 31
0.0
  0
LINE
  5
C49
330
1F
100
AcDbEntity
  8
0
100
AcDbLine
 10
2055.615915862721
 20
4239.620760707944
 30
0.0
 11
2054.148326761723
 21
4240.669217014945
 31
0.0
  0
LINE
  5
C4A
330
1F
100
AcDbEntity
  8
0
100
AcDbLine
 10
2055.61591597222
 20
4242.020761798444
 30
0.0
 11
2054.148326866723
 21
4243.069218104444
 31
0.0
  0
LINE
  5
C4B
330
1F
100
AcDbEntity
  8
0
100
AcDbLine
 10
2054.078815371723
 20
4238.315252804944
 30
0.0
 11
2053.875321557223
 21
4238.269442952445
 31
0.0
  0
LINE
  5
C4C
330
1F
100
AcDbEntity
  8
0
100
AcDbLine
 10
2054.073769617721
 20
4236.008043515444
 30
0.0
 11
2053.875321557223
 21
4235.969442952444
 31
0.0
  0
LINE
  5
C4D
330
1F
100
AcDbEntity
  8
0
100
AcDbLine
 10
2055.548815464722
 20
4242.065254755945
 30
0.0
 11
2055.248202615222
 21
4242.010953763444
 31
0.0
  0
LINE
  5
C4E
330
1F
100
AcDbEntity
  8
0
100
AcDbLine
 10
2054.078815356222
 20
4240.715253665444
 30
0.0
 11
2053.716973420223
 21
4240.654138898444
 31
0.0
  0
LINE
  5
C4F
330
1F
100
AcDbEntity
  8
0
100
AcDbLine
 10
2055.544018488222
 20
4241.858401012444
 30
0.0
 11
2055.248202615222
 21
4241.810953763444
 31
0.0
  0
LINE
  5
C50
330
1F
100
AcDbEntity
  8
0
100
AcDbLine
 10
2055.548815364721
 20
4237.265252804944
 30
0.0
 11
2055.15206847372
 21
4237.202853762944
 31
0.0
  0
POLYLINE
  5
C51
330
1F
100
AcDbEntity
  8
0
100
AcDb2dPolyline
 66
     1
 10
0.0
 20
0.0
 30
0.0
  0
VERTEX
  5
C52
330
C51
100
AcDbEntity
  8
0
100
AcDbVertex
100
AcDb2dVertex
 10
2054.073769593721
 20
4238.408044363445
 30
0.0
  0
VERTEX
  5
C53
330
C51
100
AcDbEntity
  8
0
100
AcDbVertex
100
AcDb2dVertex
 10
2053.716973420223
 20
4238.354138898444
 30
0.0
  0
VERTEX
  5
C54
330
C51
100
AcDbEntity
  8
0
100
AcDbVertex
100
AcDb2dVertex
 10
2051.482808434224
 20
4238.250456465944
 30
0.0
  0
SEQEND
  5
C55
330
C51
100
AcDbEntity
  8
0
  0
LINE
  5
C56
330
1F
100
AcDbEntity
  8
0
100
AcDbLine
 10
1996.412914436719
 20
4238.332753763444
 30
0.0
 11
1995.948815685221
 21
4238.265252969443
 31
0.0
  0
LINE
  5
C57
330
1F
100
AcDbEntity
  8
0
100
AcDbLine
 10
2055.544018389724
 20
4237.058399063944
 30
0.0
 11
2055.15206847372
 21
4237.002853762944
 31
0.0
  0
LINE
  5
C58
330
1F
100
AcDbEntity
  8
0
100
AcDbLine
 10
2054.078815466722
 20
4243.115254755944
 30
0.0
 11
2053.51372524272
 21
4243.038834844445
 31
0.0
  0
LINE
  5
C59
330
1F
100
AcDbEntity
  8
0
100
AcDbLine
 10
1996.412914436719
 20
4238.532753763443
 30
0.0
 11
1995.953612666221
 21
4238.472106719444
 31
0.0
  0
LINE
  5
C5A
330
1F
100
AcDbEntity
  8
0
100
AcDbLine
 10
1996.530576738719
 20
4243.140853762944
 30
0.0
 11
1995.948815508721
 21
4243.065254202944
 31
0.0
  0
LINE
  5
C5B
330
1F
100
AcDbEntity
  8
0
100
AcDbLine
 10
2054.073769711221
 20
4240.808045463444
 30
0.0
 11
2053.51372524272
 21
4240.738834844445
 31
0.0
  0
LINE
  5
C5C
330
1F
100
AcDbEntity
  8
0
100
AcDbLine
 10
1998.14640382522
 20
4239.702010520445
 30
0.0
 11
1997.418815602222
 21
4239.615254418945
 31
0.0
  0
LINE
  5
C5D
330
1F
100
AcDbEntity
  8
0
100
AcDbLine
 10
1996.530576738719
 20
4243.340853762943
 30
0.0
 11
1995.953612476221
 21
4243.272107933944
 31
0.0
  0
LINE
  5
C5E
330
1F
100
AcDbEntity
  8
0
100
AcDbLine
 10
1998.14640382522
 20
4242.002010520445
 30
0.0
 11
1997.423861363722
 21
4241.922463718943
 31
0.0
  0
POLYLINE
  5
C5F
330
1F
100
AcDbEntity
  8
0
100
AcDb2dPolyline
 66
     1
 10
0.0
 20
0.0
 30
0.0
  0
VERTEX
  5
C60
330
C5F
100
AcDbEntity
  8
0
100
AcDbVertex
100
AcDb2dVertex
 10
2054.073769657721
 20
4243.208043705444
 30
0.0
  0
VERTEX
  5
C61
330
C5F
100
AcDbEntity
  8
0
100
AcDbVertex
100
AcDb2dVertex
 10
2053.265143739221
 20
4243.123484752944
 30
0.0
  0
VERTEX
  5
C62
330
C5F
100
AcDbEntity
  8
0
100
AcDbVertex
100
AcDb2dVertex
 10
2050.450512034721
 20
4243.019808896945
 30
0.0
  0
VERTEX
  5
C63
330
C5F
100
AcDbEntity
  8
0
100
AcDbVertex
100
AcDb2dVertex
 10
2045.827240217223
 20
4242.916133041444
 30
0.0
  0
VERTEX
  5
C64
330
C5F
100
AcDbEntity
  8
0
100
AcDbVertex
100
AcDb2dVertex
 10
2039.733840364222
 20
4242.812457185944
 30
0.0
  0
VERTEX
  5
C65
330
C5F
100
AcDbEntity
  8
0
100
AcDbVertex
100
AcDb2dVertex
 10
2032.61646641572
 20
4242.708781329944
 30
0.0
  0
VERTEX
  5
C66
330
C5F
100
AcDbEntity
  8
0
100
AcDbVertex
100
AcDb2dVertex
 10
2024.996247180721
 20
4242.605105474445
 30
0.0
  0
VERTEX
  5
C67
330
C5F
100
AcDbEntity
  8
0
100
AcDbVertex
100
AcDb2dVertex
 10
2017.431129707723
 20
4242.501429618444
 30
0.0
  0
VERTEX
  5
C68
330
C5F
100
AcDbEntity
  8
0
100
AcDbVertex
100
AcDb2dVertex
 10
2010.47502681772
 20
4242.397753762944
 30
0.0
  0
SEQEND
  5
C69
330
C5F
100
AcDbEntity
  8
0
  0
LINE
  5
C6A
330
1F
100
AcDbEntity
  8
0
100
AcDbLine
 10
1998.424109132721
 20
4237.317314574443
 30
0.0
 11
1997.41881567672
 21
4237.215252969445
 31
0.0
  0
LINE
  5
C6B
330
1F
100
AcDbEntity
  8
0
100
AcDbLine
 10
1998.424109132721
 20
4239.617314574444
 30
0.0
 11
1997.423861436721
 21
4239.522462268444
 31
0.0
  0
LINE
  5
C6C
330
1F
100
AcDbEntity
  8
0
100
AcDbLine
 10
2055.002235109038
 20
4244.209101697743
 30
0.0
 11
2054.504957382219
 21
4244.163853762944
 31
0.0
  0
LINE
  5
C6D
330
1F
100
AcDbEntity
  8
0
100
AcDbLine
 10
2055.548815348721
 20
4239.665253665445
 30
0.0
 11
2054.332701646222
 21
4239.555753763443
 31
0.0
  0
LINE
  5
C6E
330
1F
100
AcDbEntity
  8
0
100
AcDbLine
 10
2055.544018365222
 20
4239.458399912444
 30
0.0
 11
2054.332701646222
 21
4239.355753763444
 31
0.0
  0
LINE
  5
C6F
330
1F
100
AcDbEntity
  8
0
100
AcDbLine
 10
1998.745636894223
 20
4237.232618627944
 30
0.0
 11
1997.42386126272
 21
4237.122462919944
 31
0.0
  0
LINE
  5
C70
330
1F
100
AcDbEntity
  8
0
100
AcDbLine
 10
1997.279988621719
 20
4236.179853762944
 30
0.0
 11
1995.953612484723
 21
4236.072107372444
 31
0.0
  0
LINE
  5
C71
330
1F
100
AcDbEntity
  8
0
100
AcDbLine
 10
1997.279988621719
 20
4235.979853762945
 30
0.0
 11
1995.96426470572
 21
4235.877553762945
 31
0.0
  0
LINE
  5
C72
330
1F
100
AcDbEntity
  8
0
100
AcDbLine
 10
1997.47311376072
 20
4240.787953763444
 30
0.0
 11
1995.991302236719
 21
4240.685653763445
 31
0.0
  0
POLYLINE
  5
C73
330
1F
100
AcDbEntity
  8
0
100
AcDb2dPolyline
 66
     1
 10
0.0
 20
0.0
 30
0.0
  0
VERTEX
  5
C74
330
C73
100
AcDbEntity
  8
0
100
AcDbVertex
100
AcDb2dVertex
 10
1997.47311376072
 20
4240.987953763444
 30
0.0
  0
VERTEX
  5
C75
330
C73
100
AcDbEntity
  8
0
100
AcDbVertex
100
AcDb2dVertex
 10
1995.991302236719
 20
4240.885653763444
 30
0.0
  0
VERTEX
  5
C76
330
C73
100
AcDbEntity
  8
0
100
AcDbVertex
100
AcDb2dVertex
 10
1995.95361258922
 20
4240.872108169944
 30
0.0
  0
SEQEND
  5
C77
330
C73
100
AcDbEntity
  8
0
  0
POLYLINE
  5
C78
330
1F
100
AcDbEntity
  8
0
100
AcDb2dPolyline
 66
     1
 10
0.0
 20
0.0
 30
0.0
  0
VERTEX
  5
C79
330
C78
100
AcDbEntity
  8
0
100
AcDbVertex
100
AcDb2dVertex
 10
2053.875321557223
 20
4235.969442952444
 30
0.0
  0
VERTEX
  5
C7A
330
C78
100
AcDbEntity
  8
0
100
AcDbVertex
100
AcDb2dVertex
 10
2051.936708633221
 20
4235.865760519944
 30
0.0
  0
VERTEX
  5
C7B
330
C78
100
AcDbEntity
  8
0
100
AcDbVertex
100
AcDb2dVertex
 10
2048.080397326224
 20
4235.762078087444
 30
0.0
  0
VERTEX
  5
C7C
330
C78
100
AcDbEntity
  8
0
100
AcDbVertex
100
AcDb2dVertex
 10
2042.588778837723
 20
4235.658395654944
 30
0.0
  0
VERTEX
  5
C7D
330
C78
100
AcDbEntity
  8
0
100
AcDbVertex
100
AcDb2dVertex
 10
2035.863995474222
 20
4235.554713222444
 30
0.0
  0
SEQEND
  5
C7E
330
C78
100
AcDbEntity
  8
0
  0
LINE
  5
C7F
330
1F
100
AcDbEntity
  8
0
100
AcDbLine
 10
2053.875321557223
 20
4238.269442952445
 30
0.0
 11
2051.936708633221
 21
4238.165760519944
 31
0.0
  0
LINE
  5
C80
330
1F
100
AcDbEntity
  8
0
100
AcDbLine
 10
2055.248202615222
 20
4241.810953763444
 30
0.0
 11
2053.07924844022
 21
4241.708653763445
 31
0.0
  0
LINE
  5
C81
330
1F
100
AcDbEntity
  8
0
100
AcDbLine
 10
2055.248202615222
 20
4242.010953763444
 30
0.0
 11
2053.07924844022
 21
4241.908653763444
 31
0.0
  0
LINE
  5
C82
330
1F
100
AcDbEntity
  8
0
100
AcDbLine
 10
2053.716973420223
 20
4240.654138898444
 30
0.0
 11
2051.482808434224
 21
4240.550456465944
 31
0.0
  0
LINE
  5
C83
330
1F
100
AcDbEntity
  8
0
100
AcDbLine
 10
2055.15206847372
 20
4237.002853762944
 30
0.0
 11
2052.821302052221
 21
4236.900553762945
 31
0.0
  0
LINE
  5
C84
330
1F
100
AcDbEntity
  8
0
100
AcDbLine
 10
2055.15206847372
 20
4237.202853762944
 30
0.0
 11
2052.821302052221
 21
4237.100553762944
 31
0.0
  0
LINE
  5
C85
330
1F
100
AcDbEntity
  8
0
100
AcDbLine
 10
1998.845084557223
 20
4238.435053763445
 30
0.0
 11
1996.412914436719
 21
4238.332753763444
 31
0.0
  0
LINE
  5
C86
330
1F
100
AcDbEntity
  8
0
100
AcDbLine
 10
1998.845084557223
 20
4238.635053763444
 30
0.0
 11
1996.412914436719
 21
4238.532753763443
 31
0.0
  0
POLYLINE
  5
C87
330
1F
100
AcDbEntity
  8
0
100
AcDb2dPolyline
 66
     1
 10
0.0
 20
0.0
 30
0.0
  0
VERTEX
  5
C88
330
C87
100
AcDbEntity
  8
0
100
AcDbVertex
100
AcDb2dVertex
 10
2053.51372524272
 20
4240.738834844445
 30
0.0
  0
VERTEX
  5
C89
330
C87
100
AcDbEntity
  8
0
100
AcDbVertex
100
AcDb2dVertex
 10
2050.987583506723
 20
4240.635152411944
 30
0.0
  0
VERTEX
  5
C8A
330
C87
100
AcDbEntity
  8
0
100
AcDbVertex
100
AcDb2dVertex
 10
2046.613248236224
 20
4240.531469979444
 30
0.0
  0
VERTEX
  5
C8B
330
C87
100
AcDbEntity
  8
0
100
AcDbVertex
100
AcDb2dVertex
 10
2040.711045112222
 20
4240.427787546944
 30
0.0
  0
VERTEX
  5
C8C
330
C87
100
AcDbEntity
  8
0
100
AcDbVertex
100
AcDb2dVertex
 10
2033.71318294622
 20
4240.324105114944
 30
0.0
  0
VERTEX
  5
C8D
330
C87
100
AcDbEntity
  8
0
100
AcDbVertex
100
AcDb2dVertex
 10
2018.522957282222
 20
4240.116740249944
 30
0.0
  0
SEQEND
  5
C8E
330
C87
100
AcDbEntity
  8
0
  0
POLYLINE
  5
C8F
330
1F
100
AcDbEntity
  8
0
100
AcDb2dPolyline
 66
     1
 10
0.0
 20
0.0
 30
0.0
  0
VERTEX
  5
C90
330
C8F
100
AcDbEntity
  8
0
100
AcDbVertex
100
AcDb2dVertex
 10
2053.51372524272
 20
4243.038834844445
 30
0.0
  0
VERTEX
  5
C91
330
C8F
100
AcDbEntity
  8
0
100
AcDbVertex
100
AcDb2dVertex
 10
2050.987583506723
 20
4242.935152411944
 30
0.0
  0
VERTEX
  5
C92
330
C8F
100
AcDbEntity
  8
0
100
AcDbVertex
100
AcDb2dVertex
 10
2046.613248236224
 20
4242.831469979445
 30
0.0
  0
VERTEX
  5
C93
330
C8F
100
AcDbEntity
  8
0
100
AcDbVertex
100
AcDb2dVertex
 10
2040.711045112222
 20
4242.727787546944
 30
0.0
  0
VERTEX
  5
C94
330
C8F
100
AcDbEntity
  8
0
100
AcDbVertex
100
AcDb2dVertex
 10
2033.71318294622
 20
4242.624105114944
 30
0.0
  0
VERTEX
  5
C95
330
C8F
100
AcDbEntity
  8
0
100
AcDbVertex
100
AcDb2dVertex
 10
2018.522957282222
 20
4242.416740249944
 30
0.0
  0
SEQEND
  5
C96
330
C8F
100
AcDbEntity
  8
0
  0
LINE
  5
C97
330
1F
100
AcDbEntity
  8
0
100
AcDbLine
 10
1999.122834746719
 20
4243.243153762945
 30
0.0
 11
1996.530576738719
 21
4243.140853762944
 31
0.0
  0
LINE
  5
C98
330
1F
100
AcDbEntity
  8
0
100
AcDbLine
 10
1999.122834746719
 20
4243.443153762944
 30
0.0
 11
1996.530576738719
 21
4243.340853762943
 31
0.0
  0
LINE
  5
C99
330
1F
100
AcDbEntity
  8
0
100
AcDbLine
 10
2054.504957382219
 20
4244.163853762944
 30
0.0
 11
2051.410859274723
 21
4244.061553762945
 31
0.0
  0
POLYLINE
  5
C9A
330
1F
100
AcDbEntity
  8
0
100
AcDb2dPolyline
 66
     1
 10
0.0
 20
0.0
 30
0.0
  0
VERTEX
  5
C9B
330
C9A
100
AcDbEntity
  8
0
100
AcDbVertex
100
AcDb2dVertex
 10
2054.332701646222
 20
4239.355753763444
 30
0.0
  0
VERTEX
  5
C9C
330
C9A
100
AcDbEntity
  8
0
100
AcDbVertex
100
AcDb2dVertex
 10
2051.083846168222
 20
4239.253453763445
 30
0.0
  0
VERTEX
  5
C9D
330
C9A
100
AcDbEntity
  8
0
100
AcDbVertex
100
AcDb2dVertex
 10
2046.028599009719
 20
4239.151153763444
 30
0.0
  0
VERTEX
  5
C9E
330
C9A
100
AcDbEntity
  8
0
100
AcDbVertex
100
AcDb2dVertex
 10
2039.527400017721
 20
4239.048853763445
 30
0.0
  0
VERTEX
  5
C9F
330
C9A
100
AcDbEntity
  8
0
100
AcDbVertex
100
AcDb2dVertex
 10
2032.043785642223
 20
4238.946553763444
 30
0.0
  0
VERTEX
  5
CA0
330
C9A
100
AcDbEntity
  8
0
100
AcDbVertex
100
AcDb2dVertex
 10
2024.111338736221
 20
4238.844253763445
 30
0.0
  0
VERTEX
  5
CA1
330
C9A
100
AcDbEntity
  8
0
100
AcDbVertex
100
AcDb2dVertex
 10
2016.295644029721
 20
4238.741953763445
 30
0.0
  0
VERTEX
  5
CA2
330
C9A
100
AcDbEntity
  8
0
100
AcDbVertex
100
AcDb2dVertex
 10
2009.153961863221
 20
4238.639653763445
 30
0.0
  0
VERTEX
  5
CA3
330
C9A
100
AcDbEntity
  8
0
100
AcDbVertex
100
AcDb2dVertex
 10
2003.19549544072
 20
4238.537353763445
 30
0.0
  0
VERTEX
  5
CA4
330
C9A
100
AcDbEntity
  8
0
100
AcDbVertex
100
AcDb2dVertex
 10
1998.845084557223
 20
4238.435053763445
 30
0.0
  0
SEQEND
  5
CA5
330
C9A
100
AcDbEntity
  8
0
  0
POLYLINE
  5
CA6
330
1F
100
AcDbEntity
  8
0
100
AcDb2dPolyline
 66
     1
 10
0.0
 20
0.0
 30
0.0
  0
VERTEX
  5
CA7
330
CA6
100
AcDbEntity
  8
0
100
AcDbVertex
100
AcDb2dVertex
 10
2054.332701646222
 20
4239.555753763443
 30
0.0
  0
VERTEX
  5
CA8
330
CA6
100
AcDbEntity
  8
0
100
AcDbVertex
100
AcDb2dVertex
 10
2051.083846168222
 20
4239.453453763444
 30
0.0
  0
VERTEX
  5
CA9
330
CA6
100
AcDbEntity
  8
0
100
AcDbVertex
100
AcDb2dVertex
 10
2046.028599009719
 20
4239.351153763443
 30
0.0
  0
VERTEX
  5
CAA
330
CA6
100
AcDbEntity
  8
0
100
AcDbVertex
100
AcDb2dVertex
 10
2039.527400017721
 20
4239.248853763444
 30
0.0
  0
VERTEX
  5
CAB
330
CA6
100
AcDbEntity
  8
0
100
AcDbVertex
100
AcDb2dVertex
 10
2032.043785642223
 20
4239.146553763445
 30
0.0
  0
VERTEX
  5
CAC
330
CA6
100
AcDbEntity
  8
0
100
AcDbVertex
100
AcDb2dVertex
 10
2024.111338736221
 20
4239.044253763444
 30
0.0
  0
VERTEX
  5
CAD
330
CA6
100
AcDbEntity
  8
0
100
AcDbVertex
100
AcDb2dVertex
 10
2016.295644029721
 20
4238.941953763445
 30
0.0
  0
VERTEX
  5
CAE
330
CA6
100
AcDbEntity
  8
0
100
AcDbVertex
100
AcDb2dVertex
 10
2009.153961863221
 20
4238.839653763444
 30
0.0
  0
VERTEX
  5
CAF
330
CA6
100
AcDbEntity
  8
0
100
AcDbVertex
100
AcDb2dVertex
 10
2003.19549544072
 20
4238.737353763445
 30
0.0
  0
VERTEX
  5
CB0
330
CA6
100
AcDbEntity
  8
0
100
AcDbVertex
100
AcDb2dVertex
 10
1998.845084557223
 20
4238.635053763444
 30
0.0
  0
SEQEND
  5
CB1
330
CA6
100
AcDbEntity
  8
0
  0
LINE
  5
CB2
330
1F
100
AcDbEntity
  8
0
100
AcDbLine
 10
2000.625551328221
 20
4236.082153762945
 30
0.0
 11
1997.279988621719
 21
4235.979853762945
 31
0.0
  0
LINE
  5
CB3
330
1F
100
AcDbEntity
  8
0
100
AcDbLine
 10
2000.625551328221
 20
4236.282153762944
 30
0.0
 11
1997.279988621719
 21
4236.179853762944
 31
0.0
  0
POLYLINE
  5
CB4
330
1F
100
AcDbEntity
  8
0
100
AcDb2dPolyline
 66
     1
 10
0.0
 20
0.0
 30
0.0
  0
VERTEX
  5
CB5
330
CB4
100
AcDbEntity
  8
0
100
AcDbVertex
100
AcDb2dVertex
 10
2051.936708633221
 20
4238.165760519944
 30
0.0
  0
VERTEX
  5
CB6
330
CB4
100
AcDbEntity
  8
0
100
AcDbVertex
100
AcDb2dVertex
 10
2048.080397326224
 20
4238.062078087444
 30
0.0
  0
VERTEX
  5
CB7
330
CB4
100
AcDbEntity
  8
0
100
AcDbVertex
100
AcDb2dVertex
 10
2042.588778837723
 20
4237.958395654944
 30
0.0
  0
VERTEX
  5
CB8
330
CB4
100
AcDbEntity
  8
0
100
AcDbVertex
100
AcDb2dVertex
 10
2035.863995474222
 20
4237.854713222445
 30
0.0
  0
VERTEX
  5
CB9
330
CB4
100
AcDbEntity
  8
0
100
AcDbVertex
100
AcDb2dVertex
 10
2028.398492459223
 20
4237.751030789945
 30
0.0
  0
VERTEX
  5
CBA
330
CB4
100
AcDbEntity
  8
0
100
AcDbVertex
100
AcDb2dVertex
 10
2020.738956990223
 20
4237.647348357444
 30
0.0
  0
VERTEX
  5
CBB
330
CB4
100
AcDbEntity
  8
0
100
AcDbVertex
100
AcDb2dVertex
 10
2013.446285203224
 20
4237.543665925445
 30
0.0
  0
VERTEX
  5
CBC
330
CB4
100
AcDbEntity
  8
0
100
AcDbVertex
100
AcDb2dVertex
 10
2007.054508615723
 20
4237.439983492945
 30
0.0
  0
VERTEX
  5
CBD
330
CB4
100
AcDbEntity
  8
0
100
AcDbVertex
100
AcDb2dVertex
 10
2002.031687786221
 20
4237.336301060444
 30
0.0
  0
VERTEX
  5
CBE
330
CB4
100
AcDbEntity
  8
0
100
AcDbVertex
100
AcDb2dVertex
 10
1998.745636894223
 20
4237.232618627944
 30
0.0
  0
SEQEND
  5
CBF
330
CB4
100
AcDbEntity
  8
0
  0
POLYLINE
  5
CC0
330
1F
100
AcDbEntity
  8
0
100
AcDb2dPolyline
 66
     1
 10
0.0
 20
0.0
 30
0.0
  0
VERTEX
  5
CC1
330
CC0
100
AcDbEntity
  8
0
100
AcDbVertex
100
AcDb2dVertex
 10
2051.482808434224
 20
4238.250456465944
 30
0.0
  0
VERTEX
  5
CC2
330
CC0
100
AcDbEntity
  8
0
100
AcDbVertex
100
AcDb2dVertex
 10
2047.364187334723
 20
4238.146774033944
 30
0.0
  0
VERTEX
  5
CC3
330
CC0
100
AcDbEntity
  8
0
100
AcDbVertex
100
AcDb2dVertex
 10
2041.662709606721
 20
4238.043091601443
 30
0.0
  0
VERTEX
  5
CC4
330
CC0
100
AcDbEntity
  8
0
100
AcDbVertex
100
AcDb2dVertex
 10
2034.795884612723
 20
4237.939409168944
 30
0.0
  0
VERTEX
  5
CC5
330
CC0
100
AcDbEntity
  8
0
100
AcDbVertex
100
AcDb2dVertex
 10
2027.266558116721
 20
4237.835726736444
 30
0.0
  0
VERTEX
  5
CC6
330
CC0
100
AcDbEntity
  8
0
100
AcDbVertex
100
AcDb2dVertex
 10
2019.62608977272
 20
4237.732044303944
 30
0.0
  0
VERTEX
  5
CC7
330
CC0
100
AcDbEntity
  8
0
100
AcDbVertex
100
AcDb2dVertex
 10
2012.433978016722
 20
4237.628361871444
 30
0.0
  0
VERTEX
  5
CC8
330
CC0
100
AcDbEntity
  8
0
100
AcDbVertex
100
AcDb2dVertex
 10
2006.21688896572
 20
4237.524679438943
 30
0.0
  0
VERTEX
  5
CC9
330
CC0
100
AcDbEntity
  8
0
100
AcDbVertex
100
AcDb2dVertex
 10
2001.43008955972
 20
4237.420997006444
 30
0.0
  0
VERTEX
  5
CCA
330
CC0
100
AcDbEntity
  8
0
100
AcDbVertex
100
AcDb2dVertex
 10
1998.424109132721
 20
4237.317314574443
 30
0.0
  0
SEQEND
  5
CCB
330
CC0
100
AcDbEntity
  8
0
  0
POLYLINE
  5
CCC
330
1F
100
AcDbEntity
  8
0
100
AcDb2dPolyline
 66
     1
 10
0.0
 20
0.0
 30
0.0
  0
VERTEX
  5
CCD
330
CCC
100
AcDbEntity
  8
0
100
AcDbVertex
100
AcDb2dVertex
 10
2051.482808434224
 20
4240.550456465944
 30
0.0
  0
VERTEX
  5
CCE
330
CCC
100
AcDbEntity
  8
0
100
AcDbVertex
100
AcDb2dVertex
 10
2047.364187334723
 20
4240.446774033943
 30
0.0
  0
VERTEX
  5
CCF
330
CCC
100
AcDbEntity
  8
0
100
AcDbVertex
100
AcDb2dVertex
 10
2041.662709606721
 20
4240.343091601444
 30
0.0
  0
VERTEX
  5
CD0
330
CCC
100
AcDbEntity
  8
0
100
AcDbVertex
100
AcDb2dVertex
 10
2034.795884612723
 20
4240.239409168943
 30
0.0
  0
VERTEX
  5
CD1
330
CCC
100
AcDbEntity
  8
0
100
AcDbVertex
100
AcDb2dVertex
 10
2027.266558116721
 20
4240.135726736444
 30
0.0
  0
VERTEX
  5
CD2
330
CCC
100
AcDbEntity
  8
0
100
AcDbVertex
100
AcDb2dVertex
 10
2019.62608977272
 20
4240.032044303944
 30
0.0
  0
VERTEX
  5
CD3
330
CCC
100
AcDbEntity
  8
0
100
AcDbVertex
100
AcDb2dVertex
 10
2012.433978016722
 20
4239.928361871444
 30
0.0
  0
VERTEX
  5
CD4
330
CCC
100
AcDbEntity
  8
0
100
AcDbVertex
100
AcDb2dVertex
 10
2006.21688896572
 20
4239.824679438944
 30
0.0
  0
VERTEX
  5
CD5
330
CCC
100
AcDbEntity
  8
0
100
AcDbVertex
100
AcDb2dVertex
 10
2001.43008955972
 20
4239.720997006444
 30
0.0
  0
VERTEX
  5
CD6
330
CCC
100
AcDbEntity
  8
0
100
AcDbVertex
100
AcDb2dVertex
 10
1998.424109132721
 20
4239.617314574444
 30
0.0
  0
SEQEND
  5
CD7
330
CCC
100
AcDbEntity
  8
0
  0
POLYLINE
  5
CD8
330
1F
100
AcDbEntity
  8
0
100
AcDb2dPolyline
 66
     1
 10
0.0
 20
0.0
 30
0.0
  0
VERTEX
  5
CD9
330
CD8
100
AcDbEntity
  8
0
100
AcDbVertex
100
AcDb2dVertex
 10
2053.07924844022
 20
4241.708653763445
 30
0.0
  0
VERTEX
  5
CDA
330
CD8
100
AcDbEntity
  8
0
100
AcDbVertex
100
AcDb2dVertex
 10
2048.961628045222
 20
4241.606353763444
 30
0.0
  0
VERTEX
  5
CDB
330
CD8
100
AcDbEntity
  8
0
100
AcDbVertex
100
AcDb2dVertex
 10
2043.188929027722
 20
4241.504053763445
 30
0.0
  0
VERTEX
  5
CDC
330
CD8
100
AcDbEntity
  8
0
100
AcDbVertex
100
AcDb2dVertex
 10
2036.172746356723
 20
4241.401753763444
 30
0.0
  0
VERTEX
  5
CDD
330
CD8
100
AcDbEntity
  8
0
100
AcDbVertex
100
AcDb2dVertex
 10
2028.413335530219
 20
4241.299453763445
 30
0.0
  0
VERTEX
  5
CDE
330
CD8
100
AcDbEntity
  8
0
100
AcDbVertex
100
AcDb2dVertex
 10
2020.463944235221
 20
4241.197153763444
 30
0.0
  0
VERTEX
  5
CDF
330
CD8
100
AcDbEntity
  8
0
100
AcDbVertex
100
AcDb2dVertex
 10
2012.891365671222
 20
4241.094853763444
 30
0.0
  0
SEQEND
  5
CE0
330
CD8
100
AcDbEntity
  8
0
  0
POLYLINE
  5
CE1
330
1F
100
AcDbEntity
  8
0
100
AcDb2dPolyline
 66
     1
 10
0.0
 20
0.0
 30
0.0
  0
VERTEX
  5
CE2
330
CE1
100
AcDbEntity
  8
0
100
AcDbVertex
100
AcDb2dVertex
 10
2053.07924844022
 20
4241.908653763444
 30
0.0
  0
VERTEX
  5
CE3
330
CE1
100
AcDbEntity
  8
0
100
AcDbVertex
100
AcDb2dVertex
 10
2048.961628045222
 20
4241.806353763444
 30
0.0
  0
VERTEX
  5
CE4
330
CE1
100
AcDbEntity
  8
0
100
AcDbVertex
100
AcDb2dVertex
 10
2043.188929027722
 20
4241.704053763444
 30
0.0
  0
VERTEX
  5
CE5
330
CE1
100
AcDbEntity
  8
0
100
AcDbVertex
100
AcDb2dVertex
 10
2036.172746356723
 20
4241.601753763444
 30
0.0
  0
VERTEX
  5
CE6
330
CE1
100
AcDbEntity
  8
0
100
AcDbVertex
100
AcDb2dVertex
 10
2028.413335530219
 20
4241.499453763444
 30
0.0
  0
VERTEX
  5
CE7
330
CE1
100
AcDbEntity
  8
0
100
AcDbVertex
100
AcDb2dVertex
 10
2020.463944235221
 20
4241.397153763444
 30
0.0
  0
VERTEX
  5
CE8
330
CE1
100
AcDbEntity
  8
0
100
AcDbVertex
100
AcDb2dVertex
 10
2012.891365671222
 20
4241.294853763444
 30
0.0
  0
SEQEND
  5
CE9
330
CE1
100
AcDbEntity
  8
0
  0
POLYLINE
  5
CEA
330
1F
100
AcDbEntity
  8
0
100
AcDb2dPolyline
 66
     1
 10
0.0
 20
0.0
 30
0.0
  0
VERTEX
  5
CEB
330
CEA
100
AcDbEntity
  8
0
100
AcDbVertex
100
AcDb2dVertex
 10
2052.821302052221
 20
4236.900553762945
 30
0.0
  0
VERTEX
  5
CEC
330
CEA
100
AcDbEntity
  8
0
100
AcDbVertex
100
AcDb2dVertex
 10
2048.560259070223
 20
4236.798253762945
 30
0.0
  0
VERTEX
  5
CED
330
CEA
100
AcDbEntity
  8
0
100
AcDbVertex
100
AcDb2dVertex
 10
2042.672752757223
 20
4236.695953762945
 30
0.0
  0
VERTEX
  5
CEE
330
CEA
100
AcDbEntity
  8
0
100
AcDbVertex
100
AcDb2dVertex
 10
2035.578563802221
 20
4236.593653762944
 30
0.0
  0
VERTEX
  5
CEF
330
CEA
100
AcDbEntity
  8
0
100
AcDbVertex
100
AcDb2dVertex
 10
2027.783509924223
 20
4236.491353762945
 30
0.0
  0
VERTEX
  5
CF0
330
CEA
100
AcDbEntity
  8
0
100
AcDbVertex
100
AcDb2dVertex
 10
2019.84338095972
 20
4236.389053762944
 30
0.0
  0
VERTEX
  5
CF1
330
CEA
100
AcDbEntity
  8
0
100
AcDbVertex
100
AcDb2dVertex
 10
2012.324310889221
 20
4236.286753762945
 30
0.0
  0
VERTEX
  5
CF2
330
CEA
100
AcDbEntity
  8
0
100
AcDbVertex
100
AcDb2dVertex
 10
2005.762412296224
 20
4236.184453762944
 30
0.0
  0
VERTEX
  5
CF3
330
CEA
100
AcDbEntity
  8
0
100
AcDbVertex
100
AcDb2dVertex
 10
2000.625551328221
 20
4236.082153762945
 30
0.0
  0
SEQEND
  5
CF4
330
CEA
100
AcDbEntity
  8
0
  0
POLYLINE
  5
CF5
330
1F
100
AcDbEntity
  8
0
100
AcDb2dPolyline
 66
     1
 10
0.0
 20
0.0
 30
0.0
  0
VERTEX
  5
CF6
330
CF5
100
AcDbEntity
  8
0
100
AcDbVertex
100
AcDb2dVertex
 10
2052.821302052221
 20
4237.100553762944
 30
0.0
  0
VERTEX
  5
CF7
330
CF5
100
AcDbEntity
  8
0
100
AcDbVertex
100
AcDb2dVertex
 10
2048.560259070223
 20
4236.998253762944
 30
0.0
  0
VERTEX
  5
CF8
330
CF5
100
AcDbEntity
  8
0
100
AcDbVertex
100
AcDb2dVertex
 10
2042.672752757223
 20
4236.895953762944
 30
0.0
  0
VERTEX
  5
CF9
330
CF5
100
AcDbEntity
  8
0
100
AcDbVertex
100
AcDb2dVertex
 10
2035.578563802221
 20
4236.793653762943
 30
0.0
  0
VERTEX
  5
CFA
330
CF5
100
AcDbEntity
  8
0
100
AcDbVertex
100
AcDb2dVertex
 10
2027.783509924223
 20
4236.691353762944
 30
0.0
  0
VERTEX
  5
CFB
330
CF5
100
AcDbEntity
  8
0
100
AcDbVertex
100
AcDb2dVertex
 10
2019.84338095972
 20
4236.589053762944
 30
0.0
  0
VERTEX
  5
CFC
330
CF5
100
AcDbEntity
  8
0
100
AcDbVertex
100
AcDb2dVertex
 10
2012.324310889221
 20
4236.486753762944
 30
0.0
  0
VERTEX
  5
CFD
330
CF5
100
AcDbEntity
  8
0
100
AcDbVertex
100
AcDb2dVertex
 10
2005.762412296224
 20
4236.384453762944
 30
0.0
  0
VERTEX
  5
CFE
330
CF5
100
AcDbEntity
  8
0
100
AcDbVertex
100
AcDb2dVertex
 10
2000.625551328221
 20
4236.282153762944
 30
0.0
  0
SEQEND
  5
CFF
330
CF5
100
AcDbEntity
  8
0
  0
POLYLINE
  5
D00
330
1F
100
AcDbEntity
  8
0
100
AcDb2dPolyline
 66
     1
 10
0.0
 20
0.0
 30
0.0
  0
VERTEX
  5
D01
330
D00
100
AcDbEntity
  8
0
100
AcDbVertex
100
AcDb2dVertex
 10
2051.410859274723
 20
4244.061553762945
 30
0.0
  0
VERTEX
  5
D02
330
D00
100
AcDbEntity
  8
0
100
AcDbVertex
100
AcDb2dVertex
 10
2046.487047970223
 20
4243.959253762944
 30
0.0
  0
VERTEX
  5
D03
330
D00
100
AcDbEntity
  8
0
100
AcDbVertex
100
AcDb2dVertex
 10
2040.08459253272
 20
4243.856953762945
 30
0.0
  0
VERTEX
  5
D04
330
D00
100
AcDbEntity
  8
0
100
AcDbVertex
100
AcDb2dVertex
 10
2032.659990065223
 20
4243.754653762944
 30
0.0
  0
VERTEX
  5
D05
330
D00
100
AcDbEntity
  8
0
100
AcDbVertex
100
AcDb2dVertex
 10
2024.742617369721
 20
4243.652353762945
 30
0.0
  0
VERTEX
  5
D06
330
D00
100
AcDbEntity
  8
0
100
AcDbVertex
100
AcDb2dVertex
 10
2016.896986222223
 20
4243.550053762945
 30
0.0
  0
SEQEND
  5
D07
330
D00
100
AcDbEntity
  8
0
  0
POLYLINE
  5
D08
330
1F
100
AcDbEntity
  8
0
100
AcDb2dPolyline
 66
     1
 10
0.0
 20
0.0
 30
0.0
  0
VERTEX
  5
D09
330
D08
100
AcDbEntity
  8
0
100
AcDbVertex
100
AcDb2dVertex
 10
2051.410859274723
 20
4244.261553762944
 30
0.0
  0
VERTEX
  5
D0A
330
D08
100
AcDbEntity
  8
0
100
AcDbVertex
100
AcDb2dVertex
 10
2046.487047970223
 20
4244.159253762943
 30
0.0
  0
VERTEX
  5
D0B
330
D08
100
AcDbEntity
  8
0
100
AcDbVertex
100
AcDb2dVertex
 10
2040.08459253272
 20
4244.056953762944
 30
0.0
  0
VERTEX
  5
D0C
330
D08
100
AcDbEntity
  8
0
100
AcDbVertex
100
AcDb2dVertex
 10
2032.659990065223
 20
4243.954653762944
 30
0.0
  0
VERTEX
  5
D0D
330
D08
100
AcDbEntity
  8
0
100
AcDbVertex
100
AcDb2dVertex
 10
2024.742617369721
 20
4243.852353762944
 30
0.0
  0
VERTEX
  5
D0E
330
D08
100
AcDbEntity
  8
0
100
AcDbVertex
100
AcDb2dVertex
 10
2016.896986222223
 20
4243.750053762944
 30
0.0
  0
SEQEND
  5
D0F
330
D08
100
AcDbEntity
  8
0
  0
POLYLINE
  5
D10
330
1F
100
AcDbEntity
  8
0
100
AcDb2dPolyline
 66
     1
 10
0.0
 20
0.0
 30
0.0
  0
VERTEX
  5
D11
330
D10
100
AcDbEntity
  8
0
100
AcDbVertex
100
AcDb2dVertex
 10
2010.47502681772
 20
4242.397753762944
 30
0.0
  0
VERTEX
  5
D12
330
D10
100
AcDbEntity
  8
0
100
AcDbVertex
100
AcDb2dVertex
 10
2004.63693528322
 20
4242.294071330444
 30
0.0
  0
VERTEX
  5
D13
330
D10
100
AcDbEntity
  8
0
100
AcDbVertex
100
AcDb2dVertex
 10
2000.344836816724
 20
4242.190388897944
 30
0.0
  0
VERTEX
  5
D14
330
D10
100
AcDbEntity
  8
0
100
AcDbVertex
100
AcDb2dVertex
 10
1997.913035026723
 20
4242.086706465943
 30
0.0
  0
VERTEX
  5
D15
330
D10
100
AcDbEntity
  8
0
100
AcDbVertex
100
AcDb2dVertex
 10
1997.418815508722
 20
4242.015254202943
 30
0.0
  0
SEQEND
  5
D16
330
D10
100
AcDbEntity
  8
0
  0
POLYLINE
  5
D17
330
1F
100
AcDbEntity
  8
0
100
AcDb2dPolyline
 66
     1
 10
0.0
 20
0.0
 30
0.0
  0
VERTEX
  5
D18
330
D17
100
AcDbEntity
  8
0
100
AcDbVertex
100
AcDb2dVertex
 10
2011.442948684221
 20
4242.313057817444
 30
0.0
  0
VERTEX
  5
D19
330
D17
100
AcDbEntity
  8
0
100
AcDbVertex
100
AcDb2dVertex
 10
2005.410534974221
 20
4242.209375384945
 30
0.0
  0
VERTEX
  5
D1A
330
D17
100
AcDbEntity
  8
0
100
AcDbVertex
100
AcDb2dVertex
 10
2000.867459501221
 20
4242.105692952445
 30
0.0
  0
VERTEX
  5
D1B
330
D17
100
AcDbEntity
  8
0
100
AcDbVertex
100
AcDb2dVertex
 10
1998.14640382522
 20
4242.002010520445
 30
0.0
  0
SEQEND
  5
D1C
330
D17
100
AcDbEntity
  8
0
  0
POLYLINE
  5
D1D
330
1F
100
AcDbEntity
  8
0
100
AcDb2dPolyline
 66
     1
 10
0.0
 20
0.0
 30
0.0
  0
VERTEX
  5
D1E
330
D1D
100
AcDbEntity
  8
0
100
AcDbVertex
100
AcDb2dVertex
 10
2009.68249348322
 20
4243.447753762945
 30
0.0
  0
VERTEX
  5
D1F
330
D1D
100
AcDbEntity
  8
0
100
AcDbVertex
100
AcDb2dVertex
 10
2003.613536448222
 20
4243.345453762945
 30
0.0
  0
VERTEX
  5
D20
330
D1D
100
AcDbEntity
  8
0
100
AcDbVertex
100
AcDb2dVertex
 10
1999.122834746719
 20
4243.243153762945
 30
0.0
  0
SEQEND
  5
D21
330
D1D
100
AcDbEntity
  8
0
  0
POLYLINE
  5
D22
330
1F
100
AcDbEntity
  8
0
100
AcDb2dPolyline
 66
     1
 10
0.0
 20
0.0
 30
0.0
  0
VERTEX
  5
D23
330
D22
100
AcDbEntity
  8
0
100
AcDbVertex
100
AcDb2dVertex
 10
2009.68249348322
 20
4243.647753762944
 30
0.0
  0
VERTEX
  5
D24
330
D22
100
AcDbEntity
  8
0
100
AcDbVertex
100
AcDb2dVertex
 10
2003.613536448222
 20
4243.545453762944
 30
0.0
  0
VERTEX
  5
D25
330
D22
100
AcDbEntity
  8
0
100
AcDbVertex
100
AcDb2dVertex
 10
1999.122834746719
 20
4243.443153762944
 30
0.0
  0
SEQEND
  5
D26
330
D22
100
AcDbEntity
  8
0
  0
POLYLINE
  5
D27
330
1F
100
AcDbEntity
  8
0
100
AcDb2dPolyline
 66
     1
 10
0.0
 20
0.0
 30
0.0
  0
VERTEX
  5
D28
330
D27
100
AcDbEntity
  8
0
100
AcDbVertex
100
AcDb2dVertex
 10
2012.891365671222
 20
4241.094853763444
 30
0.0
  0
VERTEX
  5
D29
330
D27
100
AcDbEntity
  8
0
100
AcDbVertex
100
AcDb2dVertex
 10
2006.235526096222
 20
4240.992553763444
 30
0.0
  0
VERTEX
  5
D2A
330
D27
100
AcDbEntity
  8
0
100
AcDbVertex
100
AcDb2dVertex
 10
2000.970988004222
 20
4240.890253763445
 30
0.0
  0
VERTEX
  5
D2B
330
D27
100
AcDbEntity
  8
0
100
AcDbVertex
100
AcDb2dVertex
 10
1997.47311376072
 20
4240.787953763444
 30
0.0
  0
SEQEND
  5
D2C
330
D27
100
AcDbEntity
  8
0
  0
POLYLINE
  5
D2D
330
1F
100
AcDbEntity
  8
0
100
AcDb2dPolyline
 66
     1
 10
0.0
 20
0.0
 30
0.0
  0
VERTEX
  5
D2E
330
D2D
100
AcDbEntity
  8
0
100
AcDbVertex
100
AcDb2dVertex
 10
2012.891365671222
 20
4241.294853763444
 30
0.0
  0
VERTEX
  5
D2F
330
D2D
100
AcDbEntity
  8
0
100
AcDbVertex
100
AcDb2dVertex
 10
2006.235526096222
 20
4241.192553763444
 30
0.0
  0
VERTEX
  5
D30
330
D2D
100
AcDbEntity
  8
0
100
AcDbVertex
100
AcDb2dVertex
 10
2000.970988004222
 20
4241.090253763444
 30
0.0
  0
VERTEX
  5
D31
330
D2D
100
AcDbEntity
  8
0
100
AcDbVertex
100
AcDb2dVertex
 10
1997.47311376072
 20
4240.987953763444
 30
0.0
  0
SEQEND
  5
D32
330
D2D
100
AcDbEntity
  8
0
  0
POLYLINE
  5
D33
330
1F
100
AcDbEntity
  8
0
100
AcDb2dPolyline
 66
     1
 10
0.0
 20
0.0
 30
0.0
  0
VERTEX
  5
D34
330
D33
100
AcDbEntity
  8
0
100
AcDbVertex
100
AcDb2dVertex
 10
2018.522957282222
 20
4240.116740249944
 30
0.0
  0
VERTEX
  5
D35
330
D33
100
AcDbEntity
  8
0
100
AcDbVertex
100
AcDb2dVertex
 10
2011.442948684221
 20
4240.013057817444
 30
0.0
  0
VERTEX
  5
D36
330
D33
100
AcDbEntity
  8
0
100
AcDbVertex
100
AcDb2dVertex
 10
2005.410534974221
 20
4239.909375384945
 30
0.0
  0
VERTEX
  5
D37
330
D33
100
AcDbEntity
  8
0
100
AcDbVertex
100
AcDb2dVertex
 10
2000.867459501221
 20
4239.805692952444
 30
0.0
  0
VERTEX
  5
D38
330
D33
100
AcDbEntity
  8
0
100
AcDbVertex
100
AcDb2dVertex
 10
1998.14640382522
 20
4239.702010520445
 30
0.0
  0
SEQEND
  5
D39
330
D33
100
AcDbEntity
  8
0
  0
LINE
  5
D3A
330
1F
100
AcDbEntity
  8
0
100
AcDbLine
 10
2018.522957282222
 20
4242.416740249944
 30
0.0
 11
2011.442948684221
 21
4242.313057817444
 31
0.0
  0
LINE
  5
D3B
330
1F
100
AcDbEntity
  8
0
100
AcDbLine
 10
2016.896986222223
 20
4243.550053762945
 30
0.0
 11
2009.68249348322
 21
4243.447753762945
 31
0.0
  0
LINE
  5
D3C
330
1F
100
AcDbEntity
  8
0
100
AcDbLine
 10
2016.896986222223
 20
4243.750053762944
 30
0.0
 11
2009.68249348322
 21
4243.647753762944
 31
0.0
  0
LINE
  5
D3D
330
1F
100
AcDbEntity
  8
0
100
AcDbLine
 10
2035.863995474222
 20
4235.554713222444
 30
0.0
 11
2025.739342989721
 21
4235.415035514944
 31
0.0
  0
POLYLINE
  5
D3E
330
1F
100
AcDbEntity
  8
0
100
AcDb2dPolyline
 66
     1
 10
0.0
 20
0.0
 30
0.0
  0
VERTEX
  5
D3F
330
D3E
100
AcDbEntity
  8
0
100
AcDbVertex
100
AcDb2dVertex
 10
2025.739342989721
 20
4235.415035514944
 30
0.0
  0
VERTEX
  5
D40
330
D3E
100
AcDbEntity
  8
0
100
AcDbVertex
100
AcDb2dVertex
 10
2020.738956990223
 20
4235.347348357445
 30
0.0
  0
VERTEX
  5
D41
330
D3E
100
AcDbEntity
  8
0
100
AcDbVertex
100
AcDb2dVertex
 10
2013.446285203224
 20
4235.243665925444
 30
0.0
  0
VERTEX
  5
D42
330
D3E
100
AcDbEntity
  8
0
100
AcDbVertex
100
AcDb2dVertex
 10
2007.054508615723
 20
4235.139983492945
 30
0.0
  0
VERTEX
  5
D43
330
D3E
100
AcDbEntity
  8
0
100
AcDbVertex
100
AcDb2dVertex
 10
2002.031687786221
 20
4235.036301060444
 30
0.0
  0
VERTEX
  5
D44
330
D3E
100
AcDbEntity
  8
0
100
AcDbVertex
100
AcDb2dVertex
 10
1998.745636894223
 20
4234.932618627944
 30
0.0
  0
SEQEND
  5
D45
330
D3E
100
AcDbEntity
  8
0
  0
LINE
  5
D46
330
1F
100
AcDbEntity
  8
0
100
AcDbLine
 10
1993.248815505722
 20
4282.209101697743
 30
0.0
 11
1993.248815505722
 21
4244.209101697743
 31
0.0
  0
LINE
  5
D47
330
1F
100
AcDbEntity
  8
0
100
AcDbLine
 10
2058.248815505723
 20
4282.209101697743
 30
0.0
 11
2058.248815505723
 21
4244.209101697743
 31
0.0
  0
LINE
  5
D48
330
1F
100
AcDbEntity
  8
0
 62
     9
100
AcDbLine
 10
1993.248815505722
 20
4282.209101697743
 30
0.0
 11
2058.248815505723
 21
4282.209101697743
 31
0.0
  0
ARC
  5
D49
330
1F
100
AcDbEntity
  8
0
100
AcDbCircle
 10
2056.248815505723
 20
4282.209101697743
 30
0.0
 40
2.0
100
AcDbArc
 50
0.0
 51
90.0
  0
ARC
  5
D4A
330
1F
100
AcDbEntity
  8
0
100
AcDbCircle
 10
1995.248815505723
 20
4282.209101697743
 30
0.0
 40
2.0
100
AcDbArc
 50
90.0
 51
180.0
  0
LINE
  5
D4B
330
1F
100
AcDbEntity
  8
0
100
AcDbLine
 10
1993.248815505722
 20
4244.209101697743
 30
0.0
 11
2058.248815505723
 21
4244.209101697743
 31
0.0
  0
LINE
  5
D4C
330
1F
100
AcDbEntity
  8
0
100
AcDbLine
 10
1995.248815505723
 20
4284.209101697743
 30
0.0
 11
2056.248815505723
 21
4284.209101697743
 31
0.0
  0
ENDSEC
  0
SECTION
  2
OBJECTS
  0
DICTIONARY
  5
C
330
0
100
AcDbDictionary
281
     1
  3
ACAD_COLOR
350
D7
  3
ACAD_GROUP
350
D
  3
ACAD_LAYOUT
350
1A
  3
ACAD_MATERIAL
350
D6
  3
ACAD_MLINESTYLE
350
17
  3
ACAD_PLOTSETTINGS
350
19
  3
ACAD_PLOTSTYLENAME
350
E
  3
ACAD_TABLESTYLE
350
133
  3
ACDBHEADERROUNDTRIPXREC
350
DF9
  3
AcDbVariableDictionary
350
34
  3
AcmDictionary
350
49
  3
AMG
350
2B
  3
AMGSNAPSETTINGS
350
2C4
  3
DWGPROPS
350
DF8
  0
DICTIONARY
  5
C0
330
2
100
AcDbDictionary
280
     1
281
     1
  3
ACAD_LAYERSTATES
360
3C9
  3
AMLAYER_GROUPCOLORS
360
C1
  0
DICTIONARY
  5
83
330
1F
100
AcDbDictionary
280
     1
281
     1
  0
DICTIONARY
  5
D7
102
{ACAD_REACTORS
330
C
102
}
330
C
100
AcDbDictionary
281
     1
  0
DICTIONARY
  5
D
102
{ACAD_REACTORS
330
C
102
}
330
C
100
AcDbDictionary
281
     1
  0
DICTIONARY
  5
1A
102
{ACAD_REACTORS
330
C
102
}
330
C
100
AcDbDictionary
281
     1
  3
Layout1
350
1E
  3
Layout2
350
26
  3
Model
350
22
  0
DICTIONARY
  5
D6
102
{ACAD_REACTORS
330
C
102
}
330
C
100
AcDbDictionary
281
     1
  0
DICTIONARY
  5
17
102
{ACAD_REACTORS
330
C
102
}
330
C
100
AcDbDictionary
281
     1
  3
Standard
350
18
  0
DICTIONARY
  5
19
102
{ACAD_REACTORS
330
C
102
}
330
C
100
AcDbDictionary
281
     1
  0
ACDBDICTIONARYWDFLT
  5
E
102
{ACAD_REACTORS
330
C
102
}
330
C
100
AcDbDictionary
281
     1
  3
Normal
350
F
100
AcDbDictionaryWithDefault
340
F
  0
DICTIONARY
  5
133
102
{ACAD_REACTORS
330
C
102
}
330
C
100
AcDbDictionary
281
     1
  3
Standard
350
134
  0
DICTIONARY
  5
DF9
102
{ACAD_REACTORS
330
C
102
}
330
C
100
AcDbDictionary
281
     1
  0
DICTIONARY
  5
34
102
{ACAD_REACTORS
330
C
102
}
330
C
100
AcDbDictionary
281
     1
  3
CTABLESTYLE
350
152
  3
DIMASSOC
350
AD
  3
INDEXCTL
350
35
  3
PROJECTNAME
350
DF6
  0
DICTIONARY
  5
49
102
{ACAD_REACTORS
330
C
102
}
330
C
100
AcDbDictionary
281
     1
  3
AcmBOM
350
2CB
  3
AcmStdDictionary
350
4A
  3
AMDTSECTSYM_ARROWCOLOR
350
13D
  0
DICTIONARY
  5
2B
102
{ACAD_REACTORS
330
C
102
}
330
C
100
AcDbDictionary
281
     1
  0
DICTIONARY
  5
2C4
102
{ACAD_REACTORS
330
C
102
}
330
C
100
AcDbDictionary
281
     1
  0
XRECORD
  5
DF8
102
{ACAD_REACTORS
330
C
102
}
330
C
100
AcDbXrecord
280
     1
  1
DWGPROPS COOKIE
  2

  3

  4

  6

  7

  8

  9

300
AmdtFileType=84
301
=
302
=
303
=
304
=
305
=
306
=
307
=
308
=
309
=
 40
0.000377974537037
 41
2454026.534744641
 42
2454026.53512206
  1

 90
        1
  0
DICTIONARY
  5
3C9
102
{ACAD_REACTORS
330
C0
102
}
330
C0
100
AcDbDictionary
281
     1
  0
DICTIONARY
  5
C1
102
{ACAD_REACTORS
330
C0
102
}
330
C0
100
AcDbDictionary
280
     1
281
     1
  0
LAYOUT
  5
1E
102
{ACAD_XDICTIONARY
360
DFA
102
}
102
{ACAD_REACTORS
330
1A
102
}
330
1A
100
AcDbPlotSettings
  1

  2
none_device
  4
Letter_(8.50_x_11.00_Inches)
  6

 40
6.349999904632568
 41
6.349999904632568
 42
6.350006103515625
 43
6.350006103515625
 44
215.8999938964844
 45
279.3999938964844
 46
0.0
 47
0.0
 48
0.0
 49
0.0
140
0.0
141
0.0
142
1.0
143
1.0
 70
 15024
 72
     1
 73
     1
 74
     5
  7

 75
    16
147
1.0
148
0.0
149
0.0
100
AcDbLayout
  1
Layout1
 70
     1
 71
     1
 10
0.0
 20
0.0
 11
420.0
 21
297.0
 12
0.0
 22
0.0
 32
0.0
 14
1.000000000000000E+20
 24
1.000000000000000E+20
 34
1.000000000000000E+20
 15
-1.000000000000000E+20
 25
-1.000000000000000E+20
 35
-1.000000000000000E+20
146
0.0
 13
0.0
 23
0.0
 33
0.0
 16
1.0
 26
0.0
 36
0.0
 17
0.0
 27
1.0
 37
0.0
 76
     0
330
1B
  0
LAYOUT
  5
26
102
{ACAD_XDICTIONARY
360
DFE
102
}
102
{ACAD_REACTORS
330
1A
102
}
330
1A
100
AcDbPlotSettings
  1

  2
none_device
  4
Letter_(8.50_x_11.00_Inches)
  6

 40
6.349999904632568
 41
6.349999904632568
 42
6.350006103515625
 43
6.350006103515625
 44
215.8999938964844
 45
279.3999938964844
 46
0.0
 47
0.0
 48
0.0
 49
0.0
140
0.0
141
0.0
142
1.0
143
1.0
 70
 15024
 72
     1
 73
     1
 74
     5
  7

 75
    16
147
1.0
148
0.0
149
0.0
100
AcDbLayout
  1
Layout2
 70
     1
 71
     2
 10
0.0
 20
0.0
 11
12.0
 21
9.0
 12
0.0
 22
0.0
 32
0.0
 14
0.0
 24
0.0
 34
0.0
 15
0.0
 25
0.0
 35
0.0
146
0.0
 13
0.0
 23
0.0
 33
0.0
 16
1.0
 26
0.0
 36
0.0
 17
0.0
 27
1.0
 37
0.0
 76
     0
330
23
  0
LAYOUT
  5
22
102
{ACAD_XDICTIONARY
360
DFC
102
}
102
{ACAD_REACTORS
330
1A
102
}
330
1A
100
AcDbPlotSettings
  1

  2
none_device
  4
Letter_(8.50_x_11.00_Inches)
  6

 40
6.349999904632568
 41
6.349999904632568
 42
6.350006103515625
 43
6.350006103515625
 44
215.8999938964844
 45
279.3999938964844
 46
0.0
 47
0.0
 48
0.0
 49
0.0
140
0.0
141
0.0
142
1.0
143
1.0
 70
 11952
 72
     1
 73
     1
 74
     0
  7

 75
     0
147
1.0
148
-131.3052631578947
149
0.0
100
AcDbLayout
  1
Model
 70
     1
 71
     0
 10
0.0
 20
0.0
 11
12.0
 21
9.0
 12
0.0
 22
0.0
 32
0.0
 14
0.0
 24
0.0
 34
0.0
 15
0.0
 25
0.0
 35
0.0
146
0.0
 13
0.0
 23
0.0
 33
0.0
 16
1.0
 26
0.0
 36
0.0
 17
0.0
 27
1.0
 37
0.0
 76
     0
330
1F
  0
MLINESTYLE
  5
18
102
{ACAD_REACTORS
330
17
102
}
330
17
100
AcDbMlineStyle
  2
STANDARD
 70
     0
  3

 62
   256
 51
90.0
 52
90.0
 71
     2
 49
0.5
 62
   256
  6
BYLAYER
 49
-0.5
 62
   256
  6
BYLAYER
  0
ACDBPLACEHOLDER
  5
F
102
{ACAD_REACTORS
330
E
102
}
330
E
  0
TABLESTYLE
  5
134
102
{ACAD_REACTORS
330
133
102
}
330
133
100
AcDbTableStyle
  3
Standard
 70
     0
 71
     0
 40
1.5
 41
1.5
280
     0
281
     0
  7
STANDARD
140
4.5
170
     2
 62
     0
 63
     7
283
     0
274
    -2
284
     1
 64
     0
275
    -2
285
     1
 65
     0
276
    -2
286
     1
 66
     0
277
    -2
287
     1
 67
     0
278
    -2
288
     1
 68
     0
279
    -2
289
     1
 69
     0
  7
STANDARD
140
6.0
170
     5
 62
     0
 63
     7
283
     0
274
    -2
284
     1
 64
     0
275
    -2
285
     1
 65
     0
276
    -2
286
     1
 66
     0
277
    -2
287
     1
 67
     0
278
    -2
288
     1
 68
     0
279
    -2
289
     1
 69
     0
  7
STANDARD
140
4.5
170
     5
 62
     0
 63
     7
283
     0
274
    -2
284
     1
 64
     0
275
    -2
285
     1
 65
     0
276
    -2
286
     1
 66
     0
277
    -2
287
     1
 67
     0
278
    -2
288
     1
 68
     0
279
    -2
289
     1
 69
     0
  0
DICTIONARYVAR
  5
152
102
{ACAD_REACTORS
330
34
102
}
330
34
100
DictionaryVariables
280
     0
  1
STANDARD
  0
DICTIONARYVAR
  5
AD
102
{ACAD_REACTORS
330
34
102
}
330
34
100
DictionaryVariables
280
     0
  1
2
  0
DICTIONARYVAR
  5
35
102
{ACAD_REACTORS
330
34
102
}
330
34
100
DictionaryVariables
280
     0
  1
0
  0
DICTIONARYVAR
  5
DF6
102
{ACAD_REACTORS
330
34
102
}
330
34
100
DictionaryVariables
280
     0
  1

  0
DICTIONARY
  5
2CB
102
{ACAD_REACTORS
330
49
102
}
330
49
100
AcDbDictionary
281
     1
  0
DICTIONARY
  5
4A
102
{ACAD_REACTORS
330
49
102
}
330
49
100
AcDbDictionary
281
     1
  0
XRECORD
  5
13D
102
{ACAD_REACTORS
330
49
102
}
330
49
100
AcDbXrecord
280
     1
 90
-1023410169
  0
DICTIONARY
  5
DFA
330
1E
100
AcDbDictionary
280
     1
281
     1
  3
ACAD_XREC_ROUNDTRIP
360
DFB
  0
DICTIONARY
  5
DFE
330
26
100
AcDbDictionary
280
     1
281
     1
  3
ACAD_XREC_ROUNDTRIP
360
DFF
  0
DICTIONARY
  5
DFC
330
22
100
AcDbDictionary
280
     1
281
     1
  3
ACAD_XREC_ROUNDTRIP
360
DFD
  0
XRECORD
  5
DFB
102
{ACAD_REACTORS
330
DFA
102
}
330
DFA
100
AcDbXrecord
280
     1
102
SHADEPLOT
 70
     0
102
SHADEPLOTRESLEVEL
 70
     2
102
SHADEPLOTCUSTOMDPI
 70
   300
  0
XRECORD
  5
DFF
102
{ACAD_REACTORS
330
DFE
102
}
330
DFE
100
AcDbXrecord
280
     1
102
SHADEPLOT
 70
     0
102
SHADEPLOTRESLEVEL
 70
     2
102
SHADEPLOTCUSTOMDPI
 70
   300
  0
XRECORD
  5
DFD
102
{ACAD_REACTORS
330
DFC
102
}
330
DFC
100
AcDbXrecord
280
     1
102
SHADEPLOT
 70
     0
102
SHADEPLOTRESLEVEL
 70
     2
102
SHADEPLOTCUSTOMDPI
 70
   300
  0
ENDSEC
  0
EOF
