  0
SECTION
  2
HEADER
  9
$ACADVER
  1
AC1015
  9
$ACADMAINTVER
 70
    20
  9
$DWGCODEPAGE
  3
ANSI_1252
  9
$INSBASE
 10
0.0
 20
0.0
 30
0.0
  9
$EXTMIN
 10
-619.7661158675
 20
188.53088498643
 30
-0.0015258207003583
  9
$EXTMAX
 10
692.2389840693
 20
713.2932143963192
 30
0.0000000349246037
  9
$LIMMIN
 10
0.0
 20
0.0
  9
$LIMMAX
 10
594.0
 20
420.0
  9
$ORTHOMODE
 70
     1
  9
$REGENMODE
 70
     1
  9
$FILLMODE
 70
     1
  9
$QTEXTMODE
 70
     0
  9
$MIRRTEXT
 70
     0
  9
$LTSCALE
 40
32.67
  9
$ATTMODE
 70
     1
  9
$TEXTSIZE
 40
0.2
  9
$TRACEWID
 40
0.05
  9
$TEXTSTYLE
  7
STANDARD
  9
$CLAYER
  8
0
  9
$CELTYPE
  6
BYLAYER
  9
$CECOLOR
 62
   256
  9
$CELTSCALE
 40
1.0
  9
$DISPSILH
 70
     0
  9
$DIMSCALE
 40
1.0
  9
$DIMASZ
 40
3.5
  9
$DIMEXO
 40
1.5
  9
$DIMDLI
 40
22.572
  9
$DIMRND
 40
0.0
  9
$DIMDLE
 40
0.0
  9
$DIMEXE
 40
1.5
  9
$DIMTP
 40
0.005
  9
$DIMTM
 40
0.005
  9
$DIMTXT
 40
3.5
  9
$DIMCEN
 40
5.346
  9
$DIMTSZ
 40
0.0
  9
$DIMTOL
 70
     1
  9
$DIMLIM
 70
     0
  9
$DIMTIH
 70
     1
  9
$DIMTOH
 70
     1
  9
$DIMSE1
 70
     0
  9
$DIMSE2
 70
     0
  9
$DIMTAD
 70
     0
  9
$DIMZIN
 70
     0
  9
$DIMBLK
  1
_FILLED
  9
$DIMASO
 70
     1
  9
$DIMSHO
 70
     1
  9
$DIMPOST
  1

  9
$DIMAPOST
  1

  9
$DIMALT
 70
     0
  9
$DIMALTD
 70
     2
  9
$DIMALTF
 40
25.4
  9
$DIMLFAC
 40
1.0
  9
$DIMTOFL
 70
     0
  9
$DIMTVP
 40
0.0
  9
$DIMTIX
 70
     0
  9
$DIMSOXD
 70
     0
  9
$DIMSAH
 70
     0
  9
$DIMBLK1
  1

  9
$DIMBLK2
  1

  9
$DIMSTYLE
  2
STANDARD
  9
$DIMCLRD
 70
     0
  9
$DIMCLRE
 70
     0
  9
$DIMCLRT
 70
     0
  9
$DIMTFAC
 40
1.0
  9
$DIMGAP
 40
0.625
  9
$DIMJUST
 70
     0
  9
$DIMSD1
 70
     0
  9
$DIMSD2
 70
     0
  9
$DIMTOLJ
 70
     1
  9
$DIMTZIN
 70
     0
  9
$DIMALTZ
 70
     0
  9
$DIMALTTZ
 70
     0
  9
$DIMUPT
 70
     0
  9
$DIMDEC
 70
     4
  9
$DIMTDEC
 70
     4
  9
$DIMALTU
 70
     2
  9
$DIMALTTD
 70
     2
  9
$DIMTXSTY
  7
STANDARD
  9
$DIMAUNIT
 70
     0
  9
$DIMADEC
 70
     0
  9
$DIMALTRND
 40
0.0
  9
$DIMAZIN
 70
     0
  9
$DIMDSEP
 70
    46
  9
$DIMATFIT
 70
     3
  9
$DIMFRAC
 70
     0
  9
$DIMLDRBLK
  1

  9
$DIMLUNIT
 70
     2
  9
$DIMLWD
 70
    -2
  9
$DIMLWE
 70
    -2
  9
$DIMTMOVE
 70
     0
  9
$LUNITS
 70
     2
  9
$LUPREC
 70
     2
  9
$SKETCHINC
 40
0.1
  9
$FILLETRAD
 40
0.0
  9
$AUNITS
 70
     0
  9
$AUPREC
 70
     0
  9
$MENU
  1
.
  9
$ELEVATION
 40
0.0
  9
$PELEVATION
 40
0.0
  9
$THICKNESS
 40
0.0
  9
$LIMCHECK
 70
     0
  9
$CHAMFERA
 40
0.0
  9
$CHAMFERB
 40
0.0
  9
$CHAMFERC
 40
0.0
  9
$CHAMFERD
 40
0.0
  9
$SKPOLY
 70
     0
  9
$TDCREATE
 40
2457197.364821956
  9
$TDUCREATE
 40
2457197.281488622
  9
$TDUPDATE
 40
2457197.559910185
  9
$TDUUPDATE
 40
2457197.476576852
  9
$TDINDWG
 40
0.1950889468
  9
$TDUSRTIMER
 40
0.1950889468
  9
$USRTIMER
 70
     1
  9
$ANGBASE
 50
0.0
  9
$ANGDIR
 70
     0
  9
$PDMODE
 70
     3
  9
$PDSIZE
 40
0.3125
  9
$PLINEWID
 40
0.0
  9
$SPLFRAME
 70
     0
  9
$SPLINETYPE
 70
     6
  9
$SPLINESEGS
 70
     8
  9
$HANDSEED
  5
15FF
  9
$SURFTAB1
 70
     6
  9
$SURFTAB2
 70
     6
  9
$SURFTYPE
 70
     6
  9
$SURFU
 70
     6
  9
$SURFV
 70
     6
  9
$UCSBASE
  2

  9
$UCSNAME
  2

  9
$UCSORG
 10
0.0
 20
0.0
 30
0.0
  9
$UCSXDIR
 10
1.0
 20
0.0
 30
0.0
  9
$UCSYDIR
 10
0.0
 20
1.0
 30
0.0
  9
$UCSORTHOREF
  2

  9
$UCSORTHOVIEW
 70
     0
  9
$UCSORGTOP
 10
0.0
 20
0.0
 30
0.0
  9
$UCSORGBOTTOM
 10
0.0
 20
0.0
 30
0.0
  9
$UCSORGLEFT
 10
0.0
 20
0.0
 30
0.0
  9
$UCSORGRIGHT
 10
0.0
 20
0.0
 30
0.0
  9
$UCSORGFRONT
 10
0.0
 20
0.0
 30
0.0
  9
$UCSORGBACK
 10
0.0
 20
0.0
 30
0.0
  9
$PUCSBASE
  2

  9
$PUCSNAME
  2

  9
$PUCSORG
 10
0.0
 20
0.0
 30
0.0
  9
$PUCSXDIR
 10
1.0
 20
0.0
 30
0.0
  9
$PUCSYDIR
 10
0.0
 20
1.0
 30
0.0
  9
$PUCSORTHOREF
  2

  9
$PUCSORTHOVIEW
 70
     0
  9
$PUCSORGTOP
 10
0.0
 20
0.0
 30
0.0
  9
$PUCSORGBOTTOM
 10
0.0
 20
0.0
 30
0.0
  9
$PUCSORGLEFT
 10
0.0
 20
0.0
 30
0.0
  9
$PUCSORGRIGHT
 10
0.0
 20
0.0
 30
0.0
  9
$PUCSORGFRONT
 10
0.0
 20
0.0
 30
0.0
  9
$PUCSORGBACK
 10
0.0
 20
0.0
 30
0.0
  9
$USERI1
 70
     0
  9
$USERI2
 70
     0
  9
$USERI3
 70
     0
  9
$USERI4
 70
     0
  9
$USERI5
 70
     0
  9
$USERR1
 40
0.0
  9
$USERR2
 40
0.0
  9
$USERR3
 40
0.0
  9
$USERR4
 40
0.0
  9
$USERR5
 40
0.0
  9
$WORLDVIEW
 70
     1
  9
$SHADEDGE
 70
     3
  9
$SHADEDIF
 70
    70
  9
$TILEMODE
 70
     1
  9
$MAXACTVP
 70
    64
  9
$PINSBASE
 10
0.0
 20
0.0
 30
0.0
  9
$PLIMCHECK
 70
     0
  9
$PEXTMIN
 10
1.000000000000000E+20
 20
1.000000000000000E+20
 30
1.000000000000000E+20
  9
$PEXTMAX
 10
-1.000000000000000E+20
 20
-1.000000000000000E+20
 30
-1.000000000000000E+20
  9
$PLIMMIN
 10
0.0
 20
0.0
  9
$PLIMMAX
 10
12.0
 20
9.0
  9
$UNITMODE
 70
     0
  9
$VISRETAIN
 70
     1
  9
$PLINEGEN
 70
     0
  9
$PSLTSCALE
 70
     1
  9
$TREEDEPTH
 70
  3020
  9
$CMLSTYLE
  2
Standard
  9
$CMLJUST
 70
     0
  9
$CMLSCALE
 40
1.0
  9
$PROXYGRAPHICS
 70
     1
  9
$MEASUREMENT
 70
     1
  9
$CELWEIGHT
370
    -1
  9
$ENDCAPS
280
     0
  9
$JOINSTYLE
280
     0
  9
$LWDISPLAY
290
     0
  9
$INSUNITS
 70
     4
  9
$HYPERLINKBASE
  1

  9
$STYLESHEET
  1

  9
$XEDIT
290
     1
  9
$CEPSNTYPE
380
     0
  9
$PSTYLEMODE
290
     1
  9
$FINGERPRINTGUID
  2
{FCA2DD79-2AD6-4B65-8A9B-ACAB028EF725}
  9
$VERSIONGUID
  2
{58B78D8D-AF0E-48BA-ADE2-1604CBD0D3A5}
  9
$EXTNAMES
290
     1
  9
$PSVPSCALE
 40
0.0
  9
$OLESTARTUP
290
     0
  0
ENDSEC
  0
SECTION
  2
CLASSES
  0
CLASS
  1
ACDBDICTIONARYWDFLT
  2
AcDbDictionaryWithDefault
  3
ObjectDBX Classes
 90
        0
280
     0
281
     0
  0
CLASS
  1
ACDBPLACEHOLDER
  2
AcDbPlaceHolder
  3
ObjectDBX Classes
 90
        0
280
     0
281
     0
  0
CLASS
  1
LAYOUT
  2
AcDbLayout
  3
ObjectDBX Classes
 90
        0
280
     0
281
     0
  0
CLASS
  1
MATERIAL
  2
AcDbMaterial
  3
ObjectDBX Classes
 90
     1153
280
     0
281
     0
  0
CLASS
  1
VISUALSTYLE
  2
AcDbVisualStyle
  3
ObjectDBX Classes
 90
     4095
280
     0
281
     0
  0
CLASS
  1
TABLESTYLE
  2
AcDbTableStyle
  3
ObjectDBX Classes
 90
     4095
280
     0
281
     0
  0
CLASS
  1
SCALE
  2
AcDbScale
  3
ObjectDBX Classes
 90
     1153
280
     0
281
     0
  0
CLASS
  1
MLEADERSTYLE
  2
AcDbMLeaderStyle
  3
ACDB_MLEADERSTYLE_CLASS
 90
     4095
280
     0
281
     0
  0
CLASS
  1
AMGSETTINGSOBJ
  2
AmgSettingsObj
  3
"AcadM|Product Description: AutoCAD Mechanical|Company: Autodesk, Inc."
 90
     1024
280
     0
281
     0
  0
CLASS
  1
ACME_DOCUMENT
  2
AcMeDbDoc
  3
AcMeServices
 90
     1024
280
     0
281
     0
  0
CLASS
  1
ACMESCOPE
  2
AcMeScope
  3
AcMeServices
 90
     1024
280
     0
281
     0
  0
CLASS
  1
ACMECOMMANDHISTORY
  2
AcMeCommandHistory
  3
AcMeServices
 90
     1024
280
     0
281
     0
  0
CLASS
  1
ACIMSYSVARMAN
  2
AcImSysVarManager
  3
AcMeServices
 90
     1024
280
     0
281
     0
  0
CLASS
  1
ACIMINTSYSVAR
  2
AcImIntSysVar
  3
AcMeServices
 90
     1024
280
     0
281
     0
  0
CLASS
  1
ACMEDRAWINGMAN
  2
AcMeDrawingMan
  3
AcMeServices
 90
     1024
280
     0
281
     0
  0
CLASS
  1
ACMEVIEW
  2
AcMeView
  3
AcMeServices
 90
     1024
280
     0
281
     0
  0
CLASS
  1
ACDBENTITYCACHE
  2
AcMeEntityCache
  3
AcMeServices
 90
     1024
280
     0
281
     0
  0
CLASS
  1
ACMESTATEMGR
  2
AcMeStateMgr
  3
AcMeServices
 90
     1024
280
     0
281
     0
  0
CLASS
  1
ACGREFMASTER
  2
AcGrefMaster
  3
AcAttribServices
 90
     1024
280
     0
281
     0
  0
CLASS
  1
AM_DRAWING_MGR
  2
AcDmDwgMgr
  3
AcMechDwgViewMgmt
 90
     1024
280
     0
281
     0
  0
CLASS
  1
AM_DWG_DOCUMENT
  2
AcDmDwgDocument
  3
AcMechDwgViewMgmt
 90
     1024
280
     0
281
     0
  0
CLASS
  1
AM_DWG_SHEET
  2
AcDmSheet
  3
AcMechDwgViewMgmt
 90
     1024
280
     0
281
     0
  0
CLASS
  1
AM_VIEWDIMPARMAP
  2
AcDmViewDimParMap
  3
AcMechDwgViewMgmt
 90
     1024
280
     0
281
     0
  0
CLASS
  1
AMDTINTERNALREACTOR
  2
AmdtInternalReactor
  3
AcMeServices
 90
     1024
280
     0
281
     0
  0
CLASS
  1
ACIMREALSYSVAR
  2
AcImRealSysVar
  3
AcMeServices
 90
     1024
280
     0
281
     0
  0
CLASS
  1
AM_DWGMGR_NAME
  2
AcDmDwgMgrName
  3
AcMechDwgViewMgmt
 90
     1024
280
     0
281
     0
  0
CLASS
  1
ACME_DATABASE
  2
AcMeDbDatabase
  3
AcMeServices
 90
     1024
280
     0
281
     0
  0
CLASS
  1
ACRFINSADJUSTERMGR
  2
AcRfInsAdjusterMgr
  3
AcMeServices
 90
     1024
280
     0
281
     0
  0
CLASS
  1
ACGREFACADMASTER
  2
AcGrefacadMaster
  3
AcGrefServices
 90
     1024
280
     0
281
     0
  0
CLASS
  1
AMDTMENUSTATEMGR
  2
AmdtMenuStateMgr
  3
McadcomServices
 90
     1024
280
     0
281
     0
  0
CLASS
  1
AMDTMCOMMENUSTATE
  2
AmdtMcomMenuState
  3
McadcomServices
 90
     1024
280
     0
281
     0
  0
CLASS
  1
AMIMASTER
  2
AmiMaster
  3
AmiServices
 90
     1024
280
     0
281
     0
  0
CLASS
  1
MAPIAMMOUDLE
  2
MApiAmModule
  3
MApiAmServices
 90
     1024
280
     0
281
     0
  0
CLASS
  1
ACIMSTRSYSVAR
  2
AcImStrSysVar
  3
AcMeServices
 90
     1024
280
     0
281
     0
  0
CLASS
  1
AMDTADMENUSTATE
  2
AmdtAdMenuState
  3
DesignerServices
 90
     1024
280
     0
281
     0
  0
CLASS
  1
ADAPPL
  2
AcAdAppl
  3
DesignerServices
 90
     1024
280
     0
281
     0
  0
CLASS
  1
DEPMGR
  2
AcAdDepMgr
  3
DesignerServices
 90
     1024
280
     0
281
     0
  0
CLASS
  1
PARAMMGR
  2
AcAdParamMgr
  3
DesignerServices
 90
     1024
280
     0
281
     0
  0
CLASS
  1
PARAMSCOPE
  2
AcAdParamScope
  3
DesignerServices
 90
     1024
280
     0
281
     0
  0
CLASS
  1
NAMEDAPPL
  2
AcAdNamedAppl
  3
DesignerServices
 90
     1024
280
     0
281
     0
  0
CLASS
  1
AMDTDMMENUSTATE
  2
AmdtDmMenuState
  3
AcMechDwgViewMgmt
 90
     1024
280
     0
281
     0
  0
CLASS
  1
AMDTAMMENUSTATE
  2
AmdtAmMenuState
  3
DesignerAssemblies
 90
     1024
280
     0
281
     0
  0
CLASS
  1
ACAMPROJECT
  2
AcAmProject
  3
DesignerAssemblies
 90
     1024
280
     0
281
     0
  0
CLASS
  1
ACAMGRCOMPDEF
  2
AcAmGrCompDef
  3
DesignerAssemblies
 90
     1024
280
     0
281
     0
  0
CLASS
  1
ACAMCOMPDEF
  2
AcAmCompDef
  3
DesignerAssemblies
 90
     1024
280
     0
281
     0
  0
CLASS
  1
ACAMCOMPDEFMGR
  2
AcAmCompDefMgr
  3
DesignerAssemblies
 90
     1024
280
     0
281
     0
  0
CLASS
  1
AMCONTEXTMGR
  2
AcAmContextMgr
  3
DesignerAssemblies
 90
     1024
280
     0
281
     0
  0
CLASS
  1
ACAMCONTEXTMODELER
  2
AcAmContextModeler
  3
DesignerAssemblies
 90
     1024
280
     0
281
     0
  0
CLASS
  1
ACMDATADICTIONARY
  2
AcmDataDictionary
  3
"AcmSymBB|Product Description: AutoCAD Mechanical|Company: Autodesk, Inc."
 90
     1024
280
     0
281
     0
  0
CLASS
  1
CATALOGSTATE
  2
AcAmCatalogState
  3
DesignerAssemblies
 90
     1024
280
     0
281
     0
  0
CLASS
  1
ACAMGRCOMPDEFSET
  2
AcAmGrCompDefSet
  3
DesignerAssemblies
 90
     1024
280
     0
281
     0
  0
CLASS
  1
AMDTBROWSERDBTAB
  2
AmdtBrowserDbTab
  3
McadcomServices
 90
     1024
280
     0
281
     0
  0
CLASS
  1
CBROWSERAPPOBJECT
  2
CBrowserAppObject
  3
McadcomServices
 90
     1024
280
     0
281
     0
  0
CLASS
  1
DM_PLACEHOLDER
  2
AcDmSelsetPlaceholder
  3
AcMechDwgViewMgmt
 90
     1024
280
     0
281
     0
  0
CLASS
  1
ACMSTANDARDDIN
  2
AcmStandardDIN
  3
"Amdt_StdImp|Product Description: AutoCAD Mechanical|Company: Autodesk, Inc."
 90
     1024
280
     0
281
     0
  0
CLASS
  1
AMDTEDGESTANDARDDIN13715
  2
AmdtEdgeStdDIN13715
  3
"Amdt_StdImp|Product Description: AutoCAD Mechanical|Company: Autodesk, Inc."
 90
     1024
280
     0
281
     0
  0
CLASS
  1
ACMSURFSTANDARDDIN2002
  2
AcmSurfTextStdDIN2002
  3
"Amdt_StdImp|Product Description: AutoCAD Mechanical|Company: Autodesk, Inc."
 90
     1024
280
     0
281
     0
  0
CLASS
  1
ACMFCFSTANDARDDIN
  2
AcmFCFStdDIN
  3
"Amdt_StdImp|Product Description: AutoCAD Mechanical|Company: Autodesk, Inc."
 90
     1024
280
     0
281
     0
  0
CLASS
  1
ACMWELDSTANDARDDIN
  2
AcmWeldingStdDIN
  3
"Amdt_StdImp|Product Description: AutoCAD Mechanical|Company: Autodesk, Inc."
 90
     1024
280
     0
281
     0
  0
CLASS
  1
ACMIDSTANDARDDIN
  2
AcmIdStdDIN
  3
"Amdt_StdImp|Product Description: AutoCAD Mechanical|Company: Autodesk, Inc."
 90
     1024
280
     0
281
     0
  0
CLASS
  1
ACMDATUMSTANDARDDIN
  2
AcmDatumStdDIN
  3
"Amdt_StdImp|Product Description: AutoCAD Mechanical|Company: Autodesk, Inc."
 90
     1024
280
     0
281
     0
  0
CLASS
  1
ACMBOMSTANDARDDIN
  2
AcmBOMStdDIN
  3
"Amdt_StdImp|Product Description: AutoCAD Mechanical|Company: Autodesk, Inc."
 90
     1024
280
     0
281
     0
  0
CLASS
  1
ACMDETAILSTANDARDDIN
  2
AmdtDetailSymStdDIN
  3
"Amdt_StdImp|Product Description: AutoCAD Mechanical|Company: Autodesk, Inc."
 90
     1024
280
     0
281
     0
  0
CLASS
  1
ACMSECTIONSTANDARDDIN
  2
AmdtSectionSymStdDIN
  3
"Amdt_StdImp|Product Description: AutoCAD Mechanical|Company: Autodesk, Inc."
 90
     1024
280
     0
281
     0
  0
CLASS
  1
ACMCENTERLINESTANDARDDIN
  2
AmdtCenterLineStdDIN
  3
"Amdt_StdImp|Product Description: AutoCAD Mechanical|Company: Autodesk, Inc."
 90
     1024
280
     0
281
     0
  0
CLASS
  1
ACMTHREADLINESTANDARDDIN
  2
AmdtThreadLineStdDIN
  3
"Amdt_StdImp|Product Description: AutoCAD Mechanical|Company: Autodesk, Inc."
 90
     1024
280
     0
281
     0
  0
CLASS
  1
ACMNOTESTANDARDDIN
  2
AmdtNoteStdDIN
  3
"Amdt_StdImp|Product Description: AutoCAD Mechanical|Company: Autodesk, Inc."
 90
     1024
280
     0
281
     0
  0
CLASS
  1
ACMTAPERSTANDARDDIN
  2
AcmTaperStdDIN
  3
"Amdt_StdImp|Product Description: AutoCAD Mechanical|Company: Autodesk, Inc."
 90
     1024
280
     0
281
     0
  0
CLASS
  1
ACMANOOTATIONVIEWSTANDARDDIN
  2
AmdtAnViewStdDIN
  3
"Amdt_StdImp|Product Description: AutoCAD Mechanical|Company: Autodesk, Inc."
 90
     1024
280
     0
281
     0
  0
CLASS
  1
ACAMGLAYSTD
  2
AcAmgLayStd
  3
"AmgLay|Product Description: AutoCAD Mechanical|Company: Autodesk, Inc."
 90
     1024
280
     0
281
     0
  0
CLASS
  1
ACAMGDIMSTD
  2
AcAmgDimStd
  3
"AmgDim|Product Description: AutoCAD Mechanical|Company: Autodesk, Inc."
 90
     1024
280
     0
281
     0
  0
CLASS
  1
AMGOBJPROPCFG
  2
AmgObjPropCfg
  3
"AmgLay|Product Description: AutoCAD Mechanical|Company: Autodesk, Inc."
 90
     1025
280
     0
281
     0
  0
CLASS
  1
ACAMGHOLECHARTSTDDIN
  2
AcAmgHoleChartStdDIN
  3
AmgDim|Product Description: AutoCAD Mechanical|Company: Autodesk, Inc.
 90
     1024
280
     0
281
     0
  0
CLASS
  1
ACAMGTITLESTD
  2
AcAmgTitleStd
  3
"AmgTitle|Product Description: AutoCAD Mechanical|Company: Autodesk, Inc."
 90
     4095
280
     0
281
     0
  0
CLASS
  1
AMDTNOTETEMPLATEDB
  2
AmdtNoteTemplateDB
  3
AcmSymBB|Product Description: AutoCAD Mechanical|Company: Autodesk, Inc.
 90
     1024
280
     0
281
     0
  0
CLASS
  1
ACAMGFILTERDAT
  2
AcAmgFilterDat
  3
"AcadM|Product Description: AutoCAD Mechanical|Company: Autodesk, Inc."
 90
     1024
280
     0
281
     0
  0
CLASS
  1
AEC_REFEDIT_STATUS_TRACKER
  2
AecDbRefEditStatusTracker
  3
AecArchBase60|Product Desc: Autodesk Architectural Desktop 2007 |Company: Autodesk,Inc. |WEB Address: www.autodesk.com
 90
      129
280
     0
281
     0
  0
CLASS
  1
NPOCOLLECTION
  2
AcDbImpNonPersistentObjectsCollection
  3
ObjectDBX Classes
 90
     1153
280
     0
281
     0
  0
CLASS
  1
DICTIONARYVAR
  2
AcDbDictionaryVar
  3
ObjectDBX Classes
 90
        0
280
     0
281
     0
  0
CLASS
  1
CELLSTYLEMAP
  2
AcDbCellStyleMap
  3
ObjectDBX Classes
 90
     1152
280
     0
281
     0
  0
CLASS
  1
SORTENTSTABLE
  2
AcDbSortentsTable
  3
ObjectDBX Classes
 90
        0
280
     0
281
     0
  0
ENDSEC
  0
SECTION
  2
TABLES
  0
TABLE
  2
VPORT
  5
8
330
0
100
AcDbSymbolTable
 70
     1
  0
VPORT
  5
1F4
330
8
100
AcDbSymbolTableRecord
100
AcDbViewportTableRecord
  2
*ACTIVE
 70
     0
 10
0.0
 20
0.0
 11
1.0
 21
1.0
 12
-46.85485285767344
 22
270.6372567225597
 13
0.0
 23
0.0
 14
1.0
 24
1.0
 15
0.0
 25
0.0
 16
0.0
 26
0.0
 36
1.0
 17
0.0
 27
0.0
 37
0.0
 40
979.9928097799389
 41
2.072033898305084
 42
50.0
 43
0.0
 44
0.0
 50
0.0
 51
0.0
 71
     0
 72
   100
 73
     1
 74
     1
 75
     0
 76
     0
 77
     0
 78
     0
281
     0
 65
     0
110
0.0
120
0.0
130
0.0
111
1.0
121
0.0
131
0.0
112
0.0
122
1.0
132
0.0
 79
     0
146
0.0
  0
ENDTAB
  0
TABLE
  2
LTYPE
  5
5
330
0
100
AcDbSymbolTable
 70
    23
  0
LTYPE
  5
14
330
5
100
AcDbSymbolTableRecord
100
AcDbLinetypeTableRecord
  2
BYBLOCK
 70
     0
  3

 72
    65
 73
     0
 40
0.0
  0
LTYPE
  5
15
330
5
100
AcDbSymbolTableRecord
100
AcDbLinetypeTableRecord
  2
BYLAYER
 70
     0
  3

 72
    65
 73
     0
 40
0.0
  0
LTYPE
  5
16
330
5
100
AcDbSymbolTableRecord
100
AcDbLinetypeTableRecord
  2
CONTINUOUS
 70
     0
  3
Solid line
 72
    65
 73
     0
 40
0.0
  0
LTYPE
  5
1F5
330
5
100
AcDbSymbolTableRecord
100
AcDbLinetypeTableRecord
  2
CENTER
 70
     0
  3
____ _ ____ _ ____ _ ____ _ ____ _ ____ _ ____
 72
    65
 73
     4
 40
0.6
 49
0.375
 74
     0
 49
-0.075
 74
     0
 49
0.075
 74
     0
 49
-0.075
 74
     0
  0
LTYPE
  5
1F6
330
5
100
AcDbSymbolTableRecord
100
AcDbLinetypeTableRecord
  2
HIDDEN
 70
     0
  3
- - - - - - - - - - - - - - - - - - - -
 72
    65
 73
     2
 40
0.2
 49
0.1
 74
     0
 49
-0.1
 74
     0
  0
LTYPE
  5
680
330
5
100
AcDbSymbolTableRecord
100
AcDbLinetypeTableRecord
  2
PHANTOM2
 70
     0
  3
Phantom (.5x) ___ _ _ ___ _ _ ___ _ _ ___ _ _
 72
    65
 73
     6
 40
31.75
 49
15.875
 74
     0
 49
-3.174999999999999
 74
     0
 49
3.174999999999999
 74
     0
 49
-3.174999999999999
 74
     0
 49
3.174999999999999
 74
     0
 49
-3.174999999999999
 74
     0
  0
LTYPE
  5
6C9
330
5
100
AcDbSymbolTableRecord
100
AcDbLinetypeTableRecord
  2
Amconstr
 70
     0
  3
_______________________
 72
    65
 73
     2
 40
9999.0
 49
9999.0
 74
     0
 49
0.0
 74
     0
  0
LTYPE
  5
6CE
330
5
100
AcDbSymbolTableRecord
100
AcDbLinetypeTableRecord
  2
Amzigzag
 70
     0
  3
/\/-/\/-/\/-/\/-/\/-/\/
 72
    65
 73
     2
 40
11.0001
 49
0.0001
 74
     4
 75
   136
340
6CD
 46
0.04
 50
0.0
 44
0.0
 45
0.0
 49
-11.0
 74
     0
  0
LTYPE
  5
6CF
330
5
100
AcDbSymbolTableRecord
100
AcDbLinetypeTableRecord
  2
AM_DIN_F_W050
 70
     0
  3
__ __ __ __ __ __ __ __ __ __ __ __ __ __ __
 72
    65
 73
     2
 40
6.25
 49
4.75
 74
     0
 49
-1.5
 74
     0
  0
LTYPE
  5
6D0
330
5
100
AcDbSymbolTableRecord
100
AcDbLinetypeTableRecord
  2
AM_DIN_G_W050
 70
     0
  3
____ . ____ . ____ . ____ . ____ . ____ . ____
 72
    65
 73
     4
 40
13.75
 49
9.75
 74
     0
 49
-1.5
 74
     0
 49
1.0
 74
     0
 49
-1.5
 74
     0
  0
LTYPE
  5
6D1
330
5
100
AcDbSymbolTableRecord
100
AcDbLinetypeTableRecord
  2
AM_DIN_K_W050
 70
     0
  3
_____ . . _____ . . _____ . . ____ .. ____
 72
    65
 73
     6
 40
16.25
 49
9.75
 74
     0
 49
-1.5
 74
     0
 49
1.0
 74
     0
 49
-1.5
 74
     0
 49
1.0
 74
     0
 49
-1.5
 74
     0
  0
LTYPE
  5
6D2
330
5
100
AcDbSymbolTableRecord
100
AcDbLinetypeTableRecord
  2
AM_DIN_G_W050x2
 70
     0
  3
__ . __ . __ . __ . __ . __
 72
    65
 73
     4
 40
6.875
 49
4.75
 74
     0
 49
-0.875
 74
     0
 49
0.375
 74
     0
 49
-0.875
 74
     0
  0
LTYPE
  5
6D3
330
5
100
AcDbSymbolTableRecord
100
AcDbLinetypeTableRecord
  2
AM_DIN_F_W050x2
 70
     0
  3
 _ _ _ _ _ _ _ _ _ _ _ _
 72
    65
 73
     2
 40
3.125
 49
2.25
 74
     0
 49
-0.875
 74
     0
  0
LTYPE
  5
6E2
330
5
100
AcDbSymbolTableRecord
100
AcDbLinetypeTableRecord
  2
ACDINWELD
 70
     0
  3
_ _ _ _ _
 72
    65
 73
     2
 40
2.0
 49
2.0
 74
     0
 49
-1.0
 74
     0
  0
LTYPE
  5
6E3
330
5
100
AcDbSymbolTableRecord
100
AcDbLinetypeTableRecord
  2
ACDINTGB
 70
     0
  3
__ . . __ . .
 72
    65
 73
     6
 40
9.0
 49
4.0
 74
     0
 49
-1.0
 74
     0
 49
1.0
 74
     0
 49
-1.0
 74
     0
 49
1.0
 74
     0
 49
-1.0
 74
     0
  0
LTYPE
  5
6E4
330
5
100
AcDbSymbolTableRecord
100
AcDbLinetypeTableRecord
  2
ACDINTGL
 70
     0
  3
_ _ _ _ _
 72
    65
 73
     2
 40
3.0
 49
2.0
 74
     0
 49
-1.0
 74
     0
  0
ENDTAB
  0
TABLE
  2
LAYER
  5
2
330
0
100
AcDbSymbolTable
 70
    23
  0
LAYER
  5
10
102
{ACAD_XDICTIONARY
360
80C
102
}
330
2
100
AcDbSymbolTableRecord
100
AcDbLayerTableRecord
  2
0
 70
     0
 62
     7
  6
CONTINUOUS
370
    -3
390
F
  0
LAYER
  5
1FD
102
{ACAD_XDICTIONARY
360
80E
102
}
330
2
100
AcDbSymbolTableRecord
100
AcDbLayerTableRecord
  2
BEZUGSACHSEN
 70
     0
 62
     7
  6
CONTINUOUS
370
    -3
390
F
  0
LAYER
  5
202
102
{ACAD_XDICTIONARY
360
810
102
}
330
2
100
AcDbSymbolTableRecord
100
AcDbLayerTableRecord
  2
RUNDUNGEN
 70
     0
 62
     7
  6
CONTINUOUS
370
    -3
390
F
  0
LAYER
  5
203
102
{ACAD_XDICTIONARY
360
812
102
}
330
2
100
AcDbSymbolTableRecord
100
AcDbLayerTableRecord
  2
TEIL_STARTBEZUEGE
 70
     0
 62
     7
  6
CONTINUOUS
370
    -3
390
F
  0
LAYER
  5
204
102
{ACAD_XDICTIONARY
360
814
102
}
330
2
100
AcDbSymbolTableRecord
100
AcDbLayerTableRecord
  2
ZEICHNUNGSBEMASSUNGEN
 70
     0
 62
     7
  6
CONTINUOUS
370
    -3
390
F
  0
LAYER
  5
6F7
330
2
100
AcDbSymbolTableRecord
100
AcDbLayerTableRecord
  2
Defpoints
 70
     0
 62
     7
  6
CONTINUOUS
290
     0
370
    -3
390
F
  0
LAYER
  5
7AA
102
{ACAD_XDICTIONARY
360
7AB
102
}
330
2
100
AcDbSymbolTableRecord
100
AcDbLayerTableRecord
  2
P-0000
 70
     0
 62
     7
  6
CONTINUOUS
370
    -3
390
F
  0
ENDTAB
  0
TABLE
  2
STYLE
  5
3
330
0
100
AcDbSymbolTable
 70
    12
  0
STYLE
  5
11
330
3
100
AcDbSymbolTableRecord
100
AcDbTextStyleTableRecord
  2
STANDARD
 70
     0
 40
0.0
 41
0.7
 50
0.0
 71
     0
 42
0.2
  3
txt
  4

  0
STYLE
  5
6CD
330
3
100
AcDbSymbolTableRecord
100
AcDbTextStyleTableRecord
  2

 70
     1
 40
0.0
 41
1.0
 50
0.0
 71
     0
 42
0.2
  3
genltshp.shx
  4

  0
STYLE
  5
6E1
330
3
100
AcDbSymbolTableRecord
100
AcDbTextStyleTableRecord
  2
ACDINGDT
 70
     0
 40
0.0
 41
1.0
 50
0.0
 71
     0
 42
0.2
  3
amgdt.shx
  4

  0
ENDTAB
  0
TABLE
  2
VIEW
  5
6
330
0
100
AcDbSymbolTable
 70
     0
  0
ENDTAB
  0
TABLE
  2
UCS
  5
7
330
0
100
AcDbSymbolTable
 70
     0
  0
ENDTAB
  0
TABLE
  2
APPID
  5
9
330
0
100
AcDbSymbolTable
 70
    18
  0
APPID
  5
20D
330
9
100
AcDbSymbolTableRecord
100
AcDbRegAppTableRecord
  2
ACAD
 70
     0
  0
APPID
  5
655
330
9
100
AcDbSymbolTableRecord
100
AcDbRegAppTableRecord
  2
MCAD_NO_VIS
 70
     0
  0
APPID
  5
656
330
9
100
AcDbSymbolTableRecord
100
AcDbRegAppTableRecord
  2
ACAD_TEMP_GRAPHIC
 70
     0
  0
APPID
  5
682
330
9
100
AcDbSymbolTableRecord
100
AcDbRegAppTableRecord
  2
AD_DRAW
 70
     0
  0
APPID
  5
685
330
9
100
AcDbSymbolTableRecord
100
AcDbRegAppTableRecord
  2
ACATTRIBSERVICES
 70
     0
  0
APPID
  5
6A5
330
9
100
AcDbSymbolTableRecord
100
AcDbRegAppTableRecord
  2
DESIGNERASSEMBLIES
 70
     0
  0
APPID
  5
6AB
330
9
100
AcDbSymbolTableRecord
100
AcDbRegAppTableRecord
  2
ACADM_DIM_EDIT
 70
     0
  0
APPID
  5
6AC
330
9
100
AcDbSymbolTableRecord
100
AcDbRegAppTableRecord
  2
AMDT_DM_ADJ
 70
     0
  0
APPID
  5
6C3
330
9
100
AcDbSymbolTableRecord
100
AcDbRegAppTableRecord
  2
ACAD_DSTYLE_DIMJAG
 70
     0
  0
APPID
  5
6C4
330
9
100
AcDbSymbolTableRecord
100
AcDbRegAppTableRecord
  2
ACAD_DSTYLE_DIMBREAK
 70
     0
  0
APPID
  5
6F3
330
9
100
AcDbSymbolTableRecord
100
AcDbRegAppTableRecord
  2
AcAecLayerStandard
 70
     0
  0
APPID
  5
70F
330
9
100
AcDbSymbolTableRecord
100
AcDbRegAppTableRecord
  2
GENIUS_GENDTOL_13
 70
     0
  0
APPID
  5
710
330
9
100
AcDbSymbolTableRecord
100
AcDbRegAppTableRecord
  2
ACAD_DSTYLE_DIMINSPECT
 70
     0
  0
APPID
  5
7AD
330
9
100
AcDbSymbolTableRecord
100
AcDbRegAppTableRecord
  2
ACAD_DSTYLE_DIMJOGGED_JOGANGLE_SYMBOL
 70
     0
  0
APPID
  5
15FB
330
9
100
AcDbSymbolTableRecord
100
AcDbRegAppTableRecord
  2
ACAD_MLEADERVER
 70
     0
  0
APPID
  5
15FC
330
9
100
AcDbSymbolTableRecord
100
AcDbRegAppTableRecord
  2
ACAD_DSTYLE_DIM_LINETYPE
 70
     0
  0
APPID
  5
15FD
330
9
100
AcDbSymbolTableRecord
100
AcDbRegAppTableRecord
  2
ACAD_DSTYLE_DIM_EXT1_LINETYPE
 70
     0
  0
APPID
  5
15FE
330
9
100
AcDbSymbolTableRecord
100
AcDbRegAppTableRecord
  2
ACAD_DSTYLE_DIM_EXT2_LINETYPE
 70
     0
  0
ENDTAB
  0
TABLE
  2
DIMSTYLE
  5
A
330
0
100
AcDbSymbolTable
 70
    31
100
AcDbDimStyleTable
 71
     2
340
236
340
7AC
  0
DIMSTYLE
105
236
330
A
100
AcDbSymbolTableRecord
100
AcDbDimStyleTableRecord
  2
STANDARD
 70
     0
 41
3.5
 42
1.5
 44
1.5
 47
0.005
 48
0.005
 71
     1
 73
     0
 74
     0
 77
     1
 78
     8
140
3.5
147
0.625
178
     5
271
     3
272
     3
284
     8
340
11
341
210
342
210
343
210
344
210
  0
DIMSTYLE
105
6C2
102
{ACAD_REACTORS
330
6B1
102
}
330
A
100
AcDbSymbolTableRecord
100
AcDbDimStyleTableRecord
  2
AM_DIN
 70
     0
  4
"
 41
3.5
 42
1.0
 43
10.0
 44
1.0
 47
0.1
 48
0.1
 73
     0
 74
     0
 77
     1
 78
     8
 79
     2
140
3.5
141
0.0
143
0.0393701
146
0.71
147
1.5
172
     1
176
   256
177
   256
178
     2
271
     2
272
     3
274
     4
283
     0
284
     8
340
11
371
    -1
372
    -1
1001
ACAD_DSTYLE_DIMJAG
1070
   388
1040
1.5
1001
ACAD_DSTYLE_DIMBREAK
1070
   391
1040
3.75
1001
ACAD_DSTYLE_DIMJOGGED_JOGANGLE_SYMBOL
1070
   384
1040
1.570796326794896
1001
ACAD_DSTYLE_DIM_LINETYPE
1070
   380
1005
14
1001
ACAD_DSTYLE_DIM_EXT1_LINETYPE
1070
   381
1005
14
1001
ACAD_DSTYLE_DIM_EXT2_LINETYPE
1070
   382
1005
14
  0
DIMSTYLE
105
6D4
330
A
100
AcDbSymbolTableRecord
100
AcDbDimStyleTableRecord
  2
AM_DIN$3
 70
     0
  4
"
 41
3.5
 42
1.0
 43
10.0
 44
1.0
 47
0.1
 48
0.1
 73
     0
 77
     1
 78
     8
 79
     2
140
3.5
141
0.0
143
0.0393701
146
0.71
147
1.5
176
   256
177
   256
178
     2
271
     2
272
     3
274
     4
283
     0
284
     8
288
     1
289
     0
340
11
371
    -1
372
    -1
1001
ACAD_DSTYLE_DIMBREAK
1070
   391
1040
3.75
1001
ACAD_DSTYLE_DIMJAG
1070
   388
1040
1.5
1001
ACAD_DSTYLE_DIMJOGGED_JOGANGLE_SYMBOL
1070
   384
1040
1.570796326794896
1001
ACAD_DSTYLE_DIM_LINETYPE
1070
   380
1005
14
1001
ACAD_DSTYLE_DIM_EXT1_LINETYPE
1070
   381
1005
14
1001
ACAD_DSTYLE_DIM_EXT2_LINETYPE
1070
   382
1005
14
  0
DIMSTYLE
105
6D5
330
A
100
AcDbSymbolTableRecord
100
AcDbDimStyleTableRecord
  2
AM_DIN$4
 70
     0
  4
"
 41
3.5
 42
1.0
 43
10.0
 44
1.0
 47
0.1
 48
0.1
 73
     0
 77
     1
 78
     8
 79
     2
140
3.5
141
0.0
143
0.0393701
146
0.71
147
1.5
176
   256
177
   256
178
     2
271
     2
272
     3
274
     4
283
     0
284
     8
288
     1
289
     0
340
11
371
    -1
372
    -1
1001
ACAD_DSTYLE_DIMBREAK
1070
   391
1040
3.75
1001
ACAD_DSTYLE_DIMJAG
1070
   388
1040
1.5
1001
ACAD_DSTYLE_DIMJOGGED_JOGANGLE_SYMBOL
1070
   384
1040
1.570796326794896
1001
ACAD_DSTYLE_DIM_LINETYPE
1070
   380
1005
14
1001
ACAD_DSTYLE_DIM_EXT1_LINETYPE
1070
   381
1005
14
1001
ACAD_DSTYLE_DIM_EXT2_LINETYPE
1070
   382
1005
14
  0
DIMSTYLE
105
6D6
330
A
100
AcDbSymbolTableRecord
100
AcDbDimStyleTableRecord
  2
AM_DIN$6
 70
     0
  4
"
 41
3.5
 42
1.0
 43
10.0
 44
1.0
 47
0.1
 48
0.1
 73
     0
 74
     0
 78
     8
 79
     2
140
3.5
141
0.0
143
0.0393701
146
0.71
147
1.5
172
     1
176
   256
177
   256
178
     2
271
     2
272
     3
274
     4
283
     0
284
     8
340
11
371
    -1
372
    -1
1001
ACAD_DSTYLE_DIMBREAK
1070
   391
1040
3.75
1001
ACAD_DSTYLE_DIMJAG
1070
   388
1040
1.5
1001
ACAD_DSTYLE_DIMJOGGED_JOGANGLE_SYMBOL
1070
   384
1040
1.570796326794896
1001
ACAD_DSTYLE_DIM_LINETYPE
1070
   380
1005
14
1001
ACAD_DSTYLE_DIM_EXT1_LINETYPE
1070
   381
1005
14
1001
ACAD_DSTYLE_DIM_EXT2_LINETYPE
1070
   382
1005
14
  0
DIMSTYLE
105
6D7
330
A
100
AcDbSymbolTableRecord
100
AcDbDimStyleTableRecord
  2
AM_DIN$7
 70
     0
  4
"
 41
3.5
 42
1.0
 43
10.0
 44
1.0
 47
0.1
 48
0.1
 73
     0
 74
     0
 77
     1
 78
     8
 79
     2
140
3.5
141
0.0
143
0.0393701
146
0.71
147
1.5
172
     1
176
   256
177
   256
178
     2
271
     2
272
     3
274
     4
283
     0
284
     8
340
11
371
    -1
372
    -1
1001
ACAD_DSTYLE_DIMBREAK
1070
   391
1040
3.75
1001
ACAD_DSTYLE_DIMJAG
1070
   388
1040
1.5
1001
ACAD_DSTYLE_DIMJOGGED_JOGANGLE_SYMBOL
1070
   384
1040
1.570796326794896
1001
ACAD_DSTYLE_DIM_LINETYPE
1070
   380
1005
14
1001
ACAD_DSTYLE_DIM_EXT1_LINETYPE
1070
   381
1005
14
1001
ACAD_DSTYLE_DIM_EXT2_LINETYPE
1070
   382
1005
14
  0
DIMSTYLE
105
6D8
330
A
100
AcDbSymbolTableRecord
100
AcDbDimStyleTableRecord
  2
AM_DIN$SF
 70
     0
  4
"
 41
3.5
 42
1.0
 43
10.0
 44
1.0
 47
0.1
 48
0.1
 73
     0
 74
     0
 75
     1
 76
     1
 77
     1
 78
     8
 79
     2
140
3.5
141
0.0
143
0.0393701
146
0.71
147
1.5
172
     1
176
   256
177
   256
178
     2
271
     2
272
     3
274
     4
283
     0
284
     8
340
11
371
    -1
372
    -1
1001
ACAD_DSTYLE_DIMBREAK
1070
   391
1040
3.75
1001
ACAD_DSTYLE_DIMJAG
1070
   388
1040
1.5
1001
ACAD_DSTYLE_DIMJOGGED_JOGANGLE_SYMBOL
1070
   384
1040
1.570796326794896
1001
ACAD_DSTYLE_DIM_LINETYPE
1070
   380
1005
14
1001
ACAD_DSTYLE_DIM_EXT1_LINETYPE
1070
   381
1005
14
1001
ACAD_DSTYLE_DIM_EXT2_LINETYPE
1070
   382
1005
14
  0
DIMSTYLE
105
6DD
330
A
100
AcDbSymbolTableRecord
100
AcDbDimStyleTableRecord
  2
AM_DIN$SH
 70
     0
  4
"
 41
3.5
 42
1.0
 43
10.0
 44
1.0
 47
0.1
 48
0.1
 73
     0
 74
     0
 75
     1
 76
     1
 77
     1
 78
     8
 79
     2
140
3.5
141
0.0
143
0.0393701
144
2.0
146
0.71
147
1.5
172
     1
173
     1
176
   256
177
   256
178
     2
271
     2
272
     3
274
     4
283
     0
284
     8
340
11
343
6D9
371
    -1
372
    -1
1001
ACAD_DSTYLE_DIMBREAK
1070
   391
1040
3.75
1001
ACAD_DSTYLE_DIMJAG
1070
   388
1040
1.5
1001
ACAD_DSTYLE_DIMJOGGED_JOGANGLE_SYMBOL
1070
   384
1040
1.570796326794896
1001
ACAD_DSTYLE_DIM_LINETYPE
1070
   380
1005
14
1001
ACAD_DSTYLE_DIM_EXT1_LINETYPE
1070
   381
1005
14
1001
ACAD_DSTYLE_DIM_EXT2_LINETYPE
1070
   382
1005
14
  0
DIMSTYLE
105
7AC
102
{ACAD_REACTORS
330
7AF
330
6F6
330
76E
330
3EC
102
}
330
A
100
AcDbSymbolTableRecord
100
AcDbDimStyleTableRecord
  2
883N99122_001_00149479900
 70
     0
 40
2.0
 41
3.149999999999999
 42
0.0
 43
3.75
 44
2.0
 73
     0
 74
     0
 77
     1
 78
     8
 79
     2
140
3.5
141
0.0
143
0.03937007874016
145
2.0
147
2.0
171
     3
172
     1
173
     1
176
     3
177
     3
178
     2
179
     2
271
     2
272
     2
274
     3
283
     0
284
     8
340
11
341
7A7
  0
ENDTAB
  0
TABLE
  2
BLOCK_RECORD
  5
1
330
0
100
AcDbSymbolTable
 70
    72
  0
BLOCK_RECORD
  5
20E
102
{ACAD_XDICTIONARY
360
126D
102
}
330
1
100
AcDbSymbolTableRecord
100
AcDbBlockTableRecord
  2
*Model_Space
340
604
  0
BLOCK_RECORD
  5
20F
330
1
100
AcDbSymbolTableRecord
100
AcDbBlockTableRecord
  2
*Paper_Space
340
605
  0
BLOCK_RECORD
  5
210
330
1
100
AcDbSymbolTableRecord
100
AcDbBlockTableRecord
  2
_FILLED
340
0
  0
BLOCK_RECORD
  5
221
330
1
100
AcDbSymbolTableRecord
100
AcDbBlockTableRecord
  2
*D17
340
0
  0
BLOCK_RECORD
  5
6D9
330
1
100
AcDbSymbolTableRecord
100
AcDbBlockTableRecord
  2
GENAXEH
340
0
  0
BLOCK_RECORD
  5
6F8
330
1
100
AcDbSymbolTableRecord
100
AcDbBlockTableRecord
  2
*D40
340
0
  0
BLOCK_RECORD
  5
76F
330
1
100
AcDbSymbolTableRecord
100
AcDbBlockTableRecord
  2
*D42
340
0
  0
BLOCK_RECORD
  5
7A7
330
1
100
AcDbSymbolTableRecord
100
AcDbBlockTableRecord
  2
_None
340
0
  0
ENDTAB
  0
ENDSEC
  0
SECTION
  2
BLOCKS
  0
BLOCK
  5
20
330
20E
100
AcDbEntity
  8
0
100
AcDbBlockBegin
  2
*Model_Space
 70
     0
 10
0.0
 20
0.0
 30
0.0
  3
*Model_Space
  1

  0
ENDBLK
  5
21
330
20E
100
AcDbEntity
  8
0
100
AcDbBlockEnd
  0
BLOCK
  5
1C
330
20F
100
AcDbEntity
 67
     1
  8
0
100
AcDbBlockBegin
  2
*Paper_Space
 70
     0
 10
0.0
 20
0.0
 30
0.0
  3
*Paper_Space
  1

  0
ENDBLK
  5
1D
330
20F
100
AcDbEntity
 67
     1
  8
0
100
AcDbBlockEnd
  0
BLOCK
  5
26F
330
210
100
AcDbEntity
  8
0
100
AcDbBlockBegin
  2
_FILLED
 70
     0
 10
0.0
 20
0.0
 30
0.0
  3
_FILLED
  1

  0
SOLID
  5
270
330
210
100
AcDbEntity
  8
0
  6
ByBlock
 62
     0
100
AcDbTrace
 10
0.0
 20
0.0
 30
0.0
 11
-1.0
 21
0.125
 31
0.0
 12
-1.0
 22
-0.125
 32
0.0
 13
-1.0
 23
-0.125
 33
0.0
  0
ENDBLK
  5
271
330
210
100
AcDbEntity
  8
0
  6
ByBlock
 62
     0
100
AcDbBlockEnd
  0
BLOCK
  5
30A
330
221
100
AcDbEntity
  8
ZEICHNUNGSBEMASSUNGEN
  6
Continuous
 62
     2
100
AcDbBlockBegin
  2
*D17
 70
     1
 10
0.0
 20
0.0
 30
0.0
  3
*D17
  1

  0
LINE
  5
14EF
330
221
100
AcDbEntity
  8
P-0000
  6
Continuous
 62
     3
370
    -2
100
AcDbLine
 10
-533.2591314967
 20
434.9083985443311
 30
0.0
 11
-569.9022345204435
 21
434.9083985443311
 31
0.0
  0
LINE
  5
14F0
330
221
100
AcDbEntity
  8
P-0000
  6
Continuous
 62
     3
370
    -2
100
AcDbLine
 10
-536.2591314967001
 20
453.9083536119313
 30
0.0
 11
-569.9022345204435
 21
453.9083536119313
 31
0.0
  0
LINE
  5
14F1
330
221
100
AcDbEntity
  8
P-0000
  6
Continuous
 62
     3
370
    -2
100
AcDbLine
 10
-565.9022345204435
 20
420.9083985443311
 30
0.0
 11
-565.9022345204435
 21
406.9083985443311
 31
0.0
  0
LINE
  5
14F2
330
221
100
AcDbEntity
  8
P-0000
  6
Continuous
 62
     3
370
    -2
100
AcDbLine
 10
-565.9022345204435
 20
467.9083536119312
 30
0.0
 11
-565.9022345204435
 21
481.9083536119312
 31
0.0
  0
LINE
  5
14F3
330
221
100
AcDbEntity
  8
P-0000
  6
Continuous
 62
     3
370
    -2
100
AcDbLine
 10
-565.9022345204435
 20
434.9083985443311
 30
0.0
 11
-565.9022345204435
 21
453.9083536119313
 31
0.0
  0
SOLID
  5
14F4
330
221
100
AcDbEntity
  8
P-0000
  6
Continuous
 62
     3
100
AcDbTrace
 10
-568.2355678537769
 20
420.9083985443311
 30
0.0
 11
-563.5689011871102
 21
420.9083985443311
 31
0.0
 12
-565.9022345204435
 22
434.9083985443311
 32
0.0
 13
-565.9022345204435
 23
434.9083985443311
 33
0.0
  0
SOLID
  5
14F5
330
221
100
AcDbEntity
  8
P-0000
  6
Continuous
 62
     3
100
AcDbTrace
 10
-568.2355678537769
 20
467.9083536119312
 30
0.0
 11
-563.5689011871102
 21
467.9083536119312
 31
0.0
 12
-565.9022345204435
 22
453.9083536119313
 32
0.0
 13
-565.9022345204435
 23
453.9083536119313
 33
0.0
  0
MTEXT
  5
14F6
330
221
100
AcDbEntity
  8
P-0000
  6
Continuous
 62
     2
100
AcDbMText
 10
-583.9022345204437
 20
444.4083760781311
 30
0.0
 40
14.0
 41
0.0
 71
     2
 72
     1
  1
19
 11
0.0000000000000001
 21
1.0
 31
0.0
 73
     1
 44
1.0
1001
ACAD
1000
MTEXTBEGIN
1070
    73
1070
     1
1070
    44
1040
1.0
1070
    74
1070
     0
1000
MTEXTEND
  0
POINT
  5
14F7
330
221
100
AcDbEntity
  8
Defpoints
  6
Continuous
 62
     0
100
AcDbPoint
 10
-533.2591314967
 20
434.9083985443311
 30
0.0
  0
POINT
  5
14F8
330
221
100
AcDbEntity
  8
Defpoints
  6
Continuous
 62
     0
100
AcDbPoint
 10
-536.2591314967001
 20
453.9083536119313
 30
0.0
  0
POINT
  5
14F9
330
221
100
AcDbEntity
  8
Defpoints
  6
Continuous
 62
     0
100
AcDbPoint
 10
-565.9022345204435
 20
453.9083536119313
 30
0.0
  0
ENDBLK
  5
314
330
221
100
AcDbEntity
  8
0
  6
ByBlock
 62
     0
100
AcDbBlockEnd
  0
BLOCK
  5
6DB
330
6D9
100
AcDbEntity
  8
0
100
AcDbBlockBegin
  2
GENAXEH
 70
     0
 10
0.0
 20
0.0
 30
0.0
  3
GENAXEH
  1

  0
LINE
  5
6DA
330
6D9
100
AcDbEntity
  8
0
100
AcDbLine
 10
-1.0
 20
0.0
 30
0.0
 11
1.0
 21
0.0
 31
0.0
  0
ENDBLK
  5
6DC
330
6D9
100
AcDbEntity
  8
0
100
AcDbBlockEnd
  0
BLOCK
  5
6F9
330
6F8
100
AcDbEntity
  8
0
100
AcDbBlockBegin
  2
*D40
 70
     1
 10
0.0
 20
0.0
 30
0.0
  3
*D40
  1

  0
LINE
  5
10C8
330
6F8
100
AcDbEntity
  8
P-0000
  6
Continuous
 62
     3
370
    -2
100
AcDbLine
 10
-539.2591314967001
 20
263.0556486101015
 30
0.0
 11
-539.2591314967001
 21
332.341266186244
 31
0.0
  0
LINE
  5
10C9
330
6F8
100
AcDbEntity
  8
P-0000
  6
Continuous
 62
     3
370
    -2
100
AcDbLine
 10
654.7408685032999
 20
263.0556486101
 30
0.0
 11
654.7408685032999
 21
332.341266186244
 31
0.0
  0
LINE
  5
10CA
330
6F8
100
AcDbEntity
  8
P-0000
  6
Continuous
 62
     3
370
    -2
100
AcDbLine
 10
-525.2591314967
 20
328.341266186244
 30
0.0
 11
640.7408685033
 21
328.341266186244
 31
0.0
  0
SOLID
  5
10CB
330
6F8
100
AcDbEntity
  8
P-0000
  6
Continuous
 62
     3
100
AcDbTrace
 10
-525.2591314967
 20
330.6745995195773
 30
0.0
 11
-525.2591314967
 21
326.0079328529107
 31
0.0
 12
-539.2591314967001
 22
328.341266186244
 32
0.0
 13
-539.2591314967001
 23
328.341266186244
 33
0.0
  0
SOLID
  5
10CC
330
6F8
100
AcDbEntity
  8
P-0000
  6
Continuous
 62
     3
100
AcDbTrace
 10
640.7408685033
 20
330.6745995195773
 30
0.0
 11
640.7408685033
 21
326.0079328529107
 31
0.0
 12
654.7408685032999
 22
328.341266186244
 32
0.0
 13
654.7408685032999
 23
328.341266186244
 33
0.0
  0
MTEXT
  5
10CD
330
6F8
100
AcDbEntity
  8
P-0000
  6
Continuous
 62
     2
100
AcDbMText
 10
57.74086850329997
 20
339.341266186244
 30
0.0
 40
14.0
 41
0.0
 71
     5
 72
     1
  1
1194
 73
     1
 44
1.0
1001
ACAD
1000
MTEXTBEGIN
1070
    73
1070
     1
1070
    44
1040
1.0
1070
    74
1070
     0
1000
MTEXTEND
  0
POINT
  5
10CE
330
6F8
100
AcDbEntity
  8
Defpoints
  6
Continuous
 62
     0
100
AcDbPoint
 10
-539.2591314967001
 20
263.0556486101015
 30
0.0
  0
POINT
  5
10CF
330
6F8
100
AcDbEntity
  8
Defpoints
  6
Continuous
 62
     0
100
AcDbPoint
 10
654.7408685032999
 20
263.0556486101
 30
0.0
  0
POINT
  5
10D0
330
6F8
100
AcDbEntity
  8
Defpoints
  6
Continuous
 62
     0
100
AcDbPoint
 10
654.7408685032999
 20
328.341266186244
 30
0.0
  0
ENDBLK
  5
6FA
330
6F8
100
AcDbEntity
  8
0
100
AcDbBlockEnd
  0
BLOCK
  5
770
330
76F
100
AcDbEntity
  8
0
100
AcDbBlockBegin
  2
*D42
 70
     1
 10
0.0
 20
0.0
 30
0.0
  3
*D42
  1

  0
LINE
  5
14FA
330
76F
100
AcDbEntity
  8
P-0000
  6
Continuous
 62
     3
370
    -2
100
AcDbLine
 10
-539.2591314967001
 20
263.0556486101016
 30
0.0
 11
-578.632706969997
 21
263.0556486101016
 31
0.0
  0
LINE
  5
14FB
330
76F
100
AcDbEntity
  8
P-0000
  6
Continuous
 62
     3
370
    -2
100
AcDbLine
 10
-539.2591314967001
 20
196.5556486101016
 30
0.0
 11
-578.6327069699971
 21
196.5556486101016
 31
0.0
  0
LINE
  5
14FC
330
76F
100
AcDbEntity
  8
P-0000
  6
Continuous
 62
     3
370
    -2
100
AcDbLine
 10
-574.6327069699971
 20
249.0556486101016
 30
0.0
 11
-574.6327069699971
 21
210.5556486101016
 31
0.0
  0
SOLID
  5
14FD
330
76F
100
AcDbEntity
  8
P-0000
  6
Continuous
 62
     3
100
AcDbTrace
 10
-576.9660403033305
 20
249.0556486101016
 30
0.0
 11
-572.2993736366637
 21
249.0556486101016
 31
0.0
 12
-574.632706969997
 22
263.0556486101016
 32
0.0
 13
-574.632706969997
 23
263.0556486101016
 33
0.0
  0
SOLID
  5
14FE
330
76F
100
AcDbEntity
  8
P-0000
  6
Continuous
 62
     3
100
AcDbTrace
 10
-576.9660403033305
 20
210.5556486101017
 30
0.0
 11
-572.2993736366637
 21
210.5556486101016
 31
0.0
 12
-574.6327069699971
 22
196.5556486101016
 32
0.0
 13
-574.6327069699971
 23
196.5556486101016
 33
0.0
  0
MTEXT
  5
14FF
330
76F
100
AcDbEntity
  8
P-0000
  6
Continuous
 62
     2
100
AcDbMText
 10
-585.6327069699971
 20
229.8056486101015
 30
0.0
 40
14.0
 41
0.0
 71
     5
 72
     1
  1
66.5
 11
0.0000000000000001
 21
1.0
 31
0.0
 73
     1
 44
1.0
1001
ACAD
1000
MTEXTBEGIN
1070
    73
1070
     1
1070
    44
1040
1.0
1070
    74
1070
     0
1000
MTEXTEND
  0
POINT
  5
1500
330
76F
100
AcDbEntity
  8
Defpoints
  6
Continuous
 62
     0
100
AcDbPoint
 10
-539.2591314967001
 20
263.0556486101016
 30
0.0
  0
POINT
  5
1501
330
76F
100
AcDbEntity
  8
Defpoints
  6
Continuous
 62
     0
100
AcDbPoint
 10
-539.2591314967001
 20
196.5556486101016
 30
0.0
  0
POINT
  5
1502
330
76F
100
AcDbEntity
  8
Defpoints
  6
Continuous
 62
     0
100
AcDbPoint
 10
-574.6327069699971
 20
196.5556486101016
 30
0.0
  0
ENDBLK
  5
771
330
76F
100
AcDbEntity
  8
0
100
AcDbBlockEnd
  0
BLOCK
  5
7A8
330
7A7
100
AcDbEntity
  8
0
100
AcDbBlockBegin
  2
_None
 70
     0
 10
0.0
 20
0.0
 30
0.0
  3
_None
  1

  0
ENDBLK
  5
7A9
330
7A7
100
AcDbEntity
  8
0
100
AcDbBlockEnd
  0
ENDSEC
  0
SECTION
  2
ENTITIES
  0
DIMENSION
  5
3EC
330
20E
100
AcDbEntity
  8
P-0000
  6
Continuous
100
AcDbDimension
  2
*D17
 10
-565.9022345204435
 20
453.9083536119313
 30
0.0
 11
-565.9022345204436
 21
444.4083760781311
 31
0.0
 70
   160
 71
     2
 42
18.99995506760012
  3
883N99122_001_00149479900
100
AcDbAlignedDimension
 13
-533.2591314967
 23
434.9083985443311
 33
0.0
 14
-536.2591314967001
 24
453.9083536119313
 34
0.0
 50
90.0
100
AcDbRotatedDimension
1001
ACAD_DSTYLE_DIMINSPECT
1070
   396
1000
100%
1070
   395
1000

1070
   394
1070
    33
1070
   393
1070
     0
1001
ACAD
1000
DSTYLE
1002
{
1070
    41
1040
7.0
1070
   140
1040
7.0
1070
   271
1070
     0
1070
   288
1070
     1
1002
}
  0
LINE
  5
52A
330
20E
100
AcDbEntity
  8
0
  6
Continuous
 62
     3
100
AcDbLine
 10
-539.2591314967001
 20
452.9083985443311
 30
0.0
 11
-539.2591314967001
 21
444.4083985443311
 31
0.0
  0
LINE
  5
52B
330
20E
100
AcDbEntity
  8
0
  6
Continuous
 62
     3
100
AcDbLine
 10
-538.2591314967
 20
453.9083536119313
 30
0.0
 11
-538.2591314967
 21
439.9083985443311
 31
0.0
  0
LINE
  5
52C
330
20E
100
AcDbEntity
  8
0
  6
Continuous
 62
     7
100
AcDbLine
 10
-538.2591314967
 20
439.9083985443311
 30
0.0
 11
-538.2591314967
 21
436.9083985443311
 31
0.0
  0
LINE
  5
52D
330
20E
100
AcDbEntity
  8
RUNDUNGEN
  6
Continuous
 62
     7
100
AcDbLine
 10
-538.2591314967
 20
434.9849092467311
 30
0.0
 11
-538.2591314967
 21
436.9083985443311
 31
0.0
  0
LINE
  5
52E
330
20E
100
AcDbEntity
  8
0
  6
Continuous
 62
     7
100
AcDbLine
 10
-537.2591314967
 20
434.9083985443311
 30
0.0
 11
-537.2591314967
 21
436.9083985443311
 31
0.0
  0
LINE
  5
52F
330
20E
100
AcDbEntity
  8
0
  6
Continuous
 62
     3
100
AcDbLine
 10
-536.2591314967001
 20
453.9083536119313
 30
0.0
 11
-536.2591314967001
 21
435.9083985443311
 31
0.0
  0
LINE
  5
530
330
20E
100
AcDbEntity
  8
BEZUGSACHSEN
  6
CENTER
 62
     7
100
AcDbLine
 10
-513.2591314967
 20
439.6583985443311
 30
0.0
 11
-513.2591314967
 21
430.9083985443311
 31
0.0
  0
LINE
  5
531
330
20E
100
AcDbEntity
  8
BEZUGSACHSEN
  6
CENTER
 62
     7
100
AcDbLine
 10
-513.2591314967
 20
439.6583985443311
 30
0.0
 11
-513.2591314967
 21
448.4083985443311
 31
0.0
  0
LINE
  5
532
330
20E
100
AcDbEntity
  8
RUNDUNGEN
  6
Continuous
 62
     7
100
AcDbLine
 10
-515.5368308949
 20
438.1211945991313
 30
0.0
 11
-511.4061293901
 21
441.3484523123311
 31
0.0
  0
LINE
  5
534
330
20E
100
AcDbEntity
  8
RUNDUNGEN
  6
Continuous
 62
     7
100
AcDbLine
 10
-36.70506197810022
 20
436.9083985443311
 30
0.0
 11
-40.53934734192115
 21
439.9040705868928
 31
0.0
  0
LINE
  5
535
330
20E
100
AcDbEntity
  8
RUNDUNGEN
  6
Continuous
 62
     7
100
AcDbLine
 10
-14.52309325910016
 20
436.9083985443311
 30
0.0
 11
-12.86518229825659
 21
438.2037005479733
 31
0.0
  0
LINE
  5
536
330
20E
100
AcDbEntity
  8
TEIL_STARTBEZUEGE
  6
CENTER
 62
     7
100
AcDbLine
 10
57.74086850330002
 20
418.805435464531
 30
0.0
 11
57.74086850330002
 21
464.4083985443311
 31
0.0
  0
LINE
  5
537
330
20E
100
AcDbEntity
  8
0
  6
Continuous
 62
     7
100
AcDbLine
 10
652.7370996354447
 20
434.9083985443311
 30
0.0
 11
648.7370996354447
 21
434.9083985443311
 31
0.0
  0
LINE
  5
53A
330
20E
100
AcDbEntity
  8
0
  6
Continuous
 62
     7
100
AcDbLine
 10
-15.80303489130017
 20
434.9083985443311
 30
0.0
 11
-35.42512034590016
 21
434.9083985443311
 31
0.0
  0
LINE
  5
53B
330
20E
100
AcDbEntity
  8
0
  6
Continuous
 62
     7
100
AcDbLine
 10
-191.7597596412092
 20
434.9083985443014
 30
0.0
 11
-202.8251203459002
 21
434.9083985443014
 31
0.0
  0
LINE
  5
53C
330
20E
100
AcDbEntity
  8
0
  6
Continuous
 62
     7
100
AcDbLine
 10
-533.2591314967
 20
434.9083985443311
 30
0.0
 11
-537.2591314967
 21
434.9083985443311
 31
0.0
  0
LINE
  5
53D
330
20E
100
AcDbEntity
  8
RUNDUNGEN
  6
Continuous
 62
     7
100
AcDbLine
 10
-538.1826207943
 20
434.9083985443311
 30
0.0
 11
-537.2591314967
 21
434.9083985443311
 31
0.0
  0
LINE
  5
53E
330
20E
100
AcDbEntity
  8
0
  6
Continuous
 62
     3
100
AcDbLine
 10
-533.2591314967
 20
434.9083985443311
 30
0.0
 11
-490.7585033518882
 21
434.9083985443307
 31
0.0
  0
LINE
  5
53F
330
20E
100
AcDbEntity
  8
0
  6
Continuous
 62
     3
100
AcDbLine
 10
-191.7597596413551
 20
434.9083985443311
 30
0.0
 11
-91.75975964128648
 21
434.9083985443311
 31
0.0
  0
LINE
  5
540
330
20E
100
AcDbEntity
  8
0
  6
Continuous
 62
     3
100
AcDbLine
 10
7.738984069444882
 20
434.9083985443311
 30
0.0
 11
107.7389840693139
 21
434.9083985443312
 31
0.0
  0
LINE
  5
542
330
20E
100
AcDbEntity
  8
0
  6
Continuous
 62
     3
100
AcDbLine
 10
207.2377277799762
 20
434.9083985443311
 30
0.0
 11
318.9969651086999
 21
434.9083985443311
 31
0.0
  0
LINE
  5
543
330
20E
100
AcDbEntity
  8
RUNDUNGEN
  6
Continuous
 62
     7
100
AcDbLine
 10
652.7370996354447
 20
434.9083985443311
 30
0.0
 11
653.6619549416445
 21
434.9083985443311
 31
0.0
  0
LINE
  5
544
330
20E
100
AcDbEntity
  8
0
  6
Continuous
 62
     9
100
AcDbLine
 10
653.7370996354447
 20
436.9083985443311
 30
0.0
 11
652.7370996354447
 21
436.9083985443311
 31
0.0
  0
LINE
  5
547
330
20E
100
AcDbEntity
  8
0
  6
Continuous
 62
     9
100
AcDbLine
 10
-14.52309325910016
 20
436.9083985443311
 30
0.0
 11
-36.70506197810022
 21
436.9083985443311
 31
0.0
  0
LINE
  5
549
330
20E
100
AcDbEntity
  8
0
  6
Continuous
 62
     9
100
AcDbLine
 10
-537.2591314967
 20
436.9083985443311
 30
0.0
 11
-538.2591314967
 21
436.9083985443311
 31
0.0
  0
LINE
  5
54A
330
20E
100
AcDbEntity
  8
BEZUGSACHSEN
  6
CENTER
 62
     7
100
AcDbLine
 10
628.7370996354446
 20
439.6583985443311
 30
0.0
 11
619.9870996354445
 21
439.6583985443311
 31
0.0
  0
LINE
  5
54B
330
20E
100
AcDbEntity
  8
BEZUGSACHSEN
  6
CENTER
 62
     7
100
AcDbLine
 10
-513.2591314967
 20
439.6583985443311
 30
0.0
 11
-522.0091314967
 21
439.6583985443311
 31
0.0
  0
LINE
  5
54C
330
20E
100
AcDbEntity
  8
BEZUGSACHSEN
  6
CENTER
 62
     7
100
AcDbLine
 10
-513.2591314967
 20
439.6583985443311
 30
0.0
 11
-504.5091314967001
 21
439.6583985443311
 31
0.0
  0
LINE
  5
54D
330
20E
100
AcDbEntity
  8
BEZUGSACHSEN
  6
CENTER
 62
     7
100
AcDbLine
 10
628.7370996354446
 20
439.6583985443311
 30
0.0
 11
637.4870996354445
 21
439.6583985443311
 31
0.0
  0
LINE
  5
54E
330
20E
100
AcDbEntity
  8
0
  6
Continuous
 62
     7
100
AcDbLine
 10
654.7370996354446
 20
444.4083985443311
 30
0.0
 11
653.7370996354447
 21
444.4083985443311
 31
0.0
  0
LINE
  5
54F
330
20E
100
AcDbEntity
  8
0
  6
Continuous
 62
     7
100
AcDbLine
 10
-539.2591314967001
 20
444.4083985443311
 30
0.0
 11
-538.2591314967
 21
444.4083985443311
 31
0.0
  0
LINE
  5
550
330
20E
100
AcDbEntity
  8
0
  6
Continuous
 62
     9
100
AcDbLine
 10
-539.2591314967001
 20
452.9083985443311
 30
0.0
 11
654.7370996354446
 21
452.9083985443311
 31
0.0
  0
LINE
  5
551
330
20E
100
AcDbEntity
  8
0
  6
Continuous
 62
     3
100
AcDbLine
 10
-538.2591314967
 20
453.9083985443311
 30
0.0
 11
653.7370996354447
 21
453.9083985443311
 31
0.0
  0
LINE
  5
555
330
20E
100
AcDbEntity
  8
RUNDUNGEN
  6
Continuous
 62
     7
100
AcDbLine
 10
631.0175477586445
 20
438.1253099709311
 30
0.0
 11
626.8921136894444
 21
441.3484523123311
 31
0.0
  0
LINE
  5
556
330
20E
100
AcDbEntity
  8
BEZUGSACHSEN
  6
CENTER
 62
     7
100
AcDbLine
 10
628.7370996354446
 20
439.6583985443311
 30
0.0
 11
628.7370996354446
 21
430.9083985443311
 31
0.0
  0
LINE
  5
557
330
20E
100
AcDbEntity
  8
BEZUGSACHSEN
  6
CENTER
 62
     7
100
AcDbLine
 10
628.7370996354446
 20
439.6583985443311
 30
0.0
 11
628.7370996354446
 21
448.4083985443311
 31
0.0
  0
LINE
  5
558
330
20E
100
AcDbEntity
  8
0
  6
Continuous
 62
     3
100
AcDbLine
 10
651.7370996354446
 20
453.9083536119313
 30
0.0
 11
651.7370996354446
 21
435.9083985443311
 31
0.0
  0
LINE
  5
559
330
20E
100
AcDbEntity
  8
0
  6
Continuous
 62
     7
100
AcDbLine
 10
652.7370996354447
 20
434.9083985443311
 30
0.0
 11
652.7370996354447
 21
436.9083985443311
 31
0.0
  0
LINE
  5
55A
330
20E
100
AcDbEntity
  8
0
  6
Continuous
 62
     3
100
AcDbLine
 10
653.7370996354447
 20
453.9083536119313
 30
0.0
 11
653.7370996354447
 21
439.9083985443311
 31
0.0
  0
LINE
  5
55B
330
20E
100
AcDbEntity
  8
0
  6
Continuous
 62
     7
100
AcDbLine
 10
653.7370996354447
 20
439.9083985443311
 30
0.0
 11
653.7370996354447
 21
436.9083985443311
 31
0.0
  0
LINE
  5
55C
330
20E
100
AcDbEntity
  8
RUNDUNGEN
  6
Continuous
 62
     7
100
AcDbLine
 10
653.7370996354447
 20
434.9835432379311
 30
0.0
 11
653.7370996354447
 21
436.9083985443311
 31
0.0
  0
LINE
  5
55D
330
20E
100
AcDbEntity
  8
0
  6
Continuous
 62
     3
100
AcDbLine
 10
654.7370996354446
 20
452.9083985443311
 30
0.0
 11
654.7370996354446
 21
444.4083985443311
 31
0.0
  0
LINE
  5
55E
330
20E
100
AcDbEntity
  8
0
  6
Continuous
 62
     3
100
AcDbLine
 10
-539.2591314967001
 20
263.0556486101016
 30
0.0
 11
-539.2591314967001
 21
196.5556486101016
 31
0.0
  0
LINE
  5
55F
330
20E
100
AcDbEntity
  8
RUNDUNGEN
  6
Continuous
 62
     3
100
AcDbLine
 10
-538.2591314967
 20
265.5077536179017
 30
0.0
 11
-538.2591314967
 21
265.0556486101016
 31
0.0
  0
LINE
  5
560
330
20E
100
AcDbEntity
  8
0
  6
Continuous
 62
     3
100
AcDbLine
 10
-538.2591314967
 20
196.5556486101016
 30
0.0
 11
-538.2591314967
 21
194.5556486101016
 31
0.0
  0
LINE
  5
561
330
20E
100
AcDbEntity
  8
0
  6
Continuous
 62
     3
100
AcDbLine
 10
-538.2591314967
 20
263.0556486101016
 30
0.0
 11
-538.2591314967
 21
265.0556486101016
 31
0.0
  0
LINE
  5
562
330
20E
100
AcDbEntity
  8
0
  6
Continuous
 62
     3
100
AcDbLine
 10
-537.2591314967
 20
196.5556486101016
 30
0.0
 11
-537.2591314967
 21
268.7874743425016
 31
0.0
  0
LINE
  5
563
330
20E
100
AcDbEntity
  8
0
  6
Continuous
 62
     3
100
AcDbLine
 10
-536.2591314967001
 20
263.0556486101016
 30
0.0
 11
-536.2591314967001
 21
262.0556486101016
 31
0.0
  0
LINE
  5
564
330
20E
100
AcDbEntity
  8
0
  6
Continuous
 62
     9
100
AcDbLine
 10
-536.2591314967001
 20
262.0556486101016
 30
0.0
 11
-536.2591314967001
 21
197.5556486101016
 31
0.0
  0
LINE
  5
565
330
20E
100
AcDbEntity
  8
0
  6
Continuous
 62
     3
100
AcDbLine
 10
-536.2591314967001
 20
194.5556486101016
 30
0.0
 11
-536.2591314967001
 21
197.5556486101016
 31
0.0
  0
LINE
  5
566
330
20E
100
AcDbEntity
  8
0
  6
Continuous
 62
     3
100
AcDbLine
 10
-537.2591314967
 20
268.7874743425016
 30
0.0
 11
-537.0441314967
 21
269.5898168749017
 31
0.0
  0
LINE
  5
567
330
20E
100
AcDbEntity
  8
RUNDUNGEN
  6
Continuous
 62
     3
100
AcDbLine
 10
-537.5981234909001
 20
267.5224152955016
 30
0.0
 11
-537.2591314967
 21
268.7874743425016
 31
0.0
  0
LINE
  5
568
330
20E
100
AcDbEntity
  8
0
  6
Continuous
 62
     3
100
AcDbLine
 10
-518.3690806891
 20
266.0556486101016
 30
0.0
 11
-519.3163550869001
 21
269.5909247913017
 31
0.0
  0
LINE
  5
56E
330
20E
100
AcDbEntity
  8
0
  6
Continuous
 62
     3
100
AcDbLine
 10
-538.2591314967
 20
194.5556486101016
 30
0.0
 11
653.7408685033
 21
194.5556486101016
 31
0.0
  0
LINE
  5
56F
330
20E
100
AcDbEntity
  8
0
  6
Continuous
 62
     3
100
AcDbLine
 10
-539.2591314967001
 20
196.5556486101016
 30
0.0
 11
654.7408685032999
 21
196.5556486101015
 31
0.0
  0
LINE
  5
570
330
20E
100
AcDbEntity
  8
0
  6
Continuous
 62
     3
100
AcDbLine
 10
652.7408685033
 20
197.5556486101
 30
0.0
 11
651.7408685033
 21
197.5556486101
 31
0.0
  0
LINE
  5
571
330
20E
100
AcDbEntity
  8
0
  6
Continuous
 62
     3
100
AcDbLine
 10
-537.2591314967
 20
197.5556486101016
 30
0.0
 11
-536.2591314967001
 21
197.5556486101016
 31
0.0
  0
LINE
  5
572
330
20E
100
AcDbEntity
  8
0
  6
Continuous
 62
     9
100
AcDbLine
 10
-537.2591314967
 20
197.5556486101015
 30
0.0
 11
651.7408685032998
 21
197.5556486101017
 31
0.0
  0
LINE
  5
574
330
20E
100
AcDbEntity
  8
TEIL_STARTBEZUEGE
  6
CENTER
 62
     7
100
AcDbLine
 10
57.74086850330002
 20
188.5556486101
 30
0.0
 11
57.74086850330002
 21
273.1307513899001
 31
0.0
  0
LINE
  5
575
330
20E
100
AcDbEntity
  8
TEIL_STARTBEZUEGE
  6
CENTER
 62
     7
100
AcDbLine
 10
663.3051495631102
 20
229.8056486101016
 30
0.0
 11
-545.8301407994656
 21
229.8056486101017
 31
0.0
  0
LINE
  5
576
330
20E
100
AcDbEntity
  8
0
  6
Continuous
 62
     9
100
AcDbLine
 10
651.7408685033
 20
262.0556486101016
 30
0.0
 11
-536.2591314967001
 21
262.0556486101016
 31
0.0
  0
LINE
  5
577
330
20E
100
AcDbEntity
  8
0
  6
Continuous
 62
     3
100
AcDbLine
 10
-539.2591314967001
 20
262.0556486101016
 30
0.0
 11
-536.2591314967001
 21
262.0556486101016
 31
0.0
  0
LINE
  5
578
330
20E
100
AcDbEntity
  8
0
  6
Continuous
 62
     3
100
AcDbLine
 10
651.7408685033
 20
262.0556486101
 30
0.0
 11
654.7408685032999
 21
262.0556486101
 31
0.0
  0
LINE
  5
579
330
20E
100
AcDbEntity
  8
0
  6
Continuous
 62
     3
100
AcDbLine
 10
-539.2591314967001
 20
263.0556486101015
 30
0.0
 11
654.7408685032999
 21
263.0556486101019
 31
0.0
  0
LINE
  5
57A
330
20E
100
AcDbEntity
  8
0
  6
Continuous
 62
     3
100
AcDbLine
 10
653.7408685033
 20
265.0556486101016
 30
0.0
 11
-538.2591314967
 21
265.0556486101017
 31
0.0
  0
LINE
  5
57B
330
20E
100
AcDbEntity
  8
RUNDUNGEN
  6
Continuous
 62
     9
100
AcDbLine
 10
653.6657238094999
 20
266.0556486101
 30
0.0
 11
652.7408685033
 21
266.0556486101
 31
0.0
  0
LINE
  5
57C
330
20E
100
AcDbEntity
  8
0
  6
Continuous
 62
     9
100
AcDbLine
 10
652.7408685033
 20
266.0556486101
 30
0.0
 11
633.8588338563
 21
266.0556486101
 31
0.0
  0
LINE
  5
581
330
20E
100
AcDbEntity
  8
RUNDUNGEN
  6
Continuous
 62
     9
100
AcDbLine
 10
-537.2591314967
 20
266.0556486101016
 30
0.0
 11
-538.1826207943
 21
266.0556486101016
 31
0.0
  0
LINE
  5
582
330
20E
100
AcDbEntity
  8
0
  6
Continuous
 62
     9
100
AcDbLine
 10
-518.3690806891
 20
266.0556486101016
 30
0.0
 11
-537.2591314967
 21
266.0556486101016
 31
0.0
  0
LINE
  5
583
330
20E
100
AcDbEntity
  8
0
  6
Continuous
 62
     3
100
AcDbLine
 10
648.6699416125
 20
272.5556486101
 30
0.0
 11
638.6698685033
 21
272.5556486101
 31
0.0
  0
LINE
  5
588
330
20E
100
AcDbEntity
  8
0
  6
Continuous
 62
     3
100
AcDbLine
 10
-523.1800583875001
 20
272.5556486101016
 30
0.0
 11
-533.1801314967001
 21
272.5556486101016
 31
0.0
  0
LINE
  5
58D
330
20E
100
AcDbEntity
  8
0
  6
Continuous
 62
     3
100
AcDbLine
 10
651.7408685033
 20
263.0556486101017
 30
0.0
 11
651.7408685033
 21
262.0556486101
 31
0.0
  0
LINE
  5
58E
330
20E
100
AcDbEntity
  8
0
  6
Continuous
 62
     3
100
AcDbLine
 10
651.7408685033
 20
194.5556486101
 30
0.0
 11
651.7408685033
 21
197.5556486101
 31
0.0
  0
LINE
  5
58F
330
20E
100
AcDbEntity
  8
0
  6
Continuous
 62
     9
100
AcDbLine
 10
651.7408685033
 20
197.5556486101
 30
0.0
 11
651.7408685033
 21
262.0556486101
 31
0.0
  0
LINE
  5
590
330
20E
100
AcDbEntity
  8
0
  6
Continuous
 62
     3
100
AcDbLine
 10
652.7408685033
 20
196.5556486100999
 30
0.0
 11
652.7408685033
 21
268.8175558241001
 31
0.0
  0
LINE
  5
591
330
20E
100
AcDbEntity
  8
RUNDUNGEN
  6
Continuous
 62
     3
100
AcDbLine
 10
653.7408685033
 20
265.5125721423
 30
0.0
 11
653.7408685033
 21
265.0556486101
 31
0.0
  0
LINE
  5
592
330
20E
100
AcDbEntity
  8
0
  6
Continuous
 62
     3
100
AcDbLine
 10
653.7408685033
 20
196.5556486100999
 30
0.0
 11
653.7408685033
 21
194.5556486101
 31
0.0
  0
LINE
  5
593
330
20E
100
AcDbEntity
  8
0
  6
Continuous
 62
     3
100
AcDbLine
 10
653.7408685033
 20
263.0556486101
 30
0.0
 11
653.7408685033
 21
265.0556486101
 31
0.0
  0
LINE
  5
594
330
20E
100
AcDbEntity
  8
0
  6
Continuous
 62
     3
100
AcDbLine
 10
654.7408685032999
 20
196.5556486100999
 30
0.0
 11
654.7408685032999
 21
263.0556486101
 31
0.0
  0
LINE
  5
595
330
20E
100
AcDbEntity
  8
0
  6
Continuous
 62
     3
100
AcDbLine
 10
633.8588338563
 20
266.0556486101
 30
0.0
 11
634.8058685033
 21
269.5898168749001
 31
0.0
  0
LINE
  5
596
330
20E
100
AcDbEntity
  8
RUNDUNGEN
  6
Continuous
 62
     3
100
AcDbLine
 10
653.0933929113
 20
267.5019168227
 30
0.0
 11
652.7408685033
 21
268.8175558241001
 31
0.0
  0
LINE
  5
597
330
20E
100
AcDbEntity
  8
0
  6
Continuous
 62
     3
100
AcDbLine
 10
652.7408685033
 20
268.8175558241001
 30
0.0
 11
652.5336449130999
 21
269.5909247911
 31
0.0
  0
ARC
  5
5C1
330
20E
100
AcDbEntity
  8
0
  6
Continuous
 62
     3
100
AcDbCircle
 10
-241.5091314965551
 20
189.9083985443312
 30
0.0
 40
250.0
100
AcDbArc
 50
78.52165904550052
 51
101.4783409544995
  0
ARC
  5
5C2
330
20E
100
AcDbEntity
  8
0
  6
Continuous
 62
     3
100
AcDbCircle
 10
-42.01038778595512
 20
189.9083985443312
 30
0.0
 40
250.0
100
AcDbArc
 50
78.52165904550052
 51
101.4783409544995
  0
ARC
  5
5C3
330
20E
100
AcDbEntity
  8
0
  6
Continuous
 62
     3
100
AcDbCircle
 10
157.4883559246448
 20
189.9083985443312
 30
0.0
 40
250.0
100
AcDbArc
 50
78.52165904550052
 51
101.4783409544995
  0
ARC
  5
5C4
330
20E
100
AcDbEntity
  8
0
  6
Continuous
 62
     3
100
AcDbCircle
 10
356.9870996354448
 20
189.9083985443312
 30
0.0
 40
250.0
100
AcDbArc
 50
78.52165904550052
 51
101.4783409544995
  0
ARC
  5
5C5
330
20E
100
AcDbEntity
  8
RUNDUNGEN
  6
Continuous
 62
     7
100
AcDbCircle
 10
-508.3278220135
 20
437.4083985443311
 30
0.0
 40
5.0
100
AcDbArc
 50
125.2289232008001
 51
127.9999999999995
  0
ARC
  5
5C6
330
20E
100
AcDbEntity
  8
RUNDUNGEN
  6
Continuous
 62
     7
100
AcDbCircle
 10
623.8138063128444
 20
437.4083985443311
 30
0.0
 40
5.0
100
AcDbArc
 50
52.00000000000047
 51
54.83890260690055
  0
ARC
  5
5C7
330
20E
100
AcDbEntity
  8
0
  6
Continuous
 62
     3
100
AcDbCircle
 10
648.7370996354447
 20
439.9083985443311
 30
0.0
 40
5.0
100
AcDbArc
 50
270.0
 51
0.0
  0
ARC
  5
5C8
330
20E
100
AcDbEntity
  8
0
  6
Continuous
 62
     3
100
AcDbCircle
 10
-533.2591314967
 20
439.9083985443311
 30
0.0
 40
5.0
100
AcDbArc
 50
180.0
 51
270.0
  0
CIRCLE
  5
5C9
330
20E
100
AcDbEntity
  8
BEZUGSACHSEN
  6
Continuous
 62
     3
100
AcDbCircle
 10
628.7370996354446
 20
439.6583985443311
 30
0.0
 40
2.75
  0
CIRCLE
  5
5CA
330
20E
100
AcDbEntity
  8
BEZUGSACHSEN
  6
Continuous
 62
     3
100
AcDbCircle
 10
-513.2591314967
 20
439.6583985443311
 30
0.0
 40
2.75
  0
ARC
  5
5CB
330
20E
100
AcDbEntity
  8
0
  6
Continuous
 62
     3
100
AcDbCircle
 10
-538.2591314967
 20
452.9083985443311
 30
0.0
 40
1.0
100
AcDbArc
 50
90.0
 51
180.0
  0
ARC
  5
5CC
330
20E
100
AcDbEntity
  8
0
  6
Continuous
 62
     3
100
AcDbCircle
 10
653.7370996354447
 20
452.9083985443311
 30
0.0
 40
1.0
100
AcDbArc
 50
0.0
 51
90.0
  0
CIRCLE
  5
5CF
330
20E
100
AcDbEntity
  8
0
  6
Continuous
 62
     3
100
AcDbCircle
 10
477.7408685033
 20
229.8056486101016
 30
0.0
 40
5.0
  0
CIRCLE
  5
5D0
330
20E
100
AcDbEntity
  8
0
  6
Continuous
 62
     3
100
AcDbCircle
 10
57.74086850330002
 20
229.8056486101
 30
0.0
 40
5.0
  0
CIRCLE
  5
5D1
330
20E
100
AcDbEntity
  8
0
  6
Continuous
 62
     3
100
AcDbCircle
 10
-362.2591314967001
 20
229.8056486101017
 30
0.0
 40
5.0
  0
ARC
  5
5D2
330
20E
100
AcDbEntity
  8
RUNDUNGEN
  6
Continuous
 62
     3
100
AcDbCircle
 10
657.9230220427
 20
268.7960120481
 30
0.0
 40
5.0
100
AcDbArc
 50
194.9999999999995
 51
207.9734808733998
  0
ARC
  5
5D3
330
20E
100
AcDbEntity
  8
RUNDUNGEN
  6
Continuous
 62
     3
100
AcDbCircle
 10
-542.4277331095001
 20
268.8165833423016
 30
0.0
 40
5.0
100
AcDbArc
 50
331.7909501476005
 51
344.9991360927003
  0
ARC
  5
5D4
330
20E
100
AcDbEntity
  8
0
  6
Continuous
 62
     3
100
AcDbCircle
 10
-533.1801314967001
 20
268.5556486101016
 30
0.0
 40
4.0
100
AcDbArc
 50
90.0
 51
165.0164289137997
  0
ARC
  5
5D5
330
20E
100
AcDbEntity
  8
0
  6
Continuous
 62
     3
100
AcDbCircle
 10
-523.1800583921001
 20
268.5556486107017
 30
0.0
 40
4.0
100
AcDbArc
 50
14.99999999999953
 51
89.99999993430042
  0
ARC
  5
5DE
330
20E
100
AcDbEntity
  8
0
  6
Continuous
 62
     3
100
AcDbCircle
 10
638.6698685033
 20
268.5556486101
 30
0.0
 40
4.0
100
AcDbArc
 50
90.0
 51
165.0164289137997
  0
ARC
  5
5DF
330
20E
100
AcDbEntity
  8
0
  6
Continuous
 62
     3
100
AcDbCircle
 10
648.6699416078998
 20
268.5556486107
 30
0.0
 40
4.0
100
AcDbArc
 50
14.99999999999953
 51
89.99999993430042
  0
ARC
  5
5E0
330
20E
100
AcDbEntity
  8
RUNDUNGEN
  6
Continuous
 62
     3
100
AcDbCircle
 10
-536.2591314967001
 20
265.5077536179017
 30
0.0
 40
2.0
100
AcDbArc
 50
151.7909501476005
 51
180.0000000000993
  0
ARC
  5
5E1
330
20E
100
AcDbEntity
  8
RUNDUNGEN
  6
Continuous
 62
     3
100
AcDbCircle
 10
651.7408685033
 20
265.5125721423
 30
0.0
 40
2.0
100
AcDbArc
 50
0.0
 51
27.97348087339976
  0
SPLINE
  5
5F2
330
20E
100
AcDbEntity
  8
RUNDUNGEN
  6
Continuous
 62
     7
100
AcDbSpline
210
0.0
220
0.0
230
1.0
 70
     8
 71
     3
 72
     9
 73
     5
 74
     0
 42
0.0000000001
 43
0.0000000001
 40
0.0
 40
0.0
 40
0.0
 40
0.0
 40
0.5000018143000001
 40
1.0
 40
1.0
 40
1.0
 40
1.0
 10
-538.2591314967
 20
434.9849092467311
 30
0.0
 10
-538.2591314967
 20
434.9646882577312
 30
0.0
 10
-538.2495734409001
 20
434.9179563839311
 30
0.0
 10
-538.2028416365001
 20
434.9083985443311
 30
0.0
 10
-538.1826207943
 20
434.9083985443311
 30
0.0
  0
LINE
  5
5F4
330
20E
100
AcDbEntity
  8
0
  6
Continuous
 62
     7
100
AcDbLine
 10
-35.42512034590016
 20
434.9083985443311
 30
0.0
 11
-36.70506197810022
 21
436.9083985443311
 31
0.0
  0
LINE
  5
5F5
330
20E
100
AcDbEntity
  8
0
  6
Continuous
 62
     7
100
AcDbLine
 10
-15.80303489130017
 20
434.9083985443311
 30
0.0
 11
-14.52309325910016
 21
436.9083985443311
 31
0.0
  0
SPLINE
  5
5F9
330
20E
100
AcDbEntity
  8
RUNDUNGEN
  6
Continuous
 62
     7
100
AcDbSpline
210
0.0
220
0.0
230
1.0
 70
     8
 71
     3
 72
     9
 73
     5
 74
     0
 42
0.0000000001
 43
0.0000000001
 40
0.0
 40
0.0
 40
0.0
 40
0.0
 40
0.4999982931000001
 40
1.0
 40
1.0
 40
1.0
 40
1.0
 10
653.6619549416445
 20
434.9083985443311
 30
0.0
 10
653.6818137280446
 20
434.9083985443311
 30
0.0
 10
653.7277029912446
 20
434.9177949887311
 30
0.0
 10
653.7370996354447
 20
434.9636843161312
 30
0.0
 10
653.7370996354447
 20
434.9835432379311
 30
0.0
  0
SPLINE
  5
5FA
330
20E
100
AcDbEntity
  8
0
  6
Continuous
 62
     3
100
AcDbSpline
210
0.0
220
0.0
230
1.0
 70
     8
 71
     3
 72
    11
 73
     7
 74
     0
 42
0.0000000001
 43
0.0000000001
 40
0.0
 40
0.0
 40
0.0
 40
0.0
 40
0.1808812071
 40
0.3977274133
 40
0.6636717557000001
 40
1.0
 40
1.0
 40
1.0
 40
1.0
 10
633.8588338563
 20
266.0556486101
 30
0.0
 10
633.8588338563
 20
265.9479626079001
 30
0.0
 10
633.8076656899001
 20
265.7088477995001
 30
0.0
 10
633.5674890233
 20
265.3814686473
 30
0.0
 10
633.1422224455
 20
265.1214682277
 30
0.0
 10
632.7791222239
 20
265.0556486101
 30
0.0
 10
632.5788922241001
 20
265.0556486101
 30
0.0
  0
SPLINE
  5
5FF
330
20E
100
AcDbEntity
  8
0
  6
Continuous
 62
     3
100
AcDbSpline
210
0.0
220
0.0
230
1.0
 70
     8
 71
     3
 72
    11
 73
     7
 74
     0
 42
0.0000000001
 43
0.0000000001
 40
0.0
 40
0.0
 40
0.0
 40
0.0
 40
0.1808812071
 40
0.3977274133
 40
0.6636717557000001
 40
1.0
 40
1.0
 40
1.0
 40
1.0
 10
-518.3690806891
 20
266.0556486101016
 30
0.0
 10
-518.3690806891
 20
265.9479626079017
 30
0.0
 10
-518.3179125227
 20
265.7088477995017
 30
0.0
 10
-518.0777358563
 20
265.3814686473017
 30
0.0
 10
-517.6524692783
 20
265.1214682277017
 30
0.0
 10
-517.2893690567
 20
265.0556486101016
 30
0.0
 10
-517.0891390569001
 20
265.0556486101016
 30
0.0
  0
DIMENSION
  5
6F6
330
20E
100
AcDbEntity
  8
P-0000
  6
Continuous
100
AcDbDimension
  2
*D40
 10
654.7408685032999
 20
328.341266186244
 30
0.0
 11
57.74086850329997
 21
339.341266186244
 31
0.0
 70
    32
 71
     5
 42
1194.0
  3
883N99122_001_00149479900
100
AcDbAlignedDimension
 13
-539.2591314967001
 23
263.0556486101015
 33
0.0
 14
654.7408685032999
 24
263.0556486101
 34
0.0
100
AcDbRotatedDimension
1001
ACAD_DSTYLE_DIMINSPECT
1070
   396
1000
100%
1070
   395
1000

1070
   394
1070
    33
1070
   393
1070
     0
1001
ACAD
1000
DSTYLE
1002
{
1070
    41
1040
7.0
1070
   140
1040
7.0
1070
   271
1070
     1
1070
   288
1070
     1
1002
}
  0
DIMENSION
  5
76E
330
20E
100
AcDbEntity
  8
P-0000
  6
Continuous
100
AcDbDimension
  2
*D42
 10
-574.6327069699971
 20
196.5556486101016
 30
0.0
 11
-574.6327069699971
 21
229.8056486101015
 31
0.0
 70
   160
 71
     5
 42
66.5
  3
883N99122_001_00149479900
100
AcDbAlignedDimension
 13
-539.2591314967001
 23
263.0556486101016
 33
0.0
 14
-539.2591314967001
 24
196.5556486101016
 34
0.0
 50
90.0
100
AcDbRotatedDimension
1001
ACAD_DSTYLE_DIMINSPECT
1070
   396
1000
100%
1070
   395
1000

1070
   394
1070
    33
1070
   393
1070
     0
1001
ACAD
1000
DSTYLE
1002
{
1070
    41
1040
7.0
1070
   140
1040
7.0
1070
   271
1070
     1
1070
   288
1070
     1
1002
}
  0
LINE
  5
888
330
20E
100
AcDbEntity
  8
0
100
AcDbLine
 10
-367.6051314967001
 20
229.8056486101017
 30
0.0
 11
-356.9131314967001
 21
229.8056486101017
 31
0.0
  0
LINE
  5
889
330
20E
100
AcDbEntity
  8
0
100
AcDbLine
 10
-362.2591314967001
 20
224.4596486101016
 30
0.0
 11
-362.2591314967001
 21
235.1516486101016
 31
0.0
  0
LINE
  5
88A
330
20E
100
AcDbEntity
  8
0
100
AcDbLine
 10
472.3948685033
 20
229.8056486101016
 30
0.0
 11
483.0868685033
 21
229.8056486101016
 31
0.0
  0
LINE
  5
88B
330
20E
100
AcDbEntity
  8
0
100
AcDbLine
 10
477.7408685033
 20
224.4596486101016
 30
0.0
 11
477.7408685033
 21
235.1516486101016
 31
0.0
  0
LINE
  5
10E8
330
20E
100
AcDbEntity
  8
0
  6
Continuous
 62
     3
100
AcDbLine
 10
-370.2251488202002
 20
266.0556486101
 30
0.0
 11
-369.2781141732002
 21
269.5898168749001
 31
0.0
  0
LINE
  5
10E9
330
20E
100
AcDbEntity
  8
0
  6
Continuous
 62
     3
100
AcDbLine
 10
-350.6030633656001
 20
266.0556486101
 30
0.0
 11
-351.5503377634001
 21
269.5909247911001
 31
0.0
  0
LINE
  5
10EA
330
20E
100
AcDbEntity
  8
0
  6
Continuous
 62
     9
100
AcDbLine
 10
-350.6030633656001
 20
266.0556486101
 30
0.0
 11
-370.2251488202002
 21
266.0556486101
 31
0.0
  0
LINE
  5
10EB
330
20E
100
AcDbEntity
  8
0
  6
Continuous
 62
     3
100
AcDbLine
 10
-355.4140410640002
 20
272.5556486101
 30
0.0
 11
-365.4141141732002
 21
272.5556486101
 31
0.0
  0
ARC
  5
10EC
330
20E
100
AcDbEntity
  8
0
  6
Continuous
 62
     3
100
AcDbCircle
 10
-365.4141141732002
 20
268.5556486101
 30
0.0
 40
4.0
100
AcDbArc
 50
90.0
 51
165.0164289137997
  0
ARC
  5
10ED
330
20E
100
AcDbEntity
  8
0
  6
Continuous
 62
     3
100
AcDbCircle
 10
-355.4140410686002
 20
268.5556486107001
 30
0.0
 40
4.0
100
AcDbArc
 50
14.99999999999956
 51
89.99999993430042
  0
SPLINE
  5
10EE
330
20E
100
AcDbEntity
  8
0
  6
Continuous
 62
     3
100
AcDbSpline
210
0.0
220
0.0
230
1.0
 70
     8
 71
     3
 72
    11
 73
     7
 74
     0
 42
0.0000000001
 43
0.0000000001
 40
0.0
 40
0.0
 40
0.0
 40
0.0
 40
0.1808812071
 40
0.3977274133
 40
0.6636717557000001
 40
1.0
 40
1.0
 40
1.0
 40
1.0
 10
-370.2251488202002
 20
266.0556486101
 30
0.0
 10
-370.2251488202002
 20
265.9479626079001
 30
0.0
 10
-370.2763169866002
 20
265.7088477995001
 30
0.0
 10
-370.5164936532002
 20
265.3814686473001
 30
0.0
 10
-370.9417602310002
 20
265.1214682277001
 30
0.0
 10
-371.3048604526002
 20
265.0556486101
 30
0.0
 10
-371.5050904524001
 20
265.0556486101
 30
0.0
  0
SPLINE
  5
10EF
330
20E
100
AcDbEntity
  8
0
  6
Continuous
 62
     3
100
AcDbSpline
210
0.0
220
0.0
230
1.0
 70
     8
 71
     3
 72
    11
 73
     7
 74
     0
 42
0.0000000001
 43
0.0000000001
 40
0.0
 40
0.0
 40
0.0
 40
0.0
 40
0.1808812071
 40
0.3977274133
 40
0.6636717557000001
 40
1.0
 40
1.0
 40
1.0
 40
1.0
 10
-350.6030633656001
 20
266.0556486101
 30
0.0
 10
-350.6030633656001
 20
265.9479626079001
 30
0.0
 10
-350.5518951992002
 20
265.7088477995001
 30
0.0
 10
-350.3117185328002
 20
265.3814686473001
 30
0.0
 10
-349.8864519548002
 20
265.1214682277001
 30
0.0
 10
-349.5233517332002
 20
265.0556486101
 30
0.0
 10
-349.3231217334001
 20
265.0556486101
 30
0.0
  0
LINE
  5
10F1
330
20E
100
AcDbEntity
  8
0
  6
Continuous
 62
     3
100
AcDbLine
 10
-202.8251488202002
 20
266.0556486101
 30
0.0
 11
-201.8781141732002
 21
269.5898168749001
 31
0.0
  0
LINE
  5
10F2
330
20E
100
AcDbEntity
  8
0
  6
Continuous
 62
     3
100
AcDbLine
 10
-183.2030633656001
 20
266.0556486101
 30
0.0
 11
-184.1503377634001
 21
269.5909247911001
 31
0.0
  0
LINE
  5
10F3
330
20E
100
AcDbEntity
  8
0
  6
Continuous
 62
     9
100
AcDbLine
 10
-183.2030633656001
 20
266.0556486101
 30
0.0
 11
-202.8251488202002
 21
266.0556486101
 31
0.0
  0
LINE
  5
10F4
330
20E
100
AcDbEntity
  8
0
  6
Continuous
 62
     3
100
AcDbLine
 10
-188.0140410640001
 20
272.5556486101
 30
0.0
 11
-198.0141141732002
 21
272.5556486101
 31
0.0
  0
ARC
  5
10F5
330
20E
100
AcDbEntity
  8
0
  6
Continuous
 62
     3
100
AcDbCircle
 10
-198.0141141732002
 20
268.5556486101
 30
0.0
 40
4.0
100
AcDbArc
 50
90.0
 51
165.0164289137997
  0
ARC
  5
10F6
330
20E
100
AcDbEntity
  8
0
  6
Continuous
 62
     3
100
AcDbCircle
 10
-188.0140410686001
 20
268.5556486107001
 30
0.0
 40
4.0
100
AcDbArc
 50
14.99999999999961
 51
89.99999993430042
  0
SPLINE
  5
10F7
330
20E
100
AcDbEntity
  8
0
  6
Continuous
 62
     3
100
AcDbSpline
210
0.0
220
0.0
230
1.0
 70
     8
 71
     3
 72
    11
 73
     7
 74
     0
 42
0.0000000001
 43
0.0000000001
 40
0.0
 40
0.0
 40
0.0
 40
0.0
 40
0.1808812071
 40
0.3977274133
 40
0.6636717557000001
 40
1.0
 40
1.0
 40
1.0
 40
1.0
 10
-202.8251488202002
 20
266.0556486101
 30
0.0
 10
-202.8251488202002
 20
265.9479626079001
 30
0.0
 10
-202.8763169866002
 20
265.7088477995001
 30
0.0
 10
-203.1164936532001
 20
265.3814686473001
 30
0.0
 10
-203.5417602310002
 20
265.1214682277001
 30
0.0
 10
-203.9048604526001
 20
265.0556486101
 30
0.0
 10
-204.1050904524001
 20
265.0556486101
 30
0.0
  0
SPLINE
  5
10F8
330
20E
100
AcDbEntity
  8
0
  6
Continuous
 62
     3
100
AcDbSpline
210
0.0
220
0.0
230
1.0
 70
     8
 71
     3
 72
    11
 73
     7
 74
     0
 42
0.0000000001
 43
0.0000000001
 40
0.0
 40
0.0
 40
0.0
 40
0.0
 40
0.1808812071
 40
0.3977274133
 40
0.6636717557000001
 40
1.0
 40
1.0
 40
1.0
 40
1.0
 10
-183.2030633656001
 20
266.0556486101
 30
0.0
 10
-183.2030633656001
 20
265.9479626079001
 30
0.0
 10
-183.1518951992001
 20
265.7088477995001
 30
0.0
 10
-182.9117185328001
 20
265.3814686473001
 30
0.0
 10
-182.4864519548001
 20
265.1214682277001
 30
0.0
 10
-182.1233517332002
 20
265.0556486101
 30
0.0
 10
-181.9231217334001
 20
265.0556486101
 30
0.0
  0
LINE
  5
10FA
330
20E
100
AcDbEntity
  8
0
  6
Continuous
 62
     3
100
AcDbLine
 10
-35.42514882020021
 20
266.0556486101
 30
0.0
 11
-34.4781141732002
 21
269.5898168749001
 31
0.0
  0
LINE
  5
10FB
330
20E
100
AcDbEntity
  8
0
  6
Continuous
 62
     3
100
AcDbLine
 10
-15.80306336560011
 20
266.0556486101
 30
0.0
 11
-16.75033776340012
 21
269.5909247911001
 31
0.0
  0
LINE
  5
10FC
330
20E
100
AcDbEntity
  8
0
  6
Continuous
 62
     9
100
AcDbLine
 10
-15.80306336560011
 20
266.0556486101
 30
0.0
 11
-35.42514882020021
 21
266.0556486101
 31
0.0
  0
LINE
  5
10FD
330
20E
100
AcDbEntity
  8
0
  6
Continuous
 62
     3
100
AcDbLine
 10
-20.61404106400016
 20
272.5556486101
 30
0.0
 11
-30.61411417320016
 21
272.5556486101
 31
0.0
  0
ARC
  5
10FE
330
20E
100
AcDbEntity
  8
0
  6
Continuous
 62
     3
100
AcDbCircle
 10
-30.61411417320016
 20
268.5556486101
 30
0.0
 40
4.0
100
AcDbArc
 50
90.0
 51
165.0164289138001
  0
ARC
  5
10FF
330
20E
100
AcDbEntity
  8
0
  6
Continuous
 62
     3
100
AcDbCircle
 10
-20.61404106860016
 20
268.5556486107001
 30
0.0
 40
4.0
100
AcDbArc
 50
14.99999999999919
 51
89.99999993429879
  0
SPLINE
  5
1100
330
20E
100
AcDbEntity
  8
0
  6
Continuous
 62
     3
100
AcDbSpline
210
0.0
220
0.0
230
1.0
 70
     8
 71
     3
 72
    11
 73
     7
 74
     0
 42
0.0000000001
 43
0.0000000001
 40
0.0
 40
0.0
 40
0.0
 40
0.0
 40
0.1808812071
 40
0.3977274133
 40
0.6636717557000001
 40
1.0
 40
1.0
 40
1.0
 40
1.0
 10
-35.42514882020021
 20
266.0556486101
 30
0.0
 10
-35.42514882020021
 20
265.9479626079001
 30
0.0
 10
-35.47631698660018
 20
265.7088477995001
 30
0.0
 10
-35.71649365320013
 20
265.3814686473001
 30
0.0
 10
-36.14176023100015
 20
265.1214682277001
 30
0.0
 10
-36.50486045260016
 20
265.0556486101
 30
0.0
 10
-36.7050904524001
 20
265.0556486101
 30
0.0
  0
SPLINE
  5
1101
330
20E
100
AcDbEntity
  8
0
  6
Continuous
 62
     3
100
AcDbSpline
210
0.0
220
0.0
230
1.0
 70
     8
 71
     3
 72
    11
 73
     7
 74
     0
 42
0.0000000001
 43
0.0000000001
 40
0.0
 40
0.0
 40
0.0
 40
0.0
 40
0.1808812071
 40
0.3977274133
 40
0.6636717557000001
 40
1.0
 40
1.0
 40
1.0
 40
1.0
 10
-15.80306336560011
 20
266.0556486101
 30
0.0
 10
-15.80306336560011
 20
265.9479626079001
 30
0.0
 10
-15.75189519920013
 20
265.7088477995001
 30
0.0
 10
-15.51171853280016
 20
265.3814686473001
 30
0.0
 10
-15.08645195480017
 20
265.1214682277001
 30
0.0
 10
-14.72335173320016
 20
265.0556486101
 30
0.0
 10
-14.5231217334001
 20
265.0556486101
 30
0.0
  0
LINE
  5
1103
330
20E
100
AcDbEntity
  8
0
  6
Continuous
 62
     3
100
AcDbLine
 10
131.9748511797998
 20
266.0556486101
 30
0.0
 11
132.9218858267998
 21
269.5898168749001
 31
0.0
  0
LINE
  5
1104
330
20E
100
AcDbEntity
  8
0
  6
Continuous
 62
     3
100
AcDbLine
 10
151.5969366343999
 20
266.0556486101
 30
0.0
 11
150.6496622365999
 21
269.5909247911
 31
0.0
  0
LINE
  5
1105
330
20E
100
AcDbEntity
  8
0
  6
Continuous
 62
     9
100
AcDbLine
 10
151.5969366343999
 20
266.0556486101
 30
0.0
 11
131.9748511797998
 21
266.0556486101
 31
0.0
  0
LINE
  5
1106
330
20E
100
AcDbEntity
  8
0
  6
Continuous
 62
     3
100
AcDbLine
 10
146.7859589359999
 20
272.5556486101
 30
0.0
 11
136.7858858267998
 21
272.5556486101
 31
0.0
  0
ARC
  5
1107
330
20E
100
AcDbEntity
  8
0
  6
Continuous
 62
     3
100
AcDbCircle
 10
136.7858858267998
 20
268.5556486101
 30
0.0
 40
4.0
100
AcDbArc
 50
90.0
 51
165.0164289138001
  0
ARC
  5
1108
330
20E
100
AcDbEntity
  8
0
  6
Continuous
 62
     3
100
AcDbCircle
 10
146.7859589313999
 20
268.5556486107
 30
0.0
 40
4.0
100
AcDbArc
 50
14.99999999999919
 51
89.99999993430206
  0
SPLINE
  5
1109
330
20E
100
AcDbEntity
  8
0
  6
Continuous
 62
     3
100
AcDbSpline
210
0.0
220
0.0
230
1.0
 70
     8
 71
     3
 72
    11
 73
     7
 74
     0
 42
0.0000000001
 43
0.0000000001
 40
0.0
 40
0.0
 40
0.0
 40
0.0
 40
0.1808812071
 40
0.3977274133
 40
0.6636717557000001
 40
1.0
 40
1.0
 40
1.0
 40
1.0
 10
131.9748511797998
 20
266.0556486101
 30
0.0
 10
131.9748511797998
 20
265.9479626079001
 30
0.0
 10
131.9236830133998
 20
265.7088477995001
 30
0.0
 10
131.6835063467999
 20
265.3814686473
 30
0.0
 10
131.2582397689999
 20
265.1214682277
 30
0.0
 10
130.8951395473999
 20
265.0556486101
 30
0.0
 10
130.6949095475999
 20
265.0556486101
 30
0.0
  0
SPLINE
  5
110A
330
20E
100
AcDbEntity
  8
0
  6
Continuous
 62
     3
100
AcDbSpline
210
0.0
220
0.0
230
1.0
 70
     8
 71
     3
 72
    11
 73
     7
 74
     0
 42
0.0000000001
 43
0.0000000001
 40
0.0
 40
0.0
 40
0.0
 40
0.0
 40
0.1808812071
 40
0.3977274133
 40
0.6636717557000001
 40
1.0
 40
1.0
 40
1.0
 40
1.0
 10
151.5969366343999
 20
266.0556486101
 30
0.0
 10
151.5969366343999
 20
265.9479626079001
 30
0.0
 10
151.6481048007999
 20
265.7088477995001
 30
0.0
 10
151.8882814671998
 20
265.3814686473
 30
0.0
 10
152.3135480451998
 20
265.1214682277
 30
0.0
 10
152.6766482667999
 20
265.0556486101
 30
0.0
 10
152.8768782665999
 20
265.0556486101
 30
0.0
  0
LINE
  5
110C
330
20E
100
AcDbEntity
  8
0
  6
Continuous
 62
     3
100
AcDbLine
 10
299.3748511797998
 20
266.0556486101
 30
0.0
 11
300.3218858267998
 21
269.5898168749001
 31
0.0
  0
LINE
  5
110D
330
20E
100
AcDbEntity
  8
0
  6
Continuous
 62
     3
100
AcDbLine
 10
318.9969366343999
 20
266.0556486101
 30
0.0
 11
318.0496622365999
 21
269.5909247911
 31
0.0
  0
LINE
  5
110E
330
20E
100
AcDbEntity
  8
0
  6
Continuous
 62
     9
100
AcDbLine
 10
318.9969366343999
 20
266.0556486101
 30
0.0
 11
299.3748511797998
 21
266.0556486101
 31
0.0
  0
LINE
  5
110F
330
20E
100
AcDbEntity
  8
0
  6
Continuous
 62
     3
100
AcDbLine
 10
314.1859589359999
 20
272.5556486101
 30
0.0
 11
304.1858858267998
 21
272.5556486101
 31
0.0
  0
ARC
  5
1110
330
20E
100
AcDbEntity
  8
0
  6
Continuous
 62
     3
100
AcDbCircle
 10
304.1858858267998
 20
268.5556486101
 30
0.0
 40
4.0
100
AcDbArc
 50
90.0
 51
165.0164289138001
  0
ARC
  5
1111
330
20E
100
AcDbEntity
  8
0
  6
Continuous
 62
     3
100
AcDbCircle
 10
314.1859589313999
 20
268.5556486107
 30
0.0
 40
4.0
100
AcDbArc
 50
14.99999999999919
 51
89.99999993430206
  0
SPLINE
  5
1112
330
20E
100
AcDbEntity
  8
0
  6
Continuous
 62
     3
100
AcDbSpline
210
0.0
220
0.0
230
1.0
 70
     8
 71
     3
 72
    11
 73
     7
 74
     0
 42
0.0000000001
 43
0.0000000001
 40
0.0
 40
0.0
 40
0.0
 40
0.0
 40
0.1808812071
 40
0.3977274133
 40
0.6636717557000001
 40
1.0
 40
1.0
 40
1.0
 40
1.0
 10
299.3748511797998
 20
266.0556486101
 30
0.0
 10
299.3748511797998
 20
265.9479626079001
 30
0.0
 10
299.3236830133998
 20
265.7088477995001
 30
0.0
 10
299.0835063467999
 20
265.3814686473
 30
0.0
 10
298.6582397689998
 20
265.1214682277
 30
0.0
 10
298.2951395473999
 20
265.0556486101
 30
0.0
 10
298.0949095475999
 20
265.0556486101
 30
0.0
  0
SPLINE
  5
1113
330
20E
100
AcDbEntity
  8
0
  6
Continuous
 62
     3
100
AcDbSpline
210
0.0
220
0.0
230
1.0
 70
     8
 71
     3
 72
    11
 73
     7
 74
     0
 42
0.0000000001
 43
0.0000000001
 40
0.0
 40
0.0
 40
0.0
 40
0.0
 40
0.1808812071
 40
0.3977274133
 40
0.6636717557000001
 40
1.0
 40
1.0
 40
1.0
 40
1.0
 10
318.9969366343999
 20
266.0556486101
 30
0.0
 10
318.9969366343999
 20
265.9479626079001
 30
0.0
 10
319.0481048007999
 20
265.7088477995001
 30
0.0
 10
319.2882814671999
 20
265.3814686473
 30
0.0
 10
319.7135480451998
 20
265.1214682277
 30
0.0
 10
320.0766482667999
 20
265.0556486101
 30
0.0
 10
320.2768782665999
 20
265.0556486101
 30
0.0
  0
LINE
  5
1115
330
20E
100
AcDbEntity
  8
0
  6
Continuous
 62
     3
100
AcDbLine
 10
466.7748511797998
 20
266.0556486101
 30
0.0
 11
467.7218858267997
 21
269.5898168749001
 31
0.0
  0
LINE
  5
1116
330
20E
100
AcDbEntity
  8
0
  6
Continuous
 62
     3
100
AcDbLine
 10
486.3969366343998
 20
266.0556486101
 30
0.0
 11
485.4496622365998
 21
269.5909247911
 31
0.0
  0
LINE
  5
1117
330
20E
100
AcDbEntity
  8
0
  6
Continuous
 62
     9
100
AcDbLine
 10
486.3969366343998
 20
266.0556486101
 30
0.0
 11
466.7748511797998
 21
266.0556486101
 31
0.0
  0
LINE
  5
1118
330
20E
100
AcDbEntity
  8
0
  6
Continuous
 62
     3
100
AcDbLine
 10
481.5859589359998
 20
272.5556486101
 30
0.0
 11
471.5858858267998
 21
272.5556486101
 31
0.0
  0
ARC
  5
1119
330
20E
100
AcDbEntity
  8
0
  6
Continuous
 62
     3
100
AcDbCircle
 10
471.5858858267998
 20
268.5556486101
 30
0.0
 40
4.0
100
AcDbArc
 50
90.0
 51
165.0164289138001
  0
ARC
  5
111A
330
20E
100
AcDbEntity
  8
0
  6
Continuous
 62
     3
100
AcDbCircle
 10
481.5859589313998
 20
268.5556486107
 30
0.0
 40
4.0
100
AcDbArc
 50
14.99999999999919
 51
89.99999993430206
  0
SPLINE
  5
111B
330
20E
100
AcDbEntity
  8
0
  6
Continuous
 62
     3
100
AcDbSpline
210
0.0
220
0.0
230
1.0
 70
     8
 71
     3
 72
    11
 73
     7
 74
     0
 42
0.0000000001
 43
0.0000000001
 40
0.0
 40
0.0
 40
0.0
 40
0.0
 40
0.1808812071
 40
0.3977274133
 40
0.6636717557000001
 40
1.0
 40
1.0
 40
1.0
 40
1.0
 10
466.7748511797998
 20
266.0556486101
 30
0.0
 10
466.7748511797998
 20
265.9479626079001
 30
0.0
 10
466.7236830133997
 20
265.7088477995001
 30
0.0
 10
466.4835063467998
 20
265.3814686473
 30
0.0
 10
466.0582397689998
 20
265.1214682277
 30
0.0
 10
465.6951395473998
 20
265.0556486101
 30
0.0
 10
465.4949095475998
 20
265.0556486101
 30
0.0
  0
SPLINE
  5
111C
330
20E
100
AcDbEntity
  8
0
  6
Continuous
 62
     3
100
AcDbSpline
210
0.0
220
0.0
230
1.0
 70
     8
 71
     3
 72
    11
 73
     7
 74
     0
 42
0.0000000001
 43
0.0000000001
 40
0.0
 40
0.0
 40
0.0
 40
0.0
 40
0.1808812071
 40
0.3977274133
 40
0.6636717557000001
 40
1.0
 40
1.0
 40
1.0
 40
1.0
 10
486.3969366343998
 20
266.0556486101
 30
0.0
 10
486.3969366343998
 20
265.9479626079001
 30
0.0
 10
486.4481048007998
 20
265.7088477995001
 30
0.0
 10
486.6882814671998
 20
265.3814686473
 30
0.0
 10
487.1135480451997
 20
265.1214682277
 30
0.0
 10
487.4766482667998
 20
265.0556486101
 30
0.0
 10
487.6768782665998
 20
265.0556486101
 30
0.0
  0
ARC
  5
122F
330
20E
100
AcDbEntity
  8
0
  6
Continuous
 62
     3
100
AcDbCircle
 10
-441.0091314967001
 20
189.9083985443017
 30
0.0
 40
250.0
100
AcDbArc
 50
78.52165904550054
 51
101.4783409544995
  0
ARC
  5
1237
330
20E
100
AcDbEntity
  8
0
  6
Continuous
 62
     3
100
AcDbCircle
 10
556.4870996355899
 20
189.9083985443017
 30
0.0
 40
250.0
100
AcDbArc
 50
78.52165904550054
 51
101.4783409544995
  0
LINE
  5
126C
330
20E
100
AcDbEntity
  8
0
  6
Continuous
 62
     3
100
AcDbLine
 10
-391.2597596415143
 20
434.9083985443312
 30
0.0
 11
-391.2585033518861
 21
434.9083985443312
 31
0.0
  0
LINE
  5
126F
330
20E
100
AcDbEntity
  8
0
  6
Continuous
 62
     3
100
AcDbLine
 10
-391.2585033518861
 20
434.9083985443312
 30
0.0
 11
-291.2585033517411
 21
434.9083985443606
 31
0.0
  0
LINE
  5
12C7
330
20E
100
AcDbEntity
  8
0
  6
Continuous
 62
     3
100
AcDbLine
 10
606.2364714907744
 20
434.9083985443314
 30
0.0
 11
648.7370996354447
 21
434.9083985443311
 31
0.0
  0
LINE
  5
1513
330
20E
100
AcDbEntity
  8
RUNDUNGEN
  6
Continuous
 62
     7
100
AcDbLine
 10
-204.1050619781002
 20
436.9083985443015
 30
0.0
 11
-204.4000846776151
 21
437.1388955389166
 31
0.0
  0
LINE
  5
1516
330
20E
100
AcDbEntity
  8
0
  6
Continuous
 62
     9
100
AcDbLine
 10
-202.8956623437494
 20
436.9083985443015
 30
0.0
 11
-204.1050619781002
 21
436.9083985443015
 31
0.0
  0
LINE
  5
1517
330
20E
100
AcDbEntity
  8
0
  6
Continuous
 62
     7
100
AcDbLine
 10
-202.8251203459002
 20
434.9083985443014
 30
0.0
 11
-204.1050619781002
 21
436.9083985443015
 31
0.0
  0
LINE
  5
151B
330
20E
100
AcDbEntity
  8
RUNDUNGEN
  6
Continuous
 62
     7
100
AcDbLine
 10
320.2769067408998
 20
436.9083985443311
 30
0.0
 11
320.734534246515
 21
437.2659363367367
 31
0.0
  0
LINE
  5
151C
330
20E
100
AcDbEntity
  8
0
  6
Continuous
 62
     7
100
AcDbLine
 10
318.9969651086999
 20
434.9083985443311
 30
0.0
 11
299.3748796540998
 21
434.9083985443311
 31
0.0
  0
LINE
  5
151D
330
20E
100
AcDbEntity
  8
0
  6
Continuous
 62
     9
100
AcDbLine
 10
320.2769067408998
 20
436.9083985443311
 30
0.0
 11
318.3736304828288
 21
436.9083985443311
 31
0.0
  0
LINE
  5
151F
330
20E
100
AcDbEntity
  8
0
  6
Continuous
 62
     7
100
AcDbLine
 10
318.9969651086999
 20
434.9083985443311
 30
0.0
 11
320.2769067408998
 21
436.9083985443311
 31
0.0
  0
LINE
  5
1522
330
20E
100
AcDbEntity
  8
RUNDUNGEN
  6
Continuous
 62
     7
100
AcDbLine
 10
320.2769067408998
 20
436.9083985443311
 30
0.0
 11
320.7345342465151
 21
437.2659363367367
 31
0.0
  0
LINE
  5
1524
330
20E
100
AcDbEntity
  8
0
  6
Continuous
 62
     9
100
AcDbLine
 10
320.2769067408998
 20
436.9083985443311
 30
0.0
 11
318.3736304828288
 21
436.9083985443311
 31
0.0
  0
LINE
  5
1526
330
20E
100
AcDbEntity
  8
0
  6
Continuous
 62
     7
100
AcDbLine
 10
318.9969651086999
 20
434.9083985443311
 30
0.0
 11
320.2769067408998
 21
436.9083985443311
 31
0.0
  0
LINE
  5
152B
330
20E
100
AcDbEntity
  8
0
  6
Continuous
 62
     3
100
AcDbLine
 10
406.736471490776
 20
434.9083985443311
 30
0.0
 11
474.6377277801137
 21
434.9083985443311
 31
0.0
  0
LINE
  5
152F
330
20E
100
AcDbEntity
  8
RUNDUNGEN
  6
Continuous
 62
     7
100
AcDbLine
 10
130.6949380218998
 20
436.9083985443311
 30
0.0
 11
128.9472236456064
 21
438.273862665715
 31
0.0
  0
LINE
  5
1530
330
20E
100
AcDbEntity
  8
RUNDUNGEN
  6
Continuous
 62
     7
100
AcDbLine
 10
152.8769067408998
 20
436.9083985443311
 30
0.0
 11
156.7152014180751
 21
439.9072030056904
 31
0.0
  0
LINE
  5
1531
330
20E
100
AcDbEntity
  8
0
  6
Continuous
 62
     7
100
AcDbLine
 10
151.5969651086998
 20
434.9083985443311
 30
0.0
 11
131.9748796540999
 21
434.9083985443311
 31
0.0
  0
LINE
  5
1532
330
20E
100
AcDbEntity
  8
0
  6
Continuous
 62
     9
100
AcDbLine
 10
152.8769067408998
 20
436.9083985443311
 30
0.0
 11
130.6949380218998
 21
436.9083985443311
 31
0.0
  0
LINE
  5
1533
330
20E
100
AcDbEntity
  8
0
  6
Continuous
 62
     7
100
AcDbLine
 10
131.9748796540999
 20
434.9083985443311
 30
0.0
 11
130.6949380218998
 21
436.9083985443311
 31
0.0
  0
LINE
  5
1534
330
20E
100
AcDbEntity
  8
0
  6
Continuous
 62
     7
100
AcDbLine
 10
151.5969651086998
 20
434.9083985443311
 30
0.0
 11
152.8769067408998
 21
436.9083985443311
 31
0.0
  0
LINE
  5
1536
330
20E
100
AcDbEntity
  8
0
  6
Continuous
 62
     3
100
AcDbLine
 10
406.736471490776
 20
434.9083985443311
 30
0.0
 11
506.7377277804037
 21
434.9083985443311
 31
0.0
  0
ENDSEC
  0
SECTION
  2
OBJECTS
  0
DICTIONARY
  5
C
330
0
100
AcDbDictionary
281
     1
  3
ACAD_COLOR
350
637
  3
ACAD_GROUP
350
D
  3
ACAD_LAYOUT
350
1A
  3
ACAD_MATERIAL
350
60A
  3
ACAD_MLEADERSTYLE
350
64C
  3
ACAD_MLINESTYLE
350
17
  3
ACAD_PLOTSETTINGS
350
19
  3
ACAD_PLOTSTYLENAME
350
E
  3
ACAD_SCALELIST
350
63A
  3
ACAD_TABLESTYLE
350
638
  3
ACAD_VISUALSTYLE
350
623
  3
ACDB_RECOMPOSE_DATA
350
15CB
  3
AcDbVariableDictionary
350
15C1
  3
AcmDictionary
350
6A6
  3
AEC_PROPERTY_SET_DEFS
350
7B2
  3
AMG
350
650
  3
AMGSNAPSETTINGS
350
6EB
  3
DWGPROPS
350
15CC
  0
DICTIONARY
  5
80C
330
10
100
AcDbDictionary
280
     1
281
     1
  3
ADSK_XREC_LAYER_RECONCILED
360
80D
  0
DICTIONARY
  5
80E
330
1FD
100
AcDbDictionary
280
     1
281
     1
  3
ADSK_XREC_LAYER_RECONCILED
360
80F
  0
DICTIONARY
  5
810
330
202
100
AcDbDictionary
280
     1
281
     1
  3
ADSK_XREC_LAYER_RECONCILED
360
811
  0
DICTIONARY
  5
812
330
203
100
AcDbDictionary
280
     1
281
     1
  3
ADSK_XREC_LAYER_RECONCILED
360
813
  0
DICTIONARY
  5
814
330
204
100
AcDbDictionary
280
     1
281
     1
  3
ADSK_XREC_LAYER_RECONCILED
360
815
  0
DICTIONARY
  5
7AB
330
7AA
100
AcDbDictionary
280
     1
281
     1
  3
ADSK_XREC_LAYER_RECONCILED
360
816
  0
DICTIONARY
  5
126D
330
20E
100
AcDbDictionary
280
     1
281
     1
  3
ACAD_SORTENTS
360
126E
  0
DICTIONARY
  5
637
102
{ACAD_REACTORS
330
C
102
}
330
C
100
AcDbDictionary
281
     1
  0
DICTIONARY
  5
D
102
{ACAD_REACTORS
330
C
102
}
330
C
100
AcDbDictionary
281
     1
  0
DICTIONARY
  5
1A
102
{ACAD_REACTORS
330
C
102
}
330
C
100
AcDbDictionary
281
     1
  3
Layout1
350
605
  3
Model
350
604
  0
DICTIONARY
  5
60A
102
{ACAD_REACTORS
330
C
102
}
330
C
100
AcDbDictionary
281
     1
  3
ByBlock
350
613
  3
ByLayer
350
60B
  3
Global
350
61B
  0
DICTIONARY
  5
64C
102
{ACAD_REACTORS
330
C
102
}
330
C
100
AcDbDictionary
281
     1
  3
Standard
350
64D
  0
DICTIONARY
  5
17
102
{ACAD_REACTORS
330
C
102
}
330
C
100
AcDbDictionary
281
     1
  3
Standard
350
18
  0
DICTIONARY
  5
19
102
{ACAD_REACTORS
330
C
102
}
330
C
100
AcDbDictionary
281
     1
  0
ACDBDICTIONARYWDFLT
  5
E
102
{ACAD_REACTORS
330
C
102
}
330
C
100
AcDbDictionary
281
     1
  3
Normal
350
F
100
AcDbDictionaryWithDefault
340
F
  0
DICTIONARY
  5
63A
102
{ACAD_REACTORS
330
C
102
}
330
C
100
AcDbDictionary
281
     1
  3
A0
350
63B
  3
A1
350
63C
  3
A2
350
63D
  3
A3
350
63E
  3
A4
350
63F
  3
A5
350
640
  3
A6
350
641
  3
A7
350
642
  3
A8
350
643
  3
A9
350
644
  3
B0
350
645
  3
B1
350
646
  3
B2
350
647
  3
B3
350
648
  3
B4
350
649
  3
B5
350
64A
  3
B6
350
64B
  0
DICTIONARY
  5
638
102
{ACAD_REACTORS
330
C
102
}
330
C
100
AcDbDictionary
281
     1
  3
Standard
350
639
  0
DICTIONARY
  5
623
102
{ACAD_REACTORS
330
C
102
}
330
C
100
AcDbDictionary
281
     1
  3
2dWireframe
350
629
  3
3D Hidden
350
62B
  3
3dWireframe
350
62A
  3
Basic
350
628
  3
Brighten
350
62F
  3
ColorChange
350
633
  3
Conceptual
350
62C
  3
Dim
350
62E
  3
EdgeColorOff
350
636
  3
Facepattern
350
632
  3
Flat
350
624
  3
FlatWithEdges
350
625
  3
Gouraud
350
626
  3
GouraudWithEdges
350
627
  3
JitterOff
350
634
  3
Linepattern
350
631
  3
OverhangOff
350
635
  3
Realistic
350
62D
  3
Thicken
350
630
  0
XRECORD
  5
15CB
102
{ACAD_REACTORS
330
C
102
}
330
C
100
AcDbXrecord
280
     1
 90
        1
330
639
  0
DICTIONARY
  5
15C1
102
{ACAD_REACTORS
330
C
102
}
330
C
100
AcDbDictionary
281
     1
  3
CANNOSCALE
350
15C4
  3
CMLEADERSTYLE
350
15C3
  3
CTABLESTYLE
350
15C2
  3
DIMASSOC
350
15C7
  3
INDEXCTL
350
15C6
  3
SORTENTS
350
15C5
  3
XCLIPFRAME
350
15C8
  0
DICTIONARY
  5
6A6
102
{ACAD_REACTORS
330
C
102
}
330
C
100
AcDbDictionary
281
     1
  3
AcmStdDictionary
350
6B0
  0
DICTIONARY
  5
7B2
102
{ACAD_REACTORS
330
C
102
}
330
C
100
AcDbDictionary
281
     1
  0
DICTIONARY
  5
650
102
{ACAD_REACTORS
330
C
102
}
330
C
100
AcDbDictionary
281
     1
  0
DICTIONARY
  5
6EB
102
{ACAD_REACTORS
330
C
102
}
330
C
100
AcDbDictionary
281
     1
  0
XRECORD
  5
15CC
102
{ACAD_REACTORS
330
C
102
}
330
C
100
AcDbXrecord
280
     1
  1
DWGPROPS COOKIE
  2

  3

  4

  6

  7

  8
malaie
  9

300
=
301
=
302
=
303
=
304
=
305
=
306
=
307
=
308
=
309
=
 40
0.1950887615740741
 41
2457197.364821956
 42
2457197.559910185
  1

 90
        0
  0
XRECORD
  5
80D
102
{ACAD_REACTORS
330
80C
102
}
330
80C
100
AcDbXrecord
280
     1
290
     1
  0
XRECORD
  5
80F
102
{ACAD_REACTORS
330
80E
102
}
330
80E
100
AcDbXrecord
280
     1
290
     1
  0
XRECORD
  5
811
102
{ACAD_REACTORS
330
810
102
}
330
810
100
AcDbXrecord
280
     1
290
     1
  0
XRECORD
  5
813
102
{ACAD_REACTORS
330
812
102
}
330
812
100
AcDbXrecord
280
     1
290
     1
  0
XRECORD
  5
815
102
{ACAD_REACTORS
330
814
102
}
330
814
100
AcDbXrecord
280
     1
290
     1
  0
XRECORD
  5
816
102
{ACAD_REACTORS
330
7AB
102
}
330
7AB
100
AcDbXrecord
280
     1
290
     1
  0
SORTENTSTABLE
  5
126E
102
{ACAD_REACTORS
330
126D
102
}
330
126D
100
AcDbSortentsTable
330
20E
331
10E8
  5
10EC
331
110A
  5
110F
331
111B
  5
1238
331
54B
  5
54F
331
1517
  5
151C
331
55C
  5
560
331
5CC
  5
5D2
331
588
  5
590
331
53A
  5
53A
331
10E9
  5
10ED
331
5F9
  5
76E
331
10FA
  5
10FE
331
111C
  5
123E
331
54C
  5
550
331
5DE
  5
5F2
331
56E
  5
572
331
55D
  5
561
331
53B
  5
53B
331
52A
  5
52A
331
10EA
  5
10EE
331
5FA
  5
888
331
10FB
  5
10FF
331
110C
  5
1110
331
5DF
  5
5F3
331
56F
  5
574
331
55E
  5
562
331
54D
  5
551
331
53C
  5
53C
331
52B
  5
52B
331
10EB
  5
10EF
331
5E0
  5
5F4
331
10FC
  5
1100
331
110D
  5
1111
331
570
  5
575
331
55F
  5
563
331
54E
  5
552
331
5CF
  5
5D3
331
152B
  5
543
331
53D
  5
53D
331
52C
  5
52C
331
10EC
  5
10F1
331
5F2
  5
5F7
331
5E1
  5
5F6
331
5D0
  5
5D4
331
10FD
  5
1101
331
110E
  5
1112
331
151B
  5
151D
331
571
  5
576
331
560
  5
564
331
54F
  5
553
331
53E
  5
53E
331
52D
  5
52D
331
10ED
  5
10F2
331
5D1
  5
5D5
331
6F6
  5
88A
331
122F
  5
1278
331
10FE
  5
1103
331
110F
  5
1113
331
151C
  5
1520
331
572
  5
577
331
561
  5
565
331
550
  5
557
331
58D
  5
591
331
53F
  5
540
331
52E
  5
52E
331
10EE
  5
10F3
331
5F4
  5
5FF
331
5D2
  5
5DE
331
5C1
  5
5C5
331
10FF
  5
1104
331
1110
  5
1115
331
151D
  5
1524
331
562
  5
566
331
551
  5
558
331
58E
  5
592
331
540
  5
541
331
52F
  5
52F
331
10EF
  5
10F4
331
5F5
  5
6F6
331
5D3
  5
5DF
331
5C2
  5
5C6
331
5FF
  5
889
331
1111
  5
1116
331
1100
  5
1105
331
152F
  5
1530
331
58F
  5
593
331
574
  5
578
331
563
  5
567
331
530
  5
530
331
1530
  5
1531
331
590
  5
594
331
5D4
  5
5E0
331
5C3
  5
5C7
331
1101
  5
1106
331
1112
  5
1117
331
151F
  5
1527
331
575
  5
579
331
564
  5
568
331
542
  5
544
331
12C7
  5
546
331
531
  5
531
331
1531
  5
1532
331
591
  5
595
331
10F1
  5
10F5
331
5D5
  5
5E1
331
5C4
  5
5C8
331
1113
  5
1118
331
543
  5
549
331
576
  5
57A
331
565
  5
56E
331
532
  5
532
331
1532
  5
1533
331
592
  5
596
331
581
  5
58D
331
1237
  5
137C
331
1103
  5
1107
331
10F2
  5
10F6
331
5C5
  5
5C9
331
577
  5
57B
331
566
  5
56F
331
555
  5
559
331
544
  5
54B
331
1522
  5
1528
331
582
  5
58E
331
578
  5
57C
331
1533
  5
1534
331
593
  5
597
331
10F3
  5
10F7
331
5C6
  5
5CA
331
1115
  5
1119
331
1104
  5
1108
331
567
  5
570
331
556
  5
55A
331
534
  5
534
331
1534
  5
1536
331
594
  5
5C1
331
583
  5
58F
331
579
  5
581
331
568
  5
571
331
10F4
  5
10F8
331
5C7
  5
5CB
331
126C
  5
53F
331
1116
  5
111A
331
1105
  5
1109
331
557
  5
55B
331
535
  5
535
331
888
  5
10E8
331
558
  5
55C
331
1524
  5
152B
331
1513
  5
1517
331
57A
  5
582
331
76E
  5
88B
331
595
  5
5C2
331
10F5
  5
10FA
331
5C8
  5
5CC
331
1106
  5
110A
331
1117
  5
111B
331
547
  5
54C
331
536
  5
536
331
1118
  5
111C
331
889
  5
10E9
331
559
  5
55D
331
596
  5
5C3
331
57B
  5
583
331
10F6
  5
10FB
331
5C9
  5
5CF
331
1536
  5
545
331
1107
  5
110C
331
537
  5
537
331
1108
  5
110D
331
1119
  5
1126
331
549
  5
54D
331
88A
  5
10EA
331
55A
  5
55E
331
1526
  5
152E
331
57C
  5
588
331
126F
  5
1516
331
10F7
  5
10FC
331
5CA
  5
5D0
331
597
  5
5C4
331
1109
  5
110E
331
10F8
  5
10FD
331
111A
  5
1127
331
54A
  5
54E
331
1516
  5
151B
331
88B
  5
10EB
331
5CB
  5
5D1
331
55B
  5
55F
331
3EC
  5
3EC
  0
LAYOUT
  5
605
102
{ACAD_XDICTIONARY
360
15CF
102
}
102
{ACAD_REACTORS
330
1A
102
}
330
1A
100
AcDbPlotSettings
  1

  2
none_device
  4
ISO_A2_(594.00_x_420.00_MM)
  6

 40
0.0
 41
0.0
 42
0.0
 43
0.0
 44
594.0
 45
420.0
 46
0.0
 47
0.0
 48
0.0
 49
0.0
140
0.0
141
0.0
142
1.0
143
1.0
 70
     0
 72
     1
 73
     0
 74
     0
  7

 75
     0
147
1.0
148
0.0
149
0.0
100
AcDbLayout
  1
Layout1
 70
     1
 71
     1
 10
0.0
 20
0.0
 11
12.0
 21
9.0
 12
0.0
 22
0.0
 32
0.0
 14
1.000000000000000E+20
 24
1.000000000000000E+20
 34
1.000000000000000E+20
 15
-1.000000000000000E+20
 25
-1.000000000000000E+20
 35
-1.000000000000000E+20
146
0.0
 13
0.0
 23
0.0
 33
0.0
 16
1.0
 26
0.0
 36
0.0
 17
0.0
 27
1.0
 37
0.0
 76
     0
330
20F
  0
LAYOUT
  5
604
102
{ACAD_XDICTIONARY
360
15CD
102
}
102
{ACAD_REACTORS
330
1A
102
}
330
1A
100
AcDbPlotSettings
  1

  2
none_device
  4
ISO_A2_(594.00_x_420.00_MM)
  6

 40
0.0
 41
0.0
 42
0.0
 43
0.0
 44
594.0
 45
420.0
 46
0.0
 47
0.0
 48
0.0
 49
0.0
140
0.0
141
0.0
142
1.0
143
1.0
 70
  1024
 72
     1
 73
     0
 74
     0
  7

 75
     0
147
1.0
148
0.0
149
0.0
100
AcDbLayout
  1
Model
 70
     0
 71
     0
 10
0.0
 20
0.0
 11
594.0
 21
420.0
 12
0.0
 22
0.0
 32
0.0
 14
0.0
 24
0.0
 34
0.0
 15
0.0
 25
0.0
 35
0.0
146
0.0
 13
0.0
 23
0.0
 33
0.0
 16
1.0
 26
0.0
 36
0.0
 17
0.0
 27
1.0
 37
0.0
 76
     0
330
20E
331
1F4
  0
MATERIAL
  5
613
102
{ACAD_XDICTIONARY
360
614
102
}
102
{ACAD_REACTORS
330
60A
102
}
330
60A
100
AcDbMaterial
  1
ByBlock
 72
     0
 43
0.0008202099737533
 43
0.0
 43
0.0
 43
0.0
 43
0.0
 43
0.0008202099737533
 43
0.0
 43
0.0
 43
0.0
 43
0.0
 43
1.0
 43
0.0
 43
0.0
 43
0.0
 43
0.0
 43
1.0
 77
     0
 47
0.0008202099737533
 47
0.0
 47
0.0
 47
0.0
 47
0.0
 47
0.0008202099737533
 47
0.0
 47
0.0
 47
0.0
 47
0.0
 47
1.0
 47
0.0
 47
0.0
 47
0.0
 47
0.0
 47
1.0
171
     0
 49
0.0008202099737533
 49
0.0
 49
0.0
 49
0.0
 49
0.0
 49
0.0008202099737533
 49
0.0
 49
0.0
 49
0.0
 49
0.0
 49
1.0
 49
0.0
 49
0.0
 49
0.0
 49
0.0
 49
1.0
175
     0
142
0.0008202099737533
142
0.0
142
0.0
142
0.0
142
0.0
142
0.0008202099737533
142
0.0
142
0.0
142
0.0
142
0.0
142
1.0
142
0.0
142
0.0
142
0.0
142
0.0
142
1.0
179
     0
144
0.0008202099737533
144
0.0
144
0.0
144
0.0
144
0.0
144
0.0008202099737533
144
0.0
144
0.0
144
0.0
144
0.0
144
1.0
144
0.0
144
0.0
144
0.0
144
0.0
144
1.0
147
0.0008202099737533
147
0.0
147
0.0
147
0.0
147
0.0
147
0.0008202099737533
147
0.0
147
0.0
147
0.0
147
0.0
147
1.0
147
0.0
147
0.0
147
0.0
147
0.0
147
1.0
  0
MATERIAL
  5
60B
102
{ACAD_XDICTIONARY
360
60C
102
}
102
{ACAD_REACTORS
330
60A
102
}
330
60A
100
AcDbMaterial
  1
ByLayer
 72
     0
 43
0.0008202099737533
 43
0.0
 43
0.0
 43
0.0
 43
0.0
 43
0.0008202099737533
 43
0.0
 43
0.0
 43
0.0
 43
0.0
 43
1.0
 43
0.0
 43
0.0
 43
0.0
 43
0.0
 43
1.0
 77
     0
 47
0.0008202099737533
 47
0.0
 47
0.0
 47
0.0
 47
0.0
 47
0.0008202099737533
 47
0.0
 47
0.0
 47
0.0
 47
0.0
 47
1.0
 47
0.0
 47
0.0
 47
0.0
 47
0.0
 47
1.0
171
     0
 49
0.0008202099737533
 49
0.0
 49
0.0
 49
0.0
 49
0.0
 49
0.0008202099737533
 49
0.0
 49
0.0
 49
0.0
 49
0.0
 49
1.0
 49
0.0
 49
0.0
 49
0.0
 49
0.0
 49
1.0
175
     0
142
0.0008202099737533
142
0.0
142
0.0
142
0.0
142
0.0
142
0.0008202099737533
142
0.0
142
0.0
142
0.0
142
0.0
142
1.0
142
0.0
142
0.0
142
0.0
142
0.0
142
1.0
179
     0
144
0.0008202099737533
144
0.0
144
0.0
144
0.0
144
0.0
144
0.0008202099737533
144
0.0
144
0.0
144
0.0
144
0.0
144
1.0
144
0.0
144
0.0
144
0.0
144
0.0
144
1.0
147
0.0008202099737533
147
0.0
147
0.0
147
0.0
147
0.0
147
0.0008202099737533
147
0.0
147
0.0
147
0.0
147
0.0
147
1.0
147
0.0
147
0.0
147
0.0
147
0.0
147
1.0
  0
MATERIAL
  5
61B
102
{ACAD_XDICTIONARY
360
61C
102
}
102
{ACAD_REACTORS
330
60A
102
}
330
60A
100
AcDbMaterial
  1
Global
 72
     0
 43
0.0008202099737533
 43
0.0
 43
0.0
 43
0.0
 43
0.0
 43
0.0008202099737533
 43
0.0
 43
0.0
 43
0.0
 43
0.0
 43
1.0
 43
0.0
 43
0.0
 43
0.0
 43
0.0
 43
1.0
 77
     0
 47
0.0008202099737533
 47
0.0
 47
0.0
 47
0.0
 47
0.0
 47
0.0008202099737533
 47
0.0
 47
0.0
 47
0.0
 47
0.0
 47
1.0
 47
0.0
 47
0.0
 47
0.0
 47
0.0
 47
1.0
171
     0
 49
0.0008202099737533
 49
0.0
 49
0.0
 49
0.0
 49
0.0
 49
0.0008202099737533
 49
0.0
 49
0.0
 49
0.0
 49
0.0
 49
1.0
 49
0.0
 49
0.0
 49
0.0
 49
0.0
 49
1.0
175
     0
142
0.0008202099737533
142
0.0
142
0.0
142
0.0
142
0.0
142
0.0008202099737533
142
0.0
142
0.0
142
0.0
142
0.0
142
1.0
142
0.0
142
0.0
142
0.0
142
0.0
142
1.0
179
     0
144
0.0008202099737533
144
0.0
144
0.0
144
0.0
144
0.0
144
0.0008202099737533
144
0.0
144
0.0
144
0.0
144
0.0
144
1.0
144
0.0
144
0.0
144
0.0
144
0.0
144
1.0
147
0.0008202099737533
147
0.0
147
0.0
147
0.0
147
0.0
147
0.0008202099737533
147
0.0
147
0.0
147
0.0
147
0.0
147
1.0
147
0.0
147
0.0
147
0.0
147
0.0
147
1.0
  0
MLEADERSTYLE
  5
64D
102
{ACAD_REACTORS
330
64C
102
}
330
64C
100
AcDbMLeaderStyle
170
     2
171
     1
172
     0
 90
        2
 40
0.0
 41
0.0
173
     1
 91
-1056964608
340
14
 92
       -2
290
     1
 42
2.0
291
     1
 43
0.36
  3
Standard
 44
4.0
300

342
11
174
     1
178
     6
175
     1
176
     0
 93
-1056964608
 45
4.0
292
     0
297
     0
 46
4.0
 94
-1056964608
 47
1.0
 49
1.0
140
1.0
293
     1
141
0.0
294
     1
177
     0
142
1.0
295
     0
296
     0
143
0.125
1001
ACAD_MLEADERVER
1070
     2
  0
MLINESTYLE
  5
18
102
{ACAD_REACTORS
330
17
102
}
330
17
100
AcDbMlineStyle
  2
STANDARD
 70
     0
  3

 62
   256
 51
90.0
 52
90.0
 71
     2
 49
0.5
 62
   256
  6
BYLAYER
 49
-0.5
 62
   256
  6
BYLAYER
  0
ACDBPLACEHOLDER
  5
F
102
{ACAD_REACTORS
330
E
102
}
330
E
  0
SCALE
  5
63B
102
{ACAD_REACTORS
330
63A
102
}
330
63A
100
AcDbScale
 70
     0
300
1:1
140
1.0
141
1.0
290
     1
  0
SCALE
  5
63C
102
{ACAD_REACTORS
330
63A
102
}
330
63A
100
AcDbScale
 70
     0
300
1:2
140
1.0
141
2.0
290
     0
  0
SCALE
  5
63D
102
{ACAD_REACTORS
330
63A
102
}
330
63A
100
AcDbScale
 70
     0
300
1:4
140
1.0
141
4.0
290
     0
  0
SCALE
  5
63E
102
{ACAD_REACTORS
330
63A
102
}
330
63A
100
AcDbScale
 70
     0
300
1:5
140
1.0
141
5.0
290
     0
  0
SCALE
  5
63F
102
{ACAD_REACTORS
330
63A
102
}
330
63A
100
AcDbScale
 70
     0
300
1:8
140
1.0
141
8.0
290
     0
  0
SCALE
  5
640
102
{ACAD_REACTORS
330
63A
102
}
330
63A
100
AcDbScale
 70
     0
300
1:10
140
1.0
141
10.0
290
     0
  0
SCALE
  5
641
102
{ACAD_REACTORS
330
63A
102
}
330
63A
100
AcDbScale
 70
     0
300
1:16
140
1.0
141
16.0
290
     0
  0
SCALE
  5
642
102
{ACAD_REACTORS
330
63A
102
}
330
63A
100
AcDbScale
 70
     0
300
1:20
140
1.0
141
20.0
290
     0
  0
SCALE
  5
643
102
{ACAD_REACTORS
330
63A
102
}
330
63A
100
AcDbScale
 70
     0
300
1:30
140
1.0
141
30.0
290
     0
  0
SCALE
  5
644
102
{ACAD_REACTORS
330
63A
102
}
330
63A
100
AcDbScale
 70
     0
300
1:40
140
1.0
141
40.0
290
     0
  0
SCALE
  5
645
102
{ACAD_REACTORS
330
63A
102
}
330
63A
100
AcDbScale
 70
     0
300
1:50
140
1.0
141
50.0
290
     0
  0
SCALE
  5
646
102
{ACAD_REACTORS
330
63A
102
}
330
63A
100
AcDbScale
 70
     0
300
1:100
140
1.0
141
100.0
290
     0
  0
SCALE
  5
647
102
{ACAD_REACTORS
330
63A
102
}
330
63A
100
AcDbScale
 70
     0
300
2:1
140
2.0
141
1.0
290
     0
  0
SCALE
  5
648
102
{ACAD_REACTORS
330
63A
102
}
330
63A
100
AcDbScale
 70
     0
300
4:1
140
4.0
141
1.0
290
     0
  0
SCALE
  5
649
102
{ACAD_REACTORS
330
63A
102
}
330
63A
100
AcDbScale
 70
     0
300
8:1
140
8.0
141
1.0
290
     0
  0
SCALE
  5
64A
102
{ACAD_REACTORS
330
63A
102
}
330
63A
100
AcDbScale
 70
     0
300
10:1
140
10.0
141
1.0
290
     0
  0
SCALE
  5
64B
102
{ACAD_REACTORS
330
63A
102
}
330
63A
100
AcDbScale
 70
     0
300
100:1
140
100.0
141
1.0
290
     0
  0
TABLESTYLE
  5
639
102
{ACAD_XDICTIONARY
360
15C9
102
}
102
{ACAD_REACTORS
330
638
102
}
330
638
100
AcDbTableStyle
  3
Standard
 70
     0
 71
     0
 40
1.5
 41
1.5
280
     0
281
     0
  7
STANDARD
140
4.5
170
     2
 62
     0
 63
     7
283
     0
274
    -2
284
     1
 64
     0
275
    -2
285
     1
 65
     0
276
    -2
286
     1
 66
     0
277
    -2
287
     1
 67
     0
278
    -2
288
     1
 68
     0
279
    -2
289
     1
 69
     0
  7
STANDARD
140
6.0
170
     5
 62
     0
 63
     7
283
     0
274
    -2
284
     1
 64
     0
275
    -2
285
     1
 65
     0
276
    -2
286
     1
 66
     0
277
    -2
287
     1
 67
     0
278
    -2
288
     1
 68
     0
279
    -2
289
     1
 69
     0
  7
STANDARD
140
4.5
170
     5
 62
     0
 63
     7
283
     0
274
    -2
284
     1
 64
     0
275
    -2
285
     1
 65
     0
276
    -2
286
     1
 66
     0
277
    -2
287
     1
 67
     0
278
    -2
288
     1
 68
     0
279
    -2
289
     1
 69
     0
  0
VISUALSTYLE
  5
629
102
{ACAD_XDICTIONARY
360
15DE
102
}
102
{ACAD_REACTORS
330
623
102
}
330
623
100
AcDbVisualStyle
  2
2dWireframe
 70
     4
 71
     0
 72
     2
 73
     0
 90
        0
 40
-0.6
 41
-30.0
 62
     5
 63
     7
 74
     1
 91
        4
 64
     7
 65
   257
 75
     1
175
     1
 42
1.0
 92
        0
 66
   257
 43
1.0
 76
     1
 77
     6
 78
     2
 67
     7
 79
     5
170
     0
171
     0
290
     0
174
     0
 93
        1
 44
0.0
173
     0
291
     0
 45
0.0
1001
ACAD
1000
AcDbSavedByObjectVersion
1070
     0
  0
VISUALSTYLE
  5
62B
102
{ACAD_XDICTIONARY
360
15E2
102
}
102
{ACAD_REACTORS
330
623
102
}
330
623
100
AcDbVisualStyle
  2
3D Hidden
 70
     6
 71
     1
 72
     2
 73
     2
 90
        0
 40
-0.6
 41
-30.0
 62
     5
 63
     7
 74
     2
 91
        2
 64
     7
 65
   257
 75
     2
175
     1
 42
179.0
 92
        0
 66
   257
 43
1.0
 76
     1
 77
     6
 78
     2
 67
     7
 79
     3
170
     0
171
     0
290
     0
174
     0
 93
        1
 44
0.0
173
     0
291
     0
 45
0.0
1001
ACAD
1000
AcDbSavedByObjectVersion
1070
     0
  0
VISUALSTYLE
  5
62A
102
{ACAD_XDICTIONARY
360
15E0
102
}
102
{ACAD_REACTORS
330
623
102
}
330
623
100
AcDbVisualStyle
  2
3dWireframe
 70
     5
 71
     0
 72
     2
 73
     0
 90
        0
 40
-0.6
 41
-30.0
 62
     5
 63
     7
 74
     1
 91
        4
 64
     7
 65
   257
 75
     1
175
     1
 42
1.0
 92
        0
 66
   257
 43
1.0
 76
     1
 77
     6
 78
     2
 67
     7
 79
     5
170
     0
171
     0
290
     0
174
     0
 93
        1
 44
0.0
173
     0
291
     0
 45
0.0
1001
ACAD
1000
AcDbSavedByObjectVersion
1070
     0
  0
VISUALSTYLE
  5
628
102
{ACAD_XDICTIONARY
360
15DC
102
}
102
{ACAD_REACTORS
330
623
102
}
330
623
100
AcDbVisualStyle
  2
Basic
 70
     7
 71
     1
 72
     0
 73
     1
 90
        0
 40
-0.6
 41
-30.0
 62
     5
 63
     7
 74
     0
 91
        4
 64
     7
 65
   257
 75
     1
175
     1
 42
1.0
 92
        8
 66
     7
 43
1.0
 76
     1
 77
     6
 78
     2
 67
     7
 79
     5
170
     0
171
     0
290
     0
174
     0
 93
        1
 44
0.0
173
     0
291
     1
 45
0.0
1001
ACAD
1000
AcDbSavedByObjectVersion
1070
     0
  0
VISUALSTYLE
  5
62F
102
{ACAD_XDICTIONARY
360
15EA
102
}
102
{ACAD_REACTORS
330
623
102
}
330
623
100
AcDbVisualStyle
  2
Brighten
 70
    12
 71
     2
 72
     2
 73
     0
 90
        0
 40
-0.6
 41
-30.0
 62
     5
 63
     7
 74
     1
 91
        4
 64
     7
 65
   257
 75
     1
175
     1
 42
1.0
 92
        8
 66
     7
 43
1.0
 76
     1
 77
     6
 78
     2
 67
     7
 79
     5
170
     0
171
     0
290
     0
174
     0
 93
        1
 44
50.0
173
     0
291
     1
 45
0.0
1001
ACAD
1000
AcDbSavedByObjectVersion
1070
     0
  0
VISUALSTYLE
  5
633
102
{ACAD_XDICTIONARY
360
15F2
102
}
102
{ACAD_REACTORS
330
623
102
}
330
623
100
AcDbVisualStyle
  2
ColorChange
 70
    16
 71
     2
 72
     2
 73
     3
 90
        0
 40
-0.6
 41
-30.0
 62
     5
 63
     8
 74
     1
 91
        4
 64
     7
 65
   257
 75
     1
175
     1
 42
1.0
 92
        8
 66
     8
 43
1.0
 76
     1
 77
     6
 78
     2
 67
     7
 79
     5
170
     0
171
     0
290
     0
174
     0
 93
        1
 44
0.0
173
     0
291
     1
 45
0.0
1001
ACAD
1000
AcDbSavedByObjectVersion
1070
     0
  0
VISUALSTYLE
  5
62C
102
{ACAD_XDICTIONARY
360
15E4
102
}
102
{ACAD_REACTORS
330
623
102
}
330
623
100
AcDbVisualStyle
  2
Conceptual
 70
     9
 71
     3
 72
     2
 73
     0
 90
        0
 40
-0.6
 41
-30.0
 62
     5
 63
     7
 74
     2
 91
        2
 64
     7
 65
   257
 75
     1
175
     1
 42
179.0
 92
        8
 66
     7
 43
1.0
 76
     1
 77
     6
 78
     2
 67
     7
 79
     3
170
     0
171
     0
290
     0
174
     0
 93
        1
 44
0.0
173
     0
291
     0
 45
0.0
1001
ACAD
1000
AcDbSavedByObjectVersion
1070
     0
  0
VISUALSTYLE
  5
62E
102
{ACAD_XDICTIONARY
360
15E8
102
}
102
{ACAD_REACTORS
330
623
102
}
330
623
100
AcDbVisualStyle
  2
Dim
 70
    11
 71
     2
 72
     2
 73
     0
 90
        0
 40
-0.6
 41
-30.0
 62
     5
 63
     7
 74
     1
 91
        4
 64
     7
 65
   257
 75
     1
175
     1
 42
1.0
 92
        8
 66
     7
 43
1.0
 76
     1
 77
     6
 78
     2
 67
     7
 79
     5
170
     0
171
     0
290
     0
174
     0
 93
        1
 44
-50.0
173
     0
291
     1
 45
0.0
1001
ACAD
1000
AcDbSavedByObjectVersion
1070
     0
  0
VISUALSTYLE
  5
636
102
{ACAD_XDICTIONARY
360
15F8
102
}
102
{ACAD_REACTORS
330
623
102
}
330
623
100
AcDbVisualStyle
  2
EdgeColorOff
 70
    22
 71
     2
 72
     2
 73
     0
 90
        0
 40
-0.6
 41
-30.0
 62
     5
 63
     7
 74
     1
 91
        4
 64
     7
 65
   257
 75
     1
175
     1
 42
1.0
 92
        8
 66
     7
 43
1.0
 76
     1
 77
     6
 78
     2
 67
     7
 79
     5
170
     0
171
     0
290
     0
174
     0
 93
        1
 44
0.0
173
     0
291
     1
 45
0.0
1001
ACAD
1000
AcDbSavedByObjectVersion
1070
     0
  0
VISUALSTYLE
  5
632
102
{ACAD_XDICTIONARY
360
15F0
102
}
102
{ACAD_REACTORS
330
623
102
}
330
623
100
AcDbVisualStyle
  2
Facepattern
 70
    15
 71
     2
 72
     2
 73
     0
 90
        0
 40
-0.6
 41
-30.0
 62
     5
 63
     7
 74
     1
 91
        4
 64
     7
 65
   257
 75
     1
175
     1
 42
1.0
 92
        8
 66
     7
 43
1.0
 76
     1
 77
     6
 78
     2
 67
     7
 79
     5
170
     0
171
     0
290
     0
174
     0
 93
        1
 44
0.0
173
     0
291
     1
 45
0.0
1001
ACAD
1000
AcDbSavedByObjectVersion
1070
     0
  0
VISUALSTYLE
  5
624
102
{ACAD_XDICTIONARY
360
15D4
102
}
102
{ACAD_REACTORS
330
623
102
}
330
623
100
AcDbVisualStyle
  2
Flat
 70
     0
 71
     2
 72
     1
 73
     1
 90
        2
 40
-0.6
 41
30.0
 62
     5
 63
     7
 74
     0
 91
        4
 64
     7
 65
   257
 75
     1
175
     1
 42
1.0
 92
        8
 66
     7
 43
1.0
 76
     1
 77
     6
 78
     2
 67
     7
 79
     5
170
     0
171
     0
290
     0
174
     0
 93
       13
 44
0.0
173
     0
291
     1
 45
0.0
1001
ACAD
1000
AcDbSavedByObjectVersion
1070
     0
  0
VISUALSTYLE
  5
625
102
{ACAD_XDICTIONARY
360
15D6
102
}
102
{ACAD_REACTORS
330
623
102
}
330
623
100
AcDbVisualStyle
  2
FlatWithEdges
 70
     1
 71
     2
 72
     1
 73
     1
 90
        2
 40
-0.6
 41
30.0
 62
     5
 63
     7
 74
     1
 91
        4
 64
     7
 65
   257
 75
     1
175
     1
 42
1.0
 92
        0
 66
   257
 43
1.0
 76
     1
 77
     6
 78
     2
 67
     7
 79
     5
170
     0
171
     0
290
     0
174
     0
 93
       13
 44
0.0
173
     0
291
     1
 45
0.0
1001
ACAD
1000
AcDbSavedByObjectVersion
1070
     0
  0
VISUALSTYLE
  5
626
102
{ACAD_XDICTIONARY
360
15D8
102
}
102
{ACAD_REACTORS
330
623
102
}
330
623
100
AcDbVisualStyle
  2
Gouraud
 70
     2
 71
     2
 72
     2
 73
     1
 90
        2
 40
-0.6
 41
30.0
 62
     5
 63
     7
 74
     0
 91
        4
 64
     7
 65
   257
 75
     1
175
     1
 42
1.0
 92
        0
 66
     7
 43
1.0
 76
     1
 77
     6
 78
     2
 67
     7
 79
     5
170
     0
171
     0
290
     0
174
     0
 93
       13
 44
0.0
173
     0
291
     1
 45
0.0
1001
ACAD
1000
AcDbSavedByObjectVersion
1070
     0
  0
VISUALSTYLE
  5
627
102
{ACAD_XDICTIONARY
360
15DA
102
}
102
{ACAD_REACTORS
330
623
102
}
330
623
100
AcDbVisualStyle
  2
GouraudWithEdges
 70
     3
 71
     2
 72
     2
 73
     1
 90
        2
 40
-0.6
 41
30.0
 62
     5
 63
     7
 74
     1
 91
        4
 64
     7
 65
   257
 75
     1
175
     1
 42
1.0
 92
        0
 66
   257
 43
1.0
 76
     1
 77
     6
 78
     2
 67
     7
 79
     5
170
     0
171
     0
290
     0
174
     0
 93
       13
 44
0.0
173
     0
291
     1
 45
0.0
1001
ACAD
1000
AcDbSavedByObjectVersion
1070
     0
  0
VISUALSTYLE
  5
634
102
{ACAD_XDICTIONARY
360
15F4
102
}
102
{ACAD_REACTORS
330
623
102
}
330
623
100
AcDbVisualStyle
  2
JitterOff
 70
    20
 71
     2
 72
     2
 73
     0
 90
        0
 40
-0.6
 41
-30.0
 62
     5
 63
     7
 74
     1
 91
        4
 64
     7
 65
   257
 75
     1
175
     1
 42
1.0
 92
       10
 66
     7
 43
1.0
 76
     1
 77
     6
 78
     2
 67
     7
 79
     5
170
     0
171
     0
290
     0
174
     0
 93
        1
 44
0.0
173
     0
291
     1
 45
0.0
1001
ACAD
1000
AcDbSavedByObjectVersion
1070
     0
  0
VISUALSTYLE
  5
631
102
{ACAD_XDICTIONARY
360
15EE
102
}
102
{ACAD_REACTORS
330
623
102
}
330
623
100
AcDbVisualStyle
  2
Linepattern
 70
    14
 71
     2
 72
     2
 73
     0
 90
        0
 40
-0.6
 41
-30.0
 62
     5
 63
     7
 74
     1
 91
        4
 64
     7
 65
   257
 75
     7
175
     7
 42
1.0
 92
        8
 66
     7
 43
1.0
 76
     1
 77
     6
 78
     2
 67
     7
 79
     5
170
     0
171
     0
290
     0
174
     0
 93
        1
 44
0.0
173
     0
291
     1
 45
0.0
1001
ACAD
1000
AcDbSavedByObjectVersion
1070
     0
  0
VISUALSTYLE
  5
635
102
{ACAD_XDICTIONARY
360
15F6
102
}
102
{ACAD_REACTORS
330
623
102
}
330
623
100
AcDbVisualStyle
  2
OverhangOff
 70
    21
 71
     2
 72
     2
 73
     0
 90
        0
 40
-0.6
 41
-30.0
 62
     5
 63
     7
 74
     1
 91
        4
 64
     7
 65
   257
 75
     1
175
     1
 42
1.0
 92
        9
 66
     7
 43
1.0
 76
     1
 77
     6
 78
     2
 67
     7
 79
     5
170
     0
171
     0
290
     0
174
     0
 93
        1
 44
0.0
173
     0
291
     1
 45
0.0
1001
ACAD
1000
AcDbSavedByObjectVersion
1070
     0
  0
VISUALSTYLE
  5
62D
102
{ACAD_XDICTIONARY
360
15E6
102
}
102
{ACAD_REACTORS
330
623
102
}
330
623
100
AcDbVisualStyle
  2
Realistic
 70
     8
 71
     2
 72
     2
 73
     0
 90
        0
 40
-0.6
 41
-30.0
 62
     5
 63
     7
 74
     1
 91
        0
 64
     7
 65
   257
 75
     1
175
     1
 42
1.0
 92
        8
 66
     8
 43
1.0
 76
     1
 77
     6
 78
     2
 67
     7
 79
     5
170
     0
171
     0
290
     0
174
     0
 93
       13
 44
0.0
173
     0
291
     0
 45
0.0
1001
ACAD
1000
AcDbSavedByObjectVersion
1070
     0
  0
VISUALSTYLE
  5
630
102
{ACAD_XDICTIONARY
360
15EC
102
}
102
{ACAD_REACTORS
330
623
102
}
330
623
100
AcDbVisualStyle
  2
Thicken
 70
    13
 71
     2
 72
     2
 73
     0
 90
        0
 40
-0.6
 41
-30.0
 62
     5
 63
     7
 74
     1
 91
        4
 64
     7
 65
   257
 75
     1
175
     1
 42
1.0
 92
       12
 66
     7
 43
1.0
 76
     1
 77
     6
 78
     2
 67
     7
 79
     5
170
     0
171
     0
290
     0
174
     0
 93
        1
 44
0.0
173
     0
291
     1
 45
0.0
1001
ACAD
1000
AcDbSavedByObjectVersion
1070
     0
  0
DICTIONARYVAR
  5
15C4
102
{ACAD_REACTORS
330
15C1
102
}
330
15C1
100
DictionaryVariables
280
     0
  1
1:1
  0
DICTIONARYVAR
  5
15C3
102
{ACAD_REACTORS
330
15C1
102
}
330
15C1
100
DictionaryVariables
280
     0
  1
STANDARD
  0
DICTIONARYVAR
  5
15C2
102
{ACAD_REACTORS
330
15C1
102
}
330
15C1
100
DictionaryVariables
280
     0
  1
STANDARD
  0
DICTIONARYVAR
  5
15C7
102
{ACAD_REACTORS
330
15C1
102
}
330
15C1
100
DictionaryVariables
280
     0
  1
1
  0
DICTIONARYVAR
  5
15C6
102
{ACAD_REACTORS
330
15C1
102
}
330
15C1
100
DictionaryVariables
280
     0
  1
0
  0
DICTIONARYVAR
  5
15C5
102
{ACAD_REACTORS
330
15C1
102
}
330
15C1
100
DictionaryVariables
280
     0
  1
127
  0
DICTIONARYVAR
  5
15C8
102
{ACAD_REACTORS
330
15C1
102
}
330
15C1
100
DictionaryVariables
280
     0
  1
2
  0
DICTIONARY
  5
6B0
102
{ACAD_REACTORS
330
6A6
102
}
330
6A6
100
AcDbDictionary
281
     1
  0
DICTIONARY
  5
15CF
330
605
100
AcDbDictionary
280
     1
281
     1
  3
ACAD_XREC_ROUNDTRIP
360
15D0
  0
DICTIONARY
  5
15CD
330
604
100
AcDbDictionary
280
     1
281
     1
  3
ACAD_XREC_ROUNDTRIP
360
15CE
  0
DICTIONARY
  5
614
330
613
100
AcDbDictionary
280
     1
281
     1
  3
ACAD_XREC_ROUNDTRIP
360
15D2
  3
BUMPTILE
360
616
  3
DIFFUSETILE
360
615
  3
OPACITYTILE
360
619
  3
REFLECTIONTILE
360
618
  3
REFRACTIONTILE
360
61A
  3
SPECULARTILE
360
617
  0
DICTIONARY
  5
60C
330
60B
100
AcDbDictionary
280
     1
281
     1
  3
ACAD_XREC_ROUNDTRIP
360
15D1
  3
BUMPTILE
360
60E
  3
DIFFUSETILE
360
60D
  3
OPACITYTILE
360
611
  3
REFLECTIONTILE
360
610
  3
REFRACTIONTILE
360
612
  3
SPECULARTILE
360
60F
  0
DICTIONARY
  5
61C
330
61B
100
AcDbDictionary
280
     1
281
     1
  3
ACAD_XREC_ROUNDTRIP
360
15D3
  3
BUMPTILE
360
61E
  3
DIFFUSETILE
360
61D
  3
OPACITYTILE
360
621
  3
REFLECTIONTILE
360
620
  3
REFRACTIONTILE
360
622
  3
SPECULARTILE
360
61F
  0
DICTIONARY
  5
15C9
330
639
100
AcDbDictionary
280
     1
281
     1
  3
ACAD_ROUNDTRIP_2008_TABLESTYLE_CELLSTYLEMAP
360
15CA
  3
ACAD_XREC_ROUNDTRIP
360
15FA
  0
DICTIONARY
  5
15DE
330
629
100
AcDbDictionary
280
     1
281
     1
  3
ACAD_XREC_ROUNDTRIP
360
15DF
  0
DICTIONARY
  5
15E2
330
62B
100
AcDbDictionary
280
     1
281
     1
  3
ACAD_XREC_ROUNDTRIP
360
15E3
  0
DICTIONARY
  5
15E0
330
62A
100
AcDbDictionary
280
     1
281
     1
  3
ACAD_XREC_ROUNDTRIP
360
15E1
  0
DICTIONARY
  5
15DC
330
628
100
AcDbDictionary
280
     1
281
     1
  3
ACAD_XREC_ROUNDTRIP
360
15DD
  0
DICTIONARY
  5
15EA
330
62F
100
AcDbDictionary
280
     1
281
     1
  3
ACAD_XREC_ROUNDTRIP
360
15EB
  0
DICTIONARY
  5
15F2
330
633
100
AcDbDictionary
280
     1
281
     1
  3
ACAD_XREC_ROUNDTRIP
360
15F3
  0
DICTIONARY
  5
15E4
330
62C
100
AcDbDictionary
280
     1
281
     1
  3
ACAD_XREC_ROUNDTRIP
360
15E5
  0
DICTIONARY
  5
15E8
330
62E
100
AcDbDictionary
280
     1
281
     1
  3
ACAD_XREC_ROUNDTRIP
360
15E9
  0
DICTIONARY
  5
15F8
330
636
100
AcDbDictionary
280
     1
281
     1
  3
ACAD_XREC_ROUNDTRIP
360
15F9
  0
DICTIONARY
  5
15F0
330
632
100
AcDbDictionary
280
     1
281
     1
  3
ACAD_XREC_ROUNDTRIP
360
15F1
  0
DICTIONARY
  5
15D4
330
624
100
AcDbDictionary
280
     1
281
     1
  3
ACAD_XREC_ROUNDTRIP
360
15D5
  0
DICTIONARY
  5
15D6
330
625
100
AcDbDictionary
280
     1
281
     1
  3
ACAD_XREC_ROUNDTRIP
360
15D7
  0
DICTIONARY
  5
15D8
330
626
100
AcDbDictionary
280
     1
281
     1
  3
ACAD_XREC_ROUNDTRIP
360
15D9
  0
DICTIONARY
  5
15DA
330
627
100
AcDbDictionary
280
     1
281
     1
  3
ACAD_XREC_ROUNDTRIP
360
15DB
  0
DICTIONARY
  5
15F4
330
634
100
AcDbDictionary
280
     1
281
     1
  3
ACAD_XREC_ROUNDTRIP
360
15F5
  0
DICTIONARY
  5
15EE
330
631
100
AcDbDictionary
280
     1
281
     1
  3
ACAD_XREC_ROUNDTRIP
360
15EF
  0
DICTIONARY
  5
15F6
330
635
100
AcDbDictionary
280
     1
281
     1
  3
ACAD_XREC_ROUNDTRIP
360
15F7
  0
DICTIONARY
  5
15E6
330
62D
100
AcDbDictionary
280
     1
281
     1
  3
ACAD_XREC_ROUNDTRIP
360
15E7
  0
DICTIONARY
  5
15EC
330
630
100
AcDbDictionary
280
     1
281
     1
  3
ACAD_XREC_ROUNDTRIP
360
15ED
  0
XRECORD
  5
15D0
102
{ACAD_REACTORS
330
15CF
102
}
330
15CF
100
AcDbXrecord
280
     1
102
SHADEPLOT
 70
     0
102
SHADEPLOTRESLEVEL
 70
     2
102
SHADEPLOTCUSTOMDPI
 70
   300
  0
XRECORD
  5
15CE
102
{ACAD_REACTORS
330
15CD
102
}
330
15CD
100
AcDbXrecord
280
     1
102
SHADEPLOT
 70
     0
102
SHADEPLOTRESLEVEL
 70
     2
102
SHADEPLOTCUSTOMDPI
 70
   300
  0
XRECORD
  5
15D2
102
{ACAD_REACTORS
330
614
102
}
330
614
100
AcDbXrecord
280
     1
102
MATERIAL
148
0.0
149
0.0
149
0.0
 93
        0
 94
      127
282
     0
 72
     0
 77
     0
171
     0
175
     0
179
     0
273
     0
  0
XRECORD
  5
616
102
{ACAD_REACTORS
330
614
102
}
330
614
100
AcDbXrecord
280
     1
270
     1
271
     1
  0
XRECORD
  5
615
102
{ACAD_REACTORS
330
614
102
}
330
614
100
AcDbXrecord
280
     1
270
     1
271
     1
  0
XRECORD
  5
619
102
{ACAD_REACTORS
330
614
102
}
330
614
100
AcDbXrecord
280
     1
270
     1
271
     1
  0
XRECORD
  5
618
102
{ACAD_REACTORS
330
614
102
}
330
614
100
AcDbXrecord
280
     1
270
     1
271
     1
  0
XRECORD
  5
61A
102
{ACAD_REACTORS
330
614
102
}
330
614
100
AcDbXrecord
280
     1
270
     1
271
     1
  0
XRECORD
  5
617
102
{ACAD_REACTORS
330
614
102
}
330
614
100
AcDbXrecord
280
     1
270
     1
271
     1
  0
XRECORD
  5
15D1
102
{ACAD_REACTORS
330
60C
102
}
330
60C
100
AcDbXrecord
280
     1
102
MATERIAL
148
0.0
149
0.0
149
0.0
 93
        0
 94
      127
282
     0
 72
     0
 77
     0
171
     0
175
     0
179
     0
273
     0
  0
XRECORD
  5
60E
102
{ACAD_REACTORS
330
60C
102
}
330
60C
100
AcDbXrecord
280
     1
270
     1
271
     1
  0
XRECORD
  5
60D
102
{ACAD_REACTORS
330
60C
102
}
330
60C
100
AcDbXrecord
280
     1
270
     1
271
     1
  0
XRECORD
  5
611
102
{ACAD_REACTORS
330
60C
102
}
330
60C
100
AcDbXrecord
280
     1
270
     1
271
     1
  0
XRECORD
  5
610
102
{ACAD_REACTORS
330
60C
102
}
330
60C
100
AcDbXrecord
280
     1
270
     1
271
     1
  0
XRECORD
  5
612
102
{ACAD_REACTORS
330
60C
102
}
330
60C
100
AcDbXrecord
280
     1
270
     1
271
     1
  0
XRECORD
  5
60F
102
{ACAD_REACTORS
330
60C
102
}
330
60C
100
AcDbXrecord
280
     1
270
     1
271
     1
  0
XRECORD
  5
15D3
102
{ACAD_REACTORS
330
61C
102
}
330
61C
100
AcDbXrecord
280
     1
102
MATERIAL
148
0.0
149
0.0
149
0.0
 93
        0
 94
      127
282
     0
 72
     0
 77
     0
171
     0
175
     0
179
     0
273
     0
  0
XRECORD
  5
61E
102
{ACAD_REACTORS
330
61C
102
}
330
61C
100
AcDbXrecord
280
     1
270
     1
271
     1
  0
XRECORD
  5
61D
102
{ACAD_REACTORS
330
61C
102
}
330
61C
100
AcDbXrecord
280
     1
270
     1
271
     1
  0
XRECORD
  5
621
102
{ACAD_REACTORS
330
61C
102
}
330
61C
100
AcDbXrecord
280
     1
270
     1
271
     1
  0
XRECORD
  5
620
102
{ACAD_REACTORS
330
61C
102
}
330
61C
100
AcDbXrecord
280
     1
270
     1
271
     1
  0
XRECORD
  5
622
102
{ACAD_REACTORS
330
61C
102
}
330
61C
100
AcDbXrecord
280
     1
270
     1
271
     1
  0
XRECORD
  5
61F
102
{ACAD_REACTORS
330
61C
102
}
330
61C
100
AcDbXrecord
280
     1
270
     1
271
     1
  0
CELLSTYLEMAP
  5
15CA
102
{ACAD_REACTORS
330
15C9
102
}
330
15C9
100
AcDbCellStyleMap
 90
        3
300
CELLSTYLE
  1
TABLEFORMAT_BEGIN
 90
        5
170
     1
 91
        0
 92
    32768
 62
   257
 93
        1
300
CONTENTFORMAT
  1
CONTENTFORMAT_BEGIN
 90
        0
 91
        0
 92
      512
 93
        0
300

 40
0.0
140
1.0
 94
        5
 62
     0
340
11
144
6.0
309
CONTENTFORMAT_END
171
     1
301
MARGIN
  1
CELLMARGIN_BEGIN
 40
1.5
 40
1.5
 40
1.5
 40
1.5
 40
4.5
 40
4.5
309
CELLMARGIN_END
 94
        6
 95
        1
302
GRIDFORMAT
  1
GRIDFORMAT_BEGIN
 90
        0
 91
        1
 62
     0
 92
       -2
340
0
 93
        0
 40
1.125
309
GRIDFORMAT_END
 95
        2
302
GRIDFORMAT
  1
GRIDFORMAT_BEGIN
 90
        0
 91
        1
 62
     0
 92
       -2
340
0
 93
        0
 40
1.125
309
GRIDFORMAT_END
 95
        4
302
GRIDFORMAT
  1
GRIDFORMAT_BEGIN
 90
        0
 91
        1
 62
     0
 92
       -2
340
0
 93
        0
 40
1.125
309
GRIDFORMAT_END
 95
        8
302
GRIDFORMAT
  1
GRIDFORMAT_BEGIN
 90
        0
 91
        1
 62
     0
 92
       -2
340
0
 93
        0
 40
1.125
309
GRIDFORMAT_END
 95
       16
302
GRIDFORMAT
  1
GRIDFORMAT_BEGIN
 90
        0
 91
        1
 62
     0
 92
       -2
340
0
 93
        0
 40
1.125
309
GRIDFORMAT_END
 95
       32
302
GRIDFORMAT
  1
GRIDFORMAT_BEGIN
 90
        0
 91
        1
 62
     0
 92
       -2
340
0
 93
        0
 40
1.125
309
GRIDFORMAT_END
309
TABLEFORMAT_END
  1
CELLSTYLE_BEGIN
 90
        1
 91
        1
300
_TITLE
309
CELLSTYLE_END
300
CELLSTYLE
  1
TABLEFORMAT_BEGIN
 90
        5
170
     1
 91
        0
 92
        0
 62
   257
 93
        1
300
CONTENTFORMAT
  1
CONTENTFORMAT_BEGIN
 90
        0
 91
        0
 92
      512
 93
        0
300

 40
0.0
140
1.0
 94
        5
 62
     0
340
11
144
4.5
309
CONTENTFORMAT_END
171
     1
301
MARGIN
  1
CELLMARGIN_BEGIN
 40
1.5
 40
1.5
 40
1.5
 40
1.5
 40
4.5
 40
4.5
309
CELLMARGIN_END
 94
        6
 95
        1
302
GRIDFORMAT
  1
GRIDFORMAT_BEGIN
 90
        0
 91
        1
 62
     0
 92
       -2
340
0
 93
        0
 40
1.125
309
GRIDFORMAT_END
 95
        2
302
GRIDFORMAT
  1
GRIDFORMAT_BEGIN
 90
        0
 91
        1
 62
     0
 92
       -2
340
0
 93
        0
 40
1.125
309
GRIDFORMAT_END
 95
        4
302
GRIDFORMAT
  1
GRIDFORMAT_BEGIN
 90
        0
 91
        1
 62
     0
 92
       -2
340
0
 93
        0
 40
1.125
309
GRIDFORMAT_END
 95
        8
302
GRIDFORMAT
  1
GRIDFORMAT_BEGIN
 90
        0
 91
        1
 62
     0
 92
       -2
340
0
 93
        0
 40
1.125
309
GRIDFORMAT_END
 95
       16
302
GRIDFORMAT
  1
GRIDFORMAT_BEGIN
 90
        0
 91
        1
 62
     0
 92
       -2
340
0
 93
        0
 40
1.125
309
GRIDFORMAT_END
 95
       32
302
GRIDFORMAT
  1
GRIDFORMAT_BEGIN
 90
        0
 91
        1
 62
     0
 92
       -2
340
0
 93
        0
 40
1.125
309
GRIDFORMAT_END
309
TABLEFORMAT_END
  1
CELLSTYLE_BEGIN
 90
        2
 91
        1
300
_HEADER
309
CELLSTYLE_END
300
CELLSTYLE
  1
TABLEFORMAT_BEGIN
 90
        5
170
     1
 91
        0
 92
        0
 62
   257
 93
        1
300
CONTENTFORMAT
  1
CONTENTFORMAT_BEGIN
 90
        0
 91
        0
 92
      512
 93
        0
300

 40
0.0
140
1.0
 94
        2
 62
     0
340
11
144
4.5
309
CONTENTFORMAT_END
171
     1
301
MARGIN
  1
CELLMARGIN_BEGIN
 40
1.5
 40
1.5
 40
1.5
 40
1.5
 40
4.5
 40
4.5
309
CELLMARGIN_END
 94
        6
 95
        1
302
GRIDFORMAT
  1
GRIDFORMAT_BEGIN
 90
        0
 91
        1
 62
     0
 92
       -2
340
0
 93
        0
 40
1.125
309
GRIDFORMAT_END
 95
        2
302
GRIDFORMAT
  1
GRIDFORMAT_BEGIN
 90
        0
 91
        1
 62
     0
 92
       -2
340
0
 93
        0
 40
1.125
309
GRIDFORMAT_END
 95
        4
302
GRIDFORMAT
  1
GRIDFORMAT_BEGIN
 90
        0
 91
        1
 62
     0
 92
       -2
340
0
 93
        0
 40
1.125
309
GRIDFORMAT_END
 95
        8
302
GRIDFORMAT
  1
GRIDFORMAT_BEGIN
 90
        0
 91
        1
 62
     0
 92
       -2
340
0
 93
        0
 40
1.125
309
GRIDFORMAT_END
 95
       16
302
GRIDFORMAT
  1
GRIDFORMAT_BEGIN
 90
        0
 91
        1
 62
     0
 92
       -2
340
0
 93
        0
 40
1.125
309
GRIDFORMAT_END
 95
       32
302
GRIDFORMAT
  1
GRIDFORMAT_BEGIN
 90
        0
 91
        1
 62
     0
 92
       -2
340
0
 93
        0
 40
1.125
309
GRIDFORMAT_END
309
TABLEFORMAT_END
  1
CELLSTYLE_BEGIN
 90
        3
 91
        2
300
_DATA
309
CELLSTYLE_END
  0
XRECORD
  5
15FA
102
{ACAD_REACTORS
330
15C9
102
}
330
15C9
100
AcDbXrecord
280
     1
102
ACAD_ROUNDTRIP_PRE2007_TABLESTYLE
 90
      512
 91
        0
  1

 92
      512
 93
        0
  2

 94
      512
 95
        0
  3

  0
XRECORD
  5
15DF
102
{ACAD_REACTORS
330
15DE
102
}
330
15DE
100
AcDbXrecord
280
     1
102
RTVSPropertyOp0
 70
     1
102
RTVSPropertyOp1
 70
     1
102
RTVSPropertyOp2
 70
     1
102
RTVSPropertyOp3
 70
     1
102
RTVSPropertyOp4
 70
     1
102
RTVSPropertyOp5
 70
     1
102
RTVSPropertyOp6
 70
     1
102
RTVSPropertyOp7
 70
     1
102
RTVSPropertyOp8
 70
     1
102
RTVSPropertyOp9
 70
     1
102
RTVSPropertyOp10
 70
     1
102
RTVSPropertyOp11
 70
     1
102
RTVSPropertyOp12
 70
     1
102
RTVSPropertyOp13
 70
     1
102
RTVSPropertyOp14
 70
     1
102
RTVSPropertyOp15
 70
     1
102
RTVSPropertyOp16
 70
     1
102
RTVSPropertyOp17
 70
     1
102
RTVSPropertyOp18
 70
     1
102
RTVSPropertyOp19
 70
     1
102
RTVSPropertyOp20
 70
     1
102
RTVSPropertyOp21
 70
     1
102
RTVSPropertyOp22
 70
     1
102
RTVSPropertyOp23
 70
     1
102
RTVSPropertyOp24
 70
     1
102
RTVSPropertyOp25
 70
     1
102
RTVSPropertyOp26
 70
     1
102
RTVSPropertyOp27
 70
     1
  0
XRECORD
  5
15E3
102
{ACAD_REACTORS
330
15E2
102
}
330
15E2
100
AcDbXrecord
280
     1
102
RTVSPropertyOp0
 70
     1
102
RTVSPropertyOp1
 70
     1
102
RTVSPropertyOp2
 70
     1
102
RTVSPropertyOp3
 70
     1
102
RTVSPropertyOp4
 70
     1
102
RTVSPropertyOp5
 70
     1
102
RTVSPropertyOp6
 70
     1
102
RTVSPropertyOp7
 70
     1
102
RTVSPropertyOp8
 70
     1
102
RTVSPropertyOp9
 70
     1
102
RTVSPropertyOp10
 70
     1
102
RTVSPropertyOp11
 70
     1
102
RTVSPropertyOp12
 70
     1
102
RTVSPropertyOp13
 70
     1
102
RTVSPropertyOp14
 70
     1
102
RTVSPropertyOp15
 70
     1
102
RTVSPropertyOp16
 70
     1
102
RTVSPropertyOp17
 70
     1
102
RTVSPropertyOp18
 70
     1
102
RTVSPropertyOp19
 70
     1
102
RTVSPropertyOp20
 70
     1
102
RTVSPropertyOp21
 70
     1
102
RTVSPropertyOp22
 70
     1
102
RTVSPropertyOp23
 70
     1
102
RTVSPropertyOp24
 70
     1
102
RTVSPropertyOp25
 70
     1
102
RTVSPropertyOp26
 70
     1
102
RTVSPropertyOp27
 70
     1
  0
XRECORD
  5
15E1
102
{ACAD_REACTORS
330
15E0
102
}
330
15E0
100
AcDbXrecord
280
     1
102
RTVSPropertyOp0
 70
     1
102
RTVSPropertyOp1
 70
     1
102
RTVSPropertyOp2
 70
     1
102
RTVSPropertyOp3
 70
     1
102
RTVSPropertyOp4
 70
     1
102
RTVSPropertyOp5
 70
     1
102
RTVSPropertyOp6
 70
     1
102
RTVSPropertyOp7
 70
     1
102
RTVSPropertyOp8
 70
     1
102
RTVSPropertyOp9
 70
     1
102
RTVSPropertyOp10
 70
     1
102
RTVSPropertyOp11
 70
     1
102
RTVSPropertyOp12
 70
     1
102
RTVSPropertyOp13
 70
     1
102
RTVSPropertyOp14
 70
     1
102
RTVSPropertyOp15
 70
     1
102
RTVSPropertyOp16
 70
     1
102
RTVSPropertyOp17
 70
     1
102
RTVSPropertyOp18
 70
     1
102
RTVSPropertyOp19
 70
     1
102
RTVSPropertyOp20
 70
     1
102
RTVSPropertyOp21
 70
     1
102
RTVSPropertyOp22
 70
     1
102
RTVSPropertyOp23
 70
     1
102
RTVSPropertyOp24
 70
     1
102
RTVSPropertyOp25
 70
     1
102
RTVSPropertyOp26
 70
     1
102
RTVSPropertyOp27
 70
     1
  0
XRECORD
  5
15DD
102
{ACAD_REACTORS
330
15DC
102
}
330
15DC
100
AcDbXrecord
280
     1
102
RTVSPropertyOp0
 70
     1
102
RTVSPropertyOp1
 70
     1
102
RTVSPropertyOp2
 70
     1
102
RTVSPropertyOp3
 70
     1
102
RTVSPropertyOp4
 70
     1
102
RTVSPropertyOp5
 70
     1
102
RTVSPropertyOp6
 70
     1
102
RTVSPropertyOp7
 70
     1
102
RTVSPropertyOp8
 70
     1
102
RTVSPropertyOp9
 70
     1
102
RTVSPropertyOp10
 70
     1
102
RTVSPropertyOp11
 70
     1
102
RTVSPropertyOp12
 70
     1
102
RTVSPropertyOp13
 70
     1
102
RTVSPropertyOp14
 70
     1
102
RTVSPropertyOp15
 70
     1
102
RTVSPropertyOp16
 70
     1
102
RTVSPropertyOp17
 70
     1
102
RTVSPropertyOp18
 70
     1
102
RTVSPropertyOp19
 70
     1
102
RTVSPropertyOp20
 70
     1
102
RTVSPropertyOp21
 70
     1
102
RTVSPropertyOp22
 70
     1
102
RTVSPropertyOp23
 70
     1
102
RTVSPropertyOp24
 70
     1
102
RTVSPropertyOp25
 70
     1
102
RTVSPropertyOp26
 70
     1
102
RTVSPropertyOp27
 70
     1
  0
XRECORD
  5
15EB
102
{ACAD_REACTORS
330
15EA
102
}
330
15EA
100
AcDbXrecord
280
     1
102
RTVSPropertyOp0
 70
     1
102
RTVSPropertyOp1
 70
     1
102
RTVSPropertyOp2
 70
     1
102
RTVSPropertyOp3
 70
     1
102
RTVSPropertyOp4
 70
     1
102
RTVSPropertyOp5
 70
     1
102
RTVSPropertyOp6
 70
     1
102
RTVSPropertyOp7
 70
     1
102
RTVSPropertyOp8
 70
     1
102
RTVSPropertyOp9
 70
     1
102
RTVSPropertyOp10
 70
     1
102
RTVSPropertyOp11
 70
     1
102
RTVSPropertyOp12
 70
     1
102
RTVSPropertyOp13
 70
     1
102
RTVSPropertyOp14
 70
     1
102
RTVSPropertyOp15
 70
     1
102
RTVSPropertyOp16
 70
     1
102
RTVSPropertyOp17
 70
     1
102
RTVSPropertyOp18
 70
     1
102
RTVSPropertyOp19
 70
     1
102
RTVSPropertyOp20
 70
     1
102
RTVSPropertyOp21
 70
     1
102
RTVSPropertyOp22
 70
     1
102
RTVSPropertyOp23
 70
     1
102
RTVSPropertyOp24
 70
     1
102
RTVSPropertyOp25
 70
     1
102
RTVSPropertyOp26
 70
     1
102
RTVSPropertyOp27
 70
     1
  0
XRECORD
  5
15F3
102
{ACAD_REACTORS
330
15F2
102
}
330
15F2
100
AcDbXrecord
280
     1
102
RTVSPropertyOp0
 70
     1
102
RTVSPropertyOp1
 70
     1
102
RTVSPropertyOp2
 70
     1
102
RTVSPropertyOp3
 70
     1
102
RTVSPropertyOp4
 70
     1
102
RTVSPropertyOp5
 70
     1
102
RTVSPropertyOp6
 70
     1
102
RTVSPropertyOp7
 70
     1
102
RTVSPropertyOp8
 70
     1
102
RTVSPropertyOp9
 70
     1
102
RTVSPropertyOp10
 70
     1
102
RTVSPropertyOp11
 70
     1
102
RTVSPropertyOp12
 70
     1
102
RTVSPropertyOp13
 70
     1
102
RTVSPropertyOp14
 70
     1
102
RTVSPropertyOp15
 70
     1
102
RTVSPropertyOp16
 70
     1
102
RTVSPropertyOp17
 70
     1
102
RTVSPropertyOp18
 70
     1
102
RTVSPropertyOp19
 70
     1
102
RTVSPropertyOp20
 70
     1
102
RTVSPropertyOp21
 70
     1
102
RTVSPropertyOp22
 70
     1
102
RTVSPropertyOp23
 70
     1
102
RTVSPropertyOp24
 70
     1
102
RTVSPropertyOp25
 70
     1
102
RTVSPropertyOp26
 70
     1
102
RTVSPropertyOp27
 70
     1
  0
XRECORD
  5
15E5
102
{ACAD_REACTORS
330
15E4
102
}
330
15E4
100
AcDbXrecord
280
     1
102
RTVSPropertyOp0
 70
     1
102
RTVSPropertyOp1
 70
     1
102
RTVSPropertyOp2
 70
     1
102
RTVSPropertyOp3
 70
     1
102
RTVSPropertyOp4
 70
     1
102
RTVSPropertyOp5
 70
     1
102
RTVSPropertyOp6
 70
     1
102
RTVSPropertyOp7
 70
     1
102
RTVSPropertyOp8
 70
     1
102
RTVSPropertyOp9
 70
     1
102
RTVSPropertyOp10
 70
     1
102
RTVSPropertyOp11
 70
     1
102
RTVSPropertyOp12
 70
     1
102
RTVSPropertyOp13
 70
     1
102
RTVSPropertyOp14
 70
     1
102
RTVSPropertyOp15
 70
     1
102
RTVSPropertyOp16
 70
     1
102
RTVSPropertyOp17
 70
     1
102
RTVSPropertyOp18
 70
     1
102
RTVSPropertyOp19
 70
     1
102
RTVSPropertyOp20
 70
     1
102
RTVSPropertyOp21
 70
     1
102
RTVSPropertyOp22
 70
     1
102
RTVSPropertyOp23
 70
     1
102
RTVSPropertyOp24
 70
     1
102
RTVSPropertyOp25
 70
     1
102
RTVSPropertyOp26
 70
     1
102
RTVSPropertyOp27
 70
     1
  0
XRECORD
  5
15E9
102
{ACAD_REACTORS
330
15E8
102
}
330
15E8
100
AcDbXrecord
280
     1
102
RTVSPropertyOp0
 70
     1
102
RTVSPropertyOp1
 70
     1
102
RTVSPropertyOp2
 70
     1
102
RTVSPropertyOp3
 70
     1
102
RTVSPropertyOp4
 70
     1
102
RTVSPropertyOp5
 70
     1
102
RTVSPropertyOp6
 70
     1
102
RTVSPropertyOp7
 70
     1
102
RTVSPropertyOp8
 70
     1
102
RTVSPropertyOp9
 70
     1
102
RTVSPropertyOp10
 70
     1
102
RTVSPropertyOp11
 70
     1
102
RTVSPropertyOp12
 70
     1
102
RTVSPropertyOp13
 70
     1
102
RTVSPropertyOp14
 70
     1
102
RTVSPropertyOp15
 70
     1
102
RTVSPropertyOp16
 70
     1
102
RTVSPropertyOp17
 70
     1
102
RTVSPropertyOp18
 70
     1
102
RTVSPropertyOp19
 70
     1
102
RTVSPropertyOp20
 70
     1
102
RTVSPropertyOp21
 70
     1
102
RTVSPropertyOp22
 70
     1
102
RTVSPropertyOp23
 70
     1
102
RTVSPropertyOp24
 70
     1
102
RTVSPropertyOp25
 70
     1
102
RTVSPropertyOp26
 70
     1
102
RTVSPropertyOp27
 70
     1
  0
XRECORD
  5
15F9
102
{ACAD_REACTORS
330
15F8
102
}
330
15F8
100
AcDbXrecord
280
     1
102
RTVSPropertyOp0
 70
     0
102
RTVSPropertyOp1
 70
     0
102
RTVSPropertyOp2
 70
     0
102
RTVSPropertyOp3
 70
     0
102
RTVSPropertyOp4
 70
     0
102
RTVSPropertyOp5
 70
     0
102
RTVSPropertyOp6
 70
     0
102
RTVSPropertyOp7
 70
     0
102
RTVSPropertyOp8
 70
     0
102
RTVSPropertyOp9
 70
     0
102
RTVSPropertyOp10
 70
     0
102
RTVSPropertyOp11
 70
     0
102
RTVSPropertyOp12
 70
     0
102
RTVSPropertyOp13
 70
     0
102
RTVSPropertyOp14
 70
     2
102
RTVSPropertyOp15
 70
     0
102
RTVSPropertyOp16
 70
     0
102
RTVSPropertyOp17
 70
     0
102
RTVSPropertyOp18
 70
     0
102
RTVSPropertyOp19
 70
     0
102
RTVSPropertyOp20
 70
     0
102
RTVSPropertyOp21
 70
     0
102
RTVSPropertyOp22
 70
     0
102
RTVSPropertyOp23
 70
     0
102
RTVSPropertyOp24
 70
     0
102
RTVSPropertyOp25
 70
     0
102
RTVSPropertyOp26
 70
     0
102
RTVSPropertyOp27
 70
     0
  0
XRECORD
  5
15F1
102
{ACAD_REACTORS
330
15F0
102
}
330
15F0
100
AcDbXrecord
280
     1
102
RTVSPropertyOp0
 70
     1
102
RTVSPropertyOp1
 70
     1
102
RTVSPropertyOp2
 70
     1
102
RTVSPropertyOp3
 70
     1
102
RTVSPropertyOp4
 70
     1
102
RTVSPropertyOp5
 70
     1
102
RTVSPropertyOp6
 70
     1
102
RTVSPropertyOp7
 70
     1
102
RTVSPropertyOp8
 70
     1
102
RTVSPropertyOp9
 70
     1
102
RTVSPropertyOp10
 70
     1
102
RTVSPropertyOp11
 70
     1
102
RTVSPropertyOp12
 70
     1
102
RTVSPropertyOp13
 70
     1
102
RTVSPropertyOp14
 70
     1
102
RTVSPropertyOp15
 70
     1
102
RTVSPropertyOp16
 70
     1
102
RTVSPropertyOp17
 70
     1
102
RTVSPropertyOp18
 70
     1
102
RTVSPropertyOp19
 70
     1
102
RTVSPropertyOp20
 70
     1
102
RTVSPropertyOp21
 70
     1
102
RTVSPropertyOp22
 70
     1
102
RTVSPropertyOp23
 70
     1
102
RTVSPropertyOp24
 70
     1
102
RTVSPropertyOp25
 70
     1
102
RTVSPropertyOp26
 70
     1
102
RTVSPropertyOp27
 70
     1
  0
XRECORD
  5
15D5
102
{ACAD_REACTORS
330
15D4
102
}
330
15D4
100
AcDbXrecord
280
     1
102
RTVSPropertyOp0
 70
     1
102
RTVSPropertyOp1
 70
     1
102
RTVSPropertyOp2
 70
     1
102
RTVSPropertyOp3
 70
     1
102
RTVSPropertyOp4
 70
     1
102
RTVSPropertyOp5
 70
     1
102
RTVSPropertyOp6
 70
     1
102
RTVSPropertyOp7
 70
     1
102
RTVSPropertyOp8
 70
     1
102
RTVSPropertyOp9
 70
     1
102
RTVSPropertyOp10
 70
     1
102
RTVSPropertyOp11
 70
     1
102
RTVSPropertyOp12
 70
     1
102
RTVSPropertyOp13
 70
     1
102
RTVSPropertyOp14
 70
     1
102
RTVSPropertyOp15
 70
     1
102
RTVSPropertyOp16
 70
     1
102
RTVSPropertyOp17
 70
     1
102
RTVSPropertyOp18
 70
     1
102
RTVSPropertyOp19
 70
     1
102
RTVSPropertyOp20
 70
     1
102
RTVSPropertyOp21
 70
     1
102
RTVSPropertyOp22
 70
     1
102
RTVSPropertyOp23
 70
     1
102
RTVSPropertyOp24
 70
     1
102
RTVSPropertyOp25
 70
     1
102
RTVSPropertyOp26
 70
     1
102
RTVSPropertyOp27
 70
     1
  0
XRECORD
  5
15D7
102
{ACAD_REACTORS
330
15D6
102
}
330
15D6
100
AcDbXrecord
280
     1
102
RTVSPropertyOp0
 70
     1
102
RTVSPropertyOp1
 70
     1
102
RTVSPropertyOp2
 70
     1
102
RTVSPropertyOp3
 70
     1
102
RTVSPropertyOp4
 70
     1
102
RTVSPropertyOp5
 70
     1
102
RTVSPropertyOp6
 70
     1
102
RTVSPropertyOp7
 70
     1
102
RTVSPropertyOp8
 70
     1
102
RTVSPropertyOp9
 70
     1
102
RTVSPropertyOp10
 70
     1
102
RTVSPropertyOp11
 70
     1
102
RTVSPropertyOp12
 70
     1
102
RTVSPropertyOp13
 70
     1
102
RTVSPropertyOp14
 70
     1
102
RTVSPropertyOp15
 70
     1
102
RTVSPropertyOp16
 70
     1
102
RTVSPropertyOp17
 70
     1
102
RTVSPropertyOp18
 70
     1
102
RTVSPropertyOp19
 70
     1
102
RTVSPropertyOp20
 70
     1
102
RTVSPropertyOp21
 70
     1
102
RTVSPropertyOp22
 70
     1
102
RTVSPropertyOp23
 70
     1
102
RTVSPropertyOp24
 70
     1
102
RTVSPropertyOp25
 70
     1
102
RTVSPropertyOp26
 70
     1
102
RTVSPropertyOp27
 70
     1
  0
XRECORD
  5
15D9
102
{ACAD_REACTORS
330
15D8
102
}
330
15D8
100
AcDbXrecord
280
     1
102
RTVSPropertyOp0
 70
     1
102
RTVSPropertyOp1
 70
     1
102
RTVSPropertyOp2
 70
     1
102
RTVSPropertyOp3
 70
     1
102
RTVSPropertyOp4
 70
     1
102
RTVSPropertyOp5
 70
     1
102
RTVSPropertyOp6
 70
     1
102
RTVSPropertyOp7
 70
     1
102
RTVSPropertyOp8
 70
     1
102
RTVSPropertyOp9
 70
     1
102
RTVSPropertyOp10
 70
     1
102
RTVSPropertyOp11
 70
     1
102
RTVSPropertyOp12
 70
     1
102
RTVSPropertyOp13
 70
     1
102
RTVSPropertyOp14
 70
     1
102
RTVSPropertyOp15
 70
     1
102
RTVSPropertyOp16
 70
     1
102
RTVSPropertyOp17
 70
     1
102
RTVSPropertyOp18
 70
     1
102
RTVSPropertyOp19
 70
     1
102
RTVSPropertyOp20
 70
     1
102
RTVSPropertyOp21
 70
     1
102
RTVSPropertyOp22
 70
     1
102
RTVSPropertyOp23
 70
     1
102
RTVSPropertyOp24
 70
     1
102
RTVSPropertyOp25
 70
     1
102
RTVSPropertyOp26
 70
     1
102
RTVSPropertyOp27
 70
     1
  0
XRECORD
  5
15DB
102
{ACAD_REACTORS
330
15DA
102
}
330
15DA
100
AcDbXrecord
280
     1
102
RTVSPropertyOp0
 70
     1
102
RTVSPropertyOp1
 70
     1
102
RTVSPropertyOp2
 70
     1
102
RTVSPropertyOp3
 70
     1
102
RTVSPropertyOp4
 70
     1
102
RTVSPropertyOp5
 70
     1
102
RTVSPropertyOp6
 70
     1
102
RTVSPropertyOp7
 70
     1
102
RTVSPropertyOp8
 70
     1
102
RTVSPropertyOp9
 70
     1
102
RTVSPropertyOp10
 70
     1
102
RTVSPropertyOp11
 70
     1
102
RTVSPropertyOp12
 70
     1
102
RTVSPropertyOp13
 70
     1
102
RTVSPropertyOp14
 70
     1
102
RTVSPropertyOp15
 70
     1
102
RTVSPropertyOp16
 70
     1
102
RTVSPropertyOp17
 70
     1
102
RTVSPropertyOp18
 70
     1
102
RTVSPropertyOp19
 70
     1
102
RTVSPropertyOp20
 70
     1
102
RTVSPropertyOp21
 70
     1
102
RTVSPropertyOp22
 70
     1
102
RTVSPropertyOp23
 70
     1
102
RTVSPropertyOp24
 70
     1
102
RTVSPropertyOp25
 70
     1
102
RTVSPropertyOp26
 70
     1
102
RTVSPropertyOp27
 70
     1
  0
XRECORD
  5
15F5
102
{ACAD_REACTORS
330
15F4
102
}
330
15F4
100
AcDbXrecord
280
     1
102
RTVSPropertyOp0
 70
     0
102
RTVSPropertyOp1
 70
     0
102
RTVSPropertyOp2
 70
     0
102
RTVSPropertyOp3
 70
     0
102
RTVSPropertyOp4
 70
     0
102
RTVSPropertyOp5
 70
     0
102
RTVSPropertyOp6
 70
     0
102
RTVSPropertyOp7
 70
     0
102
RTVSPropertyOp8
 70
     0
102
RTVSPropertyOp9
 70
     0
102
RTVSPropertyOp10
 70
     0
102
RTVSPropertyOp11
 70
     0
102
RTVSPropertyOp12
 70
     0
102
RTVSPropertyOp13
 70
     0
102
RTVSPropertyOp14
 70
     2
102
RTVSPropertyOp15
 70
     0
102
RTVSPropertyOp16
 70
     0
102
RTVSPropertyOp17
 70
     0
102
RTVSPropertyOp18
 70
     0
102
RTVSPropertyOp19
 70
     0
102
RTVSPropertyOp20
 70
     0
102
RTVSPropertyOp21
 70
     0
102
RTVSPropertyOp22
 70
     0
102
RTVSPropertyOp23
 70
     0
102
RTVSPropertyOp24
 70
     0
102
RTVSPropertyOp25
 70
     0
102
RTVSPropertyOp26
 70
     0
102
RTVSPropertyOp27
 70
     0
  0
XRECORD
  5
15EF
102
{ACAD_REACTORS
330
15EE
102
}
330
15EE
100
AcDbXrecord
280
     1
102
RTVSPropertyOp0
 70
     1
102
RTVSPropertyOp1
 70
     1
102
RTVSPropertyOp2
 70
     1
102
RTVSPropertyOp3
 70
     1
102
RTVSPropertyOp4
 70
     1
102
RTVSPropertyOp5
 70
     1
102
RTVSPropertyOp6
 70
     1
102
RTVSPropertyOp7
 70
     1
102
RTVSPropertyOp8
 70
     1
102
RTVSPropertyOp9
 70
     1
102
RTVSPropertyOp10
 70
     1
102
RTVSPropertyOp11
 70
     1
102
RTVSPropertyOp12
 70
     1
102
RTVSPropertyOp13
 70
     1
102
RTVSPropertyOp14
 70
     1
102
RTVSPropertyOp15
 70
     1
102
RTVSPropertyOp16
 70
     1
102
RTVSPropertyOp17
 70
     1
102
RTVSPropertyOp18
 70
     1
102
RTVSPropertyOp19
 70
     1
102
RTVSPropertyOp20
 70
     1
102
RTVSPropertyOp21
 70
     1
102
RTVSPropertyOp22
 70
     1
102
RTVSPropertyOp23
 70
     1
102
RTVSPropertyOp24
 70
     1
102
RTVSPropertyOp25
 70
     1
102
RTVSPropertyOp26
 70
     1
102
RTVSPropertyOp27
 70
     1
  0
XRECORD
  5
15F7
102
{ACAD_REACTORS
330
15F6
102
}
330
15F6
100
AcDbXrecord
280
     1
102
RTVSPropertyOp0
 70
     0
102
RTVSPropertyOp1
 70
     0
102
RTVSPropertyOp2
 70
     0
102
RTVSPropertyOp3
 70
     0
102
RTVSPropertyOp4
 70
     0
102
RTVSPropertyOp5
 70
     0
102
RTVSPropertyOp6
 70
     0
102
RTVSPropertyOp7
 70
     0
102
RTVSPropertyOp8
 70
     0
102
RTVSPropertyOp9
 70
     0
102
RTVSPropertyOp10
 70
     0
102
RTVSPropertyOp11
 70
     0
102
RTVSPropertyOp12
 70
     0
102
RTVSPropertyOp13
 70
     0
102
RTVSPropertyOp14
 70
     2
102
RTVSPropertyOp15
 70
     0
102
RTVSPropertyOp16
 70
     0
102
RTVSPropertyOp17
 70
     0
102
RTVSPropertyOp18
 70
     0
102
RTVSPropertyOp19
 70
     0
102
RTVSPropertyOp20
 70
     0
102
RTVSPropertyOp21
 70
     0
102
RTVSPropertyOp22
 70
     0
102
RTVSPropertyOp23
 70
     0
102
RTVSPropertyOp24
 70
     0
102
RTVSPropertyOp25
 70
     0
102
RTVSPropertyOp26
 70
     0
102
RTVSPropertyOp27
 70
     0
  0
XRECORD
  5
15E7
102
{ACAD_REACTORS
330
15E6
102
}
330
15E6
100
AcDbXrecord
280
     1
102
RTVSPropertyOp0
 70
     1
102
RTVSPropertyOp1
 70
     1
102
RTVSPropertyOp2
 70
     1
102
RTVSPropertyOp3
 70
     1
102
RTVSPropertyOp4
 70
     1
102
RTVSPropertyOp5
 70
     1
102
RTVSPropertyOp6
 70
     1
102
RTVSPropertyOp7
 70
     1
102
RTVSPropertyOp8
 70
     1
102
RTVSPropertyOp9
 70
     1
102
RTVSPropertyOp10
 70
     1
102
RTVSPropertyOp11
 70
     1
102
RTVSPropertyOp12
 70
     1
102
RTVSPropertyOp13
 70
     1
102
RTVSPropertyOp14
 70
     1
102
RTVSPropertyOp15
 70
     1
102
RTVSPropertyOp16
 70
     1
102
RTVSPropertyOp17
 70
     1
102
RTVSPropertyOp18
 70
     1
102
RTVSPropertyOp19
 70
     1
102
RTVSPropertyOp20
 70
     1
102
RTVSPropertyOp21
 70
     1
102
RTVSPropertyOp22
 70
     1
102
RTVSPropertyOp23
 70
     1
102
RTVSPropertyOp24
 70
     1
102
RTVSPropertyOp25
 70
     1
102
RTVSPropertyOp26
 70
     1
102
RTVSPropertyOp27
 70
     1
  0
XRECORD
  5
15ED
102
{ACAD_REACTORS
330
15EC
102
}
330
15EC
100
AcDbXrecord
280
     1
102
RTVSPropertyOp0
 70
     1
102
RTVSPropertyOp1
 70
     1
102
RTVSPropertyOp2
 70
     1
102
RTVSPropertyOp3
 70
     1
102
RTVSPropertyOp4
 70
     1
102
RTVSPropertyOp5
 70
     1
102
RTVSPropertyOp6
 70
     1
102
RTVSPropertyOp7
 70
     1
102
RTVSPropertyOp8
 70
     1
102
RTVSPropertyOp9
 70
     1
102
RTVSPropertyOp10
 70
     1
102
RTVSPropertyOp11
 70
     1
102
RTVSPropertyOp12
 70
     1
102
RTVSPropertyOp13
 70
     1
102
RTVSPropertyOp14
 70
     1
102
RTVSPropertyOp15
 70
     1
102
RTVSPropertyOp16
 70
     1
102
RTVSPropertyOp17
 70
     1
102
RTVSPropertyOp18
 70
     1
102
RTVSPropertyOp19
 70
     1
102
RTVSPropertyOp20
 70
     1
102
RTVSPropertyOp21
 70
     1
102
RTVSPropertyOp22
 70
     1
102
RTVSPropertyOp23
 70
     1
102
RTVSPropertyOp24
 70
     1
102
RTVSPropertyOp25
 70
     1
102
RTVSPropertyOp26
 70
     1
102
RTVSPropertyOp27
 70
     1
  0
ENDSEC
  0
EOF
