  0
SECTION
  2
HEADER
  9
$ACADVER
  1
AC1015
  9
$ACADMAINTVER
 70
    20
  9
$DWGCODEPAGE
  3
ANSI_1252
  9
$INSBASE
 10
0.0
 20
0.0
 30
0.0
  9
$EXTMIN
 10
-344.7661158675
 20
0.0
 30
0.0
  9
$EXTMAX
 10
1576.640386536946
 20
956.4838390281384
 30
0.0
  9
$LIMMIN
 10
0.0
 20
0.0
  9
$LIMMAX
 10
594.0
 20
420.0
  9
$ORTHOMODE
 70
     0
  9
$REGENMODE
 70
     1
  9
$FILLMODE
 70
     1
  9
$QTEXTMODE
 70
     0
  9
$MIRRTEXT
 70
     0
  9
$LTSCALE
 40
32.67
  9
$ATTMODE
 70
     1
  9
$TEXTSIZE
 40
0.2
  9
$TRACEWID
 40
0.05
  9
$TEXTSTYLE
  7
STANDARD
  9
$CLAYER
  8
0
  9
$CELTYPE
  6
BYLAYER
  9
$CECOLOR
 62
   256
  9
$CELTSCALE
 40
1.0
  9
$DISPSILH
 70
     0
  9
$DIMSCALE
 40
1.0
  9
$DIMASZ
 40
3.5
  9
$DIMEXO
 40
1.5
  9
$DIMDLI
 40
22.572
  9
$DIMRND
 40
0.0
  9
$DIMDLE
 40
0.0
  9
$DIMEXE
 40
1.5
  9
$DIMTP
 40
0.005
  9
$DIMTM
 40
0.005
  9
$DIMTXT
 40
3.5
  9
$DIMCEN
 40
5.346
  9
$DIMTSZ
 40
0.0
  9
$DIMTOL
 70
     1
  9
$DIMLIM
 70
     0
  9
$DIMTIH
 70
     1
  9
$DIMTOH
 70
     1
  9
$DIMSE1
 70
     0
  9
$DIMSE2
 70
     0
  9
$DIMTAD
 70
     0
  9
$DIMZIN
 70
     0
  9
$DIMBLK
  1
_FILLED
  9
$DIMASO
 70
     1
  9
$DIMSHO
 70
     1
  9
$DIMPOST
  1

  9
$DIMAPOST
  1

  9
$DIMALT
 70
     0
  9
$DIMALTD
 70
     2
  9
$DIMALTF
 40
25.4
  9
$DIMLFAC
 40
1.0
  9
$DIMTOFL
 70
     0
  9
$DIMTVP
 40
0.0
  9
$DIMTIX
 70
     0
  9
$DIMSOXD
 70
     0
  9
$DIMSAH
 70
     0
  9
$DIMBLK1
  1

  9
$DIMBLK2
  1

  9
$DIMSTYLE
  2
STANDARD
  9
$DIMCLRD
 70
     0
  9
$DIMCLRE
 70
     0
  9
$DIMCLRT
 70
     0
  9
$DIMTFAC
 40
1.0
  9
$DIMGAP
 40
0.625
  9
$DIMJUST
 70
     0
  9
$DIMSD1
 70
     0
  9
$DIMSD2
 70
     0
  9
$DIMTOLJ
 70
     1
  9
$DIMTZIN
 70
     0
  9
$DIMALTZ
 70
     0
  9
$DIMALTTZ
 70
     0
  9
$DIMUPT
 70
     0
  9
$DIMDEC
 70
     4
  9
$DIMTDEC
 70
     4
  9
$DIMALTU
 70
     2
  9
$DIMALTTD
 70
     2
  9
$DIMTXSTY
  7
STANDARD
  9
$DIMAUNIT
 70
     0
  9
$DIMADEC
 70
     0
  9
$DIMALTRND
 40
0.0
  9
$DIMAZIN
 70
     0
  9
$DIMDSEP
 70
    46
  9
$DIMATFIT
 70
     3
  9
$DIMFRAC
 70
     0
  9
$DIMLDRBLK
  1

  9
$DIMLUNIT
 70
     2
  9
$DIMLWD
 70
    -2
  9
$DIMLWE
 70
    -2
  9
$DIMTMOVE
 70
     0
  9
$LUNITS
 70
     2
  9
$LUPREC
 70
     2
  9
$SKETCHINC
 40
0.1
  9
$FILLETRAD
 40
0.0
  9
$AUNITS
 70
     0
  9
$AUPREC
 70
     0
  9
$MENU
  1
.
  9
$ELEVATION
 40
0.0
  9
$PELEVATION
 40
0.0
  9
$THICKNESS
 40
0.0
  9
$LIMCHECK
 70
     0
  9
$CHAMFERA
 40
0.0
  9
$CHAMFERB
 40
0.0
  9
$CHAMFERC
 40
0.0
  9
$CHAMFERD
 40
0.0
  9
$SKPOLY
 70
     0
  9
$TDCREATE
 40
2457197.364821956
  9
$TDUCREATE
 40
2457197.281488622
  9
$TDUPDATE
 40
2457197.373387477
  9
$TDUUPDATE
 40
2457197.290054144
  9
$TDINDWG
 40
0.0085661227
  9
$TDUSRTIMER
 40
0.0085661227
  9
$USRTIMER
 70
     1
  9
$ANGBASE
 50
0.0
  9
$ANGDIR
 70
     0
  9
$PDMODE
 70
     3
  9
$PDSIZE
 40
0.3125
  9
$PLINEWID
 40
0.0
  9
$SPLFRAME
 70
     0
  9
$SPLINETYPE
 70
     6
  9
$SPLINESEGS
 70
     8
  9
$HANDSEED
  5
855
  9
$SURFTAB1
 70
     6
  9
$SURFTAB2
 70
     6
  9
$SURFTYPE
 70
     6
  9
$SURFU
 70
     6
  9
$SURFV
 70
     6
  9
$UCSBASE
  2

  9
$UCSNAME
  2

  9
$UCSORG
 10
0.0
 20
0.0
 30
0.0
  9
$UCSXDIR
 10
1.0
 20
0.0
 30
0.0
  9
$UCSYDIR
 10
0.0
 20
1.0
 30
0.0
  9
$UCSORTHOREF
  2

  9
$UCSORTHOVIEW
 70
     0
  9
$UCSORGTOP
 10
0.0
 20
0.0
 30
0.0
  9
$UCSORGBOTTOM
 10
0.0
 20
0.0
 30
0.0
  9
$UCSORGLEFT
 10
0.0
 20
0.0
 30
0.0
  9
$UCSORGRIGHT
 10
0.0
 20
0.0
 30
0.0
  9
$UCSORGFRONT
 10
0.0
 20
0.0
 30
0.0
  9
$UCSORGBACK
 10
0.0
 20
0.0
 30
0.0
  9
$PUCSBASE
  2

  9
$PUCSNAME
  2

  9
$PUCSORG
 10
0.0
 20
0.0
 30
0.0
  9
$PUCSXDIR
 10
1.0
 20
0.0
 30
0.0
  9
$PUCSYDIR
 10
0.0
 20
1.0
 30
0.0
  9
$PUCSORTHOREF
  2

  9
$PUCSORTHOVIEW
 70
     0
  9
$PUCSORGTOP
 10
0.0
 20
0.0
 30
0.0
  9
$PUCSORGBOTTOM
 10
0.0
 20
0.0
 30
0.0
  9
$PUCSORGLEFT
 10
0.0
 20
0.0
 30
0.0
  9
$PUCSORGRIGHT
 10
0.0
 20
0.0
 30
0.0
  9
$PUCSORGFRONT
 10
0.0
 20
0.0
 30
0.0
  9
$PUCSORGBACK
 10
0.0
 20
0.0
 30
0.0
  9
$USERI1
 70
     0
  9
$USERI2
 70
     0
  9
$USERI3
 70
     0
  9
$USERI4
 70
     0
  9
$USERI5
 70
     0
  9
$USERR1
 40
0.0
  9
$USERR2
 40
0.0
  9
$USERR3
 40
0.0
  9
$USERR4
 40
0.0
  9
$USERR5
 40
0.0
  9
$WORLDVIEW
 70
     1
  9
$SHADEDGE
 70
     3
  9
$SHADEDIF
 70
    70
  9
$TILEMODE
 70
     1
  9
$MAXACTVP
 70
    64
  9
$PINSBASE
 10
0.0
 20
0.0
 30
0.0
  9
$PLIMCHECK
 70
     0
  9
$PEXTMIN
 10
1.000000000000000E+20
 20
1.000000000000000E+20
 30
1.000000000000000E+20
  9
$PEXTMAX
 10
-1.000000000000000E+20
 20
-1.000000000000000E+20
 30
-1.000000000000000E+20
  9
$PLIMMIN
 10
0.0
 20
0.0
  9
$PLIMMAX
 10
12.0
 20
9.0
  9
$UNITMODE
 70
     0
  9
$VISRETAIN
 70
     1
  9
$PLINEGEN
 70
     0
  9
$PSLTSCALE
 70
     1
  9
$TREEDEPTH
 70
  3020
  9
$CMLSTYLE
  2
Standard
  9
$CMLJUST
 70
     0
  9
$CMLSCALE
 40
1.0
  9
$PROXYGRAPHICS
 70
     1
  9
$MEASUREMENT
 70
     1
  9
$CELWEIGHT
370
    -1
  9
$ENDCAPS
280
     0
  9
$JOINSTYLE
280
     0
  9
$LWDISPLAY
290
     0
  9
$INSUNITS
 70
     4
  9
$HYPERLINKBASE
  1

  9
$STYLESHEET
  1

  9
$XEDIT
290
     1
  9
$CEPSNTYPE
380
     0
  9
$PSTYLEMODE
290
     1
  9
$FINGERPRINTGUID
  2
{FCA2DD79-2AD6-4B65-8A9B-ACAB028EF725}
  9
$VERSIONGUID
  2
{B167FCBC-D4EE-459E-8A87-6BBC5F8321EB}
  9
$EXTNAMES
290
     1
  9
$PSVPSCALE
 40
0.0
  9
$OLESTARTUP
290
     0
  0
ENDSEC
  0
SECTION
  2
CLASSES
  0
CLASS
  1
ACDBDICTIONARYWDFLT
  2
AcDbDictionaryWithDefault
  3
ObjectDBX Classes
 90
        0
280
     0
281
     0
  0
CLASS
  1
ACDBPLACEHOLDER
  2
AcDbPlaceHolder
  3
ObjectDBX Classes
 90
        0
280
     0
281
     0
  0
CLASS
  1
LAYOUT
  2
AcDbLayout
  3
ObjectDBX Classes
 90
        0
280
     0
281
     0
  0
CLASS
  1
MATERIAL
  2
AcDbMaterial
  3
ObjectDBX Classes
 90
     1153
280
     0
281
     0
  0
CLASS
  1
VISUALSTYLE
  2
AcDbVisualStyle
  3
ObjectDBX Classes
 90
     4095
280
     0
281
     0
  0
CLASS
  1
TABLESTYLE
  2
AcDbTableStyle
  3
ObjectDBX Classes
 90
     4095
280
     0
281
     0
  0
CLASS
  1
SCALE
  2
AcDbScale
  3
ObjectDBX Classes
 90
     1153
280
     0
281
     0
  0
CLASS
  1
MLEADERSTYLE
  2
AcDbMLeaderStyle
  3
ACDB_MLEADERSTYLE_CLASS
 90
     4095
280
     0
281
     0
  0
CLASS
  1
AMGSETTINGSOBJ
  2
AmgSettingsObj
  3
"AcadM|Product Description: AutoCAD Mechanical|Company: Autodesk, Inc."
 90
     1024
280
     0
281
     0
  0
CLASS
  1
ACME_DOCUMENT
  2
AcMeDbDoc
  3
AcMeServices
 90
     1024
280
     0
281
     0
  0
CLASS
  1
ACMESCOPE
  2
AcMeScope
  3
AcMeServices
 90
     1024
280
     0
281
     0
  0
CLASS
  1
ACMECOMMANDHISTORY
  2
AcMeCommandHistory
  3
AcMeServices
 90
     1024
280
     0
281
     0
  0
CLASS
  1
ACIMSYSVARMAN
  2
AcImSysVarManager
  3
AcMeServices
 90
     1024
280
     0
281
     0
  0
CLASS
  1
ACIMINTSYSVAR
  2
AcImIntSysVar
  3
AcMeServices
 90
     1024
280
     0
281
     0
  0
CLASS
  1
ACMEDRAWINGMAN
  2
AcMeDrawingMan
  3
AcMeServices
 90
     1024
280
     0
281
     0
  0
CLASS
  1
ACMEVIEW
  2
AcMeView
  3
AcMeServices
 90
     1024
280
     0
281
     0
  0
CLASS
  1
ACDBENTITYCACHE
  2
AcMeEntityCache
  3
AcMeServices
 90
     1024
280
     0
281
     0
  0
CLASS
  1
ACMESTATEMGR
  2
AcMeStateMgr
  3
AcMeServices
 90
     1024
280
     0
281
     0
  0
CLASS
  1
ACGREFMASTER
  2
AcGrefMaster
  3
AcAttribServices
 90
     1024
280
     0
281
     0
  0
CLASS
  1
AM_DRAWING_MGR
  2
AcDmDwgMgr
  3
AcMechDwgViewMgmt
 90
     1024
280
     0
281
     0
  0
CLASS
  1
AM_DWG_DOCUMENT
  2
AcDmDwgDocument
  3
AcMechDwgViewMgmt
 90
     1024
280
     0
281
     0
  0
CLASS
  1
AM_DWG_SHEET
  2
AcDmSheet
  3
AcMechDwgViewMgmt
 90
     1024
280
     0
281
     0
  0
CLASS
  1
AM_VIEWDIMPARMAP
  2
AcDmViewDimParMap
  3
AcMechDwgViewMgmt
 90
     1024
280
     0
281
     0
  0
CLASS
  1
AMDTINTERNALREACTOR
  2
AmdtInternalReactor
  3
AcMeServices
 90
     1024
280
     0
281
     0
  0
CLASS
  1
ACIMREALSYSVAR
  2
AcImRealSysVar
  3
AcMeServices
 90
     1024
280
     0
281
     0
  0
CLASS
  1
AM_DWGMGR_NAME
  2
AcDmDwgMgrName
  3
AcMechDwgViewMgmt
 90
     1024
280
     0
281
     0
  0
CLASS
  1
ACME_DATABASE
  2
AcMeDbDatabase
  3
AcMeServices
 90
     1024
280
     0
281
     0
  0
CLASS
  1
ACRFINSADJUSTERMGR
  2
AcRfInsAdjusterMgr
  3
AcMeServices
 90
     1024
280
     0
281
     0
  0
CLASS
  1
ACGREFACADMASTER
  2
AcGrefacadMaster
  3
AcGrefServices
 90
     1024
280
     0
281
     0
  0
CLASS
  1
AMDTMENUSTATEMGR
  2
AmdtMenuStateMgr
  3
McadcomServices
 90
     1024
280
     0
281
     0
  0
CLASS
  1
AMDTMCOMMENUSTATE
  2
AmdtMcomMenuState
  3
McadcomServices
 90
     1024
280
     0
281
     0
  0
CLASS
  1
AMIMASTER
  2
AmiMaster
  3
AmiServices
 90
     1024
280
     0
281
     0
  0
CLASS
  1
MAPIAMMOUDLE
  2
MApiAmModule
  3
MApiAmServices
 90
     1024
280
     0
281
     0
  0
CLASS
  1
ACIMSTRSYSVAR
  2
AcImStrSysVar
  3
AcMeServices
 90
     1024
280
     0
281
     0
  0
CLASS
  1
AMDTADMENUSTATE
  2
AmdtAdMenuState
  3
DesignerServices
 90
     1024
280
     0
281
     0
  0
CLASS
  1
ADAPPL
  2
AcAdAppl
  3
DesignerServices
 90
     1024
280
     0
281
     0
  0
CLASS
  1
DEPMGR
  2
AcAdDepMgr
  3
DesignerServices
 90
     1024
280
     0
281
     0
  0
CLASS
  1
PARAMMGR
  2
AcAdParamMgr
  3
DesignerServices
 90
     1024
280
     0
281
     0
  0
CLASS
  1
PARAMSCOPE
  2
AcAdParamScope
  3
DesignerServices
 90
     1024
280
     0
281
     0
  0
CLASS
  1
NAMEDAPPL
  2
AcAdNamedAppl
  3
DesignerServices
 90
     1024
280
     0
281
     0
  0
CLASS
  1
AMDTDMMENUSTATE
  2
AmdtDmMenuState
  3
AcMechDwgViewMgmt
 90
     1024
280
     0
281
     0
  0
CLASS
  1
AMDTAMMENUSTATE
  2
AmdtAmMenuState
  3
DesignerAssemblies
 90
     1024
280
     0
281
     0
  0
CLASS
  1
ACAMPROJECT
  2
AcAmProject
  3
DesignerAssemblies
 90
     1024
280
     0
281
     0
  0
CLASS
  1
ACAMGRCOMPDEF
  2
AcAmGrCompDef
  3
DesignerAssemblies
 90
     1024
280
     0
281
     0
  0
CLASS
  1
ACAMCOMPDEF
  2
AcAmCompDef
  3
DesignerAssemblies
 90
     1024
280
     0
281
     0
  0
CLASS
  1
ACAMCOMPDEFMGR
  2
AcAmCompDefMgr
  3
DesignerAssemblies
 90
     1024
280
     0
281
     0
  0
CLASS
  1
AMCONTEXTMGR
  2
AcAmContextMgr
  3
DesignerAssemblies
 90
     1024
280
     0
281
     0
  0
CLASS
  1
ACAMCONTEXTMODELER
  2
AcAmContextModeler
  3
DesignerAssemblies
 90
     1024
280
     0
281
     0
  0
CLASS
  1
ACMDATADICTIONARY
  2
AcmDataDictionary
  3
"AcmSymBB|Product Description: AutoCAD Mechanical|Company: Autodesk, Inc."
 90
     1024
280
     0
281
     0
  0
CLASS
  1
CATALOGSTATE
  2
AcAmCatalogState
  3
DesignerAssemblies
 90
     1024
280
     0
281
     0
  0
CLASS
  1
ACAMGRCOMPDEFSET
  2
AcAmGrCompDefSet
  3
DesignerAssemblies
 90
     1024
280
     0
281
     0
  0
CLASS
  1
AMDTBROWSERDBTAB
  2
AmdtBrowserDbTab
  3
McadcomServices
 90
     1024
280
     0
281
     0
  0
CLASS
  1
CBROWSERAPPOBJECT
  2
CBrowserAppObject
  3
McadcomServices
 90
     1024
280
     0
281
     0
  0
CLASS
  1
DM_PLACEHOLDER
  2
AcDmSelsetPlaceholder
  3
AcMechDwgViewMgmt
 90
     1024
280
     0
281
     0
  0
CLASS
  1
ACMSTANDARDDIN
  2
AcmStandardDIN
  3
"Amdt_StdImp|Product Description: AutoCAD Mechanical|Company: Autodesk, Inc."
 90
     1024
280
     0
281
     0
  0
CLASS
  1
AMDTEDGESTANDARDDIN13715
  2
AmdtEdgeStdDIN13715
  3
"Amdt_StdImp|Product Description: AutoCAD Mechanical|Company: Autodesk, Inc."
 90
     1024
280
     0
281
     0
  0
CLASS
  1
ACMSURFSTANDARDDIN2002
  2
AcmSurfTextStdDIN2002
  3
"Amdt_StdImp|Product Description: AutoCAD Mechanical|Company: Autodesk, Inc."
 90
     1024
280
     0
281
     0
  0
CLASS
  1
ACMFCFSTANDARDDIN
  2
AcmFCFStdDIN
  3
"Amdt_StdImp|Product Description: AutoCAD Mechanical|Company: Autodesk, Inc."
 90
     1024
280
     0
281
     0
  0
CLASS
  1
ACMWELDSTANDARDDIN
  2
AcmWeldingStdDIN
  3
"Amdt_StdImp|Product Description: AutoCAD Mechanical|Company: Autodesk, Inc."
 90
     1024
280
     0
281
     0
  0
CLASS
  1
ACMIDSTANDARDDIN
  2
AcmIdStdDIN
  3
"Amdt_StdImp|Product Description: AutoCAD Mechanical|Company: Autodesk, Inc."
 90
     1024
280
     0
281
     0
  0
CLASS
  1
ACMDATUMSTANDARDDIN
  2
AcmDatumStdDIN
  3
"Amdt_StdImp|Product Description: AutoCAD Mechanical|Company: Autodesk, Inc."
 90
     1024
280
     0
281
     0
  0
CLASS
  1
ACMBOMSTANDARDDIN
  2
AcmBOMStdDIN
  3
"Amdt_StdImp|Product Description: AutoCAD Mechanical|Company: Autodesk, Inc."
 90
     1024
280
     0
281
     0
  0
CLASS
  1
ACMDETAILSTANDARDDIN
  2
AmdtDetailSymStdDIN
  3
"Amdt_StdImp|Product Description: AutoCAD Mechanical|Company: Autodesk, Inc."
 90
     1024
280
     0
281
     0
  0
CLASS
  1
ACMSECTIONSTANDARDDIN
  2
AmdtSectionSymStdDIN
  3
"Amdt_StdImp|Product Description: AutoCAD Mechanical|Company: Autodesk, Inc."
 90
     1024
280
     0
281
     0
  0
CLASS
  1
ACMCENTERLINESTANDARDDIN
  2
AmdtCenterLineStdDIN
  3
"Amdt_StdImp|Product Description: AutoCAD Mechanical|Company: Autodesk, Inc."
 90
     1024
280
     0
281
     0
  0
CLASS
  1
ACMTHREADLINESTANDARDDIN
  2
AmdtThreadLineStdDIN
  3
"Amdt_StdImp|Product Description: AutoCAD Mechanical|Company: Autodesk, Inc."
 90
     1024
280
     0
281
     0
  0
CLASS
  1
ACMNOTESTANDARDDIN
  2
AmdtNoteStdDIN
  3
"Amdt_StdImp|Product Description: AutoCAD Mechanical|Company: Autodesk, Inc."
 90
     1024
280
     0
281
     0
  0
CLASS
  1
ACMTAPERSTANDARDDIN
  2
AcmTaperStdDIN
  3
"Amdt_StdImp|Product Description: AutoCAD Mechanical|Company: Autodesk, Inc."
 90
     1024
280
     0
281
     0
  0
CLASS
  1
ACMANOOTATIONVIEWSTANDARDDIN
  2
AmdtAnViewStdDIN
  3
"Amdt_StdImp|Product Description: AutoCAD Mechanical|Company: Autodesk, Inc."
 90
     1024
280
     0
281
     0
  0
CLASS
  1
ACAMGLAYSTD
  2
AcAmgLayStd
  3
"AmgLay|Product Description: AutoCAD Mechanical|Company: Autodesk, Inc."
 90
     1024
280
     0
281
     0
  0
CLASS
  1
ACAMGDIMSTD
  2
AcAmgDimStd
  3
"AmgDim|Product Description: AutoCAD Mechanical|Company: Autodesk, Inc."
 90
     1024
280
     0
281
     0
  0
CLASS
  1
AMGOBJPROPCFG
  2
AmgObjPropCfg
  3
"AmgLay|Product Description: AutoCAD Mechanical|Company: Autodesk, Inc."
 90
     1025
280
     0
281
     0
  0
CLASS
  1
ACAMGHOLECHARTSTDDIN
  2
AcAmgHoleChartStdDIN
  3
AmgDim|Product Description: AutoCAD Mechanical|Company: Autodesk, Inc.
 90
     1024
280
     0
281
     0
  0
CLASS
  1
ACAMGTITLESTD
  2
AcAmgTitleStd
  3
"AmgTitle|Product Description: AutoCAD Mechanical|Company: Autodesk, Inc."
 90
     4095
280
     0
281
     0
  0
CLASS
  1
AMDTNOTETEMPLATEDB
  2
AmdtNoteTemplateDB
  3
AcmSymBB|Product Description: AutoCAD Mechanical|Company: Autodesk, Inc.
 90
     1024
280
     0
281
     0
  0
CLASS
  1
ACAMGFILTERDAT
  2
AcAmgFilterDat
  3
"AcadM|Product Description: AutoCAD Mechanical|Company: Autodesk, Inc."
 90
     1024
280
     0
281
     0
  0
CLASS
  1
AEC_REFEDIT_STATUS_TRACKER
  2
AecDbRefEditStatusTracker
  3
AecArchBase60|Product Desc: Autodesk Architectural Desktop 2007 |Company: Autodesk,Inc. |WEB Address: www.autodesk.com
 90
      129
280
     0
281
     0
  0
CLASS
  1
NPOCOLLECTION
  2
AcDbImpNonPersistentObjectsCollection
  3
ObjectDBX Classes
 90
     1153
280
     0
281
     0
  0
CLASS
  1
DICTIONARYVAR
  2
AcDbDictionaryVar
  3
ObjectDBX Classes
 90
        0
280
     0
281
     0
  0
CLASS
  1
CELLSTYLEMAP
  2
AcDbCellStyleMap
  3
ObjectDBX Classes
 90
     1152
280
     0
281
     0
  0
ENDSEC
  0
SECTION
  2
TABLES
  0
TABLE
  2
VPORT
  5
8
330
0
100
AcDbSymbolTable
 70
     1
  0
VPORT
  5
1F4
330
8
100
AcDbSymbolTableRecord
100
AcDbViewportTableRecord
  2
*ACTIVE
 70
     0
 10
0.0
 20
0.0
 11
1.0
 21
1.0
 12
46.6016195026142
 22
308.0259800777084
 13
0.0
 23
0.0
 14
1.0
 24
1.0
 15
0.0
 25
0.0
 16
0.0
 26
0.0
 36
1.0
 17
0.0
 27
0.0
 37
0.0
 40
556.1427858715364
 41
2.072033898305084
 42
50.0
 43
0.0
 44
0.0
 50
0.0
 51
0.0
 71
     0
 72
   100
 73
     1
 74
     1
 75
     0
 76
     0
 77
     0
 78
     0
281
     0
 65
     0
110
0.0
120
0.0
130
0.0
111
1.0
121
0.0
131
0.0
112
0.0
122
1.0
132
0.0
 79
     0
146
0.0
  0
ENDTAB
  0
TABLE
  2
LTYPE
  5
5
330
0
100
AcDbSymbolTable
 70
    22
  0
LTYPE
  5
14
330
5
100
AcDbSymbolTableRecord
100
AcDbLinetypeTableRecord
  2
BYBLOCK
 70
     0
  3

 72
    65
 73
     0
 40
0.0
  0
LTYPE
  5
15
330
5
100
AcDbSymbolTableRecord
100
AcDbLinetypeTableRecord
  2
BYLAYER
 70
     0
  3

 72
    65
 73
     0
 40
0.0
  0
LTYPE
  5
16
330
5
100
AcDbSymbolTableRecord
100
AcDbLinetypeTableRecord
  2
CONTINUOUS
 70
     0
  3
Solid line
 72
    65
 73
     0
 40
0.0
  0
LTYPE
  5
1F5
330
5
100
AcDbSymbolTableRecord
100
AcDbLinetypeTableRecord
  2
CENTER
 70
     0
  3
____ _ ____ _ ____ _ ____ _ ____ _ ____ _ ____
 72
    65
 73
     4
 40
0.6
 49
0.375
 74
     0
 49
-0.075
 74
     0
 49
0.075
 74
     0
 49
-0.075
 74
     0
  0
LTYPE
  5
1F6
330
5
100
AcDbSymbolTableRecord
100
AcDbLinetypeTableRecord
  2
HIDDEN
 70
     0
  3
- - - - - - - - - - - - - - - - - - - -
 72
    65
 73
     2
 40
0.2
 49
0.1
 74
     0
 49
-0.1
 74
     0
  0
LTYPE
  5
680
330
5
100
AcDbSymbolTableRecord
100
AcDbLinetypeTableRecord
  2
PHANTOM2
 70
     0
  3
Phantom (.5x) ___ _ _ ___ _ _ ___ _ _ ___ _ _
 72
    65
 73
     6
 40
31.75
 49
15.875
 74
     0
 49
-3.174999999999999
 74
     0
 49
3.174999999999999
 74
     0
 49
-3.174999999999999
 74
     0
 49
3.174999999999999
 74
     0
 49
-3.174999999999999
 74
     0
  0
LTYPE
  5
6C9
330
5
100
AcDbSymbolTableRecord
100
AcDbLinetypeTableRecord
  2
Amconstr
 70
     0
  3
_______________________
 72
    65
 73
     2
 40
9999.0
 49
9999.0
 74
     0
 49
0.0
 74
     0
  0
LTYPE
  5
6CE
330
5
100
AcDbSymbolTableRecord
100
AcDbLinetypeTableRecord
  2
Amzigzag
 70
     0
  3
/\/-/\/-/\/-/\/-/\/-/\/
 72
    65
 73
     2
 40
11.0001
 49
0.0001
 74
     4
 75
   136
340
6CD
 46
0.04
 50
0.0
 44
0.0
 45
0.0
 49
-11.0
 74
     0
  0
LTYPE
  5
6CF
330
5
100
AcDbSymbolTableRecord
100
AcDbLinetypeTableRecord
  2
AM_DIN_F_W050
 70
     0
  3
__ __ __ __ __ __ __ __ __ __ __ __ __ __ __
 72
    65
 73
     2
 40
6.25
 49
4.75
 74
     0
 49
-1.5
 74
     0
  0
LTYPE
  5
6D0
330
5
100
AcDbSymbolTableRecord
100
AcDbLinetypeTableRecord
  2
AM_DIN_G_W050
 70
     0
  3
____ . ____ . ____ . ____ . ____ . ____ . ____
 72
    65
 73
     4
 40
13.75
 49
9.75
 74
     0
 49
-1.5
 74
     0
 49
1.0
 74
     0
 49
-1.5
 74
     0
  0
LTYPE
  5
6D1
330
5
100
AcDbSymbolTableRecord
100
AcDbLinetypeTableRecord
  2
AM_DIN_K_W050
 70
     0
  3
_____ . . _____ . . _____ . . ____ .. ____
 72
    65
 73
     6
 40
16.25
 49
9.75
 74
     0
 49
-1.5
 74
     0
 49
1.0
 74
     0
 49
-1.5
 74
     0
 49
1.0
 74
     0
 49
-1.5
 74
     0
  0
LTYPE
  5
6D2
330
5
100
AcDbSymbolTableRecord
100
AcDbLinetypeTableRecord
  2
AM_DIN_G_W050x2
 70
     0
  3
__ . __ . __ . __ . __ . __
 72
    65
 73
     4
 40
6.875
 49
4.75
 74
     0
 49
-0.875
 74
     0
 49
0.375
 74
     0
 49
-0.875
 74
     0
  0
LTYPE
  5
6D3
330
5
100
AcDbSymbolTableRecord
100
AcDbLinetypeTableRecord
  2
AM_DIN_F_W050x2
 70
     0
  3
 _ _ _ _ _ _ _ _ _ _ _ _
 72
    65
 73
     2
 40
3.125
 49
2.25
 74
     0
 49
-0.875
 74
     0
  0
LTYPE
  5
6E2
330
5
100
AcDbSymbolTableRecord
100
AcDbLinetypeTableRecord
  2
ACDINWELD
 70
     0
  3
_ _ _ _ _
 72
    65
 73
     2
 40
2.0
 49
2.0
 74
     0
 49
-1.0
 74
     0
  0
LTYPE
  5
6E3
330
5
100
AcDbSymbolTableRecord
100
AcDbLinetypeTableRecord
  2
ACDINTGB
 70
     0
  3
__ . . __ . .
 72
    65
 73
     6
 40
9.0
 49
4.0
 74
     0
 49
-1.0
 74
     0
 49
1.0
 74
     0
 49
-1.0
 74
     0
 49
1.0
 74
     0
 49
-1.0
 74
     0
  0
LTYPE
  5
6E4
330
5
100
AcDbSymbolTableRecord
100
AcDbLinetypeTableRecord
  2
ACDINTGL
 70
     0
  3
_ _ _ _ _
 72
    65
 73
     2
 40
3.0
 49
2.0
 74
     0
 49
-1.0
 74
     0
  0
ENDTAB
  0
TABLE
  2
LAYER
  5
2
330
0
100
AcDbSymbolTable
 70
    15
  0
LAYER
  5
10
102
{ACAD_XDICTIONARY
360
80C
102
}
330
2
100
AcDbSymbolTableRecord
100
AcDbLayerTableRecord
  2
0
 70
     0
 62
     7
  6
CONTINUOUS
370
    -3
390
F
  0
LAYER
  5
1FD
102
{ACAD_XDICTIONARY
360
80E
102
}
330
2
100
AcDbSymbolTableRecord
100
AcDbLayerTableRecord
  2
BEZUGSACHSEN
 70
     0
 62
     7
  6
CONTINUOUS
370
    -3
390
F
  0
LAYER
  5
202
102
{ACAD_XDICTIONARY
360
810
102
}
330
2
100
AcDbSymbolTableRecord
100
AcDbLayerTableRecord
  2
RUNDUNGEN
 70
     0
 62
     7
  6
CONTINUOUS
370
    -3
390
F
  0
LAYER
  5
203
102
{ACAD_XDICTIONARY
360
812
102
}
330
2
100
AcDbSymbolTableRecord
100
AcDbLayerTableRecord
  2
TEIL_STARTBEZUEGE
 70
     0
 62
     7
  6
CONTINUOUS
370
    -3
390
F
  0
LAYER
  5
204
102
{ACAD_XDICTIONARY
360
814
102
}
330
2
100
AcDbSymbolTableRecord
100
AcDbLayerTableRecord
  2
ZEICHNUNGSBEMASSUNGEN
 70
     0
 62
     7
  6
CONTINUOUS
370
    -3
390
F
  0
LAYER
  5
6F7
330
2
100
AcDbSymbolTableRecord
100
AcDbLayerTableRecord
  2
Defpoints
 70
     0
 62
     7
  6
CONTINUOUS
290
     0
370
    -3
390
F
  0
LAYER
  5
7AA
102
{ACAD_XDICTIONARY
360
7AB
102
}
330
2
100
AcDbSymbolTableRecord
100
AcDbLayerTableRecord
  2
P-0000
 70
     0
 62
     7
  6
CONTINUOUS
370
    -3
390
F
  0
ENDTAB
  0
TABLE
  2
STYLE
  5
3
330
0
100
AcDbSymbolTable
 70
    12
  0
STYLE
  5
11
330
3
100
AcDbSymbolTableRecord
100
AcDbTextStyleTableRecord
  2
STANDARD
 70
     0
 40
0.0
 41
0.7
 50
0.0
 71
     0
 42
0.2
  3
txt
  4

  0
STYLE
  5
6CD
330
3
100
AcDbSymbolTableRecord
100
AcDbTextStyleTableRecord
  2

 70
     1
 40
0.0
 41
1.0
 50
0.0
 71
     0
 42
0.2
  3
genltshp.shx
  4

  0
STYLE
  5
6E1
330
3
100
AcDbSymbolTableRecord
100
AcDbTextStyleTableRecord
  2
ACDINGDT
 70
     0
 40
0.0
 41
1.0
 50
0.0
 71
     0
 42
0.2
  3
amgdt.shx
  4

  0
ENDTAB
  0
TABLE
  2
VIEW
  5
6
330
0
100
AcDbSymbolTable
 70
     0
  0
ENDTAB
  0
TABLE
  2
UCS
  5
7
330
0
100
AcDbSymbolTable
 70
     0
  0
ENDTAB
  0
TABLE
  2
APPID
  5
9
330
0
100
AcDbSymbolTable
 70
    18
  0
APPID
  5
20D
330
9
100
AcDbSymbolTableRecord
100
AcDbRegAppTableRecord
  2
ACAD
 70
     0
  0
APPID
  5
655
330
9
100
AcDbSymbolTableRecord
100
AcDbRegAppTableRecord
  2
MCAD_NO_VIS
 70
     0
  0
APPID
  5
656
330
9
100
AcDbSymbolTableRecord
100
AcDbRegAppTableRecord
  2
ACAD_TEMP_GRAPHIC
 70
     0
  0
APPID
  5
682
330
9
100
AcDbSymbolTableRecord
100
AcDbRegAppTableRecord
  2
AD_DRAW
 70
     0
  0
APPID
  5
685
330
9
100
AcDbSymbolTableRecord
100
AcDbRegAppTableRecord
  2
ACATTRIBSERVICES
 70
     0
  0
APPID
  5
6A5
330
9
100
AcDbSymbolTableRecord
100
AcDbRegAppTableRecord
  2
DESIGNERASSEMBLIES
 70
     0
  0
APPID
  5
6AB
330
9
100
AcDbSymbolTableRecord
100
AcDbRegAppTableRecord
  2
ACADM_DIM_EDIT
 70
     0
  0
APPID
  5
6AC
330
9
100
AcDbSymbolTableRecord
100
AcDbRegAppTableRecord
  2
AMDT_DM_ADJ
 70
     0
  0
APPID
  5
6C3
330
9
100
AcDbSymbolTableRecord
100
AcDbRegAppTableRecord
  2
ACAD_DSTYLE_DIMJAG
 70
     0
  0
APPID
  5
6C4
330
9
100
AcDbSymbolTableRecord
100
AcDbRegAppTableRecord
  2
ACAD_DSTYLE_DIMBREAK
 70
     0
  0
APPID
  5
6F3
330
9
100
AcDbSymbolTableRecord
100
AcDbRegAppTableRecord
  2
AcAecLayerStandard
 70
     0
  0
APPID
  5
70F
330
9
100
AcDbSymbolTableRecord
100
AcDbRegAppTableRecord
  2
GENIUS_GENDTOL_13
 70
     0
  0
APPID
  5
710
330
9
100
AcDbSymbolTableRecord
100
AcDbRegAppTableRecord
  2
ACAD_DSTYLE_DIMINSPECT
 70
     0
  0
APPID
  5
7AD
330
9
100
AcDbSymbolTableRecord
100
AcDbRegAppTableRecord
  2
ACAD_DSTYLE_DIMJOGGED_JOGANGLE_SYMBOL
 70
     0
  0
APPID
  5
851
330
9
100
AcDbSymbolTableRecord
100
AcDbRegAppTableRecord
  2
ACAD_MLEADERVER
 70
     0
  0
APPID
  5
852
330
9
100
AcDbSymbolTableRecord
100
AcDbRegAppTableRecord
  2
ACAD_DSTYLE_DIM_LINETYPE
 70
     0
  0
APPID
  5
853
330
9
100
AcDbSymbolTableRecord
100
AcDbRegAppTableRecord
  2
ACAD_DSTYLE_DIM_EXT1_LINETYPE
 70
     0
  0
APPID
  5
854
330
9
100
AcDbSymbolTableRecord
100
AcDbRegAppTableRecord
  2
ACAD_DSTYLE_DIM_EXT2_LINETYPE
 70
     0
  0
ENDTAB
  0
TABLE
  2
DIMSTYLE
  5
A
330
0
100
AcDbSymbolTable
 70
    26
100
AcDbDimStyleTable
 71
     2
340
7AC
340
236
  0
DIMSTYLE
105
236
330
A
100
AcDbSymbolTableRecord
100
AcDbDimStyleTableRecord
  2
STANDARD
 70
     0
 41
3.5
 42
1.5
 44
1.5
 47
0.005
 48
0.005
 71
     1
 73
     0
 74
     0
 77
     1
 78
     8
140
3.5
147
0.625
178
     5
271
     3
272
     3
284
     8
340
11
341
210
342
210
343
210
344
210
  0
DIMSTYLE
105
6C2
102
{ACAD_REACTORS
330
6B1
102
}
330
A
100
AcDbSymbolTableRecord
100
AcDbDimStyleTableRecord
  2
AM_DIN
 70
     0
  4
"
 41
3.5
 42
1.0
 43
10.0
 44
1.0
 47
0.1
 48
0.1
 73
     0
 74
     0
 77
     1
 78
     8
 79
     2
140
3.5
141
0.0
143
0.0393701
146
0.71
147
1.5
172
     1
176
   256
177
   256
178
     2
271
     2
272
     3
274
     4
283
     0
284
     8
340
11
371
    -1
372
    -1
1001
ACAD_DSTYLE_DIMJAG
1070
   388
1040
1.5
1001
ACAD_DSTYLE_DIMBREAK
1070
   391
1040
3.75
1001
ACAD_DSTYLE_DIMJOGGED_JOGANGLE_SYMBOL
1070
   384
1040
1.570796326794896
1001
ACAD_DSTYLE_DIM_LINETYPE
1070
   380
1005
14
1001
ACAD_DSTYLE_DIM_EXT1_LINETYPE
1070
   381
1005
14
1001
ACAD_DSTYLE_DIM_EXT2_LINETYPE
1070
   382
1005
14
  0
DIMSTYLE
105
6D4
330
A
100
AcDbSymbolTableRecord
100
AcDbDimStyleTableRecord
  2
AM_DIN$3
 70
     0
  4
"
 41
3.5
 42
1.0
 43
10.0
 44
1.0
 47
0.1
 48
0.1
 73
     0
 77
     1
 78
     8
 79
     2
140
3.5
141
0.0
143
0.0393701
146
0.71
147
1.5
176
   256
177
   256
178
     2
271
     2
272
     3
274
     4
283
     0
284
     8
288
     1
289
     0
340
11
371
    -1
372
    -1
1001
ACAD_DSTYLE_DIMBREAK
1070
   391
1040
3.75
1001
ACAD_DSTYLE_DIMJAG
1070
   388
1040
1.5
1001
ACAD_DSTYLE_DIMJOGGED_JOGANGLE_SYMBOL
1070
   384
1040
1.570796326794896
1001
ACAD_DSTYLE_DIM_LINETYPE
1070
   380
1005
14
1001
ACAD_DSTYLE_DIM_EXT1_LINETYPE
1070
   381
1005
14
1001
ACAD_DSTYLE_DIM_EXT2_LINETYPE
1070
   382
1005
14
  0
DIMSTYLE
105
6D5
330
A
100
AcDbSymbolTableRecord
100
AcDbDimStyleTableRecord
  2
AM_DIN$4
 70
     0
  4
"
 41
3.5
 42
1.0
 43
10.0
 44
1.0
 47
0.1
 48
0.1
 73
     0
 77
     1
 78
     8
 79
     2
140
3.5
141
0.0
143
0.0393701
146
0.71
147
1.5
176
   256
177
   256
178
     2
271
     2
272
     3
274
     4
283
     0
284
     8
288
     1
289
     0
340
11
371
    -1
372
    -1
1001
ACAD_DSTYLE_DIMBREAK
1070
   391
1040
3.75
1001
ACAD_DSTYLE_DIMJAG
1070
   388
1040
1.5
1001
ACAD_DSTYLE_DIMJOGGED_JOGANGLE_SYMBOL
1070
   384
1040
1.570796326794896
1001
ACAD_DSTYLE_DIM_LINETYPE
1070
   380
1005
14
1001
ACAD_DSTYLE_DIM_EXT1_LINETYPE
1070
   381
1005
14
1001
ACAD_DSTYLE_DIM_EXT2_LINETYPE
1070
   382
1005
14
  0
DIMSTYLE
105
6D6
330
A
100
AcDbSymbolTableRecord
100
AcDbDimStyleTableRecord
  2
AM_DIN$6
 70
     0
  4
"
 41
3.5
 42
1.0
 43
10.0
 44
1.0
 47
0.1
 48
0.1
 73
     0
 74
     0
 78
     8
 79
     2
140
3.5
141
0.0
143
0.0393701
146
0.71
147
1.5
172
     1
176
   256
177
   256
178
     2
271
     2
272
     3
274
     4
283
     0
284
     8
340
11
371
    -1
372
    -1
1001
ACAD_DSTYLE_DIMBREAK
1070
   391
1040
3.75
1001
ACAD_DSTYLE_DIMJAG
1070
   388
1040
1.5
1001
ACAD_DSTYLE_DIMJOGGED_JOGANGLE_SYMBOL
1070
   384
1040
1.570796326794896
1001
ACAD_DSTYLE_DIM_LINETYPE
1070
   380
1005
14
1001
ACAD_DSTYLE_DIM_EXT1_LINETYPE
1070
   381
1005
14
1001
ACAD_DSTYLE_DIM_EXT2_LINETYPE
1070
   382
1005
14
  0
DIMSTYLE
105
6D7
330
A
100
AcDbSymbolTableRecord
100
AcDbDimStyleTableRecord
  2
AM_DIN$7
 70
     0
  4
"
 41
3.5
 42
1.0
 43
10.0
 44
1.0
 47
0.1
 48
0.1
 73
     0
 74
     0
 77
     1
 78
     8
 79
     2
140
3.5
141
0.0
143
0.0393701
146
0.71
147
1.5
172
     1
176
   256
177
   256
178
     2
271
     2
272
     3
274
     4
283
     0
284
     8
340
11
371
    -1
372
    -1
1001
ACAD_DSTYLE_DIMBREAK
1070
   391
1040
3.75
1001
ACAD_DSTYLE_DIMJAG
1070
   388
1040
1.5
1001
ACAD_DSTYLE_DIMJOGGED_JOGANGLE_SYMBOL
1070
   384
1040
1.570796326794896
1001
ACAD_DSTYLE_DIM_LINETYPE
1070
   380
1005
14
1001
ACAD_DSTYLE_DIM_EXT1_LINETYPE
1070
   381
1005
14
1001
ACAD_DSTYLE_DIM_EXT2_LINETYPE
1070
   382
1005
14
  0
DIMSTYLE
105
6D8
330
A
100
AcDbSymbolTableRecord
100
AcDbDimStyleTableRecord
  2
AM_DIN$SF
 70
     0
  4
"
 41
3.5
 42
1.0
 43
10.0
 44
1.0
 47
0.1
 48
0.1
 73
     0
 74
     0
 75
     1
 76
     1
 77
     1
 78
     8
 79
     2
140
3.5
141
0.0
143
0.0393701
146
0.71
147
1.5
172
     1
176
   256
177
   256
178
     2
271
     2
272
     3
274
     4
283
     0
284
     8
340
11
371
    -1
372
    -1
1001
ACAD_DSTYLE_DIMBREAK
1070
   391
1040
3.75
1001
ACAD_DSTYLE_DIMJAG
1070
   388
1040
1.5
1001
ACAD_DSTYLE_DIMJOGGED_JOGANGLE_SYMBOL
1070
   384
1040
1.570796326794896
1001
ACAD_DSTYLE_DIM_LINETYPE
1070
   380
1005
14
1001
ACAD_DSTYLE_DIM_EXT1_LINETYPE
1070
   381
1005
14
1001
ACAD_DSTYLE_DIM_EXT2_LINETYPE
1070
   382
1005
14
  0
DIMSTYLE
105
6DD
330
A
100
AcDbSymbolTableRecord
100
AcDbDimStyleTableRecord
  2
AM_DIN$SH
 70
     0
  4
"
 41
3.5
 42
1.0
 43
10.0
 44
1.0
 47
0.1
 48
0.1
 73
     0
 74
     0
 75
     1
 76
     1
 77
     1
 78
     8
 79
     2
140
3.5
141
0.0
143
0.0393701
144
2.0
146
0.71
147
1.5
172
     1
173
     1
176
   256
177
   256
178
     2
271
     2
272
     3
274
     4
283
     0
284
     8
340
11
343
6D9
371
    -1
372
    -1
1001
ACAD_DSTYLE_DIMBREAK
1070
   391
1040
3.75
1001
ACAD_DSTYLE_DIMJAG
1070
   388
1040
1.5
1001
ACAD_DSTYLE_DIMJOGGED_JOGANGLE_SYMBOL
1070
   384
1040
1.570796326794896
1001
ACAD_DSTYLE_DIM_LINETYPE
1070
   380
1005
14
1001
ACAD_DSTYLE_DIM_EXT1_LINETYPE
1070
   381
1005
14
1001
ACAD_DSTYLE_DIM_EXT2_LINETYPE
1070
   382
1005
14
  0
DIMSTYLE
105
7AC
102
{ACAD_REACTORS
330
7AF
330
6F6
330
76E
330
3EC
102
}
330
A
100
AcDbSymbolTableRecord
100
AcDbDimStyleTableRecord
  2
883N99122_001_00149479900
 70
     0
 40
2.0
 41
3.149999999999999
 42
0.0
 43
3.75
 44
2.0
 73
     0
 74
     0
 77
     1
 78
     8
 79
     2
140
3.5
141
0.0
143
0.03937007874016
145
2.0
147
2.0
171
     3
172
     1
173
     1
176
     3
177
     3
178
     2
179
     2
271
     2
272
     2
274
     3
283
     0
284
     8
340
11
341
7A7
  0
ENDTAB
  0
TABLE
  2
BLOCK_RECORD
  5
1
330
0
100
AcDbSymbolTable
 70
    47
  0
BLOCK_RECORD
  5
20E
330
1
100
AcDbSymbolTableRecord
100
AcDbBlockTableRecord
  2
*Model_Space
340
604
  0
BLOCK_RECORD
  5
20F
330
1
100
AcDbSymbolTableRecord
100
AcDbBlockTableRecord
  2
*Paper_Space
340
605
  0
BLOCK_RECORD
  5
210
330
1
100
AcDbSymbolTableRecord
100
AcDbBlockTableRecord
  2
_FILLED
340
0
  0
BLOCK_RECORD
  5
221
330
1
100
AcDbSymbolTableRecord
100
AcDbBlockTableRecord
  2
*D17
340
0
  0
BLOCK_RECORD
  5
6D9
330
1
100
AcDbSymbolTableRecord
100
AcDbBlockTableRecord
  2
GENAXEH
340
0
  0
BLOCK_RECORD
  5
6F8
330
1
100
AcDbSymbolTableRecord
100
AcDbBlockTableRecord
  2
*D40
340
0
  0
BLOCK_RECORD
  5
76F
330
1
100
AcDbSymbolTableRecord
100
AcDbBlockTableRecord
  2
*D42
340
0
  0
BLOCK_RECORD
  5
7A7
330
1
100
AcDbSymbolTableRecord
100
AcDbBlockTableRecord
  2
_None
340
0
  0
ENDTAB
  0
ENDSEC
  0
SECTION
  2
BLOCKS
  0
BLOCK
  5
20
330
20E
100
AcDbEntity
  8
0
100
AcDbBlockBegin
  2
*Model_Space
 70
     0
 10
0.0
 20
0.0
 30
0.0
  3
*Model_Space
  1

  0
ENDBLK
  5
21
330
20E
100
AcDbEntity
  8
0
100
AcDbBlockEnd
  0
BLOCK
  5
1C
330
20F
100
AcDbEntity
 67
     1
  8
0
100
AcDbBlockBegin
  2
*Paper_Space
 70
     0
 10
0.0
 20
0.0
 30
0.0
  3
*Paper_Space
  1

  0
ENDBLK
  5
1D
330
20F
100
AcDbEntity
 67
     1
  8
0
100
AcDbBlockEnd
  0
BLOCK
  5
26F
330
210
100
AcDbEntity
  8
0
100
AcDbBlockBegin
  2
_FILLED
 70
     0
 10
0.0
 20
0.0
 30
0.0
  3
_FILLED
  1

  0
SOLID
  5
270
330
210
100
AcDbEntity
  8
0
  6
ByBlock
 62
     0
100
AcDbTrace
 10
0.0
 20
0.0
 30
0.0
 11
-1.0
 21
0.125
 31
0.0
 12
-1.0
 22
-0.125
 32
0.0
 13
-1.0
 23
-0.125
 33
0.0
  0
ENDBLK
  5
271
330
210
100
AcDbEntity
  8
0
  6
ByBlock
 62
     0
100
AcDbBlockEnd
  0
BLOCK
  5
30A
330
221
100
AcDbEntity
  8
ZEICHNUNGSBEMASSUNGEN
  6
Continuous
 62
     2
100
AcDbBlockBegin
  2
*D17
 70
     1
 10
0.0
 20
0.0
 30
0.0
  3
*D17
  1

  0
LINE
  5
801
330
221
100
AcDbEntity
  8
P-0000
  6
Continuous
 62
     3
370
    -2
100
AcDbLine
 10
-283.2591314967
 20
435.0217427702999
 30
0.0
 11
-330.7661158674999
 21
435.0217427702999
 31
0.0
  0
LINE
  5
802
330
221
100
AcDbEntity
  8
P-0000
  6
Continuous
 62
     3
370
    -2
100
AcDbLine
 10
-286.2591314967001
 20
454.0216978379
 30
0.0
 11
-330.7661158674999
 21
454.0216978379
 31
0.0
  0
LINE
  5
803
330
221
100
AcDbEntity
  8
P-0000
  6
Continuous
 62
     3
370
    -2
100
AcDbLine
 10
-326.7661158674999
 20
421.0217427702999
 30
0.0
 11
-326.7661158674999
 21
407.0217427702999
 31
0.0
  0
LINE
  5
804
330
221
100
AcDbEntity
  8
P-0000
  6
Continuous
 62
     3
370
    -2
100
AcDbLine
 10
-326.7661158674999
 20
468.0216978379
 30
0.0
 11
-326.7661158674999
 21
482.0216978379001
 31
0.0
  0
LINE
  5
805
330
221
100
AcDbEntity
  8
P-0000
  6
Continuous
 62
     3
370
    -2
100
AcDbLine
 10
-326.7661158674999
 20
435.0217427702999
 30
0.0
 11
-326.7661158674999
 21
454.0216978379
 31
0.0
  0
SOLID
  5
806
330
221
100
AcDbEntity
  8
P-0000
  6
Continuous
 62
     3
100
AcDbTrace
 10
-329.0994492008333
 20
421.0217427702999
 30
0.0
 11
-324.4327825341666
 21
421.0217427702999
 31
0.0
 12
-326.7661158674999
 22
435.0217427702999
 32
0.0
 13
-326.7661158674999
 23
435.0217427702999
 33
0.0
  0
SOLID
  5
807
330
221
100
AcDbEntity
  8
P-0000
  6
Continuous
 62
     3
100
AcDbTrace
 10
-329.0994492008333
 20
468.0216978379
 30
0.0
 11
-324.4327825341666
 21
468.0216978379
 31
0.0
 12
-326.7661158674999
 22
454.0216978379
 32
0.0
 13
-326.7661158674999
 23
454.0216978379
 33
0.0
  0
MTEXT
  5
808
330
221
100
AcDbEntity
  8
P-0000
  6
Continuous
 62
     2
100
AcDbMText
 10
-344.7661158675
 20
444.5217203040999
 30
0.0
 40
14.0
 41
0.0
 71
     2
 72
     1
  1
19
 11
0.0000000000000001
 21
1.0
 31
0.0
 73
     1
 44
1.0
1001
ACAD
1000
MTEXTBEGIN
1070
    73
1070
     1
1070
    44
1040
1.0
1070
    74
1070
     0
1000
MTEXTEND
  0
POINT
  5
809
330
221
100
AcDbEntity
  8
Defpoints
  6
Continuous
 62
     0
100
AcDbPoint
 10
-283.2591314967
 20
435.0217427702999
 30
0.0
  0
POINT
  5
80A
330
221
100
AcDbEntity
  8
Defpoints
  6
Continuous
 62
     0
100
AcDbPoint
 10
-286.2591314967001
 20
454.0216978379
 30
0.0
  0
POINT
  5
80B
330
221
100
AcDbEntity
  8
Defpoints
  6
Continuous
 62
     0
100
AcDbPoint
 10
-326.7661158674999
 20
454.0216978379
 30
0.0
  0
ENDBLK
  5
314
330
221
100
AcDbEntity
  8
0
  6
ByBlock
 62
     0
100
AcDbBlockEnd
  0
BLOCK
  5
6DB
330
6D9
100
AcDbEntity
  8
0
100
AcDbBlockBegin
  2
GENAXEH
 70
     0
 10
0.0
 20
0.0
 30
0.0
  3
GENAXEH
  1

  0
LINE
  5
6DA
330
6D9
100
AcDbEntity
  8
0
100
AcDbLine
 10
-1.0
 20
0.0
 30
0.0
 11
1.0
 21
0.0
 31
0.0
  0
ENDBLK
  5
6DC
330
6D9
100
AcDbEntity
  8
0
100
AcDbBlockEnd
  0
BLOCK
  5
6F9
330
6F8
100
AcDbEntity
  8
0
100
AcDbBlockBegin
  2
*D40
 70
     1
 10
0.0
 20
0.0
 30
0.0
  3
*D40
  1

  0
LINE
  5
7CE
330
6F8
100
AcDbEntity
  8
P-0000
  6
Continuous
 62
     3
370
    -2
100
AcDbLine
 10
-289.2591314967
 20
263.0556486101
 30
0.0
 11
-289.2591314967
 21
332.3412661862424
 31
0.0
  0
LINE
  5
7CF
330
6F8
100
AcDbEntity
  8
P-0000
  6
Continuous
 62
     3
370
    -2
100
AcDbLine
 10
404.7408685032999
 20
263.0556486101
 30
0.0
 11
404.7408685032999
 21
332.3412661862424
 31
0.0
  0
LINE
  5
7D0
330
6F8
100
AcDbEntity
  8
P-0000
  6
Continuous
 62
     3
370
    -2
100
AcDbLine
 10
-275.2591314967
 20
328.3412661862424
 30
0.0
 11
390.7408685033
 21
328.3412661862424
 31
0.0
  0
SOLID
  5
7D1
330
6F8
100
AcDbEntity
  8
P-0000
  6
Continuous
 62
     3
100
AcDbTrace
 10
-275.2591314967
 20
330.6745995195757
 30
0.0
 11
-275.2591314967
 21
326.0079328529091
 31
0.0
 12
-289.2591314967
 22
328.3412661862424
 32
0.0
 13
-289.2591314967
 23
328.3412661862424
 33
0.0
  0
SOLID
  5
7D2
330
6F8
100
AcDbEntity
  8
P-0000
  6
Continuous
 62
     3
100
AcDbTrace
 10
390.7408685033
 20
330.6745995195757
 30
0.0
 11
390.7408685033
 21
326.0079328529091
 31
0.0
 12
404.7408685032999
 22
328.3412661862424
 32
0.0
 13
404.7408685032999
 23
328.3412661862424
 33
0.0
  0
MTEXT
  5
7D3
330
6F8
100
AcDbEntity
  8
P-0000
  6
Continuous
 62
     2
100
AcDbMText
 10
57.74086850329999
 20
339.3412661862424
 30
0.0
 40
14.0
 41
0.0
 71
     5
 72
     1
  1
694
 73
     1
 44
1.0
1001
ACAD
1000
MTEXTBEGIN
1070
    73
1070
     1
1070
    44
1040
1.0
1070
    74
1070
     0
1000
MTEXTEND
  0
POINT
  5
7D4
330
6F8
100
AcDbEntity
  8
Defpoints
  6
Continuous
 62
     0
100
AcDbPoint
 10
-289.2591314967
 20
263.0556486101
 30
0.0
  0
POINT
  5
7D5
330
6F8
100
AcDbEntity
  8
Defpoints
  6
Continuous
 62
     0
100
AcDbPoint
 10
404.7408685032999
 20
263.0556486101
 30
0.0
  0
POINT
  5
7D6
330
6F8
100
AcDbEntity
  8
Defpoints
  6
Continuous
 62
     0
100
AcDbPoint
 10
404.7408685032999
 20
328.3412661862424
 30
0.0
  0
ENDBLK
  5
6FA
330
6F8
100
AcDbEntity
  8
0
100
AcDbBlockEnd
  0
BLOCK
  5
770
330
76F
100
AcDbEntity
  8
0
100
AcDbBlockBegin
  2
*D42
 70
     1
 10
0.0
 20
0.0
 30
0.0
  3
*D42
  1

  0
LINE
  5
7D7
330
76F
100
AcDbEntity
  8
P-0000
  6
Continuous
 62
     3
370
    -2
100
AcDbLine
 10
-289.2591314967
 20
263.0556486101
 30
0.0
 11
-317.6327069699971
 21
263.0556486101
 31
0.0
  0
LINE
  5
7D8
330
76F
100
AcDbEntity
  8
P-0000
  6
Continuous
 62
     3
370
    -2
100
AcDbLine
 10
-289.2591314967
 20
196.5556486100999
 30
0.0
 11
-317.6327069699971
 21
196.5556486100999
 31
0.0
  0
LINE
  5
7D9
330
76F
100
AcDbEntity
  8
P-0000
  6
Continuous
 62
     3
370
    -2
100
AcDbLine
 10
-313.6327069699971
 20
249.0556486101
 30
0.0
 11
-313.6327069699971
 21
210.5556486101
 31
0.0
  0
SOLID
  5
7DA
330
76F
100
AcDbEntity
  8
P-0000
  6
Continuous
 62
     3
100
AcDbTrace
 10
-315.9660403033304
 20
249.0556486101
 30
0.0
 11
-311.2993736366638
 21
249.0556486101
 31
0.0
 12
-313.6327069699971
 22
263.0556486101
 32
0.0
 13
-313.6327069699971
 23
263.0556486101
 33
0.0
  0
SOLID
  5
7DB
330
76F
100
AcDbEntity
  8
P-0000
  6
Continuous
 62
     3
100
AcDbTrace
 10
-315.9660403033304
 20
210.5556486101
 30
0.0
 11
-311.2993736366638
 21
210.5556486101
 31
0.0
 12
-313.6327069699971
 22
196.5556486100999
 32
0.0
 13
-313.6327069699971
 23
196.5556486100999
 33
0.0
  0
MTEXT
  5
7DC
330
76F
100
AcDbEntity
  8
P-0000
  6
Continuous
 62
     2
100
AcDbMText
 10
-324.6327069699972
 20
229.8056486101
 30
0.0
 40
14.0
 41
0.0
 71
     5
 72
     1
  1
66.5
 11
0.0000000000000001
 21
1.0
 31
0.0
 73
     1
 44
1.0
1001
ACAD
1000
MTEXTBEGIN
1070
    73
1070
     1
1070
    44
1040
1.0
1070
    74
1070
     0
1000
MTEXTEND
  0
POINT
  5
7DD
330
76F
100
AcDbEntity
  8
Defpoints
  6
Continuous
 62
     0
100
AcDbPoint
 10
-289.2591314967
 20
263.0556486101
 30
0.0
  0
POINT
  5
7DE
330
76F
100
AcDbEntity
  8
Defpoints
  6
Continuous
 62
     0
100
AcDbPoint
 10
-289.2591314967
 20
196.5556486100999
 30
0.0
  0
POINT
  5
7DF
330
76F
100
AcDbEntity
  8
Defpoints
  6
Continuous
 62
     0
100
AcDbPoint
 10
-313.6327069699971
 20
196.5556486100999
 30
0.0
  0
ENDBLK
  5
771
330
76F
100
AcDbEntity
  8
0
100
AcDbBlockEnd
  0
BLOCK
  5
7A8
330
7A7
100
AcDbEntity
  8
0
100
AcDbBlockBegin
  2
_None
 70
     0
 10
0.0
 20
0.0
 30
0.0
  3
_None
  1

  0
ENDBLK
  5
7A9
330
7A7
100
AcDbEntity
  8
0
100
AcDbBlockEnd
  0
ENDSEC
  0
SECTION
  2
ENTITIES
  0
DIMENSION
  5
3EC
330
20E
100
AcDbEntity
  8
P-0000
  6
Continuous
100
AcDbDimension
  2
*D17
 10
-326.7661158674999
 20
454.0216978379
 30
0.0
 11
-326.7661158675001
 21
444.5217203040999
 31
0.0
 70
   160
 71
     2
 42
18.99995506760012
  3
883N99122_001_00149479900
100
AcDbAlignedDimension
 13
-283.2591314967
 23
435.0217427702999
 33
0.0
 14
-286.2591314967001
 24
454.0216978379
 34
0.0
 50
90.0
100
AcDbRotatedDimension
1001
ACAD_DSTYLE_DIMINSPECT
1070
   396
1000
100%
1070
   395
1000

1070
   394
1070
    33
1070
   393
1070
     0
1001
ACAD
1000
DSTYLE
1002
{
1070
    41
1040
7.0
1070
   140
1040
7.0
1070
   271
1070
     0
1070
   288
1070
     1
1002
}
  0
LINE
  5
52A
330
20E
100
AcDbEntity
  8
0
  6
Continuous
 62
     3
100
AcDbLine
 10
-289.2591314967
 20
453.0217427702999
 30
0.0
 11
-289.2591314967
 21
444.5217427702999
 31
0.0
  0
LINE
  5
52B
330
20E
100
AcDbEntity
  8
0
  6
Continuous
 62
     3
100
AcDbLine
 10
-288.2591314967001
 20
454.0216978379
 30
0.0
 11
-288.2591314967001
 21
440.0217427702999
 31
0.0
  0
LINE
  5
52C
330
20E
100
AcDbEntity
  8
0
  6
Continuous
 62
     7
100
AcDbLine
 10
-288.2591314967001
 20
440.0217427702999
 30
0.0
 11
-288.2591314967001
 21
437.0217427702999
 31
0.0
  0
LINE
  5
52D
330
20E
100
AcDbEntity
  8
RUNDUNGEN
  6
Continuous
 62
     7
100
AcDbLine
 10
-288.2591314967001
 20
435.0982534726999
 30
0.0
 11
-288.2591314967001
 21
437.0217427702999
 31
0.0
  0
LINE
  5
52E
330
20E
100
AcDbEntity
  8
0
  6
Continuous
 62
     7
100
AcDbLine
 10
-287.2591314967
 20
435.0217427702999
 30
0.0
 11
-287.2591314967
 21
437.0217427702999
 31
0.0
  0
LINE
  5
52F
330
20E
100
AcDbEntity
  8
0
  6
Continuous
 62
     3
100
AcDbLine
 10
-286.2591314967001
 20
454.0216978379
 30
0.0
 11
-286.2591314967001
 21
436.0217427702999
 31
0.0
  0
LINE
  5
530
330
20E
100
AcDbEntity
  8
BEZUGSACHSEN
  6
CENTER
 62
     7
100
AcDbLine
 10
-263.2591314967001
 20
439.7717427702999
 30
0.0
 11
-263.2591314967001
 21
431.0217427702999
 31
0.0
  0
LINE
  5
531
330
20E
100
AcDbEntity
  8
BEZUGSACHSEN
  6
CENTER
 62
     7
100
AcDbLine
 10
-263.2591314967001
 20
439.7717427702999
 30
0.0
 11
-263.2591314967001
 21
448.5217427702999
 31
0.0
  0
LINE
  5
532
330
20E
100
AcDbEntity
  8
RUNDUNGEN
  6
Continuous
 62
     7
100
AcDbLine
 10
-265.5368308949
 20
438.2345388251001
 30
0.0
 11
-261.4061293901
 21
441.4617965382999
 31
0.0
  0
LINE
  5
533
330
20E
100
AcDbEntity
  8
RUNDUNGEN
  6
Continuous
 62
     7
100
AcDbLine
 10
-154.9011077759
 20
437.0217427702999
 30
0.0
 11
-155.9014589827
 21
437.8033027896999
 31
0.0
  0
LINE
  5
534
330
20E
100
AcDbEntity
  8
RUNDUNGEN
  6
Continuous
 62
     7
100
AcDbLine
 10
-20.53110777590007
 20
437.0217427702999
 30
0.0
 11
-24.36869085870001
 21
440.0199912733
 31
0.0
  0
LINE
  5
535
330
20E
100
AcDbEntity
  8
RUNDUNGEN
  6
Continuous
 62
     7
100
AcDbLine
 10
1.650860943099985
 20
437.0217427702999
 30
0.0
 11
3.457147211299968
 21
438.4329682688998
 31
0.0
  0
LINE
  5
536
330
20E
100
AcDbEntity
  8
TEIL_STARTBEZUEGE
  6
CENTER
 62
     7
100
AcDbLine
 10
57.74086850330002
 20
418.9187796904999
 30
0.0
 11
57.74086850330002
 21
464.5217427702999
 31
0.0
  0
LINE
  5
537
330
20E
100
AcDbEntity
  8
0
  6
Continuous
 62
     7
100
AcDbLine
 10
402.7408685033
 20
435.0217427702999
 30
0.0
 11
398.7408685033
 21
435.0217427702999
 31
0.0
  0
LINE
  5
538
330
20E
100
AcDbEntity
  8
0
  6
Continuous
 62
     7
100
AcDbLine
 10
269.1109193108999
 20
435.0217427702999
 30
0.0
 11
254.7396122139001
 21
435.0217427702999
 31
0.0
  0
LINE
  5
539
330
20E
100
AcDbEntity
  8
0
  6
Continuous
 62
     7
100
AcDbLine
 10
134.7409193108999
 20
435.0217427702999
 30
0.0
 11
115.1188338562999
 21
435.0217427702999
 31
0.0
  0
LINE
  5
53A
330
20E
100
AcDbEntity
  8
0
  6
Continuous
 62
     7
100
AcDbLine
 10
0.3709193108999784
 20
435.0217427702999
 30
0.0
 11
-19.2511661437
 21
435.0217427702999
 31
0.0
  0
LINE
  5
53B
330
20E
100
AcDbEntity
  8
0
  6
Continuous
 62
     7
100
AcDbLine
 10
-139.2578752074999
 20
435.0217427702999
 30
0.0
 11
-153.6211661437
 21
435.0217427702999
 31
0.0
  0
LINE
  5
53C
330
20E
100
AcDbEntity
  8
0
  6
Continuous
 62
     7
100
AcDbLine
 10
-283.2591314967
 20
435.0217427702999
 30
0.0
 11
-287.2591314967
 21
435.0217427702999
 31
0.0
  0
LINE
  5
53D
330
20E
100
AcDbEntity
  8
RUNDUNGEN
  6
Continuous
 62
     7
100
AcDbLine
 10
-288.1826207943
 20
435.0217427702999
 30
0.0
 11
-287.2591314967
 21
435.0217427702999
 31
0.0
  0
LINE
  5
53E
330
20E
100
AcDbEntity
  8
0
  6
Continuous
 62
     3
100
AcDbLine
 10
-283.2591314967
 20
435.0217427702999
 30
0.0
 11
-238.7566189181
 21
435.0217427702999
 31
0.0
  0
LINE
  5
53F
330
20E
100
AcDbEntity
  8
0
  6
Continuous
 62
     3
100
AcDbLine
 10
-139.2578752074999
 20
435.0217427702999
 30
0.0
 11
-74.25787520749998
 21
435.0217427702999
 31
0.0
  0
LINE
  5
540
330
20E
100
AcDbEntity
  8
0
  6
Continuous
 62
     3
100
AcDbLine
 10
25.24086850330002
 20
435.0217427702999
 30
0.0
 11
90.24086850330002
 21
435.0217427702999
 31
0.0
  0
LINE
  5
541
330
20E
100
AcDbEntity
  8
0
  6
Continuous
 62
     3
100
AcDbLine
 10
189.7396122139
 20
435.0217427702999
 30
0.0
 11
254.7396122139001
 21
435.0217427702999
 31
0.0
  0
LINE
  5
542
330
20E
100
AcDbEntity
  8
0
  6
Continuous
 62
     3
100
AcDbLine
 10
354.2383559245
 20
435.0217427702999
 30
0.0
 11
398.7408685033
 21
435.0217427702999
 31
0.0
  0
LINE
  5
543
330
20E
100
AcDbEntity
  8
RUNDUNGEN
  6
Continuous
 62
     7
100
AcDbLine
 10
402.7408685033
 20
435.0217427702999
 30
0.0
 11
403.6657238094999
 21
435.0217427702999
 31
0.0
  0
LINE
  5
544
330
20E
100
AcDbEntity
  8
0
  6
Continuous
 62
     9
100
AcDbLine
 10
403.7408685033
 20
437.0217427702999
 30
0.0
 11
402.7408685033
 21
437.0217427702999
 31
0.0
  0
LINE
  5
545
330
20E
100
AcDbEntity
  8
0
  6
Continuous
 62
     9
100
AcDbLine
 10
270.3908609431
 20
437.0217427702999
 30
0.0
 11
265.9507519841
 21
437.0217427702999
 31
0.0
  0
LINE
  5
546
330
20E
100
AcDbEntity
  8
0
  6
Continuous
 62
     9
100
AcDbLine
 10
136.0208609430999
 20
437.0217427702999
 30
0.0
 11
113.8388922240999
 21
437.0217427702999
 31
0.0
  0
LINE
  5
547
330
20E
100
AcDbEntity
  8
0
  6
Continuous
 62
     9
100
AcDbLine
 10
1.650860943099985
 20
437.0217427702999
 30
0.0
 11
-20.53110777590007
 21
437.0217427702999
 31
0.0
  0
LINE
  5
548
330
20E
100
AcDbEntity
  8
0
  6
Continuous
 62
     9
100
AcDbLine
 10
-150.4690149775
 20
437.0217427702999
 30
0.0
 11
-154.9011077759
 21
437.0217427702999
 31
0.0
  0
LINE
  5
549
330
20E
100
AcDbEntity
  8
0
  6
Continuous
 62
     9
100
AcDbLine
 10
-287.2591314967
 20
437.0217427702999
 30
0.0
 11
-288.2591314967001
 21
437.0217427702999
 31
0.0
  0
LINE
  5
54A
330
20E
100
AcDbEntity
  8
BEZUGSACHSEN
  6
CENTER
 62
     7
100
AcDbLine
 10
378.7408685033
 20
439.7717427702999
 30
0.0
 11
369.9908685033
 21
439.7717427702999
 31
0.0
  0
LINE
  5
54B
330
20E
100
AcDbEntity
  8
BEZUGSACHSEN
  6
CENTER
 62
     7
100
AcDbLine
 10
-263.2591314967001
 20
439.7717427702999
 30
0.0
 11
-272.0091314967
 21
439.7717427702999
 31
0.0
  0
LINE
  5
54C
330
20E
100
AcDbEntity
  8
BEZUGSACHSEN
  6
CENTER
 62
     7
100
AcDbLine
 10
-263.2591314967001
 20
439.7717427702999
 30
0.0
 11
-254.5091314967
 21
439.7717427702999
 31
0.0
  0
LINE
  5
54D
330
20E
100
AcDbEntity
  8
BEZUGSACHSEN
  6
CENTER
 62
     7
100
AcDbLine
 10
378.7408685033
 20
439.7717427702999
 30
0.0
 11
387.4908685033
 21
439.7717427702999
 31
0.0
  0
LINE
  5
54E
330
20E
100
AcDbEntity
  8
0
  6
Continuous
 62
     7
100
AcDbLine
 10
404.7408685032999
 20
444.5217427702999
 30
0.0
 11
403.7408685033
 21
444.5217427702999
 31
0.0
  0
LINE
  5
54F
330
20E
100
AcDbEntity
  8
0
  6
Continuous
 62
     7
100
AcDbLine
 10
-289.2591314967
 20
444.5217427702999
 30
0.0
 11
-288.2591314967001
 21
444.5217427702999
 31
0.0
  0
LINE
  5
550
330
20E
100
AcDbEntity
  8
0
  6
Continuous
 62
     9
100
AcDbLine
 10
-289.2591314967
 20
453.0217427702999
 30
0.0
 11
404.7408685032999
 21
453.0217427702999
 31
0.0
  0
LINE
  5
551
330
20E
100
AcDbEntity
  8
0
  6
Continuous
 62
     3
100
AcDbLine
 10
-288.2591314967001
 20
454.0217427702999
 30
0.0
 11
403.7408685033
 21
454.0217427702999
 31
0.0
  0
LINE
  5
552
330
20E
100
AcDbEntity
  8
RUNDUNGEN
  6
Continuous
 62
     7
100
AcDbLine
 10
113.8388922240999
 20
437.0217427702999
 30
0.0
 11
112.0315916909
 21
438.4337606996999
 31
0.0
  0
LINE
  5
553
330
20E
100
AcDbEntity
  8
RUNDUNGEN
  6
Continuous
 62
     7
100
AcDbLine
 10
136.0208609430999
 20
437.0217427702999
 30
0.0
 11
139.8585746550999
 21
440.0200933321
 31
0.0
  0
LINE
  5
554
330
20E
100
AcDbEntity
  8
RUNDUNGEN
  6
Continuous
 62
     7
100
AcDbLine
 10
270.3908609431
 20
437.0217427702999
 30
0.0
 11
271.3929409221
 21
437.8046534545001
 31
0.0
  0
LINE
  5
555
330
20E
100
AcDbEntity
  8
RUNDUNGEN
  6
Continuous
 62
     7
100
AcDbLine
 10
381.0213166264999
 20
438.2386541969
 30
0.0
 11
376.8958825573
 21
441.4617965382999
 31
0.0
  0
LINE
  5
556
330
20E
100
AcDbEntity
  8
BEZUGSACHSEN
  6
CENTER
 62
     7
100
AcDbLine
 10
378.7408685033
 20
439.7717427702999
 30
0.0
 11
378.7408685033
 21
431.0217427702999
 31
0.0
  0
LINE
  5
557
330
20E
100
AcDbEntity
  8
BEZUGSACHSEN
  6
CENTER
 62
     7
100
AcDbLine
 10
378.7408685033
 20
439.7717427702999
 30
0.0
 11
378.7408685033
 21
448.5217427702999
 31
0.0
  0
LINE
  5
558
330
20E
100
AcDbEntity
  8
0
  6
Continuous
 62
     3
100
AcDbLine
 10
401.7408685033
 20
454.0216978379
 30
0.0
 11
401.7408685033
 21
436.0217427702999
 31
0.0
  0
LINE
  5
559
330
20E
100
AcDbEntity
  8
0
  6
Continuous
 62
     7
100
AcDbLine
 10
402.7408685033
 20
435.0217427702999
 30
0.0
 11
402.7408685033
 21
437.0217427702999
 31
0.0
  0
LINE
  5
55A
330
20E
100
AcDbEntity
  8
0
  6
Continuous
 62
     3
100
AcDbLine
 10
403.7408685033
 20
454.0216978379
 30
0.0
 11
403.7408685033
 21
440.0217427702999
 31
0.0
  0
LINE
  5
55B
330
20E
100
AcDbEntity
  8
0
  6
Continuous
 62
     7
100
AcDbLine
 10
403.7408685033
 20
440.0217427702999
 30
0.0
 11
403.7408685033
 21
437.0217427702999
 31
0.0
  0
LINE
  5
55C
330
20E
100
AcDbEntity
  8
RUNDUNGEN
  6
Continuous
 62
     7
100
AcDbLine
 10
403.7408685033
 20
435.0968874639
 30
0.0
 11
403.7408685033
 21
437.0217427702999
 31
0.0
  0
LINE
  5
55D
330
20E
100
AcDbEntity
  8
0
  6
Continuous
 62
     3
100
AcDbLine
 10
404.7408685032999
 20
453.0217427702999
 30
0.0
 11
404.7408685032999
 21
444.5217427702999
 31
0.0
  0
LINE
  5
55E
330
20E
100
AcDbEntity
  8
0
  6
Continuous
 62
     3
100
AcDbLine
 10
-289.2591314967
 20
263.0556486101
 30
0.0
 11
-289.2591314967
 21
196.5556486100999
 31
0.0
  0
LINE
  5
55F
330
20E
100
AcDbEntity
  8
RUNDUNGEN
  6
Continuous
 62
     3
100
AcDbLine
 10
-288.2591314967001
 20
265.5077536179001
 30
0.0
 11
-288.2591314967001
 21
265.0556486101
 31
0.0
  0
LINE
  5
560
330
20E
100
AcDbEntity
  8
0
  6
Continuous
 62
     3
100
AcDbLine
 10
-288.2591314967001
 20
196.5556486100999
 30
0.0
 11
-288.2591314967001
 21
194.5556486101
 31
0.0
  0
LINE
  5
561
330
20E
100
AcDbEntity
  8
0
  6
Continuous
 62
     3
100
AcDbLine
 10
-288.2591314967001
 20
263.0556486101
 30
0.0
 11
-288.2591314967001
 21
265.0556486101
 31
0.0
  0
LINE
  5
562
330
20E
100
AcDbEntity
  8
0
  6
Continuous
 62
     3
100
AcDbLine
 10
-287.2591314967
 20
196.5556486100999
 30
0.0
 11
-287.2591314967
 21
268.7874743425
 31
0.0
  0
LINE
  5
563
330
20E
100
AcDbEntity
  8
0
  6
Continuous
 62
     3
100
AcDbLine
 10
-286.2591314967001
 20
263.0556486101
 30
0.0
 11
-286.2591314967001
 21
262.0556486101
 31
0.0
  0
LINE
  5
564
330
20E
100
AcDbEntity
  8
0
  6
Continuous
 62
     9
100
AcDbLine
 10
-286.2591314967001
 20
262.0556486101
 30
0.0
 11
-286.2591314967001
 21
197.5556486101
 31
0.0
  0
LINE
  5
565
330
20E
100
AcDbEntity
  8
0
  6
Continuous
 62
     3
100
AcDbLine
 10
-286.2591314967001
 20
194.5556486101
 30
0.0
 11
-286.2591314967001
 21
197.5556486101
 31
0.0
  0
LINE
  5
566
330
20E
100
AcDbEntity
  8
0
  6
Continuous
 62
     3
100
AcDbLine
 10
-287.2591314967
 20
268.7874743425
 30
0.0
 11
-287.0441314967
 21
269.5898168749001
 31
0.0
  0
LINE
  5
567
330
20E
100
AcDbEntity
  8
RUNDUNGEN
  6
Continuous
 62
     3
100
AcDbLine
 10
-287.5981234909001
 20
267.5224152955
 30
0.0
 11
-287.2591314967
 21
268.7874743425
 31
0.0
  0
LINE
  5
568
330
20E
100
AcDbEntity
  8
0
  6
Continuous
 62
     3
100
AcDbLine
 10
-268.3690806891
 20
266.0556486101
 30
0.0
 11
-269.3163550869
 21
269.5909247913
 31
0.0
  0
LINE
  5
569
330
20E
100
AcDbEntity
  8
0
  6
Continuous
 62
     3
100
AcDbLine
 10
-153.6211661437
 20
266.0556486101
 30
0.0
 11
-152.6741314967
 21
269.5898168749001
 31
0.0
  0
LINE
  5
56A
330
20E
100
AcDbEntity
  8
0
  6
Continuous
 62
     3
100
AcDbLine
 10
-133.9990806891
 20
266.0556486101
 30
0.0
 11
-134.9463550869
 21
269.5909247911
 31
0.0
  0
LINE
  5
56D
330
20E
100
AcDbEntity
  8
0
  6
Continuous
 62
     3
100
AcDbLine
 10
-19.2511661437
 20
266.0556486101
 30
0.0
 11
-18.30413149669999
 21
269.5898168749001
 31
0.0
  0
LINE
  5
56E
330
20E
100
AcDbEntity
  8
0
  6
Continuous
 62
     3
100
AcDbLine
 10
-288.2591314967001
 20
194.5556486101
 30
0.0
 11
403.7408685033
 21
194.5556486101
 31
0.0
  0
LINE
  5
56F
330
20E
100
AcDbEntity
  8
0
  6
Continuous
 62
     3
100
AcDbLine
 10
-289.2591314967
 20
196.5556486100999
 30
0.0
 11
404.7408685032999
 21
196.5556486100999
 31
0.0
  0
LINE
  5
570
330
20E
100
AcDbEntity
  8
0
  6
Continuous
 62
     3
100
AcDbLine
 10
402.7408685033
 20
197.5556486101
 30
0.0
 11
401.7408685033
 21
197.5556486101
 31
0.0
  0
LINE
  5
571
330
20E
100
AcDbEntity
  8
0
  6
Continuous
 62
     3
100
AcDbLine
 10
-287.2591314967
 20
197.5556486101
 30
0.0
 11
-286.2591314967001
 21
197.5556486101
 31
0.0
  0
LINE
  5
572
330
20E
100
AcDbEntity
  8
0
  6
Continuous
 62
     9
100
AcDbLine
 10
-286.2591314967001
 20
197.5556486101
 30
0.0
 11
401.7408685033
 21
197.5556486101
 31
0.0
  0
LINE
  5
573
330
20E
100
AcDbEntity
  8
0
  6
Continuous
 62
     3
100
AcDbLine
 10
0.3709193108999784
 20
266.0556486101
 30
0.0
 11
-0.5763550869000369
 21
269.5909247911
 31
0.0
  0
LINE
  5
574
330
20E
100
AcDbEntity
  8
TEIL_STARTBEZUEGE
  6
CENTER
 62
     7
100
AcDbLine
 10
57.74086850330002
 20
188.5556486101
 30
0.0
 11
57.74086850330002
 21
273.1307513899001
 31
0.0
  0
LINE
  5
575
330
20E
100
AcDbEntity
  8
TEIL_STARTBEZUEGE
  6
CENTER
 62
     7
100
AcDbLine
 10
411.2405224792999
 20
229.8056486101
 30
0.0
 11
-295.7594775207
 21
229.8056486101
 31
0.0
  0
LINE
  5
576
330
20E
100
AcDbEntity
  8
0
  6
Continuous
 62
     9
100
AcDbLine
 10
401.7408685033
 20
262.0556486101
 30
0.0
 11
-286.2591314967001
 21
262.0556486101
 31
0.0
  0
LINE
  5
577
330
20E
100
AcDbEntity
  8
0
  6
Continuous
 62
     3
100
AcDbLine
 10
-289.2591314967
 20
262.0556486101
 30
0.0
 11
-286.2591314967001
 21
262.0556486101
 31
0.0
  0
LINE
  5
578
330
20E
100
AcDbEntity
  8
0
  6
Continuous
 62
     3
100
AcDbLine
 10
401.7408685033
 20
262.0556486101
 30
0.0
 11
404.7408685032999
 21
262.0556486101
 31
0.0
  0
LINE
  5
579
330
20E
100
AcDbEntity
  8
0
  6
Continuous
 62
     3
100
AcDbLine
 10
-289.2591314967
 20
263.0556486101
 30
0.0
 11
404.7408685032999
 21
263.0556486101
 31
0.0
  0
LINE
  5
57A
330
20E
100
AcDbEntity
  8
0
  6
Continuous
 62
     3
100
AcDbLine
 10
403.7408685033
 20
265.0556486101
 30
0.0
 11
-288.2591314967001
 21
265.0556486101
 31
0.0
  0
LINE
  5
57B
330
20E
100
AcDbEntity
  8
RUNDUNGEN
  6
Continuous
 62
     9
100
AcDbLine
 10
403.6657238094999
 20
266.0556486101
 30
0.0
 11
402.7408685033
 21
266.0556486101
 31
0.0
  0
LINE
  5
57C
330
20E
100
AcDbEntity
  8
0
  6
Continuous
 62
     9
100
AcDbLine
 10
402.7408685033
 20
266.0556486101
 30
0.0
 11
383.8588338563001
 21
266.0556486101
 31
0.0
  0
LINE
  5
57D
330
20E
100
AcDbEntity
  8
0
  6
Continuous
 62
     9
100
AcDbLine
 10
269.1109193108999
 20
266.0556486101
 30
0.0
 11
249.4888338562999
 21
266.0556486101
 31
0.0
  0
LINE
  5
57E
330
20E
100
AcDbEntity
  8
0
  6
Continuous
 62
     9
100
AcDbLine
 10
134.7409193108999
 20
266.0556486101
 30
0.0
 11
115.1188338562999
 21
266.0556486101
 31
0.0
  0
LINE
  5
57F
330
20E
100
AcDbEntity
  8
0
  6
Continuous
 62
     9
100
AcDbLine
 10
0.3709193108999784
 20
266.0556486101
 30
0.0
 11
-19.2511661437
 21
266.0556486101
 31
0.0
  0
LINE
  5
580
330
20E
100
AcDbEntity
  8
0
  6
Continuous
 62
     9
100
AcDbLine
 10
-133.9990806891
 20
266.0556486101
 30
0.0
 11
-153.6211661437
 21
266.0556486101
 31
0.0
  0
LINE
  5
581
330
20E
100
AcDbEntity
  8
RUNDUNGEN
  6
Continuous
 62
     9
100
AcDbLine
 10
-287.2591314967
 20
266.0556486101
 30
0.0
 11
-288.1826207943
 21
266.0556486101
 31
0.0
  0
LINE
  5
582
330
20E
100
AcDbEntity
  8
0
  6
Continuous
 62
     9
100
AcDbLine
 10
-268.3690806891
 20
266.0556486101
 30
0.0
 11
-287.2591314967
 21
266.0556486101
 31
0.0
  0
LINE
  5
583
330
20E
100
AcDbEntity
  8
0
  6
Continuous
 62
     3
100
AcDbLine
 10
398.6699416125
 20
272.5556486101
 30
0.0
 11
388.6698685033
 21
272.5556486101
 31
0.0
  0
LINE
  5
584
330
20E
100
AcDbEntity
  8
0
  6
Continuous
 62
     3
100
AcDbLine
 10
264.2999416125
 20
272.5556486101
 30
0.0
 11
254.2998685033
 21
272.5556486101
 31
0.0
  0
LINE
  5
585
330
20E
100
AcDbEntity
  8
0
  6
Continuous
 62
     3
100
AcDbLine
 10
129.9299416125
 20
272.5556486101
 30
0.0
 11
119.9298685033
 21
272.5556486101
 31
0.0
  0
LINE
  5
586
330
20E
100
AcDbEntity
  8
0
  6
Continuous
 62
     3
100
AcDbLine
 10
-4.440058387500016
 20
272.5556486101
 30
0.0
 11
-14.44013149669996
 21
272.5556486101
 31
0.0
  0
LINE
  5
587
330
20E
100
AcDbEntity
  8
0
  6
Continuous
 62
     3
100
AcDbLine
 10
-138.8100583875
 20
272.5556486101
 30
0.0
 11
-148.8101314967
 21
272.5556486101
 31
0.0
  0
LINE
  5
588
330
20E
100
AcDbEntity
  8
0
  6
Continuous
 62
     3
100
AcDbLine
 10
-273.1800583875
 20
272.5556486101
 30
0.0
 11
-283.1801314967
 21
272.5556486101
 31
0.0
  0
LINE
  5
589
330
20E
100
AcDbEntity
  8
0
  6
Continuous
 62
     3
100
AcDbLine
 10
115.1188338562999
 20
266.0556486101
 30
0.0
 11
116.0658685033
 21
269.5898168749001
 31
0.0
  0
LINE
  5
58A
330
20E
100
AcDbEntity
  8
0
  6
Continuous
 62
     3
100
AcDbLine
 10
134.7409193108999
 20
266.0556486101
 30
0.0
 11
133.7936449131
 21
269.5909247911
 31
0.0
  0
LINE
  5
58B
330
20E
100
AcDbEntity
  8
0
  6
Continuous
 62
     3
100
AcDbLine
 10
249.4888338562999
 20
266.0556486101
 30
0.0
 11
250.4358685033001
 21
269.5898168749001
 31
0.0
  0
LINE
  5
58C
330
20E
100
AcDbEntity
  8
0
  6
Continuous
 62
     3
100
AcDbLine
 10
269.1109193108999
 20
266.0556486101
 30
0.0
 11
268.1636449131
 21
269.5909247913
 31
0.0
  0
LINE
  5
58D
330
20E
100
AcDbEntity
  8
0
  6
Continuous
 62
     3
100
AcDbLine
 10
401.7408685033
 20
263.0556486101
 30
0.0
 11
401.7408685033
 21
262.0556486101
 31
0.0
  0
LINE
  5
58E
330
20E
100
AcDbEntity
  8
0
  6
Continuous
 62
     3
100
AcDbLine
 10
401.7408685033
 20
194.5556486101
 30
0.0
 11
401.7408685033
 21
197.5556486101
 31
0.0
  0
LINE
  5
58F
330
20E
100
AcDbEntity
  8
0
  6
Continuous
 62
     9
100
AcDbLine
 10
401.7408685033
 20
197.5556486101
 30
0.0
 11
401.7408685033
 21
262.0556486101
 31
0.0
  0
LINE
  5
590
330
20E
100
AcDbEntity
  8
0
  6
Continuous
 62
     3
100
AcDbLine
 10
402.7408685033
 20
196.5556486100999
 30
0.0
 11
402.7408685033
 21
268.8175558241001
 31
0.0
  0
LINE
  5
591
330
20E
100
AcDbEntity
  8
RUNDUNGEN
  6
Continuous
 62
     3
100
AcDbLine
 10
403.7408685033
 20
265.5125721423
 30
0.0
 11
403.7408685033
 21
265.0556486101
 31
0.0
  0
LINE
  5
592
330
20E
100
AcDbEntity
  8
0
  6
Continuous
 62
     3
100
AcDbLine
 10
403.7408685033
 20
196.5556486100999
 30
0.0
 11
403.7408685033
 21
194.5556486101
 31
0.0
  0
LINE
  5
593
330
20E
100
AcDbEntity
  8
0
  6
Continuous
 62
     3
100
AcDbLine
 10
403.7408685033
 20
263.0556486101
 30
0.0
 11
403.7408685033
 21
265.0556486101
 31
0.0
  0
LINE
  5
594
330
20E
100
AcDbEntity
  8
0
  6
Continuous
 62
     3
100
AcDbLine
 10
404.7408685032999
 20
196.5556486100999
 30
0.0
 11
404.7408685032999
 21
263.0556486101
 31
0.0
  0
LINE
  5
595
330
20E
100
AcDbEntity
  8
0
  6
Continuous
 62
     3
100
AcDbLine
 10
383.8588338563001
 20
266.0556486101
 30
0.0
 11
384.8058685033
 21
269.5898168749001
 31
0.0
  0
LINE
  5
596
330
20E
100
AcDbEntity
  8
RUNDUNGEN
  6
Continuous
 62
     3
100
AcDbLine
 10
403.0933929113
 20
267.5019168227
 30
0.0
 11
402.7408685033
 21
268.8175558241001
 31
0.0
  0
LINE
  5
597
330
20E
100
AcDbEntity
  8
0
  6
Continuous
 62
     3
100
AcDbLine
 10
402.7408685033
 20
268.8175558241001
 30
0.0
 11
402.5336449130999
 21
269.5909247911
 31
0.0
  0
ARC
  5
5C1
330
20E
100
AcDbEntity
  8
0
  6
Continuous
 62
     3
100
AcDbCircle
 10
-189.0072470627
 20
190.0217427703
 30
0.0
 40
250.0
100
AcDbArc
 50
78.52165904550037
 51
101.4783409544996
  0
ARC
  5
5C2
330
20E
100
AcDbEntity
  8
0
  6
Continuous
 62
     3
100
AcDbCircle
 10
-24.50850335209998
 20
190.0217427703
 30
0.0
 40
250.0
100
AcDbArc
 50
78.52165904550037
 51
101.4783409544996
  0
ARC
  5
5C3
330
20E
100
AcDbEntity
  8
0
  6
Continuous
 62
     3
100
AcDbCircle
 10
139.9902403584999
 20
190.0217427703
 30
0.0
 40
250.0
100
AcDbArc
 50
78.52165904550037
 51
101.4783409544996
  0
ARC
  5
5C4
330
20E
100
AcDbEntity
  8
0
  6
Continuous
 62
     3
100
AcDbCircle
 10
304.4889840692999
 20
190.0217427703
 30
0.0
 40
250.0
100
AcDbArc
 50
78.52165904550037
 51
101.4783409544996
  0
ARC
  5
5C5
330
20E
100
AcDbEntity
  8
RUNDUNGEN
  6
Continuous
 62
     7
100
AcDbCircle
 10
-258.3278220135
 20
437.5217427702999
 30
0.0
 40
5.0
100
AcDbArc
 50
125.2289232007999
 51
127.9999999999995
  0
ARC
  5
5C6
330
20E
100
AcDbEntity
  8
RUNDUNGEN
  6
Continuous
 62
     7
100
AcDbCircle
 10
373.8175751806999
 20
437.5217427702999
 30
0.0
 40
5.0
100
AcDbArc
 50
52.00000000000047
 51
54.8389026069005
  0
ARC
  5
5C7
330
20E
100
AcDbEntity
  8
0
  6
Continuous
 62
     3
100
AcDbCircle
 10
398.7408685033
 20
440.0217427702999
 30
0.0
 40
5.0
100
AcDbArc
 50
270.0
 51
0.0
  0
ARC
  5
5C8
330
20E
100
AcDbEntity
  8
0
  6
Continuous
 62
     3
100
AcDbCircle
 10
-283.2591314967
 20
440.0217427702999
 30
0.0
 40
5.0
100
AcDbArc
 50
180.0
 51
270.0
  0
CIRCLE
  5
5C9
330
20E
100
AcDbEntity
  8
BEZUGSACHSEN
  6
Continuous
 62
     3
100
AcDbCircle
 10
378.7408685033
 20
439.7717427702999
 30
0.0
 40
2.75
  0
CIRCLE
  5
5CA
330
20E
100
AcDbEntity
  8
BEZUGSACHSEN
  6
Continuous
 62
     3
100
AcDbCircle
 10
-263.2591314967001
 20
439.7717427702999
 30
0.0
 40
2.75
  0
ARC
  5
5CB
330
20E
100
AcDbEntity
  8
0
  6
Continuous
 62
     3
100
AcDbCircle
 10
-288.2591314967001
 20
453.0217427702999
 30
0.0
 40
1.0
100
AcDbArc
 50
90.0
 51
180.0
  0
ARC
  5
5CC
330
20E
100
AcDbEntity
  8
0
  6
Continuous
 62
     3
100
AcDbCircle
 10
403.7408685033
 20
453.0217427702999
 30
0.0
 40
1.0
100
AcDbArc
 50
0.0
 51
90.0
  0
CIRCLE
  5
5CF
330
20E
100
AcDbEntity
  8
0
  6
Continuous
 62
     3
100
AcDbCircle
 10
227.7408685033
 20
229.8056486101
 30
0.0
 40
5.0
  0
CIRCLE
  5
5D0
330
20E
100
AcDbEntity
  8
0
  6
Continuous
 62
     3
100
AcDbCircle
 10
57.74086850330002
 20
229.8056486101
 30
0.0
 40
5.0
  0
CIRCLE
  5
5D1
330
20E
100
AcDbEntity
  8
0
  6
Continuous
 62
     3
100
AcDbCircle
 10
-112.2591314967
 20
229.8056486101
 30
0.0
 40
5.0
  0
ARC
  5
5D2
330
20E
100
AcDbEntity
  8
RUNDUNGEN
  6
Continuous
 62
     3
100
AcDbCircle
 10
407.9230220427
 20
268.7960120481
 30
0.0
 40
5.0
100
AcDbArc
 50
194.9999999999996
 51
207.9734808733999
  0
ARC
  5
5D3
330
20E
100
AcDbEntity
  8
RUNDUNGEN
  6
Continuous
 62
     3
100
AcDbCircle
 10
-292.4277331095
 20
268.8165833423
 30
0.0
 40
5.0
100
AcDbArc
 50
331.7909501476005
 51
344.9991360927004
  0
ARC
  5
5D4
330
20E
100
AcDbEntity
  8
0
  6
Continuous
 62
     3
100
AcDbCircle
 10
-283.1801314967
 20
268.5556486101
 30
0.0
 40
4.0
100
AcDbArc
 50
90.0
 51
165.0164289137999
  0
ARC
  5
5D5
330
20E
100
AcDbEntity
  8
0
  6
Continuous
 62
     3
100
AcDbCircle
 10
-273.1800583921
 20
268.5556486107
 30
0.0
 40
4.0
100
AcDbArc
 50
14.99999999999959
 51
89.99999993430042
  0
ARC
  5
5D6
330
20E
100
AcDbEntity
  8
0
  6
Continuous
 62
     3
100
AcDbCircle
 10
-148.8101314967
 20
268.5556486101
 30
0.0
 40
4.0
100
AcDbArc
 50
90.0
 51
165.0164289137999
  0
ARC
  5
5D7
330
20E
100
AcDbEntity
  8
0
  6
Continuous
 62
     3
100
AcDbCircle
 10
-138.8100583921
 20
268.5556486107
 30
0.0
 40
4.0
100
AcDbArc
 50
14.99999999999959
 51
89.99999993430042
  0
ARC
  5
5D8
330
20E
100
AcDbEntity
  8
0
  6
Continuous
 62
     3
100
AcDbCircle
 10
-14.44013149669996
 20
268.5556486101
 30
0.0
 40
4.0
100
AcDbArc
 50
90.0
 51
165.0164289137999
  0
ARC
  5
5D9
330
20E
100
AcDbEntity
  8
0
  6
Continuous
 62
     3
100
AcDbCircle
 10
-4.440058392100013
 20
268.5556486107
 30
0.0
 40
4.0
100
AcDbArc
 50
14.99999999999959
 51
89.99999993430042
  0
ARC
  5
5DA
330
20E
100
AcDbEntity
  8
0
  6
Continuous
 62
     3
100
AcDbCircle
 10
119.9298685033
 20
268.5556486101
 30
0.0
 40
4.0
100
AcDbArc
 50
90.0
 51
165.0164289137999
  0
ARC
  5
5DB
330
20E
100
AcDbEntity
  8
0
  6
Continuous
 62
     3
100
AcDbCircle
 10
129.9299416079
 20
268.5556486107
 30
0.0
 40
4.0
100
AcDbArc
 50
14.99999999999959
 51
89.99999993430042
  0
ARC
  5
5DC
330
20E
100
AcDbEntity
  8
0
  6
Continuous
 62
     3
100
AcDbCircle
 10
254.2998685033
 20
268.5556486101
 30
0.0
 40
4.0
100
AcDbArc
 50
90.0
 51
165.0164289137999
  0
ARC
  5
5DD
330
20E
100
AcDbEntity
  8
0
  6
Continuous
 62
     3
100
AcDbCircle
 10
264.2999416079
 20
268.5556486107
 30
0.0
 40
4.0
100
AcDbArc
 50
14.99999999999959
 51
89.99999993430042
  0
ARC
  5
5DE
330
20E
100
AcDbEntity
  8
0
  6
Continuous
 62
     3
100
AcDbCircle
 10
388.6698685033
 20
268.5556486101
 30
0.0
 40
4.0
100
AcDbArc
 50
90.0
 51
165.0164289137999
  0
ARC
  5
5DF
330
20E
100
AcDbEntity
  8
0
  6
Continuous
 62
     3
100
AcDbCircle
 10
398.6699416078999
 20
268.5556486107
 30
0.0
 40
4.0
100
AcDbArc
 50
14.99999999999959
 51
89.99999993430042
  0
ARC
  5
5E0
330
20E
100
AcDbEntity
  8
RUNDUNGEN
  6
Continuous
 62
     3
100
AcDbCircle
 10
-286.2591314967001
 20
265.5077536179001
 30
0.0
 40
2.0
100
AcDbArc
 50
151.7909501476006
 51
180.0000000000993
  0
ARC
  5
5E1
330
20E
100
AcDbEntity
  8
RUNDUNGEN
  6
Continuous
 62
     3
100
AcDbCircle
 10
401.7408685033
 20
265.5125721423
 30
0.0
 40
2.0
100
AcDbArc
 50
0.0
 51
27.97348087339985
  0
SPLINE
  5
5F2
330
20E
100
AcDbEntity
  8
RUNDUNGEN
  6
Continuous
 62
     7
100
AcDbSpline
210
0.0
220
0.0
230
1.0
 70
     8
 71
     3
 72
     9
 73
     5
 74
     0
 42
0.0000000001
 43
0.0000000001
 40
0.0
 40
0.0
 40
0.0
 40
0.0
 40
0.5000018143000001
 40
1.0
 40
1.0
 40
1.0
 40
1.0
 10
-288.2591314967001
 20
435.0982534726999
 30
0.0
 10
-288.2591314967001
 20
435.0780324837001
 30
0.0
 10
-288.2495734409
 20
435.0313006098999
 30
0.0
 10
-288.2028416365
 20
435.0217427702999
 30
0.0
 10
-288.1826207943
 20
435.0217427702999
 30
0.0
  0
LINE
  5
5F3
330
20E
100
AcDbEntity
  8
0
  6
Continuous
 62
     7
100
AcDbLine
 10
-153.6211661437
 20
435.0217427702999
 30
0.0
 11
-154.9011077759
 21
437.0217427702999
 31
0.0
  0
LINE
  5
5F4
330
20E
100
AcDbEntity
  8
0
  6
Continuous
 62
     7
100
AcDbLine
 10
-19.2511661437
 20
435.0217427702999
 30
0.0
 11
-20.53110777590007
 21
437.0217427702999
 31
0.0
  0
LINE
  5
5F5
330
20E
100
AcDbEntity
  8
0
  6
Continuous
 62
     7
100
AcDbLine
 10
0.3709193108999784
 20
435.0217427702999
 30
0.0
 11
1.650860943099985
 21
437.0217427702999
 31
0.0
  0
LINE
  5
5F6
330
20E
100
AcDbEntity
  8
0
  6
Continuous
 62
     7
100
AcDbLine
 10
115.1188338562999
 20
435.0217427702999
 30
0.0
 11
113.8388922240999
 21
437.0217427702999
 31
0.0
  0
LINE
  5
5F7
330
20E
100
AcDbEntity
  8
0
  6
Continuous
 62
     7
100
AcDbLine
 10
134.7409193108999
 20
435.0217427702999
 30
0.0
 11
136.0208609430999
 21
437.0217427702999
 31
0.0
  0
LINE
  5
5F8
330
20E
100
AcDbEntity
  8
0
  6
Continuous
 62
     7
100
AcDbLine
 10
269.1109193108999
 20
435.0217427702999
 30
0.0
 11
270.3908609431
 21
437.0217427702999
 31
0.0
  0
SPLINE
  5
5F9
330
20E
100
AcDbEntity
  8
RUNDUNGEN
  6
Continuous
 62
     7
100
AcDbSpline
210
0.0
220
0.0
230
1.0
 70
     8
 71
     3
 72
     9
 73
     5
 74
     0
 42
0.0000000001
 43
0.0000000001
 40
0.0
 40
0.0
 40
0.0
 40
0.0
 40
0.4999982931000001
 40
1.0
 40
1.0
 40
1.0
 40
1.0
 10
403.6657238094999
 20
435.0217427702999
 30
0.0
 10
403.6855825958999
 20
435.0217427702999
 30
0.0
 10
403.7314718591
 20
435.0311392147
 30
0.0
 10
403.7408685033
 20
435.0770285421
 30
0.0
 10
403.7408685033
 20
435.0968874639
 30
0.0
  0
SPLINE
  5
5FA
330
20E
100
AcDbEntity
  8
0
  6
Continuous
 62
     3
100
AcDbSpline
210
0.0
220
0.0
230
1.0
 70
     8
 71
     3
 72
    11
 73
     7
 74
     0
 42
0.0000000001
 43
0.0000000001
 40
0.0
 40
0.0
 40
0.0
 40
0.0
 40
0.1808812071
 40
0.3977274133
 40
0.6636717557000001
 40
1.0
 40
1.0
 40
1.0
 40
1.0
 10
383.8588338563001
 20
266.0556486101
 30
0.0
 10
383.8588338563001
 20
265.9479626079001
 30
0.0
 10
383.8076656899001
 20
265.7088477995001
 30
0.0
 10
383.5674890233
 20
265.3814686473
 30
0.0
 10
383.1422224455
 20
265.1214682277
 30
0.0
 10
382.7791222239
 20
265.0556486101
 30
0.0
 10
382.5788922241001
 20
265.0556486101
 30
0.0
  0
SPLINE
  5
5FB
330
20E
100
AcDbEntity
  8
0
  6
Continuous
 62
     3
100
AcDbSpline
210
0.0
220
0.0
230
1.0
 70
     8
 71
     3
 72
    11
 73
     7
 74
     0
 42
0.0000000001
 43
0.0000000001
 40
0.0
 40
0.0
 40
0.0
 40
0.0
 40
0.1808812071
 40
0.3977274133
 40
0.6636717557000001
 40
1.0
 40
1.0
 40
1.0
 40
1.0
 10
249.4888338562999
 20
266.0556486101
 30
0.0
 10
249.4888338562999
 20
265.9479626079001
 30
0.0
 10
249.4376656899
 20
265.7088477995001
 30
0.0
 10
249.1974890233
 20
265.3814686473
 30
0.0
 10
248.7722224455
 20
265.1214682277
 30
0.0
 10
248.4091222239
 20
265.0556486101
 30
0.0
 10
248.2088922241
 20
265.0556486101
 30
0.0
  0
SPLINE
  5
5FC
330
20E
100
AcDbEntity
  8
0
  6
Continuous
 62
     3
100
AcDbSpline
210
0.0
220
0.0
230
1.0
 70
     8
 71
     3
 72
    11
 73
     7
 74
     0
 42
0.0000000001
 43
0.0000000001
 40
0.0
 40
0.0
 40
0.0
 40
0.0
 40
0.1808812071
 40
0.3977274133
 40
0.6636717557000001
 40
1.0
 40
1.0
 40
1.0
 40
1.0
 10
269.1109193108999
 20
266.0556486101
 30
0.0
 10
269.1109193108999
 20
265.9479626079001
 30
0.0
 10
269.1620874772999
 20
265.7088477995001
 30
0.0
 10
269.4022641437
 20
265.3814686473
 30
0.0
 10
269.8275307217
 20
265.1214682277
 30
0.0
 10
270.1906309433
 20
265.0556486101
 30
0.0
 10
270.3908609431
 20
265.0556486101
 30
0.0
  0
SPLINE
  5
5FD
330
20E
100
AcDbEntity
  8
0
  6
Continuous
 62
     3
100
AcDbSpline
210
0.0
220
0.0
230
1.0
 70
     8
 71
     3
 72
    11
 73
     7
 74
     0
 42
0.0000000001
 43
0.0000000001
 40
0.0
 40
0.0
 40
0.0
 40
0.0
 40
0.1808812071
 40
0.3977274133
 40
0.6636717557000001
 40
1.0
 40
1.0
 40
1.0
 40
1.0
 10
115.1188338562999
 20
266.0556486101
 30
0.0
 10
115.1188338562999
 20
265.9479626079001
 30
0.0
 10
115.0676656898999
 20
265.7088477995001
 30
0.0
 10
114.8274890233
 20
265.3814686473
 30
0.0
 10
114.4022224455
 20
265.1214682277
 30
0.0
 10
114.0391222239
 20
265.0556486101
 30
0.0
 10
113.8388922240999
 20
265.0556486101
 30
0.0
  0
SPLINE
  5
5FE
330
20E
100
AcDbEntity
  8
0
  6
Continuous
 62
     3
100
AcDbSpline
210
0.0
220
0.0
230
1.0
 70
     8
 71
     3
 72
    11
 73
     7
 74
     0
 42
0.0000000001
 43
0.0000000001
 40
0.0
 40
0.0
 40
0.0
 40
0.0
 40
0.1808812071
 40
0.3977274133
 40
0.6636717557000001
 40
1.0
 40
1.0
 40
1.0
 40
1.0
 10
134.7409193108999
 20
266.0556486101
 30
0.0
 10
134.7409193108999
 20
265.9479626079001
 30
0.0
 10
134.7920874772999
 20
265.7088477995001
 30
0.0
 10
135.0322641437
 20
265.3814686473
 30
0.0
 10
135.4575307217
 20
265.1214682277
 30
0.0
 10
135.8206309433
 20
265.0556486101
 30
0.0
 10
136.0208609430999
 20
265.0556486101
 30
0.0
  0
SPLINE
  5
5FF
330
20E
100
AcDbEntity
  8
0
  6
Continuous
 62
     3
100
AcDbSpline
210
0.0
220
0.0
230
1.0
 70
     8
 71
     3
 72
    11
 73
     7
 74
     0
 42
0.0000000001
 43
0.0000000001
 40
0.0
 40
0.0
 40
0.0
 40
0.0
 40
0.1808812071
 40
0.3977274133
 40
0.6636717557000001
 40
1.0
 40
1.0
 40
1.0
 40
1.0
 10
-268.3690806891
 20
266.0556486101
 30
0.0
 10
-268.3690806891
 20
265.9479626079001
 30
0.0
 10
-268.3179125227
 20
265.7088477995001
 30
0.0
 10
-268.0777358563
 20
265.3814686473
 30
0.0
 10
-267.6524692783
 20
265.1214682277
 30
0.0
 10
-267.2893690567
 20
265.0556486101
 30
0.0
 10
-267.0891390569
 20
265.0556486101
 30
0.0
  0
SPLINE
  5
600
330
20E
100
AcDbEntity
  8
0
  6
Continuous
 62
     3
100
AcDbSpline
210
0.0
220
0.0
230
1.0
 70
     8
 71
     3
 72
    11
 73
     7
 74
     0
 42
0.0000000001
 43
0.0000000001
 40
0.0
 40
0.0
 40
0.0
 40
0.0
 40
0.1808812071
 40
0.3977274133
 40
0.6636717557000001
 40
1.0
 40
1.0
 40
1.0
 40
1.0
 10
-19.2511661437
 20
266.0556486101
 30
0.0
 10
-19.2511661437
 20
265.9479626079001
 30
0.0
 10
-19.30233431010003
 20
265.7088477995001
 30
0.0
 10
-19.54251097669999
 20
265.3814686473
 30
0.0
 10
-19.96777755450006
 20
265.1214682277
 30
0.0
 10
-20.33087777610001
 20
265.0556486101
 30
0.0
 10
-20.53110777590007
 20
265.0556486101
 30
0.0
  0
SPLINE
  5
601
330
20E
100
AcDbEntity
  8
0
  6
Continuous
 62
     3
100
AcDbSpline
210
0.0
220
0.0
230
1.0
 70
     8
 71
     3
 72
    11
 73
     7
 74
     0
 42
0.0000000001
 43
0.0000000001
 40
0.0
 40
0.0
 40
0.0
 40
0.0
 40
0.1808812071
 40
0.3977274133
 40
0.6636717557000001
 40
1.0
 40
1.0
 40
1.0
 40
1.0
 10
0.3709193108999784
 20
266.0556486101
 30
0.0
 10
0.3709193108999784
 20
265.9479626079001
 30
0.0
 10
0.4220874772999537
 20
265.7088477995001
 30
0.0
 10
0.6622641436999288
 20
265.3814686473
 30
0.0
 10
1.087530721699977
 20
265.1214682277
 30
0.0
 10
1.450630943300041
 20
265.0556486101
 30
0.0
 10
1.650860943099985
 20
265.0556486101
 30
0.0
  0
SPLINE
  5
602
330
20E
100
AcDbEntity
  8
0
  6
Continuous
 62
     3
100
AcDbSpline
210
0.0
220
0.0
230
1.0
 70
     8
 71
     3
 72
    11
 73
     7
 74
     0
 42
0.0000000001
 43
0.0000000001
 40
0.0
 40
0.0
 40
0.0
 40
0.0
 40
0.1808812071
 40
0.3977274133
 40
0.6636717557000001
 40
1.0
 40
1.0
 40
1.0
 40
1.0
 10
-153.6211661437
 20
266.0556486101
 30
0.0
 10
-153.6211661437
 20
265.9479626079001
 30
0.0
 10
-153.6723343101
 20
265.7088477995001
 30
0.0
 10
-153.9125109767
 20
265.3814686473
 30
0.0
 10
-154.3377775545
 20
265.1214682277
 30
0.0
 10
-154.7008777761
 20
265.0556486101
 30
0.0
 10
-154.9011077759
 20
265.0556486101
 30
0.0
  0
SPLINE
  5
603
330
20E
100
AcDbEntity
  8
0
  6
Continuous
 62
     3
100
AcDbSpline
210
0.0
220
0.0
230
1.0
 70
     8
 71
     3
 72
    11
 73
     7
 74
     0
 42
0.0000000001
 43
0.0000000001
 40
0.0
 40
0.0
 40
0.0
 40
0.0
 40
0.1808812071
 40
0.3977274133
 40
0.6636717557000001
 40
1.0
 40
1.0
 40
1.0
 40
1.0
 10
-133.9990806891
 20
266.0556486101
 30
0.0
 10
-133.9990806891
 20
265.9479626079001
 30
0.0
 10
-133.9479125227
 20
265.7088477995001
 30
0.0
 10
-133.7077358563
 20
265.3814686473
 30
0.0
 10
-133.2824692783
 20
265.1214682277
 30
0.0
 10
-132.9193690567
 20
265.0556486101
 30
0.0
 10
-132.7191390569
 20
265.0556486101
 30
0.0
  0
DIMENSION
  5
6F6
330
20E
100
AcDbEntity
  8
P-0000
  6
Continuous
100
AcDbDimension
  2
*D40
 10
404.7408685032999
 20
328.3412661862424
 30
0.0
 11
57.74086850329999
 21
339.3412661862424
 31
0.0
 70
    32
 71
     5
 42
694.0
  3
883N99122_001_00149479900
100
AcDbAlignedDimension
 13
-289.2591314967
 23
263.0556486101
 33
0.0
 14
404.7408685032999
 24
263.0556486101
 34
0.0
100
AcDbRotatedDimension
1001
ACAD_DSTYLE_DIMINSPECT
1070
   396
1000
100%
1070
   395
1000

1070
   394
1070
    33
1070
   393
1070
     0
1001
ACAD
1000
DSTYLE
1002
{
1070
    41
1040
7.0
1070
   140
1040
7.0
1070
   271
1070
     1
1070
   288
1070
     1
1002
}
  0
DIMENSION
  5
76E
330
20E
100
AcDbEntity
  8
P-0000
  6
Continuous
100
AcDbDimension
  2
*D42
 10
-313.6327069699971
 20
196.5556486100999
 30
0.0
 11
-324.6327069699972
 21
229.8056486101
 31
0.0
 70
    32
 71
     5
 42
66.5
  3
883N99122_001_00149479900
100
AcDbAlignedDimension
 13
-289.2591314967
 23
263.0556486101
 33
0.0
 14
-289.2591314967
 24
196.5556486100999
 34
0.0
 50
90.00000000000003
100
AcDbRotatedDimension
1001
ACAD_DSTYLE_DIMINSPECT
1070
   396
1000
100%
1070
   395
1000

1070
   394
1070
    33
1070
   393
1070
     0
1001
ACAD
1000
DSTYLE
1002
{
1070
    41
1040
7.0
1070
   140
1040
7.0
1070
   271
1070
     1
1070
   288
1070
     1
1002
}
  0
ENDSEC
  0
SECTION
  2
OBJECTS
  0
DICTIONARY
  5
C
330
0
100
AcDbDictionary
281
     1
  3
ACAD_COLOR
350
637
  3
ACAD_GROUP
350
D
  3
ACAD_LAYOUT
350
1A
  3
ACAD_MATERIAL
350
60A
  3
ACAD_MLEADERSTYLE
350
64C
  3
ACAD_MLINESTYLE
350
17
  3
ACAD_PLOTSETTINGS
350
19
  3
ACAD_PLOTSTYLENAME
350
E
  3
ACAD_SCALELIST
350
63A
  3
ACAD_TABLESTYLE
350
638
  3
ACAD_VISUALSTYLE
350
623
  3
ACDB_RECOMPOSE_DATA
350
821
  3
AcDbVariableDictionary
350
817
  3
AcmDictionary
350
6A6
  3
AEC_PROPERTY_SET_DEFS
350
7B2
  3
AMG
350
650
  3
AMGSNAPSETTINGS
350
6EB
  3
DWGPROPS
350
822
  0
DICTIONARY
  5
80C
330
10
100
AcDbDictionary
280
     1
281
     1
  3
ADSK_XREC_LAYER_RECONCILED
360
80D
  0
DICTIONARY
  5
80E
330
1FD
100
AcDbDictionary
280
     1
281
     1
  3
ADSK_XREC_LAYER_RECONCILED
360
80F
  0
DICTIONARY
  5
810
330
202
100
AcDbDictionary
280
     1
281
     1
  3
ADSK_XREC_LAYER_RECONCILED
360
811
  0
DICTIONARY
  5
812
330
203
100
AcDbDictionary
280
     1
281
     1
  3
ADSK_XREC_LAYER_RECONCILED
360
813
  0
DICTIONARY
  5
814
330
204
100
AcDbDictionary
280
     1
281
     1
  3
ADSK_XREC_LAYER_RECONCILED
360
815
  0
DICTIONARY
  5
7AB
330
7AA
100
AcDbDictionary
280
     1
281
     1
  3
ADSK_XREC_LAYER_RECONCILED
360
816
  0
DICTIONARY
  5
637
102
{ACAD_REACTORS
330
C
102
}
330
C
100
AcDbDictionary
281
     1
  0
DICTIONARY
  5
D
102
{ACAD_REACTORS
330
C
102
}
330
C
100
AcDbDictionary
281
     1
  0
DICTIONARY
  5
1A
102
{ACAD_REACTORS
330
C
102
}
330
C
100
AcDbDictionary
281
     1
  3
Layout1
350
605
  3
Model
350
604
  0
DICTIONARY
  5
60A
102
{ACAD_REACTORS
330
C
102
}
330
C
100
AcDbDictionary
281
     1
  3
ByBlock
350
613
  3
ByLayer
350
60B
  3
Global
350
61B
  0
DICTIONARY
  5
64C
102
{ACAD_REACTORS
330
C
102
}
330
C
100
AcDbDictionary
281
     1
  3
Standard
350
64D
  0
DICTIONARY
  5
17
102
{ACAD_REACTORS
330
C
102
}
330
C
100
AcDbDictionary
281
     1
  3
Standard
350
18
  0
DICTIONARY
  5
19
102
{ACAD_REACTORS
330
C
102
}
330
C
100
AcDbDictionary
281
     1
  0
ACDBDICTIONARYWDFLT
  5
E
102
{ACAD_REACTORS
330
C
102
}
330
C
100
AcDbDictionary
281
     1
  3
Normal
350
F
100
AcDbDictionaryWithDefault
340
F
  0
DICTIONARY
  5
63A
102
{ACAD_REACTORS
330
C
102
}
330
C
100
AcDbDictionary
281
     1
  3
A0
350
63B
  3
A1
350
63C
  3
A2
350
63D
  3
A3
350
63E
  3
A4
350
63F
  3
A5
350
640
  3
A6
350
641
  3
A7
350
642
  3
A8
350
643
  3
A9
350
644
  3
B0
350
645
  3
B1
350
646
  3
B2
350
647
  3
B3
350
648
  3
B4
350
649
  3
B5
350
64A
  3
B6
350
64B
  0
DICTIONARY
  5
638
102
{ACAD_REACTORS
330
C
102
}
330
C
100
AcDbDictionary
281
     1
  3
Standard
350
639
  0
DICTIONARY
  5
623
102
{ACAD_REACTORS
330
C
102
}
330
C
100
AcDbDictionary
281
     1
  3
2dWireframe
350
629
  3
3D Hidden
350
62B
  3
3dWireframe
350
62A
  3
Basic
350
628
  3
Brighten
350
62F
  3
ColorChange
350
633
  3
Conceptual
350
62C
  3
Dim
350
62E
  3
EdgeColorOff
350
636
  3
Facepattern
350
632
  3
Flat
350
624
  3
FlatWithEdges
350
625
  3
Gouraud
350
626
  3
GouraudWithEdges
350
627
  3
JitterOff
350
634
  3
Linepattern
350
631
  3
OverhangOff
350
635
  3
Realistic
350
62D
  3
Thicken
350
630
  0
XRECORD
  5
821
102
{ACAD_REACTORS
330
C
102
}
330
C
100
AcDbXrecord
280
     1
 90
        1
330
639
  0
DICTIONARY
  5
817
102
{ACAD_REACTORS
330
C
102
}
330
C
100
AcDbDictionary
281
     1
  3
CANNOSCALE
350
81A
  3
CMLEADERSTYLE
350
819
  3
CTABLESTYLE
350
818
  3
DIMASSOC
350
81D
  3
INDEXCTL
350
81C
  3
SORTENTS
350
81B
  3
XCLIPFRAME
350
81E
  0
DICTIONARY
  5
6A6
102
{ACAD_REACTORS
330
C
102
}
330
C
100
AcDbDictionary
281
     1
  3
AcmStdDictionary
350
6B0
  0
DICTIONARY
  5
7B2
102
{ACAD_REACTORS
330
C
102
}
330
C
100
AcDbDictionary
281
     1
  0
DICTIONARY
  5
650
102
{ACAD_REACTORS
330
C
102
}
330
C
100
AcDbDictionary
281
     1
  0
DICTIONARY
  5
6EB
102
{ACAD_REACTORS
330
C
102
}
330
C
100
AcDbDictionary
281
     1
  0
XRECORD
  5
822
102
{ACAD_REACTORS
330
C
102
}
330
C
100
AcDbXrecord
280
     1
  1
DWGPROPS COOKIE
  2

  3

  4

  6

  7

  8
malaie
  9

300
=
301
=
302
=
303
=
304
=
305
=
306
=
307
=
308
=
309
=
 40
0.0085659722222222
 41
2457197.364821956
 42
2457197.373387477
  1

 90
        0
  0
XRECORD
  5
80D
102
{ACAD_REACTORS
330
80C
102
}
330
80C
100
AcDbXrecord
280
     1
290
     1
  0
XRECORD
  5
80F
102
{ACAD_REACTORS
330
80E
102
}
330
80E
100
AcDbXrecord
280
     1
290
     1
  0
XRECORD
  5
811
102
{ACAD_REACTORS
330
810
102
}
330
810
100
AcDbXrecord
280
     1
290
     1
  0
XRECORD
  5
813
102
{ACAD_REACTORS
330
812
102
}
330
812
100
AcDbXrecord
280
     1
290
     1
  0
XRECORD
  5
815
102
{ACAD_REACTORS
330
814
102
}
330
814
100
AcDbXrecord
280
     1
290
     1
  0
XRECORD
  5
816
102
{ACAD_REACTORS
330
7AB
102
}
330
7AB
100
AcDbXrecord
280
     1
290
     1
  0
LAYOUT
  5
605
102
{ACAD_XDICTIONARY
360
825
102
}
102
{ACAD_REACTORS
330
1A
102
}
330
1A
100
AcDbPlotSettings
  1

  2
none_device
  4
ISO_A2_(594.00_x_420.00_MM)
  6

 40
0.0
 41
0.0
 42
0.0
 43
0.0
 44
594.0
 45
420.0
 46
0.0
 47
0.0
 48
0.0
 49
0.0
140
0.0
141
0.0
142
1.0
143
1.0
 70
     0
 72
     1
 73
     0
 74
     0
  7

 75
     0
147
1.0
148
0.0
149
0.0
100
AcDbLayout
  1
Layout1
 70
     1
 71
     1
 10
0.0
 20
0.0
 11
12.0
 21
9.0
 12
0.0
 22
0.0
 32
0.0
 14
1.000000000000000E+20
 24
1.000000000000000E+20
 34
1.000000000000000E+20
 15
-1.000000000000000E+20
 25
-1.000000000000000E+20
 35
-1.000000000000000E+20
146
0.0
 13
0.0
 23
0.0
 33
0.0
 16
1.0
 26
0.0
 36
0.0
 17
0.0
 27
1.0
 37
0.0
 76
     0
330
20F
  0
LAYOUT
  5
604
102
{ACAD_XDICTIONARY
360
823
102
}
102
{ACAD_REACTORS
330
1A
102
}
330
1A
100
AcDbPlotSettings
  1

  2
none_device
  4
ISO_A2_(594.00_x_420.00_MM)
  6

 40
0.0
 41
0.0
 42
0.0
 43
0.0
 44
594.0
 45
420.0
 46
0.0
 47
0.0
 48
0.0
 49
0.0
140
0.0
141
0.0
142
1.0
143
1.0
 70
  1024
 72
     1
 73
     0
 74
     0
  7

 75
     0
147
1.0
148
0.0
149
0.0
100
AcDbLayout
  1
Model
 70
     0
 71
     0
 10
0.0
 20
0.0
 11
594.0
 21
420.0
 12
0.0
 22
0.0
 32
0.0
 14
0.0
 24
0.0
 34
0.0
 15
0.0
 25
0.0
 35
0.0
146
0.0
 13
0.0
 23
0.0
 33
0.0
 16
1.0
 26
0.0
 36
0.0
 17
0.0
 27
1.0
 37
0.0
 76
     0
330
20E
331
1F4
  0
MATERIAL
  5
613
102
{ACAD_XDICTIONARY
360
614
102
}
102
{ACAD_REACTORS
330
60A
102
}
330
60A
100
AcDbMaterial
  1
ByBlock
 72
     0
 43
0.0008202099737533
 43
0.0
 43
0.0
 43
0.0
 43
0.0
 43
0.0008202099737533
 43
0.0
 43
0.0
 43
0.0
 43
0.0
 43
1.0
 43
0.0
 43
0.0
 43
0.0
 43
0.0
 43
1.0
 77
     0
 47
0.0008202099737533
 47
0.0
 47
0.0
 47
0.0
 47
0.0
 47
0.0008202099737533
 47
0.0
 47
0.0
 47
0.0
 47
0.0
 47
1.0
 47
0.0
 47
0.0
 47
0.0
 47
0.0
 47
1.0
171
     0
 49
0.0008202099737533
 49
0.0
 49
0.0
 49
0.0
 49
0.0
 49
0.0008202099737533
 49
0.0
 49
0.0
 49
0.0
 49
0.0
 49
1.0
 49
0.0
 49
0.0
 49
0.0
 49
0.0
 49
1.0
175
     0
142
0.0008202099737533
142
0.0
142
0.0
142
0.0
142
0.0
142
0.0008202099737533
142
0.0
142
0.0
142
0.0
142
0.0
142
1.0
142
0.0
142
0.0
142
0.0
142
0.0
142
1.0
179
     0
144
0.0008202099737533
144
0.0
144
0.0
144
0.0
144
0.0
144
0.0008202099737533
144
0.0
144
0.0
144
0.0
144
0.0
144
1.0
144
0.0
144
0.0
144
0.0
144
0.0
144
1.0
147
0.0008202099737533
147
0.0
147
0.0
147
0.0
147
0.0
147
0.0008202099737533
147
0.0
147
0.0
147
0.0
147
0.0
147
1.0
147
0.0
147
0.0
147
0.0
147
0.0
147
1.0
  0
MATERIAL
  5
60B
102
{ACAD_XDICTIONARY
360
60C
102
}
102
{ACAD_REACTORS
330
60A
102
}
330
60A
100
AcDbMaterial
  1
ByLayer
 72
     0
 43
0.0008202099737533
 43
0.0
 43
0.0
 43
0.0
 43
0.0
 43
0.0008202099737533
 43
0.0
 43
0.0
 43
0.0
 43
0.0
 43
1.0
 43
0.0
 43
0.0
 43
0.0
 43
0.0
 43
1.0
 77
     0
 47
0.0008202099737533
 47
0.0
 47
0.0
 47
0.0
 47
0.0
 47
0.0008202099737533
 47
0.0
 47
0.0
 47
0.0
 47
0.0
 47
1.0
 47
0.0
 47
0.0
 47
0.0
 47
0.0
 47
1.0
171
     0
 49
0.0008202099737533
 49
0.0
 49
0.0
 49
0.0
 49
0.0
 49
0.0008202099737533
 49
0.0
 49
0.0
 49
0.0
 49
0.0
 49
1.0
 49
0.0
 49
0.0
 49
0.0
 49
0.0
 49
1.0
175
     0
142
0.0008202099737533
142
0.0
142
0.0
142
0.0
142
0.0
142
0.0008202099737533
142
0.0
142
0.0
142
0.0
142
0.0
142
1.0
142
0.0
142
0.0
142
0.0
142
0.0
142
1.0
179
     0
144
0.0008202099737533
144
0.0
144
0.0
144
0.0
144
0.0
144
0.0008202099737533
144
0.0
144
0.0
144
0.0
144
0.0
144
1.0
144
0.0
144
0.0
144
0.0
144
0.0
144
1.0
147
0.0008202099737533
147
0.0
147
0.0
147
0.0
147
0.0
147
0.0008202099737533
147
0.0
147
0.0
147
0.0
147
0.0
147
1.0
147
0.0
147
0.0
147
0.0
147
0.0
147
1.0
  0
MATERIAL
  5
61B
102
{ACAD_XDICTIONARY
360
61C
102
}
102
{ACAD_REACTORS
330
60A
102
}
330
60A
100
AcDbMaterial
  1
Global
 72
     0
 43
0.0008202099737533
 43
0.0
 43
0.0
 43
0.0
 43
0.0
 43
0.0008202099737533
 43
0.0
 43
0.0
 43
0.0
 43
0.0
 43
1.0
 43
0.0
 43
0.0
 43
0.0
 43
0.0
 43
1.0
 77
     0
 47
0.0008202099737533
 47
0.0
 47
0.0
 47
0.0
 47
0.0
 47
0.0008202099737533
 47
0.0
 47
0.0
 47
0.0
 47
0.0
 47
1.0
 47
0.0
 47
0.0
 47
0.0
 47
0.0
 47
1.0
171
     0
 49
0.0008202099737533
 49
0.0
 49
0.0
 49
0.0
 49
0.0
 49
0.0008202099737533
 49
0.0
 49
0.0
 49
0.0
 49
0.0
 49
1.0
 49
0.0
 49
0.0
 49
0.0
 49
0.0
 49
1.0
175
     0
142
0.0008202099737533
142
0.0
142
0.0
142
0.0
142
0.0
142
0.0008202099737533
142
0.0
142
0.0
142
0.0
142
0.0
142
1.0
142
0.0
142
0.0
142
0.0
142
0.0
142
1.0
179
     0
144
0.0008202099737533
144
0.0
144
0.0
144
0.0
144
0.0
144
0.0008202099737533
144
0.0
144
0.0
144
0.0
144
0.0
144
1.0
144
0.0
144
0.0
144
0.0
144
0.0
144
1.0
147
0.0008202099737533
147
0.0
147
0.0
147
0.0
147
0.0
147
0.0008202099737533
147
0.0
147
0.0
147
0.0
147
0.0
147
1.0
147
0.0
147
0.0
147
0.0
147
0.0
147
1.0
  0
MLEADERSTYLE
  5
64D
102
{ACAD_REACTORS
330
64C
102
}
330
64C
100
AcDbMLeaderStyle
170
     2
171
     1
172
     0
 90
        2
 40
0.0
 41
0.0
173
     1
 91
-1056964608
340
14
 92
       -2
290
     1
 42
2.0
291
     1
 43
0.36
  3
Standard
 44
4.0
300

342
11
174
     1
178
     6
175
     1
176
     0
 93
-1056964608
 45
4.0
292
     0
297
     0
 46
4.0
 94
-1056964608
 47
1.0
 49
1.0
140
1.0
293
     1
141
0.0
294
     1
177
     0
142
1.0
295
     0
296
     0
143
0.125
1001
ACAD_MLEADERVER
1070
     2
  0
MLINESTYLE
  5
18
102
{ACAD_REACTORS
330
17
102
}
330
17
100
AcDbMlineStyle
  2
STANDARD
 70
     0
  3

 62
   256
 51
90.0
 52
90.0
 71
     2
 49
0.5
 62
   256
  6
BYLAYER
 49
-0.5
 62
   256
  6
BYLAYER
  0
ACDBPLACEHOLDER
  5
F
102
{ACAD_REACTORS
330
E
102
}
330
E
  0
SCALE
  5
63B
102
{ACAD_REACTORS
330
63A
102
}
330
63A
100
AcDbScale
 70
     0
300
1:1
140
1.0
141
1.0
290
     1
  0
SCALE
  5
63C
102
{ACAD_REACTORS
330
63A
102
}
330
63A
100
AcDbScale
 70
     0
300
1:2
140
1.0
141
2.0
290
     0
  0
SCALE
  5
63D
102
{ACAD_REACTORS
330
63A
102
}
330
63A
100
AcDbScale
 70
     0
300
1:4
140
1.0
141
4.0
290
     0
  0
SCALE
  5
63E
102
{ACAD_REACTORS
330
63A
102
}
330
63A
100
AcDbScale
 70
     0
300
1:5
140
1.0
141
5.0
290
     0
  0
SCALE
  5
63F
102
{ACAD_REACTORS
330
63A
102
}
330
63A
100
AcDbScale
 70
     0
300
1:8
140
1.0
141
8.0
290
     0
  0
SCALE
  5
640
102
{ACAD_REACTORS
330
63A
102
}
330
63A
100
AcDbScale
 70
     0
300
1:10
140
1.0
141
10.0
290
     0
  0
SCALE
  5
641
102
{ACAD_REACTORS
330
63A
102
}
330
63A
100
AcDbScale
 70
     0
300
1:16
140
1.0
141
16.0
290
     0
  0
SCALE
  5
642
102
{ACAD_REACTORS
330
63A
102
}
330
63A
100
AcDbScale
 70
     0
300
1:20
140
1.0
141
20.0
290
     0
  0
SCALE
  5
643
102
{ACAD_REACTORS
330
63A
102
}
330
63A
100
AcDbScale
 70
     0
300
1:30
140
1.0
141
30.0
290
     0
  0
SCALE
  5
644
102
{ACAD_REACTORS
330
63A
102
}
330
63A
100
AcDbScale
 70
     0
300
1:40
140
1.0
141
40.0
290
     0
  0
SCALE
  5
645
102
{ACAD_REACTORS
330
63A
102
}
330
63A
100
AcDbScale
 70
     0
300
1:50
140
1.0
141
50.0
290
     0
  0
SCALE
  5
646
102
{ACAD_REACTORS
330
63A
102
}
330
63A
100
AcDbScale
 70
     0
300
1:100
140
1.0
141
100.0
290
     0
  0
SCALE
  5
647
102
{ACAD_REACTORS
330
63A
102
}
330
63A
100
AcDbScale
 70
     0
300
2:1
140
2.0
141
1.0
290
     0
  0
SCALE
  5
648
102
{ACAD_REACTORS
330
63A
102
}
330
63A
100
AcDbScale
 70
     0
300
4:1
140
4.0
141
1.0
290
     0
  0
SCALE
  5
649
102
{ACAD_REACTORS
330
63A
102
}
330
63A
100
AcDbScale
 70
     0
300
8:1
140
8.0
141
1.0
290
     0
  0
SCALE
  5
64A
102
{ACAD_REACTORS
330
63A
102
}
330
63A
100
AcDbScale
 70
     0
300
10:1
140
10.0
141
1.0
290
     0
  0
SCALE
  5
64B
102
{ACAD_REACTORS
330
63A
102
}
330
63A
100
AcDbScale
 70
     0
300
100:1
140
100.0
141
1.0
290
     0
  0
TABLESTYLE
  5
639
102
{ACAD_XDICTIONARY
360
81F
102
}
102
{ACAD_REACTORS
330
638
102
}
330
638
100
AcDbTableStyle
  3
Standard
 70
     0
 71
     0
 40
1.5
 41
1.5
280
     0
281
     0
  7
STANDARD
140
4.5
170
     2
 62
     0
 63
     7
283
     0
274
    -2
284
     1
 64
     0
275
    -2
285
     1
 65
     0
276
    -2
286
     1
 66
     0
277
    -2
287
     1
 67
     0
278
    -2
288
     1
 68
     0
279
    -2
289
     1
 69
     0
  7
STANDARD
140
6.0
170
     5
 62
     0
 63
     7
283
     0
274
    -2
284
     1
 64
     0
275
    -2
285
     1
 65
     0
276
    -2
286
     1
 66
     0
277
    -2
287
     1
 67
     0
278
    -2
288
     1
 68
     0
279
    -2
289
     1
 69
     0
  7
STANDARD
140
4.5
170
     5
 62
     0
 63
     7
283
     0
274
    -2
284
     1
 64
     0
275
    -2
285
     1
 65
     0
276
    -2
286
     1
 66
     0
277
    -2
287
     1
 67
     0
278
    -2
288
     1
 68
     0
279
    -2
289
     1
 69
     0
  0
VISUALSTYLE
  5
629
102
{ACAD_XDICTIONARY
360
834
102
}
102
{ACAD_REACTORS
330
623
102
}
330
623
100
AcDbVisualStyle
  2
2dWireframe
 70
     4
 71
     0
 72
     2
 73
     0
 90
        0
 40
-0.6
 41
-30.0
 62
     5
 63
     7
 74
     1
 91
        4
 64
     7
 65
   257
 75
     1
175
     1
 42
1.0
 92
        0
 66
   257
 43
1.0
 76
     1
 77
     6
 78
     2
 67
     7
 79
     5
170
     0
171
     0
290
     0
174
     0
 93
        1
 44
0.0
173
     0
291
     0
 45
0.0
1001
ACAD
1000
AcDbSavedByObjectVersion
1070
     0
  0
VISUALSTYLE
  5
62B
102
{ACAD_XDICTIONARY
360
838
102
}
102
{ACAD_REACTORS
330
623
102
}
330
623
100
AcDbVisualStyle
  2
3D Hidden
 70
     6
 71
     1
 72
     2
 73
     2
 90
        0
 40
-0.6
 41
-30.0
 62
     5
 63
     7
 74
     2
 91
        2
 64
     7
 65
   257
 75
     2
175
     1
 42
179.0
 92
        0
 66
   257
 43
1.0
 76
     1
 77
     6
 78
     2
 67
     7
 79
     3
170
     0
171
     0
290
     0
174
     0
 93
        1
 44
0.0
173
     0
291
     0
 45
0.0
1001
ACAD
1000
AcDbSavedByObjectVersion
1070
     0
  0
VISUALSTYLE
  5
62A
102
{ACAD_XDICTIONARY
360
836
102
}
102
{ACAD_REACTORS
330
623
102
}
330
623
100
AcDbVisualStyle
  2
3dWireframe
 70
     5
 71
     0
 72
     2
 73
     0
 90
        0
 40
-0.6
 41
-30.0
 62
     5
 63
     7
 74
     1
 91
        4
 64
     7
 65
   257
 75
     1
175
     1
 42
1.0
 92
        0
 66
   257
 43
1.0
 76
     1
 77
     6
 78
     2
 67
     7
 79
     5
170
     0
171
     0
290
     0
174
     0
 93
        1
 44
0.0
173
     0
291
     0
 45
0.0
1001
ACAD
1000
AcDbSavedByObjectVersion
1070
     0
  0
VISUALSTYLE
  5
628
102
{ACAD_XDICTIONARY
360
832
102
}
102
{ACAD_REACTORS
330
623
102
}
330
623
100
AcDbVisualStyle
  2
Basic
 70
     7
 71
     1
 72
     0
 73
     1
 90
        0
 40
-0.6
 41
-30.0
 62
     5
 63
     7
 74
     0
 91
        4
 64
     7
 65
   257
 75
     1
175
     1
 42
1.0
 92
        8
 66
     7
 43
1.0
 76
     1
 77
     6
 78
     2
 67
     7
 79
     5
170
     0
171
     0
290
     0
174
     0
 93
        1
 44
0.0
173
     0
291
     1
 45
0.0
1001
ACAD
1000
AcDbSavedByObjectVersion
1070
     0
  0
VISUALSTYLE
  5
62F
102
{ACAD_XDICTIONARY
360
840
102
}
102
{ACAD_REACTORS
330
623
102
}
330
623
100
AcDbVisualStyle
  2
Brighten
 70
    12
 71
     2
 72
     2
 73
     0
 90
        0
 40
-0.6
 41
-30.0
 62
     5
 63
     7
 74
     1
 91
        4
 64
     7
 65
   257
 75
     1
175
     1
 42
1.0
 92
        8
 66
     7
 43
1.0
 76
     1
 77
     6
 78
     2
 67
     7
 79
     5
170
     0
171
     0
290
     0
174
     0
 93
        1
 44
50.0
173
     0
291
     1
 45
0.0
1001
ACAD
1000
AcDbSavedByObjectVersion
1070
     0
  0
VISUALSTYLE
  5
633
102
{ACAD_XDICTIONARY
360
848
102
}
102
{ACAD_REACTORS
330
623
102
}
330
623
100
AcDbVisualStyle
  2
ColorChange
 70
    16
 71
     2
 72
     2
 73
     3
 90
        0
 40
-0.6
 41
-30.0
 62
     5
 63
     8
 74
     1
 91
        4
 64
     7
 65
   257
 75
     1
175
     1
 42
1.0
 92
        8
 66
     8
 43
1.0
 76
     1
 77
     6
 78
     2
 67
     7
 79
     5
170
     0
171
     0
290
     0
174
     0
 93
        1
 44
0.0
173
     0
291
     1
 45
0.0
1001
ACAD
1000
AcDbSavedByObjectVersion
1070
     0
  0
VISUALSTYLE
  5
62C
102
{ACAD_XDICTIONARY
360
83A
102
}
102
{ACAD_REACTORS
330
623
102
}
330
623
100
AcDbVisualStyle
  2
Conceptual
 70
     9
 71
     3
 72
     2
 73
     0
 90
        0
 40
-0.6
 41
-30.0
 62
     5
 63
     7
 74
     2
 91
        2
 64
     7
 65
   257
 75
     1
175
     1
 42
179.0
 92
        8
 66
     7
 43
1.0
 76
     1
 77
     6
 78
     2
 67
     7
 79
     3
170
     0
171
     0
290
     0
174
     0
 93
        1
 44
0.0
173
     0
291
     0
 45
0.0
1001
ACAD
1000
AcDbSavedByObjectVersion
1070
     0
  0
VISUALSTYLE
  5
62E
102
{ACAD_XDICTIONARY
360
83E
102
}
102
{ACAD_REACTORS
330
623
102
}
330
623
100
AcDbVisualStyle
  2
Dim
 70
    11
 71
     2
 72
     2
 73
     0
 90
        0
 40
-0.6
 41
-30.0
 62
     5
 63
     7
 74
     1
 91
        4
 64
     7
 65
   257
 75
     1
175
     1
 42
1.0
 92
        8
 66
     7
 43
1.0
 76
     1
 77
     6
 78
     2
 67
     7
 79
     5
170
     0
171
     0
290
     0
174
     0
 93
        1
 44
-50.0
173
     0
291
     1
 45
0.0
1001
ACAD
1000
AcDbSavedByObjectVersion
1070
     0
  0
VISUALSTYLE
  5
636
102
{ACAD_XDICTIONARY
360
84E
102
}
102
{ACAD_REACTORS
330
623
102
}
330
623
100
AcDbVisualStyle
  2
EdgeColorOff
 70
    22
 71
     2
 72
     2
 73
     0
 90
        0
 40
-0.6
 41
-30.0
 62
     5
 63
     7
 74
     1
 91
        4
 64
     7
 65
   257
 75
     1
175
     1
 42
1.0
 92
        8
 66
     7
 43
1.0
 76
     1
 77
     6
 78
     2
 67
     7
 79
     5
170
     0
171
     0
290
     0
174
     0
 93
        1
 44
0.0
173
     0
291
     1
 45
0.0
1001
ACAD
1000
AcDbSavedByObjectVersion
1070
     0
  0
VISUALSTYLE
  5
632
102
{ACAD_XDICTIONARY
360
846
102
}
102
{ACAD_REACTORS
330
623
102
}
330
623
100
AcDbVisualStyle
  2
Facepattern
 70
    15
 71
     2
 72
     2
 73
     0
 90
        0
 40
-0.6
 41
-30.0
 62
     5
 63
     7
 74
     1
 91
        4
 64
     7
 65
   257
 75
     1
175
     1
 42
1.0
 92
        8
 66
     7
 43
1.0
 76
     1
 77
     6
 78
     2
 67
     7
 79
     5
170
     0
171
     0
290
     0
174
     0
 93
        1
 44
0.0
173
     0
291
     1
 45
0.0
1001
ACAD
1000
AcDbSavedByObjectVersion
1070
     0
  0
VISUALSTYLE
  5
624
102
{ACAD_XDICTIONARY
360
82A
102
}
102
{ACAD_REACTORS
330
623
102
}
330
623
100
AcDbVisualStyle
  2
Flat
 70
     0
 71
     2
 72
     1
 73
     1
 90
        2
 40
-0.6
 41
30.0
 62
     5
 63
     7
 74
     0
 91
        4
 64
     7
 65
   257
 75
     1
175
     1
 42
1.0
 92
        8
 66
     7
 43
1.0
 76
     1
 77
     6
 78
     2
 67
     7
 79
     5
170
     0
171
     0
290
     0
174
     0
 93
       13
 44
0.0
173
     0
291
     1
 45
0.0
1001
ACAD
1000
AcDbSavedByObjectVersion
1070
     0
  0
VISUALSTYLE
  5
625
102
{ACAD_XDICTIONARY
360
82C
102
}
102
{ACAD_REACTORS
330
623
102
}
330
623
100
AcDbVisualStyle
  2
FlatWithEdges
 70
     1
 71
     2
 72
     1
 73
     1
 90
        2
 40
-0.6
 41
30.0
 62
     5
 63
     7
 74
     1
 91
        4
 64
     7
 65
   257
 75
     1
175
     1
 42
1.0
 92
        0
 66
   257
 43
1.0
 76
     1
 77
     6
 78
     2
 67
     7
 79
     5
170
     0
171
     0
290
     0
174
     0
 93
       13
 44
0.0
173
     0
291
     1
 45
0.0
1001
ACAD
1000
AcDbSavedByObjectVersion
1070
     0
  0
VISUALSTYLE
  5
626
102
{ACAD_XDICTIONARY
360
82E
102
}
102
{ACAD_REACTORS
330
623
102
}
330
623
100
AcDbVisualStyle
  2
Gouraud
 70
     2
 71
     2
 72
     2
 73
     1
 90
        2
 40
-0.6
 41
30.0
 62
     5
 63
     7
 74
     0
 91
        4
 64
     7
 65
   257
 75
     1
175
     1
 42
1.0
 92
        0
 66
     7
 43
1.0
 76
     1
 77
     6
 78
     2
 67
     7
 79
     5
170
     0
171
     0
290
     0
174
     0
 93
       13
 44
0.0
173
     0
291
     1
 45
0.0
1001
ACAD
1000
AcDbSavedByObjectVersion
1070
     0
  0
VISUALSTYLE
  5
627
102
{ACAD_XDICTIONARY
360
830
102
}
102
{ACAD_REACTORS
330
623
102
}
330
623
100
AcDbVisualStyle
  2
GouraudWithEdges
 70
     3
 71
     2
 72
     2
 73
     1
 90
        2
 40
-0.6
 41
30.0
 62
     5
 63
     7
 74
     1
 91
        4
 64
     7
 65
   257
 75
     1
175
     1
 42
1.0
 92
        0
 66
   257
 43
1.0
 76
     1
 77
     6
 78
     2
 67
     7
 79
     5
170
     0
171
     0
290
     0
174
     0
 93
       13
 44
0.0
173
     0
291
     1
 45
0.0
1001
ACAD
1000
AcDbSavedByObjectVersion
1070
     0
  0
VISUALSTYLE
  5
634
102
{ACAD_XDICTIONARY
360
84A
102
}
102
{ACAD_REACTORS
330
623
102
}
330
623
100
AcDbVisualStyle
  2
JitterOff
 70
    20
 71
     2
 72
     2
 73
     0
 90
        0
 40
-0.6
 41
-30.0
 62
     5
 63
     7
 74
     1
 91
        4
 64
     7
 65
   257
 75
     1
175
     1
 42
1.0
 92
       10
 66
     7
 43
1.0
 76
     1
 77
     6
 78
     2
 67
     7
 79
     5
170
     0
171
     0
290
     0
174
     0
 93
        1
 44
0.0
173
     0
291
     1
 45
0.0
1001
ACAD
1000
AcDbSavedByObjectVersion
1070
     0
  0
VISUALSTYLE
  5
631
102
{ACAD_XDICTIONARY
360
844
102
}
102
{ACAD_REACTORS
330
623
102
}
330
623
100
AcDbVisualStyle
  2
Linepattern
 70
    14
 71
     2
 72
     2
 73
     0
 90
        0
 40
-0.6
 41
-30.0
 62
     5
 63
     7
 74
     1
 91
        4
 64
     7
 65
   257
 75
     7
175
     7
 42
1.0
 92
        8
 66
     7
 43
1.0
 76
     1
 77
     6
 78
     2
 67
     7
 79
     5
170
     0
171
     0
290
     0
174
     0
 93
        1
 44
0.0
173
     0
291
     1
 45
0.0
1001
ACAD
1000
AcDbSavedByObjectVersion
1070
     0
  0
VISUALSTYLE
  5
635
102
{ACAD_XDICTIONARY
360
84C
102
}
102
{ACAD_REACTORS
330
623
102
}
330
623
100
AcDbVisualStyle
  2
OverhangOff
 70
    21
 71
     2
 72
     2
 73
     0
 90
        0
 40
-0.6
 41
-30.0
 62
     5
 63
     7
 74
     1
 91
        4
 64
     7
 65
   257
 75
     1
175
     1
 42
1.0
 92
        9
 66
     7
 43
1.0
 76
     1
 77
     6
 78
     2
 67
     7
 79
     5
170
     0
171
     0
290
     0
174
     0
 93
        1
 44
0.0
173
     0
291
     1
 45
0.0
1001
ACAD
1000
AcDbSavedByObjectVersion
1070
     0
  0
VISUALSTYLE
  5
62D
102
{ACAD_XDICTIONARY
360
83C
102
}
102
{ACAD_REACTORS
330
623
102
}
330
623
100
AcDbVisualStyle
  2
Realistic
 70
     8
 71
     2
 72
     2
 73
     0
 90
        0
 40
-0.6
 41
-30.0
 62
     5
 63
     7
 74
     1
 91
        0
 64
     7
 65
   257
 75
     1
175
     1
 42
1.0
 92
        8
 66
     8
 43
1.0
 76
     1
 77
     6
 78
     2
 67
     7
 79
     5
170
     0
171
     0
290
     0
174
     0
 93
       13
 44
0.0
173
     0
291
     0
 45
0.0
1001
ACAD
1000
AcDbSavedByObjectVersion
1070
     0
  0
VISUALSTYLE
  5
630
102
{ACAD_XDICTIONARY
360
842
102
}
102
{ACAD_REACTORS
330
623
102
}
330
623
100
AcDbVisualStyle
  2
Thicken
 70
    13
 71
     2
 72
     2
 73
     0
 90
        0
 40
-0.6
 41
-30.0
 62
     5
 63
     7
 74
     1
 91
        4
 64
     7
 65
   257
 75
     1
175
     1
 42
1.0
 92
       12
 66
     7
 43
1.0
 76
     1
 77
     6
 78
     2
 67
     7
 79
     5
170
     0
171
     0
290
     0
174
     0
 93
        1
 44
0.0
173
     0
291
     1
 45
0.0
1001
ACAD
1000
AcDbSavedByObjectVersion
1070
     0
  0
DICTIONARYVAR
  5
81A
102
{ACAD_REACTORS
330
817
102
}
330
817
100
DictionaryVariables
280
     0
  1
1:1
  0
DICTIONARYVAR
  5
819
102
{ACAD_REACTORS
330
817
102
}
330
817
100
DictionaryVariables
280
     0
  1
STANDARD
  0
DICTIONARYVAR
  5
818
102
{ACAD_REACTORS
330
817
102
}
330
817
100
DictionaryVariables
280
     0
  1
STANDARD
  0
DICTIONARYVAR
  5
81D
102
{ACAD_REACTORS
330
817
102
}
330
817
100
DictionaryVariables
280
     0
  1
1
  0
DICTIONARYVAR
  5
81C
102
{ACAD_REACTORS
330
817
102
}
330
817
100
DictionaryVariables
280
     0
  1
0
  0
DICTIONARYVAR
  5
81B
102
{ACAD_REACTORS
330
817
102
}
330
817
100
DictionaryVariables
280
     0
  1
127
  0
DICTIONARYVAR
  5
81E
102
{ACAD_REACTORS
330
817
102
}
330
817
100
DictionaryVariables
280
     0
  1
2
  0
DICTIONARY
  5
6B0
102
{ACAD_REACTORS
330
6A6
102
}
330
6A6
100
AcDbDictionary
281
     1
  0
DICTIONARY
  5
825
330
605
100
AcDbDictionary
280
     1
281
     1
  3
ACAD_XREC_ROUNDTRIP
360
826
  0
DICTIONARY
  5
823
330
604
100
AcDbDictionary
280
     1
281
     1
  3
ACAD_XREC_ROUNDTRIP
360
824
  0
DICTIONARY
  5
614
330
613
100
AcDbDictionary
280
     1
281
     1
  3
ACAD_XREC_ROUNDTRIP
360
828
  3
BUMPTILE
360
616
  3
DIFFUSETILE
360
615
  3
OPACITYTILE
360
619
  3
REFLECTIONTILE
360
618
  3
REFRACTIONTILE
360
61A
  3
SPECULARTILE
360
617
  0
DICTIONARY
  5
60C
330
60B
100
AcDbDictionary
280
     1
281
     1
  3
ACAD_XREC_ROUNDTRIP
360
827
  3
BUMPTILE
360
60E
  3
DIFFUSETILE
360
60D
  3
OPACITYTILE
360
611
  3
REFLECTIONTILE
360
610
  3
REFRACTIONTILE
360
612
  3
SPECULARTILE
360
60F
  0
DICTIONARY
  5
61C
330
61B
100
AcDbDictionary
280
     1
281
     1
  3
ACAD_XREC_ROUNDTRIP
360
829
  3
BUMPTILE
360
61E
  3
DIFFUSETILE
360
61D
  3
OPACITYTILE
360
621
  3
REFLECTIONTILE
360
620
  3
REFRACTIONTILE
360
622
  3
SPECULARTILE
360
61F
  0
DICTIONARY
  5
81F
330
639
100
AcDbDictionary
280
     1
281
     1
  3
ACAD_ROUNDTRIP_2008_TABLESTYLE_CELLSTYLEMAP
360
820
  3
ACAD_XREC_ROUNDTRIP
360
850
  0
DICTIONARY
  5
834
330
629
100
AcDbDictionary
280
     1
281
     1
  3
ACAD_XREC_ROUNDTRIP
360
835
  0
DICTIONARY
  5
838
330
62B
100
AcDbDictionary
280
     1
281
     1
  3
ACAD_XREC_ROUNDTRIP
360
839
  0
DICTIONARY
  5
836
330
62A
100
AcDbDictionary
280
     1
281
     1
  3
ACAD_XREC_ROUNDTRIP
360
837
  0
DICTIONARY
  5
832
330
628
100
AcDbDictionary
280
     1
281
     1
  3
ACAD_XREC_ROUNDTRIP
360
833
  0
DICTIONARY
  5
840
330
62F
100
AcDbDictionary
280
     1
281
     1
  3
ACAD_XREC_ROUNDTRIP
360
841
  0
DICTIONARY
  5
848
330
633
100
AcDbDictionary
280
     1
281
     1
  3
ACAD_XREC_ROUNDTRIP
360
849
  0
DICTIONARY
  5
83A
330
62C
100
AcDbDictionary
280
     1
281
     1
  3
ACAD_XREC_ROUNDTRIP
360
83B
  0
DICTIONARY
  5
83E
330
62E
100
AcDbDictionary
280
     1
281
     1
  3
ACAD_XREC_ROUNDTRIP
360
83F
  0
DICTIONARY
  5
84E
330
636
100
AcDbDictionary
280
     1
281
     1
  3
ACAD_XREC_ROUNDTRIP
360
84F
  0
DICTIONARY
  5
846
330
632
100
AcDbDictionary
280
     1
281
     1
  3
ACAD_XREC_ROUNDTRIP
360
847
  0
DICTIONARY
  5
82A
330
624
100
AcDbDictionary
280
     1
281
     1
  3
ACAD_XREC_ROUNDTRIP
360
82B
  0
DICTIONARY
  5
82C
330
625
100
AcDbDictionary
280
     1
281
     1
  3
ACAD_XREC_ROUNDTRIP
360
82D
  0
DICTIONARY
  5
82E
330
626
100
AcDbDictionary
280
     1
281
     1
  3
ACAD_XREC_ROUNDTRIP
360
82F
  0
DICTIONARY
  5
830
330
627
100
AcDbDictionary
280
     1
281
     1
  3
ACAD_XREC_ROUNDTRIP
360
831
  0
DICTIONARY
  5
84A
330
634
100
AcDbDictionary
280
     1
281
     1
  3
ACAD_XREC_ROUNDTRIP
360
84B
  0
DICTIONARY
  5
844
330
631
100
AcDbDictionary
280
     1
281
     1
  3
ACAD_XREC_ROUNDTRIP
360
845
  0
DICTIONARY
  5
84C
330
635
100
AcDbDictionary
280
     1
281
     1
  3
ACAD_XREC_ROUNDTRIP
360
84D
  0
DICTIONARY
  5
83C
330
62D
100
AcDbDictionary
280
     1
281
     1
  3
ACAD_XREC_ROUNDTRIP
360
83D
  0
DICTIONARY
  5
842
330
630
100
AcDbDictionary
280
     1
281
     1
  3
ACAD_XREC_ROUNDTRIP
360
843
  0
XRECORD
  5
826
102
{ACAD_REACTORS
330
825
102
}
330
825
100
AcDbXrecord
280
     1
102
SHADEPLOT
 70
     0
102
SHADEPLOTRESLEVEL
 70
     2
102
SHADEPLOTCUSTOMDPI
 70
   300
  0
XRECORD
  5
824
102
{ACAD_REACTORS
330
823
102
}
330
823
100
AcDbXrecord
280
     1
102
SHADEPLOT
 70
     0
102
SHADEPLOTRESLEVEL
 70
     2
102
SHADEPLOTCUSTOMDPI
 70
   300
  0
XRECORD
  5
828
102
{ACAD_REACTORS
330
614
102
}
330
614
100
AcDbXrecord
280
     1
102
MATERIAL
148
0.0
149
0.0
149
0.0
 93
        0
 94
      127
282
     0
 72
     0
 77
     0
171
     0
175
     0
179
     0
273
     0
  0
XRECORD
  5
616
102
{ACAD_REACTORS
330
614
102
}
330
614
100
AcDbXrecord
280
     1
270
     1
271
     1
  0
XRECORD
  5
615
102
{ACAD_REACTORS
330
614
102
}
330
614
100
AcDbXrecord
280
     1
270
     1
271
     1
  0
XRECORD
  5
619
102
{ACAD_REACTORS
330
614
102
}
330
614
100
AcDbXrecord
280
     1
270
     1
271
     1
  0
XRECORD
  5
618
102
{ACAD_REACTORS
330
614
102
}
330
614
100
AcDbXrecord
280
     1
270
     1
271
     1
  0
XRECORD
  5
61A
102
{ACAD_REACTORS
330
614
102
}
330
614
100
AcDbXrecord
280
     1
270
     1
271
     1
  0
XRECORD
  5
617
102
{ACAD_REACTORS
330
614
102
}
330
614
100
AcDbXrecord
280
     1
270
     1
271
     1
  0
XRECORD
  5
827
102
{ACAD_REACTORS
330
60C
102
}
330
60C
100
AcDbXrecord
280
     1
102
MATERIAL
148
0.0
149
0.0
149
0.0
 93
        0
 94
      127
282
     0
 72
     0
 77
     0
171
     0
175
     0
179
     0
273
     0
  0
XRECORD
  5
60E
102
{ACAD_REACTORS
330
60C
102
}
330
60C
100
AcDbXrecord
280
     1
270
     1
271
     1
  0
XRECORD
  5
60D
102
{ACAD_REACTORS
330
60C
102
}
330
60C
100
AcDbXrecord
280
     1
270
     1
271
     1
  0
XRECORD
  5
611
102
{ACAD_REACTORS
330
60C
102
}
330
60C
100
AcDbXrecord
280
     1
270
     1
271
     1
  0
XRECORD
  5
610
102
{ACAD_REACTORS
330
60C
102
}
330
60C
100
AcDbXrecord
280
     1
270
     1
271
     1
  0
XRECORD
  5
612
102
{ACAD_REACTORS
330
60C
102
}
330
60C
100
AcDbXrecord
280
     1
270
     1
271
     1
  0
XRECORD
  5
60F
102
{ACAD_REACTORS
330
60C
102
}
330
60C
100
AcDbXrecord
280
     1
270
     1
271
     1
  0
XRECORD
  5
829
102
{ACAD_REACTORS
330
61C
102
}
330
61C
100
AcDbXrecord
280
     1
102
MATERIAL
148
0.0
149
0.0
149
0.0
 93
        0
 94
      127
282
     0
 72
     0
 77
     0
171
     0
175
     0
179
     0
273
     0
  0
XRECORD
  5
61E
102
{ACAD_REACTORS
330
61C
102
}
330
61C
100
AcDbXrecord
280
     1
270
     1
271
     1
  0
XRECORD
  5
61D
102
{ACAD_REACTORS
330
61C
102
}
330
61C
100
AcDbXrecord
280
     1
270
     1
271
     1
  0
XRECORD
  5
621
102
{ACAD_REACTORS
330
61C
102
}
330
61C
100
AcDbXrecord
280
     1
270
     1
271
     1
  0
XRECORD
  5
620
102
{ACAD_REACTORS
330
61C
102
}
330
61C
100
AcDbXrecord
280
     1
270
     1
271
     1
  0
XRECORD
  5
622
102
{ACAD_REACTORS
330
61C
102
}
330
61C
100
AcDbXrecord
280
     1
270
     1
271
     1
  0
XRECORD
  5
61F
102
{ACAD_REACTORS
330
61C
102
}
330
61C
100
AcDbXrecord
280
     1
270
     1
271
     1
  0
CELLSTYLEMAP
  5
820
102
{ACAD_REACTORS
330
81F
102
}
330
81F
100
AcDbCellStyleMap
 90
        3
300
CELLSTYLE
  1
TABLEFORMAT_BEGIN
 90
        5
170
     1
 91
        0
 92
    32768
 62
   257
 93
        1
300
CONTENTFORMAT
  1
CONTENTFORMAT_BEGIN
 90
        0
 91
        0
 92
      512
 93
        0
300

 40
0.0
140
1.0
 94
        5
 62
     0
340
11
144
6.0
309
CONTENTFORMAT_END
171
     1
301
MARGIN
  1
CELLMARGIN_BEGIN
 40
1.5
 40
1.5
 40
1.5
 40
1.5
 40
4.5
 40
4.5
309
CELLMARGIN_END
 94
        6
 95
        1
302
GRIDFORMAT
  1
GRIDFORMAT_BEGIN
 90
        0
 91
        1
 62
     0
 92
       -2
340
0
 93
        0
 40
1.125
309
GRIDFORMAT_END
 95
        2
302
GRIDFORMAT
  1
GRIDFORMAT_BEGIN
 90
        0
 91
        1
 62
     0
 92
       -2
340
0
 93
        0
 40
1.125
309
GRIDFORMAT_END
 95
        4
302
GRIDFORMAT
  1
GRIDFORMAT_BEGIN
 90
        0
 91
        1
 62
     0
 92
       -2
340
0
 93
        0
 40
1.125
309
GRIDFORMAT_END
 95
        8
302
GRIDFORMAT
  1
GRIDFORMAT_BEGIN
 90
        0
 91
        1
 62
     0
 92
       -2
340
0
 93
        0
 40
1.125
309
GRIDFORMAT_END
 95
       16
302
GRIDFORMAT
  1
GRIDFORMAT_BEGIN
 90
        0
 91
        1
 62
     0
 92
       -2
340
0
 93
        0
 40
1.125
309
GRIDFORMAT_END
 95
       32
302
GRIDFORMAT
  1
GRIDFORMAT_BEGIN
 90
        0
 91
        1
 62
     0
 92
       -2
340
0
 93
        0
 40
1.125
309
GRIDFORMAT_END
309
TABLEFORMAT_END
  1
CELLSTYLE_BEGIN
 90
        1
 91
        1
300
_TITLE
309
CELLSTYLE_END
300
CELLSTYLE
  1
TABLEFORMAT_BEGIN
 90
        5
170
     1
 91
        0
 92
        0
 62
   257
 93
        1
300
CONTENTFORMAT
  1
CONTENTFORMAT_BEGIN
 90
        0
 91
        0
 92
      512
 93
        0
300

 40
0.0
140
1.0
 94
        5
 62
     0
340
11
144
4.5
309
CONTENTFORMAT_END
171
     1
301
MARGIN
  1
CELLMARGIN_BEGIN
 40
1.5
 40
1.5
 40
1.5
 40
1.5
 40
4.5
 40
4.5
309
CELLMARGIN_END
 94
        6
 95
        1
302
GRIDFORMAT
  1
GRIDFORMAT_BEGIN
 90
        0
 91
        1
 62
     0
 92
       -2
340
0
 93
        0
 40
1.125
309
GRIDFORMAT_END
 95
        2
302
GRIDFORMAT
  1
GRIDFORMAT_BEGIN
 90
        0
 91
        1
 62
     0
 92
       -2
340
0
 93
        0
 40
1.125
309
GRIDFORMAT_END
 95
        4
302
GRIDFORMAT
  1
GRIDFORMAT_BEGIN
 90
        0
 91
        1
 62
     0
 92
       -2
340
0
 93
        0
 40
1.125
309
GRIDFORMAT_END
 95
        8
302
GRIDFORMAT
  1
GRIDFORMAT_BEGIN
 90
        0
 91
        1
 62
     0
 92
       -2
340
0
 93
        0
 40
1.125
309
GRIDFORMAT_END
 95
       16
302
GRIDFORMAT
  1
GRIDFORMAT_BEGIN
 90
        0
 91
        1
 62
     0
 92
       -2
340
0
 93
        0
 40
1.125
309
GRIDFORMAT_END
 95
       32
302
GRIDFORMAT
  1
GRIDFORMAT_BEGIN
 90
        0
 91
        1
 62
     0
 92
       -2
340
0
 93
        0
 40
1.125
309
GRIDFORMAT_END
309
TABLEFORMAT_END
  1
CELLSTYLE_BEGIN
 90
        2
 91
        1
300
_HEADER
309
CELLSTYLE_END
300
CELLSTYLE
  1
TABLEFORMAT_BEGIN
 90
        5
170
     1
 91
        0
 92
        0
 62
   257
 93
        1
300
CONTENTFORMAT
  1
CONTENTFORMAT_BEGIN
 90
        0
 91
        0
 92
      512
 93
        0
300

 40
0.0
140
1.0
 94
        2
 62
     0
340
11
144
4.5
309
CONTENTFORMAT_END
171
     1
301
MARGIN
  1
CELLMARGIN_BEGIN
 40
1.5
 40
1.5
 40
1.5
 40
1.5
 40
4.5
 40
4.5
309
CELLMARGIN_END
 94
        6
 95
        1
302
GRIDFORMAT
  1
GRIDFORMAT_BEGIN
 90
        0
 91
        1
 62
     0
 92
       -2
340
0
 93
        0
 40
1.125
309
GRIDFORMAT_END
 95
        2
302
GRIDFORMAT
  1
GRIDFORMAT_BEGIN
 90
        0
 91
        1
 62
     0
 92
       -2
340
0
 93
        0
 40
1.125
309
GRIDFORMAT_END
 95
        4
302
GRIDFORMAT
  1
GRIDFORMAT_BEGIN
 90
        0
 91
        1
 62
     0
 92
       -2
340
0
 93
        0
 40
1.125
309
GRIDFORMAT_END
 95
        8
302
GRIDFORMAT
  1
GRIDFORMAT_BEGIN
 90
        0
 91
        1
 62
     0
 92
       -2
340
0
 93
        0
 40
1.125
309
GRIDFORMAT_END
 95
       16
302
GRIDFORMAT
  1
GRIDFORMAT_BEGIN
 90
        0
 91
        1
 62
     0
 92
       -2
340
0
 93
        0
 40
1.125
309
GRIDFORMAT_END
 95
       32
302
GRIDFORMAT
  1
GRIDFORMAT_BEGIN
 90
        0
 91
        1
 62
     0
 92
       -2
340
0
 93
        0
 40
1.125
309
GRIDFORMAT_END
309
TABLEFORMAT_END
  1
CELLSTYLE_BEGIN
 90
        3
 91
        2
300
_DATA
309
CELLSTYLE_END
  0
XRECORD
  5
850
102
{ACAD_REACTORS
330
81F
102
}
330
81F
100
AcDbXrecord
280
     1
102
ACAD_ROUNDTRIP_PRE2007_TABLESTYLE
 90
      512
 91
        0
  1

 92
      512
 93
        0
  2

 94
      512
 95
        0
  3

  0
XRECORD
  5
835
102
{ACAD_REACTORS
330
834
102
}
330
834
100
AcDbXrecord
280
     1
102
RTVSPropertyOp0
 70
     1
102
RTVSPropertyOp1
 70
     1
102
RTVSPropertyOp2
 70
     1
102
RTVSPropertyOp3
 70
     1
102
RTVSPropertyOp4
 70
     1
102
RTVSPropertyOp5
 70
     1
102
RTVSPropertyOp6
 70
     1
102
RTVSPropertyOp7
 70
     1
102
RTVSPropertyOp8
 70
     1
102
RTVSPropertyOp9
 70
     1
102
RTVSPropertyOp10
 70
     1
102
RTVSPropertyOp11
 70
     1
102
RTVSPropertyOp12
 70
     1
102
RTVSPropertyOp13
 70
     1
102
RTVSPropertyOp14
 70
     1
102
RTVSPropertyOp15
 70
     1
102
RTVSPropertyOp16
 70
     1
102
RTVSPropertyOp17
 70
     1
102
RTVSPropertyOp18
 70
     1
102
RTVSPropertyOp19
 70
     1
102
RTVSPropertyOp20
 70
     1
102
RTVSPropertyOp21
 70
     1
102
RTVSPropertyOp22
 70
     1
102
RTVSPropertyOp23
 70
     1
102
RTVSPropertyOp24
 70
     1
102
RTVSPropertyOp25
 70
     1
102
RTVSPropertyOp26
 70
     1
102
RTVSPropertyOp27
 70
     1
  0
XRECORD
  5
839
102
{ACAD_REACTORS
330
838
102
}
330
838
100
AcDbXrecord
280
     1
102
RTVSPropertyOp0
 70
     1
102
RTVSPropertyOp1
 70
     1
102
RTVSPropertyOp2
 70
     1
102
RTVSPropertyOp3
 70
     1
102
RTVSPropertyOp4
 70
     1
102
RTVSPropertyOp5
 70
     1
102
RTVSPropertyOp6
 70
     1
102
RTVSPropertyOp7
 70
     1
102
RTVSPropertyOp8
 70
     1
102
RTVSPropertyOp9
 70
     1
102
RTVSPropertyOp10
 70
     1
102
RTVSPropertyOp11
 70
     1
102
RTVSPropertyOp12
 70
     1
102
RTVSPropertyOp13
 70
     1
102
RTVSPropertyOp14
 70
     1
102
RTVSPropertyOp15
 70
     1
102
RTVSPropertyOp16
 70
     1
102
RTVSPropertyOp17
 70
     1
102
RTVSPropertyOp18
 70
     1
102
RTVSPropertyOp19
 70
     1
102
RTVSPropertyOp20
 70
     1
102
RTVSPropertyOp21
 70
     1
102
RTVSPropertyOp22
 70
     1
102
RTVSPropertyOp23
 70
     1
102
RTVSPropertyOp24
 70
     1
102
RTVSPropertyOp25
 70
     1
102
RTVSPropertyOp26
 70
     1
102
RTVSPropertyOp27
 70
     1
  0
XRECORD
  5
837
102
{ACAD_REACTORS
330
836
102
}
330
836
100
AcDbXrecord
280
     1
102
RTVSPropertyOp0
 70
     1
102
RTVSPropertyOp1
 70
     1
102
RTVSPropertyOp2
 70
     1
102
RTVSPropertyOp3
 70
     1
102
RTVSPropertyOp4
 70
     1
102
RTVSPropertyOp5
 70
     1
102
RTVSPropertyOp6
 70
     1
102
RTVSPropertyOp7
 70
     1
102
RTVSPropertyOp8
 70
     1
102
RTVSPropertyOp9
 70
     1
102
RTVSPropertyOp10
 70
     1
102
RTVSPropertyOp11
 70
     1
102
RTVSPropertyOp12
 70
     1
102
RTVSPropertyOp13
 70
     1
102
RTVSPropertyOp14
 70
     1
102
RTVSPropertyOp15
 70
     1
102
RTVSPropertyOp16
 70
     1
102
RTVSPropertyOp17
 70
     1
102
RTVSPropertyOp18
 70
     1
102
RTVSPropertyOp19
 70
     1
102
RTVSPropertyOp20
 70
     1
102
RTVSPropertyOp21
 70
     1
102
RTVSPropertyOp22
 70
     1
102
RTVSPropertyOp23
 70
     1
102
RTVSPropertyOp24
 70
     1
102
RTVSPropertyOp25
 70
     1
102
RTVSPropertyOp26
 70
     1
102
RTVSPropertyOp27
 70
     1
  0
XRECORD
  5
833
102
{ACAD_REACTORS
330
832
102
}
330
832
100
AcDbXrecord
280
     1
102
RTVSPropertyOp0
 70
     1
102
RTVSPropertyOp1
 70
     1
102
RTVSPropertyOp2
 70
     1
102
RTVSPropertyOp3
 70
     1
102
RTVSPropertyOp4
 70
     1
102
RTVSPropertyOp5
 70
     1
102
RTVSPropertyOp6
 70
     1
102
RTVSPropertyOp7
 70
     1
102
RTVSPropertyOp8
 70
     1
102
RTVSPropertyOp9
 70
     1
102
RTVSPropertyOp10
 70
     1
102
RTVSPropertyOp11
 70
     1
102
RTVSPropertyOp12
 70
     1
102
RTVSPropertyOp13
 70
     1
102
RTVSPropertyOp14
 70
     1
102
RTVSPropertyOp15
 70
     1
102
RTVSPropertyOp16
 70
     1
102
RTVSPropertyOp17
 70
     1
102
RTVSPropertyOp18
 70
     1
102
RTVSPropertyOp19
 70
     1
102
RTVSPropertyOp20
 70
     1
102
RTVSPropertyOp21
 70
     1
102
RTVSPropertyOp22
 70
     1
102
RTVSPropertyOp23
 70
     1
102
RTVSPropertyOp24
 70
     1
102
RTVSPropertyOp25
 70
     1
102
RTVSPropertyOp26
 70
     1
102
RTVSPropertyOp27
 70
     1
  0
XRECORD
  5
841
102
{ACAD_REACTORS
330
840
102
}
330
840
100
AcDbXrecord
280
     1
102
RTVSPropertyOp0
 70
     1
102
RTVSPropertyOp1
 70
     1
102
RTVSPropertyOp2
 70
     1
102
RTVSPropertyOp3
 70
     1
102
RTVSPropertyOp4
 70
     1
102
RTVSPropertyOp5
 70
     1
102
RTVSPropertyOp6
 70
     1
102
RTVSPropertyOp7
 70
     1
102
RTVSPropertyOp8
 70
     1
102
RTVSPropertyOp9
 70
     1
102
RTVSPropertyOp10
 70
     1
102
RTVSPropertyOp11
 70
     1
102
RTVSPropertyOp12
 70
     1
102
RTVSPropertyOp13
 70
     1
102
RTVSPropertyOp14
 70
     1
102
RTVSPropertyOp15
 70
     1
102
RTVSPropertyOp16
 70
     1
102
RTVSPropertyOp17
 70
     1
102
RTVSPropertyOp18
 70
     1
102
RTVSPropertyOp19
 70
     1
102
RTVSPropertyOp20
 70
     1
102
RTVSPropertyOp21
 70
     1
102
RTVSPropertyOp22
 70
     1
102
RTVSPropertyOp23
 70
     1
102
RTVSPropertyOp24
 70
     1
102
RTVSPropertyOp25
 70
     1
102
RTVSPropertyOp26
 70
     1
102
RTVSPropertyOp27
 70
     1
  0
XRECORD
  5
849
102
{ACAD_REACTORS
330
848
102
}
330
848
100
AcDbXrecord
280
     1
102
RTVSPropertyOp0
 70
     1
102
RTVSPropertyOp1
 70
     1
102
RTVSPropertyOp2
 70
     1
102
RTVSPropertyOp3
 70
     1
102
RTVSPropertyOp4
 70
     1
102
RTVSPropertyOp5
 70
     1
102
RTVSPropertyOp6
 70
     1
102
RTVSPropertyOp7
 70
     1
102
RTVSPropertyOp8
 70
     1
102
RTVSPropertyOp9
 70
     1
102
RTVSPropertyOp10
 70
     1
102
RTVSPropertyOp11
 70
     1
102
RTVSPropertyOp12
 70
     1
102
RTVSPropertyOp13
 70
     1
102
RTVSPropertyOp14
 70
     1
102
RTVSPropertyOp15
 70
     1
102
RTVSPropertyOp16
 70
     1
102
RTVSPropertyOp17
 70
     1
102
RTVSPropertyOp18
 70
     1
102
RTVSPropertyOp19
 70
     1
102
RTVSPropertyOp20
 70
     1
102
RTVSPropertyOp21
 70
     1
102
RTVSPropertyOp22
 70
     1
102
RTVSPropertyOp23
 70
     1
102
RTVSPropertyOp24
 70
     1
102
RTVSPropertyOp25
 70
     1
102
RTVSPropertyOp26
 70
     1
102
RTVSPropertyOp27
 70
     1
  0
XRECORD
  5
83B
102
{ACAD_REACTORS
330
83A
102
}
330
83A
100
AcDbXrecord
280
     1
102
RTVSPropertyOp0
 70
     1
102
RTVSPropertyOp1
 70
     1
102
RTVSPropertyOp2
 70
     1
102
RTVSPropertyOp3
 70
     1
102
RTVSPropertyOp4
 70
     1
102
RTVSPropertyOp5
 70
     1
102
RTVSPropertyOp6
 70
     1
102
RTVSPropertyOp7
 70
     1
102
RTVSPropertyOp8
 70
     1
102
RTVSPropertyOp9
 70
     1
102
RTVSPropertyOp10
 70
     1
102
RTVSPropertyOp11
 70
     1
102
RTVSPropertyOp12
 70
     1
102
RTVSPropertyOp13
 70
     1
102
RTVSPropertyOp14
 70
     1
102
RTVSPropertyOp15
 70
     1
102
RTVSPropertyOp16
 70
     1
102
RTVSPropertyOp17
 70
     1
102
RTVSPropertyOp18
 70
     1
102
RTVSPropertyOp19
 70
     1
102
RTVSPropertyOp20
 70
     1
102
RTVSPropertyOp21
 70
     1
102
RTVSPropertyOp22
 70
     1
102
RTVSPropertyOp23
 70
     1
102
RTVSPropertyOp24
 70
     1
102
RTVSPropertyOp25
 70
     1
102
RTVSPropertyOp26
 70
     1
102
RTVSPropertyOp27
 70
     1
  0
XRECORD
  5
83F
102
{ACAD_REACTORS
330
83E
102
}
330
83E
100
AcDbXrecord
280
     1
102
RTVSPropertyOp0
 70
     1
102
RTVSPropertyOp1
 70
     1
102
RTVSPropertyOp2
 70
     1
102
RTVSPropertyOp3
 70
     1
102
RTVSPropertyOp4
 70
     1
102
RTVSPropertyOp5
 70
     1
102
RTVSPropertyOp6
 70
     1
102
RTVSPropertyOp7
 70
     1
102
RTVSPropertyOp8
 70
     1
102
RTVSPropertyOp9
 70
     1
102
RTVSPropertyOp10
 70
     1
102
RTVSPropertyOp11
 70
     1
102
RTVSPropertyOp12
 70
     1
102
RTVSPropertyOp13
 70
     1
102
RTVSPropertyOp14
 70
     1
102
RTVSPropertyOp15
 70
     1
102
RTVSPropertyOp16
 70
     1
102
RTVSPropertyOp17
 70
     1
102
RTVSPropertyOp18
 70
     1
102
RTVSPropertyOp19
 70
     1
102
RTVSPropertyOp20
 70
     1
102
RTVSPropertyOp21
 70
     1
102
RTVSPropertyOp22
 70
     1
102
RTVSPropertyOp23
 70
     1
102
RTVSPropertyOp24
 70
     1
102
RTVSPropertyOp25
 70
     1
102
RTVSPropertyOp26
 70
     1
102
RTVSPropertyOp27
 70
     1
  0
XRECORD
  5
84F
102
{ACAD_REACTORS
330
84E
102
}
330
84E
100
AcDbXrecord
280
     1
102
RTVSPropertyOp0
 70
     0
102
RTVSPropertyOp1
 70
     0
102
RTVSPropertyOp2
 70
     0
102
RTVSPropertyOp3
 70
     0
102
RTVSPropertyOp4
 70
     0
102
RTVSPropertyOp5
 70
     0
102
RTVSPropertyOp6
 70
     0
102
RTVSPropertyOp7
 70
     0
102
RTVSPropertyOp8
 70
     0
102
RTVSPropertyOp9
 70
     0
102
RTVSPropertyOp10
 70
     0
102
RTVSPropertyOp11
 70
     0
102
RTVSPropertyOp12
 70
     0
102
RTVSPropertyOp13
 70
     0
102
RTVSPropertyOp14
 70
     2
102
RTVSPropertyOp15
 70
     0
102
RTVSPropertyOp16
 70
     0
102
RTVSPropertyOp17
 70
     0
102
RTVSPropertyOp18
 70
     0
102
RTVSPropertyOp19
 70
     0
102
RTVSPropertyOp20
 70
     0
102
RTVSPropertyOp21
 70
     0
102
RTVSPropertyOp22
 70
     0
102
RTVSPropertyOp23
 70
     0
102
RTVSPropertyOp24
 70
     0
102
RTVSPropertyOp25
 70
     0
102
RTVSPropertyOp26
 70
     0
102
RTVSPropertyOp27
 70
     0
  0
XRECORD
  5
847
102
{ACAD_REACTORS
330
846
102
}
330
846
100
AcDbXrecord
280
     1
102
RTVSPropertyOp0
 70
     1
102
RTVSPropertyOp1
 70
     1
102
RTVSPropertyOp2
 70
     1
102
RTVSPropertyOp3
 70
     1
102
RTVSPropertyOp4
 70
     1
102
RTVSPropertyOp5
 70
     1
102
RTVSPropertyOp6
 70
     1
102
RTVSPropertyOp7
 70
     1
102
RTVSPropertyOp8
 70
     1
102
RTVSPropertyOp9
 70
     1
102
RTVSPropertyOp10
 70
     1
102
RTVSPropertyOp11
 70
     1
102
RTVSPropertyOp12
 70
     1
102
RTVSPropertyOp13
 70
     1
102
RTVSPropertyOp14
 70
     1
102
RTVSPropertyOp15
 70
     1
102
RTVSPropertyOp16
 70
     1
102
RTVSPropertyOp17
 70
     1
102
RTVSPropertyOp18
 70
     1
102
RTVSPropertyOp19
 70
     1
102
RTVSPropertyOp20
 70
     1
102
RTVSPropertyOp21
 70
     1
102
RTVSPropertyOp22
 70
     1
102
RTVSPropertyOp23
 70
     1
102
RTVSPropertyOp24
 70
     1
102
RTVSPropertyOp25
 70
     1
102
RTVSPropertyOp26
 70
     1
102
RTVSPropertyOp27
 70
     1
  0
XRECORD
  5
82B
102
{ACAD_REACTORS
330
82A
102
}
330
82A
100
AcDbXrecord
280
     1
102
RTVSPropertyOp0
 70
     1
102
RTVSPropertyOp1
 70
     1
102
RTVSPropertyOp2
 70
     1
102
RTVSPropertyOp3
 70
     1
102
RTVSPropertyOp4
 70
     1
102
RTVSPropertyOp5
 70
     1
102
RTVSPropertyOp6
 70
     1
102
RTVSPropertyOp7
 70
     1
102
RTVSPropertyOp8
 70
     1
102
RTVSPropertyOp9
 70
     1
102
RTVSPropertyOp10
 70
     1
102
RTVSPropertyOp11
 70
     1
102
RTVSPropertyOp12
 70
     1
102
RTVSPropertyOp13
 70
     1
102
RTVSPropertyOp14
 70
     1
102
RTVSPropertyOp15
 70
     1
102
RTVSPropertyOp16
 70
     1
102
RTVSPropertyOp17
 70
     1
102
RTVSPropertyOp18
 70
     1
102
RTVSPropertyOp19
 70
     1
102
RTVSPropertyOp20
 70
     1
102
RTVSPropertyOp21
 70
     1
102
RTVSPropertyOp22
 70
     1
102
RTVSPropertyOp23
 70
     1
102
RTVSPropertyOp24
 70
     1
102
RTVSPropertyOp25
 70
     1
102
RTVSPropertyOp26
 70
     1
102
RTVSPropertyOp27
 70
     1
  0
XRECORD
  5
82D
102
{ACAD_REACTORS
330
82C
102
}
330
82C
100
AcDbXrecord
280
     1
102
RTVSPropertyOp0
 70
     1
102
RTVSPropertyOp1
 70
     1
102
RTVSPropertyOp2
 70
     1
102
RTVSPropertyOp3
 70
     1
102
RTVSPropertyOp4
 70
     1
102
RTVSPropertyOp5
 70
     1
102
RTVSPropertyOp6
 70
     1
102
RTVSPropertyOp7
 70
     1
102
RTVSPropertyOp8
 70
     1
102
RTVSPropertyOp9
 70
     1
102
RTVSPropertyOp10
 70
     1
102
RTVSPropertyOp11
 70
     1
102
RTVSPropertyOp12
 70
     1
102
RTVSPropertyOp13
 70
     1
102
RTVSPropertyOp14
 70
     1
102
RTVSPropertyOp15
 70
     1
102
RTVSPropertyOp16
 70
     1
102
RTVSPropertyOp17
 70
     1
102
RTVSPropertyOp18
 70
     1
102
RTVSPropertyOp19
 70
     1
102
RTVSPropertyOp20
 70
     1
102
RTVSPropertyOp21
 70
     1
102
RTVSPropertyOp22
 70
     1
102
RTVSPropertyOp23
 70
     1
102
RTVSPropertyOp24
 70
     1
102
RTVSPropertyOp25
 70
     1
102
RTVSPropertyOp26
 70
     1
102
RTVSPropertyOp27
 70
     1
  0
XRECORD
  5
82F
102
{ACAD_REACTORS
330
82E
102
}
330
82E
100
AcDbXrecord
280
     1
102
RTVSPropertyOp0
 70
     1
102
RTVSPropertyOp1
 70
     1
102
RTVSPropertyOp2
 70
     1
102
RTVSPropertyOp3
 70
     1
102
RTVSPropertyOp4
 70
     1
102
RTVSPropertyOp5
 70
     1
102
RTVSPropertyOp6
 70
     1
102
RTVSPropertyOp7
 70
     1
102
RTVSPropertyOp8
 70
     1
102
RTVSPropertyOp9
 70
     1
102
RTVSPropertyOp10
 70
     1
102
RTVSPropertyOp11
 70
     1
102
RTVSPropertyOp12
 70
     1
102
RTVSPropertyOp13
 70
     1
102
RTVSPropertyOp14
 70
     1
102
RTVSPropertyOp15
 70
     1
102
RTVSPropertyOp16
 70
     1
102
RTVSPropertyOp17
 70
     1
102
RTVSPropertyOp18
 70
     1
102
RTVSPropertyOp19
 70
     1
102
RTVSPropertyOp20
 70
     1
102
RTVSPropertyOp21
 70
     1
102
RTVSPropertyOp22
 70
     1
102
RTVSPropertyOp23
 70
     1
102
RTVSPropertyOp24
 70
     1
102
RTVSPropertyOp25
 70
     1
102
RTVSPropertyOp26
 70
     1
102
RTVSPropertyOp27
 70
     1
  0
XRECORD
  5
831
102
{ACAD_REACTORS
330
830
102
}
330
830
100
AcDbXrecord
280
     1
102
RTVSPropertyOp0
 70
     1
102
RTVSPropertyOp1
 70
     1
102
RTVSPropertyOp2
 70
     1
102
RTVSPropertyOp3
 70
     1
102
RTVSPropertyOp4
 70
     1
102
RTVSPropertyOp5
 70
     1
102
RTVSPropertyOp6
 70
     1
102
RTVSPropertyOp7
 70
     1
102
RTVSPropertyOp8
 70
     1
102
RTVSPropertyOp9
 70
     1
102
RTVSPropertyOp10
 70
     1
102
RTVSPropertyOp11
 70
     1
102
RTVSPropertyOp12
 70
     1
102
RTVSPropertyOp13
 70
     1
102
RTVSPropertyOp14
 70
     1
102
RTVSPropertyOp15
 70
     1
102
RTVSPropertyOp16
 70
     1
102
RTVSPropertyOp17
 70
     1
102
RTVSPropertyOp18
 70
     1
102
RTVSPropertyOp19
 70
     1
102
RTVSPropertyOp20
 70
     1
102
RTVSPropertyOp21
 70
     1
102
RTVSPropertyOp22
 70
     1
102
RTVSPropertyOp23
 70
     1
102
RTVSPropertyOp24
 70
     1
102
RTVSPropertyOp25
 70
     1
102
RTVSPropertyOp26
 70
     1
102
RTVSPropertyOp27
 70
     1
  0
XRECORD
  5
84B
102
{ACAD_REACTORS
330
84A
102
}
330
84A
100
AcDbXrecord
280
     1
102
RTVSPropertyOp0
 70
     0
102
RTVSPropertyOp1
 70
     0
102
RTVSPropertyOp2
 70
     0
102
RTVSPropertyOp3
 70
     0
102
RTVSPropertyOp4
 70
     0
102
RTVSPropertyOp5
 70
     0
102
RTVSPropertyOp6
 70
     0
102
RTVSPropertyOp7
 70
     0
102
RTVSPropertyOp8
 70
     0
102
RTVSPropertyOp9
 70
     0
102
RTVSPropertyOp10
 70
     0
102
RTVSPropertyOp11
 70
     0
102
RTVSPropertyOp12
 70
     0
102
RTVSPropertyOp13
 70
     0
102
RTVSPropertyOp14
 70
     2
102
RTVSPropertyOp15
 70
     0
102
RTVSPropertyOp16
 70
     0
102
RTVSPropertyOp17
 70
     0
102
RTVSPropertyOp18
 70
     0
102
RTVSPropertyOp19
 70
     0
102
RTVSPropertyOp20
 70
     0
102
RTVSPropertyOp21
 70
     0
102
RTVSPropertyOp22
 70
     0
102
RTVSPropertyOp23
 70
     0
102
RTVSPropertyOp24
 70
     0
102
RTVSPropertyOp25
 70
     0
102
RTVSPropertyOp26
 70
     0
102
RTVSPropertyOp27
 70
     0
  0
XRECORD
  5
845
102
{ACAD_REACTORS
330
844
102
}
330
844
100
AcDbXrecord
280
     1
102
RTVSPropertyOp0
 70
     1
102
RTVSPropertyOp1
 70
     1
102
RTVSPropertyOp2
 70
     1
102
RTVSPropertyOp3
 70
     1
102
RTVSPropertyOp4
 70
     1
102
RTVSPropertyOp5
 70
     1
102
RTVSPropertyOp6
 70
     1
102
RTVSPropertyOp7
 70
     1
102
RTVSPropertyOp8
 70
     1
102
RTVSPropertyOp9
 70
     1
102
RTVSPropertyOp10
 70
     1
102
RTVSPropertyOp11
 70
     1
102
RTVSPropertyOp12
 70
     1
102
RTVSPropertyOp13
 70
     1
102
RTVSPropertyOp14
 70
     1
102
RTVSPropertyOp15
 70
     1
102
RTVSPropertyOp16
 70
     1
102
RTVSPropertyOp17
 70
     1
102
RTVSPropertyOp18
 70
     1
102
RTVSPropertyOp19
 70
     1
102
RTVSPropertyOp20
 70
     1
102
RTVSPropertyOp21
 70
     1
102
RTVSPropertyOp22
 70
     1
102
RTVSPropertyOp23
 70
     1
102
RTVSPropertyOp24
 70
     1
102
RTVSPropertyOp25
 70
     1
102
RTVSPropertyOp26
 70
     1
102
RTVSPropertyOp27
 70
     1
  0
XRECORD
  5
84D
102
{ACAD_REACTORS
330
84C
102
}
330
84C
100
AcDbXrecord
280
     1
102
RTVSPropertyOp0
 70
     0
102
RTVSPropertyOp1
 70
     0
102
RTVSPropertyOp2
 70
     0
102
RTVSPropertyOp3
 70
     0
102
RTVSPropertyOp4
 70
     0
102
RTVSPropertyOp5
 70
     0
102
RTVSPropertyOp6
 70
     0
102
RTVSPropertyOp7
 70
     0
102
RTVSPropertyOp8
 70
     0
102
RTVSPropertyOp9
 70
     0
102
RTVSPropertyOp10
 70
     0
102
RTVSPropertyOp11
 70
     0
102
RTVSPropertyOp12
 70
     0
102
RTVSPropertyOp13
 70
     0
102
RTVSPropertyOp14
 70
     2
102
RTVSPropertyOp15
 70
     0
102
RTVSPropertyOp16
 70
     0
102
RTVSPropertyOp17
 70
     0
102
RTVSPropertyOp18
 70
     0
102
RTVSPropertyOp19
 70
     0
102
RTVSPropertyOp20
 70
     0
102
RTVSPropertyOp21
 70
     0
102
RTVSPropertyOp22
 70
     0
102
RTVSPropertyOp23
 70
     0
102
RTVSPropertyOp24
 70
     0
102
RTVSPropertyOp25
 70
     0
102
RTVSPropertyOp26
 70
     0
102
RTVSPropertyOp27
 70
     0
  0
XRECORD
  5
83D
102
{ACAD_REACTORS
330
83C
102
}
330
83C
100
AcDbXrecord
280
     1
102
RTVSPropertyOp0
 70
     1
102
RTVSPropertyOp1
 70
     1
102
RTVSPropertyOp2
 70
     1
102
RTVSPropertyOp3
 70
     1
102
RTVSPropertyOp4
 70
     1
102
RTVSPropertyOp5
 70
     1
102
RTVSPropertyOp6
 70
     1
102
RTVSPropertyOp7
 70
     1
102
RTVSPropertyOp8
 70
     1
102
RTVSPropertyOp9
 70
     1
102
RTVSPropertyOp10
 70
     1
102
RTVSPropertyOp11
 70
     1
102
RTVSPropertyOp12
 70
     1
102
RTVSPropertyOp13
 70
     1
102
RTVSPropertyOp14
 70
     1
102
RTVSPropertyOp15
 70
     1
102
RTVSPropertyOp16
 70
     1
102
RTVSPropertyOp17
 70
     1
102
RTVSPropertyOp18
 70
     1
102
RTVSPropertyOp19
 70
     1
102
RTVSPropertyOp20
 70
     1
102
RTVSPropertyOp21
 70
     1
102
RTVSPropertyOp22
 70
     1
102
RTVSPropertyOp23
 70
     1
102
RTVSPropertyOp24
 70
     1
102
RTVSPropertyOp25
 70
     1
102
RTVSPropertyOp26
 70
     1
102
RTVSPropertyOp27
 70
     1
  0
XRECORD
  5
843
102
{ACAD_REACTORS
330
842
102
}
330
842
100
AcDbXrecord
280
     1
102
RTVSPropertyOp0
 70
     1
102
RTVSPropertyOp1
 70
     1
102
RTVSPropertyOp2
 70
     1
102
RTVSPropertyOp3
 70
     1
102
RTVSPropertyOp4
 70
     1
102
RTVSPropertyOp5
 70
     1
102
RTVSPropertyOp6
 70
     1
102
RTVSPropertyOp7
 70
     1
102
RTVSPropertyOp8
 70
     1
102
RTVSPropertyOp9
 70
     1
102
RTVSPropertyOp10
 70
     1
102
RTVSPropertyOp11
 70
     1
102
RTVSPropertyOp12
 70
     1
102
RTVSPropertyOp13
 70
     1
102
RTVSPropertyOp14
 70
     1
102
RTVSPropertyOp15
 70
     1
102
RTVSPropertyOp16
 70
     1
102
RTVSPropertyOp17
 70
     1
102
RTVSPropertyOp18
 70
     1
102
RTVSPropertyOp19
 70
     1
102
RTVSPropertyOp20
 70
     1
102
RTVSPropertyOp21
 70
     1
102
RTVSPropertyOp22
 70
     1
102
RTVSPropertyOp23
 70
     1
102
RTVSPropertyOp24
 70
     1
102
RTVSPropertyOp25
 70
     1
102
RTVSPropertyOp26
 70
     1
102
RTVSPropertyOp27
 70
     1
  0
ENDSEC
  0
EOF
