  0
SECTION
  2
HEADER
  9
$ACADVER
  1
AC1015
  9
$ACADMAINTVER
 70
    20
  9
$DWGCODEPAGE
  3
ANSI_1252
  9
$INSBASE
 10
0.0
 20
0.0
 30
0.0
  9
$EXTMIN
 10
-75.79083122474935
 20
85.88716732397346
 30
-0.0015258207003583
  9
$EXTMAX
 10
958.7875689463544
 20
413.7002573182112
 30
0.0000000349246037
  9
$LIMMIN
 10
0.0
 20
0.0
  9
$LIMMAX
 10
594.0
 20
420.0
  9
$ORTHOMODE
 70
     1
  9
$REGENMODE
 70
     1
  9
$FILLMODE
 70
     1
  9
$QTEXTMODE
 70
     0
  9
$MIRRTEXT
 70
     0
  9
$LTSCALE
 40
32.67
  9
$ATTMODE
 70
     1
  9
$TEXTSIZE
 40
0.2
  9
$TRACEWID
 40
0.05
  9
$TEXTSTYLE
  7
STANDARD
  9
$CLAYER
  8
0
  9
$CELTYPE
  6
BYLAYER
  9
$CECOLOR
 62
   256
  9
$CELTSCALE
 40
1.0
  9
$DISPSILH
 70
     0
  9
$DIMSCALE
 40
1.0
  9
$DIMASZ
 40
3.5
  9
$DIMEXO
 40
1.5
  9
$DIMDLI
 40
22.572
  9
$DIMRND
 40
0.0
  9
$DIMDLE
 40
0.0
  9
$DIMEXE
 40
1.5
  9
$DIMTP
 40
0.005
  9
$DIMTM
 40
0.005
  9
$DIMTXT
 40
3.5
  9
$DIMCEN
 40
5.346
  9
$DIMTSZ
 40
0.0
  9
$DIMTOL
 70
     1
  9
$DIMLIM
 70
     0
  9
$DIMTIH
 70
     1
  9
$DIMTOH
 70
     1
  9
$DIMSE1
 70
     0
  9
$DIMSE2
 70
     0
  9
$DIMTAD
 70
     0
  9
$DIMZIN
 70
     0
  9
$DIMBLK
  1
_FILLED
  9
$DIMASO
 70
     1
  9
$DIMSHO
 70
     1
  9
$DIMPOST
  1

  9
$DIMAPOST
  1

  9
$DIMALT
 70
     0
  9
$DIMALTD
 70
     2
  9
$DIMALTF
 40
25.4
  9
$DIMLFAC
 40
1.0
  9
$DIMTOFL
 70
     0
  9
$DIMTVP
 40
0.0
  9
$DIMTIX
 70
     0
  9
$DIMSOXD
 70
     0
  9
$DIMSAH
 70
     0
  9
$DIMBLK1
  1

  9
$DIMBLK2
  1

  9
$DIMSTYLE
  2
STANDARD
  9
$DIMCLRD
 70
     0
  9
$DIMCLRE
 70
     0
  9
$DIMCLRT
 70
     0
  9
$DIMTFAC
 40
1.0
  9
$DIMGAP
 40
0.625
  9
$DIMJUST
 70
     0
  9
$DIMSD1
 70
     0
  9
$DIMSD2
 70
     0
  9
$DIMTOLJ
 70
     1
  9
$DIMTZIN
 70
     0
  9
$DIMALTZ
 70
     0
  9
$DIMALTTZ
 70
     0
  9
$DIMUPT
 70
     0
  9
$DIMDEC
 70
     4
  9
$DIMTDEC
 70
     4
  9
$DIMALTU
 70
     2
  9
$DIMALTTD
 70
     2
  9
$DIMTXSTY
  7
STANDARD
  9
$DIMAUNIT
 70
     0
  9
$DIMADEC
 70
     0
  9
$DIMALTRND
 40
0.0
  9
$DIMAZIN
 70
     0
  9
$DIMDSEP
 70
    46
  9
$DIMATFIT
 70
     3
  9
$DIMFRAC
 70
     0
  9
$DIMLDRBLK
  1

  9
$DIMLUNIT
 70
     2
  9
$DIMLWD
 70
    -2
  9
$DIMLWE
 70
    -2
  9
$DIMTMOVE
 70
     0
  9
$LUNITS
 70
     2
  9
$LUPREC
 70
     2
  9
$SKETCHINC
 40
0.1
  9
$FILLETRAD
 40
0.0
  9
$AUNITS
 70
     0
  9
$AUPREC
 70
     0
  9
$MENU
  1
.
  9
$ELEVATION
 40
0.0
  9
$PELEVATION
 40
0.0
  9
$THICKNESS
 40
0.0
  9
$LIMCHECK
 70
     0
  9
$CHAMFERA
 40
0.0
  9
$CHAMFERB
 40
0.0
  9
$CHAMFERC
 40
0.0
  9
$CHAMFERD
 40
0.0
  9
$SKPOLY
 70
     0
  9
$TDCREATE
 40
2457196.640339723
  9
$TDUCREATE
 40
2457196.557006389
  9
$TDUPDATE
 40
2457196.664389051
  9
$TDUUPDATE
 40
2457196.581055718
  9
$TDINDWG
 40
0.0240498727
  9
$TDUSRTIMER
 40
0.0240498727
  9
$USRTIMER
 70
     1
  9
$ANGBASE
 50
0.0
  9
$ANGDIR
 70
     0
  9
$PDMODE
 70
     3
  9
$PDSIZE
 40
0.3125
  9
$PLINEWID
 40
0.0
  9
$SPLFRAME
 70
     0
  9
$SPLINETYPE
 70
     6
  9
$SPLINESEGS
 70
     8
  9
$HANDSEED
  5
BF0
  9
$SURFTAB1
 70
     6
  9
$SURFTAB2
 70
     6
  9
$SURFTYPE
 70
     6
  9
$SURFU
 70
     6
  9
$SURFV
 70
     6
  9
$UCSBASE
  2

  9
$UCSNAME
  2

  9
$UCSORG
 10
0.0
 20
0.0
 30
0.0
  9
$UCSXDIR
 10
1.0
 20
0.0
 30
0.0
  9
$UCSYDIR
 10
0.0
 20
1.0
 30
0.0
  9
$UCSORTHOREF
  2

  9
$UCSORTHOVIEW
 70
     0
  9
$UCSORGTOP
 10
0.0
 20
0.0
 30
0.0
  9
$UCSORGBOTTOM
 10
0.0
 20
0.0
 30
0.0
  9
$UCSORGLEFT
 10
0.0
 20
0.0
 30
0.0
  9
$UCSORGRIGHT
 10
0.0
 20
0.0
 30
0.0
  9
$UCSORGFRONT
 10
0.0
 20
0.0
 30
0.0
  9
$UCSORGBACK
 10
0.0
 20
0.0
 30
0.0
  9
$PUCSBASE
  2

  9
$PUCSNAME
  2

  9
$PUCSORG
 10
0.0
 20
0.0
 30
0.0
  9
$PUCSXDIR
 10
1.0
 20
0.0
 30
0.0
  9
$PUCSYDIR
 10
0.0
 20
1.0
 30
0.0
  9
$PUCSORTHOREF
  2

  9
$PUCSORTHOVIEW
 70
     0
  9
$PUCSORGTOP
 10
0.0
 20
0.0
 30
0.0
  9
$PUCSORGBOTTOM
 10
0.0
 20
0.0
 30
0.0
  9
$PUCSORGLEFT
 10
0.0
 20
0.0
 30
0.0
  9
$PUCSORGRIGHT
 10
0.0
 20
0.0
 30
0.0
  9
$PUCSORGFRONT
 10
0.0
 20
0.0
 30
0.0
  9
$PUCSORGBACK
 10
0.0
 20
0.0
 30
0.0
  9
$USERI1
 70
     0
  9
$USERI2
 70
     0
  9
$USERI3
 70
     0
  9
$USERI4
 70
     0
  9
$USERI5
 70
     0
  9
$USERR1
 40
0.0
  9
$USERR2
 40
0.0
  9
$USERR3
 40
0.0
  9
$USERR4
 40
0.0
  9
$USERR5
 40
0.0
  9
$WORLDVIEW
 70
     1
  9
$SHADEDGE
 70
     3
  9
$SHADEDIF
 70
    70
  9
$TILEMODE
 70
     1
  9
$MAXACTVP
 70
    64
  9
$PINSBASE
 10
0.0
 20
0.0
 30
0.0
  9
$PLIMCHECK
 70
     0
  9
$PEXTMIN
 10
1.000000000000000E+20
 20
1.000000000000000E+20
 30
1.000000000000000E+20
  9
$PEXTMAX
 10
-1.000000000000000E+20
 20
-1.000000000000000E+20
 30
-1.000000000000000E+20
  9
$PLIMMIN
 10
0.0
 20
0.0
  9
$PLIMMAX
 10
12.0
 20
9.0
  9
$UNITMODE
 70
     0
  9
$VISRETAIN
 70
     1
  9
$PLINEGEN
 70
     0
  9
$PSLTSCALE
 70
     1
  9
$TREEDEPTH
 70
  3020
  9
$CMLSTYLE
  2
Standard
  9
$CMLJUST
 70
     0
  9
$CMLSCALE
 40
1.0
  9
$PROXYGRAPHICS
 70
     1
  9
$MEASUREMENT
 70
     1
  9
$CELWEIGHT
370
    -1
  9
$ENDCAPS
280
     0
  9
$JOINSTYLE
280
     0
  9
$LWDISPLAY
290
     0
  9
$INSUNITS
 70
     4
  9
$HYPERLINKBASE
  1

  9
$STYLESHEET
  1
monochrome.ctb
  9
$XEDIT
290
     1
  9
$CEPSNTYPE
380
     0
  9
$PSTYLEMODE
290
     1
  9
$FINGERPRINTGUID
  2
{EB66E8FC-5785-467A-8D28-D249664A2E7E}
  9
$VERSIONGUID
  2
{2D51B6BA-508B-4D51-978B-F9FD756A4C91}
  9
$EXTNAMES
290
     1
  9
$PSVPSCALE
 40
0.0
  9
$OLESTARTUP
290
     0
  0
ENDSEC
  0
SECTION
  2
CLASSES
  0
CLASS
  1
ACDBDICTIONARYWDFLT
  2
AcDbDictionaryWithDefault
  3
ObjectDBX Classes
 90
        0
280
     0
281
     0
  0
CLASS
  1
ACDBPLACEHOLDER
  2
AcDbPlaceHolder
  3
ObjectDBX Classes
 90
        0
280
     0
281
     0
  0
CLASS
  1
LAYOUT
  2
AcDbLayout
  3
ObjectDBX Classes
 90
        0
280
     0
281
     0
  0
CLASS
  1
MATERIAL
  2
AcDbMaterial
  3
ObjectDBX Classes
 90
     1153
280
     0
281
     0
  0
CLASS
  1
VISUALSTYLE
  2
AcDbVisualStyle
  3
ObjectDBX Classes
 90
     4095
280
     0
281
     0
  0
CLASS
  1
TABLESTYLE
  2
AcDbTableStyle
  3
ObjectDBX Classes
 90
     4095
280
     0
281
     0
  0
CLASS
  1
SCALE
  2
AcDbScale
  3
ObjectDBX Classes
 90
     1153
280
     0
281
     0
  0
CLASS
  1
MLEADERSTYLE
  2
AcDbMLeaderStyle
  3
ACDB_MLEADERSTYLE_CLASS
 90
     4095
280
     0
281
     0
  0
CLASS
  1
AMGSETTINGSOBJ
  2
AmgSettingsObj
  3
"AcadM|Product Description: AutoCAD Mechanical|Company: Autodesk, Inc."
 90
     1024
280
     0
281
     0
  0
CLASS
  1
ACME_DOCUMENT
  2
AcMeDbDoc
  3
AcMeServices
 90
     1024
280
     0
281
     0
  0
CLASS
  1
ACMESCOPE
  2
AcMeScope
  3
AcMeServices
 90
     1024
280
     0
281
     0
  0
CLASS
  1
ACMECOMMANDHISTORY
  2
AcMeCommandHistory
  3
AcMeServices
 90
     1024
280
     0
281
     0
  0
CLASS
  1
ACIMSYSVARMAN
  2
AcImSysVarManager
  3
AcMeServices
 90
     1024
280
     0
281
     0
  0
CLASS
  1
ACIMINTSYSVAR
  2
AcImIntSysVar
  3
AcMeServices
 90
     1024
280
     0
281
     0
  0
CLASS
  1
ACMEDRAWINGMAN
  2
AcMeDrawingMan
  3
AcMeServices
 90
     1024
280
     0
281
     0
  0
CLASS
  1
ACMEVIEW
  2
AcMeView
  3
AcMeServices
 90
     1024
280
     0
281
     0
  0
CLASS
  1
ACDBENTITYCACHE
  2
AcMeEntityCache
  3
AcMeServices
 90
     1024
280
     0
281
     0
  0
CLASS
  1
ACMESTATEMGR
  2
AcMeStateMgr
  3
AcMeServices
 90
     1024
280
     0
281
     0
  0
CLASS
  1
ACGREFMASTER
  2
AcGrefMaster
  3
AcAttribServices
 90
     1024
280
     0
281
     0
  0
CLASS
  1
AM_DRAWING_MGR
  2
AcDmDwgMgr
  3
AcMechDwgViewMgmt
 90
     1024
280
     0
281
     0
  0
CLASS
  1
AM_DWG_DOCUMENT
  2
AcDmDwgDocument
  3
AcMechDwgViewMgmt
 90
     1024
280
     0
281
     0
  0
CLASS
  1
AM_DWG_SHEET
  2
AcDmSheet
  3
AcMechDwgViewMgmt
 90
     1024
280
     0
281
     0
  0
CLASS
  1
AM_VIEWDIMPARMAP
  2
AcDmViewDimParMap
  3
AcMechDwgViewMgmt
 90
     1024
280
     0
281
     0
  0
CLASS
  1
AMDTINTERNALREACTOR
  2
AmdtInternalReactor
  3
AcMeServices
 90
     1024
280
     0
281
     0
  0
CLASS
  1
ACIMREALSYSVAR
  2
AcImRealSysVar
  3
AcMeServices
 90
     1024
280
     0
281
     0
  0
CLASS
  1
AM_DWGMGR_NAME
  2
AcDmDwgMgrName
  3
AcMechDwgViewMgmt
 90
     1024
280
     0
281
     0
  0
CLASS
  1
ACME_DATABASE
  2
AcMeDbDatabase
  3
AcMeServices
 90
     1024
280
     0
281
     0
  0
CLASS
  1
ACRFINSADJUSTERMGR
  2
AcRfInsAdjusterMgr
  3
AcMeServices
 90
     1024
280
     0
281
     0
  0
CLASS
  1
ACGREFACADMASTER
  2
AcGrefacadMaster
  3
AcGrefServices
 90
     1024
280
     0
281
     0
  0
CLASS
  1
AMDTMENUSTATEMGR
  2
AmdtMenuStateMgr
  3
McadcomServices
 90
     1024
280
     0
281
     0
  0
CLASS
  1
AMDTMCOMMENUSTATE
  2
AmdtMcomMenuState
  3
McadcomServices
 90
     1024
280
     0
281
     0
  0
CLASS
  1
AMIMASTER
  2
AmiMaster
  3
AmiServices
 90
     1024
280
     0
281
     0
  0
CLASS
  1
MAPIAMMOUDLE
  2
MApiAmModule
  3
MApiAmServices
 90
     1024
280
     0
281
     0
  0
CLASS
  1
ACIMSTRSYSVAR
  2
AcImStrSysVar
  3
AcMeServices
 90
     1024
280
     0
281
     0
  0
CLASS
  1
AMDTADMENUSTATE
  2
AmdtAdMenuState
  3
DesignerServices
 90
     1024
280
     0
281
     0
  0
CLASS
  1
ADAPPL
  2
AcAdAppl
  3
DesignerServices
 90
     1024
280
     0
281
     0
  0
CLASS
  1
DEPMGR
  2
AcAdDepMgr
  3
DesignerServices
 90
     1024
280
     0
281
     0
  0
CLASS
  1
PARAMMGR
  2
AcAdParamMgr
  3
DesignerServices
 90
     1024
280
     0
281
     0
  0
CLASS
  1
PARAMSCOPE
  2
AcAdParamScope
  3
DesignerServices
 90
     1024
280
     0
281
     0
  0
CLASS
  1
NAMEDAPPL
  2
AcAdNamedAppl
  3
DesignerServices
 90
     1024
280
     0
281
     0
  0
CLASS
  1
AMDTDMMENUSTATE
  2
AmdtDmMenuState
  3
AcMechDwgViewMgmt
 90
     1024
280
     0
281
     0
  0
CLASS
  1
AMDTAMMENUSTATE
  2
AmdtAmMenuState
  3
DesignerAssemblies
 90
     1024
280
     0
281
     0
  0
CLASS
  1
ACAMPROJECT
  2
AcAmProject
  3
DesignerAssemblies
 90
     1024
280
     0
281
     0
  0
CLASS
  1
ACAMGRCOMPDEF
  2
AcAmGrCompDef
  3
DesignerAssemblies
 90
     1024
280
     0
281
     0
  0
CLASS
  1
ACAMCOMPDEF
  2
AcAmCompDef
  3
DesignerAssemblies
 90
     1024
280
     0
281
     0
  0
CLASS
  1
ACAMCOMPDEFMGR
  2
AcAmCompDefMgr
  3
DesignerAssemblies
 90
     1024
280
     0
281
     0
  0
CLASS
  1
AMCONTEXTMGR
  2
AcAmContextMgr
  3
DesignerAssemblies
 90
     1024
280
     0
281
     0
  0
CLASS
  1
ACAMCONTEXTMODELER
  2
AcAmContextModeler
  3
DesignerAssemblies
 90
     1024
280
     0
281
     0
  0
CLASS
  1
ACMDATADICTIONARY
  2
AcmDataDictionary
  3
"AcmSymBB|Product Description: AutoCAD Mechanical|Company: Autodesk, Inc."
 90
     1024
280
     0
281
     0
  0
CLASS
  1
CATALOGSTATE
  2
AcAmCatalogState
  3
DesignerAssemblies
 90
     1024
280
     0
281
     0
  0
CLASS
  1
ACAMGRCOMPDEFSET
  2
AcAmGrCompDefSet
  3
DesignerAssemblies
 90
     1024
280
     0
281
     0
  0
CLASS
  1
AMDTBROWSERDBTAB
  2
AmdtBrowserDbTab
  3
McadcomServices
 90
     1024
280
     0
281
     0
  0
CLASS
  1
CBROWSERAPPOBJECT
  2
CBrowserAppObject
  3
McadcomServices
 90
     1024
280
     0
281
     0
  0
CLASS
  1
DM_PLACEHOLDER
  2
AcDmSelsetPlaceholder
  3
AcMechDwgViewMgmt
 90
     1024
280
     0
281
     0
  0
CLASS
  1
ACMSTANDARDDIN
  2
AcmStandardDIN
  3
"Amdt_StdImp|Product Description: AutoCAD Mechanical|Company: Autodesk, Inc."
 90
     1024
280
     0
281
     0
  0
CLASS
  1
AMDTEDGESTANDARDDIN13715
  2
AmdtEdgeStdDIN13715
  3
"Amdt_StdImp|Product Description: AutoCAD Mechanical|Company: Autodesk, Inc."
 90
     1024
280
     0
281
     0
  0
CLASS
  1
ACMSURFSTANDARDDIN2002
  2
AcmSurfTextStdDIN2002
  3
"Amdt_StdImp|Product Description: AutoCAD Mechanical|Company: Autodesk, Inc."
 90
     1024
280
     0
281
     0
  0
CLASS
  1
ACMFCFSTANDARDDIN
  2
AcmFCFStdDIN
  3
"Amdt_StdImp|Product Description: AutoCAD Mechanical|Company: Autodesk, Inc."
 90
     1024
280
     0
281
     0
  0
CLASS
  1
ACMWELDSTANDARDDIN
  2
AcmWeldingStdDIN
  3
"Amdt_StdImp|Product Description: AutoCAD Mechanical|Company: Autodesk, Inc."
 90
     1024
280
     0
281
     0
  0
CLASS
  1
ACMIDSTANDARDDIN
  2
AcmIdStdDIN
  3
"Amdt_StdImp|Product Description: AutoCAD Mechanical|Company: Autodesk, Inc."
 90
     1024
280
     0
281
     0
  0
CLASS
  1
ACMDATUMSTANDARDDIN
  2
AcmDatumStdDIN
  3
"Amdt_StdImp|Product Description: AutoCAD Mechanical|Company: Autodesk, Inc."
 90
     1024
280
     0
281
     0
  0
CLASS
  1
ACMBOMSTANDARDDIN
  2
AcmBOMStdDIN
  3
"Amdt_StdImp|Product Description: AutoCAD Mechanical|Company: Autodesk, Inc."
 90
     1024
280
     0
281
     0
  0
CLASS
  1
ACMDETAILSTANDARDDIN
  2
AmdtDetailSymStdDIN
  3
"Amdt_StdImp|Product Description: AutoCAD Mechanical|Company: Autodesk, Inc."
 90
     1024
280
     0
281
     0
  0
CLASS
  1
ACMSECTIONSTANDARDDIN
  2
AmdtSectionSymStdDIN
  3
"Amdt_StdImp|Product Description: AutoCAD Mechanical|Company: Autodesk, Inc."
 90
     1024
280
     0
281
     0
  0
CLASS
  1
ACMCENTERLINESTANDARDDIN
  2
AmdtCenterLineStdDIN
  3
"Amdt_StdImp|Product Description: AutoCAD Mechanical|Company: Autodesk, Inc."
 90
     1024
280
     0
281
     0
  0
CLASS
  1
ACMTHREADLINESTANDARDDIN
  2
AmdtThreadLineStdDIN
  3
"Amdt_StdImp|Product Description: AutoCAD Mechanical|Company: Autodesk, Inc."
 90
     1024
280
     0
281
     0
  0
CLASS
  1
ACMNOTESTANDARDDIN
  2
AmdtNoteStdDIN
  3
"Amdt_StdImp|Product Description: AutoCAD Mechanical|Company: Autodesk, Inc."
 90
     1024
280
     0
281
     0
  0
CLASS
  1
ACMTAPERSTANDARDDIN
  2
AcmTaperStdDIN
  3
"Amdt_StdImp|Product Description: AutoCAD Mechanical|Company: Autodesk, Inc."
 90
     1024
280
     0
281
     0
  0
CLASS
  1
ACMANOOTATIONVIEWSTANDARDDIN
  2
AmdtAnViewStdDIN
  3
"Amdt_StdImp|Product Description: AutoCAD Mechanical|Company: Autodesk, Inc."
 90
     1024
280
     0
281
     0
  0
CLASS
  1
ACAMGLAYSTD
  2
AcAmgLayStd
  3
"AmgLay|Product Description: AutoCAD Mechanical|Company: Autodesk, Inc."
 90
     1024
280
     0
281
     0
  0
CLASS
  1
ACAMGDIMSTD
  2
AcAmgDimStd
  3
"AmgDim|Product Description: AutoCAD Mechanical|Company: Autodesk, Inc."
 90
     1024
280
     0
281
     0
  0
CLASS
  1
AMGOBJPROPCFG
  2
AmgObjPropCfg
  3
"AmgLay|Product Description: AutoCAD Mechanical|Company: Autodesk, Inc."
 90
     1025
280
     0
281
     0
  0
CLASS
  1
ACAMGHOLECHARTSTDDIN
  2
AcAmgHoleChartStdDIN
  3
AmgDim|Product Description: AutoCAD Mechanical|Company: Autodesk, Inc.
 90
     1024
280
     0
281
     0
  0
CLASS
  1
ACAMGTITLESTD
  2
AcAmgTitleStd
  3
"AmgTitle|Product Description: AutoCAD Mechanical|Company: Autodesk, Inc."
 90
     4095
280
     0
281
     0
  0
CLASS
  1
AMDTNOTETEMPLATEDB
  2
AmdtNoteTemplateDB
  3
AcmSymBB|Product Description: AutoCAD Mechanical|Company: Autodesk, Inc.
 90
     1024
280
     0
281
     0
  0
CLASS
  1
ACAMGFILTERDAT
  2
AcAmgFilterDat
  3
"AcadM|Product Description: AutoCAD Mechanical|Company: Autodesk, Inc."
 90
     1024
280
     0
281
     0
  0
CLASS
  1
AEC_REFEDIT_STATUS_TRACKER
  2
AecDbRefEditStatusTracker
  3
AecArchBase60|Product Desc: Autodesk Architectural Desktop 2007 |Company: Autodesk,Inc. |WEB Address: www.autodesk.com
 90
      129
280
     0
281
     0
  0
CLASS
  1
NPOCOLLECTION
  2
AcDbImpNonPersistentObjectsCollection
  3
ObjectDBX Classes
 90
     1153
280
     0
281
     0
  0
CLASS
  1
CAMSSTRUCTBTNSTATE
  2
StructBtnState
  3
DesignerAssemblies
 90
     1024
280
     0
281
     0
  0
CLASS
  1
DICTIONARYVAR
  2
AcDbDictionaryVar
  3
ObjectDBX Classes
 90
        0
280
     0
281
     0
  0
CLASS
  1
CELLSTYLEMAP
  2
AcDbCellStyleMap
  3
ObjectDBX Classes
 90
     1152
280
     0
281
     0
  0
ENDSEC
  0
SECTION
  2
TABLES
  0
TABLE
  2
VPORT
  5
8
330
0
100
AcDbSymbolTable
 70
     1
  0
VPORT
  5
1F4
330
8
100
AcDbSymbolTableRecord
100
AcDbViewportTableRecord
  2
*ACTIVE
 70
     0
 10
0.0
 20
0.0
 11
1.0
 21
1.0
 12
491.6631993247388
 22
317.9175951964394
 13
0.0
 23
0.0
 14
1.0
 24
1.0
 15
0.0
 25
0.0
 16
0.0
 26
0.0
 36
1.0
 17
0.0
 27
0.0
 37
0.0
 40
721.8979996367386
 41
2.072033898305084
 42
50.0
 43
0.0
 44
0.0
 50
0.0
 51
0.0
 71
     0
 72
   100
 73
     1
 74
     1
 75
     0
 76
     0
 77
     0
 78
     0
281
     0
 65
     0
110
0.0
120
0.0
130
0.0
111
1.0
121
0.0
131
0.0
112
0.0
122
1.0
132
0.0
 79
     0
146
0.0
  0
ENDTAB
  0
TABLE
  2
LTYPE
  5
5
330
0
100
AcDbSymbolTable
 70
    23
  0
LTYPE
  5
14
330
5
100
AcDbSymbolTableRecord
100
AcDbLinetypeTableRecord
  2
BYBLOCK
 70
     0
  3

 72
    65
 73
     0
 40
0.0
  0
LTYPE
  5
15
330
5
100
AcDbSymbolTableRecord
100
AcDbLinetypeTableRecord
  2
BYLAYER
 70
     0
  3

 72
    65
 73
     0
 40
0.0
  0
LTYPE
  5
16
330
5
100
AcDbSymbolTableRecord
100
AcDbLinetypeTableRecord
  2
CONTINUOUS
 70
     0
  3
Solid line
 72
    65
 73
     0
 40
0.0
  0
LTYPE
  5
1F5
330
5
100
AcDbSymbolTableRecord
100
AcDbLinetypeTableRecord
  2
CENTER
 70
     0
  3
____ _ ____ _ ____ _ ____ _ ____ _ ____ _ ____
 72
    65
 73
     4
 40
0.6
 49
0.375
 74
     0
 49
-0.075
 74
     0
 49
0.075
 74
     0
 49
-0.075
 74
     0
  0
LTYPE
  5
1F6
330
5
100
AcDbSymbolTableRecord
100
AcDbLinetypeTableRecord
  2
HIDDEN
 70
     0
  3
- - - - - - - - - - - - - - - - - - - -
 72
    65
 73
     2
 40
0.2
 49
0.1
 74
     0
 49
-0.1
 74
     0
  0
LTYPE
  5
510
330
5
100
AcDbSymbolTableRecord
100
AcDbLinetypeTableRecord
  2
PHANTOM2
 70
     0
  3
Phantom (.5x) ___ _ _ ___ _ _ ___ _ _ ___ _ _
 72
    65
 73
     6
 40
31.75
 49
15.875
 74
     0
 49
-3.174999999999999
 74
     0
 49
3.174999999999999
 74
     0
 49
-3.174999999999999
 74
     0
 49
3.174999999999999
 74
     0
 49
-3.174999999999999
 74
     0
  0
LTYPE
  5
559
330
5
100
AcDbSymbolTableRecord
100
AcDbLinetypeTableRecord
  2
Amconstr
 70
     0
  3
_______________________
 72
    65
 73
     2
 40
9999.0
 49
9999.0
 74
     0
 49
0.0
 74
     0
  0
LTYPE
  5
55E
330
5
100
AcDbSymbolTableRecord
100
AcDbLinetypeTableRecord
  2
Amzigzag
 70
     0
  3
/\/-/\/-/\/-/\/-/\/-/\/
 72
    65
 73
     2
 40
11.0001
 49
0.0001
 74
     4
 75
   136
340
55D
 46
0.04
 50
0.0
 44
0.0
 45
0.0
 49
-11.0
 74
     0
  0
LTYPE
  5
55F
330
5
100
AcDbSymbolTableRecord
100
AcDbLinetypeTableRecord
  2
AM_DIN_F_W050
 70
     0
  3
__ __ __ __ __ __ __ __ __ __ __ __ __ __ __
 72
    65
 73
     2
 40
6.25
 49
4.75
 74
     0
 49
-1.5
 74
     0
  0
LTYPE
  5
560
330
5
100
AcDbSymbolTableRecord
100
AcDbLinetypeTableRecord
  2
AM_DIN_G_W050
 70
     0
  3
____ . ____ . ____ . ____ . ____ . ____ . ____
 72
    65
 73
     4
 40
13.75
 49
9.75
 74
     0
 49
-1.5
 74
     0
 49
1.0
 74
     0
 49
-1.5
 74
     0
  0
LTYPE
  5
561
330
5
100
AcDbSymbolTableRecord
100
AcDbLinetypeTableRecord
  2
AM_DIN_K_W050
 70
     0
  3
_____ . . _____ . . _____ . . ____ .. ____
 72
    65
 73
     6
 40
16.25
 49
9.75
 74
     0
 49
-1.5
 74
     0
 49
1.0
 74
     0
 49
-1.5
 74
     0
 49
1.0
 74
     0
 49
-1.5
 74
     0
  0
LTYPE
  5
562
330
5
100
AcDbSymbolTableRecord
100
AcDbLinetypeTableRecord
  2
AM_DIN_G_W050x2
 70
     0
  3
__ . __ . __ . __ . __ . __
 72
    65
 73
     4
 40
6.875
 49
4.75
 74
     0
 49
-0.875
 74
     0
 49
0.375
 74
     0
 49
-0.875
 74
     0
  0
LTYPE
  5
563
330
5
100
AcDbSymbolTableRecord
100
AcDbLinetypeTableRecord
  2
AM_DIN_F_W050x2
 70
     0
  3
 _ _ _ _ _ _ _ _ _ _ _ _
 72
    65
 73
     2
 40
3.125
 49
2.25
 74
     0
 49
-0.875
 74
     0
  0
LTYPE
  5
572
330
5
100
AcDbSymbolTableRecord
100
AcDbLinetypeTableRecord
  2
ACDINWELD
 70
     0
  3
_ _ _ _ _
 72
    65
 73
     2
 40
2.0
 49
2.0
 74
     0
 49
-1.0
 74
     0
  0
LTYPE
  5
573
330
5
100
AcDbSymbolTableRecord
100
AcDbLinetypeTableRecord
  2
ACDINTGB
 70
     0
  3
__ . . __ . .
 72
    65
 73
     6
 40
9.0
 49
4.0
 74
     0
 49
-1.0
 74
     0
 49
1.0
 74
     0
 49
-1.0
 74
     0
 49
1.0
 74
     0
 49
-1.0
 74
     0
  0
LTYPE
  5
574
330
5
100
AcDbSymbolTableRecord
100
AcDbLinetypeTableRecord
  2
ACDINTGL
 70
     0
  3
_ _ _ _ _
 72
    65
 73
     2
 40
3.0
 49
2.0
 74
     0
 49
-1.0
 74
     0
  0
ENDTAB
  0
TABLE
  2
LAYER
  5
2
330
0
100
AcDbSymbolTable
 70
    23
  0
LAYER
  5
10
102
{ACAD_XDICTIONARY
360
982
102
}
330
2
100
AcDbSymbolTableRecord
100
AcDbLayerTableRecord
  2
0
 70
     0
 62
     7
  6
CONTINUOUS
370
    -3
390
F
  0
LAYER
  5
1FE
102
{ACAD_XDICTIONARY
360
98C
102
}
330
2
100
AcDbSymbolTableRecord
100
AcDbLayerTableRecord
  2
BEZUGSACHSEN
 70
     0
 62
     7
  6
CONTINUOUS
370
    -3
390
F
  0
LAYER
  5
208
102
{ACAD_XDICTIONARY
360
9A0
102
}
330
2
100
AcDbSymbolTableRecord
100
AcDbLayerTableRecord
  2
TEIL_STARTBEZUEGE
 70
     0
 62
     7
  6
CONTINUOUS
370
    -3
390
F
  0
LAYER
  5
209
102
{ACAD_XDICTIONARY
360
9A2
102
}
330
2
100
AcDbSymbolTableRecord
100
AcDbLayerTableRecord
  2
ZEICHNUNGSBEMASSUNGEN
 70
     0
 62
     7
  6
CONTINUOUS
370
    -3
390
F
  0
LAYER
  5
584
330
2
100
AcDbSymbolTableRecord
100
AcDbLayerTableRecord
  2
Defpoints
 70
     0
 62
     7
  6
CONTINUOUS
290
     0
370
    -3
390
F
  0
LAYER
  5
70F
102
{ACAD_XDICTIONARY
360
710
102
}
330
2
100
AcDbSymbolTableRecord
100
AcDbLayerTableRecord
  2
P-0000
 70
     0
 62
     7
  6
CONTINUOUS
370
    -3
390
F
  0
ENDTAB
  0
TABLE
  2
STYLE
  5
3
330
0
100
AcDbSymbolTable
 70
    12
  0
STYLE
  5
11
330
3
100
AcDbSymbolTableRecord
100
AcDbTextStyleTableRecord
  2
STANDARD
 70
     0
 40
0.0
 41
0.7
 50
0.0
 71
     0
 42
0.2
  3
txt
  4

  0
STYLE
  5
55D
330
3
100
AcDbSymbolTableRecord
100
AcDbTextStyleTableRecord
  2

 70
     1
 40
0.0
 41
1.0
 50
0.0
 71
     0
 42
0.2
  3
genltshp.shx
  4

  0
STYLE
  5
571
330
3
100
AcDbSymbolTableRecord
100
AcDbTextStyleTableRecord
  2
ACDINGDT
 70
     0
 40
0.0
 41
1.0
 50
0.0
 71
     0
 42
0.2
  3
amgdt.shx
  4

  0
ENDTAB
  0
TABLE
  2
VIEW
  5
6
330
0
100
AcDbSymbolTable
 70
     0
  0
ENDTAB
  0
TABLE
  2
UCS
  5
7
330
0
100
AcDbSymbolTable
 70
     0
  0
ENDTAB
  0
TABLE
  2
APPID
  5
9
330
0
100
AcDbSymbolTable
 70
    18
  0
APPID
  5
211
330
9
100
AcDbSymbolTableRecord
100
AcDbRegAppTableRecord
  2
ACAD
 70
     0
  0
APPID
  5
4E5
330
9
100
AcDbSymbolTableRecord
100
AcDbRegAppTableRecord
  2
MCAD_NO_VIS
 70
     0
  0
APPID
  5
4E6
330
9
100
AcDbSymbolTableRecord
100
AcDbRegAppTableRecord
  2
ACAD_TEMP_GRAPHIC
 70
     0
  0
APPID
  5
512
330
9
100
AcDbSymbolTableRecord
100
AcDbRegAppTableRecord
  2
AD_DRAW
 70
     0
  0
APPID
  5
515
330
9
100
AcDbSymbolTableRecord
100
AcDbRegAppTableRecord
  2
ACATTRIBSERVICES
 70
     0
  0
APPID
  5
535
330
9
100
AcDbSymbolTableRecord
100
AcDbRegAppTableRecord
  2
DESIGNERASSEMBLIES
 70
     0
  0
APPID
  5
53B
330
9
100
AcDbSymbolTableRecord
100
AcDbRegAppTableRecord
  2
ACADM_DIM_EDIT
 70
     0
  0
APPID
  5
53C
330
9
100
AcDbSymbolTableRecord
100
AcDbRegAppTableRecord
  2
AMDT_DM_ADJ
 70
     0
  0
APPID
  5
553
330
9
100
AcDbSymbolTableRecord
100
AcDbRegAppTableRecord
  2
ACAD_DSTYLE_DIMJAG
 70
     0
  0
APPID
  5
554
330
9
100
AcDbSymbolTableRecord
100
AcDbRegAppTableRecord
  2
ACAD_DSTYLE_DIMBREAK
 70
     0
  0
APPID
  5
582
330
9
100
AcDbSymbolTableRecord
100
AcDbRegAppTableRecord
  2
GENIUS_GENDTOL_13
 70
     0
  0
APPID
  5
583
330
9
100
AcDbSymbolTableRecord
100
AcDbRegAppTableRecord
  2
ACAD_DSTYLE_DIMINSPECT
 70
     0
  0
APPID
  5
62D
330
9
100
AcDbSymbolTableRecord
100
AcDbRegAppTableRecord
  2
AcAecLayerStandard
 70
     0
  0
APPID
  5
712
330
9
100
AcDbSymbolTableRecord
100
AcDbRegAppTableRecord
  2
ACAD_DSTYLE_DIMJOGGED_JOGANGLE_SYMBOL
 70
     0
  0
APPID
  5
BEC
330
9
100
AcDbSymbolTableRecord
100
AcDbRegAppTableRecord
  2
ACAD_MLEADERVER
 70
     0
  0
APPID
  5
BED
330
9
100
AcDbSymbolTableRecord
100
AcDbRegAppTableRecord
  2
ACAD_DSTYLE_DIM_LINETYPE
 70
     0
  0
APPID
  5
BEE
330
9
100
AcDbSymbolTableRecord
100
AcDbRegAppTableRecord
  2
ACAD_DSTYLE_DIM_EXT1_LINETYPE
 70
     0
  0
APPID
  5
BEF
330
9
100
AcDbSymbolTableRecord
100
AcDbRegAppTableRecord
  2
ACAD_DSTYLE_DIM_EXT2_LINETYPE
 70
     0
  0
ENDTAB
  0
TABLE
  2
DIMSTYLE
  5
A
330
0
100
AcDbSymbolTable
 70
    18
100
AcDbDimStyleTable
 71
     2
340
223
340
711
  0
DIMSTYLE
105
223
330
A
100
AcDbSymbolTableRecord
100
AcDbDimStyleTableRecord
  2
STANDARD
 70
     0
 41
3.5
 42
1.5
 44
1.5
 47
0.005
 48
0.005
 71
     1
 73
     0
 74
     0
 77
     1
 78
     8
140
3.5
147
0.625
178
     5
271
     3
272
     3
284
     8
340
11
341
214
342
214
343
214
344
214
  0
DIMSTYLE
105
552
102
{ACAD_REACTORS
330
541
102
}
330
A
100
AcDbSymbolTableRecord
100
AcDbDimStyleTableRecord
  2
AM_DIN
 70
     0
  4
"
 41
3.5
 42
1.0
 43
10.0
 44
1.0
 47
0.1
 48
0.1
 73
     0
 74
     0
 77
     1
 78
     8
 79
     2
140
3.5
141
0.0
143
0.0393701
146
0.71
147
1.5
172
     1
176
   256
177
   256
178
     2
271
     2
272
     3
274
     4
283
     0
284
     8
340
11
371
    -1
372
    -1
1001
ACAD_DSTYLE_DIMJAG
1070
   388
1040
1.5
1001
ACAD_DSTYLE_DIMBREAK
1070
   391
1040
3.75
1001
ACAD_DSTYLE_DIMJOGGED_JOGANGLE_SYMBOL
1070
   384
1040
1.570796326794896
1001
ACAD_DSTYLE_DIM_LINETYPE
1070
   380
1005
14
1001
ACAD_DSTYLE_DIM_EXT1_LINETYPE
1070
   381
1005
14
1001
ACAD_DSTYLE_DIM_EXT2_LINETYPE
1070
   382
1005
14
  0
DIMSTYLE
105
564
330
A
100
AcDbSymbolTableRecord
100
AcDbDimStyleTableRecord
  2
AM_DIN$3
 70
     0
  4
"
 41
3.5
 42
1.0
 43
10.0
 44
1.0
 47
0.1
 48
0.1
 73
     0
 77
     1
 78
     8
 79
     2
140
3.5
141
0.0
143
0.0393701
146
0.71
147
1.5
176
   256
177
   256
178
     2
271
     2
272
     3
274
     4
283
     0
284
     8
288
     1
289
     0
340
11
371
    -1
372
    -1
1001
ACAD_DSTYLE_DIMBREAK
1070
   391
1040
3.75
1001
ACAD_DSTYLE_DIMJAG
1070
   388
1040
1.5
1001
ACAD_DSTYLE_DIMJOGGED_JOGANGLE_SYMBOL
1070
   384
1040
1.570796326794896
1001
ACAD_DSTYLE_DIM_LINETYPE
1070
   380
1005
14
1001
ACAD_DSTYLE_DIM_EXT1_LINETYPE
1070
   381
1005
14
1001
ACAD_DSTYLE_DIM_EXT2_LINETYPE
1070
   382
1005
14
  0
DIMSTYLE
105
565
330
A
100
AcDbSymbolTableRecord
100
AcDbDimStyleTableRecord
  2
AM_DIN$4
 70
     0
  4
"
 41
3.5
 42
1.0
 43
10.0
 44
1.0
 47
0.1
 48
0.1
 73
     0
 77
     1
 78
     8
 79
     2
140
3.5
141
0.0
143
0.0393701
146
0.71
147
1.5
176
   256
177
   256
178
     2
271
     2
272
     3
274
     4
283
     0
284
     8
288
     1
289
     0
340
11
371
    -1
372
    -1
1001
ACAD_DSTYLE_DIMBREAK
1070
   391
1040
3.75
1001
ACAD_DSTYLE_DIMJAG
1070
   388
1040
1.5
1001
ACAD_DSTYLE_DIMJOGGED_JOGANGLE_SYMBOL
1070
   384
1040
1.570796326794896
1001
ACAD_DSTYLE_DIM_LINETYPE
1070
   380
1005
14
1001
ACAD_DSTYLE_DIM_EXT1_LINETYPE
1070
   381
1005
14
1001
ACAD_DSTYLE_DIM_EXT2_LINETYPE
1070
   382
1005
14
  0
DIMSTYLE
105
566
330
A
100
AcDbSymbolTableRecord
100
AcDbDimStyleTableRecord
  2
AM_DIN$6
 70
     0
  4
"
 41
3.5
 42
1.0
 43
10.0
 44
1.0
 47
0.1
 48
0.1
 73
     0
 74
     0
 78
     8
 79
     2
140
3.5
141
0.0
143
0.0393701
146
0.71
147
1.5
172
     1
176
   256
177
   256
178
     2
271
     2
272
     3
274
     4
283
     0
284
     8
340
11
371
    -1
372
    -1
1001
ACAD_DSTYLE_DIMBREAK
1070
   391
1040
3.75
1001
ACAD_DSTYLE_DIMJAG
1070
   388
1040
1.5
1001
ACAD_DSTYLE_DIMJOGGED_JOGANGLE_SYMBOL
1070
   384
1040
1.570796326794896
1001
ACAD_DSTYLE_DIM_LINETYPE
1070
   380
1005
14
1001
ACAD_DSTYLE_DIM_EXT1_LINETYPE
1070
   381
1005
14
1001
ACAD_DSTYLE_DIM_EXT2_LINETYPE
1070
   382
1005
14
  0
DIMSTYLE
105
567
330
A
100
AcDbSymbolTableRecord
100
AcDbDimStyleTableRecord
  2
AM_DIN$7
 70
     0
  4
"
 41
3.5
 42
1.0
 43
10.0
 44
1.0
 47
0.1
 48
0.1
 73
     0
 74
     0
 77
     1
 78
     8
 79
     2
140
3.5
141
0.0
143
0.0393701
146
0.71
147
1.5
172
     1
176
   256
177
   256
178
     2
271
     2
272
     3
274
     4
283
     0
284
     8
340
11
371
    -1
372
    -1
1001
ACAD_DSTYLE_DIMBREAK
1070
   391
1040
3.75
1001
ACAD_DSTYLE_DIMJAG
1070
   388
1040
1.5
1001
ACAD_DSTYLE_DIMJOGGED_JOGANGLE_SYMBOL
1070
   384
1040
1.570796326794896
1001
ACAD_DSTYLE_DIM_LINETYPE
1070
   380
1005
14
1001
ACAD_DSTYLE_DIM_EXT1_LINETYPE
1070
   381
1005
14
1001
ACAD_DSTYLE_DIM_EXT2_LINETYPE
1070
   382
1005
14
  0
DIMSTYLE
105
568
330
A
100
AcDbSymbolTableRecord
100
AcDbDimStyleTableRecord
  2
AM_DIN$SF
 70
     0
  4
"
 41
3.5
 42
1.0
 43
10.0
 44
1.0
 47
0.1
 48
0.1
 73
     0
 74
     0
 75
     1
 76
     1
 77
     1
 78
     8
 79
     2
140
3.5
141
0.0
143
0.0393701
146
0.71
147
1.5
172
     1
176
   256
177
   256
178
     2
271
     2
272
     3
274
     4
283
     0
284
     8
340
11
371
    -1
372
    -1
1001
ACAD_DSTYLE_DIMBREAK
1070
   391
1040
3.75
1001
ACAD_DSTYLE_DIMJAG
1070
   388
1040
1.5
1001
ACAD_DSTYLE_DIMJOGGED_JOGANGLE_SYMBOL
1070
   384
1040
1.570796326794896
1001
ACAD_DSTYLE_DIM_LINETYPE
1070
   380
1005
14
1001
ACAD_DSTYLE_DIM_EXT1_LINETYPE
1070
   381
1005
14
1001
ACAD_DSTYLE_DIM_EXT2_LINETYPE
1070
   382
1005
14
  0
DIMSTYLE
105
56D
330
A
100
AcDbSymbolTableRecord
100
AcDbDimStyleTableRecord
  2
AM_DIN$SH
 70
     0
  4
"
 41
3.5
 42
1.0
 43
10.0
 44
1.0
 47
0.1
 48
0.1
 73
     0
 74
     0
 75
     1
 76
     1
 77
     1
 78
     8
 79
     2
140
3.5
141
0.0
143
0.0393701
144
2.0
146
0.71
147
1.5
172
     1
173
     1
176
   256
177
   256
178
     2
271
     2
272
     3
274
     4
283
     0
284
     8
340
11
343
569
371
    -1
372
    -1
1001
ACAD_DSTYLE_DIMBREAK
1070
   391
1040
3.75
1001
ACAD_DSTYLE_DIMJAG
1070
   388
1040
1.5
1001
ACAD_DSTYLE_DIMJOGGED_JOGANGLE_SYMBOL
1070
   384
1040
1.570796326794896
1001
ACAD_DSTYLE_DIM_LINETYPE
1070
   380
1005
14
1001
ACAD_DSTYLE_DIM_EXT1_LINETYPE
1070
   381
1005
14
1001
ACAD_DSTYLE_DIM_EXT2_LINETYPE
1070
   382
1005
14
  0
DIMSTYLE
105
711
102
{ACAD_REACTORS
330
714
330
2CF
330
630
330
7C6
330
2D1
330
2D0
102
}
330
A
100
AcDbSymbolTableRecord
100
AcDbDimStyleTableRecord
  2
883N99122_001_00149479900
 70
     0
 40
2.0
 41
3.149999999999999
 42
0.0
 43
3.75
 44
2.0
 73
     0
 74
     0
 77
     1
 78
     8
 79
     2
140
3.5
141
0.0
143
0.03937007874016
145
2.0
147
2.0
171
     3
172
     1
173
     1
176
     3
177
     3
178
     2
179
     2
271
     2
272
     2
274
     3
283
     0
284
     8
340
11
341
70C
  0
ENDTAB
  0
TABLE
  2
BLOCK_RECORD
  5
1
330
0
100
AcDbSymbolTable
 70
    33
  0
BLOCK_RECORD
  5
212
330
1
100
AcDbSymbolTableRecord
100
AcDbBlockTableRecord
  2
*Model_Space
340
494
  0
BLOCK_RECORD
  5
213
330
1
100
AcDbSymbolTableRecord
100
AcDbBlockTableRecord
  2
*Paper_Space
340
495
  0
BLOCK_RECORD
  5
214
330
1
100
AcDbSymbolTableRecord
100
AcDbBlockTableRecord
  2
_FILLED
340
0
  0
BLOCK_RECORD
  5
217
330
1
100
AcDbSymbolTableRecord
100
AcDbBlockTableRecord
  2
*D3
340
0
  0
BLOCK_RECORD
  5
218
330
1
100
AcDbSymbolTableRecord
100
AcDbBlockTableRecord
  2
*D4
340
0
  0
BLOCK_RECORD
  5
219
330
1
100
AcDbSymbolTableRecord
100
AcDbBlockTableRecord
  2
*D5
340
0
  0
BLOCK_RECORD
  5
569
330
1
100
AcDbSymbolTableRecord
100
AcDbBlockTableRecord
  2
GENAXEH
340
0
  0
BLOCK_RECORD
  5
631
330
1
100
AcDbSymbolTableRecord
100
AcDbBlockTableRecord
  2
*D18
340
0
  0
BLOCK_RECORD
  5
70C
330
1
100
AcDbSymbolTableRecord
100
AcDbBlockTableRecord
  2
_None
340
0
  0
BLOCK_RECORD
  5
7C7
330
1
100
AcDbSymbolTableRecord
100
AcDbBlockTableRecord
  2
*D23
340
0
  0
ENDTAB
  0
ENDSEC
  0
SECTION
  2
BLOCKS
  0
BLOCK
  5
20
330
212
100
AcDbEntity
  8
0
100
AcDbBlockBegin
  2
*Model_Space
 70
     0
 10
0.0
 20
0.0
 30
0.0
  3
*Model_Space
  1

  0
ENDBLK
  5
21
330
212
100
AcDbEntity
  8
0
100
AcDbBlockEnd
  0
BLOCK
  5
1C
330
213
100
AcDbEntity
 67
     1
  8
0
100
AcDbBlockBegin
  2
*Paper_Space
 70
     0
 10
0.0
 20
0.0
 30
0.0
  3
*Paper_Space
  1

  0
ENDBLK
  5
1D
330
213
100
AcDbEntity
 67
     1
  8
0
100
AcDbBlockEnd
  0
BLOCK
  5
239
330
214
100
AcDbEntity
  8
0
100
AcDbBlockBegin
  2
_FILLED
 70
     0
 10
0.0
 20
0.0
 30
0.0
  3
_FILLED
  1

  0
SOLID
  5
23A
330
214
100
AcDbEntity
  8
0
  6
ByBlock
 62
     0
100
AcDbTrace
 10
0.0
 20
0.0
 30
0.0
 11
-1.0
 21
0.125
 31
0.0
 12
-1.0
 22
-0.125
 32
0.0
 13
-1.0
 23
-0.125
 33
0.0
  0
ENDBLK
  5
23B
330
214
100
AcDbEntity
  8
0
  6
ByBlock
 62
     0
100
AcDbBlockEnd
  0
BLOCK
  5
249
330
217
100
AcDbEntity
  8
ZEICHNUNGSBEMASSUNGEN
  6
Continuous
 62
     2
100
AcDbBlockBegin
  2
*D3
 70
     1
 10
0.0
 20
0.0
 30
0.0
  3
*D3
  1

  0
LINE
  5
A02
330
217
100
AcDbEntity
  8
P-0000
  6
Continuous
 62
     3
370
    -2
100
AcDbLine
 10
56.65198087090903
 20
249.970308744
 30
0.0
 11
25.98939834095908
 21
249.970308744
 31
0.0
  0
LINE
  5
A03
330
217
100
AcDbEntity
  8
P-0000
  6
Continuous
 62
     3
370
    -2
100
AcDbLine
 10
56.65198087090903
 20
326.9703087440001
 30
0.0
 11
25.9893983409591
 21
326.9703087440001
 31
0.0
  0
LINE
  5
A04
330
217
100
AcDbEntity
  8
P-0000
  6
Continuous
 62
     3
370
    -2
100
AcDbLine
 10
29.98939834095908
 20
256.970308744
 30
0.0
 11
29.9893983409591
 21
319.9703087440001
 31
0.0
  0
SOLID
  5
A05
330
217
100
AcDbEntity
  8
P-0000
  6
Continuous
 62
     3
100
AcDbTrace
 10
28.82273167429242
 20
256.970308744
 30
0.0
 11
31.15606500762575
 21
256.970308744
 31
0.0
 12
29.98939834095908
 22
249.970308744
 32
0.0
 13
29.98939834095908
 23
249.970308744
 33
0.0
  0
SOLID
  5
A06
330
217
100
AcDbEntity
  8
P-0000
  6
Continuous
 62
     3
100
AcDbTrace
 10
28.82273167429243
 20
319.9703087440001
 30
0.0
 11
31.15606500762576
 21
319.9703087440001
 31
0.0
 12
29.9893983409591
 22
326.9703087440001
 32
0.0
 13
29.9893983409591
 23
326.9703087440001
 33
0.0
  0
MTEXT
  5
A07
330
217
100
AcDbEntity
  8
P-0000
  6
Continuous
 62
     2
100
AcDbMText
 10
18.98939834095904
 20
286.908081681
 30
0.0
 40
7.0
 41
0.0
 71
     2
 72
     1
  1
77
 11
0.0000000000000001
 21
1.0
 31
0.0
 73
     1
 44
1.0
1001
ACAD
1000
MTEXTBEGIN
1070
    73
1070
     1
1070
    44
1040
1.0
1070
    74
1070
     0
1000
MTEXTEND
  0
POINT
  5
A08
330
217
100
AcDbEntity
  8
Defpoints
  6
Continuous
 62
     0
100
AcDbPoint
 10
56.65198087090903
 20
249.970308744
 30
0.0
  0
POINT
  5
A09
330
217
100
AcDbEntity
  8
Defpoints
  6
Continuous
 62
     0
100
AcDbPoint
 10
56.65198087090903
 20
326.9703087440001
 30
0.0
  0
POINT
  5
A0A
330
217
100
AcDbEntity
  8
Defpoints
  6
Continuous
 62
     0
100
AcDbPoint
 10
29.9893983409591
 20
326.9703087440001
 30
0.0
  0
ENDBLK
  5
253
330
217
100
AcDbEntity
  8
0
  6
ByBlock
 62
     0
100
AcDbBlockEnd
  0
BLOCK
  5
254
330
218
100
AcDbEntity
  8
ZEICHNUNGSBEMASSUNGEN
  6
Continuous
 62
     2
100
AcDbBlockBegin
  2
*D4
 70
     1
 10
0.0
 20
0.0
 30
0.0
  3
*D4
  1

  0
LINE
  5
A0B
330
218
100
AcDbEntity
  8
P-0000
  6
Continuous
 62
     3
370
    -2
100
AcDbLine
 10
69.65198087090903
 20
249.970308744
 30
0.0
 11
99.68000730503881
 21
249.970308744
 31
0.0
  0
LINE
  5
A0C
330
218
100
AcDbEntity
  8
P-0000
  6
Continuous
 62
     3
370
    -2
100
AcDbLine
 10
69.65198087090903
 20
297.470308744
 30
0.0
 11
99.68000730503883
 21
297.470308744
 31
0.0
  0
LINE
  5
A0D
330
218
100
AcDbEntity
  8
P-0000
  6
Continuous
 62
     3
370
    -2
100
AcDbLine
 10
95.68000730503881
 20
256.970308744
 30
0.0
 11
95.68000730503882
 21
290.470308744
 31
0.0
  0
SOLID
  5
A0E
330
218
100
AcDbEntity
  8
P-0000
  6
Continuous
 62
     3
100
AcDbTrace
 10
94.51334063837213
 20
256.970308744
 30
0.0
 11
96.84667397170549
 21
256.970308744
 31
0.0
 12
95.68000730503881
 22
249.970308744
 32
0.0
 13
95.68000730503881
 23
249.970308744
 33
0.0
  0
SOLID
  5
A0F
330
218
100
AcDbEntity
  8
P-0000
  6
Continuous
 62
     3
100
AcDbTrace
 10
94.51334063837215
 20
290.470308744
 30
0.0
 11
96.84667397170549
 21
290.470308744
 31
0.0
 12
95.68000730503882
 22
297.470308744
 32
0.0
 13
95.68000730503882
 23
297.470308744
 33
0.0
  0
MTEXT
  5
A10
330
218
100
AcDbEntity
  8
P-0000
  6
Continuous
 62
     2
100
AcDbMText
 10
84.68000730503877
 20
279.0105734802882
 30
0.0
 40
7.0
 41
0.0
 71
     2
 72
     1
  1
47.5
 11
0.0000000000000001
 21
1.0
 31
0.0
 73
     1
 44
1.0
1001
ACAD
1000
MTEXTBEGIN
1070
    73
1070
     1
1070
    44
1040
1.0
1070
    74
1070
     0
1000
MTEXTEND
  0
POINT
  5
A11
330
218
100
AcDbEntity
  8
Defpoints
  6
Continuous
 62
     0
100
AcDbPoint
 10
69.65198087090903
 20
249.970308744
 30
0.0
  0
POINT
  5
A12
330
218
100
AcDbEntity
  8
Defpoints
  6
Continuous
 62
     0
100
AcDbPoint
 10
69.65198087090903
 20
297.470308744
 30
0.0
  0
POINT
  5
A13
330
218
100
AcDbEntity
  8
Defpoints
  6
Continuous
 62
     0
100
AcDbPoint
 10
95.68000730503882
 20
297.470308744
 30
0.0
  0
ENDBLK
  5
25C
330
218
100
AcDbEntity
  8
0
  6
ByBlock
 62
     0
100
AcDbBlockEnd
  0
BLOCK
  5
25D
330
219
100
AcDbEntity
  8
ZEICHNUNGSBEMASSUNGEN
  6
Continuous
 62
     2
100
AcDbBlockBegin
  2
*D5
 70
     1
 10
0.0
 20
0.0
 30
0.0
  3
*D5
  1

  0
LINE
  5
A14
330
219
100
AcDbEntity
  8
P-0000
  6
Continuous
 62
     3
370
    -2
100
AcDbLine
 10
69.65198087090903
 20
326.9703087440001
 30
0.0
 11
99.68000730503877
 21
326.9703087440001
 31
0.0
  0
LINE
  5
A15
330
219
100
AcDbEntity
  8
P-0000
  6
Continuous
 62
     3
370
    -2
100
AcDbLine
 10
69.65198087090903
 20
304.970308744
 30
0.0
 11
99.68000730503877
 21
304.970308744
 31
0.0
  0
LINE
  5
A16
330
219
100
AcDbEntity
  8
P-0000
  6
Continuous
 62
     3
370
    -2
100
AcDbLine
 10
95.68000730503877
 20
319.9703087440001
 30
0.0
 11
95.68000730503877
 21
311.970308744
 31
0.0
  0
SOLID
  5
A17
330
219
100
AcDbEntity
  8
P-0000
  6
Continuous
 62
     3
100
AcDbTrace
 10
94.5133406383721
 20
319.9703087440001
 30
0.0
 11
96.84667397170544
 21
319.9703087440001
 31
0.0
 12
95.68000730503877
 22
326.9703087440001
 32
0.0
 13
95.68000730503877
 23
326.9703087440001
 33
0.0
  0
SOLID
  5
A18
330
219
100
AcDbEntity
  8
P-0000
  6
Continuous
 62
     3
100
AcDbTrace
 10
94.5133406383721
 20
311.970308744
 30
0.0
 11
96.84667397170544
 21
311.970308744
 31
0.0
 12
95.68000730503877
 22
304.970308744
 32
0.0
 13
95.68000730503877
 23
304.970308744
 33
0.0
  0
MTEXT
  5
A19
330
219
100
AcDbEntity
  8
P-0000
  6
Continuous
 62
     2
100
AcDbMText
 10
84.68000730503872
 20
316.8160684637878
 30
0.0
 40
7.0
 41
0.0
 71
     2
 72
     1
  1
22
 11
0.0000000000000001
 21
1.0
 31
0.0
 73
     1
 44
1.0
1001
ACAD
1000
MTEXTBEGIN
1070
    73
1070
     1
1070
    44
1040
1.0
1070
    74
1070
     0
1000
MTEXTEND
  0
POINT
  5
A1A
330
219
100
AcDbEntity
  8
Defpoints
  6
Continuous
 62
     0
100
AcDbPoint
 10
69.65198087090903
 20
326.9703087440001
 30
0.0
  0
POINT
  5
A1B
330
219
100
AcDbEntity
  8
Defpoints
  6
Continuous
 62
     0
100
AcDbPoint
 10
69.65198087090903
 20
304.970308744
 30
0.0
  0
POINT
  5
A1C
330
219
100
AcDbEntity
  8
Defpoints
  6
Continuous
 62
     0
100
AcDbPoint
 10
95.68000730503877
 20
304.970308744
 30
0.0
  0
ENDBLK
  5
265
330
219
100
AcDbEntity
  8
0
  6
ByBlock
 62
     0
100
AcDbBlockEnd
  0
BLOCK
  5
56B
330
569
100
AcDbEntity
  8
0
100
AcDbBlockBegin
  2
GENAXEH
 70
     0
 10
0.0
 20
0.0
 30
0.0
  3
GENAXEH
  1

  0
LINE
  5
56A
330
569
100
AcDbEntity
  8
0
100
AcDbLine
 10
-1.0
 20
0.0
 30
0.0
 11
1.0
 21
0.0
 31
0.0
  0
ENDBLK
  5
56C
330
569
100
AcDbEntity
  8
0
100
AcDbBlockEnd
  0
BLOCK
  5
632
330
631
100
AcDbEntity
  8
0
100
AcDbBlockBegin
  2
*D18
 70
     1
 10
0.0
 20
0.0
 30
0.0
  3
*D18
  1

  0
LINE
  5
9F7
330
631
100
AcDbEntity
  8
P-0000
  6
Continuous
 62
     3
370
    -2
100
AcDbLine
 10
165.768348107
 20
326.970308744
 30
0.0
 11
165.768348107
 21
399.6834650859505
 31
0.0
  0
LINE
  5
9F8
330
631
100
AcDbEntity
  8
P-0000
  6
Continuous
 62
     3
370
    -2
100
AcDbLine
 10
958.768348107
 20
326.970308744
 30
0.0
 11
958.768348107
 21
399.6834650859505
 31
0.0
  0
LINE
  5
9F9
330
631
100
AcDbEntity
  8
P-0000
  6
Continuous
 62
     3
370
    -2
100
AcDbLine
 10
179.768348107
 20
395.6834650859505
 30
0.0
 11
944.7683481069999
 21
395.6834650859505
 31
0.0
  0
SOLID
  5
9FA
330
631
100
AcDbEntity
  8
P-0000
  6
Continuous
 62
     3
100
AcDbTrace
 10
179.768348107
 20
398.0167984192838
 30
0.0
 11
179.768348107
 21
393.3501317526172
 31
0.0
 12
165.768348107
 22
395.6834650859505
 32
0.0
 13
165.768348107
 23
395.6834650859505
 33
0.0
  0
SOLID
  5
9FB
330
631
100
AcDbEntity
  8
P-0000
  6
Continuous
 62
     3
100
AcDbTrace
 10
944.7683481069999
 20
398.0167984192838
 30
0.0
 11
944.7683481069999
 21
393.3501317526172
 31
0.0
 12
958.768348107
 22
395.6834650859505
 32
0.0
 13
958.768348107
 23
395.6834650859505
 33
0.0
  0
MTEXT
  5
9FC
330
631
100
AcDbEntity
  8
P-0000
  6
Continuous
 62
     2
100
AcDbMText
 10
562.2683481069999
 20
406.6834650859505
 30
0.0
 40
14.0
 41
0.0
 71
     5
 72
     1
  1
793
 73
     1
 44
1.0
1001
ACAD
1000
MTEXTBEGIN
1070
    73
1070
     1
1070
    44
1040
1.0
1070
    74
1070
     0
1000
MTEXTEND
  0
POINT
  5
9FD
330
631
100
AcDbEntity
  8
Defpoints
  6
Continuous
 62
     0
100
AcDbPoint
 10
165.768348107
 20
326.970308744
 30
0.0
  0
POINT
  5
9FE
330
631
100
AcDbEntity
  8
Defpoints
  6
Continuous
 62
     0
100
AcDbPoint
 10
958.768348107
 20
326.970308744
 30
0.0
  0
POINT
  5
9FF
330
631
100
AcDbEntity
  8
Defpoints
  6
Continuous
 62
     0
100
AcDbPoint
 10
958.768348107
 20
395.6834650859505
 30
0.0
  0
ENDBLK
  5
633
330
631
100
AcDbEntity
  8
0
100
AcDbBlockEnd
  0
BLOCK
  5
70D
330
70C
100
AcDbEntity
  8
0
100
AcDbBlockBegin
  2
_None
 70
     0
 10
0.0
 20
0.0
 30
0.0
  3
_None
  1

  0
ENDBLK
  5
70E
330
70C
100
AcDbEntity
  8
0
100
AcDbBlockEnd
  0
BLOCK
  5
7C8
330
7C7
100
AcDbEntity
  8
0
100
AcDbBlockBegin
  2
*D23
 70
     1
 10
0.0
 20
0.0
 30
0.0
  3
*D23
  1

  0
LINE
  5
A1D
330
7C7
100
AcDbEntity
  8
P-0000
  6
Continuous
 62
     3
370
    -2
100
AcDbLine
 10
53.65198087090902
 20
252.970308744
 30
0.0
 11
53.65198087090902
 21
230.8057032933513
 31
0.0
  0
LINE
  5
A1E
330
7C7
100
AcDbEntity
  8
P-0000
  6
Continuous
 62
     3
370
    -2
100
AcDbLine
 10
72.65198087090903
 20
249.970308744
 30
0.0
 11
72.65198087090903
 21
230.8057032933513
 31
0.0
  0
LINE
  5
A1F
330
7C7
100
AcDbEntity
  8
P-0000
  6
Continuous
 62
     3
370
    -2
100
AcDbLine
 10
46.65198087090902
 20
234.8057032933513
 30
0.0
 11
39.65198087090903
 21
234.8057032933513
 31
0.0
  0
LINE
  5
A20
330
7C7
100
AcDbEntity
  8
P-0000
  6
Continuous
 62
     3
370
    -2
100
AcDbLine
 10
79.65198087090903
 20
234.8057032933513
 30
0.0
 11
86.65198087090903
 21
234.8057032933513
 31
0.0
  0
LINE
  5
A21
330
7C7
100
AcDbEntity
  8
P-0000
  6
Continuous
 62
     3
370
    -2
100
AcDbLine
 10
53.65198087090902
 20
234.8057032933513
 30
0.0
 11
72.65198087090903
 21
234.8057032933513
 31
0.0
  0
SOLID
  5
A22
330
7C7
100
AcDbEntity
  8
P-0000
  6
Continuous
 62
     3
100
AcDbTrace
 10
46.65198087090902
 20
235.9723699600179
 30
0.0
 11
46.65198087090902
 21
233.6390366266846
 31
0.0
 12
53.65198087090902
 22
234.8057032933513
 32
0.0
 13
53.65198087090902
 23
234.8057032933513
 33
0.0
  0
SOLID
  5
A23
330
7C7
100
AcDbEntity
  8
P-0000
  6
Continuous
 62
     3
100
AcDbTrace
 10
79.65198087090903
 20
235.9723699600179
 30
0.0
 11
79.65198087090903
 21
233.6390366266846
 31
0.0
 12
72.65198087090903
 22
234.8057032933513
 32
0.0
 13
72.65198087090903
 23
234.8057032933513
 33
0.0
  0
MTEXT
  5
A24
330
7C7
100
AcDbEntity
  8
P-0000
  6
Continuous
 62
     2
100
AcDbMText
 10
63.15198087090903
 20
242.3057032933513
 30
0.0
 40
7.0
 41
0.0
 71
     5
 72
     1
  1
19
 73
     1
 44
1.0
1001
ACAD
1000
MTEXTBEGIN
1070
    73
1070
     1
1070
    44
1040
1.0
1070
    74
1070
     0
1000
MTEXTEND
  0
POINT
  5
A25
330
7C7
100
AcDbEntity
  8
Defpoints
  6
Continuous
 62
     0
100
AcDbPoint
 10
53.65198087090902
 20
252.970308744
 30
0.0
  0
POINT
  5
A26
330
7C7
100
AcDbEntity
  8
Defpoints
  6
Continuous
 62
     0
100
AcDbPoint
 10
72.65198087090903
 20
249.970308744
 30
0.0
  0
POINT
  5
A27
330
7C7
100
AcDbEntity
  8
Defpoints
  6
Continuous
 62
     0
100
AcDbPoint
 10
72.65198087090903
 20
234.8057032933513
 30
0.0
  0
ENDBLK
  5
7C9
330
7C7
100
AcDbEntity
  8
0
100
AcDbBlockEnd
  0
ENDSEC
  0
SECTION
  2
ENTITIES
  0
HATCH
  5
2C5
330
212
100
AcDbEntity
  8
0
  6
Continuous
 62
     2
100
AcDbHatch
 10
0.0
 20
0.0
 30
0.0
210
0.0
220
0.0
230
1.0
  2
B
 70
     0
 71
     0
 91
        1
 92
        1
 93
       30
 72
     1
 10
60.65198087090903
 20
297.470308744
 11
60.65198087090903
 21
252.970308744
 72
     1
 10
58.65198087090902
 20
297.470308744
 11
60.65198087090903
 21
297.470308744
 72
     1
 10
58.65198087090902
 20
304.970308744
 11
58.65198087090902
 21
297.470308744
 72
     1
 10
58.65198087090902
 20
304.970308744
 11
60.65198087090903
 21
304.970308744
 72
     1
 10
60.65198087090903
 20
323.9703087440001
 11
60.65198087090903
 21
304.9703087440001
 72
     1
 10
62.65198087090903
 20
321.9703087440001
 11
60.65198087090903
 21
323.9703087440001
 72
     1
 10
62.65198087090903
 20
309.970308744
 11
62.65198087090903
 21
321.970308744
 72
     1
 10
62.65198087090903
 20
309.970308744
 11
63.15198087090903
 21
309.970308744
 72
     1
 10
63.15198087090903
 20
307.87159967255
 11
63.15198087090903
 21
309.970308744
 72
     1
 10
64.65198087090903
 20
306.970308744
 11
63.15198087090903
 21
307.87159967255
 72
     1
 10
64.65198087090903
 20
306.970308744
 11
66.15198087090902
 21
307.87159967255
 72
     1
 10
66.15198087090902
 20
307.87159967255
 11
66.15198087090902
 21
309.970308744
 72
     1
 10
66.15198087090902
 20
309.970308744
 11
66.65198087090903
 21
309.970308744
 72
     1
 10
66.65198087090903
 20
309.970308744
 11
66.65198087090903
 21
321.970308744
 72
     1
 10
66.65198087090903
 20
321.9703087440001
 11
68.65198087090902
 21
323.9703087440001
 72
     1
 10
68.65198087090902
 20
323.9703087440001
 11
68.65198087090902
 21
304.9703087440001
 72
     1
 10
68.65198087090902
 20
304.970308744
 11
70.65198087090903
 21
304.970308744
 72
     1
 10
70.65198087090903
 20
304.970308744
 11
70.65198087090903
 21
297.470308744
 72
     1
 10
68.65198087090902
 20
297.470308744
 11
70.65198087090903
 21
297.470308744
 72
     1
 10
68.65198087090902
 20
297.470308744
 11
68.65198087090902
 21
252.970308744
 72
     1
 10
68.65198087090902
 20
252.970308744
 11
66.65198087090903
 21
254.970308744
 72
     1
 10
66.65198087090903
 20
254.970308744
 11
66.65198087090903
 21
266.970308744
 72
     1
 10
66.15198087090902
 20
266.970308744
 11
66.65198087090903
 21
266.970308744
 72
     1
 10
66.15198087090902
 20
266.970308744
 11
66.15198087090902
 21
269.06901781545
 72
     1
 10
66.15198087090902
 20
269.06901781545
 11
64.65198087090903
 21
269.970308744
 72
     1
 10
63.15198087090903
 20
269.06901781545
 11
64.65198087090903
 21
269.970308744
 72
     1
 10
63.15198087090903
 20
266.970308744
 11
63.15198087090903
 21
269.06901781545
 72
     1
 10
62.65198087090903
 20
266.970308744
 11
63.15198087090903
 21
266.970308744
 72
     1
 10
62.65198087090903
 20
254.970308744
 11
62.65198087090903
 21
266.970308744
 72
     1
 10
60.65198087090903
 20
252.970308744
 11
62.65198087090903
 21
254.970308744
 97
        0
 75
     0
 76
     0
 52
135.0
 41
5.49438996205
 77
     0
 78
     1
 53
135.0
 43
126.7590855970591
 44
192.79221965985
 45
-3.88512040065
 46
-3.885120400649999
 79
     0
 98
        1
 10
126.7590855970591
 20
192.79221965985
  0
HATCH
  5
2C6
330
212
100
AcDbEntity
  8
0
  6
Continuous
 62
     2
100
AcDbHatch
 10
0.0
 20
0.0
 30
0.0
210
0.0
220
0.0
230
1.0
  2
DEFAULT__1
 70
     0
 71
     0
 91
        1
 92
        1
 93
       19
 72
     1
 10
62.65198087090903
 20
257.970308744
 11
66.65198087090903
 21
257.970308744
 72
     1
 10
66.65198087090903
 20
257.970308744
 11
66.65198087090903
 21
253.170308744
 72
     1
 10
66.65198087090903
 20
253.170308744
 11
66.35198087090903
 21
252.270308744
 72
     1
 10
66.35198087090907
 20
252.270308744
 11
66.35198087090907
 21
252.1703087440001
 72
     1
 10
66.35198087090907
 20
252.170308744
 11
68.40198087090907
 21
250.120308744
 72
     1
 10
68.40198087090903
 20
250.120308744
 11
68.40198087090903
 21
249.970308744
 72
     1
 10
66.85198087090907
 20
249.970308744
 11
68.40198087090907
 21
249.970308744
 72
     1
 10
66.85198087090907
 20
249.970308744
 11
64.92698087090906
 21
251.895308744
 72
     1
 10
64.92698087090906
 20
252.170308744
 11
64.92698087090906
 21
251.895308744
 72
     1
 10
64.92698087090906
 20
252.170308744
 11
64.65198087090906
 21
252.170308744
 72
     1
 10
64.65198087090903
 20
252.170308744
 11
64.37698087090902
 21
252.170308744
 72
     1
 10
64.37698087090905
 20
252.170308744
 11
64.37698087090905
 21
251.895308744
 72
     1
 10
64.37698087090905
 20
251.895308744
 11
62.45198087090905
 21
249.970308744
 72
     1
 10
60.90198087090903
 20
249.970308744
 11
62.45198087090902
 21
249.970308744
 72
     1
 10
60.90198087090903
 20
250.120308744
 11
60.90198087090903
 21
249.970308744
 72
     1
 10
62.95198087090909
 20
252.170308744
 11
60.90198087090909
 21
250.120308744
 72
     1
 10
62.95198087090909
 20
252.270308744
 11
62.95198087090909
 21
252.1703087440001
 72
     1
 10
62.65198087090903
 20
253.170308744
 11
62.95198087090903
 21
252.270308744
 72
     1
 10
62.65198087090903
 20
257.970308744
 11
62.65198087090903
 21
253.170308744
 97
        0
 75
     0
 76
     0
 52
415.0
 41
0.71528736505
 77
     0
 78
     1
 53
54.99999999999998
 43
126.7590855970591
 44
192.79221965985
 45
-0.5859291073
 46
0.4102719778000001
 79
     0
 98
        1
 10
126.7590855970591
 20
192.79221965985
  0
HATCH
  5
2C7
330
212
100
AcDbEntity
  8
0
  6
Continuous
 62
     2
100
AcDbHatch
 10
0.0
 20
0.0
 30
0.0
210
0.0
220
0.0
230
1.0
  2
DEFAULT__2
 70
     0
 71
     0
 91
        1
 92
        1
 93
       19
 72
     1
 10
62.65198087090903
 20
318.3267966305501
 11
66.65198087090903
 21
318.3267966305501
 72
     1
 10
62.65198087090903
 20
318.3267966305501
 11
62.65198087090903
 21
323.1267966305501
 72
     1
 10
62.65198087090903
 20
323.12679663055
 11
62.95198087090903
 21
324.0267966305501
 72
     1
 10
62.95198087090909
 20
324.02679663055
 11
62.95198087090909
 21
324.12679663055
 72
     1
 10
62.95198087090909
 20
324.12679663055
 11
60.90198087090909
 21
326.17679663055
 72
     1
 10
60.90198087090903
 20
326.17679663055
 11
60.90198087090903
 21
326.3267966305499
 72
     1
 10
60.90198087090903
 20
326.3267966305501
 11
62.45198087090902
 21
326.3267966305501
 72
     1
 10
64.37698087090905
 20
324.40179663055
 11
62.45198087090905
 21
326.32679663055
 72
     1
 10
64.37698087090905
 20
324.12679663055
 11
64.37698087090905
 21
324.40179663055
 72
     1
 10
64.65198087090903
 20
324.12679663055
 11
64.37698087090902
 21
324.12679663055
 72
     1
 10
64.92698087090906
 20
324.12679663055
 11
64.65198087090906
 21
324.12679663055
 72
     1
 10
64.92698087090906
 20
324.12679663055
 11
64.92698087090906
 21
324.40179663055
 72
     1
 10
66.85198087090907
 20
326.3267966305501
 11
64.92698087090906
 21
324.4017966305501
 72
     1
 10
66.85198087090907
 20
326.3267966305501
 11
68.40198087090907
 21
326.3267966305501
 72
     1
 10
68.40198087090903
 20
326.17679663055
 11
68.40198087090903
 21
326.3267966305499
 72
     1
 10
66.35198087090907
 20
324.12679663055
 11
68.40198087090907
 21
326.17679663055
 72
     1
 10
66.35198087090907
 20
324.02679663055
 11
66.35198087090907
 21
324.12679663055
 72
     1
 10
66.65198087090903
 20
323.12679663055
 11
66.35198087090903
 21
324.0267966305501
 72
     1
 10
66.65198087090903
 20
318.3267966305501
 11
66.65198087090903
 21
323.1267966305501
 97
        0
 75
     0
 76
     0
 52
135.0
 41
0.7479014032000001
 77
     0
 78
     1
 53
135.0
 43
126.7590855970591
 44
192.79221965985
 45
-0.52884615385
 46
-0.52884615385
 79
     0
 98
        1
 10
126.7590855970591
 20
192.79221965985
  0
HATCH
  5
2C8
330
212
100
AcDbEntity
  8
0
  6
Continuous
 62
     2
100
AcDbHatch
 10
0.0
 20
0.0
 30
0.0
210
0.0
220
0.0
230
1.0
  2
DEFAULT__3
 70
     0
 71
     0
 91
        3
 92
        1
 93
        4
 72
     1
 10
72.65198087075908
 20
304.970308744
 11
69.40198087090909
 21
304.970308744
 72
     1
 10
69.40198087090903
 20
306.470308744
 11
69.40198087090903
 21
304.970308744
 72
     1
 10
72.65198087075908
 20
306.470308744
 11
69.40198087090909
 21
306.470308744
 72
     1
 10
72.65198087075908
 20
304.970308744
 11
72.65198087075908
 21
306.470308744
 97
        0
 92
        1
 93
       14
 72
     1
 10
59.90198087090902
 20
304.970308744
 11
56.65198087090903
 21
304.970308744
 72
     4
 94
        3
 73
     1
 74
     0
 95
        8
 96
        4
 40
0.0
 40
0.0
 40
0.0
 40
0.0
 40
1.0
 40
1.0
 40
1.0
 40
1.0
 10
53.65198087090902
 20
307.970308744
 42
1.0
 10
53.65198087090902
 20
306.21294943115
 42
0.8047378541
 10
54.89462155805904
 20
304.970308744
 42
0.8047378541
 10
56.65198087090903
 20
304.970308744
 42
1.0
 72
     1
 10
53.65198087090902
 20
307.970308744
 11
53.65198087090902
 21
323.970308744
 72
     4
 94
        3
 73
     1
 74
     0
 95
        8
 96
        4
 40
0.0
 40
0.0
 40
0.0
 40
0.0
 40
1.0
 40
1.0
 40
1.0
 40
1.0
 10
56.65198087090903
 20
326.9703087440001
 42
1.0
 10
54.89462155805904
 20
326.970308744
 42
0.8047378541
 10
53.65198087090902
 20
325.7276680568999
 42
0.8047378541
 10
53.65198087090902
 20
323.9703087440001
 42
1.0
 72
     1
 10
56.65198087090903
 20
326.9703087440001
 11
59.95198087090902
 21
326.9703087440001
 72
     1
 10
62.45198087090904
 20
324.4861843597001
 11
59.95198087090904
 21
326.9703087440001
 72
     1
 10
62.45198087090904
 20
324.4861843597001
 11
61.39470451620905
 21
323.42215113195
 72
     1
 10
61.39470451620906
 20
323.42215113195
 11
59.33345747780904
 21
325.470308744
 72
     1
 10
56.65198087090903
 20
325.4703087440001
 11
59.33345747780902
 21
325.4703087440001
 72
     4
 94
        3
 73
     1
 74
     0
 95
        8
 96
        4
 40
0.0
 40
0.0
 40
0.0
 40
0.0
 40
1.0
 40
1.0
 40
1.0
 40
1.0
 10
56.65198087090903
 20
325.4703087440001
 42
1.0
 10
55.77330121445903
 20
325.4703087440001
 42
0.8047378541
 10
55.15198087090903
 20
324.8489884004501
 42
0.8047378541
 10
55.15198087090903
 20
323.9703087440001
 42
1.0
 72
     1
 10
55.15198087090903
 20
307.970308744
 11
55.15198087090903
 21
323.970308744
 72
     4
 94
        3
 73
     1
 74
     0
 95
        8
 96
        4
 40
0.0
 40
0.0
 40
0.0
 40
0.0
 40
1.0
 40
1.0
 40
1.0
 40
1.0
 10
55.15198087090903
 20
307.970308744
 42
1.0
 10
55.15198087090903
 20
307.09162908755
 42
0.8047378541
 10
55.77330121445903
 20
306.470308744
 42
0.8047378541
 10
56.65198087090903
 20
306.470308744
 42
1.0
 72
     1
 10
59.90198087090902
 20
306.470308744
 11
56.65198087090903
 21
306.470308744
 72
     1
 10
59.90198087090902
 20
306.470308744
 11
59.90198087090902
 21
304.970308744
 97
        0
 92
        1
 93
        6
 72
     1
 10
69.35198087090907
 20
326.9703087440001
 11
72.65198087075908
 21
326.9703087440001
 72
     1
 10
72.65198087075908
 20
325.4703087440001
 11
72.65198087075908
 21
326.9703087440001
 72
     1
 10
69.97050426400903
 20
325.4703087440001
 11
72.65198087075905
 21
325.4703087440001
 72
     1
 10
67.90925722560905
 20
323.42215113195
 11
69.97050426400905
 21
325.470308744
 72
     1
 10
66.85198087090907
 20
324.4861843597001
 11
67.90925722560906
 21
323.42215113195
 72
     1
 10
66.85198087090907
 20
324.4861843597001
 11
69.35198087090907
 21
326.9703087440001
 97
        0
 75
     0
 76
     0
 52
135.0
 41
1.58434120895
 77
     0
 78
     1
 53
135.0
 43
126.7590855970591
 44
192.79221965985
 45
-1.120298412599999
 46
-1.120298412599999
 79
     0
 98
        1
 10
126.7590855970591
 20
192.79221965985
  0
HATCH
  5
2C9
330
212
100
AcDbEntity
  8
0
  6
Continuous
 62
     2
100
AcDbHatch
 10
0.0
 20
0.0
 30
0.0
210
0.0
220
0.0
230
1.0
  2
DEFAULT__4
 70
     0
 71
     0
 91
        3
 92
        1
 93
        6
 72
     1
 10
72.65198087090903
 20
249.970308744
 11
69.35198087090903
 21
249.970308744
 72
     1
 10
69.35198087090907
 20
249.970308744
 11
66.85198087090907
 21
252.4544331283
 72
     1
 10
66.85198087090907
 20
252.4544331283
 11
67.90925722560906
 21
253.51846635605
 72
     1
 10
69.97050426400903
 20
251.470308744
 11
67.90925722560904
 21
253.51846635605
 72
     1
 10
72.65198087090903
 20
251.470308744
 11
69.97050426400902
 21
251.470308744
 72
     1
 10
72.65198087090903
 20
251.470308744
 11
72.65198087090903
 21
249.970308744
 97
        0
 92
        1
 93
       14
 72
     1
 10
59.95198087090904
 20
249.970308744
 11
56.65198087090904
 21
249.970308744
 72
     4
 94
        3
 73
     1
 74
     0
 95
        8
 96
        4
 40
0.0
 40
0.0
 40
0.0
 40
0.0
 40
1.0
 40
1.0
 40
1.0
 40
1.0
 10
53.65198087090902
 20
252.970308744
 42
1.0
 10
53.65198087090902
 20
251.2129494311501
 42
0.8047378541
 10
54.89462155805904
 20
249.970308744
 42
0.8047378541
 10
56.65198087090903
 20
249.970308744
 42
1.0
 72
     1
 10
53.65198087090902
 20
252.970308744
 11
53.65198087090902
 21
294.470308744
 72
     4
 94
        3
 73
     1
 74
     0
 95
        8
 96
        4
 40
0.0
 40
0.0
 40
0.0
 40
0.0
 40
1.0
 40
1.0
 40
1.0
 40
1.0
 10
56.65198087090903
 20
297.470308744
 42
1.0
 10
54.89462155805904
 20
297.470308744
 42
0.8047378541
 10
53.65198087090902
 20
296.2276680569
 42
0.8047378541
 10
53.65198087090902
 20
294.470308744
 42
1.0
 72
     1
 10
56.65198087090903
 20
297.470308744
 11
59.90198087090902
 21
297.470308744
 72
     1
 10
59.90198087090902
 20
297.470308744
 11
59.90198087090902
 21
295.970308744
 72
     1
 10
56.65198087090903
 20
295.970308744
 11
59.90198087090902
 21
295.970308744
 72
     4
 94
        3
 73
     1
 74
     0
 95
        8
 96
        4
 40
0.0
 40
0.0
 40
0.0
 40
0.0
 40
1.0
 40
1.0
 40
1.0
 40
1.0
 10
56.65198087090903
 20
295.970308744
 42
1.0
 10
55.77330121445903
 20
295.970308744
 42
0.8047378541
 10
55.15198087090903
 20
295.34898840045
 42
0.8047378541
 10
55.15198087090903
 20
294.470308744
 42
1.0
 72
     1
 10
55.15198087090903
 20
252.970308744
 11
55.15198087090903
 21
294.470308744
 72
     4
 94
        3
 73
     1
 74
     0
 95
        8
 96
        4
 40
0.0
 40
0.0
 40
0.0
 40
0.0
 40
1.0
 40
1.0
 40
1.0
 40
1.0
 10
55.15198087090903
 20
252.970308744
 42
1.0
 10
55.15198087090903
 20
252.09162908755
 42
0.8047378541
 10
55.77330121445903
 20
251.470308744
 42
0.8047378541
 10
56.65198087090903
 20
251.470308744
 42
1.0
 72
     1
 10
59.33345747780902
 20
251.470308744
 11
56.65198087090903
 21
251.470308744
 72
     1
 10
59.33345747780902
 20
251.470308744
 11
61.39470451620903
 21
253.51846635605
 72
     1
 10
62.45198087090904
 20
252.4544331283
 11
61.39470451620905
 21
253.51846635605
 72
     1
 10
59.95198087090904
 20
249.970308744
 11
62.45198087090904
 21
252.4544331283
 97
        0
 92
        1
 93
        4
 72
     1
 10
69.40198087090903
 20
297.470308744
 11
72.65198087090903
 21
297.470308744
 72
     1
 10
72.65198087090903
 20
297.470308744
 11
72.65198087090903
 21
295.970308744
 72
     1
 10
69.40198087090903
 20
295.970308744
 11
72.65198087090903
 21
295.970308744
 72
     1
 10
69.40198087090903
 20
297.470308744
 11
69.40198087090903
 21
295.970308744
 97
        0
 75
     0
 76
     0
 52
415.0
 41
3.7407825016
 77
     0
 78
     1
 53
54.99999999999998
 43
126.7590855970591
 44
192.79221965985
 45
-3.06426963345
 46
2.14562469645
 79
     0
 98
        1
 10
126.7590855970591
 20
192.79221965985
  0
DIMENSION
  5
2CF
330
212
100
AcDbEntity
  8
P-0000
  6
Continuous
100
AcDbDimension
  2
*D3
 10
29.9893983409591
 20
326.9703087440001
 30
0.0
 11
29.98939834095904
 21
286.908081681
 31
0.0
 70
   160
 71
     2
 42
77.00000000000006
  3
883N99122_001_00149479900
100
AcDbAlignedDimension
 13
56.65198087090903
 23
249.970308744
 33
0.0
 14
56.65198087090903
 24
326.9703087440001
 34
0.0
 50
90.0
100
AcDbRotatedDimension
1001
ACAD_DSTYLE_DIMINSPECT
1070
   396
1000

1070
   395
1000

1070
   394
1070
     1
1070
   393
1070
     0
1001
ACAD
1000
DSTYLE
1002
{
1070
    41
1040
3.5
1070
   271
1070
     0
1070
   288
1070
     1
1002
}
  0
DIMENSION
  5
2D0
330
212
100
AcDbEntity
  8
P-0000
  6
Continuous
100
AcDbDimension
  2
*D4
 10
95.68000730503882
 20
297.470308744
 30
0.0
 11
95.68000730503877
 21
279.0105734802882
 31
0.0
 70
   160
 71
     2
 42
47.49999999999997
  3
883N99122_001_00149479900
100
AcDbAlignedDimension
 13
69.65198087090903
 23
249.970308744
 33
0.0
 14
69.65198087090903
 24
297.470308744
 34
0.0
 50
90.0
100
AcDbRotatedDimension
1001
ACAD
1000
DSTYLE
1002
{
1070
    41
1040
3.5
1070
   271
1070
     1
1070
   288
1070
     1
1002
}
  0
DIMENSION
  5
2D1
330
212
100
AcDbEntity
  8
P-0000
  6
Continuous
100
AcDbDimension
  2
*D5
 10
95.68000730503877
 20
304.970308744
 30
0.0
 11
95.68000730503872
 21
316.8160684637878
 31
0.0
 70
   160
 71
     2
 42
22.00000000000006
  3
883N99122_001_00149479900
100
AcDbAlignedDimension
 13
69.65198087090903
 23
326.9703087440001
 33
0.0
 14
69.65198087090903
 24
304.970308744
 34
0.0
 50
270.0
100
AcDbRotatedDimension
1001
ACAD
1000
DSTYLE
1002
{
1070
    41
1040
3.5
1070
   271
1070
     1
1070
   288
1070
     1
1002
}
  0
LINE
  5
3D2
330
212
100
AcDbEntity
  8
BEZUGSACHSEN
  6
Continuous
 62
     3
100
AcDbLine
 10
165.768348107
 20
249.970308744
 30
0.0
 11
165.768348107
 21
297.470308744
 31
0.0
  0
LINE
  5
3D3
330
212
100
AcDbEntity
  8
BEZUGSACHSEN
  6
Continuous
 62
     3
100
AcDbLine
 10
165.768348107
 20
304.970308744
 30
0.0
 11
165.768348107
 21
326.970308744
 31
0.0
  0
LINE
  5
3D4
330
212
100
AcDbEntity
  8
0
  6
Continuous
 62
     7
100
AcDbLine
 10
196.268348107
 20
304.970308744
 30
0.0
 11
196.268348107
 21
297.470308744
 31
0.0
  0
LINE
  5
3D5
330
212
100
AcDbEntity
  8
TEIL_STARTBEZUEGE
  6
CENTER
 62
     7
100
AcDbLine
 10
202.268348107
 20
246.970308744
 30
0.0
 11
202.268348107
 21
329.970308744
 31
0.0
  0
LINE
  5
3D6
330
212
100
AcDbEntity
  8
0
  6
Continuous
 62
     7
100
AcDbLine
 10
208.2683481070001
 20
304.970308744
 30
0.0
 11
208.2683481070001
 21
297.470308744
 31
0.0
  0
LINE
  5
3D7
330
212
100
AcDbEntity
  8
TEIL_STARTBEZUEGE
  6
CENTER
 62
     7
100
AcDbLine
 10
322.268348107
 20
334.470308744
 30
0.0
 11
322.268348107
 21
306.470308744
 31
0.0
  0
LINE
  5
3D8
330
212
100
AcDbEntity
  8
TEIL_STARTBEZUEGE
  6
CENTER
 62
     7
100
AcDbLine
 10
322.268348107
 20
242.470308744
 30
0.0
 11
322.268348107
 21
270.470308744
 31
0.0
  0
LINE
  5
3D9
330
212
100
AcDbEntity
  8
0
  6
Continuous
 62
     7
100
AcDbLine
 10
436.268348107
 20
304.970308744
 30
0.0
 11
436.268348107
 21
297.470308744
 31
0.0
  0
LINE
  5
3DA
330
212
100
AcDbEntity
  8
TEIL_STARTBEZUEGE
  6
CENTER
 62
     7
100
AcDbLine
 10
442.268348107
 20
246.970308744
 30
0.0
 11
442.268348107
 21
329.970308744
 31
0.0
  0
LINE
  5
3DB
330
212
100
AcDbEntity
  8
0
  6
Continuous
 62
     7
100
AcDbLine
 10
448.268348107
 20
304.970308744
 30
0.0
 11
448.268348107
 21
297.470308744
 31
0.0
  0
LINE
  5
3DC
330
212
100
AcDbEntity
  8
BEZUGSACHSEN
  6
Continuous
 62
     3
100
AcDbLine
 10
165.768348107
 20
249.970308744
 30
0.0
 11
958.768348107
 21
249.970308744
 31
0.0
  0
LINE
  5
3DD
330
212
100
AcDbEntity
  8
BEZUGSACHSEN
  6
Continuous
 62
     9
100
AcDbLine
 10
165.768348107
 20
252.970308744
 30
0.0
 11
958.768348107
 21
252.970308744
 31
0.0
  0
LINE
  5
3DE
330
212
100
AcDbEntity
  8
BEZUGSACHSEN
  6
Continuous
 62
     3
100
AcDbLine
 10
937.1152193627999
 20
254.9297671029999
 30
0.0
 11
937.8258299010001
 21
254.9297671029999
 31
0.0
  0
LINE
  5
3DF
330
212
100
AcDbEntity
  8
BEZUGSACHSEN
  6
Continuous
 62
     3
100
AcDbLine
 10
941.0234155146
 20
254.9297671029999
 30
0.0
 11
941.7340260526001
 21
254.9297671029999
 31
0.0
  0
LINE
  5
3E0
330
212
100
AcDbEntity
  8
BEZUGSACHSEN
  6
Continuous
 62
     3
100
AcDbLine
 10
937.8705504196002
 20
255.570677921
 30
0.0
 11
940.978694996
 21
255.570677921
 31
0.0
  0
LINE
  5
3E1
330
212
100
AcDbEntity
  8
BEZUGSACHSEN
  6
Continuous
 62
     3
100
AcDbLine
 10
940.8292063288
 20
256.281280566
 30
0.0
 11
938.0200390866001
 21
256.281280566
 31
0.0
  0
LINE
  5
3E8
330
212
100
AcDbEntity
  8
BEZUGSACHSEN
  6
Continuous
 62
     9
100
AcDbLine
 10
165.768348107
 20
294.470308744
 30
0.0
 11
958.768348107
 21
294.470308744
 31
0.0
  0
LINE
  5
3E9
330
212
100
AcDbEntity
  8
BEZUGSACHSEN
  6
Continuous
 62
     3
100
AcDbLine
 10
165.768348107
 20
297.470308744
 30
0.0
 11
958.768348107
 21
297.470308744
 31
0.0
  0
LINE
  5
3EA
330
212
100
AcDbEntity
  8
BEZUGSACHSEN
  6
Continuous
 62
     3
100
AcDbLine
 10
165.768348107
 20
304.970308744
 30
0.0
 11
958.768348107
 21
304.970308744
 31
0.0
  0
LINE
  5
3EB
330
212
100
AcDbEntity
  8
BEZUGSACHSEN
  6
Continuous
 62
     9
100
AcDbLine
 10
165.768348107
 20
307.970308744
 30
0.0
 11
958.768348107
 21
307.970308744
 31
0.0
  0
LINE
  5
3EC
330
212
100
AcDbEntity
  8
BEZUGSACHSEN
  6
Continuous
 62
     9
100
AcDbLine
 10
165.768348107
 20
323.970308744
 30
0.0
 11
958.768348107
 21
323.970308744
 31
0.0
  0
LINE
  5
3ED
330
212
100
AcDbEntity
  8
BEZUGSACHSEN
  6
Continuous
 62
     3
100
AcDbLine
 10
165.768348107
 20
326.970308744
 30
0.0
 11
958.768348107
 21
326.970308744
 31
0.0
  0
LINE
  5
3F0
330
212
100
AcDbEntity
  8
0
  6
Continuous
 62
     7
100
AcDbLine
 10
676.2683481069999
 20
304.9703087439999
 30
0.0
 11
676.2683481069999
 21
297.4703087439999
 31
0.0
  0
LINE
  5
3F1
330
212
100
AcDbEntity
  8
TEIL_STARTBEZUEGE
  6
CENTER
 62
     7
100
AcDbLine
 10
682.2683481069999
 20
246.9703087439999
 30
0.0
 11
682.2683481069999
 21
329.9703087439999
 31
0.0
  0
LINE
  5
3F2
330
212
100
AcDbEntity
  8
0
  6
Continuous
 62
     7
100
AcDbLine
 10
688.2683481069999
 20
304.9703087439999
 30
0.0
 11
688.2683481069999
 21
297.4703087439999
 31
0.0
  0
LINE
  5
3F3
330
212
100
AcDbEntity
  8
BEZUGSACHSEN
  6
Continuous
 62
     3
100
AcDbLine
 10
947.96839792
 20
256.115579446
 30
0.0
 11
947.3529979776001
 21
256.4708807684
 31
0.0
  0
LINE
  5
3F4
330
212
100
AcDbEntity
  8
BEZUGSACHSEN
  6
Continuous
 62
     3
100
AcDbLine
 10
947.3380325158
 20
258.0951147649999
 30
0.0
 11
947.953504798
 21
258.4504578528
 31
0.0
  0
LINE
  5
3F5
330
212
100
AcDbEntity
  8
TEIL_STARTBEZUEGE
  6
CENTER
 62
     7
100
AcDbLine
 10
802.268348107
 20
334.470308744
 30
0.0
 11
802.268348107
 21
306.470308744
 31
0.0
  0
LINE
  5
3F6
330
212
100
AcDbEntity
  8
TEIL_STARTBEZUEGE
  6
CENTER
 62
     7
100
AcDbLine
 10
802.268348107
 20
242.470308744
 30
0.0
 11
802.268348107
 21
270.470308744
 31
0.0
  0
LINE
  5
3F7
330
212
100
AcDbEntity
  8
0
  6
Continuous
 62
     7
100
AcDbLine
 10
916.2683481069999
 20
304.970308744
 30
0.0
 11
916.2683481069999
 21
297.470308744
 31
0.0
  0
LINE
  5
3F8
330
212
100
AcDbEntity
  8
TEIL_STARTBEZUEGE
  6
CENTER
 62
     7
100
AcDbLine
 10
922.2683481069999
 20
246.970308744
 30
0.0
 11
922.2683481069999
 21
329.970308744
 31
0.0
  0
LINE
  5
3F9
330
212
100
AcDbEntity
  8
0
  6
Continuous
 62
     7
100
AcDbLine
 10
928.268348107
 20
304.970308744
 30
0.0
 11
928.268348107
 21
297.470308744
 31
0.0
  0
LINE
  5
3FA
330
212
100
AcDbEntity
  8
BEZUGSACHSEN
  6
Continuous
 62
     3
100
AcDbLine
 10
958.768348107
 20
249.970308744
 30
0.0
 11
958.768348107
 21
297.470308744
 31
0.0
  0
LINE
  5
3FB
330
212
100
AcDbEntity
  8
BEZUGSACHSEN
  6
Continuous
 62
     3
100
AcDbLine
 10
958.768348107
 20
304.970308744
 30
0.0
 11
958.768348107
 21
326.970308744
 31
0.0
  0
LINE
  5
3FE
330
212
100
AcDbEntity
  8
0
  6
Continuous
 62
     7
100
AcDbLine
 10
72.65198087090903
 20
249.970308744
 30
0.0
 11
56.65198087090903
 21
249.970308744
 31
0.0
  0
LINE
  5
3FF
330
212
100
AcDbEntity
  8
0
  6
Continuous
 62
     7
100
AcDbLine
 10
72.65198087090903
 20
251.470308744
 30
0.0
 11
69.97050426400903
 21
251.470308744
 31
0.0
  0
LINE
  5
400
330
212
100
AcDbEntity
  8
0
  6
Continuous
 62
     7
100
AcDbLine
 10
59.33345747780902
 20
251.470308744
 30
0.0
 11
56.65198087090903
 21
251.470308744
 31
0.0
  0
LINE
  5
401
330
212
100
AcDbEntity
  8
0
  6
Continuous
 62
     7
100
AcDbLine
 10
64.92698087090906
 20
251.895308744
 30
0.0
 11
64.37698087090905
 21
251.895308744
 31
0.0
  0
LINE
  5
402
330
212
100
AcDbEntity
  8
0
  6
Continuous
 62
     7
100
AcDbLine
 10
64.92698087090906
 20
252.170308744
 30
0.0
 11
64.37698087090905
 21
252.170308744
 31
0.0
  0
LINE
  5
403
330
212
100
AcDbEntity
  8
0
  6
Continuous
 62
     7
100
AcDbLine
 10
66.85198087090907
 20
252.4544331283
 30
0.0
 11
66.41335566570905
 21
252.4544331283
 31
0.0
  0
LINE
  5
404
330
212
100
AcDbEntity
  8
0
  6
Continuous
 62
     7
100
AcDbLine
 10
62.89060607615908
 20
252.4544331283
 30
0.0
 11
62.45198087090904
 21
252.4544331283
 31
0.0
  0
LINE
  5
405
330
212
100
AcDbEntity
  8
0
  6
Continuous
 62
     7
100
AcDbLine
 10
68.65198087090902
 20
252.970308744
 30
0.0
 11
68.46091801960904
 21
252.970308744
 31
0.0
  0
LINE
  5
406
330
212
100
AcDbEntity
  8
0
  6
Continuous
 62
     7
100
AcDbLine
 10
60.84304372225904
 20
252.970308744
 30
0.0
 11
60.65198087090903
 21
252.970308744
 31
0.0
  0
LINE
  5
407
330
212
100
AcDbEntity
  8
0
  6
Continuous
 62
     7
100
AcDbLine
 10
66.65198087090903
 20
253.170308744
 30
0.0
 11
66.35198087090907
 21
253.170308744
 31
0.0
  0
LINE
  5
408
330
212
100
AcDbEntity
  8
0
  6
Continuous
 62
     7
100
AcDbLine
 10
62.95198087090909
 20
253.170308744
 30
0.0
 11
62.65198087090903
 21
253.170308744
 31
0.0
  0
LINE
  5
409
330
212
100
AcDbEntity
  8
0
  6
Continuous
 62
     7
100
AcDbLine
 10
67.90925722560905
 20
253.51846635605
 30
0.0
 11
66.65198087090903
 21
253.51846635605
 31
0.0
  0
LINE
  5
40A
330
212
100
AcDbEntity
  8
0
  6
Continuous
 62
     7
100
AcDbLine
 10
62.65198087090903
 20
253.51846635605
 30
0.0
 11
61.39470451620906
 21
253.51846635605
 31
0.0
  0
LINE
  5
40B
330
212
100
AcDbEntity
  8
0
  6
Continuous
 62
     7
100
AcDbLine
 10
62.65198087090903
 20
257.970308744
 30
0.0
 11
66.65198087090903
 21
257.970308744
 31
0.0
  0
LINE
  5
40C
330
212
100
AcDbEntity
  8
0
  6
Continuous
 62
     7
100
AcDbLine
 10
66.85198087090907
 20
252.4544331283
 30
0.0
 11
67.90925722560905
 21
253.51846635605
 31
0.0
  0
LINE
  5
40D
330
212
100
AcDbEntity
  8
0
  6
Continuous
 62
     7
100
AcDbLine
 10
66.85198087090907
 20
249.970308744
 30
0.0
 11
64.65198087090903
 21
252.170308744
 31
0.0
  0
LINE
  5
40E
330
212
100
AcDbEntity
  8
0
  6
Continuous
 62
     7
100
AcDbLine
 10
62.45198087090904
 20
252.4544331283
 30
0.0
 11
61.39470451620906
 21
253.51846635605
 31
0.0
  0
LINE
  5
40F
330
212
100
AcDbEntity
  8
0
  6
Continuous
 62
     7
100
AcDbLine
 10
64.65198087090903
 20
252.170308744
 30
0.0
 11
62.45198087090904
 21
249.970308744
 31
0.0
  0
LINE
  5
410
330
212
100
AcDbEntity
  8
0
  6
Continuous
 62
     7
100
AcDbLine
 10
62.95198087090909
 20
252.170308744
 30
0.0
 11
60.90198087090903
 21
250.120308744
 31
0.0
  0
LINE
  5
411
330
212
100
AcDbEntity
  8
0
  6
Continuous
 62
     7
100
AcDbLine
 10
59.95198087090904
 20
249.970308744
 30
0.0
 11
62.45198087090904
 21
252.4544331283
 31
0.0
  0
LINE
  5
412
330
212
100
AcDbEntity
  8
0
  6
Continuous
 62
     7
100
AcDbLine
 10
69.35198087090907
 20
249.970308744
 30
0.0
 11
66.85198087090907
 21
252.4544331283
 31
0.0
  0
LINE
  5
413
330
212
100
AcDbEntity
  8
0
  6
Continuous
 62
     7
100
AcDbLine
 10
66.35198087090907
 20
252.170308744
 30
0.0
 11
68.40198087090903
 21
250.120308744
 31
0.0
  0
LINE
  5
414
330
212
100
AcDbEntity
  8
0
  6
Continuous
 62
     7
100
AcDbLine
 10
60.65198087090903
 20
252.970308744
 30
0.0
 11
62.65198087090903
 21
254.970308744
 31
0.0
  0
LINE
  5
415
330
212
100
AcDbEntity
  8
0
  6
Continuous
 62
     7
100
AcDbLine
 10
59.33345747780902
 20
251.470308744
 30
0.0
 11
61.39470451620906
 21
253.51846635605
 31
0.0
  0
LINE
  5
416
330
212
100
AcDbEntity
  8
0
  6
Continuous
 62
     7
100
AcDbLine
 10
66.65198087090903
 20
266.970308744
 30
0.0
 11
62.65198087090903
 21
266.970308744
 31
0.0
  0
LINE
  5
417
330
212
100
AcDbEntity
  8
0
  6
Continuous
 62
     7
100
AcDbLine
 10
66.15198087090902
 20
269.06901781545
 30
0.0
 11
63.15198087090903
 21
269.06901781545
 31
0.0
  0
LINE
  5
418
330
212
100
AcDbEntity
  8
0
  6
Continuous
 62
     7
100
AcDbLine
 10
69.97050426400903
 20
251.470308744
 30
0.0
 11
67.90925722560905
 21
253.51846635605
 31
0.0
  0
LINE
  5
419
330
212
100
AcDbEntity
  8
0
  6
Continuous
 62
     7
100
AcDbLine
 10
68.65198087090902
 20
252.970308744
 30
0.0
 11
66.65198087090903
 21
254.970308744
 31
0.0
  0
LINE
  5
41A
330
212
100
AcDbEntity
  8
0
  6
Continuous
 62
     7
100
AcDbLine
 10
63.15198087090903
 20
269.06901781545
 30
0.0
 11
64.65198087090903
 21
269.970308744
 31
0.0
  0
LINE
  5
41B
330
212
100
AcDbEntity
  8
0
  6
Continuous
 62
     7
100
AcDbLine
 10
66.15198087090902
 20
269.06901781545
 30
0.0
 11
64.65198087090903
 21
269.970308744
 31
0.0
  0
LINE
  5
41C
330
212
100
AcDbEntity
  8
0
  6
Continuous
 62
     7
100
AcDbLine
 10
66.65198087090903
 20
253.170308744
 30
0.0
 11
66.35198087090907
 21
252.270308744
 31
0.0
  0
LINE
  5
41D
330
212
100
AcDbEntity
  8
0
  6
Continuous
 62
     7
100
AcDbLine
 10
62.65198087090903
 20
253.170308744
 30
0.0
 11
62.95198087090909
 21
252.270308744
 31
0.0
  0
LINE
  5
41E
330
212
100
AcDbEntity
  8
0
  6
Continuous
 62
     7
100
AcDbLine
 10
72.65198087090903
 20
297.470308744
 30
0.0
 11
72.65198087090903
 21
295.970308744
 31
0.0
  0
LINE
  5
41F
330
212
100
AcDbEntity
  8
0
  6
Continuous
 62
     7
100
AcDbLine
 10
72.65198087090903
 20
251.470308744
 30
0.0
 11
72.65198087090903
 21
249.970308744
 31
0.0
  0
LINE
  5
420
330
212
100
AcDbEntity
  8
0
  6
Continuous
 62
     7
100
AcDbLine
 10
72.65198087090903
 20
304.970308744
 30
0.0
 11
72.65198087090903
 21
306.470308744
 31
0.0
  0
LINE
  5
421
330
212
100
AcDbEntity
  8
0
  6
Continuous
 62
     7
100
AcDbLine
 10
72.65198087090903
 20
325.4703087440001
 30
0.0
 11
72.65198087090903
 21
326.9703087440001
 31
0.0
  0
LINE
  5
422
330
212
100
AcDbEntity
  8
0
  6
Continuous
 62
     7
100
AcDbLine
 10
70.65198087090903
 20
304.970308744
 30
0.0
 11
70.65198087090903
 21
297.470308744
 31
0.0
  0
LINE
  5
423
330
212
100
AcDbEntity
  8
0
  6
Continuous
 62
     7
100
AcDbLine
 10
69.40198087090903
 20
306.470308744
 30
0.0
 11
69.40198087090903
 21
304.970308744
 31
0.0
  0
LINE
  5
424
330
212
100
AcDbEntity
  8
0
  6
Continuous
 62
     7
100
AcDbLine
 10
69.40198087090903
 20
297.470308744
 30
0.0
 11
69.40198087090903
 21
295.970308744
 31
0.0
  0
LINE
  5
425
330
212
100
AcDbEntity
  8
0
  6
Continuous
 62
     7
100
AcDbLine
 10
68.65198087090902
 20
323.9703087440001
 30
0.0
 11
68.65198087090902
 21
304.970308744
 31
0.0
  0
LINE
  5
426
330
212
100
AcDbEntity
  8
0
  6
Continuous
 62
     7
100
AcDbLine
 10
68.65198087090902
 20
297.470308744
 30
0.0
 11
68.65198087090902
 21
252.970308744
 31
0.0
  0
LINE
  5
427
330
212
100
AcDbEntity
  8
0
  6
Continuous
 62
     7
100
AcDbLine
 10
68.40198087090903
 20
250.120308744
 30
0.0
 11
68.40198087090903
 21
249.970308744
 31
0.0
  0
LINE
  5
428
330
212
100
AcDbEntity
  8
0
  6
Continuous
 62
     7
100
AcDbLine
 10
68.40198087090903
 20
326.17679663055
 30
0.0
 11
68.40198087090903
 21
326.3267966305501
 31
0.0
  0
LINE
  5
429
330
212
100
AcDbEntity
  8
0
  6
Continuous
 62
     7
100
AcDbLine
 10
66.65198087090903
 20
253.170308744
 30
0.0
 11
66.65198087090903
 21
266.970308744
 31
0.0
  0
LINE
  5
42A
330
212
100
AcDbEntity
  8
0
  6
Continuous
 62
     7
100
AcDbLine
 10
66.65198087090903
 20
309.970308744
 30
0.0
 11
66.65198087090903
 21
323.12679663055
 31
0.0
  0
LINE
  5
42B
330
212
100
AcDbEntity
  8
0
  6
Continuous
 62
     2
100
AcDbLine
 10
66.35198087090907
 20
257.970308744
 30
0.0
 11
66.35198087090907
 21
253.170308744
 31
0.0
  0
LINE
  5
42C
330
212
100
AcDbEntity
  8
0
  6
Continuous
 62
     7
100
AcDbLine
 10
66.35198087090907
 20
252.270308744
 30
0.0
 11
66.35198087090907
 21
252.170308744
 31
0.0
  0
LINE
  5
42D
330
212
100
AcDbEntity
  8
0
  6
Continuous
 62
     2
100
AcDbLine
 10
66.35198087090907
 20
318.3267966305501
 30
0.0
 11
66.35198087090907
 21
323.12679663055
 31
0.0
  0
LINE
  5
42E
330
212
100
AcDbEntity
  8
0
  6
Continuous
 62
     7
100
AcDbLine
 10
66.35198087090907
 20
324.02679663055
 30
0.0
 11
66.35198087090907
 21
324.12679663055
 31
0.0
  0
LINE
  5
42F
330
212
100
AcDbEntity
  8
0
  6
Continuous
 62
     7
100
AcDbLine
 10
66.15198087090902
 20
266.970308744
 30
0.0
 11
66.15198087090902
 21
269.06901781545
 31
0.0
  0
LINE
  5
430
330
212
100
AcDbEntity
  8
0
  6
Continuous
 62
     7
100
AcDbLine
 10
66.15198087090902
 20
307.87159967255
 30
0.0
 11
66.15198087090902
 21
309.970308744
 31
0.0
  0
LINE
  5
431
330
212
100
AcDbEntity
  8
0
  6
Continuous
 62
     7
100
AcDbLine
 10
64.92698087090906
 20
252.170308744
 30
0.0
 11
64.92698087090906
 21
249.970308744
 31
0.0
  0
LINE
  5
432
330
212
100
AcDbEntity
  8
0
  6
Continuous
 62
     7
100
AcDbLine
 10
64.92698087090906
 20
324.12679663055
 30
0.0
 11
64.92698087090906
 21
326.3267966305501
 31
0.0
  0
LINE
  5
433
330
212
100
AcDbEntity
  8
TEIL_STARTBEZUEGE
  6
CENTER
 62
     7
100
AcDbLine
 10
64.65198087090903
 20
251.470308744
 30
0.0
 11
64.65198087090903
 21
325.4703087440001
 31
0.0
  0
LINE
  5
434
330
212
100
AcDbEntity
  8
0
  6
Continuous
 62
     7
100
AcDbLine
 10
64.37698087090905
 20
252.170308744
 30
0.0
 11
64.37698087090905
 21
249.970308744
 31
0.0
  0
LINE
  5
435
330
212
100
AcDbEntity
  8
0
  6
Continuous
 62
     7
100
AcDbLine
 10
64.37698087090905
 20
324.12679663055
 30
0.0
 11
64.37698087090905
 21
326.3267966305501
 31
0.0
  0
LINE
  5
436
330
212
100
AcDbEntity
  8
0
  6
Continuous
 62
     7
100
AcDbLine
 10
63.15198087090903
 20
266.970308744
 30
0.0
 11
63.15198087090903
 21
269.06901781545
 31
0.0
  0
LINE
  5
437
330
212
100
AcDbEntity
  8
0
  6
Continuous
 62
     7
100
AcDbLine
 10
63.15198087090903
 20
307.87159967255
 30
0.0
 11
63.15198087090903
 21
309.970308744
 31
0.0
  0
LINE
  5
438
330
212
100
AcDbEntity
  8
0
  6
Continuous
 62
     2
100
AcDbLine
 10
62.95198087090909
 20
257.970308744
 30
0.0
 11
62.95198087090909
 21
253.170308744
 31
0.0
  0
LINE
  5
439
330
212
100
AcDbEntity
  8
0
  6
Continuous
 62
     7
100
AcDbLine
 10
62.95198087090909
 20
252.270308744
 30
0.0
 11
62.95198087090909
 21
252.170308744
 31
0.0
  0
LINE
  5
43A
330
212
100
AcDbEntity
  8
0
  6
Continuous
 62
     2
100
AcDbLine
 10
62.95198087090909
 20
318.3267966305501
 30
0.0
 11
62.95198087090909
 21
323.12679663055
 31
0.0
  0
LINE
  5
43B
330
212
100
AcDbEntity
  8
0
  6
Continuous
 62
     7
100
AcDbLine
 10
62.95198087090909
 20
324.02679663055
 30
0.0
 11
62.95198087090909
 21
324.12679663055
 31
0.0
  0
LINE
  5
43C
330
212
100
AcDbEntity
  8
0
  6
Continuous
 62
     7
100
AcDbLine
 10
62.65198087090903
 20
253.170308744
 30
0.0
 11
62.65198087090903
 21
266.970308744
 31
0.0
  0
LINE
  5
43D
330
212
100
AcDbEntity
  8
0
  6
Continuous
 62
     7
100
AcDbLine
 10
62.65198087090903
 20
309.970308744
 30
0.0
 11
62.65198087090903
 21
323.12679663055
 31
0.0
  0
LINE
  5
43E
330
212
100
AcDbEntity
  8
0
  6
Continuous
 62
     7
100
AcDbLine
 10
60.90198087090903
 20
250.120308744
 30
0.0
 11
60.90198087090903
 21
249.970308744
 31
0.0
  0
LINE
  5
43F
330
212
100
AcDbEntity
  8
0
  6
Continuous
 62
     7
100
AcDbLine
 10
60.90198087090903
 20
326.17679663055
 30
0.0
 11
60.90198087090903
 21
326.3267966305501
 31
0.0
  0
LINE
  5
440
330
212
100
AcDbEntity
  8
0
  6
Continuous
 62
     7
100
AcDbLine
 10
60.65198087090903
 20
323.9703087440001
 30
0.0
 11
60.65198087090903
 21
304.970308744
 31
0.0
  0
LINE
  5
441
330
212
100
AcDbEntity
  8
0
  6
Continuous
 62
     7
100
AcDbLine
 10
60.65198087090903
 20
297.470308744
 30
0.0
 11
60.65198087090903
 21
252.970308744
 31
0.0
  0
LINE
  5
442
330
212
100
AcDbEntity
  8
0
  6
Continuous
 62
     7
100
AcDbLine
 10
59.90198087090902
 20
306.470308744
 30
0.0
 11
59.90198087090902
 21
304.970308744
 31
0.0
  0
LINE
  5
443
330
212
100
AcDbEntity
  8
0
  6
Continuous
 62
     7
100
AcDbLine
 10
59.90198087090902
 20
297.470308744
 30
0.0
 11
59.90198087090902
 21
295.970308744
 31
0.0
  0
LINE
  5
444
330
212
100
AcDbEntity
  8
0
  6
Continuous
 62
     7
100
AcDbLine
 10
58.65198087090902
 20
304.970308744
 30
0.0
 11
58.65198087090902
 21
297.470308744
 31
0.0
  0
LINE
  5
445
330
212
100
AcDbEntity
  8
0
  6
Continuous
 62
     7
100
AcDbLine
 10
55.15198087090903
 20
252.970308744
 30
0.0
 11
55.15198087090903
 21
294.470308744
 31
0.0
  0
LINE
  5
446
330
212
100
AcDbEntity
  8
0
  6
Continuous
 62
     7
100
AcDbLine
 10
55.15198087090903
 20
307.970308744
 30
0.0
 11
55.15198087090903
 21
323.9703087440001
 31
0.0
  0
LINE
  5
447
330
212
100
AcDbEntity
  8
0
  6
Continuous
 62
     7
100
AcDbLine
 10
56.65198087090903
 20
295.970308744
 30
0.0
 11
60.65198087090903
 21
295.970308744
 31
0.0
  0
LINE
  5
448
330
212
100
AcDbEntity
  8
0
  6
Continuous
 62
     7
100
AcDbLine
 10
68.65198087090902
 20
295.970308744
 30
0.0
 11
72.65198087090903
 21
295.970308744
 31
0.0
  0
LINE
  5
449
330
212
100
AcDbEntity
  8
0
  6
Continuous
 62
     7
100
AcDbLine
 10
56.65198087090903
 20
297.470308744
 30
0.0
 11
60.65198087090903
 21
297.470308744
 31
0.0
  0
LINE
  5
44A
330
212
100
AcDbEntity
  8
0
  6
Continuous
 62
     7
100
AcDbLine
 10
68.65198087090902
 20
297.470308744
 30
0.0
 11
72.65198087090903
 21
297.470308744
 31
0.0
  0
LINE
  5
44B
330
212
100
AcDbEntity
  8
0
  6
Continuous
 62
     7
100
AcDbLine
 10
53.65198087090902
 20
252.970308744
 30
0.0
 11
53.65198087090902
 21
294.470308744
 31
0.0
  0
LINE
  5
44C
330
212
100
AcDbEntity
  8
0
  6
Continuous
 62
     7
100
AcDbLine
 10
53.65198087090902
 20
307.970308744
 30
0.0
 11
53.65198087090902
 21
323.9703087440001
 31
0.0
  0
LINE
  5
44D
330
212
100
AcDbEntity
  8
0
  6
Continuous
 62
     7
100
AcDbLine
 10
62.65198087090903
 20
323.12679663055
 30
0.0
 11
62.95198087090909
 21
324.02679663055
 31
0.0
  0
LINE
  5
44E
330
212
100
AcDbEntity
  8
0
  6
Continuous
 62
     7
100
AcDbLine
 10
66.65198087090903
 20
323.12679663055
 30
0.0
 11
66.35198087090907
 21
324.02679663055
 31
0.0
  0
LINE
  5
44F
330
212
100
AcDbEntity
  8
0
  6
Continuous
 62
     7
100
AcDbLine
 10
64.65198087090903
 20
306.970308744
 30
0.0
 11
66.15198087090902
 21
307.87159967255
 31
0.0
  0
LINE
  5
450
330
212
100
AcDbEntity
  8
0
  6
Continuous
 62
     7
100
AcDbLine
 10
72.65198087075908
 20
304.970308744
 30
0.0
 11
68.65198087090902
 21
304.970308744
 31
0.0
  0
LINE
  5
451
330
212
100
AcDbEntity
  8
0
  6
Continuous
 62
     7
100
AcDbLine
 10
60.65198087090903
 20
304.970308744
 30
0.0
 11
56.65198087090903
 21
304.970308744
 31
0.0
  0
LINE
  5
452
330
212
100
AcDbEntity
  8
0
  6
Continuous
 62
     7
100
AcDbLine
 10
72.65198087075908
 20
306.470308744
 30
0.0
 11
68.65198087090902
 21
306.470308744
 31
0.0
  0
LINE
  5
453
330
212
100
AcDbEntity
  8
0
  6
Continuous
 62
     7
100
AcDbLine
 10
60.65198087090903
 20
306.470308744
 30
0.0
 11
56.65198087090903
 21
306.470308744
 31
0.0
  0
LINE
  5
454
330
212
100
AcDbEntity
  8
0
  6
Continuous
 62
     7
100
AcDbLine
 10
64.65198087090903
 20
306.970308744
 30
0.0
 11
63.15198087090903
 21
307.87159967255
 31
0.0
  0
LINE
  5
455
330
212
100
AcDbEntity
  8
0
  6
Continuous
 62
     7
100
AcDbLine
 10
66.15198087090902
 20
307.87159967255
 30
0.0
 11
63.15198087090903
 21
307.87159967255
 31
0.0
  0
LINE
  5
456
330
212
100
AcDbEntity
  8
0
  6
Continuous
 62
     7
100
AcDbLine
 10
66.65198087090903
 20
321.9703087440001
 30
0.0
 11
68.65198087090902
 21
323.9703087440001
 31
0.0
  0
LINE
  5
457
330
212
100
AcDbEntity
  8
0
  6
Continuous
 62
     7
100
AcDbLine
 10
67.90925722560905
 20
323.42215113195
 30
0.0
 11
69.97050426400903
 21
325.4703087440001
 31
0.0
  0
LINE
  5
458
330
212
100
AcDbEntity
  8
0
  6
Continuous
 62
     7
100
AcDbLine
 10
66.65198087090903
 20
309.970308744
 30
0.0
 11
62.65198087090903
 21
309.970308744
 31
0.0
  0
LINE
  5
459
330
212
100
AcDbEntity
  8
0
  6
Continuous
 62
     7
100
AcDbLine
 10
61.39470451620906
 20
323.42215113195
 30
0.0
 11
59.33345747780902
 21
325.4703087440001
 31
0.0
  0
LINE
  5
45A
330
212
100
AcDbEntity
  8
0
  6
Continuous
 62
     7
100
AcDbLine
 10
62.65198087090903
 20
321.9703087440001
 30
0.0
 11
60.65198087090903
 21
323.9703087440001
 31
0.0
  0
LINE
  5
45B
330
212
100
AcDbEntity
  8
0
  6
Continuous
 62
     7
100
AcDbLine
 10
66.35198087090907
 20
324.12679663055
 30
0.0
 11
68.40198087090903
 21
326.17679663055
 31
0.0
  0
LINE
  5
45C
330
212
100
AcDbEntity
  8
0
  6
Continuous
 62
     7
100
AcDbLine
 10
64.65198087090903
 20
324.12679663055
 30
0.0
 11
66.85198087090907
 21
326.3267966305501
 31
0.0
  0
LINE
  5
45D
330
212
100
AcDbEntity
  8
0
  6
Continuous
 62
     7
100
AcDbLine
 10
66.85198087090907
 20
324.4861843597001
 30
0.0
 11
69.35198087090907
 21
326.9703087440001
 31
0.0
  0
LINE
  5
45E
330
212
100
AcDbEntity
  8
0
  6
Continuous
 62
     7
100
AcDbLine
 10
62.45198087090904
 20
324.4861843597001
 30
0.0
 11
59.95198087090904
 21
326.9703087440001
 31
0.0
  0
LINE
  5
45F
330
212
100
AcDbEntity
  8
0
  6
Continuous
 62
     7
100
AcDbLine
 10
62.95198087090909
 20
324.12679663055
 30
0.0
 11
60.90198087090903
 21
326.17679663055
 31
0.0
  0
LINE
  5
460
330
212
100
AcDbEntity
  8
0
  6
Continuous
 62
     7
100
AcDbLine
 10
64.65198087090903
 20
324.12679663055
 30
0.0
 11
62.45198087090904
 21
326.3267966305501
 31
0.0
  0
LINE
  5
461
330
212
100
AcDbEntity
  8
0
  6
Continuous
 62
     7
100
AcDbLine
 10
62.45198087090904
 20
324.4861843597001
 30
0.0
 11
61.39470451620906
 21
323.42215113195
 31
0.0
  0
LINE
  5
462
330
212
100
AcDbEntity
  8
0
  6
Continuous
 62
     7
100
AcDbLine
 10
62.65198087090903
 20
318.3267966305501
 30
0.0
 11
66.65198087090903
 21
318.3267966305501
 31
0.0
  0
LINE
  5
463
330
212
100
AcDbEntity
  8
0
  6
Continuous
 62
     7
100
AcDbLine
 10
66.85198087090907
 20
324.4861843597001
 30
0.0
 11
67.90925722560905
 21
323.42215113195
 31
0.0
  0
LINE
  5
465
330
212
100
AcDbEntity
  8
0
  6
Continuous
 62
     7
100
AcDbLine
 10
66.65198087090903
 20
323.12679663055
 30
0.0
 11
66.35198087090907
 21
323.12679663055
 31
0.0
  0
LINE
  5
466
330
212
100
AcDbEntity
  8
0
  6
Continuous
 62
     7
100
AcDbLine
 10
62.95198087090909
 20
323.12679663055
 30
0.0
 11
62.65198087090903
 21
323.12679663055
 31
0.0
  0
LINE
  5
467
330
212
100
AcDbEntity
  8
0
  6
Continuous
 62
     7
100
AcDbLine
 10
61.39470451620906
 20
323.42215113195
 30
0.0
 11
62.75043237140903
 21
323.42215113195
 31
0.0
  0
LINE
  5
468
330
212
100
AcDbEntity
  8
0
  6
Continuous
 62
     7
100
AcDbLine
 10
66.55352937045904
 20
323.42215113195
 30
0.0
 11
67.90925722560905
 21
323.42215113195
 31
0.0
  0
LINE
  5
469
330
212
100
AcDbEntity
  8
0
  6
Continuous
 62
     7
100
AcDbLine
 10
60.65198087090903
 20
323.9703087440001
 30
0.0
 11
60.84304372225904
 21
323.9703087440001
 31
0.0
  0
LINE
  5
46A
330
212
100
AcDbEntity
  8
0
  6
Continuous
 62
     7
100
AcDbLine
 10
68.65198087090902
 20
323.9703087440001
 30
0.0
 11
68.46091801960904
 21
323.9703087440001
 31
0.0
  0
LINE
  5
46C
330
212
100
AcDbEntity
  8
0
  6
Continuous
 62
     7
100
AcDbLine
 10
64.92698087090906
 20
324.12679663055
 30
0.0
 11
64.37698087090905
 21
324.12679663055
 31
0.0
  0
LINE
  5
46D
330
212
100
AcDbEntity
  8
0
  6
Continuous
 62
     7
100
AcDbLine
 10
64.92698087090906
 20
324.40179663055
 30
0.0
 11
64.37698087090905
 21
324.40179663055
 31
0.0
  0
LINE
  5
46E
330
212
100
AcDbEntity
  8
0
  6
Continuous
 62
     7
100
AcDbLine
 10
62.45198087090904
 20
324.4861843597001
 30
0.0
 11
62.59259314175904
 21
324.4861843597001
 31
0.0
  0
LINE
  5
46F
330
212
100
AcDbEntity
  8
0
  6
Continuous
 62
     7
100
AcDbLine
 10
66.71136860005907
 20
324.4861843597001
 30
0.0
 11
66.85198087090907
 21
324.4861843597001
 31
0.0
  0
LINE
  5
470
330
212
100
AcDbEntity
  8
0
  6
Continuous
 62
     7
100
AcDbLine
 10
56.65198087090903
 20
325.4703087440001
 30
0.0
 11
59.33345747780902
 21
325.4703087440001
 31
0.0
  0
LINE
  5
471
330
212
100
AcDbEntity
  8
0
  6
Continuous
 62
     7
100
AcDbLine
 10
69.97050426400903
 20
325.4703087440001
 30
0.0
 11
72.65198087075908
 21
325.4703087440001
 31
0.0
  0
LINE
  5
472
330
212
100
AcDbEntity
  8
0
  6
Continuous
 62
     7
100
AcDbLine
 10
68.40198087090903
 20
326.3267966305501
 30
0.0
 11
60.90198087090903
 21
326.3267966305501
 31
0.0
  0
LINE
  5
473
330
212
100
AcDbEntity
  8
0
  6
Continuous
 62
     7
100
AcDbLine
 10
72.65198087075908
 20
326.9703087440001
 30
0.0
 11
56.65198087090903
 21
326.9703087440001
 31
0.0
  0
ARC
  5
476
330
212
100
AcDbEntity
  8
0
  6
Continuous
 62
     7
100
AcDbCircle
 10
802.268348107
 20
320.3569754105999
 30
0.0
 40
8.113333333399999
100
AcDbArc
 50
54.59914442270011
 51
125.4008555772999
  0
ARC
  5
477
330
212
100
AcDbEntity
  8
0
  6
Continuous
 62
     7
100
AcDbCircle
 10
802.268348107
 20
256.5836420774
 30
0.0
 40
8.113333333399999
100
AcDbArc
 50
234.5991444226998
 51
305.4008555772999
  0
ARC
  5
478
330
212
100
AcDbEntity
  8
0
  6
Continuous
 62
     7
100
AcDbCircle
 10
322.268348107
 20
256.5836420774
 30
0.0
 40
8.113333333399999
100
AcDbArc
 50
234.5991444226998
 51
305.4008555772999
  0
ARC
  5
479
330
212
100
AcDbEntity
  8
0
  6
Continuous
 62
     7
100
AcDbCircle
 10
322.268348107
 20
320.3569754105999
 30
0.0
 40
8.113333333399999
100
AcDbArc
 50
54.59914442270011
 51
125.4008555772999
  0
ARC
  5
47C
330
212
100
AcDbEntity
  8
BEZUGSACHSEN
  6
Continuous
 62
     3
100
AcDbCircle
 10
936.0492601444001
 20
254.904703542
 30
0.0
 40
5.6848211594
100
AcDbArc
 50
0.2526096926999532
 51
53.57642635769988
  0
ARC
  5
47D
330
212
100
AcDbEntity
  8
BEZUGSACHSEN
  6
Continuous
 62
     3
100
AcDbCircle
 10
942.7999852712002
 20
254.904703542
 30
0.0
 40
5.6848211594
100
AcDbArc
 50
126.4235736423001
 51
179.7473903073
  0
ARC
  5
47E
330
212
100
AcDbEntity
  8
BEZUGSACHSEN
  6
Continuous
 62
     3
100
AcDbCircle
 10
936.0492601444001
 20
254.904703542
 30
0.0
 40
4.9742185144
100
AcDbArc
 50
0.2886970778995202
 51
7.694162964599454
  0
ARC
  5
47F
330
212
100
AcDbEntity
  8
BEZUGSACHSEN
  6
Continuous
 62
     3
100
AcDbCircle
 10
942.7999852712002
 20
254.904703542
 30
0.0
 40
4.9742185144
100
AcDbArc
 50
172.3058370354005
 51
179.7113029221005
  0
ARC
  5
480
330
212
100
AcDbEntity
  8
BEZUGSACHSEN
  6
Continuous
 62
     3
100
AcDbCircle
 10
942.7999852712002
 20
254.904703542
 30
0.0
 40
4.9742185144
100
AcDbArc
 50
132.7321100425995
 51
163.9341249728004
  0
ARC
  5
481
330
212
100
AcDbEntity
  8
BEZUGSACHSEN
  6
Continuous
 62
     3
100
AcDbCircle
 10
936.0492601444001
 20
254.904703542
 30
0.0
 40
4.9742185144
100
AcDbArc
 50
16.06587502719955
 51
47.26788995740046
  0
CIRCLE
  5
482
330
212
100
AcDbEntity
  8
BEZUGSACHSEN
  6
Continuous
 62
     3
100
AcDbCircle
 10
952.5120735060001
 20
257.270308744
 30
0.0
 40
2.309458595999999
  0
ARC
  5
483
330
212
100
AcDbEntity
  8
BEZUGSACHSEN
  6
Continuous
 62
     3
100
AcDbCircle
 10
945.9683481069999
 20
257.270308744
 30
0.0
 40
2.309458595999999
100
AcDbArc
 50
30.73091726589951
 51
330.0000000000001
  0
CIRCLE
  5
484
330
212
100
AcDbEntity
  8
BEZUGSACHSEN
  6
Continuous
 62
     3
100
AcDbCircle
 10
952.5120735060001
 20
257.270308744
 30
0.0
 40
1.598855950999999
  0
ARC
  5
485
330
212
100
AcDbEntity
  8
BEZUGSACHSEN
  6
Continuous
 62
     3
100
AcDbCircle
 10
945.9683481069999
 20
257.270308744
 30
0.0
 40
1.598855950999999
100
AcDbArc
 50
31.05580049909976
 51
330.0000000000001
  0
ARC
  5
486
330
212
100
AcDbEntity
  8
0
  6
Continuous
 62
     7
100
AcDbCircle
 10
64.65198087090903
 20
320.3569754107001
 30
0.0
 40
8.11333333335
100
AcDbArc
 50
54.59914442269722
 51
125.4008555773027
  0
ARC
  5
487
330
212
100
AcDbEntity
  8
0
  6
Continuous
 62
     7
100
AcDbCircle
 10
64.65198087090903
 20
256.58364207735
 30
0.0
 40
8.11333333335
100
AcDbArc
 50
234.5991444226972
 51
305.4008555773028
  0
ARC
  5
488
330
212
100
AcDbEntity
  8
0
  6
Continuous
 62
     7
100
AcDbCircle
 10
56.65198087090903
 20
307.970308744
 30
0.0
 40
3.0
100
AcDbArc
 50
180.0
 51
270.0
  0
ARC
  5
489
330
212
100
AcDbEntity
  8
0
  6
Continuous
 62
     7
100
AcDbCircle
 10
56.65198087090903
 20
323.9703087440001
 30
0.0
 40
3.0
100
AcDbArc
 50
90.0
 51
180.0
  0
ARC
  5
48A
330
212
100
AcDbEntity
  8
0
  6
Continuous
 62
     7
100
AcDbCircle
 10
56.65198087090903
 20
252.970308744
 30
0.0
 40
3.0
100
AcDbArc
 50
180.0
 51
270.0
  0
ARC
  5
48B
330
212
100
AcDbEntity
  8
0
  6
Continuous
 62
     7
100
AcDbCircle
 10
56.65198087090903
 20
294.470308744
 30
0.0
 40
3.0
100
AcDbArc
 50
90.0
 51
180.0
  0
ARC
  5
490
330
212
100
AcDbEntity
  8
0
  6
Continuous
 62
     7
100
AcDbCircle
 10
56.65198087090903
 20
307.970308744
 30
0.0
 40
1.5
100
AcDbArc
 50
180.0
 51
270.0
  0
ARC
  5
491
330
212
100
AcDbEntity
  8
0
  6
Continuous
 62
     7
100
AcDbCircle
 10
56.65198087090903
 20
323.9703087440001
 30
0.0
 40
1.5
100
AcDbArc
 50
90.0
 51
180.0
  0
ARC
  5
492
330
212
100
AcDbEntity
  8
0
  6
Continuous
 62
     7
100
AcDbCircle
 10
56.65198087090903
 20
252.970308744
 30
0.0
 40
1.5
100
AcDbArc
 50
180.0
 51
270.0
  0
ARC
  5
493
330
212
100
AcDbEntity
  8
0
  6
Continuous
 62
     7
100
AcDbCircle
 10
56.65198087090903
 20
294.470308744
 30
0.0
 40
1.5
100
AcDbArc
 50
90.0
 51
180.0
  0
DIMENSION
  5
630
330
212
100
AcDbEntity
  8
P-0000
  6
Continuous
100
AcDbDimension
  2
*D18
 10
958.768348107
 20
395.6834650859505
 30
0.0
 11
562.2683481069999
 21
406.6834650859505
 31
0.0
 70
    32
 71
     5
 42
793.0
  3
883N99122_001_00149479900
100
AcDbAlignedDimension
 13
165.768348107
 23
326.970308744
 33
0.0
 14
958.768348107
 24
326.970308744
 34
0.0
100
AcDbRotatedDimension
1001
ACAD_DSTYLE_DIMINSPECT
1070
   396
1000

1070
   395
1000

1070
   394
1070
     1
1070
   393
1070
     0
1001
ACAD
1000
DSTYLE
1002
{
1070
    41
1040
7.0
1070
   140
1040
7.0
1070
   271
1070
     1
1070
   288
1070
     1
1002
}
  0
DIMENSION
  5
7C6
330
212
100
AcDbEntity
  8
P-0000
  6
Continuous
100
AcDbDimension
  2
*D23
 10
72.65198087090903
 20
234.8057032933513
 30
0.0
 11
63.15198087090903
 21
242.3057032933513
 31
0.0
 70
    32
 71
     5
 42
19.0
  3
883N99122_001_00149479900
100
AcDbAlignedDimension
 13
53.65198087090902
 23
252.970308744
 33
0.0
 14
72.65198087090903
 24
249.970308744
 34
0.0
 50
180.0
100
AcDbRotatedDimension
1001
ACAD_DSTYLE_DIMINSPECT
1070
   396
1000

1070
   395
1000

1070
   394
1070
     1
1070
   393
1070
     0
1001
ACAD
1000
DSTYLE
1002
{
1070
    41
1040
3.5
1070
   271
1070
     1
1070
   288
1070
     1
1002
}
  0
ENDSEC
  0
SECTION
  2
OBJECTS
  0
DICTIONARY
  5
C
330
0
100
AcDbDictionary
281
     1
  3
ACAD_COLOR
350
4C7
  3
ACAD_GROUP
350
D
  3
ACAD_LAYOUT
350
1A
  3
ACAD_MATERIAL
350
49A
  3
ACAD_MLEADERSTYLE
350
4DC
  3
ACAD_MLINESTYLE
350
17
  3
ACAD_PLOTSETTINGS
350
19
  3
ACAD_PLOTSTYLENAME
350
E
  3
ACAD_SCALELIST
350
4CA
  3
ACAD_TABLESTYLE
350
4C8
  3
ACAD_VISUALSTYLE
350
4B3
  3
ACDB_RECOMPOSE_DATA
350
BBC
  3
AcDbVariableDictionary
350
BB2
  3
AcmDictionary
350
536
  3
AEC_PROPERTY_SET_DEFS
350
717
  3
AMG
350
4E0
  3
AMGSNAPSETTINGS
350
57B
  3
DWGPROPS
350
BBD
  0
DICTIONARY
  5
982
330
10
100
AcDbDictionary
280
     1
281
     1
  3
ADSK_XREC_LAYER_RECONCILED
360
983
  0
DICTIONARY
  5
98C
330
1FE
100
AcDbDictionary
280
     1
281
     1
  3
ADSK_XREC_LAYER_RECONCILED
360
98D
  0
DICTIONARY
  5
9A0
330
208
100
AcDbDictionary
280
     1
281
     1
  3
ADSK_XREC_LAYER_RECONCILED
360
9A1
  0
DICTIONARY
  5
9A2
330
209
100
AcDbDictionary
280
     1
281
     1
  3
ADSK_XREC_LAYER_RECONCILED
360
9A3
  0
DICTIONARY
  5
710
330
70F
100
AcDbDictionary
280
     1
281
     1
  3
ADSK_XREC_LAYER_RECONCILED
360
9A6
  0
DICTIONARY
  5
4C7
102
{ACAD_REACTORS
330
C
102
}
330
C
100
AcDbDictionary
281
     1
  0
DICTIONARY
  5
D
102
{ACAD_REACTORS
330
C
102
}
330
C
100
AcDbDictionary
281
     1
  0
DICTIONARY
  5
1A
102
{ACAD_REACTORS
330
C
102
}
330
C
100
AcDbDictionary
281
     1
  3
Layout1
350
495
  3
Model
350
494
  0
DICTIONARY
  5
49A
102
{ACAD_REACTORS
330
C
102
}
330
C
100
AcDbDictionary
281
     1
  3
ByBlock
350
4A3
  3
ByLayer
350
49B
  3
Global
350
4AB
  0
DICTIONARY
  5
4DC
102
{ACAD_REACTORS
330
C
102
}
330
C
100
AcDbDictionary
281
     1
  3
Standard
350
4DD
  0
DICTIONARY
  5
17
102
{ACAD_REACTORS
330
C
102
}
330
C
100
AcDbDictionary
281
     1
  3
Standard
350
18
  0
DICTIONARY
  5
19
102
{ACAD_REACTORS
330
C
102
}
330
C
100
AcDbDictionary
281
     1
  0
ACDBDICTIONARYWDFLT
  5
E
102
{ACAD_REACTORS
330
C
102
}
330
C
100
AcDbDictionary
281
     1
  3
Normal
350
F
100
AcDbDictionaryWithDefault
340
F
  0
DICTIONARY
  5
4CA
102
{ACAD_REACTORS
330
C
102
}
330
C
100
AcDbDictionary
281
     1
  3
A0
350
4CB
  3
A1
350
4CC
  3
A2
350
4CD
  3
A3
350
4CE
  3
A4
350
4CF
  3
A5
350
4D0
  3
A6
350
4D1
  3
A7
350
4D2
  3
A8
350
4D3
  3
A9
350
4D4
  3
B0
350
4D5
  3
B1
350
4D6
  3
B2
350
4D7
  3
B3
350
4D8
  3
B4
350
4D9
  3
B5
350
4DA
  3
B6
350
4DB
  0
DICTIONARY
  5
4C8
102
{ACAD_REACTORS
330
C
102
}
330
C
100
AcDbDictionary
281
     1
  3
Standard
350
4C9
  0
DICTIONARY
  5
4B3
102
{ACAD_REACTORS
330
C
102
}
330
C
100
AcDbDictionary
281
     1
  3
2dWireframe
350
4B9
  3
3D Hidden
350
4BB
  3
3dWireframe
350
4BA
  3
Basic
350
4B8
  3
Brighten
350
4BF
  3
ColorChange
350
4C3
  3
Conceptual
350
4BC
  3
Dim
350
4BE
  3
EdgeColorOff
350
4C6
  3
Facepattern
350
4C2
  3
Flat
350
4B4
  3
FlatWithEdges
350
4B5
  3
Gouraud
350
4B6
  3
GouraudWithEdges
350
4B7
  3
JitterOff
350
4C4
  3
Linepattern
350
4C1
  3
OverhangOff
350
4C5
  3
Realistic
350
4BD
  3
Thicken
350
4C0
  0
XRECORD
  5
BBC
102
{ACAD_REACTORS
330
C
102
}
330
C
100
AcDbXrecord
280
     1
 90
        1
330
4C9
  0
DICTIONARY
  5
BB2
102
{ACAD_REACTORS
330
C
102
}
330
C
100
AcDbDictionary
281
     1
  3
CANNOSCALE
350
BB5
  3
CMLEADERSTYLE
350
BB4
  3
CTABLESTYLE
350
BB3
  3
DIMASSOC
350
BB8
  3
INDEXCTL
350
BB7
  3
SORTENTS
350
BB6
  3
XCLIPFRAME
350
BB9
  0
DICTIONARY
  5
536
102
{ACAD_REACTORS
330
C
102
}
330
C
100
AcDbDictionary
281
     1
  3
AcmStdDictionary
350
540
  0
DICTIONARY
  5
717
102
{ACAD_REACTORS
330
C
102
}
330
C
100
AcDbDictionary
281
     1
  0
DICTIONARY
  5
4E0
102
{ACAD_REACTORS
330
C
102
}
330
C
100
AcDbDictionary
281
     1
  0
DICTIONARY
  5
57B
102
{ACAD_REACTORS
330
C
102
}
330
C
100
AcDbDictionary
281
     1
  0
XRECORD
  5
BBD
102
{ACAD_REACTORS
330
C
102
}
330
C
100
AcDbXrecord
280
     1
  1
DWGPROPS COOKIE
  2

  3

  4

  6

  7

  8
malaie
  9

300
=
301
=
302
=
303
=
304
=
305
=
306
=
307
=
308
=
309
=
 40
0.0240497685185185
 41
2457196.640339723
 42
2457196.664389051
  1

 90
        0
  0
XRECORD
  5
983
102
{ACAD_REACTORS
330
982
102
}
330
982
100
AcDbXrecord
280
     1
290
     1
  0
XRECORD
  5
98D
102
{ACAD_REACTORS
330
98C
102
}
330
98C
100
AcDbXrecord
280
     1
290
     1
  0
XRECORD
  5
9A1
102
{ACAD_REACTORS
330
9A0
102
}
330
9A0
100
AcDbXrecord
280
     1
290
     1
  0
XRECORD
  5
9A3
102
{ACAD_REACTORS
330
9A2
102
}
330
9A2
100
AcDbXrecord
280
     1
290
     1
  0
XRECORD
  5
9A6
102
{ACAD_REACTORS
330
710
102
}
330
710
100
AcDbXrecord
280
     1
290
     1
  0
LAYOUT
  5
495
102
{ACAD_XDICTIONARY
360
BC0
102
}
102
{ACAD_REACTORS
330
1A
102
}
330
1A
100
AcDbPlotSettings
  1

  2
none_device
  4
ISO_A2_(594.00_x_420.00_MM)
  6

 40
0.0
 41
0.0
 42
0.0
 43
0.0
 44
594.0
 45
420.0
 46
0.0
 47
0.0
 48
0.0
 49
0.0
140
0.0
141
0.0
142
1.0
143
1.0
 70
     0
 72
     1
 73
     0
 74
     0
  7
monochrome.ctb
 75
     0
147
1.0
148
0.0
149
0.0
100
AcDbLayout
  1
Layout1
 70
     1
 71
     1
 10
0.0
 20
0.0
 11
12.0
 21
9.0
 12
0.0
 22
0.0
 32
0.0
 14
1.000000000000000E+20
 24
1.000000000000000E+20
 34
1.000000000000000E+20
 15
-1.000000000000000E+20
 25
-1.000000000000000E+20
 35
-1.000000000000000E+20
146
0.0
 13
0.0
 23
0.0
 33
0.0
 16
1.0
 26
0.0
 36
0.0
 17
0.0
 27
1.0
 37
0.0
 76
     0
330
213
  0
LAYOUT
  5
494
102
{ACAD_XDICTIONARY
360
BBE
102
}
102
{ACAD_REACTORS
330
1A
102
}
330
1A
100
AcDbPlotSettings
  1

  2
none_device
  4
ISO_A2_(594.00_x_420.00_MM)
  6

 40
0.0
 41
0.0
 42
0.0
 43
0.0
 44
594.0
 45
420.0
 46
0.0
 47
0.0
 48
0.0
 49
0.0
140
0.0
141
0.0
142
1.0
143
1.0
 70
  1024
 72
     1
 73
     0
 74
     0
  7
monochrome.ctb
 75
     0
147
1.0
148
0.0
149
0.0
100
AcDbLayout
  1
Model
 70
     0
 71
     0
 10
0.0
 20
0.0
 11
594.0
 21
420.0
 12
0.0
 22
0.0
 32
0.0
 14
0.0
 24
0.0
 34
0.0
 15
0.0
 25
0.0
 35
0.0
146
0.0
 13
0.0
 23
0.0
 33
0.0
 16
1.0
 26
0.0
 36
0.0
 17
0.0
 27
1.0
 37
0.0
 76
     0
330
212
331
1F4
  0
MATERIAL
  5
4A3
102
{ACAD_XDICTIONARY
360
4A4
102
}
102
{ACAD_REACTORS
330
49A
102
}
330
49A
100
AcDbMaterial
  1
ByBlock
 72
     0
 43
0.0008202099737533
 43
0.0
 43
0.0
 43
0.0
 43
0.0
 43
0.0008202099737533
 43
0.0
 43
0.0
 43
0.0
 43
0.0
 43
1.0
 43
0.0
 43
0.0
 43
0.0
 43
0.0
 43
1.0
 77
     0
 47
0.0008202099737533
 47
0.0
 47
0.0
 47
0.0
 47
0.0
 47
0.0008202099737533
 47
0.0
 47
0.0
 47
0.0
 47
0.0
 47
1.0
 47
0.0
 47
0.0
 47
0.0
 47
0.0
 47
1.0
171
     0
 49
0.0008202099737533
 49
0.0
 49
0.0
 49
0.0
 49
0.0
 49
0.0008202099737533
 49
0.0
 49
0.0
 49
0.0
 49
0.0
 49
1.0
 49
0.0
 49
0.0
 49
0.0
 49
0.0
 49
1.0
175
     0
142
0.0008202099737533
142
0.0
142
0.0
142
0.0
142
0.0
142
0.0008202099737533
142
0.0
142
0.0
142
0.0
142
0.0
142
1.0
142
0.0
142
0.0
142
0.0
142
0.0
142
1.0
179
     0
144
0.0008202099737533
144
0.0
144
0.0
144
0.0
144
0.0
144
0.0008202099737533
144
0.0
144
0.0
144
0.0
144
0.0
144
1.0
144
0.0
144
0.0
144
0.0
144
0.0
144
1.0
147
0.0008202099737533
147
0.0
147
0.0
147
0.0
147
0.0
147
0.0008202099737533
147
0.0
147
0.0
147
0.0
147
0.0
147
1.0
147
0.0
147
0.0
147
0.0
147
0.0
147
1.0
  0
MATERIAL
  5
49B
102
{ACAD_XDICTIONARY
360
49C
102
}
102
{ACAD_REACTORS
330
49A
102
}
330
49A
100
AcDbMaterial
  1
ByLayer
 72
     0
 43
0.0008202099737533
 43
0.0
 43
0.0
 43
0.0
 43
0.0
 43
0.0008202099737533
 43
0.0
 43
0.0
 43
0.0
 43
0.0
 43
1.0
 43
0.0
 43
0.0
 43
0.0
 43
0.0
 43
1.0
 77
     0
 47
0.0008202099737533
 47
0.0
 47
0.0
 47
0.0
 47
0.0
 47
0.0008202099737533
 47
0.0
 47
0.0
 47
0.0
 47
0.0
 47
1.0
 47
0.0
 47
0.0
 47
0.0
 47
0.0
 47
1.0
171
     0
 49
0.0008202099737533
 49
0.0
 49
0.0
 49
0.0
 49
0.0
 49
0.0008202099737533
 49
0.0
 49
0.0
 49
0.0
 49
0.0
 49
1.0
 49
0.0
 49
0.0
 49
0.0
 49
0.0
 49
1.0
175
     0
142
0.0008202099737533
142
0.0
142
0.0
142
0.0
142
0.0
142
0.0008202099737533
142
0.0
142
0.0
142
0.0
142
0.0
142
1.0
142
0.0
142
0.0
142
0.0
142
0.0
142
1.0
179
     0
144
0.0008202099737533
144
0.0
144
0.0
144
0.0
144
0.0
144
0.0008202099737533
144
0.0
144
0.0
144
0.0
144
0.0
144
1.0
144
0.0
144
0.0
144
0.0
144
0.0
144
1.0
147
0.0008202099737533
147
0.0
147
0.0
147
0.0
147
0.0
147
0.0008202099737533
147
0.0
147
0.0
147
0.0
147
0.0
147
1.0
147
0.0
147
0.0
147
0.0
147
0.0
147
1.0
  0
MATERIAL
  5
4AB
102
{ACAD_XDICTIONARY
360
4AC
102
}
102
{ACAD_REACTORS
330
49A
102
}
330
49A
100
AcDbMaterial
  1
Global
 72
     0
 43
0.0008202099737533
 43
0.0
 43
0.0
 43
0.0
 43
0.0
 43
0.0008202099737533
 43
0.0
 43
0.0
 43
0.0
 43
0.0
 43
1.0
 43
0.0
 43
0.0
 43
0.0
 43
0.0
 43
1.0
 77
     0
 47
0.0008202099737533
 47
0.0
 47
0.0
 47
0.0
 47
0.0
 47
0.0008202099737533
 47
0.0
 47
0.0
 47
0.0
 47
0.0
 47
1.0
 47
0.0
 47
0.0
 47
0.0
 47
0.0
 47
1.0
171
     0
 49
0.0008202099737533
 49
0.0
 49
0.0
 49
0.0
 49
0.0
 49
0.0008202099737533
 49
0.0
 49
0.0
 49
0.0
 49
0.0
 49
1.0
 49
0.0
 49
0.0
 49
0.0
 49
0.0
 49
1.0
175
     0
142
0.0008202099737533
142
0.0
142
0.0
142
0.0
142
0.0
142
0.0008202099737533
142
0.0
142
0.0
142
0.0
142
0.0
142
1.0
142
0.0
142
0.0
142
0.0
142
0.0
142
1.0
179
     0
144
0.0008202099737533
144
0.0
144
0.0
144
0.0
144
0.0
144
0.0008202099737533
144
0.0
144
0.0
144
0.0
144
0.0
144
1.0
144
0.0
144
0.0
144
0.0
144
0.0
144
1.0
147
0.0008202099737533
147
0.0
147
0.0
147
0.0
147
0.0
147
0.0008202099737533
147
0.0
147
0.0
147
0.0
147
0.0
147
1.0
147
0.0
147
0.0
147
0.0
147
0.0
147
1.0
  0
MLEADERSTYLE
  5
4DD
102
{ACAD_REACTORS
330
4DC
102
}
330
4DC
100
AcDbMLeaderStyle
170
     2
171
     1
172
     0
 90
        2
 40
0.0
 41
0.0
173
     1
 91
-1056964608
340
14
 92
       -2
290
     1
 42
2.0
291
     1
 43
0.36
  3
Standard
 44
4.0
300

342
11
174
     1
178
     6
175
     1
176
     0
 93
-1056964608
 45
4.0
292
     0
297
     0
 46
4.0
 94
-1056964608
 47
1.0
 49
1.0
140
1.0
293
     1
141
0.0
294
     1
177
     0
142
1.0
295
     0
296
     0
143
0.125
1001
ACAD_MLEADERVER
1070
     2
  0
MLINESTYLE
  5
18
102
{ACAD_REACTORS
330
17
102
}
330
17
100
AcDbMlineStyle
  2
STANDARD
 70
     0
  3

 62
   256
 51
90.0
 52
90.0
 71
     2
 49
0.5
 62
   256
  6
BYLAYER
 49
-0.5
 62
   256
  6
BYLAYER
  0
ACDBPLACEHOLDER
  5
F
102
{ACAD_REACTORS
330
E
102
}
330
E
  0
SCALE
  5
4CB
102
{ACAD_REACTORS
330
4CA
102
}
330
4CA
100
AcDbScale
 70
     0
300
1:1
140
1.0
141
1.0
290
     1
  0
SCALE
  5
4CC
102
{ACAD_REACTORS
330
4CA
102
}
330
4CA
100
AcDbScale
 70
     0
300
1:2
140
1.0
141
2.0
290
     0
  0
SCALE
  5
4CD
102
{ACAD_REACTORS
330
4CA
102
}
330
4CA
100
AcDbScale
 70
     0
300
1:4
140
1.0
141
4.0
290
     0
  0
SCALE
  5
4CE
102
{ACAD_REACTORS
330
4CA
102
}
330
4CA
100
AcDbScale
 70
     0
300
1:5
140
1.0
141
5.0
290
     0
  0
SCALE
  5
4CF
102
{ACAD_REACTORS
330
4CA
102
}
330
4CA
100
AcDbScale
 70
     0
300
1:8
140
1.0
141
8.0
290
     0
  0
SCALE
  5
4D0
102
{ACAD_REACTORS
330
4CA
102
}
330
4CA
100
AcDbScale
 70
     0
300
1:10
140
1.0
141
10.0
290
     0
  0
SCALE
  5
4D1
102
{ACAD_REACTORS
330
4CA
102
}
330
4CA
100
AcDbScale
 70
     0
300
1:16
140
1.0
141
16.0
290
     0
  0
SCALE
  5
4D2
102
{ACAD_REACTORS
330
4CA
102
}
330
4CA
100
AcDbScale
 70
     0
300
1:20
140
1.0
141
20.0
290
     0
  0
SCALE
  5
4D3
102
{ACAD_REACTORS
330
4CA
102
}
330
4CA
100
AcDbScale
 70
     0
300
1:30
140
1.0
141
30.0
290
     0
  0
SCALE
  5
4D4
102
{ACAD_REACTORS
330
4CA
102
}
330
4CA
100
AcDbScale
 70
     0
300
1:40
140
1.0
141
40.0
290
     0
  0
SCALE
  5
4D5
102
{ACAD_REACTORS
330
4CA
102
}
330
4CA
100
AcDbScale
 70
     0
300
1:50
140
1.0
141
50.0
290
     0
  0
SCALE
  5
4D6
102
{ACAD_REACTORS
330
4CA
102
}
330
4CA
100
AcDbScale
 70
     0
300
1:100
140
1.0
141
100.0
290
     0
  0
SCALE
  5
4D7
102
{ACAD_REACTORS
330
4CA
102
}
330
4CA
100
AcDbScale
 70
     0
300
2:1
140
2.0
141
1.0
290
     0
  0
SCALE
  5
4D8
102
{ACAD_REACTORS
330
4CA
102
}
330
4CA
100
AcDbScale
 70
     0
300
4:1
140
4.0
141
1.0
290
     0
  0
SCALE
  5
4D9
102
{ACAD_REACTORS
330
4CA
102
}
330
4CA
100
AcDbScale
 70
     0
300
8:1
140
8.0
141
1.0
290
     0
  0
SCALE
  5
4DA
102
{ACAD_REACTORS
330
4CA
102
}
330
4CA
100
AcDbScale
 70
     0
300
10:1
140
10.0
141
1.0
290
     0
  0
SCALE
  5
4DB
102
{ACAD_REACTORS
330
4CA
102
}
330
4CA
100
AcDbScale
 70
     0
300
100:1
140
100.0
141
1.0
290
     0
  0
TABLESTYLE
  5
4C9
102
{ACAD_XDICTIONARY
360
BBA
102
}
102
{ACAD_REACTORS
330
4C8
102
}
330
4C8
100
AcDbTableStyle
  3
Standard
 70
     0
 71
     0
 40
1.5
 41
1.5
280
     0
281
     0
  7
STANDARD
140
4.5
170
     2
 62
     0
 63
     7
283
     0
274
    -2
284
     1
 64
     0
275
    -2
285
     1
 65
     0
276
    -2
286
     1
 66
     0
277
    -2
287
     1
 67
     0
278
    -2
288
     1
 68
     0
279
    -2
289
     1
 69
     0
  7
STANDARD
140
6.0
170
     5
 62
     0
 63
     7
283
     0
274
    -2
284
     1
 64
     0
275
    -2
285
     1
 65
     0
276
    -2
286
     1
 66
     0
277
    -2
287
     1
 67
     0
278
    -2
288
     1
 68
     0
279
    -2
289
     1
 69
     0
  7
STANDARD
140
4.5
170
     5
 62
     0
 63
     7
283
     0
274
    -2
284
     1
 64
     0
275
    -2
285
     1
 65
     0
276
    -2
286
     1
 66
     0
277
    -2
287
     1
 67
     0
278
    -2
288
     1
 68
     0
279
    -2
289
     1
 69
     0
  0
VISUALSTYLE
  5
4B9
102
{ACAD_XDICTIONARY
360
BCF
102
}
102
{ACAD_REACTORS
330
4B3
102
}
330
4B3
100
AcDbVisualStyle
  2
2dWireframe
 70
     4
 71
     0
 72
     2
 73
     0
 90
        0
 40
-0.6
 41
-30.0
 62
     5
 63
     7
 74
     1
 91
        4
 64
     7
 65
   257
 75
     1
175
     1
 42
1.0
 92
        0
 66
   257
 43
1.0
 76
     1
 77
     6
 78
     2
 67
     7
 79
     5
170
     0
171
     0
290
     0
174
     0
 93
        1
 44
0.0
173
     0
291
     0
 45
0.0
1001
ACAD
1000
AcDbSavedByObjectVersion
1070
     0
  0
VISUALSTYLE
  5
4BB
102
{ACAD_XDICTIONARY
360
BD3
102
}
102
{ACAD_REACTORS
330
4B3
102
}
330
4B3
100
AcDbVisualStyle
  2
3D Hidden
 70
     6
 71
     1
 72
     2
 73
     2
 90
        0
 40
-0.6
 41
-30.0
 62
     5
 63
     7
 74
     2
 91
        2
 64
     7
 65
   257
 75
     2
175
     1
 42
179.0
 92
        0
 66
   257
 43
1.0
 76
     1
 77
     6
 78
     2
 67
     7
 79
     3
170
     0
171
     0
290
     0
174
     0
 93
        1
 44
0.0
173
     0
291
     0
 45
0.0
1001
ACAD
1000
AcDbSavedByObjectVersion
1070
     0
  0
VISUALSTYLE
  5
4BA
102
{ACAD_XDICTIONARY
360
BD1
102
}
102
{ACAD_REACTORS
330
4B3
102
}
330
4B3
100
AcDbVisualStyle
  2
3dWireframe
 70
     5
 71
     0
 72
     2
 73
     0
 90
        0
 40
-0.6
 41
-30.0
 62
     5
 63
     7
 74
     1
 91
        4
 64
     7
 65
   257
 75
     1
175
     1
 42
1.0
 92
        0
 66
   257
 43
1.0
 76
     1
 77
     6
 78
     2
 67
     7
 79
     5
170
     0
171
     0
290
     0
174
     0
 93
        1
 44
0.0
173
     0
291
     0
 45
0.0
1001
ACAD
1000
AcDbSavedByObjectVersion
1070
     0
  0
VISUALSTYLE
  5
4B8
102
{ACAD_XDICTIONARY
360
BCD
102
}
102
{ACAD_REACTORS
330
4B3
102
}
330
4B3
100
AcDbVisualStyle
  2
Basic
 70
     7
 71
     1
 72
     0
 73
     1
 90
        0
 40
-0.6
 41
-30.0
 62
     5
 63
     7
 74
     0
 91
        4
 64
     7
 65
   257
 75
     1
175
     1
 42
1.0
 92
        8
 66
     7
 43
1.0
 76
     1
 77
     6
 78
     2
 67
     7
 79
     5
170
     0
171
     0
290
     0
174
     0
 93
        1
 44
0.0
173
     0
291
     1
 45
0.0
1001
ACAD
1000
AcDbSavedByObjectVersion
1070
     0
  0
VISUALSTYLE
  5
4BF
102
{ACAD_XDICTIONARY
360
BDB
102
}
102
{ACAD_REACTORS
330
4B3
102
}
330
4B3
100
AcDbVisualStyle
  2
Brighten
 70
    12
 71
     2
 72
     2
 73
     0
 90
        0
 40
-0.6
 41
-30.0
 62
     5
 63
     7
 74
     1
 91
        4
 64
     7
 65
   257
 75
     1
175
     1
 42
1.0
 92
        8
 66
     7
 43
1.0
 76
     1
 77
     6
 78
     2
 67
     7
 79
     5
170
     0
171
     0
290
     0
174
     0
 93
        1
 44
50.0
173
     0
291
     1
 45
0.0
1001
ACAD
1000
AcDbSavedByObjectVersion
1070
     0
  0
VISUALSTYLE
  5
4C3
102
{ACAD_XDICTIONARY
360
BE3
102
}
102
{ACAD_REACTORS
330
4B3
102
}
330
4B3
100
AcDbVisualStyle
  2
ColorChange
 70
    16
 71
     2
 72
     2
 73
     3
 90
        0
 40
-0.6
 41
-30.0
 62
     5
 63
     8
 74
     1
 91
        4
 64
     7
 65
   257
 75
     1
175
     1
 42
1.0
 92
        8
 66
     8
 43
1.0
 76
     1
 77
     6
 78
     2
 67
     7
 79
     5
170
     0
171
     0
290
     0
174
     0
 93
        1
 44
0.0
173
     0
291
     1
 45
0.0
1001
ACAD
1000
AcDbSavedByObjectVersion
1070
     0
  0
VISUALSTYLE
  5
4BC
102
{ACAD_XDICTIONARY
360
BD5
102
}
102
{ACAD_REACTORS
330
4B3
102
}
330
4B3
100
AcDbVisualStyle
  2
Conceptual
 70
     9
 71
     3
 72
     2
 73
     0
 90
        0
 40
-0.6
 41
-30.0
 62
     5
 63
     7
 74
     2
 91
        2
 64
     7
 65
   257
 75
     1
175
     1
 42
179.0
 92
        8
 66
     7
 43
1.0
 76
     1
 77
     6
 78
     2
 67
     7
 79
     3
170
     0
171
     0
290
     0
174
     0
 93
        1
 44
0.0
173
     0
291
     0
 45
0.0
1001
ACAD
1000
AcDbSavedByObjectVersion
1070
     0
  0
VISUALSTYLE
  5
4BE
102
{ACAD_XDICTIONARY
360
BD9
102
}
102
{ACAD_REACTORS
330
4B3
102
}
330
4B3
100
AcDbVisualStyle
  2
Dim
 70
    11
 71
     2
 72
     2
 73
     0
 90
        0
 40
-0.6
 41
-30.0
 62
     5
 63
     7
 74
     1
 91
        4
 64
     7
 65
   257
 75
     1
175
     1
 42
1.0
 92
        8
 66
     7
 43
1.0
 76
     1
 77
     6
 78
     2
 67
     7
 79
     5
170
     0
171
     0
290
     0
174
     0
 93
        1
 44
-50.0
173
     0
291
     1
 45
0.0
1001
ACAD
1000
AcDbSavedByObjectVersion
1070
     0
  0
VISUALSTYLE
  5
4C6
102
{ACAD_XDICTIONARY
360
BE9
102
}
102
{ACAD_REACTORS
330
4B3
102
}
330
4B3
100
AcDbVisualStyle
  2
EdgeColorOff
 70
    22
 71
     2
 72
     2
 73
     0
 90
        0
 40
-0.6
 41
-30.0
 62
     5
 63
     7
 74
     1
 91
        4
 64
     7
 65
   257
 75
     1
175
     1
 42
1.0
 92
        8
 66
     7
 43
1.0
 76
     1
 77
     6
 78
     2
 67
     7
 79
     5
170
     0
171
     0
290
     0
174
     0
 93
        1
 44
0.0
173
     0
291
     1
 45
0.0
1001
ACAD
1000
AcDbSavedByObjectVersion
1070
     0
  0
VISUALSTYLE
  5
4C2
102
{ACAD_XDICTIONARY
360
BE1
102
}
102
{ACAD_REACTORS
330
4B3
102
}
330
4B3
100
AcDbVisualStyle
  2
Facepattern
 70
    15
 71
     2
 72
     2
 73
     0
 90
        0
 40
-0.6
 41
-30.0
 62
     5
 63
     7
 74
     1
 91
        4
 64
     7
 65
   257
 75
     1
175
     1
 42
1.0
 92
        8
 66
     7
 43
1.0
 76
     1
 77
     6
 78
     2
 67
     7
 79
     5
170
     0
171
     0
290
     0
174
     0
 93
        1
 44
0.0
173
     0
291
     1
 45
0.0
1001
ACAD
1000
AcDbSavedByObjectVersion
1070
     0
  0
VISUALSTYLE
  5
4B4
102
{ACAD_XDICTIONARY
360
BC5
102
}
102
{ACAD_REACTORS
330
4B3
102
}
330
4B3
100
AcDbVisualStyle
  2
Flat
 70
     0
 71
     2
 72
     1
 73
     1
 90
        2
 40
-0.6
 41
30.0
 62
     5
 63
     7
 74
     0
 91
        4
 64
     7
 65
   257
 75
     1
175
     1
 42
1.0
 92
        8
 66
     7
 43
1.0
 76
     1
 77
     6
 78
     2
 67
     7
 79
     5
170
     0
171
     0
290
     0
174
     0
 93
       13
 44
0.0
173
     0
291
     1
 45
0.0
1001
ACAD
1000
AcDbSavedByObjectVersion
1070
     0
  0
VISUALSTYLE
  5
4B5
102
{ACAD_XDICTIONARY
360
BC7
102
}
102
{ACAD_REACTORS
330
4B3
102
}
330
4B3
100
AcDbVisualStyle
  2
FlatWithEdges
 70
     1
 71
     2
 72
     1
 73
     1
 90
        2
 40
-0.6
 41
30.0
 62
     5
 63
     7
 74
     1
 91
        4
 64
     7
 65
   257
 75
     1
175
     1
 42
1.0
 92
        0
 66
   257
 43
1.0
 76
     1
 77
     6
 78
     2
 67
     7
 79
     5
170
     0
171
     0
290
     0
174
     0
 93
       13
 44
0.0
173
     0
291
     1
 45
0.0
1001
ACAD
1000
AcDbSavedByObjectVersion
1070
     0
  0
VISUALSTYLE
  5
4B6
102
{ACAD_XDICTIONARY
360
BC9
102
}
102
{ACAD_REACTORS
330
4B3
102
}
330
4B3
100
AcDbVisualStyle
  2
Gouraud
 70
     2
 71
     2
 72
     2
 73
     1
 90
        2
 40
-0.6
 41
30.0
 62
     5
 63
     7
 74
     0
 91
        4
 64
     7
 65
   257
 75
     1
175
     1
 42
1.0
 92
        0
 66
     7
 43
1.0
 76
     1
 77
     6
 78
     2
 67
     7
 79
     5
170
     0
171
     0
290
     0
174
     0
 93
       13
 44
0.0
173
     0
291
     1
 45
0.0
1001
ACAD
1000
AcDbSavedByObjectVersion
1070
     0
  0
VISUALSTYLE
  5
4B7
102
{ACAD_XDICTIONARY
360
BCB
102
}
102
{ACAD_REACTORS
330
4B3
102
}
330
4B3
100
AcDbVisualStyle
  2
GouraudWithEdges
 70
     3
 71
     2
 72
     2
 73
     1
 90
        2
 40
-0.6
 41
30.0
 62
     5
 63
     7
 74
     1
 91
        4
 64
     7
 65
   257
 75
     1
175
     1
 42
1.0
 92
        0
 66
   257
 43
1.0
 76
     1
 77
     6
 78
     2
 67
     7
 79
     5
170
     0
171
     0
290
     0
174
     0
 93
       13
 44
0.0
173
     0
291
     1
 45
0.0
1001
ACAD
1000
AcDbSavedByObjectVersion
1070
     0
  0
VISUALSTYLE
  5
4C4
102
{ACAD_XDICTIONARY
360
BE5
102
}
102
{ACAD_REACTORS
330
4B3
102
}
330
4B3
100
AcDbVisualStyle
  2
JitterOff
 70
    20
 71
     2
 72
     2
 73
     0
 90
        0
 40
-0.6
 41
-30.0
 62
     5
 63
     7
 74
     1
 91
        4
 64
     7
 65
   257
 75
     1
175
     1
 42
1.0
 92
       10
 66
     7
 43
1.0
 76
     1
 77
     6
 78
     2
 67
     7
 79
     5
170
     0
171
     0
290
     0
174
     0
 93
        1
 44
0.0
173
     0
291
     1
 45
0.0
1001
ACAD
1000
AcDbSavedByObjectVersion
1070
     0
  0
VISUALSTYLE
  5
4C1
102
{ACAD_XDICTIONARY
360
BDF
102
}
102
{ACAD_REACTORS
330
4B3
102
}
330
4B3
100
AcDbVisualStyle
  2
Linepattern
 70
    14
 71
     2
 72
     2
 73
     0
 90
        0
 40
-0.6
 41
-30.0
 62
     5
 63
     7
 74
     1
 91
        4
 64
     7
 65
   257
 75
     7
175
     7
 42
1.0
 92
        8
 66
     7
 43
1.0
 76
     1
 77
     6
 78
     2
 67
     7
 79
     5
170
     0
171
     0
290
     0
174
     0
 93
        1
 44
0.0
173
     0
291
     1
 45
0.0
1001
ACAD
1000
AcDbSavedByObjectVersion
1070
     0
  0
VISUALSTYLE
  5
4C5
102
{ACAD_XDICTIONARY
360
BE7
102
}
102
{ACAD_REACTORS
330
4B3
102
}
330
4B3
100
AcDbVisualStyle
  2
OverhangOff
 70
    21
 71
     2
 72
     2
 73
     0
 90
        0
 40
-0.6
 41
-30.0
 62
     5
 63
     7
 74
     1
 91
        4
 64
     7
 65
   257
 75
     1
175
     1
 42
1.0
 92
        9
 66
     7
 43
1.0
 76
     1
 77
     6
 78
     2
 67
     7
 79
     5
170
     0
171
     0
290
     0
174
     0
 93
        1
 44
0.0
173
     0
291
     1
 45
0.0
1001
ACAD
1000
AcDbSavedByObjectVersion
1070
     0
  0
VISUALSTYLE
  5
4BD
102
{ACAD_XDICTIONARY
360
BD7
102
}
102
{ACAD_REACTORS
330
4B3
102
}
330
4B3
100
AcDbVisualStyle
  2
Realistic
 70
     8
 71
     2
 72
     2
 73
     0
 90
        0
 40
-0.6
 41
-30.0
 62
     5
 63
     7
 74
     1
 91
        0
 64
     7
 65
   257
 75
     1
175
     1
 42
1.0
 92
        8
 66
     8
 43
1.0
 76
     1
 77
     6
 78
     2
 67
     7
 79
     5
170
     0
171
     0
290
     0
174
     0
 93
       13
 44
0.0
173
     0
291
     0
 45
0.0
1001
ACAD
1000
AcDbSavedByObjectVersion
1070
     0
  0
VISUALSTYLE
  5
4C0
102
{ACAD_XDICTIONARY
360
BDD
102
}
102
{ACAD_REACTORS
330
4B3
102
}
330
4B3
100
AcDbVisualStyle
  2
Thicken
 70
    13
 71
     2
 72
     2
 73
     0
 90
        0
 40
-0.6
 41
-30.0
 62
     5
 63
     7
 74
     1
 91
        4
 64
     7
 65
   257
 75
     1
175
     1
 42
1.0
 92
       12
 66
     7
 43
1.0
 76
     1
 77
     6
 78
     2
 67
     7
 79
     5
170
     0
171
     0
290
     0
174
     0
 93
        1
 44
0.0
173
     0
291
     1
 45
0.0
1001
ACAD
1000
AcDbSavedByObjectVersion
1070
     0
  0
DICTIONARYVAR
  5
BB5
102
{ACAD_REACTORS
330
BB2
102
}
330
BB2
100
DictionaryVariables
280
     0
  1
1:1
  0
DICTIONARYVAR
  5
BB4
102
{ACAD_REACTORS
330
BB2
102
}
330
BB2
100
DictionaryVariables
280
     0
  1
STANDARD
  0
DICTIONARYVAR
  5
BB3
102
{ACAD_REACTORS
330
BB2
102
}
330
BB2
100
DictionaryVariables
280
     0
  1
STANDARD
  0
DICTIONARYVAR
  5
BB8
102
{ACAD_REACTORS
330
BB2
102
}
330
BB2
100
DictionaryVariables
280
     0
  1
1
  0
DICTIONARYVAR
  5
BB7
102
{ACAD_REACTORS
330
BB2
102
}
330
BB2
100
DictionaryVariables
280
     0
  1
0
  0
DICTIONARYVAR
  5
BB6
102
{ACAD_REACTORS
330
BB2
102
}
330
BB2
100
DictionaryVariables
280
     0
  1
127
  0
DICTIONARYVAR
  5
BB9
102
{ACAD_REACTORS
330
BB2
102
}
330
BB2
100
DictionaryVariables
280
     0
  1
2
  0
DICTIONARY
  5
540
102
{ACAD_REACTORS
330
536
102
}
330
536
100
AcDbDictionary
281
     1
  0
DICTIONARY
  5
BC0
330
495
100
AcDbDictionary
280
     1
281
     1
  3
ACAD_XREC_ROUNDTRIP
360
BC1
  0
DICTIONARY
  5
BBE
330
494
100
AcDbDictionary
280
     1
281
     1
  3
ACAD_XREC_ROUNDTRIP
360
BBF
  0
DICTIONARY
  5
4A4
330
4A3
100
AcDbDictionary
280
     1
281
     1
  3
ACAD_XREC_ROUNDTRIP
360
BC3
  3
BUMPTILE
360
4A6
  3
DIFFUSETILE
360
4A5
  3
OPACITYTILE
360
4A9
  3
REFLECTIONTILE
360
4A8
  3
REFRACTIONTILE
360
4AA
  3
SPECULARTILE
360
4A7
  0
DICTIONARY
  5
49C
330
49B
100
AcDbDictionary
280
     1
281
     1
  3
ACAD_XREC_ROUNDTRIP
360
BC2
  3
BUMPTILE
360
49E
  3
DIFFUSETILE
360
49D
  3
OPACITYTILE
360
4A1
  3
REFLECTIONTILE
360
4A0
  3
REFRACTIONTILE
360
4A2
  3
SPECULARTILE
360
49F
  0
DICTIONARY
  5
4AC
330
4AB
100
AcDbDictionary
280
     1
281
     1
  3
ACAD_XREC_ROUNDTRIP
360
BC4
  3
BUMPTILE
360
4AE
  3
DIFFUSETILE
360
4AD
  3
OPACITYTILE
360
4B1
  3
REFLECTIONTILE
360
4B0
  3
REFRACTIONTILE
360
4B2
  3
SPECULARTILE
360
4AF
  0
DICTIONARY
  5
BBA
330
4C9
100
AcDbDictionary
280
     1
281
     1
  3
ACAD_ROUNDTRIP_2008_TABLESTYLE_CELLSTYLEMAP
360
BBB
  3
ACAD_XREC_ROUNDTRIP
360
BEB
  0
DICTIONARY
  5
BCF
330
4B9
100
AcDbDictionary
280
     1
281
     1
  3
ACAD_XREC_ROUNDTRIP
360
BD0
  0
DICTIONARY
  5
BD3
330
4BB
100
AcDbDictionary
280
     1
281
     1
  3
ACAD_XREC_ROUNDTRIP
360
BD4
  0
DICTIONARY
  5
BD1
330
4BA
100
AcDbDictionary
280
     1
281
     1
  3
ACAD_XREC_ROUNDTRIP
360
BD2
  0
DICTIONARY
  5
BCD
330
4B8
100
AcDbDictionary
280
     1
281
     1
  3
ACAD_XREC_ROUNDTRIP
360
BCE
  0
DICTIONARY
  5
BDB
330
4BF
100
AcDbDictionary
280
     1
281
     1
  3
ACAD_XREC_ROUNDTRIP
360
BDC
  0
DICTIONARY
  5
BE3
330
4C3
100
AcDbDictionary
280
     1
281
     1
  3
ACAD_XREC_ROUNDTRIP
360
BE4
  0
DICTIONARY
  5
BD5
330
4BC
100
AcDbDictionary
280
     1
281
     1
  3
ACAD_XREC_ROUNDTRIP
360
BD6
  0
DICTIONARY
  5
BD9
330
4BE
100
AcDbDictionary
280
     1
281
     1
  3
ACAD_XREC_ROUNDTRIP
360
BDA
  0
DICTIONARY
  5
BE9
330
4C6
100
AcDbDictionary
280
     1
281
     1
  3
ACAD_XREC_ROUNDTRIP
360
BEA
  0
DICTIONARY
  5
BE1
330
4C2
100
AcDbDictionary
280
     1
281
     1
  3
ACAD_XREC_ROUNDTRIP
360
BE2
  0
DICTIONARY
  5
BC5
330
4B4
100
AcDbDictionary
280
     1
281
     1
  3
ACAD_XREC_ROUNDTRIP
360
BC6
  0
DICTIONARY
  5
BC7
330
4B5
100
AcDbDictionary
280
     1
281
     1
  3
ACAD_XREC_ROUNDTRIP
360
BC8
  0
DICTIONARY
  5
BC9
330
4B6
100
AcDbDictionary
280
     1
281
     1
  3
ACAD_XREC_ROUNDTRIP
360
BCA
  0
DICTIONARY
  5
BCB
330
4B7
100
AcDbDictionary
280
     1
281
     1
  3
ACAD_XREC_ROUNDTRIP
360
BCC
  0
DICTIONARY
  5
BE5
330
4C4
100
AcDbDictionary
280
     1
281
     1
  3
ACAD_XREC_ROUNDTRIP
360
BE6
  0
DICTIONARY
  5
BDF
330
4C1
100
AcDbDictionary
280
     1
281
     1
  3
ACAD_XREC_ROUNDTRIP
360
BE0
  0
DICTIONARY
  5
BE7
330
4C5
100
AcDbDictionary
280
     1
281
     1
  3
ACAD_XREC_ROUNDTRIP
360
BE8
  0
DICTIONARY
  5
BD7
330
4BD
100
AcDbDictionary
280
     1
281
     1
  3
ACAD_XREC_ROUNDTRIP
360
BD8
  0
DICTIONARY
  5
BDD
330
4C0
100
AcDbDictionary
280
     1
281
     1
  3
ACAD_XREC_ROUNDTRIP
360
BDE
  0
XRECORD
  5
BC1
102
{ACAD_REACTORS
330
BC0
102
}
330
BC0
100
AcDbXrecord
280
     1
102
SHADEPLOT
 70
     0
102
SHADEPLOTRESLEVEL
 70
     2
102
SHADEPLOTCUSTOMDPI
 70
   300
  0
XRECORD
  5
BBF
102
{ACAD_REACTORS
330
BBE
102
}
330
BBE
100
AcDbXrecord
280
     1
102
SHADEPLOT
 70
     0
102
SHADEPLOTRESLEVEL
 70
     2
102
SHADEPLOTCUSTOMDPI
 70
   300
  0
XRECORD
  5
BC3
102
{ACAD_REACTORS
330
4A4
102
}
330
4A4
100
AcDbXrecord
280
     1
102
MATERIAL
148
0.0
149
0.0
149
0.0
 93
        0
 94
      127
282
     0
 72
     0
 77
     0
171
     0
175
     0
179
     0
273
     0
  0
XRECORD
  5
4A6
102
{ACAD_REACTORS
330
4A4
102
}
330
4A4
100
AcDbXrecord
280
     1
270
     1
271
     1
  0
XRECORD
  5
4A5
102
{ACAD_REACTORS
330
4A4
102
}
330
4A4
100
AcDbXrecord
280
     1
270
     1
271
     1
  0
XRECORD
  5
4A9
102
{ACAD_REACTORS
330
4A4
102
}
330
4A4
100
AcDbXrecord
280
     1
270
     1
271
     1
  0
XRECORD
  5
4A8
102
{ACAD_REACTORS
330
4A4
102
}
330
4A4
100
AcDbXrecord
280
     1
270
     1
271
     1
  0
XRECORD
  5
4AA
102
{ACAD_REACTORS
330
4A4
102
}
330
4A4
100
AcDbXrecord
280
     1
270
     1
271
     1
  0
XRECORD
  5
4A7
102
{ACAD_REACTORS
330
4A4
102
}
330
4A4
100
AcDbXrecord
280
     1
270
     1
271
     1
  0
XRECORD
  5
BC2
102
{ACAD_REACTORS
330
49C
102
}
330
49C
100
AcDbXrecord
280
     1
102
MATERIAL
148
0.0
149
0.0
149
0.0
 93
        0
 94
      127
282
     0
 72
     0
 77
     0
171
     0
175
     0
179
     0
273
     0
  0
XRECORD
  5
49E
102
{ACAD_REACTORS
330
49C
102
}
330
49C
100
AcDbXrecord
280
     1
270
     1
271
     1
  0
XRECORD
  5
49D
102
{ACAD_REACTORS
330
49C
102
}
330
49C
100
AcDbXrecord
280
     1
270
     1
271
     1
  0
XRECORD
  5
4A1
102
{ACAD_REACTORS
330
49C
102
}
330
49C
100
AcDbXrecord
280
     1
270
     1
271
     1
  0
XRECORD
  5
4A0
102
{ACAD_REACTORS
330
49C
102
}
330
49C
100
AcDbXrecord
280
     1
270
     1
271
     1
  0
XRECORD
  5
4A2
102
{ACAD_REACTORS
330
49C
102
}
330
49C
100
AcDbXrecord
280
     1
270
     1
271
     1
  0
XRECORD
  5
49F
102
{ACAD_REACTORS
330
49C
102
}
330
49C
100
AcDbXrecord
280
     1
270
     1
271
     1
  0
XRECORD
  5
BC4
102
{ACAD_REACTORS
330
4AC
102
}
330
4AC
100
AcDbXrecord
280
     1
102
MATERIAL
148
0.0
149
0.0
149
0.0
 93
        0
 94
      127
282
     0
 72
     0
 77
     0
171
     0
175
     0
179
     0
273
     0
  0
XRECORD
  5
4AE
102
{ACAD_REACTORS
330
4AC
102
}
330
4AC
100
AcDbXrecord
280
     1
270
     1
271
     1
  0
XRECORD
  5
4AD
102
{ACAD_REACTORS
330
4AC
102
}
330
4AC
100
AcDbXrecord
280
     1
270
     1
271
     1
  0
XRECORD
  5
4B1
102
{ACAD_REACTORS
330
4AC
102
}
330
4AC
100
AcDbXrecord
280
     1
270
     1
271
     1
  0
XRECORD
  5
4B0
102
{ACAD_REACTORS
330
4AC
102
}
330
4AC
100
AcDbXrecord
280
     1
270
     1
271
     1
  0
XRECORD
  5
4B2
102
{ACAD_REACTORS
330
4AC
102
}
330
4AC
100
AcDbXrecord
280
     1
270
     1
271
     1
  0
XRECORD
  5
4AF
102
{ACAD_REACTORS
330
4AC
102
}
330
4AC
100
AcDbXrecord
280
     1
270
     1
271
     1
  0
CELLSTYLEMAP
  5
BBB
102
{ACAD_REACTORS
330
BBA
102
}
330
BBA
100
AcDbCellStyleMap
 90
        3
300
CELLSTYLE
  1
TABLEFORMAT_BEGIN
 90
        5
170
     1
 91
        0
 92
    32768
 62
   257
 93
        1
300
CONTENTFORMAT
  1
CONTENTFORMAT_BEGIN
 90
        0
 91
        0
 92
      512
 93
        0
300

 40
0.0
140
1.0
 94
        5
 62
     0
340
11
144
6.0
309
CONTENTFORMAT_END
171
     1
301
MARGIN
  1
CELLMARGIN_BEGIN
 40
1.5
 40
1.5
 40
1.5
 40
1.5
 40
4.5
 40
4.5
309
CELLMARGIN_END
 94
        6
 95
        1
302
GRIDFORMAT
  1
GRIDFORMAT_BEGIN
 90
        0
 91
        1
 62
     0
 92
       -2
340
0
 93
        0
 40
1.125
309
GRIDFORMAT_END
 95
        2
302
GRIDFORMAT
  1
GRIDFORMAT_BEGIN
 90
        0
 91
        1
 62
     0
 92
       -2
340
0
 93
        0
 40
1.125
309
GRIDFORMAT_END
 95
        4
302
GRIDFORMAT
  1
GRIDFORMAT_BEGIN
 90
        0
 91
        1
 62
     0
 92
       -2
340
0
 93
        0
 40
1.125
309
GRIDFORMAT_END
 95
        8
302
GRIDFORMAT
  1
GRIDFORMAT_BEGIN
 90
        0
 91
        1
 62
     0
 92
       -2
340
0
 93
        0
 40
1.125
309
GRIDFORMAT_END
 95
       16
302
GRIDFORMAT
  1
GRIDFORMAT_BEGIN
 90
        0
 91
        1
 62
     0
 92
       -2
340
0
 93
        0
 40
1.125
309
GRIDFORMAT_END
 95
       32
302
GRIDFORMAT
  1
GRIDFORMAT_BEGIN
 90
        0
 91
        1
 62
     0
 92
       -2
340
0
 93
        0
 40
1.125
309
GRIDFORMAT_END
309
TABLEFORMAT_END
  1
CELLSTYLE_BEGIN
 90
        1
 91
        1
300
_TITLE
309
CELLSTYLE_END
300
CELLSTYLE
  1
TABLEFORMAT_BEGIN
 90
        5
170
     1
 91
        0
 92
        0
 62
   257
 93
        1
300
CONTENTFORMAT
  1
CONTENTFORMAT_BEGIN
 90
        0
 91
        0
 92
      512
 93
        0
300

 40
0.0
140
1.0
 94
        5
 62
     0
340
11
144
4.5
309
CONTENTFORMAT_END
171
     1
301
MARGIN
  1
CELLMARGIN_BEGIN
 40
1.5
 40
1.5
 40
1.5
 40
1.5
 40
4.5
 40
4.5
309
CELLMARGIN_END
 94
        6
 95
        1
302
GRIDFORMAT
  1
GRIDFORMAT_BEGIN
 90
        0
 91
        1
 62
     0
 92
       -2
340
0
 93
        0
 40
1.125
309
GRIDFORMAT_END
 95
        2
302
GRIDFORMAT
  1
GRIDFORMAT_BEGIN
 90
        0
 91
        1
 62
     0
 92
       -2
340
0
 93
        0
 40
1.125
309
GRIDFORMAT_END
 95
        4
302
GRIDFORMAT
  1
GRIDFORMAT_BEGIN
 90
        0
 91
        1
 62
     0
 92
       -2
340
0
 93
        0
 40
1.125
309
GRIDFORMAT_END
 95
        8
302
GRIDFORMAT
  1
GRIDFORMAT_BEGIN
 90
        0
 91
        1
 62
     0
 92
       -2
340
0
 93
        0
 40
1.125
309
GRIDFORMAT_END
 95
       16
302
GRIDFORMAT
  1
GRIDFORMAT_BEGIN
 90
        0
 91
        1
 62
     0
 92
       -2
340
0
 93
        0
 40
1.125
309
GRIDFORMAT_END
 95
       32
302
GRIDFORMAT
  1
GRIDFORMAT_BEGIN
 90
        0
 91
        1
 62
     0
 92
       -2
340
0
 93
        0
 40
1.125
309
GRIDFORMAT_END
309
TABLEFORMAT_END
  1
CELLSTYLE_BEGIN
 90
        2
 91
        1
300
_HEADER
309
CELLSTYLE_END
300
CELLSTYLE
  1
TABLEFORMAT_BEGIN
 90
        5
170
     1
 91
        0
 92
        0
 62
   257
 93
        1
300
CONTENTFORMAT
  1
CONTENTFORMAT_BEGIN
 90
        0
 91
        0
 92
      512
 93
        0
300

 40
0.0
140
1.0
 94
        2
 62
     0
340
11
144
4.5
309
CONTENTFORMAT_END
171
     1
301
MARGIN
  1
CELLMARGIN_BEGIN
 40
1.5
 40
1.5
 40
1.5
 40
1.5
 40
4.5
 40
4.5
309
CELLMARGIN_END
 94
        6
 95
        1
302
GRIDFORMAT
  1
GRIDFORMAT_BEGIN
 90
        0
 91
        1
 62
     0
 92
       -2
340
0
 93
        0
 40
1.125
309
GRIDFORMAT_END
 95
        2
302
GRIDFORMAT
  1
GRIDFORMAT_BEGIN
 90
        0
 91
        1
 62
     0
 92
       -2
340
0
 93
        0
 40
1.125
309
GRIDFORMAT_END
 95
        4
302
GRIDFORMAT
  1
GRIDFORMAT_BEGIN
 90
        0
 91
        1
 62
     0
 92
       -2
340
0
 93
        0
 40
1.125
309
GRIDFORMAT_END
 95
        8
302
GRIDFORMAT
  1
GRIDFORMAT_BEGIN
 90
        0
 91
        1
 62
     0
 92
       -2
340
0
 93
        0
 40
1.125
309
GRIDFORMAT_END
 95
       16
302
GRIDFORMAT
  1
GRIDFORMAT_BEGIN
 90
        0
 91
        1
 62
     0
 92
       -2
340
0
 93
        0
 40
1.125
309
GRIDFORMAT_END
 95
       32
302
GRIDFORMAT
  1
GRIDFORMAT_BEGIN
 90
        0
 91
        1
 62
     0
 92
       -2
340
0
 93
        0
 40
1.125
309
GRIDFORMAT_END
309
TABLEFORMAT_END
  1
CELLSTYLE_BEGIN
 90
        3
 91
        2
300
_DATA
309
CELLSTYLE_END
  0
XRECORD
  5
BEB
102
{ACAD_REACTORS
330
BBA
102
}
330
BBA
100
AcDbXrecord
280
     1
102
ACAD_ROUNDTRIP_PRE2007_TABLESTYLE
 90
      512
 91
        0
  1

 92
      512
 93
        0
  2

 94
      512
 95
        0
  3

  0
XRECORD
  5
BD0
102
{ACAD_REACTORS
330
BCF
102
}
330
BCF
100
AcDbXrecord
280
     1
102
RTVSPropertyOp0
 70
     1
102
RTVSPropertyOp1
 70
     1
102
RTVSPropertyOp2
 70
     1
102
RTVSPropertyOp3
 70
     1
102
RTVSPropertyOp4
 70
     1
102
RTVSPropertyOp5
 70
     1
102
RTVSPropertyOp6
 70
     1
102
RTVSPropertyOp7
 70
     1
102
RTVSPropertyOp8
 70
     1
102
RTVSPropertyOp9
 70
     1
102
RTVSPropertyOp10
 70
     1
102
RTVSPropertyOp11
 70
     1
102
RTVSPropertyOp12
 70
     1
102
RTVSPropertyOp13
 70
     1
102
RTVSPropertyOp14
 70
     1
102
RTVSPropertyOp15
 70
     1
102
RTVSPropertyOp16
 70
     1
102
RTVSPropertyOp17
 70
     1
102
RTVSPropertyOp18
 70
     1
102
RTVSPropertyOp19
 70
     1
102
RTVSPropertyOp20
 70
     1
102
RTVSPropertyOp21
 70
     1
102
RTVSPropertyOp22
 70
     1
102
RTVSPropertyOp23
 70
     1
102
RTVSPropertyOp24
 70
     1
102
RTVSPropertyOp25
 70
     1
102
RTVSPropertyOp26
 70
     1
102
RTVSPropertyOp27
 70
     1
  0
XRECORD
  5
BD4
102
{ACAD_REACTORS
330
BD3
102
}
330
BD3
100
AcDbXrecord
280
     1
102
RTVSPropertyOp0
 70
     1
102
RTVSPropertyOp1
 70
     1
102
RTVSPropertyOp2
 70
     1
102
RTVSPropertyOp3
 70
     1
102
RTVSPropertyOp4
 70
     1
102
RTVSPropertyOp5
 70
     1
102
RTVSPropertyOp6
 70
     1
102
RTVSPropertyOp7
 70
     1
102
RTVSPropertyOp8
 70
     1
102
RTVSPropertyOp9
 70
     1
102
RTVSPropertyOp10
 70
     1
102
RTVSPropertyOp11
 70
     1
102
RTVSPropertyOp12
 70
     1
102
RTVSPropertyOp13
 70
     1
102
RTVSPropertyOp14
 70
     1
102
RTVSPropertyOp15
 70
     1
102
RTVSPropertyOp16
 70
     1
102
RTVSPropertyOp17
 70
     1
102
RTVSPropertyOp18
 70
     1
102
RTVSPropertyOp19
 70
     1
102
RTVSPropertyOp20
 70
     1
102
RTVSPropertyOp21
 70
     1
102
RTVSPropertyOp22
 70
     1
102
RTVSPropertyOp23
 70
     1
102
RTVSPropertyOp24
 70
     1
102
RTVSPropertyOp25
 70
     1
102
RTVSPropertyOp26
 70
     1
102
RTVSPropertyOp27
 70
     1
  0
XRECORD
  5
BD2
102
{ACAD_REACTORS
330
BD1
102
}
330
BD1
100
AcDbXrecord
280
     1
102
RTVSPropertyOp0
 70
     1
102
RTVSPropertyOp1
 70
     1
102
RTVSPropertyOp2
 70
     1
102
RTVSPropertyOp3
 70
     1
102
RTVSPropertyOp4
 70
     1
102
RTVSPropertyOp5
 70
     1
102
RTVSPropertyOp6
 70
     1
102
RTVSPropertyOp7
 70
     1
102
RTVSPropertyOp8
 70
     1
102
RTVSPropertyOp9
 70
     1
102
RTVSPropertyOp10
 70
     1
102
RTVSPropertyOp11
 70
     1
102
RTVSPropertyOp12
 70
     1
102
RTVSPropertyOp13
 70
     1
102
RTVSPropertyOp14
 70
     1
102
RTVSPropertyOp15
 70
     1
102
RTVSPropertyOp16
 70
     1
102
RTVSPropertyOp17
 70
     1
102
RTVSPropertyOp18
 70
     1
102
RTVSPropertyOp19
 70
     1
102
RTVSPropertyOp20
 70
     1
102
RTVSPropertyOp21
 70
     1
102
RTVSPropertyOp22
 70
     1
102
RTVSPropertyOp23
 70
     1
102
RTVSPropertyOp24
 70
     1
102
RTVSPropertyOp25
 70
     1
102
RTVSPropertyOp26
 70
     1
102
RTVSPropertyOp27
 70
     1
  0
XRECORD
  5
BCE
102
{ACAD_REACTORS
330
BCD
102
}
330
BCD
100
AcDbXrecord
280
     1
102
RTVSPropertyOp0
 70
     1
102
RTVSPropertyOp1
 70
     1
102
RTVSPropertyOp2
 70
     1
102
RTVSPropertyOp3
 70
     1
102
RTVSPropertyOp4
 70
     1
102
RTVSPropertyOp5
 70
     1
102
RTVSPropertyOp6
 70
     1
102
RTVSPropertyOp7
 70
     1
102
RTVSPropertyOp8
 70
     1
102
RTVSPropertyOp9
 70
     1
102
RTVSPropertyOp10
 70
     1
102
RTVSPropertyOp11
 70
     1
102
RTVSPropertyOp12
 70
     1
102
RTVSPropertyOp13
 70
     1
102
RTVSPropertyOp14
 70
     1
102
RTVSPropertyOp15
 70
     1
102
RTVSPropertyOp16
 70
     1
102
RTVSPropertyOp17
 70
     1
102
RTVSPropertyOp18
 70
     1
102
RTVSPropertyOp19
 70
     1
102
RTVSPropertyOp20
 70
     1
102
RTVSPropertyOp21
 70
     1
102
RTVSPropertyOp22
 70
     1
102
RTVSPropertyOp23
 70
     1
102
RTVSPropertyOp24
 70
     1
102
RTVSPropertyOp25
 70
     1
102
RTVSPropertyOp26
 70
     1
102
RTVSPropertyOp27
 70
     1
  0
XRECORD
  5
BDC
102
{ACAD_REACTORS
330
BDB
102
}
330
BDB
100
AcDbXrecord
280
     1
102
RTVSPropertyOp0
 70
     1
102
RTVSPropertyOp1
 70
     1
102
RTVSPropertyOp2
 70
     1
102
RTVSPropertyOp3
 70
     1
102
RTVSPropertyOp4
 70
     1
102
RTVSPropertyOp5
 70
     1
102
RTVSPropertyOp6
 70
     1
102
RTVSPropertyOp7
 70
     1
102
RTVSPropertyOp8
 70
     1
102
RTVSPropertyOp9
 70
     1
102
RTVSPropertyOp10
 70
     1
102
RTVSPropertyOp11
 70
     1
102
RTVSPropertyOp12
 70
     1
102
RTVSPropertyOp13
 70
     1
102
RTVSPropertyOp14
 70
     1
102
RTVSPropertyOp15
 70
     1
102
RTVSPropertyOp16
 70
     1
102
RTVSPropertyOp17
 70
     1
102
RTVSPropertyOp18
 70
     1
102
RTVSPropertyOp19
 70
     1
102
RTVSPropertyOp20
 70
     1
102
RTVSPropertyOp21
 70
     1
102
RTVSPropertyOp22
 70
     1
102
RTVSPropertyOp23
 70
     1
102
RTVSPropertyOp24
 70
     1
102
RTVSPropertyOp25
 70
     1
102
RTVSPropertyOp26
 70
     1
102
RTVSPropertyOp27
 70
     1
  0
XRECORD
  5
BE4
102
{ACAD_REACTORS
330
BE3
102
}
330
BE3
100
AcDbXrecord
280
     1
102
RTVSPropertyOp0
 70
     1
102
RTVSPropertyOp1
 70
     1
102
RTVSPropertyOp2
 70
     1
102
RTVSPropertyOp3
 70
     1
102
RTVSPropertyOp4
 70
     1
102
RTVSPropertyOp5
 70
     1
102
RTVSPropertyOp6
 70
     1
102
RTVSPropertyOp7
 70
     1
102
RTVSPropertyOp8
 70
     1
102
RTVSPropertyOp9
 70
     1
102
RTVSPropertyOp10
 70
     1
102
RTVSPropertyOp11
 70
     1
102
RTVSPropertyOp12
 70
     1
102
RTVSPropertyOp13
 70
     1
102
RTVSPropertyOp14
 70
     1
102
RTVSPropertyOp15
 70
     1
102
RTVSPropertyOp16
 70
     1
102
RTVSPropertyOp17
 70
     1
102
RTVSPropertyOp18
 70
     1
102
RTVSPropertyOp19
 70
     1
102
RTVSPropertyOp20
 70
     1
102
RTVSPropertyOp21
 70
     1
102
RTVSPropertyOp22
 70
     1
102
RTVSPropertyOp23
 70
     1
102
RTVSPropertyOp24
 70
     1
102
RTVSPropertyOp25
 70
     1
102
RTVSPropertyOp26
 70
     1
102
RTVSPropertyOp27
 70
     1
  0
XRECORD
  5
BD6
102
{ACAD_REACTORS
330
BD5
102
}
330
BD5
100
AcDbXrecord
280
     1
102
RTVSPropertyOp0
 70
     1
102
RTVSPropertyOp1
 70
     1
102
RTVSPropertyOp2
 70
     1
102
RTVSPropertyOp3
 70
     1
102
RTVSPropertyOp4
 70
     1
102
RTVSPropertyOp5
 70
     1
102
RTVSPropertyOp6
 70
     1
102
RTVSPropertyOp7
 70
     1
102
RTVSPropertyOp8
 70
     1
102
RTVSPropertyOp9
 70
     1
102
RTVSPropertyOp10
 70
     1
102
RTVSPropertyOp11
 70
     1
102
RTVSPropertyOp12
 70
     1
102
RTVSPropertyOp13
 70
     1
102
RTVSPropertyOp14
 70
     1
102
RTVSPropertyOp15
 70
     1
102
RTVSPropertyOp16
 70
     1
102
RTVSPropertyOp17
 70
     1
102
RTVSPropertyOp18
 70
     1
102
RTVSPropertyOp19
 70
     1
102
RTVSPropertyOp20
 70
     1
102
RTVSPropertyOp21
 70
     1
102
RTVSPropertyOp22
 70
     1
102
RTVSPropertyOp23
 70
     1
102
RTVSPropertyOp24
 70
     1
102
RTVSPropertyOp25
 70
     1
102
RTVSPropertyOp26
 70
     1
102
RTVSPropertyOp27
 70
     1
  0
XRECORD
  5
BDA
102
{ACAD_REACTORS
330
BD9
102
}
330
BD9
100
AcDbXrecord
280
     1
102
RTVSPropertyOp0
 70
     1
102
RTVSPropertyOp1
 70
     1
102
RTVSPropertyOp2
 70
     1
102
RTVSPropertyOp3
 70
     1
102
RTVSPropertyOp4
 70
     1
102
RTVSPropertyOp5
 70
     1
102
RTVSPropertyOp6
 70
     1
102
RTVSPropertyOp7
 70
     1
102
RTVSPropertyOp8
 70
     1
102
RTVSPropertyOp9
 70
     1
102
RTVSPropertyOp10
 70
     1
102
RTVSPropertyOp11
 70
     1
102
RTVSPropertyOp12
 70
     1
102
RTVSPropertyOp13
 70
     1
102
RTVSPropertyOp14
 70
     1
102
RTVSPropertyOp15
 70
     1
102
RTVSPropertyOp16
 70
     1
102
RTVSPropertyOp17
 70
     1
102
RTVSPropertyOp18
 70
     1
102
RTVSPropertyOp19
 70
     1
102
RTVSPropertyOp20
 70
     1
102
RTVSPropertyOp21
 70
     1
102
RTVSPropertyOp22
 70
     1
102
RTVSPropertyOp23
 70
     1
102
RTVSPropertyOp24
 70
     1
102
RTVSPropertyOp25
 70
     1
102
RTVSPropertyOp26
 70
     1
102
RTVSPropertyOp27
 70
     1
  0
XRECORD
  5
BEA
102
{ACAD_REACTORS
330
BE9
102
}
330
BE9
100
AcDbXrecord
280
     1
102
RTVSPropertyOp0
 70
     0
102
RTVSPropertyOp1
 70
     0
102
RTVSPropertyOp2
 70
     0
102
RTVSPropertyOp3
 70
     0
102
RTVSPropertyOp4
 70
     0
102
RTVSPropertyOp5
 70
     0
102
RTVSPropertyOp6
 70
     0
102
RTVSPropertyOp7
 70
     0
102
RTVSPropertyOp8
 70
     0
102
RTVSPropertyOp9
 70
     0
102
RTVSPropertyOp10
 70
     0
102
RTVSPropertyOp11
 70
     0
102
RTVSPropertyOp12
 70
     0
102
RTVSPropertyOp13
 70
     0
102
RTVSPropertyOp14
 70
     2
102
RTVSPropertyOp15
 70
     0
102
RTVSPropertyOp16
 70
     0
102
RTVSPropertyOp17
 70
     0
102
RTVSPropertyOp18
 70
     0
102
RTVSPropertyOp19
 70
     0
102
RTVSPropertyOp20
 70
     0
102
RTVSPropertyOp21
 70
     0
102
RTVSPropertyOp22
 70
     0
102
RTVSPropertyOp23
 70
     0
102
RTVSPropertyOp24
 70
     0
102
RTVSPropertyOp25
 70
     0
102
RTVSPropertyOp26
 70
     0
102
RTVSPropertyOp27
 70
     0
  0
XRECORD
  5
BE2
102
{ACAD_REACTORS
330
BE1
102
}
330
BE1
100
AcDbXrecord
280
     1
102
RTVSPropertyOp0
 70
     1
102
RTVSPropertyOp1
 70
     1
102
RTVSPropertyOp2
 70
     1
102
RTVSPropertyOp3
 70
     1
102
RTVSPropertyOp4
 70
     1
102
RTVSPropertyOp5
 70
     1
102
RTVSPropertyOp6
 70
     1
102
RTVSPropertyOp7
 70
     1
102
RTVSPropertyOp8
 70
     1
102
RTVSPropertyOp9
 70
     1
102
RTVSPropertyOp10
 70
     1
102
RTVSPropertyOp11
 70
     1
102
RTVSPropertyOp12
 70
     1
102
RTVSPropertyOp13
 70
     1
102
RTVSPropertyOp14
 70
     1
102
RTVSPropertyOp15
 70
     1
102
RTVSPropertyOp16
 70
     1
102
RTVSPropertyOp17
 70
     1
102
RTVSPropertyOp18
 70
     1
102
RTVSPropertyOp19
 70
     1
102
RTVSPropertyOp20
 70
     1
102
RTVSPropertyOp21
 70
     1
102
RTVSPropertyOp22
 70
     1
102
RTVSPropertyOp23
 70
     1
102
RTVSPropertyOp24
 70
     1
102
RTVSPropertyOp25
 70
     1
102
RTVSPropertyOp26
 70
     1
102
RTVSPropertyOp27
 70
     1
  0
XRECORD
  5
BC6
102
{ACAD_REACTORS
330
BC5
102
}
330
BC5
100
AcDbXrecord
280
     1
102
RTVSPropertyOp0
 70
     1
102
RTVSPropertyOp1
 70
     1
102
RTVSPropertyOp2
 70
     1
102
RTVSPropertyOp3
 70
     1
102
RTVSPropertyOp4
 70
     1
102
RTVSPropertyOp5
 70
     1
102
RTVSPropertyOp6
 70
     1
102
RTVSPropertyOp7
 70
     1
102
RTVSPropertyOp8
 70
     1
102
RTVSPropertyOp9
 70
     1
102
RTVSPropertyOp10
 70
     1
102
RTVSPropertyOp11
 70
     1
102
RTVSPropertyOp12
 70
     1
102
RTVSPropertyOp13
 70
     1
102
RTVSPropertyOp14
 70
     1
102
RTVSPropertyOp15
 70
     1
102
RTVSPropertyOp16
 70
     1
102
RTVSPropertyOp17
 70
     1
102
RTVSPropertyOp18
 70
     1
102
RTVSPropertyOp19
 70
     1
102
RTVSPropertyOp20
 70
     1
102
RTVSPropertyOp21
 70
     1
102
RTVSPropertyOp22
 70
     1
102
RTVSPropertyOp23
 70
     1
102
RTVSPropertyOp24
 70
     1
102
RTVSPropertyOp25
 70
     1
102
RTVSPropertyOp26
 70
     1
102
RTVSPropertyOp27
 70
     1
  0
XRECORD
  5
BC8
102
{ACAD_REACTORS
330
BC7
102
}
330
BC7
100
AcDbXrecord
280
     1
102
RTVSPropertyOp0
 70
     1
102
RTVSPropertyOp1
 70
     1
102
RTVSPropertyOp2
 70
     1
102
RTVSPropertyOp3
 70
     1
102
RTVSPropertyOp4
 70
     1
102
RTVSPropertyOp5
 70
     1
102
RTVSPropertyOp6
 70
     1
102
RTVSPropertyOp7
 70
     1
102
RTVSPropertyOp8
 70
     1
102
RTVSPropertyOp9
 70
     1
102
RTVSPropertyOp10
 70
     1
102
RTVSPropertyOp11
 70
     1
102
RTVSPropertyOp12
 70
     1
102
RTVSPropertyOp13
 70
     1
102
RTVSPropertyOp14
 70
     1
102
RTVSPropertyOp15
 70
     1
102
RTVSPropertyOp16
 70
     1
102
RTVSPropertyOp17
 70
     1
102
RTVSPropertyOp18
 70
     1
102
RTVSPropertyOp19
 70
     1
102
RTVSPropertyOp20
 70
     1
102
RTVSPropertyOp21
 70
     1
102
RTVSPropertyOp22
 70
     1
102
RTVSPropertyOp23
 70
     1
102
RTVSPropertyOp24
 70
     1
102
RTVSPropertyOp25
 70
     1
102
RTVSPropertyOp26
 70
     1
102
RTVSPropertyOp27
 70
     1
  0
XRECORD
  5
BCA
102
{ACAD_REACTORS
330
BC9
102
}
330
BC9
100
AcDbXrecord
280
     1
102
RTVSPropertyOp0
 70
     1
102
RTVSPropertyOp1
 70
     1
102
RTVSPropertyOp2
 70
     1
102
RTVSPropertyOp3
 70
     1
102
RTVSPropertyOp4
 70
     1
102
RTVSPropertyOp5
 70
     1
102
RTVSPropertyOp6
 70
     1
102
RTVSPropertyOp7
 70
     1
102
RTVSPropertyOp8
 70
     1
102
RTVSPropertyOp9
 70
     1
102
RTVSPropertyOp10
 70
     1
102
RTVSPropertyOp11
 70
     1
102
RTVSPropertyOp12
 70
     1
102
RTVSPropertyOp13
 70
     1
102
RTVSPropertyOp14
 70
     1
102
RTVSPropertyOp15
 70
     1
102
RTVSPropertyOp16
 70
     1
102
RTVSPropertyOp17
 70
     1
102
RTVSPropertyOp18
 70
     1
102
RTVSPropertyOp19
 70
     1
102
RTVSPropertyOp20
 70
     1
102
RTVSPropertyOp21
 70
     1
102
RTVSPropertyOp22
 70
     1
102
RTVSPropertyOp23
 70
     1
102
RTVSPropertyOp24
 70
     1
102
RTVSPropertyOp25
 70
     1
102
RTVSPropertyOp26
 70
     1
102
RTVSPropertyOp27
 70
     1
  0
XRECORD
  5
BCC
102
{ACAD_REACTORS
330
BCB
102
}
330
BCB
100
AcDbXrecord
280
     1
102
RTVSPropertyOp0
 70
     1
102
RTVSPropertyOp1
 70
     1
102
RTVSPropertyOp2
 70
     1
102
RTVSPropertyOp3
 70
     1
102
RTVSPropertyOp4
 70
     1
102
RTVSPropertyOp5
 70
     1
102
RTVSPropertyOp6
 70
     1
102
RTVSPropertyOp7
 70
     1
102
RTVSPropertyOp8
 70
     1
102
RTVSPropertyOp9
 70
     1
102
RTVSPropertyOp10
 70
     1
102
RTVSPropertyOp11
 70
     1
102
RTVSPropertyOp12
 70
     1
102
RTVSPropertyOp13
 70
     1
102
RTVSPropertyOp14
 70
     1
102
RTVSPropertyOp15
 70
     1
102
RTVSPropertyOp16
 70
     1
102
RTVSPropertyOp17
 70
     1
102
RTVSPropertyOp18
 70
     1
102
RTVSPropertyOp19
 70
     1
102
RTVSPropertyOp20
 70
     1
102
RTVSPropertyOp21
 70
     1
102
RTVSPropertyOp22
 70
     1
102
RTVSPropertyOp23
 70
     1
102
RTVSPropertyOp24
 70
     1
102
RTVSPropertyOp25
 70
     1
102
RTVSPropertyOp26
 70
     1
102
RTVSPropertyOp27
 70
     1
  0
XRECORD
  5
BE6
102
{ACAD_REACTORS
330
BE5
102
}
330
BE5
100
AcDbXrecord
280
     1
102
RTVSPropertyOp0
 70
     0
102
RTVSPropertyOp1
 70
     0
102
RTVSPropertyOp2
 70
     0
102
RTVSPropertyOp3
 70
     0
102
RTVSPropertyOp4
 70
     0
102
RTVSPropertyOp5
 70
     0
102
RTVSPropertyOp6
 70
     0
102
RTVSPropertyOp7
 70
     0
102
RTVSPropertyOp8
 70
     0
102
RTVSPropertyOp9
 70
     0
102
RTVSPropertyOp10
 70
     0
102
RTVSPropertyOp11
 70
     0
102
RTVSPropertyOp12
 70
     0
102
RTVSPropertyOp13
 70
     0
102
RTVSPropertyOp14
 70
     2
102
RTVSPropertyOp15
 70
     0
102
RTVSPropertyOp16
 70
     0
102
RTVSPropertyOp17
 70
     0
102
RTVSPropertyOp18
 70
     0
102
RTVSPropertyOp19
 70
     0
102
RTVSPropertyOp20
 70
     0
102
RTVSPropertyOp21
 70
     0
102
RTVSPropertyOp22
 70
     0
102
RTVSPropertyOp23
 70
     0
102
RTVSPropertyOp24
 70
     0
102
RTVSPropertyOp25
 70
     0
102
RTVSPropertyOp26
 70
     0
102
RTVSPropertyOp27
 70
     0
  0
XRECORD
  5
BE0
102
{ACAD_REACTORS
330
BDF
102
}
330
BDF
100
AcDbXrecord
280
     1
102
RTVSPropertyOp0
 70
     1
102
RTVSPropertyOp1
 70
     1
102
RTVSPropertyOp2
 70
     1
102
RTVSPropertyOp3
 70
     1
102
RTVSPropertyOp4
 70
     1
102
RTVSPropertyOp5
 70
     1
102
RTVSPropertyOp6
 70
     1
102
RTVSPropertyOp7
 70
     1
102
RTVSPropertyOp8
 70
     1
102
RTVSPropertyOp9
 70
     1
102
RTVSPropertyOp10
 70
     1
102
RTVSPropertyOp11
 70
     1
102
RTVSPropertyOp12
 70
     1
102
RTVSPropertyOp13
 70
     1
102
RTVSPropertyOp14
 70
     1
102
RTVSPropertyOp15
 70
     1
102
RTVSPropertyOp16
 70
     1
102
RTVSPropertyOp17
 70
     1
102
RTVSPropertyOp18
 70
     1
102
RTVSPropertyOp19
 70
     1
102
RTVSPropertyOp20
 70
     1
102
RTVSPropertyOp21
 70
     1
102
RTVSPropertyOp22
 70
     1
102
RTVSPropertyOp23
 70
     1
102
RTVSPropertyOp24
 70
     1
102
RTVSPropertyOp25
 70
     1
102
RTVSPropertyOp26
 70
     1
102
RTVSPropertyOp27
 70
     1
  0
XRECORD
  5
BE8
102
{ACAD_REACTORS
330
BE7
102
}
330
BE7
100
AcDbXrecord
280
     1
102
RTVSPropertyOp0
 70
     0
102
RTVSPropertyOp1
 70
     0
102
RTVSPropertyOp2
 70
     0
102
RTVSPropertyOp3
 70
     0
102
RTVSPropertyOp4
 70
     0
102
RTVSPropertyOp5
 70
     0
102
RTVSPropertyOp6
 70
     0
102
RTVSPropertyOp7
 70
     0
102
RTVSPropertyOp8
 70
     0
102
RTVSPropertyOp9
 70
     0
102
RTVSPropertyOp10
 70
     0
102
RTVSPropertyOp11
 70
     0
102
RTVSPropertyOp12
 70
     0
102
RTVSPropertyOp13
 70
     0
102
RTVSPropertyOp14
 70
     2
102
RTVSPropertyOp15
 70
     0
102
RTVSPropertyOp16
 70
     0
102
RTVSPropertyOp17
 70
     0
102
RTVSPropertyOp18
 70
     0
102
RTVSPropertyOp19
 70
     0
102
RTVSPropertyOp20
 70
     0
102
RTVSPropertyOp21
 70
     0
102
RTVSPropertyOp22
 70
     0
102
RTVSPropertyOp23
 70
     0
102
RTVSPropertyOp24
 70
     0
102
RTVSPropertyOp25
 70
     0
102
RTVSPropertyOp26
 70
     0
102
RTVSPropertyOp27
 70
     0
  0
XRECORD
  5
BD8
102
{ACAD_REACTORS
330
BD7
102
}
330
BD7
100
AcDbXrecord
280
     1
102
RTVSPropertyOp0
 70
     1
102
RTVSPropertyOp1
 70
     1
102
RTVSPropertyOp2
 70
     1
102
RTVSPropertyOp3
 70
     1
102
RTVSPropertyOp4
 70
     1
102
RTVSPropertyOp5
 70
     1
102
RTVSPropertyOp6
 70
     1
102
RTVSPropertyOp7
 70
     1
102
RTVSPropertyOp8
 70
     1
102
RTVSPropertyOp9
 70
     1
102
RTVSPropertyOp10
 70
     1
102
RTVSPropertyOp11
 70
     1
102
RTVSPropertyOp12
 70
     1
102
RTVSPropertyOp13
 70
     1
102
RTVSPropertyOp14
 70
     1
102
RTVSPropertyOp15
 70
     1
102
RTVSPropertyOp16
 70
     1
102
RTVSPropertyOp17
 70
     1
102
RTVSPropertyOp18
 70
     1
102
RTVSPropertyOp19
 70
     1
102
RTVSPropertyOp20
 70
     1
102
RTVSPropertyOp21
 70
     1
102
RTVSPropertyOp22
 70
     1
102
RTVSPropertyOp23
 70
     1
102
RTVSPropertyOp24
 70
     1
102
RTVSPropertyOp25
 70
     1
102
RTVSPropertyOp26
 70
     1
102
RTVSPropertyOp27
 70
     1
  0
XRECORD
  5
BDE
102
{ACAD_REACTORS
330
BDD
102
}
330
BDD
100
AcDbXrecord
280
     1
102
RTVSPropertyOp0
 70
     1
102
RTVSPropertyOp1
 70
     1
102
RTVSPropertyOp2
 70
     1
102
RTVSPropertyOp3
 70
     1
102
RTVSPropertyOp4
 70
     1
102
RTVSPropertyOp5
 70
     1
102
RTVSPropertyOp6
 70
     1
102
RTVSPropertyOp7
 70
     1
102
RTVSPropertyOp8
 70
     1
102
RTVSPropertyOp9
 70
     1
102
RTVSPropertyOp10
 70
     1
102
RTVSPropertyOp11
 70
     1
102
RTVSPropertyOp12
 70
     1
102
RTVSPropertyOp13
 70
     1
102
RTVSPropertyOp14
 70
     1
102
RTVSPropertyOp15
 70
     1
102
RTVSPropertyOp16
 70
     1
102
RTVSPropertyOp17
 70
     1
102
RTVSPropertyOp18
 70
     1
102
RTVSPropertyOp19
 70
     1
102
RTVSPropertyOp20
 70
     1
102
RTVSPropertyOp21
 70
     1
102
RTVSPropertyOp22
 70
     1
102
RTVSPropertyOp23
 70
     1
102
RTVSPropertyOp24
 70
     1
102
RTVSPropertyOp25
 70
     1
102
RTVSPropertyOp26
 70
     1
102
RTVSPropertyOp27
 70
     1
  0
ENDSEC
  0
EOF
