  0
SECTION
  2
HEADER
  9
$ACADVER
  1
AC1015
  9
$ACADMAINTVER
 70
    20
  9
$DWGCODEPAGE
  3
ANSI_1252
  9
$INSBASE
 10
0.0
 20
0.0
 30
0.0
  9
$EXTMIN
 10
-74.16060337100947
 20
154.1769376209999
 30
0.0
  9
$EXTMAX
 10
1262.815546377247
 20
354.3097224738279
 30
0.0
  9
$LIMMIN
 10
0.0
 20
0.0
  9
$LIMMAX
 10
420.0
 20
297.0
  9
$ORTHOMODE
 70
     0
  9
$REGENMODE
 70
     1
  9
$FILLMODE
 70
     1
  9
$QTEXTMODE
 70
     0
  9
$MIRRTEXT
 70
     0
  9
$LTSCALE
 40
23.1
  9
$ATTMODE
 70
     1
  9
$TEXTSIZE
 40
0.2
  9
$TRACEWID
 40
0.05
  9
$TEXTSTYLE
  7
STANDARD
  9
$CLAYER
  8
0
  9
$CELTYPE
  6
BYLAYER
  9
$CECOLOR
 62
   256
  9
$CELTSCALE
 40
1.0
  9
$DISPSILH
 70
     0
  9
$DIMSCALE
 40
1.0
  9
$DIMASZ
 40
3.5
  9
$DIMEXO
 40
1.5
  9
$DIMDLI
 40
15.96
  9
$DIMRND
 40
0.0
  9
$DIMDLE
 40
0.0
  9
$DIMEXE
 40
1.5
  9
$DIMTP
 40
0.005
  9
$DIMTM
 40
0.005
  9
$DIMTXT
 40
3.5
  9
$DIMCEN
 40
3.779999999999998
  9
$DIMTSZ
 40
0.0
  9
$DIMTOL
 70
     1
  9
$DIMLIM
 70
     0
  9
$DIMTIH
 70
     1
  9
$DIMTOH
 70
     1
  9
$DIMSE1
 70
     0
  9
$DIMSE2
 70
     0
  9
$DIMTAD
 70
     0
  9
$DIMZIN
 70
     0
  9
$DIMBLK
  1
_FILLED
  9
$DIMASO
 70
     1
  9
$DIMSHO
 70
     1
  9
$DIMPOST
  1

  9
$DIMAPOST
  1

  9
$DIMALT
 70
     0
  9
$DIMALTD
 70
     2
  9
$DIMALTF
 40
25.4
  9
$DIMLFAC
 40
1.0
  9
$DIMTOFL
 70
     0
  9
$DIMTVP
 40
0.0
  9
$DIMTIX
 70
     0
  9
$DIMSOXD
 70
     0
  9
$DIMSAH
 70
     0
  9
$DIMBLK1
  1

  9
$DIMBLK2
  1

  9
$DIMSTYLE
  2
STANDARD
  9
$DIMCLRD
 70
     0
  9
$DIMCLRE
 70
     0
  9
$DIMCLRT
 70
     0
  9
$DIMTFAC
 40
1.0
  9
$DIMGAP
 40
0.625
  9
$DIMJUST
 70
     0
  9
$DIMSD1
 70
     0
  9
$DIMSD2
 70
     0
  9
$DIMTOLJ
 70
     1
  9
$DIMTZIN
 70
     0
  9
$DIMALTZ
 70
     0
  9
$DIMALTTZ
 70
     0
  9
$DIMUPT
 70
     0
  9
$DIMDEC
 70
     2
  9
$DIMTDEC
 70
     4
  9
$DIMALTU
 70
     2
  9
$DIMALTTD
 70
     2
  9
$DIMTXSTY
  7
STANDARD
  9
$DIMAUNIT
 70
     0
  9
$DIMADEC
 70
     0
  9
$DIMALTRND
 40
0.0
  9
$DIMAZIN
 70
     0
  9
$DIMDSEP
 70
    46
  9
$DIMATFIT
 70
     3
  9
$DIMFRAC
 70
     0
  9
$DIMLDRBLK
  1

  9
$DIMLUNIT
 70
     2
  9
$DIMLWD
 70
    -2
  9
$DIMLWE
 70
    -2
  9
$DIMTMOVE
 70
     0
  9
$LUNITS
 70
     2
  9
$LUPREC
 70
     2
  9
$SKETCHINC
 40
0.1
  9
$FILLETRAD
 40
0.0
  9
$AUNITS
 70
     0
  9
$AUPREC
 70
     0
  9
$MENU
  1
.
  9
$ELEVATION
 40
0.0
  9
$PELEVATION
 40
0.0
  9
$THICKNESS
 40
0.0
  9
$LIMCHECK
 70
     0
  9
$CHAMFERA
 40
0.0
  9
$CHAMFERB
 40
0.0
  9
$CHAMFERC
 40
0.0
  9
$CHAMFERD
 40
0.0
  9
$SKPOLY
 70
     0
  9
$TDCREATE
 40
2456708.707143843
  9
$TDUCREATE
 40
2456708.665477176
  9
$TDUPDATE
 40
2456716.597046181
  9
$TDUUPDATE
 40
2456716.555379514
  9
$TDINDWG
 40
0.1154488773
  9
$TDUSRTIMER
 40
0.1154485880
  9
$USRTIMER
 70
     1
  9
$ANGBASE
 50
0.0
  9
$ANGDIR
 70
     0
  9
$PDMODE
 70
     3
  9
$PDSIZE
 40
0.3125
  9
$PLINEWID
 40
0.0
  9
$SPLFRAME
 70
     0
  9
$SPLINETYPE
 70
     6
  9
$SPLINESEGS
 70
     8
  9
$HANDSEED
  5
12A6
  9
$SURFTAB1
 70
     6
  9
$SURFTAB2
 70
     6
  9
$SURFTYPE
 70
     6
  9
$SURFU
 70
     6
  9
$SURFV
 70
     6
  9
$UCSBASE
  2

  9
$UCSNAME
  2

  9
$UCSORG
 10
0.0
 20
0.0
 30
0.0
  9
$UCSXDIR
 10
1.0
 20
0.0
 30
0.0
  9
$UCSYDIR
 10
0.0
 20
1.0
 30
0.0
  9
$UCSORTHOREF
  2

  9
$UCSORTHOVIEW
 70
     0
  9
$UCSORGTOP
 10
0.0
 20
0.0
 30
0.0
  9
$UCSORGBOTTOM
 10
0.0
 20
0.0
 30
0.0
  9
$UCSORGLEFT
 10
0.0
 20
0.0
 30
0.0
  9
$UCSORGRIGHT
 10
0.0
 20
0.0
 30
0.0
  9
$UCSORGFRONT
 10
0.0
 20
0.0
 30
0.0
  9
$UCSORGBACK
 10
0.0
 20
0.0
 30
0.0
  9
$PUCSBASE
  2

  9
$PUCSNAME
  2

  9
$PUCSORG
 10
0.0
 20
0.0
 30
0.0
  9
$PUCSXDIR
 10
1.0
 20
0.0
 30
0.0
  9
$PUCSYDIR
 10
0.0
 20
1.0
 30
0.0
  9
$PUCSORTHOREF
  2

  9
$PUCSORTHOVIEW
 70
     0
  9
$PUCSORGTOP
 10
0.0
 20
0.0
 30
0.0
  9
$PUCSORGBOTTOM
 10
0.0
 20
0.0
 30
0.0
  9
$PUCSORGLEFT
 10
0.0
 20
0.0
 30
0.0
  9
$PUCSORGRIGHT
 10
0.0
 20
0.0
 30
0.0
  9
$PUCSORGFRONT
 10
0.0
 20
0.0
 30
0.0
  9
$PUCSORGBACK
 10
0.0
 20
0.0
 30
0.0
  9
$USERI1
 70
     0
  9
$USERI2
 70
     0
  9
$USERI3
 70
     0
  9
$USERI4
 70
     0
  9
$USERI5
 70
     0
  9
$USERR1
 40
0.0
  9
$USERR2
 40
0.0
  9
$USERR3
 40
0.0
  9
$USERR4
 40
0.0
  9
$USERR5
 40
0.0
  9
$WORLDVIEW
 70
     1
  9
$SHADEDGE
 70
     3
  9
$SHADEDIF
 70
    70
  9
$TILEMODE
 70
     1
  9
$MAXACTVP
 70
    64
  9
$PINSBASE
 10
0.0
 20
0.0
 30
0.0
  9
$PLIMCHECK
 70
     0
  9
$PEXTMIN
 10
1.000000000000000E+20
 20
1.000000000000000E+20
 30
1.000000000000000E+20
  9
$PEXTMAX
 10
-1.000000000000000E+20
 20
-1.000000000000000E+20
 30
-1.000000000000000E+20
  9
$PLIMMIN
 10
0.0
 20
0.0
  9
$PLIMMAX
 10
12.0
 20
9.0
  9
$UNITMODE
 70
     0
  9
$VISRETAIN
 70
     1
  9
$PLINEGEN
 70
     0
  9
$PSLTSCALE
 70
     1
  9
$TREEDEPTH
 70
  3020
  9
$CMLSTYLE
  2
Standard
  9
$CMLJUST
 70
     0
  9
$CMLSCALE
 40
1.0
  9
$PROXYGRAPHICS
 70
     1
  9
$MEASUREMENT
 70
     1
  9
$CELWEIGHT
370
    -1
  9
$ENDCAPS
280
     0
  9
$JOINSTYLE
280
     0
  9
$LWDISPLAY
290
     0
  9
$INSUNITS
 70
     4
  9
$HYPERLINKBASE
  1

  9
$STYLESHEET
  1

  9
$XEDIT
290
     1
  9
$CEPSNTYPE
380
     0
  9
$PSTYLEMODE
290
     1
  9
$FINGERPRINTGUID
  2
{5DC93828-7B1B-415A-9E45-59C727156F04}
  9
$VERSIONGUID
  2
{29A23101-098A-4814-A605-D13E1B405025}
  9
$EXTNAMES
290
     1
  9
$PSVPSCALE
 40
0.0
  9
$OLESTARTUP
290
     0
  0
ENDSEC
  0
SECTION
  2
CLASSES
  0
CLASS
  1
ACDBDICTIONARYWDFLT
  2
AcDbDictionaryWithDefault
  3
ObjectDBX Classes
 90
        0
280
     0
281
     0
  0
CLASS
  1
ACDBPLACEHOLDER
  2
AcDbPlaceHolder
  3
ObjectDBX Classes
 90
        0
280
     0
281
     0
  0
CLASS
  1
LAYOUT
  2
AcDbLayout
  3
ObjectDBX Classes
 90
        0
280
     0
281
     0
  0
CLASS
  1
RASTERVARIABLES
  2
AcDbRasterVariables
  3
ISM
 90
        0
280
     0
281
     0
  0
CLASS
  1
IMAGEDEF
  2
AcDbRasterImageDef
  3
ISM
 90
        0
280
     0
281
     0
  0
CLASS
  1
IMAGEDEF_REACTOR
  2
AcDbRasterImageDefReactor
  3
ISM
 90
    32769
280
     0
281
     0
  0
CLASS
  1
IMAGE
  2
AcDbRasterImage
  3
ISM
 90
    34943
280
     0
281
     1
  0
CLASS
  1
TABLESTYLE
  2
AcDbTableStyle
  3
ObjectDBX Classes
 90
     4095
280
     0
281
     0
  0
CLASS
  1
ACAD_TABLE
  2
AcDbTable
  3
ObjectDBX Classes
 90
    33793
280
     0
281
     1
  0
CLASS
  1
MATERIAL
  2
AcDbMaterial
  3
ObjectDBX Classes
 90
     1153
280
     0
281
     0
  0
CLASS
  1
VISUALSTYLE
  2
AcDbVisualStyle
  3
ObjectDBX Classes
 90
     4095
280
     0
281
     0
  0
CLASS
  1
SCALE
  2
AcDbScale
  3
ObjectDBX Classes
 90
     1153
280
     0
281
     0
  0
CLASS
  1
MLEADERSTYLE
  2
AcDbMLeaderStyle
  3
ACDB_MLEADERSTYLE_CLASS
 90
     4095
280
     0
281
     0
  0
CLASS
  1
AMGSETTINGSOBJ
  2
AmgSettingsObj
  3
"AcadM|Product Description: AutoCAD Mechanical|Company: Autodesk, Inc."
 90
     1024
280
     0
281
     0
  0
CLASS
  1
ACME_DOCUMENT
  2
AcMeDbDoc
  3
AcMeServices
 90
     1024
280
     0
281
     0
  0
CLASS
  1
ACMESCOPE
  2
AcMeScope
  3
AcMeServices
 90
     1024
280
     0
281
     0
  0
CLASS
  1
ACMECOMMANDHISTORY
  2
AcMeCommandHistory
  3
AcMeServices
 90
     1024
280
     0
281
     0
  0
CLASS
  1
ACIMSYSVARMAN
  2
AcImSysVarManager
  3
AcMeServices
 90
     1024
280
     0
281
     0
  0
CLASS
  1
ACIMINTSYSVAR
  2
AcImIntSysVar
  3
AcMeServices
 90
     1024
280
     0
281
     0
  0
CLASS
  1
ACMEDRAWINGMAN
  2
AcMeDrawingMan
  3
AcMeServices
 90
     1024
280
     0
281
     0
  0
CLASS
  1
ACMEVIEW
  2
AcMeView
  3
AcMeServices
 90
     1024
280
     0
281
     0
  0
CLASS
  1
ACDBENTITYCACHE
  2
AcMeEntityCache
  3
AcMeServices
 90
     1024
280
     0
281
     0
  0
CLASS
  1
ACMESTATEMGR
  2
AcMeStateMgr
  3
AcMeServices
 90
     1024
280
     0
281
     0
  0
CLASS
  1
ACGREFMASTER
  2
AcGrefMaster
  3
AcAttribServices
 90
     1024
280
     0
281
     0
  0
CLASS
  1
AM_DRAWING_MGR
  2
AcDmDwgMgr
  3
AcMechDwgViewMgmt
 90
     1024
280
     0
281
     0
  0
CLASS
  1
AM_DWG_DOCUMENT
  2
AcDmDwgDocument
  3
AcMechDwgViewMgmt
 90
     1024
280
     0
281
     0
  0
CLASS
  1
AM_DWG_SHEET
  2
AcDmSheet
  3
AcMechDwgViewMgmt
 90
     1024
280
     0
281
     0
  0
CLASS
  1
AM_VIEWDIMPARMAP
  2
AcDmViewDimParMap
  3
AcMechDwgViewMgmt
 90
     1024
280
     0
281
     0
  0
CLASS
  1
AMDTINTERNALREACTOR
  2
AmdtInternalReactor
  3
AcMeServices
 90
     1024
280
     0
281
     0
  0
CLASS
  1
ACIMREALSYSVAR
  2
AcImRealSysVar
  3
AcMeServices
 90
     1024
280
     0
281
     0
  0
CLASS
  1
AM_DWGMGR_NAME
  2
AcDmDwgMgrName
  3
AcMechDwgViewMgmt
 90
     1024
280
     0
281
     0
  0
CLASS
  1
ACME_DATABASE
  2
AcMeDbDatabase
  3
AcMeServices
 90
     1024
280
     0
281
     0
  0
CLASS
  1
ACRFINSADJUSTERMGR
  2
AcRfInsAdjusterMgr
  3
AcMeServices
 90
     1024
280
     0
281
     0
  0
CLASS
  1
ACGREFACADMASTER
  2
AcGrefacadMaster
  3
AcGrefServices
 90
     1024
280
     0
281
     0
  0
CLASS
  1
AMDTMENUSTATEMGR
  2
AmdtMenuStateMgr
  3
McadcomServices
 90
     1024
280
     0
281
     0
  0
CLASS
  1
AMDTMCOMMENUSTATE
  2
AmdtMcomMenuState
  3
McadcomServices
 90
     1024
280
     0
281
     0
  0
CLASS
  1
AMIMASTER
  2
AmiMaster
  3
AmiServices
 90
     1024
280
     0
281
     0
  0
CLASS
  1
MAPIAMMOUDLE
  2
MApiAmModule
  3
MApiAmServices
 90
     1024
280
     0
281
     0
  0
CLASS
  1
ACIMSTRSYSVAR
  2
AcImStrSysVar
  3
AcMeServices
 90
     1024
280
     0
281
     0
  0
CLASS
  1
AMDTADMENUSTATE
  2
AmdtAdMenuState
  3
DesignerServices
 90
     1024
280
     0
281
     0
  0
CLASS
  1
ADAPPL
  2
AcAdAppl
  3
DesignerServices
 90
     1024
280
     0
281
     0
  0
CLASS
  1
DEPMGR
  2
AcAdDepMgr
  3
DesignerServices
 90
     1024
280
     0
281
     0
  0
CLASS
  1
PARAMMGR
  2
AcAdParamMgr
  3
DesignerServices
 90
     1024
280
     0
281
     0
  0
CLASS
  1
PARAMSCOPE
  2
AcAdParamScope
  3
DesignerServices
 90
     1024
280
     0
281
     0
  0
CLASS
  1
NAMEDAPPL
  2
AcAdNamedAppl
  3
DesignerServices
 90
     1024
280
     0
281
     0
  0
CLASS
  1
AMDTDMMENUSTATE
  2
AmdtDmMenuState
  3
AcMechDwgViewMgmt
 90
     1024
280
     0
281
     0
  0
CLASS
  1
AMDTAMMENUSTATE
  2
AmdtAmMenuState
  3
DesignerAssemblies
 90
     1024
280
     0
281
     0
  0
CLASS
  1
ACAMPROJECT
  2
AcAmProject
  3
DesignerAssemblies
 90
     1024
280
     0
281
     0
  0
CLASS
  1
ACAMGRCOMPDEF
  2
AcAmGrCompDef
  3
DesignerAssemblies
 90
     1024
280
     0
281
     0
  0
CLASS
  1
ACAMCOMPDEF
  2
AcAmCompDef
  3
DesignerAssemblies
 90
     1024
280
     0
281
     0
  0
CLASS
  1
ACAMCOMPDEFMGR
  2
AcAmCompDefMgr
  3
DesignerAssemblies
 90
     1024
280
     0
281
     0
  0
CLASS
  1
AMCONTEXTMGR
  2
AcAmContextMgr
  3
DesignerAssemblies
 90
     1024
280
     0
281
     0
  0
CLASS
  1
ACAMCONTEXTMODELER
  2
AcAmContextModeler
  3
DesignerAssemblies
 90
     1024
280
     0
281
     0
  0
CLASS
  1
ACMDATADICTIONARY
  2
AcmDataDictionary
  3
"AcmSymBB|Product Description: AutoCAD Mechanical|Company: Autodesk, Inc."
 90
     1024
280
     0
281
     0
  0
CLASS
  1
CATALOGSTATE
  2
AcAmCatalogState
  3
DesignerAssemblies
 90
     1024
280
     0
281
     0
  0
CLASS
  1
ACAMGRCOMPDEFSET
  2
AcAmGrCompDefSet
  3
DesignerAssemblies
 90
     1024
280
     0
281
     0
  0
CLASS
  1
AMDTBROWSERDBTAB
  2
AmdtBrowserDbTab
  3
McadcomServices
 90
     1024
280
     0
281
     0
  0
CLASS
  1
CBROWSERAPPOBJECT
  2
CBrowserAppObject
  3
McadcomServices
 90
     1024
280
     0
281
     0
  0
CLASS
  1
DM_PLACEHOLDER
  2
AcDmSelsetPlaceholder
  3
AcMechDwgViewMgmt
 90
     1024
280
     0
281
     0
  0
CLASS
  1
EXACXREFPANELOBJECT
  2
ExAcXREFPanelObject
  3
EXAC_ESW
 90
     1025
280
     0
281
     0
  0
CLASS
  1
NPOCOLLECTION
  2
AcDbImpNonPersistentObjectsCollection
  3
ObjectDBX Classes
 90
     1153
280
     0
281
     0
  0
CLASS
  1
ACMSTANDARDDIN
  2
AcmStandardDIN
  3
"Amdt_StdImp|Product Description: AutoCAD Mechanical|Company: Autodesk, Inc."
 90
     1024
280
     0
281
     0
  0
CLASS
  1
AMDTEDGESTANDARDDIN13715
  2
AmdtEdgeStdDIN13715
  3
"Amdt_StdImp|Product Description: AutoCAD Mechanical|Company: Autodesk, Inc."
 90
     1024
280
     0
281
     0
  0
CLASS
  1
ACMSURFSTANDARDDIN2002
  2
AcmSurfTextStdDIN2002
  3
"Amdt_StdImp|Product Description: AutoCAD Mechanical|Company: Autodesk, Inc."
 90
     1024
280
     0
281
     0
  0
CLASS
  1
ACMFCFSTANDARDDIN
  2
AcmFCFStdDIN
  3
"Amdt_StdImp|Product Description: AutoCAD Mechanical|Company: Autodesk, Inc."
 90
     1024
280
     0
281
     0
  0
CLASS
  1
ACMWELDSTANDARDDIN
  2
AcmWeldingStdDIN
  3
"Amdt_StdImp|Product Description: AutoCAD Mechanical|Company: Autodesk, Inc."
 90
     1024
280
     0
281
     0
  0
CLASS
  1
ACMIDSTANDARDDIN
  2
AcmIdStdDIN
  3
"Amdt_StdImp|Product Description: AutoCAD Mechanical|Company: Autodesk, Inc."
 90
     1024
280
     0
281
     0
  0
CLASS
  1
ACMDATUMSTANDARDDIN
  2
AcmDatumStdDIN
  3
"Amdt_StdImp|Product Description: AutoCAD Mechanical|Company: Autodesk, Inc."
 90
     1024
280
     0
281
     0
  0
CLASS
  1
ACMBOMSTANDARDDIN
  2
AcmBOMStdDIN
  3
"Amdt_StdImp|Product Description: AutoCAD Mechanical|Company: Autodesk, Inc."
 90
     1024
280
     0
281
     0
  0
CLASS
  1
ACMDETAILSTANDARDDIN
  2
AmdtDetailSymStdDIN
  3
"Amdt_StdImp|Product Description: AutoCAD Mechanical|Company: Autodesk, Inc."
 90
     1024
280
     0
281
     0
  0
CLASS
  1
ACMSECTIONSTANDARDDIN
  2
AmdtSectionSymStdDIN
  3
"Amdt_StdImp|Product Description: AutoCAD Mechanical|Company: Autodesk, Inc."
 90
     1024
280
     0
281
     0
  0
CLASS
  1
ACMCENTERLINESTANDARDDIN
  2
AmdtCenterLineStdDIN
  3
"Amdt_StdImp|Product Description: AutoCAD Mechanical|Company: Autodesk, Inc."
 90
     1024
280
     0
281
     0
  0
CLASS
  1
ACMTHREADLINESTANDARDDIN
  2
AmdtThreadLineStdDIN
  3
"Amdt_StdImp|Product Description: AutoCAD Mechanical|Company: Autodesk, Inc."
 90
     1024
280
     0
281
     0
  0
CLASS
  1
ACMNOTESTANDARDDIN
  2
AmdtNoteStdDIN
  3
"Amdt_StdImp|Product Description: AutoCAD Mechanical|Company: Autodesk, Inc."
 90
     1024
280
     0
281
     0
  0
CLASS
  1
ACMTAPERSTANDARDDIN
  2
AcmTaperStdDIN
  3
"Amdt_StdImp|Product Description: AutoCAD Mechanical|Company: Autodesk, Inc."
 90
     1024
280
     0
281
     0
  0
CLASS
  1
ACMANOOTATIONVIEWSTANDARDDIN
  2
AmdtAnViewStdDIN
  3
"Amdt_StdImp|Product Description: AutoCAD Mechanical|Company: Autodesk, Inc."
 90
     1024
280
     0
281
     0
  0
CLASS
  1
ACAMGLAYSTD
  2
AcAmgLayStd
  3
"AmgLay|Product Description: AutoCAD Mechanical|Company: Autodesk, Inc."
 90
     1024
280
     0
281
     0
  0
CLASS
  1
ACAMGDIMSTD
  2
AcAmgDimStd
  3
"AmgDim|Product Description: AutoCAD Mechanical|Company: Autodesk, Inc."
 90
     1024
280
     0
281
     0
  0
CLASS
  1
AMGOBJPROPCFG
  2
AmgObjPropCfg
  3
"AmgLay|Product Description: AutoCAD Mechanical|Company: Autodesk, Inc."
 90
     1025
280
     0
281
     0
  0
CLASS
  1
ACAMGHOLECHARTSTDDIN
  2
AcAmgHoleChartStdDIN
  3
AmgDim|Product Description: AutoCAD Mechanical|Company: Autodesk, Inc.
 90
     1024
280
     0
281
     0
  0
CLASS
  1
ACAMGTITLESTD
  2
AcAmgTitleStd
  3
"AmgTitle|Product Description: AutoCAD Mechanical|Company: Autodesk, Inc."
 90
     4095
280
     0
281
     0
  0
CLASS
  1
AMDTNOTETEMPLATEDB
  2
AmdtNoteTemplateDB
  3
AcmSymBB|Product Description: AutoCAD Mechanical|Company: Autodesk, Inc.
 90
     1024
280
     0
281
     0
  0
CLASS
  1
ACAMGFILTERDAT
  2
AcAmgFilterDat
  3
"AcadM|Product Description: AutoCAD Mechanical|Company: Autodesk, Inc."
 90
    33792
280
     0
281
     0
  0
CLASS
  1
DIMASSOC
  2
AcDbDimAssoc
  3
"AcDbDimAssoc|Product Desc:     AcDim ARX App For Dimension|Company:          Autodesk, Inc.|WEB Address:      www.autodesk.com"
 90
        0
280
     0
281
     0
  0
CLASS
  1
DICTIONARYVAR
  2
AcDbDictionaryVar
  3
ObjectDBX Classes
 90
        0
280
     0
281
     0
  0
CLASS
  1
CELLSTYLEMAP
  2
AcDbCellStyleMap
  3
ObjectDBX Classes
 90
     1152
280
     0
281
     0
  0
CLASS
  1
CAMSSTRUCTBTNSTATE
  2
StructBtnState
  3
DesignerAssemblies
 90
    33792
280
     0
281
     0
  0
CLASS
  1
SORTENTSTABLE
  2
AcDbSortentsTable
  3
ObjectDBX Classes
 90
        0
280
     0
281
     0
  0
CLASS
  1
AEC_REFEDIT_STATUS_TRACKER
  2
AecDbRefEditStatusTracker
  3
AecArchBase60|Product Desc: Autodesk Architectural Desktop 2007 |Company: Autodesk,Inc. |WEB Address: www.autodesk.com
 90
      129
280
     0
281
     0
  0
ENDSEC
  0
SECTION
  2
TABLES
  0
TABLE
  2
VPORT
  5
8
330
0
100
AcDbSymbolTable
 70
     1
  0
VPORT
  5
1F4
330
8
100
AcDbSymbolTableRecord
100
AcDbViewportTableRecord
  2
*ACTIVE
 70
     0
 10
0.0
 20
0.0
 11
1.0
 21
1.0
 12
561.0944656877859
 22
186.4971756127012
 13
0.0
 23
0.0
 14
1.0
 24
1.0
 15
0.0
 25
0.0
 16
0.0
 26
0.0
 36
1.0
 17
0.0
 27
0.0
 37
0.0
 40
869.5889656665842
 41
2.087105038428693
 42
50.0
 43
0.0
 44
0.0
 50
0.0
 51
0.0
 71
     0
 72
   100
 73
     1
 74
     1
 75
     0
 76
     0
 77
     0
 78
     0
281
     0
 65
     0
110
0.0
120
0.0
130
0.0
111
1.0
121
0.0
131
0.0
112
0.0
122
1.0
132
0.0
 79
     0
146
0.0
  0
ENDTAB
  0
TABLE
  2
LTYPE
  5
5
330
0
100
AcDbSymbolTable
 70
    23
  0
LTYPE
  5
14
330
5
100
AcDbSymbolTableRecord
100
AcDbLinetypeTableRecord
  2
BYBLOCK
 70
     0
  3

 72
    65
 73
     0
 40
0.0
  0
LTYPE
  5
15
330
5
100
AcDbSymbolTableRecord
100
AcDbLinetypeTableRecord
  2
BYLAYER
 70
     0
  3

 72
    65
 73
     0
 40
0.0
  0
LTYPE
  5
16
330
5
100
AcDbSymbolTableRecord
100
AcDbLinetypeTableRecord
  2
CONTINUOUS
 70
     0
  3
Solid line
 72
    65
 73
     0
 40
0.0
  0
LTYPE
  5
1F5
330
5
100
AcDbSymbolTableRecord
100
AcDbLinetypeTableRecord
  2
CENTER
 70
     0
  3
____ _ ____ _ ____ _ ____ _ ____ _ ____ _ ____
 72
    65
 73
     4
 40
0.6
 49
0.375
 74
     0
 49
-0.075
 74
     0
 49
0.075
 74
     0
 49
-0.075
 74
     0
  0
LTYPE
  5
1F6
330
5
100
AcDbSymbolTableRecord
100
AcDbLinetypeTableRecord
  2
HIDDEN
 70
     0
  3
- - - - - - - - - - - - - - - - - - - -
 72
    65
 73
     2
 40
0.2
 49
0.1
 74
     0
 49
-0.1
 74
     0
  0
LTYPE
  5
1F7
330
5
100
AcDbSymbolTableRecord
100
AcDbLinetypeTableRecord
  2
PHANTOM
 70
     0
  3
_____ _ _ _____ _ _ _____ _ _ _____
 72
    65
 73
     6
 40
0.8
 49
0.45
 74
     0
 49
-0.05
 74
     0
 49
0.1
 74
     0
 49
-0.05
 74
     0
 49
0.1
 74
     0
 49
-0.05
 74
     0
  0
LTYPE
  5
1F8
330
5
100
AcDbSymbolTableRecord
100
AcDbLinetypeTableRecord
  2
DOT
 70
     0
  3
. . . . . . . . . . . . . . . . . . . .
 72
    65
 73
     2
 40
0.2
 49
0.1
 74
     0
 49
-0.1
 74
     0
  0
LTYPE
  5
1F9
330
5
100
AcDbSymbolTableRecord
100
AcDbLinetypeTableRecord
  2
DASHED
 70
     0
  3
- - - - - - - - - - - - - - - - - - - -
 72
    65
 73
     2
 40
0.2
 49
0.1
 74
     0
 49
-0.1
 74
     0
  0
LTYPE
  5
45F
330
5
100
AcDbSymbolTableRecord
100
AcDbLinetypeTableRecord
  2
PHANTOM2
 70
     0
  3
Phantom (.5x) ___ _ _ ___ _ _ ___ _ _ ___ _ _
 72
    65
 73
     6
 40
31.75
 49
15.875
 74
     0
 49
-3.174999999999998
 74
     0
 49
3.174999999999998
 74
     0
 49
-3.174999999999998
 74
     0
 49
3.174999999999998
 74
     0
 49
-3.174999999999998
 74
     0
  0
LTYPE
  5
4A7
330
5
100
AcDbSymbolTableRecord
100
AcDbLinetypeTableRecord
  2
AM_ISO02W050
 70
     0
  3
__ __ __ __ __ __ __ __ __ __ __ __ __ __ __
 72
    65
 73
     2
 40
7.5
 49
6.0
 74
     0
 49
-1.5
 74
     0
  0
LTYPE
  5
4A8
330
5
100
AcDbSymbolTableRecord
100
AcDbLinetypeTableRecord
  2
AM_ISO08W050
 70
     0
  3
____ . ____ . ____ . ____ . ____ . ____ . ____
 72
    65
 73
     4
 40
18.0
 49
12.0
 74
     0
 49
-1.5
 74
     0
 49
3.0
 74
     0
 49
-1.5
 74
     0
  0
LTYPE
  5
4A9
330
5
100
AcDbSymbolTableRecord
100
AcDbLinetypeTableRecord
  2
AM_ISO09W050
 70
     0
  3
_____ . . _____ . . _____ . . ____ .. ____
 72
    65
 73
     6
 40
22.5
 49
12.0
 74
     0
 49
-1.5
 74
     0
 49
3.0
 74
     0
 49
-1.5
 74
     0
 49
3.0
 74
     0
 49
-1.5
 74
     0
  0
LTYPE
  5
4AA
330
5
100
AcDbSymbolTableRecord
100
AcDbLinetypeTableRecord
  2
Amconstr
 70
     0
  3
_______________________
 72
    65
 73
     2
 40
9999.0
 49
9999.0
 74
     0
 49
0.0
 74
     0
  0
LTYPE
  5
4AB
330
5
100
AcDbSymbolTableRecord
100
AcDbLinetypeTableRecord
  2
AM_ISO08W050x2
 70
     0
  3
__ . __ . __ . __ . __ . __
 72
    65
 73
     4
 40
9.0
 49
6.0
 74
     0
 49
-0.75
 74
     0
 49
1.5
 74
     0
 49
-0.75
 74
     0
  0
LTYPE
  5
4AC
330
5
100
AcDbSymbolTableRecord
100
AcDbLinetypeTableRecord
  2
AM_ISO02W050x2
 70
     0
  3
 _ _ _ _ _ _ _ _ _ _ _ _
 72
    65
 73
     2
 40
3.75
 49
3.0
 74
     0
 49
-0.75
 74
     0
  0
LTYPE
  5
4AF
330
5
100
AcDbSymbolTableRecord
100
AcDbLinetypeTableRecord
  2
Amzigzag
 70
     0
  3
/\/-/\/-/\/-/\/-/\/-/\/
 72
    65
 73
     2
 40
11.0001
 49
0.0001
 74
     4
 75
   136
340
4AE
 46
0.04
 50
0.0
 44
0.0
 45
0.0
 49
-11.0
 74
     0
  0
LTYPE
  5
4B0
330
5
100
AcDbSymbolTableRecord
100
AcDbLinetypeTableRecord
  2
AM_DIN_F_W050
 70
     0
  3
__ __ __ __ __ __ __ __ __ __ __ __ __ __ __
 72
    65
 73
     2
 40
6.25
 49
4.75
 74
     0
 49
-1.5
 74
     0
  0
LTYPE
  5
4B1
330
5
100
AcDbSymbolTableRecord
100
AcDbLinetypeTableRecord
  2
AM_DIN_G_W050
 70
     0
  3
____ . ____ . ____ . ____ . ____ . ____ . ____
 72
    65
 73
     4
 40
13.75
 49
9.75
 74
     0
 49
-1.5
 74
     0
 49
1.0
 74
     0
 49
-1.5
 74
     0
  0
LTYPE
  5
4B2
330
5
100
AcDbSymbolTableRecord
100
AcDbLinetypeTableRecord
  2
AM_DIN_K_W050
 70
     0
  3
_____ . . _____ . . _____ . . ____ .. ____
 72
    65
 73
     6
 40
16.25
 49
9.75
 74
     0
 49
-1.5
 74
     0
 49
1.0
 74
     0
 49
-1.5
 74
     0
 49
1.0
 74
     0
 49
-1.5
 74
     0
  0
LTYPE
  5
4B3
330
5
100
AcDbSymbolTableRecord
100
AcDbLinetypeTableRecord
  2
AM_DIN_G_W050x2
 70
     0
  3
__ . __ . __ . __ . __ . __
 72
    65
 73
     4
 40
6.875
 49
4.75
 74
     0
 49
-0.875
 74
     0
 49
0.375
 74
     0
 49
-0.875
 74
     0
  0
LTYPE
  5
4B4
330
5
100
AcDbSymbolTableRecord
100
AcDbLinetypeTableRecord
  2
AM_DIN_F_W050x2
 70
     0
  3
 _ _ _ _ _ _ _ _ _ _ _ _
 72
    65
 73
     2
 40
3.125
 49
2.25
 74
     0
 49
-0.875
 74
     0
  0
LTYPE
  5
4C3
330
5
100
AcDbSymbolTableRecord
100
AcDbLinetypeTableRecord
  2
ACDINWELD
 70
     0
  3
_ _ _ _ _
 72
    65
 73
     2
 40
2.0
 49
2.0
 74
     0
 49
-1.0
 74
     0
  0
LTYPE
  5
4C4
330
5
100
AcDbSymbolTableRecord
100
AcDbLinetypeTableRecord
  2
ACDINTGB
 70
     0
  3
__ . . __ . .
 72
    65
 73
     6
 40
9.0
 49
4.0
 74
     0
 49
-1.0
 74
     0
 49
1.0
 74
     0
 49
-1.0
 74
     0
 49
1.0
 74
     0
 49
-1.0
 74
     0
  0
LTYPE
  5
4C5
330
5
100
AcDbSymbolTableRecord
100
AcDbLinetypeTableRecord
  2
ACDINTGL
 70
     0
  3
_ _ _ _ _
 72
    65
 73
     2
 40
3.0
 49
2.0
 74
     0
 49
-1.0
 74
     0
  0
LTYPE
  5
85E
330
5
100
AcDbSymbolTableRecord
100
AcDbLinetypeTableRecord
  2
GEN3
 70
     0
  3
-- -- -- -- -- -- -- -- -- -- -- -- -- -- --
 72
    65
 73
     2
 40
6.25
 49
5.0
 74
     0
 49
-1.25
 74
     0
  0
ENDTAB
  0
TABLE
  2
LAYER
  5
2
102
{ACAD_XDICTIONARY
360
872
102
}
330
0
100
AcDbSymbolTable
 70
    24
  0
LAYER
  5
10
330
2
100
AcDbSymbolTableRecord
100
AcDbLayerTableRecord
  2
0
 70
     0
 62
     7
  6
CONTINUOUS
370
    -3
390
F
  0
LAYER
  5
1FA
330
2
100
AcDbSymbolTableRecord
100
AcDbLayerTableRecord
  2
DEFAULT_1
 70
     0
 62
     7
  6
CENTER
370
    -3
390
F
  0
LAYER
  5
1FB
330
2
100
AcDbSymbolTableRecord
100
AcDbLayerTableRecord
  2
DEFAULT_2
 70
     0
 62
     8
  6
HIDDEN
370
    -3
390
F
  0
LAYER
  5
1FC
330
2
100
AcDbSymbolTableRecord
100
AcDbLayerTableRecord
  2
DEFAULT_3
 70
     0
 62
     7
  6
PHANTOM
370
    -3
390
F
  0
LAYER
  5
1FD
330
2
100
AcDbSymbolTableRecord
100
AcDbLayerTableRecord
  2
BEZUGSACHSEN
 70
     0
 62
     7
  6
CONTINUOUS
370
    -3
390
F
  0
LAYER
  5
1FE
330
2
100
AcDbSymbolTableRecord
100
AcDbLayerTableRecord
  2
BEZUGSEBENEN
 70
     0
 62
     7
  6
CONTINUOUS
370
    -3
390
F
  0
LAYER
  5
1FF
330
2
100
AcDbSymbolTableRecord
100
AcDbLayerTableRecord
  2
BG_STARTBEZUEGE
 70
     0
 62
     7
  6
CONTINUOUS
370
    -3
390
F
  0
LAYER
  5
200
330
2
100
AcDbSymbolTableRecord
100
AcDbLayerTableRecord
  2
HILFEN
 70
     0
 62
     7
  6
CONTINUOUS
370
    -3
390
F
  0
LAYER
  5
201
330
2
100
AcDbSymbolTableRecord
100
AcDbLayerTableRecord
  2
KURVEN
 70
     0
 62
     7
  6
CONTINUOUS
370
    -3
390
F
  0
LAYER
  5
202
330
2
100
AcDbSymbolTableRecord
100
AcDbLayerTableRecord
  2
PLATZIERUNG
 70
     0
 62
     7
  6
CONTINUOUS
370
    -3
390
F
  0
LAYER
  5
203
330
2
100
AcDbSymbolTableRecord
100
AcDbLayerTableRecord
  2
RUNDUNGEN
 70
     0
 62
     7
  6
CONTINUOUS
370
    -3
390
F
  0
LAYER
  5
204
330
2
100
AcDbSymbolTableRecord
100
AcDbLayerTableRecord
  2
TEIL_STARTBEZUEGE
 70
     0
 62
     7
  6
CONTINUOUS
370
    -3
390
F
  0
LAYER
  5
205
330
2
100
AcDbSymbolTableRecord
100
AcDbLayerTableRecord
  2
ZEICHNUNGSBEMASSUNGEN
 70
     0
 62
     7
  6
CONTINUOUS
370
    -3
390
F
  0
LAYER
  5
4D3
330
2
100
AcDbSymbolTableRecord
100
AcDbLayerTableRecord
  2
Defpoints
 70
     0
 62
     7
  6
CONTINUOUS
290
     0
370
    -3
390
F
  0
LAYER
  5
4E6
330
2
100
AcDbSymbolTableRecord
100
AcDbLayerTableRecord
  2
AM_5
 70
     0
 62
     3
  6
CONTINUOUS
370
    25
390
F
1001
AcAecLayerStandard
1000

1000

  0
LAYER
  5
6F4
330
2
100
AcDbSymbolTableRecord
100
AcDbLayerTableRecord
  2
AM_CL
 70
     0
 62
     1
  6
Amconstr
370
    25
390
F
1001
AcAecLayerStandard
1000

1000

  0
LAYER
  5
85F
102
{ACAD_XDICTIONARY
360
860
102
}
330
2
100
AcDbSymbolTableRecord
100
AcDbLayerTableRecord
  2
3
 70
     0
 62
     6
  6
GEN3
370
    -3
390
F
  0
LAYER
  5
861
102
{ACAD_XDICTIONARY
360
862
102
}
330
2
100
AcDbSymbolTableRecord
100
AcDbLayerTableRecord
  2
WHITE
 70
     0
 62
     7
  6
CONTINUOUS
370
    -3
390
F
  0
LAYER
  5
863
102
{ACAD_XDICTIONARY
360
864
102
}
330
2
100
AcDbSymbolTableRecord
100
AcDbLayerTableRecord
  2
5
 70
     0
 62
     3
  6
CONTINUOUS
370
    -3
390
F
  0
LAYER
  5
865
102
{ACAD_XDICTIONARY
360
866
102
}
330
2
100
AcDbSymbolTableRecord
100
AcDbLayerTableRecord
  2
AM_0
 70
     0
 62
     7
  6
CONTINUOUS
370
    50
390
F
  0
LAYER
  5
867
102
{ACAD_XDICTIONARY
360
868
102
}
330
2
100
AcDbSymbolTableRecord
100
AcDbLayerTableRecord
  2
AM_8
 70
     0
 62
     1
  6
CONTINUOUS
370
    25
390
F
  0
LAYER
  5
869
102
{ACAD_XDICTIONARY
360
86A
102
}
330
2
100
AcDbSymbolTableRecord
100
AcDbLayerTableRecord
  2
1
 70
     0
 62
     7
  6
CONTINUOUS
370
    -3
390
F
  0
LAYER
  5
C43
102
{ACAD_XDICTIONARY
360
C44
102
}
330
2
100
AcDbSymbolTableRecord
100
AcDbLayerTableRecord
  2
FASEN
 70
     0
 62
     7
  6
CONTINUOUS
370
    -3
390
F
  0
LAYER
  5
C45
102
{ACAD_XDICTIONARY
360
C46
102
}
330
2
100
AcDbSymbolTableRecord
100
AcDbLayerTableRecord
  2
P-0000
 70
     0
 62
     7
  6
CONTINUOUS
370
    -3
390
F
  0
ENDTAB
  0
TABLE
  2
STYLE
  5
3
330
0
100
AcDbSymbolTable
 70
    13
  0
STYLE
  5
11
330
3
100
AcDbSymbolTableRecord
100
AcDbTextStyleTableRecord
  2
STANDARD
 70
     0
 40
0.0
 41
0.7
 50
0.0
 71
     0
 42
0.2
  3
txt
  4

  0
STYLE
  5
206
330
3
100
AcDbSymbolTableRecord
100
AcDbTextStyleTableRecord
  2
TEXTSTYLE_1
 70
     0
 40
0.0
 41
0.8
 50
0.0
 71
     0
 42
0.2
  3
gdt
  4

  0
STYLE
  5
207
330
3
100
AcDbSymbolTableRecord
100
AcDbTextStyleTableRecord
  2
TEXTSTYLE_2
 70
     0
 40
0.0
 41
0.7857142857
 50
0.0
 71
     0
 42
0.2
  3
txt
  4

  0
STYLE
  5
208
330
3
100
AcDbSymbolTableRecord
100
AcDbTextStyleTableRecord
  2
TEXTSTYLE_3
 70
     0
 40
0.0
 41
0.8333333333
 50
0.0
 71
     0
 42
0.2
  3
txt
  4

  0
STYLE
  5
209
330
3
100
AcDbSymbolTableRecord
100
AcDbTextStyleTableRecord
  2
TEXTSTYLE_4
 70
     0
 40
0.0
 41
0.9047619047999999
 50
0.0
 71
     0
 42
0.2
  3
txt
  4

  0
STYLE
  5
20A
330
3
100
AcDbSymbolTableRecord
100
AcDbTextStyleTableRecord
  2
TEXTSTYLE_5
 70
     0
 40
0.0
 41
0.7142857143000001
 50
0.0
 71
     0
 42
0.2
  3
txt
  4

  0
STYLE
  5
20B
330
3
100
AcDbSymbolTableRecord
100
AcDbTextStyleTableRecord
  2
TEXTSTYLE_6
 70
     0
 40
0.0
 41
0.5714285714000003
 50
0.0
 71
     0
 42
0.2
  3
txt
  4

  0
STYLE
  5
20C
330
3
100
AcDbSymbolTableRecord
100
AcDbTextStyleTableRecord
  2
TEXTSTYLE_7
 70
     0
 40
0.0
 41
0.8571428570999998
 50
0.0
 71
     0
 42
0.2
  3
txt
  4

  0
STYLE
  5
20D
330
3
100
AcDbSymbolTableRecord
100
AcDbTextStyleTableRecord
  2
TEXTSTYLE_8
 70
     0
 40
0.0
 41
1.0
 50
0.0
 71
     0
 42
0.2
  3
trium.ttf
  4

  0
STYLE
  5
4AE
330
3
100
AcDbSymbolTableRecord
100
AcDbTextStyleTableRecord
  2

 70
     1
 40
0.0
 41
1.0
 50
0.0
 71
     0
 42
0.2
  3
genltshp.shx
  4

  0
STYLE
  5
4C1
330
3
100
AcDbSymbolTableRecord
100
AcDbTextStyleTableRecord
  2
ACDINTS
 70
     0
 40
1.0
 41
1.0
 50
0.0
 71
     0
 42
0.2
  3
isocp.shx
  4

  0
STYLE
  5
4C2
330
3
100
AcDbSymbolTableRecord
100
AcDbTextStyleTableRecord
  2
ACDINGDT
 70
     0
 40
0.0
 41
1.0
 50
0.0
 71
     0
 42
0.2
  3
amgdt.shx
  4

  0
STYLE
  5
86B
330
3
100
AcDbSymbolTableRecord
100
AcDbTextStyleTableRecord
  2

 70
     1
 40
0.0
 41
1.0
 50
0.0
 71
     0
 42
2.5
  3
ltypeshp.shx
  4

  0
ENDTAB
  0
TABLE
  2
VIEW
  5
6
330
0
100
AcDbSymbolTable
 70
     0
  0
ENDTAB
  0
TABLE
  2
UCS
  5
7
330
0
100
AcDbSymbolTable
 70
     0
  0
ENDTAB
  0
TABLE
  2
APPID
  5
9
330
0
100
AcDbSymbolTable
 70
    21
  0
APPID
  5
20E
330
9
100
AcDbSymbolTableRecord
100
AcDbRegAppTableRecord
  2
ACAD
 70
     0
  0
APPID
  5
434
330
9
100
AcDbSymbolTableRecord
100
AcDbRegAppTableRecord
  2
MCAD_NO_VIS
 70
     0
  0
APPID
  5
435
330
9
100
AcDbSymbolTableRecord
100
AcDbRegAppTableRecord
  2
ACAD_TEMP_GRAPHIC
 70
     0
  0
APPID
  5
461
330
9
100
AcDbSymbolTableRecord
100
AcDbRegAppTableRecord
  2
AD_DRAW
 70
     0
  0
APPID
  5
464
330
9
100
AcDbSymbolTableRecord
100
AcDbRegAppTableRecord
  2
ACATTRIBSERVICES
 70
     0
  0
APPID
  5
484
330
9
100
AcDbSymbolTableRecord
100
AcDbRegAppTableRecord
  2
DESIGNERASSEMBLIES
 70
     0
  0
APPID
  5
48A
330
9
100
AcDbSymbolTableRecord
100
AcDbRegAppTableRecord
  2
ACADM_DIM_EDIT
 70
     0
  0
APPID
  5
48B
330
9
100
AcDbSymbolTableRecord
100
AcDbRegAppTableRecord
  2
AMDT_DM_ADJ
 70
     0
  0
APPID
  5
4A4
330
9
100
AcDbSymbolTableRecord
100
AcDbRegAppTableRecord
  2
ACAD_DSTYLE_DIMJAG
 70
     0
  0
APPID
  5
4A5
330
9
100
AcDbSymbolTableRecord
100
AcDbRegAppTableRecord
  2
ACAD_DSTYLE_DIMBREAK
 70
     0
  0
APPID
  5
4E7
330
9
100
AcDbSymbolTableRecord
100
AcDbRegAppTableRecord
  2
AcAecLayerStandard
 70
     0
  0
APPID
  5
504
330
9
100
AcDbSymbolTableRecord
100
AcDbRegAppTableRecord
  2
GENIUS_GENDTOL_13
 70
     0
  0
APPID
  5
505
330
9
100
AcDbSymbolTableRecord
100
AcDbRegAppTableRecord
  2
ACAD_DSTYLE_DIMINSPECT
 70
     0
  0
APPID
  5
5D1
330
9
100
AcDbSymbolTableRecord
100
AcDbRegAppTableRecord
  2
ACAD_MLEADERVER
 70
     0
  0
APPID
  5
5D2
330
9
100
AcDbSymbolTableRecord
100
AcDbRegAppTableRecord
  2
ACAD_DSTYLE_DIMJOGGED_JOGANGLE_SYMBOL
 70
     0
  0
APPID
  5
5D3
330
9
100
AcDbSymbolTableRecord
100
AcDbRegAppTableRecord
  2
ACAD_DSTYLE_DIM_LINETYPE
 70
     0
  0
APPID
  5
5D4
330
9
100
AcDbSymbolTableRecord
100
AcDbRegAppTableRecord
  2
ACAD_DSTYLE_DIM_EXT1_LINETYPE
 70
     0
  0
APPID
  5
5D5
330
9
100
AcDbSymbolTableRecord
100
AcDbRegAppTableRecord
  2
ACAD_DSTYLE_DIM_EXT2_LINETYPE
 70
     0
  0
APPID
  5
86F
330
9
100
AcDbSymbolTableRecord
100
AcDbRegAppTableRecord
  2
GENIUS_GENODEF_13
 70
     0
  0
APPID
  5
870
330
9
100
AcDbSymbolTableRecord
100
AcDbRegAppTableRecord
  2
GENIUS_GENOBJ-N-HTC_13
 70
     0
  0
APPID
  5
871
330
9
100
AcDbSymbolTableRecord
100
AcDbRegAppTableRecord
  2
GENIUS_GENHATCH_13
 70
     0
  0
ENDTAB
  0
TABLE
  2
DIMSTYLE
  5
A
330
0
100
AcDbSymbolTable
 70
    17
100
AcDbDimStyleTable
 71
     3
340
C47
340
86D
340
21D
  0
DIMSTYLE
105
21D
330
A
100
AcDbSymbolTableRecord
100
AcDbDimStyleTableRecord
  2
STANDARD
 70
     0
 41
3.5
 42
1.5
 44
1.5
 47
0.005
 48
0.005
 71
     1
 73
     0
 74
     0
 77
     1
 78
     8
140
3.5
147
0.625
178
     5
271
     3
272
     3
284
     8
340
11
341
211
342
211
343
211
344
211
  0
DIMSTYLE
105
21E
330
A
100
AcDbSymbolTableRecord
100
AcDbDimStyleTableRecord
  2
DIMSTYLE_1
 70
     0
 41
3.5
 42
1.5
 44
1.5
 47
0.5
 48
0.5
 73
     0
 74
     0
 77
     1
 78
     8
140
3.5
144
3.333333333299997
147
0.875
178
     5
271
     3
272
     3
284
     8
340
11
341
211
342
211
343
211
344
211
  0
DIMSTYLE
105
21F
330
A
100
AcDbSymbolTableRecord
100
AcDbDimStyleTableRecord
  2
DIMSTYLE_2
 70
     0
 41
3.5
 42
1.5
 44
1.5
 47
0.8
 48
0.8
 73
     0
 74
     0
 77
     1
 78
     8
140
3.5
144
3.333333333299997
147
0.875
178
     5
271
     3
272
     3
284
     8
340
11
341
211
342
211
343
211
344
211
  0
DIMSTYLE
105
220
330
A
100
AcDbSymbolTableRecord
100
AcDbDimStyleTableRecord
  2
DIMSTYLE_3
 70
     0
 41
3.5
 42
1.5
 44
1.5
 47
0.3
 48
0.3
 73
     0
 74
     0
 77
     1
 78
     8
140
3.5
147
0.875
178
     5
271
     3
272
     3
284
     8
340
11
341
211
342
211
343
211
344
211
  0
DIMSTYLE
105
221
330
A
100
AcDbSymbolTableRecord
100
AcDbDimStyleTableRecord
  2
DIMSTYLE_4
 70
     0
 41
3.5
 42
1.5
 44
1.5
 47
0.2
 48
0.2
 73
     0
 74
     0
 77
     1
 78
     8
140
3.5
147
0.875
178
     5
271
     3
272
     3
284
     8
340
11
341
211
342
211
343
211
344
211
  0
DIMSTYLE
105
4A3
102
{ACAD_REACTORS
330
C0B
102
}
330
A
100
AcDbSymbolTableRecord
100
AcDbDimStyleTableRecord
  2
AM_DIN
 70
     0
  4
"
 41
3.5
 42
1.0
 43
10.0
 44
1.0
 47
0.1
 48
0.1
 73
     0
 74
     0
 77
     1
 78
     8
 79
     2
140
3.5
141
0.0
143
0.0393701
146
0.71
147
1.5
172
     1
176
   256
177
   256
178
     2
271
     2
272
     3
274
     4
283
     0
284
     8
340
11
371
    -1
372
    -1
1001
ACAD_DSTYLE_DIMJAG
1070
   388
1040
1.5
1001
ACAD_DSTYLE_DIMBREAK
1070
   391
1040
3.75
1001
ACAD_DSTYLE_DIMJOGGED_JOGANGLE_SYMBOL
1070
   384
1040
1.570796326794896
1001
ACAD_DSTYLE_DIM_LINETYPE
1070
   380
1005
14
1001
ACAD_DSTYLE_DIM_EXT1_LINETYPE
1070
   381
1005
14
1001
ACAD_DSTYLE_DIM_EXT2_LINETYPE
1070
   382
1005
14
  0
DIMSTYLE
105
4B5
330
A
100
AcDbSymbolTableRecord
100
AcDbDimStyleTableRecord
  2
AM_DIN$3
 70
     0
  4
"
 41
3.5
 42
1.0
 43
10.0
 44
1.0
 47
0.1
 48
0.1
 73
     0
 77
     1
 78
     8
 79
     2
140
3.5
141
0.0
143
0.0393701
146
0.71
147
1.5
176
   256
177
   256
178
     2
271
     2
272
     3
274
     4
283
     0
284
     8
288
     1
289
     0
340
11
371
    -1
372
    -1
1001
ACAD_DSTYLE_DIMBREAK
1070
   391
1040
3.75
1001
ACAD_DSTYLE_DIMJAG
1070
   388
1040
1.5
1001
ACAD_DSTYLE_DIMJOGGED_JOGANGLE_SYMBOL
1070
   384
1040
1.570796326794896
1001
ACAD_DSTYLE_DIM_LINETYPE
1070
   380
1005
14
1001
ACAD_DSTYLE_DIM_EXT1_LINETYPE
1070
   381
1005
14
1001
ACAD_DSTYLE_DIM_EXT2_LINETYPE
1070
   382
1005
14
  0
DIMSTYLE
105
4B6
330
A
100
AcDbSymbolTableRecord
100
AcDbDimStyleTableRecord
  2
AM_DIN$4
 70
     0
  4
"
 41
3.5
 42
1.0
 43
10.0
 44
1.0
 47
0.1
 48
0.1
 73
     0
 77
     1
 78
     8
 79
     2
140
3.5
141
0.0
143
0.0393701
146
0.71
147
1.5
176
   256
177
   256
178
     2
271
     2
272
     3
274
     4
283
     0
284
     8
288
     1
289
     0
340
11
371
    -1
372
    -1
1001
ACAD_DSTYLE_DIMBREAK
1070
   391
1040
3.75
1001
ACAD_DSTYLE_DIMJAG
1070
   388
1040
1.5
1001
ACAD_DSTYLE_DIMJOGGED_JOGANGLE_SYMBOL
1070
   384
1040
1.570796326794896
1001
ACAD_DSTYLE_DIM_LINETYPE
1070
   380
1005
14
1001
ACAD_DSTYLE_DIM_EXT1_LINETYPE
1070
   381
1005
14
1001
ACAD_DSTYLE_DIM_EXT2_LINETYPE
1070
   382
1005
14
  0
DIMSTYLE
105
4B7
330
A
100
AcDbSymbolTableRecord
100
AcDbDimStyleTableRecord
  2
AM_DIN$6
 70
     0
  4
"
 41
3.5
 42
1.0
 43
10.0
 44
1.0
 47
0.1
 48
0.1
 73
     0
 74
     0
 78
     8
 79
     2
140
3.5
141
0.0
143
0.0393701
146
0.71
147
1.5
172
     1
176
   256
177
   256
178
     2
271
     2
272
     3
274
     4
283
     0
284
     8
340
11
371
    -1
372
    -1
1001
ACAD_DSTYLE_DIMBREAK
1070
   391
1040
3.75
1001
ACAD_DSTYLE_DIMJAG
1070
   388
1040
1.5
1001
ACAD_DSTYLE_DIMJOGGED_JOGANGLE_SYMBOL
1070
   384
1040
1.570796326794896
1001
ACAD_DSTYLE_DIM_LINETYPE
1070
   380
1005
14
1001
ACAD_DSTYLE_DIM_EXT1_LINETYPE
1070
   381
1005
14
1001
ACAD_DSTYLE_DIM_EXT2_LINETYPE
1070
   382
1005
14
  0
DIMSTYLE
105
4B8
330
A
100
AcDbSymbolTableRecord
100
AcDbDimStyleTableRecord
  2
AM_DIN$7
 70
     0
  4
"
 41
3.5
 42
1.0
 43
10.0
 44
1.0
 47
0.1
 48
0.1
 73
     0
 74
     0
 77
     1
 78
     8
 79
     2
140
3.5
141
0.0
143
0.0393701
146
0.71
147
1.5
172
     1
176
   256
177
   256
178
     2
271
     2
272
     3
274
     4
283
     0
284
     8
340
11
371
    -1
372
    -1
1001
ACAD_DSTYLE_DIMBREAK
1070
   391
1040
3.75
1001
ACAD_DSTYLE_DIMJAG
1070
   388
1040
1.5
1001
ACAD_DSTYLE_DIMJOGGED_JOGANGLE_SYMBOL
1070
   384
1040
1.570796326794896
1001
ACAD_DSTYLE_DIM_LINETYPE
1070
   380
1005
14
1001
ACAD_DSTYLE_DIM_EXT1_LINETYPE
1070
   381
1005
14
1001
ACAD_DSTYLE_DIM_EXT2_LINETYPE
1070
   382
1005
14
  0
DIMSTYLE
105
4B9
330
A
100
AcDbSymbolTableRecord
100
AcDbDimStyleTableRecord
  2
AM_DIN$SF
 70
     0
  4
"
 41
3.5
 42
1.0
 43
10.0
 44
1.0
 47
0.1
 48
0.1
 73
     0
 74
     0
 75
     1
 76
     1
 77
     1
 78
     8
 79
     2
140
3.5
141
0.0
143
0.0393701
146
0.71
147
1.5
172
     1
176
   256
177
   256
178
     2
271
     2
272
     3
274
     4
283
     0
284
     8
340
11
371
    -1
372
    -1
1001
ACAD_DSTYLE_DIMBREAK
1070
   391
1040
3.75
1001
ACAD_DSTYLE_DIMJAG
1070
   388
1040
1.5
1001
ACAD_DSTYLE_DIMJOGGED_JOGANGLE_SYMBOL
1070
   384
1040
1.570796326794896
1001
ACAD_DSTYLE_DIM_LINETYPE
1070
   380
1005
14
1001
ACAD_DSTYLE_DIM_EXT1_LINETYPE
1070
   381
1005
14
1001
ACAD_DSTYLE_DIM_EXT2_LINETYPE
1070
   382
1005
14
  0
DIMSTYLE
105
4BE
330
A
100
AcDbSymbolTableRecord
100
AcDbDimStyleTableRecord
  2
AM_DIN$SH
 70
     0
  4
"
 41
3.5
 42
1.0
 43
10.0
 44
1.0
 47
0.1
 48
0.1
 73
     0
 74
     0
 75
     1
 76
     1
 77
     1
 78
     8
 79
     2
140
3.5
141
0.0
143
0.0393701
144
2.0
146
0.71
147
1.5
172
     1
173
     1
176
   256
177
   256
178
     2
271
     2
272
     3
274
     4
283
     0
284
     8
340
11
343
4BA
371
    -1
372
    -1
1001
ACAD_DSTYLE_DIMBREAK
1070
   391
1040
3.75
1001
ACAD_DSTYLE_DIMJAG
1070
   388
1040
1.5
1001
ACAD_DSTYLE_DIMJOGGED_JOGANGLE_SYMBOL
1070
   384
1040
1.570796326794896
1001
ACAD_DSTYLE_DIM_LINETYPE
1070
   380
1005
14
1001
ACAD_DSTYLE_DIM_EXT1_LINETYPE
1070
   381
1005
14
1001
ACAD_DSTYLE_DIM_EXT2_LINETYPE
1070
   382
1005
14
  0
DIMSTYLE
105
4E8
330
A
100
AcDbSymbolTableRecord
100
AcDbDimStyleTableRecord
  2
STANDARD$0
 70
     0
 41
3.5
 42
1.5
 44
1.5
 47
0.005
 48
0.005
 71
     1
 73
     0
 74
     0
 77
     1
 78
     8
140
3.5
147
0.625
178
     5
271
     3
272
     3
284
     8
340
11
341
211
342
211
343
211
344
211
1001
ACAD_DSTYLE_DIMBREAK
1070
   391
1040
3.75
1001
ACAD_DSTYLE_DIMJAG
1070
   388
1040
1.5
  0
DIMSTYLE
105
86C
330
A
100
AcDbSymbolTableRecord
100
AcDbDimStyleTableRecord
  2
AM_DIN$0
 70
     0
  4
"
 41
2.5
 42
1.0
 43
10.0
 44
1.0
 47
0.1
 48
0.1
 73
     0
 74
     0
 77
     1
 78
     8
 79
     2
140
3.5
141
0.0
143
0.0393701
146
0.71
147
1.5
172
     1
176
   256
177
   256
178
     2
271
     2
272
     3
274
     4
283
     0
284
     8
340
11
371
    -1
372
    -1
1001
ACAD_DSTYLE_DIMJOGGED_JOGANGLE_SYMBOL
1070
   384
1040
1.570796326794896
  0
DIMSTYLE
105
86D
330
A
100
AcDbSymbolTableRecord
100
AcDbDimStyleTableRecord
  2
GEN-ISO
 70
     0
  3
<>
  4
"
 40
5.0
 41
2.5
 42
1.0
 43
7.0
 44
1.0
 47
0.1
 48
0.1
 73
     0
 74
     0
 77
     1
 78
     8
140
3.5
141
0.0
143
0.0393701
146
0.71
147
0.6
172
     1
176
   256
177
   256
178
     2
271
     2
272
     3
274
     4
283
     0
340
11
  0
DIMSTYLE
105
86E
330
A
100
AcDbSymbolTableRecord
100
AcDbDimStyleTableRecord
  2
GEN-ISO$0
 70
     0
  3
<>
  4
<>
 40
25.0
 41
2.0
 42
1.0
 43
7.0
 44
1.0
 47
0.1
 48
0.1
 77
     1
 78
     8
140
3.0
141
0.0
143
0.0393701
146
0.71
147
0.6
172
     1
176
   256
177
   256
178
     2
271
     2
272
     3
274
     4
283
     0
340
11
  0
DIMSTYLE
105
C47
102
{ACAD_REACTORS
330
E2F
330
E2C
330
2E4
330
AE1
330
651
330
2E6
330
2E7
102
}
330
A
100
AcDbSymbolTableRecord
100
AcDbDimStyleTableRecord
  2
883N99122_001_00149479900
 70
     0
 40
2.0
 41
3.149999999999999
 42
0.0
 43
3.75
 44
2.0
 73
     0
 74
     0
 77
     1
 78
     8
 79
     2
140
3.5
141
0.0
143
0.03937007874016
145
2.0
147
2.0
171
     3
172
     1
173
     1
176
     3
177
     3
178
     2
179
     2
271
     2
272
     2
274
     3
283
     0
284
     8
340
11
341
C40
  0
ENDTAB
  0
TABLE
  2
BLOCK_RECORD
  5
1
330
0
100
AcDbSymbolTable
 70
    31
  0
BLOCK_RECORD
  5
20F
330
1
100
AcDbSymbolTableRecord
100
AcDbBlockTableRecord
  2
*Model_Space
340
3E2
  0
BLOCK_RECORD
  5
210
330
1
100
AcDbSymbolTableRecord
100
AcDbBlockTableRecord
  2
*Paper_Space
340
3E3
  0
BLOCK_RECORD
  5
211
330
1
100
AcDbSymbolTableRecord
100
AcDbBlockTableRecord
  2
_FILLED
340
0
102
{BLKREFS
331
236
331
237
331
23F
331
240
331
248
331
249
331
251
331
252
331
263
331
264
331
543
331
544
331
56B
331
56C
331
7B1
331
7B2
102
}
  0
BLOCK_RECORD
  5
212
330
1
100
AcDbSymbolTableRecord
100
AcDbBlockTableRecord
  2
*D1
340
0
  0
BLOCK_RECORD
  5
213
330
1
100
AcDbSymbolTableRecord
100
AcDbBlockTableRecord
  2
*D2
340
0
  0
BLOCK_RECORD
  5
214
330
1
100
AcDbSymbolTableRecord
100
AcDbBlockTableRecord
  2
*D3
340
0
  0
BLOCK_RECORD
  5
215
330
1
100
AcDbSymbolTableRecord
100
AcDbBlockTableRecord
  2
*D4
340
0
  0
BLOCK_RECORD
  5
216
330
1
100
AcDbSymbolTableRecord
100
AcDbBlockTableRecord
  2
*D5
340
0
  0
BLOCK_RECORD
  5
217
330
1
100
AcDbSymbolTableRecord
100
AcDbBlockTableRecord
  2
*D6
340
0
  0
BLOCK_RECORD
  5
218
330
1
100
AcDbSymbolTableRecord
100
AcDbBlockTableRecord
  2
*D7
340
0
  0
BLOCK_RECORD
  5
219
330
1
100
AcDbSymbolTableRecord
100
AcDbBlockTableRecord
  2
*D8
340
0
  0
BLOCK_RECORD
  5
21A
330
1
100
AcDbSymbolTableRecord
100
AcDbBlockTableRecord
  2
SYMBOL_1_BL0
340
0
  0
BLOCK_RECORD
  5
4BA
330
1
100
AcDbSymbolTableRecord
100
AcDbBlockTableRecord
  2
GENAXEH
340
0
  0
BLOCK_RECORD
  5
4EB
330
1
100
AcDbSymbolTableRecord
100
AcDbBlockTableRecord
  2
*D11
340
0
  0
BLOCK_RECORD
  5
525
330
1
100
AcDbSymbolTableRecord
100
AcDbBlockTableRecord
  2
*D12
340
0
  0
BLOCK_RECORD
  5
652
330
1
100
AcDbSymbolTableRecord
100
AcDbBlockTableRecord
  2
*D13
340
0
  0
BLOCK_RECORD
  5
776
330
1
100
AcDbSymbolTableRecord
100
AcDbBlockTableRecord
  2
*D14
340
0
  0
BLOCK_RECORD
  5
7DA
102
{ACAD_XDICTIONARY
360
7DB
102
}
330
1
100
AcDbSymbolTableRecord
100
AcDbBlockTableRecord
  2
A$C0E781A52
340
0
1001
ACAD
1000
DesignCenter Data
1002
{
1070
     1
1070
     4
1002
}
  0
BLOCK_RECORD
  5
846
330
1
100
AcDbSymbolTableRecord
100
AcDbBlockTableRecord
  2
*D16
340
0
  0
BLOCK_RECORD
  5
852
330
1
100
AcDbSymbolTableRecord
100
AcDbBlockTableRecord
  2
*D17
340
0
  0
BLOCK_RECORD
  5
926
330
1
100
AcDbSymbolTableRecord
100
AcDbBlockTableRecord
  2
*D18
340
0
  0
BLOCK_RECORD
  5
932
330
1
100
AcDbSymbolTableRecord
100
AcDbBlockTableRecord
  2
*D19
340
0
  0
BLOCK_RECORD
  5
AE2
330
1
100
AcDbSymbolTableRecord
100
AcDbBlockTableRecord
  2
*D20
340
0
  0
BLOCK_RECORD
  5
C26
330
1
100
AcDbSymbolTableRecord
100
AcDbBlockTableRecord
  2
*D22
340
0
  0
BLOCK_RECORD
  5
C32
330
1
100
AcDbSymbolTableRecord
100
AcDbBlockTableRecord
  2
*D23
340
0
  0
BLOCK_RECORD
  5
C40
330
1
100
AcDbSymbolTableRecord
100
AcDbBlockTableRecord
  2
_None
340
0
  0
BLOCK_RECORD
  5
C48
330
1
100
AcDbSymbolTableRecord
100
AcDbBlockTableRecord
  2
A$C19832E52
340
0
1001
ACAD
1000
DesignCenter Data
1002
{
1070
     1
1070
     4
1002
}
  0
BLOCK_RECORD
  5
E36
330
1
100
AcDbSymbolTableRecord
100
AcDbBlockTableRecord
  2
*D26
340
0
  0
BLOCK_RECORD
  5
E42
330
1
100
AcDbSymbolTableRecord
100
AcDbBlockTableRecord
  2
*D27
340
0
  0
BLOCK_RECORD
  5
1227
330
1
100
AcDbSymbolTableRecord
100
AcDbBlockTableRecord
  2
*D29
340
0
  0
BLOCK_RECORD
  5
1233
330
1
100
AcDbSymbolTableRecord
100
AcDbBlockTableRecord
  2
*D30
340
0
  0
ENDTAB
  0
ENDSEC
  0
SECTION
  2
BLOCKS
  0
BLOCK
  5
20
330
20F
100
AcDbEntity
  8
0
100
AcDbBlockBegin
  2
*Model_Space
 70
     0
 10
0.0
 20
0.0
 30
0.0
  3
*Model_Space
  1

  0
ENDBLK
  5
21
330
20F
100
AcDbEntity
  8
0
100
AcDbBlockEnd
  0
BLOCK
  5
1C
330
210
100
AcDbEntity
 67
     1
  8
0
100
AcDbBlockBegin
  2
*Paper_Space
 70
     0
 10
0.0
 20
0.0
 30
0.0
  3
*Paper_Space
  1

  0
ENDBLK
  5
1D
330
210
100
AcDbEntity
 67
     1
  8
0
100
AcDbBlockEnd
  0
BLOCK
  5
22D
330
211
100
AcDbEntity
  8
0
100
AcDbBlockBegin
  2
_FILLED
 70
     0
 10
0.0
 20
0.0
 30
0.0
  3
_FILLED
  1

  0
SOLID
  5
22E
330
211
100
AcDbEntity
  8
0
  6
ByBlock
 62
     0
100
AcDbTrace
 10
0.0
 20
0.0
 30
0.0
 11
-1.0
 21
0.125
 31
0.0
 12
-1.0
 22
-0.125
 32
0.0
 13
-1.0
 23
-0.125
 33
0.0
  0
ENDBLK
  5
22F
330
211
100
AcDbEntity
  8
0
  6
ByBlock
 62
     0
100
AcDbBlockEnd
  0
BLOCK
  5
230
330
212
100
AcDbEntity
  8
ZEICHNUNGSBEMASSUNGEN
  6
Continuous
 62
     2
100
AcDbBlockBegin
  2
*D1
 70
     1
 10
0.0
 20
0.0
 30
0.0
  3
*D1
  1

  0
MTEXT
  5
231
330
212
100
AcDbEntity
  8
ZEICHNUNGSBEMASSUNGEN
  6
Continuous
 62
     5
100
AcDbMText
 10
94.74923924450001
 20
229.8922278697
 30
0.0
 40
3.5
 41
8.0
 71
     2
 72
     1
  1
257
 73
     1
 44
0.9
1001
ACAD
1000
MTEXTBEGIN
1070
    73
1070
     1
1070
    44
1040
0.9
1070
    74
1070
     0
1000
MTEXTEND
  0
LINE
  5
232
330
212
100
AcDbEntity
  8
ZEICHNUNGSBEMASSUNGEN
  6
Continuous
 62
     2
100
AcDbLine
 10
56.1992392445
 20
234.0747542414
 30
0.0
 11
56.1992392445
 21
224.0172278697
 31
0.0
  0
LINE
  5
233
330
212
100
AcDbEntity
  8
ZEICHNUNGSBEMASSUNGEN
  6
Continuous
 62
     2
100
AcDbLine
 10
133.2992392445
 20
234.2863465214
 30
0.0
 11
133.2992392445
 21
224.0172278697
 31
0.0
  0
LINE
  5
234
330
212
100
AcDbEntity
  8
ZEICHNUNGSBEMASSUNGEN
  6
Continuous
 62
     2
100
AcDbLine
 10
56.1992392445
 20
225.5172278697
 30
0.0
 11
94.74923924450001
 21
225.5172278697
 31
0.0
  0
LINE
  5
235
330
212
100
AcDbEntity
  8
ZEICHNUNGSBEMASSUNGEN
  6
Continuous
 62
     2
100
AcDbLine
 10
133.2992392445
 20
225.5172278697
 30
0.0
 11
94.74923924450001
 21
225.5172278697
 31
0.0
  0
INSERT
  5
236
330
212
100
AcDbEntity
  8
ZEICHNUNGSBEMASSUNGEN
  6
Continuous
 62
     2
100
AcDbBlockReference
  2
_FILLED
 10
56.1992392445
 20
225.5172278697
 30
0.0
 41
3.5
 42
3.5
 43
3.5
 50
180.0
  0
INSERT
  5
237
330
212
100
AcDbEntity
  8
ZEICHNUNGSBEMASSUNGEN
  6
Continuous
 62
     2
100
AcDbBlockReference
  2
_FILLED
 10
133.2992392445
 20
225.5172278697
 30
0.0
 41
3.5
 42
3.5
 43
3.5
  0
ENDBLK
  5
238
330
212
100
AcDbEntity
  8
0
  6
ByBlock
 62
     0
100
AcDbBlockEnd
  0
BLOCK
  5
239
330
213
100
AcDbEntity
  8
ZEICHNUNGSBEMASSUNGEN
  6
Continuous
 62
     2
100
AcDbBlockBegin
  2
*D2
 70
     1
 10
0.0
 20
0.0
 30
0.0
  3
*D2
  1

  0
MTEXT
  5
23A
330
213
100
AcDbEntity
  8
ZEICHNUNGSBEMASSUNGEN
  6
Continuous
 62
     5
100
AcDbMText
 10
171.6992392445
 20
229.8922278697
 30
0.0
 40
3.5
 41
8.0
 71
     2
 72
     1
  1
256
 73
     1
 44
0.9
1001
ACAD
1000
MTEXTBEGIN
1070
    73
1070
     1
1070
    44
1040
0.9
1070
    74
1070
     0
1000
MTEXTEND
  0
LINE
  5
23B
330
213
100
AcDbEntity
  8
ZEICHNUNGSBEMASSUNGEN
  6
Continuous
 62
     2
100
AcDbLine
 10
133.2992392445
 20
234.2863465214
 30
0.0
 11
133.2992392445
 21
224.0172278697
 31
0.0
  0
LINE
  5
23C
330
213
100
AcDbEntity
  8
ZEICHNUNGSBEMASSUNGEN
  6
Continuous
 62
     2
100
AcDbLine
 10
210.0992392445
 20
234.2863465214
 30
0.0
 11
210.0992392445
 21
224.0172278697
 31
0.0
  0
LINE
  5
23D
330
213
100
AcDbEntity
  8
ZEICHNUNGSBEMASSUNGEN
  6
Continuous
 62
     2
100
AcDbLine
 10
133.2992392445
 20
225.5172278697
 30
0.0
 11
171.6992392445
 21
225.5172278697
 31
0.0
  0
LINE
  5
23E
330
213
100
AcDbEntity
  8
ZEICHNUNGSBEMASSUNGEN
  6
Continuous
 62
     2
100
AcDbLine
 10
210.0992392445
 20
225.5172278697
 30
0.0
 11
171.6992392445
 21
225.5172278697
 31
0.0
  0
INSERT
  5
23F
330
213
100
AcDbEntity
  8
ZEICHNUNGSBEMASSUNGEN
  6
Continuous
 62
     2
100
AcDbBlockReference
  2
_FILLED
 10
133.2992392445
 20
225.5172278697
 30
0.0
 41
3.5
 42
3.5
 43
3.5
 50
180.0
  0
INSERT
  5
240
330
213
100
AcDbEntity
  8
ZEICHNUNGSBEMASSUNGEN
  6
Continuous
 62
     2
100
AcDbBlockReference
  2
_FILLED
 10
210.0992392445
 20
225.5172278697
 30
0.0
 41
3.5
 42
3.5
 43
3.5
  0
ENDBLK
  5
241
330
213
100
AcDbEntity
  8
0
  6
ByBlock
 62
     0
100
AcDbBlockEnd
  0
BLOCK
  5
242
330
214
100
AcDbEntity
  8
ZEICHNUNGSBEMASSUNGEN
  6
Continuous
 62
     2
100
AcDbBlockBegin
  2
*D3
 70
     1
 10
0.0
 20
0.0
 30
0.0
  3
*D3
  1

  0
MTEXT
  5
243
330
214
100
AcDbEntity
  8
ZEICHNUNGSBEMASSUNGEN
  6
Continuous
 62
     5
100
AcDbMText
 10
171.6992392445
 20
222.8922278697
 30
0.0
 40
3.5
 41
8.25
 71
     2
 72
     1
  1
770
 73
     1
 44
0.9
1001
ACAD
1000
MTEXTBEGIN
1070
    73
1070
     1
1070
    44
1040
0.9
1070
    74
1070
     0
1000
MTEXTEND
  0
LINE
  5
244
330
214
100
AcDbEntity
  8
ZEICHNUNGSBEMASSUNGEN
  6
Continuous
 62
     2
100
AcDbLine
 10
56.1992392445
 20
234.0747542414
 30
0.0
 11
56.1992392445
 21
217.0172278697
 31
0.0
  0
LINE
  5
245
330
214
100
AcDbEntity
  8
ZEICHNUNGSBEMASSUNGEN
  6
Continuous
 62
     2
100
AcDbLine
 10
287.1992392445
 20
234.0747542414
 30
0.0
 11
287.1992392445
 21
217.0172278697
 31
0.0
  0
LINE
  5
246
330
214
100
AcDbEntity
  8
ZEICHNUNGSBEMASSUNGEN
  6
Continuous
 62
     2
100
AcDbLine
 10
56.1992392445
 20
218.5172278697
 30
0.0
 11
171.6992392445
 21
218.5172278697
 31
0.0
  0
LINE
  5
247
330
214
100
AcDbEntity
  8
ZEICHNUNGSBEMASSUNGEN
  6
Continuous
 62
     2
100
AcDbLine
 10
287.1992392445
 20
218.5172278697
 30
0.0
 11
171.6992392445
 21
218.5172278697
 31
0.0
  0
INSERT
  5
248
330
214
100
AcDbEntity
  8
ZEICHNUNGSBEMASSUNGEN
  6
Continuous
 62
     2
100
AcDbBlockReference
  2
_FILLED
 10
56.1992392445
 20
218.5172278697
 30
0.0
 41
3.5
 42
3.5
 43
3.5
 50
180.0
  0
INSERT
  5
249
330
214
100
AcDbEntity
  8
ZEICHNUNGSBEMASSUNGEN
  6
Continuous
 62
     2
100
AcDbBlockReference
  2
_FILLED
 10
287.1992392445
 20
218.5172278697
 30
0.0
 41
3.5
 42
3.5
 43
3.5
  0
ENDBLK
  5
24A
330
214
100
AcDbEntity
  8
0
  6
ByBlock
 62
     0
100
AcDbBlockEnd
  0
BLOCK
  5
24B
330
215
100
AcDbEntity
  8
ZEICHNUNGSBEMASSUNGEN
  6
Continuous
 62
     2
100
AcDbBlockBegin
  2
*D4
 70
     1
 10
0.0
 20
0.0
 30
0.0
  3
*D4
  1

  0
MTEXT
  5
24C
330
215
100
AcDbEntity
  8
ZEICHNUNGSBEMASSUNGEN
  6
Continuous
 62
     5
100
AcDbMText
 10
171.6992392445
 20
151.701933121
 30
0.0
 40
3.5
 41
8.0
 71
     2
 72
     1
  1
785
 73
     1
 44
0.9
1001
ACAD
1000
MTEXTBEGIN
1070
    73
1070
     1
1070
    44
1040
0.9
1070
    74
1070
     0
1000
MTEXTEND
  0
LINE
  5
24D
330
215
100
AcDbEntity
  8
ZEICHNUNGSBEMASSUNGEN
  6
Continuous
 62
     2
100
AcDbLine
 10
289.4492392445
 20
167.526933121
 30
0.0
 11
289.4492392445
 21
145.826933121
 31
0.0
  0
LINE
  5
24E
330
215
100
AcDbEntity
  8
ZEICHNUNGSBEMASSUNGEN
  6
Continuous
 62
     2
100
AcDbLine
 10
53.9492392445
 20
167.526933121
 30
0.0
 11
53.9492392445
 21
145.826933121
 31
0.0
  0
LINE
  5
24F
330
215
100
AcDbEntity
  8
ZEICHNUNGSBEMASSUNGEN
  6
Continuous
 62
     2
100
AcDbLine
 10
289.4492392445
 20
147.326933121
 30
0.0
 11
171.6992392445
 21
147.326933121
 31
0.0
  0
LINE
  5
250
330
215
100
AcDbEntity
  8
ZEICHNUNGSBEMASSUNGEN
  6
Continuous
 62
     2
100
AcDbLine
 10
53.9492392445
 20
147.326933121
 30
0.0
 11
171.6992392445
 21
147.326933121
 31
0.0
  0
INSERT
  5
251
330
215
100
AcDbEntity
  8
ZEICHNUNGSBEMASSUNGEN
  6
Continuous
 62
     2
100
AcDbBlockReference
  2
_FILLED
 10
289.4492392445
 20
147.326933121
 30
0.0
 41
3.5
 42
3.5
 43
3.5
  0
INSERT
  5
252
330
215
100
AcDbEntity
  8
ZEICHNUNGSBEMASSUNGEN
  6
Continuous
 62
     2
100
AcDbBlockReference
  2
_FILLED
 10
53.9492392445
 20
147.326933121
 30
0.0
 41
3.5
 42
3.5
 43
3.5
 50
180.0
  0
ENDBLK
  5
253
330
215
100
AcDbEntity
  8
0
  6
ByBlock
 62
     0
100
AcDbBlockEnd
  0
BLOCK
  5
254
330
216
100
AcDbEntity
  8
ZEICHNUNGSBEMASSUNGEN
  6
Continuous
 62
     2
100
AcDbBlockBegin
  2
*D5
 70
     1
 10
0.0
 20
0.0
 30
0.0
  3
*D5
  1

  0
LINE
  5
1241
330
216
100
AcDbEntity
  8
P-0000
  6
Continuous
 62
     3
370
    -2
100
AcDbLine
 10
52.4492392445
 20
163.676928121
 30
0.0
 11
52.4492392445
 21
302.6521784394152
 31
0.0
  0
LINE
  5
1242
330
216
100
AcDbEntity
  8
P-0000
  6
Continuous
 62
     3
370
    -2
100
AcDbLine
 10
847.4484442445
 20
163.676928121
 30
0.0
 11
847.4484442445
 21
302.6521784394152
 31
0.0
  0
LINE
  5
1243
330
216
100
AcDbEntity
  8
P-0000
  6
Continuous
 62
     3
370
    -2
100
AcDbLine
 10
58.7492392445
 20
298.6521784394152
 30
0.0
 11
841.1484442445001
 21
298.6521784394152
 31
0.0
  0
SOLID
  5
1244
330
216
100
AcDbEntity
  8
P-0000
  6
Continuous
 62
     3
100
AcDbTrace
 10
58.7492392445
 20
299.7021784394152
 30
0.0
 11
58.7492392445
 21
297.6021784394152
 31
0.0
 12
52.4492392445
 22
298.6521784394152
 32
0.0
 13
52.4492392445
 23
298.6521784394152
 33
0.0
  0
SOLID
  5
1245
330
216
100
AcDbEntity
  8
P-0000
  6
Continuous
 62
     3
100
AcDbTrace
 10
841.1484442445001
 20
299.7021784394152
 30
0.0
 11
841.1484442445001
 21
297.6021784394152
 31
0.0
 12
847.4484442445
 22
298.6521784394152
 32
0.0
 13
847.4484442445
 23
298.6521784394152
 33
0.0
  0
MTEXT
  5
1246
330
216
100
AcDbEntity
  8
P-0000
  6
Continuous
 62
     2
100
AcDbMText
 10
467.8879031953306
 20
309.6521784394152
 30
0.0
 40
7.0
 41
0.0
 71
     2
 72
     1
  1
795
 73
     1
 44
1.0
1001
ACAD
1000
MTEXTBEGIN
1070
    73
1070
     1
1070
    44
1040
1.0
1070
    74
1070
     0
1000
MTEXTEND
  0
POINT
  5
1247
330
216
100
AcDbEntity
  8
Defpoints
  6
Continuous
 62
     0
100
AcDbPoint
 10
52.4492392445
 20
163.676928121
 30
0.0
  0
POINT
  5
1248
330
216
100
AcDbEntity
  8
Defpoints
  6
Continuous
 62
     0
100
AcDbPoint
 10
847.4484442445
 20
163.676928121
 30
0.0
  0
POINT
  5
1249
330
216
100
AcDbEntity
  8
Defpoints
  6
Continuous
 62
     0
100
AcDbPoint
 10
847.4484442445
 20
298.6521784394152
 30
0.0
  0
ENDBLK
  5
25C
330
216
100
AcDbEntity
  8
0
  6
ByBlock
 62
     0
100
AcDbBlockEnd
  0
BLOCK
  5
25D
330
217
100
AcDbEntity
  8
ZEICHNUNGSBEMASSUNGEN
  6
Continuous
 62
     2
100
AcDbBlockBegin
  2
*D6
 70
     1
 10
0.0
 20
0.0
 30
0.0
  3
*D6
  1

  0
MTEXT
  5
25E
330
217
100
AcDbEntity
  8
ZEICHNUNGSBEMASSUNGEN
  6
Continuous
 62
     5
100
AcDbMText
 10
347.7399475341
 20
246.4093917109
 30
0.0
 40
3.5
 41
5.25
 71
     2
 72
     1
  1
65
 73
     1
 44
0.9
1001
ACAD
1000
MTEXTBEGIN
1070
    73
1070
     1
1070
    44
1040
0.9
1070
    74
1070
     0
1000
MTEXTEND
  0
LINE
  5
25F
330
217
100
AcDbEntity
  8
ZEICHNUNGSBEMASSUNGEN
  6
Continuous
 62
     2
100
AcDbLine
 10
315.2399475341
 20
216.8723827109
 30
0.0
 11
315.2399475341
 21
243.5343917109
 31
0.0
  0
LINE
  5
260
330
217
100
AcDbEntity
  8
ZEICHNUNGSBEMASSUNGEN
  6
Continuous
 62
     2
100
AcDbLine
 10
380.2399475341001
 20
216.8723827109
 30
0.0
 11
380.2399475341001
 21
243.5343917109
 31
0.0
  0
LINE
  5
261
330
217
100
AcDbEntity
  8
ZEICHNUNGSBEMASSUNGEN
  6
Continuous
 62
     2
100
AcDbLine
 10
315.2399475341
 20
242.0343917109
 30
0.0
 11
347.7399475341
 21
242.0343917109
 31
0.0
  0
LINE
  5
262
330
217
100
AcDbEntity
  8
ZEICHNUNGSBEMASSUNGEN
  6
Continuous
 62
     2
100
AcDbLine
 10
380.2399475341001
 20
242.0343917109
 30
0.0
 11
347.7399475341
 21
242.0343917109
 31
0.0
  0
INSERT
  5
263
330
217
100
AcDbEntity
  8
ZEICHNUNGSBEMASSUNGEN
  6
Continuous
 62
     2
100
AcDbBlockReference
  2
_FILLED
 10
315.2399475341
 20
242.0343917109
 30
0.0
 41
3.5
 42
3.5
 43
3.5
 50
180.0
  0
INSERT
  5
264
330
217
100
AcDbEntity
  8
ZEICHNUNGSBEMASSUNGEN
  6
Continuous
 62
     2
100
AcDbBlockReference
  2
_FILLED
 10
380.2399475341001
 20
242.0343917109
 30
0.0
 41
3.5
 42
3.5
 43
3.5
  0
ENDBLK
  5
265
330
217
100
AcDbEntity
  8
0
  6
ByBlock
 62
     0
100
AcDbBlockEnd
  0
BLOCK
  5
266
330
218
100
AcDbEntity
  8
ZEICHNUNGSBEMASSUNGEN
  6
Continuous
 62
     2
100
AcDbBlockBegin
  2
*D7
 70
     1
 10
0.0
 20
0.0
 30
0.0
  3
*D7
  1

  0
LINE
  5
125C
330
218
100
AcDbEntity
  8
P-0000
  6
Continuous
 62
     3
370
    -2
100
AcDbLine
 10
-25.49859437100963
 20
222.6769376210001
 30
0.0
 11
-25.49859437100963
 21
246.176937621
 31
0.0
  0
LINE
  5
125D
330
218
100
AcDbEntity
  8
P-0000
  6
Continuous
 62
     3
370
    -2
100
AcDbLine
 10
-7.461863371009599
 20
232.176937621
 30
0.0
 11
-7.461863371009598
 21
246.176937621
 31
0.0
  0
LINE
  5
125E
330
218
100
AcDbEntity
  8
P-0000
  6
Continuous
 62
     3
370
    -2
100
AcDbLine
 10
-31.79859437100963
 20
242.176937621
 30
0.0
 11
-38.09859437100963
 21
242.176937621
 31
0.0
  0
LINE
  5
125F
330
218
100
AcDbEntity
  8
P-0000
  6
Continuous
 62
     3
370
    -2
100
AcDbLine
 10
-1.1618633710096
 20
242.176937621
 30
0.0
 11
5.138136628990397
 21
242.176937621
 31
0.0
  0
LINE
  5
1260
330
218
100
AcDbEntity
  8
P-0000
  6
Continuous
 62
     3
370
    -2
100
AcDbLine
 10
-25.49859437100963
 20
242.176937621
 30
0.0
 11
-7.461863371009598
 21
242.176937621
 31
0.0
  0
SOLID
  5
1261
330
218
100
AcDbEntity
  8
P-0000
  6
Continuous
 62
     3
100
AcDbTrace
 10
-31.79859437100963
 20
243.226937621
 30
0.0
 11
-31.79859437100963
 21
241.126937621
 31
0.0
 12
-25.49859437100963
 22
242.176937621
 32
0.0
 13
-25.49859437100963
 23
242.176937621
 33
0.0
  0
SOLID
  5
1262
330
218
100
AcDbEntity
  8
P-0000
  6
Continuous
 62
     3
100
AcDbTrace
 10
-1.1618633710096
 20
243.226937621
 30
0.0
 11
-1.1618633710096
 21
241.126937621
 31
0.0
 12
-7.461863371009598
 22
242.176937621
 32
0.0
 13
-7.461863371009598
 23
242.176937621
 33
0.0
  0
MTEXT
  5
1263
330
218
100
AcDbEntity
  8
P-0000
  6
Continuous
 62
     2
100
AcDbMText
 10
-16.48022887100961
 20
253.176937621
 30
0.0
 40
7.0
 41
0.0
 71
     2
 72
     1
  1
19
 73
     1
 44
1.0
1001
ACAD
1000
MTEXTBEGIN
1070
    73
1070
     1
1070
    44
1040
1.0
1070
    74
1070
     0
1000
MTEXTEND
  0
POINT
  5
1264
330
218
100
AcDbEntity
  8
Defpoints
  6
Continuous
 62
     0
100
AcDbPoint
 10
-25.49859437100963
 20
222.6769376210001
 30
0.0
  0
POINT
  5
1265
330
218
100
AcDbEntity
  8
Defpoints
  6
Continuous
 62
     0
100
AcDbPoint
 10
-7.461863371009599
 20
232.176937621
 30
0.0
  0
POINT
  5
1266
330
218
100
AcDbEntity
  8
Defpoints
  6
Continuous
 62
     0
100
AcDbPoint
 10
-7.461863371009598
 20
242.176937621
 30
0.0
  0
ENDBLK
  5
270
330
218
100
AcDbEntity
  8
0
  6
ByBlock
 62
     0
100
AcDbBlockEnd
  0
BLOCK
  5
271
330
219
100
AcDbEntity
  8
ZEICHNUNGSBEMASSUNGEN
  6
Continuous
 62
     2
100
AcDbBlockBegin
  2
*D8
 70
     1
 10
0.0
 20
0.0
 30
0.0
  3
*D8
  1

  0
LINE
  5
1267
330
219
100
AcDbEntity
  8
P-0000
  6
Continuous
 62
     3
370
    -2
100
AcDbLine
 10
-7.461863371009599
 20
154.1769376209999
 30
0.0
 11
-57.66060337100944
 21
154.1769376209999
 31
0.0
  0
LINE
  5
1268
330
219
100
AcDbEntity
  8
P-0000
  6
Continuous
 62
     3
370
    -2
100
AcDbLine
 10
-7.461863371009599
 20
232.176937621
 30
0.0
 11
-57.66060337100943
 21
232.176937621
 31
0.0
  0
LINE
  5
1269
330
219
100
AcDbEntity
  8
P-0000
  6
Continuous
 62
     3
370
    -2
100
AcDbLine
 10
-53.66060337100944
 20
160.4769376209999
 30
0.0
 11
-53.66060337100943
 21
225.876937621
 31
0.0
  0
SOLID
  5
126A
330
219
100
AcDbEntity
  8
P-0000
  6
Continuous
 62
     3
100
AcDbTrace
 10
-54.71060337100944
 20
160.4769376209999
 30
0.0
 11
-52.61060337100945
 21
160.4769376209999
 31
0.0
 12
-53.66060337100944
 22
154.1769376209999
 32
0.0
 13
-53.66060337100944
 23
154.1769376209999
 33
0.0
  0
SOLID
  5
126B
330
219
100
AcDbEntity
  8
P-0000
  6
Continuous
 62
     3
100
AcDbTrace
 10
-54.71060337100943
 20
225.876937621
 30
0.0
 11
-52.61060337100943
 21
225.876937621
 31
0.0
 12
-53.66060337100943
 22
232.176937621
 32
0.0
 13
-53.66060337100943
 23
232.176937621
 33
0.0
  0
MTEXT
  5
126C
330
219
100
AcDbEntity
  8
P-0000
  6
Continuous
 62
     2
100
AcDbMText
 10
-64.66060337100947
 20
193.176937621
 30
0.0
 40
7.0
 41
0.0
 71
     2
 72
     1
  1
78
 11
0.0000000000000001
 21
1.0
 31
0.0
 73
     1
 44
1.0
1001
ACAD
1000
MTEXTBEGIN
1070
    73
1070
     1
1070
    44
1040
1.0
1070
    74
1070
     0
1000
MTEXTEND
  0
POINT
  5
126D
330
219
100
AcDbEntity
  8
Defpoints
  6
Continuous
 62
     0
100
AcDbPoint
 10
-7.461863371009599
 20
154.1769376209999
 30
0.0
  0
POINT
  5
126E
330
219
100
AcDbEntity
  8
Defpoints
  6
Continuous
 62
     0
100
AcDbPoint
 10
-7.461863371009599
 20
232.176937621
 30
0.0
  0
POINT
  5
126F
330
219
100
AcDbEntity
  8
Defpoints
  6
Continuous
 62
     0
100
AcDbPoint
 10
-53.66060337100943
 20
232.176937621
 30
0.0
  0
ENDBLK
  5
279
330
219
100
AcDbEntity
  8
0
  6
ByBlock
 62
     0
100
AcDbBlockEnd
  0
BLOCK
  5
222
330
21A
100
AcDbEntity
  8
0
  6
Continuous
 62
     2
100
AcDbBlockBegin
  2
SYMBOL_1_BL0
 70
     0
 10
316.3999935624
 20
37.62500189999999
 30
0.0
  3
SYMBOL_1_BL0
  1

  0
LINE
  5
223
330
21A
100
AcDbEntity
  8
0
  6
Continuous
 62
     7
100
AcDbLine
 10
410.0
 20
65.25000379999998
 30
0.0
 11
222.7999871247
 21
65.25000379999998
 31
0.0
  0
LINE
  5
224
330
21A
100
AcDbEntity
  8
0
  6
Continuous
 62
     7
100
AcDbLine
 10
222.7999871247
 20
65.25000379999998
 30
0.0
 11
222.7999871247
 21
10.0
 31
0.0
  0
LINE
  5
225
330
21A
100
AcDbEntity
  8
0
  6
Continuous
 62
     7
100
AcDbLine
 10
222.7999871247
 20
10.0
 30
0.0
 11
410.0
 21
10.0
 31
0.0
  0
LINE
  5
226
330
21A
100
AcDbEntity
  8
0
  6
Continuous
 62
     7
100
AcDbLine
 10
410.0
 20
10.0
 30
0.0
 11
410.0
 21
65.25000379999998
 31
0.0
  0
LINE
  5
227
330
21A
100
AcDbEntity
  8
0
  6
Continuous
 62
     7
100
AcDbLine
 10
277.39999088
 20
65.25000379999998
 30
0.0
 11
277.39999088
 21
10.0
 31
0.0
  0
LINE
  5
228
330
21A
100
AcDbEntity
  8
0
  6
Continuous
 62
     7
100
AcDbLine
 10
321.59999392
 20
65.25000379999998
 30
0.0
 11
321.59999392
 21
10.0
 31
0.0
  0
LINE
  5
229
330
21A
100
AcDbEntity
  8
0
  6
Continuous
 62
     7
100
AcDbLine
 10
222.7999871247
 20
48.25000263079999
 30
0.0
 11
410.0
 21
48.25000263079999
 31
0.0
  0
LINE
  5
22A
330
21A
100
AcDbEntity
  8
0
  6
Continuous
 62
     7
100
AcDbLine
 10
396.9999991059
 20
27.0000011692
 30
0.0
 11
396.9999991059
 21
14.2500002923
 31
0.0
  0
LINE
  5
22B
330
21A
100
AcDbEntity
  8
0
  6
Continuous
 62
     7
100
AcDbLine
 10
277.39999088
 20
27.0000011692
 30
0.0
 11
410.0
 21
27.0000011692
 31
0.0
  0
ENDBLK
  5
22C
330
21A
100
AcDbEntity
  8
0
  6
ByBlock
 62
     0
100
AcDbBlockEnd
  0
BLOCK
  5
4BC
330
4BA
100
AcDbEntity
  8
0
100
AcDbBlockBegin
  2
GENAXEH
 70
     0
 10
0.0
 20
0.0
 30
0.0
  3
GENAXEH
  1

  0
LINE
  5
4BB
330
4BA
100
AcDbEntity
  8
0
100
AcDbLine
 10
-1.0
 20
0.0
 30
0.0
 11
1.0
 21
0.0
 31
0.0
  0
ENDBLK
  5
4BD
330
4BA
100
AcDbEntity
  8
0
100
AcDbBlockEnd
  0
BLOCK
  5
4EC
330
4EB
100
AcDbEntity
  8
0
100
AcDbBlockBegin
  2
*D11
 70
     1
 10
0.0
 20
0.0
 30
0.0
  3
*D11
  1

  0
LINE
  5
567
330
4EB
100
AcDbEntity
  8
AM_5
 62
     0
370
    -2
100
AcDbLine
 10
290.9492392445
 20
178.6269331209999
 30
0.0
 11
302.9492392445
 21
178.6269331209999
 31
0.0
  0
LINE
  5
568
330
4EB
100
AcDbEntity
  8
AM_5
 62
     0
370
    -2
100
AcDbLine
 10
290.9492392445
 20
159.426933121
 30
0.0
 11
302.9492392445
 21
159.426933121
 31
0.0
  0
LINE
  5
569
330
4EB
100
AcDbEntity
  8
AM_5
 62
     0
370
    -2
100
AcDbLine
 10
301.4492392445
 20
175.126933121
 30
0.0
 11
301.4492392445
 21
171.401933121
 31
0.0
  0
LINE
  5
56A
330
4EB
100
AcDbEntity
  8
AM_5
 62
     0
370
    -2
100
AcDbLine
 10
301.4492392445
 20
162.926933121
 30
0.0
 11
301.4492392445
 21
166.651933121
 31
0.0
  0
INSERT
  5
56B
330
4EB
100
AcDbEntity
  8
AM_5
 62
     0
370
    -2
100
AcDbBlockReference
  2
_FILLED
 10
301.4492392445
 20
178.6269331209999
 30
0.0
 41
3.5
 42
3.5
 43
3.5
 50
90.0
  0
INSERT
  5
56C
330
4EB
100
AcDbEntity
  8
AM_5
 62
     0
370
    -2
100
AcDbBlockReference
  2
_FILLED
 10
301.4492392445
 20
159.426933121
 30
0.0
 41
3.5
 42
3.5
 43
3.5
 50
270.0
  0
MTEXT
  5
56D
330
4EB
100
AcDbEntity
  8
AM_5
 62
     0
100
AcDbMText
 10
301.4492392445
 20
169.026933121
 30
0.0
 40
3.5
 41
0.0
 71
     5
 72
     1
  1
\A1;19
 73
     1
 44
1.0
1001
ACAD
1000
MTEXTBEGIN
1070
    73
1070
     1
1070
    44
1040
1.0
1070
    74
1070
     0
1000
MTEXTEND
  0
POINT
  5
56E
330
4EB
100
AcDbEntity
  8
Defpoints
 62
     0
100
AcDbPoint
 10
289.4492392445
 20
178.6269331209999
 30
0.0
  0
POINT
  5
56F
330
4EB
100
AcDbEntity
  8
Defpoints
 62
     0
100
AcDbPoint
 10
289.4492392445
 20
159.426933121
 30
0.0
  0
POINT
  5
570
330
4EB
100
AcDbEntity
  8
Defpoints
 62
     0
100
AcDbPoint
 10
301.4492392445
 20
159.426933121
 30
0.0
  0
ENDBLK
  5
4ED
330
4EB
100
AcDbEntity
  8
0
100
AcDbBlockEnd
  0
BLOCK
  5
526
330
525
100
AcDbEntity
  8
0
100
AcDbBlockBegin
  2
*D12
 70
     1
 10
0.0
 20
0.0
 30
0.0
  3
*D12
  1

  0
LINE
  5
53E
330
525
100
AcDbEntity
  8
AM_5
 62
     0
370
    -2
100
AcDbLine
 10
292.3760535785805
 20
178.740610902489
 30
0.0
 11
292.0158954274486
 21
178.740610902489
 31
0.0
  0
LINE
  5
53F
330
525
100
AcDbEntity
  8
AM_5
 62
     0
370
    -2
100
AcDbLine
 10
292.0416213189396
 20
178.84346773002
 30
0.0
 11
292.0158954274486
 21
178.84346773002
 31
0.0
  0
LINE
  5
540
330
525
100
AcDbEntity
  8
AM_5
 62
     0
370
    -2
100
AcDbLine
 10
293.5158954274486
 20
175.240610902489
 30
0.0
 11
293.5158954274486
 21
171.7406109024889
 31
0.0
  0
LINE
  5
541
330
525
100
AcDbEntity
  8
AM_5
 62
     0
370
    -2
100
AcDbLine
 10
293.5158954274486
 20
182.34346773002
 30
0.0
 11
293.5158954274486
 21
185.84346773002
 31
0.0
  0
LINE
  5
542
330
525
100
AcDbEntity
  8
AM_5
 62
     0
370
    -2
100
AcDbLine
 10
293.5158954274486
 20
185.84346773002
 30
0.0
 11
297.0158954274486
 21
185.84346773002
 31
0.0
  0
INSERT
  5
543
330
525
100
AcDbEntity
  8
AM_5
 62
     0
370
    -2
100
AcDbBlockReference
  2
_FILLED
 10
293.5158954274486
 20
178.740610902489
 30
0.0
 41
3.5
 42
3.5
 43
3.5
 50
90.0
  0
INSERT
  5
544
330
525
100
AcDbEntity
  8
AM_5
 62
     0
370
    -2
100
AcDbBlockReference
  2
_FILLED
 10
293.5158954274486
 20
178.84346773002
 30
0.0
 41
3.5
 42
3.5
 43
3.5
 50
270.0
  0
MTEXT
  5
545
330
525
100
AcDbEntity
  8
AM_5
 62
     0
100
AcDbMText
 10
302.9492287607819
 20
185.84346773002
 30
0.0
 40
3.5
 41
0.0
 71
     5
 72
     1
  1
\A1;0.1029
 73
     1
 44
1.0
1001
ACAD
1000
MTEXTBEGIN
1070
    73
1070
     1
1070
    44
1040
1.0
1070
    74
1070
     0
1000
MTEXTEND
  0
POINT
  5
546
330
525
100
AcDbEntity
  8
Defpoints
 62
     0
100
AcDbPoint
 10
293.8760535785805
 20
178.740610902489
 30
0.0
  0
POINT
  5
547
330
525
100
AcDbEntity
  8
Defpoints
 62
     0
100
AcDbPoint
 10
293.5416213189396
 20
178.84346773002
 30
0.0
  0
POINT
  5
548
330
525
100
AcDbEntity
  8
Defpoints
 62
     0
100
AcDbPoint
 10
293.5158954274486
 20
178.84346773002
 30
0.0
  0
ENDBLK
  5
527
330
525
100
AcDbEntity
  8
0
100
AcDbBlockEnd
  0
BLOCK
  5
653
330
652
100
AcDbEntity
  8
0
100
AcDbBlockBegin
  2
*D13
 70
     1
 10
0.0
 20
0.0
 30
0.0
  3
*D13
  1

  0
LINE
  5
1253
330
652
100
AcDbEntity
  8
P-0000
  6
Continuous
 62
     3
370
    -2
100
AcDbLine
 10
842.4484492444998
 20
225.6768661209997
 30
0.0
 11
904.4365247938801
 21
225.6768661209997
 31
0.0
  0
LINE
  5
1254
330
652
100
AcDbEntity
  8
P-0000
  6
Continuous
 62
     3
370
    -2
100
AcDbLine
 10
842.4484492444998
 20
160.6769311210001
 30
0.0
 11
904.4365247938801
 21
160.6769311210001
 31
0.0
  0
LINE
  5
1255
330
652
100
AcDbEntity
  8
P-0000
  6
Continuous
 62
     3
370
    -2
100
AcDbLine
 10
900.4365247938801
 20
219.3768661209997
 30
0.0
 11
900.4365247938801
 21
166.9769311210001
 31
0.0
  0
SOLID
  5
1256
330
652
100
AcDbEntity
  8
P-0000
  6
Continuous
 62
     3
100
AcDbTrace
 10
899.3865247938801
 20
219.3768661209997
 30
0.0
 11
901.48652479388
 21
219.3768661209997
 31
0.0
 12
900.4365247938801
 22
225.6768661209997
 32
0.0
 13
900.4365247938801
 23
225.6768661209997
 33
0.0
  0
SOLID
  5
1257
330
652
100
AcDbEntity
  8
P-0000
  6
Continuous
 62
     3
100
AcDbTrace
 10
899.3865247938801
 20
166.9769311210001
 30
0.0
 11
901.48652479388
 21
166.9769311210001
 31
0.0
 12
900.4365247938801
 22
160.6769311210001
 32
0.0
 13
900.4365247938801
 23
160.6769311210001
 33
0.0
  0
MTEXT
  5
1258
330
652
100
AcDbEntity
  8
P-0000
  6
Continuous
 62
     2
100
AcDbMText
 10
892.9365247938802
 20
191.2770097929256
 30
0.0
 40
7.0
 41
0.0
 71
     5
 72
     1
  1
65
 11
0.0000000000000001
 21
1.0
 31
0.0
 73
     1
 44
1.0
1001
ACAD
1000
MTEXTBEGIN
1070
    73
1070
     1
1070
    44
1040
1.0
1070
    74
1070
     0
1000
MTEXTEND
  0
POINT
  5
1259
330
652
100
AcDbEntity
  8
Defpoints
  6
Continuous
 62
     0
100
AcDbPoint
 10
842.4484492444998
 20
225.6768661209997
 30
0.0
  0
POINT
  5
125A
330
652
100
AcDbEntity
  8
Defpoints
  6
Continuous
 62
     0
100
AcDbPoint
 10
842.4484492444998
 20
160.6769311210001
 30
0.0
  0
POINT
  5
125B
330
652
100
AcDbEntity
  8
Defpoints
  6
Continuous
 62
     0
100
AcDbPoint
 10
900.4365247938801
 20
160.6769311210001
 30
0.0
  0
ENDBLK
  5
654
330
652
100
AcDbEntity
  8
0
100
AcDbBlockEnd
  0
BLOCK
  5
777
330
776
100
AcDbEntity
  8
0
100
AcDbBlockBegin
  2
*D14
 70
     1
 10
0.0
 20
0.0
 30
0.0
  3
*D14
  1

  0
LINE
  5
7AD
330
776
100
AcDbEntity
  8
AM_5
  6
ByBlock
 62
     0
370
    -2
100
AcDbLine
 10
55.94923424449999
 20
154.176937621
 30
0.0
 11
22.1741394253006
 21
154.176937621
 31
0.0
  0
LINE
  5
7AE
330
776
100
AcDbEntity
  8
AM_5
  6
ByBlock
 62
     0
370
    -2
100
AcDbLine
 10
55.94923424449999
 20
232.1768596209998
 30
0.0
 11
22.17413942530062
 21
232.1768596209998
 31
0.0
  0
LINE
  5
7AF
330
776
100
AcDbEntity
  8
AM_5
  6
ByBlock
 62
     0
370
    -2
100
AcDbLine
 10
23.6741394253006
 20
157.676937621
 30
0.0
 11
23.67413942530061
 21
190.8018986209999
 31
0.0
  0
LINE
  5
7B0
330
776
100
AcDbEntity
  8
AM_5
  6
ByBlock
 62
     0
370
    -2
100
AcDbLine
 10
23.67413942530061
 20
228.6768596209998
 30
0.0
 11
23.67413942530061
 21
195.5518986209999
 31
0.0
  0
INSERT
  5
7B1
330
776
100
AcDbEntity
  8
AM_5
 62
     0
370
    -2
100
AcDbBlockReference
  2
_FILLED
 10
23.6741394253006
 20
154.176937621
 30
0.0
 41
3.5
 42
3.5
 43
3.5
 50
270.0
  0
INSERT
  5
7B2
330
776
100
AcDbEntity
  8
AM_5
 62
     0
370
    -2
100
AcDbBlockReference
  2
_FILLED
 10
23.67413942530062
 20
232.1768596209998
 30
0.0
 41
3.5
 42
3.5
 43
3.5
 50
90.0
  0
MTEXT
  5
7B3
330
776
100
AcDbEntity
  8
AM_5
 62
     0
100
AcDbMText
 10
23.67413942530058
 20
193.1768986209999
 30
0.0
 40
3.5
 41
0.0
 71
     5
 72
     1
  1
\A1;78
 73
     1
 44
1.0
1001
ACAD
1000
MTEXTBEGIN
1070
    73
1070
     1
1070
    44
1040
1.0
1070
    74
1070
     0
1000
MTEXTEND
  0
POINT
  5
7B4
330
776
100
AcDbEntity
  8
Defpoints
 62
     0
100
AcDbPoint
 10
57.44923424449999
 20
154.176937621
 30
0.0
  0
POINT
  5
7B5
330
776
100
AcDbEntity
  8
Defpoints
 62
     0
100
AcDbPoint
 10
57.44923424449999
 20
232.1768596209998
 30
0.0
  0
POINT
  5
7B6
330
776
100
AcDbEntity
  8
Defpoints
 62
     0
100
AcDbPoint
 10
23.67413942530062
 20
232.1768596209998
 30
0.0
  0
ENDBLK
  5
778
330
776
100
AcDbEntity
  8
0
100
AcDbBlockEnd
  0
BLOCK
  5
7DD
330
7DA
100
AcDbEntity
  8
0
100
AcDbBlockBegin
  2
A$C0E781A52
 70
     0
 10
0.0
 20
0.0
 30
0.0
  3
A$C0E781A52
  1

  0
LINE
  5
7DE
330
7DA
100
AcDbEntity
  8
1
  6
Continuous
 62
     7
100
AcDbLine
 10
0.1804103420006982
 20
2.797282125081778
 30
0.0
 11
3.422077925632776
 21
0.1148616535334099
 31
0.0
  0
ARC
  5
7DF
330
7DA
100
AcDbEntity
  8
0
  6
Continuous
 62
     7
100
AcDbCircle
 10
45.04800184669045
 20
1.206633363728655
 30
0.0
 40
0.4999999999999
100
AcDbArc
 50
270.0
 51
327.7320039629247
  0
ARC
  5
7E0
330
7DA
100
AcDbEntity
  8
0
  6
Continuous
 62
     7
100
AcDbCircle
 10
8.559972029607536
 20
-57.51817726174016
 30
0.0
 40
68.63739729556728
100
AcDbArc
 50
58.1455963601836
 51
59.17545009944785
  0
ARC
  5
7E1
330
7DA
100
AcDbEntity
  8
0
  6
Continuous
 62
     7
100
AcDbCircle
 10
13.00196512089505
 20
-50.07720809618167
 30
0.0
 40
59.97141082580657
100
AcDbArc
 50
59.17706048359157
 51
60.32127519714825
  0
ARC
  5
7E2
330
7DA
100
AcDbEntity
  8
0
  6
Continuous
 62
     7
100
AcDbCircle
 10
15.73841337585122
 20
-45.2800609274592
 30
0.0
 40
54.44866109907503
100
AcDbArc
 50
60.32361945012056
 51
61.55794557985132
  0
ARC
  5
7E3
330
7DA
100
AcDbEntity
  8
0
  6
Continuous
 62
     7
100
AcDbCircle
 10
17.18783047808404
 20
-42.60960504599444
 30
0.0
 40
51.41021786050023
100
AcDbArc
 50
61.56085887977147
 51
62.85346071033675
  0
ARC
  5
7E4
330
7DA
100
AcDbEntity
  8
0
  6
Continuous
 62
     7
100
AcDbCircle
 10
17.60460676691321
 20
-41.8029789724711
 30
0.0
 40
50.50228616828832
100
AcDbArc
 50
62.85666879974455
 51
64.17067125963566
  0
ARC
  5
7E5
330
7DA
100
AcDbEntity
  8
0
  6
Continuous
 62
     7
100
AcDbCircle
 10
17.12718787428804
 20
-42.79583082376062
 30
0.0
 40
51.60395563872636
100
AcDbArc
 50
64.17384087031891
 51
65.47084405818296
  0
ARC
  5
7E6
330
7DA
100
AcDbEntity
  8
0
  6
Continuous
 62
     7
100
AcDbCircle
 10
16.85364458079755
 20
-43.37855385366242
 30
0.0
 40
52.2476516555216
100
AcDbArc
 50
65.46323906355509
 51
66.75219349361199
  0
ARC
  5
7E7
330
7DA
100
AcDbEntity
  8
0
  6
Continuous
 62
     7
100
AcDbCircle
 10
17.47484846506563
 20
-41.93063078904231
 30
0.0
 40
50.67209622977751
100
AcDbArc
 50
66.75135478726456
 51
68.1001451249906
  0
ARC
  5
7E8
330
7DA
100
AcDbEntity
  8
0
  6
Continuous
 62
     7
100
AcDbCircle
 10
18.19663812373034
 20
-40.13315543103368
 30
0.0
 40
48.73511470645314
100
AcDbArc
 50
68.09928827227243
 51
69.51808512945141
  0
ARC
  5
7E9
330
7DA
100
AcDbEntity
  8
0
  6
Continuous
 62
     7
100
AcDbCircle
 10
18.97137014765815
 20
-38.05697926577165
 30
0.0
 40
46.5191010262676
100
AcDbArc
 50
69.51719488064579
 51
71.01657733708551
  0
ARC
  5
7EA
330
7DA
100
AcDbEntity
  8
0
  6
Continuous
 62
     7
100
AcDbCircle
 10
19.75746785672075
 20
-35.76962336310493
 30
0.0
 40
44.10043484712618
100
AcDbArc
 50
71.01564130326771
 51
72.60675443271601
  0
ARC
  5
7EB
330
7DA
100
AcDbEntity
  8
0
  6
Continuous
 62
     7
100
AcDbCircle
 10
20.5195724314105
 20
-33.33433503075332
 30
0.0
 40
41.54868405678164
100
AcDbArc
 50
72.60576318558745
 51
74.30044495032031
  0
ARC
  5
7EC
330
7DA
100
AcDbEntity
  8
0
  6
Continuous
 62
     7
100
AcDbCircle
 10
21.22849367389364
 20
-30.80955011738325
 30
0.0
 40
38.9262600557346
100
AcDbArc
 50
74.29939264203767
 51
76.11026603025435
  0
ARC
  5
7ED
330
7DA
100
AcDbEntity
  8
0
  6
Continuous
 62
     7
100
AcDbCircle
 10
21.83484989352473
 20
-28.36269298800857
 30
0.0
 40
36.40539194902618
100
AcDbArc
 50
76.11223009812373
 51
77.69300363821732
  0
ARC
  5
7EE
330
7DA
100
AcDbEntity
  8
0
  6
Continuous
 62
     7
100
AcDbCircle
 10
22.29510619763408
 20
-26.25354683347121
 30
0.0
 40
34.24661142463819
100
AcDbArc
 50
77.69319696964188
 51
79.37324341816817
  0
ARC
  5
7EF
330
7DA
100
AcDbEntity
  8
0
  6
Continuous
 62
     7
100
AcDbCircle
 10
22.63611673005121
 20
-24.4369209376913
 30
0.0
 40
32.39825599283834
100
AcDbArc
 50
79.37352169854055
 51
81.15038153167851
  0
ARC
  5
7F0
330
7DA
100
AcDbEntity
  8
0
  6
Continuous
 62
     7
100
AcDbCircle
 10
22.87814201474873
 20
-22.88374330039608
 30
0.0
 40
30.82633456698479
100
AcDbArc
 50
81.15075471977798
 51
83.02095252368024
  0
ARC
  5
7F1
330
7DA
100
AcDbEntity
  8
0
  6
Continuous
 62
     7
100
AcDbCircle
 10
23.03898829847549
 20
-21.571799985886
 30
0.0
 40
29.50456805025867
100
AcDbArc
 50
83.02142838775941
 51
84.98036755383955
  0
ARC
  5
7F2
330
7DA
100
AcDbEntity
  8
0
  6
Continuous
 62
     7
100
AcDbCircle
 10
23.13481033432134
 20
-20.48415976222281
 30
0.0
 40
28.41271502359246
100
AcDbArc
 50
84.98095071755045
 51
87.02283695739216
  0
ARC
  5
7F3
330
7DA
100
AcDbEntity
  8
0
  6
Continuous
 62
     7
100
AcDbCircle
 10
23.1807090254452
 20
-19.60802433134029
 30
0.0
 40
27.53537821865629
100
AcDbArc
 50
87.02352797640406
 51
89.14133218568755
  0
ARC
  5
7F4
330
7DA
100
AcDbEntity
  8
0
  6
Continuous
 62
     7
100
AcDbCircle
 10
23.19118551396627
 20
-18.93387623996727
 30
0.0
 40
26.86114883360805
100
AcDbArc
 50
89.14212677455088
 51
91.32759686473871
  0
ARC
  5
7F5
330
7DA
100
AcDbEntity
  8
0
  6
Continuous
 62
     7
100
AcDbCircle
 10
23.18049301936557
 20
-18.45483868439481
 30
0.0
 40
26.38199213829719
100
AcDbArc
 50
91.32848540604047
 51
93.57221442365631
  0
ARC
  5
7F6
330
7DA
100
AcDbEntity
  8
0
  6
Continuous
 62
     7
100
AcDbCircle
 10
23.21728517095386
 20
-18.95612301733194
 30
0.0
 40
26.88459545742969
100
AcDbArc
 50
93.58390900124133
 51
95.76887855380647
  0
ARC
  5
7F7
330
7DA
100
AcDbEntity
  8
0
  6
Continuous
 62
     7
100
AcDbCircle
 10
23.33378450378746
 20
-20.1180268886261
 30
0.0
 40
28.05232486002862
100
AcDbArc
 50
95.76708019408741
 51
97.87607793188634
  0
ARC
  5
7F8
330
7DA
100
AcDbEntity
  8
0
  6
Continuous
 62
     7
100
AcDbCircle
 10
23.45166812867327
 20
-20.97644683313246
 30
0.0
 40
28.91880084651851
100
AcDbArc
 50
97.87437696996395
 51
99.92902988164081
  0
ARC
  5
7F9
330
7DA
100
AcDbEntity
  8
0
  6
Continuous
 62
     7
100
AcDbCircle
 10
23.54125696372262
 20
-21.49313292112481
 30
0.0
 40
29.44319570994876
100
AcDbArc
 50
99.9273869497928
 51
101.948373813573
  0
ARC
  5
7FA
330
7DA
100
AcDbEntity
  8
0
  6
Continuous
 62
     7
100
AcDbCircle
 10
23.57235999226447
 20
-21.64416747101262
 30
0.0
 40
29.59739730678429
100
AcDbArc
 50
101.9467485738444
 51
103.9542736501727
  0
ARC
  5
7FB
330
7DA
100
AcDbEntity
  8
0
  6
Continuous
 62
     7
100
AcDbCircle
 10
23.51628763885407
 20
-21.4220124537498
 30
0.0
 40
29.36827672687801
100
AcDbArc
 50
103.9526242118938
 51
105.9669036412664
  0
ARC
  5
7FC
330
7DA
100
AcDbEntity
  8
0
  6
Continuous
 62
     7
100
AcDbCircle
 10
23.34785694644876
 20
-20.83647660896821
 30
0.0
 40
28.75899816641539
100
AcDbArc
 50
105.9651855744431
 51
108.0069562766209
  0
ARC
  5
7FD
330
7DA
100
AcDbEntity
  8
0
  6
Continuous
 62
     7
100
AcDbCircle
 10
23.04721068066891
 20
-19.91444351263203
 30
0.0
 40
27.78918767553762
100
AcDbArc
 50
108.0051213778973
 51
110.0961858706264
  0
ARC
  5
7FE
330
7DA
100
AcDbEntity
  8
0
  6
Continuous
 62
     7
100
AcDbCircle
 10
22.60128356147754
 20
-18.69833733175733
 30
0.0
 40
26.49390224862399
100
AcDbArc
 50
110.0941808314606
 51
112.2580034235169
  0
ARC
  5
7FF
330
7DA
100
AcDbEntity
  8
0
  6
Continuous
 62
     7
100
AcDbCircle
 10
22.21416906038667
 20
-17.74601621980122
 30
0.0
 40
25.4659105657883
100
AcDbArc
 50
112.263512346903
 51
114.9511240237403
  0
ARC
  5
800
330
7DA
100
AcDbEntity
  8
0
  6
Continuous
 62
     7
100
AcDbCircle
 10
22.08204142455858
 20
-17.45966696524772
 30
0.0
 40
25.15054950761467
100
AcDbArc
 50
114.9534000896133
 51
117.6299252136796
  0
ARC
  5
801
330
7DA
100
AcDbEntity
  8
0
  6
Continuous
 62
     7
100
AcDbCircle
 10
22.09708075848536
 20
-17.48622739856478
 30
0.0
 40
25.18105567250576
100
AcDbArc
 50
117.6322156633998
 51
120.2711861145328
  0
ARC
  5
802
330
7DA
100
AcDbEntity
  8
0
  6
Continuous
 62
     7
100
AcDbCircle
 10
22.29060907263454
 20
-17.81584392636512
 30
0.0
 40
25.5632850693499
100
AcDbArc
 50
120.2733894862062
 51
122.8489107331922
  0
ARC
  5
803
330
7DA
100
AcDbEntity
  8
0
  6
Continuous
 62
     7
100
AcDbCircle
 10
22.69816450756719
 20
-18.44534747572271
 30
0.0
 40
26.31320193861302
100
AcDbArc
 50
122.8509359349622
 51
125.3387547577463
  0
ARC
  5
804
330
7DA
100
AcDbEntity
  8
0
  6
Continuous
 62
     7
100
AcDbCircle
 10
23.37427368795397
 20
-19.4010052066007
 30
0.0
 40
27.48384444556581
100
AcDbArc
 50
125.3361951337913
 51
126.7165139677333
  0
ARC
  5
805
330
7DA
100
AcDbEntity
  8
0
  6
Continuous
 62
     7
100
AcDbCircle
 10
23.63352388556257
 20
-19.7519055961128
 30
0.0
 40
27.92012178823597
100
AcDbArc
 50
126.7124668595815
 51
128.0530249087171
  0
ARC
  5
806
330
7DA
100
AcDbEntity
  8
0
  6
Continuous
 62
     7
100
AcDbCircle
 10
23.06503581705812
 20
-19.02897791804207
 30
0.0
 40
27.00044859202646
100
AcDbArc
 50
128.0486856291173
 51
129.3991188413632
  0
ARC
  5
807
330
7DA
100
AcDbEntity
  8
0
  6
Continuous
 62
     7
100
AcDbCircle
 10
21.62564586637058
 20
-17.28017250610111
 30
0.0
 40
24.73546335444294
100
AcDbArc
 50
129.3938384696908
 51
130.8102908200304
  0
ARC
  5
808
330
7DA
100
AcDbEntity
  8
0
  6
Continuous
 62
     7
100
AcDbCircle
 10
19.39823560090542
 20
-14.70474456562192
 30
0.0
 40
21.33044100790588
100
AcDbArc
 50
130.8030670651858
 51
132.3572776216216
  0
ARC
  5
809
330
7DA
100
AcDbEntity
  8
0
  6
Continuous
 62
     7
100
AcDbCircle
 10
17.71324097423718
 20
-12.84766670084298
 30
0.0
 40
18.82287179686266
100
AcDbArc
 50
132.3757513186106
 51
133.9652918369709
  0
ARC
  5
80A
330
7DA
100
AcDbEntity
  8
0
  6
Continuous
 62
     7
100
AcDbCircle
 10
17.7624989382337
 20
-12.89464608930223
 30
0.0
 40
18.89088190344111
100
AcDbArc
 50
133.9739048727402
 51
135.4734159684405
  0
ARC
  5
80B
330
7DA
100
AcDbEntity
  8
0
  6
Continuous
 62
     7
100
AcDbCircle
 10
20.81150689969468
 20
-15.89369086138401
 30
0.0
 40
23.16764693018205
100
AcDbArc
 50
135.4733967400406
 51
135.7540208597613
  0
ARC
  5
80C
330
7DA
100
AcDbEntity
  8
0
  6
Continuous
 62
     7
100
AcDbCircle
 10
22.03964845099597
 20
-17.09426218689589
 30
0.0
 40
24.88511430761064
100
AcDbArc
 50
135.7468680884805
 51
135.9704602591678
  0
ARC
  5
80D
330
7DA
100
AcDbEntity
  8
0
  6
Continuous
 62
     7
100
AcDbCircle
 10
13.40562440931234
 20
-8.754405538639105
 30
0.0
 40
12.88096762919273
100
AcDbArc
 50
135.9495756360727
 51
136.2405691756688
  0
ARC
  5
80E
330
7DA
100
AcDbEntity
  8
0
  6
Continuous
 62
     7
100
AcDbCircle
 10
13.03009950773719
 20
-8.323932991397498
 30
0.0
 40
17.51133587285095
100
AcDbArc
 50
136.1610518509782
 51
137.4410124279551
  0
ARC
  5
80F
330
7DA
100
AcDbEntity
  8
0
  6
Continuous
 62
     7
100
AcDbCircle
 10
15.44366191160674
 20
-10.63886034934683
 30
0.0
 40
20.85560991259476
100
AcDbArc
 50
135.0172507970638
 51
136.1664958032912
  0
ARC
  5
810
330
7DA
100
AcDbEntity
  8
0
  6
Continuous
 62
     7
100
AcDbCircle
 10
17.41771301441884
 20
-12.60951387348399
 30
0.0
 40
23.64493795263349
100
AcDbArc
 50
133.9509644580601
 51
135.0210373230508
  0
ARC
  5
811
330
7DA
100
AcDbEntity
  8
0
  6
Continuous
 62
     7
100
AcDbCircle
 10
19.14123076326893
 20
-14.40039159083437
 30
0.0
 40
26.13044641947481
100
AcDbArc
 50
132.3858934460549
 51
133.9463025781926
  0
ARC
  5
812
330
7DA
100
AcDbEntity
  8
0
  6
Continuous
 62
     7
100
AcDbCircle
 10
20.60321899151523
 20
-15.99971902998158
 30
0.0
 40
28.29730015642788
100
AcDbArc
 50
130.866875792443
 51
132.3893683644171
  0
ARC
  5
813
330
7DA
100
AcDbEntity
  8
0
  6
Continuous
 62
     7
100
AcDbCircle
 10
21.52367581403308
 20
-17.06141637370359
 30
0.0
 40
29.70244788097182
100
AcDbArc
 50
129.3508579178439
 51
130.8695884431074
  0
ARC
  5
814
330
7DA
100
AcDbEntity
  8
0
  6
Continuous
 62
     7
100
AcDbCircle
 10
21.94988950289007
 20
-17.57931862165202
 30
0.0
 40
30.37317841322053
100
AcDbArc
 50
127.8102740360907
 51
129.3531150772557
  0
ARC
  5
815
330
7DA
100
AcDbEntity
  8
0
  6
Continuous
 62
     7
100
AcDbCircle
 10
22.89821296590648
 20
-18.81269368250548
 30
0.0
 40
31.92896957264182
100
AcDbArc
 50
126.0258076105542
 51
127.7978908667842
  0
ARC
  5
816
330
7DA
100
AcDbEntity
  8
0
  6
Continuous
 62
     7
100
AcDbCircle
 10
24.13572475707929
 20
-20.50954412039624
 30
0.0
 40
34.02914320413176
100
AcDbArc
 50
124.3247515298934
 51
126.0305867526539
  0
ARC
  5
817
330
7DA
100
AcDbEntity
  8
0
  6
Continuous
 62
     7
100
AcDbCircle
 10
24.5907020410352
 20
-21.17139218774031
 30
0.0
 40
34.83228757997454
100
AcDbArc
 50
122.6361794126242
 51
124.3289302074356
  0
ARC
  5
818
330
7DA
100
AcDbEntity
  8
0
  6
Continuous
 62
     7
100
AcDbCircle
 10
24.31494388330595
 20
-20.73634004363731
 30
0.0
 40
34.31720791982028
100
AcDbArc
 50
120.911476579079
 51
122.6401956388178
  0
ARC
  5
819
330
7DA
100
AcDbEntity
  8
0
  6
Continuous
 62
     7
100
AcDbCircle
 10
23.43329042452024
 20
-19.25918233564033
 30
0.0
 40
32.59694584660325
100
AcDbArc
 50
119.1014408991196
 51
120.9157128256141
  0
ARC
  5
81A
330
7DA
100
AcDbEntity
  8
0
  6
Continuous
 62
     7
100
AcDbCircle
 10
22.11858202432757
 20
-16.89205068490429
 30
0.0
 40
29.88922292206572
100
AcDbArc
 50
117.151915907914
 51
119.1062951325601
  0
ARC
  5
81B
330
7DA
100
AcDbEntity
  8
0
  6
Continuous
 62
     7
100
AcDbCircle
 10
21.11580603036364
 20
-14.94857832407371
 30
0.0
 40
27.70230420546279
100
AcDbArc
 50
115.0705043407425
 51
117.1408227111033
  0
ARC
  5
81C
330
7DA
100
AcDbEntity
  8
0
  6
Continuous
 62
     7
100
AcDbCircle
 10
20.81479569931497
 20
-14.30823645636098
 30
0.0
 40
26.99474279713851
100
AcDbArc
 50
112.9771673359808
 51
115.067708688527
  0
ARC
  5
81D
330
7DA
100
AcDbEntity
  8
0
  6
Continuous
 62
     7
100
AcDbCircle
 10
20.77500611422087
 20
-14.21794678429148
 30
0.0
 40
26.89608426687829
100
AcDbArc
 50
110.897688773589
 51
112.9742130064778
  0
ARC
  5
81E
330
7DA
100
AcDbEntity
  8
0
  6
Continuous
 62
     7
100
AcDbCircle
 10
20.96062685860013
 20
-14.70801925327549
 30
0.0
 40
27.42013022563958
100
AcDbArc
 50
108.8670946930891
 51
110.894766320427
  0
ARC
  5
81F
330
7DA
100
AcDbEntity
  8
0
  6
Continuous
 62
     7
100
AcDbCircle
 10
21.3460217664078
 20
-15.83995180549971
 30
0.0
 40
28.61587216802425
100
AcDbArc
 50
106.9188453781122
 51
108.8643927356788
  0
ARC
  5
820
330
7DA
100
AcDbEntity
  8
0
  6
Continuous
 62
     7
100
AcDbCircle
 10
21.91508436094331
 20
-17.7150019276081
 30
0.0
 40
30.57537306378335
100
AcDbArc
 50
105.082827813907
 51
106.9165238356157
  0
ARC
  5
821
330
7DA
100
AcDbEntity
  8
0
  6
Continuous
 62
     7
100
AcDbCircle
 10
22.66136008667581
 20
-20.48822681769042
 30
0.0
 40
33.44725445182454
100
AcDbArc
 50
103.3837949108977
 51
105.0809981998195
  0
ARC
  5
822
330
7DA
100
AcDbEntity
  8
0
  6
Continuous
 62
     7
100
AcDbCircle
 10
23.38443998757421
 20
-23.51952303104685
 30
0.0
 40
36.56359820361403
100
AcDbArc
 50
101.3524685453486
 51
103.3865834890523
  0
ARC
  5
823
330
7DA
100
AcDbEntity
  8
0
  6
Continuous
 62
     7
100
AcDbCircle
 10
23.77945514022199
 20
-25.47518142081794
 30
0.0
 40
38.55875022141326
100
AcDbArc
 50
99.3956642121298
 51
101.3559261236712
  0
ARC
  5
824
330
7DA
100
AcDbEntity
  8
0
  6
Continuous
 62
     7
100
AcDbCircle
 10
23.95803100786773
 20
-26.54115827045553
 30
0.0
 40
39.63957928013001
100
AcDbArc
 50
97.47276864505117
 51
99.39878353425379
  0
ARC
  5
825
330
7DA
100
AcDbEntity
  8
0
  6
Continuous
 62
     7
100
AcDbCircle
 10
23.97389073317265
 20
-26.64619693336891
 30
0.0
 40
39.74578851679549
100
AcDbArc
 50
95.54708606284542
 51
97.47574434160355
  0
ARC
  5
826
330
7DA
100
AcDbEntity
  8
0
  6
Continuous
 62
     7
100
AcDbCircle
 10
23.89298345047055
 20
-25.79200646727134
 30
0.0
 40
38.88777739576315
100
AcDbArc
 50
93.58249455268007
 51
95.55009296876871
  0
ARC
  5
827
330
7DA
100
AcDbEntity
  8
0
  6
Continuous
 62
     7
100
AcDbCircle
 10
23.7860497272913
 20
-24.05070458025182
 30
0.0
 40
37.14319648715861
100
AcDbArc
 50
91.54146209638044
 51
93.58570542947839
  0
ARC
  5
828
330
7DA
100
AcDbEntity
  8
0
  6
Continuous
 62
     7
100
AcDbCircle
 10
23.72105201550346
 20
-21.55437448558246
 30
0.0
 40
34.64602137140378
100
AcDbArc
 50
89.38298936208672
 51
91.54506387069648
  0
ARC
  5
829
330
7DA
100
AcDbEntity
  8
0
  6
Continuous
 62
     7
100
AcDbCircle
 10
23.7381506272958
 20
-19.49137450810349
 30
0.0
 40
32.58295728713175
100
AcDbArc
 50
87.21693062506131
 51
89.37398935504722
  0
ARC
  5
82A
330
7DA
100
AcDbEntity
  8
0
  6
Continuous
 62
     7
100
AcDbCircle
 10
23.77295645401665
 20
-18.7456201915803
 30
0.0
 40
31.83639261541338
100
AcDbArc
 50
85.03642855246772
 51
87.21432998169069
  0
ARC
  5
82B
330
7DA
100
AcDbEntity
  8
0
  6
Continuous
 62
     7
100
AcDbCircle
 10
23.78089042409573
 20
-18.63681767908861
 30
0.0
 40
31.72731169232176
100
AcDbArc
 50
82.86646526772605
 51
85.03370233583744
  0
ARC
  5
82C
330
7DA
100
AcDbEntity
  8
0
  6
Continuous
 62
     7
100
AcDbCircle
 10
23.71262349779008
 20
-19.17009130910532
 30
0.0
 40
32.2649350545325
100
AcDbArc
 50
80.73912540887972
 51
82.86377427494207
  0
ARC
  5
82D
330
7DA
100
AcDbEntity
  8
0
  6
Continuous
 62
     7
100
AcDbCircle
 10
23.51422357517884
 20
-20.37778282219711
 30
0.0
 40
33.48881383349525
100
AcDbArc
 50
78.68510317999382
 51
80.73662702343074
  0
ARC
  5
82E
330
7DA
100
AcDbEntity
  8
0
  6
Continuous
 62
     7
100
AcDbCircle
 10
23.12341206274579
 20
-22.32410517249213
 30
0.0
 40
35.47398451173118
100
AcDbArc
 50
76.73203593206064
 51
78.68293081010931
  0
ARC
  5
82F
330
7DA
100
AcDbEntity
  8
0
  6
Continuous
 62
     7
100
AcDbCircle
 10
22.46459983001233
 20
-25.1129459094152
 30
0.0
 40
38.33958478781868
100
AcDbArc
 50
74.90320054918928
 51
76.73028398665419
  0
ARC
  5
830
330
7DA
100
AcDbEntity
  8
0
  6
Continuous
 62
     7
100
AcDbCircle
 10
21.3096586305914
 20
-29.37931007823869
 30
0.0
 40
42.75950998288297
100
AcDbArc
 50
73.11925893731835
 51
74.89796948321309
  0
ARC
  5
831
330
7DA
100
AcDbEntity
  8
0
  6
Continuous
 62
     7
100
AcDbCircle
 10
19.81791759355951
 20
-34.30434752323601
 30
0.0
 40
47.90550636711753
100
AcDbArc
 50
71.51644399206118
 51
73.12245393715006
  0
ARC
  5
832
330
7DA
100
AcDbEntity
  8
0
  6
Continuous
 62
     7
100
AcDbCircle
 10
18.31182593922705
 20
-38.81760644183612
 30
0.0
 40
52.66342741275303
100
AcDbArc
 50
70.05055534684728
 51
71.51910971081434
  0
ARC
  5
833
330
7DA
100
AcDbEntity
  8
0
  6
Continuous
 62
     7
100
AcDbCircle
 10
16.91625555095774
 20
-42.66912769663814
 30
0.0
 40
56.75999034750621
100
AcDbArc
 50
68.69186217168958
 51
70.05285285682403
  0
ARC
  5
834
330
7DA
100
AcDbEntity
  8
0
  6
Continuous
 62
     7
100
AcDbCircle
 10
15.77564402205317
 20
-45.5993615578556
 30
0.0
 40
59.90439183602227
100
AcDbArc
 50
67.41425775897417
 51
68.69392802130646
  0
ARC
  5
835
330
7DA
100
AcDbEntity
  8
0
  6
Continuous
 62
     7
100
AcDbCircle
 10
15.04703616037454
 20
-47.35646160954956
 30
0.0
 40
61.80656577057092
100
AcDbArc
 50
66.19377894974511
 51
67.41621725471062
  0
ARC
  5
836
330
7DA
100
AcDbEntity
  8
0
  6
Continuous
 62
     7
100
AcDbCircle
 10
14.88875256245174
 20
-47.72056275042625
 30
0.0
 40
62.20357803688054
100
AcDbArc
 50
65.00718319692876
 51
66.19576051562368
  0
ARC
  5
837
330
7DA
100
AcDbEntity
  8
0
  6
Continuous
 62
     7
100
AcDbCircle
 10
16.13563035403112
 20
-45.06235767478858
 30
0.0
 40
59.26747402448494
100
AcDbArc
 50
63.83684387896104
 51
65.0139668967849
  0
ARC
  5
838
330
7DA
100
AcDbEntity
  8
0
  6
Continuous
 62
     7
100
AcDbCircle
 10
17.45865079502397
 20
-42.36196086406875
 30
0.0
 40
56.26039651863166
100
AcDbArc
 50
62.6148805914699
 51
63.8335685495565
  0
ARC
  5
839
330
7DA
100
AcDbEntity
  8
0
  6
Continuous
 62
     7
100
AcDbCircle
 10
17.60537533956696
 20
-42.07112359079684
 30
0.0
 40
55.93466329965728
100
AcDbArc
 50
61.39251805860881
 51
62.61130121522095
  0
ARC
  5
83A
330
7DA
100
AcDbEntity
  8
0
  6
Continuous
 62
     7
100
AcDbCircle
 10
16.46942391363873
 20
-44.14663527036907
 30
0.0
 40
58.30069850174923
100
AcDbArc
 50
60.2125911408746
 51
61.38907199629522
  0
ARC
  5
83B
330
7DA
100
AcDbEntity
  8
0
  6
Continuous
 62
     7
100
AcDbCircle
 10
13.77859916208109
 20
-48.84097922375399
 30
0.0
 40
63.71155734914164
100
AcDbArc
 50
59.11391322883144
 51
60.2096889886137
  0
ARC
  5
83C
330
7DA
100
AcDbEntity
  8
0
  6
Continuous
 62
     7
100
AcDbCircle
 10
9.031204081933083
 20
-56.77253108890266
 30
0.0
 40
72.95532654552217
100
AcDbArc
 50
58.12713259862445
 51
59.11184090180585
  0
ARC
  5
83D
330
7DA
100
AcDbEntity
  8
0
  6
Continuous
 62
     7
100
AcDbCircle
 10
47.29034075564061
 20
4.758053239186494
 30
0.0
 40
0.5000000000002001
100
AcDbArc
 50
0.0
 51
58.14039787335364
  0
ARC
  5
83E
330
7DA
100
AcDbEntity
  8
0
  6
Continuous
 62
     7
100
AcDbCircle
 10
0.4999997456615122
 20
3.181811204694098
 30
0.0
 40
0.49999999999969
100
AcDbArc
 50
180.0
 51
230.2693875489103
  0
ARC
  5
83F
330
7DA
100
AcDbEntity
  8
0
  6
Continuous
 62
     7
100
AcDbCircle
 10
3.740932686084191
 20
0.5000001243946031
 30
0.0
 40
0.4999999999998
100
AcDbArc
 50
270.0
 51
316.287993867738
  0
ARC
  5
840
330
7DA
100
AcDbEntity
  8
0
  6
Continuous
 62
     7
100
AcDbCircle
 10
45.04800184669045
 20
1.206633363728655
 30
0.0
 40
0.4999999999999902
100
AcDbArc
 50
238.1589909308349
 51
270.0
  0
ARC
  5
841
330
7DA
100
AcDbEntity
  8
0
  6
Continuous
 62
     7
100
AcDbCircle
 10
47.29034075564061
 20
4.758053239186494
 30
0.0
 40
0.5000000000002001
100
AcDbArc
 50
327.7320039629057
 51
0.0
  0
ARC
  5
842
330
7DA
100
AcDbEntity
  8
0
  6
Continuous
 62
     7
100
AcDbCircle
 10
3.740932686084191
 20
0.5000001243946031
 30
0.0
 40
0.49999999999983
100
AcDbArc
 50
230.3787644936456
 51
270.0
  0
ARC
  5
843
330
7DA
100
AcDbEntity
  8
0
  6
Continuous
 62
     7
100
AcDbCircle
 10
0.4999997456615122
 20
3.181811204694098
 30
0.0
 40
0.49999999999969
100
AcDbArc
 50
137.4637137985312
 51
180.0
  0
LWPOLYLINE
  5
844
330
7DA
100
AcDbEntity
  8
0
  6
Continuous
 62
     7
100
AcDbPolyline
 90
        3
 70
     0
 43
0.0
 10
47.71312084411761
 20
4.491113177023521
 10
45.47078193516734
 20
0.9396933015659099
 10
45.47078193516734
 20
0.9396933015659099
  0
ENDBLK
  5
845
330
7DA
100
AcDbEntity
  8
0
100
AcDbBlockEnd
  0
BLOCK
  5
847
330
846
100
AcDbEntity
  8
0
100
AcDbBlockBegin
  2
*D16
 70
     1
 10
0.0
 20
0.0
 30
0.0
  3
*D16
  1

  0
LINE
  5
848
330
846
100
AcDbEntity
  8
5
370
    -2
100
AcDbLine
 10
153.1377928912902
 20
661.1357238134575
 30
0.0
 11
153.1377928912902
 21
695.8751203907643
 31
0.0
  0
LINE
  5
849
330
846
100
AcDbEntity
  8
5
370
    -2
100
AcDbLine
 10
1146.13779289129
 20
661.1357238134575
 30
0.0
 11
1146.13779289129
 21
695.8751203907643
 31
0.0
  0
LINE
  5
84A
330
846
100
AcDbEntity
  8
5
370
    -2
100
AcDbLine
 10
165.6377928912902
 20
690.8751203907643
 30
0.0
 11
1133.63779289129
 21
690.8751203907643
 31
0.0
  0
SOLID
  5
84B
330
846
100
AcDbEntity
  8
5
100
AcDbTrace
 10
165.6377928912902
 20
692.9584537240977
 30
0.0
 11
165.6377928912902
 21
688.7917870574307
 31
0.0
 12
153.1377928912902
 22
690.8751203907643
 32
0.0
 13
153.1377928912902
 23
690.8751203907643
 33
0.0
  0
SOLID
  5
84C
330
846
100
AcDbEntity
  8
5
100
AcDbTrace
 10
1133.63779289129
 20
692.9584537240977
 30
0.0
 11
1133.63779289129
 21
688.7917870574307
 31
0.0
 12
1146.13779289129
 22
690.8751203907643
 32
0.0
 13
1146.13779289129
 23
690.8751203907643
 33
0.0
  0
MTEXT
  5
84D
330
846
100
AcDbEntity
  8
5
 62
     2
100
AcDbMText
 10
649.6377928912902
 20
702.6251203907643
 30
0.0
 40
17.5
 41
0.0
 71
     5
 72
     1
  1
993
 73
     1
 44
1.0
1001
ACAD
1000
MTEXTBEGIN
1070
    73
1070
     1
1070
    44
1040
1.0
1070
    74
1070
     0
1000
MTEXTEND
  0
POINT
  5
84E
330
846
100
AcDbEntity
  8
Defpoints
 62
     0
100
AcDbPoint
 10
153.1377928912902
 20
656.1357238134576
 30
0.0
  0
POINT
  5
84F
330
846
100
AcDbEntity
  8
Defpoints
 62
     0
100
AcDbPoint
 10
1146.13779289129
 20
656.1357238134575
 30
0.0
  0
POINT
  5
850
330
846
100
AcDbEntity
  8
Defpoints
 62
     0
100
AcDbPoint
 10
1146.13779289129
 20
690.8751203907643
 30
0.0
  0
ENDBLK
  5
851
330
846
100
AcDbEntity
  8
0
100
AcDbBlockEnd
  0
BLOCK
  5
853
330
852
100
AcDbEntity
  8
0
100
AcDbBlockBegin
  2
*D17
 70
     1
 10
0.0
 20
0.0
 30
0.0
  3
*D17
  1

  0
LINE
  5
854
330
852
100
AcDbEntity
  8
5
370
    -2
100
AcDbLine
 10
148.1377928912902
 20
579.1357238134576
 30
0.0
 11
128.5959867030825
 21
579.1357238134576
 31
0.0
  0
LINE
  5
855
330
852
100
AcDbEntity
  8
5
370
    -2
100
AcDbLine
 10
148.1377928912902
 20
656.1357238134576
 30
0.0
 11
128.5959867030825
 21
656.1357238134576
 31
0.0
  0
LINE
  5
856
330
852
100
AcDbEntity
  8
5
370
    -2
100
AcDbLine
 10
133.5959867030825
 20
591.6357238134576
 30
0.0
 11
133.5959867030825
 21
643.6357238134576
 31
0.0
  0
SOLID
  5
857
330
852
100
AcDbEntity
  8
5
100
AcDbTrace
 10
131.5126533697492
 20
591.6357238134576
 30
0.0
 11
135.6793200364158
 21
591.6357238134576
 31
0.0
 12
133.5959867030825
 22
579.1357238134576
 32
0.0
 13
133.5959867030825
 23
579.1357238134576
 33
0.0
  0
SOLID
  5
858
330
852
100
AcDbEntity
  8
5
100
AcDbTrace
 10
131.5126533697492
 20
643.6357238134576
 30
0.0
 11
135.6793200364158
 21
643.6357238134576
 31
0.0
 12
133.5959867030825
 22
656.1357238134576
 32
0.0
 13
133.5959867030825
 23
656.1357238134576
 33
0.0
  0
MTEXT
  5
859
330
852
100
AcDbEntity
  8
5
 62
     2
100
AcDbMText
 10
121.8459867030824
 20
617.6357238134576
 30
0.0
 40
17.5
 41
0.0
 71
     5
 72
     1
  1
77
 11
0.0000000000000001
 21
1.0
 31
0.0
 73
     1
 44
1.0
1001
ACAD
1000
MTEXTBEGIN
1070
    73
1070
     1
1070
    44
1040
1.0
1070
    74
1070
     0
1000
MTEXTEND
  0
POINT
  5
85A
330
852
100
AcDbEntity
  8
Defpoints
 62
     0
100
AcDbPoint
 10
153.1377928912902
 20
579.1357238134576
 30
0.0
  0
POINT
  5
85B
330
852
100
AcDbEntity
  8
Defpoints
 62
     0
100
AcDbPoint
 10
153.1377928912902
 20
656.1357238134576
 30
0.0
  0
POINT
  5
85C
330
852
100
AcDbEntity
  8
Defpoints
 62
     0
100
AcDbPoint
 10
133.5959867030825
 20
656.1357238134576
 30
0.0
  0
ENDBLK
  5
85D
330
852
100
AcDbEntity
  8
0
100
AcDbBlockEnd
  0
BLOCK
  5
927
330
926
100
AcDbEntity
  8
0
100
AcDbBlockBegin
  2
*D18
 70
     1
 10
0.0
 20
0.0
 30
0.0
  3
*D18
  1

  0
LINE
  5
93E
330
926
100
AcDbEntity
  8
5
370
    -2
100
AcDbLine
 10
168.9872902691467
 20
-107.4464965211999
 30
0.0
 11
168.9872902691467
 21
-72.70709994389322
 31
0.0
  0
LINE
  5
93F
330
926
100
AcDbEntity
  8
5
370
    -2
100
AcDbLine
 10
1161.987290269146
 20
-107.4464965212
 30
0.0
 11
1161.987290269146
 21
-72.70709994389322
 31
0.0
  0
LINE
  5
940
330
926
100
AcDbEntity
  8
5
370
    -2
100
AcDbLine
 10
181.4872902691467
 20
-77.70709994389322
 30
0.0
 11
1149.487290269146
 21
-77.70709994389322
 31
0.0
  0
SOLID
  5
941
330
926
100
AcDbEntity
  8
5
100
AcDbTrace
 10
181.4872902691467
 20
-75.62376661055989
 30
0.0
 11
181.4872902691467
 21
-79.79043327722656
 31
0.0
 12
168.9872902691467
 22
-77.70709994389322
 32
0.0
 13
168.9872902691467
 23
-77.70709994389322
 33
0.0
  0
SOLID
  5
942
330
926
100
AcDbEntity
  8
5
100
AcDbTrace
 10
1149.487290269146
 20
-75.62376661055989
 30
0.0
 11
1149.487290269146
 21
-79.79043327722656
 31
0.0
 12
1161.987290269146
 22
-77.70709994389322
 32
0.0
 13
1161.987290269146
 23
-77.70709994389322
 33
0.0
  0
MTEXT
  5
943
330
926
100
AcDbEntity
  8
5
 62
     2
100
AcDbMText
 10
665.4872902691466
 20
-65.95709994389324
 30
0.0
 40
17.5
 41
0.0
 71
     5
 72
     1
  1
993
 73
     1
 44
1.0
1001
ACAD
1000
MTEXTBEGIN
1070
    73
1070
     1
1070
    44
1040
1.0
1070
    74
1070
     0
1000
MTEXTEND
  0
POINT
  5
944
330
926
100
AcDbEntity
  8
Defpoints
 62
     0
100
AcDbPoint
 10
168.9872902691467
 20
-112.4464965211999
 30
0.0
  0
POINT
  5
945
330
926
100
AcDbEntity
  8
Defpoints
 62
     0
100
AcDbPoint
 10
1161.987290269146
 20
-112.4464965212
 30
0.0
  0
POINT
  5
946
330
926
100
AcDbEntity
  8
Defpoints
 62
     0
100
AcDbPoint
 10
1161.987290269146
 20
-77.70709994389322
 30
0.0
  0
ENDBLK
  5
928
330
926
100
AcDbEntity
  8
0
100
AcDbBlockEnd
  0
BLOCK
  5
933
330
932
100
AcDbEntity
  8
0
100
AcDbBlockBegin
  2
*D19
 70
     1
 10
0.0
 20
0.0
 30
0.0
  3
*D19
  1

  0
LINE
  5
935
330
932
100
AcDbEntity
  8
5
370
    -2
100
AcDbLine
 10
163.9872902691467
 20
-189.4464965211999
 30
0.0
 11
144.4454840809389
 21
-189.4464965211999
 31
0.0
  0
LINE
  5
936
330
932
100
AcDbEntity
  8
5
370
    -2
100
AcDbLine
 10
163.9872902691467
 20
-112.4464965211999
 30
0.0
 11
144.4454840809389
 21
-112.4464965211999
 31
0.0
  0
LINE
  5
937
330
932
100
AcDbEntity
  8
5
370
    -2
100
AcDbLine
 10
149.4454840809389
 20
-176.9464965211999
 30
0.0
 11
149.4454840809389
 21
-124.9464965211999
 31
0.0
  0
SOLID
  5
938
330
932
100
AcDbEntity
  8
5
100
AcDbTrace
 10
147.3621507476056
 20
-176.9464965211999
 30
0.0
 11
151.5288174142723
 21
-176.9464965211999
 31
0.0
 12
149.4454840809389
 22
-189.4464965211999
 32
0.0
 13
149.4454840809389
 23
-189.4464965211999
 33
0.0
  0
SOLID
  5
939
330
932
100
AcDbEntity
  8
5
100
AcDbTrace
 10
147.3621507476056
 20
-124.9464965211999
 30
0.0
 11
151.5288174142723
 21
-124.9464965211999
 31
0.0
 12
149.4454840809389
 22
-112.4464965211999
 32
0.0
 13
149.4454840809389
 23
-112.4464965211999
 33
0.0
  0
MTEXT
  5
93A
330
932
100
AcDbEntity
  8
5
 62
     2
100
AcDbMText
 10
137.6954840809389
 20
-150.9464965211999
 30
0.0
 40
17.5
 41
0.0
 71
     5
 72
     1
  1
77
 11
0.0000000000000001
 21
1.0
 31
0.0
 73
     1
 44
1.0
1001
ACAD
1000
MTEXTBEGIN
1070
    73
1070
     1
1070
    44
1040
1.0
1070
    74
1070
     0
1000
MTEXTEND
  0
POINT
  5
93B
330
932
100
AcDbEntity
  8
Defpoints
 62
     0
100
AcDbPoint
 10
168.9872902691467
 20
-189.4464965211999
 30
0.0
  0
POINT
  5
93C
330
932
100
AcDbEntity
  8
Defpoints
 62
     0
100
AcDbPoint
 10
168.9872902691467
 20
-112.4464965211999
 30
0.0
  0
POINT
  5
93D
330
932
100
AcDbEntity
  8
Defpoints
 62
     0
100
AcDbPoint
 10
149.4454840809389
 20
-112.4464965211999
 30
0.0
  0
ENDBLK
  5
934
330
932
100
AcDbEntity
  8
0
100
AcDbBlockEnd
  0
BLOCK
  5
AE3
330
AE2
100
AcDbEntity
  8
0
100
AcDbBlockBegin
  2
*D20
 70
     1
 10
0.0
 20
0.0
 30
0.0
  3
*D20
  1

  0
LINE
  5
124A
330
AE2
100
AcDbEntity
  8
P-0000
  6
Continuous
 62
     3
370
    -2
100
AcDbLine
 10
57.44923424449999
 20
231.884888912971
 30
0.0
 11
57.44923424449999
 21
261.0197056176228
 31
0.0
  0
LINE
  5
124B
330
AE2
100
AcDbEntity
  8
P-0000
  6
Continuous
 62
     3
370
    -2
100
AcDbLine
 10
842.4484492444998
 20
231.8848879129718
 30
0.0
 11
842.4484492444998
 21
261.0197056176228
 31
0.0
  0
LINE
  5
124C
330
AE2
100
AcDbEntity
  8
P-0000
  6
Continuous
 62
     3
370
    -2
100
AcDbLine
 10
63.74923424449999
 20
257.0197056176228
 30
0.0
 11
836.1484492444997
 21
257.0197056176228
 31
0.0
  0
SOLID
  5
124D
330
AE2
100
AcDbEntity
  8
P-0000
  6
Continuous
 62
     3
100
AcDbTrace
 10
63.74923424449999
 20
258.0697056176228
 30
0.0
 11
63.74923424449999
 21
255.9697056176228
 31
0.0
 12
57.44923424449999
 22
257.0197056176228
 32
0.0
 13
57.44923424449999
 23
257.0197056176228
 33
0.0
  0
SOLID
  5
124E
330
AE2
100
AcDbEntity
  8
P-0000
  6
Continuous
 62
     3
100
AcDbTrace
 10
836.1484492444997
 20
258.0697056176228
 30
0.0
 11
836.1484492444997
 21
255.9697056176228
 31
0.0
 12
842.4484492444998
 22
257.0197056176228
 32
0.0
 13
842.4484492444998
 23
257.0197056176228
 33
0.0
  0
MTEXT
  5
124F
330
AE2
100
AcDbEntity
  8
P-0000
  6
Continuous
 62
     2
100
AcDbMText
 10
465.6195347371481
 20
264.5197056176228
 30
0.0
 40
7.0
 41
0.0
 71
     5
 72
     1
  1
785
 73
     1
 44
1.0
1001
ACAD
1000
MTEXTBEGIN
1070
    73
1070
     1
1070
    44
1040
1.0
1070
    74
1070
     0
1000
MTEXTEND
  0
POINT
  5
1250
330
AE2
100
AcDbEntity
  8
Defpoints
  6
Continuous
 62
     0
100
AcDbPoint
 10
57.44923424449999
 20
231.884888912971
 30
0.0
  0
POINT
  5
1251
330
AE2
100
AcDbEntity
  8
Defpoints
  6
Continuous
 62
     0
100
AcDbPoint
 10
842.4484492444998
 20
231.8848879129718
 30
0.0
  0
POINT
  5
1252
330
AE2
100
AcDbEntity
  8
Defpoints
  6
Continuous
 62
     0
100
AcDbPoint
 10
842.4484492444998
 20
257.0197056176228
 30
0.0
  0
ENDBLK
  5
AE4
330
AE2
100
AcDbEntity
  8
0
100
AcDbBlockEnd
  0
BLOCK
  5
C27
330
C26
100
AcDbEntity
  8
0
100
AcDbBlockBegin
  2
*D22
 70
     1
 10
0.0
 20
0.0
 30
0.0
  3
*D22
  1

  0
LINE
  5
C28
330
C26
100
AcDbEntity
  8
P-0000
  6
Continuous
 62
     3
370
    -2
100
AcDbLine
 10
124.377805686485
 20
185.6611839091726
 30
0.0
 11
124.377805686485
 21
142.0758713770499
 31
0.0
  0
LINE
  5
C29
330
C26
100
AcDbEntity
  8
P-0000
  6
Continuous
 62
     3
370
    -2
100
AcDbLine
 10
161.877430686485
 20
185.6611839091726
 30
0.0
 11
161.877430686485
 21
142.0758713770499
 31
0.0
  0
LINE
  5
C2A
330
C26
100
AcDbEntity
  8
P-0000
  6
Continuous
 62
     3
370
    -2
100
AcDbLine
 10
130.677805686485
 20
146.0758713770499
 30
0.0
 11
155.577430686485
 21
146.0758713770499
 31
0.0
  0
SOLID
  5
C2B
330
C26
100
AcDbEntity
  8
P-0000
  6
Continuous
 62
     3
100
AcDbTrace
 10
130.677805686485
 20
147.1258713770499
 30
0.0
 11
130.677805686485
 21
145.0258713770499
 31
0.0
 12
124.377805686485
 22
146.0758713770499
 32
0.0
 13
124.377805686485
 23
146.0758713770499
 33
0.0
  0
SOLID
  5
C2C
330
C26
100
AcDbEntity
  8
P-0000
  6
Continuous
 62
     3
100
AcDbTrace
 10
155.577430686485
 20
147.1258713770499
 30
0.0
 11
155.577430686485
 21
145.0258713770499
 31
0.0
 12
161.877430686485
 22
146.0758713770499
 32
0.0
 13
161.877430686485
 23
146.0758713770499
 33
0.0
  0
MTEXT
  5
C2D
330
C26
100
AcDbEntity
  8
P-0000
  6
Continuous
 62
     2
100
AcDbMText
 10
144.999694434159
 20
153.5758713770499
 30
0.0
 40
7.0
 41
0.0
 71
     5
 72
     1
  1
%%c37.5
 73
     1
 44
1.0
1001
ACAD
1000
MTEXTBEGIN
1070
    73
1070
     1
1070
    44
1040
1.0
1070
    74
1070
     0
1000
MTEXTEND
  0
POINT
  5
C2E
330
C26
100
AcDbEntity
  8
Defpoints
  6
Continuous
 62
     0
100
AcDbPoint
 10
124.377805686485
 20
185.6611839091726
 30
0.0
  0
POINT
  5
C2F
330
C26
100
AcDbEntity
  8
Defpoints
  6
Continuous
 62
     0
100
AcDbPoint
 10
161.877430686485
 20
185.6611839091726
 30
0.0
  0
POINT
  5
C30
330
C26
100
AcDbEntity
  8
Defpoints
  6
Continuous
 62
     0
100
AcDbPoint
 10
161.877430686485
 20
146.0758713770499
 30
0.0
  0
ENDBLK
  5
C31
330
C26
100
AcDbEntity
  8
0
100
AcDbBlockEnd
  0
BLOCK
  5
C33
330
C32
100
AcDbEntity
  8
0
100
AcDbBlockBegin
  2
*D23
 70
     1
 10
0.0
 20
0.0
 30
0.0
  3
*D23
  1

  0
LINE
  5
C34
330
C32
100
AcDbEntity
  8
P-0000
  6
Continuous
 62
     3
370
    -2
100
AcDbLine
 10
125.8087256626579
 20
244.9795252955445
 30
0.0
 11
105.7074697434543
 21
244.9795252955445
 31
0.0
  0
LINE
  5
C35
330
C32
100
AcDbEntity
  8
P-0000
  6
Continuous
 62
     3
370
    -2
100
AcDbLine
 10
142.7615164822419
 20
232.9078133581939
 30
0.0
 11
105.7074697434543
 21
232.9078133581939
 31
0.0
  0
LINE
  5
C36
330
C32
100
AcDbEntity
  8
P-0000
  6
Continuous
 62
     3
370
    -2
100
AcDbLine
 10
109.7074697434543
 20
251.2795252955445
 30
0.0
 11
109.7074697434543
 21
257.5795252955446
 31
0.0
  0
LINE
  5
C37
330
C32
100
AcDbEntity
  8
P-0000
  6
Continuous
 62
     3
370
    -2
100
AcDbLine
 10
109.7074697434543
 20
226.6078133581939
 30
0.0
 11
109.7074697434543
 21
220.3078133581939
 31
0.0
  0
LINE
  5
C38
330
C32
100
AcDbEntity
  8
P-0000
  6
Continuous
 62
     3
370
    -2
100
AcDbLine
 10
109.7074697434543
 20
244.9795252955445
 30
0.0
 11
109.7074697434543
 21
232.9078133581939
 31
0.0
  0
SOLID
  5
C39
330
C32
100
AcDbEntity
  8
P-0000
  6
Continuous
 62
     3
100
AcDbTrace
 10
108.6574697434544
 20
251.2795252955445
 30
0.0
 11
110.7574697434543
 21
251.2795252955445
 31
0.0
 12
109.7074697434543
 22
244.9795252955445
 32
0.0
 13
109.7074697434543
 23
244.9795252955445
 33
0.0
  0
SOLID
  5
C3A
330
C32
100
AcDbEntity
  8
P-0000
  6
Continuous
 62
     3
100
AcDbTrace
 10
108.6574697434544
 20
226.6078133581939
 30
0.0
 11
110.7574697434543
 21
226.6078133581939
 31
0.0
 12
109.7074697434543
 22
232.9078133581939
 32
0.0
 13
109.7074697434543
 23
232.9078133581939
 33
0.0
  0
MTEXT
  5
C3B
330
C32
100
AcDbEntity
  8
P-0000
  6
Continuous
 62
     2
100
AcDbMText
 10
102.2074697434543
 20
238.9436693268692
 30
0.0
 40
7.0
 41
0.0
 71
     5
 72
     1
  1
12.1
 11
0.0000000000000001
 21
1.0
 31
0.0
 73
     1
 44
1.0
1001
ACAD
1000
MTEXTBEGIN
1070
    73
1070
     1
1070
    44
1040
1.0
1070
    74
1070
     0
1000
MTEXTEND
  0
POINT
  5
C3C
330
C32
100
AcDbEntity
  8
Defpoints
  6
Continuous
 62
     0
100
AcDbPoint
 10
125.8087256626579
 20
244.9795252955445
 30
0.0
  0
POINT
  5
C3D
330
C32
100
AcDbEntity
  8
Defpoints
  6
Continuous
 62
     0
100
AcDbPoint
 10
142.7615164822419
 20
232.9078133581939
 30
0.0
  0
POINT
  5
C3E
330
C32
100
AcDbEntity
  8
Defpoints
  6
Continuous
 62
     0
100
AcDbPoint
 10
109.7074697434543
 20
232.9078133581939
 30
0.0
  0
ENDBLK
  5
C3F
330
C32
100
AcDbEntity
  8
0
100
AcDbBlockEnd
  0
BLOCK
  5
C41
330
C40
100
AcDbEntity
  8
0
100
AcDbBlockBegin
  2
_None
 70
     0
 10
0.0
 20
0.0
 30
0.0
  3
_None
  1

  0
ENDBLK
  5
C42
330
C40
100
AcDbEntity
  8
0
100
AcDbBlockEnd
  0
BLOCK
  5
E32
330
C48
100
AcDbEntity
  8
0
100
AcDbBlockBegin
  2
A$C19832E52
 70
     0
 10
0.0
 20
0.0
 30
0.0
  3
A$C19832E52
  1

  0
HATCH
  5
C49
330
C48
100
AcDbEntity
  8
0
  6
Continuous
 62
     2
100
AcDbHatch
 10
0.0
 20
0.0
 30
0.0
210
0.0
220
0.0
230
1.0
  2
A
 70
     0
 71
     0
 91
        9
 92
        1
 93
        6
 72
     4
 94
        3
 73
     1
 74
     0
 95
        8
 96
        4
 40
0.0
 40
0.0
 40
0.0
 40
0.0
 40
1.0
 40
1.0
 40
1.0
 40
1.0
 10
61.98536901310174
 20
101.3658387508918
 42
1.0
 10
61.93342814030493
 20
101.2681365470415
 42
0.9999766627999999
 10
61.88067158996367
 20
101.1708723640574
 42
0.9999766627999999
 10
61.82710305567323
 20
101.074053011506
 42
1.0
 72
     1
 10
61.82710305567323
 20
101.074053011506
 11
61.82710305567323
 21
102.8233179743715
 72
     4
 94
        3
 73
     1
 74
     0
 95
        8
 96
        4
 40
0.0
 40
0.0
 40
0.0
 40
0.0
 40
1.0
 40
1.0
 40
1.0
 40
1.0
 10
61.90600570897103
 20
102.9036532457421
 42
1.0
 10
61.87936769814186
 20
102.8772073318281
 42
0.9999469529999998
 10
61.85306541848902
 20
102.8504274874497
 42
0.9999469529999998
 10
61.82710305567323
 20
102.8233179743715
 42
1.0
 72
     1
 10
61.90600570897103
 20
102.9036532457421
 11
63.06685305567325
 21
102.8332705182365
 72
     1
 10
63.06685305567325
 20
102.5850939854302
 11
63.06685305567325
 21
102.8332705182365
 72
     4
 94
        3
 73
     1
 74
     0
 95
        8
 96
        4
 40
0.0
 40
0.0
 40
0.0
 40
0.0
 40
1.0
 40
1.0
 40
1.0
 40
1.0
 10
63.06685305567325
 20
102.5850939854302
 42
1.0
 10
62.61256177989927
 20
102.268766143804
 42
0.9813703530999999
 10
62.24522372067568
 20
101.8546325700118
 42
0.9813703530999999
 10
61.98536901310174
 20
101.3658387508918
 42
1.0
 97
        0
 92
        1
 93
        4
 72
     4
 94
        3
 73
     1
 74
     0
 95
        8
 96
        4
 40
0.0
 40
0.0
 40
0.0
 40
0.0
 40
1.0
 40
1.0
 40
1.0
 40
1.0
 10
59.84350305567324
 20
98.14153220091842
 42
1.0
 10
59.37811906751486
 20
97.57081271363723
 42
0.9989676325999999
 10
58.88170658739586
 20
97.02686635671135
 42
0.9989676325999999
 10
58.35580305567325
 20
96.51137778760324
 42
1.0
 72
     1
 10
58.35580305567325
 20
96.51137778760324
 11
58.35580305567325
 21
97.93721354692033
 72
     4
 94
        3
 73
     1
 74
     0
 95
        8
 96
        4
 40
0.0
 40
0.0
 40
0.0
 40
0.0
 40
1.0
 40
1.0
 40
1.0
 40
1.0
 10
59.84350305567324
 20
99.77859150050974
 42
1.0
 10
59.38653387368134
 20
99.13401415049854
 42
0.9986836100000001
 10
58.88998021546083
 20
98.51941244371966
 42
0.9986836100000001
 10
58.35580305567325
 20
97.93721354692033
 42
1.0
 72
     1
 10
59.84350305567324
 20
98.14153220091842
 11
59.84350305567324
 21
99.77859150050974
 97
        0
 92
        1
 93
        4
 72
     4
 94
        3
 73
     1
 74
     0
 95
        8
 96
        4
 40
0.0
 40
0.0
 40
0.0
 40
0.0
 40
1.0
 40
1.0
 40
1.0
 40
1.0
 10
56.37220305567325
 20
94.80831521844192
 42
1.0
 10
55.89181646113605
 20
94.44802527252253
 42
0.9993132765
 10
55.39557568097035
 20
94.10990515571375
 42
0.9993132765
 10
54.88450305567323
 20
93.79465145305903
 42
1.0
 72
     1
 10
54.88450305567323
 20
93.79465145305903
 11
54.88450305567323
 21
94.97187531481015
 72
     4
 94
        3
 73
     1
 74
     0
 95
        8
 96
        4
 40
0.0
 40
0.0
 40
0.0
 40
0.0
 40
1.0
 40
1.0
 40
1.0
 40
1.0
 10
56.37220305567325
 20
96.06698889864924
 42
1.0
 10
55.89440862941777
 20
95.67777130951384
 42
0.9991986904999999
 10
55.39811094135484
 20
95.3124407053283
 42
0.9991986904999999
 10
54.88450305567323
 20
94.97187531481015
 42
1.0
 72
     1
 10
56.37220305567325
 20
94.80831521844192
 11
56.37220305567325
 21
96.06698889864915
 97
        0
 92
        1
 93
        4
 72
     4
 94
        3
 73
     1
 74
     0
 95
        8
 96
        4
 40
0.0
 40
0.0
 40
0.0
 40
0.0
 40
1.0
 40
1.0
 40
1.0
 40
1.0
 10
52.90090305567324
 20
92.72169993756163
 42
1.0
 10
52.41363345205053
 20
92.49292054839674
 42
0.9994480379
 10
51.91745958287836
 20
92.2841547297815
 42
0.9994480379
 10
51.41320305567325
 20
92.09574817400264
 42
1.0
 72
     1
 10
51.41320305567325
 20
92.09574817400264
 11
51.41320305567325
 21
93.15843436398314
 72
     4
 94
        3
 73
     1
 74
     0
 95
        8
 96
        4
 40
0.0
 40
0.0
 40
0.0
 40
0.0
 40
1.0
 40
1.0
 40
1.0
 40
1.0
 10
52.90090305567324
 20
93.82380944334574
 42
1.0
 10
52.41475443671152
 20
93.58062992960549
 42
0.9993764223999999
 10
51.91854501157536
 20
93.35869984584793
 42
0.9993764223999999
 10
51.41320305567325
 20
93.15843436398314
 42
1.0
 72
     1
 10
52.90090305567324
 20
92.72169993756163
 11
52.90090305567324
 21
93.82380944334574
 97
        0
 92
        1
 93
       20
 72
     4
 94
        3
 73
     1
 74
     0
 95
        8
 96
        4
 40
0.0
 40
0.0
 40
0.0
 40
0.0
 40
1.0
 40
1.0
 40
1.0
 40
1.0
 10
49.42960305567325
 20
91.47099080463624
 42
1.0
 10
48.90489503081053
 20
91.33551177513771
 42
0.9994406116
 10
48.37507848918852
 20
91.22163679543115
 42
0.9994406116
 10
47.84104255048052
 20
91.129556966532
 42
1.0
 72
     4
 94
        3
 73
     1
 74
     0
 95
        8
 96
        4
 40
0.0
 40
0.0
 40
0.0
 40
0.0
 40
1.0
 40
1.0
 40
1.0
 40
1.0
 10
46.10061623541215
 20
92.58264136856524
 42
1.0
 10
46.10923683359894
 20
91.59481866158492
 42
0.7650458997000002
 10
46.86754702806203
 20
90.96170440333693
 42
0.7650458997000002
 10
47.84104255048052
 20
91.129556966532
 42
1.0
 72
     1
 10
46.10061623541215
 20
92.58264136856524
 11
46.00875103335553
 21
103.1093508668548
 72
     4
 94
        3
 73
     1
 74
     0
 95
        8
 96
        4
 40
0.0
 40
0.0
 40
0.0
 40
0.0
 40
1.0
 40
1.0
 40
1.0
 40
1.0
 10
45.90957480979935
 20
103.2076653690143
 42
1.0
 10
45.96727190466014
 20
103.2076653690143
 42
0.8067902504
 10
46.00824753762217
 20
103.1670457647464
 42
0.8067902504
 10
46.00875103335553
 20
103.1093508668548
 42
1.0
 72
     1
 10
45.90957480979935
 20
103.2076653690143
 11
43.03163130154715
 21
103.2076653690143
 72
     4
 94
        3
 73
     1
 74
     0
 95
        8
 96
        4
 40
0.0
 40
0.0
 40
0.0
 40
0.0
 40
1.0
 40
1.0
 40
1.0
 40
1.0
 10
43.03163130154715
 20
103.2076653690143
 42
1.0
 10
42.97393420675255
 20
103.2076653690143
 42
0.8067902504
 10
42.93295857379044
 20
103.1670457647464
 42
0.8067902504
 10
42.93245507799094
 20
103.1093508668548
 42
1.0
 72
     1
 10
42.93245507799094
 20
103.1093508668548
 11
42.84058987593434
 21
92.58264136856524
 72
     4
 94
        3
 73
     1
 74
     0
 95
        8
 96
        4
 40
0.0
 40
0.0
 40
0.0
 40
0.0
 40
1.0
 40
1.0
 40
1.0
 40
1.0
 10
42.84058987593434
 20
92.58264136856524
 42
1.0
 10
42.83196927781363
 20
91.59481866158492
 42
0.7650458997000002
 10
42.07365908328444
 20
90.96170440333693
 42
0.7650458997000002
 10
41.10016356093206
 20
91.129556966532
 42
1.0
 72
     4
 94
        3
 73
     1
 74
     0
 95
        8
 96
        4
 40
0.0
 40
0.0
 40
0.0
 40
0.0
 40
1.0
 40
1.0
 40
1.0
 40
1.0
 10
39.51160305567325
 20
91.47099080463624
 42
1.0
 10
40.03631108053594
 20
91.33551177513771
 42
0.9994406116
 10
40.56612762215794
 20
91.22163679543115
 42
0.9994406116
 10
41.10016356093206
 20
91.129556966532
 42
1.0
 72
     1
 10
39.51160305567325
 20
91.47099080463624
 11
39.51160305567325
 21
92.49712092143633
 72
     4
 94
        3
 73
     1
 74
     0
 95
        8
 96
        4
 40
0.0
 40
0.0
 40
0.0
 40
0.0
 40
1.0
 40
1.0
 40
1.0
 40
1.0
 10
39.51160305567325
 20
92.49712092143633
 42
1.0
 10
40.09085818560286
 20
92.33911613099911
 42
0.9992393228
 10
40.67699820897195
 20
92.20895510632201
 42
0.9992393228
 10
41.26868553563605
 20
92.10693487914083
 42
1.0
 72
     4
 94
        3
 73
     1
 74
     0
 95
        8
 96
        4
 40
0.0
 40
0.0
 40
0.0
 40
0.0
 40
1.0
 40
1.0
 40
1.0
 40
1.0
 10
41.84882764063684
 20
92.59129634644114
 42
1.0
 10
41.84595410795194
 20
92.26202211082505
 42
0.7650458997000002
 10
41.59318404313094
 20
92.05098402472032
 42
0.7650458997000002
 10
41.26868553563605
 20
92.10693487914083
 42
1.0
 72
     1
 10
41.94069284269343
 20
103.1180058447306
 11
41.84882764063684
 21
92.59129634644114
 72
     4
 94
        3
 73
     1
 74
     0
 95
        8
 96
        4
 40
0.0
 40
0.0
 40
0.0
 40
0.0
 40
1.0
 40
1.0
 40
1.0
 40
1.0
 10
43.03163130154715
 20
104.1994653690143
 42
1.0
 10
42.39696325847503
 20
104.1994653690143
 42
0.8067902504
 10
41.94623129595877
 20
103.7526497216039
 42
0.8067902504
 10
41.94069284269343
 20
103.1180058447306
 42
1.0
 72
     1
 10
45.90957480979935
 20
104.1994653690143
 11
43.03163130154715
 21
104.1994653690143
 72
     4
 94
        3
 73
     1
 74
     0
 95
        8
 96
        4
 40
0.0
 40
0.0
 40
0.0
 40
0.0
 40
1.0
 40
1.0
 40
1.0
 40
1.0
 10
45.90957480979935
 20
104.1994653690143
 42
1.0
 10
46.54424285287143
 20
104.1994653690143
 42
0.8067902504
 10
46.99497481545384
 20
103.7526497216039
 42
0.8067902504
 10
47.00051326865303
 20
103.1180058447306
 42
1.0
 72
     1
 10
47.09237847070975
 20
92.59129634644114
 11
47.00051326865303
 21
103.1180058447306
 72
     4
 94
        3
 73
     1
 74
     0
 95
        8
 96
        4
 40
0.0
 40
0.0
 40
0.0
 40
0.0
 40
1.0
 40
1.0
 40
1.0
 40
1.0
 10
47.09237847070975
 20
92.59129634644114
 42
1.0
 10
47.09525200339454
 20
92.26202211082505
 42
0.7650458997000002
 10
47.34802206828166
 20
92.05098402472032
 42
0.7650458997000002
 10
47.67252057571044
 20
92.10693487914083
 42
1.0
 72
     4
 94
        3
 73
     1
 74
     0
 95
        8
 96
        4
 40
0.0
 40
0.0
 40
0.0
 40
0.0
 40
1.0
 40
1.0
 40
1.0
 40
1.0
 10
49.42960305567325
 20
92.49712092143633
 42
1.0
 10
48.85034792574368
 20
92.33911613099911
 42
0.9992393228
 10
48.26420790237455
 20
92.20895510632201
 42
0.9992393228
 10
47.67252057571044
 20
92.10693487914083
 42
1.0
 72
     1
 10
49.42960305567325
 20
91.47099080463624
 11
49.42960305567325
 21
92.49712092143633
 97
        0
 92
        1
 93
        6
 72
     4
 94
        3
 73
     1
 74
     0
 95
        8
 96
        4
 40
0.0
 40
0.0
 40
0.0
 40
0.0
 40
1.0
 40
1.0
 40
1.0
 40
1.0
 10
26.95583709824476
 20
101.3658387508918
 42
1.0
 10
27.00777797104156
 20
101.2681365470415
 42
0.9999766627999999
 10
27.06053452138287
 20
101.1708723640574
 42
0.9999766627999999
 10
27.11410305567324
 20
101.074053011506
 42
1.0
 72
     4
 94
        3
 73
     1
 74
     0
 95
        8
 96
        4
 40
0.0
 40
0.0
 40
0.0
 40
0.0
 40
1.0
 40
1.0
 40
1.0
 40
1.0
 10
26.95583709824476
 20
101.3658387508918
 42
1.0
 10
26.69598239067085
 20
101.8546325700118
 42
0.9813703530999999
 10
26.32864433151336
 20
102.268766143804
 42
0.9813703530999999
 10
25.87435305567325
 20
102.5850939854302
 42
1.0
 72
     1
 10
25.87435305567325
 20
102.5850939854302
 11
25.87435305567325
 21
102.8332715151939
 72
     1
 10
27.03519951504507
 20
102.9036541266588
 11
25.87435305567325
 21
102.8332715151939
 72
     4
 94
        3
 73
     1
 74
     0
 95
        8
 96
        4
 40
0.0
 40
0.0
 40
0.0
 40
0.0
 40
1.0
 40
1.0
 40
1.0
 40
1.0
 10
27.11410305567324
 20
102.8233179743715
 42
1.0
 10
27.08814040457425
 20
102.850427788494
 42
0.9999469517999999
 10
27.06183782910064
 20
102.8772079265775
 42
0.9999469517999999
 10
27.03519951504507
 20
102.9036541266588
 42
1.0
 72
     1
 10
27.11410305567324
 20
101.074053011506
 11
27.11410305567324
 21
102.8233179743715
 97
        0
 92
        1
 93
        4
 72
     4
 94
        3
 73
     1
 74
     0
 95
        8
 96
        4
 40
0.0
 40
0.0
 40
0.0
 40
0.0
 40
1.0
 40
1.0
 40
1.0
 40
1.0
 10
29.09770305567325
 20
98.14153220091842
 42
1.0
 10
29.56308704389775
 20
97.57081271363723
 42
0.9989676325999999
 10
30.05949952395065
 20
97.02686635671135
 42
0.9989676325999999
 10
30.58540305567325
 20
96.51137778760324
 42
1.0
 72
     1
 10
29.09770305567325
 20
98.14153220091842
 11
29.09770305567325
 21
99.77859150050974
 72
     4
 94
        3
 73
     1
 74
     0
 95
        8
 96
        4
 40
0.0
 40
0.0
 40
0.0
 40
0.0
 40
1.0
 40
1.0
 40
1.0
 40
1.0
 10
30.58540305567325
 20
97.93721354692033
 42
1.0
 10
30.05122589595186
 20
98.51941244371966
 42
0.9986836100000001
 10
29.55467223766516
 20
99.13401415049854
 42
0.9986836100000001
 10
29.09770305567325
 20
99.77859150050974
 42
1.0
 72
     1
 10
30.58540305567325
 20
96.51137778760324
 11
30.58540305567325
 21
97.93721354692033
 97
        0
 92
        1
 93
        4
 72
     4
 94
        3
 73
     1
 74
     0
 95
        8
 96
        4
 40
0.0
 40
0.0
 40
0.0
 40
0.0
 40
1.0
 40
1.0
 40
1.0
 40
1.0
 10
32.56900305567325
 20
94.80831521844192
 42
1.0
 10
33.04938965021035
 20
94.44802527252253
 42
0.9993132765
 10
33.54563043044235
 20
94.10990515571375
 42
0.9993132765
 10
34.05670305567324
 20
93.79465145305903
 42
1.0
 72
     1
 10
32.56900305567325
 20
94.80831521844192
 11
32.56900305567325
 21
96.06698889864915
 72
     4
 94
        3
 73
     1
 74
     0
 95
        8
 96
        4
 40
0.0
 40
0.0
 40
0.0
 40
0.0
 40
1.0
 40
1.0
 40
1.0
 40
1.0
 10
32.56900305567325
 20
96.06698889864924
 42
1.0
 10
33.04679748192877
 20
95.67777130951384
 42
0.9991986904999999
 10
33.54309516999163
 20
95.3124407053283
 42
0.9991986904999999
 10
34.05670305567324
 20
94.97187531481015
 42
1.0
 72
     1
 10
34.05670305567324
 20
93.79465145305903
 11
34.05670305567324
 21
94.97187531481015
 97
        0
 92
        1
 93
        4
 72
     4
 94
        3
 73
     1
 74
     0
 95
        8
 96
        4
 40
0.0
 40
0.0
 40
0.0
 40
0.0
 40
1.0
 40
1.0
 40
1.0
 40
1.0
 10
36.04030305567324
 20
92.72169993756163
 42
1.0
 10
36.52757265929594
 20
92.49292054839674
 42
0.9994480379
 10
37.02374652846814
 20
92.2841547297815
 42
0.9994480379
 10
37.52800305567325
 20
92.09574817400264
 42
1.0
 72
     1
 10
36.04030305567324
 20
92.72169993756163
 11
36.04030305567324
 21
93.82380944334574
 72
     4
 94
        3
 73
     1
 74
     0
 95
        8
 96
        4
 40
0.0
 40
0.0
 40
0.0
 40
0.0
 40
1.0
 40
1.0
 40
1.0
 40
1.0
 10
36.04030305567324
 20
93.82380944334574
 42
1.0
 10
36.52645167470115
 20
93.58062992960549
 42
0.9993764223999999
 10
37.02266109977114
 20
93.35869984584793
 42
0.9993764223999999
 10
37.52800305567325
 20
93.15843436398314
 42
1.0
 72
     1
 10
37.52800305567325
 20
92.09574817400264
 11
37.52800305567325
 21
93.15843436398314
 97
        0
 75
     0
 76
     0
 52
45.0
 41
0.38839258272
 77
     0
 78
     1
 53
45.0
 43
-56.59273510839213
 44
-58.83267981704513
 45
-0.27463502902572
 46
0.27463502902572
 79
     0
 98
        1
 10
-56.59273510839213
 20
-58.83267981704513
  0
LINE
  5
C4A
330
C48
100
AcDbEntity
  8
TEIL_STARTBEZUEGE
  6
Continuous
 62
     7
100
AcDbLine
 10
54.19024305567325
 20
103.2076653690143
 30
0.0
 11
34.75096305567325
 21
103.2076653690143
 31
0.0
  0
LINE
  5
C4B
330
C48
100
AcDbEntity
  8
TEIL_STARTBEZUEGE
  6
Continuous
 62
     7
100
AcDbLine
 10
44.47060305567325
 20
112.9273053690143
 30
0.0
 11
44.47060305567325
 21
93.48802536901434
 31
0.0
  0
MTEXT
  5
C4C
330
C48
100
AcDbEntity
  8
TEIL_STARTBEZUEGE
  6
Continuous
 62
     9
100
AcDbMText
 10
43.39467716285383
 20
104.4629122440143
 30
0.0
 40
2.51049375
 41
1.793209821409678
 71
     1
 72
     1
  1
z
  7
TEXTSTYLE_8
 73
     1
 44
0.9
1001
ACAD
1000
MTEXTBEGIN
1070
    73
1070
     1
1070
    44
1040
0.9
1070
    74
1070
     0
1000
MTEXTEND
  0
LINE
  5
C4D
330
C48
100
AcDbEntity
  8
0
  6
Continuous
 62
     7
100
AcDbLine
 10
43.77545061556225
 20
48.54352454547299
 30
0.0
 11
43.75790680613542
 21
50.55384598619093
 31
0.0
  0
LINE
  5
C4E
330
C48
100
AcDbEntity
  8
0
  6
Continuous
 62
     7
100
AcDbLine
 10
43.74477716363315
 20
52.05835400149374
 30
0.0
 11
43.72728879271867
 21
54.06232281360513
 31
0.0
  0
LINE
  5
C4F
330
C48
100
AcDbEntity
  8
0
  6
Continuous
 62
     7
100
AcDbLine
 10
43.71418029193825
 20
55.56440822100092
 30
0.0
 11
43.69670857725717
 21
57.56646842646532
 31
0.0
  0
LINE
  5
C50
330
C48
100
AcDbEntity
  8
0
  6
Continuous
 62
     7
100
AcDbLine
 10
43.68360798226444
 20
59.06764792292026
 30
0.0
 11
43.66614343784493
 21
61.06888648840111
 31
0.0
  0
LINE
  5
C51
330
C48
100
AcDbEntity
  8
0
  6
Continuous
 62
     7
100
AcDbLine
 10
43.66614343784493
 20
26.10173899217284
 30
0.0
 11
43.68360798226444
 21
28.10297755765373
 31
0.0
  0
LINE
  5
C52
330
C48
100
AcDbEntity
  8
0
  6
Continuous
 62
     7
100
AcDbLine
 10
43.69670857725717
 20
29.60415705410864
 30
0.0
 11
43.71418029193825
 21
31.60621725957302
 31
0.0
  0
LINE
  5
C53
330
C48
100
AcDbEntity
  8
0
  6
Continuous
 62
     7
100
AcDbLine
 10
43.72728879271867
 20
33.10830266696874
 30
0.0
 11
43.74477716363315
 21
35.11227147908022
 31
0.0
  0
LINE
  5
C54
330
C48
100
AcDbEntity
  8
0
  6
Continuous
 62
     7
100
AcDbLine
 10
43.75790680613542
 20
36.61677949438291
 30
0.0
 11
43.77545061556225
 21
38.62710093510086
 31
0.0
  0
LINE
  5
C55
330
C48
100
AcDbEntity
  8
0
  6
Continuous
 62
     7
100
AcDbLine
 10
46.81294078175684
 20
47.97553441383124
 30
0.0
 11
47.98038483699954
 21
49.61223061597215
 31
0.0
  0
LINE
  5
C56
330
C48
100
AcDbEntity
  8
0
  6
Continuous
 62
     7
100
AcDbLine
 10
48.85409035639034
 20
50.83712057881675
 30
0.0
 11
50.01784528099136
 21
52.46864481047791
 31
0.0
  0
LINE
  5
C57
330
C48
100
AcDbEntity
  8
0
  6
Continuous
 62
     7
100
AcDbLine
 10
50.89014393125094
 20
53.69156241551292
 30
0.0
 11
52.05279048006923
 21
55.32153276171317
 31
0.0
  0
LINE
  5
C58
330
C48
100
AcDbEntity
  8
0
  6
Continuous
 62
     7
100
AcDbLine
 10
52.92456304512302
 20
56.54371282245702
 30
0.0
 11
54.08673244704615
 21
58.17301423334666
 31
0.0
  0
LINE
  5
C59
330
C48
100
AcDbEntity
  8
0
  6
Continuous
 62
     7
100
AcDbLine
 10
33.53355883403765
 20
29.88399766414125
 30
0.0
 11
34.72398646230895
 21
31.49276827180765
 31
0.0
  0
LINE
  5
C5A
330
C48
100
AcDbEntity
  8
0
  6
Continuous
 62
     7
100
AcDbLine
 10
35.61695623538856
 20
32.69954765942632
 30
0.0
 11
36.80787261243904
 21
34.30897877315431
 31
0.0
  0
LINE
  5
C5B
330
C48
100
AcDbEntity
  8
0
  6
Continuous
 62
     7
100
AcDbLine
 10
37.70138126252985
 20
35.51648641135713
 30
0.0
 11
38.89343296556027
 21
37.12745183007525
 31
0.0
  0
LINE
  5
C5C
330
C48
100
AcDbEntity
  8
0
  6
Continuous
 62
     7
100
AcDbLine
 10
39.78838269284026
 20
38.33690697233615
 30
0.0
 11
40.98421322808195
 21
39.95297918958574
 31
0.0
  0
LINE
  5
C5D
330
C48
100
AcDbEntity
  8
0
  6
Continuous
 62
     7
100
AcDbLine
 10
48.93646572356175
 20
45.73062882104494
 30
0.0
 11
50.84297369435802
 21
46.36853746462802
 31
0.0
  0
LINE
  5
C5E
330
C48
100
AcDbEntity
  8
0
  6
Continuous
 62
     7
100
AcDbLine
 10
52.26978856346665
 20
46.84594304165793
 30
0.0
 11
54.17027195690934
 21
47.4818358898658
 31
0.0
  0
LINE
  5
C5F
330
C48
100
AcDbEntity
  8
0
  6
Continuous
 62
     7
100
AcDbLine
 10
55.59478932212653
 20
47.95847273284974
 30
0.0
 11
57.49346266973652
 21
48.59375994824731
 31
0.0
  0
LINE
  5
C60
330
C48
100
AcDbEntity
  8
0
  6
Continuous
 62
     7
100
AcDbLine
 10
58.91712090547855
 20
49.07010933043924
 30
0.0
 11
60.81501504281402
 21
49.70513582571072
 31
0.0
  0
LINE
  5
C61
330
C48
100
AcDbEntity
  8
0
  6
Continuous
 62
     7
100
AcDbLine
 10
27.55928156034114
 20
38.89969300461951
 30
0.0
 11
29.46796937967207
 21
39.50149996235652
 31
0.0
  0
LINE
  5
C62
330
C48
100
AcDbEntity
  8
0
  6
Continuous
 62
     7
100
AcDbLine
 10
30.89972422838034
 20
39.95293053213891
 30
0.0
 11
32.80919568954144
 21
40.55498457127171
 31
0.0
  0
LINE
  5
C63
330
C48
100
AcDbEntity
  8
0
  6
Continuous
 62
     7
100
AcDbLine
 10
34.24181455380955
 20
41.00668756406324
 30
0.0
 11
36.15310635483374
 21
41.60931555412301
 31
0.0
  0
LINE
  5
C64
330
C48
100
AcDbEntity
  8
0
  6
Continuous
 62
     7
100
AcDbLine
 10
37.58803578926257
 20
42.06174706696271
 30
0.0
 11
39.50538643056444
 21
42.66628540198564
 31
0.0
  0
LINE
  5
C65
330
C48
100
AcDbEntity
  8
0
  6
Continuous
 62
     7
100
AcDbLine
 10
39.50538643056444
 20
44.50434007858831
 30
0.0
 11
37.58803578926257
 21
45.10887841367784
 31
0.0
  0
LINE
  5
C66
330
C48
100
AcDbEntity
  8
0
  6
Continuous
 62
     7
100
AcDbLine
 10
36.15310635483374
 20
45.56130992645083
 30
0.0
 11
34.24181455380955
 21
46.16393791651063
 31
0.0
  0
LINE
  5
C67
330
C48
100
AcDbEntity
  8
0
  6
Continuous
 62
     7
100
AcDbLine
 10
32.80919568954144
 20
46.61564090930224
 30
0.0
 11
30.89972422838034
 21
47.21769494843494
 31
0.0
  0
LINE
  5
C68
330
C48
100
AcDbEntity
  8
0
  6
Continuous
 62
     7
100
AcDbLine
 10
27.55928156034114
 20
48.27093247602102
 30
0.0
 11
29.46796937967207
 21
47.66912551821741
 31
0.0
  0
LINE
  5
C69
330
C48
100
AcDbEntity
  8
0
  6
Continuous
 62
     7
100
AcDbLine
 10
57.49346266973652
 20
38.57686553239324
 30
0.0
 11
55.59478932212653
 21
39.21215274772425
 31
0.0
  0
LINE
  5
C6A
330
C48
100
AcDbEntity
  8
0
  6
Continuous
 62
     7
100
AcDbLine
 10
54.17027195690934
 20
39.68878959070816
 30
0.0
 11
52.26978856346665
 21
40.32468243891602
 31
0.0
  0
LINE
  5
C6B
330
C48
100
AcDbEntity
  8
0
  6
Continuous
 62
     7
100
AcDbLine
 10
50.84297369435802
 20
40.80208801594582
 30
0.0
 11
48.93646572356175
 21
41.43999665952892
 31
0.0
  0
LINE
  5
C6C
330
C48
100
AcDbEntity
  8
0
  6
Continuous
 62
     7
100
AcDbLine
 10
58.91712090547855
 20
38.10051615013464
 30
0.0
 11
60.81501504281402
 21
37.46548965486315
 31
0.0
  0
LINE
  5
C6D
330
C48
100
AcDbEntity
  8
0
  6
Continuous
 62
     7
100
AcDbLine
 10
40.98421322808195
 20
47.21764629098825
 30
0.0
 11
39.78838269284026
 21
48.83371850823775
 31
0.0
  0
LINE
  5
C6E
330
C48
100
AcDbEntity
  8
0
  6
Continuous
 62
     7
100
AcDbLine
 10
38.89343296556027
 20
50.04317365049875
 30
0.0
 11
37.70138126252985
 21
51.65413906921682
 31
0.0
  0
LINE
  5
C6F
330
C48
100
AcDbEntity
  8
0
  6
Continuous
 62
     7
100
AcDbLine
 10
36.80787261243904
 20
52.86164670741965
 30
0.0
 11
35.61695623538856
 21
54.47107782114753
 31
0.0
  0
LINE
  5
C70
330
C48
100
AcDbEntity
  8
0
  6
Continuous
 62
     7
100
AcDbLine
 10
34.72398646230895
 20
55.67785720883302
 30
0.0
 11
33.53355883403765
 21
57.28662781643274
 31
0.0
  0
LINE
  5
C71
330
C48
100
AcDbEntity
  8
0
  6
Continuous
 62
     7
100
AcDbLine
 10
54.08673244704615
 20
28.99761124722733
 30
0.0
 11
52.92456304512302
 21
30.62691265811694
 31
0.0
  0
LINE
  5
C72
330
C48
100
AcDbEntity
  8
0
  6
Continuous
 62
     7
100
AcDbLine
 10
52.05279048006923
 20
31.84909271886084
 30
0.0
 11
50.89014393125094
 21
33.47906306506101
 31
0.0
  0
LINE
  5
C73
330
C48
100
AcDbEntity
  8
0
  6
Continuous
 62
     7
100
AcDbLine
 10
50.01784528099136
 20
34.70198067009605
 30
0.0
 11
48.85409035639034
 21
36.33350490182394
 31
0.0
  0
LINE
  5
C74
330
C48
100
AcDbEntity
  8
0
  6
Continuous
 62
     7
100
AcDbLine
 10
47.98038483699954
 20
37.55839486460172
 30
0.0
 11
46.81294078175684
 21
39.19509106674272
 31
0.0
  0
LINE
  5
C75
330
C48
100
AcDbEntity
  8
0
  6
Continuous
 62
     7
100
AcDbLine
 10
45.06484690427043
 20
38.62710093510086
 30
0.0
 11
45.08239071369726
 21
36.61677949438291
 31
0.0
  0
LINE
  5
C76
330
C48
100
AcDbEntity
  8
0
  6
Continuous
 62
     7
100
AcDbLine
 10
45.09552035626618
 20
35.11227147908022
 30
0.0
 11
45.11300872711404
 21
33.10830266696874
 31
0.0
  0
LINE
  5
C77
330
C48
100
AcDbEntity
  8
0
  6
Continuous
 62
     7
100
AcDbLine
 10
45.12611722789444
 20
31.60621725957302
 30
0.0
 11
45.14358894257554
 21
29.60415705410864
 31
0.0
  0
LINE
  5
C78
330
C48
100
AcDbEntity
  8
0
  6
Continuous
 62
     7
100
AcDbLine
 10
45.15668953756827
 20
28.10297755765373
 30
0.0
 11
45.17415408198774
 21
26.10173899217284
 31
0.0
  0
LINE
  5
C79
330
C48
100
AcDbEntity
  8
0
  6
Continuous
 62
     7
100
AcDbLine
 10
45.17415408198774
 20
61.06888648840111
 30
0.0
 11
45.15668953756827
 21
59.06764792292026
 31
0.0
  0
LINE
  5
C7A
330
C48
100
AcDbEntity
  8
0
  6
Continuous
 62
     7
100
AcDbLine
 10
45.14358894257554
 20
57.56646842646532
 30
0.0
 11
45.12611722789444
 21
55.56440822100092
 31
0.0
  0
LINE
  5
C7B
330
C48
100
AcDbEntity
  8
0
  6
Continuous
 62
     7
100
AcDbLine
 10
45.11300872711404
 20
54.06232281360513
 30
0.0
 11
45.09552035626618
 21
52.05835400149374
 31
0.0
  0
LINE
  5
C7C
330
C48
100
AcDbEntity
  8
0
  6
Continuous
 62
     7
100
AcDbLine
 10
45.08239071369726
 20
50.55384598619093
 30
0.0
 11
45.06484690427043
 21
48.54352454547299
 31
0.0
  0
LINE
  5
C7D
330
C48
100
AcDbEntity
  8
0
  6
Continuous
 62
     7
100
AcDbLine
 10
39.98620716344234
 20
36.33350490182394
 30
0.0
 11
38.82245223890805
 21
34.70198067009605
 31
0.0
  0
LINE
  5
C7E
330
C48
100
AcDbEntity
  8
0
  6
Continuous
 62
     7
100
AcDbLine
 10
37.95015358858177
 20
33.47906306506101
 30
0.0
 11
36.78750703976346
 21
31.84909271886084
 31
0.0
  0
LINE
  5
C7F
330
C48
100
AcDbEntity
  8
0
  6
Continuous
 62
     7
100
AcDbLine
 10
34.75356507285326
 20
28.99761124722733
 30
0.0
 11
35.91573447470967
 21
30.62691265811694
 31
0.0
  0
LINE
  5
C80
330
C48
100
AcDbEntity
  8
0
  6
Continuous
 62
     7
100
AcDbLine
 10
40.85991268283314
 20
37.55839486460172
 30
0.0
 11
42.02735673807587
 21
39.19509106674272
 31
0.0
  0
LINE
  5
C81
330
C48
100
AcDbEntity
  8
0
  6
Continuous
 62
     7
100
AcDbLine
 10
53.22334128451075
 20
54.47107782114753
 30
0.0
 11
52.03242490739365
 21
52.86164670741965
 31
0.0
  0
LINE
  5
C82
330
C48
100
AcDbEntity
  8
0
  6
Continuous
 62
     7
100
AcDbLine
 10
51.13891625736946
 20
51.65413906921682
 30
0.0
 11
49.94686455427236
 21
50.04317365049875
 31
0.0
  0
LINE
  5
C83
330
C48
100
AcDbEntity
  8
0
  6
Continuous
 62
     7
100
AcDbLine
 10
49.05191482699246
 20
48.83371850823775
 30
0.0
 11
47.85608429175073
 21
47.21764629098825
 31
0.0
  0
LINE
  5
C84
330
C48
100
AcDbEntity
  8
0
  6
Continuous
 62
     7
100
AcDbLine
 10
54.11631105752374
 20
55.67785720883302
 30
0.0
 11
55.30673868579504
 21
57.28662781643274
 31
0.0
  0
LINE
  5
C85
330
C48
100
AcDbEntity
  8
0
  6
Continuous
 62
     7
100
AcDbLine
 10
39.90383179627094
 20
41.43999665952892
 30
0.0
 11
37.99732382547467
 21
40.80208801594582
 31
0.0
  0
LINE
  5
C86
330
C48
100
AcDbEntity
  8
0
  6
Continuous
 62
     7
100
AcDbLine
 10
36.57050895636604
 20
40.32468243891602
 30
0.0
 11
34.67002556298997
 21
39.68878959070816
 31
0.0
  0
LINE
  5
C87
330
C48
100
AcDbEntity
  8
0
  6
Continuous
 62
     7
100
AcDbLine
 10
33.24550819770613
 20
39.21215274772425
 30
0.0
 11
31.34683485009615
 21
38.57686553239324
 31
0.0
  0
LINE
  5
C88
330
C48
100
AcDbEntity
  8
0
  6
Continuous
 62
     7
100
AcDbLine
 10
28.02528247701865
 20
37.46548965486315
 30
0.0
 11
29.92317661435413
 21
38.10051615013464
 31
0.0
  0
LINE
  5
C89
330
C48
100
AcDbEntity
  8
0
  6
Continuous
 62
     7
100
AcDbLine
 10
57.94057329145224
 20
47.21769494843494
 30
0.0
 11
56.03110183029125
 21
46.61564090930224
 31
0.0
  0
LINE
  5
C8A
330
C48
100
AcDbEntity
  8
0
  6
Continuous
 62
     7
100
AcDbLine
 10
54.59848296602316
 20
46.16393791651063
 30
0.0
 11
52.68719116499894
 21
45.56130992645083
 31
0.0
  0
LINE
  5
C8B
330
C48
100
AcDbEntity
  8
0
  6
Continuous
 62
     7
100
AcDbLine
 10
51.25226173057015
 20
45.10887841367784
 30
0.0
 11
49.33491108926824
 21
44.50434007858831
 31
0.0
  0
LINE
  5
C8C
330
C48
100
AcDbEntity
  8
0
  6
Continuous
 62
     7
100
AcDbLine
 10
59.37232814016067
 20
47.66912551821741
 30
0.0
 11
61.28101595955826
 21
48.27093247602102
 31
0.0
  0
LINE
  5
C8D
330
C48
100
AcDbEntity
  8
0
  6
Continuous
 62
     7
100
AcDbLine
 10
49.33491108926824
 20
42.66628540198564
 30
0.0
 11
51.25226173057015
 21
42.06174706696271
 31
0.0
  0
LINE
  5
C8E
330
C48
100
AcDbEntity
  8
0
  6
Continuous
 62
     7
100
AcDbLine
 10
52.68719116499894
 20
41.60931555412301
 30
0.0
 11
54.59848296602316
 21
41.00668756406324
 31
0.0
  0
LINE
  5
C8F
330
C48
100
AcDbEntity
  8
0
  6
Continuous
 62
     7
100
AcDbLine
 10
56.03110183029125
 20
40.55498457127171
 30
0.0
 11
57.94057329145224
 21
39.95293053213891
 31
0.0
  0
LINE
  5
C90
330
C48
100
AcDbEntity
  8
0
  6
Continuous
 62
     7
100
AcDbLine
 10
59.37232814016067
 20
39.50149996235652
 30
0.0
 11
61.28101595955826
 21
38.89969300461951
 31
0.0
  0
LINE
  5
C91
330
C48
100
AcDbEntity
  8
0
  6
Continuous
 62
     7
100
AcDbLine
 10
28.02528247701865
 20
49.70513582571072
 30
0.0
 11
29.92317661435413
 21
49.07010933043924
 31
0.0
  0
LINE
  5
C92
330
C48
100
AcDbEntity
  8
0
  6
Continuous
 62
     7
100
AcDbLine
 10
31.34683485009615
 20
48.59375994824731
 30
0.0
 11
33.24550819770613
 21
47.95847273284974
 31
0.0
  0
LINE
  5
C93
330
C48
100
AcDbEntity
  8
0
  6
Continuous
 62
     7
100
AcDbLine
 10
34.67002556298997
 20
47.4818358898658
 30
0.0
 11
36.57050895636604
 21
46.84594304165793
 31
0.0
  0
LINE
  5
C94
330
C48
100
AcDbEntity
  8
0
  6
Continuous
 62
     7
100
AcDbLine
 10
37.99732382547467
 20
46.36853746462802
 30
0.0
 11
39.90383179627094
 21
45.73062882104494
 31
0.0
  0
LINE
  5
C95
330
C48
100
AcDbEntity
  8
0
  6
Continuous
 62
     7
100
AcDbLine
 10
47.85608429175073
 20
39.95297918958574
 30
0.0
 11
49.05191482699246
 21
38.33690697233615
 31
0.0
  0
LINE
  5
C96
330
C48
100
AcDbEntity
  8
0
  6
Continuous
 62
     7
100
AcDbLine
 10
49.94686455427236
 20
37.12745183007525
 30
0.0
 11
51.13891625736946
 21
35.51648641135713
 31
0.0
  0
LINE
  5
C97
330
C48
100
AcDbEntity
  8
0
  6
Continuous
 62
     7
100
AcDbLine
 10
52.03242490739365
 20
34.30897877315431
 30
0.0
 11
53.22334128451075
 21
32.69954765942632
 31
0.0
  0
LINE
  5
C98
330
C48
100
AcDbEntity
  8
0
  6
Continuous
 62
     7
100
AcDbLine
 10
55.30673868579504
 20
29.88399766414125
 30
0.0
 11
54.11631105752374
 21
31.49276827180765
 31
0.0
  0
LINE
  5
C99
330
C48
100
AcDbEntity
  8
0
  6
Continuous
 62
     7
100
AcDbLine
 10
36.78750703976346
 20
55.32153276171317
 30
0.0
 11
37.95015358858177
 21
53.69156241551292
 31
0.0
  0
LINE
  5
C9A
330
C48
100
AcDbEntity
  8
0
  6
Continuous
 62
     7
100
AcDbLine
 10
38.82245223890805
 20
52.46864481047791
 30
0.0
 11
39.98620716344234
 21
50.83712057881675
 31
0.0
  0
LINE
  5
C9B
330
C48
100
AcDbEntity
  8
0
  6
Continuous
 62
     7
100
AcDbLine
 10
42.02735673807587
 20
47.97553441383124
 30
0.0
 11
40.85991268283314
 21
49.61223061597215
 31
0.0
  0
LINE
  5
C9C
330
C48
100
AcDbEntity
  8
0
  6
Continuous
 62
     7
100
AcDbLine
 10
35.91573447470967
 20
56.54371282245702
 30
0.0
 11
34.75356507285326
 21
58.17301423334666
 31
0.0
  0
LINE
  5
C9D
330
C48
100
AcDbEntity
  8
0
  6
Continuous
 62
     7
100
AcDbLine
 10
25.87435305567325
 20
102.5850939854302
 30
0.0
 11
25.87435305567325
 21
102.8332715151939
 31
0.0
  0
LINE
  5
C9E
330
C48
100
AcDbEntity
  8
0
  6
Continuous
 62
     7
100
AcDbLine
 10
27.11410305567324
 20
101.074053011506
 30
0.0
 11
27.11410305567324
 21
102.8233179743715
 31
0.0
  0
LINE
  5
C9F
330
C48
100
AcDbEntity
  8
0
  6
Continuous
 62
     7
100
AcDbLine
 10
27.74782773938134
 20
102.8233179743715
 30
0.0
 11
27.74782773938134
 21
101.074053011506
 31
0.0
  0
LINE
  5
CA0
330
C48
100
AcDbEntity
  8
0
  6
Continuous
 62
     7
100
AcDbLine
 10
29.09770305567325
 20
98.14153220091842
 30
0.0
 11
29.09770305567325
 21
99.77859150050974
 31
0.0
  0
LINE
  5
CA1
330
C48
100
AcDbEntity
  8
0
  6
Continuous
 62
     7
100
AcDbLine
 10
30.58540305567325
 20
96.51137778760324
 30
0.0
 11
30.58540305567325
 21
97.93721354692033
 31
0.0
  0
LINE
  5
CA2
330
C48
100
AcDbEntity
  8
0
  6
Continuous
 62
     7
100
AcDbLine
 10
31.06091190838436
 20
97.93721354692033
 30
0.0
 11
31.06091190838436
 21
96.51137778760324
 31
0.0
  0
LINE
  5
CA3
330
C48
100
AcDbEntity
  8
0
  6
Continuous
 62
     7
100
AcDbLine
 10
32.56900305567325
 20
94.80831521844192
 30
0.0
 11
32.56900305567325
 21
96.06698889864924
 31
0.0
  0
LINE
  5
CA4
330
C48
100
AcDbEntity
  8
0
  6
Continuous
 62
     7
100
AcDbLine
 10
33.67317519290805
 20
102.8233179743715
 30
0.0
 11
33.67317519290805
 21
101.074053011506
 31
0.0
  0
LINE
  5
CA5
330
C48
100
AcDbEntity
  8
0
  6
Continuous
 62
     7
100
AcDbLine
 10
34.05670305567324
 20
93.79465145305903
 30
0.0
 11
34.05670305567324
 21
94.97187531481015
 31
0.0
  0
LINE
  5
CA6
330
C48
100
AcDbEntity
  8
0
  6
Continuous
 62
     7
100
AcDbLine
 10
34.37563024032844
 20
94.97187531481015
 30
0.0
 11
34.37563024032844
 21
93.79465145305903
 31
0.0
  0
LINE
  5
CA7
330
C48
100
AcDbEntity
  8
0
  6
Continuous
 62
     7
100
AcDbLine
 10
35.73950939891006
 20
97.93721354692033
 30
0.0
 11
35.73950939891006
 21
96.51137778760324
 31
0.0
  0
LINE
  5
CA8
330
C48
100
AcDbEntity
  8
0
  6
Continuous
 62
     7
100
AcDbLine
 10
36.04030305567324
 20
92.72169993756163
 30
0.0
 11
36.04030305567324
 21
93.82380944334574
 31
0.0
  0
LINE
  5
CA9
330
C48
100
AcDbEntity
  8
0
  6
Continuous
 62
     7
100
AcDbLine
 10
37.52800305567325
 20
92.09574817400264
 30
0.0
 11
37.52800305567325
 21
93.15843436398314
 31
0.0
  0
LINE
  5
CAA
330
C48
100
AcDbEntity
  8
0
  6
Continuous
 62
     7
100
AcDbLine
 10
37.69444564980486
 20
93.15843436398314
 30
0.0
 11
37.69444564980486
 21
92.09574817400264
 31
0.0
  0
LINE
  5
CAB
330
C48
100
AcDbEntity
  8
0
  6
Continuous
 62
     7
100
AcDbLine
 10
37.80686281436294
 20
94.97187531481015
 30
0.0
 11
37.80686281436294
 21
93.82380944334574
 31
0.0
  0
LINE
  5
CAC
330
C48
100
AcDbEntity
  8
FASEN
  6
Continuous
 62
     7
100
AcDbLine
 10
42.01662530975156
 20
103.5094630220082
 30
0.0
 11
41.96164602505766
 21
103.4730526877548
 31
0.0
  0
LINE
  5
CAD
330
C48
100
AcDbEntity
  8
0
  6
Continuous
 62
     7
100
AcDbLine
 10
51.41320305567325
 20
92.09574817400264
 30
0.0
 11
51.24676046154167
 21
92.09574817400264
 31
0.0
  0
LINE
  5
CAE
330
C48
100
AcDbEntity
  8
0
  6
Continuous
 62
     7
100
AcDbLine
 10
37.69444564980486
 20
92.09574817400264
 30
0.0
 11
37.52800305567325
 21
92.09574817400264
 31
0.0
  0
LINE
  5
CAF
330
C48
100
AcDbEntity
  8
0
  6
Continuous
 62
     7
100
AcDbLine
 10
48.94993101349635
 20
92.49712092143633
 30
0.0
 11
47.87839799409593
 21
92.49712092143633
 31
0.0
  0
LINE
  5
CB0
330
C48
100
AcDbEntity
  8
0
  6
Continuous
 62
     7
100
AcDbLine
 10
41.06280811725045
 20
92.49712092143633
 30
0.0
 11
39.99127509785015
 21
92.49712092143633
 31
0.0
  0
LINE
  5
CB1
330
C48
100
AcDbEntity
  8
0
  6
Continuous
 62
     7
100
AcDbLine
 10
39.51160305567325
 20
91.47099080463624
 30
0.0
 11
39.51160305567325
 21
92.49712092143633
 31
0.0
  0
LINE
  5
CB2
330
C48
100
AcDbEntity
  8
0
  6
Continuous
 62
     7
100
AcDbLine
 10
39.87677153203185
 20
93.15843436398314
 30
0.0
 11
39.87677153203185
 21
92.53103402700034
 31
0.0
  0
LINE
  5
CB3
330
C48
100
AcDbEntity
  8
0
  6
Continuous
 62
     7
100
AcDbLine
 10
51.41320305567325
 20
93.15843436398314
 30
0.0
 11
51.24676046154167
 21
93.15843436398314
 31
0.0
  0
LINE
  5
CB4
330
C48
100
AcDbEntity
  8
0
  6
Continuous
 62
     7
100
AcDbLine
 10
50.84082452786725
 20
93.15843436398314
 30
0.0
 11
49.06443457931453
 21
93.15843436398314
 31
0.0
  0
LINE
  5
CB5
330
C48
100
AcDbEntity
  8
0
  6
Continuous
 62
     7
100
AcDbLine
 10
48.00168050769895
 20
93.15843436398314
 30
0.0
 11
47.66334427872794
 21
93.15843436398314
 31
0.0
  0
LINE
  5
CB6
330
C48
100
AcDbEntity
  8
0
  6
Continuous
 62
     7
100
AcDbLine
 10
41.27786183261855
 20
93.15843436398314
 30
0.0
 11
40.93952560364764
 21
93.15843436398314
 31
0.0
  0
LINE
  5
CB7
330
C48
100
AcDbEntity
  8
0
  6
Continuous
 62
     7
100
AcDbLine
 10
39.87677153203185
 20
93.15843436398314
 30
0.0
 11
38.10038158347928
 21
93.15843436398314
 31
0.0
  0
LINE
  5
CB8
330
C48
100
AcDbEntity
  8
0
  6
Continuous
 62
     7
100
AcDbLine
 10
37.69444564980486
 20
93.15843436398314
 30
0.0
 11
37.52800305567325
 21
93.15843436398314
 31
0.0
  0
LINE
  5
CB9
330
C48
100
AcDbEntity
  8
0
  6
Continuous
 62
     7
100
AcDbLine
 10
54.88450305567323
 20
93.79465145305903
 30
0.0
 11
54.56557587101816
 21
93.79465145305903
 31
0.0
  0
LINE
  5
CBA
330
C48
100
AcDbEntity
  8
0
  6
Continuous
 62
     7
100
AcDbLine
 10
34.37563024032844
 20
93.79465145305903
 30
0.0
 11
34.05670305567324
 21
93.79465145305903
 31
0.0
  0
LINE
  5
CBB
330
C48
100
AcDbEntity
  8
0
  6
Continuous
 62
     7
100
AcDbLine
 10
52.90090305567324
 20
93.82380944334574
 30
0.0
 11
52.66993770638066
 21
93.82380944334574
 31
0.0
  0
LINE
  5
CBC
330
C48
100
AcDbEntity
  8
0
  6
Continuous
 62
     7
100
AcDbLine
 10
52.25595366634053
 20
93.82380944334574
 30
0.0
 11
49.95205459503094
 21
93.82380944334574
 31
0.0
  0
LINE
  5
CBD
330
C48
100
AcDbEntity
  8
0
  6
Continuous
 62
     7
100
AcDbLine
 10
48.86823030732864
 20
93.82380944334574
 30
0.0
 11
47.65753763837866
 21
93.82380944334574
 31
0.0
  0
LINE
  5
CBE
330
C48
100
AcDbEntity
  8
0
  6
Continuous
 62
     7
100
AcDbLine
 10
41.28366847296783
 20
93.82380944334574
 30
0.0
 11
40.07297580401782
 21
93.82380944334574
 31
0.0
  0
LINE
  5
CBF
330
C48
100
AcDbEntity
  8
0
  6
Continuous
 62
     7
100
AcDbLine
 10
38.98915151631556
 20
93.82380944334574
 30
0.0
 11
36.68525244500595
 21
93.82380944334574
 31
0.0
  0
LINE
  5
CC0
330
C48
100
AcDbEntity
  8
0
  6
Continuous
 62
     7
100
AcDbLine
 10
36.27126840496584
 20
93.82380944334574
 30
0.0
 11
36.04030305567324
 21
93.82380944334574
 31
0.0
  0
LINE
  5
CC1
330
C48
100
AcDbEntity
  8
0
  6
Continuous
 62
     9
100
AcDbLine
 10
41.26868553563605
 20
92.10693487914083
 30
0.0
 11
41.27596098874113
 21
92.94061922926672
 31
0.0
  0
LINE
  5
CC2
330
C48
100
AcDbEntity
  8
0
  6
Continuous
 62
     9
100
AcDbLine
 10
41.27786183261855
 20
93.15843436398314
 30
0.0
 11
41.28366847296783
 21
93.82380944334574
 31
0.0
  0
LINE
  5
CC3
330
C48
100
AcDbEntity
  8
0
  6
Continuous
 62
     9
100
AcDbLine
 10
41.29368749202945
 20
94.97187531481015
 30
0.0
 11
41.30324440350233
 21
96.06698889864924
 31
0.0
  0
LINE
  5
CC4
330
C48
100
AcDbEntity
  8
0
  6
Continuous
 62
     9
100
AcDbLine
 10
41.31956560679106
 20
97.93721354692033
 30
0.0
 11
41.33563506869262
 21
99.77859150050974
 31
0.0
  0
LINE
  5
CC5
330
C48
100
AcDbEntity
  8
0
  6
Continuous
 62
     7
100
AcDbLine
 10
41.94069284269343
 20
103.1180058447306
 30
0.0
 11
41.84882764063684
 21
92.59129634644114
 31
0.0
  0
LINE
  5
CC6
330
C48
100
AcDbEntity
  8
0
  6
Continuous
 62
     7
100
AcDbLine
 10
54.88450305567323
 20
94.97187531481015
 30
0.0
 11
54.56557587101816
 21
94.97187531481015
 31
0.0
  0
LINE
  5
CC7
330
C48
100
AcDbEntity
  8
0
  6
Continuous
 62
     7
100
AcDbLine
 10
54.14087194513985
 20
94.97187531481015
 30
0.0
 11
51.13434329704976
 21
94.97187531481015
 31
0.0
  0
LINE
  5
CC8
330
C48
100
AcDbEntity
  8
0
  6
Continuous
 62
     7
100
AcDbLine
 10
50.02245398378477
 20
94.97187531481015
 30
0.0
 11
47.64751861931705
 21
94.97187531481015
 31
0.0
  0
LINE
  5
CC9
330
C48
100
AcDbEntity
  8
0
  6
Continuous
 62
     7
100
AcDbLine
 10
41.29368749202945
 20
94.97187531481015
 30
0.0
 11
38.91875212762784
 21
94.97187531481015
 31
0.0
  0
LINE
  5
CCA
330
C48
100
AcDbEntity
  8
0
  6
Continuous
 62
     7
100
AcDbLine
 10
37.80686281436294
 20
94.97187531481015
 30
0.0
 11
34.80033416627276
 21
94.97187531481015
 31
0.0
  0
LINE
  5
CCB
330
C48
100
AcDbEntity
  8
0
  6
Continuous
 62
     7
100
AcDbLine
 10
34.37563024032844
 20
94.97187531481015
 30
0.0
 11
34.05670305567324
 21
94.97187531481015
 31
0.0
  0
LINE
  5
CCC
330
C48
100
AcDbEntity
  8
0
  6
Continuous
 62
     7
100
AcDbLine
 10
42.93245507799094
 20
103.1093508668548
 30
0.0
 11
42.84058987593434
 21
92.58264136856524
 31
0.0
  0
LINE
  5
CCD
330
C48
100
AcDbEntity
  8
0
  6
Continuous
 62
     7
100
AcDbLine
 10
56.37220305567325
 20
96.06698889864924
 30
0.0
 11
55.98646146945515
 21
96.06698889864924
 31
0.0
  0
LINE
  5
CCE
330
C48
100
AcDbEntity
  8
0
  6
Continuous
 62
     7
100
AcDbLine
 10
55.55372239646676
 20
96.06698889864924
 30
0.0
 11
52.02053403805104
 21
96.06698889864924
 31
0.0
  0
LINE
  5
CCF
330
C48
100
AcDbEntity
  8
0
  6
Continuous
 62
     7
100
AcDbLine
 10
50.88760843665676
 20
96.06698889864924
 30
0.0
 11
47.63796170784402
 21
96.06698889864924
 31
0.0
  0
LINE
  5
CD0
330
C48
100
AcDbEntity
  8
0
  6
Continuous
 62
     7
100
AcDbLine
 10
41.30324440350233
 20
96.06698889864924
 30
0.0
 11
38.05359767468977
 21
96.06698889864924
 31
0.0
  0
LINE
  5
CD1
330
C48
100
AcDbEntity
  8
0
  6
Continuous
 62
     7
100
AcDbLine
 10
36.92067207329547
 20
96.06698889864924
 30
0.0
 11
33.38748371487975
 21
96.06698889864924
 31
0.0
  0
LINE
  5
CD2
330
C48
100
AcDbEntity
  8
0
  6
Continuous
 62
     7
100
AcDbLine
 10
32.95474464189136
 20
96.06698889864924
 30
0.0
 11
32.56900305567325
 21
96.06698889864924
 31
0.0
  0
LINE
  5
CD3
330
C48
100
AcDbEntity
  8
0
  6
Continuous
 62
     7
100
AcDbLine
 10
58.35580305567325
 20
96.51137778760324
 30
0.0
 11
57.88029420296203
 21
96.51137778760324
 31
0.0
  0
LINE
  5
CD4
330
C48
100
AcDbEntity
  8
0
  6
Continuous
 62
     7
100
AcDbLine
 10
56.05153713089984
 20
96.51137778760324
 30
0.0
 11
53.20169671250252
 21
96.51137778760324
 31
0.0
  0
LINE
  5
CD5
330
C48
100
AcDbEntity
  8
0
  6
Continuous
 62
     7
100
AcDbLine
 10
51.19244370301655
 20
96.51137778760324
 30
0.0
 11
47.79407611167866
 21
96.51137778760324
 31
0.0
  0
LINE
  5
CD6
330
C48
100
AcDbEntity
  8
0
  6
Continuous
 62
     7
100
AcDbLine
 10
41.14712999966783
 20
96.51137778760324
 30
0.0
 11
37.74876202933015
 21
96.51137778760324
 31
0.0
  0
LINE
  5
CD7
330
C48
100
AcDbEntity
  8
0
  6
Continuous
 62
     7
100
AcDbLine
 10
35.73950939891006
 20
96.51137778760324
 30
0.0
 11
32.88966835058756
 21
96.51137778760324
 31
0.0
  0
LINE
  5
CD8
330
C48
100
AcDbEntity
  8
0
  6
Continuous
 62
     7
100
AcDbLine
 10
31.06091190838436
 20
96.51137778760324
 30
0.0
 11
30.58540305567325
 21
96.51137778760324
 31
0.0
  0
LINE
  5
CD9
102
{ACAD_REACTORS
330
E31
102
}
330
C48
100
AcDbEntity
  8
TEIL_STARTBEZUEGE
  6
Continuous
 62
     9
100
AcDbLine
 10
44.05404705567323
 20
104.5752941644966
 30
0.0
 11
44.05404705567323
 21
90.83194218930822
 31
0.0
  0
LINE
  5
CDA
330
C48
100
AcDbEntity
  8
TEIL_STARTBEZUEGE
  6
Continuous
 62
     7
100
AcDbLine
 10
44.88715905567324
 20
104.5752941644966
 30
0.0
 11
44.88715905567324
 21
90.83194218930822
 31
0.0
  0
LINE
  5
CDB
330
C48
100
AcDbEntity
  8
0
  6
Continuous
 62
     7
100
AcDbLine
 10
58.35580305567325
 20
97.93721354692033
 30
0.0
 11
57.88029420296203
 21
97.93721354692033
 31
0.0
  0
LINE
  5
CDC
330
C48
100
AcDbEntity
  8
0
  6
Continuous
 62
     7
100
AcDbLine
 10
57.43684545385693
 20
97.93721354692033
 30
0.0
 11
53.20169671250252
 21
97.93721354692033
 31
0.0
  0
LINE
  5
CDD
330
C48
100
AcDbEntity
  8
0
  6
Continuous
 62
     7
100
AcDbLine
 10
52.04073281501843
 20
97.93721354692033
 30
0.0
 11
47.62164050462167
 21
97.93721354692033
 31
0.0
  0
LINE
  5
CDE
330
C48
100
AcDbEntity
  8
0
  6
Continuous
 62
     7
100
AcDbLine
 10
41.31956560679106
 20
97.93721354692033
 30
0.0
 11
36.90047329632808
 21
97.93721354692033
 31
0.0
  0
LINE
  5
CDF
330
C48
100
AcDbEntity
  8
0
  6
Continuous
 62
     7
100
AcDbLine
 10
35.73950939891006
 20
97.93721354692033
 30
0.0
 11
31.50436065748957
 21
97.93721354692033
 31
0.0
  0
LINE
  5
CE0
330
C48
100
AcDbEntity
  8
0
  6
Continuous
 62
     7
100
AcDbLine
 10
31.06091190838436
 20
97.93721354692033
 30
0.0
 11
30.58540305567325
 21
97.93721354692033
 31
0.0
  0
LINE
  5
CE1
330
C48
100
AcDbEntity
  8
0
  6
Continuous
 62
     7
100
AcDbLine
 10
46.10061623541215
 20
92.58264136856524
 30
0.0
 11
46.00875103335553
 21
103.1093508668548
 31
0.0
  0
LINE
  5
CE2
330
C48
100
AcDbEntity
  8
0
  6
Continuous
 62
     7
100
AcDbLine
 10
47.09237847070975
 20
92.59129634644114
 30
0.0
 11
47.00051326865303
 21
103.1180058447306
 31
0.0
  0
LINE
  5
CE3
330
C48
100
AcDbEntity
  8
0
  6
Continuous
 62
     7
100
AcDbLine
 10
59.84350305567324
 20
99.77859150050974
 30
0.0
 11
59.30032286219764
 21
99.77859150050974
 31
0.0
  0
LINE
  5
CE4
330
C48
100
AcDbEntity
  8
0
  6
Continuous
 62
     7
100
AcDbLine
 10
58.84884381204935
 20
99.77859150050974
 30
0.0
 11
54.08735298993966
 21
99.77859150050974
 31
0.0
  0
LINE
  5
CE5
330
C48
100
AcDbEntity
  8
0
  6
Continuous
 62
     7
100
AcDbLine
 10
52.90536549136553
 20
99.77859150050974
 30
0.0
 11
47.60557104265376
 21
99.77859150050974
 31
0.0
  0
LINE
  5
CE6
330
C48
100
AcDbEntity
  8
0
  6
Continuous
 62
     7
100
AcDbLine
 10
41.33563506869262
 20
99.77859150050974
 30
0.0
 11
36.03584061998095
 21
99.77859150050974
 31
0.0
  0
LINE
  5
CE7
330
C48
100
AcDbEntity
  8
0
  6
Continuous
 62
     7
100
AcDbLine
 10
34.85385312140696
 20
99.77859150050974
 30
0.0
 11
30.09236229929715
 21
99.77859150050974
 31
0.0
  0
LINE
  5
CE8
330
C48
100
AcDbEntity
  8
0
  6
Continuous
 62
     7
100
AcDbLine
 10
29.64088324914886
 20
99.77859150050974
 30
0.0
 11
29.09770305567325
 21
99.77859150050974
 31
0.0
  0
LINE
  5
CE9
330
C48
100
AcDbEntity
  8
0
  6
Continuous
 62
     9
100
AcDbLine
 10
47.60557104265376
 20
99.77859150050974
 30
0.0
 11
47.62164050462167
 21
97.93721354692033
 31
0.0
  0
LINE
  5
CEA
330
C48
100
AcDbEntity
  8
0
  6
Continuous
 62
     9
100
AcDbLine
 10
47.63796170784402
 20
96.06698889864924
 30
0.0
 11
47.64751861931705
 21
94.97187531481015
 31
0.0
  0
LINE
  5
CEB
330
C48
100
AcDbEntity
  8
0
  6
Continuous
 62
     9
100
AcDbLine
 10
47.65753763837866
 20
93.82380944334574
 30
0.0
 11
47.66334427872794
 21
93.15843436398314
 31
0.0
  0
LINE
  5
CEC
330
C48
100
AcDbEntity
  8
0
  6
Continuous
 62
     9
100
AcDbLine
 10
47.66524512260533
 20
92.94061922926672
 30
0.0
 11
47.67252057571044
 21
92.10693487914083
 31
0.0
  0
LINE
  5
CED
330
C48
100
AcDbEntity
  8
0
  6
Continuous
 62
     7
100
AcDbLine
 10
61.82710305567323
 20
101.074053011506
 30
0.0
 11
61.19337837203125
 21
101.074053011506
 31
0.0
  0
LINE
  5
CEE
330
C48
100
AcDbEntity
  8
0
  6
Continuous
 62
     7
100
AcDbLine
 10
59.64350363129944
 20
101.074053011506
 30
0.0
 11
55.26803091843845
 21
101.074053011506
 31
0.0
  0
LINE
  5
CEF
330
C48
100
AcDbEntity
  8
0
  6
Continuous
 62
     7
100
AcDbLine
 10
53.39197288612933
 20
101.074053011506
 30
0.0
 11
47.75425824824774
 21
101.074053011506
 31
0.0
  0
LINE
  5
CF0
330
C48
100
AcDbEntity
  8
0
  6
Continuous
 62
     7
100
AcDbLine
 10
41.18694786316484
 20
101.074053011506
 30
0.0
 11
35.54923299088784
 21
101.074053011506
 31
0.0
  0
LINE
  5
CF1
330
C48
100
AcDbEntity
  8
0
  6
Continuous
 62
     7
100
AcDbLine
 10
33.67317519290805
 20
101.074053011506
 30
0.0
 11
29.29770210184063
 21
101.074053011506
 31
0.0
  0
LINE
  5
CF2
330
C48
100
AcDbEntity
  8
0
  6
Continuous
 62
     7
100
AcDbLine
 10
27.74782773938134
 20
101.074053011506
 30
0.0
 11
27.11410305567324
 21
101.074053011506
 31
0.0
  0
LINE
  5
CF3
330
C48
100
AcDbEntity
  8
0
  6
Continuous
 62
     7
100
AcDbLine
 10
49.06443457931453
 20
93.15843436398314
 30
0.0
 11
49.06443457931453
 21
92.5310176146938
 31
0.0
  0
LINE
  5
CF4
330
C48
100
AcDbEntity
  8
0
  6
Continuous
 62
     7
100
AcDbLine
 10
49.42960305567325
 20
91.47099080463624
 30
0.0
 11
49.42960305567325
 21
92.49712092143633
 31
0.0
  0
LINE
  5
CF5
330
C48
100
AcDbEntity
  8
0
  6
Continuous
 62
     9
100
AcDbLine
 10
28.43251516103895
 20
101.8314025742098
 30
0.0
 11
28.89082756593796
 21
101.8314025742098
 31
0.0
  0
LINE
  5
CF6
330
C48
100
AcDbEntity
  8
0
  6
Continuous
 62
     9
100
AcDbLine
 10
34.10020721734265
 20
101.8314025742098
 30
0.0
 11
35.30008467082036
 21
101.8314025742098
 31
0.0
  0
LINE
  5
CF7
330
C48
100
AcDbEntity
  8
0
  6
Continuous
 62
     9
100
AcDbLine
 10
53.64112144052618
 20
101.8314025742098
 30
0.0
 11
54.84099889400383
 21
101.8314025742098
 31
0.0
  0
LINE
  5
CF8
330
C48
100
AcDbEntity
  8
0
  6
Continuous
 62
     9
100
AcDbLine
 10
60.05037854540853
 20
101.8314025742098
 30
0.0
 11
60.50869095030754
 21
101.8314025742098
 31
0.0
  0
LINE
  5
CF9
330
C48
100
AcDbEntity
  8
TEIL_STARTBEZUEGE
  6
Continuous
 62
     9
100
AcDbLine
 10
63.34307524141116
 20
102.7911093690143
 30
0.0
 11
25.59812183133136
 21
102.7911093690143
 31
0.0
  0
LINE
  5
CFA
330
C48
100
AcDbEntity
  8
0
  6
Continuous
 62
     7
100
AcDbLine
 10
41.38217969779773
 20
102.823300516245
 30
0.0
 11
34.88318948070824
 21
102.8233179743715
 31
0.0
  0
LINE
  5
CFB
330
C48
100
AcDbEntity
  8
0
  6
Continuous
 62
     7
100
AcDbLine
 10
54.05801663070434
 20
102.8233179743715
 30
0.0
 11
47.55913006378975
 21
102.8233173056338
 31
0.0
  0
LINE
  5
CFC
330
C48
100
AcDbEntity
  8
0
  6
Continuous
 62
     7
100
AcDbLine
 10
61.82710305567323
 20
102.8233179743715
 30
0.0
 11
61.19337837203125
 21
102.8233179743715
 31
0.0
  0
LINE
  5
CFD
330
C48
100
AcDbEntity
  8
0
  6
Continuous
 62
     7
100
AcDbLine
 10
60.73119404096101
 20
102.8233179743715
 30
0.0
 11
55.26803091843845
 21
102.8233179743715
 31
0.0
  0
LINE
  5
CFE
330
C48
100
AcDbEntity
  8
0
  6
Continuous
 62
     7
100
AcDbLine
 10
33.67317519290805
 20
102.8233179743715
 30
0.0
 11
28.21001207038545
 21
102.8233179743715
 31
0.0
  0
LINE
  5
CFF
330
C48
100
AcDbEntity
  8
0
  6
Continuous
 62
     7
100
AcDbLine
 10
27.74782773938134
 20
102.8233179743715
 30
0.0
 11
27.15393900365156
 21
102.8233179743715
 31
0.0
  0
LINE
  5
D00
330
C48
100
AcDbEntity
  8
0
  6
Continuous
 62
     7
100
AcDbLine
 10
61.90600570897103
 20
102.9036532457421
 30
0.0
 11
47.55139991693304
 21
102.9036401875049
 31
0.0
  0
LINE
  5
D01
102
{ACAD_REACTORS
330
E31
102
}
330
C48
100
AcDbEntity
  8
0
  6
Continuous
 62
     7
100
AcDbLine
 10
41.38980854960784
 20
102.9036410733146
 30
0.0
 11
27.10125623608926
 21
102.9036541266588
 31
0.0
  0
LINE
  5
D02
330
C48
100
AcDbEntity
  8
0
  6
Continuous
 62
     7
100
AcDbLine
 10
51.13434329704976
 20
94.97187531481015
 30
0.0
 11
51.13434329704976
 21
93.82380944334574
 31
0.0
  0
LINE
  5
D03
330
C48
100
AcDbEntity
  8
0
  6
Continuous
 62
     7
100
AcDbLine
 10
27.03519951504507
 20
102.9036541266588
 30
0.0
 11
25.87435305567325
 21
102.8332715151939
 31
0.0
  0
LINE
  5
D04
330
C48
100
AcDbEntity
  8
0
  6
Continuous
 62
     7
100
AcDbLine
 10
45.90957480979935
 20
103.2076653690143
 30
0.0
 11
43.03163130154715
 21
103.2076653690143
 31
0.0
  0
LINE
  5
D05
330
C48
100
AcDbEntity
  8
TEIL_STARTBEZUEGE
  6
Continuous
 62
     7
100
AcDbLine
 10
63.34307524141116
 20
103.6242213690143
 30
0.0
 11
25.59812183133136
 21
103.6242213690143
 31
0.0
  0
LINE
  5
D06
330
C48
100
AcDbEntity
  8
0
  6
Continuous
 62
     7
100
AcDbLine
 10
45.90957480979935
 20
104.1994653690143
 30
0.0
 11
43.03163130154715
 21
104.1994653690143
 31
0.0
  0
LINE
  5
D07
330
C48
100
AcDbEntity
  8
0
  6
Continuous
 62
     7
100
AcDbLine
 10
61.90600570897103
 20
102.9036532457421
 30
0.0
 11
63.06685305567325
 21
102.8332705182365
 31
0.0
  0
LINE
  5
D08
330
C48
100
AcDbEntity
  8
FASEN
  6
Continuous
 62
     7
100
AcDbLine
 10
46.92415691830876
 20
103.5092987734485
 30
0.0
 11
46.97908795642885
 21
103.472857679047
 31
0.0
  0
LINE
  5
D09
330
C48
100
AcDbEntity
  8
0
  6
Continuous
 62
     7
100
AcDbLine
 10
51.24676046154167
 20
93.15843436398314
 30
0.0
 11
51.24676046154167
 21
92.09574817400264
 31
0.0
  0
LINE
  5
D0A
330
C48
100
AcDbEntity
  8
0
  6
Continuous
 62
     7
100
AcDbLine
 10
51.41320305567325
 20
92.09574817400264
 30
0.0
 11
51.41320305567325
 21
93.15843436398314
 31
0.0
  0
LINE
  5
D0B
330
C48
100
AcDbEntity
  8
0
  6
Continuous
 62
     7
100
AcDbLine
 10
52.90090305567324
 20
92.72169993756163
 30
0.0
 11
52.90090305567324
 21
93.82380944334574
 31
0.0
  0
LINE
  5
D0C
330
C48
100
AcDbEntity
  8
0
  6
Continuous
 62
     7
100
AcDbLine
 10
53.20169671250252
 20
97.93721354692033
 30
0.0
 11
53.20169671250252
 21
96.51137778760324
 31
0.0
  0
LINE
  5
D0D
330
C48
100
AcDbEntity
  8
0
  6
Continuous
 62
     7
100
AcDbLine
 10
54.56557587101816
 20
94.97187531481015
 30
0.0
 11
54.56557587101816
 21
93.79465145305903
 31
0.0
  0
LINE
  5
D0E
330
C48
100
AcDbEntity
  8
0
  6
Continuous
 62
     7
100
AcDbLine
 10
54.88450305567323
 20
93.79465145305903
 30
0.0
 11
54.88450305567323
 21
94.97187531481015
 31
0.0
  0
LINE
  5
D0F
330
C48
100
AcDbEntity
  8
0
  6
Continuous
 62
     7
100
AcDbLine
 10
55.26803091843845
 20
102.8233179743715
 30
0.0
 11
55.26803091843845
 21
101.074053011506
 31
0.0
  0
LINE
  5
D10
330
C48
100
AcDbEntity
  8
0
  6
Continuous
 62
     7
100
AcDbLine
 10
56.37220305567325
 20
94.80831521844192
 30
0.0
 11
56.37220305567325
 21
96.06698889864924
 31
0.0
  0
LINE
  5
D11
330
C48
100
AcDbEntity
  8
0
  6
Continuous
 62
     7
100
AcDbLine
 10
57.88029420296203
 20
97.93721354692033
 30
0.0
 11
57.88029420296203
 21
96.51137778760324
 31
0.0
  0
LINE
  5
D12
330
C48
100
AcDbEntity
  8
0
  6
Continuous
 62
     7
100
AcDbLine
 10
58.35580305567325
 20
96.51137778760324
 30
0.0
 11
58.35580305567325
 21
97.93721354692033
 31
0.0
  0
LINE
  5
D13
330
C48
100
AcDbEntity
  8
0
  6
Continuous
 62
     7
100
AcDbLine
 10
59.84350305567324
 20
98.14153220091842
 30
0.0
 11
59.84350305567324
 21
99.77859150050974
 31
0.0
  0
LINE
  5
D14
330
C48
100
AcDbEntity
  8
0
  6
Continuous
 62
     7
100
AcDbLine
 10
61.19337837203125
 20
102.8233179743715
 30
0.0
 11
61.19337837203125
 21
101.074053011506
 31
0.0
  0
LINE
  5
D15
330
C48
100
AcDbEntity
  8
0
  6
Continuous
 62
     7
100
AcDbLine
 10
61.82710305567323
 20
101.074053011506
 30
0.0
 11
61.82710305567323
 21
102.8233179743715
 31
0.0
  0
LINE
  5
D16
330
C48
100
AcDbEntity
  8
0
  6
Continuous
 62
     7
100
AcDbLine
 10
63.06685305567325
 20
102.5850939854302
 30
0.0
 11
63.06685305567325
 21
102.8332705182365
 31
0.0
  0
ARC
  5
D17
330
C48
100
AcDbEntity
  8
FASEN
  6
Continuous
 62
     7
100
AcDbCircle
 10
39.37456023257286
 20
17.38154310500374
 30
0.0
 40
9.109831874970259
100
AcDbArc
 50
77.26606588599967
 51
77.70821621469919
  0
ARC
  5
D18
330
C48
100
AcDbEntity
  8
FASEN
  6
Continuous
 62
     7
100
AcDbCircle
 10
40.19055606933287
 20
20.99521878748553
 30
0.0
 40
5.40517257806703
100
AcDbArc
 50
76.50364566719992
 51
77.25954799630009
  0
CIRCLE
  5
D19
102
{ACAD_REACTORS
330
E2E
102
}
330
C48
100
AcDbEntity
  8
FASEN
  6
Continuous
 62
     7
100
AcDbCircle
 10
44.42014875991634
 20
43.58531274028692
 30
0.0
 40
18.7498125
  0
ARC
  5
D1A
330
C48
100
AcDbEntity
  8
FASEN
  6
Continuous
 62
     7
100
AcDbCircle
 10
44.42014875991634
 20
43.58531274028692
 30
0.0
 40
17.64982424385923
100
AcDbArc
 50
265.2848402978003
 51
274.7151597021997
  0
ARC
  5
D1B
330
C48
100
AcDbEntity
  8
FASEN
  6
Continuous
 62
     7
100
AcDbCircle
 10
44.42014875991634
 20
43.58531274028692
 30
0.0
 40
17.64982424385923
100
AcDbArc
 50
85.28484029780031
 51
94.71515970219966
  0
ARC
  5
D1C
330
C48
100
AcDbEntity
  8
FASEN
  6
Continuous
 62
     7
100
AcDbCircle
 10
44.42014875991634
 20
43.58531274028692
 30
0.0
 40
17.57938010344101
100
AcDbArc
 50
100.1773379076999
 51
259.8226537495001
  0
ARC
  5
D1D
330
C48
100
AcDbEntity
  8
FASEN
  6
Continuous
 62
     7
100
AcDbCircle
 10
44.42014875991634
 20
43.58531274028692
 30
0.0
 40
17.57937920878329
100
AcDbArc
 50
280.1773379118999
 51
79.82265375290005
  0
ARC
  5
D1E
330
C48
100
AcDbEntity
  8
0
  6
Continuous
 62
     7
100
AcDbCircle
 10
44.42014875991634
 20
43.58531274028692
 30
0.0
 40
17.499825
100
AcDbArc
 50
200.4694361603995
 51
231.5305638396005
  0
ARC
  5
D1F
330
C48
100
AcDbEntity
  8
0
  6
Continuous
 62
     7
100
AcDbCircle
 10
44.42014875991634
 20
43.58531274028692
 30
0.0
 40
17.499825
100
AcDbArc
 50
164.4694361603992
 51
195.5305638395992
  0
ARC
  5
D20
330
C48
100
AcDbEntity
  8
0
  6
Continuous
 62
     7
100
AcDbCircle
 10
44.42014875991634
 20
43.58531274028692
 30
0.0
 40
17.499825
100
AcDbArc
 50
128.4694361603995
 51
159.5305638396004
  0
ARC
  5
D21
330
C48
100
AcDbEntity
  8
0
  6
Continuous
 62
     7
100
AcDbCircle
 10
44.42014875991634
 20
43.58531274028692
 30
0.0
 40
17.499825
100
AcDbArc
 50
20.46943616039955
 51
51.53056383960048
  0
ARC
  5
D22
330
C48
100
AcDbEntity
  8
0
  6
Continuous
 62
     7
100
AcDbCircle
 10
44.42014875991634
 20
43.58531274028692
 30
0.0
 40
17.499825
100
AcDbArc
 50
344.4694361603992
 51
15.53056383960079
  0
ARC
  5
D23
330
C48
100
AcDbEntity
  8
0
  6
Continuous
 62
     7
100
AcDbCircle
 10
44.42014875991634
 20
43.58531274028692
 30
0.0
 40
17.499825
100
AcDbArc
 50
308.4694361603995
 51
339.5305638396004
  0
ARC
  5
D24
330
C48
100
AcDbEntity
  8
0
  6
Continuous
 62
     7
100
AcDbCircle
 10
44.42014875991634
 20
43.58531274028692
 30
0.0
 40
17.499825
100
AcDbArc
 50
56.46943616039978
 51
87.5305638396002
  0
ARC
  5
D25
330
C48
100
AcDbEntity
  8
0
  6
Continuous
 62
     7
100
AcDbCircle
 10
44.42014875991634
 20
43.58531274028692
 30
0.0
 40
17.499825
100
AcDbArc
 50
272.4694361603998
 51
303.5305638396002
  0
ARC
  5
D26
330
C48
100
AcDbEntity
  8
0
  6
Continuous
 62
     7
100
AcDbCircle
 10
44.42014875991634
 20
43.58531274028692
 30
0.0
 40
17.499825
100
AcDbArc
 50
236.4694361603998
 51
267.5305638396002
  0
ARC
  5
D27
330
C48
100
AcDbEntity
  8
0
  6
Continuous
 62
     7
100
AcDbCircle
 10
44.42014875991634
 20
43.58531274028692
 30
0.0
 40
17.499825
100
AcDbArc
 50
92.46943616039981
 51
123.5305638396002
  0
ARC
  5
D28
330
C48
100
AcDbEntity
  8
0
  6
Continuous
 62
     9
100
AcDbCircle
 10
44.42014875991634
 20
43.58531274028692
 30
0.0
 40
16.77642797870922
100
AcDbArc
 50
303.4456063938
 51
308.5543936062007
  0
ARC
  5
D29
330
C48
100
AcDbEntity
  8
0
  6
Continuous
 62
     9
100
AcDbCircle
 10
44.42014875991634
 20
43.58531274028692
 30
0.0
 40
16.77642797870922
100
AcDbArc
 50
231.4456063937992
 51
236.5543936062
  0
ARC
  5
D2A
330
C48
100
AcDbEntity
  8
0
  6
Continuous
 62
     9
100
AcDbCircle
 10
44.42014875991634
 20
43.58531274028692
 30
0.0
 40
16.77642797870922
100
AcDbArc
 50
195.4456063938003
 51
200.5543936061994
  0
ARC
  5
D2B
330
C48
100
AcDbEntity
  8
0
  6
Continuous
 62
     9
100
AcDbCircle
 10
44.42014875991634
 20
43.58531274028692
 30
0.0
 40
16.77642797870922
100
AcDbArc
 50
159.4456063938006
 51
164.5543936061996
  0
ARC
  5
D2C
330
C48
100
AcDbEntity
  8
0
  6
Continuous
 62
     9
100
AcDbCircle
 10
44.42014875991634
 20
43.58531274028692
 30
0.0
 40
16.77642797870922
100
AcDbArc
 50
123.4456063938
 51
128.5543936061991
  0
ARC
  5
D2D
330
C48
100
AcDbEntity
  8
0
  6
Continuous
 62
     9
100
AcDbCircle
 10
44.42014875991634
 20
43.58531274028692
 30
0.0
 40
16.77642797870922
100
AcDbArc
 50
51.44560639379989
 51
56.55439360620001
  0
ARC
  5
D2E
330
C48
100
AcDbEntity
  8
0
  6
Continuous
 62
     9
100
AcDbCircle
 10
44.42014875991634
 20
43.58531274028692
 30
0.0
 40
16.77642797870922
100
AcDbArc
 50
15.4456063938004
 51
20.55439360619942
  0
ARC
  5
D2F
330
C48
100
AcDbEntity
  8
0
  6
Continuous
 62
     9
100
AcDbCircle
 10
44.42014875991634
 20
43.58531274028692
 30
0.0
 40
16.77642797870922
100
AcDbArc
 50
339.445606393799
 51
344.5543936061996
  0
ARC
  5
D30
330
C48
100
AcDbEntity
  8
0
  6
Continuous
 62
     7
100
AcDbCircle
 10
44.42014875991634
 20
43.58531274028692
 30
0.0
 40
15.499845
100
AcDbArc
 50
236.7236773159999
 51
267.2763226840002
  0
ARC
  5
D31
330
C48
100
AcDbEntity
  8
0
  6
Continuous
 62
     7
100
AcDbCircle
 10
44.42014875991634
 20
43.58531274028692
 30
0.0
 40
15.499845
100
AcDbArc
 50
92.72367731599985
 51
123.2763226840001
  0
ARC
  5
D32
330
C48
100
AcDbEntity
  8
0
  6
Continuous
 62
     7
100
AcDbCircle
 10
44.42014875991634
 20
43.58531274028692
 30
0.0
 40
15.499845
100
AcDbArc
 50
128.7236773159992
 51
159.2763226840006
  0
ARC
  5
D33
330
C48
100
AcDbEntity
  8
0
  6
Continuous
 62
     7
100
AcDbCircle
 10
44.42014875991634
 20
43.58531274028692
 30
0.0
 40
15.499845
100
AcDbArc
 50
164.7236773159993
 51
195.2763226840006
  0
ARC
  5
D34
330
C48
100
AcDbEntity
  8
0
  6
Continuous
 62
     7
100
AcDbCircle
 10
44.42014875991634
 20
43.58531274028692
 30
0.0
 40
15.499845
100
AcDbArc
 50
200.7236773159994
 51
231.2763226840007
  0
ARC
  5
D35
330
C48
100
AcDbEntity
  8
0
  6
Continuous
 62
     7
100
AcDbCircle
 10
44.42014875991634
 20
43.58531274028692
 30
0.0
 40
15.499845
100
AcDbArc
 50
272.7236773159999
 51
303.2763226840001
  0
ARC
  5
D36
330
C48
100
AcDbEntity
  8
0
  6
Continuous
 62
     7
100
AcDbCircle
 10
44.42014875991634
 20
43.58531274028692
 30
0.0
 40
15.499845
100
AcDbArc
 50
308.7236773159993
 51
339.2763226840006
  0
ARC
  5
D37
330
C48
100
AcDbEntity
  8
0
  6
Continuous
 62
     7
100
AcDbCircle
 10
44.42014875991634
 20
43.58531274028692
 30
0.0
 40
15.499845
100
AcDbArc
 50
344.7236773159993
 51
15.27632268400064
  0
ARC
  5
D38
330
C48
100
AcDbEntity
  8
0
  6
Continuous
 62
     7
100
AcDbCircle
 10
44.42014875991634
 20
43.58531274028692
 30
0.0
 40
15.499845
100
AcDbArc
 50
20.72367731599941
 51
51.27632268400069
  0
ARC
  5
D39
330
C48
100
AcDbEntity
  8
0
  6
Continuous
 62
     7
100
AcDbCircle
 10
44.42014875991634
 20
43.58531274028692
 30
0.0
 40
15.499845
100
AcDbArc
 50
56.72367731599992
 51
87.27632268400014
  0
ARC
  5
D3A
330
C48
100
AcDbEntity
  8
0
  6
Continuous
 62
     7
100
AcDbCircle
 10
44.42014875991634
 20
43.58531274028692
 30
0.0
 40
13.99986
100
AcDbArc
 50
200.9620680963996
 51
231.0379319035994
  0
ARC
  5
D3B
330
C48
100
AcDbEntity
  8
0
  6
Continuous
 62
     7
100
AcDbCircle
 10
44.42014875991634
 20
43.58531274028692
 30
0.0
 40
13.99986
100
AcDbArc
 50
236.9620680963998
 51
267.0379319035999
  0
ARC
  5
D3C
330
C48
100
AcDbEntity
  8
0
  6
Continuous
 62
     7
100
AcDbCircle
 10
44.42014875991634
 20
43.58531274028692
 30
0.0
 40
13.99986
100
AcDbArc
 50
92.96206809640009
 51
123.0379319036002
  0
ARC
  5
D3D
330
C48
100
AcDbEntity
  8
0
  6
Continuous
 62
     7
100
AcDbCircle
 10
44.42014875991634
 20
43.58531274028692
 30
0.0
 40
13.99986
100
AcDbArc
 50
272.9620680964
 51
303.0379319036001
  0
ARC
  5
D3E
330
C48
100
AcDbEntity
  8
0
  6
Continuous
 62
     7
100
AcDbCircle
 10
44.42014875991634
 20
43.58531274028692
 30
0.0
 40
13.99986
100
AcDbArc
 50
56.96206809639981
 51
87.03793190359991
  0
ARC
  5
D3F
330
C48
100
AcDbEntity
  8
0
  6
Continuous
 62
     7
100
AcDbCircle
 10
44.42014875991634
 20
43.58531274028692
 30
0.0
 40
13.99986
100
AcDbArc
 50
308.9620680963999
 51
339.0379319036004
  0
ARC
  5
D40
330
C48
100
AcDbEntity
  8
0
  6
Continuous
 62
     7
100
AcDbCircle
 10
44.42014875991634
 20
43.58531274028692
 30
0.0
 40
13.99986
100
AcDbArc
 50
344.9620680963998
 51
15.03793190360016
  0
ARC
  5
D41
330
C48
100
AcDbEntity
  8
0
  6
Continuous
 62
     7
100
AcDbCircle
 10
44.42014875991634
 20
43.58531274028692
 30
0.0
 40
13.99986
100
AcDbArc
 50
20.96206809639962
 51
51.03793190359938
  0
ARC
  5
D42
330
C48
100
AcDbEntity
  8
0
  6
Continuous
 62
     7
100
AcDbCircle
 10
44.42014875991634
 20
43.58531274028692
 30
0.0
 40
13.99986
100
AcDbArc
 50
128.9620680964
 51
159.0379319036004
  0
ARC
  5
D43
330
C48
100
AcDbEntity
  8
0
  6
Continuous
 62
     7
100
AcDbCircle
 10
44.42014875991634
 20
43.58531274028692
 30
0.0
 40
13.99986
100
AcDbArc
 50
164.9620680963998
 51
195.0379319036001
  0
ARC
  5
D44
330
C48
100
AcDbEntity
  8
0
  6
Continuous
 62
     7
100
AcDbCircle
 10
44.42014875991634
 20
43.58531274028692
 30
0.0
 40
11.99988
100
AcDbArc
 50
201.3727323320002
 51
230.6272676679998
  0
ARC
  5
D45
330
C48
100
AcDbEntity
  8
0
  6
Continuous
 62
     7
100
AcDbCircle
 10
44.42014875991634
 20
43.58531274028692
 30
0.0
 40
11.99988
100
AcDbArc
 50
237.3727323319997
 51
266.6272676680003
  0
ARC
  5
D46
330
C48
100
AcDbEntity
  8
0
  6
Continuous
 62
     7
100
AcDbCircle
 10
44.42014875991634
 20
43.58531274028692
 30
0.0
 40
11.99988
100
AcDbArc
 50
93.37273233199972
 51
122.6272676679994
  0
ARC
  5
D47
330
C48
100
AcDbEntity
  8
0
  6
Continuous
 62
     7
100
AcDbCircle
 10
44.42014875991634
 20
43.58531274028692
 30
0.0
 40
11.99988
100
AcDbArc
 50
273.3727323319997
 51
302.6272676679994
  0
ARC
  5
D48
330
C48
100
AcDbEntity
  8
0
  6
Continuous
 62
     7
100
AcDbCircle
 10
44.42014875991634
 20
43.58531274028692
 30
0.0
 40
11.99988
100
AcDbArc
 50
57.37273233199971
 51
86.62726766800025
  0
ARC
  5
D49
330
C48
100
AcDbEntity
  8
0
  6
Continuous
 62
     7
100
AcDbCircle
 10
44.42014875991634
 20
43.58531274028692
 30
0.0
 40
11.99988
100
AcDbArc
 50
309.3727323320002
 51
338.6272676679998
  0
ARC
  5
D4A
330
C48
100
AcDbEntity
  8
0
  6
Continuous
 62
     7
100
AcDbCircle
 10
44.42014875991634
 20
43.58531274028692
 30
0.0
 40
11.99988
100
AcDbArc
 50
345.3727323320007
 51
14.62726766799933
  0
ARC
  5
D4B
330
C48
100
AcDbEntity
  8
0
  6
Continuous
 62
     7
100
AcDbCircle
 10
44.42014875991634
 20
43.58531274028692
 30
0.0
 40
11.99988
100
AcDbArc
 50
21.37273233200018
 51
50.62726766799979
  0
ARC
  5
D4C
330
C48
100
AcDbEntity
  8
0
  6
Continuous
 62
     7
100
AcDbCircle
 10
44.42014875991634
 20
43.58531274028692
 30
0.0
 40
11.99988
100
AcDbArc
 50
129.3727323320002
 51
158.6272676679998
  0
ARC
  5
D4D
330
C48
100
AcDbEntity
  8
0
  6
Continuous
 62
     7
100
AcDbCircle
 10
44.42014875991634
 20
43.58531274028692
 30
0.0
 40
11.99988
100
AcDbArc
 50
165.3727323320006
 51
194.6272676679993
  0
ARC
  5
D4E
330
C48
100
AcDbEntity
  8
0
  6
Continuous
 62
     7
100
AcDbCircle
 10
44.42014875991634
 20
43.58531274028692
 30
0.0
 40
10.499895
100
AcDbArc
 50
201.7835443264003
 51
230.2164556736001
  0
ARC
  5
D4F
330
C48
100
AcDbEntity
  8
0
  6
Continuous
 62
     7
100
AcDbCircle
 10
44.42014875991634
 20
43.58531274028692
 30
0.0
 40
10.499895
100
AcDbArc
 50
237.7835443264004
 51
266.2164556735998
  0
ARC
  5
D50
330
C48
100
AcDbEntity
  8
0
  6
Continuous
 62
     7
100
AcDbCircle
 10
44.42014875991634
 20
43.58531274028692
 30
0.0
 40
10.499895
100
AcDbArc
 50
93.78354432640016
 51
122.2164556735996
  0
ARC
  5
D51
330
C48
100
AcDbEntity
  8
0
  6
Continuous
 62
     7
100
AcDbCircle
 10
44.42014875991634
 20
43.58531274028692
 30
0.0
 40
10.499895
100
AcDbArc
 50
273.7835443263993
 51
302.2164556735996
  0
ARC
  5
D52
330
C48
100
AcDbEntity
  8
0
  6
Continuous
 62
     7
100
AcDbCircle
 10
44.42014875991634
 20
43.58531274028692
 30
0.0
 40
10.499895
100
AcDbArc
 50
57.78354432640034
 51
86.21645567359985
  0
ARC
  5
D53
330
C48
100
AcDbEntity
  8
0
  6
Continuous
 62
     7
100
AcDbCircle
 10
44.42014875991634
 20
43.58531274028692
 30
0.0
 40
10.499895
100
AcDbArc
 50
309.7835443263999
 51
338.2164556735997
  0
ARC
  5
D54
330
C48
100
AcDbEntity
  8
0
  6
Continuous
 62
     7
100
AcDbCircle
 10
44.42014875991634
 20
43.58531274028692
 30
0.0
 40
10.499895
100
AcDbArc
 50
345.7835443263995
 51
14.21645567360046
  0
ARC
  5
D55
330
C48
100
AcDbEntity
  8
0
  6
Continuous
 62
     7
100
AcDbCircle
 10
44.42014875991634
 20
43.58531274028692
 30
0.0
 40
10.499895
100
AcDbArc
 50
21.78354432640029
 51
50.21645567360007
  0
ARC
  5
D56
330
C48
100
AcDbEntity
  8
0
  6
Continuous
 62
     7
100
AcDbCircle
 10
44.42014875991634
 20
43.58531274028692
 30
0.0
 40
10.499895
100
AcDbArc
 50
129.7835443263999
 51
158.2164556735997
  0
ARC
  5
D57
330
C48
100
AcDbEntity
  8
0
  6
Continuous
 62
     7
100
AcDbCircle
 10
44.42014875991634
 20
43.58531274028692
 30
0.0
 40
10.499895
100
AcDbArc
 50
165.7835443263995
 51
194.2164556736004
  0
ARC
  5
D58
330
C48
100
AcDbEntity
  8
0
  6
Continuous
 62
     7
100
AcDbCircle
 10
44.42014875991634
 20
43.58531274028692
 30
0.0
 40
8.499914999999999
100
AcDbArc
 50
202.557313184701
 51
229.4426868153003
  0
ARC
  5
D59
330
C48
100
AcDbEntity
  8
0
  6
Continuous
 62
     7
100
AcDbCircle
 10
44.42014875991634
 20
43.58531274028692
 30
0.0
 40
8.499914999999999
100
AcDbArc
 50
238.5573131846993
 51
265.4426868152997
  0
ARC
  5
D5A
330
C48
100
AcDbEntity
  8
0
  6
Continuous
 62
     7
100
AcDbCircle
 10
44.42014875991634
 20
43.58531274028692
 30
0.0
 40
8.499914999999999
100
AcDbArc
 50
94.55731318470032
 51
121.4426868153007
  0
ARC
  5
D5B
330
C48
100
AcDbEntity
  8
0
  6
Continuous
 62
     7
100
AcDbCircle
 10
44.42014875991634
 20
43.58531274028692
 30
0.0
 40
8.499914999999999
100
AcDbArc
 50
58.55731318469932
 51
85.44268681529969
  0
ARC
  5
D5C
330
C48
100
AcDbEntity
  8
0
  6
Continuous
 62
     7
100
AcDbCircle
 10
44.42014875991634
 20
43.58531274028692
 30
0.0
 40
8.499914999999999
100
AcDbArc
 50
274.5573131847003
 51
301.4426868152991
  0
ARC
  5
D5D
330
C48
100
AcDbEntity
  8
0
  6
Continuous
 62
     7
100
AcDbCircle
 10
44.42014875991634
 20
43.58531274028692
 30
0.0
 40
8.499914999999999
100
AcDbArc
 50
310.5573131846997
 51
337.442686815299
  0
ARC
  5
D5E
330
C48
100
AcDbEntity
  8
0
  6
Continuous
 62
     7
100
AcDbCircle
 10
44.42014875991634
 20
43.58531274028692
 30
0.0
 40
8.499914999999999
100
AcDbArc
 50
346.5573131847006
 51
13.44268681529938
  0
ARC
  5
D5F
330
C48
100
AcDbEntity
  8
0
  6
Continuous
 62
     7
100
AcDbCircle
 10
44.42014875991634
 20
43.58531274028692
 30
0.0
 40
8.499914999999999
100
AcDbArc
 50
22.55731318470104
 51
49.44268681530026
  0
ARC
  5
D60
330
C48
100
AcDbEntity
  8
0
  6
Continuous
 62
     7
100
AcDbCircle
 10
44.42014875991634
 20
43.58531274028692
 30
0.0
 40
8.499914999999999
100
AcDbArc
 50
130.5573131846997
 51
157.442686815299
  0
ARC
  5
D61
330
C48
100
AcDbEntity
  8
0
  6
Continuous
 62
     7
100
AcDbCircle
 10
44.42014875991634
 20
43.58531274028692
 30
0.0
 40
8.499914999999999
100
AcDbArc
 50
166.5573131847006
 51
193.4426868152993
  0
ARC
  5
D62
330
C48
100
AcDbEntity
  8
0
  6
Continuous
 62
     7
100
AcDbCircle
 10
44.42014875991634
 20
43.58531274028692
 30
0.0
 40
6.999929999999999
100
AcDbArc
 50
203.4286972105999
 51
228.5713027893998
  0
ARC
  5
D63
330
C48
100
AcDbEntity
  8
0
  6
Continuous
 62
     7
100
AcDbCircle
 10
44.42014875991634
 20
43.58531274028692
 30
0.0
 40
6.999929999999999
100
AcDbArc
 50
239.4286972105993
 51
264.5713027894001
  0
ARC
  5
D64
330
C48
100
AcDbEntity
  8
0
  6
Continuous
 62
     7
100
AcDbCircle
 10
44.42014875991634
 20
43.58531274028692
 30
0.0
 40
6.999929999999999
100
AcDbArc
 50
95.42869721059989
 51
120.5713027894007
  0
ARC
  5
D65
330
C48
100
AcDbEntity
  8
0
  6
Continuous
 62
     7
100
AcDbCircle
 10
44.42014875991634
 20
43.58531274028692
 30
0.0
 40
6.999929999999999
100
AcDbArc
 50
59.42869721059929
 51
84.5713027894001
  0
ARC
  5
D66
330
C48
100
AcDbEntity
  8
0
  6
Continuous
 62
     7
100
AcDbCircle
 10
44.42014875991634
 20
43.58531274028692
 30
0.0
 40
6.999929999999999
100
AcDbArc
 50
275.4286972105999
 51
300.5713027893992
  0
ARC
  5
D67
330
C48
100
AcDbEntity
  8
0
  6
Continuous
 62
     7
100
AcDbCircle
 10
44.42014875991634
 20
43.58531274028692
 30
0.0
 40
6.999929999999999
100
AcDbArc
 50
311.4286972106002
 51
336.5713027894001
  0
ARC
  5
D68
330
C48
100
AcDbEntity
  8
0
  6
Continuous
 62
     7
100
AcDbCircle
 10
44.42014875991634
 20
43.58531274028692
 30
0.0
 40
6.999929999999999
100
AcDbArc
 50
347.4286972105994
 51
12.57130278940059
  0
ARC
  5
D69
330
C48
100
AcDbEntity
  8
0
  6
Continuous
 62
     7
100
AcDbCircle
 10
44.42014875991634
 20
43.58531274028692
 30
0.0
 40
6.999929999999999
100
AcDbArc
 50
23.42869721059987
 51
48.5713027893998
  0
ARC
  5
D6A
330
C48
100
AcDbEntity
  8
0
  6
Continuous
 62
     7
100
AcDbCircle
 10
44.42014875991634
 20
43.58531274028692
 30
0.0
 40
6.999929999999999
100
AcDbArc
 50
131.4286972106002
 51
156.5713027894001
  0
ARC
  5
D6B
330
C48
100
AcDbEntity
  8
0
  6
Continuous
 62
     7
100
AcDbCircle
 10
44.42014875991634
 20
43.58531274028692
 30
0.0
 40
6.999929999999999
100
AcDbArc
 50
167.4286972105994
 51
192.5713027894006
  0
ARC
  5
D6C
330
C48
100
AcDbEntity
  8
0
  6
Continuous
 62
     7
100
AcDbCircle
 10
44.42014875991634
 20
43.58531274028692
 30
0.0
 40
4.99995
100
AcDbArc
 50
205.4083963310995
 51
226.5916036689007
  0
ARC
  5
D6D
330
C48
100
AcDbEntity
  8
0
  6
Continuous
 62
     7
100
AcDbCircle
 10
44.42014875991634
 20
43.58531274028692
 30
0.0
 40
4.99995
100
AcDbArc
 50
61.40839633109991
 51
82.59160366889988
  0
ARC
  5
D6E
330
C48
100
AcDbEntity
  8
0
  6
Continuous
 62
     7
100
AcDbCircle
 10
44.42014875991634
 20
43.58531274028692
 30
0.0
 40
4.99995
100
AcDbArc
 50
277.4083963311001
 51
298.5916036689001
  0
ARC
  5
D6F
330
C48
100
AcDbEntity
  8
0
  6
Continuous
 62
     7
100
AcDbCircle
 10
44.42014875991634
 20
43.58531274028692
 30
0.0
 40
4.99995
100
AcDbArc
 50
241.4083963311
 51
262.5916036688998
  0
ARC
  5
D70
330
C48
100
AcDbEntity
  8
0
  6
Continuous
 62
     7
100
AcDbCircle
 10
44.42014875991634
 20
43.58531274028692
 30
0.0
 40
4.99995
100
AcDbArc
 50
97.40839633110013
 51
118.5916036689
  0
ARC
  5
D71
330
C48
100
AcDbEntity
  8
0
  6
Continuous
 62
     7
100
AcDbCircle
 10
44.42014875991634
 20
43.58531274028692
 30
0.0
 40
4.99995
100
AcDbArc
 50
313.4083963310993
 51
334.5916036689001
  0
ARC
  5
D72
330
C48
100
AcDbEntity
  8
0
  6
Continuous
 62
     7
100
AcDbCircle
 10
44.42014875991634
 20
43.58531274028692
 30
0.0
 40
4.99995
100
AcDbArc
 50
349.4083963311005
 51
10.59160366889955
  0
ARC
  5
D73
330
C48
100
AcDbEntity
  8
0
  6
Continuous
 62
     7
100
AcDbCircle
 10
44.42014875991634
 20
43.58531274028692
 30
0.0
 40
4.99995
100
AcDbArc
 50
25.40839633109988
 51
46.59160366890071
  0
ARC
  5
D74
330
C48
100
AcDbEntity
  8
0
  6
Continuous
 62
     7
100
AcDbCircle
 10
44.42014875991634
 20
43.58531274028692
 30
0.0
 40
4.99995
100
AcDbArc
 50
133.4083963310993
 51
154.5916036689004
  0
ARC
  5
D75
330
C48
100
AcDbEntity
  8
0
  6
Continuous
 62
     7
100
AcDbCircle
 10
44.42014875991634
 20
43.58531274028692
 30
0.0
 40
4.99995
100
AcDbArc
 50
169.4083963311004
 51
190.5916036688995
  0
ARC
  5
D76
330
C48
100
AcDbEntity
  8
FASEN
  6
Continuous
 62
     7
100
AcDbCircle
 10
49.46574084449093
 20
69.78909800228064
 30
0.0
 40
9.109847901476658
100
AcDbArc
 50
257.2660657431001
 51
257.7082153208999
  0
ARC
  5
D77
330
C48
100
AcDbEntity
  8
FASEN
  6
Continuous
 62
     7
100
AcDbCircle
 10
48.64974194042824
 20
66.17540877866767
 30
0.0
 40
5.40517472037894
100
AcDbArc
 50
256.5036457768997
 51
257.2595478329998
  0
ARC
  5
D78
330
C48
100
AcDbEntity
  8
0
  6
Continuous
 62
     7
100
AcDbCircle
 10
43.06901560363335
 20
100.4086510099308
 30
0.0
 40
8.769083445211681
100
AcDbArc
 50
301.6103827823997
 51
304.229304655
  0
ARC
  5
D79
330
C48
100
AcDbEntity
  8
0
  6
Continuous
 62
     7
100
AcDbCircle
 10
24.89127248349016
 20
99.81585152516291
 30
0.0
 40
4.47871487023944
100
AcDbArc
 50
26.74553705100052
 51
42.18310386639926
  0
ARC
  5
D7A
330
C48
100
AcDbEntity
  8
0
  6
Continuous
 62
     7
100
AcDbCircle
 10
23.89075305567324
 20
99.73636536901436
 30
0.0
 40
4.463099999999998
100
AcDbArc
 50
43.7617426927003
 51
45.20735368740012
  0
ARC
  5
D7B
330
C48
100
AcDbEntity
  8
0
  6
Continuous
 62
     7
100
AcDbCircle
 10
24.46185545379235
 20
99.82284998604981
 30
0.0
 40
4.449766511892
100
AcDbArc
 50
26.83250286159874
 51
42.39964787159972
  0
ARC
  5
D7C
330
C48
100
AcDbEntity
  8
0
  6
Continuous
 62
     7
100
AcDbCircle
 10
23.89075305567324
 20
99.73636536901436
 30
0.0
 40
3.471299999999999
100
AcDbArc
 50
27.99620049380115
 51
55.15009542100024
  0
ARC
  5
D7D
330
C48
100
AcDbEntity
  8
0
  6
Continuous
 62
     7
100
AcDbCircle
 10
40.99377314352506
 20
98.08377035031165
 30
0.0
 40
1.60335248895624
100
AcDbArc
 50
300.1923197302001
 51
303.7038783430002
  0
ARC
  5
D7E
330
C48
100
AcDbEntity
  8
0
  6
Continuous
 62
     7
100
AcDbCircle
 10
41.35294652298805
 20
92.59562383544517
 30
0.0
 40
1.4877
100
AcDbArc
 50
260.2171067028
 51
359.5000000000003
  0
ARC
  5
D7F
330
C48
100
AcDbEntity
  8
0
  6
Continuous
 62
     7
100
AcDbCircle
 10
41.35294652298805
 20
92.59562383544517
 30
0.0
 40
0.4959
100
AcDbArc
 50
260.2171067028
 51
359.5000000000003
  0
ARC
  5
D80
330
C48
100
AcDbEntity
  8
0
  6
Continuous
 62
     7
100
AcDbCircle
 10
31.30105366917937
 20
108.9618158729832
 30
0.0
 40
25.23158341098636
100
AcDbArc
 50
338.6536078777999
 51
341.7831271192993
  0
ARC
  5
D81
330
C48
100
AcDbEntity
  8
0
  6
Continuous
 62
     7
100
AcDbCircle
 10
43.50868908441984
 20
110.409469352112
 30
0.0
 40
19.9974556744326
100
AcDbArc
 50
324.7756026343002
 51
332.1712657520006
  0
ARC
  5
D82
330
C48
100
AcDbEntity
  8
0
  6
Continuous
 62
     7
100
AcDbCircle
 10
44.09181064852742
 20
109.9380201292101
 30
0.0
 40
19.24570090439148
100
AcDbArc
 50
309.6503089783005
 51
315.7617364306998
  0
ARC
  5
D83
330
C48
100
AcDbEntity
  8
0
  6
Continuous
 62
     7
100
AcDbCircle
 10
43.52856954681385
 20
110.4445397949807
 30
0.0
 40
19.03971259397196
100
AcDbArc
 50
325.930728358799
 51
333.1036767223001
  0
ARC
  5
D84
330
C48
100
AcDbEntity
  8
0
  6
Continuous
 62
     7
100
AcDbCircle
 10
43.07494306922416
 20
110.3892850089423
 30
0.0
 40
19.01059602885708
100
AcDbArc
 50
326.0723024524007
 51
333.2458053613994
  0
ARC
  5
D85
330
C48
100
AcDbEntity
  8
0
  6
Continuous
 62
     7
100
AcDbCircle
 10
44.42885575245674
 20
109.4913233063161
 30
0.0
 40
18.68525092233684
100
AcDbArc
 50
297.2859480590001
 51
302.8538833313
  0
ARC
  5
D86
330
C48
100
AcDbEntity
  8
0
  6
Continuous
 62
     7
100
AcDbCircle
 10
44.45109103481317
 20
109.3782797295398
 30
0.0
 40
18.55670271356039
100
AcDbArc
 50
242.7215832092997
 51
243.0466564495997
  0
ARC
  5
D87
330
C48
100
AcDbEntity
  8
0
  6
Continuous
 62
     7
100
AcDbCircle
 10
44.04079958399893
 20
110.0563134458089
 30
0.0
 40
18.39576564506639
100
AcDbArc
 50
311.4011293632996
 51
318.7917082412988
  0
ARC
  5
D88
330
C48
100
AcDbEntity
  8
0
  6
Continuous
 62
     7
100
AcDbCircle
 10
44.33815016368746
 20
109.1113570942829
 30
0.0
 40
18.26662959047916
100
AcDbArc
 50
248.6719574112003
 51
254.698283773
  0
ARC
  5
D89
330
C48
100
AcDbEntity
  8
0
  6
Continuous
 62
     7
100
AcDbCircle
 10
43.66334211710617
 20
109.9225412954488
 30
0.0
 40
18.258079729452
100
AcDbArc
 50
310.6351101101001
 51
318.9710966384998
  0
ARC
  5
D8A
330
C48
100
AcDbEntity
  8
0
  6
Continuous
 62
     7
100
AcDbCircle
 10
44.18866804493984
 20
109.8966561516684
 30
0.0
 40
18.17821845001284
100
AcDbArc
 50
310.4667856587993
 51
311.3843290911
  0
ARC
  5
D8B
330
C48
100
AcDbEntity
  8
0
  6
Continuous
 62
     7
100
AcDbCircle
 10
37.87877312816343
 20
105.8173461802997
 30
0.0
 40
17.9274380460816
100
AcDbArc
 50
327.0472113846997
 51
328.7287152200999
  0
ARC
  5
D8C
330
C48
100
AcDbEntity
  8
0
  6
Continuous
 62
     7
100
AcDbCircle
 10
44.40958170984117
 20
109.6012200897378
 30
0.0
 40
17.8090411292946
100
AcDbArc
 50
298.2891828085998
 51
304.7691822307992
  0
ARC
  5
D8D
330
C48
100
AcDbEntity
  8
0
  6
Continuous
 62
     7
100
AcDbCircle
 10
44.45471133616703
 20
109.4655721805687
 30
0.0
 40
17.65314362193756
100
AcDbArc
 50
241.7219834172006
 51
242.3823769517999
  0
ARC
  5
D8E
330
C48
100
AcDbEntity
  8
0
  6
Continuous
 62
     7
100
AcDbCircle
 10
44.04505639812845
 20
109.4260121321095
 30
0.0
 40
17.63086959544307
100
AcDbArc
 50
297.7562734771998
 51
304.9332361710001
  0
ARC
  5
D8F
330
C48
100
AcDbEntity
  8
0
  6
Continuous
 62
     7
100
AcDbCircle
 10
44.34323241950017
 20
109.212512857476
 30
0.0
 40
17.37641510160408
100
AcDbArc
 50
247.5031385597998
 51
253.8783505175
  0
ARC
  5
D90
330
C48
100
AcDbEntity
  8
0
  6
Continuous
 62
     7
100
AcDbCircle
 10
44.32310774824185
 20
109.1454391864997
 30
0.0
 40
17.30639099231628
100
AcDbArc
 50
253.8806957770992
 51
254.1489811999
  0
ARC
  5
D91
330
C48
100
AcDbEntity
  8
0
  6
Continuous
 62
     7
100
AcDbCircle
 10
44.21773798494174
 20
109.0610717684285
 30
0.0
 40
17.22669880657824
100
AcDbArc
 50
287.1972227018003
 51
292.6106165271997
  0
ARC
  5
D92
330
C48
100
AcDbEntity
  8
0
  6
Continuous
 62
     7
100
AcDbCircle
 10
44.24176968924803
 20
108.9850645547601
 30
0.0
 40
17.14698423373224
100
AcDbArc
 50
285.9367862923998
 51
287.0483865049002
  0
ARC
  5
D93
330
C48
100
AcDbEntity
  8
0
  6
Continuous
 62
     7
100
AcDbCircle
 10
40.10096245642046
 20
103.3039559520574
 30
0.0
 40
2.61545963653752
100
AcDbArc
 50
312.7480219873003
 51
314.2653622767994
  0
ARC
  5
D94
330
C48
100
AcDbEntity
  8
FASEN
  6
Continuous
 62
     7
100
AcDbCircle
 10
40.80989083909256
 20
103.9912701748592
 30
0.0
 40
1.2999403372416
100
AcDbArc
 50
328.2203423584998
 51
333.0571179025002
  0
ARC
  5
D95
330
C48
100
AcDbEntity
  8
FASEN
  6
Continuous
 62
     7
100
AcDbCircle
 10
40.81755810034124
 20
103.9849325062102
 30
0.0
 40
1.29008550108252
100
AcDbArc
 50
322.4458237704007
 51
328.2802782078003
  0
ARC
  5
D96
330
C48
100
AcDbEntity
  8
FASEN
  6
Continuous
 62
     7
100
AcDbCircle
 10
40.80475064543145
 20
103.9743594897526
 30
0.0
 40
1.262516885834038
100
AcDbArc
 50
319.8271675495998
 51
323.0338639114001
  0
ARC
  5
D97
330
C48
100
AcDbEntity
  8
FASEN
  6
Continuous
 62
     9
100
AcDbCircle
 10
42.63809259354085
 20
102.7420254070617
 30
0.0
 40
1.258695212780279
100
AcDbArc
 50
172.6231278566002
 51
176.2977829731002
  0
ARC
  5
D98
330
C48
100
AcDbEntity
  8
FASEN
  6
Continuous
 62
     7
100
AcDbCircle
 10
40.82211296326414
 20
103.9612274222732
 30
0.0
 40
1.240747674629759
100
AcDbArc
 50
323.0362512485009
 51
325.2019039903997
  0
ARC
  5
D99
330
C48
100
AcDbEntity
  8
FASEN
  6
Continuous
 62
     7
100
AcDbCircle
 10
40.88799590448442
 20
103.9314788244757
 30
0.0
 40
1.201663508737319
100
AcDbArc
 50
318.9350982122002
 51
322.4193244689005
  0
ARC
  5
D9A
330
C48
100
AcDbEntity
  8
FASEN
  6
Continuous
 62
     7
100
AcDbCircle
 10
40.85751601558576
 20
103.9374107056923
 30
0.0
 40
1.198084115827439
100
AcDbArc
 50
325.1709862116995
 51
331.0264607527001
  0
ARC
  5
D9B
330
C48
100
AcDbEntity
  8
FASEN
  6
Continuous
 62
     7
100
AcDbCircle
 10
40.90653006053125
 20
103.9108529341278
 30
0.0
 40
1.142339875365
100
AcDbArc
 50
331.0009418259002
 51
337.4649812722002
  0
ARC
  5
D9C
330
C48
100
AcDbEntity
  8
0
  6
Continuous
 62
     7
100
AcDbCircle
 10
40.94440641469785
 20
103.7455489831272
 30
0.0
 40
1.0915869015948
100
AcDbArc
 50
330.8835951129992
 51
334.8743761213989
  0
ARC
  5
D9D
330
C48
100
AcDbEntity
  8
0
  6
Continuous
 62
     7
100
AcDbCircle
 10
43.03163130154715
 20
103.1084853690143
 30
0.0
 40
1.090979999999999
100
AcDbArc
 50
90.0
 51
179.5000000000003
  0
ARC
  5
D9E
330
C48
100
AcDbEntity
  8
FASEN
  6
Continuous
 62
     7
100
AcDbCircle
 10
42.88330278901884
 20
103.0793193783399
 30
0.0
 40
1.002341731845719
100
AcDbArc
 50
136.7992010373999
 51
148.1340027741001
  0
ARC
  5
D9F
330
C48
100
AcDbEntity
  8
FASEN
  6
Continuous
 62
     7
100
AcDbCircle
 10
42.84643109671293
 20
103.1029817928588
 30
0.0
 40
0.9585504129338399
100
AcDbArc
 50
148.1700451481001
 51
157.3023995300998
  0
ARC
  5
DA0
330
C48
100
AcDbEntity
  8
0
  6
Continuous
 62
     7
100
AcDbCircle
 10
43.03163130154715
 20
103.1084853690143
 30
0.0
 40
0.09918
100
AcDbArc
 50
90.0
 51
179.5000000000003
  0
ARC
  5
DA1
330
C48
100
AcDbEntity
  8
0
  6
Continuous
 62
     7
100
AcDbCircle
 10
45.91313683093545
 20
100.471896348842
 30
0.0
 40
8.844406980923281
100
AcDbArc
 50
235.7818493077005
 51
238.3784632548996
  0
ARC
  5
DA2
330
C48
100
AcDbEntity
  8
0
  6
Continuous
 62
     7
100
AcDbCircle
 10
64.50142003517703
 20
99.80761620180249
 30
0.0
 40
4.47633743439384
100
AcDbArc
 50
137.6468381037002
 51
153.1210111630007
  0
ARC
  5
DA3
330
C48
100
AcDbEntity
  8
0
  6
Continuous
 62
     7
100
AcDbCircle
 10
65.05045305567325
 20
99.73636536901436
 30
0.0
 40
4.463099999999998
100
AcDbArc
 50
134.7926623641
 51
136.2382573072997
  0
ARC
  5
DA4
330
C48
100
AcDbEntity
  8
0
  6
Continuous
 62
     7
100
AcDbCircle
 10
64.02518330626444
 20
99.83283926671592
 30
0.0
 40
4.448969339153519
100
AcDbArc
 50
137.7649711437005
 51
153.3063879388999
  0
ARC
  5
DA5
330
C48
100
AcDbEntity
  8
0
  6
Continuous
 62
     7
100
AcDbCircle
 10
65.05045305567325
 20
99.73636536901436
 30
0.0
 40
3.471299999999999
100
AcDbArc
 50
124.8499045789998
 51
152.0037995061988
  0
ARC
  5
DA6
330
C48
100
AcDbEntity
  8
0
  6
Continuous
 62
     7
100
AcDbCircle
 10
47.94749206019116
 20
98.08386333447083
 30
0.0
 40
1.60346265988548
100
AcDbArc
 50
236.2961044576
 51
239.7977826914996
  0
ARC
  5
DA7
330
C48
100
AcDbEntity
  8
0
  6
Continuous
 62
     7
100
AcDbCircle
 10
47.58825958835845
 20
92.59562383544517
 30
0.0
 40
1.4877
100
AcDbArc
 50
180.4999999999997
 51
279.7828932972
  0
ARC
  5
DA8
330
C48
100
AcDbEntity
  8
0
  6
Continuous
 62
     7
100
AcDbCircle
 10
47.58825958835845
 20
92.59562383544517
 30
0.0
 40
0.4959
100
AcDbArc
 50
180.4999999999997
 51
279.7828932972
  0
ARC
  5
DA9
330
C48
100
AcDbEntity
  8
0
  6
Continuous
 62
     7
100
AcDbCircle
 10
48.84007548115244
 20
103.3037993320926
 30
0.0
 40
2.61522988712544
100
AcDbArc
 50
225.7348610234006
 51
227.2520307164003
  0
ARC
  5
DAA
330
C48
100
AcDbEntity
  8
FASEN
  6
Continuous
 62
     7
100
AcDbCircle
 10
48.12280278886274
 20
103.984435666116
 30
0.0
 40
1.28912808282132
100
AcDbArc
 50
205.7566066919004
 51
217.5512446820012
  0
ARC
  5
DAB
330
C48
100
AcDbEntity
  8
FASEN
  6
Continuous
 62
     7
100
AcDbCircle
 10
48.13513343790615
 20
103.9735108797536
 30
0.0
 40
1.26097247021388
100
AcDbArc
 50
216.9624945681991
 51
220.2577778738008
  0
ARC
  5
DAC
330
C48
100
AcDbEntity
  8
FASEN
  6
Continuous
 62
     9
100
AcDbCircle
 10
46.30764368431343
 20
102.7426422257969
 30
0.0
 40
1.254089875899119
100
AcDbArc
 50
3.688360562699419
 51
7.376071855500262
  0
ARC
  5
DAD
330
C48
100
AcDbEntity
  8
FASEN
  6
Continuous
 62
     7
100
AcDbCircle
 10
48.11674503963044
 20
103.9595852267441
 30
0.0
 40
1.23790621821156
100
AcDbArc
 50
214.8614459245994
 51
216.9592451376002
  0
ARC
  5
DAE
330
C48
100
AcDbEntity
  8
FASEN
  6
Continuous
 62
     7
100
AcDbCircle
 10
48.08955452598187
 20
103.940852751295
 30
0.0
 40
1.204888048368359
100
AcDbArc
 50
209.0205763552995
 51
214.869589223301
  0
ARC
  5
DAF
330
C48
100
AcDbEntity
  8
FASEN
  6
Continuous
 62
     7
100
AcDbCircle
 10
48.05276099783066
 20
103.931234495273
 30
0.0
 40
1.20117390243564
100
AcDbArc
 50
217.5755753916991
 51
221.1422337591995
  0
ARC
  5
DB0
330
C48
100
AcDbEntity
  8
FASEN
  6
Continuous
 62
     7
100
AcDbCircle
 10
48.04712039233902
 20
103.9166749945207
 30
0.0
 40
1.1560526406864
100
AcDbArc
 50
204.1880158103013
 51
208.9930038502012
  0
ARC
  5
DB1
330
C48
100
AcDbEntity
  8
FASEN
  6
Continuous
 62
     7
100
AcDbCircle
 10
48.02285973040767
 20
103.9053761681116
 30
0.0
 40
1.12929248922432
100
AcDbArc
 50
202.5080276388004
 51
204.1694220841002
  0
ARC
  5
DB2
330
C48
100
AcDbEntity
  8
0
  6
Continuous
 62
     7
100
AcDbCircle
 10
45.90957480979935
 20
103.1084853690143
 30
0.0
 40
1.090979999999999
100
AcDbArc
 50
0.4999999999996886
 51
90.0
  0
ARC
  5
DB3
330
C48
100
AcDbEntity
  8
FASEN
  6
Continuous
 62
     7
100
AcDbCircle
 10
46.06153339549024
 20
103.0821081900802
 30
0.0
 40
0.99778655815884
100
AcDbArc
 50
31.84015533570082
 51
43.22675787730046
  0
ARC
  5
DB4
330
C48
100
AcDbEntity
  8
FASEN
  6
Continuous
 62
     7
100
AcDbCircle
 10
46.09477566988275
 20
103.1029820820677
 30
0.0
 40
0.95854969678812
100
AcDbArc
 50
22.69771590699924
 51
31.83007476919931
  0
ARC
  5
DB5
330
C48
100
AcDbEntity
  8
0
  6
Continuous
 62
     7
100
AcDbCircle
 10
47.87940655035868
 20
103.6616718253506
 30
0.0
 40
0.9471849866258398
100
AcDbArc
 50
217.5601663195
 51
222.0806373054002
  0
ARC
  5
DB6
330
C48
100
AcDbEntity
  8
FASEN
  6
Continuous
 62
     7
100
AcDbCircle
 10
47.59336056723936
 20
103.3679153898118
 30
0.0
 40
0.4685318233659601
100
AcDbArc
 50
246.4792026802002
 51
247.5459740162993
  0
ARC
  5
DB7
330
C48
100
AcDbEntity
  8
0
  6
Continuous
 62
     7
100
AcDbCircle
 10
47.55919348225876
 20
103.1649304679882
 30
0.0
 40
0.3416131682391599
100
AcDbArc
 50
267.0608036029002
 51
269.9893633697
  0
ARC
  5
DB8
330
C48
100
AcDbEntity
  8
0
  6
Continuous
 62
     7
100
AcDbCircle
 10
45.90957480979935
 20
103.1084853690143
 30
0.0
 40
0.09918
100
AcDbArc
 50
0.4999999999996886
 51
90.0
  0
ARC
  5
DB9
330
C48
100
AcDbEntity
  8
0
  6
Continuous
 62
     7
100
AcDbCircle
 10
45.38338847133184
 20
110.3793319927159
 30
0.0
 40
19.93994030206068
100
AcDbArc
 50
207.8180532118003
 51
215.2350783151996
  0
ARC
  5
DBA
330
C48
100
AcDbEntity
  8
0
  6
Continuous
 62
     7
100
AcDbCircle
 10
44.47060305567325
 20
110.6771152184419
 30
0.0
 40
19.836
100
AcDbArc
 50
331.0449756280999
 51
332.0037995061988
  0
ARC
  5
DBB
330
C48
100
AcDbEntity
  8
0
  6
Continuous
 62
     7
100
AcDbCircle
 10
44.47060305567325
 20
110.6771152184419
 30
0.0
 40
19.836
100
AcDbArc
 50
279.7828932972
 51
284.4775121859006
  0
ARC
  5
DBC
330
C48
100
AcDbEntity
  8
0
  6
Continuous
 62
     7
100
AcDbCircle
 10
44.47060305567325
 20
110.6771152184419
 30
0.0
 40
19.836
100
AcDbArc
 50
290.4873151147004
 51
295.1506634125004
  0
ARC
  5
DBD
330
C48
100
AcDbEntity
  8
0
  6
Continuous
 62
     7
100
AcDbCircle
 10
44.47060305567325
 20
110.6771152184419
 30
0.0
 40
19.836
100
AcDbArc
 50
301.6682432534999
 51
306.8698976457998
  0
ARC
  5
DBE
330
C48
100
AcDbEntity
  8
0
  6
Continuous
 62
     7
100
AcDbCircle
 10
44.47060305567325
 20
110.6771152184419
 30
0.0
 40
19.836
100
AcDbArc
 50
314.4270040008
 51
320.8050325739997
  0
ARC
  5
DBF
330
C48
100
AcDbEntity
  8
0
  6
Continuous
 62
     7
100
AcDbCircle
 10
44.47060305567325
 20
110.6771152184419
 30
0.0
 40
19.836
100
AcDbArc
 50
207.9962004938011
 51
208.9550243719
  0
ARC
  5
DC0
330
C48
100
AcDbEntity
  8
0
  6
Continuous
 62
     7
100
AcDbCircle
 10
44.47060305567325
 20
110.6771152184419
 30
0.0
 40
19.836
100
AcDbArc
 50
219.1949674260003
 51
225.5729959992
  0
ARC
  5
DC1
330
C48
100
AcDbEntity
  8
0
  6
Continuous
 62
     7
100
AcDbCircle
 10
44.47060305567325
 20
110.6771152184419
 30
0.0
 40
19.836
100
AcDbArc
 50
233.1301023542003
 51
238.3317567465001
  0
ARC
  5
DC2
330
C48
100
AcDbEntity
  8
0
  6
Continuous
 62
     7
100
AcDbCircle
 10
44.47060305567325
 20
110.6771152184419
 30
0.0
 40
19.836
100
AcDbArc
 50
244.8493365875004
 51
249.5126848852995
  0
ARC
  5
DC3
330
C48
100
AcDbEntity
  8
0
  6
Continuous
 62
     7
100
AcDbCircle
 10
44.47060305567325
 20
110.6771152184419
 30
0.0
 40
19.836
100
AcDbArc
 50
255.5224878140994
 51
260.2171067028
  0
ARC
  5
DC4
330
C48
100
AcDbEntity
  8
0
  6
Continuous
 62
     7
100
AcDbCircle
 10
44.81600726290895
 20
109.9018453114874
 30
0.0
 40
19.19654314504728
100
AcDbArc
 50
224.2304311558001
 51
230.3575244675009
  0
ARC
  5
DC5
330
C48
100
AcDbEntity
  8
0
  6
Continuous
 62
     7
100
AcDbCircle
 10
45.91547597212676
 20
110.4180899220656
 30
0.0
 40
19.06750778064084
100
AcDbArc
 50
206.7649141400989
 51
213.9169780461006
  0
ARC
  5
DC6
330
C48
100
AcDbEntity
  8
0
  6
Continuous
 62
     7
100
AcDbCircle
 10
45.36863772052925
 20
110.4186402859029
 30
0.0
 40
18.9887571701508
100
AcDbArc
 50
206.8866865048998
 51
214.0789084140001
  0
ARC
  5
DC7
330
C48
100
AcDbEntity
  8
0
  6
Continuous
 62
     7
100
AcDbCircle
 10
44.47060305567325
 20
110.6771152184419
 30
0.0
 40
18.8442
100
AcDbArc
 50
317.4631016369994
 51
324.6654982081999
  0
ARC
  5
DC8
330
C48
100
AcDbEntity
  8
0
  6
Continuous
 62
     7
100
AcDbCircle
 10
44.47060305567325
 20
110.6771152184419
 30
0.0
 40
18.8442
100
AcDbArc
 50
303.5477382682002
 51
309.1667107161008
  0
ARC
  5
DC9
330
C48
100
AcDbEntity
  8
0
  6
Continuous
 62
     7
100
AcDbCircle
 10
44.47060305567325
 20
110.6771152184419
 30
0.0
 40
18.8442
100
AcDbArc
 50
291.6182724222002
 51
296.5749695190009
  0
ARC
  5
DCA
330
C48
100
AcDbEntity
  8
0
  6
Continuous
 62
     7
100
AcDbCircle
 10
44.47060305567325
 20
110.6771152184419
 30
0.0
 40
18.8442
100
AcDbArc
 50
279.7828932972
 51
285.2575232904996
  0
ARC
  5
DCB
330
C48
100
AcDbEntity
  8
0
  6
Continuous
 62
     7
100
AcDbCircle
 10
44.47060305567325
 20
110.6771152184419
 30
0.0
 40
18.8442
100
AcDbArc
 50
215.3345017917997
 51
222.5368983630005
  0
ARC
  5
DCC
330
C48
100
AcDbEntity
  8
0
  6
Continuous
 62
     7
100
AcDbCircle
 10
44.47060305567325
 20
110.6771152184419
 30
0.0
 40
18.8442
100
AcDbArc
 50
254.7424767095003
 51
260.2171067028
  0
ARC
  5
DCD
330
C48
100
AcDbEntity
  8
0
  6
Continuous
 62
     7
100
AcDbCircle
 10
44.47060305567325
 20
110.6771152184419
 30
0.0
 40
18.8442
100
AcDbArc
 50
243.4250304809991
 51
248.3817275777998
  0
ARC
  5
DCE
330
C48
100
AcDbEntity
  8
0
  6
Continuous
 62
     7
100
AcDbCircle
 10
44.47060305567325
 20
110.6771152184419
 30
0.0
 40
18.8442
100
AcDbArc
 50
230.8332892838993
 51
236.4522617317998
  0
ARC
  5
DCF
330
C48
100
AcDbEntity
  8
0
  6
Continuous
 62
     7
100
AcDbCircle
 10
44.49384463060804
 20
109.4593604245002
 30
0.0
 40
18.64836104346048
100
AcDbArc
 50
237.1406048771007
 51
242.7190070231
  0
ARC
  5
DD0
330
C48
100
AcDbEntity
  8
0
  6
Continuous
 62
     7
100
AcDbCircle
 10
44.49012085753716
 20
109.3782684900654
 30
0.0
 40
18.55669007498688
100
AcDbArc
 50
296.9533381028005
 51
297.2778578568001
  0
ARC
  5
DD1
330
C48
100
AcDbEntity
  8
0
  6
Continuous
 62
     7
100
AcDbCircle
 10
44.86005829311426
 20
110.016100783693
 30
0.0
 40
18.33891921091644
100
AcDbArc
 50
221.1968212327001
 51
228.6103438338007
  0
ARC
  5
DD2
330
C48
100
AcDbEntity
  8
0
  6
Continuous
 62
     7
100
AcDbCircle
 10
45.32765089027742
 20
109.9726715576048
 30
0.0
 40
18.32854610675807
100
AcDbArc
 50
221.0449558929995
 51
229.3488373583996
  0
ARC
  5
DD3
330
C48
100
AcDbEntity
  8
0
  6
Continuous
 62
     7
100
AcDbCircle
 10
44.59481492184534
 20
109.1362539821614
 30
0.0
 40
18.29281874562228
100
AcDbArc
 50
285.3060261658998
 51
291.3237247634996
  0
ARC
  5
DD4
330
C48
100
AcDbEntity
  8
0
  6
Continuous
 62
     7
100
AcDbCircle
 10
44.75253760898846
 20
109.8966556132533
 30
0.0
 40
18.17821774352063
100
AcDbArc
 50
228.6156735539998
 51
229.5332143365994
  0
ARC
  5
DD5
330
C48
100
AcDbEntity
  8
0
  6
Continuous
 62
     7
100
AcDbCircle
 10
44.50970494232075
 20
109.5654916424488
 30
0.0
 40
17.7671918879484
100
AcDbArc
 50
235.2231780260001
 51
241.7184563014004
  0
ARC
  5
DD6
330
C48
100
AcDbEntity
  8
0
  6
Continuous
 62
     7
100
AcDbCircle
 10
44.92255580940366
 20
109.4693662067347
 30
0.0
 40
17.68153311096912
100
AcDbArc
 50
235.0770594378003
 51
242.2334309140995
  0
ARC
  5
DD7
330
C48
100
AcDbEntity
  8
0
  6
Continuous
 62
     7
100
AcDbCircle
 10
44.48649497598583
 20
109.4655717946924
 30
0.0
 40
17.65314318693407
100
AcDbArc
 50
297.6176230510997
 51
298.2780159677
  0
ARC
  5
DD8
330
C48
100
AcDbEntity
  8
0
  6
Continuous
 62
     7
100
AcDbCircle
 10
44.58883650352146
 20
109.238591091294
 30
0.0
 40
17.40400505066892
100
AcDbArc
 50
286.1266963107998
 51
292.4918030070998
  0
ARC
  5
DD9
330
C48
100
AcDbEntity
  8
0
  6
Continuous
 62
     7
100
AcDbCircle
 10
44.73267401949274
 20
109.0864975203669
 30
0.0
 40
17.25370971331356
100
AcDbArc
 50
247.3936242022002
 51
252.7985661817002
  0
ARC
  5
DDA
330
C48
100
AcDbEntity
  8
0
  6
Continuous
 62
     7
100
AcDbCircle
 10
44.69946165507735
 20
108.9851500331753
 30
0.0
 40
17.14707335522724
100
AcDbArc
 50
252.9449811022996
 51
254.0632110585994
  0
ARC
  5
DDB
330
C48
100
AcDbEntity
  8
0
  6
Continuous
 62
     7
100
AcDbCircle
 10
50.94311520350254
 20
105.7424633406695
 30
0.0
 40
17.78658398762568
100
AcDbArc
 50
211.2646262744997
 51
212.9594463962993
  0
ARC
  5
DDC
330
C48
100
AcDbEntity
  8
0
  6
Continuous
 62
     7
100
AcDbCircle
 10
57.32714123514944
 20
108.8492382388217
 30
0.0
 40
24.8990685537684
100
AcDbArc
 50
198.1959709782005
 51
201.3672937222001
  0
SPLINE
  5
DDD
330
C48
100
AcDbEntity
  8
FASEN
  6
Continuous
 62
     7
100
AcDbSpline
210
0.0
220
0.0
230
1.0
 70
     8
 71
     3
 72
     9
 73
     5
 74
     0
 42
0.0000000001
 43
0.0000000001
 40
0.0
 40
0.0
 40
0.0
 40
0.0
 40
0.5402203288000002
 40
1.0
 40
1.0
 40
1.0
 40
1.0
 10
47.38826339633985
 20
60.91949918655572
 30
0.0
 10
47.33949080913726
 20
60.93125497366336
 30
0.0
 10
47.24959821500553
 20
60.95472664414436
 30
0.0
 10
47.16078337969602
 20
60.98188790699563
 30
0.0
 10
47.11983899607736
 20
60.99400231491694
 30
0.0
  0
SPLINE
  5
DDE
330
C48
100
AcDbEntity
  8
FASEN
  6
Continuous
 62
     7
100
AcDbSpline
210
0.0
220
0.0
230
1.0
 70
     8
 71
     3
 72
    10
 73
     6
 74
     0
 42
0.0000000001
 43
0.0000000001
 40
0.0
 40
0.0
 40
0.0
 40
0.0
 40
0.5361143752000001
 40
0.7774776677
 40
1.0
 40
1.0
 40
1.0
 40
1.0
 10
47.11983899607736
 20
60.99400231491694
 30
0.0
 10
47.08754979450595
 20
61.00355587331384
 30
0.0
 10
47.04039288094643
 20
61.01652985877263
 30
0.0
 10
46.98197766690443
 20
61.03981940974143
 30
0.0
 10
46.95577846809903
 20
61.05258999210099
 30
0.0
 10
46.94301088297615
 20
61.05827589897476
 30
0.0
  0
SPLINE
  5
DDF
330
C48
100
AcDbEntity
  8
FASEN
  6
Continuous
 62
     7
100
AcDbSpline
210
0.0
220
0.0
230
1.0
 70
     8
 71
     3
 72
     9
 73
     5
 74
     0
 42
0.0000000001
 43
0.0000000001
 40
0.0
 40
0.0
 40
0.0
 40
0.0
 40
0.2773198538
 40
1.0
 40
1.0
 40
1.0
 40
1.0
 10
46.94301088297615
 20
61.05827589897476
 30
0.0
 10
46.93866594229265
 20
61.0602108716248
 30
0.0
 10
46.92295187563485
 20
61.06695695896323
 30
0.0
 10
46.90639629945903
 20
61.07267200567893
 30
0.0
 10
46.89405403728287
 20
61.07381114222073
 30
0.0
  0
SPLINE
  5
DE0
330
C48
100
AcDbEntity
  8
FASEN
  6
Continuous
 62
     7
100
AcDbSpline
210
0.0
220
0.0
230
1.0
 70
     8
 71
     3
 72
     9
 73
     5
 74
     0
 42
0.0000000001
 43
0.0000000001
 40
0.0
 40
0.0
 40
0.0
 40
0.0
 40
0.4472512657000002
 40
1.0
 40
1.0
 40
1.0
 40
1.0
 10
46.89406834180644
 20
26.09682012862862
 30
0.0
 10
46.91042876240067
 20
26.09866017629466
 30
0.0
 10
46.94517575839384
 20
26.11295468121483
 30
0.0
 10
46.97807413634004
 20
26.12889556953764
 30
0.0
 10
46.99691194662685
 20
26.13658562456973
 30
0.0
  0
SPLINE
  5
DE1
330
C48
100
AcDbEntity
  8
FASEN
  6
Continuous
 62
     7
100
AcDbSpline
210
0.0
220
0.0
230
1.0
 70
     8
 71
     3
 72
     9
 73
     5
 74
     0
 42
0.0000000001
 43
0.0000000001
 40
0.0
 40
0.0
 40
0.0
 40
0.0
 40
0.2329053992
 40
1.0
 40
1.0
 40
1.0
 40
1.0
 10
46.99691194662685
 20
26.13658562456973
 30
0.0
 10
47.00613253895326
 20
26.14034969599524
 30
0.0
 10
47.04622490009234
 20
26.15528738901685
 30
0.0
 10
47.08740367690043
 20
26.16696705541904
 30
0.0
 10
47.11884509174985
 20
26.17631568873174
 30
0.0
  0
SPLINE
  5
DE2
330
C48
100
AcDbEntity
  8
FASEN
  6
Continuous
 62
     7
100
AcDbSpline
210
0.0
220
0.0
230
1.0
 70
     8
 71
     3
 72
     9
 73
     5
 74
     0
 42
0.0000000001
 43
0.0000000001
 40
0.0
 40
0.0
 40
0.0
 40
0.0
 40
0.4596588746000001
 40
1.0
 40
1.0
 40
1.0
 40
1.0
 10
47.11884509174985
 20
26.17631568873174
 30
0.0
 10
47.15983873387594
 20
26.18850453364203
 30
0.0
 10
47.24883645595653
 20
26.21565700678124
 30
0.0
 10
47.33888184602693
 20
26.23922713501094
 30
0.0
 10
47.38775724873465
 20
26.25100361484502
 30
0.0
  0
SPLINE
  5
DE3
330
C48
100
AcDbEntity
  8
FASEN
  6
Continuous
 62
     7
100
AcDbSpline
210
0.0
220
0.0
230
1.0
 70
     8
 71
     3
 72
     9
 73
     5
 74
     0
 42
0.0000000001
 43
0.0000000001
 40
0.0
 40
0.0
 40
0.0
 40
0.0
 40
0.2426118464
 40
1.0
 40
1.0
 40
1.0
 40
1.0
 10
47.38775724873465
 20
26.25100361484502
 30
0.0
 10
47.39893494415665
 20
26.25369686944552
 30
0.0
 10
47.44505712453025
 20
26.26459150516473
 30
0.0
 10
47.49132151988166
 20
26.27487193829273
 30
0.0
 10
47.52637993796065
 20
26.28256837412763
 30
0.0
  0
SPLINE
  5
DE4
330
C48
100
AcDbEntity
  8
FASEN
  6
Continuous
 62
     7
100
AcDbSpline
210
0.0
220
0.0
230
1.0
 70
     8
 71
     3
 72
     9
 73
     5
 74
     0
 42
0.0000000001
 43
0.0000000001
 40
0.0
 40
0.0
 40
0.0
 40
0.0
 40
0.4472512657000002
 40
1.0
 40
1.0
 40
1.0
 40
1.0
 10
41.94622917802624
 20
61.07380535194531
 30
0.0
 10
41.92986875743204
 20
61.07196530434603
 30
0.0
 10
41.89512176143884
 20
61.05767079935915
 30
0.0
 10
41.86222338349256
 20
61.04172991103633
 30
0.0
 10
41.84338557320595
 20
61.03403985600422
 30
0.0
  0
SPLINE
  5
DE5
330
C48
100
AcDbEntity
  8
FASEN
  6
Continuous
 62
     7
100
AcDbSpline
210
0.0
220
0.0
230
1.0
 70
     8
 71
     3
 72
     9
 73
     5
 74
     0
 42
0.0000000001
 43
0.0000000001
 40
0.0
 40
0.0
 40
0.0
 40
0.0
 40
0.2329053992
 40
1.0
 40
1.0
 40
1.0
 40
1.0
 10
41.84338557320595
 20
61.03403985600422
 30
0.0
 10
41.83416498087936
 20
61.03027578464534
 30
0.0
 10
41.79407261974034
 20
61.01533809155714
 30
0.0
 10
41.75289384299893
 20
61.00365842515492
 30
0.0
 10
41.72145242814955
 20
60.99430979184226
 30
0.0
  0
SPLINE
  5
DE6
330
C48
100
AcDbEntity
  8
FASEN
  6
Continuous
 62
     7
100
AcDbSpline
210
0.0
220
0.0
230
1.0
 70
     8
 71
     3
 72
     9
 73
     5
 74
     0
 42
0.0000000001
 43
0.0000000001
 40
0.0
 40
0.0
 40
0.0
 40
0.0
 40
0.4596588746000001
 40
1.0
 40
1.0
 40
1.0
 40
1.0
 10
41.72145242814955
 20
60.99430979184226
 30
0.0
 10
41.68045878595674
 20
60.98212094699849
 30
0.0
 10
41.59146106387615
 20
60.95496847385934
 30
0.0
 10
41.50141567380575
 20
60.93139834549623
 30
0.0
 10
41.45254027109806
 20
60.91962186579564
 30
0.0
  0
SPLINE
  5
DE7
330
C48
100
AcDbEntity
  8
FASEN
  6
Continuous
 62
     7
100
AcDbSpline
210
0.0
220
0.0
230
1.0
 70
     8
 71
     3
 72
     9
 73
     5
 74
     0
 42
0.0000000001
 43
0.0000000001
 40
0.0
 40
0.0
 40
0.0
 40
0.0
 40
0.2426118461
 40
1.0
 40
1.0
 40
1.0
 40
1.0
 10
41.45254027109806
 20
60.91962186579564
 30
0.0
 10
41.44136257434275
 20
60.91692861086173
 30
0.0
 10
41.39524038836924
 20
60.90603397387582
 30
0.0
 10
41.34897598748454
 20
60.89575353921464
 30
0.0
 10
41.31391756540566
 20
60.88805710097975
 30
0.0
  0
LINE
  5
DE8
330
C48
100
AcDbEntity
  8
0
  6
Continuous
 62
     9
100
AcDbLine
 10
47.00890715980685
 20
57.35133585007924
 30
0.0
 11
47.00898330644534
 21
57.34372891768273
 31
0.0
  0
SPLINE
  5
DE9
330
C48
100
AcDbEntity
  8
FASEN
  6
Continuous
 62
     7
100
AcDbSpline
210
0.0
220
0.0
230
1.0
 70
     8
 71
     3
 72
    14
 73
    10
 74
     0
 42
0.0000000001
 43
0.0000000001
 40
0.0
 40
0.0
 40
0.0
 40
0.0
 40
0.315689677
 40
0.4650318461
 40
0.6039859667
 40
0.7294221751000001
 40
0.838902633
 40
0.9299894508999999
 40
1.0
 40
1.0
 40
1.0
 40
1.0
 10
45.87100313016086
 20
25.99522203055315
 30
0.0
 10
45.97891334071465
 20
26.00340394206643
 30
0.0
 10
46.13838449278716
 20
26.01072952807653
 30
0.0
 10
46.34341867422484
 20
26.03999599220902
 30
0.0
 10
46.48388894624145
 20
26.05999098412374
 30
0.0
 10
46.61177548176334
 20
26.06898981066791
 30
0.0
 10
46.72342233741685
 20
26.07536065009225
 30
0.0
 10
46.81530730802466
 20
26.08790302633384
 30
0.0
 10
46.87008396891926
 20
26.09591209204243
 30
0.0
 10
46.89406680508852
 20
26.0968184059125
 30
0.0
  0
SPLINE
  5
DEA
330
C48
100
AcDbEntity
  8
FASEN
  6
Continuous
 62
     7
100
AcDbSpline
210
0.0
220
0.0
230
1.0
 70
     8
 71
     3
 72
    14
 73
    10
 74
     0
 42
0.0000000001
 43
0.0000000001
 40
0.0
 40
0.0
 40
0.0
 40
0.0
 40
0.0700102624
 40
0.1610995857
 40
0.2705807386
 40
0.3960166825
 40
0.5349703244000002
 40
0.6843120018000001
 40
1.0
 40
1.0
 40
1.0
 40
1.0
 10
46.89406160634052
 20
61.07380992429964
 30
0.0
 10
46.87007827604285
 20
61.07469709496115
 30
0.0
 10
46.81529898737454
 20
61.08270721952582
 30
0.0
 10
46.72341724846776
 20
61.09526940530265
 30
0.0
 10
46.61176920542604
 20
61.10164105778551
 30
0.0
 10
46.48388320736543
 20
61.11063442091765
 30
0.0
 10
46.34341384887304
 20
61.13062886583785
 30
0.0
 10
46.13838192454625
 20
61.15989685662171
 30
0.0
 10
45.97891221272592
 20
61.16722162403994
 30
0.0
 10
45.87100313016086
 20
61.17540345002092
 30
0.0
  0
LINE
  5
DEB
330
C48
100
AcDbEntity
  8
0
  6
Continuous
 62
     9
100
AcDbLine
 10
47.05307170175695
 20
50.10430954453363
 30
0.0
 11
47.05318197385423
 21
50.07115548427762
 31
0.0
  0
SPLINE
  5
DEC
330
C48
100
AcDbEntity
  8
FASEN
  6
Continuous
 62
     7
100
AcDbSpline
210
0.0
220
0.0
230
1.0
 70
     8
 71
     3
 72
    14
 73
    10
 74
     0
 42
0.0000000001
 43
0.0000000001
 40
0.0
 40
0.0
 40
0.0
 40
0.0
 40
0.0700102624
 40
0.1610995857
 40
0.2705807386
 40
0.3960166825
 40
0.5349703244000002
 40
0.6843120018000001
 40
1.0
 40
1.0
 40
1.0
 40
1.0
 10
41.94623591355886
 20
26.09681555627435
 30
0.0
 10
41.97021924378984
 20
26.09592838561284
 30
0.0
 10
42.02499853245813
 20
26.08791826104823
 30
0.0
 10
42.11688027136495
 20
26.07535607527135
 30
0.0
 10
42.22852831447326
 20
26.06898442278842
 30
0.0
 10
42.35641431253384
 20
26.05999105965634
 30
0.0
 10
42.49688367095953
 20
26.03999661473614
 30
0.0
 10
42.70191559528643
 20
26.01072862395225
 30
0.0
 10
42.86138530710675
 20
26.00340385653402
 30
0.0
 10
42.96929438967175
 20
25.99522203055315
 30
0.0
  0
SPLINE
  5
DED
330
C48
100
AcDbEntity
  8
FASEN
  6
Continuous
 62
     7
100
AcDbSpline
210
0.0
220
0.0
230
1.0
 70
     8
 71
     3
 72
     9
 73
     5
 74
     0
 42
0.0000000001
 43
0.0000000001
 40
0.0
 40
0.0
 40
0.0
 40
0.0
 40
0.5402203288000002
 40
1.0
 40
1.0
 40
1.0
 40
1.0
 10
41.45203412349284
 20
26.25112629401815
 30
0.0
 10
41.50080671069545
 20
26.23937050684393
 30
0.0
 10
41.59069930482715
 20
26.21589883649634
 30
0.0
 10
41.67951414013666
 20
26.18873757364492
 30
0.0
 10
41.72045852375535
 20
26.17662316565694
 30
0.0
  0
SPLINE
  5
DEE
330
C48
100
AcDbEntity
  8
FASEN
  6
Continuous
 62
     7
100
AcDbSpline
210
0.0
220
0.0
230
1.0
 70
     8
 71
     3
 72
    10
 73
     6
 74
     0
 42
0.0000000001
 43
0.0000000001
 40
0.0
 40
0.0
 40
0.0
 40
0.0
 40
0.5361143752000001
 40
0.7774776677
 40
1.0
 40
1.0
 40
1.0
 40
1.0
 10
41.72045852375535
 20
26.17662316565694
 30
0.0
 10
41.75274772532676
 20
26.16706960726015
 30
0.0
 10
41.79990463888626
 20
26.15409562180125
 30
0.0
 10
41.85831985292824
 20
26.13080607083242
 30
0.0
 10
41.88451905173363
 20
26.11803548853953
 30
0.0
 10
41.89728663692323
 20
26.11234958166583
 30
0.0
  0
SPLINE
  5
DEF
330
C48
100
AcDbEntity
  8
FASEN
  6
Continuous
 62
     7
100
AcDbSpline
210
0.0
220
0.0
230
1.0
 70
     8
 71
     3
 72
     9
 73
     5
 74
     0
 42
0.0000000001
 43
0.0000000001
 40
0.0
 40
0.0
 40
0.0
 40
0.0
 40
0.2773198538
 40
1.0
 40
1.0
 40
1.0
 40
1.0
 10
41.89728663692323
 20
26.11234958166583
 30
0.0
 10
41.90163157760665
 20
26.11041460894916
 30
0.0
 10
41.91734564419775
 20
26.10366852161064
 30
0.0
 10
41.93390122037377
 20
26.09795347489501
 30
0.0
 10
41.94624348254984
 20
26.09681433841985
 30
0.0
  0
SPLINE
  5
DF0
330
C48
100
AcDbEntity
  8
FASEN
  6
Continuous
 62
     7
100
AcDbSpline
210
0.0
220
0.0
230
1.0
 70
     8
 71
     3
 72
    14
 73
    10
 74
     0
 42
0.0000000001
 43
0.0000000001
 40
0.0
 40
0.0
 40
0.0
 40
0.0
 40
0.315689677
 40
0.4650318461
 40
0.6039859667
 40
0.7294221751000001
 40
0.838902633
 40
0.9299894508999999
 40
1.0
 40
1.0
 40
1.0
 40
1.0
 10
42.96929438967175
 20
61.17540345002092
 30
0.0
 10
42.86138417911803
 20
61.16722153850753
 30
0.0
 10
42.70191302711217
 20
61.15989595249735
 30
0.0
 10
42.49687884560785
 20
61.13062948836492
 30
0.0
 10
42.35640857359126
 20
61.11063449645024
 30
0.0
 10
42.22852203813604
 20
61.10163566997275
 30
0.0
 10
42.11687518241575
 20
61.09526483048174
 30
0.0
 10
42.02499021180796
 20
61.08272245430675
 30
0.0
 10
41.97021355091343
 20
61.07471338859824
 30
0.0
 10
41.94623071474413
 20
61.07380707466143
 30
0.0
  0
LINE
  5
DF1
330
C48
100
AcDbEntity
  8
0
  6
Continuous
 62
     9
100
AcDbLine
 10
41.78711554604513
 20
50.07115548427762
 30
0.0
 11
41.78722577640946
 21
50.10429705119193
 31
0.0
  0
LINE
  5
DF2
330
C48
100
AcDbEntity
  8
0
  6
Continuous
 62
     9
100
AcDbLine
 10
47.05840644634233
 20
38.97310186499024
 30
0.0
 11
47.05812514308874
 21
38.85135526946843
 31
0.0
  0
SPLINE
  5
DF3
330
C48
100
AcDbEntity
  8
0
  6
Continuous
 62
     7
100
AcDbSpline
210
0.0
220
0.0
230
1.0
 70
     8
 71
     3
 72
    13
 73
     9
 74
     0
 42
0.0000000001
 43
0.0000000001
 40
0.0
 40
0.0
 40
0.0
 40
0.0
 40
0.1780541934
 40
0.3289398169
 40
0.4534933474000001
 40
0.5644754918000002
 40
0.776284203
 40
1.0
 40
1.0
 40
1.0
 40
1.0
 10
41.85423191513154
 20
93.21056486226183
 30
0.0
 10
41.85381488822483
 20
93.16277831223883
 30
0.0
 10
41.84109180587336
 20
93.07362092326952
 30
0.0
 10
41.78228901111364
 20
92.9638469148359
 30
0.0
 10
41.70133826463225
 20
92.89542829343522
 30
0.0
 10
41.58735540194675
 20
92.85213178109694
 30
0.0
 10
41.43523583686723
 20
92.85994544465452
 30
0.0
 10
41.32709909108024
 20
92.90915294038843
 30
0.0
 10
41.27596098874113
 20
92.94061922926672
 30
0.0
  0
SPLINE
  5
DF4
330
C48
100
AcDbEntity
  8
0
  6
Continuous
 62
     7
100
AcDbSpline
210
0.0
220
0.0
230
1.0
 70
     8
 71
     3
 72
    13
 73
     9
 74
     0
 42
0.0000000001
 43
0.0000000001
 40
0.0
 40
0.0
 40
0.0
 40
0.0
 40
0.2526691048
 40
0.5040837970000001
 40
0.6293743956000001
 40
0.753825599
 40
0.8774405819
 40
1.0
 40
1.0
 40
1.0
 40
1.0
 10
41.88563565984554
 20
96.80907757656733
 30
0.0
 10
41.88487643925975
 20
96.72207952027614
 30
0.0
 10
41.85676094271426
 20
96.54792218147912
 30
0.0
 10
41.76040992757805
 20
96.3496999239855
 30
0.0
 10
41.64814917411155
 20
96.21755023762416
 30
0.0
 10
41.54697476448333
 20
96.13665465849704
 30
0.0
 10
41.43059378255836
 20
96.0813285101344
 30
0.0
 10
41.34544519880555
 20
96.06698889864924
 30
0.0
 10
41.30324440350233
 20
96.06698889864924
 30
0.0
  0
SPLINE
  5
DF5
330
C48
100
AcDbEntity
  8
FASEN
  6
Continuous
 62
     7
100
AcDbSpline
210
0.0
220
0.0
230
1.0
 70
     8
 71
     3
 72
     8
 73
     4
 74
     0
 42
0.0000000001
 43
0.0000000001
 40
0.0
 40
0.0
 40
0.0
 40
0.0
 40
1.0
 40
1.0
 40
1.0
 40
1.0
 10
41.53504092311504
 20
102.9384098919508
 30
0.0
 10
41.48940227005164
 20
102.9185334807953
 30
0.0
 10
41.43955322068563
 20
102.905566847209
 30
0.0
 10
41.38981214904837
 20
102.9036215527069
 30
0.0
  0
SPLINE
  5
DF6
330
C48
100
AcDbEntity
  8
FASEN
  6
Continuous
 62
     7
100
AcDbSpline
210
0.0
220
0.0
230
1.0
 70
     8
 71
     3
 72
     9
 73
     5
 74
     0
 42
0.0000000001
 43
0.0000000001
 40
0.0
 40
0.0
 40
0.0
 40
0.0
 40
0.2465172375
 40
1.0
 40
1.0
 40
1.0
 40
1.0
 10
47.41061420129926
 20
102.9461610320397
 30
0.0
 10
47.40361861173943
 20
102.9506795249953
 30
0.0
 10
47.37549586473926
 20
102.9694013748282
 30
0.0
 10
47.34837202861444
 20
102.9896172316496
 30
0.0
 10
47.32854142599004
 20
103.00557593746
 30
0.0
  0
SPLINE
  5
DF7
330
C48
100
AcDbEntity
  8
FASEN
  6
Continuous
 62
     7
100
AcDbSpline
210
0.0
220
0.0
230
1.0
 70
     8
 71
     3
 72
     9
 73
     5
 74
     0
 42
0.0000000001
 43
0.0000000001
 40
0.0
 40
0.0
 40
0.0
 40
0.0
 40
0.2404842116
 40
1.0
 40
1.0
 40
1.0
 40
1.0
 10
47.32854142599004
 20
103.00557593746
 30
0.0
 10
47.31489398874933
 20
103.0165587320886
 30
0.0
 10
47.25931949816294
 20
103.0636811721705
 30
0.0
 10
47.20857836674926
 20
103.1164105727802
 30
0.0
 10
47.17282891518585
 20
103.1586356892013
 30
0.0
  0
SPLINE
  5
DF8
330
C48
100
AcDbEntity
  8
0
  6
Continuous
 62
     7
100
AcDbSpline
210
0.0
220
0.0
230
1.0
 70
     8
 71
     3
 72
    13
 73
     9
 74
     0
 42
0.0000000001
 43
0.0000000001
 40
0.0
 40
0.0
 40
0.0
 40
0.0
 40
0.223715797
 40
0.4355245082
 40
0.5465066526
 40
0.6710601831
 40
0.8219458065999999
 40
1.0
 40
1.0
 40
1.0
 40
1.0
 10
47.66524512260533
 20
92.94061922926672
 30
0.0
 10
47.61410702026625
 20
92.90915294038843
 30
0.0
 10
47.50597027447923
 20
92.85994544465452
 30
0.0
 10
47.35385070939975
 20
92.85213178109694
 30
0.0
 10
47.23986784678035
 20
92.89542829343522
 30
0.0
 10
47.15891710023282
 20
92.9638469148359
 30
0.0
 10
47.10011430553936
 20
93.07362092326952
 30
0.0
 10
47.08739122312164
 20
93.16277831223883
 30
0.0
 10
47.08697419621503
 20
93.21056486226183
 30
0.0
  0
SPLINE
  5
DF9
330
C48
100
AcDbEntity
  8
0
  6
Continuous
 62
     7
100
AcDbSpline
210
0.0
220
0.0
230
1.0
 70
     8
 71
     3
 72
    13
 73
     9
 74
     0
 42
0.0000000001
 43
0.0000000001
 40
0.0
 40
0.0
 40
0.0
 40
0.0
 40
0.1233687409
 40
0.2476951136
 40
0.3726558624
 40
0.4980027382000002
 40
0.7487924364000002
 40
1.0
 40
1.0
 40
1.0
 40
1.0
 10
47.60557104265376
 20
99.77859150050974
 30
0.0
 10
47.55334655948965
 20
99.77859150050974
 30
0.0
 10
47.44800568150483
 20
99.80897775727317
 30
0.0
 10
47.32237125001245
 20
99.90765280802381
 30
0.0
 10
47.22364812030216
 20
100.0331245645463
 30
0.0
 10
47.12242832464977
 20
100.2203618338802
 30
0.0
 10
47.04361942931353
 20
100.4765399016947
 30
0.0
 10
47.02170865565216
 20
100.6892550562728
 30
0.0
 10
47.02078066502252
 20
100.7955922494601
 30
0.0
  0
SPLINE
  5
DFA
330
C48
100
AcDbEntity
  8
0
  6
Continuous
 62
     7
100
AcDbSpline
210
0.0
220
0.0
230
1.0
 70
     8
 71
     3
 72
    13
 73
     9
 74
     0
 42
0.0000000001
 43
0.0000000001
 40
0.0
 40
0.0
 40
0.0
 40
0.0
 40
0.1225593759
 40
0.246174223
 40
0.3706253841
 40
0.4959160059000002
 40
0.7473307796
 40
1.0
 40
1.0
 40
1.0
 40
1.0
 10
47.63796170784402
 20
96.06698889864924
 30
0.0
 10
47.59576092695505
 20
96.06698889864924
 30
0.0
 10
47.51061238823001
 20
96.08132843343524
 30
0.0
 10
47.39423151011343
 20
96.13665462404853
 30
0.0
 10
47.29305707945903
 20
96.21755007853934
 30
0.0
 10
47.18079627865066
 20
96.34969976390904
 30
0.0
 10
47.08444518879886
 20
96.54792206967014
 30
0.0
 10
47.05632967241735
 20
96.72207948014126
 30
0.0
 10
47.05557045156703
 20
96.80907757656733
 30
0.0
  0
SPLINE
  5
DFB
330
C48
100
AcDbEntity
  8
0
  6
Continuous
 62
     7
100
AcDbSpline
210
0.0
220
0.0
230
1.0
 70
     8
 71
     3
 72
    11
 73
     7
 74
     0
 42
0.0000000001
 43
0.0000000001
 40
0.0
 40
0.0
 40
0.0
 40
0.0
 40
0.2407295811
 40
0.4885998479
 40
0.7425813812000001
 40
1.0
 40
1.0
 40
1.0
 40
1.0
 10
47.65753763837866
 20
93.82380944334574
 30
0.0
 10
47.58166166484366
 20
93.82380944334574
 30
0.0
 10
47.42641381716626
 20
93.86438293909611
 30
0.0
 10
47.23844849462753
 20
94.01225112729216
 30
0.0
 10
47.11007993640376
 20
94.21961078152083
 30
0.0
 10
47.07675322201055
 20
94.38177250138062
 30
0.0
 10
47.07604518392495
 20
94.462905632212
 30
0.0
  0
SPLINE
  5
DFC
330
C48
100
AcDbEntity
  8
0
  6
Continuous
 62
     7
100
AcDbSpline
210
0.0
220
0.0
230
1.0
 70
     8
 71
     3
 72
    13
 73
     9
 74
     0
 42
0.0000000001
 43
0.0000000001
 40
0.0
 40
0.0
 40
0.0
 40
0.0
 40
0.2512220295
 40
0.5020271378
 40
0.6273784372
 40
0.752336323
 40
0.8766479884
 40
1.0
 40
1.0
 40
1.0
 40
1.0
 10
41.92042544632395
 20
100.7955922494601
 30
0.0
 10
41.91949740101316
 20
100.689248789287
 30
0.0
 10
41.89758460950153
 20
100.4765198425397
 30
0.0
 10
41.81876489964435
 20
100.2203315347208
 30
0.0
 10
41.71754132563054
 20
100.0330839466997
 30
0.0
 10
41.61879060701963
 20
99.90764557066084
 30
0.0
 10
41.49319016008326
 20
99.80894728679681
 30
0.0
 10
41.38785254042594
 20
99.77859150050974
 30
0.0
 10
41.33563506869262
 20
99.77859150050974
 30
0.0
  0
SPLINE
  5
DFD
330
C48
100
AcDbEntity
  8
0
  6
Continuous
 62
     7
100
AcDbSpline
210
0.0
220
0.0
230
1.0
 70
     8
 71
     3
 72
    11
 73
     7
 74
     0
 42
0.0000000001
 43
0.0000000001
 40
0.0
 40
0.0
 40
0.0
 40
0.0
 40
0.2574020635
 40
0.5113819119
 40
0.7592581706999999
 40
1.0
 40
1.0
 40
1.0
 40
1.0
 10
41.86516092742155
 20
94.462905632212
 30
0.0
 10
41.86445293489254
 20
94.38177771752135
 30
0.0
 10
41.83112970330435
 20
94.21962178904625
 30
0.0
 10
41.70276748512884
 20
94.01226305236475
 30
0.0
 10
41.51480236048747
 20
93.86438574780763
 30
0.0
 10
41.35954830870434
 20
93.82380944334574
 30
0.0
 10
41.28366847296783
 20
93.82380944334574
 30
0.0
  0
SPLINE
  5
DFE
330
C48
100
AcDbEntity
  8
0
  6
Continuous
 62
     7
100
AcDbSpline
210
0.0
220
0.0
230
1.0
 70
     8
 71
     3
 72
    10
 73
     6
 74
     0
 42
0.0000000001
 43
0.0000000001
 40
0.0
 40
0.0
 40
0.0
 40
0.0
 40
0.2490344123
 40
0.4989612027000002
 40
1.0
 40
1.0
 40
1.0
 40
1.0
 10
47.75425824824774
 20
101.074053011506
 30
0.0
 10
47.69024145152553
 20
101.074053011506
 30
0.0
 10
47.56150550624954
 20
101.0906077454111
 30
0.0
 10
47.31893426040786
 20
101.1801227456567
 30
0.0
 10
47.15951649224865
 20
101.2959022478931
 30
0.0
 10
47.06492355005744
 20
101.3833142413033
 30
0.0
  0
SPLINE
  5
DFF
330
C48
100
AcDbEntity
  8
0
  6
Continuous
 62
     7
100
AcDbSpline
210
0.0
220
0.0
230
1.0
 70
     8
 71
     3
 72
     9
 73
     5
 74
     0
 42
0.0000000001
 43
0.0000000001
 40
0.0
 40
0.0
 40
0.0
 40
0.0
 40
0.4978977331000002
 40
1.0
 40
1.0
 40
1.0
 40
1.0
 10
47.79407611167866
 20
96.51137778760324
 30
0.0
 10
47.68033962599836
 20
96.51137778760324
 30
0.0
 10
47.45097868624173
 20
96.54676303103173
 30
0.0
 10
47.24000771511083
 20
96.6403902021544
 30
0.0
 10
47.14086472835953
 20
96.69806217650645
 30
0.0
  0
SPLINE
  5
E00
330
C48
100
AcDbEntity
  8
0
  6
Continuous
 62
     7
100
AcDbSpline
210
0.0
220
0.0
230
1.0
 70
     8
 71
     3
 72
    10
 73
     6
 74
     0
 42
0.0000000001
 43
0.0000000001
 40
0.0
 40
0.0
 40
0.0
 40
0.0
 40
0.500947685
 40
0.7509582046
 40
1.0
 40
1.0
 40
1.0
 40
1.0
 10
41.87627210229513
 20
101.3833037785407
 30
0.0
 10
41.78169863806414
 20
101.2959096733674
 30
0.0
 10
41.62231703450354
 20
101.1800643290995
 30
0.0
 10
41.37970740421656
 20
101.0906856706081
 30
0.0
 10
41.25096505422675
 20
101.074053011506
 30
0.0
 10
41.18694786316484
 20
101.074053011506
 30
0.0
  0
SPLINE
  5
E01
330
C48
100
AcDbEntity
  8
0
  6
Continuous
 62
     7
100
AcDbSpline
210
0.0
220
0.0
230
1.0
 70
     8
 71
     3
 72
     9
 73
     5
 74
     0
 42
0.0000000001
 43
0.0000000001
 40
0.0
 40
0.0
 40
0.0
 40
0.0
 40
0.5021011687
 40
1.0
 40
1.0
 40
1.0
 40
1.0
 10
41.80010566723675
 20
96.69792509738204
 30
0.0
 10
41.70099199227485
 20
96.64029329271526
 30
0.0
 10
41.49009168510866
 20
96.54673481769393
 30
0.0
 10
41.26082183279305
 20
96.51137778760324
 30
0.0
 10
41.14712999966783
 20
96.51137778760324
 30
0.0
  0
LINE
  5
E02
330
C48
100
AcDbEntity
  8
0
  6
Continuous
 62
     7
100
AcDbLine
 10
39.63020070378795
 20
92.60452964840101
 30
0.0
 11
39.67039870789335
 21
92.59214388661851
 31
0.0
  0
LINE
  5
E03
330
C48
100
AcDbEntity
  8
0
  6
Continuous
 62
     7
100
AcDbLine
 10
49.26890886742825
 20
92.59156157353094
 30
0.0
 11
49.31101380592252
 21
92.60453224202425
 31
0.0
  0
SPLINE
  5
E04
330
C48
100
AcDbEntity
  8
FASEN
  6
Continuous
 62
     7
100
AcDbSpline
210
0.0
220
0.0
230
1.0
 70
     8
 71
     3
 72
     9
 73
     5
 74
     0
 42
0.0000000001
 43
0.0000000001
 40
0.0
 40
0.0
 40
0.0
 40
0.0
 40
0.2644756558
 40
1.0
 40
1.0
 40
1.0
 40
1.0
 10
41.76944231662864
 20
103.1599155895796
 30
0.0
 10
41.75118396257383
 20
103.1382855143607
 30
0.0
 10
41.67953224852342
 20
103.0587906045852
 30
0.0
 10
41.59678993799476
 20
102.9889435797328
 30
0.0
 10
41.53067356930515
 20
102.9462167169813
 30
0.0
  0
SPLINE
  5
E05
330
C48
100
AcDbEntity
  8
0
  6
Continuous
 62
     7
100
AcDbSpline
210
0.0
220
0.0
230
1.0
 70
     8
 71
     3
 72
     9
 73
     5
 74
     0
 42
0.0000000001
 43
0.0000000001
 40
0.0
 40
0.0
 40
0.0
 40
0.0
 40
0.2435992776
 40
1.0
 40
1.0
 40
1.0
 40
1.0
 10
48.86823030732864
 20
93.82380944334574
 30
0.0
 10
48.96854053225954
 20
93.9099999215279
 30
0.0
 10
49.37357714625884
 20
94.27163724956693
 30
0.0
 10
49.75164790517834
 20
94.66315896082415
 30
0.0
 10
50.02245398378477
 20
94.97187531481015
 30
0.0
  0
SPLINE
  5
E06
330
C48
100
AcDbEntity
  8
0
  6
Continuous
 62
     7
100
AcDbSpline
210
0.0
220
0.0
230
1.0
 70
     8
 71
     3
 72
     9
 73
     5
 74
     0
 42
0.0000000001
 43
0.0000000001
 40
0.0
 40
0.0
 40
0.0
 40
0.0
 40
0.2431055856
 40
1.0
 40
1.0
 40
1.0
 40
1.0
 10
50.88760843665676
 20
96.06698889864924
 30
0.0
 10
50.99108612630243
 20
96.21196551338442
 30
0.0
 10
51.40617970245767
 20
96.81581950739252
 30
0.0
 10
51.77977820461666
 20
97.44789023090593
 30
0.0
 10
52.04073281501843
 20
97.93721354692033
 30
0.0
  0
SPLINE
  5
E07
330
C48
100
AcDbEntity
  8
0
  6
Continuous
 62
     7
100
AcDbSpline
210
0.0
220
0.0
230
1.0
 70
     8
 71
     3
 72
     9
 73
     5
 74
     0
 42
0.0000000001
 43
0.0000000001
 40
0.0
 40
0.0
 40
0.0
 40
0.0
 40
0.2455969411
 40
1.0
 40
1.0
 40
1.0
 40
1.0
 10
52.90536549136553
 20
99.77859150050974
 30
0.0
 10
52.97338407638545
 20
99.94368672997731
 30
0.0
 10
53.24223950516653
 20
100.6192244976402
 30
0.0
 10
53.47923665383945
 20
101.3073584175536
 30
0.0
 10
53.64112144052618
 20
101.8314025742098
 30
0.0
  0
SPLINE
  5
E08
330
C48
100
AcDbEntity
  8
0
  6
Continuous
 62
     7
100
AcDbSpline
210
0.0
220
0.0
230
1.0
 70
     8
 71
     3
 72
     9
 73
     5
 74
     0
 42
0.0000000001
 43
0.0000000001
 40
0.0
 40
0.0
 40
0.0
 40
0.0
 40
0.2543086437
 40
1.0
 40
1.0
 40
1.0
 40
1.0
 10
35.30008467082036
 20
101.8314025742098
 30
0.0
 10
35.35465565056294
 20
101.6547485251701
 30
0.0
 10
35.57676446038326
 20
100.9624613622888
 30
0.0
 10
35.82932077927865
 20
100.2798580362209
 30
0.0
 10
36.03584061998095
 20
99.77859150050974
 30
0.0
  0
SPLINE
  5
E09
330
C48
100
AcDbEntity
  8
0
  6
Continuous
 62
     7
100
AcDbSpline
210
0.0
220
0.0
230
1.0
 70
     8
 71
     3
 72
     9
 73
     5
 74
     0
 42
0.0000000001
 43
0.0000000001
 40
0.0
 40
0.0
 40
0.0
 40
0.0
 40
0.2569559048999999
 40
1.0
 40
1.0
 40
1.0
 40
1.0
 10
36.90047329632808
 20
97.93721354692033
 30
0.0
 10
36.98906273201914
 20
97.77109700902244
 30
0.0
 10
37.34347174766984
 20
97.1298456582615
 30
0.0
 10
37.73732619348715
 20
96.510098605156
 30
0.0
 10
38.05359767468977
 20
96.06698889864924
 30
0.0
  0
SPLINE
  5
E0A
330
C48
100
AcDbEntity
  8
0
  6
Continuous
 62
     7
100
AcDbSpline
210
0.0
220
0.0
230
1.0
 70
     8
 71
     3
 72
     9
 73
     5
 74
     0
 42
0.0000000001
 43
0.0000000001
 40
0.0
 40
0.0
 40
0.0
 40
0.0
 40
0.2566298878
 40
1.0
 40
1.0
 40
1.0
 40
1.0
 10
38.91875212762784
 20
94.97187531481015
 30
0.0
 10
39.01062910321005
 20
94.86713643648172
 30
0.0
 10
39.37523914373554
 20
94.46487425728832
 30
0.0
 10
39.76687301467933
 20
94.08682496158201
 30
0.0
 10
40.07297580401782
 20
93.82380944334574
 30
0.0
  0
SPLINE
  5
E0B
330
C48
100
AcDbEntity
  8
0
  6
Continuous
 62
     7
100
AcDbSpline
210
0.0
220
0.0
230
1.0
 70
     8
 71
     3
 72
     9
 73
     5
 74
     0
 42
0.0000000001
 43
0.0000000001
 40
0.0
 40
0.0
 40
0.0
 40
0.0
 40
0.239409745
 40
1.0
 40
1.0
 40
1.0
 40
1.0
 10
54.05801663070434
 20
102.8233179743715
 30
0.0
 10
54.01622166157983
 20
102.7482091676577
 30
0.0
 10
53.85099156999135
 20
102.4293113512584
 30
0.0
 10
53.72171921814865
 20
102.0923090821132
 30
0.0
 10
53.64112144052618
 20
101.8314025742098
 30
0.0
  0
SPLINE
  5
E0C
330
C48
100
AcDbEntity
  8
0
  6
Continuous
 62
     7
100
AcDbSpline
210
0.0
220
0.0
230
1.0
 70
     8
 71
     3
 72
     9
 73
     5
 74
     0
 42
0.0000000001
 43
0.0000000001
 40
0.0
 40
0.0
 40
0.0
 40
0.0
 40
0.2603980464
 40
1.0
 40
1.0
 40
1.0
 40
1.0
 10
35.30008467082036
 20
101.8314025742098
 30
0.0
 10
35.27249252141414
 20
101.9207222993501
 30
0.0
 10
35.15862370190956
 20
102.2611726771037
 30
0.0
 10
35.01229824803434
 20
102.5912994882658
 30
0.0
 10
34.88318948070824
 20
102.8233179743715
 30
0.0
  0
SPLINE
  5
E0D
330
C48
100
AcDbEntity
  8
FASEN
  6
Continuous
 62
     7
100
AcDbSpline
210
0.0
220
0.0
230
1.0
 70
     8
 71
     3
 72
     8
 73
     4
 74
     0
 42
0.0000000001
 43
0.0000000001
 40
0.0
 40
0.0
 40
0.0
 40
0.0
 40
1.0
 40
1.0
 40
1.0
 40
1.0
 10
47.55135698706834
 20
102.9036444588569
 30
0.0
 10
47.52847885063167
 20
102.9045115568675
 30
0.0
 10
47.50560775974375
 20
102.907717074568
 30
0.0
 10
47.48328867676704
 20
102.9128180078261
 30
0.0
  0
SPLINE
  5
E0E
330
C48
100
AcDbEntity
  8
FASEN
  6
Continuous
 62
     7
100
AcDbSpline
210
0.0
220
0.0
230
1.0
 70
     8
 71
     3
 72
     8
 73
     4
 74
     0
 42
0.0000000001
 43
0.0000000001
 40
0.0
 40
0.0
 40
0.0
 40
0.0
 40
1.0
 40
1.0
 40
1.0
 40
1.0
 10
47.48328867676704
 20
102.9128180078261
 30
0.0
 10
47.45978322649975
 20
102.91819008036
 30
0.0
 10
47.43669243921675
 20
102.9256962545106
 30
0.0
 10
47.41440859013346
 20
102.9349046977808
 30
0.0
  0
SPLINE
  5
E0F
330
C48
100
AcDbEntity
  8
0
  6
Continuous
 62
     7
100
AcDbSpline
210
0.0
220
0.0
230
1.0
 70
     8
 71
     3
 72
     9
 73
     5
 74
     0
 42
0.0000000001
 43
0.0000000001
 40
0.0
 40
0.0
 40
0.0
 40
0.0
 40
0.4895833089
 40
1.0
 40
1.0
 40
1.0
 40
1.0
 10
41.27786183261855
 20
93.15843436398314
 30
0.0
 10
41.35230276755985
 20
93.15843436398314
 30
0.0
 10
41.50543398133436
 20
93.19588849864121
 30
0.0
 10
41.63044989037754
 20
93.28913334217043
 30
0.0
 10
41.68362449810575
 20
93.34566264774133
 30
0.0
  0
SPLINE
  5
E10
330
C48
100
AcDbEntity
  8
0
  6
Continuous
 62
     7
100
AcDbSpline
210
0.0
220
0.0
230
1.0
 70
     8
 71
     3
 72
     9
 73
     5
 74
     0
 42
0.0000000001
 43
0.0000000001
 40
0.0
 40
0.0
 40
0.0
 40
0.0
 40
0.4945472548
 40
1.0
 40
1.0
 40
1.0
 40
1.0
 10
41.68362449810575
 20
93.34566264774133
 30
0.0
 10
41.73663709093995
 20
93.40201971725823
 30
0.0
 10
41.82422339167945
 20
93.53596452928693
 30
0.0
 10
41.85844451937927
 20
93.69328150087014
 30
0.0
 10
41.85913459947125
 20
93.77235683990424
 30
0.0
  0
SPLINE
  5
E11
330
C48
100
AcDbEntity
  8
0
  6
Continuous
 62
     7
100
AcDbSpline
210
0.0
220
0.0
230
1.0
 70
     8
 71
     3
 72
     9
 73
     5
 74
     0
 42
0.0000000001
 43
0.0000000001
 40
0.0
 40
0.0
 40
0.0
 40
0.0
 40
0.245733377
 40
1.0
 40
1.0
 40
1.0
 40
1.0
 10
34.85385312140696
 20
99.77859150050974
 30
0.0
 10
34.78419473803842
 20
99.94365337065213
 30
0.0
 10
34.50895021214186
 20
100.6188172094823
 30
0.0
 10
34.26610799900246
 20
101.3071063661961
 30
0.0
 10
34.10020721734265
 20
101.8314025742098
 30
0.0
  0
SPLINE
  5
E12
330
C48
100
AcDbEntity
  8
0
  6
Continuous
 62
     7
100
AcDbSpline
210
0.0
220
0.0
230
1.0
 70
     8
 71
     3
 72
     9
 73
     5
 74
     0
 42
0.0000000001
 43
0.0000000001
 40
0.0
 40
0.0
 40
0.0
 40
0.0
 40
0.2566962895
 40
1.0
 40
1.0
 40
1.0
 40
1.0
 10
53.20169671250252
 20
97.93721354692033
 30
0.0
 10
53.11092499500535
 20
97.77104534212714
 30
0.0
 10
52.74752362966686
 20
97.12914315322974
 30
0.0
 10
52.34412438767654
 20
96.50959075535451
 30
0.0
 10
52.02053403805104
 20
96.06698889864924
 30
0.0
  0
SPLINE
  5
E13
330
C48
100
AcDbEntity
  8
0
  6
Continuous
 62
     7
100
AcDbSpline
210
0.0
220
0.0
230
1.0
 70
     8
 71
     3
 72
     9
 73
     5
 74
     0
 42
0.0000000001
 43
0.0000000001
 40
0.0
 40
0.0
 40
0.0
 40
0.0
 40
0.2453714132
 40
1.0
 40
1.0
 40
1.0
 40
1.0
 10
41.06280811725045
 20
92.49712092143633
 30
0.0
 10
40.96166258407765
 20
92.54316723610353
 30
0.0
 10
40.55340611114826
 20
92.73945108787334
 30
0.0
 10
40.16153378470585
 20
92.96941480862633
 30
0.0
 10
39.87677153203185
 20
93.15843436398314
 30
0.0
  0
SPLINE
  5
E14
330
C48
100
AcDbEntity
  8
FASEN
  6
Continuous
 62
     7
100
AcDbSpline
210
0.0
220
0.0
230
1.0
 70
     8
 71
     3
 72
     9
 73
     5
 74
     0
 42
0.0000000001
 43
0.0000000001
 40
0.0
 40
0.0
 40
0.0
 40
0.0
 40
0.4993148211
 40
1.0
 40
1.0
 40
1.0
 40
1.0
 10
47.40637798817826
 20
102.9383114039627
 30
0.0
 10
47.35600310595754
 20
102.960234756888
 30
0.0
 10
47.26280565764116
 20
103.021720590629
 30
0.0
 10
47.18444020692865
 20
103.0994697521613
 30
0.0
 10
47.14818260769326
 20
103.1409455101252
 30
0.0
  0
SPLINE
  5
E15
330
C48
100
AcDbEntity
  8
0
  6
Continuous
 62
     7
100
AcDbSpline
210
0.0
220
0.0
230
1.0
 70
     8
 71
     3
 72
    11
 73
     7
 74
     0
 42
0.0000000001
 43
0.0000000001
 40
0.0
 40
0.0
 40
0.0
 40
0.0
 40
0.2546962849
 40
0.5075222228000002
 40
0.7564580283
 40
1.0
 40
1.0
 40
1.0
 40
1.0
 10
47.06560047531096
 20
95.65975068978682
 30
0.0
 10
47.06633016604354
 20
95.57613641283195
 30
0.0
 10
47.09676133904866
 20
95.40867938351022
 30
0.0
 10
47.21807151301976
 20
95.18716253051172
 30
0.0
 10
47.40466554616594
 20
95.02065536385273
 30
0.0
 10
47.56756314883026
 20
94.97187531481015
 30
0.0
 10
47.64751861931705
 20
94.97187531481015
 30
0.0
  0
SPLINE
  5
E16
330
C48
100
AcDbEntity
  8
0
  6
Continuous
 62
     7
100
AcDbSpline
210
0.0
220
0.0
230
1.0
 70
     8
 71
     3
 72
     9
 73
     5
 74
     0
 42
0.0000000001
 43
0.0000000001
 40
0.0
 40
0.0
 40
0.0
 40
0.0
 40
0.2439155916
 40
1.0
 40
1.0
 40
1.0
 40
1.0
 10
38.98915151631556
 20
93.82380944334574
 30
0.0
 10
38.88644782930726
 20
93.90996168062926
 30
0.0
 10
38.47209226191285
 20
94.27112415188721
 30
0.0
 10
38.08459001454855
 20
94.66278451149472
 30
0.0
 10
37.80686281436294
 20
94.97187531481015
 30
0.0
  0
SPLINE
  5
E17
330
C48
100
AcDbEntity
  8
0
  6
Continuous
 62
     7
100
AcDbSpline
210
0.0
220
0.0
230
1.0
 70
     8
 71
     3
 72
     9
 73
     5
 74
     0
 42
0.0000000001
 43
0.0000000001
 40
0.0
 40
0.0
 40
0.0
 40
0.0
 40
0.5054527452000001
 40
1.0
 40
1.0
 40
1.0
 40
1.0
 10
47.08207151194137
 20
93.77235683990424
 30
0.0
 10
47.08276159196725
 20
93.69328150087014
 30
0.0
 10
47.11698271966705
 20
93.53596452928693
 30
0.0
 10
47.20456902040655
 20
93.40201971725823
 30
0.0
 10
47.25758161330694
 20
93.34566264774133
 30
0.0
  0
SPLINE
  5
E18
330
C48
100
AcDbEntity
  8
0
  6
Continuous
 62
     7
100
AcDbSpline
210
0.0
220
0.0
230
1.0
 70
     8
 71
     3
 72
     9
 73
     5
 74
     0
 42
0.0000000001
 43
0.0000000001
 40
0.0
 40
0.0
 40
0.0
 40
0.0
 40
0.5104166911
 40
1.0
 40
1.0
 40
1.0
 40
1.0
 10
47.25758161330694
 20
93.34566264774133
 30
0.0
 10
47.31075622096895
 20
93.28913334217043
 30
0.0
 10
47.43577213001205
 20
93.19588849864121
 30
0.0
 10
47.58890334378654
 20
93.15843436398314
 30
0.0
 10
47.66334427872794
 20
93.15843436398314
 30
0.0
  0
SPLINE
  5
E19
330
C48
100
AcDbEntity
  8
0
  6
Continuous
 62
     7
100
AcDbSpline
210
0.0
220
0.0
230
1.0
 70
     8
 71
     3
 72
     9
 73
     5
 74
     0
 42
0.0000000001
 43
0.0000000001
 40
0.0
 40
0.0
 40
0.0
 40
0.0
 40
0.2600760051
 40
1.0
 40
1.0
 40
1.0
 40
1.0
 10
54.84099889400383
 20
101.8314025742098
 30
0.0
 10
54.86927151011696
 20
101.9207525173803
 30
0.0
 10
54.98605760062026
 20
102.2616283317111
 30
0.0
 10
55.13599888276516
 20
102.5916784777249
 30
0.0
 10
55.26803091843845
 20
102.8233179743715
 30
0.0
  0
SPLINE
  5
E1A
330
C48
100
AcDbEntity
  8
0
  6
Continuous
 62
     7
100
AcDbSpline
210
0.0
220
0.0
230
1.0
 70
     8
 71
     3
 72
     9
 73
     5
 74
     0
 42
0.0000000001
 43
0.0000000001
 40
0.0
 40
0.0
 40
0.0
 40
0.0
 40
0.2433735934
 40
1.0
 40
1.0
 40
1.0
 40
1.0
 10
36.92067207329547
 20
96.06698889864924
 30
0.0
 10
36.81472012577555
 20
96.21190832765101
 30
0.0
 10
36.38998889551104
 20
96.81509571390273
 30
0.0
 10
36.00706785717864
 20
97.44741661532964
 30
0.0
 10
35.73950939891006
 20
97.93721354692033
 30
0.0
  0
SPLINE
  5
E1B
330
C48
100
AcDbEntity
  8
0
  6
Continuous
 62
     7
100
AcDbSpline
210
0.0
220
0.0
230
1.0
 70
     8
 71
     3
 72
     9
 73
     5
 74
     0
 42
0.0000000001
 43
0.0000000001
 40
0.0
 40
0.0
 40
0.0
 40
0.0
 40
0.2397657163
 40
1.0
 40
1.0
 40
1.0
 40
1.0
 10
33.67317519290805
 20
102.8233179743715
 30
0.0
 10
33.71596140067385
 20
102.7482530435012
 30
0.0
 10
33.88497486695906
 20
102.4298274426534
 30
0.0
 10
34.01755820570435
 20
102.0925982296999
 30
0.0
 10
34.10020721734265
 20
101.8314025742098
 30
0.0
  0
SPLINE
  5
E1C
330
C48
100
AcDbEntity
  8
FASEN
  6
Continuous
 62
     7
100
AcDbSpline
210
0.0
220
0.0
230
1.0
 70
     8
 71
     3
 72
     9
 73
     5
 74
     0
 42
0.0000000001
 43
0.0000000001
 40
0.0
 40
0.0
 40
0.0
 40
0.0
 40
0.5006858388000001
 40
1.0
 40
1.0
 40
1.0
 40
1.0
 10
41.79400926788907
 20
103.1420898369975
 30
0.0
 10
41.75766919030112
 20
103.1004051444619
 30
0.0
 10
41.67909671337255
 20
103.0222659138082
 30
0.0
 10
41.58560340523135
 20
102.9604307146162
 30
0.0
 10
41.53504092311504
 20
102.9384098919508
 30
0.0
  0
SPLINE
  5
E1D
330
C48
100
AcDbEntity
  8
0
  6
Continuous
 62
     7
100
AcDbSpline
210
0.0
220
0.0
230
1.0
 70
     8
 71
     3
 72
     8
 73
     4
 74
     0
 42
0.0000000001
 43
0.0000000001
 40
0.0
 40
0.0
 40
0.0
 40
0.0
 40
1.0
 40
1.0
 40
1.0
 40
1.0
 10
41.38217969779773
 20
102.823300516245
 30
0.0
 10
41.40730503616095
 20
102.8233002685595
 30
0.0
 10
41.43253778692695
 20
102.8261506093899
 30
0.0
 10
41.45713027875643
 20
102.8312976450825
 30
0.0
  0
SPLINE
  5
E1E
330
C48
100
AcDbEntity
  8
0
  6
Continuous
 62
     7
100
AcDbSpline
210
0.0
220
0.0
230
1.0
 70
     8
 71
     3
 72
     8
 73
     4
 74
     0
 42
0.0000000001
 43
0.0000000001
 40
0.0
 40
0.0
 40
0.0
 40
0.0
 40
1.0
 40
1.0
 40
1.0
 40
1.0
 10
41.45713027875643
 20
102.8312976450825
 30
0.0
 10
41.48118547285406
 20
102.8363322281107
 30
0.0
 10
41.50485320289203
 20
102.8435949220395
 30
0.0
 10
41.52769754526457
 20
102.8526577808391
 30
0.0
  0
SPLINE
  5
E1F
330
C48
100
AcDbEntity
  8
0
  6
Continuous
 62
     7
100
AcDbSpline
210
0.0
220
0.0
230
1.0
 70
     8
 71
     3
 72
     8
 73
     4
 74
     0
 42
0.0000000001
 43
0.0000000001
 40
0.0
 40
0.0
 40
0.0
 40
0.0
 40
1.0
 40
1.0
 40
1.0
 40
1.0
 10
41.52769754526457
 20
102.8526577808391
 30
0.0
 10
41.55081453960625
 20
102.8618288066691
 30
0.0
 10
41.57323194864315
 20
102.8729144073847
 30
0.0
 10
41.59472784886014
 20
102.8854215818849
 30
0.0
  0
SPLINE
  5
E20
330
C48
100
AcDbEntity
  8
0
  6
Continuous
 62
     7
100
AcDbSpline
210
0.0
220
0.0
230
1.0
 70
     8
 71
     3
 72
     8
 73
     4
 74
     0
 42
0.0000000001
 43
0.0000000001
 40
0.0
 40
0.0
 40
0.0
 40
0.0
 40
1.0
 40
1.0
 40
1.0
 40
1.0
 10
41.59472784886014
 20
102.8854215818849
 30
0.0
 10
41.65953884933455
 20
102.9231312141409
 30
0.0
 10
41.71727052674055
 20
102.9738594352941
 30
0.0
 10
41.76731619648933
 20
103.0296977114883
 30
0.0
  0
SPLINE
  5
E21
330
C48
100
AcDbEntity
  8
0
  6
Continuous
 62
     7
100
AcDbSpline
210
0.0
220
0.0
230
1.0
 70
     8
 71
     3
 72
     8
 73
     4
 74
     0
 42
0.0000000001
 43
0.0000000001
 40
0.0
 40
0.0
 40
0.0
 40
0.0
 40
1.0
 40
1.0
 40
1.0
 40
1.0
 10
41.76731619648933
 20
103.0296977114883
 30
0.0
 10
41.81765970867113
 20
103.0858683042238
 30
0.0
 10
41.86134617951205
 20
103.1485029315075
 30
0.0
 10
41.89805268885035
 20
103.2143985829753
 30
0.0
  0
SPLINE
  5
E22
330
C48
100
AcDbEntity
  8
0
  6
Continuous
 62
     7
100
AcDbSpline
210
0.0
220
0.0
230
1.0
 70
     8
 71
     3
 72
     8
 73
     4
 74
     0
 42
0.0000000001
 43
0.0000000001
 40
0.0
 40
0.0
 40
0.0
 40
0.0
 40
1.0
 40
1.0
 40
1.0
 40
1.0
 10
47.00946728031195
 20
103.2799610868396
 30
0.0
 10
47.04203288883974
 20
103.2108941989076
 30
0.0
 10
47.08198049577774
 20
103.1447803427119
 30
0.0
 10
47.12856008960176
 20
103.0842733570548
 30
0.0
  0
SPLINE
  5
E23
330
C48
100
AcDbEntity
  8
0
  6
Continuous
 62
     7
100
AcDbSpline
210
0.0
220
0.0
230
1.0
 70
     8
 71
     3
 72
     9
 73
     5
 74
     0
 42
0.0000000001
 43
0.0000000001
 40
0.0
 40
0.0
 40
0.0
 40
0.0
 40
0.7497727506000002
 40
1.0
 40
1.0
 40
1.0
 40
1.0
 10
47.17640361370794
 20
103.0268913357634
 30
0.0
 10
47.22574402889103
 20
102.9723083760686
 30
0.0
 10
47.30122054942206
 20
102.9061933231008
 30
0.0
 10
47.38939236028335
 20
102.8623415394326
 30
0.0
 10
47.41219107853345
 20
102.8532196671444
 30
0.0
  0
SPLINE
  5
E24
330
C48
100
AcDbEntity
  8
0
  6
Continuous
 62
     7
100
AcDbSpline
210
0.0
220
0.0
230
1.0
 70
     8
 71
     3
 72
     8
 73
     4
 74
     0
 42
0.0000000001
 43
0.0000000001
 40
0.0
 40
0.0
 40
0.0
 40
0.0
 40
1.0
 40
1.0
 40
1.0
 40
1.0
 10
47.41219107853345
 20
102.8532196671444
 30
0.0
 10
47.43517381733918
 20
102.8440241674592
 30
0.0
 10
47.45899378794985
 20
102.8366438009567
 30
0.0
 10
47.48321082747574
 20
102.8315155953805
 30
0.0
  0
SPLINE
  5
E25
330
C48
100
AcDbEntity
  8
0
  6
Continuous
 62
     7
100
AcDbSpline
210
0.0
220
0.0
230
1.0
 70
     8
 71
     3
 72
     8
 73
     4
 74
     0
 42
0.0000000001
 43
0.0000000001
 40
0.0
 40
0.0
 40
0.0
 40
0.0
 40
1.0
 40
1.0
 40
1.0
 40
1.0
 10
47.48321082747574
 20
102.8315155953805
 30
0.0
 10
47.50244344353103
 20
102.8274428923911
 30
0.0
 10
47.52204344842385
 20
102.8247712427121
 30
0.0
 10
47.54167687142242
 20
102.823766687569
 30
0.0
  0
SPLINE
  5
E26
330
C48
100
AcDbEntity
  8
0
  6
Continuous
 62
     7
100
AcDbSpline
210
0.0
220
0.0
230
1.0
 70
     8
 71
     3
 72
    13
 73
     9
 74
     0
 42
0.0000000001
 43
0.0000000001
 40
0.0
 40
0.0
 40
0.0
 40
0.0
 40
0.1231272361
 40
0.2471762789
 40
0.3719471254
 40
0.4972990133
 40
0.7482935656000002
 40
1.0
 40
1.0
 40
1.0
 40
1.0
 10
41.31956560679106
 20
97.93721354692033
 30
0.0
 10
41.36600870235466
 20
97.93721354692033
 30
0.0
 10
41.45976744665714
 20
97.95737201224284
 30
0.0
 10
41.58152452055094
 20
98.0303687041575
 30
0.0
 10
41.68237669878914
 20
98.13064008345614
 30
0.0
 10
41.78982575425933
 20
98.28713248290023
 30
0.0
 10
41.87734508304266
 20
98.51061028953413
 30
0.0
 10
41.90214275567913
 20
98.70060341137534
 30
0.0
 10
41.90297127610796
 20
98.79554244561473
 30
0.0
  0
SPLINE
  5
E27
330
C48
100
AcDbEntity
  8
0
  6
Continuous
 62
     7
100
AcDbSpline
210
0.0
220
0.0
230
1.0
 70
     8
 71
     3
 72
    11
 73
     7
 74
     0
 42
0.0000000001
 43
0.0000000001
 40
0.0
 40
0.0
 40
0.0
 40
0.0
 40
0.2435032159
 40
0.492462804
 40
0.7452914451
 40
1.0
 40
1.0
 40
1.0
 40
1.0
 10
41.29368749202945
 20
94.97187531481015
 30
0.0
 10
41.37363098249795
 20
94.97187531481015
 30
0.0
 10
41.53654691746115
 20
95.02059700468763
 30
0.0
 10
41.72308905123403
 20
95.18716870400394
 30
0.0
 10
41.84446492329345
 20
95.40865714431271
 30
0.0
 10
41.87487590338284
 20
95.57613160689973
 30
0.0
 10
41.87560563603554
 20
95.65975068978682
 30
0.0
  0
SPLINE
  5
E28
330
C48
100
AcDbEntity
  8
0
  6
Continuous
 62
     7
100
AcDbSpline
210
0.0
220
0.0
230
1.0
 70
     8
 71
     3
 72
     9
 73
     5
 74
     0
 42
0.0000000001
 43
0.0000000001
 40
0.0
 40
0.0
 40
0.0
 40
0.0
 40
0.2550224034
 40
1.0
 40
1.0
 40
1.0
 40
1.0
 10
49.06443457931453
 20
93.15843436398314
 30
0.0
 10
48.96820227404274
 20
93.09455726162985
 30
0.0
 10
48.58623108541355
 20
92.851152649755
 30
0.0
 10
48.18548351858083
 20
92.63692103185281
 30
0.0
 10
47.87839799409593
 20
92.49712092143633
 30
0.0
  0
SPLINE
  5
E29
330
C48
100
AcDbEntity
  8
0
  6
Continuous
 62
     7
100
AcDbSpline
210
0.0
220
0.0
230
1.0
 70
     8
 71
     3
 72
     9
 73
     5
 74
     0
 42
0.0000000001
 43
0.0000000001
 40
0.0
 40
0.0
 40
0.0
 40
0.0
 40
0.2541795129
 40
1.0
 40
1.0
 40
1.0
 40
1.0
 10
54.84099889400383
 20
101.8314025742098
 30
0.0
 10
54.78509241959196
 20
101.6547213538835
 30
0.0
 10
54.55746491408817
 20
100.9620812343755
 30
0.0
 10
54.29877080095625
 20
100.2795652178501
 30
0.0
 10
54.08735298993966
 20
99.77859150050974
 30
0.0
  0
SPLINE
  5
E2A
330
C48
100
AcDbEntity
  8
0
  6
Continuous
 62
     7
100
AcDbSpline
210
0.0
220
0.0
230
1.0
 70
     8
 71
     3
 72
    13
 73
     9
 74
     0
 42
0.0000000001
 43
0.0000000001
 40
0.0
 40
0.0
 40
0.0
 40
0.0
 40
0.251706649
 40
0.5027014067
 40
0.6280533499000001
 40
0.7528241186
 40
0.8768729065999998
 40
1.0
 40
1.0
 40
1.0
 40
1.0
 10
47.03823483523845
 20
98.79554244561473
 30
0.0
 10
47.03906335639468
 20
98.70060332918814
 30
0.0
 10
47.06386106718244
 20
98.51061003986501
 30
0.0
 10
47.15138053223902
 20
98.2871321017183
 30
0.0
 10
47.25882968973244
 20
98.13063964878333
 30
0.0
 10
47.35968203955204
 20
98.03036863433483
 30
0.0
 10
47.48143879719385
 20
97.95737174822574
 30
0.0
 10
47.57519746221845
 20
97.93721354692033
 30
0.0
 10
47.62164050462167
 20
97.93721354692033
 30
0.0
  0
SPLINE
  5
E2B
330
C48
100
AcDbEntity
  8
0
  6
Continuous
 62
     7
100
AcDbSpline
210
0.0
220
0.0
230
1.0
 70
     8
 71
     3
 72
     9
 73
     5
 74
     0
 42
0.0000000001
 43
0.0000000001
 40
0.0
 40
0.0
 40
0.0
 40
0.0
 40
0.2563131430999999
 40
1.0
 40
1.0
 40
1.0
 40
1.0
 10
51.13434329704976
 20
94.97187531481015
 30
0.0
 10
51.04019502792564
 20
94.86709492561843
 30
0.0
 10
50.66624947061445
 20
94.46433591155431
 30
0.0
 10
50.26518836664286
 20
94.08647941932164
 30
0.0
 10
49.95205459503094
 20
93.82380944334574
 30
0.0
  0
DIMENSION
  5
E2C
102
{ACAD_XDICTIONARY
360
E2D
102
}
102
{ACAD_REACTORS
330
E2E
102
}
330
C48
100
AcDbEntity
  8
P-0000
  6
Continuous
100
AcDbDimension
  2
*D22
 10
63.16996125991635
 20
4.000000208164244
 30
0.0
 11
46.29222500759031
 21
4.000000208164244
 31
0.0
 12
-98.70746942656866
 22
-142.0758711688856
 32
0.0
 70
   128
  1
%%c<>
 71
     5
 42
37.49962500000001
  3
883N99122_001_00149479900
100
AcDbAlignedDimension
 13
25.67033625991634
 23
43.58531274028693
 33
0.0
 14
63.16996125991635
 24
43.58531274028693
 34
0.0
100
AcDbRotatedDimension
1001
ACAD_DSTYLE_DIMINSPECT
1070
   396
1000
100%
1070
   395
1000

1070
   394
1070
    33
1070
   393
1070
     0
1001
ACAD
1000
DSTYLE
1002
{
1070
   271
1070
     1
1070
   288
1070
     1
1002
}
  0
DIMENSION
  5
E2F
102
{ACAD_XDICTIONARY
360
E30
102
}
102
{ACAD_REACTORS
330
E31
102
}
330
C48
100
AcDbEntity
  8
P-0000
  6
Continuous
100
AcDbDimension
  2
*D23
 10
11.00000031688573
 20
90.83194218930822
 30
0.0
 11
11.00000031688569
 21
96.86779815798354
 31
0.0
 12
-98.70746942656865
 22
-142.0758711688856
 32
0.0
 70
   128
 71
     5
 42
12.07171193735061
  3
883N99122_001_00149479900
100
AcDbAlignedDimension
 13
27.10125623608926
 23
102.9036541266588
 33
0.0
 14
44.05404705567323
 24
90.83194218930822
 34
0.0
 50
89.999947657291
100
AcDbRotatedDimension
1001
ACAD_DSTYLE_DIMINSPECT
1070
   396
1000
100%
1070
   395
1000

1070
   394
1070
    33
1070
   393
1070
     0
1001
ACAD
1000
DSTYLE
1002
{
1070
   271
1070
     1
1070
   288
1070
     1
1002
}
  0
ENDBLK
  5
E33
330
C48
100
AcDbEntity
  8
0
100
AcDbBlockEnd
  0
BLOCK
  5
E37
330
E36
100
AcDbEntity
  8
0
100
AcDbBlockBegin
  2
*D26
 70
     1
 10
0.0
 20
0.0
 30
0.0
  3
*D26
  1

  0
LINE
  5
E38
330
E36
100
AcDbEntity
  8
P-0000
  6
Continuous
 62
     3
370
    -2
100
AcDbLine
 10
124.377805686485
 20
185.6611839091726
 30
0.0
 11
124.377805686485
 21
142.0758713770499
 31
0.0
  0
LINE
  5
E39
330
E36
100
AcDbEntity
  8
P-0000
  6
Continuous
 62
     3
370
    -2
100
AcDbLine
 10
161.877430686485
 20
185.6611839091726
 30
0.0
 11
161.877430686485
 21
142.0758713770499
 31
0.0
  0
LINE
  5
E3A
330
E36
100
AcDbEntity
  8
P-0000
  6
Continuous
 62
     3
370
    -2
100
AcDbLine
 10
130.677805686485
 20
146.0758713770499
 30
0.0
 11
155.577430686485
 21
146.0758713770499
 31
0.0
  0
SOLID
  5
E3B
330
E36
100
AcDbEntity
  8
P-0000
  6
Continuous
 62
     3
100
AcDbTrace
 10
130.677805686485
 20
147.1258713770499
 30
0.0
 11
130.677805686485
 21
145.0258713770499
 31
0.0
 12
124.377805686485
 22
146.0758713770499
 32
0.0
 13
124.377805686485
 23
146.0758713770499
 33
0.0
  0
SOLID
  5
E3C
330
E36
100
AcDbEntity
  8
P-0000
  6
Continuous
 62
     3
100
AcDbTrace
 10
155.577430686485
 20
147.1258713770499
 30
0.0
 11
155.577430686485
 21
145.0258713770499
 31
0.0
 12
161.877430686485
 22
146.0758713770499
 32
0.0
 13
161.877430686485
 23
146.0758713770499
 33
0.0
  0
MTEXT
  5
E3D
330
E36
100
AcDbEntity
  8
P-0000
  6
Continuous
 62
     2
100
AcDbMText
 10
144.999694434159
 20
153.5758713770499
 30
0.0
 40
7.0
 41
0.0
 71
     5
 72
     1
  1
%%c37.5
 73
     1
 44
1.0
1001
ACAD
1000
MTEXTBEGIN
1070
    73
1070
     1
1070
    44
1040
1.0
1070
    74
1070
     0
1000
MTEXTEND
  0
POINT
  5
E3E
330
E36
100
AcDbEntity
  8
Defpoints
  6
Continuous
 62
     0
100
AcDbPoint
 10
124.377805686485
 20
185.6611839091726
 30
0.0
  0
POINT
  5
E3F
330
E36
100
AcDbEntity
  8
Defpoints
  6
Continuous
 62
     0
100
AcDbPoint
 10
161.877430686485
 20
185.6611839091726
 30
0.0
  0
POINT
  5
E40
330
E36
100
AcDbEntity
  8
Defpoints
  6
Continuous
 62
     0
100
AcDbPoint
 10
161.877430686485
 20
146.0758713770499
 30
0.0
  0
ENDBLK
  5
E41
330
E36
100
AcDbEntity
  8
0
100
AcDbBlockEnd
  0
BLOCK
  5
E43
330
E42
100
AcDbEntity
  8
0
100
AcDbBlockBegin
  2
*D27
 70
     1
 10
0.0
 20
0.0
 30
0.0
  3
*D27
  1

  0
LINE
  5
E44
330
E42
100
AcDbEntity
  8
P-0000
  6
Continuous
 62
     3
370
    -2
100
AcDbLine
 10
125.8087256626579
 20
244.9795252955445
 30
0.0
 11
105.7074697434543
 21
244.9795252955445
 31
0.0
  0
LINE
  5
E45
330
E42
100
AcDbEntity
  8
P-0000
  6
Continuous
 62
     3
370
    -2
100
AcDbLine
 10
142.7615164822419
 20
232.9078133581939
 30
0.0
 11
105.7074697434543
 21
232.9078133581939
 31
0.0
  0
LINE
  5
E46
330
E42
100
AcDbEntity
  8
P-0000
  6
Continuous
 62
     3
370
    -2
100
AcDbLine
 10
109.7074697434543
 20
251.2795252955445
 30
0.0
 11
109.7074697434543
 21
257.5795252955446
 31
0.0
  0
LINE
  5
E47
330
E42
100
AcDbEntity
  8
P-0000
  6
Continuous
 62
     3
370
    -2
100
AcDbLine
 10
109.7074697434543
 20
226.6078133581939
 30
0.0
 11
109.7074697434543
 21
220.3078133581939
 31
0.0
  0
LINE
  5
E48
330
E42
100
AcDbEntity
  8
P-0000
  6
Continuous
 62
     3
370
    -2
100
AcDbLine
 10
109.7074697434543
 20
244.9795252955445
 30
0.0
 11
109.7074697434543
 21
232.9078133581939
 31
0.0
  0
SOLID
  5
E49
330
E42
100
AcDbEntity
  8
P-0000
  6
Continuous
 62
     3
100
AcDbTrace
 10
108.6574697434544
 20
251.2795252955445
 30
0.0
 11
110.7574697434543
 21
251.2795252955445
 31
0.0
 12
109.7074697434543
 22
244.9795252955445
 32
0.0
 13
109.7074697434543
 23
244.9795252955445
 33
0.0
  0
SOLID
  5
E4A
330
E42
100
AcDbEntity
  8
P-0000
  6
Continuous
 62
     3
100
AcDbTrace
 10
108.6574697434544
 20
226.6078133581939
 30
0.0
 11
110.7574697434543
 21
226.6078133581939
 31
0.0
 12
109.7074697434543
 22
232.9078133581939
 32
0.0
 13
109.7074697434543
 23
232.9078133581939
 33
0.0
  0
MTEXT
  5
E4B
330
E42
100
AcDbEntity
  8
P-0000
  6
Continuous
 62
     2
100
AcDbMText
 10
102.2074697434543
 20
238.9436693268692
 30
0.0
 40
7.0
 41
0.0
 71
     5
 72
     1
  1
12.1
 11
0.0000000000000001
 21
1.0
 31
0.0
 73
     1
 44
1.0
1001
ACAD
1000
MTEXTBEGIN
1070
    73
1070
     1
1070
    44
1040
1.0
1070
    74
1070
     0
1000
MTEXTEND
  0
POINT
  5
E4C
330
E42
100
AcDbEntity
  8
Defpoints
  6
Continuous
 62
     0
100
AcDbPoint
 10
125.8087256626579
 20
244.9795252955445
 30
0.0
  0
POINT
  5
E4D
330
E42
100
AcDbEntity
  8
Defpoints
  6
Continuous
 62
     0
100
AcDbPoint
 10
142.7615164822419
 20
232.9078133581939
 30
0.0
  0
POINT
  5
E4E
330
E42
100
AcDbEntity
  8
Defpoints
  6
Continuous
 62
     0
100
AcDbPoint
 10
109.7074697434543
 20
232.9078133581939
 30
0.0
  0
ENDBLK
  5
E4F
330
E42
100
AcDbEntity
  8
0
100
AcDbBlockEnd
  0
BLOCK
  5
1228
330
1227
100
AcDbEntity
  8
0
100
AcDbBlockBegin
  2
*D29
 70
     1
 10
0.0
 20
0.0
 30
0.0
  3
*D29
  1

  0
LINE
  5
122A
330
1227
100
AcDbEntity
  8
P-0000
  6
Continuous
 62
     3
370
    -2
100
AcDbLine
 10
1225.142807395753
 20
282.3913810874559
 30
0.0
 11
1225.142807395753
 21
238.8060685553333
 31
0.0
  0
LINE
  5
122B
330
1227
100
AcDbEntity
  8
P-0000
  6
Continuous
 62
     3
370
    -2
100
AcDbLine
 10
1262.642432395752
 20
282.3913810874559
 30
0.0
 11
1262.642432395752
 21
238.8060685553333
 31
0.0
  0
LINE
  5
122C
330
1227
100
AcDbEntity
  8
P-0000
  6
Continuous
 62
     3
370
    -2
100
AcDbLine
 10
1231.442807395753
 20
242.8060685553333
 30
0.0
 11
1256.342432395753
 21
242.8060685553333
 31
0.0
  0
SOLID
  5
122D
330
1227
100
AcDbEntity
  8
P-0000
  6
Continuous
 62
     3
100
AcDbTrace
 10
1231.442807395753
 20
243.8560685553333
 30
0.0
 11
1231.442807395753
 21
241.7560685553332
 31
0.0
 12
1225.142807395753
 22
242.8060685553333
 32
0.0
 13
1225.142807395753
 23
242.8060685553333
 33
0.0
  0
SOLID
  5
122E
330
1227
100
AcDbEntity
  8
P-0000
  6
Continuous
 62
     3
100
AcDbTrace
 10
1256.342432395753
 20
243.8560685553333
 30
0.0
 11
1256.342432395753
 21
241.7560685553332
 31
0.0
 12
1262.642432395752
 22
242.8060685553333
 32
0.0
 13
1262.642432395752
 23
242.8060685553333
 33
0.0
  0
MTEXT
  5
122F
330
1227
100
AcDbEntity
  8
P-0000
  6
Continuous
 62
     2
100
AcDbMText
 10
1245.764696143426
 20
250.3060685553332
 30
0.0
 40
7.0
 41
0.0
 71
     5
 72
     1
  1
%%c37.5
 73
     1
 44
1.0
1001
ACAD
1000
MTEXTBEGIN
1070
    73
1070
     1
1070
    44
1040
1.0
1070
    74
1070
     0
1000
MTEXTEND
  0
POINT
  5
1230
330
1227
100
AcDbEntity
  8
Defpoints
  6
Continuous
 62
     0
100
AcDbPoint
 10
1225.142807395753
 20
282.3913810874559
 30
0.0
  0
POINT
  5
1231
330
1227
100
AcDbEntity
  8
Defpoints
  6
Continuous
 62
     0
100
AcDbPoint
 10
1262.642432395752
 20
282.3913810874559
 30
0.0
  0
POINT
  5
1232
330
1227
100
AcDbEntity
  8
Defpoints
  6
Continuous
 62
     0
100
AcDbPoint
 10
1262.642432395752
 20
242.8060685553333
 30
0.0
  0
ENDBLK
  5
1229
330
1227
100
AcDbEntity
  8
0
100
AcDbBlockEnd
  0
BLOCK
  5
1234
330
1233
100
AcDbEntity
  8
0
100
AcDbBlockBegin
  2
*D30
 70
     1
 10
0.0
 20
0.0
 30
0.0
  3
*D30
  1

  0
LINE
  5
1236
330
1233
100
AcDbEntity
  8
P-0000
  6
Continuous
 62
     3
370
    -2
100
AcDbLine
 10
1226.573727371925
 20
341.7097224738278
 30
0.0
 11
1206.472471452722
 21
341.7097224738278
 31
0.0
  0
LINE
  5
1237
330
1233
100
AcDbEntity
  8
P-0000
  6
Continuous
 62
     3
370
    -2
100
AcDbLine
 10
1243.526518191509
 20
329.6380105364772
 30
0.0
 11
1206.472471452722
 21
329.6380105364772
 31
0.0
  0
LINE
  5
1238
330
1233
100
AcDbEntity
  8
P-0000
  6
Continuous
 62
     3
370
    -2
100
AcDbLine
 10
1210.472471452722
 20
348.0097224738278
 30
0.0
 11
1210.472471452722
 21
354.3097224738279
 31
0.0
  0
LINE
  5
1239
330
1233
100
AcDbEntity
  8
P-0000
  6
Continuous
 62
     3
370
    -2
100
AcDbLine
 10
1210.472471452722
 20
323.3380105364772
 30
0.0
 11
1210.472471452722
 21
317.0380105364772
 31
0.0
  0
LINE
  5
123A
330
1233
100
AcDbEntity
  8
P-0000
  6
Continuous
 62
     3
370
    -2
100
AcDbLine
 10
1210.472471452722
 20
341.7097224738278
 30
0.0
 11
1210.472471452722
 21
329.6380105364772
 31
0.0
  0
SOLID
  5
123B
330
1233
100
AcDbEntity
  8
P-0000
  6
Continuous
 62
     3
100
AcDbTrace
 10
1209.422471452722
 20
348.0097224738278
 30
0.0
 11
1211.522471452722
 21
348.0097224738278
 31
0.0
 12
1210.472471452722
 22
341.7097224738278
 32
0.0
 13
1210.472471452722
 23
341.7097224738278
 33
0.0
  0
SOLID
  5
123C
330
1233
100
AcDbEntity
  8
P-0000
  6
Continuous
 62
     3
100
AcDbTrace
 10
1209.422471452722
 20
323.3380105364772
 30
0.0
 11
1211.522471452722
 21
323.3380105364772
 31
0.0
 12
1210.472471452722
 22
329.6380105364772
 32
0.0
 13
1210.472471452722
 23
329.6380105364772
 33
0.0
  0
MTEXT
  5
123D
330
1233
100
AcDbEntity
  8
P-0000
  6
Continuous
 62
     2
100
AcDbMText
 10
1202.972471452722
 20
335.6738665051527
 30
0.0
 40
7.0
 41
0.0
 71
     5
 72
     1
  1
12.1
 11
0.0000000000000001
 21
1.0
 31
0.0
 73
     1
 44
1.0
1001
ACAD
1000
MTEXTBEGIN
1070
    73
1070
     1
1070
    44
1040
1.0
1070
    74
1070
     0
1000
MTEXTEND
  0
POINT
  5
123E
330
1233
100
AcDbEntity
  8
Defpoints
  6
Continuous
 62
     0
100
AcDbPoint
 10
1226.573727371925
 20
341.7097224738278
 30
0.0
  0
POINT
  5
123F
330
1233
100
AcDbEntity
  8
Defpoints
  6
Continuous
 62
     0
100
AcDbPoint
 10
1243.526518191509
 20
329.6380105364772
 30
0.0
  0
POINT
  5
1240
330
1233
100
AcDbEntity
  8
Defpoints
  6
Continuous
 62
     0
100
AcDbPoint
 10
1210.472471452722
 20
329.6380105364772
 30
0.0
  0
ENDBLK
  5
1235
330
1233
100
AcDbEntity
  8
0
100
AcDbBlockEnd
  0
ENDSEC
  0
SECTION
  2
ENTITIES
  0
DIMENSION
  5
2E4
330
20F
100
AcDbEntity
  8
P-0000
  6
Continuous
100
AcDbDimension
  2
*D5
 10
847.4484442445
 20
298.6521784394152
 30
0.0
 11
467.8879031953306
 21
298.6521784394152
 31
0.0
 70
   160
 71
     2
 42
794.999205
  3
883N99122_001_00149479900
100
AcDbAlignedDimension
 13
52.4492392445
 23
163.676928121
 33
0.0
 14
847.4484442445
 24
163.676928121
 34
0.0
100
AcDbRotatedDimension
1001
ACAD
1000
DSTYLE
1002
{
1070
   271
1070
     1
1070
   288
1070
     1
1002
}
  0
DIMENSION
  5
2E6
330
20F
100
AcDbEntity
  8
P-0000
  6
Continuous
100
AcDbDimension
  2
*D7
 10
-7.461863371009598
 20
242.176937621
 30
0.0
 11
-16.48022887100961
 21
242.176937621
 31
0.0
 70
   160
  1
19
 71
     2
 42
18.03673100000003
  3
883N99122_001_00149479900
100
AcDbAlignedDimension
 13
-25.49859437100963
 23
222.6769376210001
 33
0.0
 14
-7.461863371009599
 24
232.176937621
 34
0.0
100
AcDbRotatedDimension
1001
ACAD
1000
DSTYLE
1002
{
1070
   271
1070
     1
1070
   288
1070
     1
1002
}
  0
DIMENSION
  5
2E7
330
20F
100
AcDbEntity
  8
P-0000
  6
Continuous
100
AcDbDimension
  2
*D8
 10
-53.66060337100943
 20
232.176937621
 30
0.0
 11
-53.66060337100947
 21
193.176937621
 31
0.0
 70
   160
 71
     2
 42
78.00000000000006
  3
883N99122_001_00149479900
100
AcDbAlignedDimension
 13
-7.461863371009599
 23
154.1769376209999
 33
0.0
 14
-7.461863371009599
 24
232.176937621
 34
0.0
 50
90.0
100
AcDbRotatedDimension
1001
ACAD
1000
DSTYLE
1002
{
1070
   271
1070
     1
1070
   288
1070
     1
1002
}
  0
LINE
  5
36A
330
20F
100
AcDbEntity
  8
0
  6
Continuous
 62
     7
100
AcDbLine
 10
52.4492392445
 20
225.1768666209998
 30
0.0
 11
52.4492392445
 21
220.176871621
 31
0.0
  0
LINE
  5
36B
330
20F
100
AcDbEntity
  8
0
  6
Continuous
 62
     7
100
AcDbLine
 10
52.4492392445
 20
166.1769256209999
 30
0.0
 11
52.4492392445
 21
161.176930621
 31
0.0
  0
LINE
  5
36C
330
20F
100
AcDbEntity
  8
0
  6
Continuous
 62
     7
100
AcDbLine
 10
57.44923424449999
 20
154.176937621
 30
0.0
 11
57.44923424449999
 21
232.1768596209998
 31
0.0
  0
LINE
  5
36D
330
20F
100
AcDbEntity
  8
0
  6
Continuous
 62
     7
100
AcDbLine
 10
72.4492192445
 20
232.1768596209998
 30
0.0
 11
72.4492192445
 21
225.6768661209997
 31
0.0
  0
LINE
  5
36E
330
20F
100
AcDbEntity
  8
0
  6
Continuous
 62
     7
100
AcDbLine
 10
72.4492192445
 20
160.6769311210001
 30
0.0
 11
72.4492192445
 21
154.176937621
 31
0.0
  0
LINE
  5
36F
330
20F
100
AcDbEntity
  8
0
  6
Continuous
 62
     7
100
AcDbLine
 10
314.4489772445
 20
232.1768596209998
 30
0.0
 11
314.4489772445
 21
225.6768661209997
 31
0.0
  0
LINE
  5
370
330
20F
100
AcDbEntity
  8
0
  6
Continuous
 62
     7
100
AcDbLine
 10
314.4489772445
 20
160.6769311210001
 30
0.0
 11
314.4489772445
 21
154.176937621
 31
0.0
  0
LINE
  5
371
330
20F
100
AcDbEntity
  8
0
  6
Continuous
 62
     7
100
AcDbLine
 10
329.4489622445
 20
232.1768596209998
 30
0.0
 11
329.4489622445
 21
225.6768661209997
 31
0.0
  0
LINE
  5
372
330
20F
100
AcDbEntity
  8
0
  6
Continuous
 62
     7
100
AcDbLine
 10
329.4489622445
 20
160.6769311210001
 30
0.0
 11
329.4489622445
 21
154.176937621
 31
0.0
  0
LINE
  5
373
330
20F
100
AcDbEntity
  8
0
  6
Continuous
 62
     7
100
AcDbLine
 10
842.4484492444998
 20
154.176937621
 30
0.0
 11
827.4484642445001
 21
154.176937621
 31
0.0
  0
LINE
  5
374
330
20F
100
AcDbEntity
  8
0
  6
Continuous
 62
     7
100
AcDbLine
 10
585.4487062444999
 20
154.176937621
 30
0.0
 11
570.4487212445
 21
154.176937621
 31
0.0
  0
LINE
  5
375
330
20F
100
AcDbEntity
  8
0
  6
Continuous
 62
     7
100
AcDbLine
 10
57.44923424449999
 20
154.176937621
 30
0.0
 11
72.4492192445
 21
154.176937621
 31
0.0
  0
LINE
  5
376
330
20F
100
AcDbEntity
  8
0
  6
Continuous
 62
     7
100
AcDbLine
 10
314.4489772445
 20
154.176937621
 30
0.0
 11
329.4489622445
 21
154.176937621
 31
0.0
  0
LINE
  5
377
330
20F
100
AcDbEntity
  8
0
  6
Continuous
 62
     7
100
AcDbLine
 10
842.4484492444998
 20
154.468908329029
 30
0.0
 11
827.4484642445001
 21
154.468908329029
 31
0.0
  0
LINE
  5
378
330
20F
100
AcDbEntity
  8
0
  6
Continuous
 62
     7
100
AcDbLine
 10
585.4487062444999
 20
154.468908329029
 30
0.0
 11
570.4487212445
 21
154.468908329029
 31
0.0
  0
LINE
  5
379
330
20F
100
AcDbEntity
  8
0
  6
Continuous
 62
     7
100
AcDbLine
 10
57.44923424449999
 20
154.468909329028
 30
0.0
 11
72.4492192445
 21
154.468909329028
 31
0.0
  0
LINE
  5
37A
330
20F
100
AcDbEntity
  8
0
  6
Continuous
 62
     7
100
AcDbLine
 10
314.4489772445
 20
154.468909329028
 30
0.0
 11
329.4489622445
 21
154.468909329028
 31
0.0
  0
LINE
  5
37B
102
{ACAD_REACTORS
330
660
102
}
330
20F
100
AcDbEntity
  8
0
  6
Continuous
 62
     7
100
AcDbLine
 10
57.44923424449999
 20
160.6769311210001
 30
0.0
 11
842.4484492444998
 21
160.6769311210001
 31
0.0
  0
LINE
  5
37C
330
20F
100
AcDbEntity
  8
0
  6
Continuous
 62
     7
100
AcDbLine
 10
847.4484442445
 20
161.176930621
 30
0.0
 11
842.4484492444998
 21
161.176930621
 31
0.0
  0
LINE
  5
37D
330
20F
100
AcDbEntity
  8
0
  6
Continuous
 62
     7
100
AcDbLine
 10
52.4492392445
 20
161.176930621
 30
0.0
 11
57.44923424449999
 21
161.176930621
 31
0.0
  0
LINE
  5
37E
330
20F
100
AcDbEntity
  8
0
  6
Continuous
 62
     9
100
AcDbLine
 10
57.44923424449999
 20
163.676928121
 30
0.0
 11
842.4484492444998
 21
163.676928121
 31
0.0
  0
LINE
  5
37F
330
20F
100
AcDbEntity
  8
BEZUGSACHSEN
  6
Continuous
 62
     7
100
AcDbLine
 10
825.5545964940361
 20
165.6541025218237
 30
0.0
 11
824.8581988631011
 21
165.6541025218237
 31
0.0
  0
LINE
  5
380
330
20F
100
AcDbEntity
  8
BEZUGSACHSEN
  6
Continuous
 62
     7
100
AcDbLine
 10
821.7245680954018
 20
165.6541025218237
 30
0.0
 11
821.0281704644668
 21
165.6541025218237
 31
0.0
  0
LINE
  5
381
330
20F
100
AcDbEntity
  8
0
  6
Continuous
 62
     7
100
AcDbLine
 10
847.4484442445
 20
166.1769256209999
 30
0.0
 11
842.4484492444998
 21
166.1769256209999
 31
0.0
  0
LINE
  5
382
330
20F
100
AcDbEntity
  8
0
  6
Continuous
 62
     7
100
AcDbLine
 10
52.4492392445
 20
166.1769256209999
 30
0.0
 11
57.44923424449999
 21
166.1769256209999
 31
0.0
  0
LINE
  5
383
330
20F
100
AcDbEntity
  8
BEZUGSACHSEN
  6
Continuous
 62
     7
100
AcDbLine
 10
824.814372798594
 20
166.2821944953976
 30
0.0
 11
821.7683941599089
 21
166.2821944953976
 31
0.0
  0
LINE
  5
384
330
20F
100
AcDbEntity
  8
BEZUGSACHSEN
  6
Continuous
 62
     7
100
AcDbLine
 10
821.9148929070767
 20
166.9785843910071
 30
0.0
 11
824.6678740514264
 21
166.9785843910071
 31
0.0
  0
LINE
  5
386
330
20F
100
AcDbEntity
  8
0
  6
Continuous
 62
     7
100
AcDbLine
 10
847.4484442445
 20
220.176871621
 30
0.0
 11
842.4484492444998
 21
220.176871621
 31
0.0
  0
LINE
  5
387
330
20F
100
AcDbEntity
  8
0
  6
Continuous
 62
     7
100
AcDbLine
 10
52.4492392445
 20
220.176871621
 30
0.0
 11
57.44923424449999
 21
220.176871621
 31
0.0
  0
LINE
  5
388
330
20F
100
AcDbEntity
  8
0
  6
Continuous
 62
     9
100
AcDbLine
 10
842.4484492444998
 20
222.6768691209999
 30
0.0
 11
57.44923424449999
 21
222.6768691209999
 31
0.0
  0
LINE
  5
389
330
20F
100
AcDbEntity
  8
0
  6
Continuous
 62
     7
100
AcDbLine
 10
847.4484442445
 20
225.1768666209998
 30
0.0
 11
842.4484492444998
 21
225.1768666209998
 31
0.0
  0
LINE
  5
38A
330
20F
100
AcDbEntity
  8
0
  6
Continuous
 62
     7
100
AcDbLine
 10
52.4492392445
 20
225.1768666209998
 30
0.0
 11
57.44923424449999
 21
225.1768666209998
 31
0.0
  0
LINE
  5
38B
102
{ACAD_REACTORS
330
660
102
}
330
20F
100
AcDbEntity
  8
0
  6
Continuous
 62
     7
100
AcDbLine
 10
842.4484492444998
 20
225.6768661209997
 30
0.0
 11
57.44923424449999
 21
225.6768661209997
 31
0.0
  0
LINE
  5
38C
102
{ACAD_REACTORS
330
AF0
102
}
330
20F
100
AcDbEntity
  8
0
  6
Continuous
 62
     7
100
AcDbLine
 10
842.4484492444998
 20
231.8848879129718
 30
0.0
 11
827.4484642445001
 21
231.8848879129718
 31
0.0
  0
LINE
  5
38D
330
20F
100
AcDbEntity
  8
0
  6
Continuous
 62
     7
100
AcDbLine
 10
585.4487062444999
 20
231.8848879129718
 30
0.0
 11
570.4487212445
 21
231.8848879129718
 31
0.0
  0
LINE
  5
38E
102
{ACAD_REACTORS
330
AF0
102
}
330
20F
100
AcDbEntity
  8
0
  6
Continuous
 62
     7
100
AcDbLine
 10
57.44923424449999
 20
231.884888912971
 30
0.0
 11
72.4492192445
 21
231.884888912971
 31
0.0
  0
LINE
  5
38F
330
20F
100
AcDbEntity
  8
0
  6
Continuous
 62
     7
100
AcDbLine
 10
314.4489772445
 20
231.884888912971
 30
0.0
 11
329.4489622445
 21
231.884888912971
 31
0.0
  0
LINE
  5
390
330
20F
100
AcDbEntity
  8
0
  6
Continuous
 62
     7
100
AcDbLine
 10
842.4484492444998
 20
232.1768596209998
 30
0.0
 11
827.4484642445001
 21
232.1768596209998
 31
0.0
  0
LINE
  5
391
330
20F
100
AcDbEntity
  8
0
  6
Continuous
 62
     7
100
AcDbLine
 10
585.4487062444999
 20
232.1768596209998
 30
0.0
 11
570.4487212445
 21
232.1768596209998
 31
0.0
  0
LINE
  5
392
330
20F
100
AcDbEntity
  8
0
  6
Continuous
 62
     7
100
AcDbLine
 10
57.44923424449999
 20
232.1768596209998
 30
0.0
 11
72.4492192445
 21
232.1768596209998
 31
0.0
  0
LINE
  5
393
330
20F
100
AcDbEntity
  8
0
  6
Continuous
 62
     7
100
AcDbLine
 10
314.4489772445
 20
232.1768596209998
 30
0.0
 11
329.4489622445
 21
232.1768596209998
 31
0.0
  0
LINE
  5
394
330
20F
100
AcDbEntity
  8
0
  6
Continuous
 62
     7
100
AcDbLine
 10
570.4487212445
 20
154.176937621
 30
0.0
 11
570.4487212445
 21
160.6769311210001
 31
0.0
  0
LINE
  5
395
330
20F
100
AcDbEntity
  8
0
  6
Continuous
 62
     7
100
AcDbLine
 10
570.4487212445
 20
225.6768661209997
 30
0.0
 11
570.4487212445
 21
232.1768596209998
 31
0.0
  0
LINE
  5
396
330
20F
100
AcDbEntity
  8
0
  6
Continuous
 62
     7
100
AcDbLine
 10
585.4487062444999
 20
154.176937621
 30
0.0
 11
585.4487062444999
 21
160.6769311210001
 31
0.0
  0
LINE
  5
397
330
20F
100
AcDbEntity
  8
0
  6
Continuous
 62
     7
100
AcDbLine
 10
585.4487062444999
 20
225.6768661209997
 30
0.0
 11
585.4487062444999
 21
232.1768596209998
 31
0.0
  0
LINE
  5
398
330
20F
100
AcDbEntity
  8
BEZUGSACHSEN
  6
Continuous
 62
     7
100
AcDbLine
 10
831.061183473777
 20
167.1643924035323
 30
0.0
 11
831.6642748143518
 21
166.8161974557275
 31
0.0
  0
LINE
  5
399
330
20F
100
AcDbEntity
  8
BEZUGSACHSEN
  6
Continuous
 62
     7
100
AcDbLine
 10
831.6496795692803
 20
169.1043760062134
 30
0.0
 11
831.0465173361098
 21
168.7561401284496
 31
0.0
  0
LINE
  5
39A
330
20F
100
AcDbEntity
  8
0
  6
Continuous
 62
     7
100
AcDbLine
 10
827.4484642445001
 20
154.176937621
 30
0.0
 11
827.4484642445001
 21
160.6769311210001
 31
0.0
  0
LINE
  5
39B
330
20F
100
AcDbEntity
  8
0
  6
Continuous
 62
     7
100
AcDbLine
 10
827.4484642445001
 20
225.6768661209997
 30
0.0
 11
827.4484642445001
 21
232.1768596209998
 31
0.0
  0
LINE
  5
39C
330
20F
100
AcDbEntity
  8
0
  6
Continuous
 62
     7
100
AcDbLine
 10
842.4484492444998
 20
154.176937621
 30
0.0
 11
842.4484492444998
 21
232.1768596209998
 31
0.0
  0
LINE
  5
39D
330
20F
100
AcDbEntity
  8
0
  6
Continuous
 62
     7
100
AcDbLine
 10
847.4484442445
 20
161.176930621
 30
0.0
 11
847.4484442445
 21
166.1769256209999
 31
0.0
  0
LINE
  5
39E
330
20F
100
AcDbEntity
  8
0
  6
Continuous
 62
     7
100
AcDbLine
 10
847.4484442445
 20
220.176871621
 30
0.0
 11
847.4484442445
 21
225.1768666209998
 31
0.0
  0
LINE
  5
39F
330
20F
100
AcDbEntity
  8
0
  6
Continuous
 62
     7
100
AcDbLine
 10
-21.69859237100957
 20
154.468908621
 30
0.0
 11
-22.49859437100963
 21
154.468908621
 31
0.0
  0
LINE
  5
3A0
330
20F
100
AcDbEntity
  8
0
  6
Continuous
 62
     7
100
AcDbLine
 10
-7.461863371009599
 20
154.1769376209999
 30
0.0
 11
-21.69859237100957
 21
154.468908621
 31
0.0
  0
LINE
  5
3A1
330
20F
100
AcDbEntity
  8
0
  6
Continuous
 62
     7
100
AcDbLine
 10
-18.19859437100962
 20
160.676937621
 30
0.0
 11
-22.49859437100963
 21
160.676937621
 31
0.0
  0
LINE
  5
3A2
330
20F
100
AcDbEntity
  8
0
  6
Continuous
 62
     3
100
AcDbLine
 10
-17.99859437100963
 20
162.176937621
 30
0.0
 11
-22.49859437100963
 21
162.176937621
 31
0.0
  0
LINE
  5
3A3
330
20F
100
AcDbEntity
  8
0
  6
Continuous
 62
     9
100
AcDbLine
 10
-23.99859437100963
 20
163.676937621
 30
0.0
 11
-25.49859437100963
 21
163.676937621
 31
0.0
  0
LINE
  5
3A4
330
20F
100
AcDbEntity
  8
0
  6
Continuous
 62
     7
100
AcDbLine
 10
-21.92788453570961
 20
161.1062277858
 30
0.0
 11
-21.49859437100963
 21
160.676937621
 31
0.0
  0
LINE
  5
3A5
330
20F
100
AcDbEntity
  8
0
  6
Continuous
 62
     7
100
AcDbLine
 10
-22.49859437100963
 20
160.676937621
 30
0.0
 11
-22.06930184020951
 21
161.1062291518
 31
0.0
  0
LINE
  5
3A6
330
20F
100
AcDbEntity
  8
0
  6
Continuous
 62
     7
100
AcDbLine
 10
-7.461863371009599
 20
232.176937621
 30
0.0
 11
-5.698594121209622
 21
222.1769362048
 31
0.0
  0
LINE
  5
3A7
330
20F
100
AcDbEntity
  8
0
  6
Continuous
 62
     7
100
AcDbLine
 10
-5.698594121209622
 20
164.1769390372
 30
0.0
 11
-7.461863371009599
 21
154.1769376209999
 31
0.0
  0
LINE
  5
3A8
330
20F
100
AcDbEntity
  8
0
  6
Continuous
 62
     7
100
AcDbLine
 10
-17.99859437100963
 20
160.876937621
 30
0.0
 11
-17.99859437100963
 21
225.476937621
 31
0.0
  0
LINE
  5
3AA
330
20F
100
AcDbEntity
  8
0
  6
Continuous
 62
     9
100
AcDbLine
 10
-19.99859437100963
 20
162.176937621
 30
0.0
 11
-19.99859437100963
 21
160.676937621
 31
0.0
  0
LINE
  5
3AB
330
20F
100
AcDbEntity
  8
0
  6
Continuous
 62
     9
100
AcDbLine
 10
-19.99859437100963
 20
224.1769376210001
 30
0.0
 11
-19.99859437100963
 21
225.676937621
 31
0.0
  0
LINE
  5
3AC
330
20F
100
AcDbEntity
  8
0
  6
Continuous
 62
     9
100
AcDbLine
 10
-22.49859437100963
 20
162.176937621
 30
0.0
 11
-22.49859437100963
 21
160.676937621
 31
0.0
  0
LINE
  5
3AD
330
20F
100
AcDbEntity
  8
0
  6
Continuous
 62
     7
100
AcDbLine
 10
-22.49859437100963
 20
154.468908621
 30
0.0
 11
-22.49859437100963
 21
160.676937621
 31
0.0
  0
LINE
  5
3AE
330
20F
100
AcDbEntity
  8
0
  6
Continuous
 62
     9
100
AcDbLine
 10
-22.49859437100963
 20
224.1769376210001
 30
0.0
 11
-22.49859437100963
 21
225.676937621
 31
0.0
  0
LINE
  5
3AF
330
20F
100
AcDbEntity
  8
0
  6
Continuous
 62
     7
100
AcDbLine
 10
-22.49859437100963
 20
225.676937621
 30
0.0
 11
-22.49859437100963
 21
231.884965621
 31
0.0
  0
LINE
  5
3B0
330
20F
100
AcDbEntity
  8
0
  6
Continuous
 62
     3
100
AcDbLine
 10
-23.99859437100963
 20
222.6769376210001
 30
0.0
 11
-23.99859437100963
 21
163.676937621
 31
0.0
  0
LINE
  5
3B1
330
20F
100
AcDbEntity
  8
0
  6
Continuous
 62
     7
100
AcDbLine
 10
-25.49859437100963
 20
222.6769376210001
 30
0.0
 11
-25.49859437100963
 21
163.676937621
 31
0.0
  0
LINE
  5
3B2
330
20F
100
AcDbEntity
  8
0
  6
Continuous
 62
     7
100
AcDbLine
 10
-22.06930184020951
 20
225.2476460902
 30
0.0
 11
-22.49859437100963
 21
225.676937621
 31
0.0
  0
LINE
  5
3B3
330
20F
100
AcDbEntity
  8
0
  6
Continuous
 62
     7
100
AcDbLine
 10
-21.49859437100963
 20
225.676937621
 30
0.0
 11
-21.92788453570961
 21
225.2476474563
 31
0.0
  0
LINE
  5
3B4
330
20F
100
AcDbEntity
  8
0
  6
Continuous
 62
     9
100
AcDbLine
 10
-23.99859437100963
 20
222.6769376210001
 30
0.0
 11
-25.49859437100963
 21
222.6769376210001
 31
0.0
  0
LINE
  5
3B5
330
20F
100
AcDbEntity
  8
0
  6
Continuous
 62
     3
100
AcDbLine
 10
-17.99859437100963
 20
224.1769376210001
 30
0.0
 11
-22.49859437100963
 21
224.1769376210001
 31
0.0
  0
LINE
  5
3B6
330
20F
100
AcDbEntity
  8
0
  6
Continuous
 62
     7
100
AcDbLine
 10
-18.19859437100962
 20
225.676937621
 30
0.0
 11
-22.49859437100963
 21
225.676937621
 31
0.0
  0
LINE
  5
3B7
330
20F
100
AcDbEntity
  8
0
  6
Continuous
 62
     7
100
AcDbLine
 10
-21.69859437100962
 20
231.884965621
 30
0.0
 11
-7.461863371009599
 21
232.176937621
 31
0.0
  0
LINE
  5
3B8
330
20F
100
AcDbEntity
  8
0
  6
Continuous
 62
     7
100
AcDbLine
 10
-22.49859437100963
 20
231.884965621
 30
0.0
 11
-21.69859437100962
 21
231.884965621
 31
0.0
  0
ARC
  5
3C9
330
20F
100
AcDbEntity
  8
BEZUGSACHSEN
  6
Continuous
 62
     7
100
AcDbCircle
 10
826.5992354833963
 20
165.6295402567192
 30
0.0
 40
5.571119165208597
100
AcDbArc
 50
126.4235736426
 51
179.7473903089001
  0
ARC
  5
3CA
330
20F
100
AcDbEntity
  8
BEZUGSACHSEN
  6
Continuous
 62
     7
100
AcDbCircle
 10
819.9835314751068
 20
165.6295402567192
 30
0.0
 40
5.571119165208597
100
AcDbArc
 50
0.2526096910999083
 51
53.57642635740003
  0
ARC
  5
3CB
330
20F
100
AcDbEntity
  8
BEZUGSACHSEN
  6
Continuous
 62
     7
100
AcDbCircle
 10
826.5992354833963
 20
165.6295402567192
 30
0.0
 40
4.874729269599188
100
AcDbArc
 50
132.7321100428999
 51
163.9341249737
  0
ARC
  5
3CC
330
20F
100
AcDbEntity
  8
BEZUGSACHSEN
  6
Continuous
 62
     7
100
AcDbCircle
 10
819.9835314751068
 20
165.6295402567192
 30
0.0
 40
4.874729269599188
100
AcDbArc
 50
16.06587502629994
 51
47.26788995710013
  0
ARC
  5
3CD
330
20F
100
AcDbEntity
  8
BEZUGSACHSEN
  6
Continuous
 62
     7
100
AcDbCircle
 10
819.9835314751068
 20
165.6295402567192
 30
0.0
 40
4.874729269599188
100
AcDbArc
 50
0.2886970761004846
 51
7.694162962799867
  0
ARC
  5
3CE
330
20F
100
AcDbEntity
  8
BEZUGSACHSEN
  6
Continuous
 62
     7
100
AcDbCircle
 10
826.5992354833963
 20
165.6295402567192
 30
0.0
 40
4.874729269599188
100
AcDbArc
 50
172.3058370372001
 51
179.7113029239005
  0
CIRCLE
  5
3CF
330
20F
100
AcDbEntity
  8
BEZUGSACHSEN
  6
Continuous
 62
     7
100
AcDbCircle
 10
836.117072435883
 20
167.9478310360928
 30
0.0
 40
2.263267160730576
  0
ARC
  5
3D0
330
20F
100
AcDbEntity
  8
BEZUGSACHSEN
  6
Continuous
 62
     7
100
AcDbCircle
 10
829.7042279574004
 20
167.9478310360928
 30
0.0
 40
2.263267160730576
100
AcDbArc
 50
30.73091726590016
 51
329.9999999999996
  0
CIRCLE
  5
3D1
330
20F
100
AcDbEntity
  8
BEZUGSACHSEN
  6
Continuous
 62
     7
100
AcDbCircle
 10
836.117072435883
 20
167.9478310360928
 30
0.0
 40
1.566877265121168
  0
ARC
  5
3D2
330
20F
100
AcDbEntity
  8
BEZUGSACHSEN
  6
Continuous
 62
     7
100
AcDbCircle
 10
829.7042279574004
 20
167.9478310360928
 30
0.0
 40
1.566877265121168
100
AcDbArc
 50
31.05580049910011
 51
329.9999999999996
  0
ARC
  5
3D3
330
20F
100
AcDbEntity
  8
0
  6
Continuous
 62
     7
100
AcDbCircle
 10
39.5219946289904
 20
193.176937621
 30
0.0
 40
53.720588
100
AcDbArc
 50
147.3279157885995
 51
212.6720842114004
  0
ARC
  5
3D4
330
20F
100
AcDbEntity
  8
0
  6
Continuous
 62
     7
100
AcDbCircle
 10
-22.49859437100963
 20
222.6769376210001
 30
0.0
 40
3.0
100
AcDbArc
 50
90.0
 51
180.0
  0
ARC
  5
3D5
330
20F
100
AcDbEntity
  8
0
  6
Continuous
 62
     7
100
AcDbCircle
 10
-22.49859437100963
 20
163.676937621
 30
0.0
 40
3.0
100
AcDbArc
 50
180.0
 51
270.0
  0
CIRCLE
  5
3D6
330
20F
100
AcDbEntity
  8
0
  6
Continuous
 62
     7
100
AcDbCircle
 10
-12.69859437100962
 20
222.6769376210001
 30
0.0
 40
2.5
  0
CIRCLE
  5
3D7
330
20F
100
AcDbEntity
  8
0
  6
Continuous
 62
     7
100
AcDbCircle
 10
-12.69859437100962
 20
163.676937621
 30
0.0
 40
2.5
  0
ARC
  5
3D8
330
20F
100
AcDbEntity
  8
0
  6
Continuous
 62
     3
100
AcDbCircle
 10
-22.49859437100963
 20
222.6769376210001
 30
0.0
 40
1.5
100
AcDbArc
 50
90.0
 51
180.0
  0
ARC
  5
3D9
330
20F
100
AcDbEntity
  8
0
  6
Continuous
 62
     3
100
AcDbCircle
 10
-22.49859437100963
 20
163.676937621
 30
0.0
 40
1.5
100
AcDbArc
 50
180.0
 51
270.0
  0
ARC
  5
3DA
330
20F
100
AcDbEntity
  8
0
  6
Continuous
 62
     7
100
AcDbCircle
 10
-18.19859437100962
 20
160.876937621
 30
0.0
 40
0.2
100
AcDbArc
 50
270.0
 51
0.0
  0
ARC
  5
3DB
330
20F
100
AcDbEntity
  8
0
  6
Continuous
 62
     7
100
AcDbCircle
 10
-18.19859437100962
 20
225.476937621
 30
0.0
 40
0.2
100
AcDbArc
 50
0.0
 51
90.0
  0
ARC
  5
3DC
330
20F
100
AcDbEntity
  8
0
  6
Continuous
 62
     7
100
AcDbCircle
 10
-21.99859437100963
 20
161.035516621
 30
0.0
 40
0.1
100
AcDbArc
 50
45.00053863639926
 51
134.9979493246011
  0
ARC
  5
3DD
330
20F
100
AcDbEntity
  8
0
  6
Continuous
 62
     7
100
AcDbCircle
 10
-21.99859437100963
 20
225.318358621
 30
0.0
 40
0.1
100
AcDbArc
 50
225.0020506753989
 51
314.9994613636007
  0
DIMENSION
  5
651
102
{ACAD_XDICTIONARY
360
65F
102
}
102
{ACAD_REACTORS
330
660
102
}
330
20F
100
AcDbEntity
  8
P-0000
  6
Continuous
100
AcDbDimension
  2
*D13
 10
900.4365247938801
 20
160.6769311210001
 30
0.0
 11
900.4365247938801
 21
191.2770097929256
 31
0.0
 70
   160
 71
     5
 42
64.99993499999956
  3
883N99122_001_00149479900
100
AcDbAlignedDimension
 13
842.4484492444998
 23
225.6768661209997
 33
0.0
 14
842.4484492444998
 24
160.6769311210001
 34
0.0
 50
90.0
100
AcDbRotatedDimension
1001
ACAD_DSTYLE_DIMINSPECT
1070
   396
1000
100%
1070
   395
1000

1070
   394
1070
    33
1070
   393
1070
     0
1001
ACAD
1000
DSTYLE
1002
{
1070
   271
1070
     1
1070
   288
1070
     1
1002
}
  0
DIMENSION
  5
AE1
102
{ACAD_XDICTIONARY
360
AEF
102
}
102
{ACAD_REACTORS
330
AF0
102
}
330
20F
100
AcDbEntity
  8
P-0000
  6
Continuous
100
AcDbDimension
  2
*D20
 10
842.4484492444998
 20
257.0197056176228
 30
0.0
 11
465.6195347371481
 21
257.0197056176228
 31
0.0
 70
   160
 71
     5
 42
784.9992149999998
  3
883N99122_001_00149479900
100
AcDbAlignedDimension
 13
57.44923424449999
 23
231.884888912971
 33
0.0
 14
842.4484492444998
 24
231.8848879129718
 34
0.0
 50
0.0000000000000114
100
AcDbRotatedDimension
1001
ACAD_DSTYLE_DIMINSPECT
1070
   396
1000
100%
1070
   395
1000

1070
   394
1070
    33
1070
   393
1070
     0
1001
ACAD
1000
DSTYLE
1002
{
1070
   271
1070
     1
1070
   288
1070
     1
1002
}
  0
ENDSEC
  0
SECTION
  2
OBJECTS
  0
DICTIONARY
  5
C
330
0
100
AcDbDictionary
281
     1
  3
ACAD_2007HEADERVARS_RT
350
1275
  3
ACAD_COLOR
350
416
  3
ACAD_GROUP
350
D
  3
ACAD_IMAGE_DICT
350
3DF
  3
ACAD_IMAGE_VARS
350
3E0
  3
ACAD_LAYOUT
350
1A
  3
ACAD_MATERIAL
350
3E9
  3
ACAD_MLEADERSTYLE
350
429
  3
ACAD_MLINESTYLE
350
17
  3
ACAD_PLOTSETTINGS
350
19
  3
ACAD_PLOTSTYLENAME
350
E
  3
ACAD_SCALELIST
350
417
  3
ACAD_TABLESTYLE
350
3E1
  3
ACAD_VISUALSTYLE
350
402
  3
ACDB_RECOMPOSE_DATA
350
1273
  3
AcDbVariableDictionary
350
58F
  3
AcmDictionary
350
485
  3
AEC_PROPERTY_SET_DEFS
350
E34
  3
AMG
350
42F
  3
AMGSNAPSETTINGS
350
4CC
  3
DWGPROPS
350
1274
  0
DICTIONARY
  5
872
330
2
100
AcDbDictionary
280
     1
281
     1
  3
ACAD_LAYERSTATES
360
873
  0
DICTIONARY
  5
860
330
85F
100
AcDbDictionary
280
     1
281
     1
  0
DICTIONARY
  5
862
330
861
100
AcDbDictionary
280
     1
281
     1
  0
DICTIONARY
  5
864
330
863
100
AcDbDictionary
280
     1
281
     1
  0
DICTIONARY
  5
866
330
865
100
AcDbDictionary
280
     1
281
     1
  0
DICTIONARY
  5
868
330
867
100
AcDbDictionary
280
     1
281
     1
  0
DICTIONARY
  5
86A
330
869
100
AcDbDictionary
280
     1
281
     1
  0
DICTIONARY
  5
C44
330
C43
100
AcDbDictionary
280
     1
281
     1
  0
DICTIONARY
  5
C46
330
C45
100
AcDbDictionary
280
     1
281
     1
  0
DICTIONARY
  5
7DB
330
7DA
100
AcDbDictionary
280
     1
281
     1
  3
ACAD_SORTENTS
360
7DC
  0
DICTIONARY
  5
E2D
330
E2C
100
AcDbDictionary
280
     1
281
     1
  3
ACAD_DIMASSOC
360
E2E
  0
DICTIONARY
  5
E30
330
E2F
100
AcDbDictionary
280
     1
281
     1
  3
ACAD_DIMASSOC
360
E31
  0
DICTIONARY
  5
65F
330
651
100
AcDbDictionary
280
     1
281
     1
  3
ACAD_DIMASSOC
360
660
  0
DICTIONARY
  5
AEF
330
AE1
100
AcDbDictionary
280
     1
281
     1
  3
ACAD_DIMASSOC
360
AF0
  0
DICTIONARY
  5
1275
102
{ACAD_REACTORS
330
C
102
}
330
C
100
AcDbDictionary
281
     1
  3
DIMJOGANG
350
1276
  3
DIMLTEX1
350
1278
  3
DIMLTEX2
350
1279
  3
DIMLTYPE
350
1277
  0
DICTIONARY
  5
416
102
{ACAD_REACTORS
330
C
102
}
330
C
100
AcDbDictionary
281
     1
  0
DICTIONARY
  5
D
102
{ACAD_REACTORS
330
C
102
}
330
C
100
AcDbDictionary
281
     1
  0
DICTIONARY
  5
3DF
330
C
100
AcDbDictionary
281
     1
  3
01549643_img_1
350
3E4
  0
RASTERVARIABLES
  5
3E0
330
C
100
AcDbRasterVariables
 90
        0
 70
     0
 71
     1
 72
     1
  0
DICTIONARY
  5
1A
102
{ACAD_REACTORS
330
C
102
}
330
C
100
AcDbDictionary
281
     1
  3
Layout1
350
3E3
  3
Model
350
3E2
  0
DICTIONARY
  5
3E9
102
{ACAD_REACTORS
330
C
102
}
330
C
100
AcDbDictionary
281
     1
  3
ByBlock
350
3F2
  3
ByLayer
350
3EA
  3
Global
350
3FA
  0
DICTIONARY
  5
429
102
{ACAD_REACTORS
330
C
102
}
330
C
100
AcDbDictionary
281
     1
  3
Standard
350
42A
  0
DICTIONARY
  5
17
102
{ACAD_REACTORS
330
C
102
}
330
C
100
AcDbDictionary
281
     1
  3
Standard
350
18
  0
DICTIONARY
  5
19
102
{ACAD_REACTORS
330
C
102
}
330
C
100
AcDbDictionary
281
     1
  0
ACDBDICTIONARYWDFLT
  5
E
102
{ACAD_REACTORS
330
C
102
}
330
C
100
AcDbDictionary
281
     1
  3
Normal
350
F
100
AcDbDictionaryWithDefault
340
F
  0
DICTIONARY
  5
417
102
{ACAD_REACTORS
330
C
102
}
330
C
100
AcDbDictionary
281
     1
  3
A0
350
418
  3
A1
350
419
  3
A2
350
41A
  3
A3
350
41B
  3
A4
350
41C
  3
A5
350
41D
  3
A6
350
41E
  3
A7
350
41F
  3
A8
350
420
  3
A9
350
421
  3
B0
350
422
  3
B1
350
423
  3
B2
350
424
  3
B3
350
425
  3
B4
350
426
  3
B5
350
427
  3
B6
350
428
  0
DICTIONARY
  5
3E1
330
C
100
AcDbDictionary
281
     1
  3
Standard
350
3E5
  3
Standard1
350
3E6
  0
DICTIONARY
  5
402
102
{ACAD_REACTORS
330
C
102
}
330
C
100
AcDbDictionary
281
     1
  3
2dWireframe
350
408
  3
3D Hidden
350
40A
  3
3dWireframe
350
409
  3
Basic
350
407
  3
Brighten
350
40E
  3
ColorChange
350
412
  3
Conceptual
350
40B
  3
Dim
350
40D
  3
EdgeColorOff
350
415
  3
Facepattern
350
411
  3
Flat
350
403
  3
FlatWithEdges
350
404
  3
Gouraud
350
405
  3
GouraudWithEdges
350
406
  3
JitterOff
350
413
  3
Linepattern
350
410
  3
OverhangOff
350
414
  3
Realistic
350
40C
  3
Thicken
350
40F
  0
XRECORD
  5
1273
102
{ACAD_REACTORS
330
C
102
}
330
C
100
AcDbXrecord
280
     1
 90
        1
330
3E5
330
3E6
  0
DICTIONARY
  5
58F
102
{ACAD_REACTORS
330
C
102
}
330
C
100
AcDbDictionary
281
     1
  3
CANNOSCALE
350
593
  3
CMLEADERSTYLE
350
591
  3
CTABLESTYLE
350
590
  3
DIMASSOC
350
59A
  3
HIDETEXT
350
599
  3
INDEXCTL
350
598
  3
LAYEREVAL
350
595
  3
LAYERNOTIFY
350
596
  3
LIGHTINGUNITS
350
594
  3
MSLTSCALE
350
592
  3
SORTENTS
350
597
  3
XCLIPFRAME
350
1270
  0
DICTIONARY
  5
485
102
{ACAD_REACTORS
330
C
102
}
330
C
100
AcDbDictionary
281
     1
  3
AcmStdDictionary
350
491
  0
DICTIONARY
  5
E34
102
{ACAD_REACTORS
330
C
102
}
330
C
100
AcDbDictionary
281
     1
  0
DICTIONARY
  5
42F
102
{ACAD_REACTORS
330
C
102
}
330
C
100
AcDbDictionary
281
     1
  0
DICTIONARY
  5
4CC
102
{ACAD_REACTORS
330
C
102
}
330
C
100
AcDbDictionary
281
     1
  0
XRECORD
  5
1274
102
{ACAD_REACTORS
330
C
102
}
330
C
100
AcDbXrecord
280
     1
  1
DWGPROPS COOKIE
  2

  3

  4

  6

  7

  8
MAlaie
  9

300
=
301
=
302
=
303
=
304
=
305
=
306
=
307
=
308
=
309
=
 40
0.1154486458333333
 41
2456708.707143843
 42
2456716.597046181
  1

 90
        0
  0
DICTIONARY
  5
873
102
{ACAD_REACTORS
330
872
102
}
330
872
100
AcDbDictionary
281
     1
  0
SORTENTSTABLE
  5
7DC
102
{ACAD_REACTORS
330
7DB
102
}
330
7DB
100
AcDbSortentsTable
330
7DA
  0
DIMASSOC
  5
E2E
102
{ACAD_REACTORS
330
E2D
102
}
330
E2D
100
AcDbDimAssoc
330
E2C
 90
        3
 70
     0
 71
     0
  1
AcDbOsnapPointRef
 72
     5
331
D19
 73
     0
 91
        0
 40
3.141592653589792
 10
0.0
 20
0.0
 30
0.0
 75
     0
  1
AcDbOsnapPointRef
 72
     5
331
D19
 73
     0
 91
        0
 40
0.0
 10
0.0
 20
0.0
 30
0.0
 75
     0
  0
DIMASSOC
  5
E31
102
{ACAD_REACTORS
330
E30
102
}
330
E30
100
AcDbDimAssoc
330
E2F
 90
        3
 70
     0
 71
     0
  1
AcDbOsnapPointRef
 72
     1
331
D01
 73
     0
 91
        0
 40
0.0
 10
0.0
 20
0.0
 30
2.000000000000000E+50
 75
     0
  1
AcDbOsnapPointRef
 72
     1
331
CD9
 73
     0
 91
        0
 40
0.0
 10
0.0
 20
0.0
 30
2.000000000000000E+50
 75
     0
  0
DIMASSOC
  5
660
102
{ACAD_REACTORS
330
65F
102
}
330
65F
100
AcDbDimAssoc
330
651
 90
        3
 70
     0
 71
     0
  1
AcDbOsnapPointRef
 72
    13
331
38B
 73
     0
 91
        0
 40
0.0
 10
0.0
 20
0.0
 30
2.000000000000000E+50
 75
     0
  1
AcDbOsnapPointRef
 72
     1
331
37B
 73
     0
 91
        0
 40
0.0
 10
0.0
 20
0.0
 30
2.000000000000000E+50
 75
     0
  0
DIMASSOC
  5
AF0
102
{ACAD_REACTORS
330
AEF
102
}
330
AEF
100
AcDbDimAssoc
330
AE1
 90
        3
 70
     0
 71
     0
  1
AcDbOsnapPointRef
 72
    13
331
38E
 73
     0
 91
        0
 40
0.0
 10
0.0
 20
0.0
 30
2.000000000000000E+50
 75
     0
  1
AcDbOsnapPointRef
 72
    13
331
38C
 73
     0
 91
        0
 40
0.0
 10
0.0
 20
0.0
 30
2.000000000000000E+50
 75
     0
  0
XRECORD
  5
1276
102
{ACAD_REACTORS
330
1275
102
}
330
1275
100
AcDbXrecord
280
     1
 40
1.570796326794896
  0
XRECORD
  5
1278
102
{ACAD_REACTORS
330
1275
102
}
330
1275
100
AcDbXrecord
280
     1
340
14
  0
XRECORD
  5
1279
102
{ACAD_REACTORS
330
1275
102
}
330
1275
100
AcDbXrecord
280
     1
340
14
  0
XRECORD
  5
1277
102
{ACAD_REACTORS
330
1275
102
}
330
1275
100
AcDbXrecord
280
     1
340
14
  0
IMAGEDEF
  5
3E4
102
{ACAD_REACTORS
330
3DF
102
}
330
3DF
100
AcDbRasterImageDef
 90
        0
  1
01549643_img_1.jpg
 10
230.0
 20
73.0
 11
0.1693333333
 21
0.1693333333
280
     1
281
     0
  0
LAYOUT
  5
3E3
102
{ACAD_XDICTIONARY
360
127C
102
}
102
{ACAD_REACTORS
330
1A
102
}
330
1A
100
AcDbPlotSettings
  1

  2
none_device
  4
ISO_A3_(420.00_x_297.00_MM)
  6

 40
0.0
 41
0.0
 42
0.0
 43
0.0
 44
420.0
 45
297.0
 46
0.0
 47
0.0
 48
0.0
 49
0.0
140
0.0
141
0.0
142
1.0
143
1.0
 70
     0
 72
     1
 73
     0
 74
     0
  7

 75
     0
147
1.0
148
0.0
149
0.0
100
AcDbLayout
  1
Layout1
 70
     1
 71
     1
 10
0.0
 20
0.0
 11
12.0
 21
9.0
 12
0.0
 22
0.0
 32
0.0
 14
1.000000000000000E+20
 24
1.000000000000000E+20
 34
1.000000000000000E+20
 15
-1.000000000000000E+20
 25
-1.000000000000000E+20
 35
-1.000000000000000E+20
146
0.0
 13
0.0
 23
0.0
 33
0.0
 16
1.0
 26
0.0
 36
0.0
 17
0.0
 27
1.0
 37
0.0
 76
     0
330
210
  0
LAYOUT
  5
3E2
102
{ACAD_XDICTIONARY
360
127A
102
}
102
{ACAD_REACTORS
330
1A
102
}
330
1A
100
AcDbPlotSettings
  1

  2
none_device
  4
ISO_A3_(420.00_x_297.00_MM)
  6

 40
0.0
 41
0.0
 42
0.0
 43
0.0
 44
420.0
 45
297.0
 46
0.0
 47
0.0
 48
0.0
 49
0.0
140
0.0
141
0.0
142
1.0
143
1.0
 70
  1024
 72
     1
 73
     0
 74
     0
  7

 75
     0
147
1.0
148
0.0
149
0.0
100
AcDbLayout
  1
Model
 70
     0
 71
     0
 10
0.0
 20
0.0
 11
420.0
 21
297.0
 12
0.0
 22
0.0
 32
0.0
 14
0.0
 24
0.0
 34
0.0
 15
0.0
 25
0.0
 35
0.0
146
0.0
 13
0.0
 23
0.0
 33
0.0
 16
1.0
 26
0.0
 36
0.0
 17
0.0
 27
1.0
 37
0.0
 76
     0
330
20F
331
1F4
  0
MATERIAL
  5
3F2
102
{ACAD_XDICTIONARY
360
3F3
102
}
102
{ACAD_REACTORS
330
3E9
102
}
330
3E9
100
AcDbMaterial
  1
ByBlock
 72
     0
 43
0.0008202099737533
 43
0.0
 43
0.0
 43
0.0
 43
0.0
 43
0.0008202099737533
 43
0.0
 43
0.0
 43
0.0
 43
0.0
 43
1.0
 43
0.0
 43
0.0
 43
0.0
 43
0.0
 43
1.0
 77
     0
 47
0.0008202099737533
 47
0.0
 47
0.0
 47
0.0
 47
0.0
 47
0.0008202099737533
 47
0.0
 47
0.0
 47
0.0
 47
0.0
 47
1.0
 47
0.0
 47
0.0
 47
0.0
 47
0.0
 47
1.0
171
     0
 49
0.0008202099737533
 49
0.0
 49
0.0
 49
0.0
 49
0.0
 49
0.0008202099737533
 49
0.0
 49
0.0
 49
0.0
 49
0.0
 49
1.0
 49
0.0
 49
0.0
 49
0.0
 49
0.0
 49
1.0
175
     0
142
0.0008202099737533
142
0.0
142
0.0
142
0.0
142
0.0
142
0.0008202099737533
142
0.0
142
0.0
142
0.0
142
0.0
142
1.0
142
0.0
142
0.0
142
0.0
142
0.0
142
1.0
179
     0
144
0.0008202099737533
144
0.0
144
0.0
144
0.0
144
0.0
144
0.0008202099737533
144
0.0
144
0.0
144
0.0
144
0.0
144
1.0
144
0.0
144
0.0
144
0.0
144
0.0
144
1.0
147
0.0008202099737533
147
0.0
147
0.0
147
0.0
147
0.0
147
0.0008202099737533
147
0.0
147
0.0
147
0.0
147
0.0
147
1.0
147
0.0
147
0.0
147
0.0
147
0.0
147
1.0
  0
MATERIAL
  5
3EA
102
{ACAD_XDICTIONARY
360
3EB
102
}
102
{ACAD_REACTORS
330
3E9
102
}
330
3E9
100
AcDbMaterial
  1
ByLayer
 72
     0
 43
0.0008202099737533
 43
0.0
 43
0.0
 43
0.0
 43
0.0
 43
0.0008202099737533
 43
0.0
 43
0.0
 43
0.0
 43
0.0
 43
1.0
 43
0.0
 43
0.0
 43
0.0
 43
0.0
 43
1.0
 77
     0
 47
0.0008202099737533
 47
0.0
 47
0.0
 47
0.0
 47
0.0
 47
0.0008202099737533
 47
0.0
 47
0.0
 47
0.0
 47
0.0
 47
1.0
 47
0.0
 47
0.0
 47
0.0
 47
0.0
 47
1.0
171
     0
 49
0.0008202099737533
 49
0.0
 49
0.0
 49
0.0
 49
0.0
 49
0.0008202099737533
 49
0.0
 49
0.0
 49
0.0
 49
0.0
 49
1.0
 49
0.0
 49
0.0
 49
0.0
 49
0.0
 49
1.0
175
     0
142
0.0008202099737533
142
0.0
142
0.0
142
0.0
142
0.0
142
0.0008202099737533
142
0.0
142
0.0
142
0.0
142
0.0
142
1.0
142
0.0
142
0.0
142
0.0
142
0.0
142
1.0
179
     0
144
0.0008202099737533
144
0.0
144
0.0
144
0.0
144
0.0
144
0.0008202099737533
144
0.0
144
0.0
144
0.0
144
0.0
144
1.0
144
0.0
144
0.0
144
0.0
144
0.0
144
1.0
147
0.0008202099737533
147
0.0
147
0.0
147
0.0
147
0.0
147
0.0008202099737533
147
0.0
147
0.0
147
0.0
147
0.0
147
1.0
147
0.0
147
0.0
147
0.0
147
0.0
147
1.0
  0
MATERIAL
  5
3FA
102
{ACAD_XDICTIONARY
360
3FB
102
}
102
{ACAD_REACTORS
330
3E9
102
}
330
3E9
100
AcDbMaterial
  1
Global
 72
     0
 43
0.0008202099737533
 43
0.0
 43
0.0
 43
0.0
 43
0.0
 43
0.0008202099737533
 43
0.0
 43
0.0
 43
0.0
 43
0.0
 43
1.0
 43
0.0
 43
0.0
 43
0.0
 43
0.0
 43
1.0
 77
     0
 47
0.0008202099737533
 47
0.0
 47
0.0
 47
0.0
 47
0.0
 47
0.0008202099737533
 47
0.0
 47
0.0
 47
0.0
 47
0.0
 47
1.0
 47
0.0
 47
0.0
 47
0.0
 47
0.0
 47
1.0
171
     0
 49
0.0008202099737533
 49
0.0
 49
0.0
 49
0.0
 49
0.0
 49
0.0008202099737533
 49
0.0
 49
0.0
 49
0.0
 49
0.0
 49
1.0
 49
0.0
 49
0.0
 49
0.0
 49
0.0
 49
1.0
175
     0
142
0.0008202099737533
142
0.0
142
0.0
142
0.0
142
0.0
142
0.0008202099737533
142
0.0
142
0.0
142
0.0
142
0.0
142
1.0
142
0.0
142
0.0
142
0.0
142
0.0
142
1.0
179
     0
144
0.0008202099737533
144
0.0
144
0.0
144
0.0
144
0.0
144
0.0008202099737533
144
0.0
144
0.0
144
0.0
144
0.0
144
1.0
144
0.0
144
0.0
144
0.0
144
0.0
144
1.0
147
0.0008202099737533
147
0.0
147
0.0
147
0.0
147
0.0
147
0.0008202099737533
147
0.0
147
0.0
147
0.0
147
0.0
147
1.0
147
0.0
147
0.0
147
0.0
147
0.0
147
1.0
  0
MLEADERSTYLE
  5
42A
102
{ACAD_REACTORS
330
429
102
}
330
429
100
AcDbMLeaderStyle
170
     2
171
     1
172
     0
 90
        2
 40
0.0
 41
0.0
173
     1
 91
-1056964608
340
14
 92
       -2
290
     1
 42
2.0
291
     1
 43
0.36
  3
Standard
 44
4.0
300

342
11
174
     1
178
     6
175
     1
176
     0
 93
-1056964608
 45
4.0
292
     0
297
     0
 46
4.0
 94
-1056964608
 47
1.0
 49
1.0
140
1.0
293
     1
141
0.0
294
     1
177
     0
142
1.0
295
     0
296
     0
143
0.125
1001
ACAD_MLEADERVER
1070
     2
  0
MLINESTYLE
  5
18
102
{ACAD_REACTORS
330
17
102
}
330
17
100
AcDbMlineStyle
  2
STANDARD
 70
     0
  3

 62
   256
 51
90.0
 52
90.0
 71
     2
 49
0.5
 62
   256
  6
BYLAYER
 49
-0.5
 62
   256
  6
BYLAYER
  0
ACDBPLACEHOLDER
  5
F
102
{ACAD_REACTORS
330
E
102
}
330
E
  0
SCALE
  5
418
102
{ACAD_REACTORS
330
417
102
}
330
417
100
AcDbScale
 70
     0
300
1:1
140
1.0
141
1.0
290
     1
  0
SCALE
  5
419
102
{ACAD_REACTORS
330
417
102
}
330
417
100
AcDbScale
 70
     0
300
1:2
140
1.0
141
2.0
290
     0
  0
SCALE
  5
41A
102
{ACAD_REACTORS
330
417
102
}
330
417
100
AcDbScale
 70
     0
300
1:4
140
1.0
141
4.0
290
     0
  0
SCALE
  5
41B
102
{ACAD_REACTORS
330
417
102
}
330
417
100
AcDbScale
 70
     0
300
1:5
140
1.0
141
5.0
290
     0
  0
SCALE
  5
41C
102
{ACAD_REACTORS
330
417
102
}
330
417
100
AcDbScale
 70
     0
300
1:8
140
1.0
141
8.0
290
     0
  0
SCALE
  5
41D
102
{ACAD_REACTORS
330
417
102
}
330
417
100
AcDbScale
 70
     0
300
1:10
140
1.0
141
10.0
290
     0
  0
SCALE
  5
41E
102
{ACAD_REACTORS
330
417
102
}
330
417
100
AcDbScale
 70
     0
300
1:16
140
1.0
141
16.0
290
     0
  0
SCALE
  5
41F
102
{ACAD_REACTORS
330
417
102
}
330
417
100
AcDbScale
 70
     0
300
1:20
140
1.0
141
20.0
290
     0
  0
SCALE
  5
420
102
{ACAD_REACTORS
330
417
102
}
330
417
100
AcDbScale
 70
     0
300
1:30
140
1.0
141
30.0
290
     0
  0
SCALE
  5
421
102
{ACAD_REACTORS
330
417
102
}
330
417
100
AcDbScale
 70
     0
300
1:40
140
1.0
141
40.0
290
     0
  0
SCALE
  5
422
102
{ACAD_REACTORS
330
417
102
}
330
417
100
AcDbScale
 70
     0
300
1:50
140
1.0
141
50.0
290
     0
  0
SCALE
  5
423
102
{ACAD_REACTORS
330
417
102
}
330
417
100
AcDbScale
 70
     0
300
1:100
140
1.0
141
100.0
290
     0
  0
SCALE
  5
424
102
{ACAD_REACTORS
330
417
102
}
330
417
100
AcDbScale
 70
     0
300
2:1
140
2.0
141
1.0
290
     0
  0
SCALE
  5
425
102
{ACAD_REACTORS
330
417
102
}
330
417
100
AcDbScale
 70
     0
300
4:1
140
4.0
141
1.0
290
     0
  0
SCALE
  5
426
102
{ACAD_REACTORS
330
417
102
}
330
417
100
AcDbScale
 70
     0
300
8:1
140
8.0
141
1.0
290
     0
  0
SCALE
  5
427
102
{ACAD_REACTORS
330
417
102
}
330
417
100
AcDbScale
 70
     0
300
10:1
140
10.0
141
1.0
290
     0
  0
SCALE
  5
428
102
{ACAD_REACTORS
330
417
102
}
330
417
100
AcDbScale
 70
     0
300
100:1
140
100.0
141
1.0
290
     0
  0
TABLESTYLE
  5
3E5
102
{ACAD_XDICTIONARY
360
59C
102
}
102
{ACAD_REACTORS
330
3E1
102
}
330
3E1
100
AcDbTableStyle
  3
Standard
 70
     0
 71
     0
 40
0.06
 41
0.06
280
     1
281
     1
  7
STANDARD
140
0.18
170
     1
 62
     0
 63
     7
283
     0
274
    -2
284
     1
 64
     0
275
    -2
285
     1
 65
     0
276
    -2
286
     1
 66
     0
277
    -2
287
     1
 67
     0
278
    -2
288
     1
 68
     0
279
    -2
289
     1
 69
     0
  7
STANDARD
140
0.18
170
     1
 62
     0
 63
     7
283
     0
274
    -2
284
     1
 64
     0
275
    -2
285
     1
 65
     0
276
    -2
286
     1
 66
     0
277
    -2
287
     1
 67
     0
278
    -2
288
     1
 68
     0
279
    -2
289
     1
 69
     0
  7
STANDARD
140
0.18
170
     1
 62
     0
 63
     7
283
     0
274
    -2
284
     1
 64
     0
275
    -2
285
     1
 65
     0
276
    -2
286
     1
 66
     0
277
    -2
287
     1
 67
     0
278
    -2
288
     1
 68
     0
279
    -2
289
     1
 69
     0
  0
TABLESTYLE
  5
3E6
102
{ACAD_XDICTIONARY
360
59E
102
}
102
{ACAD_REACTORS
330
3E1
102
}
330
3E1
100
AcDbTableStyle
  3
Standard1
 70
     1
 71
     0
 40
0.06
 41
0.06
280
     1
281
     1
  7
STANDARD
140
0.18
170
     1
 62
     0
 63
     7
283
     0
274
    -2
284
     1
 64
     0
275
    -2
285
     1
 65
     0
276
    -2
286
     1
 66
     0
277
    -2
287
     1
 67
     0
278
    -2
288
     1
 68
     0
279
    -2
289
     1
 69
     0
  7
STANDARD
140
0.18
170
     1
 62
     0
 63
     7
283
     0
274
    -2
284
     1
 64
     0
275
    -2
285
     1
 65
     0
276
    -2
286
     1
 66
     0
277
    -2
287
     1
 67
     0
278
    -2
288
     1
 68
     0
279
    -2
289
     1
 69
     0
  7
STANDARD
140
0.18
170
     1
 62
     0
 63
     7
283
     0
274
    -2
284
     1
 64
     0
275
    -2
285
     1
 65
     0
276
    -2
286
     1
 66
     0
277
    -2
287
     1
 67
     0
278
    -2
288
     1
 68
     0
279
    -2
289
     1
 69
     0
  0
VISUALSTYLE
  5
408
102
{ACAD_XDICTIONARY
360
128A
102
}
102
{ACAD_REACTORS
330
402
102
}
330
402
100
AcDbVisualStyle
  2

 70
     4
 71
     0
 72
     2
 73
     0
 90
        0
 40
-0.6
 41
-30.0
 62
     5
 63
     7
 74
     1
 91
        4
 64
     7
 65
   257
 75
     1
175
     1
 42
1.0
 92
        0
 66
   257
 43
1.0
 76
     1
 77
     6
 78
     2
 67
     7
 79
     5
170
     0
171
     0
290
     0
174
     0
 93
        1
 44
0.0
173
     0
291
     0
 45
0.0
1001
ACAD
1000
AcDbSavedByObjectVersion
1070
     0
  0
VISUALSTYLE
  5
40A
102
{ACAD_XDICTIONARY
360
128E
102
}
102
{ACAD_REACTORS
330
402
102
}
330
402
100
AcDbVisualStyle
  2

 70
     6
 71
     1
 72
     2
 73
     2
 90
        0
 40
-0.6
 41
-30.0
 62
     5
 63
     7
 74
     2
 91
        2
 64
     7
 65
   257
 75
     2
175
     1
 42
179.0
 92
        0
 66
   257
 43
1.0
 76
     1
 77
     6
 78
     2
 67
     7
 79
     3
170
     0
171
     0
290
     0
174
     0
 93
        1
 44
0.0
173
     0
291
     0
 45
0.0
1001
ACAD
1000
AcDbSavedByObjectVersion
1070
     0
  0
VISUALSTYLE
  5
409
102
{ACAD_XDICTIONARY
360
128C
102
}
102
{ACAD_REACTORS
330
402
102
}
330
402
100
AcDbVisualStyle
  2

 70
     5
 71
     0
 72
     2
 73
     0
 90
        0
 40
-0.6
 41
-30.0
 62
     5
 63
     7
 74
     1
 91
        4
 64
     7
 65
   257
 75
     1
175
     1
 42
1.0
 92
        0
 66
   257
 43
1.0
 76
     1
 77
     6
 78
     2
 67
     7
 79
     5
170
     0
171
     0
290
     0
174
     0
 93
        1
 44
0.0
173
     0
291
     0
 45
0.0
1001
ACAD
1000
AcDbSavedByObjectVersion
1070
     0
  0
VISUALSTYLE
  5
407
102
{ACAD_XDICTIONARY
360
1288
102
}
102
{ACAD_REACTORS
330
402
102
}
330
402
100
AcDbVisualStyle
  2

 70
     7
 71
     1
 72
     0
 73
     1
 90
        0
 40
-0.6
 41
-30.0
 62
     5
 63
     7
 74
     0
 91
        4
 64
     7
 65
   257
 75
     1
175
     1
 42
1.0
 92
        8
 66
     7
 43
1.0
 76
     1
 77
     6
 78
     2
 67
     7
 79
     5
170
     0
171
     0
290
     0
174
     0
 93
        1
 44
0.0
173
     0
291
     1
 45
0.0
1001
ACAD
1000
AcDbSavedByObjectVersion
1070
     0
  0
VISUALSTYLE
  5
40E
102
{ACAD_XDICTIONARY
360
1296
102
}
102
{ACAD_REACTORS
330
402
102
}
330
402
100
AcDbVisualStyle
  2

 70
    12
 71
     2
 72
     2
 73
     0
 90
        0
 40
-0.6
 41
-30.0
 62
     5
 63
     7
 74
     1
 91
        4
 64
     7
 65
   257
 75
     1
175
     1
 42
1.0
 92
        8
 66
     7
 43
1.0
 76
     1
 77
     6
 78
     2
 67
     7
 79
     5
170
     0
171
     0
290
     0
174
     0
 93
        1
 44
50.0
173
     0
291
     1
 45
0.0
1001
ACAD
1000
AcDbSavedByObjectVersion
1070
     0
  0
VISUALSTYLE
  5
412
102
{ACAD_XDICTIONARY
360
129E
102
}
102
{ACAD_REACTORS
330
402
102
}
330
402
100
AcDbVisualStyle
  2

 70
    16
 71
     2
 72
     2
 73
     3
 90
        0
 40
-0.6
 41
-30.0
 62
     5
 63
     8
 74
     1
 91
        4
 64
     7
 65
   257
 75
     1
175
     1
 42
1.0
 92
        8
 66
     8
 43
1.0
 76
     1
 77
     6
 78
     2
 67
     7
 79
     5
170
     0
171
     0
290
     0
174
     0
 93
        1
 44
0.0
173
     0
291
     1
 45
0.0
1001
ACAD
1000
AcDbSavedByObjectVersion
1070
     0
  0
VISUALSTYLE
  5
40B
102
{ACAD_XDICTIONARY
360
1290
102
}
102
{ACAD_REACTORS
330
402
102
}
330
402
100
AcDbVisualStyle
  2

 70
     9
 71
     3
 72
     2
 73
     0
 90
        0
 40
-0.6
 41
-30.0
 62
     5
 63
     7
 74
     2
 91
        2
 64
     7
 65
   257
 75
     1
175
     1
 42
179.0
 92
        8
 66
     7
 43
1.0
 76
     1
 77
     6
 78
     2
 67
     7
 79
     3
170
     0
171
     0
290
     0
174
     0
 93
        1
 44
0.0
173
     0
291
     0
 45
0.0
1001
ACAD
1000
AcDbSavedByObjectVersion
1070
     0
  0
VISUALSTYLE
  5
40D
102
{ACAD_XDICTIONARY
360
1294
102
}
102
{ACAD_REACTORS
330
402
102
}
330
402
100
AcDbVisualStyle
  2

 70
    11
 71
     2
 72
     2
 73
     0
 90
        0
 40
-0.6
 41
-30.0
 62
     5
 63
     7
 74
     1
 91
        4
 64
     7
 65
   257
 75
     1
175
     1
 42
1.0
 92
        8
 66
     7
 43
1.0
 76
     1
 77
     6
 78
     2
 67
     7
 79
     5
170
     0
171
     0
290
     0
174
     0
 93
        1
 44
-50.0
173
     0
291
     1
 45
0.0
1001
ACAD
1000
AcDbSavedByObjectVersion
1070
     0
  0
VISUALSTYLE
  5
415
102
{ACAD_XDICTIONARY
360
12A4
102
}
102
{ACAD_REACTORS
330
402
102
}
330
402
100
AcDbVisualStyle
  2

 70
    22
 71
     2
 72
     2
 73
     0
 90
        0
 40
-0.6
 41
-30.0
 62
     5
 63
     7
 74
     1
 91
        4
 64
     7
 65
   257
 75
     1
175
     1
 42
1.0
 92
        8
 66
     7
 43
1.0
 76
     1
 77
     6
 78
     2
 67
     7
 79
     5
170
     0
171
     0
290
     0
174
     0
 93
        1
 44
0.0
173
     0
291
     1
 45
0.0
1001
ACAD
1000
AcDbSavedByObjectVersion
1070
     0
  0
VISUALSTYLE
  5
411
102
{ACAD_XDICTIONARY
360
129C
102
}
102
{ACAD_REACTORS
330
402
102
}
330
402
100
AcDbVisualStyle
  2

 70
    15
 71
     2
 72
     2
 73
     0
 90
        0
 40
-0.6
 41
-30.0
 62
     5
 63
     7
 74
     1
 91
        4
 64
     7
 65
   257
 75
     1
175
     1
 42
1.0
 92
        8
 66
     7
 43
1.0
 76
     1
 77
     6
 78
     2
 67
     7
 79
     5
170
     0
171
     0
290
     0
174
     0
 93
        1
 44
0.0
173
     0
291
     1
 45
0.0
1001
ACAD
1000
AcDbSavedByObjectVersion
1070
     0
  0
VISUALSTYLE
  5
403
102
{ACAD_XDICTIONARY
360
1280
102
}
102
{ACAD_REACTORS
330
402
102
}
330
402
100
AcDbVisualStyle
  2

 70
     0
 71
     2
 72
     1
 73
     1
 90
        2
 40
-0.6
 41
30.0
 62
     5
 63
     7
 74
     0
 91
        4
 64
     7
 65
   257
 75
     1
175
     1
 42
1.0
 92
        8
 66
     7
 43
1.0
 76
     1
 77
     6
 78
     2
 67
     7
 79
     5
170
     0
171
     0
290
     0
174
     0
 93
       13
 44
0.0
173
     0
291
     1
 45
0.0
1001
ACAD
1000
AcDbSavedByObjectVersion
1070
     0
  0
VISUALSTYLE
  5
404
102
{ACAD_XDICTIONARY
360
1282
102
}
102
{ACAD_REACTORS
330
402
102
}
330
402
100
AcDbVisualStyle
  2

 70
     1
 71
     2
 72
     1
 73
     1
 90
        2
 40
-0.6
 41
30.0
 62
     5
 63
     7
 74
     1
 91
        4
 64
     7
 65
   257
 75
     1
175
     1
 42
1.0
 92
        0
 66
   257
 43
1.0
 76
     1
 77
     6
 78
     2
 67
     7
 79
     5
170
     0
171
     0
290
     0
174
     0
 93
       13
 44
0.0
173
     0
291
     1
 45
0.0
1001
ACAD
1000
AcDbSavedByObjectVersion
1070
     0
  0
VISUALSTYLE
  5
405
102
{ACAD_XDICTIONARY
360
1284
102
}
102
{ACAD_REACTORS
330
402
102
}
330
402
100
AcDbVisualStyle
  2

 70
     2
 71
     2
 72
     2
 73
     1
 90
        2
 40
-0.6
 41
30.0
 62
     5
 63
     7
 74
     0
 91
        4
 64
     7
 65
   257
 75
     1
175
     1
 42
1.0
 92
        0
 66
     7
 43
1.0
 76
     1
 77
     6
 78
     2
 67
     7
 79
     5
170
     0
171
     0
290
     0
174
     0
 93
       13
 44
0.0
173
     0
291
     1
 45
0.0
1001
ACAD
1000
AcDbSavedByObjectVersion
1070
     0
  0
VISUALSTYLE
  5
406
102
{ACAD_XDICTIONARY
360
1286
102
}
102
{ACAD_REACTORS
330
402
102
}
330
402
100
AcDbVisualStyle
  2

 70
     3
 71
     2
 72
     2
 73
     1
 90
        2
 40
-0.6
 41
30.0
 62
     5
 63
     7
 74
     1
 91
        4
 64
     7
 65
   257
 75
     1
175
     1
 42
1.0
 92
        0
 66
   257
 43
1.0
 76
     1
 77
     6
 78
     2
 67
     7
 79
     5
170
     0
171
     0
290
     0
174
     0
 93
       13
 44
0.0
173
     0
291
     1
 45
0.0
1001
ACAD
1000
AcDbSavedByObjectVersion
1070
     0
  0
VISUALSTYLE
  5
413
102
{ACAD_XDICTIONARY
360
12A0
102
}
102
{ACAD_REACTORS
330
402
102
}
330
402
100
AcDbVisualStyle
  2

 70
    20
 71
     2
 72
     2
 73
     0
 90
        0
 40
-0.6
 41
-30.0
 62
     5
 63
     7
 74
     1
 91
        4
 64
     7
 65
   257
 75
     1
175
     1
 42
1.0
 92
       10
 66
     7
 43
1.0
 76
     1
 77
     6
 78
     2
 67
     7
 79
     5
170
     0
171
     0
290
     0
174
     0
 93
        1
 44
0.0
173
     0
291
     1
 45
0.0
1001
ACAD
1000
AcDbSavedByObjectVersion
1070
     0
  0
VISUALSTYLE
  5
410
102
{ACAD_XDICTIONARY
360
129A
102
}
102
{ACAD_REACTORS
330
402
102
}
330
402
100
AcDbVisualStyle
  2

 70
    14
 71
     2
 72
     2
 73
     0
 90
        0
 40
-0.6
 41
-30.0
 62
     5
 63
     7
 74
     1
 91
        4
 64
     7
 65
   257
 75
     7
175
     7
 42
1.0
 92
        8
 66
     7
 43
1.0
 76
     1
 77
     6
 78
     2
 67
     7
 79
     5
170
     0
171
     0
290
     0
174
     0
 93
        1
 44
0.0
173
     0
291
     1
 45
0.0
1001
ACAD
1000
AcDbSavedByObjectVersion
1070
     0
  0
VISUALSTYLE
  5
414
102
{ACAD_XDICTIONARY
360
12A2
102
}
102
{ACAD_REACTORS
330
402
102
}
330
402
100
AcDbVisualStyle
  2

 70
    21
 71
     2
 72
     2
 73
     0
 90
        0
 40
-0.6
 41
-30.0
 62
     5
 63
     7
 74
     1
 91
        4
 64
     7
 65
   257
 75
     1
175
     1
 42
1.0
 92
        9
 66
     7
 43
1.0
 76
     1
 77
     6
 78
     2
 67
     7
 79
     5
170
     0
171
     0
290
     0
174
     0
 93
        1
 44
0.0
173
     0
291
     1
 45
0.0
1001
ACAD
1000
AcDbSavedByObjectVersion
1070
     0
  0
VISUALSTYLE
  5
40C
102
{ACAD_XDICTIONARY
360
1292
102
}
102
{ACAD_REACTORS
330
402
102
}
330
402
100
AcDbVisualStyle
  2

 70
     8
 71
     2
 72
     2
 73
     0
 90
        0
 40
-0.6
 41
-30.0
 62
     5
 63
     7
 74
     1
 91
        0
 64
     7
 65
   257
 75
     1
175
     1
 42
1.0
 92
        8
 66
     8
 43
1.0
 76
     1
 77
     6
 78
     2
 67
     7
 79
     5
170
     0
171
     0
290
     0
174
     0
 93
       13
 44
0.0
173
     0
291
     0
 45
0.0
1001
ACAD
1000
AcDbSavedByObjectVersion
1070
     0
  0
VISUALSTYLE
  5
40F
102
{ACAD_XDICTIONARY
360
1298
102
}
102
{ACAD_REACTORS
330
402
102
}
330
402
100
AcDbVisualStyle
  2

 70
    13
 71
     2
 72
     2
 73
     0
 90
        0
 40
-0.6
 41
-30.0
 62
     5
 63
     7
 74
     1
 91
        4
 64
     7
 65
   257
 75
     1
175
     1
 42
1.0
 92
       12
 66
     7
 43
1.0
 76
     1
 77
     6
 78
     2
 67
     7
 79
     5
170
     0
171
     0
290
     0
174
     0
 93
        1
 44
0.0
173
     0
291
     1
 45
0.0
1001
ACAD
1000
AcDbSavedByObjectVersion
1070
     0
  0
DICTIONARYVAR
  5
593
102
{ACAD_REACTORS
330
58F
102
}
330
58F
100
DictionaryVariables
280
     0
  1
1:1
  0
DICTIONARYVAR
  5
591
102
{ACAD_REACTORS
330
58F
102
}
330
58F
100
DictionaryVariables
280
     0
  1
STANDARD
  0
DICTIONARYVAR
  5
590
102
{ACAD_REACTORS
330
58F
102
}
330
58F
100
DictionaryVariables
280
     0
  1
STANDARD
  0
DICTIONARYVAR
  5
59A
102
{ACAD_REACTORS
330
58F
102
}
330
58F
100
DictionaryVariables
280
     0
  1
2
  0
DICTIONARYVAR
  5
599
102
{ACAD_REACTORS
330
58F
102
}
330
58F
100
DictionaryVariables
280
     0
  1
1
  0
DICTIONARYVAR
  5
598
102
{ACAD_REACTORS
330
58F
102
}
330
58F
100
DictionaryVariables
280
     0
  1
0
  0
DICTIONARYVAR
  5
595
102
{ACAD_REACTORS
330
58F
102
}
330
58F
100
DictionaryVariables
280
     0
  1
0
  0
DICTIONARYVAR
  5
596
102
{ACAD_REACTORS
330
58F
102
}
330
58F
100
DictionaryVariables
280
     0
  1
0
  0
DICTIONARYVAR
  5
594
102
{ACAD_REACTORS
330
58F
102
}
330
58F
100
DictionaryVariables
280
     0
  1
2
  0
DICTIONARYVAR
  5
592
102
{ACAD_REACTORS
330
58F
102
}
330
58F
100
DictionaryVariables
280
     0
  1
1
  0
DICTIONARYVAR
  5
597
102
{ACAD_REACTORS
330
58F
102
}
330
58F
100
DictionaryVariables
280
     0
  1
127
  0
DICTIONARYVAR
  5
1270
102
{ACAD_REACTORS
330
58F
102
}
330
58F
100
DictionaryVariables
280
     0
  1
2
  0
DICTIONARY
  5
491
102
{ACAD_REACTORS
330
485
102
}
330
485
100
AcDbDictionary
281
     1
  0
DICTIONARY
  5
127C
330
3E3
100
AcDbDictionary
280
     1
281
     1
  3
ACAD_XREC_ROUNDTRIP
360
127D
  0
DICTIONARY
  5
127A
330
3E2
100
AcDbDictionary
280
     1
281
     1
  3
ACAD_XREC_ROUNDTRIP
360
127B
  0
DICTIONARY
  5
3F3
330
3F2
100
AcDbDictionary
280
     1
281
     1
  3
ACAD_XREC_ROUNDTRIP
360
5A9
  3
BUMPTILE
360
3F5
  3
DIFFUSETILE
360
3F4
  3
OPACITYTILE
360
3F8
  3
REFLECTIONTILE
360
3F7
  3
REFRACTIONTILE
360
3F9
  3
SPECULARTILE
360
3F6
  0
DICTIONARY
  5
3EB
330
3EA
100
AcDbDictionary
280
     1
281
     1
  3
ACAD_XREC_ROUNDTRIP
360
5A8
  3
BUMPTILE
360
3ED
  3
DIFFUSETILE
360
3EC
  3
OPACITYTILE
360
3F0
  3
REFLECTIONTILE
360
3EF
  3
REFRACTIONTILE
360
3F1
  3
SPECULARTILE
360
3EE
  0
DICTIONARY
  5
3FB
330
3FA
100
AcDbDictionary
280
     1
281
     1
  3
ACAD_XREC_ROUNDTRIP
360
5AA
  3
BUMPTILE
360
3FD
  3
DIFFUSETILE
360
3FC
  3
OPACITYTILE
360
400
  3
REFLECTIONTILE
360
3FF
  3
REFRACTIONTILE
360
401
  3
SPECULARTILE
360
3FE
  0
DICTIONARY
  5
59C
330
3E5
100
AcDbDictionary
280
     1
281
     1
  3
ACAD_ROUNDTRIP_2008_TABLESTYLE_CELLSTYLEMAP
360
1271
  3
ACAD_XREC_ROUNDTRIP
360
127E
  0
DICTIONARY
  5
59E
330
3E6
100
AcDbDictionary
280
     1
281
     1
  3
ACAD_ROUNDTRIP_2008_TABLESTYLE_CELLSTYLEMAP
360
1272
  3
ACAD_XREC_ROUNDTRIP
360
127F
  0
DICTIONARY
  5
128A
330
408
100
AcDbDictionary
280
     1
281
     1
  3
ACAD_XREC_ROUNDTRIP
360
128B
  0
DICTIONARY
  5
128E
330
40A
100
AcDbDictionary
280
     1
281
     1
  3
ACAD_XREC_ROUNDTRIP
360
128F
  0
DICTIONARY
  5
128C
330
409
100
AcDbDictionary
280
     1
281
     1
  3
ACAD_XREC_ROUNDTRIP
360
128D
  0
DICTIONARY
  5
1288
330
407
100
AcDbDictionary
280
     1
281
     1
  3
ACAD_XREC_ROUNDTRIP
360
1289
  0
DICTIONARY
  5
1296
330
40E
100
AcDbDictionary
280
     1
281
     1
  3
ACAD_XREC_ROUNDTRIP
360
1297
  0
DICTIONARY
  5
129E
330
412
100
AcDbDictionary
280
     1
281
     1
  3
ACAD_XREC_ROUNDTRIP
360
129F
  0
DICTIONARY
  5
1290
330
40B
100
AcDbDictionary
280
     1
281
     1
  3
ACAD_XREC_ROUNDTRIP
360
1291
  0
DICTIONARY
  5
1294
330
40D
100
AcDbDictionary
280
     1
281
     1
  3
ACAD_XREC_ROUNDTRIP
360
1295
  0
DICTIONARY
  5
12A4
330
415
100
AcDbDictionary
280
     1
281
     1
  3
ACAD_XREC_ROUNDTRIP
360
12A5
  0
DICTIONARY
  5
129C
330
411
100
AcDbDictionary
280
     1
281
     1
  3
ACAD_XREC_ROUNDTRIP
360
129D
  0
DICTIONARY
  5
1280
330
403
100
AcDbDictionary
280
     1
281
     1
  3
ACAD_XREC_ROUNDTRIP
360
1281
  0
DICTIONARY
  5
1282
330
404
100
AcDbDictionary
280
     1
281
     1
  3
ACAD_XREC_ROUNDTRIP
360
1283
  0
DICTIONARY
  5
1284
330
405
100
AcDbDictionary
280
     1
281
     1
  3
ACAD_XREC_ROUNDTRIP
360
1285
  0
DICTIONARY
  5
1286
330
406
100
AcDbDictionary
280
     1
281
     1
  3
ACAD_XREC_ROUNDTRIP
360
1287
  0
DICTIONARY
  5
12A0
330
413
100
AcDbDictionary
280
     1
281
     1
  3
ACAD_XREC_ROUNDTRIP
360
12A1
  0
DICTIONARY
  5
129A
330
410
100
AcDbDictionary
280
     1
281
     1
  3
ACAD_XREC_ROUNDTRIP
360
129B
  0
DICTIONARY
  5
12A2
330
414
100
AcDbDictionary
280
     1
281
     1
  3
ACAD_XREC_ROUNDTRIP
360
12A3
  0
DICTIONARY
  5
1292
330
40C
100
AcDbDictionary
280
     1
281
     1
  3
ACAD_XREC_ROUNDTRIP
360
1293
  0
DICTIONARY
  5
1298
330
40F
100
AcDbDictionary
280
     1
281
     1
  3
ACAD_XREC_ROUNDTRIP
360
1299
  0
XRECORD
  5
127D
102
{ACAD_REACTORS
330
127C
102
}
330
127C
100
AcDbXrecord
280
     1
102
SHADEPLOT
 70
     0
102
SHADEPLOTRESLEVEL
 70
     2
102
SHADEPLOTCUSTOMDPI
 70
   300
  0
XRECORD
  5
127B
102
{ACAD_REACTORS
330
127A
102
}
330
127A
100
AcDbXrecord
280
     1
102
SHADEPLOT
 70
     0
102
SHADEPLOTRESLEVEL
 70
     2
102
SHADEPLOTCUSTOMDPI
 70
   300
  0
XRECORD
  5
5A9
102
{ACAD_REACTORS
330
3F3
102
}
330
3F3
100
AcDbXrecord
280
     1
102
MATERIAL
148
0.0
149
0.0
149
0.0
 93
        0
 94
      127
282
     0
 72
     0
 77
     0
171
     0
175
     0
179
     0
273
     0
  0
XRECORD
  5
3F5
102
{ACAD_REACTORS
330
3F3
102
}
330
3F3
100
AcDbXrecord
280
     1
270
     1
271
     1
  0
XRECORD
  5
3F4
102
{ACAD_REACTORS
330
3F3
102
}
330
3F3
100
AcDbXrecord
280
     1
270
     1
271
     1
  0
XRECORD
  5
3F8
102
{ACAD_REACTORS
330
3F3
102
}
330
3F3
100
AcDbXrecord
280
     1
270
     1
271
     1
  0
XRECORD
  5
3F7
102
{ACAD_REACTORS
330
3F3
102
}
330
3F3
100
AcDbXrecord
280
     1
270
     1
271
     1
  0
XRECORD
  5
3F9
102
{ACAD_REACTORS
330
3F3
102
}
330
3F3
100
AcDbXrecord
280
     1
270
     1
271
     1
  0
XRECORD
  5
3F6
102
{ACAD_REACTORS
330
3F3
102
}
330
3F3
100
AcDbXrecord
280
     1
270
     1
271
     1
  0
XRECORD
  5
5A8
102
{ACAD_REACTORS
330
3EB
102
}
330
3EB
100
AcDbXrecord
280
     1
102
MATERIAL
148
0.0
149
0.0
149
0.0
 93
        0
 94
      127
282
     0
 72
     0
 77
     0
171
     0
175
     0
179
     0
273
     0
  0
XRECORD
  5
3ED
102
{ACAD_REACTORS
330
3EB
102
}
330
3EB
100
AcDbXrecord
280
     1
270
     1
271
     1
  0
XRECORD
  5
3EC
102
{ACAD_REACTORS
330
3EB
102
}
330
3EB
100
AcDbXrecord
280
     1
270
     1
271
     1
  0
XRECORD
  5
3F0
102
{ACAD_REACTORS
330
3EB
102
}
330
3EB
100
AcDbXrecord
280
     1
270
     1
271
     1
  0
XRECORD
  5
3EF
102
{ACAD_REACTORS
330
3EB
102
}
330
3EB
100
AcDbXrecord
280
     1
270
     1
271
     1
  0
XRECORD
  5
3F1
102
{ACAD_REACTORS
330
3EB
102
}
330
3EB
100
AcDbXrecord
280
     1
270
     1
271
     1
  0
XRECORD
  5
3EE
102
{ACAD_REACTORS
330
3EB
102
}
330
3EB
100
AcDbXrecord
280
     1
270
     1
271
     1
  0
XRECORD
  5
5AA
102
{ACAD_REACTORS
330
3FB
102
}
330
3FB
100
AcDbXrecord
280
     1
102
MATERIAL
148
0.0
149
0.0
149
0.0
 93
        0
 94
      127
282
     0
 72
     0
 77
     0
171
     0
175
     0
179
     0
273
     0
  0
XRECORD
  5
3FD
102
{ACAD_REACTORS
330
3FB
102
}
330
3FB
100
AcDbXrecord
280
     1
270
     1
271
     1
  0
XRECORD
  5
3FC
102
{ACAD_REACTORS
330
3FB
102
}
330
3FB
100
AcDbXrecord
280
     1
270
     1
271
     1
  0
XRECORD
  5
400
102
{ACAD_REACTORS
330
3FB
102
}
330
3FB
100
AcDbXrecord
280
     1
270
     1
271
     1
  0
XRECORD
  5
3FF
102
{ACAD_REACTORS
330
3FB
102
}
330
3FB
100
AcDbXrecord
280
     1
270
     1
271
     1
  0
XRECORD
  5
401
102
{ACAD_REACTORS
330
3FB
102
}
330
3FB
100
AcDbXrecord
280
     1
270
     1
271
     1
  0
XRECORD
  5
3FE
102
{ACAD_REACTORS
330
3FB
102
}
330
3FB
100
AcDbXrecord
280
     1
270
     1
271
     1
  0
CELLSTYLEMAP
  5
1271
102
{ACAD_REACTORS
330
59C
102
}
330
59C
100
AcDbCellStyleMap
 90
        3
300
CELLSTYLE
  1
TABLEFORMAT_BEGIN
 90
        5
170
     1
 91
        0
 92
    32768
 62
   257
 93
        1
300
CONTENTFORMAT
  1
CONTENTFORMAT_BEGIN
 90
        0
 91
        0
 92
      512
 93
        0
300

 40
0.0
140
1.0
 94
        1
 62
     0
340
11
144
0.18
309
CONTENTFORMAT_END
171
     1
301
MARGIN
  1
CELLMARGIN_BEGIN
 40
0.06
 40
0.06
 40
0.06
 40
0.06
 40
0.18
 40
0.18
309
CELLMARGIN_END
 94
        6
 95
        1
302
GRIDFORMAT
  1
GRIDFORMAT_BEGIN
 90
        0
 91
        1
 62
     0
 92
       -2
340
0
 93
        0
 40
0.045
309
GRIDFORMAT_END
 95
        2
302
GRIDFORMAT
  1
GRIDFORMAT_BEGIN
 90
        0
 91
        1
 62
     0
 92
       -2
340
0
 93
        0
 40
0.045
309
GRIDFORMAT_END
 95
        4
302
GRIDFORMAT
  1
GRIDFORMAT_BEGIN
 90
        0
 91
        1
 62
     0
 92
       -2
340
0
 93
        0
 40
0.045
309
GRIDFORMAT_END
 95
        8
302
GRIDFORMAT
  1
GRIDFORMAT_BEGIN
 90
        0
 91
        1
 62
     0
 92
       -2
340
0
 93
        0
 40
0.045
309
GRIDFORMAT_END
 95
       16
302
GRIDFORMAT
  1
GRIDFORMAT_BEGIN
 90
        0
 91
        1
 62
     0
 92
       -2
340
0
 93
        0
 40
0.045
309
GRIDFORMAT_END
 95
       32
302
GRIDFORMAT
  1
GRIDFORMAT_BEGIN
 90
        0
 91
        1
 62
     0
 92
       -2
340
0
 93
        0
 40
0.045
309
GRIDFORMAT_END
309
TABLEFORMAT_END
  1
CELLSTYLE_BEGIN
 90
        1
 91
        1
300
_TITLE
309
CELLSTYLE_END
300
CELLSTYLE
  1
TABLEFORMAT_BEGIN
 90
        5
170
     1
 91
        0
 92
        0
 62
   257
 93
        1
300
CONTENTFORMAT
  1
CONTENTFORMAT_BEGIN
 90
        0
 91
        0
 92
      512
 93
        0
300

 40
0.0
140
1.0
 94
        1
 62
     0
340
11
144
0.18
309
CONTENTFORMAT_END
171
     1
301
MARGIN
  1
CELLMARGIN_BEGIN
 40
0.06
 40
0.06
 40
0.06
 40
0.06
 40
0.18
 40
0.18
309
CELLMARGIN_END
 94
        6
 95
        1
302
GRIDFORMAT
  1
GRIDFORMAT_BEGIN
 90
        0
 91
        1
 62
     0
 92
       -2
340
0
 93
        0
 40
0.045
309
GRIDFORMAT_END
 95
        2
302
GRIDFORMAT
  1
GRIDFORMAT_BEGIN
 90
        0
 91
        1
 62
     0
 92
       -2
340
0
 93
        0
 40
0.045
309
GRIDFORMAT_END
 95
        4
302
GRIDFORMAT
  1
GRIDFORMAT_BEGIN
 90
        0
 91
        1
 62
     0
 92
       -2
340
0
 93
        0
 40
0.045
309
GRIDFORMAT_END
 95
        8
302
GRIDFORMAT
  1
GRIDFORMAT_BEGIN
 90
        0
 91
        1
 62
     0
 92
       -2
340
0
 93
        0
 40
0.045
309
GRIDFORMAT_END
 95
       16
302
GRIDFORMAT
  1
GRIDFORMAT_BEGIN
 90
        0
 91
        1
 62
     0
 92
       -2
340
0
 93
        0
 40
0.045
309
GRIDFORMAT_END
 95
       32
302
GRIDFORMAT
  1
GRIDFORMAT_BEGIN
 90
        0
 91
        1
 62
     0
 92
       -2
340
0
 93
        0
 40
0.045
309
GRIDFORMAT_END
309
TABLEFORMAT_END
  1
CELLSTYLE_BEGIN
 90
        2
 91
        1
300
_HEADER
309
CELLSTYLE_END
300
CELLSTYLE
  1
TABLEFORMAT_BEGIN
 90
        5
170
     1
 91
        0
 92
        0
 62
   257
 93
        1
300
CONTENTFORMAT
  1
CONTENTFORMAT_BEGIN
 90
        0
 91
        0
 92
      512
 93
        0
300

 40
0.0
140
1.0
 94
        1
 62
     0
340
11
144
0.18
309
CONTENTFORMAT_END
171
     1
301
MARGIN
  1
CELLMARGIN_BEGIN
 40
0.06
 40
0.06
 40
0.06
 40
0.06
 40
0.18
 40
0.18
309
CELLMARGIN_END
 94
        6
 95
        1
302
GRIDFORMAT
  1
GRIDFORMAT_BEGIN
 90
        0
 91
        1
 62
     0
 92
       -2
340
0
 93
        0
 40
0.045
309
GRIDFORMAT_END
 95
        2
302
GRIDFORMAT
  1
GRIDFORMAT_BEGIN
 90
        0
 91
        1
 62
     0
 92
       -2
340
0
 93
        0
 40
0.045
309
GRIDFORMAT_END
 95
        4
302
GRIDFORMAT
  1
GRIDFORMAT_BEGIN
 90
        0
 91
        1
 62
     0
 92
       -2
340
0
 93
        0
 40
0.045
309
GRIDFORMAT_END
 95
        8
302
GRIDFORMAT
  1
GRIDFORMAT_BEGIN
 90
        0
 91
        1
 62
     0
 92
       -2
340
0
 93
        0
 40
0.045
309
GRIDFORMAT_END
 95
       16
302
GRIDFORMAT
  1
GRIDFORMAT_BEGIN
 90
        0
 91
        1
 62
     0
 92
       -2
340
0
 93
        0
 40
0.045
309
GRIDFORMAT_END
 95
       32
302
GRIDFORMAT
  1
GRIDFORMAT_BEGIN
 90
        0
 91
        1
 62
     0
 92
       -2
340
0
 93
        0
 40
0.045
309
GRIDFORMAT_END
309
TABLEFORMAT_END
  1
CELLSTYLE_BEGIN
 90
        3
 91
        2
300
_DATA
309
CELLSTYLE_END
  0
XRECORD
  5
127E
102
{ACAD_REACTORS
330
59C
102
}
330
59C
100
AcDbXrecord
280
     1
102
ACAD_ROUNDTRIP_PRE2007_TABLESTYLE
 90
      512
 91
        0
  1

 92
      512
 93
        0
  2

 94
      512
 95
        0
  3

  0
CELLSTYLEMAP
  5
1272
102
{ACAD_REACTORS
330
59E
102
}
330
59E
100
AcDbCellStyleMap
 90
        3
300
CELLSTYLE
  1
TABLEFORMAT_BEGIN
 90
        5
170
     1
 91
        0
 92
    32768
 62
   257
 93
        1
300
CONTENTFORMAT
  1
CONTENTFORMAT_BEGIN
 90
        0
 91
        0
 92
      512
 93
        0
300

 40
0.0
140
1.0
 94
        1
 62
     0
340
11
144
0.18
309
CONTENTFORMAT_END
171
     1
301
MARGIN
  1
CELLMARGIN_BEGIN
 40
0.06
 40
0.06
 40
0.06
 40
0.06
 40
0.18
 40
0.18
309
CELLMARGIN_END
 94
        6
 95
        1
302
GRIDFORMAT
  1
GRIDFORMAT_BEGIN
 90
        0
 91
        1
 62
     0
 92
       -2
340
0
 93
        0
 40
0.045
309
GRIDFORMAT_END
 95
        2
302
GRIDFORMAT
  1
GRIDFORMAT_BEGIN
 90
        0
 91
        1
 62
     0
 92
       -2
340
0
 93
        0
 40
0.045
309
GRIDFORMAT_END
 95
        4
302
GRIDFORMAT
  1
GRIDFORMAT_BEGIN
 90
        0
 91
        1
 62
     0
 92
       -2
340
0
 93
        0
 40
0.045
309
GRIDFORMAT_END
 95
        8
302
GRIDFORMAT
  1
GRIDFORMAT_BEGIN
 90
        0
 91
        1
 62
     0
 92
       -2
340
0
 93
        0
 40
0.045
309
GRIDFORMAT_END
 95
       16
302
GRIDFORMAT
  1
GRIDFORMAT_BEGIN
 90
        0
 91
        1
 62
     0
 92
       -2
340
0
 93
        0
 40
0.045
309
GRIDFORMAT_END
 95
       32
302
GRIDFORMAT
  1
GRIDFORMAT_BEGIN
 90
        0
 91
        1
 62
     0
 92
       -2
340
0
 93
        0
 40
0.045
309
GRIDFORMAT_END
309
TABLEFORMAT_END
  1
CELLSTYLE_BEGIN
 90
        1
 91
        1
300
_TITLE
309
CELLSTYLE_END
300
CELLSTYLE
  1
TABLEFORMAT_BEGIN
 90
        5
170
     1
 91
        0
 92
        0
 62
   257
 93
        1
300
CONTENTFORMAT
  1
CONTENTFORMAT_BEGIN
 90
        0
 91
        0
 92
      512
 93
        0
300

 40
0.0
140
1.0
 94
        1
 62
     0
340
11
144
0.18
309
CONTENTFORMAT_END
171
     1
301
MARGIN
  1
CELLMARGIN_BEGIN
 40
0.06
 40
0.06
 40
0.06
 40
0.06
 40
0.18
 40
0.18
309
CELLMARGIN_END
 94
        6
 95
        1
302
GRIDFORMAT
  1
GRIDFORMAT_BEGIN
 90
        0
 91
        1
 62
     0
 92
       -2
340
0
 93
        0
 40
0.045
309
GRIDFORMAT_END
 95
        2
302
GRIDFORMAT
  1
GRIDFORMAT_BEGIN
 90
        0
 91
        1
 62
     0
 92
       -2
340
0
 93
        0
 40
0.045
309
GRIDFORMAT_END
 95
        4
302
GRIDFORMAT
  1
GRIDFORMAT_BEGIN
 90
        0
 91
        1
 62
     0
 92
       -2
340
0
 93
        0
 40
0.045
309
GRIDFORMAT_END
 95
        8
302
GRIDFORMAT
  1
GRIDFORMAT_BEGIN
 90
        0
 91
        1
 62
     0
 92
       -2
340
0
 93
        0
 40
0.045
309
GRIDFORMAT_END
 95
       16
302
GRIDFORMAT
  1
GRIDFORMAT_BEGIN
 90
        0
 91
        1
 62
     0
 92
       -2
340
0
 93
        0
 40
0.045
309
GRIDFORMAT_END
 95
       32
302
GRIDFORMAT
  1
GRIDFORMAT_BEGIN
 90
        0
 91
        1
 62
     0
 92
       -2
340
0
 93
        0
 40
0.045
309
GRIDFORMAT_END
309
TABLEFORMAT_END
  1
CELLSTYLE_BEGIN
 90
        2
 91
        1
300
_HEADER
309
CELLSTYLE_END
300
CELLSTYLE
  1
TABLEFORMAT_BEGIN
 90
        5
170
     1
 91
        0
 92
        0
 62
   257
 93
        1
300
CONTENTFORMAT
  1
CONTENTFORMAT_BEGIN
 90
        0
 91
        0
 92
      512
 93
        0
300

 40
0.0
140
1.0
 94
        1
 62
     0
340
11
144
0.18
309
CONTENTFORMAT_END
171
     1
301
MARGIN
  1
CELLMARGIN_BEGIN
 40
0.06
 40
0.06
 40
0.06
 40
0.06
 40
0.18
 40
0.18
309
CELLMARGIN_END
 94
        6
 95
        1
302
GRIDFORMAT
  1
GRIDFORMAT_BEGIN
 90
        0
 91
        1
 62
     0
 92
       -2
340
0
 93
        0
 40
0.045
309
GRIDFORMAT_END
 95
        2
302
GRIDFORMAT
  1
GRIDFORMAT_BEGIN
 90
        0
 91
        1
 62
     0
 92
       -2
340
0
 93
        0
 40
0.045
309
GRIDFORMAT_END
 95
        4
302
GRIDFORMAT
  1
GRIDFORMAT_BEGIN
 90
        0
 91
        1
 62
     0
 92
       -2
340
0
 93
        0
 40
0.045
309
GRIDFORMAT_END
 95
        8
302
GRIDFORMAT
  1
GRIDFORMAT_BEGIN
 90
        0
 91
        1
 62
     0
 92
       -2
340
0
 93
        0
 40
0.045
309
GRIDFORMAT_END
 95
       16
302
GRIDFORMAT
  1
GRIDFORMAT_BEGIN
 90
        0
 91
        1
 62
     0
 92
       -2
340
0
 93
        0
 40
0.045
309
GRIDFORMAT_END
 95
       32
302
GRIDFORMAT
  1
GRIDFORMAT_BEGIN
 90
        0
 91
        1
 62
     0
 92
       -2
340
0
 93
        0
 40
0.045
309
GRIDFORMAT_END
309
TABLEFORMAT_END
  1
CELLSTYLE_BEGIN
 90
        3
 91
        2
300
_DATA
309
CELLSTYLE_END
  0
XRECORD
  5
127F
102
{ACAD_REACTORS
330
59E
102
}
330
59E
100
AcDbXrecord
280
     1
102
ACAD_ROUNDTRIP_PRE2007_TABLESTYLE
 90
      512
 91
        0
  1

 92
      512
 93
        0
  2

 94
      512
 95
        0
  3

  0
XRECORD
  5
128B
102
{ACAD_REACTORS
330
128A
102
}
330
128A
100
AcDbXrecord
280
     1
102
RTVSPropertyOp0
 70
     1
102
RTVSPropertyOp1
 70
     1
102
RTVSPropertyOp2
 70
     1
102
RTVSPropertyOp3
 70
     1
102
RTVSPropertyOp4
 70
     1
102
RTVSPropertyOp5
 70
     1
102
RTVSPropertyOp6
 70
     1
102
RTVSPropertyOp7
 70
     1
102
RTVSPropertyOp8
 70
     1
102
RTVSPropertyOp9
 70
     1
102
RTVSPropertyOp10
 70
     1
102
RTVSPropertyOp11
 70
     1
102
RTVSPropertyOp12
 70
     1
102
RTVSPropertyOp13
 70
     1
102
RTVSPropertyOp14
 70
     1
102
RTVSPropertyOp15
 70
     1
102
RTVSPropertyOp16
 70
     1
102
RTVSPropertyOp17
 70
     1
102
RTVSPropertyOp18
 70
     1
102
RTVSPropertyOp19
 70
     1
102
RTVSPropertyOp20
 70
     1
102
RTVSPropertyOp21
 70
     1
102
RTVSPropertyOp22
 70
     1
102
RTVSPropertyOp23
 70
     1
102
RTVSPropertyOp24
 70
     1
102
RTVSPropertyOp25
 70
     1
102
RTVSPropertyOp26
 70
     1
102
RTVSPropertyOp27
 70
     1
  0
XRECORD
  5
128F
102
{ACAD_REACTORS
330
128E
102
}
330
128E
100
AcDbXrecord
280
     1
102
RTVSPropertyOp0
 70
     1
102
RTVSPropertyOp1
 70
     1
102
RTVSPropertyOp2
 70
     1
102
RTVSPropertyOp3
 70
     1
102
RTVSPropertyOp4
 70
     1
102
RTVSPropertyOp5
 70
     1
102
RTVSPropertyOp6
 70
     1
102
RTVSPropertyOp7
 70
     1
102
RTVSPropertyOp8
 70
     1
102
RTVSPropertyOp9
 70
     1
102
RTVSPropertyOp10
 70
     1
102
RTVSPropertyOp11
 70
     1
102
RTVSPropertyOp12
 70
     1
102
RTVSPropertyOp13
 70
     1
102
RTVSPropertyOp14
 70
     1
102
RTVSPropertyOp15
 70
     1
102
RTVSPropertyOp16
 70
     1
102
RTVSPropertyOp17
 70
     1
102
RTVSPropertyOp18
 70
     1
102
RTVSPropertyOp19
 70
     1
102
RTVSPropertyOp20
 70
     1
102
RTVSPropertyOp21
 70
     1
102
RTVSPropertyOp22
 70
     1
102
RTVSPropertyOp23
 70
     1
102
RTVSPropertyOp24
 70
     1
102
RTVSPropertyOp25
 70
     1
102
RTVSPropertyOp26
 70
     1
102
RTVSPropertyOp27
 70
     1
  0
XRECORD
  5
128D
102
{ACAD_REACTORS
330
128C
102
}
330
128C
100
AcDbXrecord
280
     1
102
RTVSPropertyOp0
 70
     1
102
RTVSPropertyOp1
 70
     1
102
RTVSPropertyOp2
 70
     1
102
RTVSPropertyOp3
 70
     1
102
RTVSPropertyOp4
 70
     1
102
RTVSPropertyOp5
 70
     1
102
RTVSPropertyOp6
 70
     1
102
RTVSPropertyOp7
 70
     1
102
RTVSPropertyOp8
 70
     1
102
RTVSPropertyOp9
 70
     1
102
RTVSPropertyOp10
 70
     1
102
RTVSPropertyOp11
 70
     1
102
RTVSPropertyOp12
 70
     1
102
RTVSPropertyOp13
 70
     1
102
RTVSPropertyOp14
 70
     1
102
RTVSPropertyOp15
 70
     1
102
RTVSPropertyOp16
 70
     1
102
RTVSPropertyOp17
 70
     1
102
RTVSPropertyOp18
 70
     1
102
RTVSPropertyOp19
 70
     1
102
RTVSPropertyOp20
 70
     1
102
RTVSPropertyOp21
 70
     1
102
RTVSPropertyOp22
 70
     1
102
RTVSPropertyOp23
 70
     1
102
RTVSPropertyOp24
 70
     1
102
RTVSPropertyOp25
 70
     1
102
RTVSPropertyOp26
 70
     1
102
RTVSPropertyOp27
 70
     1
  0
XRECORD
  5
1289
102
{ACAD_REACTORS
330
1288
102
}
330
1288
100
AcDbXrecord
280
     1
102
RTVSPropertyOp0
 70
     1
102
RTVSPropertyOp1
 70
     1
102
RTVSPropertyOp2
 70
     1
102
RTVSPropertyOp3
 70
     1
102
RTVSPropertyOp4
 70
     1
102
RTVSPropertyOp5
 70
     1
102
RTVSPropertyOp6
 70
     1
102
RTVSPropertyOp7
 70
     1
102
RTVSPropertyOp8
 70
     1
102
RTVSPropertyOp9
 70
     1
102
RTVSPropertyOp10
 70
     1
102
RTVSPropertyOp11
 70
     1
102
RTVSPropertyOp12
 70
     1
102
RTVSPropertyOp13
 70
     1
102
RTVSPropertyOp14
 70
     1
102
RTVSPropertyOp15
 70
     1
102
RTVSPropertyOp16
 70
     1
102
RTVSPropertyOp17
 70
     1
102
RTVSPropertyOp18
 70
     1
102
RTVSPropertyOp19
 70
     1
102
RTVSPropertyOp20
 70
     1
102
RTVSPropertyOp21
 70
     1
102
RTVSPropertyOp22
 70
     1
102
RTVSPropertyOp23
 70
     1
102
RTVSPropertyOp24
 70
     1
102
RTVSPropertyOp25
 70
     1
102
RTVSPropertyOp26
 70
     1
102
RTVSPropertyOp27
 70
     1
  0
XRECORD
  5
1297
102
{ACAD_REACTORS
330
1296
102
}
330
1296
100
AcDbXrecord
280
     1
102
RTVSPropertyOp0
 70
     1
102
RTVSPropertyOp1
 70
     1
102
RTVSPropertyOp2
 70
     1
102
RTVSPropertyOp3
 70
     1
102
RTVSPropertyOp4
 70
     1
102
RTVSPropertyOp5
 70
     1
102
RTVSPropertyOp6
 70
     1
102
RTVSPropertyOp7
 70
     1
102
RTVSPropertyOp8
 70
     1
102
RTVSPropertyOp9
 70
     1
102
RTVSPropertyOp10
 70
     1
102
RTVSPropertyOp11
 70
     1
102
RTVSPropertyOp12
 70
     1
102
RTVSPropertyOp13
 70
     1
102
RTVSPropertyOp14
 70
     1
102
RTVSPropertyOp15
 70
     1
102
RTVSPropertyOp16
 70
     1
102
RTVSPropertyOp17
 70
     1
102
RTVSPropertyOp18
 70
     1
102
RTVSPropertyOp19
 70
     1
102
RTVSPropertyOp20
 70
     1
102
RTVSPropertyOp21
 70
     1
102
RTVSPropertyOp22
 70
     1
102
RTVSPropertyOp23
 70
     1
102
RTVSPropertyOp24
 70
     1
102
RTVSPropertyOp25
 70
     1
102
RTVSPropertyOp26
 70
     1
102
RTVSPropertyOp27
 70
     1
  0
XRECORD
  5
129F
102
{ACAD_REACTORS
330
129E
102
}
330
129E
100
AcDbXrecord
280
     1
102
RTVSPropertyOp0
 70
     1
102
RTVSPropertyOp1
 70
     1
102
RTVSPropertyOp2
 70
     1
102
RTVSPropertyOp3
 70
     1
102
RTVSPropertyOp4
 70
     1
102
RTVSPropertyOp5
 70
     1
102
RTVSPropertyOp6
 70
     1
102
RTVSPropertyOp7
 70
     1
102
RTVSPropertyOp8
 70
     1
102
RTVSPropertyOp9
 70
     1
102
RTVSPropertyOp10
 70
     1
102
RTVSPropertyOp11
 70
     1
102
RTVSPropertyOp12
 70
     1
102
RTVSPropertyOp13
 70
     1
102
RTVSPropertyOp14
 70
     1
102
RTVSPropertyOp15
 70
     1
102
RTVSPropertyOp16
 70
     1
102
RTVSPropertyOp17
 70
     1
102
RTVSPropertyOp18
 70
     1
102
RTVSPropertyOp19
 70
     1
102
RTVSPropertyOp20
 70
     1
102
RTVSPropertyOp21
 70
     1
102
RTVSPropertyOp22
 70
     1
102
RTVSPropertyOp23
 70
     1
102
RTVSPropertyOp24
 70
     1
102
RTVSPropertyOp25
 70
     1
102
RTVSPropertyOp26
 70
     1
102
RTVSPropertyOp27
 70
     1
  0
XRECORD
  5
1291
102
{ACAD_REACTORS
330
1290
102
}
330
1290
100
AcDbXrecord
280
     1
102
RTVSPropertyOp0
 70
     1
102
RTVSPropertyOp1
 70
     1
102
RTVSPropertyOp2
 70
     1
102
RTVSPropertyOp3
 70
     1
102
RTVSPropertyOp4
 70
     1
102
RTVSPropertyOp5
 70
     1
102
RTVSPropertyOp6
 70
     1
102
RTVSPropertyOp7
 70
     1
102
RTVSPropertyOp8
 70
     1
102
RTVSPropertyOp9
 70
     1
102
RTVSPropertyOp10
 70
     1
102
RTVSPropertyOp11
 70
     1
102
RTVSPropertyOp12
 70
     1
102
RTVSPropertyOp13
 70
     1
102
RTVSPropertyOp14
 70
     1
102
RTVSPropertyOp15
 70
     1
102
RTVSPropertyOp16
 70
     1
102
RTVSPropertyOp17
 70
     1
102
RTVSPropertyOp18
 70
     1
102
RTVSPropertyOp19
 70
     1
102
RTVSPropertyOp20
 70
     1
102
RTVSPropertyOp21
 70
     1
102
RTVSPropertyOp22
 70
     1
102
RTVSPropertyOp23
 70
     1
102
RTVSPropertyOp24
 70
     1
102
RTVSPropertyOp25
 70
     1
102
RTVSPropertyOp26
 70
     1
102
RTVSPropertyOp27
 70
     1
  0
XRECORD
  5
1295
102
{ACAD_REACTORS
330
1294
102
}
330
1294
100
AcDbXrecord
280
     1
102
RTVSPropertyOp0
 70
     1
102
RTVSPropertyOp1
 70
     1
102
RTVSPropertyOp2
 70
     1
102
RTVSPropertyOp3
 70
     1
102
RTVSPropertyOp4
 70
     1
102
RTVSPropertyOp5
 70
     1
102
RTVSPropertyOp6
 70
     1
102
RTVSPropertyOp7
 70
     1
102
RTVSPropertyOp8
 70
     1
102
RTVSPropertyOp9
 70
     1
102
RTVSPropertyOp10
 70
     1
102
RTVSPropertyOp11
 70
     1
102
RTVSPropertyOp12
 70
     1
102
RTVSPropertyOp13
 70
     1
102
RTVSPropertyOp14
 70
     1
102
RTVSPropertyOp15
 70
     1
102
RTVSPropertyOp16
 70
     1
102
RTVSPropertyOp17
 70
     1
102
RTVSPropertyOp18
 70
     1
102
RTVSPropertyOp19
 70
     1
102
RTVSPropertyOp20
 70
     1
102
RTVSPropertyOp21
 70
     1
102
RTVSPropertyOp22
 70
     1
102
RTVSPropertyOp23
 70
     1
102
RTVSPropertyOp24
 70
     1
102
RTVSPropertyOp25
 70
     1
102
RTVSPropertyOp26
 70
     1
102
RTVSPropertyOp27
 70
     1
  0
XRECORD
  5
12A5
102
{ACAD_REACTORS
330
12A4
102
}
330
12A4
100
AcDbXrecord
280
     1
102
RTVSPropertyOp0
 70
     0
102
RTVSPropertyOp1
 70
     0
102
RTVSPropertyOp2
 70
     0
102
RTVSPropertyOp3
 70
     0
102
RTVSPropertyOp4
 70
     0
102
RTVSPropertyOp5
 70
     0
102
RTVSPropertyOp6
 70
     0
102
RTVSPropertyOp7
 70
     0
102
RTVSPropertyOp8
 70
     0
102
RTVSPropertyOp9
 70
     0
102
RTVSPropertyOp10
 70
     0
102
RTVSPropertyOp11
 70
     0
102
RTVSPropertyOp12
 70
     0
102
RTVSPropertyOp13
 70
     0
102
RTVSPropertyOp14
 70
     2
102
RTVSPropertyOp15
 70
     0
102
RTVSPropertyOp16
 70
     0
102
RTVSPropertyOp17
 70
     0
102
RTVSPropertyOp18
 70
     0
102
RTVSPropertyOp19
 70
     0
102
RTVSPropertyOp20
 70
     0
102
RTVSPropertyOp21
 70
     0
102
RTVSPropertyOp22
 70
     0
102
RTVSPropertyOp23
 70
     0
102
RTVSPropertyOp24
 70
     0
102
RTVSPropertyOp25
 70
     0
102
RTVSPropertyOp26
 70
     0
102
RTVSPropertyOp27
 70
     0
  0
XRECORD
  5
129D
102
{ACAD_REACTORS
330
129C
102
}
330
129C
100
AcDbXrecord
280
     1
102
RTVSPropertyOp0
 70
     1
102
RTVSPropertyOp1
 70
     1
102
RTVSPropertyOp2
 70
     1
102
RTVSPropertyOp3
 70
     1
102
RTVSPropertyOp4
 70
     1
102
RTVSPropertyOp5
 70
     1
102
RTVSPropertyOp6
 70
     1
102
RTVSPropertyOp7
 70
     1
102
RTVSPropertyOp8
 70
     1
102
RTVSPropertyOp9
 70
     1
102
RTVSPropertyOp10
 70
     1
102
RTVSPropertyOp11
 70
     1
102
RTVSPropertyOp12
 70
     1
102
RTVSPropertyOp13
 70
     1
102
RTVSPropertyOp14
 70
     1
102
RTVSPropertyOp15
 70
     1
102
RTVSPropertyOp16
 70
     1
102
RTVSPropertyOp17
 70
     1
102
RTVSPropertyOp18
 70
     1
102
RTVSPropertyOp19
 70
     1
102
RTVSPropertyOp20
 70
     1
102
RTVSPropertyOp21
 70
     1
102
RTVSPropertyOp22
 70
     1
102
RTVSPropertyOp23
 70
     1
102
RTVSPropertyOp24
 70
     1
102
RTVSPropertyOp25
 70
     1
102
RTVSPropertyOp26
 70
     1
102
RTVSPropertyOp27
 70
     1
  0
XRECORD
  5
1281
102
{ACAD_REACTORS
330
1280
102
}
330
1280
100
AcDbXrecord
280
     1
102
RTVSPropertyOp0
 70
     1
102
RTVSPropertyOp1
 70
     1
102
RTVSPropertyOp2
 70
     1
102
RTVSPropertyOp3
 70
     1
102
RTVSPropertyOp4
 70
     1
102
RTVSPropertyOp5
 70
     1
102
RTVSPropertyOp6
 70
     1
102
RTVSPropertyOp7
 70
     1
102
RTVSPropertyOp8
 70
     1
102
RTVSPropertyOp9
 70
     1
102
RTVSPropertyOp10
 70
     1
102
RTVSPropertyOp11
 70
     1
102
RTVSPropertyOp12
 70
     1
102
RTVSPropertyOp13
 70
     1
102
RTVSPropertyOp14
 70
     1
102
RTVSPropertyOp15
 70
     1
102
RTVSPropertyOp16
 70
     1
102
RTVSPropertyOp17
 70
     1
102
RTVSPropertyOp18
 70
     1
102
RTVSPropertyOp19
 70
     1
102
RTVSPropertyOp20
 70
     1
102
RTVSPropertyOp21
 70
     1
102
RTVSPropertyOp22
 70
     1
102
RTVSPropertyOp23
 70
     1
102
RTVSPropertyOp24
 70
     1
102
RTVSPropertyOp25
 70
     1
102
RTVSPropertyOp26
 70
     1
102
RTVSPropertyOp27
 70
     1
  0
XRECORD
  5
1283
102
{ACAD_REACTORS
330
1282
102
}
330
1282
100
AcDbXrecord
280
     1
102
RTVSPropertyOp0
 70
     1
102
RTVSPropertyOp1
 70
     1
102
RTVSPropertyOp2
 70
     1
102
RTVSPropertyOp3
 70
     1
102
RTVSPropertyOp4
 70
     1
102
RTVSPropertyOp5
 70
     1
102
RTVSPropertyOp6
 70
     1
102
RTVSPropertyOp7
 70
     1
102
RTVSPropertyOp8
 70
     1
102
RTVSPropertyOp9
 70
     1
102
RTVSPropertyOp10
 70
     1
102
RTVSPropertyOp11
 70
     1
102
RTVSPropertyOp12
 70
     1
102
RTVSPropertyOp13
 70
     1
102
RTVSPropertyOp14
 70
     1
102
RTVSPropertyOp15
 70
     1
102
RTVSPropertyOp16
 70
     1
102
RTVSPropertyOp17
 70
     1
102
RTVSPropertyOp18
 70
     1
102
RTVSPropertyOp19
 70
     1
102
RTVSPropertyOp20
 70
     1
102
RTVSPropertyOp21
 70
     1
102
RTVSPropertyOp22
 70
     1
102
RTVSPropertyOp23
 70
     1
102
RTVSPropertyOp24
 70
     1
102
RTVSPropertyOp25
 70
     1
102
RTVSPropertyOp26
 70
     1
102
RTVSPropertyOp27
 70
     1
  0
XRECORD
  5
1285
102
{ACAD_REACTORS
330
1284
102
}
330
1284
100
AcDbXrecord
280
     1
102
RTVSPropertyOp0
 70
     1
102
RTVSPropertyOp1
 70
     1
102
RTVSPropertyOp2
 70
     1
102
RTVSPropertyOp3
 70
     1
102
RTVSPropertyOp4
 70
     1
102
RTVSPropertyOp5
 70
     1
102
RTVSPropertyOp6
 70
     1
102
RTVSPropertyOp7
 70
     1
102
RTVSPropertyOp8
 70
     1
102
RTVSPropertyOp9
 70
     1
102
RTVSPropertyOp10
 70
     1
102
RTVSPropertyOp11
 70
     1
102
RTVSPropertyOp12
 70
     1
102
RTVSPropertyOp13
 70
     1
102
RTVSPropertyOp14
 70
     1
102
RTVSPropertyOp15
 70
     1
102
RTVSPropertyOp16
 70
     1
102
RTVSPropertyOp17
 70
     1
102
RTVSPropertyOp18
 70
     1
102
RTVSPropertyOp19
 70
     1
102
RTVSPropertyOp20
 70
     1
102
RTVSPropertyOp21
 70
     1
102
RTVSPropertyOp22
 70
     1
102
RTVSPropertyOp23
 70
     1
102
RTVSPropertyOp24
 70
     1
102
RTVSPropertyOp25
 70
     1
102
RTVSPropertyOp26
 70
     1
102
RTVSPropertyOp27
 70
     1
  0
XRECORD
  5
1287
102
{ACAD_REACTORS
330
1286
102
}
330
1286
100
AcDbXrecord
280
     1
102
RTVSPropertyOp0
 70
     1
102
RTVSPropertyOp1
 70
     1
102
RTVSPropertyOp2
 70
     1
102
RTVSPropertyOp3
 70
     1
102
RTVSPropertyOp4
 70
     1
102
RTVSPropertyOp5
 70
     1
102
RTVSPropertyOp6
 70
     1
102
RTVSPropertyOp7
 70
     1
102
RTVSPropertyOp8
 70
     1
102
RTVSPropertyOp9
 70
     1
102
RTVSPropertyOp10
 70
     1
102
RTVSPropertyOp11
 70
     1
102
RTVSPropertyOp12
 70
     1
102
RTVSPropertyOp13
 70
     1
102
RTVSPropertyOp14
 70
     1
102
RTVSPropertyOp15
 70
     1
102
RTVSPropertyOp16
 70
     1
102
RTVSPropertyOp17
 70
     1
102
RTVSPropertyOp18
 70
     1
102
RTVSPropertyOp19
 70
     1
102
RTVSPropertyOp20
 70
     1
102
RTVSPropertyOp21
 70
     1
102
RTVSPropertyOp22
 70
     1
102
RTVSPropertyOp23
 70
     1
102
RTVSPropertyOp24
 70
     1
102
RTVSPropertyOp25
 70
     1
102
RTVSPropertyOp26
 70
     1
102
RTVSPropertyOp27
 70
     1
  0
XRECORD
  5
12A1
102
{ACAD_REACTORS
330
12A0
102
}
330
12A0
100
AcDbXrecord
280
     1
102
RTVSPropertyOp0
 70
     0
102
RTVSPropertyOp1
 70
     0
102
RTVSPropertyOp2
 70
     0
102
RTVSPropertyOp3
 70
     0
102
RTVSPropertyOp4
 70
     0
102
RTVSPropertyOp5
 70
     0
102
RTVSPropertyOp6
 70
     0
102
RTVSPropertyOp7
 70
     0
102
RTVSPropertyOp8
 70
     0
102
RTVSPropertyOp9
 70
     0
102
RTVSPropertyOp10
 70
     0
102
RTVSPropertyOp11
 70
     0
102
RTVSPropertyOp12
 70
     0
102
RTVSPropertyOp13
 70
     0
102
RTVSPropertyOp14
 70
     2
102
RTVSPropertyOp15
 70
     0
102
RTVSPropertyOp16
 70
     0
102
RTVSPropertyOp17
 70
     0
102
RTVSPropertyOp18
 70
     0
102
RTVSPropertyOp19
 70
     0
102
RTVSPropertyOp20
 70
     0
102
RTVSPropertyOp21
 70
     0
102
RTVSPropertyOp22
 70
     0
102
RTVSPropertyOp23
 70
     0
102
RTVSPropertyOp24
 70
     0
102
RTVSPropertyOp25
 70
     0
102
RTVSPropertyOp26
 70
     0
102
RTVSPropertyOp27
 70
     0
  0
XRECORD
  5
129B
102
{ACAD_REACTORS
330
129A
102
}
330
129A
100
AcDbXrecord
280
     1
102
RTVSPropertyOp0
 70
     1
102
RTVSPropertyOp1
 70
     1
102
RTVSPropertyOp2
 70
     1
102
RTVSPropertyOp3
 70
     1
102
RTVSPropertyOp4
 70
     1
102
RTVSPropertyOp5
 70
     1
102
RTVSPropertyOp6
 70
     1
102
RTVSPropertyOp7
 70
     1
102
RTVSPropertyOp8
 70
     1
102
RTVSPropertyOp9
 70
     1
102
RTVSPropertyOp10
 70
     1
102
RTVSPropertyOp11
 70
     1
102
RTVSPropertyOp12
 70
     1
102
RTVSPropertyOp13
 70
     1
102
RTVSPropertyOp14
 70
     1
102
RTVSPropertyOp15
 70
     1
102
RTVSPropertyOp16
 70
     1
102
RTVSPropertyOp17
 70
     1
102
RTVSPropertyOp18
 70
     1
102
RTVSPropertyOp19
 70
     1
102
RTVSPropertyOp20
 70
     1
102
RTVSPropertyOp21
 70
     1
102
RTVSPropertyOp22
 70
     1
102
RTVSPropertyOp23
 70
     1
102
RTVSPropertyOp24
 70
     1
102
RTVSPropertyOp25
 70
     1
102
RTVSPropertyOp26
 70
     1
102
RTVSPropertyOp27
 70
     1
  0
XRECORD
  5
12A3
102
{ACAD_REACTORS
330
12A2
102
}
330
12A2
100
AcDbXrecord
280
     1
102
RTVSPropertyOp0
 70
     0
102
RTVSPropertyOp1
 70
     0
102
RTVSPropertyOp2
 70
     0
102
RTVSPropertyOp3
 70
     0
102
RTVSPropertyOp4
 70
     0
102
RTVSPropertyOp5
 70
     0
102
RTVSPropertyOp6
 70
     0
102
RTVSPropertyOp7
 70
     0
102
RTVSPropertyOp8
 70
     0
102
RTVSPropertyOp9
 70
     0
102
RTVSPropertyOp10
 70
     0
102
RTVSPropertyOp11
 70
     0
102
RTVSPropertyOp12
 70
     0
102
RTVSPropertyOp13
 70
     0
102
RTVSPropertyOp14
 70
     2
102
RTVSPropertyOp15
 70
     0
102
RTVSPropertyOp16
 70
     0
102
RTVSPropertyOp17
 70
     0
102
RTVSPropertyOp18
 70
     0
102
RTVSPropertyOp19
 70
     0
102
RTVSPropertyOp20
 70
     0
102
RTVSPropertyOp21
 70
     0
102
RTVSPropertyOp22
 70
     0
102
RTVSPropertyOp23
 70
     0
102
RTVSPropertyOp24
 70
     0
102
RTVSPropertyOp25
 70
     0
102
RTVSPropertyOp26
 70
     0
102
RTVSPropertyOp27
 70
     0
  0
XRECORD
  5
1293
102
{ACAD_REACTORS
330
1292
102
}
330
1292
100
AcDbXrecord
280
     1
102
RTVSPropertyOp0
 70
     1
102
RTVSPropertyOp1
 70
     1
102
RTVSPropertyOp2
 70
     1
102
RTVSPropertyOp3
 70
     1
102
RTVSPropertyOp4
 70
     1
102
RTVSPropertyOp5
 70
     1
102
RTVSPropertyOp6
 70
     1
102
RTVSPropertyOp7
 70
     1
102
RTVSPropertyOp8
 70
     1
102
RTVSPropertyOp9
 70
     1
102
RTVSPropertyOp10
 70
     1
102
RTVSPropertyOp11
 70
     1
102
RTVSPropertyOp12
 70
     1
102
RTVSPropertyOp13
 70
     1
102
RTVSPropertyOp14
 70
     1
102
RTVSPropertyOp15
 70
     1
102
RTVSPropertyOp16
 70
     1
102
RTVSPropertyOp17
 70
     1
102
RTVSPropertyOp18
 70
     1
102
RTVSPropertyOp19
 70
     1
102
RTVSPropertyOp20
 70
     1
102
RTVSPropertyOp21
 70
     1
102
RTVSPropertyOp22
 70
     1
102
RTVSPropertyOp23
 70
     1
102
RTVSPropertyOp24
 70
     1
102
RTVSPropertyOp25
 70
     1
102
RTVSPropertyOp26
 70
     1
102
RTVSPropertyOp27
 70
     1
  0
XRECORD
  5
1299
102
{ACAD_REACTORS
330
1298
102
}
330
1298
100
AcDbXrecord
280
     1
102
RTVSPropertyOp0
 70
     1
102
RTVSPropertyOp1
 70
     1
102
RTVSPropertyOp2
 70
     1
102
RTVSPropertyOp3
 70
     1
102
RTVSPropertyOp4
 70
     1
102
RTVSPropertyOp5
 70
     1
102
RTVSPropertyOp6
 70
     1
102
RTVSPropertyOp7
 70
     1
102
RTVSPropertyOp8
 70
     1
102
RTVSPropertyOp9
 70
     1
102
RTVSPropertyOp10
 70
     1
102
RTVSPropertyOp11
 70
     1
102
RTVSPropertyOp12
 70
     1
102
RTVSPropertyOp13
 70
     1
102
RTVSPropertyOp14
 70
     1
102
RTVSPropertyOp15
 70
     1
102
RTVSPropertyOp16
 70
     1
102
RTVSPropertyOp17
 70
     1
102
RTVSPropertyOp18
 70
     1
102
RTVSPropertyOp19
 70
     1
102
RTVSPropertyOp20
 70
     1
102
RTVSPropertyOp21
 70
     1
102
RTVSPropertyOp22
 70
     1
102
RTVSPropertyOp23
 70
     1
102
RTVSPropertyOp24
 70
     1
102
RTVSPropertyOp25
 70
     1
102
RTVSPropertyOp26
 70
     1
102
RTVSPropertyOp27
 70
     1
  0
ENDSEC
  0
EOF
