  0
SECTION
  2
HEADER
  9
$ACADVER
  1
AC1015
  9
$ACADMAINTVER
 70
    20
  9
$DWGCODEPAGE
  3
ANSI_1252
  9
$INSBASE
 10
0.0
 20
0.0
 30
0.0
  9
$EXTMIN
 10
389.6192122490658
 20
84.97555152230756
 30
0.0
  9
$EXTMAX
 10
1529.674308632702
 20
298.2689652346934
 30
0.0
  9
$LIMMIN
 10
0.0
 20
0.0
  9
$LIMMAX
 10
420.0
 20
297.0
  9
$ORTHOMODE
 70
     1
  9
$REGENMODE
 70
     1
  9
$FILLMODE
 70
     1
  9
$QTEXTMODE
 70
     0
  9
$MIRRTEXT
 70
     1
  9
$LTSCALE
 40
1.0
  9
$ATTMODE
 70
     1
  9
$TEXTSIZE
 40
2.5
  9
$TRACEWID
 40
1.0
  9
$TEXTSTYLE
  7
STANDARD
  9
$CLAYER
  8
AM_8
  9
$CELTYPE
  6
ByLayer
  9
$CECOLOR
 62
   256
  9
$CELTSCALE
 40
1.0
  9
$DISPSILH
 70
     0
  9
$DIMSCALE
 40
1.0
  9
$DIMASZ
 40
2.5
  9
$DIMEXO
 40
1.0
  9
$DIMDLI
 40
10.0
  9
$DIMRND
 40
0.0
  9
$DIMDLE
 40
0.0
  9
$DIMEXE
 40
1.0
  9
$DIMTP
 40
0.1
  9
$DIMTM
 40
0.1
  9
$DIMTXT
 40
3.5
  9
$DIMCEN
 40
0.0
  9
$DIMTSZ
 40
0.0
  9
$DIMTOL
 70
     0
  9
$DIMLIM
 70
     0
  9
$DIMTIH
 70
     0
  9
$DIMTOH
 70
     0
  9
$DIMSE1
 70
     0
  9
$DIMSE2
 70
     0
  9
$DIMTAD
 70
     1
  9
$DIMZIN
 70
     8
  9
$DIMBLK
  1

  9
$DIMASO
 70
     1
  9
$DIMSHO
 70
     1
  9
$DIMPOST
  1

  9
$DIMAPOST
  1
"
  9
$DIMALT
 70
     0
  9
$DIMALTD
 70
     2
  9
$DIMALTF
 40
0.0393701
  9
$DIMLFAC
 40
1.0
  9
$DIMTOFL
 70
     1
  9
$DIMTVP
 40
0.0
  9
$DIMTIX
 70
     0
  9
$DIMSOXD
 70
     0
  9
$DIMSAH
 70
     0
  9
$DIMBLK1
  1

  9
$DIMBLK2
  1

  9
$DIMSTYLE
  2
AM_DIN
  9
$DIMCLRD
 70
   256
  9
$DIMCLRE
 70
   256
  9
$DIMCLRT
 70
     2
  9
$DIMTFAC
 40
0.71
  9
$DIMGAP
 40
1.5
  9
$DIMJUST
 70
     0
  9
$DIMSD1
 70
     0
  9
$DIMSD2
 70
     0
  9
$DIMTOLJ
 70
     0
  9
$DIMTZIN
 70
     8
  9
$DIMALTZ
 70
     0
  9
$DIMALTTZ
 70
     0
  9
$DIMUPT
 70
     0
  9
$DIMDEC
 70
     0
  9
$DIMTDEC
 70
     3
  9
$DIMALTU
 70
     2
  9
$DIMALTTD
 70
     4
  9
$DIMTXSTY
  7
STANDARD
  9
$DIMAUNIT
 70
     0
  9
$DIMADEC
 70
     0
  9
$DIMALTRND
 40
0.0
  9
$DIMAZIN
 70
     2
  9
$DIMDSEP
 70
    46
  9
$DIMATFIT
 70
     3
  9
$DIMFRAC
 70
     0
  9
$DIMLDRBLK
  1

  9
$DIMLUNIT
 70
     2
  9
$DIMLWD
 70
    -1
  9
$DIMLWE
 70
    -1
  9
$DIMTMOVE
 70
     0
  9
$LUNITS
 70
     2
  9
$LUPREC
 70
     2
  9
$SKETCHINC
 40
1.0
  9
$FILLETRAD
 40
0.0
  9
$AUNITS
 70
     0
  9
$AUPREC
 70
     0
  9
$MENU
  1
.
  9
$ELEVATION
 40
0.0
  9
$PELEVATION
 40
0.0
  9
$THICKNESS
 40
0.0
  9
$LIMCHECK
 70
     0
  9
$CHAMFERA
 40
2.5
  9
$CHAMFERB
 40
2.5
  9
$CHAMFERC
 40
20.0
  9
$CHAMFERD
 40
0.0
  9
$SKPOLY
 70
     0
  9
$TDCREATE
 40
2452702.515835023
  9
$TDUCREATE
 40
2452702.474168357
  9
$TDUPDATE
 40
2456713.425365903
  9
$TDUUPDATE
 40
2456713.383699236
  9
$TDINDWG
 40
0.1965876736
  9
$TDUSRTIMER
 40
0.1965873727
  9
$USRTIMER
 70
     1
  9
$ANGBASE
 50
0.0
  9
$ANGDIR
 70
     0
  9
$PDMODE
 70
     0
  9
$PDSIZE
 40
0.0
  9
$PLINEWID
 40
0.0
  9
$SPLFRAME
 70
     0
  9
$SPLINETYPE
 70
     6
  9
$SPLINESEGS
 70
     8
  9
$HANDSEED
  5
233D
  9
$SURFTAB1
 70
     6
  9
$SURFTAB2
 70
     6
  9
$SURFTYPE
 70
     6
  9
$SURFU
 70
     6
  9
$SURFV
 70
     6
  9
$UCSBASE
  2

  9
$UCSNAME
  2

  9
$UCSORG
 10
0.0
 20
0.0
 30
0.0
  9
$UCSXDIR
 10
1.0
 20
0.0
 30
0.0
  9
$UCSYDIR
 10
0.0
 20
1.0
 30
0.0
  9
$UCSORTHOREF
  2

  9
$UCSORTHOVIEW
 70
     0
  9
$UCSORGTOP
 10
0.0
 20
0.0
 30
0.0
  9
$UCSORGBOTTOM
 10
0.0
 20
0.0
 30
0.0
  9
$UCSORGLEFT
 10
0.0
 20
0.0
 30
0.0
  9
$UCSORGRIGHT
 10
0.0
 20
0.0
 30
0.0
  9
$UCSORGFRONT
 10
0.0
 20
0.0
 30
0.0
  9
$UCSORGBACK
 10
0.0
 20
0.0
 30
0.0
  9
$PUCSBASE
  2

  9
$PUCSNAME
  2

  9
$PUCSORG
 10
0.0
 20
0.0
 30
0.0
  9
$PUCSXDIR
 10
1.0
 20
0.0
 30
0.0
  9
$PUCSYDIR
 10
0.0
 20
1.0
 30
0.0
  9
$PUCSORTHOREF
  2

  9
$PUCSORTHOVIEW
 70
     0
  9
$PUCSORGTOP
 10
0.0
 20
0.0
 30
0.0
  9
$PUCSORGBOTTOM
 10
0.0
 20
0.0
 30
0.0
  9
$PUCSORGLEFT
 10
0.0
 20
0.0
 30
0.0
  9
$PUCSORGRIGHT
 10
0.0
 20
0.0
 30
0.0
  9
$PUCSORGFRONT
 10
0.0
 20
0.0
 30
0.0
  9
$PUCSORGBACK
 10
0.0
 20
0.0
 30
0.0
  9
$USERI1
 70
     0
  9
$USERI2
 70
     0
  9
$USERI3
 70
     0
  9
$USERI4
 70
     0
  9
$USERI5
 70
     0
  9
$USERR1
 40
0.0
  9
$USERR2
 40
0.0
  9
$USERR3
 40
0.0
  9
$USERR4
 40
0.0
  9
$USERR5
 40
0.0
  9
$WORLDVIEW
 70
     1
  9
$SHADEDGE
 70
     3
  9
$SHADEDIF
 70
    70
  9
$TILEMODE
 70
     1
  9
$MAXACTVP
 70
    64
  9
$PINSBASE
 10
0.0
 20
0.0
 30
0.0
  9
$PLIMCHECK
 70
     0
  9
$PEXTMIN
 10
1.000000000000000E+20
 20
1.000000000000000E+20
 30
1.000000000000000E+20
  9
$PEXTMAX
 10
-1.000000000000000E+20
 20
-1.000000000000000E+20
 30
-1.000000000000000E+20
  9
$PLIMMIN
 10
0.0
 20
0.0
  9
$PLIMMAX
 10
420.0
 20
297.0
  9
$UNITMODE
 70
     0
  9
$VISRETAIN
 70
     1
  9
$PLINEGEN
 70
     0
  9
$PSLTSCALE
 70
     1
  9
$TREEDEPTH
 70
  3020
  9
$CMLSTYLE
  2
Standard
  9
$CMLJUST
 70
     0
  9
$CMLSCALE
 40
20.0
  9
$PROXYGRAPHICS
 70
     1
  9
$MEASUREMENT
 70
     1
  9
$CELWEIGHT
370
    -1
  9
$ENDCAPS
280
     0
  9
$JOINSTYLE
280
     0
  9
$LWDISPLAY
290
     0
  9
$INSUNITS
 70
     4
  9
$HYPERLINKBASE
  1

  9
$STYLESHEET
  1
MONOCHROME.CTB
  9
$XEDIT
290
     1
  9
$CEPSNTYPE
380
     0
  9
$PSTYLEMODE
290
     1
  9
$FINGERPRINTGUID
  2
{D5091DE6-A8E7-4749-B1FA-F4240FAEB0F0}
  9
$VERSIONGUID
  2
{FB7FAE36-40FF-484B-88B7-65031FE28B58}
  9
$EXTNAMES
290
     1
  9
$PSVPSCALE
 40
0.0
  9
$OLESTARTUP
290
     0
  0
ENDSEC
  0
SECTION
  2
CLASSES
  0
CLASS
  1
ACDBDICTIONARYWDFLT
  2
AcDbDictionaryWithDefault
  3
ObjectDBX Classes
 90
        0
280
     0
281
     0
  0
CLASS
  1
ACDBPLACEHOLDER
  2
AcDbPlaceHolder
  3
ObjectDBX Classes
 90
        0
280
     0
281
     0
  0
CLASS
  1
LAYOUT
  2
AcDbLayout
  3
ObjectDBX Classes
 90
        0
280
     0
281
     0
  0
CLASS
  1
AMGSETTINGSOBJ
  2
AmgSettingsObj
  3
"AcadM|Product Description: AutoCAD Mechanical|Company: Autodesk, Inc."
 90
     1024
280
     0
281
     0
  0
CLASS
  1
ACME_DOCUMENT
  2
AcMeDbDoc
  3
AcMeServices
 90
     1024
280
     0
281
     0
  0
CLASS
  1
ACMESCOPE
  2
AcMeScope
  3
AcMeServices
 90
     1024
280
     0
281
     0
  0
CLASS
  1
ACMECOMMANDHISTORY
  2
AcMeCommandHistory
  3
AcMeServices
 90
     1024
280
     0
281
     0
  0
CLASS
  1
DICTIONARYVAR
  2
AcDbDictionaryVar
  3
ObjectDBX Classes
 90
        0
280
     0
281
     0
  0
CLASS
  1
ACIMSYSVARMAN
  2
AcImSysVarManager
  3
AcMeServices
 90
     1024
280
     0
281
     0
  0
CLASS
  1
ACIMREALSYSVAR
  2
AcImRealSysVar
  3
AcMeServices
 90
     1024
280
     0
281
     0
  0
CLASS
  1
ACIMINTSYSVAR
  2
AcImIntSysVar
  3
AcMeServices
 90
     1024
280
     0
281
     0
  0
CLASS
  1
ACMEDRAWINGMAN
  2
AcMeDrawingMan
  3
AcMeServices
 90
     1024
280
     0
281
     0
  0
CLASS
  1
ACMEVIEW
  2
AcMeView
  3
AcMeServices
 90
     1024
280
     0
281
     0
  0
CLASS
  1
ACDBENTITYCACHE
  2
AcMeEntityCache
  3
AcMeServices
 90
     1024
280
     0
281
     0
  0
CLASS
  1
GSMANAGER
  2
AcMeGSManager
  3
AcMeServices
 90
    33792
280
     0
281
     0
  0
CLASS
  1
AMDTINTERNALREACTOR
  2
AmdtInternalReactor
  3
AcMeServices
 90
     1024
280
     0
281
     0
  0
CLASS
  1
ACMESTATEMGR
  2
AcMeStateMgr
  3
AcMeServices
 90
     1024
280
     0
281
     0
  0
CLASS
  1
ACGREFMASTER
  2
AcGrefMaster
  3
AcAttribServices
 90
     1024
280
     0
281
     0
  0
CLASS
  1
ACME_DATABASE
  2
AcMeDbDatabase
  3
AcMeServices
 90
     1024
280
     0
281
     0
  0
CLASS
  1
ACRFINSADJUSTERMGR
  2
AcRfInsAdjusterMgr
  3
AcMeServices
 90
     1024
280
     0
281
     0
  0
CLASS
  1
ACGREFACADMASTER
  2
AcGrefacadMaster
  3
AcGrefServices
 90
     1024
280
     0
281
     0
  0
CLASS
  1
AMIMASTER
  2
AmiMaster
  3
AmiServices
 90
     1024
280
     0
281
     0
  0
CLASS
  1
ACMDATADICTIONARY
  2
AcmDataDictionary
  3
"AcmSymBB|Product Description: AutoCAD Mechanical|Company: Autodesk, Inc."
 90
     1024
280
     0
281
     0
  0
CLASS
  1
ACMDATAENTRYBLOCK
  2
AcmDataEntryBlock
  3
AcmSymBB|Product Description: AutoCAD Mechanical|Company: Autodesk, Inc.
 90
    33792
280
     0
281
     0
  0
CLASS
  1
ACIMSTRSYSVAR
  2
AcImStrSysVar
  3
AcMeServices
 90
     1024
280
     0
281
     0
  0
CLASS
  1
ACMSTANDARDDIN
  2
AcmStandardDIN
  3
"Amdt_StdImp|Product Description: AutoCAD Mechanical|Company: Autodesk, Inc."
 90
     1024
280
     0
281
     0
  0
CLASS
  1
AMGOBJPROPCFG
  2
AmgObjPropCfg
  3
"AmgLay|Product Description: AutoCAD Mechanical|Company: Autodesk, Inc."
 90
     1025
280
     0
281
     0
  0
CLASS
  1
AMDTEDGESTANDARDDIN
  2
AmdtEdgeStdDIN
  3
"Amdt_StdImp|Product Description: AutoCAD Mechanical|Company: Autodesk, Inc."
 90
    33792
280
     0
281
     0
  0
CLASS
  1
ACMSURFSTANDARDDIN
  2
AcmSurfTextStdDIN
  3
"Amdt_StdImp|Product Description: AutoCAD Mechanical|Company: Autodesk, Inc."
 90
    33792
280
     0
281
     0
  0
CLASS
  1
ACMFCFSTANDARDDIN
  2
AcmFCFStdDIN
  3
"Amdt_StdImp|Product Description: AutoCAD Mechanical|Company: Autodesk, Inc."
 90
     1024
280
     0
281
     0
  0
CLASS
  1
ACMWELDSTANDARDDIN
  2
AcmWeldingStdDIN
  3
"Amdt_StdImp|Product Description: AutoCAD Mechanical|Company: Autodesk, Inc."
 90
     1024
280
     0
281
     0
  0
CLASS
  1
ACMIDSTANDARDDIN
  2
AcmIdStdDIN
  3
"Amdt_StdImp|Product Description: AutoCAD Mechanical|Company: Autodesk, Inc."
 90
     1024
280
     0
281
     0
  0
CLASS
  1
ACMDATUMSTANDARDDIN
  2
AcmDatumStdDIN
  3
"Amdt_StdImp|Product Description: AutoCAD Mechanical|Company: Autodesk, Inc."
 90
     1024
280
     0
281
     0
  0
CLASS
  1
ACMBOMSTANDARDDIN
  2
AcmBOMStdDIN
  3
"Amdt_StdImp|Product Description: AutoCAD Mechanical|Company: Autodesk, Inc."
 90
     1024
280
     0
281
     0
  0
CLASS
  1
ACMDETAILSTANDARDDIN
  2
AmdtDetailSymStdDIN
  3
"Amdt_StdImp|Product Description: AutoCAD Mechanical|Company: Autodesk, Inc."
 90
     1024
280
     0
281
     0
  0
CLASS
  1
ACMSECTIONSTANDARDDIN
  2
AmdtSectionSymStdDIN
  3
"Amdt_StdImp|Product Description: AutoCAD Mechanical|Company: Autodesk, Inc."
 90
     1024
280
     0
281
     0
  0
CLASS
  1
ACMCENTERLINESTANDARDDIN
  2
AmdtCenterLineStdDIN
  3
"Amdt_StdImp|Product Description: AutoCAD Mechanical|Company: Autodesk, Inc."
 90
     1024
280
     0
281
     0
  0
CLASS
  1
ACAMGLAYSTD
  2
AcAmgLayStd
  3
"AmgLay|Product Description: AutoCAD Mechanical|Company: Autodesk, Inc."
 90
     1024
280
     0
281
     0
  0
CLASS
  1
ACAMGDIMSTD
  2
AcAmgDimStd
  3
"AmgDim|Product Description: AutoCAD Mechanical|Company: Autodesk, Inc."
 90
     1024
280
     0
281
     0
  0
CLASS
  1
ACAMGTITLESTD
  2
AcAmgTitleStd
  3
"AmgTitle|Product Description: AutoCAD Mechanical|Company: Autodesk, Inc."
 90
     4095
280
     0
281
     0
  0
CLASS
  1
LAYER_INDEX
  2
AcDbLayerIndex
  3
ObjectDBX Classes
 90
    32768
280
     0
281
     0
  0
CLASS
  1
IDBUFFER
  2
AcDbIdBuffer
  3
ObjectDBX Classes
 90
    32768
280
     0
281
     0
  0
CLASS
  1
TABLESTYLE
  2
AcDbTableStyle
  3
ObjectDBX Classes
 90
     4095
280
     0
281
     0
  0
CLASS
  1
AM_DRAWING_MGR
  2
AcDmDwgMgr
  3
AcMechDwgViewMgmt
 90
     1024
280
     0
281
     0
  0
CLASS
  1
AM_DWG_DOCUMENT
  2
AcDmDwgDocument
  3
AcMechDwgViewMgmt
 90
     1024
280
     0
281
     0
  0
CLASS
  1
AM_DWG_SHEET
  2
AcDmSheet
  3
AcMechDwgViewMgmt
 90
     1024
280
     0
281
     0
  0
CLASS
  1
AM_VIEWDIMPARMAP
  2
AcDmViewDimParMap
  3
AcMechDwgViewMgmt
 90
     1024
280
     0
281
     0
  0
CLASS
  1
AM_DWGMGR_NAME
  2
AcDmDwgMgrName
  3
AcMechDwgViewMgmt
 90
     1024
280
     0
281
     0
  0
CLASS
  1
AMDTMENUSTATEMGR
  2
AmdtMenuStateMgr
  3
McadcomServices
 90
     1024
280
     0
281
     0
  0
CLASS
  1
AMDTMCOMMENUSTATE
  2
AmdtMcomMenuState
  3
McadcomServices
 90
     1024
280
     0
281
     0
  0
CLASS
  1
MAPIAMMOUDLE
  2
MApiAmModule
  3
MApiAmServices
 90
     1024
280
     0
281
     0
  0
CLASS
  1
AMDTADMENUSTATE
  2
AmdtAdMenuState
  3
DesignerServices
 90
     1024
280
     0
281
     0
  0
CLASS
  1
ADAPPL
  2
AcAdAppl
  3
DesignerServices
 90
     1024
280
     0
281
     0
  0
CLASS
  1
DEPMGR
  2
AcAdDepMgr
  3
DesignerServices
 90
     1024
280
     0
281
     0
  0
CLASS
  1
PARAMMGR
  2
AcAdParamMgr
  3
DesignerServices
 90
     1024
280
     0
281
     0
  0
CLASS
  1
PARAMSCOPE
  2
AcAdParamScope
  3
DesignerServices
 90
     1024
280
     0
281
     0
  0
CLASS
  1
NAMEDAPPL
  2
AcAdNamedAppl
  3
DesignerServices
 90
     1024
280
     0
281
     0
  0
CLASS
  1
AMDTDMMENUSTATE
  2
AmdtDmMenuState
  3
AcMechDwgViewMgmt
 90
     1024
280
     0
281
     0
  0
CLASS
  1
AMDTAMMENUSTATE
  2
AmdtAmMenuState
  3
DesignerAssemblies
 90
     1024
280
     0
281
     0
  0
CLASS
  1
ACAMPROJECT
  2
AcAmProject
  3
DesignerAssemblies
 90
     1024
280
     0
281
     0
  0
CLASS
  1
ACAMGRCOMPDEF
  2
AcAmGrCompDef
  3
DesignerAssemblies
 90
     1024
280
     0
281
     0
  0
CLASS
  1
ACCMCONTEXT
  2
AcCmContext
  3
DesignerAssemblies
 90
    33792
280
     0
281
     0
  0
CLASS
  1
ACAMCOMPDEF
  2
AcAmCompDef
  3
DesignerAssemblies
 90
     1024
280
     0
281
     0
  0
CLASS
  1
ACAMCOMPDEFMGR
  2
AcAmCompDefMgr
  3
DesignerAssemblies
 90
     1024
280
     0
281
     0
  0
CLASS
  1
AMCONTEXTMGR
  2
AcAmContextMgr
  3
DesignerAssemblies
 90
     1024
280
     0
281
     0
  0
CLASS
  1
ACAMCONTEXTMODELER
  2
AcAmContextModeler
  3
DesignerAssemblies
 90
     1024
280
     0
281
     0
  0
CLASS
  1
ACMTHREADLINESTANDARDDIN
  2
AmdtThreadLineStdDIN
  3
"Amdt_StdImp|Product Description: AutoCAD Mechanical|Company: Autodesk, Inc."
 90
     1024
280
     0
281
     0
  0
CLASS
  1
ACMNOTESTANDARDDIN
  2
AmdtNoteStdDIN
  3
"Amdt_StdImp|Product Description: AutoCAD Mechanical|Company: Autodesk, Inc."
 90
     1024
280
     0
281
     0
  0
CLASS
  1
AMDTNOTETEMPLATEDB
  2
AmdtNoteTemplateDB
  3
AcmSymBB|Product Description: AutoCAD Mechanical|Company: Autodesk, Inc.
 90
     1024
280
     0
281
     0
  0
CLASS
  1
CATALOGSTATE
  2
AcAmCatalogState
  3
DesignerAssemblies
 90
     1024
280
     0
281
     0
  0
CLASS
  1
ACAMGRCOMPDEFSET
  2
AcAmGrCompDefSet
  3
DesignerAssemblies
 90
     1024
280
     0
281
     0
  0
CLASS
  1
AMDTBROWSERDBTAB
  2
AmdtBrowserDbTab
  3
McadcomServices
 90
     1024
280
     0
281
     0
  0
CLASS
  1
CBROWSERAPPOBJECT
  2
CBrowserAppObject
  3
McadcomServices
 90
     1024
280
     0
281
     0
  0
CLASS
  1
DM_PLACEHOLDER
  2
AcDmSelsetPlaceholder
  3
AcMechDwgViewMgmt
 90
     1024
280
     0
281
     0
  0
CLASS
  1
MATERIAL
  2
AcDbMaterial
  3
ObjectDBX Classes
 90
     1153
280
     0
281
     0
  0
CLASS
  1
VISUALSTYLE
  2
AcDbVisualStyle
  3
ObjectDBX Classes
 90
     4095
280
     0
281
     0
  0
CLASS
  1
SCALE
  2
AcDbScale
  3
ObjectDBX Classes
 90
     1153
280
     0
281
     0
  0
CLASS
  1
MLEADERSTYLE
  2
AcDbMLeaderStyle
  3
ACDB_MLEADERSTYLE_CLASS
 90
     4095
280
     0
281
     0
  0
CLASS
  1
CELLSTYLEMAP
  2
AcDbCellStyleMap
  3
ObjectDBX Classes
 90
     1152
280
     0
281
     0
  0
CLASS
  1
ACRFATTGENMGR
  2
AcRfAttGeneralMgr
  3
AcAttribServices
 90
    33792
280
     0
281
     0
  0
CLASS
  1
ACRFOBJATTMGR
  2
AcRfObjAttGroupMgr
  3
AcAttribServices
 90
    33792
280
     0
281
     0
  0
CLASS
  1
ACRFMCADAPIATTHOLDER
  2
AcRfMCADAPIAttHolder
  3
AcAttribServices
 90
    33792
280
     0
281
     0
  0
CLASS
  1
AMDTSYSATTR
  2
AmdtSystemAttribute
  3
AcAttribServices
 90
    33792
280
     0
281
     0
  0
CLASS
  1
ACMTAPERSTANDARDDIN
  2
AcmTaperStdDIN
  3
"Amdt_StdImp|Product Description: AutoCAD Mechanical|Company: Autodesk, Inc."
 90
     1024
280
     0
281
     0
  0
CLASS
  1
ACMANOOTATIONVIEWSTANDARDDIN
  2
AmdtAnViewStdDIN
  3
"Amdt_StdImp|Product Description: AutoCAD Mechanical|Company: Autodesk, Inc."
 90
     1024
280
     0
281
     0
  0
CLASS
  1
EXACXREFPANELOBJECT
  2
ExAcXREFPanelObject
  3
EXAC_ESW
 90
     1025
280
     0
281
     0
  0
CLASS
  1
NPOCOLLECTION
  2
AcDbImpNonPersistentObjectsCollection
  3
ObjectDBX Classes
 90
     1153
280
     0
281
     0
  0
CLASS
  1
IMAGE
  2
AcDbRasterImage
  3
ISM
 90
     2175
280
     0
281
     1
  0
CLASS
  1
IMAGEDEF_REACTOR
  2
AcDbRasterImageDefReactor
  3
ISM
 90
        1
280
     0
281
     0
  0
CLASS
  1
ACMDIMBREAKPERSREACTOR
  2
AcmDimBreakPersReactor
  3
AmgDim|Product Description: AutoCAD Mechanical|Company: Autodesk, Inc.
 90
    36863
280
     0
281
     0
  0
CLASS
  1
AMDTDETAILSYM
  2
AmdtDetailSym
  3
"AcmSymBB|Product Description: AutoCAD Mechanical|Company: Autodesk, Inc."
 90
    36863
280
     0
281
     1
  0
CLASS
  1
AMDTDETAILSYMLABEL
  2
AmdtDetailSymLabel
  3
"AcmSymBB|Product Description: AutoCAD Mechanical|Company: Autodesk, Inc."
 90
    36863
280
     0
281
     1
  0
CLASS
  1
SORTENTSTABLE
  2
AcDbSortentsTable
  3
ObjectDBX Classes
 90
        0
280
     0
281
     0
  0
CLASS
  1
IMAGEDEF
  2
AcDbRasterImageDef
  3
ISM
 90
        0
280
     0
281
     0
  0
CLASS
  1
ACAMGFILTERDAT
  2
AcAmgFilterDat
  3
"AcadM|Product Description: AutoCAD Mechanical|Company: Autodesk, Inc."
 90
    33792
280
     0
281
     0
  0
CLASS
  1
RASTERVARIABLES
  2
AcDbRasterVariables
  3
ISM
 90
        0
280
     0
281
     0
  0
CLASS
  1
ACMFCFRAME
  2
AcmFCF
  3
"AcmSymBB|Product Description: AutoCAD Mechanical|Company: Autodesk, Inc."
 90
    36863
280
     0
281
     1
  0
CLASS
  1
ACDBLINERES
  2
AcDbLineRes
  3
AcGrefServices
 90
    33792
280
     0
281
     0
  0
CLASS
  1
DIMASSOC
  2
AcDbDimAssoc
  3
"AcDbDimAssoc|Product Desc:     AcDim ARX App For Dimension|Company:          Autodesk, Inc.|WEB Address:      www.autodesk.com"
 90
    32768
280
     0
281
     0
  0
CLASS
  1
CAMSSTRUCTBTNSTATE
  2
StructBtnState
  3
DesignerAssemblies
 90
     1024
280
     0
281
     0
  0
CLASS
  1
AMDTEDGESTANDARDDIN13715
  2
AmdtEdgeStdDIN13715
  3
"Amdt_StdImp|Product Description: AutoCAD Mechanical|Company: Autodesk, Inc."
 90
     1024
280
     0
281
     0
  0
CLASS
  1
ACMSURFSTANDARDDIN2002
  2
AcmSurfTextStdDIN2002
  3
"Amdt_StdImp|Product Description: AutoCAD Mechanical|Company: Autodesk, Inc."
 90
     1024
280
     0
281
     0
  0
CLASS
  1
ACAMGHOLECHARTSTDDIN
  2
AcAmgHoleChartStdDIN
  3
AmgDim|Product Description: AutoCAD Mechanical|Company: Autodesk, Inc.
 90
     1024
280
     0
281
     0
  0
ENDSEC
  0
SECTION
  2
TABLES
  0
TABLE
  2
VPORT
  5
8
330
0
100
AcDbSymbolTable
 70
     1
  0
VPORT
  5
110
330
8
100
AcDbSymbolTableRecord
100
AcDbViewportTableRecord
  2
*Active
 70
     0
 10
0.0
 20
0.0
 11
1.0
 21
1.0
 12
872.8756739584129
 22
160.2234167096026
 13
0.0
 23
0.0
 14
2.5
 24
2.5
 15
10.0
 25
10.0
 16
0.0
 26
0.0
 36
1.0
 17
0.0
 27
0.0
 37
0.0
 40
718.3745659381771
 41
2.087105038428693
 42
50.0
 43
0.0
 44
0.0
 50
0.0
 51
0.0
 71
     0
 72
   100
 73
     1
 74
     3
 75
     0
 76
     0
 77
     0
 78
     0
281
     0
 65
     0
110
0.0
120
0.0
130
0.0
111
1.0
121
0.0
131
0.0
112
0.0
122
1.0
132
0.0
 79
     0
146
0.0
  0
ENDTAB
  0
TABLE
  2
LTYPE
  5
5
330
0
100
AcDbSymbolTable
 70
    28
  0
LTYPE
  5
14
330
5
100
AcDbSymbolTableRecord
100
AcDbLinetypeTableRecord
  2
ByBlock
 70
     0
  3

 72
    65
 73
     0
 40
0.0
  0
LTYPE
  5
15
330
5
100
AcDbSymbolTableRecord
100
AcDbLinetypeTableRecord
  2
ByLayer
 70
     0
  3

 72
    65
 73
     0
 40
0.0
  0
LTYPE
  5
16
330
5
100
AcDbSymbolTableRecord
100
AcDbLinetypeTableRecord
  2
Continuous
 70
     0
  3
Solid line
 72
    65
 73
     0
 40
0.0
  0
LTYPE
  5
52
330
5
100
AcDbSymbolTableRecord
100
AcDbLinetypeTableRecord
  2
Amconstr
 70
     0
  3
_______________________
 72
    65
 73
     2
 40
9999.0
 49
9999.0
 74
     0
 49
0.0
 74
     0
  0
LTYPE
  5
57
330
5
100
AcDbSymbolTableRecord
100
AcDbLinetypeTableRecord
  2
Amzigzag
 70
     0
  3
/\/-/\/-/\/-/\/-/\/-/\/
 72
    65
 73
     2
 40
11.0001
 49
0.0001
 74
     4
 75
   135
340
56
 46
0.04
 50
0.0
 44
0.0
 45
0.0
 49
-11.0
 74
     0
  0
LTYPE
  5
58
330
5
100
AcDbSymbolTableRecord
100
AcDbLinetypeTableRecord
  2
AM_DIN_F_W050
 70
     0
  3
__ __ __ __ __ __ __ __ __ __ __ __ __ __ __
 72
    65
 73
     2
 40
6.25
 49
4.75
 74
     0
 49
-1.5
 74
     0
  0
LTYPE
  5
59
330
5
100
AcDbSymbolTableRecord
100
AcDbLinetypeTableRecord
  2
AM_DIN_G_W050
 70
     0
  3
____ . ____ . ____ . ____ . ____ . ____ . ____
 72
    65
 73
     4
 40
13.75
 49
9.75
 74
     0
 49
-1.5
 74
     0
 49
1.0
 74
     0
 49
-1.5
 74
     0
  0
LTYPE
  5
5A
330
5
100
AcDbSymbolTableRecord
100
AcDbLinetypeTableRecord
  2
AM_DIN_K_W050
 70
     0
  3
_____ . . _____ . . _____ . . ____ .. ____
 72
    65
 73
     6
 40
16.25
 49
9.75
 74
     0
 49
-1.5
 74
     0
 49
1.0
 74
     0
 49
-1.5
 74
     0
 49
1.0
 74
     0
 49
-1.5
 74
     0
  0
LTYPE
  5
5B
330
5
100
AcDbSymbolTableRecord
100
AcDbLinetypeTableRecord
  2
AM_DIN_G_W050x2
 70
     0
  3
__ . __ . __ . __ . __ . __
 72
    65
 73
     4
 40
6.875
 49
4.75
 74
     0
 49
-0.875
 74
     0
 49
0.375
 74
     0
 49
-0.875
 74
     0
  0
LTYPE
  5
5C
330
5
100
AcDbSymbolTableRecord
100
AcDbLinetypeTableRecord
  2
AM_DIN_F_W050x2
 70
     0
  3
 _ _ _ _ _ _ _ _ _ _ _ _
 72
    65
 73
     2
 40
3.125
 49
2.25
 74
     0
 49
-0.875
 74
     0
  0
LTYPE
  5
69
330
5
100
AcDbSymbolTableRecord
100
AcDbLinetypeTableRecord
  2
ACDINWELD
 70
     0
  3
_ _ _ _ _
 72
    65
 73
     2
 40
2.0
 49
2.0
 74
     0
 49
-1.0
 74
     0
  0
LTYPE
  5
6A
330
5
100
AcDbSymbolTableRecord
100
AcDbLinetypeTableRecord
  2
ACDINTGB
 70
     0
  3
__ . . __ . .
 72
    65
 73
     6
 40
9.0
 49
4.0
 74
     0
 49
-1.0
 74
     0
 49
1.0
 74
     0
 49
-1.0
 74
     0
 49
1.0
 74
     0
 49
-1.0
 74
     0
  0
LTYPE
  5
6B
330
5
100
AcDbSymbolTableRecord
100
AcDbLinetypeTableRecord
  2
ACDINTGL
 70
     0
  3
_ _ _ _ _
 72
    65
 73
     2
 40
3.0
 49
2.0
 74
     0
 49
-1.0
 74
     0
  0
LTYPE
  5
6D
330
5
100
AcDbSymbolTableRecord
100
AcDbLinetypeTableRecord
  2
CENTER
 70
     0
  3
__ . __
 72
    65
 73
     4
 40
7.0
 49
4.0
 74
     0
 49
-1.0
 74
     0
 49
1.0
 74
     0
 49
-1.0
 74
     0
  0
LTYPE
  5
18A
330
5
100
AcDbSymbolTableRecord
100
AcDbLinetypeTableRecord
  2
HIDDEN
 70
     0
  3
Verdeckt
 72
    65
 73
     2
 40
9.525
 49
6.349999999999997
 74
     0
 49
-3.174999999999998
 74
     0
  0
LTYPE
  5
18B
330
5
100
AcDbSymbolTableRecord
100
AcDbLinetypeTableRecord
  2
PHANTOM2
 70
     0
  3
Phantom (.5x) ___ _ _ ___ _ _ ___ _ _ ___ _ _
 72
    65
 73
     6
 40
31.75
 49
15.875
 74
     0
 49
-3.174999999999998
 74
     0
 49
3.174999999999998
 74
     0
 49
-3.174999999999998
 74
     0
 49
3.174999999999998
 74
     0
 49
-3.174999999999998
 74
     0
  0
LTYPE
  5
3D2
330
5
100
AcDbSymbolTableRecord
100
AcDbLinetypeTableRecord
  2
GEN7
 70
     0
  3
____ . ____ . ____ . ____ . ____ . ____ . ____
 72
    65
 73
     4
 40
13.75
 49
10.0
 74
     0
 49
-1.25
 74
     0
 49
1.25
 74
     0
 49
-1.25
 74
     0
  0
LTYPE
  5
3D3
330
5
100
AcDbSymbolTableRecord
100
AcDbLinetypeTableRecord
  2
AM_ISO08W050
 70
     0
  3
____ . ____ . ____ . ____ . ____ . ____ . ____
 72
    65
 73
     4
 40
18.0
 49
12.0
 74
     0
 49
-1.5
 74
     0
 49
3.0
 74
     0
 49
-1.5
 74
     0
  0
LTYPE
  5
3D4
330
5
100
AcDbSymbolTableRecord
100
AcDbLinetypeTableRecord
  2
AM_ISO02W050
 70
     0
  3
__ __ __ __ __ __ __ __ __ __ __ __ __ __ __
 72
    65
 73
     2
 40
7.5
 49
6.0
 74
     0
 49
-1.5
 74
     0
  0
LTYPE
  5
3D5
330
5
100
AcDbSymbolTableRecord
100
AcDbLinetypeTableRecord
  2
gen3
 70
     0
  3
-- -- -- -- -- -- -- -- -- -- -- -- -- -- --
 72
    65
 73
     2
 40
6.25
 49
4.75
 74
     0
 49
-1.5
 74
     0
  0
LTYPE
  5
3D6
330
5
100
AcDbSymbolTableRecord
100
AcDbLinetypeTableRecord
  2
gen3a
 70
     0
  3
 - - - - -
 72
    65
 73
     2
 40
3.125
 49
2.25
 74
     0
 49
-0.875
 74
     0
  0
LTYPE
  5
3D7
330
5
100
AcDbSymbolTableRecord
100
AcDbLinetypeTableRecord
  2
gen7a
 70
     0
  3
__ . __ . __
 72
    65
 73
     4
 40
6.875
 49
4.75
 74
     0
 49
-0.875
 74
     0
 49
0.375
 74
     0
 49
-0.875
 74
     0
  0
LTYPE
  5
3D8
330
5
100
AcDbSymbolTableRecord
100
AcDbLinetypeTableRecord
  2
gen4a
 70
     0
  3
_____ . . _____ . . _____ . . ____ .. ____
 72
    65
 73
     6
 40
16.25
 49
9.75
 74
     0
 49
-1.5
 74
     0
 49
1.0
 74
     0
 49
-1.5
 74
     0
 49
1.0
 74
     0
 49
-1.5
 74
     0
  0
LTYPE
  5
3D9
330
5
100
AcDbSymbolTableRecord
100
AcDbLinetypeTableRecord
  2
genzigzag
 70
     0
  3
/\/-/\/-/\/-/\/-/\/-/\/
 72
    65
 73
     2
 40
12.0001
 49
0.0001
 74
     4
 75
   135
340
3F8
 46
2.0
 50
0.0
 44
0.0
 45
0.0
 49
-12.0
 74
     0
  0
LTYPE
  5
3DA
330
5
100
AcDbSymbolTableRecord
100
AcDbLinetypeTableRecord
  2
AUSGEZOGEN
 70
     0
  3
Ausgezogene Linie
 72
    65
 73
     0
 40
0.0
  0
LTYPE
  5
3DB
330
5
100
AcDbSymbolTableRecord
100
AcDbLinetypeTableRecord
  2
STRICHPUNKT
 70
     0
  3
__ . __ . __ . __ . __ . __ . __ . __ . __ . __
 72
    65
 73
     4
 40
1.0
 49
0.5
 74
     0
 49
-0.25
 74
     0
 49
0.0
 74
     0
 49
-0.25
 74
     0
  0
LTYPE
  5
BB1
330
5
100
AcDbSymbolTableRecord
100
AcDbLinetypeTableRecord
  2
VERDECKT2
 70
     0
  3
Verdeckt (.5x) _ _ _ _ _ _ _ _ _ _ _ _ _ _ _ _ _
 72
    65
 73
     2
 40
4.762499999999998
 49
3.174999999999998
 74
     0
 49
-1.587499999999999
 74
     0
  0
LTYPE
  5
12BB
330
5
100
AcDbSymbolTableRecord
100
AcDbLinetypeTableRecord
  2
AM_ISO09W050
 70
     0
  3
_____ . . _____ . . _____ . . ____ .. ____
 72
    65
 73
     6
 40
22.5
 49
12.0
 74
     0
 49
-1.5
 74
     0
 49
3.0
 74
     0
 49
-1.5
 74
     0
 49
3.0
 74
     0
 49
-1.5
 74
     0
  0
LTYPE
  5
12BC
330
5
100
AcDbSymbolTableRecord
100
AcDbLinetypeTableRecord
  2
AM_ISO08W050x2
 70
     0
  3
__ . __ . __ . __ . __ . __
 72
    65
 73
     4
 40
9.0
 49
6.0
 74
     0
 49
-0.75
 74
     0
 49
1.5
 74
     0
 49
-0.75
 74
     0
  0
LTYPE
  5
12BD
330
5
100
AcDbSymbolTableRecord
100
AcDbLinetypeTableRecord
  2
AM_ISO02W050x2
 70
     0
  3
 _ _ _ _ _ _ _ _ _ _ _ _
 72
    65
 73
     2
 40
3.75
 49
3.0
 74
     0
 49
-0.75
 74
     0
  0
ENDTAB
  0
TABLE
  2
LAYER
  5
2
102
{ACAD_XDICTIONARY
360
417
102
}
330
0
100
AcDbSymbolTable
 70
    31
  0
LAYER
  5
10
102
{ACAD_XDICTIONARY
360
165
102
}
330
2
100
AcDbSymbolTableRecord
100
AcDbLayerTableRecord
  2
0
 70
     0
 62
     7
  6
Continuous
370
    -3
390
F
  0
LAYER
  5
3DC
102
{ACAD_XDICTIONARY
360
3DD
102
}
330
2
100
AcDbSymbolTableRecord
100
AcDbLayerTableRecord
  2
RAHM2
 70
     0
 62
     1
  6
Continuous
370
    -3
390
F
  0
LAYER
  5
3DE
102
{ACAD_XDICTIONARY
360
3DF
102
}
330
2
100
AcDbSymbolTableRecord
100
AcDbLayerTableRecord
  2
6
 70
     0
 62
     2
  6
Continuous
370
    -3
390
F
  0
LAYER
  5
3E0
102
{ACAD_XDICTIONARY
360
3E1
102
}
330
2
100
AcDbSymbolTableRecord
100
AcDbLayerTableRecord
  2
7
 70
     0
 62
     4
  6
GEN7
370
    -3
390
F
  0
LAYER
  5
3E2
102
{ACAD_XDICTIONARY
360
3E3
102
}
330
2
100
AcDbSymbolTableRecord
100
AcDbLayerTableRecord
  2
5
 70
     0
 62
     3
  6
Continuous
370
    -3
390
F
  0
LAYER
  5
3E4
330
2
100
AcDbSymbolTableRecord
100
AcDbLayerTableRecord
  2
DEFPOINTS
 70
     0
 62
     7
  6
Continuous
290
     0
370
    -3
390
F
  0
LAYER
  5
3E5
102
{ACAD_XDICTIONARY
360
3E6
102
}
330
2
100
AcDbSymbolTableRecord
100
AcDbLayerTableRecord
  2
0N
 70
     0
 62
     7
  6
Continuous
370
    -3
390
F
1001
AcAecLayerStandard
1000

1000

  0
LAYER
  5
3E7
102
{ACAD_XDICTIONARY
360
3E8
102
}
330
2
100
AcDbSymbolTableRecord
100
AcDbLayerTableRecord
  2
RAHM3
 70
     0
 62
     2
  6
Continuous
370
    -3
390
F
1001
AcAecLayerStandard
1000

1000

  0
LAYER
  5
3E9
102
{ACAD_XDICTIONARY
360
3EA
102
}
330
2
100
AcDbSymbolTableRecord
100
AcDbLayerTableRecord
  2
TEXT25
 70
     0
 62
     3
  6
Continuous
370
    -3
390
F
  0
LAYER
  5
3EB
102
{ACAD_XDICTIONARY
360
3EC
102
}
330
2
100
AcDbSymbolTableRecord
100
AcDbLayerTableRecord
  2
KOPF
 70
     0
 62
     1
  6
AUSGEZOGEN
370
    -3
390
F
  0
LAYER
  5
3ED
102
{ACAD_XDICTIONARY
360
3EE
102
}
330
2
100
AcDbSymbolTableRecord
100
AcDbLayerTableRecord
  2
Sperrlayer
 70
     0
 62
    -7
  6
Continuous
290
     0
370
    50
390
F
  0
LAYER
  5
3EF
330
2
100
AcDbSymbolTableRecord
100
AcDbLayerTableRecord
  2
4
 70
     0
 62
     3
  6
Continuous
370
    -3
390
F
1001
AcAecLayerStandard
1000

1000

  0
LAYER
  5
3F0
330
2
100
AcDbSymbolTableRecord
100
AcDbLayerTableRecord
  2
7A
 70
     0
 62
     4
  6
gen7a
370
    -3
390
F
1001
AcAecLayerStandard
1000

1000

  0
LAYER
  5
3F1
102
{ACAD_XDICTIONARY
360
3F2
102
}
330
2
100
AcDbSymbolTableRecord
100
AcDbLayerTableRecord
  2
MITTE
 70
     0
 62
     1
  6
STRICHPUNKT
370
    -3
390
F
  0
LAYER
  5
3F3
102
{ACAD_XDICTIONARY
360
3F4
102
}
330
2
100
AcDbSymbolTableRecord
100
AcDbLayerTableRecord
  2
TEXT50
 70
     0
 62
     7
  6
Continuous
370
    -3
390
F
  0
LAYER
  5
3F5
102
{ACAD_XDICTIONARY
360
3F6
102
}
330
2
100
AcDbSymbolTableRecord
100
AcDbLayerTableRecord
  2
TEXT35
 70
     0
 62
   132
  6
Continuous
370
    -3
390
F
  0
LAYER
  5
3F7
330
2
100
AcDbSymbolTableRecord
100
AcDbLayerTableRecord
  2
RUNDUNGEN
 70
     0
 62
     7
  6
Continuous
370
    -3
390
F
  0
LAYER
  5
860
102
{ACAD_XDICTIONARY
360
861
102
}
330
2
100
AcDbSymbolTableRecord
100
AcDbLayerTableRecord
  2
AM_CL
 70
     0
 62
     1
  6
Amconstr
370
    25
390
F
1001
AcAecLayerStandard
1000

1000

  0
LAYER
  5
862
102
{ACAD_XDICTIONARY
360
863
102
}
330
2
100
AcDbSymbolTableRecord
100
AcDbLayerTableRecord
  2
AM_BOR
 70
     0
 62
     7
  6
Continuous
370
    50
390
F
1001
AcAecLayerStandard
1000

1000

  0
LAYER
  5
864
102
{ACAD_XDICTIONARY
360
865
102
}
330
2
100
AcDbSymbolTableRecord
100
AcDbLayerTableRecord
  2
4A
 70
     0
 62
     3
  6
AM_DIN_K_W050
370
    -3
390
F
  0
LAYER
  5
866
102
{ACAD_XDICTIONARY
360
867
102
}
330
2
100
AcDbSymbolTableRecord
100
AcDbLayerTableRecord
  2
AM_0
 70
     0
 62
     7
  6
Continuous
370
    50
390
F
  0
LAYER
  5
868
102
{ACAD_XDICTIONARY
360
869
102
}
330
2
100
AcDbSymbolTableRecord
100
AcDbLayerTableRecord
  2
AM_7
 70
     0
 62
     4
  6
AM_DIN_G_W050
370
    25
390
F
1001
AcAecLayerStandard
1000

1000

  0
LAYER
  5
86A
102
{ACAD_XDICTIONARY
360
86B
102
}
330
2
100
AcDbSymbolTableRecord
100
AcDbLayerTableRecord
  2
AM_5
 70
     0
 62
     3
  6
Continuous
370
    25
390
F
1001
AcAecLayerStandard
1000

1000

  0
LAYER
  5
86C
102
{ACAD_XDICTIONARY
360
86D
102
}
330
2
100
AcDbSymbolTableRecord
100
AcDbLayerTableRecord
  2
AM_4
 70
     0
 62
     3
  6
Continuous
370
    25
390
F
1001
AcAecLayerStandard
1000

1000

  0
LAYER
  5
86E
330
2
100
AcDbSymbolTableRecord
100
AcDbLayerTableRecord
  2
WHITE
 70
     0
 62
     7
  6
Continuous
370
    -3
390
F
  0
LAYER
  5
86F
330
2
100
AcDbSymbolTableRecord
100
AcDbLayerTableRecord
  2
AM_8
 70
     0
 62
     1
  6
Continuous
370
    25
390
F
  0
LAYER
  5
BB0
330
2
100
AcDbSymbolTableRecord
100
AcDbLayerTableRecord
  2
verdeckt
 70
     0
 62
     6
  6
VERDECKT2
370
    -3
390
F
1001
AcAecLayerStandard
1000

1000

  0
LAYER
  5
1072
330
2
100
AcDbSymbolTableRecord
100
AcDbLayerTableRecord
  2
AM_9
 70
     0
 62
  -253
  6
Continuous
370
     0
390
F
1001
AcAecLayerStandard
1000

1000

  0
LAYER
  5
18AE
330
2
100
AcDbSymbolTableRecord
100
AcDbLayerTableRecord
  2
BEZUGSACHSEN
 70
     0
 62
     7
  6
Continuous
370
    -3
390
F
  0
LAYER
  5
18AF
330
2
100
AcDbSymbolTableRecord
100
AcDbLayerTableRecord
  2
FASEN
 70
     0
 62
     7
  6
Continuous
370
    -3
390
F
  0
LAYER
  5
18B0
330
2
100
AcDbSymbolTableRecord
100
AcDbLayerTableRecord
  2
P-0000
 70
     0
 62
     7
  6
Continuous
370
    -3
390
F
  0
ENDTAB
  0
TABLE
  2
STYLE
  5
3
330
0
100
AcDbSymbolTable
 70
     9
  0
STYLE
  5
11
330
3
100
AcDbSymbolTableRecord
100
AcDbTextStyleTableRecord
  2
STANDARD
 70
     0
 40
0.0
 41
1.0
 50
0.0
 71
     0
 42
2.5
  3
ISOCP.SHX
  4

  0
STYLE
  5
56
330
3
100
AcDbSymbolTableRecord
100
AcDbTextStyleTableRecord
  2

 70
     1
 40
0.0
 41
1.0
 50
0.0
 71
     0
 42
2.5
  3
ltypeshp.shx
  4

  0
STYLE
  5
5D
330
3
100
AcDbSymbolTableRecord
100
AcDbTextStyleTableRecord
  2
ACDINTS
 70
     0
 40
1.0
 41
1.0
 50
0.0
 71
     0
 42
2.5
  3
isocp.shx
  4

  0
STYLE
  5
68
330
3
100
AcDbSymbolTableRecord
100
AcDbTextStyleTableRecord
  2
ACDINGDT
 70
     0
 40
0.0
 41
1.0
 50
0.0
 71
     0
 42
2.5
  3
amgdt.shx
  4

  0
STYLE
  5
3F8
330
3
100
AcDbSymbolTableRecord
100
AcDbTextStyleTableRecord
  2

 70
     1
 40
0.0
 41
1.0
 50
0.0
 71
     0
 42
2.5
  3
genltshp.shx
  4

  0
STYLE
  5
3F9
330
3
100
AcDbSymbolTableRecord
100
AcDbTextStyleTableRecord
  2
TEXT20
 70
     0
 40
2.0
 41
0.8
 50
0.0
 71
     0
 42
2.0
  3
isocp3.shx
  4

  0
STYLE
  5
3FA
330
3
100
AcDbSymbolTableRecord
100
AcDbTextStyleTableRecord
  2
Anschrift
 70
     0
 40
0.0
 41
1.0
 50
0.0
 71
     0
 42
2.0
  3
LT_50112.ttf
  4

1001
ACAD
1000
News Gothic
1071
 33554434
  0
STYLE
  5
3FB
330
3
100
AcDbSymbolTableRecord
100
AcDbTextStyleTableRecord
  2
TEXT35
 70
     0
 40
3.5
 41
0.8
 50
0.0
 71
     0
 42
3.5
  3
isocp3.shx
  4

  0
STYLE
  5
3FC
330
3
100
AcDbSymbolTableRecord
100
AcDbTextStyleTableRecord
  2
TEXT50
 70
     0
 40
5.0
 41
0.8
 50
0.0
 71
     0
 42
5.0
  3
isocp3.shx
  4

  0
ENDTAB
  0
TABLE
  2
VIEW
  5
6
330
0
100
AcDbSymbolTable
 70
     0
  0
ENDTAB
  0
TABLE
  2
UCS
  5
7
330
0
100
AcDbSymbolTable
 70
     0
  0
ENDTAB
  0
TABLE
  2
APPID
  5
9
330
0
100
AcDbSymbolTable
 70
    39
  0
APPID
  5
12
330
9
100
AcDbSymbolTableRecord
100
AcDbRegAppTableRecord
  2
ACAD
 70
     0
  0
APPID
  5
30
330
9
100
AcDbSymbolTableRecord
100
AcDbRegAppTableRecord
  2
MCAD_NO_VIS
 70
     0
  0
APPID
  5
31
330
9
100
AcDbSymbolTableRecord
100
AcDbRegAppTableRecord
  2
ACAD_TEMP_GRAPHIC
 70
     0
  0
APPID
  5
44
330
9
100
AcDbSymbolTableRecord
100
AcDbRegAppTableRecord
  2
ACATTRIBSERVICES
 70
     0
  0
APPID
  5
CE
330
9
100
AcDbSymbolTableRecord
100
AcDbRegAppTableRecord
  2
AD_DRAW
 70
     0
  0
APPID
  5
EC
330
9
100
AcDbSymbolTableRecord
100
AcDbRegAppTableRecord
  2
DESIGNERASSEMBLIES
 70
     0
  0
APPID
  5
F6
330
9
100
AcDbSymbolTableRecord
100
AcDbRegAppTableRecord
  2
ACAD_DSTYLE_DIMARC_LENGTH_SYMBOL
 70
     0
  0
APPID
  5
F7
330
9
100
AcDbSymbolTableRecord
100
AcDbRegAppTableRecord
  2
ACAD_DSTYLE_DIMJOGGED_JOGANGLE_SYMBOL
 70
     0
  0
APPID
  5
107
330
9
100
AcDbSymbolTableRecord
100
AcDbRegAppTableRecord
  2
ACADM_DIM_EDIT
 70
     0
  0
APPID
  5
108
330
9
100
AcDbSymbolTableRecord
100
AcDbRegAppTableRecord
  2
AMDT_DM_ADJ
 70
     0
  0
APPID
  5
15F
330
9
100
AcDbSymbolTableRecord
100
AcDbRegAppTableRecord
  2
ACAD_MLEADERVER
 70
     0
  0
APPID
  5
401
330
9
100
AcDbSymbolTableRecord
100
AcDbRegAppTableRecord
  2
GENIUS_VERSION2
 70
     0
  0
APPID
  5
402
330
9
100
AcDbSymbolTableRecord
100
AcDbRegAppTableRecord
  2
GENIUS_GENODEF_13
 70
     0
  0
APPID
  5
403
330
9
100
AcDbSymbolTableRecord
100
AcDbRegAppTableRecord
  2
GENIUS_GENOREF_13
 70
     0
  0
APPID
  5
404
330
9
100
AcDbSymbolTableRecord
100
AcDbRegAppTableRecord
  2
GENIUS_GENOBJ-N-SDF_13
 70
     0
  0
APPID
  5
405
330
9
100
AcDbSymbolTableRecord
100
AcDbRegAppTableRecord
  2
GENIUS_GENDTOL_13
 70
     0
  0
APPID
  5
406
330
9
100
AcDbSymbolTableRecord
100
AcDbRegAppTableRecord
  2
GENIUS_GENOBJ-N-REC_13
 70
     0
  0
APPID
  5
407
330
9
100
AcDbSymbolTableRecord
100
AcDbRegAppTableRecord
  2
GENIUS_GENREC_14
 70
     0
  0
APPID
  5
408
330
9
100
AcDbSymbolTableRecord
100
AcDbRegAppTableRecord
  2
GENIUS_GENTRA_14
 70
     0
  0
APPID
  5
409
330
9
100
AcDbSymbolTableRecord
100
AcDbRegAppTableRecord
  2
GENIUS_GENOENT_13
 70
     0
  0
APPID
  5
40A
330
9
100
AcDbSymbolTableRecord
100
AcDbRegAppTableRecord
  2
ACAD_PSEXT
 70
     0
  0
APPID
  5
40B
330
9
100
AcDbSymbolTableRecord
100
AcDbRegAppTableRecord
  2
AcAecLayerStandard
 70
     0
  0
APPID
  5
40C
330
9
100
AcDbSymbolTableRecord
100
AcDbRegAppTableRecord
  2
GENIUS_GENOLIS_13
 70
     0
  0
APPID
  5
40D
330
9
100
AcDbSymbolTableRecord
100
AcDbRegAppTableRecord
  2
ACAD_DSTYLE_DIMINSPECT
 70
     0
  0
APPID
  5
40E
330
9
100
AcDbSymbolTableRecord
100
AcDbRegAppTableRecord
  2
GENIUS_GENOBJ-N-TIT_13
 70
     0
  0
APPID
  5
40F
330
9
100
AcDbSymbolTableRecord
100
AcDbRegAppTableRecord
  2
GENIUS_GENTITLE_13
 70
     0
  0
APPID
  5
410
330
9
100
AcDbSymbolTableRecord
100
AcDbRegAppTableRecord
  2
GENIUS_GENSCREG_15
 70
     0
  0
APPID
  5
411
330
9
100
AcDbSymbolTableRecord
100
AcDbRegAppTableRecord
  2
GENIUS_GENOBJ-N-CEN_13
 70
     0
  0
APPID
  5
412
330
9
100
AcDbSymbolTableRecord
100
AcDbRegAppTableRecord
  2
ACAD_DSTYLE_DIMRADIAL_EXTENSION
 70
     0
  0
APPID
  5
413
330
9
100
AcDbSymbolTableRecord
100
AcDbRegAppTableRecord
  2
GENIUS_GENCEN_19
 70
     0
  0
APPID
  5
414
330
9
100
AcDbSymbolTableRecord
100
AcDbRegAppTableRecord
  2
GENIUS_GENOBJ-N-ZOO_13
 70
     0
  0
APPID
  5
415
330
9
100
AcDbSymbolTableRecord
100
AcDbRegAppTableRecord
  2
GENIUS_GENZOO_17
 70
     0
  0
APPID
  5
416
330
9
100
AcDbSymbolTableRecord
100
AcDbRegAppTableRecord
  2
GENIUS_GENOBJ-N-CRS_13
 70
     0
  0
APPID
  5
871
330
9
100
AcDbSymbolTableRecord
100
AcDbRegAppTableRecord
  2
GENIUS_GENOBJ-N-HTC_13
 70
     0
  0
APPID
  5
872
330
9
100
AcDbSymbolTableRecord
100
AcDbRegAppTableRecord
  2
GENIUS_GENHATCH_13
 70
     0
  0
APPID
  5
BB5
330
9
100
AcDbSymbolTableRecord
100
AcDbRegAppTableRecord
  2
ACAD_EXEMPT_FROM_CAD_STANDARDS
 70
     0
  0
APPID
  5
11F6
330
9
100
AcDbSymbolTableRecord
100
AcDbRegAppTableRecord
  2
GENIUS_GENZOO_16
 70
     0
  0
APPID
  5
12B7
330
9
100
AcDbSymbolTableRecord
100
AcDbRegAppTableRecord
  2
ACAD_DSTYLE_DIMBREAK
 70
     0
  0
APPID
  5
12B8
330
9
100
AcDbSymbolTableRecord
100
AcDbRegAppTableRecord
  2
ACAD_DSTYLE_DIMJAG
 70
     0
  0
ENDTAB
  0
TABLE
  2
DIMSTYLE
  5
A
330
0
100
AcDbSymbolTable
 70
    14
100
AcDbDimStyleTable
 71
     2
340
70
340
18B2
  0
DIMSTYLE
105
70
102
{ACAD_REACTORS
330
22CA
102
}
330
A
100
AcDbSymbolTableRecord
100
AcDbDimStyleTableRecord
  2
AM_DIN
 70
     0
  4
"
 41
2.5
 42
1.0
 43
10.0
 44
1.0
 47
0.1
 48
0.1
 73
     0
 74
     0
 77
     1
 78
     8
 79
     2
140
3.5
141
0.0
143
0.0393701
146
0.71
147
1.5
172
     1
176
   256
177
   256
178
     2
271
     2
272
     3
274
     4
283
     0
284
     8
340
11
371
    -1
372
    -1
1001
ACAD_DSTYLE_DIMJOGGED_JOGANGLE_SYMBOL
1070
   384
1040
1.570796326794896
  0
DIMSTYLE
105
71
330
A
100
AcDbSymbolTableRecord
100
AcDbDimStyleTableRecord
  2
AM_DIN$3
 70
     0
  4
"
 41
2.5
 42
1.0
 43
10.0
 44
1.0
 47
0.1
 48
0.1
 73
     0
 77
     1
 78
     8
 79
     2
140
3.5
141
0.0
143
0.0393701
146
0.71
147
1.5
176
   256
177
   256
178
     2
271
     2
272
     3
274
     4
283
     0
284
     8
288
     1
289
     0
340
11
371
    -1
372
    -1
1001
ACAD_DSTYLE_DIMJOGGED_JOGANGLE_SYMBOL
1070
   384
1040
1.570796326794896
  0
DIMSTYLE
105
72
330
A
100
AcDbSymbolTableRecord
100
AcDbDimStyleTableRecord
  2
AM_DIN$4
 70
     0
  4
"
 41
2.5
 42
1.0
 43
10.0
 44
1.0
 47
0.1
 48
0.1
 73
     0
 77
     1
 78
     8
 79
     2
140
3.5
141
0.0
143
0.0393701
146
0.71
147
1.5
176
   256
177
   256
178
     2
271
     2
272
     3
274
     4
283
     0
284
     8
288
     1
289
     0
340
11
371
    -1
372
    -1
1001
ACAD_DSTYLE_DIMJOGGED_JOGANGLE_SYMBOL
1070
   384
1040
1.570796326794896
  0
DIMSTYLE
105
73
330
A
100
AcDbSymbolTableRecord
100
AcDbDimStyleTableRecord
  2
AM_DIN$6
 70
     0
  4
"
 41
2.5
 42
1.0
 43
10.0
 44
1.0
 47
0.1
 48
0.1
 73
     0
 74
     0
 78
     8
 79
     2
140
3.5
141
0.0
143
0.0393701
146
0.71
147
1.5
172
     1
176
   256
177
   256
178
     2
271
     2
272
     3
274
     4
283
     0
284
     8
340
11
371
    -1
372
    -1
1001
ACAD_DSTYLE_DIMJOGGED_JOGANGLE_SYMBOL
1070
   384
1040
1.570796326794896
  0
DIMSTYLE
105
74
330
A
100
AcDbSymbolTableRecord
100
AcDbDimStyleTableRecord
  2
AM_DIN$7
 70
     0
  4
"
 41
2.5
 42
1.0
 43
10.0
 44
1.0
 47
0.1
 48
0.1
 73
     0
 74
     0
 77
     1
 78
     8
 79
     2
140
5.0
141
0.0
143
0.0393701
146
0.71
147
1.5
172
     1
176
   256
177
   256
178
     2
271
     2
272
     3
274
     4
283
     0
284
     8
340
11
371
    -1
372
    -1
1001
ACAD_DSTYLE_DIMJOGGED_JOGANGLE_SYMBOL
1070
   384
1040
1.570796326794896
  0
DIMSTYLE
105
75
330
A
100
AcDbSymbolTableRecord
100
AcDbDimStyleTableRecord
  2
AM_DIN$SF
 70
     0
  4
"
 41
2.5
 42
1.0
 43
10.0
 44
1.0
 47
0.1
 48
0.1
 73
     0
 74
     0
 75
     1
 76
     1
 77
     1
 78
     8
 79
     2
140
3.5
141
0.0
143
0.0393701
146
0.71
147
1.5
172
     1
176
   256
177
   256
178
     2
271
     2
272
     3
274
     4
283
     0
284
     8
340
11
371
    -1
372
    -1
1001
ACAD_DSTYLE_DIMJOGGED_JOGANGLE_SYMBOL
1070
   384
1040
1.570796326794896
  0
DIMSTYLE
105
7A
330
A
100
AcDbSymbolTableRecord
100
AcDbDimStyleTableRecord
  2
AM_DIN$SH
 70
     0
  4
"
 41
2.5
 42
1.0
 43
10.0
 44
1.0
 47
0.1
 48
0.1
 73
     0
 74
     0
 75
     1
 76
     1
 77
     1
 78
     8
 79
     2
140
3.5
141
0.0
143
0.0393701
144
2.0
146
0.71
147
1.5
172
     1
173
     1
176
   256
177
   256
178
     2
271
     2
272
     3
274
     4
283
     0
284
     8
340
11
343
76
371
    -1
372
    -1
1001
ACAD_DSTYLE_DIMJOGGED_JOGANGLE_SYMBOL
1070
   384
1040
1.570796326794896
  0
DIMSTYLE
105
3FD
330
A
100
AcDbSymbolTableRecord
100
AcDbDimStyleTableRecord
  2
GEN-ISO
 70
     0
  3
<>
  4
"
 40
5.0
 41
2.5
 42
1.0
 43
7.0
 44
1.0
 47
0.1
 48
0.1
 73
     0
 74
     0
 77
     1
 78
     8
140
3.5
141
0.0
143
0.0393701
146
0.71
147
0.6
172
     1
176
   256
177
   256
178
     2
271
     2
272
     3
274
     4
283
     0
340
11
  0
DIMSTYLE
105
3FE
330
A
100
AcDbSymbolTableRecord
100
AcDbDimStyleTableRecord
  2
GEN-ISO$0
 70
     0
  3
<>
  4
"
 40
5.0
 41
2.5
 42
1.0
 43
7.0
 44
1.0
 47
0.1
 48
0.1
 73
     0
 74
     0
 77
     1
 78
     8
140
3.5
141
0.0
143
0.0393701
146
0.71
147
0.6
172
     1
176
   256
177
   256
178
     2
271
     2
272
     3
274
     4
283
     0
340
11
  0
DIMSTYLE
105
3FF
330
A
100
AcDbSymbolTableRecord
100
AcDbDimStyleTableRecord
  2
GEN-ISO$2
 70
     0
  3
<>
  4
"
 40
5.0
 41
2.5
 42
1.0
 43
7.0
 44
1.0
 47
0.1
 48
0.1
 73
     0
 74
     0
 77
     1
 78
     8
140
3.5
141
0.0
143
0.0393701
146
0.71
147
0.6
172
     1
176
   256
177
   256
178
     2
271
     2
272
     3
274
     4
283
     0
340
11
  0
DIMSTYLE
105
400
330
A
100
AcDbSymbolTableRecord
100
AcDbDimStyleTableRecord
  2
GEN-ISO$4
 70
     0
  3
<>
  4
"
 40
5.0
 41
2.5
 42
1.0
 43
7.0
 44
1.0
 47
0.1
 48
0.1
 73
     0
 74
     0
 77
     1
 78
     8
140
3.5
141
0.0
143
0.0393701
146
0.71
147
0.6
172
     1
176
   256
177
   256
178
     2
271
     2
272
     3
274
     4
283
     0
340
11
  0
DIMSTYLE
105
870
330
A
100
AcDbSymbolTableRecord
100
AcDbDimStyleTableRecord
  2
AM_DIN$0
 70
     0
  4
"
 41
2.5
 42
1.0
 43
10.0
 44
1.0
 47
0.1
 48
0.1
 73
     0
 74
     0
 77
     1
 78
     8
 79
     2
140
3.5
141
0.0
143
0.0393701
146
0.71
147
1.5
172
     1
176
   256
177
   256
178
     2
271
     2
272
     3
274
     4
283
     0
284
     8
340
11
371
    -1
372
    -1
1001
ACAD_DSTYLE_DIMJOGGED_JOGANGLE_SYMBOL
1070
   384
1040
1.570796326794896
  0
DIMSTYLE
105
18B1
330
A
100
AcDbSymbolTableRecord
100
AcDbDimStyleTableRecord
  2
STANDARD
 70
     0
 41
3.5
 42
1.5
 44
1.5
 47
0.005
 48
0.005
 71
     1
 73
     0
 74
     0
 77
     1
 78
     8
140
3.5
147
0.625
178
     5
271
     3
272
     3
284
     8
340
11
341
186B
342
186B
343
186B
344
186B
  0
DIMSTYLE
105
18B2
102
{ACAD_REACTORS
330
9E3
330
EE6
330
EB5
330
1485
330
17EB
102
}
330
A
100
AcDbSymbolTableRecord
100
AcDbDimStyleTableRecord
  2
883N99122_001_00149479900
 70
     0
 40
2.0
 41
3.149999999999999
 42
0.0
 43
3.75
 44
2.0
 73
     0
 74
     0
 77
     1
 78
     8
 79
     2
140
3.5
141
0.0
143
0.03937007874016
145
2.0
147
2.0
171
     3
172
     1
173
     1
176
     3
177
     3
178
     2
179
     2
271
     2
272
     2
274
     3
283
     0
284
     8
340
11
341
189F
  0
ENDTAB
  0
TABLE
  2
BLOCK_RECORD
  5
1
330
0
100
AcDbSymbolTable
 70
    56
  0
BLOCK_RECORD
  5
1F
102
{ACAD_XDICTIONARY
360
81
102
}
330
1
100
AcDbSymbolTableRecord
100
AcDbBlockTableRecord
  2
*Model_Space
340
22
  0
BLOCK_RECORD
  5
1B
330
1
100
AcDbSymbolTableRecord
100
AcDbBlockTableRecord
  2
*Paper_Space
340
1E
  0
BLOCK_RECORD
  5
23
330
1
100
AcDbSymbolTableRecord
100
AcDbBlockTableRecord
  2
*Paper_Space0
340
26
  0
BLOCK_RECORD
  5
76
330
1
100
AcDbSymbolTableRecord
100
AcDbBlockTableRecord
  2
GENAXEH
340
0
  0
BLOCK_RECORD
  5
193
330
1
100
AcDbSymbolTableRecord
100
AcDbBlockTableRecord
  2
ACO_A3
340
0
  0
BLOCK_RECORD
  5
1D6
102
{ACAD_XDICTIONARY
360
1D7
102
}
330
1
100
AcDbSymbolTableRecord
100
AcDbBlockTableRecord
  2
ACO-SF02-GR
340
0
  0
BLOCK_RECORD
  5
368
330
1
100
AcDbSymbolTableRecord
100
AcDbBlockTableRecord
  2
GENZOOJOBDO33
340
0
  0
BLOCK_RECORD
  5
756
330
1
100
AcDbSymbolTableRecord
100
AcDbBlockTableRecord
  2
GENZOOZGQJAL2
340
0
  0
BLOCK_RECORD
  5
81E
330
1
100
AcDbSymbolTableRecord
100
AcDbBlockTableRecord
  2
GENZOO58WXZ23
340
0
  0
BLOCK_RECORD
  5
AD8
330
1
100
AcDbSymbolTableRecord
100
AcDbBlockTableRecord
  2
*D9
340
0
  0
BLOCK_RECORD
  5
EB6
330
1
100
AcDbSymbolTableRecord
100
AcDbBlockTableRecord
  2
*D17
340
0
  0
BLOCK_RECORD
  5
EE7
330
1
100
AcDbSymbolTableRecord
100
AcDbBlockTableRecord
  2
*D18
340
0
  0
BLOCK_RECORD
  5
107C
330
1
100
AcDbSymbolTableRecord
100
AcDbBlockTableRecord
  2
GENZOO29JZQ33
340
0
  0
BLOCK_RECORD
  5
109C
330
1
100
AcDbSymbolTableRecord
100
AcDbBlockTableRecord
  2
GENZOOGSLZQ33
340
0
  0
BLOCK_RECORD
  5
10C0
330
1
100
AcDbSymbolTableRecord
100
AcDbBlockTableRecord
  2
GENZOOS8MZQ33
340
0
  0
BLOCK_RECORD
  5
1486
330
1
100
AcDbSymbolTableRecord
100
AcDbBlockTableRecord
  2
*D25
340
0
  0
BLOCK_RECORD
  5
17EC
330
1
100
AcDbSymbolTableRecord
100
AcDbBlockTableRecord
  2
*D32
340
0
  0
BLOCK_RECORD
  5
186B
330
1
100
AcDbSymbolTableRecord
100
AcDbBlockTableRecord
  2
_FILLED
340
0
  0
BLOCK_RECORD
  5
189F
330
1
100
AcDbSymbolTableRecord
100
AcDbBlockTableRecord
  2
_None
340
0
  0
ENDTAB
  0
ENDSEC
  0
SECTION
  2
BLOCKS
  0
BLOCK
  5
20
330
1F
100
AcDbEntity
  8
0
100
AcDbBlockBegin
  2
*Model_Space
 70
     0
 10
0.0
 20
0.0
 30
0.0
  3
*Model_Space
  1

  0
ENDBLK
  5
21
330
1F
100
AcDbEntity
  8
0
100
AcDbBlockEnd
  0
BLOCK
  5
1C
330
1B
100
AcDbEntity
 67
     1
  8
0
100
AcDbBlockBegin
  2
*Paper_Space
 70
     0
 10
0.0
 20
0.0
 30
0.0
  3
*Paper_Space
  1

  0
ENDBLK
  5
1D
330
1B
100
AcDbEntity
 67
     1
  8
0
100
AcDbBlockEnd
  0
BLOCK
  5
24
330
23
100
AcDbEntity
 67
     1
  8
0
100
AcDbBlockBegin
  2
*Paper_Space0
 70
     0
 10
0.0
 20
0.0
 30
0.0
  3
*Paper_Space0
  1

  0
ENDBLK
  5
25
330
23
100
AcDbEntity
 67
     1
  8
0
100
AcDbBlockEnd
  0
BLOCK
  5
78
330
76
100
AcDbEntity
  8
0
100
AcDbBlockBegin
  2
GENAXEH
 70
     0
 10
0.0
 20
0.0
 30
0.0
  3
GENAXEH
  1

  0
LINE
  5
77
330
76
100
AcDbEntity
  8
0
100
AcDbLine
 10
-1.0
 20
0.0
 30
0.0
 11
1.0
 21
0.0
 31
0.0
  0
ENDBLK
  5
79
330
76
100
AcDbEntity
  8
0
100
AcDbBlockEnd
  0
BLOCK
  5
194
330
193
100
AcDbEntity
  8
0
100
AcDbBlockBegin
  2
ACO_A3
 70
     0
 10
0.0
 20
0.0
 30
0.0
  3
ACO_A3
  1

  0
LINE
  5
195
330
193
100
AcDbEntity
  8
RAHM2
100
AcDbLine
 10
420.0
 20
297.0
 30
0.0
 11
419.9999999999998
 21
0.0
 31
0.0
  0
LINE
  5
196
330
193
100
AcDbEntity
  8
RAHM2
100
AcDbLine
 10
230.0
 20
5.000000000000047
 30
0.0
 11
230.0
 21
0.0000000000000233
 31
0.0
  0
LINE
  5
197
330
193
100
AcDbEntity
  8
RAHM2
100
AcDbLine
 10
157.12
 20
10.00000000000003
 30
0.0
 11
9.999999999999943
 21
10.00000000000005
 31
0.0
  0
TEXT
  5
198
330
193
100
AcDbEntity
  8
RAHM2
100
AcDbText
 10
411.0
 20
262.0
 30
0.0
 40
4.0
  1
A
100
AcDbText
  0
TEXT
  5
199
330
193
100
AcDbEntity
  8
RAHM2
100
AcDbText
 10
411.0
 20
216.0
 30
0.0
 40
4.0
  1
B
100
AcDbText
  0
TEXT
  5
19A
330
193
100
AcDbEntity
  8
RAHM2
100
AcDbText
 10
411.0
 20
170.0
 30
0.0
 40
4.0
  1
C
100
AcDbText
  0
TEXT
  5
19B
330
193
100
AcDbEntity
  8
RAHM2
100
AcDbText
 10
411.0
 20
123.0
 30
0.0
 40
4.0
  1
D
100
AcDbText
  0
TEXT
  5
19C
330
193
100
AcDbEntity
  8
RAHM2
100
AcDbText
 10
411.0
 20
77.0
 30
0.0
 40
4.0
  1
E
100
AcDbText
  0
TEXT
  5
19D
330
193
100
AcDbEntity
  8
RAHM2
100
AcDbText
 10
411.0
 20
31.0
 30
0.0
 40
4.0
  1
F
100
AcDbText
  0
LINE
  5
19E
330
193
100
AcDbEntity
  8
RAHM2
100
AcDbLine
 10
415.0
 20
240.83
 30
0.0
 11
410.0
 21
240.83
 31
0.0
  0
LINE
  5
19F
330
193
100
AcDbEntity
  8
RAHM2
100
AcDbLine
 10
415.0
 20
194.664
 30
0.0
 11
410.0
 21
194.664
 31
0.0
  0
LINE
  5
1A0
330
193
100
AcDbEntity
  8
RAHM2
100
AcDbLine
 10
415.0
 20
148.498
 30
0.0
 11
410.0
 21
148.498
 31
0.0
  0
LINE
  5
1A1
330
193
100
AcDbEntity
  8
RAHM2
100
AcDbLine
 10
415.0
 20
102.332
 30
0.0
 11
410.0
 21
102.332
 31
0.0
  0
LINE
  5
1A2
330
193
100
AcDbEntity
  8
RAHM2
100
AcDbLine
 10
415.0
 20
56.166
 30
0.0
 11
410.0
 21
56.166
 31
0.0
  0
LINE
  5
1A3
330
193
100
AcDbEntity
  8
RAHM2
100
AcDbLine
 10
60.0
 20
291.9999999999999
 30
0.0
 11
60.0
 21
287.0
 31
0.0
  0
LINE
  5
1A4
330
193
100
AcDbEntity
  8
RAHM2
100
AcDbLine
 10
110.0
 20
291.9999999999999
 30
0.0
 11
110.0
 21
287.0
 31
0.0
  0
LINE
  5
1A5
330
193
100
AcDbEntity
  8
RAHM2
100
AcDbLine
 10
160.0
 20
291.9999999999999
 30
0.0
 11
160.0
 21
287.0
 31
0.0
  0
LINE
  5
1A6
330
193
100
AcDbEntity
  8
RAHM2
100
AcDbLine
 10
210.0
 20
291.9999999999999
 30
0.0
 11
210.0
 21
287.0
 31
0.0
  0
LINE
  5
1A7
330
193
100
AcDbEntity
  8
RAHM2
100
AcDbLine
 10
260.0
 20
291.9999999999999
 30
0.0
 11
260.0
 21
287.0
 31
0.0
  0
LINE
  5
1A8
330
193
100
AcDbEntity
  8
RAHM2
100
AcDbLine
 10
310.0
 20
291.9999999999999
 30
0.0
 11
310.0
 21
287.0
 31
0.0
  0
LINE
  5
1A9
330
193
100
AcDbEntity
  8
RAHM2
100
AcDbLine
 10
360.0
 20
291.9999999999999
 30
0.0
 11
360.0
 21
287.0
 31
0.0
  0
TEXT
  5
1AA
330
193
100
AcDbEntity
  8
RAHM2
100
AcDbText
 10
384.0
 20
287.5
 30
0.0
 40
4.0
  1
8
100
AcDbText
  0
TEXT
  5
1AB
330
193
100
AcDbEntity
  8
RAHM2
100
AcDbText
 10
334.0
 20
287.5
 30
0.0
 40
4.0
  1
7
100
AcDbText
  0
TEXT
  5
1AC
330
193
100
AcDbEntity
  8
RAHM2
100
AcDbText
 10
284.0
 20
287.5
 30
0.0
 40
4.0
  1
6
100
AcDbText
  0
TEXT
  5
1AD
330
193
100
AcDbEntity
  8
RAHM2
100
AcDbText
 10
233.5
 20
287.5
 30
0.0
 40
4.0
  1
5
100
AcDbText
  0
TEXT
  5
1AE
330
193
100
AcDbEntity
  8
RAHM2
100
AcDbText
 10
183.5
 20
287.5
 30
0.0
 40
4.0
  1
4
100
AcDbText
  0
TEXT
  5
1AF
330
193
100
AcDbEntity
  8
RAHM2
100
AcDbText
 10
133.5
 20
287.5
 30
0.0
 40
4.0
  1
3
100
AcDbText
  0
TEXT
  5
1B0
330
193
100
AcDbEntity
  8
RAHM2
100
AcDbText
 10
83.49999999999999
 20
287.5
 30
0.0
 40
4.0
  1
2
100
AcDbText
  0
TEXT
  5
1B1
330
193
100
AcDbEntity
  8
RAHM2
100
AcDbText
 10
33.5
 20
287.5
 30
0.0
 40
4.0
  1
1
100
AcDbText
  0
TEXT
  5
1B2
330
193
100
AcDbEntity
  8
RAHM2
100
AcDbText
 10
33.5
 20
5.5
 30
0.0
 40
4.0
  1
1
100
AcDbText
  0
TEXT
  5
1B3
330
193
100
AcDbEntity
  8
RAHM2
100
AcDbText
 10
83.49999999999999
 20
5.5
 30
0.0
 40
4.0
  1
2
100
AcDbText
  0
TEXT
  5
1B4
330
193
100
AcDbEntity
  8
RAHM2
100
AcDbText
 10
133.5
 20
5.5
 30
0.0
 40
4.0
  1
3
100
AcDbText
  0
TEXT
  5
1B5
330
193
100
AcDbEntity
  8
RAHM2
100
AcDbText
 10
6.0
 20
262.0
 30
0.0
 40
4.0
  1
A
100
AcDbText
  0
TEXT
  5
1B6
330
193
100
AcDbEntity
  8
RAHM2
100
AcDbText
 10
6.0
 20
216.0
 30
0.0
 40
4.0
  1
B
100
AcDbText
  0
TEXT
  5
1B7
330
193
100
AcDbEntity
  8
RAHM2
100
AcDbText
 10
6.0
 20
170.0
 30
0.0
 40
4.0
  1
C
100
AcDbText
  0
TEXT
  5
1B8
330
193
100
AcDbEntity
  8
RAHM2
100
AcDbText
 10
6.0
 20
123.0
 30
0.0
 40
4.0
  1
D
100
AcDbText
  0
TEXT
  5
1B9
330
193
100
AcDbEntity
  8
RAHM2
100
AcDbText
 10
6.0
 20
77.0
 30
0.0
 40
4.0
  1
E
100
AcDbText
  0
TEXT
  5
1BA
330
193
100
AcDbEntity
  8
RAHM2
100
AcDbText
 10
6.0
 20
31.0
 30
0.0
 40
4.0
  1
F
100
AcDbText
  0
LINE
  5
1BB
330
193
100
AcDbEntity
  8
RAHM2
100
AcDbLine
 10
110.0
 20
10.0
 30
0.0
 11
110.0
 21
5.0
 31
0.0
  0
LINE
  5
1BC
330
193
100
AcDbEntity
  8
RAHM2
100
AcDbLine
 10
60.0
 20
10.0
 30
0.0
 11
60.0
 21
5.0
 31
0.0
  0
LINE
  5
1BD
330
193
100
AcDbEntity
  8
RAHM2
100
AcDbLine
 10
10.0
 20
240.83
 30
0.0
 11
5.0
 21
240.83
 31
0.0
  0
LINE
  5
1BE
330
193
100
AcDbEntity
  8
RAHM2
100
AcDbLine
 10
10.0
 20
194.664
 30
0.0
 11
5.0
 21
194.664
 31
0.0
  0
LINE
  5
1BF
330
193
100
AcDbEntity
  8
RAHM2
100
AcDbLine
 10
10.0
 20
148.498
 30
0.0
 11
5.0
 21
148.498
 31
0.0
  0
LINE
  5
1C0
330
193
100
AcDbEntity
  8
RAHM2
100
AcDbLine
 10
10.0
 20
102.332
 30
0.0
 11
5.0
 21
102.332
 31
0.0
  0
LINE
  5
1C1
330
193
100
AcDbEntity
  8
RAHM2
100
AcDbLine
 10
10.0
 20
56.166
 30
0.0
 11
5.0
 21
56.166
 31
0.0
  0
LINE
  5
1C2
330
193
100
AcDbEntity
  8
RAHM2
100
AcDbLine
 10
410.0
 20
287.0
 30
0.0
 11
409.9999999999998
 21
5.0
 31
0.0
  0
LINE
  5
1C3
330
193
100
AcDbEntity
  8
RAHM2
100
AcDbLine
 10
10.00000000000001
 20
287.0
 30
0.0
 11
410.0
 21
287.0
 31
0.0
  0
LINE
  5
1C4
330
193
100
AcDbEntity
  8
RAHM2
100
AcDbLine
 10
10.0
 20
10.0
 30
0.0
 11
10.00000000000001
 21
287.0
 31
0.0
  0
LINE
  5
1C5
330
193
100
AcDbEntity
  8
0
100
AcDbLine
 10
414.9999999999998
 20
5.0
 30
0.0
 11
4.999999999999943
 21
5.000000000000047
 31
0.0
  0
LINE
  5
1C6
330
193
100
AcDbEntity
  8
0
100
AcDbLine
 10
415.0
 20
292.0
 30
0.0
 11
414.9999999999998
 21
5.0
 31
0.0
  0
LINE
  5
1C7
330
193
100
AcDbEntity
  8
0
100
AcDbLine
 10
5.000000000000016
 20
292.0
 30
0.0
 11
415.0
 21
292.0
 31
0.0
  0
LINE
  5
1C8
330
193
100
AcDbEntity
  8
RAHM2
100
AcDbLine
 10
0.0000000000000182
 20
297.0
 30
0.0
 11
420.0
 21
297.0
 31
0.0
  0
LINE
  5
1C9
330
193
100
AcDbEntity
  8
RAHM2
100
AcDbLine
 10
0.0
 20
0.0
 30
0.0
 11
0.0000000000000182
 21
297.0
 31
0.0
  0
LINE
  5
1CA
330
193
100
AcDbEntity
  8
RAHM2
100
AcDbLine
 10
125.0
 20
0.0000000000000514
 30
0.0
 11
125.0
 21
5.000000000000035
 31
0.0
  0
TEXT
  5
1CB
330
193
100
AcDbEntity
  8
0
 60
     1
100
AcDbText
 10
420.0
 20
297.0
 30
0.0
 40
2.0
  1
!GENTITLE-MAX
100
AcDbText
  0
TEXT
  5
1CC
330
193
100
AcDbEntity
  8
0
 60
     1
100
AcDbText
 10
410.0
 20
287.0
 30
0.0
 40
2.0
  1
!GENTITLE-RU
100
AcDbText
  0
TEXT
  5
1CD
330
193
100
AcDbEntity
  8
0
 60
     1
100
AcDbText
 10
409.9999999999998
 20
5.0
 30
0.0
 40
2.0
  1
!GENTITLE-INSERT
100
AcDbText
  0
TEXT
  5
1CE
330
193
100
AcDbEntity
  8
0
 60
     1
100
AcDbText
 10
10.0
 20
10.00000000000005
 30
0.0
 40
2.0
  1
!GENTITLE-LL
100
AcDbText
  0
LINE
  5
1CF
330
193
100
AcDbEntity
  8
0
100
AcDbLine
 10
5.0
 20
5.0
 30
0.0
 11
5.000000000000016
 21
292.0
 31
0.0
  0
LINE
  5
1D0
330
193
100
AcDbEntity
  8
RAHM2
100
AcDbLine
 10
419.9999999999998
 20
0.0
 30
0.0
 11
-0.0000000000000568
 21
0.0000000000000514
 31
0.0
1001
GENIUS_VERSION2
1070
     2
  0
LWPOLYLINE
  5
1D1
330
193
100
AcDbEntity
  8
RAHM2
100
AcDbPolyline
 90
        4
 70
     1
 43
0.0
 10
227.1200000000001
 20
5.000000000000031
 10
157.12
 20
5.000000000000031
 10
157.12
 20
13.50000000000003
 10
227.1200000000001
 20
13.50000000000002
1001
GENIUS_GENREC_14
1002
{
1000
PXDIR
1011
157.12
1021
5.000000000000031
1031
0.0
1002
}
1002
{
1000
PORI
1011
227.1200000000001
1021
5.000000000000031
1031
0.0
1002
}
1002
{
1000
PINS
1011
227.1200000000001
1021
5.000000000000031
1031
0.0
1002
}
1002
{
1000
HVAL
1000
8.5
1002
}
1002
{
1000
H
1070
     2
1002
}
1002
{
1000
WVAL
1000
-70
1002
}
1002
{
1000
W
1070
     2
1002
}
1002
{
1000
C
1070
     1
1002
}
1001
GENIUS_GENODEF_13
1002
{
1000
HIER
1070
     0
1002
}
1002
{
1000
MANEDIT
1070
     0
1002
}
1002
{
1000
NOSEL
1070
     0
1002
}
1002
{
1000
BEHIND
1070
     0
1002
}
1002
{
1000
REACTOR
1002
}
1001
GENIUS_GENOBJ-N-REC_13
1002
{
1000
OWNER
1000
GEN
1002
}
  0
MTEXT
  5
1D2
102
{ACAD_XDICTIONARY
360
2335
102
}
330
193
100
AcDbEntity
  8
RAHM2
100
AcDbMText
 10
158.8183525451007
 20
12.32474728438519
 30
0.0
 40
3.5
 41
4.30175959119215
 71
     1
 72
     5
  1
\fArial|b0|i0|c0|p32;\U+00A9
 73
     1
 44
1.0
1001
ACAD
1000
MTEXTBEGIN
1070
    73
1070
     1
1070
    44
1040
1.0
1070
    74
1070
     0
1000
MTEXTEND
  0
MTEXT
  5
1D3
330
193
100
AcDbEntity
  8
RAHM2
100
AcDbMText
 10
200.9022594589521
 20
9.282856166729633
 30
0.0
 40
2.5
 41
51.25
 71
     5
 72
     5
  1
\fArial Black|b0|i0|c0|p34;ACO\Fgeniso.shx; \fDutch801 Rm BT|b0|i1|c0|p18;passavant \P\Fgeniso.shx;\H1.8;Schutzvermerk nach DIN 34
 73
     1
 44
1.0
1001
ACAD
1000
MTEXTBEGIN
1070
    73
1070
     1
1070
    44
1040
1.0
1070
    74
1070
     0
1000
MTEXTEND
  0
MTEXT
  5
1D4
330
193
100
AcDbEntity
  8
RAHM2
100
AcDbMText
 10
165.5515418910248
 20
11.24554815700972
 30
0.0
 40
2.0
 41
5.5175
 71
     1
 72
     5
  1
2001
 73
     1
 44
1.0
1001
ACAD
1000
MTEXTBEGIN
1070
    73
1070
     1
1070
    44
1040
1.0
1070
    74
1070
     0
1000
MTEXTEND
  0
ENDBLK
  5
1D5
330
193
100
AcDbEntity
  8
0
100
AcDbBlockEnd
  0
BLOCK
  5
1D8
330
1D6
100
AcDbEntity
  8
0
100
AcDbBlockBegin
  2
ACO-SF02-GR
 70
     2
 10
0.0
 20
0.0
 30
0.0
  3
ACO-SF02-GR
  1

  0
LINE
  5
1D9
330
1D6
100
AcDbEntity
  8
KOPF
 62
    12
100
AcDbLine
 10
0.0
 20
5.0
 30
0.0
 11
-83.0
 21
5.0
 31
0.0
  0
LWPOLYLINE
  5
1DA
330
1D6
100
AcDbEntity
  8
KOPF
 62
    12
100
AcDbPolyline
 90
        2
 70
     0
 43
0.5
 10
-83.0
 20
10.0
 10
0.0
 20
10.0
  0
LINE
  5
1DB
330
1D6
100
AcDbEntity
  8
KOPF
100
AcDbLine
 10
-83.0
 20
10.0
 30
0.0
 11
0.0
 21
10.0
 31
0.0
  0
LINE
  5
1DC
330
1D6
100
AcDbEntity
  8
KOPF
100
AcDbLine
 10
0.0
 20
5.0
 30
0.0
 11
-83.0
 21
5.0
 31
0.0
  0
LWPOLYLINE
  5
1DD
330
1D6
100
AcDbEntity
  8
KOPF
 62
    12
100
AcDbPolyline
 90
        2
 70
     0
 43
0.5
 10
0.0
 20
68.49999999999997
 10
-182.0
 20
68.49999999999997
  0
LWPOLYLINE
  5
1DE
330
1D6
100
AcDbEntity
  8
KOPF
 62
    12
100
AcDbPolyline
 90
        2
 70
     0
 43
0.5
 10
0.0
 20
46.99999999999997
 10
-182.0
 20
46.99999999999997
  0
LWPOLYLINE
  5
1DF
330
1D6
100
AcDbEntity
  8
KOPF
 62
    12
100
AcDbPolyline
 90
        2
 70
     0
 43
0.5
 10
-0.2154115848244373
 20
27.23910754630094
 10
-182.1882840408789
 20
27.23910754630094
  0
LINE
  5
1E0
330
1D6
100
AcDbEntity
  8
KOPF
 62
    12
100
AcDbLine
 10
0.0
 20
88.49999999999996
 30
0.0
 11
-182.0
 21
88.49999999999996
 31
0.0
  0
LINE
  5
1E1
330
1D6
100
AcDbEntity
  8
KOPF
 62
    12
100
AcDbLine
 10
-182.0
 20
83.49999999999997
 30
0.0
 11
0.0
 21
83.49999999999997
 31
0.0
  0
LINE
  5
1E2
330
1D6
100
AcDbEntity
  8
KOPF
 62
    12
100
AcDbLine
 10
0.0
 20
73.49999999999997
 30
0.0
 11
-182.0
 21
73.49999999999997
 31
0.0
  0
LINE
  5
1E3
330
1D6
100
AcDbEntity
  8
KOPF
 62
    12
100
AcDbLine
 10
-162.682677
 20
78.49999999999997
 30
0.0
 11
0.0
 21
78.49999999999997
 31
0.0
  0
LINE
  5
1E4
330
1D6
100
AcDbEntity
  8
KOPF
100
AcDbLine
 10
0.0
 20
68.49999999999997
 30
0.0
 11
-182.0
 21
68.49999999999997
 31
0.0
  0
LINE
  5
1E5
330
1D6
100
AcDbEntity
  8
KOPF
100
AcDbLine
 10
0.0
 20
88.49999999999996
 30
0.0
 11
-182.0
 21
88.49999999999996
 31
0.0
  0
LINE
  5
1E6
330
1D6
100
AcDbEntity
  8
KOPF
100
AcDbLine
 10
-182.0
 20
83.49999999999997
 30
0.0
 11
0.0
 21
83.49999999999997
 31
0.0
  0
LINE
  5
1E7
330
1D6
100
AcDbEntity
  8
KOPF
100
AcDbLine
 10
0.0
 20
73.49999999999997
 30
0.0
 11
-182.0
 21
73.49999999999997
 31
0.0
  0
LINE
  5
1E8
330
1D6
100
AcDbEntity
  8
KOPF
100
AcDbLine
 10
-162.682677
 20
78.49999999999997
 30
0.0
 11
0.0
 21
78.49999999999997
 31
0.0
  0
LINE
  5
1E9
330
1D6
100
AcDbEntity
  8
KOPF
 62
    12
100
AcDbLine
 10
-182.0
 20
57.74999999999997
 30
0.0
 11
-100.0
 21
57.74999999999997
 31
0.0
  0
LINE
  5
1EA
330
1D6
100
AcDbEntity
  8
KOPF
 62
    12
100
AcDbLine
 10
-182.0
 20
41.99999999999996
 30
0.0
 11
-113.4
 21
41.99999999999996
 31
0.0
  0
LINE
  5
1EB
330
1D6
100
AcDbEntity
  8
KOPF
100
AcDbLine
 10
-182.0
 20
57.74999999999997
 30
0.0
 11
-100.0
 21
57.74999999999997
 31
0.0
  0
LINE
  5
1EC
330
1D6
100
AcDbEntity
  8
KOPF
100
AcDbLine
 10
-182.0
 20
41.99999999999996
 30
0.0
 11
-113.4
 21
41.99999999999996
 31
0.0
  0
LINE
  5
1ED
330
1D6
100
AcDbEntity
  8
KOPF
 62
    12
100
AcDbLine
 10
-142.0
 20
68.49999999999997
 30
0.0
 11
-142.0
 21
46.99999999999997
 31
0.0
  0
LINE
  5
1EE
330
1D6
100
AcDbEntity
  8
KOPF
 62
    12
100
AcDbLine
 10
-142.0
 20
68.49999999999997
 30
0.0
 11
-142.0
 21
46.99999999999997
 31
0.0
  0
ATTDEF
  5
1EF
330
1D6
100
AcDbEntity
  8
TEXT35
100
AcDbText
 10
-140.2
 20
49.4
 30
0.0
 40
3.5
  1

 41
0.8
  7
TEXT35
100
AcDbAttributeDefinition
  3
Oberfläche:
  2
F63
 70
     0
  0
LWPOLYLINE
  5
1F0
330
1D6
100
AcDbEntity
  8
KOPF
 62
    12
100
AcDbPolyline
 90
        2
 70
     0
 43
0.7
 10
-182.0
 20
103.4999999999999
 10
-182.0
 20
0.0
  0
LINE
  5
1F1
330
1D6
100
AcDbEntity
  8
KOPF
100
AcDbLine
 10
-182.0
 20
103.4999999999999
 30
0.0
 11
-182.0
 21
0.0
 31
0.0
  0
TEXT
  5
1F2
330
1D6
100
AcDbEntity
  8
KOPF
100
AcDbText
 10
-179.738589
 20
38.32439403633659
 30
0.0
 40
2.0
  1
Gezeichnet:
 41
0.8
  7
TEXT20
100
AcDbText
  0
ATTDEF
  5
1F3
330
1D6
100
AcDbEntity
  8
TEXT35
100
AcDbText
 10
-176.6
 20
3.399999999999999
 30
0.0
 40
3.5
  1

 41
0.8
  7
TEXT35
100
AcDbAttributeDefinition
  3
Z-Titel 3
  2
F13
 70
     0
  0
ATTDEF
  5
1F4
330
1D6
100
AcDbEntity
  8
TEXT50
100
AcDbText
 10
-176.6
 20
10.63250279796295
 30
0.0
 40
5.0
  1

 41
0.8
  7
TEXT50
100
AcDbAttributeDefinition
  3
Z-Titel 2
  2
F3
 70
     0
  0
ATTDEF
  5
1F5
330
1D6
100
AcDbEntity
  8
TEXT50
100
AcDbText
 10
-176.6
 20
18.56318324460701
 30
0.0
 40
5.0
  1

 41
0.8
  7
TEXT50
100
AcDbAttributeDefinition
  3
Z-Titel 1
  2
F2
 70
     0
  0
TEXT
  5
1F6
330
1D6
100
AcDbEntity
  8
KOPF
100
AcDbText
 10
-179.738589
 20
28.52395361420514
 30
0.0
 40
2.0
  1
Update:
 41
0.8
  7
TEXT20
100
AcDbText
  0
TEXT
  5
1F7
330
1D6
100
AcDbEntity
  8
KOPF
100
AcDbText
 10
-179.738589
 20
33.43577642824449
 30
0.0
 40
2.0
  1
Geprüft
 41
0.8
  7
TEXT20
100
AcDbText
  0
LINE
  5
1F8
330
1D6
100
AcDbEntity
  8
KOPF
 62
    12
100
AcDbLine
 10
-163.0
 20
46.99999999999997
 30
0.0
 11
-163.0
 21
27.0
 31
0.0
  0
LINE
  5
1F9
330
1D6
100
AcDbEntity
  8
KOPF
100
AcDbLine
 10
-163.0
 20
46.99999999999997
 30
0.0
 11
-163.0
 21
27.0
 31
0.0
  0
ATTDEF
  5
1FA
330
1D6
100
AcDbEntity
  8
TEXT25
100
AcDbText
 10
-161.5009557098303
 20
28.32091209119023
 30
0.0
 40
2.0
  1

 41
0.8
  7
TEXT20
100
AcDbAttributeDefinition
  3
Update am:
  2
F53
 70
     0
  0
ATTDEF
  5
1FB
330
1D6
100
AcDbEntity
  8
TEXT25
100
AcDbText
 10
-161.5539333606331
 20
33.12227989587696
 30
0.0
 40
2.0
  1

 41
0.8
  7
TEXT20
100
AcDbAttributeDefinition
  3
Geprüft am:
  2
F22
 70
     0
  0
ATTDEF
  5
1FC
330
1D6
100
AcDbEntity
  8
TEXT25
100
AcDbText
 10
-161.5207141482394
 20
38.33983936444393
 30
0.0
 40
2.0
  1

 41
0.8
  7
TEXT20
100
AcDbAttributeDefinition
  3
Gezeichnet am:
  2
F9
 70
     0
  0
TEXT
  5
1FD
330
1D6
100
AcDbEntity
  8
KOPF
100
AcDbText
 10
-155.964455
 20
43.13467299999999
 30
0.0
 40
2.0
  1
Datum
 41
0.8
  7
TEXT20
100
AcDbText
  0
LINE
  5
1FE
330
1D6
100
AcDbEntity
  8
KOPF
 62
    12
100
AcDbLine
 10
-138.4
 20
46.99999999999997
 30
0.0
 11
-138.4
 21
27.0
 31
0.0
  0
LINE
  5
1FF
330
1D6
100
AcDbEntity
  8
KOPF
100
AcDbLine
 10
-138.4
 20
46.99999999999997
 30
0.0
 11
-138.4
 21
27.0
 31
0.0
  0
TEXT
  5
200
330
1D6
100
AcDbEntity
  8
KOPF
100
AcDbText
 10
-130.065072
 20
43.14125800000002
 30
0.0
 40
2.0
  1
Name
 41
0.8
  7
TEXT20
100
AcDbText
  0
ATTDEF
  5
201
330
1D6
100
AcDbEntity
  8
TEXT25
100
AcDbText
 10
-136.2746977811447
 20
33.28471223400234
 30
0.0
 40
2.0
  1

 41
0.8
  7
TEXT20
100
AcDbAttributeDefinition
  3
Geprüft von:
  2
F21
 70
     0
  0
ATTDEF
  5
202
330
1D6
100
AcDbEntity
  8
TEXT25
100
AcDbText
 10
-136.3996291720711
 20
28.23101841142455
 30
0.0
 40
2.0
  1

 41
0.8
  7
TEXT20
100
AcDbAttributeDefinition
  3
Update von:
  2
F52
 70
     0
  0
ATTDEF
  5
203
330
1D6
100
AcDbEntity
  8
TEXT25
100
AcDbText
 10
-136.1922113552417
 20
38.48172579575253
 30
0.0
 40
2.0
  1

 41
0.8
  7
TEXT20
100
AcDbAttributeDefinition
  3
Gezeichnet von
  2
F8
 70
     0
  0
TEXT
  5
204
330
1D6
100
AcDbEntity
  8
KOPF
100
AcDbText
 10
-174.6925639999999
 20
69.53813999999997
 30
0.0
 40
2.0
  1
Index
 41
0.8
  7
TEXT20
100
AcDbText
  0
LINE
  5
205
330
1D6
100
AcDbEntity
  8
KOPF
100
AcDbLine
 10
-182.0
 20
78.49999999999997
 30
0.0
 11
-162.682677
 21
78.49999999999997
 31
0.0
  0
LINE
  5
206
330
1D6
100
AcDbEntity
  8
KOPF
100
AcDbLine
 10
-182.0
 20
78.49999999999997
 30
0.0
 11
-162.682677
 21
78.49999999999997
 31
0.0
  0
TEXT
  5
207
330
1D6
100
AcDbEntity
  8
KOPF
100
AcDbText
 10
-180.0
 20
65.166273
 30
0.0
 40
2.0
  1
Werkstoff:
 41
0.8
  7
TEXT20
100
AcDbText
  0
TEXT
  5
208
330
1D6
100
AcDbEntity
  8
KOPF
100
AcDbText
 10
-181.0
 20
54.49999999999997
 30
0.0
 40
2.0
  1
zul. Abweich.:
 41
0.8
  7
TEXT20
100
AcDbText
  0
ATTDEF
  5
209
330
1D6
100
AcDbEntity
  8
TEXT35
100
AcDbText
 10
-179.7
 20
59.6
 30
0.0
 40
3.5
  1

 41
0.8
  7
TEXT35
100
AcDbAttributeDefinition
  3
Werkstoff:
  2
F61
 70
     0
  0
ATTDEF
  5
20A
330
1D6
100
AcDbEntity
  8
TEXT35
100
AcDbText
 10
-179.7
 20
49.7
 30
0.0
 40
3.5
  1

 41
0.8
  7
TEXT35
100
AcDbAttributeDefinition
  3
zul. Abweichung
  2
F62
 70
     0
  0
ATTDEF
  5
20B
330
1D6
100
AcDbEntity
  8
TEXT25
100
AcDbText
 10
-174.360415155955
 20
74.59999999999998
 30
0.0
 40
2.0
  1

 41
0.8
  7
TEXT20
100
AcDbAttributeDefinition
  3
Index vv.:
  2
F72
 70
     0
  0
ATTDEF
  5
20C
330
1D6
100
AcDbEntity
  8
TEXT25
100
AcDbText
 10
-174.4435409453564
 20
79.47378932523601
 30
0.0
 40
2.0
  1

 41
0.8
  7
TEXT20
100
AcDbAttributeDefinition
  3
Index v.:
  2
F68
 70
     0
  0
ATTDEF
  5
20D
330
1D6
100
AcDbEntity
  8
TEXT25
100
AcDbText
 10
-174.3700408782365
 20
84.63034186138365
 30
0.0
 40
2.0
  1

 41
0.8
  7
TEXT20
100
AcDbAttributeDefinition
  3
Index l.:
  2
F64
 70
     0
  0
LINE
  5
20E
330
1D6
100
AcDbEntity
  8
KOPF
100
AcDbLine
 10
-162.682677
 20
88.49999999999996
 30
0.0
 11
-162.682677
 21
68.49999999999997
 31
0.0
  0
LINE
  5
20F
330
1D6
100
AcDbEntity
  8
KOPF
100
AcDbLine
 10
-162.682677
 20
88.49999999999996
 30
0.0
 11
-162.682677
 21
68.49999999999997
 31
0.0
  0
TEXT
  5
210
330
1D6
100
AcDbEntity
  8
KOPF
100
AcDbText
 10
-156.706568
 20
69.53813999999997
 30
0.0
 40
2.0
  1
Datum
 41
0.8
  7
TEXT20
100
AcDbText
  0
ATTDEF
  5
211
330
1D6
100
AcDbEntity
  8
TEXT25
100
AcDbText
 10
-160.9
 20
75.09999999999998
 30
0.0
 40
2.0
  1

 41
0.8
  7
TEXT20
100
AcDbAttributeDefinition
  3
Datum vv.:
  2
F73
 70
     0
  0
ATTDEF
  5
212
330
1D6
100
AcDbEntity
  8
TEXT25
100
AcDbText
 10
-160.9
 20
79.40000000000002
 30
0.0
 40
2.0
  1

 41
0.8
  7
TEXT20
100
AcDbAttributeDefinition
  3
Datum v.:
  2
F69
 70
     0
  0
ATTDEF
  5
213
330
1D6
100
AcDbEntity
  8
TEXT25
100
AcDbText
 10
-160.6
 20
84.50000000000001
 30
0.0
 40
2.0
  1

 41
0.8
  7
TEXT20
100
AcDbAttributeDefinition
  3
Datum l.:
  2
F65
 70
     0
  0
LINE
  5
214
330
1D6
100
AcDbEntity
  8
KOPF
 62
    12
100
AcDbLine
 10
-142.0
 20
68.49999999999997
 30
0.0
 11
-142.0
 21
88.49999999999996
 31
0.0
  0
LINE
  5
215
330
1D6
100
AcDbEntity
  8
KOPF
100
AcDbLine
 10
-142.0
 20
68.49999999999997
 30
0.0
 11
-142.0
 21
88.49999999999996
 31
0.0
  0
ATTDEF
  5
216
330
1D6
100
AcDbEntity
  8
TEXT35
100
AcDbText
 10
-139.9
 20
59.29999999999999
 30
0.0
 40
3.5
  1

 41
0.8
  7
TEXT35
100
AcDbAttributeDefinition
  3
Gewicht:
  2
F60
 70
     0
  0
TEXT
  5
217
330
1D6
100
AcDbEntity
  8
KOPF
100
AcDbText
 10
-140.387393
 20
54.54752599999996
 30
0.0
 40
2.0
  1
Oberfläche
 41
0.8
  7
TEXT20
100
AcDbText
  0
TEXT
  5
218
330
1D6
100
AcDbEntity
  8
KOPF
100
AcDbText
 10
-140.1020469999999
 20
65.166273
 30
0.0
 40
2.0
  1
Gewicht:
 41
0.8
  7
TEXT20
100
AcDbText
  0
TEXT
  5
219
330
1D6
100
AcDbEntity
  8
KOPF
100
AcDbText
 10
-140.1020469999999
 20
65.166273
 30
0.0
 40
2.0
  1
Gewicht:
 41
0.8
  7
TEXT20
100
AcDbText
  0
ATTDEF
  5
21A
330
1D6
100
AcDbEntity
  8
TEXT25
100
AcDbText
 10
-140.4
 20
74.59999999999998
 30
0.0
 40
2.0
  1

 41
0.8
  7
TEXT20
100
AcDbAttributeDefinition
  3
Bennenung vv.:
  2
F74
 70
     0
  0
ATTDEF
  5
21B
330
1D6
100
AcDbEntity
  8
TEXT25
100
AcDbText
 10
-140.5063960262479
 20
79.64480359078786
 30
0.0
 40
2.0
  1

 41
0.8
  7
TEXT20
100
AcDbAttributeDefinition
  3
Benennung v.:
  2
F70
 70
     0
  0
ATTDEF
  5
21C
330
1D6
100
AcDbEntity
  8
TEXT25
100
AcDbText
 10
-140.390233442385
 20
84.56120109651198
 30
0.0
 40
2.0
  1

 41
0.8
  7
TEXT20
100
AcDbAttributeDefinition
  3
Bennenung l.:
  2
F66
 70
     0
  0
LINE
  5
21D
330
1D6
100
AcDbEntity
  8
KOPF
 62
    12
100
AcDbLine
 10
-100.0
 20
68.49999999999997
 30
0.0
 11
-100.0
 21
46.99999999999997
 31
0.0
  0
LWPOLYLINE
  5
21E
330
1D6
100
AcDbEntity
  8
KOPF
 62
    12
100
AcDbPolyline
 90
        2
 70
     0
 43
0.5
 10
-83.0
 20
46.99999999999997
 10
-83.0
 20
0.0
  0
LINE
  5
21F
330
1D6
100
AcDbEntity
  8
KOPF
100
AcDbLine
 10
-83.0
 20
46.99999999999997
 30
0.0
 11
-83.0
 21
0.0
 31
0.0
  0
TEXT
  5
220
330
1D6
100
AcDbEntity
  8
KOPF
100
AcDbText
 10
-81.0
 20
1.714285999999985
 30
0.0
 40
2.0
  1
Ersetzt durch:
 41
0.8
  7
TEXT20
100
AcDbText
  0
LINE
  5
221
330
1D6
100
AcDbEntity
  8
KOPF
 62
    12
100
AcDbLine
 10
-113.4
 20
27.0
 30
0.0
 11
-113.4
 21
46.99999999999997
 31
0.0
  0
LWPOLYLINE
  5
222
330
1D6
100
AcDbEntity
  8
KOPF
100
AcDbPolyline
 90
        2
 70
     0
 43
0.5
 10
-113.4
 20
27.0
 10
-113.4
 20
46.99999999999997
  0
LINE
  5
223
330
1D6
100
AcDbEntity
  8
KOPF
100
AcDbLine
 10
-113.4
 20
27.0
 30
0.0
 11
-113.4
 21
46.99999999999997
 31
0.0
  0
LINE
  5
224
330
1D6
100
AcDbEntity
  8
KOPF
100
AcDbLine
 10
-113.4
 20
27.0
 30
0.0
 11
-113.4
 21
46.99999999999997
 31
0.0
  0
ATTDEF
  5
225
330
1D6
100
AcDbEntity
  8
TEXT35
100
AcDbText
 10
-104.4935632823758
 20
33.13408015176805
 30
0.0
 40
3.5
  1

 41
0.8
  7
TEXT35
100
AcDbAttributeDefinition
  3
Maßstab 2:
  2
F54
 70
     0
  0
ATTDEF
  5
226
330
1D6
100
AcDbEntity
  8
TEXT35
100
AcDbText
 10
-104.487948258847
 20
28.6
 30
0.0
 40
3.5
  1

 41
0.8
  7
TEXT35
100
AcDbAttributeDefinition
  3
Maßstab 3:
  2
F55
 70
     0
  0
ATTDEF
  5
227
330
1D6
100
AcDbEntity
  8
TEXT50
100
AcDbText
 10
-106.6
 20
37.8
 30
0.0
 40
5.0
  1

 41
0.8
  7
TEXT50
100
AcDbAttributeDefinition
  3
Maßstab 1:
  2
F25
 70
     0
  0
TEXT
  5
228
330
1D6
100
AcDbEntity
  8
KOPF
100
AcDbText
 10
-112.263457
 20
43.88678899999999
 30
0.0
 40
2.0
  1
Massstab:
 41
0.8
  7
TEXT20
100
AcDbText
  0
LINE
  5
229
330
1D6
100
AcDbEntity
  8
KOPF
 62
    12
100
AcDbLine
 10
-57.8081340000001
 20
27.0
 30
0.0
 11
-57.8081340000001
 21
46.99999999999997
 31
0.0
  0
LINE
  5
22A
330
1D6
100
AcDbEntity
  8
KOPF
100
AcDbLine
 10
-57.8081340000001
 20
27.0
 30
0.0
 11
-57.8081340000001
 21
46.99999999999997
 31
0.0
  0
TEXT
  5
22B
330
1D6
100
AcDbEntity
  8
KOPF
100
AcDbText
 10
-81.59296000000006
 20
23.69783599999999
 30
0.0
 40
2.0
  1
Zeichnung Nr.:
 41
0.8
  7
TEXT20
100
AcDbText
  0
TEXT
  5
22C
330
1D6
100
AcDbEntity
  8
KOPF
100
AcDbText
 10
-81.00375700000006
 20
5.924711999999997
 30
0.0
 40
2.0
  1
Ersatz für:
 41
0.8
  7
TEXT20
100
AcDbText
  0
TEXT
  5
22D
330
1D6
100
AcDbEntity
  8
KOPF
100
AcDbText
 10
-81.59296000000006
 20
23.69783599999999
 30
0.0
 40
2.0
  1
Zeichnung Nr.:
 41
0.8
  7
TEXT20
100
AcDbText
  0
ATTDEF
  5
22E
330
1D6
100
AcDbEntity
  8
TEXT50
100
AcDbText
 10
-78.29193986361122
 20
14.50587824180555
 30
0.0
 40
5.0
  1

 41
0.8
  7
TEXT50
100
AcDbAttributeDefinition
  3
Standart:
  2
F1
 70
     0
  0
TEXT
  5
22F
330
1D6
100
AcDbEntity
  8
KOPF
100
AcDbText
 10
-81.48889200000008
 20
43.86057200000001
 30
0.0
 40
2.0
  1
Masseinheit:
 41
0.8
  7
TEXT20
100
AcDbText
  0
LINE
  5
230
330
1D6
100
AcDbEntity
  8
KOPF
 62
    12
100
AcDbLine
 10
-57.8081340000001
 20
36.213444
 30
0.0
 11
-83.0
 21
36.213444
 31
0.0
  0
LINE
  5
231
330
1D6
100
AcDbEntity
  8
KOPF
100
AcDbLine
 10
-57.8081340000001
 20
36.213444
 30
0.0
 11
-83.0
 21
36.213444
 31
0.0
  0
ATTDEF
  5
232
330
1D6
100
AcDbEntity
  8
TEXT35
100
AcDbText
 10
-79.40896486611496
 20
38.08722024605356
 30
0.0
 40
3.5
  1

 41
0.8
  7
TEXT35
100
AcDbAttributeDefinition
  3
Maßeinheit:
  2
F56
 70
     0
  0
TEXT
  5
233
330
1D6
100
AcDbEntity
  8
KOPF
100
AcDbText
 10
-33.57569784693112
 20
42.62823225872138
 30
0.0
 40
1.54
  1
Diese Zeichnung darf weder kopiert
 41
0.8
  7
TEXT20
100
AcDbText
  0
TEXT
  5
234
330
1D6
100
AcDbEntity
  8
KOPF
100
AcDbText
 10
-33.57569784693112
 20
40.26106040199917
 30
0.0
 40
1.54
  1
noch dritten Personen, insbesondere
 41
0.8
  7
TEXT20
100
AcDbText
1001
GENIUS_GENTRA_14
1002
{
1070
     1
1000
/
1000
noch dritten Personen, insbesondere
1000
DEU
1070
     0
1040
0.8
1070
     0
1002
}
  0
TEXT
  5
235
330
1D6
100
AcDbEntity
  8
KOPF
100
AcDbText
 10
-33.57569784693112
 20
35.63814072439632
 30
0.0
 40
1.54
  1
mitgeteilt werden und bleibt unser
 41
0.8
  7
TEXT20
100
AcDbText
  0
TEXT
  5
236
330
1D6
100
AcDbEntity
  8
KOPF
100
AcDbText
 10
-33.57569784693112
 20
33.37532604459598
 30
0.0
 40
1.54
  1
Eigentum.
 41
0.8
  7
TEXT20
100
AcDbText
  0
TEXT
  5
237
330
1D6
100
AcDbEntity
  8
KOPF
100
AcDbText
 10
-33.57569784693112
 20
37.97994933403727
 30
0.0
 40
1.54
  1
zum Zweck anderweitiger Benutzung
 41
0.8
  7
TEXT20
100
AcDbText
  0
TEXT
  5
238
330
1D6
100
AcDbEntity
  8
KOPF
100
AcDbText
 10
-33.7904806989385
 20
30.30982488917614
 30
0.0
 40
1.54
  1
Schutzvermerk nach DIN 34 beachten
 41
0.75
  7
TEXT20
100
AcDbText
  0
LINE
  5
239
330
1D6
100
AcDbEntity
  8
KOPF
100
AcDbLine
 10
-34.94281200000012
 20
47.01203199999999
 30
0.0
 11
-34.94281200000012
 21
27.0
 31
0.0
  0
LINE
  5
23A
330
1D6
100
AcDbEntity
  8
KOPF
100
AcDbLine
 10
-34.94281200000012
 20
47.01203199999999
 30
0.0
 11
-34.94281200000012
 21
27.0
 31
0.0
  0
LINE
  5
23B
330
1D6
100
AcDbEntity
  8
MITTE
100
AcDbLine
 10
-45.85521401410288
 20
36.04852954632858
 30
0.0
 11
-35.23444858652557
 21
36.04852954632858
 31
0.0
  0
LINE
  5
23C
330
1D6
100
AcDbEntity
  8
TEXT50
100
AcDbLine
 10
-45.05865660703466
 20
32.02559619470341
 30
0.0
 11
-36.50894043783512
 21
34.06858135367652
 31
0.0
  0
LINE
  5
23D
330
1D6
100
AcDbEntity
  8
TEXT50
100
AcDbLine
 10
-36.50894043783512
 20
38.02847773898061
 30
0.0
 11
-45.05865660703466
 21
40.07146289795374
 31
0.0
  0
TEXT
  5
23E
330
1D6
100
AcDbEntity
  8
KOPF
100
AcDbText
 10
-57.12244047883302
 20
43.82431699999997
 30
0.0
 40
2.0
  1
Projektion: ISO-E
 41
0.8
  7
TEXT20
100
AcDbText
  0
LINE
  5
23F
330
1D6
100
AcDbEntity
  8
TEXT50
100
AcDbLine
 10
-45.05865660703466
 20
40.07146289795374
 30
0.0
 11
-45.05865660703466
 21
32.02559619470346
 31
0.0
  0
LINE
  5
240
330
1D6
100
AcDbEntity
  8
MITTE
100
AcDbLine
 10
-51.4945506424383
 20
40.07146289795374
 30
0.0
 11
-51.4945506424383
 21
30.76413131482123
 31
0.0
  0
CIRCLE
  5
241
330
1D6
100
AcDbEntity
  8
TEXT50
100
AcDbCircle
 10
-51.4945506424383
 20
36.04852954632858
 30
0.0
 40
4.022933351625178
  0
CIRCLE
  5
242
330
1D6
100
AcDbEntity
  8
TEXT50
100
AcDbCircle
 10
-51.4945506424383
 20
36.04852954632858
 30
0.0
 40
1.979948192651899
  0
LINE
  5
243
330
1D6
100
AcDbEntity
  8
MITTE
100
AcDbLine
 10
-56.48631039339965
 20
36.04852954632858
 30
0.0
 11
-46.50279089147699
 21
36.04852954632858
 31
0.0
  0
LINE
  5
244
330
1D6
100
AcDbEntity
  8
TEXT50
100
AcDbLine
 10
-36.50894043783512
 20
38.02847773898061
 30
0.0
 11
-36.50894043783512
 21
34.06858135367652
 31
0.0
  0
LWPOLYLINE
  5
245
330
1D6
100
AcDbEntity
  8
KOPF
 62
    12
100
AcDbPolyline
 90
        2
 70
     0
 43
0.5
 10
-12.0
 20
27.0
 10
-12.0
 20
10.0
  0
LINE
  5
246
330
1D6
100
AcDbEntity
  8
KOPF
100
AcDbLine
 10
-12.0
 20
27.0
 30
0.0
 11
-12.0
 21
10.0
 31
0.0
  0
ATTDEF
  5
247
330
1D6
100
AcDbEntity
  8
TEXT50
100
AcDbText
 10
-5.58570360403041
 20
17.00587824180555
 30
0.0
 40
5.0
  1

 41
0.8
  7
TEXT50
 72
     4
 11
-5.58570360403041
 21
17.00587824180555
 31
0.0
100
AcDbAttributeDefinition
  3
Index:
  2
F1B
 70
     0
  0
TEXT
  5
248
330
1D6
100
AcDbEntity
  8
KOPF
100
AcDbText
 10
-8.353129999999964
 20
23.330072
 30
0.0
 40
2.0
  1
Index
 41
0.8
  7
TEXT20
100
AcDbText
  0
TEXT
  5
249
330
1D6
100
AcDbEntity
  8
KOPF
100
AcDbText
 10
-94.40535829344495
 20
70.39773773357916
 30
0.0
 40
2.0
  1
Benennung
 41
0.8
  7
TEXT20
100
AcDbText
  0
LINE
  5
24A
330
1D6
100
AcDbEntity
  8
KOPF
100
AcDbLine
 10
-15.0
 20
88.49999999999996
 30
0.0
 11
-15.0
 21
68.49999999999997
 31
0.0
  0
LINE
  5
24B
330
1D6
100
AcDbEntity
  8
KOPF
100
AcDbLine
 10
-15.0
 20
88.49999999999996
 30
0.0
 11
-15.0
 21
68.49999999999997
 31
0.0
  0
TEXT
  5
24C
330
1D6
100
AcDbEntity
  8
KOPF
100
AcDbText
 10
-11.65833600000008
 20
69.53813999999997
 30
0.0
 40
2.0
  1
Name
 41
0.8
  7
TEXT20
100
AcDbText
  0
TEXT
  5
24D
330
1D6
100
AcDbEntity
  8
KOPF
100
AcDbText
 10
-11.65833600000008
 20
69.53813999999997
 30
0.0
 40
2.0
  1
Name
 41
0.8
  7
TEXT20
100
AcDbText
  0
ATTDEF
  5
24E
330
1D6
100
AcDbEntity
  8
TEXT25
100
AcDbText
 10
-13.39999999999998
 20
74.90000000000001
 30
0.0
 40
2.0
  1

 41
0.8
  7
TEXT20
100
AcDbAttributeDefinition
  3
Name vv.:
  2
F75
 70
     0
  0
ATTDEF
  5
24F
330
1D6
100
AcDbEntity
  8
TEXT25
100
AcDbText
 10
-13.39999999999998
 20
79.7
 30
0.0
 40
2.0
  1

 41
0.8
  7
TEXT20
100
AcDbAttributeDefinition
  3
Name v.:
  2
F71
 70
     0
  0
ATTDEF
  5
250
330
1D6
100
AcDbEntity
  8
TEXT25
100
AcDbText
 10
-13.31006638105163
 20
84.29999999999997
 30
0.0
 40
2.0
  1

 41
0.8
  7
TEXT20
100
AcDbAttributeDefinition
  3
Name l.:
  2
F67
 70
     0
  0
LINE
  5
251
330
1D6
100
AcDbEntity
  8
KOPF
100
AcDbLine
 10
-182.0
 20
36.99999999999997
 30
0.0
 11
-113.4
 21
36.99999999999997
 31
0.0
  0
LINE
  5
252
330
1D6
100
AcDbEntity
  8
KOPF
100
AcDbLine
 10
-182.0
 20
31.99999999999997
 30
0.0
 11
-113.4
 21
31.99999999999997
 31
0.0
  0
MTEXT
  5
253
330
1D6
100
AcDbEntity
  8
Sperrlayer
 62
     1
100
AcDbMText
 10
-166.0749851709908
 20
9.027899370527848
 30
0.0
 40
10.0
 41
771.0
 71
     1
 72
     5
  1
VORABZUG - nicht FREIGEGEBEN !
  7
TEXT20
 11
0.8660254037844387
 21
0.5
 31
0.0
 73
     1
 44
1.0
1001
ACAD
1000
MTEXTBEGIN
1070
    73
1070
     1
1070
    44
1040
1.0
1070
    74
1070
     0
1000
MTEXTEND
  0
ATTDEF
  5
254
330
1D6
100
AcDbEntity
  8
RAHM3
100
AcDbText
 10
-100.7395275842899
 20
38.58583043117892
 30
0.0
 40
3.0
  1
-
 72
     1
 11
-99.68952758428995
 21
38.58583043117892
 31
0.0
100
AcDbAttributeDefinition
  3
Maßstab
  2
GEN-TITLE-SCA{5.42}
 70
     0
1001
GENIUS_GENTRA_14
1002
{
1070
     3
1000
GENTRAPR,%s,(GENMSG gendwg 83)
1000
Maßstab
1000
DEU
1070
     0
1070
     0
1002
}
  0
TEXT
  5
255
330
1D6
100
AcDbEntity
  8
0N
100
AcDbText
 10
-180.0433753026868
 20
97.1601209888692
 30
0.0
 40
3.5
  1
Zeichnungen größer darstellenden Maßstabes bzw. Einzelteilzeichnungen
 41
0.9
100
AcDbText
  0
TEXT
  5
256
330
1D6
100
AcDbEntity
  8
0N
100
AcDbText
 10
-180.0433753026868
 20
91.14471067045299
 30
0.0
 40
3.5
  1
haben vorrangige Gültigkeit
 41
0.9
100
AcDbText
  0
LINE
  5
257
330
1D6
100
AcDbEntity
  8
KOPF
 62
    12
100
AcDbLine
 10
0.0
 20
103.4999999999999
 30
0.0
 11
-182.0
 21
103.4999999999999
 31
0.0
  0
LINE
  5
258
330
1D6
100
AcDbEntity
  8
KOPF
100
AcDbLine
 10
0.0
 20
103.4999999999999
 30
0.0
 11
-182.0
 21
103.4999999999999
 31
0.0
  0
TEXT
  5
259
330
1D6
100
AcDbEntity
  8
0N
100
AcDbText
 10
-50.10402338551751
 20
63.31558948216224
 30
0.0
 40
3.5
  1
ACO Haustechnik
  7
Anschrift
100
AcDbText
  0
TEXT
  5
25A
330
1D6
100
AcDbEntity
  8
KOPF
100
AcDbText
 10
-49.87580542490343
 20
59.20935299973598
 30
0.0
 40
2.0
  1
ACO Passavant GmbH
  7
Anschrift
100
AcDbText
  0
TEXT
  5
25B
330
1D6
100
AcDbEntity
  8
KOPF
100
AcDbText
 10
-49.87580542490343
 20
55.94457150873338
 30
0.0
 40
2.0
  1
Ulsterstrasse 3
  7
Anschrift
100
AcDbText
  0
TEXT
  5
25C
330
1D6
100
AcDbEntity
  8
KOPF
100
AcDbText
 10
-49.87580542490343
 20
52.67979001773086
 30
0.0
 40
2.0
  1
36269 Philippsthal
  7
Anschrift
100
AcDbText
  0
TEXT
  5
25D
330
1D6
100
AcDbEntity
  8
KOPF
100
AcDbText
 10
-49.87580542490343
 20
49.41500852672827
 30
0.0
 40
2.0
  1
www.aco-haustechnik.de
  7
Anschrift
100
AcDbText
  0
IMAGE
  5
25E
330
1D6
100
AcDbEntity
  8
0N
 92
      140
310
8C00000001000000840000000600000005000000D8E09288BC7856C01DEE296E8D3848400000000000000000D8E09288BC7856C05305A7591AA950400000000000000000701116DB117C50C05305A7591AA950400000000000000000701116DB117C50C01DEE296E8D3848400000000000000000D8E09288BC7856C01DEE29
310
6E8D3848400000000000000000
100
AcDbRasterImage
 90
        0
 10
-89.88650717109283
 20
48.44181611106272
 30
0.0
 11
0.3193055645228697
 21
0.0
 31
0.0
 12
0.0
 22
0.3193055645228696
 32
0.0
 13
75.0
 23
57.0
340
4E0
 70
     7
280
     0
281
    50
282
    50
283
     0
360
25F
 71
     1
 91
        2
 14
-0.5
 24
-0.5
 14
74.5
 24
56.5
  0
ENDBLK
  5
260
330
1D6
100
AcDbEntity
  8
0
100
AcDbBlockEnd
  0
BLOCK
  5
369
330
368
100
AcDbEntity
  8
0
100
AcDbBlockBegin
  2
GENZOOJOBDO33
 70
     0
 10
0.0
 20
0.0
 30
0.0
  3
GENZOOJOBDO33
  1

  0
LINE
  5
36A
330
368
100
AcDbEntity
  8
0
  6
Continuous
 62
     7
100
AcDbLine
 10
-4.745905405221376
 20
-8.658995531997646
 30
0.0
 11
5.254094593378566
 21
-6.895725724797642
 31
0.0
  0
LINE
  5
36B
330
368
100
AcDbEntity
  8
RUNDUNGEN
  6
Continuous
 62
     7
100
AcDbLine
 10
-1.445905406621363
 20
3.641004475202378
 30
0.0
 11
-9.27959510721871
 21
3.641004475202378
 31
0.0
  0
LINE
  5
36C
330
368
100
AcDbEntity
  8
0
  6
Continuous
 62
     7
100
AcDbLine
 10
-1.245905406621432
 20
7.841004475202367
 30
0.0
 11
4.962122993378613
 21
7.841004475202367
 31
0.0
  0
LINE
  5
36D
330
368
100
AcDbEntity
  8
RUNDUNGEN
  6
Continuous
 62
     7
100
AcDbLine
 10
-1.245905406621432
 20
7.841004475202367
 30
0.0
 11
-1.675194728421388
 21
7.411715153302366
 31
0.0
  0
LINE
  5
36E
330
368
100
AcDbEntity
  8
RUNDUNGEN
  6
Continuous
 62
     7
100
AcDbLine
 10
-1.675194728421388
 20
7.270293797102366
 30
0.0
 11
-1.245905406621432
 21
6.841004475202367
 31
0.0
  0
LINE
  5
36F
330
368
100
AcDbEntity
  8
RUNDUNGEN
  6
Continuous
 62
     7
100
AcDbLine
 10
-1.245905406621432
 20
6.841004475202367
 30
0.0
 11
-1.245905406621432
 21
3.841004475202366
 31
0.0
  0
LINE
  5
370
330
368
100
AcDbEntity
  8
0
  6
Continuous
 62
     7
100
AcDbLine
 10
5.254094593378566
 20
-6.895725724797642
 30
0.0
 11
4.962122993378613
 21
7.34100307020236
 31
0.0
  0
LINE
  5
371
330
368
100
AcDbEntity
  8
0
  6
Continuous
 62
     7
100
AcDbLine
 10
4.962122993378613
 20
7.841004475202367
 30
0.0
 11
4.962122993378613
 21
7.341004475202367
 31
0.0
  0
ARC
  5
372
330
368
100
AcDbEntity
  8
0
  6
Continuous
 62
     7
100
AcDbCircle
 10
-33.74590540662143
 20
-53.87958372479764
 30
0.0
 40
53.7205882
100
AcDbArc
 50
57.32791419489975
 51
59.41285853071371
  0
CIRCLE
  5
373
330
368
100
AcDbEntity
  8
0
  6
Continuous
 62
     7
100
AcDbCircle
 10
-4.245905406621432
 20
-1.65899552479763
 30
0.0
 40
2.5
  0
ARC
  5
374
330
368
100
AcDbEntity
  8
RUNDUNGEN
  6
Continuous
 62
     7
100
AcDbCircle
 10
-1.445905406621363
 20
3.841004475202366
 30
0.0
 40
0.2
100
AcDbArc
 50
270.0
 51
0.0
  0
ARC
  5
375
330
368
100
AcDbEntity
  8
RUNDUNGEN
  6
Continuous
 62
     7
100
AcDbCircle
 10
-1.604484050321389
 20
7.341004475202367
 30
0.0
 40
0.1
100
AcDbArc
 50
135.0
 51
225.0
  0
LINE
  5
376
330
368
100
AcDbEntity
  8
0
  6
gen3
 62
     6
100
AcDbLine
 10
3.212122993378613
 20
0.3410044752024532
 30
0.0
 11
1.212122993378613
 21
0.3410044752024532
 31
0.0
  0
LINE
  5
377
330
368
100
AcDbEntity
  8
0
  6
gen3
 62
     6
100
AcDbLine
 10
-0.7878770066213861
 20
0.3410044752024532
 30
0.0
 11
-2.787877006621383
 21
0.3410044752024248
 31
0.0
  0
LINE
  5
378
330
368
100
AcDbEntity
  8
0
  6
gen3
 62
     6
100
AcDbLine
 10
3.212122993378613
 20
0.3410044752024248
 30
0.0
 11
3.212122993378613
 21
-7.255780411792017
 31
0.0
  0
LINE
  5
379
330
368
100
AcDbEntity
  8
0
  6
gen3
 62
     6
100
AcDbLine
 10
1.212122993378613
 20
0.3410044752024248
 30
0.0
 11
1.212122993378613
 21
-7.608434373281397
 31
0.0
  0
LINE
  5
37A
330
368
100
AcDbEntity
  8
0
  6
gen3
 62
     6
100
AcDbLine
 10
-0.7878770066213861
 20
0.3410044752024248
 30
0.0
 11
-0.7878770066213861
 21
-7.961088334770806
 31
0.0
  0
LINE
  5
37B
330
368
100
AcDbEntity
  8
0
  6
gen3
 62
     6
100
AcDbLine
 10
-2.787877006621383
 20
0.3410044752024248
 30
0.0
 11
-2.78787700662144
 21
-8.313742296260159
 31
0.0
  0
LINE
  5
37C
330
368
100
AcDbEntity
  8
7
100
AcDbLine
 10
-7.830188553232574
 20
-1.6589955247976
 30
0.0
 11
-0.6616222600102902
 21
-1.6589955247976
 31
0.0
  0
LINE
  5
37D
330
368
100
AcDbEntity
  8
7
100
AcDbLine
 10
-4.245905406621432
 20
1.525919503462944
 30
0.0
 11
-4.245905406621432
 21
-4.843910553058178
 31
0.0
  0
LINE
  5
37E
330
368
100
AcDbEntity
  8
7A
100
AcDbLine
 10
-1.604484050321389
 20
7.341004475202367
 30
0.0
 11
-1.682399687354345
 21
7.341004475202367
 31
0.0
1001
GENIUS_GENOREF_13
1005
4DA
  0
LINE
  5
37F
330
368
100
AcDbEntity
  8
7A
100
AcDbLine
 10
-1.604484050321389
 20
7.341004475202367
 30
0.0
 11
-1.604484050321389
 21
7.425278096479615
 31
0.0
1001
GENIUS_GENOREF_13
1005
4DA
  0
LINE
  5
380
330
368
100
AcDbEntity
  8
7A
100
AcDbLine
 10
-1.604484050321389
 20
7.341004475202367
 30
0.0
 11
-1.527035148771403
 21
7.341004475202367
 31
0.0
1001
GENIUS_GENOREF_13
1005
4DA
  0
LINE
  5
381
330
368
100
AcDbEntity
  8
7A
100
AcDbLine
 10
-1.604484050321389
 20
7.341004475202367
 30
0.0
 11
-1.604484050321389
 21
7.262612145299642
 31
0.0
1001
GENIUS_GENOREF_13
1005
4DA
  0
ENDBLK
  5
382
330
368
100
AcDbEntity
  8
0
100
AcDbBlockEnd
  0
BLOCK
  5
757
330
756
100
AcDbEntity
  8
0
100
AcDbBlockBegin
  2
GENZOOZGQJAL2
 70
     0
 10
0.0
 20
0.0
 30
0.0
  3
GENZOOZGQJAL2
  1

  0
LINE
  5
758
330
756
100
AcDbEntity
  8
0
100
AcDbLine
 10
-21.85444597179759
 20
-7.308389433087767
 30
0.0
 11
12.76848362142209
 21
-7.308389433087767
 31
0.0
  0
LINE
  5
759
330
756
100
AcDbEntity
  8
0
100
AcDbLine
 10
-22.1637900098425
 20
-6.308389433087767
 30
0.0
 11
11.76848362142209
 21
-6.308389433087767
 31
0.0
  0
LINE
  5
75A
330
756
100
AcDbEntity
  8
0
100
AcDbLine
 10
12.76848362142209
 20
-7.308389433087767
 30
0.0
 11
12.76848362142209
 21
19.183200745688
 31
0.0
  0
LINE
  5
75B
330
756
100
AcDbEntity
  8
0
100
AcDbLine
 10
11.76848362142209
 20
-6.308389433087767
 30
0.0
 11
11.76848362142203
 21
19.8124243365674
 31
0.0
  0
LINE
  5
75C
330
756
100
AcDbEntity
  8
0
100
AcDbLine
 10
12.76848362142209
 20
-7.308389433087767
 30
0.0
 11
11.76848362142209
 21
-6.308389433087767
 31
0.0
  0
CIRCLE
  5
75D
330
756
100
AcDbEntity
  8
WHITE
  6
Continuous
100
AcDbCircle
 10
6.453833318453232
 20
0.0
 30
0.0
 40
2.277733996314845
  0
CIRCLE
  5
75E
330
756
100
AcDbEntity
  8
WHITE
  6
Continuous
100
AcDbCircle
 10
6.453833318453232
 20
0.0
 30
0.0
 40
1.576892766679508
  0
LINE
  5
75F
330
756
100
AcDbEntity
  8
WHITE
  6
Continuous
100
AcDbLine
 10
-7.986560333243459
 20
-1.676283536096774
 30
0.0
 11
-4.921112416005596
 21
-1.676283536096774
 31
0.0
  0
ARC
  5
760
330
756
100
AcDbEntity
  8
WHITE
  6
Continuous
100
AcDbCircle
 10
-9.7828434213543
 20
-2.333113859861668
 30
0.0
 40
4.905898794685422
100
AcDbArc
 50
0.288757999995696
 51
7.694197000005479
  0
LINE
  5
761
330
756
100
AcDbEntity
  8
WHITE
  6
Continuous
100
AcDbLine
 10
-4.877005750096941
 20
-2.308389433087767
 30
0.0
 11
-4.176158408119134
 21
-2.308389433087767
 31
0.0
  0
ARC
  5
762
330
756
100
AcDbEntity
  8
WHITE
  6
Continuous
100
AcDbCircle
 10
-9.7828434213543
 20
-2.333113859861668
 30
0.0
 40
5.606740024320762
100
AcDbArc
 50
0.2526630000050751
 51
53.57637100001234
  0
ARC
  5
763
330
756
100
AcDbEntity
  8
WHITE
  6
Continuous
100
AcDbCircle
 10
-3.124894526218211
 20
-2.333109784966266
 30
0.0
 40
5.606699275368518
100
AcDbArc
 50
126.4231449999942
 51
179.7473799999976
  0
ARC
  5
764
330
756
100
AcDbEntity
  8
WHITE
  6
Continuous
100
AcDbCircle
 10
0.0
 20
0.0
 30
0.0
 40
1.576890729231896
100
AcDbArc
 50
31.05578300000568
 51
329.9999750000044
  0
ARC
  5
765
330
756
100
AcDbEntity
  8
WHITE
  6
Continuous
100
AcDbCircle
 10
0.0
 20
0.0
 30
0.0
 40
2.277731958867232
100
AcDbArc
 50
30.7309509999974
 51
329.9999720000089
  0
LINE
  5
766
330
756
100
AcDbEntity
  8
WHITE
  6
Continuous
100
AcDbLine
 10
1.972573242754149
 20
-1.13886597943383
 30
0.0
 11
1.365627786325603
 21
-0.788445364616223
 31
0.0
  0
ARC
  5
767
330
756
100
AcDbEntity
  8
WHITE
  6
Continuous
100
AcDbCircle
 10
-9.7828434213543
 20
-2.333113859861668
 30
0.0
 40
4.905898794685422
100
AcDbArc
 50
16.06589200000157
 51
47.26783700000136
  0
LINE
  5
768
330
756
100
AcDbEntity
  8
WHITE
  6
Continuous
100
AcDbLine
 10
-5.06854823756521
 20
-0.9754423064612185
 30
0.0
 11
-7.839126549131377
 21
-0.9754423064612185
 31
0.0
  0
ARC
  5
769
330
756
100
AcDbEntity
  8
WHITE
  6
Continuous
100
AcDbCircle
 10
-3.124894526218211
 20
-2.333109784966266
 30
0.0
 40
4.905851933390342
100
AcDbArc
 50
132.7316660000007
 51
163.9339569999986
  0
HATCH
  5
76A
330
756
100
AcDbEntity
  8
AM_8
100
AcDbHatch
 10
0.0
 20
0.0
 30
0.0
210
0.0
220
0.0
230
1.0
  2
_U
 70
     0
 71
     0
 91
        1
 92
        1
 93
        4
 72
     2
 10
0.0
 20
0.0
 40
2.277731958867238
 50
30.73096496929825
 51
329.9999720000063
 73
     1
 72
     1
 10
1.97257318283573
 20
-1.138866943414652
 11
1.365627086482616
 21
-0.7884459604831591
 72
     2
 10
0.0
 20
0.0
 40
1.576890729231896
 50
30.00002499999769
 51
328.9442169999937
 73
     0
 72
     1
 10
1.350867814038791
 20
0.8134743517356355
 11
1.957884245334071
 21
1.163938210695959
 97
        0
 75
     0
 76
     0
 52
45.0
 41
0.09
 77
     1
 78
     2
 53
45.0
 43
-176.4571517690806
 44
-54.26157204673859
 45
-0.0636396103067893
 46
0.0636396103067893
 79
     0
 53
135.0
 43
-176.4571517690806
 44
-54.26157204673859
 45
-0.0636396103067893
 46
-0.0636396103067893
 79
     0
 98
        1
 10
-176.4571517690806
 20
-54.26157204673859
1001
GENIUS_GENODEF_13
1002
{
1000
HIER
1070
     0
1002
}
1002
{
1000
MANEDIT
1070
     0
1002
}
1002
{
1000
NOSEL
1070
     0
1002
}
1002
{
1000
BEHIND
1070
     0
1002
}
1002
{
1000
OTHER
1070
     0
1002
}
1002
{
1000
REACTOR
1002
}
1001
GENIUS_GENOBJ-N-HTC_13
1002
{
1000
OWNER
1000
GEN
1002
}
1001
GENIUS_GENHATCH_13
1002
{
1000
DATA
1040
45.0
1042
0.09
1000
_U
1070
     1
1011
-1.371550383403245
1021
1.131275704293557
1031
0.0
1002
}
1002
{
1000
UCS
1010
0.0
1020
0.0
1030
0.0
1010
1.0
1020
0.0
1030
0.0
1010
0.0
1020
1.0
1030
0.0
1002
}
  0
HATCH
  5
76B
330
756
100
AcDbEntity
  8
AM_8
100
AcDbHatch
 10
0.0
 20
0.0
 30
0.0
210
0.0
220
0.0
230
1.0
  2
_U
 70
     0
 71
     0
 91
        2
 92
        1
 93
        2
 72
     2
 10
6.453833318453232
 20
-0.0000000000001137
 40
2.277733996314835
 50
191.4591559026153
 51
535.1587630986702
 73
     1
 72
     2
 10
6.453833318453232
 20
-0.0000000000001137
 40
2.277733996314835
 50
175.1587630986701
 51
191.4591559026153
 73
     1
 97
        0
 92
       16
 93
        2
 72
     2
 10
6.453833318453232
 20
0.0
 40
1.576892766679508
 50
348.5408440973836
 51
544.8412369013289
 73
     0
 72
     2
 10
6.453833318453232
 20
0.0
 40
1.576892766679513
 50
184.8412369013289
 51
348.5408440973836
 73
     0
 97
        0
 75
     0
 76
     0
 52
45.0
 41
0.09
 77
     1
 78
     2
 53
45.0
 43
-176.4571517690806
 44
-54.26157204673859
 45
-0.0636396103067893
 46
0.0636396103067893
 79
     0
 53
135.0
 43
-176.4571517690806
 44
-54.26157204673859
 45
-0.0636396103067893
 46
-0.0636396103067893
 79
     0
 98
        1
 10
-176.4571517690806
 20
-54.26157204673859
1001
GENIUS_GENODEF_13
1002
{
1000
HIER
1070
     0
1002
}
1002
{
1000
MANEDIT
1070
     0
1002
}
1002
{
1000
NOSEL
1070
     0
1002
}
1002
{
1000
BEHIND
1070
     0
1002
}
1002
{
1000
OTHER
1070
     0
1002
}
1002
{
1000
REACTOR
1002
}
1001
GENIUS_GENOBJ-N-HTC_13
1002
{
1000
OWNER
1000
GEN
1002
}
1001
GENIUS_GENHATCH_13
1002
{
1000
DATA
1040
45.0
1042
0.09
1000
_U
1070
     1
1011
4.645613787216912
1021
0.153151103799587
1031
0.0
1002
}
1002
{
1000
UCS
1010
0.0
1020
0.0
1030
0.0
1010
1.0
1020
0.0
1030
0.0
1010
0.0
1020
1.0
1030
0.0
1002
}
  0
HATCH
  5
76C
330
756
100
AcDbEntity
  8
AM_8
100
AcDbHatch
 10
0.0
 20
0.0
 30
0.0
210
0.0
220
0.0
230
1.0
  2
_U
 70
     0
 71
     0
 91
        2
 92
        1
 93
        2
 72
     2
 10
6.453833318453232
 20
0.0
 40
2.277733996314845
 50
191.4591559026164
 51
474.0889047300826
 73
     1
 72
     2
 10
6.453833318453232
 20
0.0
 40
2.27773399631485
 50
114.0889047300826
 51
191.4591559026164
 73
     1
 97
        0
 92
       16
 93
        2
 72
     2
 10
6.453833318453232
 20
0.0
 40
1.57689276667948
 50
348.5408440973833
 51
605.911095269917
 73
     0
 72
     2
 10
6.453833318453232
 20
0.0
 40
1.576892766679514
 50
245.9110952699171
 51
348.5408440973833
 73
     0
 97
        0
 75
     0
 76
     0
 52
45.0
 41
0.09
 77
     1
 78
     2
 53
45.0
 43
-176.4571517690806
 44
-54.26157204673859
 45
-0.0636396103067893
 46
0.0636396103067893
 79
     0
 53
135.0
 43
-176.4571517690806
 44
-54.26157204673859
 45
-0.0636396103067893
 46
-0.0636396103067893
 79
     0
 98
        1
 10
-176.4571517690806
 20
-54.26157204673859
1001
GENIUS_GENOBJ-N-HTC_13
1002
{
1000
OWNER
1000
GEN
1002
}
1001
GENIUS_GENODEF_13
1002
{
1000
HIER
1070
     0
1002
}
1002
{
1000
MANEDIT
1070
     0
1002
}
1002
{
1000
NOSEL
1070
     0
1002
}
1002
{
1000
BEHIND
1070
     0
1002
}
1002
{
1000
OTHER
1070
     0
1002
}
1002
{
1000
REACTOR
1002
}
1001
GENIUS_GENHATCH_13
1002
{
1000
DATA
1040
45.0
1042
0.09
1000
_U
1070
     1
1011
5.696521842211041
1021
1.693870951949747
1031
0.0
1002
}
1002
{
1000
UCS
1010
0.0
1020
0.0
1030
0.0
1010
1.0
1020
0.0
1030
0.0
1010
0.0
1020
1.0
1030
0.0
1002
}
  0
HATCH
  5
76D
330
756
100
AcDbEntity
  8
AM_8
100
AcDbHatch
 10
0.0
 20
0.0
 30
0.0
210
0.0
220
0.0
230
1.0
  2
_U
 70
     0
 71
     0
 91
        2
 92
        1
 93
       43
 72
     1
 10
-7.986560333243459
 20
-1.676283536096889
 11
-4.921113586658066
 21
-1.676283594022151
 72
     2
 10
-9.7828434213543
 20
-2.333113859861668
 40
4.905898794685422
 50
352.305802999994
 51
359.7108172679506
 73
     0
 72
     1
 10
-4.877007113300351
 20
-2.308352957657231
 11
-4.877005750096941
 21
-2.308389433087654
 72
     1
 10
-4.877005750097167
 20
-2.308389433087767
 11
-4.176158408119134
 21
-2.308389433087767
 72
     1
 10
-4.176158408119134
 20
-2.308389433087767
 11
-4.185576899990792
 21
-2.036957007456293
 72
     1
 10
-4.185576899990792
 20
-2.036957007456178
 11
-4.205716101885399
 21
-1.757627489254673
 72
     2
 10
-9.7828434213543
 20
-2.333113859861555
 40
5.606740024320776
 50
5.891322448679512
 51
10.01155376516831
 73
     1
 72
     1
 10
-4.261478816228414
 20
-1.358400262139297
 11
-4.317602046734008
 21
-1.081446804506185
 72
     2
 10
-9.782843421353843
 20
-2.333113859862233
 40
5.606740024320759
 50
12.89959841733238
 51
13.74468133579606
 73
     1
 72
     1
 10
-4.33665727783591
 20
-1.000976408068709
 11
-4.473245849456361
 21
-0.5320843418310233
 72
     2
 10
-9.782843421354071
 20
-2.333113859862123
 40
5.606740024320804
 50
18.73707193417068
 51
19.34996135248807
 73
     1
 72
     1
 10
-4.492814754780282
 20
-0.4753920273082032
 11
-4.752983236845466
 21
0.1421632830708859
 72
     1
 10
-4.752983236845011
 20
0.1421632830708859
 11
-4.928712158876122
 21
0.4727627209870207
 72
     2
 10
-9.782843421354071
 20
-2.333113859861779
 40
5.60674002432075
 50
30.02958189183695
 51
33.33627185401258
 73
     1
 72
     1
 10
-5.09863848789223
 20
0.7480803634308586
 11
-5.138660865507516
 21
0.8080805130307453
 72
     2
 10
-9.7828434213543
 20
-2.333113859861668
 40
5.606740024320771
 50
34.07331412204379
 51
37.96952971603585
 73
     1
 72
     1
 10
-5.362836895098549
 20
1.11638987374681
 11
-5.556345519435353
 21
1.350939503676499
 72
     2
 10
-9.7828434213543
 20
-2.333113859861668
 40
5.606740024320794
 50
41.07723853974786
 51
41.7849099604546
 73
     1
 72
     1
 10
-5.602169205213382
 20
1.402859480355914
 11
-5.934529615065002
 21
1.741422754781409
 72
     1
 10
-5.934529615065002
 20
1.741422754781409
 11
-6.189526065605377
 21
1.970791817682538
 72
     2
 10
-9.782843421353843
 20
-2.333113859861668
 40
5.606740024320697
 50
50.14160045082939
 51
50.63287161007291
 73
     1
 72
     1
 10
-6.226560675684595
 20
2.001443410860928
 11
-6.453838469887838
 21
2.178343305150292
 72
     1
 10
-6.453838469888067
 20
2.178343305150292
 11
-6.552277665487507
 21
2.104020096057183
 72
     2
 10
-3.124894526218211
 20
-2.333109784966154
 40
5.606699275368516
 50
127.683662553009
 51
130.2598590092964
 73
     1
 72
     1
 10
-6.748253654859577
 20
1.945481734366808
 11
-7.021551729907512
 21
1.694187143316525
 72
     1
 10
-7.021551729907512
 20
1.694187143316525
 11
-7.22771138901453
 21
1.488142700119169
 72
     2
 10
-3.124894526218211
 20
-2.333109784965925
 40
5.606699275368422
 50
137.0350233487508
 51
137.6540480887846
 73
     1
 72
     1
 10
-7.268756021495846
 20
1.443593628379059
 11
-7.585074629266954
 21
1.064223023692193
 72
     2
 10
-3.124894526216392
 20
-2.333109784965245
 40
5.606699275369539
 50
142.7033646660853
 51
142.8216597002024
 73
     1
 72
     1
 10
-7.592079379868209
 20
1.055007132694185
 11
-7.860094419580946
 21
0.6690492271974337
 72
     2
 10
-3.124894526218211
 20
-2.333109784965925
 40
5.606699275368511
 50
147.6249377417097
 51
149.0670983871278
 73
     1
 72
     1
 10
-7.934152221209387
 20
0.5489237310754334
 11
-8.076625443805369
 21
0.2966121935387491
 72
     2
 10
-3.124894526218211
 20
-2.333109784966266
 40
5.606699275368516
 50
152.0285131198598
 51
154.3414573586053
 73
     1
 72
     1
 10
-8.178720365011486
 20
0.0946301425312868
 11
-8.330609067681052
 21
-0.2528326446147275
 72
     1
 10
-8.330609067681052
 20
-0.2528326446147275
 11
-8.457695598812051
 21
-0.6021246652842365
 72
     2
 10
-3.124894526218211
 20
-2.333109784965699
 40
5.606699275368532
 50
162.016978950881
 51
163.4414752505082
 73
     1
 72
     1
 10
-8.499079090060604
 20
-0.73523086646901
 11
-8.630641129756892
 21
-1.276656782582219
 72
     1
 10
-8.630641129756892
 20
-1.276656782582219
 11
-8.703270018325381
 21
-1.77025666604686
 72
     2
 10
-3.124894526218211
 20
-2.333109784966154
 40
5.606699275368574
 50
174.238406294719
 51
176.3825340783078
 73
     1
 72
     1
 10
-8.720422683888955
 20
-1.979356479491456
 11
-8.731539305319074
 21
-2.308389643377495
 72
     1
 10
-8.731539305319074
 20
-2.308389643377495
 11
-8.030667878757865
 21
-2.308389763381454
 72
     2
 10
-3.124894526218211
 20
-2.333109784966381
 40
4.90583563380941
 50
180.2887090000028
 51
183.9914775000014
 73
     0
 72
     1
 10
-8.018830639676252
 20
-1.991623938485074
 11
-7.986560333243459
 21
-1.676283536096889
 97
        0
 92
       16
 93
       21
 72
     1
 10
-5.068549074126622
 20
-0.9754424005628834
 11
-7.839126549131608
 21
-0.9754423064612185
 72
     1
 10
-7.839126549131608
 20
-0.9754423064612185
 11
-7.783579277884882
 21
-0.7998499933332825
 72
     1
 10
-7.783579277884655
 20
-0.7998499933333961
 11
-7.72831863538272
 21
-0.6420501996991561
 72
     1
 10
-7.728318635382946
 20
-0.6420501996991561
 11
-7.613850443832687
 21
-0.3501208963449471
 72
     1
 10
-7.613850443832687
 20
-0.3501208963449471
 11
-7.590312164318675
 21
-0.3015024140177047
 72
     2
 10
-3.124894526218211
 20
-2.333109784966266
 40
4.905851933390334
 50
204.4638591797037
 51
209.5711748127995
 73
     0
 72
     1
 10
-7.391726468587876
 20
0.0879495633198531
 11
-7.377019259925417
 21
0.1153878651377909
 72
     1
 10
-7.377019259925417
 20
0.1153878651377909
 11
-7.270444881467255
 21
0.2929121081945141
 72
     1
 10
-7.270444881467481
 20
0.2929121081945141
 11
-7.241477213598954
 21
0.335434794070693
 72
     2
 10
-3.124894526218211
 20
-2.333109784966266
 40
4.905851933390331
 50
212.9530288293097
 51
227.2680634576603
 73
     0
 72
     1
 10
-6.453854569010217
 20
1.270417407361264
 11
-6.453837337124922
 21
1.270434596155268
 72
     2
 10
-9.7828434213543
 20
-2.333113859861441
 40
4.905898794685419
 50
312.732163000002
 51
315.445619133743
 73
     0
 72
     1
 10
-6.286974130352287
 20
1.108795622377324
 11
-6.248111142605917
 21
1.071149375617892
 72
     1
 10
-6.248111142605917
 20
1.071149375617777
 11
-6.214429522332464
 21
1.033526190539646
 72
     2
 10
-9.7828434213543
 20
-2.333113859861555
 40
4.905898794685414
 50
316.6665377932571
 51
324.6089167120336
 73
     0
 72
     1
 10
-5.783466726528786
 20
0.5081585727965603
 11
-5.742112982373327
 21
0.4530508543928137
 72
     1
 10
-5.742112982373327
 20
0.4530508543929276
 11
-5.709368291386907
 21
0.4008655382385772
 72
     2
 10
-9.7828434213543
 20
-2.333113859861668
 40
4.90589879468541
 50
326.1318174816516
 51
335.126920261769
 73
     0
 72
     1
 10
-5.332007278957461
 20
-0.2696457556179439
 11
-5.287225088940657
 21
-0.3591607879468484
 72
     1
 10
-5.287225088940431
 20
-0.3591607879468484
 11
-5.243307024379419
 21
-0.4728847653041158
 72
     2
 10
-9.7828434213543
 20
-2.333113859861668
 40
4.905898794685408
 50
337.7169696472817
 51
343.9341079999992
 73
     0
 97
        0
 75
     0
 76
     0
 52
45.0
 41
0.1
 77
     1
 78
     2
 53
45.0
 43
-176.4571513522423
 44
-54.26157211694988
 45
-0.0707106781186548
 46
0.0707106781186548
 79
     0
 53
135.0
 43
-176.4571513522423
 44
-54.26157211694988
 45
-0.0707106781186548
 46
-0.0707106781186548
 79
     0
 98
        1
 10
-176.4571513522423
 20
-54.26157211694988
1001
GENIUS_GENODEF_13
1002
{
1000
HIER
1070
     0
1002
}
1002
{
1000
MANEDIT
1070
     0
1002
}
1002
{
1000
NOSEL
1070
     0
1002
}
1002
{
1000
BEHIND
1070
     0
1002
}
1002
{
1000
OTHER
1070
     0
1002
}
1002
{
1000
REACTOR
1002
}
1001
GENIUS_GENOBJ-N-HTC_13
1002
{
1000
OWNER
1000
GEN
1002
}
1001
GENIUS_GENHATCH_13
1002
{
1000
DATA
1040
45.0
1042
0.1
1000
_U
1070
     1
1011
-6.315948351937548
1021
-1.141903832062098
1031
0.0
1002
}
1002
{
1000
UCS
1010
0.0
1020
0.0
1030
0.0
1010
1.0
1020
0.0
1030
0.0
1010
0.0
1020
1.0
1030
0.0
1002
}
  0
ENDBLK
  5
76E
330
756
100
AcDbEntity
  8
0
100
AcDbBlockEnd
  0
BLOCK
  5
81F
330
81E
100
AcDbEntity
  8
0
100
AcDbBlockBegin
  2
GENZOO58WXZ23
 70
     0
 10
0.0
 20
0.0
 30
0.0
  3
GENZOO58WXZ23
  1

  0
LINE
  5
820
330
81E
100
AcDbEntity
  8
0
100
AcDbLine
 10
0.3999999999999772
 20
-4.0
 30
0.0
 11
4.114785989487586
 21
-4.0
 31
0.0
  0
LINE
  5
821
330
81E
100
AcDbEntity
  8
0
100
AcDbLine
 10
-0.3000000000000114
 20
3.300000000000011
 30
0.0
 11
4.694833728608839
 21
3.300000000000011
 31
0.0
  0
LINE
  5
822
330
81E
100
AcDbEntity
  8
0
100
AcDbLine
 10
0.3999999999999772
 20
4.0
 30
0.0
 11
4.114785989487586
 21
4.0
 31
0.0
  0
LINE
  5
823
330
81E
100
AcDbEntity
  8
0
100
AcDbLine
 10
-0.2999999999999545
 20
3.29999999999995
 30
0.0
 11
-0.2999999999998977
 21
0.5
 31
0.0
  0
LINE
  5
824
330
81E
100
AcDbEntity
  8
0
100
AcDbLine
 10
-0.2999999999998977
 20
-0.5
 30
0.0
 11
-0.3000000000000114
 21
-3.300000000000011
 31
0.0
  0
LINE
  5
825
330
81E
100
AcDbEntity
  8
0
100
AcDbLine
 10
0.3999999999999772
 20
4.0
 30
0.0
 11
-0.2999999999999545
 21
3.300000000000011
 31
0.0
  0
LINE
  5
826
330
81E
100
AcDbEntity
  8
0
100
AcDbLine
 10
-0.3000000000000114
 20
-3.300000000000011
 30
0.0
 11
0.3999999999999772
 21
-4.0
 31
0.0
  0
ARC
  5
827
330
81E
100
AcDbEntity
  8
0
100
AcDbCircle
 10
0.0
 20
0.0
 30
0.0
 40
0.5
100
AcDbArc
 50
270.0
 51
90.0
  0
LINE
  5
828
330
81E
100
AcDbEntity
  8
0
100
AcDbLine
 10
0.0
 20
0.5
 30
0.0
 11
-0.2999999999998977
 21
0.5
 31
0.0
  0
LINE
  5
829
330
81E
100
AcDbEntity
  8
0
100
AcDbLine
 10
0.0
 20
-0.5
 30
0.0
 11
-0.2999999999998977
 21
-0.500000000000057
 31
0.0
  0
LINE
  5
82A
330
81E
100
AcDbEntity
  8
AM_7
  6
AM_DIN_G_W050x2
100
AcDbLine
 10
0.0
 20
0.0
 30
0.0
 11
0.2766935612725661
 21
0.0
 31
0.0
1001
GENIUS_GENOREF_13
1005
93A
  0
LINE
  5
82B
330
81E
100
AcDbEntity
  8
AM_7
  6
AM_DIN_G_W050x2
100
AcDbLine
 10
0.0
 20
0.0
 30
0.0
 11
0.0
 21
0.3407603774495556
 31
0.0
1001
GENIUS_GENOREF_13
1005
93A
  0
LINE
  5
82C
330
81E
100
AcDbEntity
  8
AM_7
  6
AM_DIN_G_W050x2
100
AcDbLine
 10
0.0
 20
0.0
 30
0.0
 11
-0.3009380016174532
 21
0.0
 31
0.0
1001
GENIUS_GENOREF_13
1005
93A
  0
LINE
  5
82D
330
81E
100
AcDbEntity
  8
AM_7
  6
AM_DIN_G_W050x2
100
AcDbLine
 10
0.0
 20
0.0
 30
0.0
 11
0.0
 21
-0.3316102062193522
 31
0.0
1001
GENIUS_GENOREF_13
1005
93A
  0
ENDBLK
  5
82E
330
81E
100
AcDbEntity
  8
0
100
AcDbBlockEnd
  0
BLOCK
  5
AD9
330
AD8
100
AcDbEntity
  8
0
100
AcDbBlockBegin
  2
*D9
 70
     1
 10
0.0
 20
0.0
 30
0.0
  3
*D9
  1

  0
LINE
  5
1E1B
330
AD8
100
AcDbEntity
  8
P-0000
  6
Continuous
 62
     3
370
    -2
100
AcDbLine
 10
1458.324595241044
 20
275.6189652346935
 30
0.0
 11
1458.324595241044
 21
291.6189652346933
 31
0.0
  0
LINE
  5
1E1C
330
AD8
100
AcDbEntity
  8
P-0000
  6
Continuous
 62
     3
370
    -2
100
AcDbLine
 10
1523.024595241043
 20
275.6189652346927
 30
0.0
 11
1523.024595241043
 21
291.6189652346933
 31
0.0
  0
LINE
  5
1E1D
330
AD8
100
AcDbEntity
  8
P-0000
  6
Continuous
 62
     3
370
    -2
100
AcDbLine
 10
1464.624595241043
 20
287.6189652346933
 30
0.0
 11
1516.724595241043
 21
287.6189652346933
 31
0.0
  0
SOLID
  5
1E1E
330
AD8
100
AcDbEntity
  8
P-0000
  6
Continuous
 62
     3
100
AcDbTrace
 10
1464.624595241043
 20
288.6689652346933
 30
0.0
 11
1464.624595241043
 21
286.5689652346933
 31
0.0
 12
1458.324595241044
 22
287.6189652346933
 32
0.0
 13
1458.324595241044
 23
287.6189652346933
 33
0.0
  0
SOLID
  5
1E1F
330
AD8
100
AcDbEntity
  8
P-0000
  6
Continuous
 62
     3
100
AcDbTrace
 10
1516.724595241043
 20
288.6689652346933
 30
0.0
 11
1516.724595241043
 21
286.5689652346933
 31
0.0
 12
1523.024595241043
 22
287.6189652346933
 32
0.0
 13
1523.024595241043
 23
287.6189652346933
 33
0.0
  0
MTEXT
  5
1E20
330
AD8
100
AcDbEntity
  8
P-0000
  6
Continuous
 62
     2
100
AcDbMText
 10
1490.674595241043
 20
295.1189652346933
 30
0.0
 40
7.0
 41
0.0
 71
     5
 72
     1
  1
65
 73
     1
 44
1.0
1001
ACAD
1000
MTEXTBEGIN
1070
    73
1070
     1
1070
    44
1040
1.0
1070
    74
1070
     0
1000
MTEXTEND
  0
POINT
  5
1E21
330
AD8
100
AcDbEntity
  8
DEFPOINTS
  6
Continuous
 62
     0
100
AcDbPoint
 10
1458.324595241044
 20
275.6189652346935
 30
0.0
  0
POINT
  5
1E22
330
AD8
100
AcDbEntity
  8
DEFPOINTS
  6
Continuous
 62
     0
100
AcDbPoint
 10
1523.024595241043
 20
275.6189652346927
 30
0.0
  0
POINT
  5
1E23
330
AD8
100
AcDbEntity
  8
DEFPOINTS
  6
Continuous
 62
     0
100
AcDbPoint
 10
1523.024595241043
 20
287.6189652346933
 30
0.0
  0
ENDBLK
  5
ADA
330
AD8
100
AcDbEntity
  8
0
100
AcDbBlockEnd
  0
BLOCK
  5
EB7
330
EB6
100
AcDbEntity
  8
0
100
AcDbBlockBegin
  2
*D17
 70
     1
 10
0.0
 20
0.0
 30
0.0
  3
*D17
  1

  0
LINE
  5
1E24
330
EB6
100
AcDbEntity
  8
P-0000
  6
Continuous
 62
     3
370
    -2
100
AcDbLine
 10
1461.674308640836
 20
256.3189652332757
 30
0.0
 11
1416.881297477873
 21
256.3189652332757
 31
0.0
  0
LINE
  5
1E25
330
EB6
100
AcDbEntity
  8
P-0000
  6
Continuous
 62
     3
370
    -2
100
AcDbLine
 10
1459.65480822266
 20
276.3189652346934
 30
0.0
 11
1416.881297477873
 21
276.3189652346934
 31
0.0
  0
LINE
  5
1E26
330
EB6
100
AcDbEntity
  8
P-0000
  6
Continuous
 62
     3
370
    -2
100
AcDbLine
 10
1420.881297477873
 20
250.0189652332757
 30
0.0
 11
1420.881297477873
 21
243.7189652332757
 31
0.0
  0
LINE
  5
1E27
330
EB6
100
AcDbEntity
  8
P-0000
  6
Continuous
 62
     3
370
    -2
100
AcDbLine
 10
1420.881297477873
 20
282.6189652346934
 30
0.0
 11
1420.881297477873
 21
288.9189652346934
 31
0.0
  0
LINE
  5
1E28
330
EB6
100
AcDbEntity
  8
P-0000
  6
Continuous
 62
     3
370
    -2
100
AcDbLine
 10
1420.881297477873
 20
256.3189652332757
 30
0.0
 11
1420.881297477873
 21
276.3189652346934
 31
0.0
  0
SOLID
  5
1E29
330
EB6
100
AcDbEntity
  8
P-0000
  6
Continuous
 62
     3
100
AcDbTrace
 10
1419.831297477873
 20
250.0189652332757
 30
0.0
 11
1421.931297477873
 21
250.0189652332757
 31
0.0
 12
1420.881297477873
 22
256.3189652332757
 32
0.0
 13
1420.881297477873
 23
256.3189652332757
 33
0.0
  0
SOLID
  5
1E2A
330
EB6
100
AcDbEntity
  8
P-0000
  6
Continuous
 62
     3
100
AcDbTrace
 10
1419.831297477873
 20
282.6189652346934
 30
0.0
 11
1421.931297477873
 21
282.6189652346934
 31
0.0
 12
1420.881297477873
 22
276.3189652346934
 32
0.0
 13
1420.881297477873
 23
276.3189652346934
 33
0.0
  0
MTEXT
  5
1E2B
330
EB6
100
AcDbEntity
  8
P-0000
  6
Continuous
 62
     2
100
AcDbMText
 10
1413.380608501495
 20
266.3189652339847
 30
0.0
 40
7.0
 41
0.0
 71
     5
 72
     1
  1
20
 11
0.0000000000000001
 21
1.0
 31
0.0
 73
     1
 44
1.0
1001
ACAD
1000
MTEXTBEGIN
1070
    73
1070
     1
1070
    44
1040
1.0
1070
    74
1070
     0
1000
MTEXTEND
  0
POINT
  5
1E2C
330
EB6
100
AcDbEntity
  8
DEFPOINTS
  6
Continuous
 62
     0
100
AcDbPoint
 10
1461.674308640836
 20
256.3189652332757
 30
0.0
  0
POINT
  5
1E2D
330
EB6
100
AcDbEntity
  8
DEFPOINTS
  6
Continuous
 62
     0
100
AcDbPoint
 10
1459.65480822266
 20
276.3189652346934
 30
0.0
  0
POINT
  5
1E2E
330
EB6
100
AcDbEntity
  8
DEFPOINTS
  6
Continuous
 62
     0
100
AcDbPoint
 10
1420.881297477873
 20
276.3189652346934
 30
0.0
  0
ENDBLK
  5
EB8
330
EB6
100
AcDbEntity
  8
0
100
AcDbBlockEnd
  0
BLOCK
  5
EE8
330
EE7
100
AcDbEntity
  8
0
100
AcDbBlockBegin
  2
*D18
 70
     1
 10
0.0
 20
0.0
 30
0.0
  3
*D18
  1

  0
LINE
  5
1E2F
330
EE7
100
AcDbEntity
  8
P-0000
  6
Continuous
 62
     3
370
    -2
100
AcDbLine
 10
1451.674308604203
 20
258.0822350471935
 30
0.0
 11
1438.35832720627
 21
258.0822350471935
 31
0.0
  0
LINE
  5
1E30
330
EE7
100
AcDbEntity
  8
P-0000
  6
Continuous
 62
     3
370
    -2
100
AcDbLine
 10
1460.352693555829
 20
276.3189652346934
 30
0.0
 11
1438.35832720627
 21
276.3189652346934
 31
0.0
  0
LINE
  5
1E31
330
EE7
100
AcDbEntity
  8
P-0000
  6
Continuous
 62
     3
370
    -2
100
AcDbLine
 10
1442.358327206269
 20
251.7822350471935
 30
0.0
 11
1442.358327206269
 21
245.4822350471935
 31
0.0
  0
LINE
  5
1E32
330
EE7
100
AcDbEntity
  8
P-0000
  6
Continuous
 62
     3
370
    -2
100
AcDbLine
 10
1442.358327206269
 20
282.6189652346934
 30
0.0
 11
1442.358327206269
 21
288.9189652346934
 31
0.0
  0
LINE
  5
1E33
330
EE7
100
AcDbEntity
  8
P-0000
  6
Continuous
 62
     3
370
    -2
100
AcDbLine
 10
1442.358327206269
 20
258.0822350471935
 30
0.0
 11
1442.358327206269
 21
276.3189652346934
 31
0.0
  0
SOLID
  5
1E34
330
EE7
100
AcDbEntity
  8
P-0000
  6
Continuous
 62
     3
100
AcDbTrace
 10
1441.30832720627
 20
251.7822350471935
 30
0.0
 11
1443.40832720627
 21
251.7822350471935
 31
0.0
 12
1442.358327206269
 22
258.0822350471935
 32
0.0
 13
1442.358327206269
 23
258.0822350471935
 33
0.0
  0
SOLID
  5
1E35
330
EE7
100
AcDbEntity
  8
P-0000
  6
Continuous
 62
     3
100
AcDbTrace
 10
1441.30832720627
 20
282.6189652346934
 30
0.0
 11
1443.40832720627
 21
282.6189652346934
 31
0.0
 12
1442.358327206269
 22
276.3189652346934
 32
0.0
 13
1442.358327206269
 23
276.3189652346934
 33
0.0
  0
MTEXT
  5
1E36
330
EE7
100
AcDbEntity
  8
P-0000
  6
Continuous
 62
     2
100
AcDbMText
 10
1434.85832720627
 20
267.2006001409437
 30
0.0
 40
7.0
 41
0.0
 71
     5
 72
     1
  1
19
 11
0.0000000000000001
 21
1.0
 31
0.0
 73
     1
 44
1.0
1001
ACAD
1000
MTEXTBEGIN
1070
    73
1070
     1
1070
    44
1040
1.0
1070
    74
1070
     0
1000
MTEXTEND
  0
POINT
  5
1E37
330
EE7
100
AcDbEntity
  8
DEFPOINTS
  6
Continuous
 62
     0
100
AcDbPoint
 10
1451.674308604203
 20
258.0822350471935
 30
0.0
  0
POINT
  5
1E38
330
EE7
100
AcDbEntity
  8
DEFPOINTS
  6
Continuous
 62
     0
100
AcDbPoint
 10
1460.352693555829
 20
276.3189652346934
 30
0.0
  0
POINT
  5
1E39
330
EE7
100
AcDbEntity
  8
DEFPOINTS
  6
Continuous
 62
     0
100
AcDbPoint
 10
1442.358327206269
 20
276.3189652346934
 30
0.0
  0
ENDBLK
  5
EE9
330
EE7
100
AcDbEntity
  8
0
100
AcDbBlockEnd
  0
BLOCK
  5
107D
330
107C
100
AcDbEntity
  8
0
100
AcDbBlockBegin
  2
GENZOO29JZQ33
 70
     0
 10
0.0
 20
0.0
 30
0.0
  3
GENZOO29JZQ33
  1

  0
LINE
  5
1073
330
107C
100
AcDbEntity
  8
0
100
AcDbLine
 10
0.25
 20
-4.039870405563758
 30
0.0
 11
6.352861573662494
 21
-4.039870405563758
 31
0.0
  0
LINE
  5
1074
330
107C
100
AcDbEntity
  8
0
100
AcDbLine
 10
-0.450000000000273
 20
3.260129594436247
 30
0.0
 11
6.786085623932875
 21
3.260129594436247
 31
0.0
  0
LINE
  5
1075
330
107C
100
AcDbEntity
  8
0
100
AcDbLine
 10
0.2499999999997726
 20
3.960129594436239
 30
0.0
 11
6.402872532163882
 21
3.960129594436239
 31
0.0
  0
LINE
  5
1050
330
107C
100
AcDbEntity
  8
0
100
AcDbLine
 10
-0.4500000000000455
 20
3.260129594436193
 30
0.0
 11
-0.4499999999998181
 21
0.4601295944362393
 31
0.0
  0
LINE
  5
1051
330
107C
100
AcDbEntity
  8
0
100
AcDbLine
 10
-0.4499999999998181
 20
-0.5398704055637609
 30
0.0
 11
-0.4500000000000455
 21
-3.339870405563771
 31
0.0
  0
LINE
  5
1052
330
107C
100
AcDbEntity
  8
0
100
AcDbLine
 10
0.25
 20
3.960129594436239
 30
0.0
 11
-0.4500000000000455
 21
3.260129594436247
 31
0.0
  0
LINE
  5
1053
330
107C
100
AcDbEntity
  8
0
100
AcDbLine
 10
-0.4500000000000455
 20
-3.339870405563771
 30
0.0
 11
0.25
 21
-4.039870405563758
 31
0.0
  0
ARC
  5
1054
330
107C
100
AcDbEntity
  8
0
100
AcDbCircle
 10
-0.1500000000000909
 20
-0.0398704055637609
 30
0.0
 40
0.5
100
AcDbArc
 50
270.0
 51
90.0
  0
LINE
  5
1055
330
107C
100
AcDbEntity
  8
0
100
AcDbLine
 10
-0.1500000000000909
 20
0.4601295944362393
 30
0.0
 11
-0.4922582083404451
 21
0.4601295944362393
 31
0.0
  0
LINE
  5
1056
330
107C
100
AcDbEntity
  8
0
100
AcDbLine
 10
-0.1500000000000909
 20
-0.5398704055637609
 30
0.0
 11
-0.4499999999998181
 21
-0.5398704055638178
 31
0.0
  0
LINE
  5
1057
330
107C
100
AcDbEntity
  8
AM_7
  6
AM_DIN_G_W050x2
100
AcDbLine
 10
0.0
 20
-0.0398704055637609
 30
0.0
 11
0.2766935612726229
 21
-0.0398704055637609
 31
0.0
1001
GENIUS_GENOREF_13
1005
1071
  0
LINE
  5
1058
330
107C
100
AcDbEntity
  8
AM_7
  6
AM_DIN_G_W050x2
100
AcDbLine
 10
0.0
 20
-0.0398704055637609
 30
0.0
 11
0.0
 21
0.3008899718857947
 31
0.0
1001
GENIUS_GENOREF_13
1005
1071
  0
LINE
  5
1059
330
107C
100
AcDbEntity
  8
AM_7
  6
AM_DIN_G_W050x2
100
AcDbLine
 10
0.0
 20
-0.0398704055637609
 30
0.0
 11
-0.3009380016173964
 21
-0.0398704055637609
 31
0.0
1001
GENIUS_GENOREF_13
1005
1071
  0
LINE
  5
105A
330
107C
100
AcDbEntity
  8
AM_7
  6
AM_DIN_G_W050x2
100
AcDbLine
 10
0.0
 20
-0.0398704055637609
 30
0.0
 11
0.0
 21
-0.3714806117831131
 31
0.0
1001
GENIUS_GENOREF_13
1005
1071
  0
LINE
  5
105B
330
107C
100
AcDbEntity
  8
0
  6
Continuous
 62
     7
100
AcDbLine
 10
-6.65831500834065
 20
0.4601295944362393
 30
0.0
 11
-6.65831500834065
 21
-0.0398704055637609
 31
0.0
  0
LINE
  5
1076
330
107C
100
AcDbEntity
  8
0
  6
Continuous
 62
     7
100
AcDbLine
 10
-6.65831500834065
 20
-0.0398704055637609
 30
0.0
 11
-6.726829949233206
 21
-3.380704349978998
 31
0.0
  0
LINE
  5
105D
330
107C
100
AcDbEntity
  8
RUNDUNGEN
  6
Continuous
 62
     7
100
AcDbLine
 10
-0.4502866083405479
 20
-3.539870405563758
 30
0.0
 11
-0.4502866083405479
 21
-0.5398704055637609
 31
0.0
  0
LINE
  5
105E
330
107C
100
AcDbEntity
  8
RUNDUNGEN
  6
Continuous
 62
     7
100
AcDbLine
 10
-0.4502866083405479
 20
-0.5398704055637609
 30
0.0
 11
-0.0209972864404335
 21
-0.1105810836637602
 31
0.0
  0
LINE
  5
105F
330
107C
100
AcDbEntity
  8
RUNDUNGEN
  6
Continuous
 62
     7
100
AcDbLine
 10
-0.0209972864404335
 20
0.0308402725362385
 30
0.0
 11
-0.4502866083405479
 21
0.4601295944362393
 31
0.0
  0
LINE
  5
1077
330
107C
100
AcDbEntity
  8
RUNDUNGEN
  6
Continuous
 62
     7
100
AcDbLine
 10
6.533970647122258
 20
-3.739870405563691
 30
0.0
 11
-0.2502866083405024
 21
-3.739870405563691
 31
0.0
  0
LINE
  5
1061
330
107C
100
AcDbEntity
  8
0
  6
Continuous
 62
     7
100
AcDbLine
 10
-6.65831500834065
 20
0.4601295944362393
 30
0.0
 11
-0.4502866083405479
 21
0.4601295944362393
 31
0.0
  0
ARC
  5
1078
330
107C
100
AcDbEntity
  8
0
  6
Continuous
 62
     7
100
AcDbCircle
 10
2.549713391659451
 20
-9.039870405563759
 30
0.0
 40
2.5
100
AcDbArc
 50
69.332304495171
 51
142.1701174434081
  0
ARC
  5
1063
330
107C
100
AcDbEntity
  8
RUNDUNGEN
  6
Continuous
 62
     7
100
AcDbCircle
 10
-0.2502866083405024
 20
-3.539870405563758
 30
0.0
 40
0.2
100
AcDbArc
 50
180.0
 51
270.0
  0
ARC
  5
1064
330
107C
100
AcDbEntity
  8
RUNDUNGEN
  6
Continuous
 62
     7
100
AcDbCircle
 10
-0.0917079645405465
 20
-0.0398704055637609
 30
0.0
 40
0.1
100
AcDbArc
 50
314.9999999999954
 51
45.0000000000046
  0
LINE
  5
1066
330
107C
100
AcDbEntity
  8
0
  6
gen3
 62
     6
100
AcDbLine
 10
-1.042277728325415
 20
-7.039870405563648
 30
0.0
 11
0.9577222716745835
 21
-7.039870405563648
 31
0.0
  0
LINE
  5
1079
330
107C
100
AcDbEntity
  8
0
  6
gen3
 62
     6
100
AcDbLine
 10
-1.042277728325415
 20
-7.039870405563648
 30
0.0
 11
-1.042277728325415
 21
-7.456075388896237
 31
0.0
  0
LINE
  5
107A
330
107C
100
AcDbEntity
  8
0
  6
gen3
 62
     6
100
AcDbLine
 10
0.9577222716745835
 20
-7.039870405563648
 30
0.0
 11
0.9577222716745835
 21
-7.467407255413775
 31
0.0
  0
LINE
  5
107B
330
107C
100
AcDbEntity
  8
7
100
AcDbLine
 10
2.549713391659451
 20
-5.854955377303213
 30
0.0
 11
2.549713391659451
 21
-7.083668872008329
 31
0.0
  0
LINE
  5
106C
330
107C
100
AcDbEntity
  8
7A
100
AcDbLine
 10
-0.0917079645405465
 20
-0.0398704055637609
 30
0.0
 11
-0.1696236015734485
 21
-0.0398704055637609
 31
0.0
1001
GENIUS_GENOREF_13
1005
1070
  0
LINE
  5
106D
330
107C
100
AcDbEntity
  8
7A
100
AcDbLine
 10
-0.0917079645405465
 20
-0.0398704055637609
 30
0.0
 11
-0.0917079645405465
 21
0.0444032157134871
 31
0.0
1001
GENIUS_GENOREF_13
1005
1070
  0
LINE
  5
106E
330
107C
100
AcDbEntity
  8
7A
100
AcDbLine
 10
-0.0917079645405465
 20
-0.0398704055637609
 30
0.0
 11
-0.0142590629905044
 21
-0.0398704055637609
 31
0.0
1001
GENIUS_GENOREF_13
1005
1070
  0
LINE
  5
106F
330
107C
100
AcDbEntity
  8
7A
100
AcDbLine
 10
-0.0917079645405465
 20
-0.0398704055637609
 30
0.0
 11
-0.0917079645405465
 21
-0.1182627354664874
 31
0.0
1001
GENIUS_GENOREF_13
1005
1070
  0
ENDBLK
  5
107E
330
107C
100
AcDbEntity
  8
0
100
AcDbBlockEnd
  0
BLOCK
  5
109D
330
109C
100
AcDbEntity
  8
0
100
AcDbBlockBegin
  2
GENZOOGSLZQ33
 70
     0
 10
0.0
 20
0.0
 30
0.0
  3
GENZOOGSLZQ33
  1

  0
LINE
  5
1098
330
109C
100
AcDbEntity
  8
0
100
AcDbLine
 10
-0.4290027135782566
 20
2.916674621368201
 30
0.0
 11
-0.4290027135780293
 21
0.4292893218813564
 31
0.0
  0
LINE
  5
1099
330
109C
100
AcDbEntity
  8
0
100
AcDbLine
 10
-0.4290027135780293
 20
-0.5707106781186441
 30
0.0
 11
-0.4290027135782566
 21
-2.916674621368201
 31
0.0
  0
ARC
  5
1086
330
109C
100
AcDbEntity
  8
0
100
AcDbCircle
 10
-0.1290027135783021
 20
-0.070710678118644
 30
0.0
 40
0.5
100
AcDbArc
 50
270.0
 51
90.0
  0
LINE
  5
1087
330
109C
100
AcDbEntity
  8
0
100
AcDbLine
 10
-0.1290027135783021
 20
0.4292893218813564
 30
0.0
 11
-0.4712609219186561
 21
0.4292893218813564
 31
0.0
  0
LINE
  5
1088
330
109C
100
AcDbEntity
  8
0
100
AcDbLine
 10
-0.1290027135783021
 20
-0.5707106781186441
 30
0.0
 11
-0.4290027135780293
 21
-0.5707106781187008
 31
0.0
  0
LINE
  5
1089
330
109C
100
AcDbEntity
  8
AM_7
  6
AM_DIN_G_W050x2
100
AcDbLine
 10
0.0209972864217889
 20
-0.070710678118644
 30
0.0
 11
0.2976908476944118
 21
-0.070710678118644
 31
0.0
1001
GENIUS_GENOREF_13
1005
1097
  0
LINE
  5
108A
330
109C
100
AcDbEntity
  8
AM_7
  6
AM_DIN_G_W050x2
100
AcDbLine
 10
0.0209972864217889
 20
-0.070710678118644
 30
0.0
 11
0.0209972864217889
 21
0.2700496993309116
 31
0.0
1001
GENIUS_GENOREF_13
1005
1097
  0
LINE
  5
108B
330
109C
100
AcDbEntity
  8
AM_7
  6
AM_DIN_G_W050x2
100
AcDbLine
 10
0.0209972864217889
 20
-0.070710678118644
 30
0.0
 11
-0.2799407151956075
 21
-0.070710678118644
 31
0.0
1001
GENIUS_GENOREF_13
1005
1097
  0
LINE
  5
108C
330
109C
100
AcDbEntity
  8
AM_7
  6
AM_DIN_G_W050x2
100
AcDbLine
 10
0.0209972864217889
 20
-0.070710678118644
 30
0.0
 11
0.0209972864217889
 21
-0.4023208843379962
 31
0.0
1001
GENIUS_GENOREF_13
1005
1097
  0
LINE
  5
109A
330
109C
100
AcDbEntity
  8
RUNDUNGEN
  6
Continuous
 62
     7
100
AcDbLine
 10
-0.4292893219187591
 20
-2.91663245083731
 30
0.0
 11
-0.4292893219187591
 21
-0.5707106781186441
 31
0.0
  0
LINE
  5
108E
330
109C
100
AcDbEntity
  8
RUNDUNGEN
  6
Continuous
 62
     7
100
AcDbLine
 10
-0.4292893219187591
 20
-0.5707106781186441
 30
0.0
 11
-0.0000000000186446
 21
-0.1414213562186433
 31
0.0
  0
LINE
  5
108F
330
109C
100
AcDbEntity
  8
RUNDUNGEN
  6
Continuous
 62
     7
100
AcDbLine
 10
-0.0000000000186446
 20
-0.0000000000186446
 30
0.0
 11
-0.4292893219187591
 21
0.4292893218813564
 31
0.0
  0
LINE
  5
109B
330
109C
100
AcDbEntity
  8
0
  6
Continuous
 62
     7
100
AcDbLine
 10
-2.916632450842826
 20
0.4292893218813564
 30
0.0
 11
-0.4292893219187591
 21
0.4292893218813564
 31
0.0
  0
ARC
  5
1091
330
109C
100
AcDbEntity
  8
RUNDUNGEN
  6
Continuous
 62
     7
100
AcDbCircle
 10
-0.0707106781187577
 20
-0.070710678118644
 30
0.0
 40
0.1
100
AcDbArc
 50
314.9999999999954
 51
45.0000000000046
  0
LINE
  5
1092
330
109C
100
AcDbEntity
  8
7A
100
AcDbLine
 10
-0.0707106781187577
 20
-0.070710678118644
 30
0.0
 11
-0.1486263151516596
 21
-0.070710678118644
 31
0.0
1001
GENIUS_GENOREF_13
1005
1096
  0
LINE
  5
1093
330
109C
100
AcDbEntity
  8
7A
100
AcDbLine
 10
-0.0707106781187577
 20
-0.070710678118644
 30
0.0
 11
-0.0707106781187577
 21
0.013562943158604
 31
0.0
1001
GENIUS_GENOREF_13
1005
1096
  0
LINE
  5
1094
330
109C
100
AcDbEntity
  8
7A
100
AcDbLine
 10
-0.0707106781187577
 20
-0.070710678118644
 30
0.0
 11
0.0067382234312845
 21
-0.070710678118644
 31
0.0
1001
GENIUS_GENOREF_13
1005
1096
  0
LINE
  5
1095
330
109C
100
AcDbEntity
  8
7A
100
AcDbLine
 10
-0.0707106781187577
 20
-0.070710678118644
 30
0.0
 11
-0.0707106781187577
 21
-0.1491030080213704
 31
0.0
1001
GENIUS_GENOREF_13
1005
1096
  0
ENDBLK
  5
109E
330
109C
100
AcDbEntity
  8
0
100
AcDbBlockEnd
  0
BLOCK
  5
10C1
330
10C0
100
AcDbEntity
  8
0
100
AcDbBlockBegin
  2
GENZOOS8MZQ33
 70
     0
 10
0.0
 20
0.0
 30
0.0
  3
GENZOOS8MZQ33
  1

  0
LINE
  5
10BB
330
10C0
100
AcDbEntity
  8
0
100
AcDbLine
 10
-0.4355452456820787
 20
2.377946800085565
 30
0.0
 11
3.706378592449937
 21
2.377946800085565
 31
0.0
  0
LINE
  5
10BC
330
10C0
100
AcDbEntity
  8
0
100
AcDbLine
 10
0.2644547543179669
 20
3.077946800085555
 30
0.0
 11
3.149304169249488
 21
3.077946800085555
 31
0.0
  0
LINE
  5
10A5
330
10C0
100
AcDbEntity
  8
0
100
AcDbLine
 10
-0.4355452456818514
 20
2.377946800085509
 30
0.0
 11
-0.4355452456816238
 21
-0.4220531999144442
 31
0.0
  0
LINE
  5
10A6
330
10C0
100
AcDbEntity
  8
0
100
AcDbLine
 10
-0.4355452456816238
 20
-1.422053199914444
 30
0.0
 11
-0.4355452456818514
 21
-4.222053199914451
 31
0.0
  0
LINE
  5
10A7
330
10C0
100
AcDbEntity
  8
0
100
AcDbLine
 10
0.2644547543181943
 20
3.077946800085555
 30
0.0
 11
-0.4355452456818514
 21
2.377946800085565
 31
0.0
  0
LINE
  5
10BD
330
10C0
100
AcDbEntity
  8
0
100
AcDbLine
 10
-0.4355452456818514
 20
-4.222053199914451
 30
0.0
 11
-0.2617649204221379
 21
-4.39583352517411
 31
0.0
  0
ARC
  5
10A9
330
10C0
100
AcDbEntity
  8
0
100
AcDbCircle
 10
-0.1355452456818966
 20
-0.9220531999144439
 30
0.0
 40
0.5
100
AcDbArc
 50
270.0
 51
90.0
  0
LINE
  5
10AA
330
10C0
100
AcDbEntity
  8
0
100
AcDbLine
 10
-0.1355452456818966
 20
-0.4220531999144442
 30
0.0
 11
-0.4778034540222508
 21
-0.4220531999144442
 31
0.0
  0
LINE
  5
10AB
330
10C0
100
AcDbEntity
  8
0
100
AcDbLine
 10
-0.1355452456818966
 20
-1.422053199914444
 30
0.0
 11
-0.4355452456816238
 21
-1.4220531999145
 31
0.0
  0
LINE
  5
10AC
330
10C0
100
AcDbEntity
  8
AM_7
  6
AM_DIN_G_W050x2
100
AcDbLine
 10
0.0144547543181943
 20
-0.9220531999144439
 30
0.0
 11
0.2911483155908172
 21
-0.9220531999144439
 31
0.0
1001
GENIUS_GENOREF_13
1005
10BA
  0
LINE
  5
10AD
330
10C0
100
AcDbEntity
  8
AM_7
  6
AM_DIN_G_W050x2
100
AcDbLine
 10
0.0144547543181943
 20
-0.9220531999144439
 30
0.0
 11
0.0144547543181943
 21
-0.5812928224648886
 31
0.0
1001
GENIUS_GENOREF_13
1005
10BA
  0
LINE
  5
10AE
330
10C0
100
AcDbEntity
  8
AM_7
  6
AM_DIN_G_W050x2
100
AcDbLine
 10
0.0144547543181943
 20
-0.9220531999144439
 30
0.0
 11
-0.286483247299202
 21
-0.9220531999144439
 31
0.0
1001
GENIUS_GENOREF_13
1005
10BA
  0
LINE
  5
10AF
330
10C0
100
AcDbEntity
  8
AM_7
  6
AM_DIN_G_W050x2
100
AcDbLine
 10
0.0144547543181943
 20
-0.9220531999144439
 30
0.0
 11
0.0144547543181943
 21
-1.253663406133795
 31
0.0
1001
GENIUS_GENOREF_13
1005
10BA
  0
LINE
  5
10BE
330
10C0
100
AcDbEntity
  8
RUNDUNGEN
  6
Continuous
 62
     7
100
AcDbLine
 10
-0.4358318540223536
 20
-4.381999982842103
 30
0.0
 11
-0.4358318540223536
 21
-1.422053199914444
 31
0.0
  0
LINE
  5
10B1
330
10C0
100
AcDbEntity
  8
RUNDUNGEN
  6
Continuous
 62
     7
100
AcDbLine
 10
-0.4358318540223536
 20
-1.422053199914444
 30
0.0
 11
-0.0065425321222392
 21
-0.9927638780144434
 31
0.0
  0
LINE
  5
10B2
330
10C0
100
AcDbEntity
  8
RUNDUNGEN
  6
Continuous
 62
     7
100
AcDbLine
 10
-0.0065425321222392
 20
-0.8513425218144448
 30
0.0
 11
-0.4358318540223536
 21
-0.4220531999144442
 31
0.0
  0
LINE
  5
10BF
330
10C0
100
AcDbEntity
  8
0
  6
Continuous
 62
     7
100
AcDbLine
 10
-4.38334853177912
 20
-0.4220531999144442
 30
0.0
 11
-0.4358318540223536
 21
-0.4220531999144442
 31
0.0
  0
ARC
  5
10B4
330
10C0
100
AcDbEntity
  8
RUNDUNGEN
  6
Continuous
 62
     7
100
AcDbCircle
 10
-0.0772532102223522
 20
-0.9220531999144439
 30
0.0
 40
0.1
100
AcDbArc
 50
314.9999999999954
 51
45.0000000000046
  0
LINE
  5
10B5
330
10C0
100
AcDbEntity
  8
7A
100
AcDbLine
 10
-0.0772532102223522
 20
-0.9220531999144439
 30
0.0
 11
-0.1551688472552541
 21
-0.9220531999144439
 31
0.0
1001
GENIUS_GENOREF_13
1005
10B9
  0
LINE
  5
10B6
330
10C0
100
AcDbEntity
  8
7A
100
AcDbLine
 10
-0.0772532102223522
 20
-0.9220531999144439
 30
0.0
 11
-0.0772532102223522
 21
-0.8377795786371962
 31
0.0
1001
GENIUS_GENOREF_13
1005
10B9
  0
LINE
  5
10B7
330
10C0
100
AcDbEntity
  8
7A
100
AcDbLine
 10
-0.0772532102223522
 20
-0.9220531999144439
 30
0.0
 11
0.0001956913276899
 21
-0.9220531999144439
 31
0.0
1001
GENIUS_GENOREF_13
1005
10B9
  0
LINE
  5
10B8
330
10C0
100
AcDbEntity
  8
7A
100
AcDbLine
 10
-0.0772532102223522
 20
-0.9220531999144439
 30
0.0
 11
-0.0772532102223522
 21
-1.000445529817169
 31
0.0
1001
GENIUS_GENOREF_13
1005
10B9
  0
ENDBLK
  5
10C2
330
10C0
100
AcDbEntity
  8
0
100
AcDbBlockEnd
  0
BLOCK
  5
1487
330
1486
100
AcDbEntity
  8
0
100
AcDbBlockBegin
  2
*D25
 70
     1
 10
0.0
 20
0.0
 30
0.0
  3
*D25
  1

  0
LINE
  5
1DC2
330
1486
100
AcDbEntity
  8
P-0000
  6
Continuous
 62
     3
370
    -2
100
AcDbLine
 10
397.6192122490658
 20
205.1387095625264
 30
0.0
 11
397.6192122490658
 21
227.7137105910263
 31
0.0
  0
LINE
  5
1DC3
330
1486
100
AcDbEntity
  8
P-0000
  6
Continuous
 62
     3
370
    -2
100
AcDbLine
 10
1382.720586979002
 20
205.1387095625264
 30
0.0
 11
1382.720586979002
 21
227.7137105910263
 31
0.0
  0
LINE
  5
1DC4
330
1486
100
AcDbEntity
  8
P-0000
  6
Continuous
 62
     3
370
    -2
100
AcDbLine
 10
403.9192122490657
 20
223.7137105910263
 30
0.0
 11
1376.420586979002
 21
223.7137105910263
 31
0.0
  0
SOLID
  5
1DC5
330
1486
100
AcDbEntity
  8
P-0000
  6
Continuous
 62
     3
100
AcDbTrace
 10
403.9192122490657
 20
224.7637105910263
 30
0.0
 11
403.9192122490657
 21
222.6637105910263
 31
0.0
 12
397.6192122490658
 22
223.7137105910263
 32
0.0
 13
397.6192122490658
 23
223.7137105910263
 33
0.0
  0
SOLID
  5
1DC6
330
1486
100
AcDbEntity
  8
P-0000
  6
Continuous
 62
     3
100
AcDbTrace
 10
1376.420586979002
 20
224.7637105910263
 30
0.0
 11
1376.420586979002
 21
222.6637105910263
 31
0.0
 12
1382.720586979002
 22
223.7137105910263
 32
0.0
 13
1382.720586979002
 23
223.7137105910263
 33
0.0
  0
MTEXT
  5
1DC7
330
1486
100
AcDbEntity
  8
P-0000
  6
Continuous
 62
     2
100
AcDbMText
 10
890.1698996140337
 20
231.2137105910263
 30
0.0
 40
7.0
 41
0.0
 71
     5
 72
     1
  1
985
 73
     1
 44
1.0
1001
ACAD
1000
MTEXTBEGIN
1070
    73
1070
     1
1070
    44
1040
1.0
1070
    74
1070
     0
1000
MTEXTEND
  0
POINT
  5
1DC8
330
1486
100
AcDbEntity
  8
DEFPOINTS
  6
Continuous
 62
     0
100
AcDbPoint
 10
397.6192122490658
 20
205.1387095625264
 30
0.0
  0
POINT
  5
1DC9
330
1486
100
AcDbEntity
  8
DEFPOINTS
  6
Continuous
 62
     0
100
AcDbPoint
 10
1382.720586979002
 20
205.1387095625264
 30
0.0
  0
POINT
  5
1DCA
330
1486
100
AcDbEntity
  8
DEFPOINTS
  6
Continuous
 62
     0
100
AcDbPoint
 10
1382.720586979002
 20
223.7137105910263
 30
0.0
  0
ENDBLK
  5
1488
330
1486
100
AcDbEntity
  8
0
100
AcDbBlockEnd
  0
BLOCK
  5
17ED
330
17EC
100
AcDbEntity
  8
0
100
AcDbBlockBegin
  2
*D32
 70
     1
 10
0.0
 20
0.0
 30
0.0
  3
*D32
  1

  0
LINE
  5
20EF
330
17EC
100
AcDbEntity
  8
P-0000
  6
Continuous
 62
     3
370
    -2
100
AcDbLine
 10
404.872252594489
 20
132.6387095625264
 30
0.0
 11
404.872252594489
 21
84.97555152230756
 31
0.0
  0
LINE
  5
20F0
330
17EC
100
AcDbEntity
  8
P-0000
  6
Continuous
 62
     3
370
    -2
100
AcDbLine
 10
1375.220586979002
 20
132.6387095616264
 30
0.0
 11
1375.220586979002
 21
84.97555152230756
 31
0.0
  0
LINE
  5
20F1
330
17EC
100
AcDbEntity
  8
P-0000
  6
Continuous
 62
     3
370
    -2
100
AcDbLine
 10
411.1722525944888
 20
88.97555152230756
 30
0.0
 11
1368.920586979002
 21
88.97555152230756
 31
0.0
  0
SOLID
  5
20F2
330
17EC
100
AcDbEntity
  8
P-0000
  6
Continuous
 62
     3
100
AcDbTrace
 10
411.1722525944888
 20
90.02555152230756
 30
0.0
 11
411.1722525944888
 21
87.92555152230757
 31
0.0
 12
404.872252594489
 22
88.97555152230756
 32
0.0
 13
404.872252594489
 23
88.97555152230756
 33
0.0
  0
SOLID
  5
20F3
330
17EC
100
AcDbEntity
  8
P-0000
  6
Continuous
 62
     3
100
AcDbTrace
 10
1368.920586979002
 20
90.02555152230756
 30
0.0
 11
1368.920586979002
 21
87.92555152230757
 31
0.0
 12
1375.220586979002
 22
88.97555152230756
 32
0.0
 13
1375.220586979002
 23
88.97555152230756
 33
0.0
  0
MTEXT
  5
20F4
330
17EC
100
AcDbEntity
  8
P-0000
  6
Continuous
 62
     2
100
AcDbMText
 10
890.0464197867455
 20
96.47555152230758
 30
0.0
 40
7.0
 41
0.0
 71
     5
 72
     1
  1
970
 73
     1
 44
1.0
1001
ACAD
1000
MTEXTBEGIN
1070
    73
1070
     1
1070
    44
1040
1.0
1070
    74
1070
     0
1000
MTEXTEND
  0
POINT
  5
20F5
330
17EC
100
AcDbEntity
  8
DEFPOINTS
  6
Continuous
 62
     0
100
AcDbPoint
 10
404.872252594489
 20
132.6387095625264
 30
0.0
  0
POINT
  5
20F6
330
17EC
100
AcDbEntity
  8
DEFPOINTS
  6
Continuous
 62
     0
100
AcDbPoint
 10
1375.220586979002
 20
132.6387095616264
 30
0.0
  0
POINT
  5
20F7
330
17EC
100
AcDbEntity
  8
DEFPOINTS
  6
Continuous
 62
     0
100
AcDbPoint
 10
1375.220586979002
 20
88.97555152230756
 30
0.0
  0
ENDBLK
  5
17EE
330
17EC
100
AcDbEntity
  8
0
100
AcDbBlockEnd
  0
BLOCK
  5
186C
330
186B
100
AcDbEntity
  8
0
100
AcDbBlockBegin
  2
_FILLED
 70
     0
 10
0.0
 20
0.0
 30
0.0
  3
_FILLED
  1

  0
SOLID
  5
186D
330
186B
100
AcDbEntity
  8
0
  6
ByBlock
 62
     0
100
AcDbTrace
 10
0.0
 20
0.0
 30
0.0
 11
-1.0
 21
0.125
 31
0.0
 12
-1.0
 22
-0.125
 32
0.0
 13
-1.0
 23
-0.125
 33
0.0
  0
ENDBLK
  5
186E
330
186B
100
AcDbEntity
  8
0
  6
ByBlock
 62
     0
100
AcDbBlockEnd
  0
BLOCK
  5
18A0
330
189F
100
AcDbEntity
  8
0
100
AcDbBlockBegin
  2
_None
 70
     0
 10
0.0
 20
0.0
 30
0.0
  3
_None
  1

  0
ENDBLK
  5
18A1
330
189F
100
AcDbEntity
  8
0
100
AcDbBlockEnd
  0
ENDSEC
  0
SECTION
  2
ENTITIES
  0
LINE
  5
533
330
1F
100
AcDbEntity
  8
0
  6
Continuous
 62
     7
100
AcDbLine
 10
412.6192122490659
 20
211.6387095634264
 30
0.0
 11
397.6192122490658
 21
211.6387095634264
 31
0.0
  0
LINE
  5
534
330
1F
100
AcDbEntity
  8
0
  6
Continuous
 62
     7
100
AcDbLine
 10
412.6192122490659
 20
211.3467379625264
 30
0.0
 11
397.6192122490658
 21
211.3467379625264
 31
0.0
  0
LINE
  5
535
330
1F
100
AcDbEntity
  8
0
  6
Continuous
 62
     7
100
AcDbLine
 10
397.6192122490658
 20
205.1387095625264
 30
0.0
 11
412.6192122490659
 21
205.1387095625264
 31
0.0
  0
LINE
  5
538
330
1F
100
AcDbEntity
  8
0
  6
Continuous
 62
     7
100
AcDbLine
 10
392.6192122490659
 20
204.6387095625264
 30
0.0
 11
397.6192122490658
 21
204.6387095625264
 31
0.0
  0
LINE
  5
539
330
1F
100
AcDbEntity
  8
0
  6
Continuous
 62
     7
100
AcDbLine
 10
392.6192122490659
 20
199.6387095625264
 30
0.0
 11
397.6192122490658
 21
199.6387095625264
 31
0.0
  0
LINE
  5
53A
330
1F
100
AcDbEntity
  8
0
  6
Continuous
 62
     7
100
AcDbLine
 10
392.6192122490659
 20
140.6387095625264
 30
0.0
 11
392.6192122490659
 21
145.6387095625264
 31
0.0
  0
LINE
  5
53B
330
1F
100
AcDbEntity
  8
0
  6
Continuous
 62
     7
100
AcDbLine
 10
392.6192122490659
 20
199.6387095625264
 30
0.0
 11
392.6192122490659
 21
204.6387095625264
 31
0.0
  0
LINE
  5
53C
330
1F
100
AcDbEntity
  8
RUNDUNGEN
  6
Continuous
 62
     7
100
AcDbLine
 10
397.6192122490658
 20
140.1387095625264
 30
0.0
 11
397.6192122490658
 21
205.1387095625264
 31
0.0
  0
LINE
  5
53D
330
1F
100
AcDbEntity
  8
0
  6
Continuous
 62
     7
100
AcDbLine
 10
397.6192122490658
 20
211.6387095910263
 30
0.0
 11
397.6192122490658
 21
205.1387095625264
 31
0.0
  0
LINE
  5
53E
330
1F
100
AcDbEntity
  8
0
  6
Continuous
 62
     7
100
AcDbLine
 10
397.6192122490658
 20
140.1387095625264
 30
0.0
 11
397.6192122490658
 21
133.6387095625264
 31
0.0
  0
LINE
  5
53F
330
1F
100
AcDbEntity
  8
0
  6
Continuous
 62
     7
100
AcDbLine
 10
412.6192122490659
 20
211.6387095625264
 30
0.0
 11
412.6192122490659
 21
204.9887095625264
 31
0.0
  0
LINE
  5
540
330
1F
100
AcDbEntity
  8
RUNDUNGEN
  6
Continuous
 62
     7
100
AcDbLine
 10
412.6192122490659
 20
140.2887095625264
 30
0.0
 11
412.6192122490659
 21
140.1387095625264
 31
0.0
  0
LINE
  5
541
330
1F
100
AcDbEntity
  8
0
  6
Continuous
 62
     7
100
AcDbLine
 10
412.6192122490659
 20
140.1387095625264
 30
0.0
 11
412.6192122490659
 21
133.6387095339264
 31
0.0
  0
LINE
  5
542
330
1F
100
AcDbEntity
  8
0
  6
Continuous
 62
     7
100
AcDbLine
 10
397.6192122490658
 20
145.6387095625264
 30
0.0
 11
392.6192122490659
 21
145.6387095625264
 31
0.0
  0
LINE
  5
543
330
1F
100
AcDbEntity
  8
0
  6
Continuous
 62
     7
100
AcDbLine
 10
397.6192122490658
 20
140.6387095625264
 30
0.0
 11
392.6192122490659
 21
140.6387095625264
 31
0.0
  0
LINE
  5
546
330
1F
100
AcDbEntity
  8
0
  6
Continuous
 62
     7
100
AcDbLine
 10
412.6192122490659
 20
140.1387095625264
 30
0.0
 11
397.6192122490658
 21
140.1387095625264
 31
0.0
  0
LINE
  5
547
330
1F
100
AcDbEntity
  8
0
  6
Continuous
 62
     7
100
AcDbLine
 10
397.6192122490658
 20
133.9306811625263
 30
0.0
 11
412.6192122490659
 21
133.9306811625263
 31
0.0
  0
LINE
  5
548
330
1F
100
AcDbEntity
  8
0
  6
Continuous
 62
     7
100
AcDbLine
 10
397.6192122490658
 20
133.6387095625264
 30
0.0
 11
412.6192122490659
 21
133.6387095625264
 31
0.0
  0
LINE
  5
599
330
1F
100
AcDbEntity
  8
7A
100
AcDbLine
 10
389.6192122490658
 20
202.1387095625264
 30
0.0
 11
400.6192122490658
 21
202.1387095625264
 31
0.0
1001
GENIUS_GENODEF_13
1002
{
1000
HIER
1070
     0
1002
}
1002
{
1000
MANEDIT
1070
     0
1002
}
1002
{
1000
NOSEL
1070
     0
1002
}
1002
{
1000
BEHIND
1070
     0
1002
}
1002
{
1000
OTHER
1070
     0
1002
}
1002
{
1000
REACTOR
1002
}
1001
GENIUS_GENOBJ-N-CEN_13
1002
{
1000
OWNER
1000
GEN
1002
}
1001
GENIUS_GENCEN_19
1002
{
1040
3.0
1002
}
  0
LINE
  5
59A
330
1F
100
AcDbEntity
  8
7A
100
AcDbLine
 10
400.6192122490658
 20
143.1387095625264
 30
0.0
 11
389.6192122490658
 21
143.1387095625264
 31
0.0
1001
GENIUS_GENOBJ-N-CEN_13
1002
{
1000
OWNER
1000
GEN
1002
}
1001
GENIUS_GENODEF_13
1002
{
1000
HIER
1070
     0
1002
}
1002
{
1000
MANEDIT
1070
     0
1002
}
1002
{
1000
NOSEL
1070
     0
1002
}
1002
{
1000
BEHIND
1070
     0
1002
}
1002
{
1000
OTHER
1070
     0
1002
}
1002
{
1000
REACTOR
1002
}
1001
GENIUS_GENCEN_19
1002
{
1040
3.0
1002
}
  0
LINE
  5
59B
330
1F
100
AcDbEntity
  8
7A
100
AcDbLine
 10
535.6192122490657
 20
172.6387095629764
 30
0.0
 11
397.6192122490658
 21
172.6387095629764
 31
0.0
1001
GENIUS_GENOBJ-N-CEN_13
1002
{
1000
OWNER
1000
GEN
1002
}
1001
GENIUS_GENODEF_13
1002
{
1000
HIER
1070
     0
1002
}
1002
{
1000
MANEDIT
1070
     0
1002
}
1002
{
1000
NOSEL
1070
     0
1002
}
1002
{
1000
BEHIND
1070
     0
1002
}
1002
{
1000
OTHER
1070
     0
1002
}
1002
{
1000
REACTOR
1002
}
1001
GENIUS_GENCEN_19
1002
{
1040
3.0
1002
}
  0
POINT
  5
5B0
330
1F
100
AcDbEntity
  8
0
 60
     1
100
AcDbPoint
 10
-29.39389052708412
 20
208.7813916766954
 30
0.0
 50
180.0
1001
GENIUS_GENOBJ-N-CRS_13
1002
{
1000
OWNER
1000
GEN
1002
}
1001
GENIUS_GENOENT_13
1002
{
1000
MYREF
1005
5B0
1002
}
1002
{
1000
GRP
1005
0
1002
}
1001
GENIUS_GENODEF_13
1002
{
1000
HIER
1070
    10
1002
}
1002
{
1000
MANEDIT
1070
     0
1002
}
1002
{
1000
NOSEL
1070
     0
1002
}
1002
{
1000
BEHIND
1070
     0
1002
}
1002
{
1000
OTHER
1070
     0
1002
}
1002
{
1000
REACTOR
1002
}
1001
GENIUS_GENOLIS_13
1002
{
1000
ENT
1005
381
1005
380
1005
37F
1005
37E
1002
}
  0
LINE
  5
944
330
1F
100
AcDbEntity
  8
0
100
AcDbLine
 10
397.6192122490658
 20
204.9887095625264
 30
0.0
 11
397.6192122490658
 21
140.2887095625264
 31
0.0
  0
LINE
  5
945
330
1F
100
AcDbEntity
  8
0
100
AcDbLine
 10
398.6192122490658
 20
203.9887095625264
 30
0.0
 11
398.6192122490658
 21
141.2887095625264
 31
0.0
  0
LINE
  5
946
330
1F
100
AcDbEntity
  8
0
100
AcDbLine
 10
397.6192122490658
 20
140.2887095625264
 30
0.0
 11
540.5801981549716
 21
140.2887095625264
 31
0.0
  0
LINE
  5
947
330
1F
100
AcDbEntity
  8
0
100
AcDbLine
 10
398.6192122490658
 20
141.2887095625264
 30
0.0
 11
540.2738845923503
 21
141.2887095625264
 31
0.0
  0
LINE
  5
948
330
1F
100
AcDbEntity
  8
0
100
AcDbLine
 10
600.5801981549716
 20
140.2887095625264
 30
0.0
 11
1151.240782092013
 21
140.2887095625264
 31
0.0
  0
LINE
  5
949
330
1F
100
AcDbEntity
  8
0
100
AcDbLine
 10
600.2738845923502
 20
141.2887095625264
 30
0.0
 11
1150.934468529392
 21
141.2887095625264
 31
0.0
  0
LINE
  5
94A
330
1F
100
AcDbEntity
  8
0
100
AcDbLine
 10
1382.720586979002
 20
140.2887095625264
 30
0.0
 11
1382.720586979002
 21
204.9887095625264
 31
0.0
  0
LINE
  5
94B
330
1F
100
AcDbEntity
  8
0
100
AcDbLine
 10
1381.720586979002
 20
141.2887095625264
 30
0.0
 11
1381.720586979002
 21
203.9887095625263
 31
0.0
  0
LINE
  5
94C
330
1F
100
AcDbEntity
  8
0
100
AcDbLine
 10
1382.720586979002
 20
204.9887095625264
 30
0.0
 11
1192.676882186938
 21
204.9887095625264
 31
0.0
  0
LINE
  5
94D
330
1F
100
AcDbEntity
  8
0
100
AcDbLine
 10
1381.720586979002
 20
203.9887095625263
 30
0.0
 11
1192.801828807273
 21
203.9887095625263
 31
0.0
  0
LINE
  5
94E
330
1F
100
AcDbEntity
  8
0
100
AcDbLine
 10
543.0014438957938
 20
204.9887095625264
 30
0.0
 11
397.6192122490658
 21
204.9887095625264
 31
0.0
  0
LINE
  5
94F
330
1F
100
AcDbEntity
  8
0
100
AcDbLine
 10
543.1263905161296
 20
203.9887095625264
 30
0.0
 11
398.6192122490658
 21
203.9887095625265
 31
0.0
  0
LINE
  5
950
330
1F
100
AcDbEntity
  8
0
100
AcDbLine
 10
397.654879833846
 20
275.6189652346935
 30
0.0
 11
397.654879833846
 21
268.3189652346935
 31
0.0
  0
LINE
  5
951
330
1F
100
AcDbEntity
  8
0
100
AcDbLine
 10
398.654879833846
 20
276.3189652346935
 30
0.0
 11
1093.759142299527
 21
276.318965234693
 31
0.0
  0
LINE
  5
952
330
1F
100
AcDbEntity
  8
0
100
AcDbLine
 10
397.654879833846
 20
275.6189652346935
 30
0.0
 11
1093.759142299527
 21
275.6189652346935
 31
0.0
  0
LINE
  5
953
330
1F
100
AcDbEntity
  8
0
100
AcDbLine
 10
1173.619207884422
 20
276.3189652346934
 30
0.0
 11
1381.758954413345
 21
276.3189652346934
 31
0.0
  0
LINE
  5
954
330
1F
100
AcDbEntity
  8
0
100
AcDbLine
 10
1173.619207884422
 20
275.6189652346935
 30
0.0
 11
1382.758954413344
 21
275.6189652346935
 31
0.0
  0
LINE
  5
955
330
1F
100
AcDbEntity
  8
0
100
AcDbLine
 10
397.654879833846
 20
268.3189652346934
 30
0.0
 11
1173.617569269825
 21
268.3189652346939
 31
0.0
  0
LINE
  5
956
330
1F
100
AcDbEntity
  8
0
100
AcDbLine
 10
1173.619207884422
 20
268.3189652346935
 30
0.0
 11
1382.758954413345
 21
268.3189652346936
 31
0.0
  0
LINE
  5
95B
330
1F
100
AcDbEntity
  8
0
100
AcDbLine
 10
1382.758954413344
 20
275.6189652346935
 30
0.0
 11
1382.758954413344
 21
268.3189652346935
 31
0.0
  0
LINE
  5
95C
330
1F
100
AcDbEntity
  8
0
100
AcDbLine
 10
1381.758954413345
 20
276.3189652346934
 30
0.0
 11
1382.758954413344
 21
275.6189652346935
 31
0.0
  0
LINE
  5
95D
330
1F
100
AcDbEntity
  8
0
100
AcDbLine
 10
397.654879833846
 20
275.6189652346935
 30
0.0
 11
398.654879833846
 21
276.3189652346934
 31
0.0
  0
LINE
  5
95E
330
1F
100
AcDbEntity
  8
0
100
AcDbLine
 10
397.6192122490658
 20
204.9887095625264
 30
0.0
 11
398.6192122490658
 21
203.9887095625264
 31
0.0
  0
LINE
  5
95F
330
1F
100
AcDbEntity
  8
0
100
AcDbLine
 10
397.6192122490658
 20
140.2887095625264
 30
0.0
 11
398.6192122490658
 21
141.2887095625264
 31
0.0
  0
LINE
  5
960
330
1F
100
AcDbEntity
  8
0
100
AcDbLine
 10
1382.720586979002
 20
204.9887095625264
 30
0.0
 11
1381.720586979002
 21
203.9887095625263
 31
0.0
  0
LINE
  5
961
330
1F
100
AcDbEntity
  8
0
100
AcDbLine
 10
1382.720586979002
 20
140.2887095625264
 30
0.0
 11
1381.720586979002
 21
141.2887095625264
 31
0.0
  0
LINE
  5
985
330
1F
100
AcDbEntity
  8
AM_7
100
AcDbLine
 10
1382.720586979002
 20
172.6387095625264
 30
0.0
 11
535.6192122490657
 21
172.6387095629764
 31
0.0
1001
GENIUS_GENODEF_13
1002
{
1000
HIER
1070
     0
1002
}
1002
{
1000
MANEDIT
1070
     0
1002
}
1002
{
1000
NOSEL
1070
     0
1002
}
1002
{
1000
BEHIND
1070
     0
1002
}
1002
{
1000
OTHER
1070
     0
1002
}
1002
{
1000
REACTOR
1002
}
1001
GENIUS_GENOBJ-N-CEN_13
1002
{
1000
OWNER
1000
GEN
1002
}
1001
GENIUS_GENCEN_19
1002
{
1040
3.0
1002
}
  0
LINE
  5
987
330
1F
100
AcDbEntity
  8
0
100
AcDbLine
 10
1458.874595241043
 20
268.3189652346935
 30
0.0
 11
1522.474595241043
 21
268.3189652346936
 31
0.0
  0
LINE
  5
988
330
1F
100
AcDbEntity
  8
0
100
AcDbLine
 10
1458.174595241043
 20
275.6189652346935
 30
0.0
 11
1523.024595241043
 21
275.6189652346935
 31
0.0
  0
LINE
  5
989
330
1F
100
AcDbEntity
  8
0
100
AcDbLine
 10
1458.874595241043
 20
276.3189652346934
 30
0.0
 11
1522.324595241043
 21
276.3189652346934
 31
0.0
  0
LINE
  5
98A
330
1F
100
AcDbEntity
  8
0
100
AcDbLine
 10
1458.174595241043
 20
275.6189652346934
 30
0.0
 11
1458.174595241043
 21
272.8189652346935
 31
0.0
  0
LINE
  5
98B
330
1F
100
AcDbEntity
  8
0
100
AcDbLine
 10
1458.174595241043
 20
271.8189652346934
 30
0.0
 11
1458.174595241043
 21
269.0189652346934
 31
0.0
  0
LINE
  5
98C
330
1F
100
AcDbEntity
  8
0
100
AcDbLine
 10
1523.174595241043
 20
275.6189652346935
 30
0.0
 11
1523.174595241043
 21
272.8189652346928
 31
0.0
  0
LINE
  5
98D
330
1F
100
AcDbEntity
  8
0
100
AcDbLine
 10
1523.174595241043
 20
271.8189652346928
 30
0.0
 11
1523.174595241043
 21
269.0189652346932
 31
0.0
  0
LINE
  5
98E
330
1F
100
AcDbEntity
  8
0
100
AcDbLine
 10
1458.874595241043
 20
276.3189652346934
 30
0.0
 11
1458.174595241043
 21
275.6189652346935
 31
0.0
  0
LINE
  5
9B5
330
1F
100
AcDbEntity
  8
0
100
AcDbLine
 10
1458.174595241043
 20
269.0189652346934
 30
0.0
 11
1458.874595241043
 21
268.3189652346935
 31
0.0
  0
LINE
  5
9B6
330
1F
100
AcDbEntity
  8
0
100
AcDbLine
 10
1523.174595241043
 20
269.0189652346934
 30
0.0
 11
1522.474595241043
 21
268.3189652346935
 31
0.0
  0
LINE
  5
9B7
330
1F
100
AcDbEntity
  8
AM_7
  6
AM_DIN_G_W050x2
100
AcDbLine
 10
1490.632337032702
 20
278.3189652346931
 30
0.0
 11
1490.632337032702
 21
266.0189652346931
 31
0.0
1001
GENIUS_GENODEF_13
1002
{
1000
HIER
1070
     0
1002
}
1002
{
1000
MANEDIT
1070
     0
1002
}
1002
{
1000
NOSEL
1070
     0
1002
}
1002
{
1000
BEHIND
1070
     0
1002
}
1002
{
1000
OTHER
1070
     0
1002
}
1002
{
1000
REACTOR
1002
}
1001
GENIUS_GENOBJ-N-CEN_13
1002
{
1000
OWNER
1000
GEN
1002
}
1001
GENIUS_GENCEN_19
1002
{
1040
3.0
1002
}
  0
CIRCLE
  5
9B8
330
1F
100
AcDbEntity
  8
WHITE
  6
Continuous
100
AcDbCircle
 10
1376.405936676033
 20
147.5970989956141
 30
0.0
 40
2.277733996314845
  0
CIRCLE
  5
9B9
330
1F
100
AcDbEntity
  8
WHITE
  6
Continuous
100
AcDbCircle
 10
1376.405936676033
 20
147.5970989956141
 30
0.0
 40
1.576892766679508
  0
LINE
  5
9BA
330
1F
100
AcDbEntity
  8
WHITE
  6
Continuous
100
AcDbLine
 10
1361.965543024337
 20
145.9208154595174
 30
0.0
 11
1365.030990941575
 21
145.9208154595174
 31
0.0
  0
ARC
  5
9BB
330
1F
100
AcDbEntity
  8
WHITE
  6
Continuous
100
AcDbCircle
 10
1360.169259936226
 20
145.2639851357525
 30
0.0
 40
4.905898794685422
100
AcDbArc
 50
0.2887579999956976
 51
7.694197000005034
  0
LINE
  5
9BC
330
1F
100
AcDbEntity
  8
WHITE
  6
Continuous
100
AcDbLine
 10
1365.075097607483
 20
145.2887095625264
 30
0.0
 11
1365.775944949461
 21
145.2887095625264
 31
0.0
  0
ARC
  5
9BD
330
1F
100
AcDbEntity
  8
WHITE
  6
Continuous
100
AcDbCircle
 10
1360.169259936226
 20
145.2639851357525
 30
0.0
 40
5.606740024320762
100
AcDbArc
 50
0.252663000005075
 51
53.57637100001147
  0
ARC
  5
9BE
330
1F
100
AcDbEntity
  8
WHITE
  6
Continuous
100
AcDbCircle
 10
1366.827208831362
 20
145.2639892106479
 30
0.0
 40
5.606699275368518
100
AcDbArc
 50
126.4231449999945
 51
179.7473799999976
  0
ARC
  5
9BF
330
1F
100
AcDbEntity
  8
WHITE
  6
Continuous
100
AcDbCircle
 10
1369.95210335758
 20
147.5970989956141
 30
0.0
 40
1.576890729231896
100
AcDbArc
 50
31.05578300000547
 51
329.9999750000046
  0
ARC
  5
9C0
330
1F
100
AcDbEntity
  8
WHITE
  6
Continuous
100
AcDbCircle
 10
1369.95210335758
 20
147.5970989956141
 30
0.0
 40
2.277731958867232
100
AcDbArc
 50
30.73095099999805
 51
329.9999720000092
  0
LINE
  5
9C1
330
1F
100
AcDbEntity
  8
WHITE
  6
Continuous
100
AcDbLine
 10
1371.924676600334
 20
146.4582330161803
 30
0.0
 11
1371.317731143906
 21
146.8086536309979
 31
0.0
  0
ARC
  5
9C2
330
1F
100
AcDbEntity
  8
WHITE
  6
Continuous
100
AcDbCircle
 10
1360.169259936226
 20
145.2639851357525
 30
0.0
 40
4.905898794685422
100
AcDbArc
 50
16.0658920000027
 51
47.26783700000136
  0
LINE
  5
9C3
330
1F
100
AcDbEntity
  8
WHITE
  6
Continuous
100
AcDbLine
 10
1364.883555120015
 20
146.621656689153
 30
0.0
 11
1362.112976808449
 21
146.621656689153
 31
0.0
  0
ARC
  5
9C4
330
1F
100
AcDbEntity
  8
WHITE
  6
Continuous
100
AcDbCircle
 10
1366.827208831362
 20
145.2639892106479
 30
0.0
 40
4.905851933390342
100
AcDbArc
 50
132.7316659999998
 51
163.9339570000001
  0
HATCH
  5
9C5
330
1F
100
AcDbEntity
  8
AM_8
100
AcDbHatch
 10
0.0
 20
0.0
 30
0.0
210
0.0
220
0.0
230
1.0
  2
_U
 70
     0
 71
     0
 91
        1
 92
        1
 93
        4
 72
     2
 10
1369.95210335758
 20
147.5970989956141
 40
2.277731958867238
 50
30.73096496929825
 51
329.9999720000063
 73
     1
 72
     1
 10
1371.924676540416
 20
146.4582320521995
 11
1371.317730444062
 21
146.808653035131
 72
     2
 10
1369.95210335758
 20
147.5970989956141
 40
1.576890729231896
 50
30.00002499999769
 51
328.9442169999937
 73
     0
 72
     1
 10
1371.302971171619
 20
148.4105733473498
 11
1371.909987602914
 21
148.7610372063102
 97
        0
 75
     0
 76
     0
 52
45.0
 41
0.09
 77
     1
 78
     2
 53
45.0
 43
1193.4949515885
 44
93.3355269488756
 45
-0.0636396103067893
 46
0.0636396103067893
 79
     0
 53
135.0
 43
1193.4949515885
 44
93.3355269488756
 45
-0.0636396103067893
 46
-0.0636396103067893
 79
     0
 98
        1
 10
1193.4949515885
 20
93.3355269488756
1001
GENIUS_GENODEF_13
1002
{
1000
HIER
1070
     0
1002
}
1002
{
1000
MANEDIT
1070
     0
1002
}
1002
{
1000
NOSEL
1070
     0
1002
}
1002
{
1000
BEHIND
1070
     0
1002
}
1002
{
1000
OTHER
1070
     0
1002
}
1002
{
1000
REACTOR
1002
}
1001
GENIUS_GENOBJ-N-HTC_13
1002
{
1000
OWNER
1000
GEN
1002
}
1001
GENIUS_GENHATCH_13
1002
{
1000
DATA
1040
45.0
1042
0.09
1000
_U
1070
     1
1011
1368.580552974177
1021
148.7283746999076
1031
0.0
1002
}
1002
{
1000
UCS
1010
0.0
1020
0.0
1030
0.0
1010
1.0
1020
0.0
1030
0.0
1010
0.0
1020
1.0
1030
0.0
1002
}
  0
HATCH
  5
9C6
330
1F
100
AcDbEntity
  8
AM_8
100
AcDbHatch
 10
0.0
 20
0.0
 30
0.0
210
0.0
220
0.0
230
1.0
  2
_U
 70
     0
 71
     0
 91
        2
 92
        1
 93
        2
 72
     2
 10
1376.405936676033
 20
147.5970989956141
 40
2.277733996314835
 50
191.4591559026153
 51
535.1587630986702
 73
     1
 72
     2
 10
1376.405936676033
 20
147.5970989956141
 40
2.277733996314835
 50
175.1587630986701
 51
191.4591559026153
 73
     1
 97
        0
 92
       16
 93
        2
 72
     2
 10
1376.405936676033
 20
147.5970989956141
 40
1.576892766679508
 50
348.5408440973836
 51
544.8412369013289
 73
     0
 72
     2
 10
1376.405936676033
 20
147.5970989956141
 40
1.576892766679513
 50
184.8412369013289
 51
348.5408440973836
 73
     0
 97
        0
 75
     0
 76
     0
 52
45.0
 41
0.09
 77
     1
 78
     2
 53
45.0
 43
1193.4949515885
 44
93.3355269488756
 45
-0.0636396103067893
 46
0.0636396103067893
 79
     0
 53
135.0
 43
1193.4949515885
 44
93.3355269488756
 45
-0.0636396103067893
 46
-0.0636396103067893
 79
     0
 98
        1
 10
1193.4949515885
 20
93.3355269488756
1001
GENIUS_GENODEF_13
1002
{
1000
HIER
1070
     0
1002
}
1002
{
1000
MANEDIT
1070
     0
1002
}
1002
{
1000
NOSEL
1070
     0
1002
}
1002
{
1000
BEHIND
1070
     0
1002
}
1002
{
1000
OTHER
1070
     0
1002
}
1002
{
1000
REACTOR
1002
}
1001
GENIUS_GENOBJ-N-HTC_13
1002
{
1000
OWNER
1000
GEN
1002
}
1001
GENIUS_GENHATCH_13
1002
{
1000
DATA
1040
45.0
1042
0.09
1000
_U
1070
     1
1011
1374.597717144797
1021
147.7502500994138
1031
0.0
1002
}
1002
{
1000
UCS
1010
0.0
1020
0.0
1030
0.0
1010
1.0
1020
0.0
1030
0.0
1010
0.0
1020
1.0
1030
0.0
1002
}
  0
HATCH
  5
9C7
330
1F
100
AcDbEntity
  8
AM_8
100
AcDbHatch
 10
0.0
 20
0.0
 30
0.0
210
0.0
220
0.0
230
1.0
  2
_U
 70
     0
 71
     0
 91
        2
 92
        1
 93
        2
 72
     2
 10
1376.405936676033
 20
147.5970989956141
 40
2.277733996314845
 50
191.4591559026164
 51
474.0889047300826
 73
     1
 72
     2
 10
1376.405936676033
 20
147.5970989956141
 40
2.27773399631485
 50
114.0889047300826
 51
191.4591559026164
 73
     1
 97
        0
 92
       16
 93
        2
 72
     2
 10
1376.405936676033
 20
147.5970989956141
 40
1.57689276667948
 50
348.5408440973833
 51
605.911095269917
 73
     0
 72
     2
 10
1376.405936676033
 20
147.5970989956141
 40
1.576892766679514
 50
245.9110952699171
 51
348.5408440973833
 73
     0
 97
        0
 75
     0
 76
     0
 52
45.0
 41
0.09
 77
     1
 78
     2
 53
45.0
 43
1193.4949515885
 44
93.3355269488756
 45
-0.0636396103067893
 46
0.0636396103067893
 79
     0
 53
135.0
 43
1193.4949515885
 44
93.3355269488756
 45
-0.0636396103067893
 46
-0.0636396103067893
 79
     0
 98
        1
 10
1193.4949515885
 20
93.3355269488756
1001
GENIUS_GENOBJ-N-HTC_13
1002
{
1000
OWNER
1000
GEN
1002
}
1001
GENIUS_GENODEF_13
1002
{
1000
HIER
1070
     0
1002
}
1002
{
1000
MANEDIT
1070
     0
1002
}
1002
{
1000
NOSEL
1070
     0
1002
}
1002
{
1000
BEHIND
1070
     0
1002
}
1002
{
1000
OTHER
1070
     0
1002
}
1002
{
1000
REACTOR
1002
}
1001
GENIUS_GENHATCH_13
1002
{
1000
DATA
1040
45.0
1042
0.09
1000
_U
1070
     1
1011
1375.648625199791
1021
149.2909699475639
1031
0.0
1002
}
1002
{
1000
UCS
1010
0.0
1020
0.0
1030
0.0
1010
1.0
1020
0.0
1030
0.0
1010
0.0
1020
1.0
1030
0.0
1002
}
  0
HATCH
  5
9C8
330
1F
100
AcDbEntity
  8
AM_8
100
AcDbHatch
 10
0.0
 20
0.0
 30
0.0
210
0.0
220
0.0
230
1.0
  2
_U
 70
     0
 71
     0
 91
        2
 92
        1
 93
       43
 72
     1
 10
1361.965543024337
 20
145.9208154595173
 11
1365.030989770922
 21
145.920815401592
 72
     2
 10
1360.169259936226
 20
145.2639851357525
 40
4.905898794685422
 50
352.305802999994
 51
359.7108172679506
 73
     0
 72
     1
 10
1365.07509624428
 20
145.2887460379569
 11
1365.075097607483
 21
145.2887095625265
 72
     1
 10
1365.075097607483
 20
145.2887095625264
 11
1365.775944949461
 21
145.2887095625264
 72
     1
 10
1365.775944949461
 20
145.2887095625264
 11
1365.766526457589
 21
145.5601419881579
 72
     1
 10
1365.766526457589
 20
145.560141988158
 11
1365.746387255695
 21
145.8394715063595
 72
     2
 10
1360.169259936226
 20
145.2639851357526
 40
5.606740024320776
 50
5.891322448679512
 51
10.01155376516831
 73
     1
 72
     1
 10
1365.690624541352
 20
146.2386987334749
 11
1365.634501310846
 21
146.515652191108
 72
     2
 10
1360.169259936226
 20
145.2639851357519
 40
5.606740024320759
 50
12.89959841733238
 51
13.74468133579606
 73
     1
 72
     1
 10
1365.615446079744
 20
146.5961225875455
 11
1365.478857508124
 21
147.0650146537832
 72
     2
 10
1360.169259936226
 20
145.263985135752
 40
5.606740024320804
 50
18.73707193417068
 51
19.34996135248807
 73
     1
 72
     1
 10
1365.4592886028
 20
147.121706968306
 11
1365.199120120735
 21
147.7392622786851
 72
     1
 10
1365.199120120735
 20
147.7392622786851
 11
1365.023391198704
 21
148.0698617166011
 72
     2
 10
1360.169259936226
 20
145.2639851357524
 40
5.60674002432075
 50
30.02958189183695
 51
33.33627185401258
 73
     1
 72
     1
 10
1364.853464869688
 20
148.345179359045
 11
1364.813442492073
 21
148.4051795086449
 72
     2
 10
1360.169259936226
 20
145.2639851357525
 40
5.606740024320771
 50
34.07331412204379
 51
37.96952971603585
 73
     1
 72
     1
 10
1364.589266462481
 20
148.713488869361
 11
1364.395757838145
 21
148.9480384992907
 72
     2
 10
1360.169259936226
 20
145.2639851357525
 40
5.606740024320794
 50
41.07723853974786
 51
41.7849099604546
 73
     1
 72
     1
 10
1364.349934152367
 20
148.9999584759701
 11
1364.017573742515
 21
149.3385217503956
 72
     1
 10
1364.017573742515
 20
149.3385217503956
 11
1363.762577291975
 21
149.5678908132967
 72
     2
 10
1360.169259936226
 20
145.2639851357525
 40
5.606740024320697
 50
50.14160045082939
 51
50.63287161007291
 73
     1
 72
     1
 10
1363.725542681895
 20
149.598542406475
 11
1363.498264887692
 21
149.7754423007645
 72
     1
 10
1363.498264887692
 20
149.7754423007645
 11
1363.399825692093
 21
149.7011190916714
 72
     2
 10
1366.827208831362
 20
145.263989210648
 40
5.606699275368516
 50
127.683662553009
 51
130.2598590092964
 73
     1
 72
     1
 10
1363.203849702721
 20
149.542580729981
 11
1362.930551627672
 21
149.2912861389307
 72
     1
 10
1362.930551627672
 20
149.2912861389307
 11
1362.724391968566
 21
149.0852416957334
 72
     2
 10
1366.827208831362
 20
145.2639892106482
 40
5.606699275368422
 50
137.0350233487508
 51
137.6540480887846
 73
     1
 72
     1
 10
1362.683347336084
 20
149.0406926239931
 11
1362.367028728313
 21
148.6613220193064
 72
     2
 10
1366.827208831364
 20
145.2639892106489
 40
5.606699275369539
 50
142.7033646660853
 51
142.8216597002024
 73
     1
 72
     1
 10
1362.360023977712
 20
148.6521061283084
 11
1362.092008937999
 21
148.2661482228116
 72
     2
 10
1366.827208831362
 20
145.2639892106482
 40
5.606699275368511
 50
147.6249377417097
 51
149.0670983871278
 73
     1
 72
     1
 10
1362.017951136371
 20
148.1460227266896
 11
1361.875477913775
 21
147.8937111891529
 72
     2
 10
1366.827208831362
 20
145.2639892106479
 40
5.606699275368516
 50
152.0285131198598
 51
154.3414573586053
 73
     1
 72
     1
 10
1361.773382992568
 20
147.6917291381455
 11
1361.621494289899
 21
147.3442663509995
 72
     1
 10
1361.621494289899
 20
147.3442663509995
 11
1361.494407758768
 21
146.9949743303299
 72
     2
 10
1366.827208831362
 20
145.2639892106485
 40
5.606699275368532
 50
162.016978950881
 51
163.4414752505082
 73
     1
 72
     1
 10
1361.453024267519
 20
146.8618681291452
 11
1361.321462227823
 21
146.320442213032
 72
     1
 10
1361.321462227823
 20
146.320442213032
 11
1361.248833339255
 21
145.8268423295673
 72
     2
 10
1366.827208831362
 20
145.263989210648
 40
5.606699275368574
 50
174.238406294719
 51
176.3825340783078
 73
     1
 72
     1
 10
1361.231680673691
 20
145.6177425161227
 11
1361.220564052261
 21
145.2887093522367
 72
     1
 10
1361.220564052261
 20
145.2887093522367
 11
1361.921435478822
 21
145.2887092322327
 72
     2
 10
1366.827208831362
 20
145.2639892106478
 40
4.90583563380941
 50
180.2887090000028
 51
183.9914775000014
 73
     0
 72
     1
 10
1361.933272717904
 20
145.6054750571291
 11
1361.965543024337
 21
145.9208154595173
 97
        0
 92
       16
 93
       21
 72
     1
 10
1364.883554283453
 20
146.6216565950513
 11
1362.112976808449
 21
146.621656689153
 72
     1
 10
1362.112976808449
 20
146.621656689153
 11
1362.168524079695
 21
146.7972490022809
 72
     1
 10
1362.168524079695
 20
146.7972490022808
 11
1362.223784722197
 21
146.955048795915
 72
     1
 10
1362.223784722197
 20
146.955048795915
 11
1362.338252913747
 21
147.2469780992691
 72
     1
 10
1362.338252913747
 20
147.2469780992691
 11
1362.361791193262
 21
147.2955965815965
 72
     2
 10
1366.827208831362
 20
145.2639892106479
 40
4.905851933390334
 50
204.4638591797037
 51
209.5711748127995
 73
     0
 72
     1
 10
1362.560376888992
 20
147.685048558934
 11
1362.575084097654
 21
147.712486860752
 72
     1
 10
1362.575084097654
 20
147.712486860752
 11
1362.681658476113
 21
147.8900111038087
 72
     1
 10
1362.681658476113
 20
147.8900111038087
 11
1362.710626143981
 21
147.9325337896849
 72
     2
 10
1366.827208831362
 20
145.2639892106479
 40
4.905851933390331
 50
212.9530288293097
 51
227.2680634576603
 73
     0
 72
     1
 10
1363.49824878857
 20
148.8675164029754
 11
1363.498266020455
 21
148.8675335917695
 72
     2
 10
1360.169259936226
 20
145.2639851357527
 40
4.905898794685419
 50
312.732163000002
 51
315.445619133743
 73
     0
 72
     1
 10
1363.665129227228
 20
148.7058946179915
 11
1363.703992214974
 21
148.6682483712321
 72
     1
 10
1363.703992214974
 20
148.668248371232
 11
1363.737673835248
 21
148.6306251861538
 72
     2
 10
1360.169259936226
 20
145.2639851357526
 40
4.905898794685414
 50
316.6665377932571
 51
324.6089167120336
 73
     0
 72
     1
 10
1364.168636631051
 20
148.1052575684107
 11
1364.209990375207
 21
148.050149850007
 72
     1
 10
1364.209990375207
 20
148.0501498500071
 11
1364.242735066193
 21
147.9979645338528
 72
     2
 10
1360.169259936226
 20
145.2639851357525
 40
4.90589879468541
 50
326.1318174816516
 51
335.126920261769
 73
     0
 72
     1
 10
1364.620096078623
 20
147.3274532399962
 11
1364.664878268639
 21
147.2379382076673
 72
     1
 10
1364.66487826864
 20
147.2379382076673
 11
1364.708796333201
 21
147.1242142303101
 72
     2
 10
1360.169259936226
 20
145.2639851357525
 40
4.905898794685408
 50
337.7169696472817
 51
343.9341079999992
 73
     0
 97
        0
 75
     0
 76
     0
 52
45.0
 41
0.1
 77
     1
 78
     2
 53
45.0
 43
1193.494952005338
 44
93.33552687866433
 45
-0.0707106781186548
 46
0.0707106781186548
 79
     0
 53
135.0
 43
1193.494952005338
 44
93.33552687866433
 45
-0.0707106781186548
 46
-0.0707106781186548
 79
     0
 98
        1
 10
1193.494952005338
 20
93.33552687866433
1001
GENIUS_GENODEF_13
1002
{
1000
HIER
1070
     0
1002
}
1002
{
1000
MANEDIT
1070
     0
1002
}
1002
{
1000
NOSEL
1070
     0
1002
}
1002
{
1000
BEHIND
1070
     0
1002
}
1002
{
1000
OTHER
1070
     0
1002
}
1002
{
1000
REACTOR
1002
}
1001
GENIUS_GENOBJ-N-HTC_13
1002
{
1000
OWNER
1000
GEN
1002
}
1001
GENIUS_GENHATCH_13
1002
{
1000
DATA
1040
45.0
1042
0.1
1000
_U
1070
     1
1011
1363.636155005642
1021
146.4551951635521
1031
0.0
1002
}
1002
{
1000
UCS
1010
0.0
1020
0.0
1030
0.0
1010
1.0
1020
0.0
1030
0.0
1010
0.0
1020
1.0
1030
0.0
1002
}
  0
LINE
  5
9E0
330
1F
100
AcDbEntity
  8
0
100
AcDbLine
 10
1522.474595241043
 20
276.3189652346928
 30
0.0
 11
1523.174595241043
 21
275.6189652346928
 31
0.0
  0
DIMENSION
  5
9E3
330
1F
100
AcDbEntity
  8
P-0000
  6
Continuous
100
AcDbDimension
  2
*D9
 10
1523.024595241043
 20
287.6189652346933
 30
0.0
 11
1490.674595241043
 21
295.1189652346933
 31
0.0
 70
    32
  1
65
 71
     5
 42
64.69999999999981
  3
883N99122_001_00149479900
100
AcDbAlignedDimension
 13
1458.324595241044
 23
275.6189652346935
 33
0.0
 14
1523.024595241043
 24
275.6189652346927
 34
0.0
100
AcDbRotatedDimension
1001
ACAD_DSTYLE_DIMINSPECT
1070
   396
1000
100%
1070
   395
1000

1070
   394
1070
    33
1070
   393
1070
     0
1001
ACAD
1000
DSTYLE
1002
{
1070
   279
1070
     2
1070
   288
1070
     1
1002
}
  0
ARC
  5
9EC
330
1F
100
AcDbEntity
  8
0
100
AcDbCircle
 10
1458.474595241043
 20
272.3189652346935
 30
0.0
 40
0.5
100
AcDbArc
 50
270.0
 51
90.0
  0
LINE
  5
9ED
330
1F
100
AcDbEntity
  8
0
100
AcDbLine
 10
1458.474595241043
 20
272.8189652346935
 30
0.0
 11
1458.132337032702
 21
272.8189652346935
 31
0.0
  0
LINE
  5
9EE
330
1F
100
AcDbEntity
  8
0
100
AcDbLine
 10
1458.474595241043
 20
271.8189652346934
 30
0.0
 11
1458.174595241043
 21
271.8189652346934
 31
0.0
  0
ARC
  5
9EF
330
1F
100
AcDbEntity
  8
0
100
AcDbCircle
 10
1522.874595241044
 20
272.3189652346928
 30
0.0
 40
0.5
100
AcDbArc
 50
90.0
 51
270.0
  0
LINE
  5
9F0
330
1F
100
AcDbEntity
  8
0
100
AcDbLine
 10
1522.874595241044
 20
272.8189652346928
 30
0.0
 11
1523.174595241043
 21
272.8189652346928
 31
0.0
  0
LINE
  5
9F1
330
1F
100
AcDbEntity
  8
0
100
AcDbLine
 10
1522.874595241044
 20
271.8189652346928
 30
0.0
 11
1523.174595241043
 21
271.8189652346928
 31
0.0
  0
LINE
  5
9F2
330
1F
100
AcDbEntity
  8
AM_7
  6
AM_DIN_G_W050x2
100
AcDbLine
 10
1458.624595241043
 20
272.3189652346935
 30
0.0
 11
1458.901288802316
 21
272.3189652346935
 31
0.0
1001
GENIUS_GENOREF_13
1005
A0C
  0
LINE
  5
9F3
330
1F
100
AcDbEntity
  8
AM_7
  6
AM_DIN_G_W050x2
100
AcDbLine
 10
1458.624595241043
 20
272.3189652346935
 30
0.0
 11
1458.624595241043
 21
272.659725612143
 31
0.0
1001
GENIUS_GENOREF_13
1005
A0C
  0
LINE
  5
9F4
330
1F
100
AcDbEntity
  8
AM_7
  6
AM_DIN_G_W050x2
100
AcDbLine
 10
1458.624595241043
 20
272.3189652346935
 30
0.0
 11
1458.323657239426
 21
272.3189652346935
 31
0.0
1001
GENIUS_GENOREF_13
1005
A0C
  0
LINE
  5
9F5
330
1F
100
AcDbEntity
  8
AM_7
  6
AM_DIN_G_W050x2
100
AcDbLine
 10
1458.624595241043
 20
272.3189652346935
 30
0.0
 11
1458.624595241043
 21
271.9873550284741
 31
0.0
1001
GENIUS_GENOREF_13
1005
A0C
  0
LINE
  5
9F6
330
1F
100
AcDbEntity
  8
AM_7
  6
AM_DIN_G_W050x2
100
AcDbLine
 10
1522.874595241044
 20
272.3189652346928
 30
0.0
 11
1522.597901679771
 21
272.3189652346928
 31
0.0
1001
GENIUS_GENOREF_13
1005
A0B
  0
LINE
  5
9F7
330
1F
100
AcDbEntity
  8
AM_7
  6
AM_DIN_G_W050x2
100
AcDbLine
 10
1522.874595241044
 20
272.3189652346928
 30
0.0
 11
1522.874595241044
 21
272.6597256121424
 31
0.0
1001
GENIUS_GENOREF_13
1005
A0B
  0
LINE
  5
9F8
330
1F
100
AcDbEntity
  8
AM_7
  6
AM_DIN_G_W050x2
100
AcDbLine
 10
1522.874595241044
 20
272.3189652346928
 30
0.0
 11
1523.175533242661
 21
272.3189652346928
 31
0.0
1001
GENIUS_GENOREF_13
1005
A0B
  0
LINE
  5
9F9
330
1F
100
AcDbEntity
  8
AM_7
  6
AM_DIN_G_W050x2
100
AcDbLine
 10
1522.874595241044
 20
272.3189652346928
 30
0.0
 11
1522.874595241044
 21
271.9873550284735
 31
0.0
1001
GENIUS_GENOREF_13
1005
A0B
  0
LINE
  5
A02
330
1F
100
AcDbEntity
  8
0
100
AcDbLine
 10
1113.618837857446
 20
272.8189652346935
 30
0.0
 11
397.654879833846
 21
272.8189652346935
 31
0.0
  0
LINE
  5
A03
330
1F
100
AcDbEntity
  8
0
100
AcDbLine
 10
1128.618837857445
 20
272.8189652346935
 30
0.0
 11
1382.758954413344
 21
272.8189652346935
 31
0.0
  0
LINE
  5
A04
330
1F
100
AcDbEntity
  8
0
100
AcDbLine
 10
1173.617569269825
 20
271.8189652346933
 30
0.0
 11
397.654879833846
 21
271.8189652346933
 31
0.0
  0
LINE
  5
A05
330
1F
100
AcDbEntity
  8
0
100
AcDbLine
 10
1173.619207884422
 20
271.8189652346934
 30
0.0
 11
1382.758954413345
 21
271.8189652346934
 31
0.0
  0
LINE
  5
A06
330
1F
100
AcDbEntity
  8
0
100
AcDbLine
 10
397.654879833846
 20
269.0189652346934
 30
0.0
 11
1173.617569269825
 21
269.0189652346934
 31
0.0
  0
LINE
  5
A07
330
1F
100
AcDbEntity
  8
0
100
AcDbLine
 10
1173.619207884422
 20
269.0189652346934
 30
0.0
 11
1382.758954413345
 21
269.0189652346934
 31
0.0
  0
POINT
  5
A0A
330
1F
100
AcDbEntity
  8
0
 60
     1
100
AcDbPoint
 10
555.0737069795253
 20
-152.2192795823933
 30
0.0
1001
GENIUS_GENOLIS_13
1002
{
1000
ENT
1005
82D
1005
82C
1005
82B
1005
82A
1002
}
1001
GENIUS_GENODEF_13
1002
{
1000
HIER
1070
    10
1002
}
1002
{
1000
MANEDIT
1070
     0
1002
}
1002
{
1000
NOSEL
1070
     0
1002
}
1002
{
1000
BEHIND
1070
     0
1002
}
1002
{
1000
OTHER
1070
     0
1002
}
1002
{
1000
REACTOR
1002
}
1001
GENIUS_GENOENT_13
1002
{
1000
MYREF
1005
A0A
1002
}
1002
{
1000
GRP
1005
0
1002
}
1001
GENIUS_GENOBJ-N-CRS_13
1002
{
1000
OWNER
1000
GEN
1002
}
  0
POINT
  5
A0B
330
1F
100
AcDbEntity
  8
0
 60
     1
100
AcDbPoint
 10
1530.495988895356
 20
-152.2192795824024
 30
0.0
 50
179.9999999999989
1001
GENIUS_GENOLIS_13
1002
{
1000
ENT
1005
9F9
1005
9F8
1005
9F7
1005
9F6
1002
}
1001
GENIUS_GENODEF_13
1002
{
1000
HIER
1070
    10
1002
}
1002
{
1000
MANEDIT
1070
     0
1002
}
1002
{
1000
NOSEL
1070
     0
1002
}
1002
{
1000
BEHIND
1070
     0
1002
}
1002
{
1000
OTHER
1070
     0
1002
}
1002
{
1000
REACTOR
1002
}
1001
GENIUS_GENOENT_13
1002
{
1000
MYREF
1005
A0B
1002
}
1002
{
1000
GRP
1005
0
1002
}
1001
GENIUS_GENOBJ-N-CRS_13
1002
{
1000
OWNER
1000
GEN
1002
}
  0
POINT
  5
A0C
330
1F
100
AcDbEntity
  8
0
 60
     1
100
AcDbPoint
 10
555.0737069795253
 20
-152.2192795823933
 30
0.0
1001
GENIUS_GENOLIS_13
1002
{
1000
ENT
1005
9F5
1005
9F4
1005
9F3
1005
9F2
1002
}
1001
GENIUS_GENODEF_13
1002
{
1000
HIER
1070
    10
1002
}
1002
{
1000
MANEDIT
1070
     0
1002
}
1002
{
1000
NOSEL
1070
     0
1002
}
1002
{
1000
BEHIND
1070
     0
1002
}
1002
{
1000
OTHER
1070
     0
1002
}
1002
{
1000
REACTOR
1002
}
1001
GENIUS_GENOENT_13
1002
{
1000
MYREF
1005
A0C
1002
}
1002
{
1000
GRP
1005
0
1002
}
1001
GENIUS_GENOBJ-N-CRS_13
1002
{
1000
OWNER
1000
GEN
1002
}
  0
LINE
  5
B64
330
1F
100
AcDbEntity
  8
0
  6
Continuous
 62
     7
100
AcDbLine
 10
1367.720586979002
 20
133.6387095616264
 30
0.0
 11
1382.720586979002
 21
133.6387095616264
 31
0.0
  0
LINE
  5
B65
330
1F
100
AcDbEntity
  8
0
  6
Continuous
 62
     7
100
AcDbLine
 10
1367.720586979002
 20
133.9306811625264
 30
0.0
 11
1382.720586979002
 21
133.9306811625264
 31
0.0
  0
LINE
  5
B66
330
1F
100
AcDbEntity
  8
0
  6
Continuous
 62
     7
100
AcDbLine
 10
1382.720586979002
 20
140.1387095625264
 30
0.0
 11
1367.720586979002
 21
140.1387095625264
 31
0.0
  0
LINE
  5
B69
330
1F
100
AcDbEntity
  8
0
  6
Continuous
 62
     7
100
AcDbLine
 10
1387.720586979002
 20
140.6387095625264
 30
0.0
 11
1382.720586979002
 21
140.6387095625264
 31
0.0
  0
LINE
  5
B6A
330
1F
100
AcDbEntity
  8
0
  6
Continuous
 62
     7
100
AcDbLine
 10
1387.720586979002
 20
145.6387095625264
 30
0.0
 11
1382.720586979002
 21
145.6387095625264
 31
0.0
  0
LINE
  5
B6B
330
1F
100
AcDbEntity
  8
0
  6
Continuous
 62
     7
100
AcDbLine
 10
1387.720586979002
 20
204.6387095625264
 30
0.0
 11
1387.720586979002
 21
199.6387095625264
 31
0.0
  0
LINE
  5
B6C
330
1F
100
AcDbEntity
  8
0
  6
Continuous
 62
     7
100
AcDbLine
 10
1387.720586979002
 20
145.6387095625264
 30
0.0
 11
1387.720586979002
 21
140.6387095625264
 31
0.0
  0
LINE
  5
B6D
330
1F
100
AcDbEntity
  8
RUNDUNGEN
  6
Continuous
 62
     7
100
AcDbLine
 10
1382.720586979002
 20
205.1387095625264
 30
0.0
 11
1382.720586979002
 21
140.1387095625264
 31
0.0
  0
LINE
  5
B6E
330
1F
100
AcDbEntity
  8
0
  6
Continuous
 62
     7
100
AcDbLine
 10
1382.720586979002
 20
133.6387095340265
 30
0.0
 11
1382.720586979002
 21
140.1387095625264
 31
0.0
  0
LINE
  5
B6F
330
1F
100
AcDbEntity
  8
0
  6
Continuous
 62
     7
100
AcDbLine
 10
1382.720586979002
 20
205.1387095625264
 30
0.0
 11
1382.720586979002
 21
211.6387095625264
 31
0.0
  0
LINE
  5
B70
330
1F
100
AcDbEntity
  8
0
  6
Continuous
 62
     7
100
AcDbLine
 10
1367.720586979002
 20
133.6387095625264
 30
0.0
 11
1367.720586979002
 21
140.1387095625264
 31
0.0
  0
LINE
  5
B71
330
1F
100
AcDbEntity
  8
RUNDUNGEN
  6
Continuous
 62
     7
100
AcDbLine
 10
1367.720586979002
 20
140.1387095625264
 30
0.0
 11
1367.720586979002
 21
140.2887095625264
 31
0.0
  0
LINE
  5
B72
330
1F
100
AcDbEntity
  8
0
  6
Continuous
 62
     7
100
AcDbLine
 10
1367.720586979002
 20
205.1387095625264
 30
0.0
 11
1367.720586979002
 21
211.6387095911264
 31
0.0
  0
LINE
  5
B73
330
1F
100
AcDbEntity
  8
0
  6
Continuous
 62
     7
100
AcDbLine
 10
1382.720586979002
 20
199.6387095625264
 30
0.0
 11
1387.720586979002
 21
199.6387095625264
 31
0.0
  0
LINE
  5
B74
330
1F
100
AcDbEntity
  8
0
  6
Continuous
 62
     7
100
AcDbLine
 10
1382.720586979002
 20
204.6387095625264
 30
0.0
 11
1387.720586979002
 21
204.6387095625264
 31
0.0
  0
LINE
  5
B77
330
1F
100
AcDbEntity
  8
0
  6
Continuous
 62
     7
100
AcDbLine
 10
1367.720586979002
 20
205.1387095625264
 30
0.0
 11
1382.720586979002
 21
205.1387095625264
 31
0.0
  0
LINE
  5
B78
330
1F
100
AcDbEntity
  8
0
  6
Continuous
 62
     7
100
AcDbLine
 10
1382.720586979002
 20
211.3467379625265
 30
0.0
 11
1367.720586979002
 21
211.3467379625265
 31
0.0
  0
LINE
  5
B79
330
1F
100
AcDbEntity
  8
0
  6
Continuous
 62
     7
100
AcDbLine
 10
1382.720586979002
 20
211.6387095625264
 30
0.0
 11
1367.720586979002
 21
211.6387095625264
 31
0.0
  0
LINE
  5
B7A
330
1F
100
AcDbEntity
  8
7A
100
AcDbLine
 10
1390.720586979002
 20
143.1387095625264
 30
0.0
 11
1379.720586979002
 21
143.1387095625264
 31
0.0
1001
GENIUS_GENODEF_13
1002
{
1000
HIER
1070
     0
1002
}
1002
{
1000
MANEDIT
1070
     0
1002
}
1002
{
1000
NOSEL
1070
     0
1002
}
1002
{
1000
BEHIND
1070
     0
1002
}
1002
{
1000
OTHER
1070
     0
1002
}
1002
{
1000
REACTOR
1002
}
1001
GENIUS_GENOBJ-N-CEN_13
1002
{
1000
OWNER
1000
GEN
1002
}
1001
GENIUS_GENCEN_19
1002
{
1040
3.0
1002
}
  0
LINE
  5
B7B
330
1F
100
AcDbEntity
  8
7A
100
AcDbLine
 10
1379.720586979002
 20
202.1387095625264
 30
0.0
 11
1390.720586979002
 21
202.1387095625264
 31
0.0
1001
GENIUS_GENOBJ-N-CEN_13
1002
{
1000
OWNER
1000
GEN
1002
}
1001
GENIUS_GENODEF_13
1002
{
1000
HIER
1070
     0
1002
}
1002
{
1000
MANEDIT
1070
     0
1002
}
1002
{
1000
NOSEL
1070
     0
1002
}
1002
{
1000
BEHIND
1070
     0
1002
}
1002
{
1000
OTHER
1070
     0
1002
}
1002
{
1000
REACTOR
1002
}
1001
GENIUS_GENCEN_19
1002
{
1040
3.0
1002
}
  0
LINE
  5
B7C
330
1F
100
AcDbEntity
  8
7A
100
AcDbLine
 10
1364.720586979002
 20
172.6387095620764
 30
0.0
 11
1382.720586979002
 21
172.6387095620764
 31
0.0
1001
GENIUS_GENOBJ-N-CEN_13
1002
{
1000
OWNER
1000
GEN
1002
}
1001
GENIUS_GENODEF_13
1002
{
1000
HIER
1070
     0
1002
}
1002
{
1000
MANEDIT
1070
     0
1002
}
1002
{
1000
NOSEL
1070
     0
1002
}
1002
{
1000
BEHIND
1070
     0
1002
}
1002
{
1000
OTHER
1070
     0
1002
}
1002
{
1000
REACTOR
1002
}
1001
GENIUS_GENCEN_19
1002
{
1040
3.0
1002
}
  0
LINE
  5
B7D
330
1F
100
AcDbEntity
  8
RUNDUNGEN
  6
Continuous
 62
     7
100
AcDbLine
 10
1367.720586979002
 20
204.9887095625264
 30
0.0
 11
1367.720586979002
 21
205.1387095625264
 31
0.0
  0
LINE
  5
BBB
330
1F
100
AcDbEntity
  8
verdeckt
100
AcDbLine
 10
412.6192122490659
 20
140.1387095625264
 30
0.0
 11
412.6192122490659
 21
204.9887095625264
 31
0.0
  0
LINE
  5
BBC
330
1F
100
AcDbEntity
  8
verdeckt
100
AcDbLine
 10
1367.720586979002
 20
140.2887095625264
 30
0.0
 11
1367.720586979002
 21
204.9887095625264
 31
0.0
  0
LINE
  5
BBD
330
1F
100
AcDbEntity
  8
0
  6
Continuous
 62
     7
100
AcDbLine
 10
994.6078159315787
 20
211.7137095634263
 30
0.0
 11
979.607815931579
 21
211.7137095634263
 31
0.0
  0
LINE
  5
BBE
330
1F
100
AcDbEntity
  8
0
  6
Continuous
 62
     7
100
AcDbLine
 10
994.6078159315787
 20
211.4217379625264
 30
0.0
 11
979.607815931579
 21
211.4217379625264
 31
0.0
  0
LINE
  5
BBF
330
1F
100
AcDbEntity
  8
0
  6
Continuous
 62
     7
100
AcDbLine
 10
979.607815931579
 20
205.2137095625264
 30
0.0
 11
994.6078159315787
 21
205.2137095625264
 31
0.0
  0
LINE
  5
BC0
330
1F
100
AcDbEntity
  8
verdeckt
100
AcDbLine
 10
974.6078159315786
 20
204.7137095625264
 30
0.0
 11
979.607815931579
 21
204.7137095625264
 31
0.0
  0
LINE
  5
BC1
330
1F
100
AcDbEntity
  8
verdeckt
100
AcDbLine
 10
974.6078159315786
 20
199.7137095625264
 30
0.0
 11
979.607815931579
 21
199.7137095625264
 31
0.0
  0
LINE
  5
BC2
330
1F
100
AcDbEntity
  8
verdeckt
100
AcDbLine
 10
974.6078159315786
 20
140.7137095625264
 30
0.0
 11
974.6078159315786
 21
145.7137095625264
 31
0.0
  0
LINE
  5
BC3
330
1F
100
AcDbEntity
  8
verdeckt
100
AcDbLine
 10
974.6078159315786
 20
199.7137095625264
 30
0.0
 11
974.6078159315786
 21
204.7137095625264
 31
0.0
  0
LINE
  5
BC4
330
1F
100
AcDbEntity
  8
verdeckt
100
AcDbLine
 10
979.607815931579
 20
140.2137095625264
 30
0.0
 11
979.607815931579
 21
205.2137095625264
 31
0.0
  0
LINE
  5
BC5
330
1F
100
AcDbEntity
  8
0
  6
Continuous
 62
     7
100
AcDbLine
 10
979.607815931579
 20
211.7137095910263
 30
0.0
 11
979.607815931579
 21
205.2137095625264
 31
0.0
  0
LINE
  5
BC6
330
1F
100
AcDbEntity
  8
0
  6
Continuous
 62
     7
100
AcDbLine
 10
979.607815931579
 20
140.2137095625264
 30
0.0
 11
979.607815931579
 21
133.7137095625264
 31
0.0
  0
LINE
  5
BC7
330
1F
100
AcDbEntity
  8
0
  6
Continuous
 62
     7
100
AcDbLine
 10
994.6078159315787
 20
211.7137095625264
 30
0.0
 11
994.6078159315787
 21
205.0637095625264
 31
0.0
  0
LINE
  5
BC8
330
1F
100
AcDbEntity
  8
RUNDUNGEN
  6
Continuous
 62
     7
100
AcDbLine
 10
994.6078159315787
 20
140.3637095625264
 30
0.0
 11
994.6078159315787
 21
140.2137095625264
 31
0.0
  0
LINE
  5
BC9
330
1F
100
AcDbEntity
  8
0
  6
Continuous
 62
     7
100
AcDbLine
 10
994.6078159315787
 20
140.2137095625264
 30
0.0
 11
994.6078159315787
 21
133.7137095339264
 31
0.0
  0
LINE
  5
BCA
330
1F
100
AcDbEntity
  8
verdeckt
100
AcDbLine
 10
979.607815931579
 20
145.7137095625264
 30
0.0
 11
974.6078159315786
 21
145.7137095625264
 31
0.0
  0
LINE
  5
BCB
330
1F
100
AcDbEntity
  8
verdeckt
100
AcDbLine
 10
979.607815931579
 20
140.7137095625264
 30
0.0
 11
974.6078159315786
 21
140.7137095625264
 31
0.0
  0
LINE
  5
BCC
330
1F
100
AcDbEntity
  8
0
  6
Continuous
 62
     7
100
AcDbLine
 10
994.6078159315787
 20
140.2137095625264
 30
0.0
 11
979.607815931579
 21
140.2137095625264
 31
0.0
  0
LINE
  5
BCD
330
1F
100
AcDbEntity
  8
0
  6
Continuous
 62
     7
100
AcDbLine
 10
979.607815931579
 20
134.0056811625263
 30
0.0
 11
994.6078159315787
 21
134.0056811625263
 31
0.0
  0
LINE
  5
BCE
330
1F
100
AcDbEntity
  8
0
  6
Continuous
 62
     7
100
AcDbLine
 10
979.607815931579
 20
133.7137095625264
 30
0.0
 11
994.6078159315787
 21
133.7137095625264
 31
0.0
  0
LINE
  5
BD2
330
1F
100
AcDbEntity
  8
verdeckt
100
AcDbLine
 10
979.607815931579
 20
205.0637095625264
 30
0.0
 11
979.607815931579
 21
140.3637095625264
 31
0.0
  0
LINE
  5
BD6
330
1F
100
AcDbEntity
  8
verdeckt
100
AcDbLine
 10
994.6078159315787
 20
140.2137095625264
 30
0.0
 11
994.6078159315787
 21
205.0637095625264
 31
0.0
  0
LINE
  5
BD7
330
1F
100
AcDbEntity
  8
0
  6
Continuous
 62
     7
100
AcDbLine
 10
800.6082297459222
 20
211.7137095634263
 30
0.0
 11
785.6082297459222
 21
211.7137095634263
 31
0.0
  0
LINE
  5
BD8
330
1F
100
AcDbEntity
  8
0
  6
Continuous
 62
     7
100
AcDbLine
 10
800.6082297459222
 20
211.1465352802496
 30
0.0
 11
785.6082297459222
 21
211.1465352802496
 31
0.0
  0
LINE
  5
BD9
330
1F
100
AcDbEntity
  8
0
  6
Continuous
 62
     7
100
AcDbLine
 10
785.6082297459222
 20
204.9385068802496
 30
0.0
 11
800.6082297459222
 21
204.9385068802496
 31
0.0
  0
LINE
  5
BDE
330
1F
100
AcDbEntity
  8
verdeckt
100
AcDbLine
 10
785.6082297459222
 20
139.9385068802496
 30
0.0
 11
785.6082297459222
 21
204.9385068802496
 31
0.0
  0
LINE
  5
BDF
330
1F
100
AcDbEntity
  8
0
  6
Continuous
 62
     7
100
AcDbLine
 10
785.6082297459222
 20
211.4385069087495
 30
0.0
 11
785.6082297459222
 21
204.9385068802496
 31
0.0
  0
LINE
  5
BE0
330
1F
100
AcDbEntity
  8
0
  6
Continuous
 62
     7
100
AcDbLine
 10
785.6082297459222
 20
139.9385068802496
 30
0.0
 11
785.6082297459222
 21
133.4385068802496
 31
0.0
  0
LINE
  5
BE1
330
1F
100
AcDbEntity
  8
0
  6
Continuous
 62
     7
100
AcDbLine
 10
800.6082297459222
 20
211.4385068802496
 30
0.0
 11
800.6082297459222
 21
204.7885068802496
 31
0.0
  0
LINE
  5
BE2
330
1F
100
AcDbEntity
  8
RUNDUNGEN
  6
Continuous
 62
     7
100
AcDbLine
 10
800.6082297459222
 20
140.0885068802496
 30
0.0
 11
800.6082297459222
 21
139.9385068802496
 31
0.0
  0
LINE
  5
BE3
330
1F
100
AcDbEntity
  8
0
  6
Continuous
 62
     7
100
AcDbLine
 10
800.6082297459222
 20
139.9385068802496
 30
0.0
 11
800.6082297459222
 21
133.4385068516495
 31
0.0
  0
LINE
  5
BE6
330
1F
100
AcDbEntity
  8
0
  6
Continuous
 62
     7
100
AcDbLine
 10
800.6082297459222
 20
139.9385068802496
 30
0.0
 11
785.6082297459222
 21
139.9385068802496
 31
0.0
  0
LINE
  5
BE7
330
1F
100
AcDbEntity
  8
0
  6
Continuous
 62
     7
100
AcDbLine
 10
785.6082297459222
 20
133.7304784802495
 30
0.0
 11
800.6082297459222
 21
133.7304784802495
 31
0.0
  0
LINE
  5
BE8
330
1F
100
AcDbEntity
  8
0
  6
Continuous
 62
     7
100
AcDbLine
 10
785.6082297459222
 20
133.4385068802496
 30
0.0
 11
800.6082297459222
 21
133.4385068802496
 31
0.0
  0
LINE
  5
BEC
330
1F
100
AcDbEntity
  8
verdeckt
100
AcDbLine
 10
785.6082297459222
 20
204.7885068802496
 30
0.0
 11
785.6082297459222
 21
140.0885068802496
 31
0.0
  0
LINE
  5
BF0
330
1F
100
AcDbEntity
  8
verdeckt
100
AcDbLine
 10
800.6082297459222
 20
139.9385068802496
 30
0.0
 11
800.6082297459222
 21
204.7885068802496
 31
0.0
  0
LINE
  5
BF1
330
1F
100
AcDbEntity
  8
verdeckt
100
AcDbLine
 10
805.6082297459223
 20
204.4385068802496
 30
0.0
 11
800.6082297459222
 21
204.4385068802496
 31
0.0
  0
LINE
  5
BF2
330
1F
100
AcDbEntity
  8
verdeckt
100
AcDbLine
 10
805.6082297459223
 20
199.4385068802495
 30
0.0
 11
800.6082297459222
 21
199.4385068802495
 31
0.0
  0
LINE
  5
BF5
330
1F
100
AcDbEntity
  8
verdeckt
100
AcDbLine
 10
800.6082297459222
 20
145.4385068802495
 30
0.0
 11
805.6082297459223
 21
145.4385068802495
 31
0.0
  0
LINE
  5
BF6
330
1F
100
AcDbEntity
  8
verdeckt
100
AcDbLine
 10
800.6082297459222
 20
140.4385068802495
 30
0.0
 11
805.6082297459223
 21
140.4385068802495
 31
0.0
  0
LINE
  5
BFB
330
1F
100
AcDbEntity
  8
0
  6
Continuous
 62
     7
100
AcDbLine
 10
1188.619207884421
 20
211.7137095634263
 30
0.0
 11
1173.619207884422
 21
211.7137095634263
 31
0.0
  0
LINE
  5
BFC
330
1F
100
AcDbEntity
  8
0
  6
Continuous
 62
     7
100
AcDbLine
 10
1188.619207884421
 20
211.4217379625264
 30
0.0
 11
1173.619207884422
 21
211.4217379625264
 31
0.0
  0
LINE
  5
BFD
330
1F
100
AcDbEntity
  8
0
  6
Continuous
 62
     7
100
AcDbLine
 10
1173.619207884422
 20
205.2137095625264
 30
0.0
 11
1188.619207884421
 21
205.2137095625264
 31
0.0
  0
LINE
  5
BFE
330
1F
100
AcDbEntity
  8
verdeckt
100
AcDbLine
 10
1168.619207884421
 20
204.7137095625264
 30
0.0
 11
1173.619207884422
 21
204.7137095625264
 31
0.0
  0
LINE
  5
BFF
330
1F
100
AcDbEntity
  8
verdeckt
100
AcDbLine
 10
1168.619207884421
 20
199.7137095625264
 30
0.0
 11
1173.619207884422
 21
199.7137095625264
 31
0.0
  0
LINE
  5
C00
330
1F
100
AcDbEntity
  8
verdeckt
100
AcDbLine
 10
1168.619207884421
 20
140.7137095625264
 30
0.0
 11
1168.619207884421
 21
145.7137095625264
 31
0.0
  0
LINE
  5
C01
330
1F
100
AcDbEntity
  8
verdeckt
100
AcDbLine
 10
1168.619207884421
 20
199.7137095625264
 30
0.0
 11
1168.619207884421
 21
204.7137095625264
 31
0.0
  0
LINE
  5
C02
330
1F
100
AcDbEntity
  8
verdeckt
100
AcDbLine
 10
1173.619207884422
 20
140.2137095625264
 30
0.0
 11
1173.619207884422
 21
205.2137095625264
 31
0.0
  0
LINE
  5
C03
330
1F
100
AcDbEntity
  8
0
  6
Continuous
 62
     7
100
AcDbLine
 10
1173.619207884422
 20
211.7137095910263
 30
0.0
 11
1173.619207884422
 21
205.2137095625264
 31
0.0
  0
LINE
  5
C04
330
1F
100
AcDbEntity
  8
0
  6
Continuous
 62
     7
100
AcDbLine
 10
1173.619207884422
 20
140.2137095625264
 30
0.0
 11
1173.619207884422
 21
133.7137095625264
 31
0.0
  0
LINE
  5
C05
330
1F
100
AcDbEntity
  8
0
  6
Continuous
 62
     7
100
AcDbLine
 10
1188.619207884421
 20
211.7137095625264
 30
0.0
 11
1188.619207884422
 21
205.0637095625264
 31
0.0
  0
LINE
  5
C06
330
1F
100
AcDbEntity
  8
RUNDUNGEN
  6
Continuous
 62
     7
100
AcDbLine
 10
1188.619207884421
 20
140.3637095625264
 30
0.0
 11
1188.619207884421
 21
140.2137095625264
 31
0.0
  0
LINE
  5
C07
330
1F
100
AcDbEntity
  8
0
  6
Continuous
 62
     7
100
AcDbLine
 10
1188.619207884421
 20
140.2137095625264
 30
0.0
 11
1188.619207884421
 21
133.7137095339264
 31
0.0
  0
LINE
  5
C08
330
1F
100
AcDbEntity
  8
verdeckt
100
AcDbLine
 10
1173.619207884422
 20
145.7137095625264
 30
0.0
 11
1168.619207884421
 21
145.7137095625264
 31
0.0
  0
LINE
  5
C09
330
1F
100
AcDbEntity
  8
verdeckt
100
AcDbLine
 10
1173.619207884422
 20
140.7137095625264
 30
0.0
 11
1168.619207884421
 21
140.7137095625264
 31
0.0
  0
LINE
  5
C0A
330
1F
100
AcDbEntity
  8
0
  6
Continuous
 62
     7
100
AcDbLine
 10
1188.619207884421
 20
140.2137095625264
 30
0.0
 11
1173.619207884422
 21
140.2137095625264
 31
0.0
  0
LINE
  5
C0B
330
1F
100
AcDbEntity
  8
0
  6
Continuous
 62
     7
100
AcDbLine
 10
1173.619207884422
 20
134.0056811625263
 30
0.0
 11
1188.619207884421
 21
134.0056811625263
 31
0.0
  0
LINE
  5
C0C
330
1F
100
AcDbEntity
  8
0
  6
Continuous
 62
     7
100
AcDbLine
 10
1173.619207884422
 20
133.7137095625264
 30
0.0
 11
1188.619207884421
 21
133.7137095625264
 31
0.0
  0
LINE
  5
C0D
330
1F
100
AcDbEntity
  8
verdeckt
100
AcDbLine
 10
1173.619207884422
 20
205.0637095625264
 30
0.0
 11
1173.619207884422
 21
140.3637095625264
 31
0.0
  0
LINE
  5
C0E
330
1F
100
AcDbEntity
  8
verdeckt
100
AcDbLine
 10
1188.619207884421
 20
140.2137095625264
 30
0.0
 11
1188.619207884422
 21
205.0637095625264
 31
0.0
  0
LINE
  5
C0F
330
1F
100
AcDbEntity
  8
0
  6
Continuous
 62
     7
100
AcDbLine
 10
606.6174626992139
 20
211.7137095634263
 30
0.0
 11
591.6174626992137
 21
211.7137095634263
 31
0.0
  0
LINE
  5
C10
330
1F
100
AcDbEntity
  8
0
  6
Continuous
 62
     7
100
AcDbLine
 10
606.6174626992139
 20
211.4217379625264
 30
0.0
 11
591.6174626992137
 21
211.4217379625264
 31
0.0
  0
LINE
  5
C11
330
1F
100
AcDbEntity
  8
0
  6
Continuous
 62
     7
100
AcDbLine
 10
591.6174626992137
 20
205.2137095625264
 30
0.0
 11
606.6174626992139
 21
205.2137095625264
 31
0.0
  0
LINE
  5
C12
330
1F
100
AcDbEntity
  8
verdeckt
100
AcDbLine
 10
591.6174626992137
 20
140.2137095625264
 30
0.0
 11
591.6174626992137
 21
205.2137095625264
 31
0.0
  0
LINE
  5
C13
330
1F
100
AcDbEntity
  8
0
  6
Continuous
 62
     7
100
AcDbLine
 10
591.6174626992137
 20
211.7137095910263
 30
0.0
 11
591.6174626992137
 21
205.2137095625264
 31
0.0
  0
LINE
  5
C14
330
1F
100
AcDbEntity
  8
0
  6
Continuous
 62
     7
100
AcDbLine
 10
591.6174626992137
 20
140.2137095625264
 30
0.0
 11
591.6174626992137
 21
133.7137095625264
 31
0.0
  0
LINE
  5
C15
330
1F
100
AcDbEntity
  8
0
  6
Continuous
 62
     7
100
AcDbLine
 10
606.6174626992139
 20
211.7137095625264
 30
0.0
 11
606.6174626992139
 21
205.0637095625264
 31
0.0
  0
LINE
  5
C16
330
1F
100
AcDbEntity
  8
RUNDUNGEN
  6
Continuous
 62
     7
100
AcDbLine
 10
606.6174626992139
 20
140.3637095625264
 30
0.0
 11
606.6174626992139
 21
140.2137095625264
 31
0.0
  0
LINE
  5
C17
330
1F
100
AcDbEntity
  8
0
  6
Continuous
 62
     7
100
AcDbLine
 10
606.6174626992139
 20
140.2137095625264
 30
0.0
 11
606.6174626992139
 21
133.7137095339264
 31
0.0
  0
LINE
  5
C18
330
1F
100
AcDbEntity
  8
0
  6
Continuous
 62
     7
100
AcDbLine
 10
606.6174626992139
 20
140.2137095625264
 30
0.0
 11
591.6174626992137
 21
140.2137095625264
 31
0.0
  0
LINE
  5
C19
330
1F
100
AcDbEntity
  8
0
  6
Continuous
 62
     7
100
AcDbLine
 10
591.6174626992137
 20
134.0056811625263
 30
0.0
 11
606.6174626992139
 21
134.0056811625263
 31
0.0
  0
LINE
  5
C1A
330
1F
100
AcDbEntity
  8
0
  6
Continuous
 62
     7
100
AcDbLine
 10
591.6174626992137
 20
133.7137095625264
 30
0.0
 11
606.6174626992139
 21
133.7137095625264
 31
0.0
  0
LINE
  5
C1B
330
1F
100
AcDbEntity
  8
verdeckt
100
AcDbLine
 10
591.6174626992137
 20
205.0637095625264
 30
0.0
 11
591.6174626992137
 21
140.3637095625264
 31
0.0
  0
LINE
  5
C1C
330
1F
100
AcDbEntity
  8
verdeckt
100
AcDbLine
 10
606.6174626992139
 20
140.2137095625264
 30
0.0
 11
606.6174626992139
 21
205.0637095625264
 31
0.0
  0
LINE
  5
C1D
330
1F
100
AcDbEntity
  8
verdeckt
100
AcDbLine
 10
611.6174626992139
 20
204.7137095625264
 30
0.0
 11
606.6174626992139
 21
204.7137095625264
 31
0.0
  0
LINE
  5
C1E
330
1F
100
AcDbEntity
  8
verdeckt
100
AcDbLine
 10
611.6174626992139
 20
199.7137095625264
 30
0.0
 11
606.6174626992139
 21
199.7137095625264
 31
0.0
  0
LINE
  5
C1F
330
1F
100
AcDbEntity
  8
verdeckt
100
AcDbLine
 10
611.6174626992139
 20
140.7137095625264
 30
0.0
 11
611.6174626992139
 21
145.7137095625264
 31
0.0
  0
LINE
  5
C20
330
1F
100
AcDbEntity
  8
verdeckt
100
AcDbLine
 10
611.6174626992139
 20
199.7137095625264
 30
0.0
 11
611.6174626992139
 21
204.7137095625264
 31
0.0
  0
LINE
  5
C21
330
1F
100
AcDbEntity
  8
verdeckt
100
AcDbLine
 10
606.6174626992139
 20
145.7137095625264
 30
0.0
 11
611.6174626992139
 21
145.7137095625264
 31
0.0
  0
LINE
  5
C22
330
1F
100
AcDbEntity
  8
verdeckt
100
AcDbLine
 10
606.6174626992139
 20
140.7137095625264
 30
0.0
 11
611.6174626992139
 21
140.7137095625264
 31
0.0
  0
LINE
  5
C2E
330
1F
100
AcDbEntity
  8
0
100
AcDbLine
 10
1153.786974453171
 20
203.9887095625264
 30
0.0
 11
603.1263905161296
 21
203.9887095625264
 31
0.0
  0
LINE
  5
C2F
330
1F
100
AcDbEntity
  8
0
100
AcDbLine
 10
1153.662027832836
 20
204.9887095625264
 30
0.0
 11
603.0014438957937
 21
204.9887095625264
 31
0.0
  0
LINE
  5
C30
330
1F
100
AcDbEntity
  8
0
100
AcDbLine
 10
1190.255636446116
 20
140.2887095625264
 30
0.0
 11
1382.720586979002
 21
140.2887095625264
 31
0.0
  0
LINE
  5
C31
330
1F
100
AcDbEntity
  8
0
100
AcDbLine
 10
1189.949322883494
 20
141.2887095625264
 30
0.0
 11
1381.720586979002
 21
141.2887095625264
 31
0.0
  0
LINE
  5
C8B
330
1F
100
AcDbEntity
  8
AM_7
100
AcDbLine
 10
1173.617569269825
 20
272.3189652346935
 30
0.0
 11
1382.758954413344
 21
272.3189652346935
 31
0.0
1001
GENIUS_GENOBJ-N-CEN_13
1002
{
1000
OWNER
1000
GEN
1002
}
1001
GENIUS_GENODEF_13
1002
{
1000
HIER
1070
     0
1002
}
1002
{
1000
MANEDIT
1070
     0
1002
}
1002
{
1000
NOSEL
1070
     0
1002
}
1002
{
1000
BEHIND
1070
     0
1002
}
1002
{
1000
OTHER
1070
     0
1002
}
1002
{
1000
REACTOR
1002
}
1001
GENIUS_GENCEN_19
1002
{
1040
3.0
1002
}
  0
LINE
  5
CAC
330
1F
100
AcDbEntity
  8
0
100
AcDbLine
 10
1367.758954413344
 20
272.8189652346935
 30
0.0
 11
1382.758954413344
 21
272.8189652346935
 31
0.0
  0
LINE
  5
CAD
330
1F
100
AcDbEntity
  8
0
100
AcDbLine
 10
1367.758954413344
 20
256.3189652272886
 30
0.0
 11
1382.758954413344
 21
256.3189652272886
 31
0.0
  0
LINE
  5
CAE
330
1F
100
AcDbEntity
  8
0
100
AcDbLine
 10
1367.758954413344
 20
272.8189652346935
 30
0.0
 11
1367.758954413344
 21
256.3189652272886
 31
0.0
  0
LINE
  5
CAF
330
1F
100
AcDbEntity
  8
0
  6
gen3
 62
     6
100
AcDbLine
 10
1369.758954413345
 20
265.3189652346936
 30
0.0
 11
1369.758954413345
 21
256.7251021229936
 31
0.0
  0
LINE
  5
CB0
330
1F
100
AcDbEntity
  8
0
100
AcDbLine
 10
1387.758954413345
 20
265.8189652346935
 30
0.0
 11
1387.758954413345
 21
260.8189652346935
 31
0.0
  0
LINE
  5
CB1
330
1F
100
AcDbEntity
  8
0
100
AcDbLine
 10
1382.758954413344
 20
272.8189652346935
 30
0.0
 11
1382.758954413344
 21
256.3189652272886
 31
0.0
  0
LINE
  5
CB2
330
1F
100
AcDbEntity
  8
0
  6
gen3
 62
     6
100
AcDbLine
 10
1380.758954413345
 20
265.3189652346936
 30
0.0
 11
1380.758954413345
 21
256.7251021229936
 31
0.0
  0
LINE
  5
CB3
330
1F
100
AcDbEntity
  8
7
100
AcDbLine
 10
1382.072859264304
 20
263.3189652346934
 30
0.0
 11
1389.241425557526
 21
263.3189652346934
 31
0.0
  0
LINE
  5
CB4
330
1F
100
AcDbEntity
  8
0
100
AcDbLine
 10
1382.758954413344
 20
260.8189652346935
 30
0.0
 11
1387.758954413345
 21
260.8189652346935
 31
0.0
  0
LINE
  5
CB5
330
1F
100
AcDbEntity
  8
0
100
AcDbLine
 10
1382.758954413344
 20
265.8189652346934
 30
0.0
 11
1387.758954413345
 21
265.8189652346935
 31
0.0
  0
LINE
  5
CB6
330
1F
100
AcDbEntity
  8
0
100
AcDbLine
 10
1367.758954413344
 20
257.1875585673374
 30
0.0
 11
1382.758954413344
 21
257.1875585673374
 31
0.0
  0
LINE
  5
CB7
330
1F
100
AcDbEntity
  8
0
  6
gen3
 62
     6
100
AcDbLine
 10
1369.758954413345
 20
265.3189652346936
 30
0.0
 11
1380.758954413345
 21
265.3189652346936
 31
0.0
  0
LINE
  5
CB8
330
1F
100
AcDbEntity
  8
0
  6
gen3
 62
     6
100
AcDbLine
 10
1369.758954413345
 20
256.7251021229936
 30
0.0
 11
1380.758954413345
 21
256.7251021229936
 31
0.0
  0
LINE
  5
CB9
330
1F
100
AcDbEntity
  8
0
  6
gen3
 62
     6
100
AcDbLine
 10
1367.758954413344
 20
268.3189652346935
 30
0.0
 11
1382.758954413344
 21
268.3189652346935
 31
0.0
  0
LINE
  5
CBA
330
1F
100
AcDbEntity
  8
0
  6
gen3
 62
     6
100
AcDbLine
 10
1367.758954413344
 20
272.3189652346935
 30
0.0
 11
1382.758954413344
 21
272.3189652346935
 31
0.0
  0
LINE
  5
CBB
330
1F
100
AcDbEntity
  8
0
  6
gen3
 62
     6
100
AcDbLine
 10
1367.758954413344
 20
271.8189652346934
 30
0.0
 11
1382.758954413344
 21
271.8189652346934
 31
0.0
  0
LINE
  5
CCC
330
1F
100
AcDbEntity
  8
0
100
AcDbLine
 10
994.6085878143163
 20
272.8189652346935
 30
0.0
 11
979.608587814317
 21
272.8189652346935
 31
0.0
  0
LINE
  5
CCD
330
1F
100
AcDbEntity
  8
0
100
AcDbLine
 10
994.6085878143163
 20
256.3189652272886
 30
0.0
 11
979.608587814317
 21
256.3189652272886
 31
0.0
  0
LINE
  5
CCE
330
1F
100
AcDbEntity
  8
0
100
AcDbLine
 10
994.6085878143163
 20
272.8189652346935
 30
0.0
 11
994.6085878143163
 21
256.3189652272886
 31
0.0
  0
LINE
  5
CCF
330
1F
100
AcDbEntity
  8
0
  6
gen3
 62
     6
100
AcDbLine
 10
992.6085878143164
 20
265.3189652346936
 30
0.0
 11
992.6085878143164
 21
256.7251021229936
 31
0.0
  0
LINE
  5
CD0
330
1F
100
AcDbEntity
  8
0
100
AcDbLine
 10
974.6085878143167
 20
265.8189652346935
 30
0.0
 11
974.6085878143167
 21
260.8189652346935
 31
0.0
  0
LINE
  5
CD1
330
1F
100
AcDbEntity
  8
0
100
AcDbLine
 10
979.608587814317
 20
272.8189652346935
 30
0.0
 11
979.608587814317
 21
256.3189652272886
 31
0.0
  0
LINE
  5
CD2
330
1F
100
AcDbEntity
  8
0
  6
gen3
 62
     6
100
AcDbLine
 10
981.6085878143168
 20
265.3189652346936
 30
0.0
 11
981.6085878143168
 21
256.7251021229936
 31
0.0
  0
LINE
  5
CD3
330
1F
100
AcDbEntity
  8
7
100
AcDbLine
 10
980.2946829633572
 20
263.3189652346934
 30
0.0
 11
973.1261166701347
 21
263.3189652346934
 31
0.0
  0
LINE
  5
CD4
330
1F
100
AcDbEntity
  8
0
100
AcDbLine
 10
979.608587814317
 20
260.8189652346935
 30
0.0
 11
974.6085878143167
 21
260.8189652346935
 31
0.0
  0
LINE
  5
CD5
330
1F
100
AcDbEntity
  8
0
100
AcDbLine
 10
979.608587814317
 20
265.8189652346934
 30
0.0
 11
974.6085878143167
 21
265.8189652346935
 31
0.0
  0
LINE
  5
CD6
330
1F
100
AcDbEntity
  8
0
100
AcDbLine
 10
994.6085878143163
 20
257.1875585673374
 30
0.0
 11
979.608587814317
 21
257.1875585673374
 31
0.0
  0
LINE
  5
CD7
330
1F
100
AcDbEntity
  8
0
  6
gen3
 62
     6
100
AcDbLine
 10
992.6085878143164
 20
265.3189652346936
 30
0.0
 11
981.6085878143168
 21
265.3189652346936
 31
0.0
  0
LINE
  5
CD8
330
1F
100
AcDbEntity
  8
0
  6
gen3
 62
     6
100
AcDbLine
 10
992.6085878143164
 20
256.7251021229936
 30
0.0
 11
981.6085878143168
 21
256.7251021229936
 31
0.0
  0
LINE
  5
CD9
330
1F
100
AcDbEntity
  8
0
  6
gen3
 62
     6
100
AcDbLine
 10
994.6085878143163
 20
268.3189652346935
 30
0.0
 11
979.608587814317
 21
268.3189652346935
 31
0.0
  0
LINE
  5
CDA
330
1F
100
AcDbEntity
  8
0
  6
gen3
 62
     6
100
AcDbLine
 10
994.6085878143163
 20
272.3189652346935
 30
0.0
 11
979.608587814317
 21
272.3189652346935
 31
0.0
  0
LINE
  5
CDB
330
1F
100
AcDbEntity
  8
0
  6
gen3
 62
     6
100
AcDbLine
 10
994.6085878143163
 20
271.8189652346934
 30
0.0
 11
979.608587814317
 21
271.8189652346934
 31
0.0
  0
LINE
  5
CDC
330
1F
100
AcDbEntity
  8
0
100
AcDbLine
 10
1128.618837857445
 20
272.8189652346935
 30
0.0
 11
1113.618837857446
 21
272.8189652346935
 31
0.0
  0
LINE
  5
CDD
330
1F
100
AcDbEntity
  8
0
100
AcDbLine
 10
1188.617569269824
 20
256.3189652272886
 30
0.0
 11
1173.617569269825
 21
256.3189652272886
 31
0.0
  0
LINE
  5
CDE
330
1F
100
AcDbEntity
  8
0
100
AcDbLine
 10
1188.617569269824
 20
272.8189652346935
 30
0.0
 11
1188.617569269824
 21
256.3189652272886
 31
0.0
  0
LINE
  5
CDF
330
1F
100
AcDbEntity
  8
0
  6
gen3
 62
     6
100
AcDbLine
 10
1186.617569269824
 20
265.3189652346936
 30
0.0
 11
1186.617569269824
 21
256.7251021229936
 31
0.0
  0
LINE
  5
CE0
330
1F
100
AcDbEntity
  8
0
100
AcDbLine
 10
1168.617569269824
 20
265.8189652346935
 30
0.0
 11
1168.617569269824
 21
260.8189652346935
 31
0.0
  0
LINE
  5
CE1
330
1F
100
AcDbEntity
  8
0
100
AcDbLine
 10
1173.617569269825
 20
272.8189652346935
 30
0.0
 11
1173.617569269825
 21
256.3189652272886
 31
0.0
  0
LINE
  5
CE2
330
1F
100
AcDbEntity
  8
0
  6
gen3
 62
     6
100
AcDbLine
 10
1175.617569269825
 20
265.3189652346936
 30
0.0
 11
1175.617569269825
 21
256.7251021229936
 31
0.0
  0
LINE
  5
CE3
330
1F
100
AcDbEntity
  8
7
100
AcDbLine
 10
1174.303664418865
 20
263.3189652346934
 30
0.0
 11
1167.135098125643
 21
263.3189652346934
 31
0.0
  0
LINE
  5
CE4
330
1F
100
AcDbEntity
  8
0
100
AcDbLine
 10
1173.617569269825
 20
260.8189652346935
 30
0.0
 11
1168.617569269824
 21
260.8189652346935
 31
0.0
  0
LINE
  5
CE5
330
1F
100
AcDbEntity
  8
0
100
AcDbLine
 10
1173.617569269825
 20
265.8189652346934
 30
0.0
 11
1168.617569269824
 21
265.8189652346935
 31
0.0
  0
LINE
  5
CE6
330
1F
100
AcDbEntity
  8
0
100
AcDbLine
 10
1188.617569269824
 20
257.1875585673374
 30
0.0
 11
1173.617569269825
 21
257.1875585673374
 31
0.0
  0
LINE
  5
CE7
330
1F
100
AcDbEntity
  8
0
  6
gen3
 62
     6
100
AcDbLine
 10
1186.617569269824
 20
265.3189652346936
 30
0.0
 11
1175.617569269825
 21
265.3189652346936
 31
0.0
  0
LINE
  5
CE8
330
1F
100
AcDbEntity
  8
0
  6
gen3
 62
     6
100
AcDbLine
 10
1186.617569269824
 20
256.7251021229936
 30
0.0
 11
1175.617569269825
 21
256.7251021229936
 31
0.0
  0
LINE
  5
CE9
330
1F
100
AcDbEntity
  8
0
  6
gen3
 62
     6
100
AcDbLine
 10
1188.617569269824
 20
268.3189652346935
 30
0.0
 11
1173.617569269825
 21
268.3189652346935
 31
0.0
  0
LINE
  5
CEA
330
1F
100
AcDbEntity
  8
0
  6
gen3
 62
     6
100
AcDbLine
 10
1188.617569269824
 20
272.3189652346935
 30
0.0
 11
1173.617569269825
 21
272.3189652346935
 31
0.0
  0
LINE
  5
CEB
330
1F
100
AcDbEntity
  8
0
  6
gen3
 62
     6
100
AcDbLine
 10
1188.617569269824
 20
271.8189652346934
 30
0.0
 11
1173.617569269825
 21
271.8189652346934
 31
0.0
  0
LINE
  5
CEC
330
1F
100
AcDbEntity
  8
AM_7
100
AcDbLine
 10
1173.617569269825
 20
272.3189652346935
 30
0.0
 11
397.6548798338459
 21
272.3189652346935
 31
0.0
1001
GENIUS_GENODEF_13
1002
{
1000
HIER
1070
     0
1002
}
1002
{
1000
MANEDIT
1070
     0
1002
}
1002
{
1000
NOSEL
1070
     0
1002
}
1002
{
1000
BEHIND
1070
     0
1002
}
1002
{
1000
OTHER
1070
     0
1002
}
1002
{
1000
REACTOR
1002
}
1001
GENIUS_GENOBJ-N-CEN_13
1002
{
1000
OWNER
1000
GEN
1002
}
1001
GENIUS_GENCEN_19
1002
{
1040
3.0
1002
}
  0
LINE
  5
CED
330
1F
100
AcDbEntity
  8
0
100
AcDbLine
 10
412.6548798338459
 20
272.8189652346935
 30
0.0
 11
397.654879833846
 21
272.8189652346935
 31
0.0
  0
LINE
  5
CEE
330
1F
100
AcDbEntity
  8
0
100
AcDbLine
 10
412.6548798338459
 20
256.3189652272886
 30
0.0
 11
397.654879833846
 21
256.3189652272886
 31
0.0
  0
LINE
  5
CEF
330
1F
100
AcDbEntity
  8
0
100
AcDbLine
 10
412.6548798338459
 20
272.8189652346935
 30
0.0
 11
412.6548798338459
 21
256.3189652272886
 31
0.0
  0
LINE
  5
CF0
330
1F
100
AcDbEntity
  8
0
  6
gen3
 62
     6
100
AcDbLine
 10
410.654879833846
 20
265.3189652346936
 30
0.0
 11
410.654879833846
 21
256.7251021229936
 31
0.0
  0
LINE
  5
CF1
330
1F
100
AcDbEntity
  8
0
100
AcDbLine
 10
392.654879833846
 20
265.8189652346935
 30
0.0
 11
392.654879833846
 21
260.8189652346935
 31
0.0
  0
LINE
  5
CF2
330
1F
100
AcDbEntity
  8
0
100
AcDbLine
 10
397.654879833846
 20
272.8189652346935
 30
0.0
 11
397.654879833846
 21
256.3189652272886
 31
0.0
  0
LINE
  5
CF3
330
1F
100
AcDbEntity
  8
0
  6
gen3
 62
     6
100
AcDbLine
 10
399.654879833846
 20
265.3189652346936
 30
0.0
 11
399.654879833846
 21
256.7251021229936
 31
0.0
  0
LINE
  5
CF4
330
1F
100
AcDbEntity
  8
7
100
AcDbLine
 10
398.3409749828869
 20
263.3189652346934
 30
0.0
 11
391.1724086896645
 21
263.3189652346934
 31
0.0
  0
LINE
  5
CF5
330
1F
100
AcDbEntity
  8
0
100
AcDbLine
 10
397.654879833846
 20
260.8189652346935
 30
0.0
 11
392.654879833846
 21
260.8189652346935
 31
0.0
  0
LINE
  5
CF6
330
1F
100
AcDbEntity
  8
0
100
AcDbLine
 10
397.654879833846
 20
265.8189652346934
 30
0.0
 11
392.654879833846
 21
265.8189652346935
 31
0.0
  0
LINE
  5
CF7
330
1F
100
AcDbEntity
  8
0
100
AcDbLine
 10
412.6548798338459
 20
257.1875585673374
 30
0.0
 11
397.654879833846
 21
257.1875585673374
 31
0.0
  0
LINE
  5
CF8
330
1F
100
AcDbEntity
  8
0
  6
gen3
 62
     6
100
AcDbLine
 10
410.654879833846
 20
265.3189652346936
 30
0.0
 11
399.654879833846
 21
265.3189652346936
 31
0.0
  0
LINE
  5
CF9
330
1F
100
AcDbEntity
  8
0
  6
gen3
 62
     6
100
AcDbLine
 10
410.654879833846
 20
256.7251021229936
 30
0.0
 11
399.654879833846
 21
256.7251021229936
 31
0.0
  0
LINE
  5
CFA
330
1F
100
AcDbEntity
  8
0
  6
gen3
 62
     6
100
AcDbLine
 10
412.6548798338459
 20
268.3189652346935
 30
0.0
 11
397.654879833846
 21
268.3189652346935
 31
0.0
  0
LINE
  5
CFB
330
1F
100
AcDbEntity
  8
0
  6
gen3
 62
     6
100
AcDbLine
 10
412.6548798338459
 20
272.3189652346935
 30
0.0
 11
397.654879833846
 21
272.3189652346935
 31
0.0
  0
LINE
  5
CFC
330
1F
100
AcDbEntity
  8
0
  6
gen3
 62
     6
100
AcDbLine
 10
412.6548798338459
 20
271.8189652346934
 30
0.0
 11
397.654879833846
 21
271.8189652346934
 31
0.0
  0
LINE
  5
CFD
330
1F
100
AcDbEntity
  8
0
100
AcDbLine
 10
785.6080159894791
 20
272.8189652346935
 30
0.0
 11
800.6080159894791
 21
272.8189652346935
 31
0.0
  0
LINE
  5
CFE
330
1F
100
AcDbEntity
  8
0
100
AcDbLine
 10
785.6080159894791
 20
256.3189652272886
 30
0.0
 11
800.6080159894791
 21
256.3189652272886
 31
0.0
  0
LINE
  5
CFF
330
1F
100
AcDbEntity
  8
0
100
AcDbLine
 10
785.6080159894791
 20
272.8189652346935
 30
0.0
 11
785.6080159894791
 21
256.3189652272886
 31
0.0
  0
LINE
  5
D00
330
1F
100
AcDbEntity
  8
0
  6
gen3
 62
     6
100
AcDbLine
 10
787.6080159894791
 20
265.3189652346936
 30
0.0
 11
787.6080159894791
 21
256.7251021229936
 31
0.0
  0
LINE
  5
D01
330
1F
100
AcDbEntity
  8
0
100
AcDbLine
 10
805.608015989479
 20
265.8189652346935
 30
0.0
 11
805.608015989479
 21
260.8189652346935
 31
0.0
  0
LINE
  5
D02
330
1F
100
AcDbEntity
  8
0
100
AcDbLine
 10
800.6080159894791
 20
272.8189652346935
 30
0.0
 11
800.6080159894791
 21
256.3189652272886
 31
0.0
  0
LINE
  5
D03
330
1F
100
AcDbEntity
  8
0
  6
gen3
 62
     6
100
AcDbLine
 10
798.6080159894791
 20
265.3189652346936
 30
0.0
 11
798.6080159894791
 21
256.7251021229936
 31
0.0
  0
LINE
  5
D04
330
1F
100
AcDbEntity
  8
7
100
AcDbLine
 10
799.9219208404381
 20
263.3189652346934
 30
0.0
 11
807.0904871336605
 21
263.3189652346934
 31
0.0
  0
LINE
  5
D05
330
1F
100
AcDbEntity
  8
0
100
AcDbLine
 10
800.6080159894791
 20
260.8189652346935
 30
0.0
 11
805.608015989479
 21
260.8189652346935
 31
0.0
  0
LINE
  5
D06
330
1F
100
AcDbEntity
  8
0
100
AcDbLine
 10
800.6080159894791
 20
265.8189652346934
 30
0.0
 11
805.608015989479
 21
265.8189652346935
 31
0.0
  0
LINE
  5
D07
330
1F
100
AcDbEntity
  8
0
100
AcDbLine
 10
785.6080159894791
 20
257.1875585673374
 30
0.0
 11
800.6080159894791
 21
257.1875585673374
 31
0.0
  0
LINE
  5
D08
330
1F
100
AcDbEntity
  8
0
  6
gen3
 62
     6
100
AcDbLine
 10
787.6080159894791
 20
265.3189652346936
 30
0.0
 11
798.6080159894791
 21
265.3189652346936
 31
0.0
  0
LINE
  5
D09
330
1F
100
AcDbEntity
  8
0
  6
gen3
 62
     6
100
AcDbLine
 10
787.6080159894791
 20
256.7251021229936
 30
0.0
 11
798.6080159894791
 21
256.7251021229936
 31
0.0
  0
LINE
  5
D0A
330
1F
100
AcDbEntity
  8
0
  6
gen3
 62
     6
100
AcDbLine
 10
785.6080159894791
 20
268.3189652346935
 30
0.0
 11
800.6080159894791
 21
268.3189652346935
 31
0.0
  0
LINE
  5
D0B
330
1F
100
AcDbEntity
  8
0
  6
gen3
 62
     6
100
AcDbLine
 10
785.6080159894791
 20
272.3189652346935
 30
0.0
 11
800.6080159894791
 21
272.3189652346935
 31
0.0
  0
LINE
  5
D0C
330
1F
100
AcDbEntity
  8
0
  6
gen3
 62
     6
100
AcDbLine
 10
785.6080159894791
 20
271.8189652346934
 30
0.0
 11
800.6080159894791
 21
271.8189652346934
 31
0.0
  0
LINE
  5
D0D
330
1F
100
AcDbEntity
  8
0
100
AcDbLine
 10
591.6117689503752
 20
272.8189652346935
 30
0.0
 11
606.6117689503752
 21
272.8189652346935
 31
0.0
  0
LINE
  5
D0E
330
1F
100
AcDbEntity
  8
0
100
AcDbLine
 10
591.6117689503752
 20
256.3189652272886
 30
0.0
 11
606.6117689503752
 21
256.3189652272886
 31
0.0
  0
LINE
  5
D0F
330
1F
100
AcDbEntity
  8
0
100
AcDbLine
 10
591.6117689503752
 20
272.8189652346935
 30
0.0
 11
591.6117689503752
 21
256.3189652272886
 31
0.0
  0
LINE
  5
D10
330
1F
100
AcDbEntity
  8
0
  6
gen3
 62
     6
100
AcDbLine
 10
593.6117689503752
 20
265.3189652346936
 30
0.0
 11
593.6117689503752
 21
256.7251021229936
 31
0.0
  0
LINE
  5
D11
330
1F
100
AcDbEntity
  8
0
100
AcDbLine
 10
611.6117689503752
 20
265.8189652346935
 30
0.0
 11
611.6117689503752
 21
260.8189652346935
 31
0.0
  0
LINE
  5
D12
330
1F
100
AcDbEntity
  8
0
100
AcDbLine
 10
606.6117689503752
 20
272.8189652346935
 30
0.0
 11
606.6117689503752
 21
256.3189652272886
 31
0.0
  0
LINE
  5
D13
330
1F
100
AcDbEntity
  8
0
  6
gen3
 62
     6
100
AcDbLine
 10
604.6117689503752
 20
265.3189652346936
 30
0.0
 11
604.6117689503752
 21
256.7251021229936
 31
0.0
  0
LINE
  5
D14
330
1F
100
AcDbEntity
  8
7
100
AcDbLine
 10
605.9256738013344
 20
263.3189652346934
 30
0.0
 11
613.0942400945566
 21
263.3189652346934
 31
0.0
  0
LINE
  5
D15
330
1F
100
AcDbEntity
  8
0
100
AcDbLine
 10
606.6117689503752
 20
260.8189652346935
 30
0.0
 11
611.6117689503752
 21
260.8189652346935
 31
0.0
  0
LINE
  5
D16
330
1F
100
AcDbEntity
  8
0
100
AcDbLine
 10
606.6117689503752
 20
265.8189652346934
 30
0.0
 11
611.6117689503752
 21
265.8189652346935
 31
0.0
  0
LINE
  5
D17
330
1F
100
AcDbEntity
  8
0
100
AcDbLine
 10
591.6117689503752
 20
257.1875585673374
 30
0.0
 11
606.6117689503752
 21
257.1875585673374
 31
0.0
  0
LINE
  5
D18
330
1F
100
AcDbEntity
  8
0
  6
gen3
 62
     6
100
AcDbLine
 10
593.6117689503752
 20
265.3189652346936
 30
0.0
 11
604.6117689503752
 21
265.3189652346936
 31
0.0
  0
LINE
  5
D19
330
1F
100
AcDbEntity
  8
0
  6
gen3
 62
     6
100
AcDbLine
 10
593.6117689503752
 20
256.7251021229936
 30
0.0
 11
604.6117689503752
 21
256.7251021229936
 31
0.0
  0
LINE
  5
D1A
330
1F
100
AcDbEntity
  8
0
  6
gen3
 62
     6
100
AcDbLine
 10
591.6117689503752
 20
268.3189652346935
 30
0.0
 11
606.6117689503752
 21
268.3189652346935
 31
0.0
  0
LINE
  5
D1B
330
1F
100
AcDbEntity
  8
0
  6
gen3
 62
     6
100
AcDbLine
 10
591.6117689503752
 20
272.3189652346935
 30
0.0
 11
606.6117689503752
 21
272.3189652346935
 31
0.0
  0
LINE
  5
D1C
330
1F
100
AcDbEntity
  8
0
  6
gen3
 62
     6
100
AcDbLine
 10
591.6117689503752
 20
271.8189652346934
 30
0.0
 11
606.6117689503752
 21
271.8189652346934
 31
0.0
  0
LINE
  5
D1E
330
1F
100
AcDbEntity
  8
0
  6
Continuous
 62
     7
100
AcDbLine
 10
1451.966280232703
 20
272.8189652346935
 30
0.0
 11
1451.966280232703
 21
272.3189652346935
 31
0.0
  0
LINE
  5
D1F
330
1F
100
AcDbEntity
  8
0
  6
Continuous
 62
     7
100
AcDbLine
 10
1451.966280232703
 20
272.3189652346935
 30
0.0
 11
1451.674308604203
 21
258.0822350471935
 31
0.0
  0
LINE
  5
D20
330
1F
100
AcDbEntity
  8
RUNDUNGEN
  6
Continuous
 62
     7
100
AcDbLine
 10
1458.174308632703
 20
268.8189652346935
 30
0.0
 11
1458.174308632703
 21
271.8189652346934
 31
0.0
  0
LINE
  5
D21
330
1F
100
AcDbEntity
  8
RUNDUNGEN
  6
Continuous
 62
     7
100
AcDbLine
 10
1458.174308632703
 20
271.8189652346934
 30
0.0
 11
1458.603597954603
 21
272.2482545565934
 31
0.0
  0
LINE
  5
D22
330
1F
100
AcDbEntity
  8
RUNDUNGEN
  6
Continuous
 62
     7
100
AcDbLine
 10
1458.603597954603
 20
272.3896759127935
 30
0.0
 11
1458.174308632703
 21
272.8189652346935
 31
0.0
  0
LINE
  5
D23
330
1F
100
AcDbEntity
  8
0
  6
Continuous
 62
     7
100
AcDbLine
 10
1519.674308634102
 20
256.3189652274934
 30
0.0
 11
1529.674308632702
 21
258.0822350346934
 31
0.0
  0
LINE
  5
D24
330
1F
100
AcDbEntity
  8
0
  6
Continuous
 62
     7
100
AcDbLine
 10
1451.674308604203
 20
258.0822350471935
 30
0.0
 11
1461.674308641302
 21
256.3189652331935
 31
0.0
  0
LINE
  5
D25
330
1F
100
AcDbEntity
  8
RUNDUNGEN
  6
Continuous
 62
     7
100
AcDbLine
 10
1522.974308632702
 20
268.6189652346935
 30
0.0
 11
1458.374308632702
 21
268.6189652346935
 31
0.0
  0
LINE
  5
D26
330
1F
100
AcDbEntity
  8
0
  6
Continuous
 62
     7
100
AcDbLine
 10
1451.966280232703
 20
272.8189652346935
 30
0.0
 11
1458.174308632703
 21
272.8189652346935
 31
0.0
  0
LINE
  5
D27
330
1F
100
AcDbEntity
  8
0
  6
Continuous
 62
     7
100
AcDbLine
 10
1523.174308632702
 20
272.8189652346935
 30
0.0
 11
1529.382337032702
 21
272.8189652346935
 31
0.0
  0
LINE
  5
D28
330
1F
100
AcDbEntity
  8
RUNDUNGEN
  6
Continuous
 62
     7
100
AcDbLine
 10
1523.174308632702
 20
272.8189652346935
 30
0.0
 11
1522.745019310902
 21
272.3896759127935
 31
0.0
  0
LINE
  5
D29
330
1F
100
AcDbEntity
  8
RUNDUNGEN
  6
Continuous
 62
     7
100
AcDbLine
 10
1522.745019310902
 20
272.2482545565934
 30
0.0
 11
1523.174308632702
 21
271.8189652346934
 31
0.0
  0
LINE
  5
D2A
330
1F
100
AcDbEntity
  8
RUNDUNGEN
  6
Continuous
 62
     7
100
AcDbLine
 10
1523.174308632702
 20
271.8189652346934
 30
0.0
 11
1523.174308632702
 21
268.8189652346935
 31
0.0
  0
LINE
  5
D2B
330
1F
100
AcDbEntity
  8
0
  6
Continuous
 62
     7
100
AcDbLine
 10
1529.674308632702
 20
258.0822350346934
 30
0.0
 11
1529.382337032702
 21
272.3189638296935
 31
0.0
  0
LINE
  5
D2C
330
1F
100
AcDbEntity
  8
0
  6
Continuous
 62
     7
100
AcDbLine
 10
1529.382337032702
 20
272.8189652346935
 30
0.0
 11
1529.382337032702
 21
272.3189652346935
 31
0.0
  0
ARC
  5
D2D
330
1F
100
AcDbEntity
  8
0
  6
Continuous
 62
     7
100
AcDbCircle
 10
1490.674308632702
 20
211.0983770346935
 30
0.0
 40
53.7205882
100
AcDbArc
 50
57.32791419489775
 51
122.672085792901
  0
CIRCLE
  5
D2E
330
1F
100
AcDbEntity
  8
0
  6
Continuous
 62
     7
100
AcDbCircle
 10
1520.174308632702
 20
263.3189652346934
 30
0.0
 40
2.5
  0
CIRCLE
  5
D2F
330
1F
100
AcDbEntity
  8
0
  6
Continuous
 62
     7
100
AcDbCircle
 10
1461.174308632704
 20
263.3189652346934
 30
0.0
 40
2.5
  0
ARC
  5
D30
330
1F
100
AcDbEntity
  8
RUNDUNGEN
  6
Continuous
 62
     7
100
AcDbCircle
 10
1522.974308632702
 20
268.8189652346935
 30
0.0
 40
0.2
100
AcDbArc
 50
270.0
 51
0.0
  0
ARC
  5
D31
330
1F
100
AcDbEntity
  8
RUNDUNGEN
  6
Continuous
 62
     7
100
AcDbCircle
 10
1458.374308632702
 20
268.8189652346935
 30
0.0
 40
0.2
100
AcDbArc
 50
180.0
 51
270.0
  0
ARC
  5
D32
330
1F
100
AcDbEntity
  8
RUNDUNGEN
  6
Continuous
 62
     7
100
AcDbCircle
 10
1522.815729989003
 20
272.3189652346935
 30
0.0
 40
0.1
100
AcDbArc
 50
135.0000000000003
 51
224.9999999999996
  0
ARC
  5
D33
330
1F
100
AcDbEntity
  8
RUNDUNGEN
  6
Continuous
 62
     7
100
AcDbCircle
 10
1458.532887276503
 20
272.3189652346935
 30
0.0
 40
0.1
100
AcDbArc
 50
315.0000000000003
 51
44.99999999999967
  0
LINE
  5
D34
330
1F
100
AcDbEntity
  8
0
  6
gen3
 62
     6
100
AcDbLine
 10
1527.632337032703
 20
265.3189652346936
 30
0.0
 11
1525.632337032702
 21
265.3189652346936
 31
0.0
  0
LINE
  5
D35
330
1F
100
AcDbEntity
  8
0
  6
gen3
 62
     6
100
AcDbLine
 10
1523.632337032704
 20
265.3189652346936
 30
0.0
 11
1521.632337032703
 21
265.3189652346936
 31
0.0
  0
LINE
  5
D36
330
1F
100
AcDbEntity
  8
0
  6
gen3
 62
     6
100
AcDbLine
 10
1527.632337032703
 20
265.3189652346936
 30
0.0
 11
1527.632337032703
 21
257.7221803476991
 31
0.0
  0
LINE
  5
D37
330
1F
100
AcDbEntity
  8
0
  6
gen3
 62
     6
100
AcDbLine
 10
1525.632337032702
 20
265.3189652346936
 30
0.0
 11
1525.632337032702
 21
257.3695263862096
 31
0.0
  0
LINE
  5
D38
330
1F
100
AcDbEntity
  8
0
  6
gen3
 62
     6
100
AcDbLine
 10
1523.632337032704
 20
265.3189652346936
 30
0.0
 11
1523.632337032704
 21
257.0168724247203
 31
0.0
  0
LINE
  5
D39
330
1F
100
AcDbEntity
  8
0
  6
gen3
 62
     6
100
AcDbLine
 10
1521.632337032703
 20
265.3189652346936
 30
0.0
 11
1521.632337032703
 21
256.664218463231
 31
0.0
  0
LINE
  5
D3A
330
1F
100
AcDbEntity
  8
0
  6
gen3
 62
     6
100
AcDbLine
 10
1453.582317512718
 20
265.3189652346936
 30
0.0
 11
1455.582317512717
 21
265.3189652346936
 31
0.0
  0
LINE
  5
D3B
330
1F
100
AcDbEntity
  8
0
  6
gen3
 62
     6
100
AcDbLine
 10
1457.582317512717
 20
265.3189652346936
 30
0.0
 11
1459.582317512718
 21
265.3189652346936
 31
0.0
  0
LINE
  5
D3C
330
1F
100
AcDbEntity
  8
0
  6
gen3
 62
     6
100
AcDbLine
 10
1453.582317512718
 20
265.3189652346936
 30
0.0
 11
1453.582317512718
 21
257.7458015971189
 31
0.0
  0
LINE
  5
D3D
330
1F
100
AcDbEntity
  8
0
  6
gen3
 62
     6
100
AcDbLine
 10
1455.582317512717
 20
265.3189652346936
 30
0.0
 11
1455.582317512717
 21
257.3931476356272
 31
0.0
  0
LINE
  5
D3E
330
1F
100
AcDbEntity
  8
0
  6
gen3
 62
     6
100
AcDbLine
 10
1457.582317512717
 20
265.3189652346936
 30
0.0
 11
1457.582317512718
 21
257.0404936741355
 31
0.0
  0
LINE
  5
D3F
330
1F
100
AcDbEntity
  8
0
  6
gen3
 62
     6
100
AcDbLine
 10
1459.582317512718
 20
265.3189652346936
 30
0.0
 11
1459.582317512718
 21
256.6878397126439
 31
0.0
  0
LINE
  5
D40
330
1F
100
AcDbEntity
  8
7
100
AcDbLine
 10
1490.632337032702
 20
278.8280451175547
 30
0.0
 11
1490.632337032702
 21
253.9965589638446
 31
0.0
  0
LINE
  5
D41
330
1F
100
AcDbEntity
  8
7
100
AcDbLine
 10
1464.758591779315
 20
263.3189652346934
 30
0.0
 11
1457.590025486092
 21
263.3189652346934
 31
0.0
  0
LINE
  5
D42
330
1F
100
AcDbEntity
  8
7
100
AcDbLine
 10
1461.174308632704
 20
266.503880262954
 30
0.0
 11
1461.174308632704
 21
260.1340502064329
 31
0.0
  0
LINE
  5
D43
330
1F
100
AcDbEntity
  8
7
100
AcDbLine
 10
1516.590025486091
 20
263.3189652346935
 30
0.0
 11
1523.758591779315
 21
263.3189652346935
 31
0.0
  0
LINE
  5
D44
330
1F
100
AcDbEntity
  8
7
100
AcDbLine
 10
1520.174308632702
 20
266.5038802629541
 30
0.0
 11
1520.174308632702
 21
260.1340502064329
 31
0.0
  0
LINE
  5
D45
330
1F
100
AcDbEntity
  8
7A
100
AcDbLine
 10
1458.532887276503
 20
272.3189652346935
 30
0.0
 11
1458.45497163947
 21
272.3189652346935
 31
0.0
1001
GENIUS_GENOREF_13
1005
D4E
  0
LINE
  5
D46
330
1F
100
AcDbEntity
  8
7A
100
AcDbLine
 10
1458.532887276503
 20
272.3189652346935
 30
0.0
 11
1458.532887276503
 21
272.4032388559707
 31
0.0
1001
GENIUS_GENOREF_13
1005
D4E
  0
LINE
  5
D47
330
1F
100
AcDbEntity
  8
7A
100
AcDbLine
 10
1458.532887276503
 20
272.3189652346935
 30
0.0
 11
1458.610336178054
 21
272.3189652346935
 31
0.0
1001
GENIUS_GENOREF_13
1005
D4E
  0
LINE
  5
D48
330
1F
100
AcDbEntity
  8
7A
100
AcDbLine
 10
1458.532887276503
 20
272.3189652346935
 30
0.0
 11
1458.532887276503
 21
272.2405729047907
 31
0.0
1001
GENIUS_GENOREF_13
1005
D4E
  0
LINE
  5
D49
330
1F
100
AcDbEntity
  8
7A
100
AcDbLine
 10
1522.815729989003
 20
272.3189652346935
 30
0.0
 11
1522.73781435197
 21
272.3189652346935
 31
0.0
1001
GENIUS_GENOREF_13
1005
D4D
  0
LINE
  5
D4A
330
1F
100
AcDbEntity
  8
7A
100
AcDbLine
 10
1522.815729989003
 20
272.3189652346935
 30
0.0
 11
1522.815729989003
 21
272.4032388559707
 31
0.0
1001
GENIUS_GENOREF_13
1005
D4D
  0
LINE
  5
D4B
330
1F
100
AcDbEntity
  8
7A
100
AcDbLine
 10
1522.815729989003
 20
272.3189652346935
 30
0.0
 11
1522.893178890552
 21
272.3189652346935
 31
0.0
1001
GENIUS_GENOREF_13
1005
D4D
  0
LINE
  5
D4C
330
1F
100
AcDbEntity
  8
7A
100
AcDbLine
 10
1522.815729989003
 20
272.3189652346935
 30
0.0
 11
1522.815729989003
 21
272.2405729047907
 31
0.0
1001
GENIUS_GENOREF_13
1005
D4D
  0
POINT
  5
D4D
330
1F
100
AcDbEntity
  8
0
 60
     1
100
AcDbPoint
 10
807.2521616450497
 20
141.0954784176611
 30
0.0
 50
180.0
1001
GENIUS_GENOBJ-N-CRS_13
1002
{
1000
OWNER
1000
GEN
1002
}
1001
GENIUS_GENOENT_13
1002
{
1000
MYREF
1005
D4D
1002
}
1002
{
1000
GRP
1005
0
1002
}
1001
GENIUS_GENODEF_13
1002
{
1000
HIER
1070
    10
1002
}
1002
{
1000
MANEDIT
1070
     0
1002
}
1002
{
1000
NOSEL
1070
     0
1002
}
1002
{
1000
BEHIND
1070
     0
1002
}
1002
{
1000
OTHER
1070
     0
1002
}
1002
{
1000
REACTOR
1002
}
1001
GENIUS_GENOLIS_13
1002
{
1000
ENT
1005
D4C
1005
D4B
1005
D4A
1005
D49
1002
}
  0
POINT
  5
D4E
330
1F
100
AcDbEntity
  8
0
 60
     1
100
AcDbPoint
 10
742.9693189325496
 20
141.0954784176611
 30
0.0
 50
180.0
1001
GENIUS_GENOBJ-N-CRS_13
1002
{
1000
OWNER
1000
GEN
1002
}
1001
GENIUS_GENOENT_13
1002
{
1000
MYREF
1005
D4E
1002
}
1002
{
1000
GRP
1005
0
1002
}
1001
GENIUS_GENODEF_13
1002
{
1000
HIER
1070
    10
1002
}
1002
{
1000
MANEDIT
1070
     0
1002
}
1002
{
1000
NOSEL
1070
     0
1002
}
1002
{
1000
BEHIND
1070
     0
1002
}
1002
{
1000
OTHER
1070
     0
1002
}
1002
{
1000
REACTOR
1002
}
1001
GENIUS_GENOLIS_13
1002
{
1000
ENT
1005
D48
1005
D47
1005
D46
1005
D45
1002
}
  0
DIMENSION
  5
EB5
330
1F
100
AcDbEntity
  8
P-0000
  6
Continuous
100
AcDbDimension
  2
*D17
 10
1420.881297477873
 20
276.3189652346934
 30
0.0
 11
1420.881297477873
 21
266.3189652339847
 31
0.0
 70
   160
 71
     5
 42
20.00000000141773
  3
883N99122_001_00149479900
100
AcDbAlignedDimension
 13
1461.674308640836
 23
256.3189652332757
 33
0.0
 14
1459.65480822266
 24
276.3189652346934
 34
0.0
 50
90.0
100
AcDbRotatedDimension
1001
ACAD_DSTYLE_DIMINSPECT
1070
   396
1000
100%
1070
   395
1000

1070
   394
1070
    33
1070
   393
1070
     0
1001
ACAD
1000
DSTYLE
1002
{
1070
   288
1070
     1
1002
}
  0
DIMENSION
  5
EE6
330
1F
100
AcDbEntity
  8
P-0000
  6
Continuous
100
AcDbDimension
  2
*D18
 10
1442.358327206269
 20
276.3189652346934
 30
0.0
 11
1434.85832720627
 21
267.2006001409437
 31
0.0
 70
    32
  1
19
 71
     5
 42
18.23673018749991
  3
883N99122_001_00149479900
100
AcDbAlignedDimension
 13
1451.674308604203
 23
258.0822350471935
 33
0.0
 14
1460.352693555829
 24
276.3189652346934
 34
0.0
 50
90.0
100
AcDbRotatedDimension
1001
ACAD_DSTYLE_DIMINSPECT
1070
   396
1000
100%
1070
   395
1000

1070
   394
1070
    33
1070
   393
1070
     0
1001
ACAD
1000
DSTYLE
1002
{
1070
   279
1070
     2
1070
   288
1070
     1
1002
}
  0
POINT
  5
1070
330
1F
100
AcDbEntity
  8
0
 60
     1
100
AcDbPoint
 10
742.9693189325496
 20
141.0954784176611
 30
0.0
 50
180.0
1001
GENIUS_GENOBJ-N-CRS_13
1002
{
1000
OWNER
1000
GEN
1002
}
1001
GENIUS_GENOENT_13
1002
{
1000
MYREF
1005
1070
1002
}
1002
{
1000
GRP
1005
0
1002
}
1001
GENIUS_GENODEF_13
1002
{
1000
HIER
1070
    10
1002
}
1002
{
1000
MANEDIT
1070
     0
1002
}
1002
{
1000
NOSEL
1070
     0
1002
}
1002
{
1000
BEHIND
1070
     0
1002
}
1002
{
1000
OTHER
1070
     0
1002
}
1002
{
1000
REACTOR
1002
}
1001
GENIUS_GENOLIS_13
1002
{
1000
ENT
1005
106F
1005
106E
1005
106D
1005
106C
1002
}
  0
POINT
  5
1071
330
1F
100
AcDbEntity
  8
0
 60
     1
100
AcDbPoint
 10
555.0737069795253
 20
-152.2192795823933
 30
0.0
1001
GENIUS_GENOLIS_13
1002
{
1000
ENT
1005
105A
1005
1059
1005
1058
1005
1057
1002
}
1001
GENIUS_GENODEF_13
1002
{
1000
HIER
1070
    10
1002
}
1002
{
1000
MANEDIT
1070
     0
1002
}
1002
{
1000
NOSEL
1070
     0
1002
}
1002
{
1000
BEHIND
1070
     0
1002
}
1002
{
1000
OTHER
1070
     0
1002
}
1002
{
1000
REACTOR
1002
}
1001
GENIUS_GENOENT_13
1002
{
1000
MYREF
1005
1071
1002
}
1002
{
1000
GRP
1005
0
1002
}
1001
GENIUS_GENOBJ-N-CRS_13
1002
{
1000
OWNER
1000
GEN
1002
}
  0
POINT
  5
1096
330
1F
100
AcDbEntity
  8
0
 60
     1
100
AcDbPoint
 10
742.9693189325496
 20
141.0954784176611
 30
0.0
 50
180.0
1001
GENIUS_GENOBJ-N-CRS_13
1002
{
1000
OWNER
1000
GEN
1002
}
1001
GENIUS_GENOENT_13
1002
{
1000
MYREF
1005
1096
1002
}
1002
{
1000
GRP
1005
0
1002
}
1001
GENIUS_GENODEF_13
1002
{
1000
HIER
1070
    10
1002
}
1002
{
1000
MANEDIT
1070
     0
1002
}
1002
{
1000
NOSEL
1070
     0
1002
}
1002
{
1000
BEHIND
1070
     0
1002
}
1002
{
1000
OTHER
1070
     0
1002
}
1002
{
1000
REACTOR
1002
}
1001
GENIUS_GENOLIS_13
1002
{
1000
ENT
1005
1095
1005
1094
1005
1093
1005
1092
1002
}
  0
POINT
  5
1097
330
1F
100
AcDbEntity
  8
0
 60
     1
100
AcDbPoint
 10
555.0737069795253
 20
-152.2192795823933
 30
0.0
1001
GENIUS_GENOLIS_13
1002
{
1000
ENT
1005
108C
1005
108B
1005
108A
1005
1089
1002
}
1001
GENIUS_GENODEF_13
1002
{
1000
HIER
1070
    10
1002
}
1002
{
1000
MANEDIT
1070
     0
1002
}
1002
{
1000
NOSEL
1070
     0
1002
}
1002
{
1000
BEHIND
1070
     0
1002
}
1002
{
1000
OTHER
1070
     0
1002
}
1002
{
1000
REACTOR
1002
}
1001
GENIUS_GENOENT_13
1002
{
1000
MYREF
1005
1097
1002
}
1002
{
1000
GRP
1005
0
1002
}
1001
GENIUS_GENOBJ-N-CRS_13
1002
{
1000
OWNER
1000
GEN
1002
}
  0
POINT
  5
10B9
330
1F
100
AcDbEntity
  8
0
 60
     1
100
AcDbPoint
 10
742.9693189325496
 20
141.0954784176611
 30
0.0
 50
180.0
1001
GENIUS_GENOBJ-N-CRS_13
1002
{
1000
OWNER
1000
GEN
1002
}
1001
GENIUS_GENOENT_13
1002
{
1000
MYREF
1005
10B9
1002
}
1002
{
1000
GRP
1005
0
1002
}
1001
GENIUS_GENODEF_13
1002
{
1000
HIER
1070
    10
1002
}
1002
{
1000
MANEDIT
1070
     0
1002
}
1002
{
1000
NOSEL
1070
     0
1002
}
1002
{
1000
BEHIND
1070
     0
1002
}
1002
{
1000
OTHER
1070
     0
1002
}
1002
{
1000
REACTOR
1002
}
1001
GENIUS_GENOLIS_13
1002
{
1000
ENT
1005
10B8
1005
10B7
1005
10B6
1005
10B5
1002
}
  0
POINT
  5
10BA
330
1F
100
AcDbEntity
  8
0
 60
     1
100
AcDbPoint
 10
555.0737069795253
 20
-152.2192795823933
 30
0.0
1001
GENIUS_GENOLIS_13
1002
{
1000
ENT
1005
10AF
1005
10AE
1005
10AD
1005
10AC
1002
}
1001
GENIUS_GENODEF_13
1002
{
1000
HIER
1070
    10
1002
}
1002
{
1000
MANEDIT
1070
     0
1002
}
1002
{
1000
NOSEL
1070
     0
1002
}
1002
{
1000
BEHIND
1070
     0
1002
}
1002
{
1000
OTHER
1070
     0
1002
}
1002
{
1000
REACTOR
1002
}
1001
GENIUS_GENOENT_13
1002
{
1000
MYREF
1005
10BA
1002
}
1002
{
1000
GRP
1005
0
1002
}
1001
GENIUS_GENOBJ-N-CRS_13
1002
{
1000
OWNER
1000
GEN
1002
}
  0
DIMENSION
  5
1485
330
1F
100
AcDbEntity
  8
P-0000
  6
Continuous
100
AcDbDimension
  2
*D25
 10
1382.720586979002
 20
223.7137105910263
 30
0.0
 11
890.1698996140337
 21
231.2137105910263
 31
0.0
 70
    32
 71
     5
 42
985.101374729936
  3
883N99122_001_00149479900
100
AcDbAlignedDimension
 13
397.6192122490658
 23
205.1387095625264
 33
0.0
 14
1382.720586979002
 24
205.1387095625264
 34
0.0
100
AcDbRotatedDimension
1001
ACAD_DSTYLE_DIMINSPECT
1070
   396
1000
100%
1070
   395
1000

1070
   394
1070
    33
1070
   393
1070
     0
1001
ACAD
1000
DSTYLE
1002
{
1070
   271
1070
     0
1070
   279
1070
     2
1070
   288
1070
     1
1002
}
  0
LINE
  5
1552
330
1F
100
AcDbEntity
  8
verdeckt
100
AcDbLine
 10
805.6082297459223
 20
145.4385068802495
 30
0.0
 11
805.6082297459223
 21
140.4385068802495
 31
0.0
  0
LINE
  5
1553
330
1F
100
AcDbEntity
  8
verdeckt
100
AcDbLine
 10
805.6082297459223
 20
204.4385068802496
 30
0.0
 11
805.6082297459223
 21
199.4385068802495
 31
0.0
  0
DIMENSION
  5
17EB
330
1F
100
AcDbEntity
  8
P-0000
  6
Continuous
100
AcDbDimension
  2
*D32
 10
1375.220586979002
 20
88.97555152230756
 30
0.0
 11
890.0464197867455
 21
96.47555152230758
 31
0.0
 70
    32
 71
     5
 42
970.3483343845128
  3
883N99122_001_00149479900
100
AcDbAlignedDimension
 13
404.872252594489
 23
132.6387095625264
 33
0.0
 14
1375.220586979002
 24
132.6387095616264
 34
0.0
 50
0.0000000000001132
100
AcDbRotatedDimension
1001
ACAD_DSTYLE_DIMINSPECT
1070
   396
1000
100%
1070
   395
1000

1070
   394
1070
    33
1070
   393
1070
     0
1001
ACAD
1000
DSTYLE
1002
{
1070
   271
1070
     0
1070
   279
1070
     2
1070
   288
1070
     1
1002
}
  0
LINE
  5
1D0B
330
1F
100
AcDbEntity
  8
0
100
AcDbLine
 10
543.1263905161296
 20
203.9887095625264
 30
0.0
 11
563.1263905161296
 21
203.9887095625264
 31
0.0
  0
LINE
  5
1D0C
330
1F
100
AcDbEntity
  8
0
100
AcDbLine
 10
543.0014438957938
 20
204.9887095625264
 30
0.0
 11
563.0014438957937
 21
204.9887095625264
 31
0.0
  0
LINE
  5
1D0D
330
1F
100
AcDbEntity
  8
0
100
AcDbLine
 10
540.5801981549716
 20
140.2887095625264
 30
0.0
 11
560.5801981549716
 21
140.2887095625264
 31
0.0
  0
LINE
  5
1D0E
330
1F
100
AcDbEntity
  8
0
100
AcDbLine
 10
540.2738845923503
 20
141.2887095625264
 30
0.0
 11
560.2738845923503
 21
141.2887095625264
 31
0.0
  0
LINE
  5
1D33
330
1F
100
AcDbEntity
  8
0
100
AcDbLine
 10
563.1263905161296
 20
203.9887095625264
 30
0.0
 11
583.1263905161296
 21
203.9887095625264
 31
0.0
  0
LINE
  5
1D34
330
1F
100
AcDbEntity
  8
0
100
AcDbLine
 10
563.0014438957937
 20
204.9887095625264
 30
0.0
 11
583.0014438957937
 21
204.9887095625264
 31
0.0
  0
LINE
  5
1D35
330
1F
100
AcDbEntity
  8
0
100
AcDbLine
 10
560.2738845923503
 20
141.2887095625264
 30
0.0
 11
580.2738845923502
 21
141.2887095625264
 31
0.0
  0
LINE
  5
1D36
330
1F
100
AcDbEntity
  8
0
100
AcDbLine
 10
560.5801981549716
 20
140.2887095625264
 30
0.0
 11
580.5801981549716
 21
140.2887095625264
 31
0.0
  0
LINE
  5
1D52
330
1F
100
AcDbEntity
  8
0
100
AcDbLine
 10
580.2738845923502
 20
141.2887095625264
 30
0.0
 11
600.2738845923502
 21
141.2887095625264
 31
0.0
  0
LINE
  5
1D53
330
1F
100
AcDbEntity
  8
0
100
AcDbLine
 10
580.5801981549716
 20
140.2887095625264
 30
0.0
 11
600.5801981549716
 21
140.2887095625264
 31
0.0
  0
LINE
  5
1D54
330
1F
100
AcDbEntity
  8
0
100
AcDbLine
 10
583.0014438957937
 20
204.9887095625264
 30
0.0
 11
603.0014438957937
 21
204.9887095625264
 31
0.0
  0
LINE
  5
1D55
330
1F
100
AcDbEntity
  8
0
100
AcDbLine
 10
583.1263905161296
 20
203.9887095625264
 30
0.0
 11
603.1263905161296
 21
203.9887095625264
 31
0.0
  0
LINE
  5
1DBE
330
1F
100
AcDbEntity
  8
0
100
AcDbLine
 10
1153.786974453171
 20
203.9887095625264
 30
0.0
 11
1192.801828807273
 21
203.9887095625263
 31
0.0
  0
LINE
  5
1DBF
330
1F
100
AcDbEntity
  8
0
100
AcDbLine
 10
1153.662027832836
 20
204.9887095625264
 30
0.0
 11
1192.676882186938
 21
204.9887095625264
 31
0.0
  0
LINE
  5
1DC0
330
1F
100
AcDbEntity
  8
0
100
AcDbLine
 10
1150.934468529392
 20
141.2887095625264
 30
0.0
 11
1189.949322883494
 21
141.2887095625264
 31
0.0
  0
LINE
  5
1DC1
330
1F
100
AcDbEntity
  8
0
100
AcDbLine
 10
1151.240782092013
 20
140.2887095625264
 30
0.0
 11
1190.255636446116
 21
140.2887095625264
 31
0.0
  0
LINE
  5
1E19
330
1F
100
AcDbEntity
  8
0
100
AcDbLine
 10
1093.759142299527
 20
275.6189652346935
 30
0.0
 11
1173.619207884422
 21
275.6189652346935
 31
0.0
  0
LINE
  5
1E1A
330
1F
100
AcDbEntity
  8
0
100
AcDbLine
 10
1093.759142299527
 20
276.318965234693
 30
0.0
 11
1173.619207884422
 21
276.3189652346946
 31
0.0
  0
ENDSEC
  0
SECTION
  2
OBJECTS
  0
DICTIONARY
  5
C
330
0
100
AcDbDictionary
281
     1
  3
ACAD_2007HEADERVARS_RT
350
230C
  3
ACAD_COLOR
350
9B
  3
ACAD_GROUP
350
D
  3
ACAD_IMAGE_DICT
350
4DF
  3
ACAD_IMAGE_VARS
350
4EF
  3
ACAD_LAYOUT
350
1A
  3
ACAD_MATERIAL
350
9A
  3
ACAD_MLEADERSTYLE
350
15D
  3
ACAD_MLINESTYLE
350
17
  3
ACAD_PLOTSETTINGS
350
19
  3
ACAD_PLOTSTYLENAME
350
E
  3
ACAD_SCALELIST
350
13B
  3
ACAD_TABLESTYLE
350
9C
  3
ACAD_VISUALSTYLE
350
12A
  3
ACDB_RECOMPOSE_DATA
350
230A
  3
AcDbVariableDictionary
350
1C2D
  3
AcmDictionary
350
47
  3
AMG
350
2B
  3
AMGSNAPSETTINGS
350
4E3
  3
DWGPROPS
350
230B
  0
DICTIONARY
  5
417
330
2
100
AcDbDictionary
280
     1
281
     1
  3
ACAD_LAYERFILTERS
360
BB3
  3
ACAD_LAYERSTATES
360
418
  3
ACLYDICTIONARY
360
BB2
  0
DICTIONARY
  5
165
330
10
100
AcDbDictionary
280
     1
281
     1
  3
ADSK_XREC_LAYER_RECONCILED
360
166
  0
DICTIONARY
  5
3DD
330
3DC
100
AcDbDictionary
280
     1
281
     1
  0
DICTIONARY
  5
3DF
330
3DE
100
AcDbDictionary
280
     1
281
     1
  0
DICTIONARY
  5
3E1
330
3E0
100
AcDbDictionary
280
     1
281
     1
  0
DICTIONARY
  5
3E3
330
3E2
100
AcDbDictionary
280
     1
281
     1
  0
DICTIONARY
  5
3E6
330
3E5
100
AcDbDictionary
280
     1
281
     1
  0
DICTIONARY
  5
3E8
330
3E7
100
AcDbDictionary
280
     1
281
     1
  0
DICTIONARY
  5
3EA
330
3E9
100
AcDbDictionary
280
     1
281
     1
  0
DICTIONARY
  5
3EC
330
3EB
100
AcDbDictionary
280
     1
281
     1
  0
DICTIONARY
  5
3EE
330
3ED
100
AcDbDictionary
280
     1
281
     1
  0
DICTIONARY
  5
3F2
330
3F1
100
AcDbDictionary
280
     1
281
     1
  0
DICTIONARY
  5
3F4
330
3F3
100
AcDbDictionary
280
     1
281
     1
  0
DICTIONARY
  5
3F6
330
3F5
100
AcDbDictionary
280
     1
281
     1
  0
DICTIONARY
  5
861
330
860
100
AcDbDictionary
280
     1
281
     1
  0
DICTIONARY
  5
863
330
862
100
AcDbDictionary
280
     1
281
     1
  0
DICTIONARY
  5
865
330
864
100
AcDbDictionary
280
     1
281
     1
  0
DICTIONARY
  5
867
330
866
100
AcDbDictionary
280
     1
281
     1
  0
DICTIONARY
  5
869
330
868
100
AcDbDictionary
280
     1
281
     1
  0
DICTIONARY
  5
86B
330
86A
100
AcDbDictionary
280
     1
281
     1
  0
DICTIONARY
  5
86D
330
86C
100
AcDbDictionary
280
     1
281
     1
  0
DICTIONARY
  5
81
330
1F
100
AcDbDictionary
280
     1
281
     1
  3
ACAD_SORTENTS
360
B7E
  0
DICTIONARY
  5
1D7
330
1D6
100
AcDbDictionary
280
     1
281
     1
  0
DICTIONARY
  5
2335
330
1D2
100
AcDbDictionary
280
     1
281
     1
  3
ACAD_MTEXT_RT
360
2336
  0
IMAGEDEF_REACTOR
  5
25F
330
25E
100
AcDbRasterImageDefReactor
 90
        2
330
25E
  0
DICTIONARY
  5
230C
102
{ACAD_REACTORS
330
C
102
}
330
C
100
AcDbDictionary
281
     1
  3
DIMJOGANG
350
230D
  0
DICTIONARY
  5
9B
102
{ACAD_REACTORS
330
C
102
}
330
C
100
AcDbDictionary
281
     1
  0
DICTIONARY
  5
D
102
{ACAD_REACTORS
330
C
102
}
330
C
100
AcDbDictionary
281
     1
  0
DICTIONARY
  5
4DF
102
{ACAD_REACTORS
330
C
102
}
330
C
100
AcDbDictionary
281
     1
  3
ACO-Logo
350
4E0
  0
RASTERVARIABLES
  5
4EF
102
{ACAD_REACTORS
330
C
102
}
330
C
100
AcDbRasterVariables
 90
        0
 70
     1
 71
     1
 72
     1
  0
DICTIONARY
  5
1A
102
{ACAD_REACTORS
330
C
102
}
330
C
100
AcDbDictionary
281
     1
  3
Layout1
350
1E
  3
Layout2
350
26
  3
Model
350
22
  0
DICTIONARY
  5
9A
102
{ACAD_REACTORS
330
C
102
}
330
C
100
AcDbDictionary
281
     1
  3
ByBlock
350
11A
  3
ByLayer
350
112
  3
Global
350
122
  0
DICTIONARY
  5
15D
102
{ACAD_REACTORS
330
C
102
}
330
C
100
AcDbDictionary
281
     1
  3
Standard
350
15E
  0
DICTIONARY
  5
17
102
{ACAD_REACTORS
330
C
102
}
330
C
100
AcDbDictionary
281
     1
  3
Standard
350
18
  0
DICTIONARY
  5
19
102
{ACAD_REACTORS
330
C
102
}
330
C
100
AcDbDictionary
281
     1
  0
ACDBDICTIONARYWDFLT
  5
E
102
{ACAD_REACTORS
330
C
102
}
330
C
100
AcDbDictionary
281
     1
  3
Normal
350
F
100
AcDbDictionaryWithDefault
340
F
  0
DICTIONARY
  5
13B
102
{ACAD_REACTORS
330
C
102
}
330
C
100
AcDbDictionary
281
     1
  3
A0
350
13C
  3
A1
350
13D
  3
A2
350
13E
  3
A3
350
13F
  3
A4
350
140
  3
A5
350
141
  3
A6
350
142
  3
A7
350
143
  3
A8
350
144
  3
A9
350
145
  3
B0
350
146
  3
B1
350
147
  3
B2
350
148
  3
B3
350
149
  3
B4
350
14A
  3
B5
350
14B
  3
B6
350
14C
  3
B7
350
14D
  3
B8
350
14E
  3
B9
350
14F
  3
C0
350
150
  3
C1
350
151
  3
C2
350
152
  3
C3
350
153
  3
C4
350
154
  3
C5
350
155
  3
C6
350
156
  3
C7
350
157
  3
C8
350
158
  3
C9
350
159
  3
D0
350
15A
  3
D1
350
15B
  3
D2
350
15C
  0
DICTIONARY
  5
9C
102
{ACAD_REACTORS
330
C
102
}
330
C
100
AcDbDictionary
281
     1
  3
Standard
350
9D
  0
DICTIONARY
  5
12A
102
{ACAD_REACTORS
330
C
102
}
330
C
100
AcDbDictionary
281
     1
  3
2dWireframe
350
130
  3
3D Hidden
350
132
  3
3dWireframe
350
131
  3
Basic
350
12F
  3
Brighten
350
136
  3
ColorChange
350
13A
  3
Conceptual
350
133
  3
Dim
350
135
  3
EdgeColorOff
350
11D7
  3
Facepattern
350
139
  3
Flat
350
12B
  3
FlatWithEdges
350
12C
  3
Gouraud
350
12D
  3
GouraudWithEdges
350
12E
  3
JitterOff
350
11D5
  3
Linepattern
350
138
  3
OverhangOff
350
11D6
  3
Realistic
350
134
  3
Thicken
350
137
  0
XRECORD
  5
230A
102
{ACAD_REACTORS
330
C
102
}
330
C
100
AcDbXrecord
280
     1
 90
        1
330
9D
330
9E3
330
EE6
330
1485
330
17EB
  0
DICTIONARY
  5
1C2D
102
{ACAD_REACTORS
330
C
102
}
330
C
100
AcDbDictionary
281
     1
  3
CANNOSCALE
350
1C30
  3
CMLEADERSTYLE
350
1C2F
  3
CTABLESTYLE
350
1C2E
  3
DIMASSOC
350
1C33
  3
INDEXCTL
350
1C32
  3
LAYEREVAL
350
22E7
  3
LAYERNOTIFY
350
22E8
  3
LIGHTINGUNITS
350
22E6
  3
MSLTSCALE
350
22E5
  3
SORTENTS
350
1C31
  3
XCLIPFRAME
350
2308
  0
DICTIONARY
  5
47
102
{ACAD_REACTORS
330
C
102
}
330
C
100
AcDbDictionary
281
     1
  3
AcmStdDictionary
350
4C
  3
AMDTSECTSYM_ARROWCOLOR
350
F5
  0
DICTIONARY
  5
2B
102
{ACAD_REACTORS
330
C
102
}
330
C
100
AcDbDictionary
281
     1
  0
DICTIONARY
  5
4E3
102
{ACAD_REACTORS
330
C
102
}
330
C
100
AcDbDictionary
281
     1
  0
XRECORD
  5
230B
102
{ACAD_REACTORS
330
C
102
}
330
C
100
AcDbXrecord
280
     1
  1
DWGPROPS COOKIE
  2

  3

  4

  6

  7

  8
MAlaie
  9

300
AmdtFileType=84
301
=
302
=
303
=
304
=
305
=
306
=
307
=
308
=
309
=
 40
0.1965875115740741
 41
2452702.515835023
 42
2456713.425365903
  1

 90
        1
  0
DICTIONARY
  5
BB3
102
{ACAD_REACTORS
330
417
102
}
330
417
100
AcDbDictionary
281
     1
  0
DICTIONARY
  5
418
102
{ACAD_REACTORS
330
417
102
}
330
417
100
AcDbDictionary
281
     1
  0
DICTIONARY
  5
BB2
102
{ACAD_REACTORS
330
417
102
}
330
417
100
AcDbDictionary
281
     1
1001
ACAD
1000
<All
  0
XRECORD
  5
166
102
{ACAD_REACTORS
330
165
102
}
330
165
100
AcDbXrecord
280
     1
290
     1
  0
SORTENTSTABLE
  5
B7E
102
{ACAD_REACTORS
330
81
102
}
330
81
100
AcDbSortentsTable
330
1F
331
BFF
  5
C03
331
BFB
  5
BFF
331
BBC
  5
BC0
331
95E
  5
962
331
C2E
  5
951
331
BE7
  5
BF1
331
C22
  5
C31
331
BE3
  5
BEC
331
956
  5
95A
331
952
  5
956
331
548
  5
548
331
94E
  5
952
331
9C5
  5
9E0
331
94A
  5
94C
331
9C1
  5
9C5
331
540
  5
540
331
B7C
  5
BBD
331
C1E
  5
C22
331
BDF
  5
BE3
331
A05
  5
B65
331
C1A
  5
C1E
331
B78
  5
B7D
331
C16
  5
C1A
331
BD7
  5
BDF
331
B74
  5
B7B
331
B70
  5
B74
331
C12
  5
C16
331
9F9
  5
A05
331
9BD
  5
9C1
331
946
  5
946
331
53C
  5
53C
331
9B9
  5
9BD
331
538
  5
538
331
9B5
  5
9B9
331
534
  5
534
331
B6C
  5
B70
331
C0E
  5
C12
331
9F5
  5
9F9
331
C0A
  5
C0E
331
BCB
  5
BD2
331
9F1
  5
9F5
331
B64
  5
B6A
331
C06
  5
C0A
331
BC7
  5
BCB
331
9ED
  5
9F1
331
C02
  5
C06
331
BC3
  5
BC7
331
98D
  5
993
331
989
  5
98D
331
985
  5
989
331
BFE
  5
C02
331
BBF
  5
BC3
331
BF6
  5
BFE
331
BBB
  5
BBF
331
C31
  5
94B
331
BF2
  5
BF6
331
961
  5
986
331
95D
  5
961
331
59B
  5
59B
331
9E0
  5
9E6
331
BE6
  5
BF0
331
C21
  5
C30
331
BE2
  5
BE8
331
955
  5
959
331
951
  5
955
331
9C8
  5
9E5
331
547
  5
547
331
94D
  5
950
331
9C4
  5
9C8
331
543
  5
543
331
949
  5
94A
331
9C0
  5
9C4
331
B7B
  5
BBC
331
A04
  5
B64
331
BDE
  5
BE2
331
C1D
  5
C21
331
B77
  5
B7C
331
C19
  5
C1D
331
B73
  5
B7A
331
BD6
  5
BDE
331
C15
  5
C19
331
9F8
  5
A04
331
BD2
  5
BD9
331
C11
  5
C15
331
53F
  5
53F
331
9BC
  5
9C0
331
945
  5
945
331
53B
  5
53B
331
9B8
  5
9BC
331
533
  5
533
331
B6F
  5
B73
331
B6B
  5
B6F
331
9F4
  5
9F8
331
BCE
  5
BD8
331
C0D
  5
C11
331
9F0
  5
9F4
331
BCA
  5
BCE
331
C09
  5
C0D
331
9EC
  5
9F0
331
BC6
  5
BCA
331
C05
  5
C09
331
BC2
  5
BC6
331
C01
  5
C05
331
98C
  5
992
331
988
  5
98C
331
BFD
  5
C01
331
BBE
  5
BC2
331
BF5
  5
BFD
331
C30
  5
949
331
BF1
  5
BF5
331
960
  5
985
331
95C
  5
960
331
9E3
  5
9E7
331
59A
  5
59A
331
C20
  5
C2F
331
BE1
  5
BE7
331
954
  5
958
331
950
  5
954
331
9C7
  5
9E4
331
546
  5
546
331
9C3
  5
9C7
331
542
  5
542
331
94C
  5
94E
331
948
  5
948
331
A07
  5
B69
331
B7A
  5
BBB
331
A03
  5
A07
331
C1C
  5
C20
331
C18
  5
C1C
331
BD9
  5
BE1
331
B72
  5
B79
331
C14
  5
C18
331
C10
  5
C14
331
53E
  5
53E
331
9BF
  5
9C3
331
53A
  5
53A
331
9BB
  5
9BF
331
944
  5
944
331
9B7
  5
9BB
331
9F7
  5
A03
331
B6E
  5
B72
331
9F3
  5
9F7
331
C0C
  5
C10
331
BCD
  5
BD7
331
B6A
  5
B6E
331
9EF
  5
9F3
331
C08
  5
C0C
331
BC9
  5
BCD
331
B66
  5
B6C
331
C04
  5
C08
331
BC5
  5
BC9
331
C00
  5
C04
331
BC1
  5
BC5
331
98B
  5
991
331
987
  5
98B
331
BFC
  5
C00
331
BBD
  5
BC1
331
BF0
  5
BF4
331
95F
  5
963
331
599
  5
599
331
95B
  5
95F
331
C2F
  5
94F
331
BEC
  5
BF3
331
BE8
  5
BF2
331
BE0
  5
BE6
331
953
  5
957
331
94F
  5
953
331
9C6
  5
9E3
331
541
  5
541
331
94B
  5
94D
331
9C2
  5
9C6
331
B7D
  5
B78
331
C1F
  5
C2E
331
A06
  5
B66
331
B79
  5
B80
331
C1B
  5
C1F
331
A02
  5
A06
331
C17
  5
C1B
331
BD8
  5
BE0
331
C13
  5
C17
331
B71
  5
B75
331
53D
  5
53D
331
9BE
  5
9C2
331
947
  5
947
331
539
  5
539
331
9BA
  5
9BE
331
535
  5
535
331
9B6
  5
9BA
331
B6D
  5
B71
331
C0F
  5
C13
331
9F6
  5
A02
331
B69
  5
B6D
331
C0B
  5
C0F
331
BCC
  5
BD6
331
9F2
  5
9F6
331
B65
  5
B6B
331
C07
  5
C0B
331
BC8
  5
BCC
331
9EE
  5
9F2
331
C03
  5
C07
331
BC4
  5
BC8
331
BC0
  5
BC4
331
98E
  5
994
331
98A
  5
98E
  0
XRECORD
  5
2336
102
{ACAD_REACTORS
330
2335
102
}
330
2335
100
AcDbXrecord
280
     1
 40
30543.0
  1
\fArial|b0|i0|c0|p32;©
  0
XRECORD
  5
230D
102
{ACAD_REACTORS
330
230C
102
}
330
230C
100
AcDbXrecord
280
     1
 40
1.570796326794896
  0
IMAGEDEF
  5
4E0
102
{ACAD_REACTORS
330
4DF
330
25F
102
}
330
4DF
100
AcDbRasterImageDef
 90
        0
  1
L:\calink52\templates\ACO-Logo.jpg
 10
75.0
 20
57.0
 11
0.3527777777777778
 21
0.3527777777777778
280
     1
281
     5
  0
LAYOUT
  5
1E
102
{ACAD_XDICTIONARY
360
230E
102
}
102
{ACAD_REACTORS
330
1A
102
}
330
1A
100
AcDbPlotSettings
  1

  2
C:\Programme\Acadm 2000i\plotters\PH36.pc3
  4

  6

 40
0.0
 41
0.0
 42
0.0
 43
0.0
 44
0.0
 45
0.0
 46
0.0
 47
0.0
 48
0.0
 49
0.0
140
0.0
141
0.0
142
1.0
143
1.0
 70
   688
 72
     0
 73
     0
 74
     5
  7
monochrome.ctb
 75
    16
147
1.0
148
0.0
149
0.0
100
AcDbLayout
  1
Layout1
 70
     1
 71
     1
 10
0.0
 20
0.0
 11
420.0
 21
297.0
 12
0.0
 22
0.0
 32
0.0
 14
1.000000000000000E+20
 24
1.000000000000000E+20
 34
1.000000000000000E+20
 15
-1.000000000000000E+20
 25
-1.000000000000000E+20
 35
-1.000000000000000E+20
146
0.0
 13
0.0
 23
0.0
 33
0.0
 16
1.0
 26
0.0
 36
0.0
 17
0.0
 27
1.0
 37
0.0
 76
     0
330
1B
  0
LAYOUT
  5
26
102
{ACAD_XDICTIONARY
360
2312
102
}
102
{ACAD_REACTORS
330
1A
102
}
330
1A
100
AcDbPlotSettings
  1

  2
C:\Programme\Acadm 2000i\plotters\PH36.pc3
  4

  6

 40
0.0
 41
0.0
 42
0.0
 43
0.0
 44
0.0
 45
0.0
 46
0.0
 47
0.0
 48
0.0
 49
0.0
140
0.0
141
0.0
142
1.0
143
1.0
 70
   688
 72
     0
 73
     0
 74
     5
  7
monochrome.ctb
 75
    16
147
1.0
148
0.0
149
0.0
100
AcDbLayout
  1
Layout2
 70
     1
 71
     2
 10
0.0
 20
0.0
 11
12.0
 21
9.0
 12
0.0
 22
0.0
 32
0.0
 14
0.0
 24
0.0
 34
0.0
 15
0.0
 25
0.0
 35
0.0
146
0.0
 13
0.0
 23
0.0
 33
0.0
 16
1.0
 26
0.0
 36
0.0
 17
0.0
 27
1.0
 37
0.0
 76
     0
330
23
  0
LAYOUT
  5
22
102
{ACAD_XDICTIONARY
360
2310
102
}
102
{ACAD_REACTORS
330
1A
102
}
330
1A
100
AcDbPlotSettings
  1

  2
PDFCreator
  4
A4
  6

 40
3.174999952316281
 41
3.174999952316281
 42
3.175003051757812
 43
3.17498779296875
 44
209.8886566162109
 45
297.0530090332031
 46
0.0
 47
1.435290918200081
 48
639.4090863137355
 49
-75.47869904903265
140
1240.009086313762
141
349.2313009509694
142
1.0
143
2.086630683964969
 70
 11956
 72
     1
 73
     1
 74
     4
  7
monochrome.ctb
 75
     0
147
0.4792414909282475
148
-639.4090863137355
149
75.47869904903265
100
AcDbLayout
  1
Model
 70
     1
 71
     0
 10
0.0
 20
0.0
 11
12.0
 21
9.0
 12
0.0
 22
0.0
 32
0.0
 14
0.0
 24
0.0
 34
0.0
 15
0.0
 25
0.0
 35
0.0
146
0.0
 13
0.0
 23
0.0
 33
0.0
 16
1.0
 26
0.0
 36
0.0
 17
0.0
 27
1.0
 37
0.0
 76
     0
330
1F
331
110
1001
ACAD_PSEXT
1000
PDFCreator
1000
PDFCreator
1000
PDFCreator:
1000
eDoc Printer
1070
     0
  0
MATERIAL
  5
11A
102
{ACAD_XDICTIONARY
360
11B
102
}
102
{ACAD_REACTORS
330
9A
102
}
330
9A
100
AcDbMaterial
  1
ByBlock
 72
     0
 43
0.0008202099737533
 43
0.0
 43
0.0
 43
0.0
 43
0.0
 43
0.0008202099737533
 43
0.0
 43
0.0
 43
0.0
 43
0.0
 43
1.0
 43
0.0
 43
0.0
 43
0.0
 43
0.0
 43
1.0
 77
     0
 47
0.0008202099737533
 47
0.0
 47
0.0
 47
0.0
 47
0.0
 47
0.0008202099737533
 47
0.0
 47
0.0
 47
0.0
 47
0.0
 47
1.0
 47
0.0
 47
0.0
 47
0.0
 47
0.0
 47
1.0
171
     0
 49
0.0008202099737533
 49
0.0
 49
0.0
 49
0.0
 49
0.0
 49
0.0008202099737533
 49
0.0
 49
0.0
 49
0.0
 49
0.0
 49
1.0
 49
0.0
 49
0.0
 49
0.0
 49
0.0
 49
1.0
175
     0
142
0.0008202099737533
142
0.0
142
0.0
142
0.0
142
0.0
142
0.0008202099737533
142
0.0
142
0.0
142
0.0
142
0.0
142
1.0
142
0.0
142
0.0
142
0.0
142
0.0
142
1.0
179
     0
144
0.0008202099737533
144
0.0
144
0.0
144
0.0
144
0.0
144
0.0008202099737533
144
0.0
144
0.0
144
0.0
144
0.0
144
1.0
144
0.0
144
0.0
144
0.0
144
0.0
144
1.0
147
0.0008202099737533
147
0.0
147
0.0
147
0.0
147
0.0
147
0.0008202099737533
147
0.0
147
0.0
147
0.0
147
0.0
147
1.0
147
0.0
147
0.0
147
0.0
147
0.0
147
1.0
  0
MATERIAL
  5
112
102
{ACAD_XDICTIONARY
360
113
102
}
102
{ACAD_REACTORS
330
9A
102
}
330
9A
100
AcDbMaterial
  1
ByLayer
 72
     0
 43
0.0008202099737533
 43
0.0
 43
0.0
 43
0.0
 43
0.0
 43
0.0008202099737533
 43
0.0
 43
0.0
 43
0.0
 43
0.0
 43
1.0
 43
0.0
 43
0.0
 43
0.0
 43
0.0
 43
1.0
 77
     0
 47
0.0008202099737533
 47
0.0
 47
0.0
 47
0.0
 47
0.0
 47
0.0008202099737533
 47
0.0
 47
0.0
 47
0.0
 47
0.0
 47
1.0
 47
0.0
 47
0.0
 47
0.0
 47
0.0
 47
1.0
171
     0
 49
0.0008202099737533
 49
0.0
 49
0.0
 49
0.0
 49
0.0
 49
0.0008202099737533
 49
0.0
 49
0.0
 49
0.0
 49
0.0
 49
1.0
 49
0.0
 49
0.0
 49
0.0
 49
0.0
 49
1.0
175
     0
142
0.0008202099737533
142
0.0
142
0.0
142
0.0
142
0.0
142
0.0008202099737533
142
0.0
142
0.0
142
0.0
142
0.0
142
1.0
142
0.0
142
0.0
142
0.0
142
0.0
142
1.0
179
     0
144
0.0008202099737533
144
0.0
144
0.0
144
0.0
144
0.0
144
0.0008202099737533
144
0.0
144
0.0
144
0.0
144
0.0
144
1.0
144
0.0
144
0.0
144
0.0
144
0.0
144
1.0
147
0.0008202099737533
147
0.0
147
0.0
147
0.0
147
0.0
147
0.0008202099737533
147
0.0
147
0.0
147
0.0
147
0.0
147
1.0
147
0.0
147
0.0
147
0.0
147
0.0
147
1.0
  0
MATERIAL
  5
122
102
{ACAD_XDICTIONARY
360
123
102
}
102
{ACAD_REACTORS
330
9A
102
}
330
9A
100
AcDbMaterial
  1
Global
 72
     0
 43
0.0008202099737533
 43
0.0
 43
0.0
 43
0.0
 43
0.0
 43
0.0008202099737533
 43
0.0
 43
0.0
 43
0.0
 43
0.0
 43
1.0
 43
0.0
 43
0.0
 43
0.0
 43
0.0
 43
1.0
 77
     0
 47
0.0008202099737533
 47
0.0
 47
0.0
 47
0.0
 47
0.0
 47
0.0008202099737533
 47
0.0
 47
0.0
 47
0.0
 47
0.0
 47
1.0
 47
0.0
 47
0.0
 47
0.0
 47
0.0
 47
1.0
171
     0
 49
0.0008202099737533
 49
0.0
 49
0.0
 49
0.0
 49
0.0
 49
0.0008202099737533
 49
0.0
 49
0.0
 49
0.0
 49
0.0
 49
1.0
 49
0.0
 49
0.0
 49
0.0
 49
0.0
 49
1.0
175
     0
142
0.0008202099737533
142
0.0
142
0.0
142
0.0
142
0.0
142
0.0008202099737533
142
0.0
142
0.0
142
0.0
142
0.0
142
1.0
142
0.0
142
0.0
142
0.0
142
0.0
142
1.0
179
     0
144
0.0008202099737533
144
0.0
144
0.0
144
0.0
144
0.0
144
0.0008202099737533
144
0.0
144
0.0
144
0.0
144
0.0
144
1.0
144
0.0
144
0.0
144
0.0
144
0.0
144
1.0
147
0.0008202099737533
147
0.0
147
0.0
147
0.0
147
0.0
147
0.0008202099737533
147
0.0
147
0.0
147
0.0
147
0.0
147
1.0
147
0.0
147
0.0
147
0.0
147
0.0
147
1.0
  0
MLEADERSTYLE
  5
15E
102
{ACAD_REACTORS
330
15D
102
}
330
15D
100
AcDbMLeaderStyle
170
     2
171
     1
172
     0
 90
        2
 40
0.0
 41
0.0
173
     1
 91
-1056964608
340
14
 92
       -2
290
     1
 42
2.0
291
     1
 43
0.36
  3
Standard
 44
4.0
300

342
11
174
     1
178
     6
175
     1
176
     0
 93
-1056964608
 45
4.0
292
     0
297
     0
 46
4.0
 94
-1056964608
 47
1.0
 49
1.0
140
1.0
293
     1
141
0.0
294
     1
177
     0
142
1.0
295
     0
296
     0
143
0.125
1001
ACAD_MLEADERVER
1070
     2
  0
MLINESTYLE
  5
18
102
{ACAD_REACTORS
330
17
102
}
330
17
100
AcDbMlineStyle
  2
STANDARD
 70
     0
  3

 62
   256
 51
90.0
 52
90.0
 71
     2
 49
0.5
 62
   256
  6
BYLAYER
 49
-0.5
 62
   256
  6
BYLAYER
  0
ACDBPLACEHOLDER
  5
F
102
{ACAD_REACTORS
330
E
102
}
330
E
  0
SCALE
  5
13C
102
{ACAD_REACTORS
330
13B
102
}
330
13B
100
AcDbScale
 70
     0
300
1:1
140
1.0
141
1.0
290
     1
  0
SCALE
  5
13D
102
{ACAD_REACTORS
330
13B
102
}
330
13B
100
AcDbScale
 70
     0
300
1:2
140
1.0
141
2.0
290
     0
  0
SCALE
  5
13E
102
{ACAD_REACTORS
330
13B
102
}
330
13B
100
AcDbScale
 70
     0
300
1:4
140
1.0
141
4.0
290
     0
  0
SCALE
  5
13F
102
{ACAD_REACTORS
330
13B
102
}
330
13B
100
AcDbScale
 70
     0
300
1:5
140
1.0
141
5.0
290
     0
  0
SCALE
  5
140
102
{ACAD_REACTORS
330
13B
102
}
330
13B
100
AcDbScale
 70
     0
300
1:8
140
1.0
141
8.0
290
     0
  0
SCALE
  5
141
102
{ACAD_REACTORS
330
13B
102
}
330
13B
100
AcDbScale
 70
     0
300
1:10
140
1.0
141
10.0
290
     0
  0
SCALE
  5
142
102
{ACAD_REACTORS
330
13B
102
}
330
13B
100
AcDbScale
 70
     0
300
1:16
140
1.0
141
16.0
290
     0
  0
SCALE
  5
143
102
{ACAD_REACTORS
330
13B
102
}
330
13B
100
AcDbScale
 70
     0
300
1:20
140
1.0
141
20.0
290
     0
  0
SCALE
  5
144
102
{ACAD_REACTORS
330
13B
102
}
330
13B
100
AcDbScale
 70
     0
300
1:30
140
1.0
141
30.0
290
     0
  0
SCALE
  5
145
102
{ACAD_REACTORS
330
13B
102
}
330
13B
100
AcDbScale
 70
     0
300
1:40
140
1.0
141
40.0
290
     0
  0
SCALE
  5
146
102
{ACAD_REACTORS
330
13B
102
}
330
13B
100
AcDbScale
 70
     0
300
1:50
140
1.0
141
50.0
290
     0
  0
SCALE
  5
147
102
{ACAD_REACTORS
330
13B
102
}
330
13B
100
AcDbScale
 70
     0
300
1:100
140
1.0
141
100.0
290
     0
  0
SCALE
  5
148
102
{ACAD_REACTORS
330
13B
102
}
330
13B
100
AcDbScale
 70
     0
300
2:1
140
2.0
141
1.0
290
     0
  0
SCALE
  5
149
102
{ACAD_REACTORS
330
13B
102
}
330
13B
100
AcDbScale
 70
     0
300
4:1
140
4.0
141
1.0
290
     0
  0
SCALE
  5
14A
102
{ACAD_REACTORS
330
13B
102
}
330
13B
100
AcDbScale
 70
     0
300
8:1
140
8.0
141
1.0
290
     0
  0
SCALE
  5
14B
102
{ACAD_REACTORS
330
13B
102
}
330
13B
100
AcDbScale
 70
     0
300
10:1
140
10.0
141
1.0
290
     0
  0
SCALE
  5
14C
102
{ACAD_REACTORS
330
13B
102
}
330
13B
100
AcDbScale
 70
     0
300
100:1
140
100.0
141
1.0
290
     0
  0
SCALE
  5
14D
102
{ACAD_REACTORS
330
13B
102
}
330
13B
100
AcDbScale
 70
     0
300
1/128" = 1'-0"
140
0.0078125
141
12.0
290
     0
  0
SCALE
  5
14E
102
{ACAD_REACTORS
330
13B
102
}
330
13B
100
AcDbScale
 70
     0
300
1/64" = 1'-0"
140
0.015625
141
12.0
290
     0
  0
SCALE
  5
14F
102
{ACAD_REACTORS
330
13B
102
}
330
13B
100
AcDbScale
 70
     0
300
1/32" = 1'-0"
140
0.03125
141
12.0
290
     0
  0
SCALE
  5
150
102
{ACAD_REACTORS
330
13B
102
}
330
13B
100
AcDbScale
 70
     0
300
1/16" = 1'-0"
140
0.0625
141
12.0
290
     0
  0
SCALE
  5
151
102
{ACAD_REACTORS
330
13B
102
}
330
13B
100
AcDbScale
 70
     0
300
3/32" = 1'-0"
140
0.09375
141
12.0
290
     0
  0
SCALE
  5
152
102
{ACAD_REACTORS
330
13B
102
}
330
13B
100
AcDbScale
 70
     0
300
1/8" = 1'-0"
140
0.125
141
12.0
290
     0
  0
SCALE
  5
153
102
{ACAD_REACTORS
330
13B
102
}
330
13B
100
AcDbScale
 70
     0
300
3/16" = 1'-0"
140
0.1875
141
12.0
290
     0
  0
SCALE
  5
154
102
{ACAD_REACTORS
330
13B
102
}
330
13B
100
AcDbScale
 70
     0
300
1/4" = 1'-0"
140
0.25
141
12.0
290
     0
  0
SCALE
  5
155
102
{ACAD_REACTORS
330
13B
102
}
330
13B
100
AcDbScale
 70
     0
300
3/8" = 1'-0"
140
0.375
141
12.0
290
     0
  0
SCALE
  5
156
102
{ACAD_REACTORS
330
13B
102
}
330
13B
100
AcDbScale
 70
     0
300
1/2" = 1'-0"
140
0.5
141
12.0
290
     0
  0
SCALE
  5
157
102
{ACAD_REACTORS
330
13B
102
}
330
13B
100
AcDbScale
 70
     0
300
3/4" = 1'-0"
140
0.75
141
12.0
290
     0
  0
SCALE
  5
158
102
{ACAD_REACTORS
330
13B
102
}
330
13B
100
AcDbScale
 70
     0
300
1" = 1'-0"
140
1.0
141
12.0
290
     0
  0
SCALE
  5
159
102
{ACAD_REACTORS
330
13B
102
}
330
13B
100
AcDbScale
 70
     0
300
1-1/2" = 1'-0"
140
1.5
141
12.0
290
     0
  0
SCALE
  5
15A
102
{ACAD_REACTORS
330
13B
102
}
330
13B
100
AcDbScale
 70
     0
300
3" = 1'-0"
140
3.0
141
12.0
290
     0
  0
SCALE
  5
15B
102
{ACAD_REACTORS
330
13B
102
}
330
13B
100
AcDbScale
 70
     0
300
6" = 1'-0"
140
6.0
141
12.0
290
     0
  0
SCALE
  5
15C
102
{ACAD_REACTORS
330
13B
102
}
330
13B
100
AcDbScale
 70
     0
300
1'-0" = 1'-0"
140
12.0
141
12.0
290
     0
  0
TABLESTYLE
  5
9D
102
{ACAD_XDICTIONARY
360
167
102
}
102
{ACAD_REACTORS
330
9C
102
}
330
9C
100
AcDbTableStyle
  3
Standard
 70
     0
 71
     0
 40
1.5
 41
1.5
280
     0
281
     0
  7
STANDARD
140
4.5
170
     2
 62
     0
 63
     7
283
     0
274
    -2
284
     1
 64
     0
275
    -2
285
     1
 65
     0
276
    -2
286
     1
 66
     0
277
    -2
287
     1
 67
     0
278
    -2
288
     1
 68
     0
279
    -2
289
     1
 69
     0
  7
STANDARD
140
6.0
170
     5
 62
     0
 63
     7
283
     0
274
    -2
284
     1
 64
     0
275
    -2
285
     1
 65
     0
276
    -2
286
     1
 66
     0
277
    -2
287
     1
 67
     0
278
    -2
288
     1
 68
     0
279
    -2
289
     1
 69
     0
  7
STANDARD
140
4.5
170
     5
 62
     0
 63
     7
283
     0
274
    -2
284
     1
 64
     0
275
    -2
285
     1
 65
     0
276
    -2
286
     1
 66
     0
277
    -2
287
     1
 67
     0
278
    -2
288
     1
 68
     0
279
    -2
289
     1
 69
     0
  0
VISUALSTYLE
  5
130
102
{ACAD_XDICTIONARY
360
231F
102
}
102
{ACAD_REACTORS
330
12A
102
}
330
12A
100
AcDbVisualStyle
  2

 70
     4
 71
     0
 72
     2
 73
     0
 90
        0
 40
-0.6
 41
-30.0
 62
     5
 63
     7
 74
     1
 91
        4
 64
     7
 65
   257
 75
     1
175
     1
 42
1.0
 92
        0
 66
   257
 43
1.0
 76
     1
 77
     6
 78
     2
 67
     7
 79
     5
170
     0
171
     0
290
     0
174
     0
 93
        1
 44
0.0
173
     0
291
     0
 45
0.0
1001
ACAD
1000
AcDbSavedByObjectVersion
1070
     0
  0
VISUALSTYLE
  5
132
102
{ACAD_XDICTIONARY
360
2323
102
}
102
{ACAD_REACTORS
330
12A
102
}
330
12A
100
AcDbVisualStyle
  2

 70
     6
 71
     1
 72
     2
 73
     2
 90
        0
 40
-0.6
 41
-30.0
 62
     5
 63
     7
 74
     2
 91
        2
 64
     7
 65
   257
 75
     2
175
     1
 42
40.0
 92
        0
 66
   257
 43
1.0
 76
     1
 77
     6
 78
     2
 67
     7
 79
     3
170
     0
171
     0
290
     0
174
     0
 93
        1
 44
0.0
173
     0
291
     0
 45
0.0
1001
ACAD
1000
AcDbSavedByObjectVersion
1070
     0
  0
VISUALSTYLE
  5
131
102
{ACAD_XDICTIONARY
360
2321
102
}
102
{ACAD_REACTORS
330
12A
102
}
330
12A
100
AcDbVisualStyle
  2

 70
     5
 71
     0
 72
     2
 73
     0
 90
        0
 40
-0.6
 41
-30.0
 62
     5
 63
     7
 74
     1
 91
        4
 64
     7
 65
   257
 75
     1
175
     1
 42
1.0
 92
        0
 66
   257
 43
1.0
 76
     1
 77
     6
 78
     2
 67
     7
 79
     5
170
     0
171
     0
290
     0
174
     0
 93
        1
 44
0.0
173
     0
291
     0
 45
0.0
1001
ACAD
1000
AcDbSavedByObjectVersion
1070
     0
  0
VISUALSTYLE
  5
12F
102
{ACAD_XDICTIONARY
360
231D
102
}
102
{ACAD_REACTORS
330
12A
102
}
330
12A
100
AcDbVisualStyle
  2

 70
     7
 71
     1
 72
     0
 73
     1
 90
        0
 40
-0.6
 41
-30.0
 62
     5
 63
     7
 74
     0
 91
        4
 64
     7
 65
   257
 75
     1
175
     1
 42
1.0
 92
        8
 66
     7
 43
1.0
 76
     1
 77
     6
 78
     2
 67
     7
 79
     5
170
     0
171
     0
290
     0
174
     0
 93
        1
 44
0.0
173
     0
291
     1
 45
0.0
1001
ACAD
1000
AcDbSavedByObjectVersion
1070
     0
  0
VISUALSTYLE
  5
136
102
{ACAD_XDICTIONARY
360
232B
102
}
102
{ACAD_REACTORS
330
12A
102
}
330
12A
100
AcDbVisualStyle
  2

 70
    12
 71
     2
 72
     2
 73
     0
 90
        0
 40
-0.6
 41
-30.0
 62
     5
 63
     7
 74
     1
 91
        4
 64
     7
 65
   257
 75
     1
175
     1
 42
1.0
 92
        8
 66
     7
 43
1.0
 76
     1
 77
     6
 78
     2
 67
     7
 79
     5
170
     0
171
     0
290
     0
174
     0
 93
        1
 44
50.0
173
     0
291
     1
 45
0.0
1001
ACAD
1000
AcDbSavedByObjectVersion
1070
     0
  0
VISUALSTYLE
  5
13A
102
{ACAD_XDICTIONARY
360
2333
102
}
102
{ACAD_REACTORS
330
12A
102
}
330
12A
100
AcDbVisualStyle
  2

 70
    16
 71
     2
 72
     2
 73
     3
 90
        0
 40
-0.6
 41
-30.0
 62
     5
 63
     8
 74
     1
 91
        4
 64
     7
 65
   257
 75
     1
175
     1
 42
1.0
 92
        8
 66
     8
 43
1.0
 76
     1
 77
     6
 78
     2
 67
     7
 79
     5
170
     0
171
     0
290
     0
174
     0
 93
        1
 44
0.0
173
     0
291
     1
 45
0.0
1001
ACAD
1000
AcDbSavedByObjectVersion
1070
     0
  0
VISUALSTYLE
  5
133
102
{ACAD_XDICTIONARY
360
2325
102
}
102
{ACAD_REACTORS
330
12A
102
}
330
12A
100
AcDbVisualStyle
  2

 70
     9
 71
     3
 72
     2
 73
     0
 90
        0
 40
-0.6
 41
-30.0
 62
     5
 63
     7
 74
     2
 91
        2
 64
     7
 65
   257
 75
     1
175
     1
 42
40.0
 92
        8
 66
     7
 43
1.0
 76
     1
 77
     6
 78
     2
 67
     7
 79
     3
170
     0
171
     0
290
     0
174
     0
 93
        1
 44
0.0
173
     0
291
     0
 45
0.0
1001
ACAD
1000
AcDbSavedByObjectVersion
1070
     0
  0
VISUALSTYLE
  5
135
102
{ACAD_XDICTIONARY
360
2329
102
}
102
{ACAD_REACTORS
330
12A
102
}
330
12A
100
AcDbVisualStyle
  2

 70
    11
 71
     2
 72
     2
 73
     0
 90
        0
 40
-0.6
 41
-30.0
 62
     5
 63
     7
 74
     1
 91
        4
 64
     7
 65
   257
 75
     1
175
     1
 42
1.0
 92
        8
 66
     7
 43
1.0
 76
     1
 77
     6
 78
     2
 67
     7
 79
     5
170
     0
171
     0
290
     0
174
     0
 93
        1
 44
-50.0
173
     0
291
     1
 45
0.0
1001
ACAD
1000
AcDbSavedByObjectVersion
1070
     0
  0
VISUALSTYLE
  5
11D7
102
{ACAD_XDICTIONARY
360
233B
102
}
102
{ACAD_REACTORS
330
12A
102
}
330
12A
100
AcDbVisualStyle
  2

 70
    22
 71
     2
 72
     2
 73
     0
 90
        0
 40
-0.6
 41
-30.0
 62
     5
 63
     7
 74
     1
 91
        4
 64
     7
 65
   257
 75
     1
175
     1
 42
1.0
 92
        8
 66
     7
 43
1.0
 76
     1
 77
     6
 78
     2
 67
     7
 79
     5
170
     0
171
     0
290
     0
174
     0
 93
        1
 44
0.0
173
     0
291
     1
 45
0.0
1001
ACAD
1000
AcDbSavedByObjectVersion
1070
     0
  0
VISUALSTYLE
  5
139
102
{ACAD_XDICTIONARY
360
2331
102
}
102
{ACAD_REACTORS
330
12A
102
}
330
12A
100
AcDbVisualStyle
  2

 70
    15
 71
     2
 72
     2
 73
     0
 90
        0
 40
-0.6
 41
-30.0
 62
     5
 63
     7
 74
     1
 91
        4
 64
     7
 65
   257
 75
     1
175
     1
 42
1.0
 92
        8
 66
     7
 43
1.0
 76
     1
 77
     6
 78
     2
 67
     7
 79
     5
170
     0
171
     0
290
     0
174
     0
 93
        1
 44
0.0
173
     0
291
     1
 45
0.0
1001
ACAD
1000
AcDbSavedByObjectVersion
1070
     0
  0
VISUALSTYLE
  5
12B
102
{ACAD_XDICTIONARY
360
2315
102
}
102
{ACAD_REACTORS
330
12A
102
}
330
12A
100
AcDbVisualStyle
  2

 70
     0
 71
     2
 72
     1
 73
     1
 90
        2
 40
-0.6
 41
30.0
 62
     5
 63
     7
 74
     0
 91
        4
 64
     7
 65
   257
 75
     1
175
     1
 42
1.0
 92
        8
 66
     7
 43
1.0
 76
     1
 77
     6
 78
     2
 67
     7
 79
     5
170
     0
171
     0
290
     0
174
     0
 93
       13
 44
0.0
173
     0
291
     1
 45
0.0
1001
ACAD
1000
AcDbSavedByObjectVersion
1070
     0
  0
VISUALSTYLE
  5
12C
102
{ACAD_XDICTIONARY
360
2317
102
}
102
{ACAD_REACTORS
330
12A
102
}
330
12A
100
AcDbVisualStyle
  2

 70
     1
 71
     2
 72
     1
 73
     1
 90
        2
 40
-0.6
 41
30.0
 62
     5
 63
     7
 74
     1
 91
        4
 64
     7
 65
   257
 75
     1
175
     1
 42
1.0
 92
        0
 66
   257
 43
1.0
 76
     1
 77
     6
 78
     2
 67
     7
 79
     5
170
     0
171
     0
290
     0
174
     0
 93
       13
 44
0.0
173
     0
291
     1
 45
0.0
1001
ACAD
1000
AcDbSavedByObjectVersion
1070
     0
  0
VISUALSTYLE
  5
12D
102
{ACAD_XDICTIONARY
360
2319
102
}
102
{ACAD_REACTORS
330
12A
102
}
330
12A
100
AcDbVisualStyle
  2

 70
     2
 71
     2
 72
     2
 73
     1
 90
        2
 40
-0.6
 41
30.0
 62
     5
 63
     7
 74
     0
 91
        4
 64
     7
 65
   257
 75
     1
175
     1
 42
1.0
 92
        0
 66
     7
 43
1.0
 76
     1
 77
     6
 78
     2
 67
     7
 79
     5
170
     0
171
     0
290
     0
174
     0
 93
       13
 44
0.0
173
     0
291
     1
 45
0.0
1001
ACAD
1000
AcDbSavedByObjectVersion
1070
     0
  0
VISUALSTYLE
  5
12E
102
{ACAD_XDICTIONARY
360
231B
102
}
102
{ACAD_REACTORS
330
12A
102
}
330
12A
100
AcDbVisualStyle
  2

 70
     3
 71
     2
 72
     2
 73
     1
 90
        2
 40
-0.6
 41
30.0
 62
     5
 63
     7
 74
     1
 91
        4
 64
     7
 65
   257
 75
     1
175
     1
 42
1.0
 92
        0
 66
   257
 43
1.0
 76
     1
 77
     6
 78
     2
 67
     7
 79
     5
170
     0
171
     0
290
     0
174
     0
 93
       13
 44
0.0
173
     0
291
     1
 45
0.0
1001
ACAD
1000
AcDbSavedByObjectVersion
1070
     0
  0
VISUALSTYLE
  5
11D5
102
{ACAD_XDICTIONARY
360
2337
102
}
102
{ACAD_REACTORS
330
12A
102
}
330
12A
100
AcDbVisualStyle
  2

 70
    20
 71
     2
 72
     2
 73
     0
 90
        0
 40
-0.6
 41
-30.0
 62
     5
 63
     7
 74
     1
 91
        4
 64
     7
 65
   257
 75
     1
175
     1
 42
1.0
 92
       10
 66
     7
 43
1.0
 76
     1
 77
     6
 78
     2
 67
     7
 79
     5
170
     0
171
     0
290
     0
174
     0
 93
        1
 44
0.0
173
     0
291
     1
 45
0.0
1001
ACAD
1000
AcDbSavedByObjectVersion
1070
     0
  0
VISUALSTYLE
  5
138
102
{ACAD_XDICTIONARY
360
232F
102
}
102
{ACAD_REACTORS
330
12A
102
}
330
12A
100
AcDbVisualStyle
  2

 70
    14
 71
     2
 72
     2
 73
     0
 90
        0
 40
-0.6
 41
-30.0
 62
     5
 63
     7
 74
     1
 91
        4
 64
     7
 65
   257
 75
     7
175
     7
 42
1.0
 92
        8
 66
     7
 43
1.0
 76
     1
 77
     6
 78
     2
 67
     7
 79
     5
170
     0
171
     0
290
     0
174
     0
 93
        1
 44
0.0
173
     0
291
     1
 45
0.0
1001
ACAD
1000
AcDbSavedByObjectVersion
1070
     0
  0
VISUALSTYLE
  5
11D6
102
{ACAD_XDICTIONARY
360
2339
102
}
102
{ACAD_REACTORS
330
12A
102
}
330
12A
100
AcDbVisualStyle
  2

 70
    21
 71
     2
 72
     2
 73
     0
 90
        0
 40
-0.6
 41
-30.0
 62
     5
 63
     7
 74
     1
 91
        4
 64
     7
 65
   257
 75
     1
175
     1
 42
1.0
 92
        9
 66
     7
 43
1.0
 76
     1
 77
     6
 78
     2
 67
     7
 79
     5
170
     0
171
     0
290
     0
174
     0
 93
        1
 44
0.0
173
     0
291
     1
 45
0.0
1001
ACAD
1000
AcDbSavedByObjectVersion
1070
     0
  0
VISUALSTYLE
  5
134
102
{ACAD_XDICTIONARY
360
2327
102
}
102
{ACAD_REACTORS
330
12A
102
}
330
12A
100
AcDbVisualStyle
  2

 70
     8
 71
     2
 72
     2
 73
     0
 90
        0
 40
-0.6
 41
-30.0
 62
     5
 63
     7
 74
     1
 91
        0
 64
     7
 65
   257
 75
     1
175
     1
 42
1.0
 92
        8
 66
     8
 43
1.0
 76
     1
 77
     6
 78
     2
 67
     7
 79
     5
170
     0
171
     0
290
     0
174
     0
 93
       13
 44
0.0
173
     0
291
     0
 45
0.0
1001
ACAD
1000
AcDbSavedByObjectVersion
1070
     0
  0
VISUALSTYLE
  5
137
102
{ACAD_XDICTIONARY
360
232D
102
}
102
{ACAD_REACTORS
330
12A
102
}
330
12A
100
AcDbVisualStyle
  2

 70
    13
 71
     2
 72
     2
 73
     0
 90
        0
 40
-0.6
 41
-30.0
 62
     5
 63
     7
 74
     1
 91
        4
 64
     7
 65
   257
 75
     1
175
     1
 42
1.0
 92
       12
 66
     7
 43
1.0
 76
     1
 77
     6
 78
     2
 67
     7
 79
     5
170
     0
171
     0
290
     0
174
     0
 93
        1
 44
0.0
173
     0
291
     1
 45
0.0
1001
ACAD
1000
AcDbSavedByObjectVersion
1070
     0
  0
DICTIONARYVAR
  5
1C30
102
{ACAD_REACTORS
330
1C2D
102
}
330
1C2D
100
DictionaryVariables
280
     0
  1
1:1
  0
DICTIONARYVAR
  5
1C2F
102
{ACAD_REACTORS
330
1C2D
102
}
330
1C2D
100
DictionaryVariables
280
     0
  1
STANDARD
  0
DICTIONARYVAR
  5
1C2E
102
{ACAD_REACTORS
330
1C2D
102
}
330
1C2D
100
DictionaryVariables
280
     0
  1
STANDARD
  0
DICTIONARYVAR
  5
1C33
102
{ACAD_REACTORS
330
1C2D
102
}
330
1C2D
100
DictionaryVariables
280
     0
  1
1
  0
DICTIONARYVAR
  5
1C32
102
{ACAD_REACTORS
330
1C2D
102
}
330
1C2D
100
DictionaryVariables
280
     0
  1
0
  0
DICTIONARYVAR
  5
22E7
102
{ACAD_REACTORS
330
1C2D
102
}
330
1C2D
100
DictionaryVariables
280
     0
  1
1
  0
DICTIONARYVAR
  5
22E8
102
{ACAD_REACTORS
330
1C2D
102
}
330
1C2D
100
DictionaryVariables
280
     0
  1
15
  0
DICTIONARYVAR
  5
22E6
102
{ACAD_REACTORS
330
1C2D
102
}
330
1C2D
100
DictionaryVariables
280
     0
  1
0
  0
DICTIONARYVAR
  5
22E5
102
{ACAD_REACTORS
330
1C2D
102
}
330
1C2D
100
DictionaryVariables
280
     0
  1
0
  0
DICTIONARYVAR
  5
1C31
102
{ACAD_REACTORS
330
1C2D
102
}
330
1C2D
100
DictionaryVariables
280
     0
  1
127
  0
DICTIONARYVAR
  5
2308
102
{ACAD_REACTORS
330
1C2D
102
}
330
1C2D
100
DictionaryVariables
280
     0
  1
2
  0
DICTIONARY
  5
4C
102
{ACAD_REACTORS
330
47
102
}
330
47
100
AcDbDictionary
281
     1
  0
XRECORD
  5
F5
102
{ACAD_REACTORS
330
47
102
}
330
47
100
AcDbXrecord
280
     1
 90
-1023410169
  0
DICTIONARY
  5
230E
330
1E
100
AcDbDictionary
280
     1
281
     1
  3
ACAD_XREC_ROUNDTRIP
360
230F
  0
DICTIONARY
  5
2312
330
26
100
AcDbDictionary
280
     1
281
     1
  3
ACAD_XREC_ROUNDTRIP
360
2313
  0
DICTIONARY
  5
2310
330
22
100
AcDbDictionary
280
     1
281
     1
  3
ACAD_XREC_ROUNDTRIP
360
2311
  0
DICTIONARY
  5
11B
330
11A
100
AcDbDictionary
280
     1
281
     1
  3
ACAD_XREC_ROUNDTRIP
360
1215
  3
BUMPTILE
360
11D
  3
DIFFUSETILE
360
11C
  3
OPACITYTILE
360
120
  3
REFLECTIONTILE
360
11F
  3
REFRACTIONTILE
360
121
  3
SPECULARTILE
360
11E
  0
DICTIONARY
  5
113
330
112
100
AcDbDictionary
280
     1
281
     1
  3
ACAD_XREC_ROUNDTRIP
360
1214
  3
BUMPTILE
360
115
  3
DIFFUSETILE
360
114
  3
OPACITYTILE
360
118
  3
REFLECTIONTILE
360
117
  3
REFRACTIONTILE
360
119
  3
SPECULARTILE
360
116
  0
DICTIONARY
  5
123
330
122
100
AcDbDictionary
280
     1
281
     1
  3
ACAD_XREC_ROUNDTRIP
360
1216
  3
BUMPTILE
360
125
  3
DIFFUSETILE
360
124
  3
OPACITYTILE
360
128
  3
REFLECTIONTILE
360
127
  3
REFRACTIONTILE
360
129
  3
SPECULARTILE
360
126
  0
DICTIONARY
  5
167
330
9D
100
AcDbDictionary
280
     1
281
     1
  3
ACAD_ROUNDTRIP_2008_TABLESTYLE_CELLSTYLEMAP
360
2309
  3
ACAD_XREC_ROUNDTRIP
360
2314
  0
DICTIONARY
  5
231F
330
130
100
AcDbDictionary
280
     1
281
     1
  3
ACAD_XREC_ROUNDTRIP
360
2320
  0
DICTIONARY
  5
2323
330
132
100
AcDbDictionary
280
     1
281
     1
  3
ACAD_XREC_ROUNDTRIP
360
2324
  0
DICTIONARY
  5
2321
330
131
100
AcDbDictionary
280
     1
281
     1
  3
ACAD_XREC_ROUNDTRIP
360
2322
  0
DICTIONARY
  5
231D
330
12F
100
AcDbDictionary
280
     1
281
     1
  3
ACAD_XREC_ROUNDTRIP
360
231E
  0
DICTIONARY
  5
232B
330
136
100
AcDbDictionary
280
     1
281
     1
  3
ACAD_XREC_ROUNDTRIP
360
232C
  0
DICTIONARY
  5
2333
330
13A
100
AcDbDictionary
280
     1
281
     1
  3
ACAD_XREC_ROUNDTRIP
360
2334
  0
DICTIONARY
  5
2325
330
133
100
AcDbDictionary
280
     1
281
     1
  3
ACAD_XREC_ROUNDTRIP
360
2326
  0
DICTIONARY
  5
2329
330
135
100
AcDbDictionary
280
     1
281
     1
  3
ACAD_XREC_ROUNDTRIP
360
232A
  0
DICTIONARY
  5
233B
330
11D7
100
AcDbDictionary
280
     1
281
     1
  3
ACAD_XREC_ROUNDTRIP
360
233C
  0
DICTIONARY
  5
2331
330
139
100
AcDbDictionary
280
     1
281
     1
  3
ACAD_XREC_ROUNDTRIP
360
2332
  0
DICTIONARY
  5
2315
330
12B
100
AcDbDictionary
280
     1
281
     1
  3
ACAD_XREC_ROUNDTRIP
360
2316
  0
DICTIONARY
  5
2317
330
12C
100
AcDbDictionary
280
     1
281
     1
  3
ACAD_XREC_ROUNDTRIP
360
2318
  0
DICTIONARY
  5
2319
330
12D
100
AcDbDictionary
280
     1
281
     1
  3
ACAD_XREC_ROUNDTRIP
360
231A
  0
DICTIONARY
  5
231B
330
12E
100
AcDbDictionary
280
     1
281
     1
  3
ACAD_XREC_ROUNDTRIP
360
231C
  0
DICTIONARY
  5
2337
330
11D5
100
AcDbDictionary
280
     1
281
     1
  3
ACAD_XREC_ROUNDTRIP
360
2338
  0
DICTIONARY
  5
232F
330
138
100
AcDbDictionary
280
     1
281
     1
  3
ACAD_XREC_ROUNDTRIP
360
2330
  0
DICTIONARY
  5
2339
330
11D6
100
AcDbDictionary
280
     1
281
     1
  3
ACAD_XREC_ROUNDTRIP
360
233A
  0
DICTIONARY
  5
2327
330
134
100
AcDbDictionary
280
     1
281
     1
  3
ACAD_XREC_ROUNDTRIP
360
2328
  0
DICTIONARY
  5
232D
330
137
100
AcDbDictionary
280
     1
281
     1
  3
ACAD_XREC_ROUNDTRIP
360
232E
  0
XRECORD
  5
230F
102
{ACAD_REACTORS
330
230E
102
}
330
230E
100
AcDbXrecord
280
     1
102
SHADEPLOT
 70
     0
102
SHADEPLOTRESLEVEL
 70
     2
102
SHADEPLOTCUSTOMDPI
 70
   300
  0
XRECORD
  5
2313
102
{ACAD_REACTORS
330
2312
102
}
330
2312
100
AcDbXrecord
280
     1
102
SHADEPLOT
 70
     0
102
SHADEPLOTRESLEVEL
 70
     2
102
SHADEPLOTCUSTOMDPI
 70
   300
  0
XRECORD
  5
2311
102
{ACAD_REACTORS
330
2310
102
}
330
2310
100
AcDbXrecord
280
     1
102
SHADEPLOT
 70
     0
102
SHADEPLOTRESLEVEL
 70
     2
102
SHADEPLOTCUSTOMDPI
 70
   300
  0
XRECORD
  5
1215
102
{ACAD_REACTORS
330
11B
102
}
330
11B
100
AcDbXrecord
280
     1
102
MATERIAL
148
0.0
149
0.0
149
0.0
 93
        0
 94
      127
282
     0
 72
     0
 77
     0
171
     0
175
     0
179
     0
273
     0
  0
XRECORD
  5
11D
102
{ACAD_REACTORS
330
11B
102
}
330
11B
100
AcDbXrecord
280
     1
270
     1
271
     1
  0
XRECORD
  5
11C
102
{ACAD_REACTORS
330
11B
102
}
330
11B
100
AcDbXrecord
280
     1
270
     1
271
     1
  0
XRECORD
  5
120
102
{ACAD_REACTORS
330
11B
102
}
330
11B
100
AcDbXrecord
280
     1
270
     1
271
     1
  0
XRECORD
  5
11F
102
{ACAD_REACTORS
330
11B
102
}
330
11B
100
AcDbXrecord
280
     1
270
     1
271
     1
  0
XRECORD
  5
121
102
{ACAD_REACTORS
330
11B
102
}
330
11B
100
AcDbXrecord
280
     1
270
     1
271
     1
  0
XRECORD
  5
11E
102
{ACAD_REACTORS
330
11B
102
}
330
11B
100
AcDbXrecord
280
     1
270
     1
271
     1
  0
XRECORD
  5
1214
102
{ACAD_REACTORS
330
113
102
}
330
113
100
AcDbXrecord
280
     1
102
MATERIAL
148
0.0
149
0.0
149
0.0
 93
        0
 94
      127
282
     0
 72
     0
 77
     0
171
     0
175
     0
179
     0
273
     0
  0
XRECORD
  5
115
102
{ACAD_REACTORS
330
113
102
}
330
113
100
AcDbXrecord
280
     1
270
     1
271
     1
  0
XRECORD
  5
114
102
{ACAD_REACTORS
330
113
102
}
330
113
100
AcDbXrecord
280
     1
270
     1
271
     1
  0
XRECORD
  5
118
102
{ACAD_REACTORS
330
113
102
}
330
113
100
AcDbXrecord
280
     1
270
     1
271
     1
  0
XRECORD
  5
117
102
{ACAD_REACTORS
330
113
102
}
330
113
100
AcDbXrecord
280
     1
270
     1
271
     1
  0
XRECORD
  5
119
102
{ACAD_REACTORS
330
113
102
}
330
113
100
AcDbXrecord
280
     1
270
     1
271
     1
  0
XRECORD
  5
116
102
{ACAD_REACTORS
330
113
102
}
330
113
100
AcDbXrecord
280
     1
270
     1
271
     1
  0
XRECORD
  5
1216
102
{ACAD_REACTORS
330
123
102
}
330
123
100
AcDbXrecord
280
     1
102
MATERIAL
148
0.0
149
0.0
149
0.0
 93
        0
 94
      127
282
     0
 72
     0
 77
     0
171
     0
175
     0
179
     0
273
     0
  0
XRECORD
  5
125
102
{ACAD_REACTORS
330
123
102
}
330
123
100
AcDbXrecord
280
     1
270
     1
271
     1
  0
XRECORD
  5
124
102
{ACAD_REACTORS
330
123
102
}
330
123
100
AcDbXrecord
280
     1
270
     1
271
     1
  0
XRECORD
  5
128
102
{ACAD_REACTORS
330
123
102
}
330
123
100
AcDbXrecord
280
     1
270
     1
271
     1
  0
XRECORD
  5
127
102
{ACAD_REACTORS
330
123
102
}
330
123
100
AcDbXrecord
280
     1
270
     1
271
     1
  0
XRECORD
  5
129
102
{ACAD_REACTORS
330
123
102
}
330
123
100
AcDbXrecord
280
     1
270
     1
271
     1
  0
XRECORD
  5
126
102
{ACAD_REACTORS
330
123
102
}
330
123
100
AcDbXrecord
280
     1
270
     1
271
     1
  0
CELLSTYLEMAP
  5
2309
102
{ACAD_REACTORS
330
167
102
}
330
167
100
AcDbCellStyleMap
 90
        3
300
CELLSTYLE
  1
TABLEFORMAT_BEGIN
 90
        5
170
     1
 91
        0
 92
    32768
 62
   257
 93
        1
300
CONTENTFORMAT
  1
CONTENTFORMAT_BEGIN
 90
        0
 91
        0
 92
        4
 93
        0
300

 40
0.0
140
1.0
 94
        5
 62
     0
340
11
144
6.0
309
CONTENTFORMAT_END
171
     1
301
MARGIN
  1
CELLMARGIN_BEGIN
 40
1.5
 40
1.5
 40
1.5
 40
1.5
 40
0.18
 40
0.18
309
CELLMARGIN_END
 94
        6
 95
        1
302
GRIDFORMAT
  1
GRIDFORMAT_BEGIN
 90
        0
 91
        1
 62
     0
 92
       -2
340
0
 93
        0
 40
0.045
309
GRIDFORMAT_END
 95
        2
302
GRIDFORMAT
  1
GRIDFORMAT_BEGIN
 90
        0
 91
        1
 62
     0
 92
       -2
340
0
 93
        0
 40
0.045
309
GRIDFORMAT_END
 95
        4
302
GRIDFORMAT
  1
GRIDFORMAT_BEGIN
 90
        0
 91
        1
 62
     0
 92
       -2
340
0
 93
        0
 40
0.045
309
GRIDFORMAT_END
 95
        8
302
GRIDFORMAT
  1
GRIDFORMAT_BEGIN
 90
        0
 91
        1
 62
     0
 92
       -2
340
0
 93
        0
 40
0.045
309
GRIDFORMAT_END
 95
       16
302
GRIDFORMAT
  1
GRIDFORMAT_BEGIN
 90
        0
 91
        1
 62
     0
 92
       -2
340
0
 93
        0
 40
0.045
309
GRIDFORMAT_END
 95
       32
302
GRIDFORMAT
  1
GRIDFORMAT_BEGIN
 90
        0
 91
        1
 62
     0
 92
       -2
340
0
 93
        0
 40
0.045
309
GRIDFORMAT_END
309
TABLEFORMAT_END
  1
CELLSTYLE_BEGIN
 90
        1
 91
        1
300
_TITLE
309
CELLSTYLE_END
300
CELLSTYLE
  1
TABLEFORMAT_BEGIN
 90
        5
170
     1
 91
        0
 92
        0
 62
   257
 93
        1
300
CONTENTFORMAT
  1
CONTENTFORMAT_BEGIN
 90
        0
 91
        0
 92
        4
 93
        0
300

 40
0.0
140
1.0
 94
        5
 62
     0
340
11
144
4.5
309
CONTENTFORMAT_END
171
     1
301
MARGIN
  1
CELLMARGIN_BEGIN
 40
1.5
 40
1.5
 40
1.5
 40
1.5
 40
0.18
 40
0.18
309
CELLMARGIN_END
 94
        6
 95
        1
302
GRIDFORMAT
  1
GRIDFORMAT_BEGIN
 90
        0
 91
        1
 62
     0
 92
       -2
340
0
 93
        0
 40
0.045
309
GRIDFORMAT_END
 95
        2
302
GRIDFORMAT
  1
GRIDFORMAT_BEGIN
 90
        0
 91
        1
 62
     0
 92
       -2
340
0
 93
        0
 40
0.045
309
GRIDFORMAT_END
 95
        4
302
GRIDFORMAT
  1
GRIDFORMAT_BEGIN
 90
        0
 91
        1
 62
     0
 92
       -2
340
0
 93
        0
 40
0.045
309
GRIDFORMAT_END
 95
        8
302
GRIDFORMAT
  1
GRIDFORMAT_BEGIN
 90
        0
 91
        1
 62
     0
 92
       -2
340
0
 93
        0
 40
0.045
309
GRIDFORMAT_END
 95
       16
302
GRIDFORMAT
  1
GRIDFORMAT_BEGIN
 90
        0
 91
        1
 62
     0
 92
       -2
340
0
 93
        0
 40
0.045
309
GRIDFORMAT_END
 95
       32
302
GRIDFORMAT
  1
GRIDFORMAT_BEGIN
 90
        0
 91
        1
 62
     0
 92
       -2
340
0
 93
        0
 40
0.045
309
GRIDFORMAT_END
309
TABLEFORMAT_END
  1
CELLSTYLE_BEGIN
 90
        2
 91
        1
300
_HEADER
309
CELLSTYLE_END
300
CELLSTYLE
  1
TABLEFORMAT_BEGIN
 90
        5
170
     1
 91
        0
 92
        0
 62
   257
 93
        1
300
CONTENTFORMAT
  1
CONTENTFORMAT_BEGIN
 90
        0
 91
        0
 92
        4
 93
        0
300

 40
0.0
140
1.0
 94
        2
 62
     0
340
11
144
4.5
309
CONTENTFORMAT_END
171
     1
301
MARGIN
  1
CELLMARGIN_BEGIN
 40
1.5
 40
1.5
 40
1.5
 40
1.5
 40
0.18
 40
0.18
309
CELLMARGIN_END
 94
        6
 95
        1
302
GRIDFORMAT
  1
GRIDFORMAT_BEGIN
 90
        0
 91
        1
 62
     0
 92
       -2
340
0
 93
        0
 40
0.045
309
GRIDFORMAT_END
 95
        2
302
GRIDFORMAT
  1
GRIDFORMAT_BEGIN
 90
        0
 91
        1
 62
     0
 92
       -2
340
0
 93
        0
 40
0.045
309
GRIDFORMAT_END
 95
        4
302
GRIDFORMAT
  1
GRIDFORMAT_BEGIN
 90
        0
 91
        1
 62
     0
 92
       -2
340
0
 93
        0
 40
0.045
309
GRIDFORMAT_END
 95
        8
302
GRIDFORMAT
  1
GRIDFORMAT_BEGIN
 90
        0
 91
        1
 62
     0
 92
       -2
340
0
 93
        0
 40
0.045
309
GRIDFORMAT_END
 95
       16
302
GRIDFORMAT
  1
GRIDFORMAT_BEGIN
 90
        0
 91
        1
 62
     0
 92
       -2
340
0
 93
        0
 40
0.045
309
GRIDFORMAT_END
 95
       32
302
GRIDFORMAT
  1
GRIDFORMAT_BEGIN
 90
        0
 91
        1
 62
     0
 92
       -2
340
0
 93
        0
 40
0.045
309
GRIDFORMAT_END
309
TABLEFORMAT_END
  1
CELLSTYLE_BEGIN
 90
        3
 91
        2
300
_DATA
309
CELLSTYLE_END
  0
XRECORD
  5
2314
102
{ACAD_REACTORS
330
167
102
}
330
167
100
AcDbXrecord
280
     1
102
ACAD_ROUNDTRIP_PRE2007_TABLESTYLE
 90
        4
 91
        0
  1

 92
        4
 93
        0
  2

 94
        4
 95
        0
  3

  0
XRECORD
  5
2320
102
{ACAD_REACTORS
330
231F
102
}
330
231F
100
AcDbXrecord
280
     1
102
RTVSPropertyOp0
 70
     1
102
RTVSPropertyOp1
 70
     1
102
RTVSPropertyOp2
 70
     1
102
RTVSPropertyOp3
 70
     1
102
RTVSPropertyOp4
 70
     1
102
RTVSPropertyOp5
 70
     1
102
RTVSPropertyOp6
 70
     1
102
RTVSPropertyOp7
 70
     1
102
RTVSPropertyOp8
 70
     1
102
RTVSPropertyOp9
 70
     1
102
RTVSPropertyOp10
 70
     1
102
RTVSPropertyOp11
 70
     1
102
RTVSPropertyOp12
 70
     1
102
RTVSPropertyOp13
 70
     1
102
RTVSPropertyOp14
 70
     1
102
RTVSPropertyOp15
 70
     1
102
RTVSPropertyOp16
 70
     1
102
RTVSPropertyOp17
 70
     1
102
RTVSPropertyOp18
 70
     1
102
RTVSPropertyOp19
 70
     1
102
RTVSPropertyOp20
 70
     1
102
RTVSPropertyOp21
 70
     1
102
RTVSPropertyOp22
 70
     1
102
RTVSPropertyOp23
 70
     1
102
RTVSPropertyOp24
 70
     1
102
RTVSPropertyOp25
 70
     1
102
RTVSPropertyOp26
 70
     1
102
RTVSPropertyOp27
 70
     1
  0
XRECORD
  5
2324
102
{ACAD_REACTORS
330
2323
102
}
330
2323
100
AcDbXrecord
280
     1
102
RTVSPropertyOp0
 70
     1
102
RTVSPropertyOp1
 70
     1
102
RTVSPropertyOp2
 70
     1
102
RTVSPropertyOp3
 70
     1
102
RTVSPropertyOp4
 70
     1
102
RTVSPropertyOp5
 70
     1
102
RTVSPropertyOp6
 70
     1
102
RTVSPropertyOp7
 70
     1
102
RTVSPropertyOp8
 70
     1
102
RTVSPropertyOp9
 70
     1
102
RTVSPropertyOp10
 70
     1
102
RTVSPropertyOp11
 70
     1
102
RTVSPropertyOp12
 70
     1
102
RTVSPropertyOp13
 70
     1
102
RTVSPropertyOp14
 70
     1
102
RTVSPropertyOp15
 70
     1
102
RTVSPropertyOp16
 70
     1
102
RTVSPropertyOp17
 70
     1
102
RTVSPropertyOp18
 70
     1
102
RTVSPropertyOp19
 70
     1
102
RTVSPropertyOp20
 70
     1
102
RTVSPropertyOp21
 70
     1
102
RTVSPropertyOp22
 70
     1
102
RTVSPropertyOp23
 70
     1
102
RTVSPropertyOp24
 70
     1
102
RTVSPropertyOp25
 70
     1
102
RTVSPropertyOp26
 70
     1
102
RTVSPropertyOp27
 70
     1
  0
XRECORD
  5
2322
102
{ACAD_REACTORS
330
2321
102
}
330
2321
100
AcDbXrecord
280
     1
102
RTVSPropertyOp0
 70
     1
102
RTVSPropertyOp1
 70
     1
102
RTVSPropertyOp2
 70
     1
102
RTVSPropertyOp3
 70
     1
102
RTVSPropertyOp4
 70
     1
102
RTVSPropertyOp5
 70
     1
102
RTVSPropertyOp6
 70
     1
102
RTVSPropertyOp7
 70
     1
102
RTVSPropertyOp8
 70
     1
102
RTVSPropertyOp9
 70
     1
102
RTVSPropertyOp10
 70
     1
102
RTVSPropertyOp11
 70
     1
102
RTVSPropertyOp12
 70
     1
102
RTVSPropertyOp13
 70
     1
102
RTVSPropertyOp14
 70
     1
102
RTVSPropertyOp15
 70
     1
102
RTVSPropertyOp16
 70
     1
102
RTVSPropertyOp17
 70
     1
102
RTVSPropertyOp18
 70
     1
102
RTVSPropertyOp19
 70
     1
102
RTVSPropertyOp20
 70
     1
102
RTVSPropertyOp21
 70
     1
102
RTVSPropertyOp22
 70
     1
102
RTVSPropertyOp23
 70
     1
102
RTVSPropertyOp24
 70
     1
102
RTVSPropertyOp25
 70
     1
102
RTVSPropertyOp26
 70
     1
102
RTVSPropertyOp27
 70
     1
  0
XRECORD
  5
231E
102
{ACAD_REACTORS
330
231D
102
}
330
231D
100
AcDbXrecord
280
     1
102
RTVSPropertyOp0
 70
     1
102
RTVSPropertyOp1
 70
     1
102
RTVSPropertyOp2
 70
     1
102
RTVSPropertyOp3
 70
     1
102
RTVSPropertyOp4
 70
     1
102
RTVSPropertyOp5
 70
     1
102
RTVSPropertyOp6
 70
     1
102
RTVSPropertyOp7
 70
     1
102
RTVSPropertyOp8
 70
     1
102
RTVSPropertyOp9
 70
     1
102
RTVSPropertyOp10
 70
     1
102
RTVSPropertyOp11
 70
     1
102
RTVSPropertyOp12
 70
     1
102
RTVSPropertyOp13
 70
     1
102
RTVSPropertyOp14
 70
     1
102
RTVSPropertyOp15
 70
     1
102
RTVSPropertyOp16
 70
     1
102
RTVSPropertyOp17
 70
     1
102
RTVSPropertyOp18
 70
     1
102
RTVSPropertyOp19
 70
     1
102
RTVSPropertyOp20
 70
     1
102
RTVSPropertyOp21
 70
     1
102
RTVSPropertyOp22
 70
     1
102
RTVSPropertyOp23
 70
     1
102
RTVSPropertyOp24
 70
     1
102
RTVSPropertyOp25
 70
     1
102
RTVSPropertyOp26
 70
     1
102
RTVSPropertyOp27
 70
     1
  0
XRECORD
  5
232C
102
{ACAD_REACTORS
330
232B
102
}
330
232B
100
AcDbXrecord
280
     1
102
RTVSPropertyOp0
 70
     1
102
RTVSPropertyOp1
 70
     1
102
RTVSPropertyOp2
 70
     1
102
RTVSPropertyOp3
 70
     1
102
RTVSPropertyOp4
 70
     1
102
RTVSPropertyOp5
 70
     1
102
RTVSPropertyOp6
 70
     1
102
RTVSPropertyOp7
 70
     1
102
RTVSPropertyOp8
 70
     1
102
RTVSPropertyOp9
 70
     1
102
RTVSPropertyOp10
 70
     1
102
RTVSPropertyOp11
 70
     1
102
RTVSPropertyOp12
 70
     1
102
RTVSPropertyOp13
 70
     1
102
RTVSPropertyOp14
 70
     1
102
RTVSPropertyOp15
 70
     1
102
RTVSPropertyOp16
 70
     1
102
RTVSPropertyOp17
 70
     1
102
RTVSPropertyOp18
 70
     1
102
RTVSPropertyOp19
 70
     1
102
RTVSPropertyOp20
 70
     1
102
RTVSPropertyOp21
 70
     1
102
RTVSPropertyOp22
 70
     1
102
RTVSPropertyOp23
 70
     1
102
RTVSPropertyOp24
 70
     1
102
RTVSPropertyOp25
 70
     1
102
RTVSPropertyOp26
 70
     1
102
RTVSPropertyOp27
 70
     1
  0
XRECORD
  5
2334
102
{ACAD_REACTORS
330
2333
102
}
330
2333
100
AcDbXrecord
280
     1
102
RTVSPropertyOp0
 70
     1
102
RTVSPropertyOp1
 70
     1
102
RTVSPropertyOp2
 70
     1
102
RTVSPropertyOp3
 70
     1
102
RTVSPropertyOp4
 70
     1
102
RTVSPropertyOp5
 70
     1
102
RTVSPropertyOp6
 70
     1
102
RTVSPropertyOp7
 70
     1
102
RTVSPropertyOp8
 70
     1
102
RTVSPropertyOp9
 70
     1
102
RTVSPropertyOp10
 70
     1
102
RTVSPropertyOp11
 70
     1
102
RTVSPropertyOp12
 70
     1
102
RTVSPropertyOp13
 70
     1
102
RTVSPropertyOp14
 70
     1
102
RTVSPropertyOp15
 70
     1
102
RTVSPropertyOp16
 70
     1
102
RTVSPropertyOp17
 70
     1
102
RTVSPropertyOp18
 70
     1
102
RTVSPropertyOp19
 70
     1
102
RTVSPropertyOp20
 70
     1
102
RTVSPropertyOp21
 70
     1
102
RTVSPropertyOp22
 70
     1
102
RTVSPropertyOp23
 70
     1
102
RTVSPropertyOp24
 70
     1
102
RTVSPropertyOp25
 70
     1
102
RTVSPropertyOp26
 70
     1
102
RTVSPropertyOp27
 70
     1
  0
XRECORD
  5
2326
102
{ACAD_REACTORS
330
2325
102
}
330
2325
100
AcDbXrecord
280
     1
102
RTVSPropertyOp0
 70
     1
102
RTVSPropertyOp1
 70
     1
102
RTVSPropertyOp2
 70
     1
102
RTVSPropertyOp3
 70
     1
102
RTVSPropertyOp4
 70
     1
102
RTVSPropertyOp5
 70
     1
102
RTVSPropertyOp6
 70
     1
102
RTVSPropertyOp7
 70
     1
102
RTVSPropertyOp8
 70
     1
102
RTVSPropertyOp9
 70
     1
102
RTVSPropertyOp10
 70
     1
102
RTVSPropertyOp11
 70
     1
102
RTVSPropertyOp12
 70
     1
102
RTVSPropertyOp13
 70
     1
102
RTVSPropertyOp14
 70
     1
102
RTVSPropertyOp15
 70
     1
102
RTVSPropertyOp16
 70
     1
102
RTVSPropertyOp17
 70
     1
102
RTVSPropertyOp18
 70
     1
102
RTVSPropertyOp19
 70
     1
102
RTVSPropertyOp20
 70
     1
102
RTVSPropertyOp21
 70
     1
102
RTVSPropertyOp22
 70
     1
102
RTVSPropertyOp23
 70
     1
102
RTVSPropertyOp24
 70
     1
102
RTVSPropertyOp25
 70
     1
102
RTVSPropertyOp26
 70
     1
102
RTVSPropertyOp27
 70
     1
  0
XRECORD
  5
232A
102
{ACAD_REACTORS
330
2329
102
}
330
2329
100
AcDbXrecord
280
     1
102
RTVSPropertyOp0
 70
     1
102
RTVSPropertyOp1
 70
     1
102
RTVSPropertyOp2
 70
     1
102
RTVSPropertyOp3
 70
     1
102
RTVSPropertyOp4
 70
     1
102
RTVSPropertyOp5
 70
     1
102
RTVSPropertyOp6
 70
     1
102
RTVSPropertyOp7
 70
     1
102
RTVSPropertyOp8
 70
     1
102
RTVSPropertyOp9
 70
     1
102
RTVSPropertyOp10
 70
     1
102
RTVSPropertyOp11
 70
     1
102
RTVSPropertyOp12
 70
     1
102
RTVSPropertyOp13
 70
     1
102
RTVSPropertyOp14
 70
     1
102
RTVSPropertyOp15
 70
     1
102
RTVSPropertyOp16
 70
     1
102
RTVSPropertyOp17
 70
     1
102
RTVSPropertyOp18
 70
     1
102
RTVSPropertyOp19
 70
     1
102
RTVSPropertyOp20
 70
     1
102
RTVSPropertyOp21
 70
     1
102
RTVSPropertyOp22
 70
     1
102
RTVSPropertyOp23
 70
     1
102
RTVSPropertyOp24
 70
     1
102
RTVSPropertyOp25
 70
     1
102
RTVSPropertyOp26
 70
     1
102
RTVSPropertyOp27
 70
     1
  0
XRECORD
  5
233C
102
{ACAD_REACTORS
330
233B
102
}
330
233B
100
AcDbXrecord
280
     1
102
RTVSPropertyOp0
 70
     0
102
RTVSPropertyOp1
 70
     0
102
RTVSPropertyOp2
 70
     0
102
RTVSPropertyOp3
 70
     0
102
RTVSPropertyOp4
 70
     0
102
RTVSPropertyOp5
 70
     0
102
RTVSPropertyOp6
 70
     0
102
RTVSPropertyOp7
 70
     0
102
RTVSPropertyOp8
 70
     0
102
RTVSPropertyOp9
 70
     0
102
RTVSPropertyOp10
 70
     0
102
RTVSPropertyOp11
 70
     0
102
RTVSPropertyOp12
 70
     0
102
RTVSPropertyOp13
 70
     0
102
RTVSPropertyOp14
 70
     2
102
RTVSPropertyOp15
 70
     0
102
RTVSPropertyOp16
 70
     0
102
RTVSPropertyOp17
 70
     0
102
RTVSPropertyOp18
 70
     0
102
RTVSPropertyOp19
 70
     0
102
RTVSPropertyOp20
 70
     0
102
RTVSPropertyOp21
 70
     0
102
RTVSPropertyOp22
 70
     0
102
RTVSPropertyOp23
 70
     0
102
RTVSPropertyOp24
 70
     0
102
RTVSPropertyOp25
 70
     0
102
RTVSPropertyOp26
 70
     0
102
RTVSPropertyOp27
 70
     0
  0
XRECORD
  5
2332
102
{ACAD_REACTORS
330
2331
102
}
330
2331
100
AcDbXrecord
280
     1
102
RTVSPropertyOp0
 70
     1
102
RTVSPropertyOp1
 70
     1
102
RTVSPropertyOp2
 70
     1
102
RTVSPropertyOp3
 70
     1
102
RTVSPropertyOp4
 70
     1
102
RTVSPropertyOp5
 70
     1
102
RTVSPropertyOp6
 70
     1
102
RTVSPropertyOp7
 70
     1
102
RTVSPropertyOp8
 70
     1
102
RTVSPropertyOp9
 70
     1
102
RTVSPropertyOp10
 70
     1
102
RTVSPropertyOp11
 70
     1
102
RTVSPropertyOp12
 70
     1
102
RTVSPropertyOp13
 70
     1
102
RTVSPropertyOp14
 70
     1
102
RTVSPropertyOp15
 70
     1
102
RTVSPropertyOp16
 70
     1
102
RTVSPropertyOp17
 70
     1
102
RTVSPropertyOp18
 70
     1
102
RTVSPropertyOp19
 70
     1
102
RTVSPropertyOp20
 70
     1
102
RTVSPropertyOp21
 70
     1
102
RTVSPropertyOp22
 70
     1
102
RTVSPropertyOp23
 70
     1
102
RTVSPropertyOp24
 70
     1
102
RTVSPropertyOp25
 70
     1
102
RTVSPropertyOp26
 70
     1
102
RTVSPropertyOp27
 70
     1
  0
XRECORD
  5
2316
102
{ACAD_REACTORS
330
2315
102
}
330
2315
100
AcDbXrecord
280
     1
102
RTVSPropertyOp0
 70
     1
102
RTVSPropertyOp1
 70
     1
102
RTVSPropertyOp2
 70
     1
102
RTVSPropertyOp3
 70
     1
102
RTVSPropertyOp4
 70
     1
102
RTVSPropertyOp5
 70
     1
102
RTVSPropertyOp6
 70
     1
102
RTVSPropertyOp7
 70
     1
102
RTVSPropertyOp8
 70
     1
102
RTVSPropertyOp9
 70
     1
102
RTVSPropertyOp10
 70
     1
102
RTVSPropertyOp11
 70
     1
102
RTVSPropertyOp12
 70
     1
102
RTVSPropertyOp13
 70
     1
102
RTVSPropertyOp14
 70
     1
102
RTVSPropertyOp15
 70
     1
102
RTVSPropertyOp16
 70
     1
102
RTVSPropertyOp17
 70
     1
102
RTVSPropertyOp18
 70
     1
102
RTVSPropertyOp19
 70
     1
102
RTVSPropertyOp20
 70
     1
102
RTVSPropertyOp21
 70
     1
102
RTVSPropertyOp22
 70
     1
102
RTVSPropertyOp23
 70
     1
102
RTVSPropertyOp24
 70
     1
102
RTVSPropertyOp25
 70
     1
102
RTVSPropertyOp26
 70
     1
102
RTVSPropertyOp27
 70
     1
  0
XRECORD
  5
2318
102
{ACAD_REACTORS
330
2317
102
}
330
2317
100
AcDbXrecord
280
     1
102
RTVSPropertyOp0
 70
     1
102
RTVSPropertyOp1
 70
     1
102
RTVSPropertyOp2
 70
     1
102
RTVSPropertyOp3
 70
     1
102
RTVSPropertyOp4
 70
     1
102
RTVSPropertyOp5
 70
     1
102
RTVSPropertyOp6
 70
     1
102
RTVSPropertyOp7
 70
     1
102
RTVSPropertyOp8
 70
     1
102
RTVSPropertyOp9
 70
     1
102
RTVSPropertyOp10
 70
     1
102
RTVSPropertyOp11
 70
     1
102
RTVSPropertyOp12
 70
     1
102
RTVSPropertyOp13
 70
     1
102
RTVSPropertyOp14
 70
     1
102
RTVSPropertyOp15
 70
     1
102
RTVSPropertyOp16
 70
     1
102
RTVSPropertyOp17
 70
     1
102
RTVSPropertyOp18
 70
     1
102
RTVSPropertyOp19
 70
     1
102
RTVSPropertyOp20
 70
     1
102
RTVSPropertyOp21
 70
     1
102
RTVSPropertyOp22
 70
     1
102
RTVSPropertyOp23
 70
     1
102
RTVSPropertyOp24
 70
     1
102
RTVSPropertyOp25
 70
     1
102
RTVSPropertyOp26
 70
     1
102
RTVSPropertyOp27
 70
     1
  0
XRECORD
  5
231A
102
{ACAD_REACTORS
330
2319
102
}
330
2319
100
AcDbXrecord
280
     1
102
RTVSPropertyOp0
 70
     1
102
RTVSPropertyOp1
 70
     1
102
RTVSPropertyOp2
 70
     1
102
RTVSPropertyOp3
 70
     1
102
RTVSPropertyOp4
 70
     1
102
RTVSPropertyOp5
 70
     1
102
RTVSPropertyOp6
 70
     1
102
RTVSPropertyOp7
 70
     1
102
RTVSPropertyOp8
 70
     1
102
RTVSPropertyOp9
 70
     1
102
RTVSPropertyOp10
 70
     1
102
RTVSPropertyOp11
 70
     1
102
RTVSPropertyOp12
 70
     1
102
RTVSPropertyOp13
 70
     1
102
RTVSPropertyOp14
 70
     1
102
RTVSPropertyOp15
 70
     1
102
RTVSPropertyOp16
 70
     1
102
RTVSPropertyOp17
 70
     1
102
RTVSPropertyOp18
 70
     1
102
RTVSPropertyOp19
 70
     1
102
RTVSPropertyOp20
 70
     1
102
RTVSPropertyOp21
 70
     1
102
RTVSPropertyOp22
 70
     1
102
RTVSPropertyOp23
 70
     1
102
RTVSPropertyOp24
 70
     1
102
RTVSPropertyOp25
 70
     1
102
RTVSPropertyOp26
 70
     1
102
RTVSPropertyOp27
 70
     1
  0
XRECORD
  5
231C
102
{ACAD_REACTORS
330
231B
102
}
330
231B
100
AcDbXrecord
280
     1
102
RTVSPropertyOp0
 70
     1
102
RTVSPropertyOp1
 70
     1
102
RTVSPropertyOp2
 70
     1
102
RTVSPropertyOp3
 70
     1
102
RTVSPropertyOp4
 70
     1
102
RTVSPropertyOp5
 70
     1
102
RTVSPropertyOp6
 70
     1
102
RTVSPropertyOp7
 70
     1
102
RTVSPropertyOp8
 70
     1
102
RTVSPropertyOp9
 70
     1
102
RTVSPropertyOp10
 70
     1
102
RTVSPropertyOp11
 70
     1
102
RTVSPropertyOp12
 70
     1
102
RTVSPropertyOp13
 70
     1
102
RTVSPropertyOp14
 70
     1
102
RTVSPropertyOp15
 70
     1
102
RTVSPropertyOp16
 70
     1
102
RTVSPropertyOp17
 70
     1
102
RTVSPropertyOp18
 70
     1
102
RTVSPropertyOp19
 70
     1
102
RTVSPropertyOp20
 70
     1
102
RTVSPropertyOp21
 70
     1
102
RTVSPropertyOp22
 70
     1
102
RTVSPropertyOp23
 70
     1
102
RTVSPropertyOp24
 70
     1
102
RTVSPropertyOp25
 70
     1
102
RTVSPropertyOp26
 70
     1
102
RTVSPropertyOp27
 70
     1
  0
XRECORD
  5
2338
102
{ACAD_REACTORS
330
2337
102
}
330
2337
100
AcDbXrecord
280
     1
102
RTVSPropertyOp0
 70
     0
102
RTVSPropertyOp1
 70
     0
102
RTVSPropertyOp2
 70
     0
102
RTVSPropertyOp3
 70
     0
102
RTVSPropertyOp4
 70
     0
102
RTVSPropertyOp5
 70
     0
102
RTVSPropertyOp6
 70
     0
102
RTVSPropertyOp7
 70
     0
102
RTVSPropertyOp8
 70
     0
102
RTVSPropertyOp9
 70
     0
102
RTVSPropertyOp10
 70
     0
102
RTVSPropertyOp11
 70
     0
102
RTVSPropertyOp12
 70
     0
102
RTVSPropertyOp13
 70
     0
102
RTVSPropertyOp14
 70
     2
102
RTVSPropertyOp15
 70
     0
102
RTVSPropertyOp16
 70
     0
102
RTVSPropertyOp17
 70
     0
102
RTVSPropertyOp18
 70
     0
102
RTVSPropertyOp19
 70
     0
102
RTVSPropertyOp20
 70
     0
102
RTVSPropertyOp21
 70
     0
102
RTVSPropertyOp22
 70
     0
102
RTVSPropertyOp23
 70
     0
102
RTVSPropertyOp24
 70
     0
102
RTVSPropertyOp25
 70
     0
102
RTVSPropertyOp26
 70
     0
102
RTVSPropertyOp27
 70
     0
  0
XRECORD
  5
2330
102
{ACAD_REACTORS
330
232F
102
}
330
232F
100
AcDbXrecord
280
     1
102
RTVSPropertyOp0
 70
     1
102
RTVSPropertyOp1
 70
     1
102
RTVSPropertyOp2
 70
     1
102
RTVSPropertyOp3
 70
     1
102
RTVSPropertyOp4
 70
     1
102
RTVSPropertyOp5
 70
     1
102
RTVSPropertyOp6
 70
     1
102
RTVSPropertyOp7
 70
     1
102
RTVSPropertyOp8
 70
     1
102
RTVSPropertyOp9
 70
     1
102
RTVSPropertyOp10
 70
     1
102
RTVSPropertyOp11
 70
     1
102
RTVSPropertyOp12
 70
     1
102
RTVSPropertyOp13
 70
     1
102
RTVSPropertyOp14
 70
     1
102
RTVSPropertyOp15
 70
     1
102
RTVSPropertyOp16
 70
     1
102
RTVSPropertyOp17
 70
     1
102
RTVSPropertyOp18
 70
     1
102
RTVSPropertyOp19
 70
     1
102
RTVSPropertyOp20
 70
     1
102
RTVSPropertyOp21
 70
     1
102
RTVSPropertyOp22
 70
     1
102
RTVSPropertyOp23
 70
     1
102
RTVSPropertyOp24
 70
     1
102
RTVSPropertyOp25
 70
     1
102
RTVSPropertyOp26
 70
     1
102
RTVSPropertyOp27
 70
     1
  0
XRECORD
  5
233A
102
{ACAD_REACTORS
330
2339
102
}
330
2339
100
AcDbXrecord
280
     1
102
RTVSPropertyOp0
 70
     0
102
RTVSPropertyOp1
 70
     0
102
RTVSPropertyOp2
 70
     0
102
RTVSPropertyOp3
 70
     0
102
RTVSPropertyOp4
 70
     0
102
RTVSPropertyOp5
 70
     0
102
RTVSPropertyOp6
 70
     0
102
RTVSPropertyOp7
 70
     0
102
RTVSPropertyOp8
 70
     0
102
RTVSPropertyOp9
 70
     0
102
RTVSPropertyOp10
 70
     0
102
RTVSPropertyOp11
 70
     0
102
RTVSPropertyOp12
 70
     0
102
RTVSPropertyOp13
 70
     0
102
RTVSPropertyOp14
 70
     2
102
RTVSPropertyOp15
 70
     0
102
RTVSPropertyOp16
 70
     0
102
RTVSPropertyOp17
 70
     0
102
RTVSPropertyOp18
 70
     0
102
RTVSPropertyOp19
 70
     0
102
RTVSPropertyOp20
 70
     0
102
RTVSPropertyOp21
 70
     0
102
RTVSPropertyOp22
 70
     0
102
RTVSPropertyOp23
 70
     0
102
RTVSPropertyOp24
 70
     0
102
RTVSPropertyOp25
 70
     0
102
RTVSPropertyOp26
 70
     0
102
RTVSPropertyOp27
 70
     0
  0
XRECORD
  5
2328
102
{ACAD_REACTORS
330
2327
102
}
330
2327
100
AcDbXrecord
280
     1
102
RTVSPropertyOp0
 70
     1
102
RTVSPropertyOp1
 70
     1
102
RTVSPropertyOp2
 70
     1
102
RTVSPropertyOp3
 70
     1
102
RTVSPropertyOp4
 70
     1
102
RTVSPropertyOp5
 70
     1
102
RTVSPropertyOp6
 70
     1
102
RTVSPropertyOp7
 70
     1
102
RTVSPropertyOp8
 70
     1
102
RTVSPropertyOp9
 70
     1
102
RTVSPropertyOp10
 70
     1
102
RTVSPropertyOp11
 70
     1
102
RTVSPropertyOp12
 70
     1
102
RTVSPropertyOp13
 70
     1
102
RTVSPropertyOp14
 70
     1
102
RTVSPropertyOp15
 70
     1
102
RTVSPropertyOp16
 70
     1
102
RTVSPropertyOp17
 70
     1
102
RTVSPropertyOp18
 70
     1
102
RTVSPropertyOp19
 70
     1
102
RTVSPropertyOp20
 70
     1
102
RTVSPropertyOp21
 70
     1
102
RTVSPropertyOp22
 70
     1
102
RTVSPropertyOp23
 70
     1
102
RTVSPropertyOp24
 70
     1
102
RTVSPropertyOp25
 70
     1
102
RTVSPropertyOp26
 70
     1
102
RTVSPropertyOp27
 70
     1
  0
XRECORD
  5
232E
102
{ACAD_REACTORS
330
232D
102
}
330
232D
100
AcDbXrecord
280
     1
102
RTVSPropertyOp0
 70
     1
102
RTVSPropertyOp1
 70
     1
102
RTVSPropertyOp2
 70
     1
102
RTVSPropertyOp3
 70
     1
102
RTVSPropertyOp4
 70
     1
102
RTVSPropertyOp5
 70
     1
102
RTVSPropertyOp6
 70
     1
102
RTVSPropertyOp7
 70
     1
102
RTVSPropertyOp8
 70
     1
102
RTVSPropertyOp9
 70
     1
102
RTVSPropertyOp10
 70
     1
102
RTVSPropertyOp11
 70
     1
102
RTVSPropertyOp12
 70
     1
102
RTVSPropertyOp13
 70
     1
102
RTVSPropertyOp14
 70
     1
102
RTVSPropertyOp15
 70
     1
102
RTVSPropertyOp16
 70
     1
102
RTVSPropertyOp17
 70
     1
102
RTVSPropertyOp18
 70
     1
102
RTVSPropertyOp19
 70
     1
102
RTVSPropertyOp20
 70
     1
102
RTVSPropertyOp21
 70
     1
102
RTVSPropertyOp22
 70
     1
102
RTVSPropertyOp23
 70
     1
102
RTVSPropertyOp24
 70
     1
102
RTVSPropertyOp25
 70
     1
102
RTVSPropertyOp26
 70
     1
102
RTVSPropertyOp27
 70
     1
  0
ENDSEC
  0
EOF
