  0
SECTION
  2
HEADER
  9
$ACADVER
  1
AC1015
  9
$ACADMAINTVER
 70
    20
  9
$DWGCODEPAGE
  3
ANSI_1252
  9
$INSBASE
 10
0.0
 20
0.0
 30
0.0
  9
$EXTMIN
 10
-100.0684641031989
 20
-0.015742726845474
 30
-0.0015258207003583
  9
$EXTMAX
 10
1888.475106933927
 20
515.9127776248271
 30
0.0000000349246037
  9
$LIMMIN
 10
0.0
 20
0.0
  9
$LIMMAX
 10
420.0
 20
297.0
  9
$ORTHOMODE
 70
     1
  9
$REGENMODE
 70
     1
  9
$FILLMODE
 70
     1
  9
$QTEXTMODE
 70
     0
  9
$MIRRTEXT
 70
     1
  9
$LTSCALE
 40
1.0
  9
$ATTMODE
 70
     1
  9
$TEXTSIZE
 40
2.5
  9
$TRACEWID
 40
1.0
  9
$TEXTSTYLE
  7
STANDARD
  9
$CLAYER
  8
0
  9
$CELTYPE
  6
ByLayer
  9
$CECOLOR
 62
   256
  9
$CELTSCALE
 40
1.0
  9
$DISPSILH
 70
     0
  9
$DIMSCALE
 40
1.0
  9
$DIMASZ
 40
3.5
  9
$DIMEXO
 40
1.0
  9
$DIMDLI
 40
10.0
  9
$DIMRND
 40
0.0
  9
$DIMDLE
 40
0.0
  9
$DIMEXE
 40
1.0
  9
$DIMTP
 40
0.1
  9
$DIMTM
 40
0.1
  9
$DIMTXT
 40
3.5
  9
$DIMCEN
 40
0.0
  9
$DIMTSZ
 40
0.0
  9
$DIMTOL
 70
     0
  9
$DIMLIM
 70
     0
  9
$DIMTIH
 70
     0
  9
$DIMTOH
 70
     0
  9
$DIMSE1
 70
     0
  9
$DIMSE2
 70
     0
  9
$DIMTAD
 70
     1
  9
$DIMZIN
 70
     8
  9
$DIMBLK
  1

  9
$DIMASO
 70
     1
  9
$DIMSHO
 70
     1
  9
$DIMPOST
  1

  9
$DIMAPOST
  1
"
  9
$DIMALT
 70
     0
  9
$DIMALTD
 70
     2
  9
$DIMALTF
 40
0.0393701
  9
$DIMLFAC
 40
1.0
  9
$DIMTOFL
 70
     1
  9
$DIMTVP
 40
0.0
  9
$DIMTIX
 70
     0
  9
$DIMSOXD
 70
     0
  9
$DIMSAH
 70
     0
  9
$DIMBLK1
  1

  9
$DIMBLK2
  1

  9
$DIMSTYLE
  2
AM_ISO
  9
$DIMCLRD
 70
   256
  9
$DIMCLRE
 70
   256
  9
$DIMCLRT
 70
   140
  9
$DIMTFAC
 40
0.71
  9
$DIMGAP
 40
1.5
  9
$DIMJUST
 70
     0
  9
$DIMSD1
 70
     0
  9
$DIMSD2
 70
     0
  9
$DIMTOLJ
 70
     0
  9
$DIMTZIN
 70
     8
  9
$DIMALTZ
 70
     0
  9
$DIMALTTZ
 70
     0
  9
$DIMUPT
 70
     0
  9
$DIMDEC
 70
     2
  9
$DIMTDEC
 70
     3
  9
$DIMALTU
 70
     2
  9
$DIMALTTD
 70
     4
  9
$DIMTXSTY
  7
STANDARD
  9
$DIMAUNIT
 70
     0
  9
$DIMADEC
 70
     0
  9
$DIMALTRND
 40
0.0
  9
$DIMAZIN
 70
     2
  9
$DIMDSEP
 70
    46
  9
$DIMATFIT
 70
     3
  9
$DIMFRAC
 70
     0
  9
$DIMLDRBLK
  1

  9
$DIMLUNIT
 70
     2
  9
$DIMLWD
 70
    -1
  9
$DIMLWE
 70
    -1
  9
$DIMTMOVE
 70
     0
  9
$LUNITS
 70
     2
  9
$LUPREC
 70
     2
  9
$SKETCHINC
 40
1.0
  9
$FILLETRAD
 40
0.0
  9
$AUNITS
 70
     0
  9
$AUPREC
 70
     0
  9
$MENU
  1
.
  9
$ELEVATION
 40
0.0
  9
$PELEVATION
 40
0.0
  9
$THICKNESS
 40
0.0
  9
$LIMCHECK
 70
     0
  9
$CHAMFERA
 40
2.5
  9
$CHAMFERB
 40
2.5
  9
$CHAMFERC
 40
20.0
  9
$CHAMFERD
 40
0.0
  9
$SKPOLY
 70
     0
  9
$TDCREATE
 40
2455098.654416609
  9
$TDUCREATE
 40
2455098.571083276
  9
$TDUPDATE
 40
2455098.656202106
  9
$TDUUPDATE
 40
2455098.572868774
  9
$TDINDWG
 40
0.0017865856
  9
$TDUSRTIMER
 40
0.0017864005
  9
$USRTIMER
 70
     1
  9
$ANGBASE
 50
0.0
  9
$ANGDIR
 70
     0
  9
$PDMODE
 70
     0
  9
$PDSIZE
 40
0.0
  9
$PLINEWID
 40
0.0
  9
$SPLFRAME
 70
     0
  9
$SPLINETYPE
 70
     6
  9
$SPLINESEGS
 70
     8
  9
$HANDSEED
  5
85B
  9
$SURFTAB1
 70
     6
  9
$SURFTAB2
 70
     6
  9
$SURFTYPE
 70
     6
  9
$SURFU
 70
     6
  9
$SURFV
 70
     6
  9
$UCSBASE
  2

  9
$UCSNAME
  2

  9
$UCSORG
 10
0.0
 20
0.0
 30
0.0
  9
$UCSXDIR
 10
1.0
 20
0.0
 30
0.0
  9
$UCSYDIR
 10
0.0
 20
1.0
 30
0.0
  9
$UCSORTHOREF
  2

  9
$UCSORTHOVIEW
 70
     0
  9
$UCSORGTOP
 10
0.0
 20
0.0
 30
0.0
  9
$UCSORGBOTTOM
 10
0.0
 20
0.0
 30
0.0
  9
$UCSORGLEFT
 10
0.0
 20
0.0
 30
0.0
  9
$UCSORGRIGHT
 10
0.0
 20
0.0
 30
0.0
  9
$UCSORGFRONT
 10
0.0
 20
0.0
 30
0.0
  9
$UCSORGBACK
 10
0.0
 20
0.0
 30
0.0
  9
$PUCSBASE
  2

  9
$PUCSNAME
  2

  9
$PUCSORG
 10
0.0
 20
0.0
 30
0.0
  9
$PUCSXDIR
 10
1.0
 20
0.0
 30
0.0
  9
$PUCSYDIR
 10
0.0
 20
1.0
 30
0.0
  9
$PUCSORTHOREF
  2

  9
$PUCSORTHOVIEW
 70
     0
  9
$PUCSORGTOP
 10
0.0
 20
0.0
 30
0.0
  9
$PUCSORGBOTTOM
 10
0.0
 20
0.0
 30
0.0
  9
$PUCSORGLEFT
 10
0.0
 20
0.0
 30
0.0
  9
$PUCSORGRIGHT
 10
0.0
 20
0.0
 30
0.0
  9
$PUCSORGFRONT
 10
0.0
 20
0.0
 30
0.0
  9
$PUCSORGBACK
 10
0.0
 20
0.0
 30
0.0
  9
$USERI1
 70
     0
  9
$USERI2
 70
     0
  9
$USERI3
 70
     0
  9
$USERI4
 70
     0
  9
$USERI5
 70
     0
  9
$USERR1
 40
0.0
  9
$USERR2
 40
0.0
  9
$USERR3
 40
0.0
  9
$USERR4
 40
0.0
  9
$USERR5
 40
0.0
  9
$WORLDVIEW
 70
     1
  9
$SHADEDGE
 70
     3
  9
$SHADEDIF
 70
    70
  9
$TILEMODE
 70
     1
  9
$MAXACTVP
 70
    64
  9
$PINSBASE
 10
0.0
 20
0.0
 30
0.0
  9
$PLIMCHECK
 70
     0
  9
$PEXTMIN
 10
1.000000000000000E+20
 20
1.000000000000000E+20
 30
1.000000000000000E+20
  9
$PEXTMAX
 10
-1.000000000000000E+20
 20
-1.000000000000000E+20
 30
-1.000000000000000E+20
  9
$PLIMMIN
 10
0.0
 20
0.0
  9
$PLIMMAX
 10
420.0
 20
297.0
  9
$UNITMODE
 70
     0
  9
$VISRETAIN
 70
     1
  9
$PLINEGEN
 70
     0
  9
$PSLTSCALE
 70
     1
  9
$TREEDEPTH
 70
  3020
  9
$CMLSTYLE
  2
Standard
  9
$CMLJUST
 70
     0
  9
$CMLSCALE
 40
20.0
  9
$PROXYGRAPHICS
 70
     1
  9
$MEASUREMENT
 70
     1
  9
$CELWEIGHT
370
    -1
  9
$ENDCAPS
280
     0
  9
$JOINSTYLE
280
     0
  9
$LWDISPLAY
290
     0
  9
$INSUNITS
 70
     4
  9
$HYPERLINKBASE
  1

  9
$STYLESHEET
  1

  9
$XEDIT
290
     1
  9
$CEPSNTYPE
380
     0
  9
$PSTYLEMODE
290
     1
  9
$FINGERPRINTGUID
  2
{CA84B95C-14D7-44F6-91FE-9A97081D7D54}
  9
$VERSIONGUID
  2
{BCA31A0D-9486-4374-91A4-4DCCA453D7B4}
  9
$EXTNAMES
290
     1
  9
$PSVPSCALE
 40
0.0
  9
$OLESTARTUP
290
     0
  0
ENDSEC
  0
SECTION
  2
CLASSES
  0
CLASS
  1
ACDBDICTIONARYWDFLT
  2
AcDbDictionaryWithDefault
  3
ObjectDBX Classes
 90
        0
280
     0
281
     0
  0
CLASS
  1
ACDBPLACEHOLDER
  2
AcDbPlaceHolder
  3
ObjectDBX Classes
 90
        0
280
     0
281
     0
  0
CLASS
  1
LAYOUT
  2
AcDbLayout
  3
ObjectDBX Classes
 90
        0
280
     0
281
     0
  0
CLASS
  1
ACME_DOCUMENT
  2
AcMeDbDoc
  3
AcMeServices
 90
     1024
280
     0
281
     0
  0
CLASS
  1
AMGSETTINGSOBJ
  2
AmgSettingsObj
  3
"AcadM|Product Description: AutoCAD Mechanical|Company: Autodesk, Inc."
 90
     1024
280
     0
281
     0
  0
CLASS
  1
ACMESCOPE
  2
AcMeScope
  3
AcMeServices
 90
     1024
280
     0
281
     0
  0
CLASS
  1
ACMECOMMANDHISTORY
  2
AcMeCommandHistory
  3
AcMeServices
 90
     1024
280
     0
281
     0
  0
CLASS
  1
ACIMSYSVARMAN
  2
AcImSysVarManager
  3
AcMeServices
 90
     1024
280
     0
281
     0
  0
CLASS
  1
ACIMREALSYSVAR
  2
AcImRealSysVar
  3
AcMeServices
 90
     1024
280
     0
281
     0
  0
CLASS
  1
ACIMINTSYSVAR
  2
AcImIntSysVar
  3
AcMeServices
 90
     1024
280
     0
281
     0
  0
CLASS
  1
ACMEDRAWINGMAN
  2
AcMeDrawingMan
  3
AcMeServices
 90
     1024
280
     0
281
     0
  0
CLASS
  1
ACMEVIEW
  2
AcMeView
  3
AcMeServices
 90
     1024
280
     0
281
     0
  0
CLASS
  1
ACDBENTITYCACHE
  2
AcMeEntityCache
  3
AcMeServices
 90
     1024
280
     0
281
     0
  0
CLASS
  1
GSMANAGER
  2
AcMeGSManager
  3
AcMeServices
 90
     1024
280
     0
281
     0
  0
CLASS
  1
AMDTINTERNALREACTOR
  2
AmdtInternalReactor
  3
AcMeServices
 90
     1024
280
     0
281
     0
  0
CLASS
  1
ACMESTATEMGR
  2
AcMeStateMgr
  3
AcMeServices
 90
     1024
280
     0
281
     0
  0
CLASS
  1
ACGREFMASTER
  2
AcGrefMaster
  3
AcAttribServices
 90
     1024
280
     0
281
     0
  0
CLASS
  1
ACME_DATABASE
  2
AcMeDbDatabase
  3
AcMeServices
 90
     1024
280
     0
281
     0
  0
CLASS
  1
ACRFINSADJUSTERMGR
  2
AcRfInsAdjusterMgr
  3
AcMeServices
 90
     1024
280
     0
281
     0
  0
CLASS
  1
ACGREFACADMASTER
  2
AcGrefacadMaster
  3
AcGrefServices
 90
     1024
280
     0
281
     0
  0
CLASS
  1
AMIMASTER
  2
AmiMaster
  3
AmiServices
 90
     1024
280
     0
281
     0
  0
CLASS
  1
ACMDATADICTIONARY
  2
AcmDataDictionary
  3
"AcmSymBB|Product Description: AutoCAD Mechanical|Company: Autodesk, Inc."
 90
     1024
280
     0
281
     0
  0
CLASS
  1
ACMDATAENTRYBLOCK
  2
AcmDataEntryBlock
  3
AcmSymBB|Product Description: AutoCAD Mechanical|Company: Autodesk, Inc.
 90
     1024
280
     0
281
     0
  0
CLASS
  1
ACIMSTRSYSVAR
  2
AcImStrSysVar
  3
AcMeServices
 90
     1024
280
     0
281
     0
  0
CLASS
  1
ACMSTANDARDISO
  2
AcmStandardISO
  3
"Amdt_StdImp|Product Description: AutoCAD Mechanical|Company: Autodesk, Inc."
 90
     1024
280
     0
281
     0
  0
CLASS
  1
AMGOBJPROPCFG
  2
AmgObjPropCfg
  3
"AmgLay|Product Description: AutoCAD Mechanical|Company: Autodesk, Inc."
 90
     1025
280
     0
281
     0
  0
CLASS
  1
AMDTEDGESTANDARDISO
  2
AmdtEdgeStdISO
  3
"Amdt_StdImp|Product Description: AutoCAD Mechanical|Company: Autodesk, Inc."
 90
    33792
280
     0
281
     0
  0
CLASS
  1
ACMSURFSTANDARDISO
  2
AcmSurfTextStdISO
  3
"Amdt_StdImp|Product Description: AutoCAD Mechanical|Company: Autodesk, Inc."
 90
    33792
280
     0
281
     0
  0
CLASS
  1
ACMFCFSTANDARDISO
  2
AcmFCFStdISO
  3
"Amdt_StdImp|Product Description: AutoCAD Mechanical|Company: Autodesk, Inc."
 90
     1024
280
     0
281
     0
  0
CLASS
  1
ACMWELDSTANDARDISO
  2
AcmWeldingStdISO
  3
"Amdt_StdImp|Product Description: AutoCAD Mechanical|Company: Autodesk, Inc."
 90
     1024
280
     0
281
     0
  0
CLASS
  1
ACMIDSTANDARDISO
  2
AcmIdStdISO
  3
"Amdt_StdImp|Product Description: AutoCAD Mechanical|Company: Autodesk, Inc."
 90
     1024
280
     0
281
     0
  0
CLASS
  1
ACMDATUMSTANDARDISO
  2
AcmDatumStdISO
  3
"Amdt_StdImp|Product Description: AutoCAD Mechanical|Company: Autodesk, Inc."
 90
     1024
280
     0
281
     0
  0
CLASS
  1
ACMBOMSTANDARDISO
  2
AcmBOMStdISO
  3
"Amdt_StdImp|Product Description: AutoCAD Mechanical|Company: Autodesk, Inc."
 90
     1024
280
     0
281
     0
  0
CLASS
  1
ACMDETAILSTANDARDISO
  2
AmdtDetailSymStdISO
  3
"Amdt_StdImp|Product Description: AutoCAD Mechanical|Company: Autodesk, Inc."
 90
     1024
280
     0
281
     0
  0
CLASS
  1
ACMSECTIONSTANDARDISO
  2
AmdtSectionSymStdISO
  3
"Amdt_StdImp|Product Description: AutoCAD Mechanical|Company: Autodesk, Inc."
 90
    33792
280
     0
281
     0
  0
CLASS
  1
ACMCENTERLINESTANDARDISO
  2
AmdtCenterLineStdISO
  3
"Amdt_StdImp|Product Description: AutoCAD Mechanical|Company: Autodesk, Inc."
 90
     1024
280
     0
281
     0
  0
CLASS
  1
ACMNOTESTANDARDISO
  2
AmdtNoteStdISO
  3
"Amdt_StdImp|Product Description: AutoCAD Mechanical|Company: Autodesk, Inc."
 90
     1024
280
     0
281
     0
  0
CLASS
  1
ACAMGLAYSTD
  2
AcAmgLayStd
  3
"AmgLay|Product Description: AutoCAD Mechanical|Company: Autodesk, Inc."
 90
     1024
280
     0
281
     0
  0
CLASS
  1
ACAMGDIMSTD
  2
AcAmgDimStd
  3
"AmgDim|Product Description: AutoCAD Mechanical|Company: Autodesk, Inc."
 90
     1024
280
     0
281
     0
  0
CLASS
  1
ACAMGHOLECHARTSTDISO
  2
AcAmgHoleChartStdISO
  3
AmgDim|Product Description: AutoCAD Mechanical|Company: Autodesk, Inc.
 90
     1024
280
     0
281
     0
  0
CLASS
  1
ACAMGTITLESTD
  2
AcAmgTitleStd
  3
"AmgTitle|Product Description: AutoCAD Mechanical|Company: Autodesk, Inc."
 90
     4095
280
     0
281
     0
  0
CLASS
  1
LAYER_INDEX
  2
AcDbLayerIndex
  3
ObjectDBX Classes
 90
    32768
280
     0
281
     0
  0
CLASS
  1
IDBUFFER
  2
AcDbIdBuffer
  3
ObjectDBX Classes
 90
    32768
280
     0
281
     0
  0
CLASS
  1
DICTIONARYVAR
  2
AcDbDictionaryVar
  3
ObjectDBX Classes
 90
        0
280
     0
281
     0
  0
CLASS
  1
AM_DRAWING_MGR
  2
AcDmDwgMgr
  3
AcMechDwgViewMgmt
 90
     1024
280
     0
281
     0
  0
CLASS
  1
AM_DWG_DOCUMENT
  2
AcDmDwgDocument
  3
AcMechDwgViewMgmt
 90
     1024
280
     0
281
     0
  0
CLASS
  1
AM_DWG_SHEET
  2
AcDmSheet
  3
AcMechDwgViewMgmt
 90
     1024
280
     0
281
     0
  0
CLASS
  1
AM_VIEWDIMPARMAP
  2
AcDmViewDimParMap
  3
AcMechDwgViewMgmt
 90
     1024
280
     0
281
     0
  0
CLASS
  1
AM_DWGMGR_NAME
  2
AcDmDwgMgrName
  3
AcMechDwgViewMgmt
 90
     1024
280
     0
281
     0
  0
CLASS
  1
AMDTMENUSTATEMGR
  2
AmdtMenuStateMgr
  3
McadcomServices
 90
     1024
280
     0
281
     0
  0
CLASS
  1
AMDTMCOMMENUSTATE
  2
AmdtMcomMenuState
  3
McadcomServices
 90
     1024
280
     0
281
     0
  0
CLASS
  1
MAPIAMMOUDLE
  2
MApiAmModule
  3
MApiAmServices
 90
     1024
280
     0
281
     0
  0
CLASS
  1
AMDTADMENUSTATE
  2
AmdtAdMenuState
  3
DesignerServices
 90
     1024
280
     0
281
     0
  0
CLASS
  1
ADAPPL
  2
AcAdAppl
  3
DesignerServices
 90
     1024
280
     0
281
     0
  0
CLASS
  1
DEPMGR
  2
AcAdDepMgr
  3
DesignerServices
 90
     1024
280
     0
281
     0
  0
CLASS
  1
PARAMMGR
  2
AcAdParamMgr
  3
DesignerServices
 90
     1024
280
     0
281
     0
  0
CLASS
  1
PARAMSCOPE
  2
AcAdParamScope
  3
DesignerServices
 90
     1024
280
     0
281
     0
  0
CLASS
  1
NAMEDAPPL
  2
AcAdNamedAppl
  3
DesignerServices
 90
     1024
280
     0
281
     0
  0
CLASS
  1
AMDTDMMENUSTATE
  2
AmdtDmMenuState
  3
AcMechDwgViewMgmt
 90
     1024
280
     0
281
     0
  0
CLASS
  1
AMDTAMMENUSTATE
  2
AmdtAmMenuState
  3
DesignerAssemblies
 90
     1024
280
     0
281
     0
  0
CLASS
  1
ACAMPROJECT
  2
AcAmProject
  3
DesignerAssemblies
 90
     1024
280
     0
281
     0
  0
CLASS
  1
ACAMGRCOMPDEF
  2
AcAmGrCompDef
  3
DesignerAssemblies
 90
     1024
280
     0
281
     0
  0
CLASS
  1
ACCMCONTEXT
  2
AcCmContext
  3
DesignerAssemblies
 90
     1024
280
     0
281
     0
  0
CLASS
  1
ACAMCOMPDEF
  2
AcAmCompDef
  3
DesignerAssemblies
 90
     1024
280
     0
281
     0
  0
CLASS
  1
ACAMCOMPDEFMGR
  2
AcAmCompDefMgr
  3
DesignerAssemblies
 90
     1024
280
     0
281
     0
  0
CLASS
  1
AMCONTEXTMGR
  2
AcAmContextMgr
  3
DesignerAssemblies
 90
     1024
280
     0
281
     0
  0
CLASS
  1
ACAMCONTEXTMODELER
  2
AcAmContextModeler
  3
DesignerAssemblies
 90
     1024
280
     0
281
     0
  0
CLASS
  1
ACMTHREADLINESTANDARDISO
  2
AmdtThreadLineStdISO
  3
"Amdt_StdImp|Product Description: AutoCAD Mechanical|Company: Autodesk, Inc."
 90
     1024
280
     0
281
     0
  0
CLASS
  1
CATALOGSTATE
  2
AcAmCatalogState
  3
DesignerAssemblies
 90
     1024
280
     0
281
     0
  0
CLASS
  1
ACAMGRCOMPDEFSET
  2
AcAmGrCompDefSet
  3
DesignerAssemblies
 90
     1024
280
     0
281
     0
  0
CLASS
  1
AMDTBROWSERDBTAB
  2
AmdtBrowserDbTab
  3
McadcomServices
 90
     1024
280
     0
281
     0
  0
CLASS
  1
CBROWSERAPPOBJECT
  2
CBrowserAppObject
  3
McadcomServices
 90
     1024
280
     0
281
     0
  0
CLASS
  1
DM_PLACEHOLDER
  2
AcDmSelsetPlaceholder
  3
AcMechDwgViewMgmt
 90
     1024
280
     0
281
     0
  0
CLASS
  1
TABLESTYLE
  2
AcDbTableStyle
  3
ObjectDBX Classes
 90
     4095
280
     0
281
     0
  0
CLASS
  1
VAACXREFPANELOBJECT
  2
VaAcXREFPanelObject
  3
VAAC_ADDIN
 90
    32768
280
     0
281
     0
  0
CLASS
  1
VAACIMAGEINVENTORY
  2
VaAcImageInventory
  3
VAAC_ADDIN
 90
    32768
280
     0
281
     0
  0
CLASS
  1
AMDTNOTETEMPLATEDB
  2
AmdtNoteTemplateDB
  3
AcmSymBB|Product Description: AutoCAD Mechanical|Company: Autodesk, Inc.
 90
     1024
280
     0
281
     0
  0
CLASS
  1
MATERIAL
  2
AcDbMaterial
  3
ObjectDBX Classes
 90
     1153
280
     0
281
     0
  0
CLASS
  1
VISUALSTYLE
  2
AcDbVisualStyle
  3
ObjectDBX Classes
 90
     4095
280
     0
281
     0
  0
CLASS
  1
ACRFATTGENMGR
  2
AcRfAttGeneralMgr
  3
AcAttribServices
 90
     1024
280
     0
281
     0
  0
CLASS
  1
ACRFOBJATTMGR
  2
AcRfObjAttGroupMgr
  3
AcAttribServices
 90
     1024
280
     0
281
     0
  0
CLASS
  1
ACRFMCADAPIATTHOLDER
  2
AcRfMCADAPIAttHolder
  3
AcAttribServices
 90
     1024
280
     0
281
     0
  0
CLASS
  1
AMDTSYSATTR
  2
AmdtSystemAttribute
  3
AcAttribServices
 90
     1024
280
     0
281
     0
  0
CLASS
  1
ACMTAPERSTANDARDISO
  2
AcmTaperStdISO
  3
"Amdt_StdImp|Product Description: AutoCAD Mechanical|Company: Autodesk, Inc."
 90
     1024
280
     0
281
     0
  0
CLASS
  1
CAMSSTRUCTBTNSTATE
  2
StructBtnState
  3
DesignerAssemblies
 90
     1024
280
     0
281
     0
  0
CLASS
  1
SCALE
  2
AcDbScale
  3
ObjectDBX Classes
 90
     1153
280
     0
281
     0
  0
CLASS
  1
MLEADERSTYLE
  2
AcDbMLeaderStyle
  3
ACDB_MLEADERSTYLE_CLASS
 90
     4095
280
     0
281
     0
  0
CLASS
  1
ACMANOOTATIONVIEWSTANDARDISO
  2
AmdtAnViewStdISO
  3
"Amdt_StdImp|Product Description: AutoCAD Mechanical|Company: Autodesk, Inc."
 90
     1024
280
     0
281
     0
  0
CLASS
  1
ACMSURFSTANDARDISO2002
  2
AcmSurfTextStdISO2002
  3
"Amdt_StdImp|Product Description: AutoCAD Mechanical|Company: Autodesk, Inc."
 90
     1024
280
     0
281
     0
  0
CLASS
  1
CELLSTYLEMAP
  2
AcDbCellStyleMap
  3
ObjectDBX Classes
 90
     1152
280
     0
281
     0
  0
CLASS
  1
ACMSECTIONSTANDARDISO2001
  2
AmdtSectionSymStdISO2001
  3
"Amdt_StdImp|Product Description: AutoCAD Mechanical|Company: Autodesk, Inc."
 90
     1024
280
     0
281
     0
  0
CLASS
  1
EXACXREFPANELOBJECT
  2
ExAcXREFPanelObject
  3
EXAC_ESW
 90
     1025
280
     0
281
     0
  0
CLASS
  1
NPOCOLLECTION
  2
AcDbImpNonPersistentObjectsCollection
  3
ObjectDBX Classes
 90
     1153
280
     0
281
     0
  0
CLASS
  1
AMDTEDGESTANDARDISO13715
  2
AmdtEdgeStdISO13715
  3
"Amdt_StdImp|Product Description: AutoCAD Mechanical|Company: Autodesk, Inc."
 90
     1024
280
     0
281
     0
  0
CLASS
  1
ACAMGFILTERDAT
  2
AcAmgFilterDat
  3
"AcadM|Product Description: AutoCAD Mechanical|Company: Autodesk, Inc."
 90
     1024
280
     0
281
     0
  0
CLASS
  1
ACMBOM
  2
AcmBom
  3
"AcmSymBB|Product Description: AutoCAD Mechanical|Company: Autodesk, Inc."
 90
    33792
280
     0
281
     0
  0
CLASS
  1
AMDTFORMULAUPDATEDISPATCHER
  2
AmdtFormulaUpdateDispatcher
  3
AcMeServices
 90
    33792
280
     0
281
     0
  0
CLASS
  1
AEC_REFEDIT_STATUS_TRACKER
  2
AecDbRefEditStatusTracker
  3
AecArchBase50|Product Desc: Autodesk Architectural Desktop 2007 |Company: Autodesk,Inc. |WEB Address: www.autodesk.com
 90
      129
280
     0
281
     0
  0
ENDSEC
  0
SECTION
  2
TABLES
  0
TABLE
  2
VPORT
  5
8
330
0
100
AcDbSymbolTable
 70
     1
  0
VPORT
  5
269
330
8
100
AcDbSymbolTableRecord
100
AcDbViewportTableRecord
  2
*Active
 70
     0
 10
0.0
 20
0.0
 11
1.0
 21
1.0
 12
894.2033214153639
 22
257.9485174489909
 13
0.0
 23
0.0
 14
2.5
 24
2.5
 15
10.0
 25
10.0
 16
0.0
 26
0.0
 36
1.0
 17
0.0
 27
0.0
 37
0.0
 40
1055.766327092799
 41
1.890606420927467
 42
50.0
 43
0.0
 44
0.0
 50
0.0
 51
0.0
 71
     0
 72
   100
 73
     1
 74
     3
 75
     0
 76
     0
 77
     0
 78
     0
281
     0
 65
     1
110
0.0
120
0.0
130
0.0
111
1.0
121
0.0
131
0.0
112
0.0
122
1.0
132
0.0
 79
     0
146
0.0
  0
ENDTAB
  0
TABLE
  2
LTYPE
  5
5
330
0
100
AcDbSymbolTable
 70
    17
  0
LTYPE
  5
14
330
5
100
AcDbSymbolTableRecord
100
AcDbLinetypeTableRecord
  2
ByBlock
 70
     0
  3

 72
    65
 73
     0
 40
0.0
  0
LTYPE
  5
15
330
5
100
AcDbSymbolTableRecord
100
AcDbLinetypeTableRecord
  2
ByLayer
 70
     0
  3

 72
    65
 73
     0
 40
0.0
  0
LTYPE
  5
16
330
5
100
AcDbSymbolTableRecord
100
AcDbLinetypeTableRecord
  2
Continuous
 70
     0
  3
Solid line
 72
    65
 73
     0
 40
0.0
  0
LTYPE
  5
64
330
5
100
AcDbSymbolTableRecord
100
AcDbLinetypeTableRecord
  2
AM_ISO02W050
 70
     0
  3
__ __ __ __ __ __ __ __ __ __ __ __ __ __ __
 72
    65
 73
     2
 40
7.5
 49
6.0
 74
     0
 49
-1.5
 74
     0
  0
LTYPE
  5
65
330
5
100
AcDbSymbolTableRecord
100
AcDbLinetypeTableRecord
  2
AM_ISO08W050
 70
     0
  3
____ . ____ . ____ . ____ . ____ . ____ . ____
 72
    65
 73
     4
 40
18.0
 49
12.0
 74
     0
 49
-1.5
 74
     0
 49
3.0
 74
     0
 49
-1.5
 74
     0
  0
LTYPE
  5
66
330
5
100
AcDbSymbolTableRecord
100
AcDbLinetypeTableRecord
  2
AM_ISO09W050
 70
     0
  3
_____ . . _____ . . _____ . . ____ .. ____
 72
    65
 73
     6
 40
22.5
 49
12.0
 74
     0
 49
-1.5
 74
     0
 49
3.0
 74
     0
 49
-1.5
 74
     0
 49
3.0
 74
     0
 49
-1.5
 74
     0
  0
LTYPE
  5
67
330
5
100
AcDbSymbolTableRecord
100
AcDbLinetypeTableRecord
  2
Amconstr
 70
     0
  3
_______________________
 72
    65
 73
     2
 40
9999.0
 49
9999.0
 74
     0
 49
0.0
 74
     0
  0
LTYPE
  5
68
330
5
100
AcDbSymbolTableRecord
100
AcDbLinetypeTableRecord
  2
AM_ISO08W050x2
 70
     0
  3
__ . __ . __ . __ . __ . __
 72
    65
 73
     4
 40
9.0
 49
6.0
 74
     0
 49
-0.75
 74
     0
 49
1.5
 74
     0
 49
-0.75
 74
     0
  0
LTYPE
  5
69
330
5
100
AcDbSymbolTableRecord
100
AcDbLinetypeTableRecord
  2
AM_ISO02W050x2
 70
     0
  3
 _ _ _ _ _ _ _ _ _ _ _ _
 72
    65
 73
     2
 40
3.75
 49
3.0
 74
     0
 49
-0.75
 74
     0
  0
LTYPE
  5
6C
330
5
100
AcDbSymbolTableRecord
100
AcDbLinetypeTableRecord
  2
Amzigzag
 70
     0
  3
/\/-/\/-/\/-/\/-/\/-/\/
 72
    65
 73
     2
 40
11.0001
 49
0.0001
 74
     4
 75
   136
340
22C
 46
0.04
 50
0.0
 44
0.0
 45
0.0
 49
-11.0
 74
     0
  0
LTYPE
  5
7A
330
5
100
AcDbSymbolTableRecord
100
AcDbLinetypeTableRecord
  2
ACISOWELD
 70
     0
  3
_ _ _ _ _
 72
    65
 73
     2
 40
2.0
 49
2.0
 74
     0
 49
-1.0
 74
     0
  0
LTYPE
  5
7B
330
5
100
AcDbSymbolTableRecord
100
AcDbLinetypeTableRecord
  2
ACISOTGB
 70
     0
  3
__ . . __ . .
 72
    65
 73
     6
 40
9.0
 49
4.0
 74
     0
 49
-1.0
 74
     0
 49
1.0
 74
     0
 49
-1.0
 74
     0
 49
1.0
 74
     0
 49
-1.0
 74
     0
  0
LTYPE
  5
7C
330
5
100
AcDbSymbolTableRecord
100
AcDbLinetypeTableRecord
  2
ACISOTGL
 70
     0
  3
_ _ _ _ _
 72
    65
 73
     2
 40
3.0
 49
2.0
 74
     0
 49
-1.0
 74
     0
  0
LTYPE
  5
7E
330
5
100
AcDbSymbolTableRecord
100
AcDbLinetypeTableRecord
  2
CENTER
 70
     0
  3
__ . __
 72
    65
 73
     4
 40
7.0
 49
4.0
 74
     0
 49
-1.0
 74
     0
 49
1.0
 74
     0
 49
-1.0
 74
     0
  0
LTYPE
  5
D8
330
5
100
AcDbSymbolTableRecord
100
AcDbLinetypeTableRecord
  2
HIDDEN
 70
     0
  3
Hidden __ __ __ __ __ __ __ __ __ __ __ __ __ _
 72
    65
 73
     2
 40
9.524999999999998
 49
6.349999999999999
 74
     0
 49
-3.174999999999999
 74
     0
  0
LTYPE
  5
D9
330
5
100
AcDbSymbolTableRecord
100
AcDbLinetypeTableRecord
  2
PHANTOM2
 70
     0
  3
Phantom (.5x) ___ _ _ ___ _ _ ___ _ _ ___ _ _
 72
    65
 73
     6
 40
31.75
 49
15.875
 74
     0
 49
-3.174999999999999
 74
     0
 49
3.174999999999999
 74
     0
 49
-3.174999999999999
 74
     0
 49
3.174999999999999
 74
     0
 49
-3.174999999999999
 74
     0
  0
LTYPE
  5
43C
330
5
100
AcDbSymbolTableRecord
100
AcDbLinetypeTableRecord
  2
GEN7A
 70
     0
  3
__ . __ . __
 72
    65
 73
     4
 40
6.875
 49
5.0
 74
     0
 49
-0.625
 74
     0
 49
0.625
 74
     0
 49
-0.625
 74
     0
  0
LTYPE
  5
43D
330
5
100
AcDbSymbolTableRecord
100
AcDbLinetypeTableRecord
  2
GEN3
 70
     0
  3
-- -- -- -- -- -- -- -- -- -- -- -- -- -- --
 72
    65
 73
     2
 40
6.25
 49
5.0
 74
     0
 49
-1.25
 74
     0
  0
ENDTAB
  0
TABLE
  2
LAYER
  5
2
102
{ACAD_XDICTIONARY
360
462
102
}
330
0
100
AcDbSymbolTable
 70
    13
  0
LAYER
  5
10
102
{ACAD_XDICTIONARY
360
834
102
}
330
2
100
AcDbSymbolTableRecord
100
AcDbLayerTableRecord
  2
0
 70
     0
 62
     7
  6
Continuous
370
    -3
390
F
  0
LAYER
  5
43E
102
{ACAD_XDICTIONARY
360
43F
102
}
330
2
100
AcDbSymbolTableRecord
100
AcDbLayerTableRecord
  2
AM_7
 70
     0
 62
     4
  6
AM_ISO08W050
370
    25
390
F
1001
AcAecLayerStandard
1000

1000

  0
LAYER
  5
440
102
{ACAD_XDICTIONARY
360
441
102
}
330
2
100
AcDbSymbolTableRecord
100
AcDbLayerTableRecord
  2
AM_CL
 70
     0
 62
     1
  6
Amconstr
370
    25
390
F
1001
AcAecLayerStandard
1000

1000

  0
LAYER
  5
442
330
2
100
AcDbSymbolTableRecord
100
AcDbLayerTableRecord
  2
Defpoints
 70
     0
 62
     7
  6
Continuous
290
     0
370
    -3
390
F
  0
LAYER
  5
443
102
{ACAD_XDICTIONARY
360
444
102
}
330
2
100
AcDbSymbolTableRecord
100
AcDbLayerTableRecord
  2
AM_5
 70
     0
 62
     3
  6
Continuous
370
    25
390
F
1001
AcAecLayerStandard
1000

1000

  0
LAYER
  5
445
102
{ACAD_XDICTIONARY
360
446
102
}
330
2
100
AcDbSymbolTableRecord
100
AcDbLayerTableRecord
  2
7A
 70
     0
 62
     4
  6
GEN7A
370
    -3
390
F
  0
LAYER
  5
447
102
{ACAD_XDICTIONARY
360
448
102
}
330
2
100
AcDbSymbolTableRecord
100
AcDbLayerTableRecord
  2
KLIN
 70
     0
 62
     1
  6
Continuous
370
    -3
390
F
  0
LAYER
  5
449
102
{ACAD_XDICTIONARY
360
44A
102
}
330
2
100
AcDbSymbolTableRecord
100
AcDbLayerTableRecord
  2
8
 70
     0
 62
     1
  6
Continuous
370
    -3
390
F
  0
LAYER
  5
44B
102
{ACAD_XDICTIONARY
360
44C
102
}
330
2
100
AcDbSymbolTableRecord
100
AcDbLayerTableRecord
  2
3
 70
     0
 62
     6
  6
GEN3
370
    -3
390
F
  0
LAYER
  5
44D
102
{ACAD_XDICTIONARY
360
44E
102
}
330
2
100
AcDbSymbolTableRecord
100
AcDbLayerTableRecord
  2
AM_0N
 70
     0
 62
     7
  6
Continuous
370
    50
390
F
1001
AcAecLayerStandard
1000

1000

  0
LAYER
  5
44F
102
{ACAD_XDICTIONARY
360
450
102
}
330
2
100
AcDbSymbolTableRecord
100
AcDbLayerTableRecord
  2
AM_7N
 70
     0
 62
   142
  6
AM_ISO08W050
370
    25
390
F
1001
AcAecLayerStandard
1000

1000

  0
LAYER
  5
451
102
{ACAD_XDICTIONARY
360
452
102
}
330
2
100
AcDbSymbolTableRecord
100
AcDbLayerTableRecord
  2
AM_4N
 70
     0
 62
    92
  6
Continuous
370
    25
390
F
1001
AcAecLayerStandard
1000

1000

  0
LAYER
  5
453
102
{ACAD_XDICTIONARY
360
454
102
}
330
2
100
AcDbSymbolTableRecord
100
AcDbLayerTableRecord
  2
AM_9N
 70
     0
 62
  -253
  6
Continuous
370
     0
390
F
1001
AcAecLayerStandard
1000

1000

  0
ENDTAB
  0
TABLE
  2
STYLE
  5
3
330
0
100
AcDbSymbolTable
 70
     8
  0
STYLE
  5
11
330
3
100
AcDbSymbolTableRecord
100
AcDbTextStyleTableRecord
  2
STANDARD
 70
     0
 40
0.0
 41
1.0
 50
0.0
 71
     0
 42
2.5
  3
ISOCP.SHX
  4

  0
STYLE
  5
6B
330
3
100
AcDbSymbolTableRecord
100
AcDbTextStyleTableRecord
  2

 70
     1
 40
0.0
 41
1.0
 50
0.0
 71
     0
 42
2.5
  3
ltypeshp.shx
  4

  0
STYLE
  5
6D
330
3
100
AcDbSymbolTableRecord
100
AcDbTextStyleTableRecord
  2
ACISOTS
 70
     0
 40
1.0
 41
1.0
 50
0.0
 71
     0
 42
2.5
  3
isocp.shx
  4

  0
STYLE
  5
79
330
3
100
AcDbSymbolTableRecord
100
AcDbTextStyleTableRecord
  2
ACISOGDT
 70
     0
 40
0.0
 41
1.0
 50
0.0
 71
     0
 42
2.5
  3
amgdt.shx
  4

  0
STYLE
  5
1ED
330
3
100
AcDbSymbolTableRecord
100
AcDbTextStyleTableRecord
  2
USER1
 70
     0
 40
0.0
 41
1.0
 50
0.0
 71
     0
 42
2.5
  3
TXT.SHX
  4

  0
STYLE
  5
1EE
330
3
100
AcDbSymbolTableRecord
100
AcDbTextStyleTableRecord
  2
USER2
 70
     0
 40
0.0
 41
1.0
 50
0.0
 71
     0
 42
2.5
  3
SIMPLEX.SHX
  4

  0
STYLE
  5
1EF
330
3
100
AcDbSymbolTableRecord
100
AcDbTextStyleTableRecord
  2
USER3
 70
     0
 40
0.0
 41
1.0
 50
0.0
 71
     0
 42
2.5
  3
ITALIC.SHX
  4

  0
STYLE
  5
22C
330
3
100
AcDbSymbolTableRecord
100
AcDbTextStyleTableRecord
  2

 70
     1
 40
0.0
 41
1.0
 50
0.0
 71
     0
 42
2.5
  3
genltshp.shx
  4

  0
ENDTAB
  0
TABLE
  2
VIEW
  5
6
330
0
100
AcDbSymbolTable
 70
     0
  0
ENDTAB
  0
TABLE
  2
UCS
  5
7
330
0
100
AcDbSymbolTable
 70
     0
  0
ENDTAB
  0
TABLE
  2
APPID
  5
9
330
0
100
AcDbSymbolTable
 70
    27
  0
APPID
  5
12
330
9
100
AcDbSymbolTableRecord
100
AcDbRegAppTableRecord
  2
ACAD
 70
     0
  0
APPID
  5
46
330
9
100
AcDbSymbolTableRecord
100
AcDbRegAppTableRecord
  2
MCAD_NO_VIS
 70
     0
  0
APPID
  5
47
330
9
100
AcDbSymbolTableRecord
100
AcDbRegAppTableRecord
  2
ACAD_TEMP_GRAPHIC
 70
     0
  0
APPID
  5
58
330
9
100
AcDbSymbolTableRecord
100
AcDbRegAppTableRecord
  2
ACATTRIBSERVICES
 70
     0
  0
APPID
  5
EE
330
9
100
AcDbSymbolTableRecord
100
AcDbRegAppTableRecord
  2
AD_DRAW
 70
     0
  0
APPID
  5
10C
330
9
100
AcDbSymbolTableRecord
100
AcDbRegAppTableRecord
  2
DESIGNERASSEMBLIES
 70
     0
  0
APPID
  5
111
330
9
100
AcDbSymbolTableRecord
100
AcDbRegAppTableRecord
  2
ACADM_DIM_EDIT
 70
     0
  0
APPID
  5
112
330
9
100
AcDbSymbolTableRecord
100
AcDbRegAppTableRecord
  2
AMDT_DM_ADJ
 70
     0
  0
APPID
  5
1A3
330
9
100
AcDbSymbolTableRecord
100
AcDbRegAppTableRecord
  2
ACAD_DSTYLE_DIMARC_LENGTH_SYMBOL
 70
     0
  0
APPID
  5
1A4
330
9
100
AcDbSymbolTableRecord
100
AcDbRegAppTableRecord
  2
ACAD_DSTYLE_DIMJOGGED_JOGANGLE_SYMBOL
 70
     0
  0
APPID
  5
2C6
330
9
100
AcDbSymbolTableRecord
100
AcDbRegAppTableRecord
  2
ACAD_MLEADERVER
 70
     0
  0
APPID
  5
36E
330
9
100
AcDbSymbolTableRecord
100
AcDbRegAppTableRecord
  2
ACAD_EXEMPT_FROM_CAD_STANDARDS
 70
     0
  0
APPID
  5
456
330
9
100
AcDbSymbolTableRecord
100
AcDbRegAppTableRecord
  2
AcAecLayerStandard
 70
     0
  0
APPID
  5
457
330
9
100
AcDbSymbolTableRecord
100
AcDbRegAppTableRecord
  2
GENIUS_GENOENT_13
 70
     0
  0
APPID
  5
458
330
9
100
AcDbSymbolTableRecord
100
AcDbRegAppTableRecord
  2
GENIUS_GENOLIS_13
 70
     0
  0
APPID
  5
459
330
9
100
AcDbSymbolTableRecord
100
AcDbRegAppTableRecord
  2
GENIUS_GENODEF_13
 70
     0
  0
APPID
  5
45A
330
9
100
AcDbSymbolTableRecord
100
AcDbRegAppTableRecord
  2
GENIUS_GENOBJ-N-CRS_13
 70
     0
  0
APPID
  5
45B
330
9
100
AcDbSymbolTableRecord
100
AcDbRegAppTableRecord
  2
GENIUS_GENOREF_13
 70
     0
  0
APPID
  5
45C
330
9
100
AcDbSymbolTableRecord
100
AcDbRegAppTableRecord
  2
GENIUS_GENOBJ-N-CEN_13
 70
     0
  0
APPID
  5
45D
330
9
100
AcDbSymbolTableRecord
100
AcDbRegAppTableRecord
  2
GENIUS_GENCEN_19
 70
     0
  0
APPID
  5
45E
330
9
100
AcDbSymbolTableRecord
100
AcDbRegAppTableRecord
  2
ACAD_DSTYLE_DIMINSPECT
 70
     0
  0
APPID
  5
45F
330
9
100
AcDbSymbolTableRecord
100
AcDbRegAppTableRecord
  2
GENIUS_GENOBJ-N-FIL_13
 70
     0
  0
APPID
  5
460
330
9
100
AcDbSymbolTableRecord
100
AcDbRegAppTableRecord
  2
GENIUS_GENOBJ-N-HTC_13
 70
     0
  0
APPID
  5
461
330
9
100
AcDbSymbolTableRecord
100
AcDbRegAppTableRecord
  2
GENIUS_GENHATCH_13
 70
     0
  0
APPID
  5
84F
330
9
100
AcDbSymbolTableRecord
100
AcDbRegAppTableRecord
  2
ACAD_DSTYLE_DIM_LINETYPE
 70
     0
  0
APPID
  5
850
330
9
100
AcDbSymbolTableRecord
100
AcDbRegAppTableRecord
  2
ACAD_DSTYLE_DIM_EXT1_LINETYPE
 70
     0
  0
APPID
  5
851
330
9
100
AcDbSymbolTableRecord
100
AcDbRegAppTableRecord
  2
ACAD_DSTYLE_DIM_EXT2_LINETYPE
 70
     0
  0
ENDTAB
  0
TABLE
  2
DIMSTYLE
  5
A
330
0
100
AcDbSymbolTable
 70
    10
100
AcDbDimStyleTable
 71
     1
340
81
  0
DIMSTYLE
105
27
330
A
100
AcDbSymbolTableRecord
100
AcDbDimStyleTableRecord
  2
ISO-25
 70
     0
 41
2.5
 42
0.625
 43
3.75
 44
1.25
 73
     0
 74
     0
 77
     1
 78
     8
140
2.5
141
2.5
143
0.03937007874016
147
0.625
171
     3
172
     1
271
     2
272
     2
274
     3
278
    44
283
     0
284
     8
340
11
  0
DIMSTYLE
105
81
102
{ACAD_REACTORS
330
62
102
}
330
A
100
AcDbSymbolTableRecord
100
AcDbDimStyleTableRecord
  2
AM_ISO
 70
     0
  4
"
 41
3.5
 42
1.0
 43
10.0
 44
1.0
 47
0.1
 48
0.1
 73
     0
 74
     0
 77
     1
 78
     8
 79
     2
140
3.5
141
0.0
143
0.0393701
146
0.71
147
1.5
172
     1
176
   256
177
   256
178
   140
271
     2
272
     3
274
     4
283
     0
284
     8
340
11
371
    -1
372
    -1
1001
ACAD_DSTYLE_DIMJOGGED_JOGANGLE_SYMBOL
1070
   384
1040
0.7853981633974483
1001
ACAD_DSTYLE_DIMARC_LENGTH_SYMBOL
1070
   379
1070
     1
1001
ACAD_DSTYLE_DIM_LINETYPE
1070
   380
1005
14
1001
ACAD_DSTYLE_DIM_EXT1_LINETYPE
1070
   381
1005
14
1001
ACAD_DSTYLE_DIM_EXT2_LINETYPE
1070
   382
1005
14
  0
DIMSTYLE
105
82
330
A
100
AcDbSymbolTableRecord
100
AcDbDimStyleTableRecord
  2
AM_ISO$3
 70
     0
  4
"
 41
3.5
 42
1.0
 43
10.0
 44
1.0
 47
0.1
 48
0.1
 73
     0
 77
     1
 78
     8
 79
     2
140
3.5
141
0.0
143
0.0393701
146
0.71
147
1.5
176
   256
177
   256
178
   140
271
     2
272
     3
274
     4
283
     0
284
     8
288
     1
289
     0
340
11
371
    -1
372
    -1
1001
ACAD_DSTYLE_DIMJOGGED_JOGANGLE_SYMBOL
1070
   384
1040
0.7853981633974483
1001
ACAD_DSTYLE_DIMARC_LENGTH_SYMBOL
1070
   379
1070
     1
1001
ACAD_DSTYLE_DIM_LINETYPE
1070
   380
1005
14
1001
ACAD_DSTYLE_DIM_EXT1_LINETYPE
1070
   381
1005
14
1001
ACAD_DSTYLE_DIM_EXT2_LINETYPE
1070
   382
1005
14
  0
DIMSTYLE
105
83
330
A
100
AcDbSymbolTableRecord
100
AcDbDimStyleTableRecord
  2
AM_ISO$4
 70
     0
  4
"
 41
3.5
 42
1.0
 43
10.0
 44
1.0
 47
0.1
 48
0.1
 73
     0
 74
     0
 77
     1
 78
     8
 79
     2
140
3.5
141
0.0
143
0.0393701
146
0.71
147
1.5
172
     1
176
   256
177
   256
178
   140
271
     2
272
     3
274
     4
283
     0
284
     8
340
11
371
    -1
372
    -1
1001
ACAD_DSTYLE_DIMJOGGED_JOGANGLE_SYMBOL
1070
   384
1040
0.7853981633974483
1001
ACAD_DSTYLE_DIMARC_LENGTH_SYMBOL
1070
   379
1070
     1
1001
ACAD_DSTYLE_DIM_LINETYPE
1070
   380
1005
14
1001
ACAD_DSTYLE_DIM_EXT1_LINETYPE
1070
   381
1005
14
1001
ACAD_DSTYLE_DIM_EXT2_LINETYPE
1070
   382
1005
14
  0
DIMSTYLE
105
84
330
A
100
AcDbSymbolTableRecord
100
AcDbDimStyleTableRecord
  2
AM_ISO$6
 70
     0
  4
"
 41
3.5
 42
1.0
 43
10.0
 44
1.0
 47
0.1
 48
0.1
 73
     0
 74
     0
 78
     8
 79
     2
140
3.5
141
0.0
143
0.0393701
146
0.71
147
1.5
172
     1
176
   256
177
   256
178
   140
271
     2
272
     3
274
     4
283
     0
284
     8
340
11
371
    -1
372
    -1
1001
ACAD_DSTYLE_DIMJOGGED_JOGANGLE_SYMBOL
1070
   384
1040
0.7853981633974483
1001
ACAD_DSTYLE_DIMARC_LENGTH_SYMBOL
1070
   379
1070
     1
1001
ACAD_DSTYLE_DIM_LINETYPE
1070
   380
1005
14
1001
ACAD_DSTYLE_DIM_EXT1_LINETYPE
1070
   381
1005
14
1001
ACAD_DSTYLE_DIM_EXT2_LINETYPE
1070
   382
1005
14
  0
DIMSTYLE
105
85
330
A
100
AcDbSymbolTableRecord
100
AcDbDimStyleTableRecord
  2
AM_ISO$7
 70
     0
  4
"
 41
3.5
 42
1.0
 43
10.0
 44
1.0
 47
0.1
 48
0.1
 73
     0
 74
     0
 77
     1
 78
     8
 79
     2
140
3.5
141
0.0
143
0.0393701
146
0.71
147
1.5
172
     1
176
   256
177
   256
178
   140
271
     2
272
     3
274
     4
283
     0
284
     8
340
11
371
    -1
372
    -1
1001
ACAD_DSTYLE_DIMJOGGED_JOGANGLE_SYMBOL
1070
   384
1040
0.7853981633974483
1001
ACAD_DSTYLE_DIMARC_LENGTH_SYMBOL
1070
   379
1070
     1
1001
ACAD_DSTYLE_DIM_LINETYPE
1070
   380
1005
14
1001
ACAD_DSTYLE_DIM_EXT1_LINETYPE
1070
   381
1005
14
1001
ACAD_DSTYLE_DIM_EXT2_LINETYPE
1070
   382
1005
14
  0
DIMSTYLE
105
86
330
A
100
AcDbSymbolTableRecord
100
AcDbDimStyleTableRecord
  2
AM_ISO$SF
 70
     0
  4
"
 41
3.5
 42
1.0
 43
10.0
 44
1.0
 47
0.1
 48
0.1
 73
     0
 74
     0
 75
     1
 76
     1
 77
     1
 78
     8
 79
     2
140
3.5
141
0.0
143
0.0393701
146
0.71
147
1.5
172
     1
176
   256
177
   256
178
   140
271
     2
272
     3
274
     4
283
     0
284
     8
340
11
371
    -1
372
    -1
1001
ACAD_DSTYLE_DIMJOGGED_JOGANGLE_SYMBOL
1070
   384
1040
0.7853981633974483
1001
ACAD_DSTYLE_DIMARC_LENGTH_SYMBOL
1070
   379
1070
     1
1001
ACAD_DSTYLE_DIM_LINETYPE
1070
   380
1005
14
1001
ACAD_DSTYLE_DIM_EXT1_LINETYPE
1070
   381
1005
14
1001
ACAD_DSTYLE_DIM_EXT2_LINETYPE
1070
   382
1005
14
  0
DIMSTYLE
105
8B
330
A
100
AcDbSymbolTableRecord
100
AcDbDimStyleTableRecord
  2
AM_ISO$SH
 70
     0
  4
"
 41
3.5
 42
1.0
 43
10.0
 44
1.0
 47
0.1
 48
0.1
 73
     0
 74
     0
 75
     1
 76
     1
 77
     1
 78
     8
 79
     2
140
3.5
141
0.0
143
0.0393701
144
2.0
146
0.71
147
1.5
172
     1
173
     1
176
   256
177
   256
178
   140
271
     2
272
     3
274
     4
283
     0
284
     8
340
11
343
87
371
    -1
372
    -1
1001
ACAD_DSTYLE_DIMJOGGED_JOGANGLE_SYMBOL
1070
   384
1040
0.7853981633974483
1001
ACAD_DSTYLE_DIMARC_LENGTH_SYMBOL
1070
   379
1070
     1
1001
ACAD_DSTYLE_DIM_LINETYPE
1070
   380
1005
14
1001
ACAD_DSTYLE_DIM_EXT1_LINETYPE
1070
   381
1005
14
1001
ACAD_DSTYLE_DIM_EXT2_LINETYPE
1070
   382
1005
14
  0
DIMSTYLE
105
455
102
{ACAD_REACTORS
330
4CA
330
4CB
330
4CC
330
4CD
330
4CE
330
512
330
597
330
65B
330
65C
330
65D
330
65E
330
65F
330
6A3
330
728
102
}
330
A
100
AcDbSymbolTableRecord
100
AcDbDimStyleTableRecord
  2
AM_DIN$0
 70
     0
  4
"
 41
3.5
 42
1.0
 43
10.0
 44
1.0
 47
0.1
 48
0.1
 73
     0
 74
     0
 77
     1
 78
     8
 79
     2
140
3.5
141
0.0
143
0.0393701
146
0.71
147
1.5
172
     1
176
   256
177
   256
178
     2
271
     2
272
     3
274
     4
283
     0
284
     8
340
11
371
    -1
372
    -1
1001
ACAD_DSTYLE_DIMJOGGED_JOGANGLE_SYMBOL
1070
   384
1040
1.570796326794896
1001
ACAD_DSTYLE_DIM_LINETYPE
1070
   380
1005
14
1001
ACAD_DSTYLE_DIM_EXT1_LINETYPE
1070
   381
1005
14
1001
ACAD_DSTYLE_DIM_EXT2_LINETYPE
1070
   382
1005
14
  0
ENDTAB
  0
TABLE
  2
BLOCK_RECORD
  5
1
330
0
100
AcDbSymbolTable
 70
    22
  0
BLOCK_RECORD
  5
1F
102
{ACAD_XDICTIONARY
360
8F
102
}
330
1
100
AcDbSymbolTableRecord
100
AcDbBlockTableRecord
  2
*Model_Space
340
22
  0
BLOCK_RECORD
  5
1B
330
1
100
AcDbSymbolTableRecord
100
AcDbBlockTableRecord
  2
*Paper_Space
340
1E
  0
BLOCK_RECORD
  5
23
330
1
100
AcDbSymbolTableRecord
100
AcDbBlockTableRecord
  2
*Paper_Space0
340
26
  0
BLOCK_RECORD
  5
87
330
1
100
AcDbSymbolTableRecord
100
AcDbBlockTableRecord
  2
GENAXEH
340
0
  0
BLOCK_RECORD
  5
3AE
330
1
100
AcDbSymbolTableRecord
100
AcDbBlockTableRecord
  2
befestigung
340
0
310
2800000020000000200000000100080000000000000400000000000000000000000000000000000000000000000080000080000000808000800000008000800080800000C0C0C000C0DCC000F0CAA6000020400000206000002080000020A0000020C0000020E00000400000004020000040400000406000004080000040A0
310
000040C0000040E00000600000006020000060400000606000006080000060A0000060C0000060E00000800000008020000080400000806000008080000080A0000080C0000080E00000A0000000A0200000A0400000A0600000A0800000A0A00000A0C00000A0E00000C0000000C0200000C0400000C0600000C0800000C0
310
A00000C0C00000C0E00000E0000000E0200000E0400000E0600000E0800000E0A00000E0C00000E0E00040000000400020004000400040006000400080004000A0004000C0004000E00040200000402020004020400040206000402080004020A0004020C0004020E000404000004040200040404000404060004040800040
310
40A0004040C0004040E00040600000406020004060400040606000406080004060A0004060C0004060E00040800000408020004080400040806000408080004080A0004080C0004080E00040A0000040A0200040A0400040A0600040A0800040A0A00040A0C00040A0E00040C0000040C0200040C0400040C0600040C08000
310
40C0A00040C0C00040C0E00040E0000040E0200040E0400040E0600040E0800040E0A00040E0C00040E0E00080000000800020008000400080006000800080008000A0008000C0008000E00080200000802020008020400080206000802080008020A0008020C0008020E00080400000804020008040400080406000804080
310
008040A0008040C0008040E00080600000806020008060400080606000806080008060A0008060C0008060E00080800000808020008080400080806000808080008080A0008080C0008080E00080A0000080A0200080A0400080A0600080A0800080A0A00080A0C00080A0E00080C0000080C0200080C0400080C0600080C0
310
800080C0A00080C0C00080C0E00080E0000080E0200080E0400080E0600080E0800080E0A00080E0C00080E0E000C0000000C0002000C0004000C0006000C0008000C000A000C000C000C000E000C0200000C0202000C0204000C0206000C0208000C020A000C020C000C020E000C0400000C0402000C0404000C0406000C0
310
408000C040A000C040C000C040E000C0600000C0602000C0604000C0606000C0608000C060A000C060C000C060E000C0800000C0802000C0804000C0806000C0808000C080A000C080C000C080E000C0A00000C0A02000C0A04000C0A06000C0A08000C0A0A000C0A0C000C0A0E000C0C00000C0C02000C0C04000C0C06000
310
C0C08000C0C0A000F0FBFF00A4A0A000808080000000FF0000FF000000FFFF00FF000000FF00FF00FFFF0000FFFFFF00000000000000000000000000000000000000000000000000000000000000000000000000000000000000000000000000000000000000FF000000000000000000000000000000000000000000000000
310
000000000000FF00FFFFFF00000000000000000000000000000000000000000000000000FFFF0000000000FF0000000000000000000000000000000000000000000000FF00000000000000FF00000000000000000000000000000000000000000000FF000000000000000000FF000000000000000000000000000000000000
310
0000FF00000000000000000000FF00000000000000000000000000000000000000FF0000000000000000000000FF000000000000000000000000000000000000FF0000000000000000000000FF00000000000000000000000000000000FFFFFF0000000000000000000000FF0000000000000000000000FFFFFFFFFF00FFFF
310
FFFFFF00000000000000FFFF0000000000000000000000FFFF000000FF00FFFF000000FFFFFFFFFFFFFF00000000000000000000000000FFFF000000FF00FFFF00000000000000FF000000000000000000000000000000FFFFFFFFFFFF00FFFF00000000000000FF3030303030FFFF0000000000000000FFFF000000FF00FF
310
FF00000000000000FF0000000000FFFF0000000000000000FFFF000000FF00FFFF00000000000000FF0000000000FFFF000000000000E8E8FFFFE8E8E8E8E8FFFFE8E8E8E8E8E8E8FFE8E8E8E8E8FFFFE8E8000000000000FFFF000000FF00FFFF00000000000000FF0000000000FFFF0000000000000000FFFFFFFFFFFF00
310
FFFF00000000000000FFFFFFFFFFFFFFFF0000000000000000FFFF000000FF00FFFF00000000000000FF000000000000000000000000000000FFFF000000FF00FFFF00000000FFFFFFFFFF000000000000000000000000000000FFFFFFFFFF00FFFFFFFFFFFF0000000000FFFFFF0000000000000000000000000000000000
310
00FFFFFF0000000000000000000000FF0000000000000000000000000000000000000000FF0000000000000000000000FF0000000000000000000000000000000000000000FF0000000000000000000000FF0000000000000000000000000000000000000000FF00000000000000000000FF00000000000000000000000000
310
0000000000000000FF000000000000000000FF00000000000000000000000000000000000000000000FF00000000000000FF000000000000000000000000000000000000000000000000FF000000000000FF00000000000000000000000000000000000000000000000000FFFF0000FFFF0000000000000000000000000000
310
0000000000000000000000000000FFFF00000000000000000000000000000000000000000000000000000000000000000000000000000000
102
{BLKREFS
331
5EC
331
5ED
331
77D
331
77E
102
}
1001
ACAD
1000
DesignCenter Data
1002
{
1070
     1
1070
     4
1002
}
  0
BLOCK_RECORD
  5
3D2
330
1
100
AcDbSymbolTableRecord
100
AcDbBlockTableRecord
  2
*U4
340
0
102
{BLKREFS
331
3CF
102
}
  0
BLOCK_RECORD
  5
3E0
330
1
100
AcDbSymbolTableRecord
100
AcDbBlockTableRecord
  2
*U5
340
0
102
{BLKREFS
331
3D0
102
}
  0
BLOCK_RECORD
  5
3E8
330
1
100
AcDbSymbolTableRecord
100
AcDbBlockTableRecord
  2
*D6
340
0
  0
BLOCK_RECORD
  5
3F4
330
1
100
AcDbSymbolTableRecord
100
AcDbBlockTableRecord
  2
*D7
340
0
  0
BLOCK_RECORD
  5
400
330
1
100
AcDbSymbolTableRecord
100
AcDbBlockTableRecord
  2
*D8
340
0
  0
BLOCK_RECORD
  5
40C
330
1
100
AcDbSymbolTableRecord
100
AcDbBlockTableRecord
  2
*D9
340
0
  0
BLOCK_RECORD
  5
418
330
1
100
AcDbSymbolTableRecord
100
AcDbBlockTableRecord
  2
*D10
340
0
  0
BLOCK_RECORD
  5
424
330
1
100
AcDbSymbolTableRecord
100
AcDbBlockTableRecord
  2
*D11
340
0
  0
BLOCK_RECORD
  5
430
330
1
100
AcDbSymbolTableRecord
100
AcDbBlockTableRecord
  2
*D12
340
0
  0
BLOCK_RECORD
  5
780
330
1
100
AcDbSymbolTableRecord
100
AcDbBlockTableRecord
  2
*D14
340
0
  0
BLOCK_RECORD
  5
78C
330
1
100
AcDbSymbolTableRecord
100
AcDbBlockTableRecord
  2
*D15
340
0
  0
BLOCK_RECORD
  5
798
330
1
100
AcDbSymbolTableRecord
100
AcDbBlockTableRecord
  2
*D16
340
0
  0
BLOCK_RECORD
  5
7A4
330
1
100
AcDbSymbolTableRecord
100
AcDbBlockTableRecord
  2
*D17
340
0
  0
BLOCK_RECORD
  5
7B0
330
1
100
AcDbSymbolTableRecord
100
AcDbBlockTableRecord
  2
*D18
340
0
  0
BLOCK_RECORD
  5
7BC
330
1
100
AcDbSymbolTableRecord
100
AcDbBlockTableRecord
  2
*D19
340
0
  0
BLOCK_RECORD
  5
7C8
330
1
100
AcDbSymbolTableRecord
100
AcDbBlockTableRecord
  2
*D20
340
0
  0
ENDTAB
  0
ENDSEC
  0
SECTION
  2
BLOCKS
  0
BLOCK
  5
20
330
1F
100
AcDbEntity
  8
0
100
AcDbBlockBegin
  2
*Model_Space
 70
     0
 10
0.0
 20
0.0
 30
0.0
  3
*Model_Space
  1

  0
ENDBLK
  5
21
330
1F
100
AcDbEntity
  8
0
100
AcDbBlockEnd
  0
BLOCK
  5
1C
330
1B
100
AcDbEntity
 67
     1
  8
0
100
AcDbBlockBegin
  2
*Paper_Space
 70
     0
 10
0.0
 20
0.0
 30
0.0
  3
*Paper_Space
  1

  0
ENDBLK
  5
1D
330
1B
100
AcDbEntity
 67
     1
  8
0
100
AcDbBlockEnd
  0
BLOCK
  5
24
330
23
100
AcDbEntity
 67
     1
  8
0
100
AcDbBlockBegin
  2
*Paper_Space0
 70
     0
 10
0.0
 20
0.0
 30
0.0
  3
*Paper_Space0
  1

  0
ENDBLK
  5
25
330
23
100
AcDbEntity
 67
     1
  8
0
100
AcDbBlockEnd
  0
BLOCK
  5
89
330
87
100
AcDbEntity
  8
0
100
AcDbBlockBegin
  2
GENAXEH
 70
     0
 10
0.0
 20
0.0
 30
0.0
  3
GENAXEH
  1

  0
LINE
  5
88
330
87
100
AcDbEntity
  8
0
100
AcDbLine
 10
-1.0
 20
0.0
 30
0.0
 11
1.0
 21
0.0
 31
0.0
  0
ENDBLK
  5
8A
330
87
100
AcDbEntity
  8
0
100
AcDbBlockEnd
  0
BLOCK
  5
3AF
330
3AE
100
AcDbEntity
  8
0
100
AcDbBlockBegin
  2
befestigung
 70
     0
 10
0.0
 20
0.0
 30
0.0
  3
befestigung
  1

  0
LINE
  5
3B0
330
3AE
100
AcDbEntity
  8
AM_7N
  6
AM_ISO08W050x2
100
AcDbLine
 10
2003.869006815402
 20
1351.458312600669
 30
0.0
 11
2040.549006815402
 21
1351.458312600669
 31
0.0
1001
GENIUS_GENOREF_13
1005
0
1005
0
1005
0
  0
LINE
  5
3B1
330
3AE
100
AcDbEntity
  8
AM_9N
100
AcDbLine
 10
2015.674006815402
 20
1347.458312600669
 30
0.0
 11
2017.974006815402
 21
1347.458312600669
 31
0.0
1001
GENIUS_GENOREF_13
1005
0
1005
0
1005
0
  0
LINE
  5
3B2
330
3AE
100
AcDbEntity
  8
AM_9N
100
AcDbLine
 10
2022.209006815402
 20
1347.458312600669
 30
0.0
 11
2032.209006815401
 21
1347.458312600669
 31
0.0
1001
GENIUS_GENOREF_13
1005
0
1005
0
1005
0
  0
LINE
  5
3B3
330
3AE
100
AcDbEntity
  8
AM_0N
100
AcDbLine
 10
2027.974006815401
 20
1347.458312600669
 30
0.0
 11
2036.782194315402
 21
1347.458312600669
 31
0.0
1001
GENIUS_GENOREF_13
1005
0
1005
0
1005
0
  0
LINE
  5
3B4
330
3AE
100
AcDbEntity
  8
AM_9N
100
AcDbLine
 10
2015.674006815402
 20
1348.225125100669
 30
0.0
 11
2017.974006815402
 21
1348.225125100669
 31
0.0
1001
GENIUS_GENOREF_13
1005
0
1005
0
1005
0
  0
LINE
  5
3B5
330
3AE
100
AcDbEntity
  8
AM_9N
100
AcDbLine
 10
2022.209006815402
 20
1348.225125100669
 30
0.0
 11
2032.209006815401
 21
1348.225125100669
 31
0.0
1001
GENIUS_GENOREF_13
1005
0
1005
0
1005
0
  0
LINE
  5
3B6
330
3AE
100
AcDbEntity
  8
AM_4N
100
AcDbLine
 10
2027.974006815401
 20
1348.225125100669
 30
0.0
 11
2037.549006815402
 21
1348.225125100669
 31
0.0
1001
GENIUS_GENOREF_13
1005
0
1005
0
1005
0
  0
LINE
  5
3B7
330
3AE
100
AcDbEntity
  8
AM_9N
100
AcDbLine
 10
2015.674006815402
 20
1354.691500100669
 30
0.0
 11
2017.974006815402
 21
1354.691500100669
 31
0.0
1001
GENIUS_GENOREF_13
1005
0
1005
0
1005
0
  0
LINE
  5
3B8
330
3AE
100
AcDbEntity
  8
AM_9N
100
AcDbLine
 10
2027.974006815401
 20
1354.691500100669
 30
0.0
 11
2032.209006815401
 21
1354.691500100669
 31
0.0
1001
GENIUS_GENOREF_13
1005
0
1005
0
1005
0
  0
LINE
  5
3B9
330
3AE
100
AcDbEntity
  8
AM_4N
100
AcDbLine
 10
2027.974006815401
 20
1354.691500100669
 30
0.0
 11
2037.549006815402
 21
1354.691500100669
 31
0.0
1001
GENIUS_GENOREF_13
1005
0
1005
0
1005
0
  0
LINE
  5
3BA
330
3AE
100
AcDbEntity
  8
AM_9N
100
AcDbLine
 10
2015.674006815402
 20
1355.458312600669
 30
0.0
 11
2017.974006815402
 21
1355.458312600669
 31
0.0
1001
GENIUS_GENOREF_13
1005
0
1005
0
1005
0
  0
LINE
  5
3BB
330
3AE
100
AcDbEntity
  8
AM_9N
100
AcDbLine
 10
2027.974006815401
 20
1355.458312600669
 30
0.0
 11
2032.209006815401
 21
1355.458312600669
 31
0.0
1001
GENIUS_GENOREF_13
1005
0
1005
0
1005
0
  0
LINE
  5
3BC
330
3AE
100
AcDbEntity
  8
AM_0N
100
AcDbLine
 10
2027.974006815401
 20
1355.458312600669
 30
0.0
 11
2036.782194315402
 21
1355.458312600669
 31
0.0
1001
GENIUS_GENOREF_13
1005
0
1005
0
1005
0
  0
ARC
  5
3BD
330
3AE
100
AcDbEntity
  8
AM_0N
100
AcDbCircle
 10
2019.27813978905
 20
1351.458312600669
 30
0.0
 40
12.4091329736479
100
AcDbArc
 50
162.3875260144767
 51
197.6124739855233
1001
GENIUS_GENOREF_13
1005
0
1005
0
1005
0
  0
LINE
  5
3BE
330
3AE
100
AcDbEntity
  8
AM_0N
100
AcDbLine
 10
2012.549006815402
 20
1347.458312600669
 30
0.0
 11
2012.549006815402
 21
1355.458312600669
 31
0.0
1001
GENIUS_GENOREF_13
1005
0
1005
0
1005
0
  0
LINE
  5
3BF
330
3AE
100
AcDbEntity
  8
AM_0N
100
AcDbLine
 10
2012.549006815402
 20
1355.458312600669
 30
0.0
 11
2012.549006815402
 21
1347.458312600669
 31
0.0
1001
GENIUS_GENOREF_13
1005
0
1005
0
1005
0
  0
LINE
  5
3C0
330
3AE
100
AcDbEntity
  8
AM_0N
100
AcDbLine
 10
2006.869006815402
 20
1357.958312600669
 30
0.0
 11
2006.869006815402
 21
1344.958312600669
 31
0.0
1001
GENIUS_GENOREF_13
1005
0
1005
0
1005
0
  0
LINE
  5
3C1
330
3AE
100
AcDbEntity
  8
AM_0N
100
AcDbLine
 10
2007.45068721161
 20
1343.950812600669
 30
0.0
 11
2012.549006815402
 21
1343.950812600669
 31
0.0
1001
GENIUS_GENOREF_13
1005
0
1005
0
1005
0
  0
LINE
  5
3C2
330
3AE
100
AcDbEntity
  8
AM_0N
100
AcDbLine
 10
2007.45068721161
 20
1347.703589350401
 30
0.0
 11
2012.549006815402
 21
1347.703589350401
 31
0.0
1001
GENIUS_GENOREF_13
1005
0
1005
0
1005
0
  0
ARC
  5
3C3
330
3AE
100
AcDbEntity
  8
AM_0N
100
AcDbCircle
 10
2010.186279876194
 20
1345.827200975535
 30
0.0
 40
3.317273060791837
100
AcDbArc
 50
145.5531276177371
 51
205.5531276177362
1001
GENIUS_GENOREF_13
1005
0
1005
0
1005
0
  0
LINE
  5
3C4
330
3AE
100
AcDbEntity
  8
AM_0N
100
AcDbLine
 10
2007.45068721161
 20
1343.950812600669
 30
0.0
 11
2006.869006815402
 21
1344.958312600669
 31
0.0
1001
GENIUS_GENOREF_13
1005
0
1005
0
1005
0
  0
LINE
  5
3C5
330
3AE
100
AcDbEntity
  8
AM_0N
100
AcDbLine
 10
2012.549006815402
 20
1343.950812600669
 30
0.0
 11
2012.549006815402
 21
1347.458312600669
 31
0.0
1001
GENIUS_GENOREF_13
1005
0
1005
0
1005
0
  0
LINE
  5
3C6
330
3AE
100
AcDbEntity
  8
AM_0N
100
AcDbLine
 10
2012.549006815402
 20
1355.458312600669
 30
0.0
 11
2012.549006815402
 21
1358.965812600669
 31
0.0
1001
GENIUS_GENOREF_13
1005
0
1005
0
1005
0
  0
LINE
  5
3C7
330
3AE
100
AcDbEntity
  8
AM_0N
100
AcDbLine
 10
2007.45068721161
 20
1358.965812600669
 30
0.0
 11
2006.869006815402
 21
1357.958312600669
 31
0.0
1001
GENIUS_GENOREF_13
1005
0
1005
0
1005
0
  0
LINE
  5
3C8
330
3AE
100
AcDbEntity
  8
AM_0N
100
AcDbLine
 10
2007.45068721161
 20
1355.213035850936
 30
0.0
 11
2012.549006815402
 21
1355.213035850936
 31
0.0
1001
GENIUS_GENOREF_13
1005
0
1005
0
1005
0
  0
ARC
  5
3C9
330
3AE
100
AcDbEntity
  8
AM_0N
100
AcDbCircle
 10
2010.186279876194
 20
1357.089424225803
 30
0.0
 40
3.317273060791837
100
AcDbArc
 50
154.4468723822637
 51
214.4468723822629
1001
GENIUS_GENOREF_13
1005
0
1005
0
1005
0
  0
LINE
  5
3CA
330
3AE
100
AcDbEntity
  8
AM_0N
100
AcDbLine
 10
2007.45068721161
 20
1358.965812600669
 30
0.0
 11
2012.549006815402
 21
1358.965812600669
 31
0.0
1001
GENIUS_GENOREF_13
1005
0
1005
0
1005
0
  0
LINE
  5
3CB
330
3AE
100
AcDbEntity
  8
AM_0N
100
AcDbLine
 10
2036.782194315402
 20
1347.458312600669
 30
0.0
 11
2036.782194315402
 21
1355.458312600669
 31
0.0
1001
GENIUS_GENOREF_13
1005
0
1005
0
1005
0
  0
LINE
  5
3CC
330
3AE
100
AcDbEntity
  8
AM_0N
100
AcDbLine
 10
2037.549006815402
 20
1348.225125100669
 30
0.0
 11
2036.782194315402
 21
1347.458312600669
 31
0.0
1001
GENIUS_GENOREF_13
1005
0
1005
0
1005
0
  0
LINE
  5
3CD
330
3AE
100
AcDbEntity
  8
AM_0N
100
AcDbLine
 10
2037.549006815402
 20
1348.225125100669
 30
0.0
 11
2037.549006815402
 21
1354.691500100669
 31
0.0
1001
GENIUS_GENOREF_13
1005
0
1005
0
1005
0
  0
LINE
  5
3CE
330
3AE
100
AcDbEntity
  8
AM_0N
100
AcDbLine
 10
2036.782194315402
 20
1355.458312600669
 30
0.0
 11
2037.549006815402
 21
1354.691500100669
 31
0.0
1001
GENIUS_GENOREF_13
1005
0
1005
0
1005
0
  0
INSERT
  5
3CF
330
3AE
100
AcDbEntity
  8
AM_0N
100
AcDbBlockReference
  2
*U4
 10
0.0
 20
0.0
 30
0.0
1001
GENIUS_GENOREF_13
1005
0
  0
INSERT
  5
3D0
330
3AE
100
AcDbEntity
  8
AM_0N
100
AcDbBlockReference
  2
*U5
 10
0.0
 20
0.0
 30
0.0
1001
GENIUS_GENOREF_13
1005
0
  0
ENDBLK
  5
3D1
330
3AE
100
AcDbEntity
  8
0
100
AcDbBlockEnd
  0
BLOCK
  5
3D3
330
3D2
100
AcDbEntity
  8
0
100
AcDbBlockBegin
  2
*U4
 70
     1
 10
0.0
 20
0.0
 30
0.0
  3
*U4
  1

  0
ARC
  5
3D4
330
3D2
100
AcDbEntity
  8
AM_0N
100
AcDbCircle
 10
2031.974006815402
 20
1364.958312600669
 30
0.0
 40
6.0
100
AcDbArc
 50
284.6765041088877
 51
134.956760177952
  0
LINE
  5
3D5
330
3D2
100
AcDbEntity
  8
AM_0N
100
AcDbLine
 10
2017.974006815402
 20
1359.458312600669
 30
0.0
 11
2027.734569160611
 21
1369.204153903773
 31
0.0
  0
LINE
  5
3D6
330
3D2
100
AcDbEntity
  8
AM_0N
100
AcDbLine
 10
2027.974006815401
 20
1357.708312600669
 30
0.0
 11
2033.494174408163
 21
1359.154082204663
 31
0.0
  0
ARC
  5
3D7
330
3D2
100
AcDbEntity
  8
AM_0N
100
AcDbCircle
 10
2031.974006815402
 20
1337.958312600669
 30
0.0
 40
6.0
100
AcDbArc
 50
225.043239822048
 51
75.3234958911123
  0
LINE
  5
3D8
330
3D2
100
AcDbEntity
  8
AM_0N
100
AcDbLine
 10
2017.974006815402
 20
1343.458312600669
 30
0.0
 11
2027.734569160611
 21
1333.712471297565
 31
0.0
  0
LINE
  5
3D9
330
3D2
100
AcDbEntity
  8
AM_7N
  6
AM_ISO08W050x2
100
AcDbLine
 10
2030.974006815402
 20
1351.458312600669
 30
0.0
 11
2014.974006815402
 21
1351.458312600669
 31
0.0
  0
LINE
  5
3DA
330
3D2
100
AcDbEntity
  8
AM_0N
100
AcDbLine
 10
2017.974006815402
 20
1343.458312600669
 30
0.0
 11
2017.974006815402
 21
1359.458312600669
 31
0.0
  0
LINE
  5
3DB
330
3D2
100
AcDbEntity
  8
AM_0N
100
AcDbLine
 10
2027.974006815401
 20
1357.708312600669
 30
0.0
 11
2027.974006815401
 21
1345.208312600669
 31
0.0
  0
LINE
  5
3DC
330
3D2
100
AcDbEntity
  8
AM_0N
100
AcDbLine
 10
2027.974006815401
 20
1345.208312600669
 30
0.0
 11
2017.974006815402
 21
1343.458312600669
 31
0.0
  0
LINE
  5
3DD
330
3D2
100
AcDbEntity
  8
AM_0N
100
AcDbLine
 10
2027.974006815401
 20
1345.208312600669
 30
0.0
 11
2033.494174408163
 21
1343.762542996675
 31
0.0
  0
LINE
  5
3DE
330
3D2
100
AcDbEntity
  8
AM_0N
100
AcDbLine
 10
2017.974006815402
 20
1359.458312600669
 30
0.0
 11
2027.974006815401
 21
1357.708312600669
 31
0.0
  0
ENDBLK
  5
3DF
330
3D2
100
AcDbEntity
  8
0
100
AcDbBlockEnd
  0
BLOCK
  5
3E1
330
3E0
100
AcDbEntity
  8
0
100
AcDbBlockBegin
  2
*U5
 70
     1
 10
0.0
 20
0.0
 30
0.0
  3
*U5
  1

  0
LINE
  5
3E2
330
3E0
100
AcDbEntity
  8
AM_7N
  6
AM_ISO08W050x2
100
AcDbLine
 10
2012.674006815402
 20
1351.458312600669
 30
0.0
 11
2020.974006815402
 21
1351.458312600669
 31
0.0
  0
LINE
  5
3E3
330
3E0
100
AcDbEntity
  8
AM_0N
100
AcDbLine
 10
2015.674006815402
 20
1360.858312600669
 30
0.0
 11
2015.674006815402
 21
1342.058312600669
 31
0.0
  0
LINE
  5
3E4
330
3E0
100
AcDbEntity
  8
AM_0N
100
AcDbLine
 10
2017.974006815402
 20
1342.058312600669
 30
0.0
 11
2017.974006815402
 21
1360.858312600669
 31
0.0
  0
LINE
  5
3E5
330
3E0
100
AcDbEntity
  8
AM_0N
100
AcDbLine
 10
2015.674006815402
 20
1342.058312600669
 30
0.0
 11
2017.974006815402
 21
1342.058312600669
 31
0.0
  0
LINE
  5
3E6
330
3E0
100
AcDbEntity
  8
AM_0N
100
AcDbLine
 10
2017.974006815402
 20
1360.858312600669
 30
0.0
 11
2015.674006815402
 21
1360.858312600669
 31
0.0
  0
ENDBLK
  5
3E7
330
3E0
100
AcDbEntity
  8
0
100
AcDbBlockEnd
  0
BLOCK
  5
3E9
330
3E8
100
AcDbEntity
  8
0
100
AcDbBlockBegin
  2
*D6
 70
     1
 10
0.0
 20
0.0
 30
0.0
  3
*D6
  1

  0
LINE
  5
3EA
330
3E8
100
AcDbEntity
  8
AM_5
  6
ByBlock
100
AcDbLine
 10
1297.170730480487
 20
315.7952359052085
 30
0.0
 11
1419.454418129719
 21
315.7952359052085
 31
0.0
  0
LINE
  5
3EB
330
3E8
100
AcDbEntity
  8
AM_5
  6
ByBlock
100
AcDbLine
 10
1289.175301909222
 20
442.7226644764694
 30
0.0
 11
1419.454418129719
 21
442.7226644764693
 31
0.0
  0
LINE
  5
3EC
330
3E8
100
AcDbEntity
  8
AM_5
  6
ByBlock
100
AcDbLine
 10
1418.45441812972
 20
322.7952359052085
 30
0.0
 11
1418.45441812972
 21
435.7226644764693
 31
0.0
  0
SOLID
  5
3ED
330
3E8
100
AcDbEntity
  8
AM_5
100
AcDbTrace
 10
1417.287751463053
 20
322.7952359052085
 30
0.0
 11
1419.621084796386
 21
322.7952359052085
 31
0.0
 12
1418.45441812972
 22
315.7952359052085
 32
0.0
 13
1418.45441812972
 23
315.7952359052085
 33
0.0
  0
SOLID
  5
3EE
330
3E8
100
AcDbEntity
  8
AM_5
100
AcDbTrace
 10
1417.287751463053
 20
435.7226644764693
 30
0.0
 11
1419.621084796386
 21
435.7226644764693
 31
0.0
 12
1418.45441812972
 22
442.7226644764693
 32
0.0
 13
1418.45441812972
 23
442.7226644764693
 33
0.0
  0
MTEXT
  5
3EF
330
3E8
100
AcDbEntity
  8
AM_5
 62
     2
100
AcDbMText
 10
1411.95441812972
 20
379.2589501908391
 30
0.0
 40
10.0
 41
0.0
 71
     5
 72
     1
  1
105-160
 11
0.0000000000000001
 21
1.0
 31
0.0
 73
     1
 44
1.0
1001
ACAD
1000
MTEXTBEGIN
1070
    73
1070
     1
1070
    44
1040
1.0
1070
    74
1070
     0
1000
MTEXTEND
  0
POINT
  5
3F0
330
3E8
100
AcDbEntity
  8
Defpoints
 62
     0
100
AcDbPoint
 10
1296.170730480487
 20
315.7952359052085
 30
0.0
  0
POINT
  5
3F1
330
3E8
100
AcDbEntity
  8
Defpoints
 62
     0
100
AcDbPoint
 10
1288.175301909222
 20
442.7226644764694
 30
0.0
  0
POINT
  5
3F2
330
3E8
100
AcDbEntity
  8
Defpoints
 62
     0
100
AcDbPoint
 10
1418.45441812972
 20
442.7226644764693
 30
0.0
  0
ENDBLK
  5
3F3
330
3E8
100
AcDbEntity
  8
0
100
AcDbBlockEnd
  0
BLOCK
  5
3F5
330
3F4
100
AcDbEntity
  8
0
100
AcDbBlockBegin
  2
*D7
 70
     1
 10
0.0
 20
0.0
 30
0.0
  3
*D7
  1

  0
LINE
  5
3F6
330
3F4
100
AcDbEntity
  8
AM_5
  6
ByBlock
100
AcDbLine
 10
1289.175301908636
 20
51.08479910754841
 30
0.0
 11
1360.444549907724
 21
51.08479910754837
 31
0.0
  0
LINE
  5
3F7
330
3F4
100
AcDbEntity
  8
AM_5
  6
ByBlock
100
AcDbLine
 10
1291.374159051741
 20
135.0847991075475
 30
0.0
 11
1360.444549907724
 21
135.0847991075474
 31
0.0
  0
LINE
  5
3F8
330
3F4
100
AcDbEntity
  8
AM_5
  6
ByBlock
100
AcDbLine
 10
1359.444549907724
 20
58.08479910754838
 30
0.0
 11
1359.444549907724
 21
128.0847991075474
 31
0.0
  0
SOLID
  5
3F9
330
3F4
100
AcDbEntity
  8
AM_5
100
AcDbTrace
 10
1358.277883241057
 20
58.08479910754838
 30
0.0
 11
1360.61121657439
 21
58.08479910754837
 31
0.0
 12
1359.444549907724
 22
51.08479910754838
 32
0.0
 13
1359.444549907724
 23
51.08479910754838
 33
0.0
  0
SOLID
  5
3FA
330
3F4
100
AcDbEntity
  8
AM_5
100
AcDbTrace
 10
1358.277883241057
 20
128.0847991075474
 30
0.0
 11
1360.61121657439
 21
128.0847991075474
 31
0.0
 12
1359.444549907724
 22
135.0847991075474
 32
0.0
 13
1359.444549907724
 23
135.0847991075474
 33
0.0
  0
MTEXT
  5
3FB
330
3F4
100
AcDbEntity
  8
AM_5
 62
     2
100
AcDbMText
 10
1352.944549907723
 20
93.08479910754815
 30
0.0
 40
10.0
 41
0.0
 71
     5
 72
     1
  1
84
 11
0.0000000000000001
 21
1.0
 31
0.0
 73
     1
 44
1.0
1001
ACAD
1000
MTEXTBEGIN
1070
    73
1070
     1
1070
    44
1040
1.0
1070
    74
1070
     0
1000
MTEXTEND
  0
POINT
  5
3FC
330
3F4
100
AcDbEntity
  8
Defpoints
 62
     0
100
AcDbPoint
 10
1288.175301908636
 20
51.08479910754841
 30
0.0
  0
POINT
  5
3FD
330
3F4
100
AcDbEntity
  8
Defpoints
 62
     0
100
AcDbPoint
 10
1290.374159051741
 20
135.0847991075475
 30
0.0
  0
POINT
  5
3FE
330
3F4
100
AcDbEntity
  8
Defpoints
 62
     0
100
AcDbPoint
 10
1359.444549907724
 20
135.0847991075474
 30
0.0
  0
ENDBLK
  5
3FF
330
3F4
100
AcDbEntity
  8
0
100
AcDbBlockEnd
  0
BLOCK
  5
401
330
400
100
AcDbEntity
  8
0
100
AcDbBlockBegin
  2
*D8
 70
     1
 10
0.0
 20
0.0
 30
0.0
  3
*D8
  1

  0
LINE
  5
402
330
400
100
AcDbEntity
  8
AM_5
  6
ByBlock
100
AcDbLine
 10
1321.157016194856
 20
26.5847991075475
 30
0.0
 11
1396.341299847984
 21
26.58479910754748
 31
0.0
  0
LINE
  5
403
330
400
100
AcDbEntity
  8
AM_5
  6
ByBlock
100
AcDbLine
 10
1321.157016194856
 20
159.5847991075475
 30
0.0
 11
1396.341299847984
 21
159.5847991075475
 31
0.0
  0
LINE
  5
404
330
400
100
AcDbEntity
  8
AM_5
  6
ByBlock
100
AcDbLine
 10
1395.341299847984
 20
33.58479910754748
 30
0.0
 11
1395.341299847984
 21
152.5847991075474
 31
0.0
  0
SOLID
  5
405
330
400
100
AcDbEntity
  8
AM_5
100
AcDbTrace
 10
1394.174633181317
 20
33.58479910754748
 30
0.0
 11
1396.507966514651
 21
33.58479910754748
 31
0.0
 12
1395.341299847984
 22
26.58479910754748
 32
0.0
 13
1395.341299847984
 23
26.58479910754748
 33
0.0
  0
SOLID
  5
406
330
400
100
AcDbEntity
  8
AM_5
100
AcDbTrace
 10
1394.174633181317
 20
152.5847991075474
 30
0.0
 11
1396.507966514651
 21
152.5847991075474
 31
0.0
 12
1395.341299847984
 22
159.5847991075475
 32
0.0
 13
1395.341299847984
 23
159.5847991075475
 33
0.0
  0
MTEXT
  5
407
330
400
100
AcDbEntity
  8
AM_5
 62
     2
100
AcDbMText
 10
1388.841299847984
 20
93.08479910754769
 30
0.0
 40
10.0
 41
0.0
 71
     5
 72
     1
  1
133
 11
0.0000000000000001
 21
1.0
 31
0.0
 73
     1
 44
1.0
1001
ACAD
1000
MTEXTBEGIN
1070
    73
1070
     1
1070
    44
1040
1.0
1070
    74
1070
     0
1000
MTEXTEND
  0
POINT
  5
408
330
400
100
AcDbEntity
  8
Defpoints
 62
     0
100
AcDbPoint
 10
1320.157016194856
 20
26.5847991075475
 30
0.0
  0
POINT
  5
409
330
400
100
AcDbEntity
  8
Defpoints
 62
     0
100
AcDbPoint
 10
1320.157016194856
 20
159.5847991075475
 30
0.0
  0
POINT
  5
40A
330
400
100
AcDbEntity
  8
Defpoints
 62
     0
100
AcDbPoint
 10
1395.341299847984
 20
159.5847991075475
 30
0.0
  0
ENDBLK
  5
40B
330
400
100
AcDbEntity
  8
0
100
AcDbBlockEnd
  0
BLOCK
  5
40D
330
40C
100
AcDbEntity
  8
0
100
AcDbBlockBegin
  2
*D9
 70
     1
 10
0.0
 20
0.0
 30
0.0
  3
*D9
  1

  0
LINE
  5
40E
330
40C
100
AcDbEntity
  8
AM_5
  6
ByBlock
100
AcDbLine
 10
1290.374159051741
 20
133.4622848216247
 30
0.0
 11
1290.374159051741
 21
204.4235490663764
 31
0.0
  0
LINE
  5
40F
330
40C
100
AcDbEntity
  8
AM_5
  6
ByBlock
100
AcDbLine
 10
290.3741590517411
 20
133.4622848216247
 30
0.0
 11
290.3741590517411
 21
204.4235490663764
 31
0.0
  0
LINE
  5
410
330
40C
100
AcDbEntity
  8
AM_5
  6
ByBlock
100
AcDbLine
 10
1283.374159051741
 20
203.4235490663764
 30
0.0
 11
297.3741590517411
 21
203.4235490663764
 31
0.0
  0
SOLID
  5
411
330
40C
100
AcDbEntity
  8
AM_5
100
AcDbTrace
 10
1283.374159051741
 20
204.590215733043
 30
0.0
 11
1283.374159051741
 21
202.2568823997097
 31
0.0
 12
1290.374159051741
 22
203.4235490663764
 32
0.0
 13
1290.374159051741
 23
203.4235490663764
 33
0.0
  0
SOLID
  5
412
330
40C
100
AcDbEntity
  8
AM_5
100
AcDbTrace
 10
297.3741590517411
 20
204.590215733043
 30
0.0
 11
297.3741590517411
 21
202.2568823997097
 31
0.0
 12
290.3741590517411
 22
203.4235490663764
 32
0.0
 13
290.3741590517411
 23
203.4235490663764
 33
0.0
  0
MTEXT
  5
413
330
40C
100
AcDbEntity
  8
AM_5
 62
     2
100
AcDbMText
 10
794.557509882019
 20
209.9235490663764
 30
0.0
 40
10.0
 41
0.0
 71
     5
 72
     1
  1
1000
 73
     1
 44
1.0
1001
ACAD
1000
MTEXTBEGIN
1070
    73
1070
     1
1070
    44
1040
1.0
1070
    74
1070
     0
1000
MTEXTEND
  0
POINT
  5
414
330
40C
100
AcDbEntity
  8
Defpoints
 62
     0
100
AcDbPoint
 10
1290.374159051741
 20
132.4622848216247
 30
0.0
  0
POINT
  5
415
330
40C
100
AcDbEntity
  8
Defpoints
 62
     0
100
AcDbPoint
 10
290.3741590517411
 20
132.4622848216247
 30
0.0
  0
POINT
  5
416
330
40C
100
AcDbEntity
  8
Defpoints
 62
     0
100
AcDbPoint
 10
290.3741590517411
 20
203.4235490663764
 30
0.0
  0
ENDBLK
  5
417
330
40C
100
AcDbEntity
  8
0
100
AcDbBlockEnd
  0
BLOCK
  5
419
330
418
100
AcDbEntity
  8
0
100
AcDbBlockBegin
  2
*D10
 70
     1
 10
0.0
 20
0.0
 30
0.0
  3
*D10
  1

  0
LINE
  5
41A
330
418
100
AcDbEntity
  8
AM_5
  6
ByBlock
100
AcDbLine
 10
1320.157016194856
 20
154.4505705359945
 30
0.0
 11
1320.157016194856
 21
238.1819637086685
 31
0.0
  0
LINE
  5
41B
330
418
100
AcDbEntity
  8
AM_5
  6
ByBlock
100
AcDbLine
 10
267.5867304804706
 20
153.4508562503624
 30
0.0
 11
267.5867304804706
 21
238.1819637086685
 31
0.0
  0
LINE
  5
41C
330
418
100
AcDbEntity
  8
AM_5
  6
ByBlock
100
AcDbLine
 10
1313.157016194856
 20
237.1819637086685
 30
0.0
 11
274.5867304804706
 21
237.1819637086685
 31
0.0
  0
SOLID
  5
41D
330
418
100
AcDbEntity
  8
AM_5
100
AcDbTrace
 10
1313.157016194856
 20
238.3486303753351
 30
0.0
 11
1313.157016194856
 21
236.0152970420018
 31
0.0
 12
1320.157016194856
 22
237.1819637086685
 32
0.0
 13
1320.157016194856
 23
237.1819637086685
 33
0.0
  0
SOLID
  5
41E
330
418
100
AcDbEntity
  8
AM_5
100
AcDbTrace
 10
274.5867304804706
 20
238.3486303753351
 30
0.0
 11
274.5867304804706
 21
236.0152970420018
 31
0.0
 12
267.5867304804706
 22
237.1819637086685
 32
0.0
 13
267.5867304804706
 23
237.1819637086685
 33
0.0
  0
MTEXT
  5
41F
330
418
100
AcDbEntity
  8
AM_5
 62
     2
100
AcDbMText
 10
793.8718733376632
 20
243.6819637086685
 30
0.0
 40
10.0
 41
0.0
 71
     5
 72
     1
  1
1053
 73
     1
 44
1.0
1001
ACAD
1000
MTEXTBEGIN
1070
    73
1070
     1
1070
    44
1040
1.0
1070
    74
1070
     0
1000
MTEXTEND
  0
POINT
  5
420
330
418
100
AcDbEntity
  8
Defpoints
 62
     0
100
AcDbPoint
 10
1320.157016194856
 20
153.4505705359945
 30
0.0
  0
POINT
  5
421
330
418
100
AcDbEntity
  8
Defpoints
 62
     0
100
AcDbPoint
 10
267.5867304804706
 20
152.4508562503624
 30
0.0
  0
POINT
  5
422
330
418
100
AcDbEntity
  8
Defpoints
 62
     0
100
AcDbPoint
 10
267.5867304804706
 20
237.1819637086685
 30
0.0
  0
ENDBLK
  5
423
330
418
100
AcDbEntity
  8
0
100
AcDbBlockEnd
  0
BLOCK
  5
425
330
424
100
AcDbEntity
  8
0
100
AcDbBlockBegin
  2
*D11
 70
     1
 10
0.0
 20
0.0
 30
0.0
  3
*D11
  1

  0
LINE
  5
426
330
424
100
AcDbEntity
  8
AM_5
  6
ByBlock
100
AcDbLine
 10
13.37517738213932
 20
441.7226644765794
 30
0.0
 11
13.37517738213933
 21
505.8930938690634
 31
0.0
  0
LINE
  5
427
330
424
100
AcDbEntity
  8
AM_5
  6
ByBlock
100
AcDbLine
 10
93.37517738204041
 20
441.7226644764696
 30
0.0
 11
93.37517738204041
 21
505.8930938690634
 31
0.0
  0
LINE
  5
428
330
424
100
AcDbEntity
  8
AM_5
  6
ByBlock
100
AcDbLine
 10
20.37517738213933
 20
504.8930938690634
 30
0.0
 11
86.37517738204042
 21
504.8930938690634
 31
0.0
  0
SOLID
  5
429
330
424
100
AcDbEntity
  8
AM_5
100
AcDbTrace
 10
20.37517738213933
 20
506.0597605357301
 30
0.0
 11
20.37517738213933
 21
503.7264272023968
 31
0.0
 12
13.37517738213933
 22
504.8930938690634
 32
0.0
 13
13.37517738213933
 23
504.8930938690634
 33
0.0
  0
SOLID
  5
42A
330
424
100
AcDbEntity
  8
AM_5
100
AcDbTrace
 10
86.37517738204042
 20
506.0597605357301
 30
0.0
 11
86.37517738204042
 21
503.7264272023968
 31
0.0
 12
93.37517738204041
 22
504.8930938690634
 32
0.0
 13
93.37517738204041
 23
504.8930938690634
 33
0.0
  0
MTEXT
  5
42B
330
424
100
AcDbEntity
  8
AM_5
 62
     2
100
AcDbMText
 10
54.46524745914643
 20
511.3930938690635
 30
0.0
 40
10.0
 41
0.0
 71
     5
 72
     1
  1
80
 73
     1
 44
1.0
1001
ACAD
1000
MTEXTBEGIN
1070
    73
1070
     1
1070
    44
1040
1.0
1070
    74
1070
     0
1000
MTEXTEND
  0
POINT
  5
42C
330
424
100
AcDbEntity
  8
Defpoints
 62
     0
100
AcDbPoint
 10
13.37517738213932
 20
440.7226644765794
 30
0.0
  0
POINT
  5
42D
330
424
100
AcDbEntity
  8
Defpoints
 62
     0
100
AcDbPoint
 10
93.37517738204041
 20
440.7226644764696
 30
0.0
  0
POINT
  5
42E
330
424
100
AcDbEntity
  8
Defpoints
 62
     0
100
AcDbPoint
 10
93.37517738204041
 20
504.8930938690634
 30
0.0
  0
ENDBLK
  5
42F
330
424
100
AcDbEntity
  8
0
100
AcDbBlockEnd
  0
BLOCK
  5
431
330
430
100
AcDbEntity
  8
0
100
AcDbBlockBegin
  2
*D12
 70
     1
 10
0.0
 20
0.0
 30
0.0
  3
*D12
  1

  0
LINE
  5
432
330
430
100
AcDbEntity
  8
AM_5
  6
ByBlock
100
AcDbLine
 10
1675.03145915927
 20
442.7226644765188
 30
0.0
 11
1675.03145915927
 21
491.4532519754348
 31
0.0
  0
LINE
  5
433
330
430
100
AcDbEntity
  8
AM_5
  6
ByBlock
100
AcDbLine
 10
1595.031455012558
 20
441.7226644763542
 30
0.0
 11
1595.031455012558
 21
491.4532519754348
 31
0.0
  0
LINE
  5
434
330
430
100
AcDbEntity
  8
AM_5
  6
ByBlock
100
AcDbLine
 10
1668.031459159269
 20
490.4532519754348
 30
0.0
 11
1602.031455012557
 21
490.4532519754348
 31
0.0
  0
SOLID
  5
435
330
430
100
AcDbEntity
  8
AM_5
100
AcDbTrace
 10
1668.031459159269
 20
491.6199186421015
 30
0.0
 11
1668.031459159269
 21
489.2865853087681
 31
0.0
 12
1675.03145915927
 22
490.4532519754348
 32
0.0
 13
1675.03145915927
 23
490.4532519754348
 33
0.0
  0
SOLID
  5
436
330
430
100
AcDbEntity
  8
AM_5
100
AcDbTrace
 10
1602.031455012557
 20
491.6199186421015
 30
0.0
 11
1602.031455012557
 21
489.2865853087681
 31
0.0
 12
1595.031455012558
 22
490.4532519754348
 32
0.0
 13
1595.031455012558
 23
490.4532519754348
 33
0.0
  0
MTEXT
  5
437
330
430
100
AcDbEntity
  8
AM_5
 62
     2
100
AcDbMText
 10
1635.031457085913
 20
496.9532519754348
 30
0.0
 40
10.0
 41
0.0
 71
     5
 72
     1
  1
80
 73
     1
 44
1.0
1001
ACAD
1000
MTEXTBEGIN
1070
    73
1070
     1
1070
    44
1040
1.0
1070
    74
1070
     0
1000
MTEXTEND
  0
POINT
  5
438
330
430
100
AcDbEntity
  8
Defpoints
 62
     0
100
AcDbPoint
 10
1675.03145915927
 20
441.7226644765188
 30
0.0
  0
POINT
  5
439
330
430
100
AcDbEntity
  8
Defpoints
 62
     0
100
AcDbPoint
 10
1595.031455012558
 20
440.7226644763542
 30
0.0
  0
POINT
  5
43A
330
430
100
AcDbEntity
  8
Defpoints
 62
     0
100
AcDbPoint
 10
1595.031455012558
 20
490.4532519754348
 30
0.0
  0
ENDBLK
  5
43B
330
430
100
AcDbEntity
  8
0
100
AcDbBlockEnd
  0
BLOCK
  5
781
330
780
100
AcDbEntity
  8
0
100
AcDbBlockBegin
  2
*D14
 70
     1
 10
0.0
 20
0.0
 30
0.0
  3
*D14
  1

  0
LINE
  5
7EF
330
780
100
AcDbEntity
  8
AM_5
  6
ByBlock
100
AcDbLine
 10
1447.170730216316
 20
315.7952375239199
 30
0.0
 11
1569.454417865548
 21
315.7952375239199
 31
0.0
  0
LINE
  5
7F0
330
780
100
AcDbEntity
  8
AM_5
  6
ByBlock
100
AcDbLine
 10
1439.175301645051
 20
442.7226660951808
 30
0.0
 11
1569.454417865548
 21
442.7226660951808
 31
0.0
  0
LINE
  5
7F1
330
780
100
AcDbEntity
  8
AM_5
  6
ByBlock
100
AcDbLine
 10
1568.454417865549
 20
322.7952375239199
 30
0.0
 11
1568.454417865549
 21
435.7226660951807
 31
0.0
  0
SOLID
  5
7F2
330
780
100
AcDbEntity
  8
AM_5
100
AcDbTrace
 10
1567.287751198882
 20
322.7952375239199
 30
0.0
 11
1569.621084532215
 21
322.7952375239199
 31
0.0
 12
1568.454417865549
 22
315.7952375239199
 32
0.0
 13
1568.454417865549
 23
315.7952375239199
 33
0.0
  0
SOLID
  5
7F3
330
780
100
AcDbEntity
  8
AM_5
100
AcDbTrace
 10
1567.287751198882
 20
435.7226660951807
 30
0.0
 11
1569.621084532215
 21
435.7226660951807
 31
0.0
 12
1568.454417865549
 22
442.7226660951808
 32
0.0
 13
1568.454417865549
 23
442.7226660951808
 33
0.0
  0
MTEXT
  5
7F4
330
780
100
AcDbEntity
  8
AM_5
 62
     2
100
AcDbMText
 10
1561.954417865549
 20
379.2589518095506
 30
0.0
 40
10.0
 41
0.0
 71
     5
 72
     1
  1
105-160
 11
0.0000000000000001
 21
1.0
 31
0.0
 73
     1
 44
1.0
1001
ACAD
1000
MTEXTBEGIN
1070
    73
1070
     1
1070
    44
1040
1.0
1070
    74
1070
     0
1000
MTEXTEND
  0
POINT
  5
7F5
330
780
100
AcDbEntity
  8
Defpoints
 62
     0
100
AcDbPoint
 10
1446.170730216316
 20
315.7952375239199
 30
0.0
  0
POINT
  5
7F6
330
780
100
AcDbEntity
  8
Defpoints
 62
     0
100
AcDbPoint
 10
1438.175301645051
 20
442.7226660951808
 30
0.0
  0
POINT
  5
7F7
330
780
100
AcDbEntity
  8
Defpoints
 62
     0
100
AcDbPoint
 10
1568.454417865549
 20
442.7226660951808
 30
0.0
  0
ENDBLK
  5
782
330
780
100
AcDbEntity
  8
0
100
AcDbBlockEnd
  0
BLOCK
  5
78D
330
78C
100
AcDbEntity
  8
0
100
AcDbBlockBegin
  2
*D15
 70
     1
 10
0.0
 20
0.0
 30
0.0
  3
*D15
  1

  0
LINE
  5
7F8
330
78C
100
AcDbEntity
  8
AM_5
  6
ByBlock
100
AcDbLine
 10
1439.175301644465
 20
51.0848007262598
 30
0.0
 11
1510.444549643553
 21
51.08480072625978
 31
0.0
  0
LINE
  5
7F9
330
78C
100
AcDbEntity
  8
AM_5
  6
ByBlock
100
AcDbLine
 10
1441.37415878757
 20
135.0848007262589
 30
0.0
 11
1510.444549643553
 21
135.0848007262588
 31
0.0
  0
LINE
  5
7FA
330
78C
100
AcDbEntity
  8
AM_5
  6
ByBlock
100
AcDbLine
 10
1509.444549643553
 20
58.08480072625978
 30
0.0
 11
1509.444549643553
 21
128.0848007262588
 31
0.0
  0
SOLID
  5
7FB
330
78C
100
AcDbEntity
  8
AM_5
100
AcDbTrace
 10
1508.277882976886
 20
58.08480072625978
 30
0.0
 11
1510.611216310219
 21
58.08480072625978
 31
0.0
 12
1509.444549643553
 22
51.08480072625978
 32
0.0
 13
1509.444549643553
 23
51.08480072625978
 33
0.0
  0
SOLID
  5
7FC
330
78C
100
AcDbEntity
  8
AM_5
100
AcDbTrace
 10
1508.277882976886
 20
128.0848007262588
 30
0.0
 11
1510.611216310219
 21
128.0848007262588
 31
0.0
 12
1509.444549643553
 22
135.0848007262588
 32
0.0
 13
1509.444549643553
 23
135.0848007262588
 33
0.0
  0
MTEXT
  5
7FD
330
78C
100
AcDbEntity
  8
AM_5
 62
     2
100
AcDbMText
 10
1502.944549643553
 20
93.08480072625958
 30
0.0
 40
10.0
 41
0.0
 71
     5
 72
     1
  1
84
 11
0.0000000000000001
 21
1.0
 31
0.0
 73
     1
 44
1.0
1001
ACAD
1000
MTEXTBEGIN
1070
    73
1070
     1
1070
    44
1040
1.0
1070
    74
1070
     0
1000
MTEXTEND
  0
POINT
  5
7FE
330
78C
100
AcDbEntity
  8
Defpoints
 62
     0
100
AcDbPoint
 10
1438.175301644465
 20
51.0848007262598
 30
0.0
  0
POINT
  5
7FF
330
78C
100
AcDbEntity
  8
Defpoints
 62
     0
100
AcDbPoint
 10
1440.37415878757
 20
135.0848007262589
 30
0.0
  0
POINT
  5
800
330
78C
100
AcDbEntity
  8
Defpoints
 62
     0
100
AcDbPoint
 10
1509.444549643553
 20
135.0848007262588
 30
0.0
  0
ENDBLK
  5
78E
330
78C
100
AcDbEntity
  8
0
100
AcDbBlockEnd
  0
BLOCK
  5
799
330
798
100
AcDbEntity
  8
0
100
AcDbBlockBegin
  2
*D16
 70
     1
 10
0.0
 20
0.0
 30
0.0
  3
*D16
  1

  0
LINE
  5
801
330
798
100
AcDbEntity
  8
AM_5
  6
ByBlock
100
AcDbLine
 10
1471.157015930685
 20
26.58480072625889
 30
0.0
 11
1546.341299583813
 21
26.58480072625887
 31
0.0
  0
LINE
  5
802
330
798
100
AcDbEntity
  8
AM_5
  6
ByBlock
100
AcDbLine
 10
1471.157015930685
 20
159.5848007262589
 30
0.0
 11
1546.341299583813
 21
159.5848007262588
 31
0.0
  0
LINE
  5
803
330
798
100
AcDbEntity
  8
AM_5
  6
ByBlock
100
AcDbLine
 10
1545.341299583813
 20
33.58480072625888
 30
0.0
 11
1545.341299583813
 21
152.5848007262588
 31
0.0
  0
SOLID
  5
804
330
798
100
AcDbEntity
  8
AM_5
100
AcDbTrace
 10
1544.174632917147
 20
33.58480072625888
 30
0.0
 11
1546.50796625048
 21
33.58480072625888
 31
0.0
 12
1545.341299583813
 22
26.58480072625887
 32
0.0
 13
1545.341299583813
 23
26.58480072625887
 33
0.0
  0
SOLID
  5
805
330
798
100
AcDbEntity
  8
AM_5
100
AcDbTrace
 10
1544.174632917147
 20
152.5848007262588
 30
0.0
 11
1546.50796625048
 21
152.5848007262588
 31
0.0
 12
1545.341299583813
 22
159.5848007262588
 32
0.0
 13
1545.341299583813
 23
159.5848007262588
 33
0.0
  0
MTEXT
  5
806
330
798
100
AcDbEntity
  8
AM_5
 62
     2
100
AcDbMText
 10
1538.841299583813
 20
93.0848007262591
 30
0.0
 40
10.0
 41
0.0
 71
     5
 72
     1
  1
133
 11
0.0000000000000001
 21
1.0
 31
0.0
 73
     1
 44
1.0
1001
ACAD
1000
MTEXTBEGIN
1070
    73
1070
     1
1070
    44
1040
1.0
1070
    74
1070
     0
1000
MTEXTEND
  0
POINT
  5
807
330
798
100
AcDbEntity
  8
Defpoints
 62
     0
100
AcDbPoint
 10
1470.157015930685
 20
26.58480072625889
 30
0.0
  0
POINT
  5
808
330
798
100
AcDbEntity
  8
Defpoints
 62
     0
100
AcDbPoint
 10
1470.157015930685
 20
159.5848007262589
 30
0.0
  0
POINT
  5
809
330
798
100
AcDbEntity
  8
Defpoints
 62
     0
100
AcDbPoint
 10
1545.341299583813
 20
159.5848007262588
 30
0.0
  0
ENDBLK
  5
79A
330
798
100
AcDbEntity
  8
0
100
AcDbBlockEnd
  0
BLOCK
  5
7A5
330
7A4
100
AcDbEntity
  8
0
100
AcDbBlockBegin
  2
*D17
 70
     1
 10
0.0
 20
0.0
 30
0.0
  3
*D17
  1

  0
LINE
  5
82B
330
7A4
100
AcDbEntity
  8
AM_5
  6
ByBlock
100
AcDbLine
 10
1440.37415878757
 20
133.4622864403361
 30
0.0
 11
1440.37415878757
 21
204.4235506850878
 31
0.0
  0
LINE
  5
82C
330
7A4
100
AcDbEntity
  8
AM_5
  6
ByBlock
100
AcDbLine
 10
240.3741587875702
 20
133.4622864403361
 30
0.0
 11
240.3741587875702
 21
204.4235506850878
 31
0.0
  0
LINE
  5
82D
330
7A4
100
AcDbEntity
  8
AM_5
  6
ByBlock
100
AcDbLine
 10
1433.37415878757
 20
203.4235506850878
 30
0.0
 11
247.3741587875702
 21
203.4235506850878
 31
0.0
  0
SOLID
  5
82E
330
7A4
100
AcDbEntity
  8
AM_5
100
AcDbTrace
 10
1433.37415878757
 20
204.5902173517544
 30
0.0
 11
1433.37415878757
 21
202.2568840184211
 31
0.0
 12
1440.37415878757
 22
203.4235506850878
 32
0.0
 13
1440.37415878757
 23
203.4235506850878
 33
0.0
  0
SOLID
  5
82F
330
7A4
100
AcDbEntity
  8
AM_5
100
AcDbTrace
 10
247.3741587875702
 20
204.5902173517544
 30
0.0
 11
247.3741587875702
 21
202.2568840184211
 31
0.0
 12
240.3741587875702
 22
203.4235506850878
 32
0.0
 13
240.3741587875702
 23
203.4235506850878
 33
0.0
  0
MTEXT
  5
830
330
7A4
100
AcDbEntity
  8
AM_5
 62
     2
100
AcDbMText
 10
846.5292358750684
 20
209.9245349370563
 30
0.0
 40
10.0
 41
0.0
 71
     5
 72
     1
  1
1200
 73
     1
 44
1.0
1001
ACAD
1000
MTEXTBEGIN
1070
    73
1070
     1
1070
    44
1040
1.0
1070
    74
1070
     0
1000
MTEXTEND
  0
POINT
  5
831
330
7A4
100
AcDbEntity
  8
Defpoints
 62
     0
100
AcDbPoint
 10
1440.37415878757
 20
132.4622864403361
 30
0.0
  0
POINT
  5
832
330
7A4
100
AcDbEntity
  8
Defpoints
 62
     0
100
AcDbPoint
 10
240.3741587875702
 20
132.4622864403361
 30
0.0
  0
POINT
  5
833
330
7A4
100
AcDbEntity
  8
Defpoints
 62
     0
100
AcDbPoint
 10
240.3741587875702
 20
203.4235506850878
 30
0.0
  0
ENDBLK
  5
7A6
330
7A4
100
AcDbEntity
  8
0
100
AcDbBlockEnd
  0
BLOCK
  5
7B1
330
7B0
100
AcDbEntity
  8
0
100
AcDbBlockBegin
  2
*D18
 70
     1
 10
0.0
 20
0.0
 30
0.0
  3
*D18
  1

  0
LINE
  5
819
330
7B0
100
AcDbEntity
  8
AM_5
  6
ByBlock
100
AcDbLine
 10
1470.157015930685
 20
154.4505721547059
 30
0.0
 11
1470.157015930685
 21
238.1819653273799
 31
0.0
  0
LINE
  5
81A
330
7B0
100
AcDbEntity
  8
AM_5
  6
ByBlock
100
AcDbLine
 10
217.5867302162997
 20
153.4508578690738
 30
0.0
 11
217.5867302162997
 21
238.1819653273799
 31
0.0
  0
LINE
  5
81B
330
7B0
100
AcDbEntity
  8
AM_5
  6
ByBlock
100
AcDbLine
 10
1463.157015930685
 20
237.1819653273799
 30
0.0
 11
224.5867302162996
 21
237.1819653273799
 31
0.0
  0
SOLID
  5
81C
330
7B0
100
AcDbEntity
  8
AM_5
100
AcDbTrace
 10
1463.157015930685
 20
238.3486319940466
 30
0.0
 11
1463.157015930685
 21
236.0152986607132
 31
0.0
 12
1470.157015930685
 22
237.1819653273799
 32
0.0
 13
1470.157015930685
 23
237.1819653273799
 33
0.0
  0
SOLID
  5
81D
330
7B0
100
AcDbEntity
  8
AM_5
100
AcDbTrace
 10
224.5867302162996
 20
238.3486319940466
 30
0.0
 11
224.5867302162996
 21
236.0152986607132
 31
0.0
 12
217.5867302162997
 22
237.1819653273799
 32
0.0
 13
217.5867302162997
 23
237.1819653273799
 33
0.0
  0
MTEXT
  5
81E
330
7B0
100
AcDbEntity
  8
AM_5
 62
     2
100
AcDbMText
 10
843.8718730734922
 20
243.6829495793484
 30
0.0
 40
10.0
 41
0.0
 71
     5
 72
     1
  1
1253
 73
     1
 44
1.0
1001
ACAD
1000
MTEXTBEGIN
1070
    73
1070
     1
1070
    44
1040
1.0
1070
    74
1070
     0
1000
MTEXTEND
  0
POINT
  5
81F
330
7B0
100
AcDbEntity
  8
Defpoints
 62
     0
100
AcDbPoint
 10
1470.157015930685
 20
153.4505721547059
 30
0.0
  0
POINT
  5
820
330
7B0
100
AcDbEntity
  8
Defpoints
 62
     0
100
AcDbPoint
 10
217.5867302162997
 20
152.4508578690738
 30
0.0
  0
POINT
  5
821
330
7B0
100
AcDbEntity
  8
Defpoints
 62
     0
100
AcDbPoint
 10
217.5867302162997
 20
237.1819653273799
 30
0.0
  0
ENDBLK
  5
7B2
330
7B0
100
AcDbEntity
  8
0
100
AcDbBlockEnd
  0
BLOCK
  5
7BD
330
7BC
100
AcDbEntity
  8
0
100
AcDbBlockBegin
  2
*D19
 70
     1
 10
0.0
 20
0.0
 30
0.0
  3
*D19
  1

  0
LINE
  5
7E6
330
7BC
100
AcDbEntity
  8
AM_5
  6
ByBlock
100
AcDbLine
 10
-36.6248228820316
 20
441.7226660952908
 30
0.0
 11
-36.62482288203159
 21
505.8930954877748
 31
0.0
  0
LINE
  5
7E7
330
7BC
100
AcDbEntity
  8
AM_5
  6
ByBlock
100
AcDbLine
 10
43.3751771178695
 20
441.722666095181
 30
0.0
 11
43.3751771178695
 21
505.8930954877748
 31
0.0
  0
LINE
  5
7E8
330
7BC
100
AcDbEntity
  8
AM_5
  6
ByBlock
100
AcDbLine
 10
-29.62482288203159
 20
504.8930954877748
 30
0.0
 11
36.37517711786951
 21
504.8930954877748
 31
0.0
  0
SOLID
  5
7E9
330
7BC
100
AcDbEntity
  8
AM_5
100
AcDbTrace
 10
-29.62482288203159
 20
506.0597621544415
 30
0.0
 11
-29.62482288203159
 21
503.7264288211082
 31
0.0
 12
-36.62482288203159
 22
504.8930954877748
 32
0.0
 13
-36.62482288203159
 23
504.8930954877748
 33
0.0
  0
SOLID
  5
7EA
330
7BC
100
AcDbEntity
  8
AM_5
100
AcDbTrace
 10
36.37517711786951
 20
506.0597621544415
 30
0.0
 11
36.37517711786951
 21
503.7264288211082
 31
0.0
 12
43.3751771178695
 22
504.8930954877748
 32
0.0
 13
43.3751771178695
 23
504.8930954877748
 33
0.0
  0
MTEXT
  5
7EB
330
7BC
100
AcDbEntity
  8
AM_5
 62
     2
100
AcDbMText
 10
4.465247194975518
 20
511.3930954877749
 30
0.0
 40
10.0
 41
0.0
 71
     5
 72
     1
  1
80
 73
     1
 44
1.0
1001
ACAD
1000
MTEXTBEGIN
1070
    73
1070
     1
1070
    44
1040
1.0
1070
    74
1070
     0
1000
MTEXTEND
  0
POINT
  5
7EC
330
7BC
100
AcDbEntity
  8
Defpoints
 62
     0
100
AcDbPoint
 10
-36.6248228820316
 20
440.7226660952908
 30
0.0
  0
POINT
  5
7ED
330
7BC
100
AcDbEntity
  8
Defpoints
 62
     0
100
AcDbPoint
 10
43.3751771178695
 20
440.722666095181
 30
0.0
  0
POINT
  5
7EE
330
7BC
100
AcDbEntity
  8
Defpoints
 62
     0
100
AcDbPoint
 10
43.3751771178695
 20
504.8930954877748
 30
0.0
  0
ENDBLK
  5
7BE
330
7BC
100
AcDbEntity
  8
0
100
AcDbBlockEnd
  0
BLOCK
  5
7C9
330
7C8
100
AcDbEntity
  8
0
100
AcDbBlockBegin
  2
*D20
 70
     1
 10
0.0
 20
0.0
 30
0.0
  3
*D20
  1

  0
LINE
  5
80A
330
7C8
100
AcDbEntity
  8
AM_5
  6
ByBlock
100
AcDbLine
 10
1825.031458895099
 20
442.7226660952301
 30
0.0
 11
1825.031458895099
 21
491.4532535941462
 31
0.0
  0
LINE
  5
80B
330
7C8
100
AcDbEntity
  8
AM_5
  6
ByBlock
100
AcDbLine
 10
1745.031454748386
 20
441.7226660950656
 30
0.0
 11
1745.031454748386
 21
491.4532535941462
 31
0.0
  0
LINE
  5
80C
330
7C8
100
AcDbEntity
  8
AM_5
  6
ByBlock
100
AcDbLine
 10
1818.031458895099
 20
490.4532535941462
 30
0.0
 11
1752.031454748387
 21
490.4532535941462
 31
0.0
  0
SOLID
  5
80D
330
7C8
100
AcDbEntity
  8
AM_5
100
AcDbTrace
 10
1818.031458895099
 20
491.6199202608129
 30
0.0
 11
1818.031458895099
 21
489.2865869274795
 31
0.0
 12
1825.031458895099
 22
490.4532535941462
 32
0.0
 13
1825.031458895099
 23
490.4532535941462
 33
0.0
  0
SOLID
  5
80E
330
7C8
100
AcDbEntity
  8
AM_5
100
AcDbTrace
 10
1752.031454748387
 20
491.6199202608129
 30
0.0
 11
1752.031454748387
 21
489.2865869274795
 31
0.0
 12
1745.031454748386
 22
490.4532535941462
 32
0.0
 13
1745.031454748386
 23
490.4532535941462
 33
0.0
  0
MTEXT
  5
80F
330
7C8
100
AcDbEntity
  8
AM_5
 62
     2
100
AcDbMText
 10
1785.031456821743
 20
496.9532535941462
 30
0.0
 40
10.0
 41
0.0
 71
     5
 72
     1
  1
80
 73
     1
 44
1.0
1001
ACAD
1000
MTEXTBEGIN
1070
    73
1070
     1
1070
    44
1040
1.0
1070
    74
1070
     0
1000
MTEXTEND
  0
POINT
  5
810
330
7C8
100
AcDbEntity
  8
Defpoints
 62
     0
100
AcDbPoint
 10
1825.031458895099
 20
441.7226660952302
 30
0.0
  0
POINT
  5
811
330
7C8
100
AcDbEntity
  8
Defpoints
 62
     0
100
AcDbPoint
 10
1745.031454748386
 20
440.7226660950656
 30
0.0
  0
POINT
  5
812
330
7C8
100
AcDbEntity
  8
Defpoints
 62
     0
100
AcDbPoint
 10
1745.031454748386
 20
490.4532535941462
 30
0.0
  0
ENDBLK
  5
7CA
330
7C8
100
AcDbEntity
  8
0
100
AcDbBlockEnd
  0
ENDSEC
  0
SECTION
  2
ENTITIES
  0
LINE
  5
5F6
330
1F
100
AcDbEntity
  8
0
  6
Continuous
 62
     7
100
AcDbLine
 10
217.6577036106419
 20
426.7318089520747
 30
0.0
 11
217.6577036106419
 21
482.6998089520741
 31
0.0
  0
LINE
  5
5F7
330
1F
100
AcDbEntity
  8
0
  6
Continuous
 62
     7
100
AcDbLine
 10
218.6571321819065
 20
423.6499022225477
 30
0.0
 11
218.6571321819065
 21
426.7318089520747
 31
0.0
  0
LINE
  5
5F8
330
1F
100
AcDbEntity
  8
0
  6
Continuous
 62
     7
100
AcDbLine
 10
218.6571321819065
 20
426.7318089520747
 30
0.0
 11
218.6571321819065
 21
482.6998089520741
 31
0.0
  0
LINE
  5
5F9
330
1F
100
AcDbEntity
  8
0
  6
Continuous
 62
     7
100
AcDbLine
 10
237.6462750387946
 20
423.6499022225477
 30
0.0
 11
237.6462750387946
 21
357.7712375239187
 31
0.0
  0
LINE
  5
5FA
330
1F
100
AcDbEntity
  8
0
  6
Continuous
 62
     7
100
AcDbLine
 10
238.6457036106458
 20
423.6499022225477
 30
0.0
 11
238.6457036106458
 21
421.9205129083659
 31
0.0
  0
LINE
  5
5FB
330
1F
100
AcDbEntity
  8
0
  6
Continuous
 62
     7
100
AcDbLine
 10
238.6457036106458
 20
421.9205129083659
 30
0.0
 11
238.6457036106458
 21
357.7712375239187
 31
0.0
  0
LINE
  5
5FC
330
1F
100
AcDbEntity
  8
0
  6
Continuous
 62
     7
100
AcDbLine
 10
238.6457036106458
 20
357.7712375239187
 30
0.0
 11
238.6457036106458
 21
319.7929518095498
 31
0.0
  0
LINE
  5
5FD
330
1F
100
AcDbEntity
  8
0
  6
Continuous
 62
     7
100
AcDbLine
 10
238.6457036106458
 20
442.7226660951808
 30
0.0
 11
238.6457036106458
 21
443.012830585016
 31
0.0
  0
LINE
  5
5FE
330
1F
100
AcDbEntity
  8
0
  6
Continuous
 62
     7
100
AcDbLine
 10
240.6445607531623
 20
397.7483803808118
 30
0.0
 11
240.6445607531623
 21
319.7929518095498
 31
0.0
  0
LINE
  5
5FF
330
1F
100
AcDbEntity
  8
0
  6
Continuous
 62
     7
100
AcDbLine
 10
300.6102750388036
 20
317.7940946664419
 30
0.0
 11
300.6102750388036
 21
315.7952375239188
 31
0.0
  0
LINE
  5
600
330
1F
100
AcDbEntity
  8
0
  6
Continuous
 62
     7
100
AcDbLine
 10
242.6434178962754
 20
315.7952375239188
 30
0.0
 11
300.6102750388036
 21
315.7952375239188
 31
0.0
  0
LINE
  5
601
330
1F
100
AcDbEntity
  8
0
  6
Continuous
 62
     7
100
AcDbLine
 10
1376.210730216311
 20
315.7952375239188
 30
0.0
 11
1434.177587359414
 21
315.7952375239188
 31
0.0
  0
LINE
  5
602
330
1F
100
AcDbEntity
  8
0
  6
Continuous
 62
     7
100
AcDbLine
 10
242.6434178962754
 20
317.7940946664419
 30
0.0
 11
300.6102750388036
 21
317.7940946664419
 31
0.0
  0
LINE
  5
603
330
1F
100
AcDbEntity
  8
0
  6
Continuous
 62
     7
100
AcDbLine
 10
1376.210730216311
 20
317.7940946664419
 30
0.0
 11
1434.177587359414
 21
317.7940946664419
 31
0.0
  0
LINE
  5
604
330
1F
100
AcDbEntity
  8
0
  6
Continuous
 62
     7
100
AcDbLine
 10
803.3934271024099
 20
417.3551526308329
 30
0.0
 11
803.3953014684012
 21
417.2939717736459
 31
0.0
  0
LINE
  5
605
330
1F
100
AcDbEntity
  8
0
  6
Continuous
 62
     7
100
AcDbLine
 10
802.8955873594222
 20
411.7403803808117
 30
0.0
 11
802.8955873594222
 21
342.2800946664429
 31
0.0
  0
LINE
  5
606
330
1F
100
AcDbEntity
  8
0
  6
Continuous
 62
     7
100
AcDbLine
 10
803.3953016450505
 20
417.2939715806719
 30
0.0
 11
803.3953016450505
 21
411.7403803808117
 31
0.0
  0
LINE
  5
607
330
1F
100
AcDbEntity
  8
0
  6
Continuous
 62
     7
100
AcDbLine
 10
871.2953080384522
 20
335.783808952074
 30
0.0
 11
809.3918730737915
 21
335.783808952074
 31
0.0
  0
LINE
  5
608
330
1F
100
AcDbEntity
  8
0
  6
Continuous
 62
     7
100
AcDbLine
 10
1438.175301645051
 20
342.7798089520731
 30
0.0
 11
1439.174730216317
 21
342.7798089520731
 31
0.0
  0
LINE
  5
609
330
1F
100
AcDbEntity
  8
0
  6
Continuous
 62
     7
100
AcDbLine
 10
803.3826176148776
 20
417.4526928613579
 30
0.0
 11
803.3934271024099
 21
417.3551526308329
 31
0.0
  0
LINE
  5
60A
330
1F
100
AcDbEntity
  8
0
  6
Continuous
 62
     7
100
AcDbLine
 10
238.6457036106458
 20
357.7712375239187
 30
0.0
 11
237.6462750387946
 21
357.7712375239187
 31
0.0
  0
LINE
  5
60B
330
1F
100
AcDbEntity
  8
0
  6
Continuous
 62
     7
100
AcDbLine
 10
1438.175301645051
 20
397.7483803808118
 30
0.0
 11
1436.176444501949
 21
397.7483803808118
 31
0.0
  0
LINE
  5
60C
330
1F
100
AcDbEntity
  8
0
  6
Continuous
 62
     7
100
AcDbLine
 10
238.6457036106458
 20
397.7483803808118
 30
0.0
 11
240.6445607531623
 21
397.7483803808118
 31
0.0
  0
LINE
  5
60D
330
1F
100
AcDbEntity
  8
0
  6
Continuous
 62
     7
100
AcDbLine
 10
877.3530159306901
 20
417.2939715806719
 30
0.0
 11
877.3530159306901
 21
411.7403803808117
 31
0.0
  0
LINE
  5
60E
330
1F
100
AcDbEntity
  8
0
  6
Continuous
 62
     7
100
AcDbLine
 10
877.852730216311
 20
411.7403803808117
 30
0.0
 11
877.852730216311
 21
342.2800946664429
 31
0.0
  0
LINE
  5
60F
330
1F
100
AcDbEntity
  8
0
  6
Continuous
 62
     7
100
AcDbLine
 10
877.3530160035644
 20
417.2939722184728
 30
0.0
 11
877.3548822763368
 21
417.3550203026591
 31
0.0
  0
LINE
  5
610
330
1F
100
AcDbEntity
  8
0
  6
Continuous
 62
     7
100
AcDbLine
 10
877.3548822763368
 20
417.3550203026591
 30
0.0
 11
877.3656635513306
 21
417.4524667704599
 31
0.0
  0
LWPOLYLINE
  5
611
330
1F
100
AcDbEntity
  8
0
  6
Continuous
 62
     7
100
AcDbPolyline
 90
       16
 70
     0
 43
0.0
 10
877.3656635513306
 20
417.4524667704599
 10
877.3859550056785
 20
417.5484425088239
 10
877.4155725996516
 20
417.642006734148
 10
877.4542385571166
 20
417.7322449427268
 10
877.5015847170251
 20
417.818275992435
 10
877.5571555908317
 20
417.8992591698749
 10
877.6204132566762
 20
417.974403650704
 10
877.6907409798495
 20
418.0429749312956
 10
877.7674584599807
 20
418.1043103516949
 10
877.8498194039984
 20
418.1578150991558
 10
877.9370306818236
 20
418.20297597452
 10
878.0282508903528
 20
418.2393583507041
 10
878.1226006510477
 20
418.266612036514
 10
878.2191705270433
 20
418.2844743339019
 10
878.3170297518427
 20
418.2927725879967
 10
878.3524445019411
 20
418.2934002457968
  0
LINE
  5
612
330
1F
100
AcDbEntity
  8
0
  6
Continuous
 62
     7
100
AcDbLine
 10
238.6457036106458
 20
407.7426660951809
 30
0.0
 11
237.6462750387946
 21
407.7426660951809
 31
0.0
  0
LINE
  5
613
330
1F
100
AcDbEntity
  8
0
  6
Continuous
 62
     7
100
AcDbLine
 10
802.895559004639
 20
411.7403803808117
 30
0.0
 11
877.8527585711053
 21
411.7403803808117
 31
0.0
  0
LINE
  5
614
330
1F
100
AcDbEntity
  8
0
  6
Continuous
 62
     7
100
AcDbLine
 10
1438.175301645051
 20
412.7398089520741
 30
0.0
 11
1439.174730216317
 21
412.7398089520741
 31
0.0
  0
LINE
  5
615
330
1F
100
AcDbEntity
  8
0
  6
Continuous
 62
     7
100
AcDbLine
 10
238.6457036106458
 20
418.2934001519338
 30
0.0
 11
840.3741587875702
 21
418.2934001519338
 31
0.0
  0
LINE
  5
616
330
1F
100
AcDbEntity
  8
0
  6
Continuous
 62
     7
100
AcDbLine
 10
840.3741587875702
 20
418.2934001519338
 30
0.0
 11
1438.175301645051
 21
418.2934001519338
 31
0.0
  0
LINE
  5
617
330
1F
100
AcDbEntity
  8
0
  6
Continuous
 62
     7
100
AcDbLine
 10
218.6571321819065
 20
423.6499022225477
 30
0.0
 11
238.6457036106458
 21
423.6499022225477
 31
0.0
  0
LINE
  5
618
330
1F
100
AcDbEntity
  8
0
  6
Continuous
 62
     7
100
AcDbLine
 10
217.6690223441783
 20
426.7318089520747
 30
0.0
 11
1438.175301645051
 21
426.7318089520747
 31
0.0
  0
LINE
  5
619
330
1F
100
AcDbEntity
  8
0
  6
Continuous
 62
     7
100
AcDbLine
 10
1439.174730216317
 20
426.7318089520747
 30
0.0
 11
1470.157015930685
 21
426.7318089520747
 31
0.0
  0
LWPOLYLINE
  5
61A
330
1F
100
AcDbEntity
  8
0
  6
Continuous
 62
     7
100
AcDbPolyline
 90
       16
 70
     0
 43
0.0
 10
802.3958730737849
 20
418.293400393296
 10
802.431234034555
 20
418.2927746430741
 10
802.5290718871655
 20
418.284484595285
 10
802.6256233759195
 20
418.2666342890408
 10
802.7199571128567
 20
418.2393960673059
 10
802.8111630821932
 20
418.2030326910919
 10
802.8983614086827
 20
418.1578947981709
 10
802.9807106763746
 20
418.1044176196119
 10
803.0574167069627
 20
418.0431162708998
 10
803.127737480192
 20
417.9745831977959
 10
803.1909939001616
 20
417.8994800324289
 10
803.2465736314971
 20
417.8185343523819
 10
803.2939398203724
 20
417.7325301095977
 10
803.3326357988334
 20
417.6423004268126
 10
803.362289643168
 20
417.5487191528167
 10
803.3826176148776
 20
417.4526928613579
  0
LINE
  5
61B
330
1F
100
AcDbEntity
  8
0
  6
Continuous
 62
     7
100
AcDbLine
 10
218.6571321819065
 20
427.7312375239187
 30
0.0
 11
1438.175301645051
 21
427.7312375239187
 31
0.0
  0
LINE
  5
61C
330
1F
100
AcDbEntity
  8
0
  6
Continuous
 62
     7
100
AcDbLine
 10
1439.174730216317
 20
427.7312375239187
 30
0.0
 11
1470.157015930685
 21
427.7312375239187
 31
0.0
  0
LINE
  5
61D
330
1F
100
AcDbEntity
  8
0
  6
Continuous
 62
     7
100
AcDbLine
 10
1440.174158787571
 20
429.7400889520747
 30
0.0
 11
1439.174730216317
 21
429.7400889520747
 31
0.0
  0
LINE
  5
61E
330
1F
100
AcDbEntity
  8
0
  6
Continuous
 62
     7
100
AcDbLine
 10
1440.174158787571
 20
430.73951752392
 30
0.0
 11
1439.174730216317
 21
430.73951752392
 31
0.0
  0
LINE
  5
61F
330
1F
100
AcDbEntity
  8
0
  6
Continuous
 62
     7
100
AcDbLine
 10
1438.175301645051
 20
442.7226660951808
 30
0.0
 11
218.6571321819065
 21
442.7226660951808
 31
0.0
  0
LINE
  5
620
330
1F
100
AcDbEntity
  8
0
  6
Continuous
 62
     7
100
AcDbLine
 10
218.9528097331213
 20
443.012830585016
 30
0.0
 11
238.6457036106458
 21
443.012830585016
 31
0.0
  0
LINE
  5
621
330
1F
100
AcDbEntity
  8
0
  6
Continuous
 62
     7
100
AcDbLine
 10
1439.174730216317
 20
443.2223803808117
 30
0.0
 11
1438.175301645051
 21
443.2223803808117
 31
0.0
  0
LINE
  5
622
330
1F
100
AcDbEntity
  8
0
  6
Continuous
 62
     7
100
AcDbLine
 10
1470.157015930685
 20
482.6998089520741
 30
0.0
 11
218.6571321819065
 21
482.6998089520741
 31
0.0
  0
LINE
  5
623
330
1F
100
AcDbEntity
  8
0
  6
Continuous
 62
     7
100
AcDbLine
 10
217.6577036106419
 20
482.6998089520741
 30
0.0
 11
218.6571321819065
 21
482.6998089520741
 31
0.0
  0
LINE
  5
624
330
1F
100
AcDbEntity
  8
0
  6
Continuous
 62
     7
100
AcDbLine
 10
1376.210730216311
 20
317.7940946664419
 30
0.0
 11
1376.210730216311
 21
315.7952375239188
 31
0.0
  0
LINE
  5
625
330
1F
100
AcDbEntity
  8
0
  6
Continuous
 62
     7
100
AcDbLine
 10
1436.176444501949
 20
319.7929518095498
 30
0.0
 11
1436.176444501949
 21
397.7483803808118
 31
0.0
  0
LINE
  5
626
330
1F
100
AcDbEntity
  8
0
  6
Continuous
 62
     7
100
AcDbLine
 10
1438.175301645051
 20
427.7312375239187
 30
0.0
 11
1438.175301645051
 21
426.7318089520747
 31
0.0
  0
LINE
  5
627
330
1F
100
AcDbEntity
  8
0
  6
Continuous
 62
     7
100
AcDbLine
 10
1438.175301645051
 20
319.7929518095498
 30
0.0
 11
1438.175301645051
 21
342.7798089520731
 31
0.0
  0
LINE
  5
628
330
1F
100
AcDbEntity
  8
0
  6
Continuous
 62
     7
100
AcDbLine
 10
1438.175301645051
 20
342.7798089520731
 30
0.0
 11
1438.175301645051
 21
426.7318089520747
 31
0.0
  0
LINE
  5
629
330
1F
100
AcDbEntity
  8
0
  6
Continuous
 62
     7
100
AcDbLine
 10
1438.175301645051
 20
427.7312375239187
 30
0.0
 11
1438.175301645051
 21
443.7220946664435
 31
0.0
  0
LINE
  5
62A
330
1F
100
AcDbEntity
  8
0
  6
Continuous
 62
     7
100
AcDbLine
 10
1439.174730216317
 20
342.7798089520731
 30
0.0
 11
1439.174730216317
 21
430.73951752392
 31
0.0
  0
LINE
  5
62B
330
1F
100
AcDbEntity
  8
0
  6
Continuous
 62
     7
100
AcDbLine
 10
1440.174158787571
 20
428.7306660951797
 30
0.0
 11
1440.174158787571
 21
441.7232375239198
 31
0.0
  0
LINE
  5
62C
330
1F
100
AcDbEntity
  8
0
  6
Continuous
 62
     7
100
AcDbLine
 10
1440.673873073792
 20
427.865135563007
 30
0.0
 11
1440.673873073792
 21
441.7232375239198
 31
0.0
  0
LINE
  5
62D
330
1F
100
AcDbEntity
  8
0
  6
Continuous
 62
     7
100
AcDbLine
 10
1470.157015930685
 20
482.6998089520741
 30
0.0
 11
1470.157015930685
 21
427.7312375239187
 31
0.0
  0
LINE
  5
62E
330
1F
100
AcDbEntity
  8
0
  6
Continuous
 62
     7
100
AcDbLine
 10
1470.157015930685
 20
426.7318089520747
 30
0.0
 11
1470.157015930685
 21
427.7312375239187
 31
0.0
  0
CIRCLE
  5
62F
330
1F
100
AcDbEntity
  8
0
  6
Continuous
 62
     7
100
AcDbCircle
 10
840.3741587875702
 20
378.7592375239201
 30
0.0
 40
24.985714285631
  0
CIRCLE
  5
630
330
1F
100
AcDbEntity
  8
0
  6
Continuous
 62
     7
100
AcDbCircle
 10
840.3741587875702
 20
378.7592375239201
 30
0.0
 40
23.48657142873801
  0
ARC
  5
631
330
1F
100
AcDbEntity
  8
0
  6
Continuous
 62
     7
100
AcDbCircle
 10
1441.17358735942
 20
428.7306660951797
 30
0.0
 40
1.998857143106999
100
AcDbArc
 50
180.0
 51
210.0383073756208
  0
ARC
  5
632
330
1F
100
AcDbEntity
  8
0
  6
Continuous
 62
     7
100
AcDbCircle
 10
1434.177587359414
 20
319.7929518095498
 30
0.0
 40
3.997714285630998
100
AcDbArc
 50
270.0
 51
0.0
  0
ARC
  5
633
330
1F
100
AcDbEntity
  8
0
  6
Continuous
 62
     7
100
AcDbCircle
 10
242.6434178962754
 20
319.7929518095498
 30
0.0
 40
3.997714285630998
100
AcDbArc
 50
180.0
 51
270.0
  0
ARC
  5
634
330
1F
100
AcDbEntity
  8
0
  6
Continuous
 62
     7
100
AcDbCircle
 10
809.3918730737915
 20
342.2800946664429
 30
0.0
 40
6.496285714368996
100
AcDbArc
 50
180.0
 51
270.0
  0
ARC
  5
635
330
1F
100
AcDbEntity
  8
0
  6
Continuous
 62
     7
100
AcDbCircle
 10
871.356444501951
 20
342.2800946664429
 30
0.0
 40
6.496285714368996
100
AcDbArc
 50
270.0
 51
0.0
  0
CIRCLE
  5
636
330
1F
100
AcDbEntity
  8
0
  6
Continuous
 62
     7
100
AcDbCircle
 10
840.3741587875702
 20
378.7592375239201
 30
0.0
 40
25.085657143107
  0
ARC
  5
637
330
1F
100
AcDbEntity
  8
0
  6
Continuous
 62
     7
100
AcDbCircle
 10
219.6565607531757
 20
443.7220946664435
 30
0.0
 40
0.9994285712619999
100
AcDbArc
 50
180.0
 51
270.0
  0
ARC
  5
638
330
1F
100
AcDbEntity
  8
0
  6
Continuous
 62
     7
100
AcDbCircle
 10
1441.17358735942
 20
428.7306660951797
 30
0.0
 40
0.9994285712619999
100
AcDbArc
 50
180.0
 51
270.0
  0
ARC
  5
639
330
1F
100
AcDbEntity
  8
0
  6
Continuous
 62
     7
100
AcDbCircle
 10
1439.174730216317
 20
441.7232375239198
 30
0.0
 40
0.9994285712619999
100
AcDbArc
 50
0.0
 51
180.0
  0
ARC
  5
63A
330
1F
100
AcDbEntity
  8
0
  6
Continuous
 62
     7
100
AcDbCircle
 10
1434.177587359414
 20
319.7929518095498
 30
0.0
 40
1.998857143106999
100
AcDbArc
 50
270.0
 51
0.0
  0
ARC
  5
63B
330
1F
100
AcDbEntity
  8
0
  6
Continuous
 62
     7
100
AcDbCircle
 10
242.6434178962754
 20
319.7929518095498
 30
0.0
 40
1.998857143106999
100
AcDbArc
 50
180.0
 51
270.0
  0
ARC
  5
63C
330
1F
100
AcDbEntity
  8
0
  6
Continuous
 62
     7
100
AcDbCircle
 10
1439.174730216317
 20
441.7232375239198
 30
0.0
 40
1.499142856893
100
AcDbArc
 50
0.0
 51
90.0
  0
LINE
  5
63D
330
1F
100
AcDbEntity
  8
AM_7
100
AcDbLine
 10
840.3741587875702
 20
378.7592375239201
 30
0.0
 11
865.4598159306752
 21
378.7592375239201
 31
0.0
1001
GENIUS_GENOREF_13
1005
77F
  0
LINE
  5
63E
330
1F
100
AcDbEntity
  8
AM_7
100
AcDbLine
 10
840.3741587875702
 20
378.7592375239201
 30
0.0
 11
840.3741587875702
 21
448.184085061918
 31
0.0
1001
GENIUS_GENOREF_13
1005
77F
  0
LINE
  5
63F
330
1F
100
AcDbEntity
  8
AM_7
100
AcDbLine
 10
840.3741587875702
 20
378.7592375239201
 30
0.0
 11
815.2885016444633
 21
378.7592375239201
 31
0.0
1001
GENIUS_GENOREF_13
1005
77F
  0
LINE
  5
640
330
1F
100
AcDbEntity
  8
AM_7
100
AcDbLine
 10
840.3741587875702
 20
378.7592375239201
 30
0.0
 11
840.3741587875702
 21
331.8851460444439
 31
0.0
1001
GENIUS_GENOREF_13
1005
77F
  0
LINE
  5
641
330
1F
100
AcDbEntity
  8
AM_CL
 62
     0
100
AcDbLine
 10
217.5867302162997
 20
159.5848007262589
 30
0.0
 11
217.5867302163005
 21
26.58480072625889
 31
0.0
  0
LINE
  5
642
330
1F
100
AcDbEntity
  8
AM_CL
 62
     0
100
AcDbLine
 10
219.5861587875643
 20
154.4502864403377
 30
0.0
 11
219.5861587875643
 21
152.4508578690738
 31
0.0
  0
LINE
  5
643
330
1F
100
AcDbEntity
  8
AM_CL
 62
     0
100
AcDbLine
 10
219.5861587875643
 20
159.5848007262591
 30
0.0
 11
219.5861587875652
 21
26.58480072625889
 31
0.0
  0
LINE
  5
644
330
1F
100
AcDbEntity
  8
0
  6
Continuous
 62
     7
100
AcDbLine
 10
240.3741587875693
 20
53.08365786878266
 30
0.0
 11
240.374158787572
 21
152.4508578690738
 31
0.0
  0
LINE
  5
645
330
1F
100
AcDbEntity
  8
0
  6
Continuous
 62
     7
100
AcDbLine
 10
815.3884445019484
 20
0.0000007262581221
 30
0.0
 11
865.3598730737922
 21
0.0000007262581221
 31
0.0
  0
LINE
  5
646
330
1F
100
AcDbEntity
  8
0
  6
Continuous
 62
     7
100
AcDbLine
 10
217.5867302162997
 20
26.58480072625889
 30
0.0
 11
1470.157015930685
 21
26.58480072625889
 31
0.0
  0
LINE
  5
647
330
1F
100
AcDbEntity
  8
0
  6
Continuous
 62
     7
100
AcDbLine
 10
815.3884445019484
 20
0.0000007262581221
 30
0.0
 11
815.3884445019484
 21
26.58480072625889
 31
0.0
  0
LINE
  5
648
330
1F
100
AcDbEntity
  8
0
  6
Continuous
 62
     7
100
AcDbLine
 10
1438.375301645052
 20
51.08480072625889
 30
0.0
 11
219.5861587875652
 21
51.08480072625889
 31
0.0
  0
LINE
  5
649
330
1F
100
AcDbEntity
  8
0
  6
Continuous
 62
     7
100
AcDbLine
 10
1440.374158787572
 20
51.48457215441272
 30
0.0
 11
1438.375301645052
 21
51.48457215441272
 31
0.0
  0
LINE
  5
64A
330
1F
100
AcDbEntity
  8
0
  6
Continuous
 62
     7
100
AcDbLine
 10
219.5861587875652
 20
53.08365786878266
 30
0.0
 11
1438.375301645052
 21
53.08365786878265
 31
0.0
  0
LINE
  5
64B
330
1F
100
AcDbEntity
  8
0
  6
Continuous
 62
     7
100
AcDbLine
 10
865.3598730737922
 20
0.0000007262581221
 30
0.0
 11
865.3598730737922
 21
26.58480072625889
 31
0.0
  0
LINE
  5
64C
330
1F
100
AcDbEntity
  8
0
  6
Continuous
 62
     7
100
AcDbLine
 10
1438.37530164505
 20
135.0848007262591
 30
0.0
 11
240.374158787572
 21
135.0848007262589
 31
0.0
  0
LINE
  5
64D
330
1F
100
AcDbEntity
  8
AM_CL
 62
     0
100
AcDbLine
 10
219.5861587875643
 20
157.5853721549949
 30
0.0
 11
217.5867302162978
 21
157.585372154994
 31
0.0
  0
LINE
  5
64E
330
1F
100
AcDbEntity
  8
AM_CL
 62
     0
100
AcDbLine
 10
1470.157015930685
 20
157.5853721549949
 30
0.0
 11
219.5861587875643
 21
157.5853721549949
 31
0.0
  0
LINE
  5
64F
330
1F
100
AcDbEntity
  8
AM_CL
 62
     0
100
AcDbLine
 10
1470.157015930685
 20
159.5848007262589
 30
0.0
 11
219.5861587875643
 21
159.5848007262589
 31
0.0
  0
LINE
  5
650
330
1F
100
AcDbEntity
  8
0
  6
Continuous
 62
     7
100
AcDbLine
 10
1438.37530164505
 20
26.58480072625889
 30
0.0
 11
1438.37530164505
 21
159.5848007262589
 31
0.0
  0
LINE
  5
651
330
1F
100
AcDbEntity
  8
0
  6
Continuous
 62
     7
100
AcDbLine
 10
1440.37415878757
 20
157.5853721549949
 30
0.0
 11
1440.374158787572
 21
51.48457215441272
 31
0.0
  0
LINE
  5
652
330
1F
100
AcDbEntity
  8
0
  6
Continuous
 62
     7
100
AcDbLine
 10
1470.157015930685
 20
152.4508578690738
 30
0.0
 11
1470.157015930685
 21
159.5848007262589
 31
0.0
  0
LINE
  5
653
330
1F
100
AcDbEntity
  8
0
  6
Continuous
 62
     7
100
AcDbLine
 10
1470.157015930685
 20
26.58480072625889
 30
0.0
 11
1470.157015930685
 21
152.4508578690738
 31
0.0
  0
CIRCLE
  5
654
330
1F
100
AcDbEntity
  8
0
  6
Continuous
 62
     7
100
AcDbCircle
 10
840.3741587875702
 20
93.08480072596807
 30
0.0
 40
35.97942857126201
  0
CIRCLE
  5
655
330
1F
100
AcDbEntity
  8
0
100
AcDbCircle
 10
840.3741587875702
 20
93.08480072596807
 30
0.0
 40
17.5
  0
CIRCLE
  5
656
330
1F
100
AcDbEntity
  8
0
100
AcDbCircle
 10
840.3741587875702
 20
93.08480072596807
 30
0.0
 40
30.0
  0
LINE
  5
657
330
1F
100
AcDbEntity
  8
0
100
AcDbLine
 10
841.3741587875684
 20
110.5562059356239
 30
0.0
 11
841.3741587875684
 21
75.61339551631204
 31
0.0
  0
LINE
  5
658
330
1F
100
AcDbEntity
  8
0
100
AcDbLine
 10
839.3741587875684
 20
110.5562059356239
 30
0.0
 11
839.3741587875684
 21
75.61339551631204
 31
0.0
  0
LINE
  5
659
330
1F
100
AcDbEntity
  8
0
100
AcDbLine
 10
1438.175301644463
 20
93.08480072625888
 30
0.0
 11
876.3535873588335
 21
93.08480072625888
 31
0.0
1001
GENIUS_GENOBJ-N-CEN_13
1002
{
1000
OWNER
1000
GEN
1002
}
1001
GENIUS_GENODEF_13
1002
{
1000
HIER
1070
     0
1002
}
1002
{
1000
MANEDIT
1070
     0
1002
}
1002
{
1000
NOSEL
1070
     0
1002
}
1002
{
1000
BEHIND
1070
     0
1002
}
1002
{
1000
OTHER
1070
     0
1002
}
1002
{
1000
REACTOR
1002
}
1001
GENIUS_GENCEN_19
1002
{
1040
3.0
1002
}
  0
LINE
  5
65A
330
1F
100
AcDbEntity
  8
0
100
AcDbLine
 10
804.3947302163068
 20
93.08480072625888
 30
0.0
 11
240.3741587875711
 21
93.08480072625888
 31
0.0
1001
GENIUS_GENOBJ-N-CEN_13
1002
{
1000
OWNER
1000
GEN
1002
}
1001
GENIUS_GENODEF_13
1002
{
1000
HIER
1070
     0
1002
}
1002
{
1000
MANEDIT
1070
     0
1002
}
1002
{
1000
NOSEL
1070
     0
1002
}
1002
{
1000
BEHIND
1070
     0
1002
}
1002
{
1000
OTHER
1070
     0
1002
}
1002
{
1000
REACTOR
1002
}
1001
GENIUS_GENCEN_19
1002
{
1040
3.0
1002
}
  0
DIMENSION
  5
65B
330
1F
100
AcDbEntity
  8
AM_5
100
AcDbDimension
  2
*D14
 10
1568.454417865549
 20
442.7226660951808
 30
0.0
 11
1561.954417865549
 21
379.2589518095506
 31
0.0
 70
    32
  1
105-160
 71
     5
 42
126.9274285712608
  3
AM_DIN$0
100
AcDbAlignedDimension
 13
1446.170730216316
 23
315.7952375239199
 33
0.0
 14
1438.175301645051
 24
442.7226660951808
 34
0.0
 50
90.0
100
AcDbRotatedDimension
1001
ACAD
1000
DSTYLE
1002
{
1070
    41
1040
7.0
1070
   140
1040
10.0
1002
}
1001
ACAD_DSTYLE_DIMINSPECT
1070
   396
1000
100%
1070
   395
1000

1070
   394
1070
    33
1070
   393
1070
     0
  0
DIMENSION
  5
65C
330
1F
100
AcDbEntity
  8
AM_5
100
AcDbDimension
  2
*D15
 10
1509.444549643553
 20
135.0848007262588
 30
0.0
 11
1502.944549643553
 21
93.08480072625958
 31
0.0
 70
    32
  1
<>
 71
     5
 42
83.99999999999909
  3
AM_DIN$0
100
AcDbAlignedDimension
 13
1438.175301644465
 23
51.0848007262598
 33
0.0
 14
1440.37415878757
 24
135.0848007262589
 34
0.0
 50
90.0
100
AcDbRotatedDimension
1001
ACAD
1000
DSTYLE
1002
{
1070
    41
1040
7.0
1070
   140
1040
10.0
1002
}
1001
ACAD_DSTYLE_DIMINSPECT
1070
   396
1000
100%
1070
   395
1000

1070
   394
1070
    33
1070
   393
1070
     0
  0
DIMENSION
  5
65D
330
1F
100
AcDbEntity
  8
AM_5
100
AcDbDimension
  2
*D16
 10
1545.341299583813
 20
159.5848007262588
 30
0.0
 11
1538.841299583813
 21
93.0848007262591
 31
0.0
 70
    32
  1
<>
 71
     5
 42
133.0
  3
AM_DIN$0
100
AcDbAlignedDimension
 13
1470.157015930685
 23
26.58480072625889
 33
0.0
 14
1470.157015930685
 24
159.5848007262589
 34
0.0
 50
90.0
100
AcDbRotatedDimension
1001
ACAD
1000
DSTYLE
1002
{
1070
    41
1040
7.0
1070
   140
1040
10.0
1002
}
1001
ACAD_DSTYLE_DIMINSPECT
1070
   396
1000
100%
1070
   395
1000

1070
   394
1070
    33
1070
   393
1070
     0
  0
DIMENSION
  5
65E
330
1F
100
AcDbEntity
  8
AM_5
100
AcDbDimension
  2
*D17
 10
240.3741587875702
 20
203.4235506850878
 30
0.0
 11
846.5292358750684
 21
203.4235506850878
 31
0.0
 70
   160
  1
<>
 71
     5
 42
1200.0
  3
AM_DIN$0
100
AcDbAlignedDimension
 13
1440.37415878757
 23
132.4622864403361
 33
0.0
 14
240.3741587875702
 24
132.4622864403361
 34
0.0
100
AcDbRotatedDimension
1001
ACAD
1000
DSTYLE
1002
{
1070
    41
1040
7.0
1070
   140
1040
10.0
1002
}
1001
ACAD_DSTYLE_DIMINSPECT
1070
   396
1000
100%
1070
   395
1000

1070
   394
1070
    33
1070
   393
1070
     0
  0
DIMENSION
  5
65F
330
1F
100
AcDbEntity
  8
AM_5
100
AcDbDimension
  2
*D18
 10
217.5867302162997
 20
237.1819653273799
 30
0.0
 11
843.8718730734922
 21
243.6829495793484
 31
0.0
 70
    32
  1
<>
 71
     5
 42
1252.570285714385
  3
AM_DIN$0
100
AcDbAlignedDimension
 13
1470.157015930685
 23
153.4505721547059
 33
0.0
 14
217.5867302162997
 24
152.4508578690738
 34
0.0
100
AcDbRotatedDimension
1001
ACAD_DSTYLE_DIMINSPECT
1070
   396
1000
100%
1070
   395
1000

1070
   394
1070
    33
1070
   393
1070
     0
1001
ACAD
1000
DSTYLE
1002
{
1070
    41
1040
7.0
1070
   140
1040
10.0
1070
   271
1070
     0
1002
}
  0
LINE
  5
660
330
1F
100
AcDbEntity
  8
7A
100
AcDbLine
 10
1785.031458895033
 20
329.85093107363
 30
0.0
 11
1785.031458895112
 21
448.7226660951924
 31
0.0
1001
GENIUS_GENOBJ-N-CEN_13
1002
{
1000
OWNER
1000
GEN
1002
}
1001
GENIUS_GENODEF_13
1002
{
1000
HIER
1070
     0
1002
}
1002
{
1000
MANEDIT
1070
     0
1002
}
1002
{
1000
NOSEL
1070
     0
1002
}
1002
{
1000
BEHIND
1070
     0
1002
}
1002
{
1000
OTHER
1070
     0
1002
}
1002
{
1000
REACTOR
1002
}
  0
LINE
  5
661
330
1F
100
AcDbEntity
  8
0
100
AcDbLine
 10
1826.031458895115
 20
442.7226660951725
 30
0.0
 11
1726.031458895124
 21
442.7226660951927
 31
0.0
  0
LINE
  5
662
330
1F
100
AcDbEntity
  8
0
100
AcDbLine
 10
-32.62482288197839
 20
402.7226660951994
 30
0.0
 11
-94.62482288197838
 21
402.7226660951166
 31
0.0
1001
GENIUS_GENOBJ-N-CEN_13
1002
{
1000
OWNER
1000
GEN
1002
}
1001
GENIUS_GENODEF_13
1002
{
1000
HIER
1070
     0
1002
}
1002
{
1000
MANEDIT
1070
     0
1002
}
1002
{
1000
NOSEL
1070
     0
1002
}
1002
{
1000
BEHIND
1070
     0
1002
}
1002
{
1000
OTHER
1070
     0
1002
}
1002
{
1000
REACTOR
1002
}
  0
LINE
  5
663
330
1F
100
AcDbEntity
  8
0
100
AcDbLine
 10
-33.88924804671229
 20
401.2226660951977
 30
0.0
 11
-94.62482288197657
 21
401.2226660951166
 31
0.0
1001
GENIUS_GENOBJ-N-CEN_13
1002
{
1000
OWNER
1000
GEN
1002
}
1001
GENIUS_GENODEF_13
1002
{
1000
HIER
1070
     0
1002
}
1002
{
1000
MANEDIT
1070
     0
1002
}
1002
{
1000
NOSEL
1070
     0
1002
}
1002
{
1000
BEHIND
1070
     0
1002
}
1002
{
1000
OTHER
1070
     0
1002
}
1002
{
1000
REACTOR
1002
}
  0
LINE
  5
664
330
1F
100
AcDbEntity
  8
0
100
AcDbLine
 10
-33.88924804665044
 20
354.2226660951978
 30
0.0
 11
-94.62482288191427
 21
354.2226660951169
 31
0.0
1001
GENIUS_GENOBJ-N-CEN_13
1002
{
1000
OWNER
1000
GEN
1002
}
1001
GENIUS_GENODEF_13
1002
{
1000
HIER
1070
     0
1002
}
1002
{
1000
MANEDIT
1070
     0
1002
}
1002
{
1000
NOSEL
1070
     0
1002
}
1002
{
1000
BEHIND
1070
     0
1002
}
1002
{
1000
OTHER
1070
     0
1002
}
1002
{
1000
REACTOR
1002
}
  0
LINE
  5
665
330
1F
100
AcDbEntity
  8
0
100
AcDbLine
 10
-32.62482288191245
 20
352.7226660951994
 30
0.0
 11
-94.62482288191244
 21
352.7226660951169
 31
0.0
1001
GENIUS_GENOBJ-N-CEN_13
1002
{
1000
OWNER
1000
GEN
1002
}
1001
GENIUS_GENODEF_13
1002
{
1000
HIER
1070
     0
1002
}
1002
{
1000
MANEDIT
1070
     0
1002
}
1002
{
1000
NOSEL
1070
     0
1002
}
1002
{
1000
BEHIND
1070
     0
1002
}
1002
{
1000
OTHER
1070
     0
1002
}
1002
{
1000
REACTOR
1002
}
  0
HATCH
  5
666
330
1F
100
AcDbEntity
  8
KLIN
  6
ByBlock
100
AcDbHatch
 10
0.0
 20
0.0
 30
0.0
210
0.0
220
0.0
230
1.0
  2
LINE
 70
     0
 71
     0
 91
        3
 92
        7
 72
     0
 73
     1
 93
        4
 10
-94.62482288197838
 20
402.7226660951166
 10
-32.62482288197839
 20
402.7226660951994
 10
-33.88924804671229
 20
401.2226660951977
 10
-94.62482288197657
 20
401.2226660951166
 97
        0
 92
        7
 72
     0
 73
     1
 93
        4
 10
-66.94731201180548
 20
354.2226660951537
 10
-33.88924804665044
 20
354.2226660951978
 10
-32.62482288191245
 20
352.7226660951994
 10
-67.7053365569227
 20
352.7226660951526
 97
        0
 92
        7
 72
     0
 73
     1
 93
        4
 10
-94.62482288191427
 20
354.2226660951169
 10
-66.94731201180548
 20
354.2226660951537
 10
-67.7053365569227
 20
352.7226660951528
 10
-94.62482288191244
 20
352.7226660951169
 97
        0
 75
     0
 76
     1
 52
45.0
 41
0.5
 77
     0
 78
     1
 53
135.0000000000764
 43
225.4628888861605
 44
154.8814064756882
 45
1.122532015132146
 46
1.122532015135142
 79
     0
 47
2.718374431718905
 98
        3
 10
-52.06827145672059
 20
401.9557003752026
 10
-52.3402615927655
 20
353.5686354103313
 10
-76.2754501407685
 20
353.2967984717097
  0
LINE
  5
667
330
1F
100
AcDbEntity
  8
0
100
AcDbLine
 10
-39.6248228820275
 20
427.7226660950784
 30
0.0
 11
-68.62482288200045
 21
427.7226660950138
 31
0.0
  0
LINE
  5
668
330
1F
100
AcDbEntity
  8
0
100
AcDbLine
 10
-39.62482288197544
 20
426.7226660950784
 30
0.0
 11
-68.62482288200135
 21
426.7226660950139
 31
0.0
  0
LINE
  5
669
330
1F
100
AcDbEntity
  8
7A
100
AcDbLine
 10
-19.73375716837336
 20
377.7226660952167
 30
0.0
 11
-99.99999848966854
 21
377.7226660951096
 31
0.0
1001
GENIUS_GENOBJ-N-CEN_13
1002
{
1000
OWNER
1000
GEN
1002
}
1001
GENIUS_GENODEF_13
1002
{
1000
HIER
1070
     0
1002
}
1002
{
1000
MANEDIT
1070
     0
1002
}
1002
{
1000
NOSEL
1070
     0
1002
}
1002
{
1000
BEHIND
1070
     0
1002
}
1002
{
1000
OTHER
1070
     0
1002
}
1002
{
1000
REACTOR
1002
}
  0
LINE
  5
66A
330
1F
100
AcDbEntity
  8
0
100
AcDbLine
 10
41.37517711801047
 20
410.7226660951878
 30
0.0
 11
41.37517711810232
 21
342.7226660951878
 31
0.0
1001
GENIUS_GENODEF_13
1002
{
1000
HIER
1070
     0
1002
}
1002
{
1000
MANEDIT
1070
     0
1002
}
1002
{
1000
NOSEL
1070
     0
1002
}
1002
{
1000
BEHIND
1070
     0
1002
}
1002
{
1000
REACTOR
1002
}
1001
GENIUS_GENOBJ-N-CEN_13
1002
{
1000
OWNER
1000
GEN
1002
}
  0
LINE
  5
66B
330
1F
100
AcDbEntity
  8
0
100
AcDbLine
 10
39.37517711799751
 20
420.549066998728
 30
0.0
 11
39.37517711810233
 21
342.7226660951851
 31
0.0
1001
GENIUS_GENODEF_13
1002
{
1000
HIER
1070
     0
1002
}
1002
{
1000
MANEDIT
1070
     0
1002
}
1002
{
1000
NOSEL
1070
     0
1002
}
1002
{
1000
BEHIND
1070
     0
1002
}
1002
{
1000
REACTOR
1002
}
1001
GENIUS_GENOBJ-N-CEN_13
1002
{
1000
OWNER
1000
GEN
1002
}
  0
LINE
  5
66C
330
1F
100
AcDbEntity
  8
7A
100
AcDbLine
 10
3.37517711805458
 20
329.8509310736299
 30
0.0
 11
3.375177117975454
 21
448.7226660951924
 31
0.0
1001
GENIUS_GENOBJ-N-CEN_13
1002
{
1000
OWNER
1000
GEN
1002
}
1001
GENIUS_GENODEF_13
1002
{
1000
HIER
1070
     0
1002
}
1002
{
1000
MANEDIT
1070
     0
1002
}
1002
{
1000
NOSEL
1070
     0
1002
}
1002
{
1000
BEHIND
1070
     0
1002
}
1002
{
1000
OTHER
1070
     0
1002
}
1002
{
1000
REACTOR
1002
}
  0
HATCH
  5
66D
330
1F
100
AcDbEntity
  8
KLIN
  6
ByBlock
100
AcDbHatch
 10
0.0
 20
0.0
 30
0.0
210
0.0
220
0.0
230
1.0
  2
LINE
 70
     0
 71
     0
 91
        4
 92
        7
 72
     0
 73
     1
 93
        4
 10
-34.62482288198953
 20
410.7226660950864
 10
-32.62482288198953
 20
410.7226660950892
 10
-32.62482288197839
 20
402.7226660951994
 10
-34.62482288197839
 20
402.7226660951969
 97
        0
 92
        7
 72
     0
 73
     1
 93
        4
 10
39.37517711801047
 20
410.7226660951851
 10
41.37517711801047
 20
410.7226660951878
 10
41.37517711804662
 20
384.4747059619085
 10
39.37517711804571
 20
385.1492985658838
 97
        0
 92
        7
 72
     1
 73
     1
 93
        8
 10
39.37517711804571
 20
385.1492985658838
 42
0.0
 10
41.37517711804662
 20
384.4747059619085
 42
0.0
 10
41.37517711810232
 20
342.7226660951878
 42
-0.4142135623730915
 10
34.37517711811165
 20
335.7226660951785
 42
0.0
 10
3.375177118050487
 20
335.7226660951371
 42
0.0
 10
3.375177118049577
 20
337.7226660951371
 42
0.0
 10
34.37517711810847
 20
337.7226660951785
 42
0.4142135623730919
 10
39.37517711810233
 20
342.7226660951851
 42
0.0
 97
        0
 92
        7
 72
     1
 73
     1
 93
        8
 10
3.375177118049577
 20
337.7226660951371
 42
0.0
 10
3.375177118050487
 20
335.7226660951371
 42
0.0
 10
-27.62482288189062
 20
335.7226660950957
 42
-0.4142135623730973
 10
-34.62482288189858
 20
342.7226660950864
 42
0.0
 10
-34.62482288191245
 20
352.7226660951967
 42
0.0
 10
-32.62482288191245
 20
352.7226660951994
 42
0.0
 10
-32.62482288189949
 20
342.7226660950891
 42
0.414213562373096
 10
-27.62482288189244
 20
337.7226660950957
 42
0.0
 97
        0
 75
     0
 76
     1
 52
135.0
 41
1.0
 77
     0
 78
     1
 53
45.00000000007651
 43
225.4628888861605
 44
154.8814064756882
 45
2.245064030270284
 46
-2.245064030264292
 79
     0
 47
2.718374431718905
 98
        4
 10
-33.84489043341341
 20
406.8487749509392
 10
40.13659839468255
 20
400.3246759777596
 10
40.13659839472757
 20
367.1605072341902
 10
-20.24535010466548
 20
336.9865517300964
  0
ARC
  5
66E
330
1F
100
AcDbEntity
  8
0
100
AcDbCircle
 10
-83.70815621527867
 20
377.7226660951321
 30
0.0
 40
55.08333333333285
100
AcDbArc
 50
334.7463521008766
 51
25.25364789923162
  0
ARC
  5
66F
330
1F
100
AcDbEntity
  8
0
100
AcDbCircle
 10
-92.64746245788547
 20
377.7226660951203
 30
0.0
 40
65.02089865314991
100
AcDbArc
 50
337.3878080415857
 51
22.61219195863847
  0
LINE
  5
670
330
1F
100
AcDbEntity
  8
0
100
AcDbLine
 10
34.37517711811165
 20
335.7226660951785
 30
0.0
 11
-27.62482288189062
 21
335.7226660950957
 31
0.0
  0
LINE
  5
671
330
1F
100
AcDbEntity
  8
0
100
AcDbLine
 10
34.37517711810847
 20
337.7226660951785
 30
0.0
 11
-27.62482288189244
 21
337.7226660950957
 31
0.0
  0
ARC
  5
672
330
1F
100
AcDbEntity
  8
0
100
AcDbCircle
 10
34.37517711810233
 20
342.7226660951785
 30
0.0
 40
7.0
100
AcDbArc
 50
270.0
 51
0.0000000001302755
  0
ARC
  5
673
330
1F
100
AcDbEntity
  8
0
100
AcDbCircle
 10
34.37517711810233
 20
342.7226660951785
 30
0.0
 40
5.0
100
AcDbArc
 50
270.0
 51
0.0000000001302755
  0
ARC
  5
674
330
1F
100
AcDbEntity
  8
0
100
AcDbCircle
 10
-27.62482288189949
 20
342.7226660950958
 30
0.0
 40
5.0
100
AcDbArc
 50
180.0000000001302
 51
270.0
1001
GENIUS_GENODEF_13
1002
{
1000
HIER
1070
     0
1002
}
1002
{
1000
MANEDIT
1070
     0
1002
}
1002
{
1000
NOSEL
1070
     0
1002
}
1002
{
1000
BEHIND
1070
     0
1002
}
1002
{
1000
REACTOR
1002
}
1001
GENIUS_GENOBJ-N-CEN_13
1002
{
1000
OWNER
1000
GEN
1002
}
  0
ARC
  5
675
330
1F
100
AcDbEntity
  8
0
100
AcDbCircle
 10
-27.62482288189949
 20
342.7226660950958
 30
0.0
 40
7.0
100
AcDbArc
 50
180.0000000001302
 51
270.0
1001
GENIUS_GENODEF_13
1002
{
1000
HIER
1070
     0
1002
}
1002
{
1000
MANEDIT
1070
     0
1002
}
1002
{
1000
NOSEL
1070
     0
1002
}
1002
{
1000
BEHIND
1070
     0
1002
}
1002
{
1000
REACTOR
1002
}
1001
GENIUS_GENOBJ-N-CEN_13
1002
{
1000
OWNER
1000
GEN
1002
}
  0
LINE
  5
676
330
1F
100
AcDbEntity
  8
0
100
AcDbLine
 10
-34.62482288191245
 20
352.7226660951969
 30
0.0
 11
-34.62482288189858
 21
342.7226660950864
 31
0.0
1001
GENIUS_GENODEF_13
1002
{
1000
HIER
1070
     0
1002
}
1002
{
1000
MANEDIT
1070
     0
1002
}
1002
{
1000
NOSEL
1070
     0
1002
}
1002
{
1000
BEHIND
1070
     0
1002
}
1002
{
1000
REACTOR
1002
}
1001
GENIUS_GENOBJ-N-CEN_13
1002
{
1000
OWNER
1000
GEN
1002
}
  0
LINE
  5
677
330
1F
100
AcDbEntity
  8
0
100
AcDbLine
 10
-32.62482288191245
 20
352.7226660951994
 30
0.0
 11
-32.62482288189949
 21
342.7226660950891
 31
0.0
1001
GENIUS_GENODEF_13
1002
{
1000
HIER
1070
     0
1002
}
1002
{
1000
MANEDIT
1070
     0
1002
}
1002
{
1000
NOSEL
1070
     0
1002
}
1002
{
1000
BEHIND
1070
     0
1002
}
1002
{
1000
REACTOR
1002
}
1001
GENIUS_GENOBJ-N-CEN_13
1002
{
1000
OWNER
1000
GEN
1002
}
  0
LINE
  5
678
330
1F
100
AcDbEntity
  8
0
100
AcDbLine
 10
-32.62482288191245
 20
352.7226660951994
 30
0.0
 11
-33.88924804665044
 21
354.2226660951978
 31
0.0
  0
LINE
  5
679
330
1F
100
AcDbEntity
  8
0
100
AcDbLine
 10
-37.6248228820275
 20
442.7226660951724
 30
0.0
 11
62.37517711796363
 21
442.7226660951926
 31
0.0
  0
ARC
  5
67A
330
1F
100
AcDbEntity
  8
0
  6
ByBlock
100
AcDbCircle
 10
62.37517711796363
 20
443.7226660951925
 30
0.0
 40
1.0
100
AcDbArc
 50
270.0
 51
0.0000000001302755
  0
LINE
  5
67B
330
1F
100
AcDbEntity
  8
0
  6
ByBlock
100
AcDbLine
 10
-34.45873192229851
 20
422.5421585151186
 30
0.0
 11
3.37517711799569
 21
419.3893327618424
 31
0.0
  0
LINE
  5
67C
330
1F
100
AcDbEntity
  8
0
100
AcDbLine
 10
3.416699857923504
 20
418.3824063186161
 30
0.0
 11
-32.81570951680237
 21
421.4017737664314
 31
0.0
  0
LINE
  5
67D
330
1F
100
AcDbEntity
  8
0
  6
ByBlock
100
AcDbLine
 10
41.20908615828944
 20
422.5421585152203
 30
0.0
 11
3.37517711799569
 21
419.3893327618424
 31
0.0
  0
LINE
  5
67E
330
1F
100
AcDbEntity
  8
0
100
AcDbLine
 10
3.333654378070377
 20
418.3824063186161
 30
0.0
 11
39.56606375279671
 21
421.4017737665288
 31
0.0
  0
LINE
  5
67F
330
1F
100
AcDbEntity
  8
0
100
AcDbLine
 10
44.37517711793861
 20
423.6427989767541
 30
0.0
 11
44.37517711796658
 21
440.7226660951701
 31
0.0
  0
ARC
  5
680
330
1F
100
AcDbEntity
  8
0
  6
ByBlock
100
AcDbCircle
 10
45.37517711796659
 20
440.7226660951685
 30
0.0
 40
1.0
100
AcDbArc
 50
90.0
 51
179.9999999998697
  0
LINE
  5
681
330
1F
100
AcDbEntity
  8
0
100
AcDbLine
 10
43.37517711794066
 20
423.6427989767618
 30
0.0
 11
43.3751771178704
 21
440.7226660951844
 31
0.0
  0
ARC
  5
682
330
1F
100
AcDbEntity
  8
0
100
AcDbCircle
 10
45.37517711787041
 20
440.7226660951924
 30
0.0
 40
2.0
100
AcDbArc
 50
90.0
 51
180.0000000002605
  0
ARC
  5
683
330
1F
100
AcDbEntity
  8
0
100
AcDbCircle
 10
42.37517711793862
 20
423.6427989767576
 30
0.0
 40
2.0
100
AcDbArc
 50
274.7636416908086
 51
359.9999999998697
  0
LINE
  5
684
330
1F
100
AcDbEntity
  8
0
100
AcDbLine
 10
40.3751771179975
 20
420.5490669987291
 30
0.0
 11
40.37517711801046
 21
410.7226660951864
 31
0.0
1001
GENIUS_GENODEF_13
1002
{
1000
HIER
1070
     0
1002
}
1002
{
1000
MANEDIT
1070
     0
1002
}
1002
{
1000
NOSEL
1070
     0
1002
}
1002
{
1000
BEHIND
1070
     0
1002
}
1002
{
1000
REACTOR
1002
}
1001
GENIUS_GENOBJ-N-CEN_13
1002
{
1000
OWNER
1000
GEN
1002
}
  0
LINE
  5
685
330
1F
100
AcDbEntity
  8
0
100
AcDbLine
 10
41.2921316381437
 20
421.5456127569752
 30
0.0
 11
42.54126807764646
 21
421.6497074602678
 31
0.0
  0
ARC
  5
686
330
1F
100
AcDbEntity
  8
0
100
AcDbCircle
 10
41.37517711799751
 20
420.5490669987304
 30
0.0
 40
1.0
100
AcDbArc
 50
94.76364169080856
 51
180.0000000001302
1001
GENIUS_GENODEF_13
1002
{
1000
HIER
1070
     0
1002
}
1002
{
1000
MANEDIT
1070
     0
1002
}
1002
{
1000
NOSEL
1070
     0
1002
}
1002
{
1000
BEHIND
1070
     0
1002
}
1002
{
1000
REACTOR
1002
}
1001
GENIUS_GENOBJ-N-CEN_13
1002
{
1000
OWNER
1000
GEN
1002
}
  0
ARC
  5
687
330
1F
100
AcDbEntity
  8
0
100
AcDbCircle
 10
41.37517711799751
 20
420.5490669987304
 30
0.0
 40
2.0
100
AcDbArc
 50
94.76364169080856
 51
180.0000000001302
1001
GENIUS_GENODEF_13
1002
{
1000
HIER
1070
     0
1002
}
1002
{
1000
MANEDIT
1070
     0
1002
}
1002
{
1000
NOSEL
1070
     0
1002
}
1002
{
1000
BEHIND
1070
     0
1002
}
1002
{
1000
REACTOR
1002
}
1001
GENIUS_GENOBJ-N-CEN_13
1002
{
1000
OWNER
1000
GEN
1002
}
  0
LINE
  5
688
330
1F
100
AcDbEntity
  8
0
100
AcDbLine
 10
41.20908615828944
 20
422.5421585152203
 30
0.0
 11
42.45822259779447
 21
422.6462532185129
 31
0.0
  0
ARC
  5
689
330
1F
100
AcDbEntity
  8
0
100
AcDbCircle
 10
42.37517711794066
 20
423.6427989767578
 30
0.0
 40
1.0
100
AcDbArc
 50
274.7636416908086
 51
0.000000000260551
  0
LINE
  5
68A
330
1F
100
AcDbEntity
  8
0
100
AcDbLine
 10
-32.62482288200136
 20
420.5490669986311
 30
0.0
 11
-32.62482288197839
 21
402.7226660951994
 31
0.0
1001
GENIUS_GENODEF_13
1002
{
1000
HIER
1070
     0
1002
}
1002
{
1000
MANEDIT
1070
     0
1002
}
1002
{
1000
NOSEL
1070
     0
1002
}
1002
{
1000
BEHIND
1070
     0
1002
}
1002
{
1000
REACTOR
1002
}
1001
GENIUS_GENOBJ-N-CEN_13
1002
{
1000
OWNER
1000
GEN
1002
}
  0
LINE
  5
68B
330
1F
100
AcDbEntity
  8
0
100
AcDbLine
 10
-34.62482288198953
 20
410.7226660950864
 30
0.0
 11
-34.62482288197839
 21
402.7226660951969
 31
0.0
1001
GENIUS_GENODEF_13
1002
{
1000
HIER
1070
     0
1002
}
1002
{
1000
MANEDIT
1070
     0
1002
}
1002
{
1000
NOSEL
1070
     0
1002
}
1002
{
1000
BEHIND
1070
     0
1002
}
1002
{
1000
REACTOR
1002
}
1001
GENIUS_GENOBJ-N-CEN_13
1002
{
1000
OWNER
1000
GEN
1002
}
  0
LINE
  5
68C
330
1F
100
AcDbEntity
  8
0
100
AcDbLine
 10
-32.62482288197839
 20
402.7226660951994
 30
0.0
 11
-33.88924804671229
 21
401.2226660951977
 31
0.0
  0
ARC
  5
68D
330
1F
100
AcDbEntity
  8
0
100
AcDbCircle
 10
-39.62482288202932
 20
428.7226660950785
 30
0.0
 40
1.0
100
AcDbArc
 50
270.0
 51
359.9999999998697
  0
LINE
  5
68E
330
1F
100
AcDbEntity
  8
0
100
AcDbLine
 10
-36.62482288195747
 20
423.6427989766489
 30
0.0
 11
-36.62482288203865
 21
441.7226660951921
 31
0.0
  0
LINE
  5
68F
330
1F
100
AcDbEntity
  8
0
100
AcDbLine
 10
-37.62482288195747
 20
423.6427989766448
 30
0.0
 11
-37.62482288203546
 21
441.7226660951921
 31
0.0
  0
ARC
  5
690
330
1F
100
AcDbEntity
  8
0
100
AcDbCircle
 10
-39.6248228819793
 20
428.7226660950785
 30
0.0
 40
2.0
100
AcDbArc
 50
270.0
 51
0.000000000260551
  0
LINE
  5
691
330
1F
100
AcDbEntity
  8
0
100
AcDbLine
 10
-33.62482288200136
 20
420.5490669986297
 30
0.0
 11
-33.62482288198953
 21
410.7226660950877
 31
0.0
1001
GENIUS_GENODEF_13
1002
{
1000
HIER
1070
     0
1002
}
1002
{
1000
MANEDIT
1070
     0
1002
}
1002
{
1000
NOSEL
1070
     0
1002
}
1002
{
1000
BEHIND
1070
     0
1002
}
1002
{
1000
REACTOR
1002
}
1001
GENIUS_GENOBJ-N-CEN_13
1002
{
1000
OWNER
1000
GEN
1002
}
  0
LINE
  5
692
330
1F
100
AcDbEntity
  8
0
100
AcDbLine
 10
-34.45873192229851
 20
422.5421585151186
 30
0.0
 11
-35.70786836180855
 21
422.6462532184084
 31
0.0
  0
LINE
  5
693
330
1F
100
AcDbEntity
  8
0
100
AcDbLine
 10
-34.5417774021505
 20
421.5456127568733
 30
0.0
 11
-35.79091384166054
 21
421.6497074601634
 31
0.0
  0
ARC
  5
694
330
1F
100
AcDbEntity
  8
0
100
AcDbCircle
 10
-34.62482288200249
 20
420.5490669986284
 30
0.0
 40
2.0
100
AcDbArc
 50
0.0000000001302755
 51
85.23635830945289
1001
GENIUS_GENODEF_13
1002
{
1000
HIER
1070
     0
1002
}
1002
{
1000
MANEDIT
1070
     0
1002
}
1002
{
1000
NOSEL
1070
     0
1002
}
1002
{
1000
BEHIND
1070
     0
1002
}
1002
{
1000
REACTOR
1002
}
1001
GENIUS_GENOBJ-N-CEN_13
1002
{
1000
OWNER
1000
GEN
1002
}
  0
ARC
  5
695
330
1F
100
AcDbEntity
  8
0
100
AcDbCircle
 10
-34.62482288200249
 20
420.5490669986284
 30
0.0
 40
1.0
100
AcDbArc
 50
0.0000000001302755
 51
85.23635830945289
  0
ARC
  5
696
330
1F
100
AcDbEntity
  8
0
100
AcDbCircle
 10
-35.62482288195747
 20
423.6427989766534
 30
0.0
 40
1.0
100
AcDbArc
 50
180.0000000002605
 51
265.2363583094529
  0
ARC
  5
697
330
1F
100
AcDbEntity
  8
0
100
AcDbCircle
 10
-35.62482288195747
 20
423.6427989766534
 30
0.0
 40
2.0
100
AcDbArc
 50
180.0000000002605
 51
265.2363583094529
  0
LINE
  5
698
330
1F
100
AcDbEntity
  8
0
100
AcDbLine
 10
-38.62482288201045
 20
441.7226660951891
 30
0.0
 11
-38.62482288202932
 21
428.7226660950769
 31
0.0
  0
ARC
  5
699
330
1F
100
AcDbEntity
  8
0
100
AcDbCircle
 10
-37.62482288202364
 20
441.7226660951878
 30
0.0
 40
0.9999999999848339
100
AcDbArc
 50
0.000000000260551
 51
180.0000000002605
  0
LINE
  5
69A
330
1F
100
AcDbEntity
  8
0
100
AcDbLine
 10
-94.62482288197838
 20
402.7226660951166
 30
0.0
 11
-94.62482288191244
 21
352.7226660951167
 31
0.0
1001
GENIUS_GENODEF_13
1002
{
1000
HIER
1070
     0
1002
}
1002
{
1000
MANEDIT
1070
     0
1002
}
1002
{
1000
NOSEL
1070
     0
1002
}
1002
{
1000
BEHIND
1070
     0
1002
}
1002
{
1000
REACTOR
1002
}
1001
GENIUS_GENOBJ-N-CEN_13
1002
{
1000
OWNER
1000
GEN
1002
}
  0
LINE
  5
69B
330
1F
100
AcDbEntity
  8
0
100
AcDbLine
 10
-68.62482288207456
 20
482.7226660950164
 30
0.0
 11
-68.62482288200135
 21
426.7226660950127
 31
0.0
  0
LINE
  5
69C
330
1F
100
AcDbEntity
  8
0
  6
ByBlock
100
AcDbLine
 10
63.37517711796363
 20
443.722666095194
 30
0.0
 11
63.37517711791133
 21
482.7226660951924
 31
0.0
  0
LINE
  5
69D
330
1F
100
AcDbEntity
  8
0
  6
ByBlock
100
AcDbLine
 10
-68.62482288207456
 20
482.7226660950164
 30
0.0
 11
64.37517711791134
 21
482.7226660951939
 31
0.0
  0
LINE
  5
69E
330
1F
100
AcDbEntity
  8
0
  6
ByBlock
100
AcDbLine
 10
64.37517711791134
 20
482.7226660951939
 30
0.0
 11
64.37517711796363
 21
443.722666095194
 31
0.0
  0
LINE
  5
69F
330
1F
100
AcDbEntity
  8
0
  6
ByBlock
100
AcDbLine
 10
62.37517711796659
 20
441.7226660951912
 30
0.0
 11
45.37517711796454
 21
441.7226660951684
 31
0.0
  0
ARC
  5
6A0
330
1F
100
AcDbEntity
  8
0
  6
ByBlock
100
AcDbCircle
 10
62.37517711796363
 20
443.7226660951912
 30
0.0
 40
2.0
100
AcDbArc
 50
270.0
 51
0.0000000001302755
  0
LINE
  5
6A1
330
1F
100
AcDbEntity
  8
0
  6
ByBlock
100
AcDbLine
 10
41.37517711799955
 20
410.7226660951247
 30
0.0
 11
33.97346283334173
 21
410.722666095125
 31
0.0
  0
LINE
  5
6A2
330
1F
100
AcDbEntity
  8
0
  6
ByBlock
100
AcDbLine
 10
-27.22310859745949
 20
410.722666095125
 30
0.0
 11
-34.62482288200135
 21
410.7226660951247
 31
0.0
  0
DIMENSION
  5
6A3
330
1F
100
AcDbEntity
  8
AM_5
100
AcDbDimension
  2
*D19
 10
43.3751771178695
 20
504.8930954877748
 30
0.0
 11
4.465247194975518
 21
504.8930954877748
 31
0.0
 70
   160
 71
     5
 42
79.99999999990109
  3
AM_DIN$0
100
AcDbAlignedDimension
 13
-36.6248228820316
 23
440.7226660952908
 33
0.0
 14
43.3751771178695
 24
440.722666095181
 34
0.0
 50
180.0
100
AcDbRotatedDimension
1001
ACAD_DSTYLE_DIMINSPECT
1070
   396
1000
100%
1070
   395
1000

1070
   394
1070
    33
1070
   393
1070
     0
1001
ACAD
1000
DSTYLE
1002
{
1070
    41
1040
7.0
1070
   140
1040
10.0
1070
   271
1070
     0
1002
}
  0
LINE
  5
6A4
330
1F
100
AcDbEntity
  8
0
100
AcDbLine
 10
28.37517711793248
 20
315.7340946663869
 30
0.0
 11
-21.62482288206843
 21
315.7340946663869
 31
0.0
  0
LINE
  5
6A5
330
1F
100
AcDbEntity
  8
0
100
AcDbLine
 10
28.37517711793362
 20
317.7329518094944
 30
0.0
 11
-21.62482288206752
 21
317.7329518094944
 31
0.0
  0
LINE
  5
6A6
330
1F
100
AcDbEntity
  8
0
100
AcDbLine
 10
28.37517711793248
 20
315.7340946663869
 30
0.0
 11
28.37517711794158
 21
335.7226660951706
 31
0.0
  0
LINE
  5
6A7
330
1F
100
AcDbEntity
  8
0
100
AcDbLine
 10
-21.62482288206843
 20
315.7340946663869
 30
0.0
 11
-21.62482288205934
 21
335.7226660951037
 31
0.0
  0
LINE
  5
6A8
330
1F
100
AcDbEntity
  8
0
100
AcDbLine
 10
23.37517711794067
 20
410.6980946662747
 30
0.0
 11
23.37517711794067
 21
353.698094666275
 31
0.0
  0
LINE
  5
6A9
330
1F
100
AcDbEntity
  8
0
100
AcDbLine
 10
23.37517711794067
 20
353.698094666275
 30
0.0
 11
-16.62482288205933
 21
353.698094666275
 31
0.0
  0
LINE
  5
6AA
330
1F
100
AcDbEntity
  8
0
100
AcDbLine
 10
-16.62482288205933
 20
353.698094666275
 30
0.0
 11
-16.62482288205933
 21
410.6980946662747
 31
0.0
  0
LINE
  5
6AB
330
1F
100
AcDbEntity
  8
0
100
AcDbLine
 10
21.87517711794066
 20
410.6980946662747
 30
0.0
 11
21.87517711794066
 21
353.698094666275
 31
0.0
  0
LINE
  5
6AC
330
1F
100
AcDbEntity
  8
0
100
AcDbLine
 10
-15.12482288205933
 20
353.698094666275
 30
0.0
 11
-15.12482288205933
 21
410.6980946662747
 31
0.0
  0
HATCH
  5
6AD
330
1F
100
AcDbEntity
  8
8
100
AcDbHatch
 10
0.0
 20
0.0
 30
0.0
210
0.0
220
0.0
230
1.0
  2
LINE
 70
     0
 71
     0
 91
        4
 92
        7
 72
     0
 73
     1
 93
        6
 10
30.87517711794067
 20
400.6980946662749
 10
30.40220414496776
 20
403.5359325041127
 10
31.37517711794067
 20
403.6980946662749
 10
31.87517711794067
 20
400.6980946662749
 10
31.87517711794067
 20
379.2141922782853
 10
30.87517711794067
 20
379.470458695673
 97
        0
 92
        7
 72
     0
 73
     1
 93
        4
 10
30.87517711794067
 20
379.4704586956725
 10
31.87517711794067
 20
379.2141922782853
 10
31.87517711794067
 20
366.0348716040028
 10
30.87517711794067
 20
366.29113802139
 97
        0
 92
        7
 72
     1
 73
     1
 93
        8
 10
30.87517711794067
 20
366.29113802139
 42
0.0
 10
31.87517711794067
 20
366.0348716040028
 42
0.0
 10
31.87517711794067
 20
344.698094666275
 42
-0.4142135623730951
 10
25.87517711794067
 20
338.698094666275
 42
0.0
 10
3.375177117940665
 20
338.698094666275
 42
0.0
 10
3.375177117940665
 20
339.6980946662752
 42
0.0
 10
25.87517711794067
 20
339.6980946662752
 42
0.4142135623730951
 10
30.87517711794067
 20
344.698094666275
 42
0.0
 97
        0
 92
        7
 72
     1
 73
     1
 93
       10
 10
-25.12482288205934
 20
344.698094666275
 42
0.0
 10
-25.12482288205934
 20
400.6980946662749
 42
0.0
 10
-24.62482288205933
 20
403.6980946662749
 42
0.0
 10
-23.65184990908665
 20
403.5359325041127
 42
0.0
 10
-24.12482288205934
 20
400.6980946662749
 42
0.0
 10
-24.12482288205934
 20
344.698094666275
 42
0.4142135623730951
 10
-19.12482288205933
 20
339.6980946662752
 42
0.0
 10
3.375177117940665
 20
339.6980946662752
 42
0.0
 10
3.375177117940665
 20
338.698094666275
 42
0.0
 10
-19.12482288205933
 20
338.698094666275
 42
-0.4142135623730951
 97
        0
 75
     0
 76
     1
 52
45.0
 41
1.0
 77
     0
 78
     1
 53
135.0
 43
121.4387841128175
 44
210.9837353287332
 45
2.245064030267287
 46
2.245064030267287
 79
     0
 47
0.144641785732262
 98
        4
 10
31.55372402392163
 20
397.3454933505632
 10
31.40901855303446
 20
369.8635520541821
 10
31.26431558397167
 20
362.0528962177996
 10
-3.175076115169304
 20
339.344135599217
  0
LINE
  5
6AE
330
1F
100
AcDbEntity
  8
0
100
AcDbLine
 10
31.87517711794067
 20
400.6980946662749
 30
0.0
 11
31.87517711794067
 21
344.698094666275
 31
0.0
  0
LINE
  5
6AF
330
1F
100
AcDbEntity
  8
0
100
AcDbLine
 10
-25.12482288205934
 20
344.698094666275
 30
0.0
 11
-25.12482288205934
 21
400.6980946662749
 31
0.0
  0
LINE
  5
6B0
330
1F
100
AcDbEntity
  8
0
100
AcDbLine
 10
25.87517711794067
 20
338.698094666275
 30
0.0
 11
-19.12482288205933
 21
338.698094666275
 31
0.0
  0
LINE
  5
6B1
330
1F
100
AcDbEntity
  8
0
100
AcDbLine
 10
-16.62482288205933
 20
403.6980946662749
 30
0.0
 11
-24.62482288205933
 21
403.6980946662749
 31
0.0
  0
LINE
  5
6B2
330
1F
100
AcDbEntity
  8
0
100
AcDbLine
 10
35.87517711794067
 20
414.198094666275
 30
0.0
 11
35.87517711794067
 21
412.6980946662749
 31
0.0
  0
LINE
  5
6B3
330
1F
100
AcDbEntity
  8
0
100
AcDbLine
 10
39.87517711794067
 20
412.6980946662749
 30
0.0
 11
36.87517711794067
 21
412.6980946662749
 31
0.0
  0
LINE
  5
6B4
330
1F
100
AcDbEntity
  8
0
100
AcDbLine
 10
-29.12482288205934
 20
412.6980946662749
 30
0.0
 11
-29.12482288205934
 21
414.198094666275
 31
0.0
  0
LINE
  5
6B5
330
1F
100
AcDbEntity
  8
0
100
AcDbLine
 10
-29.12482288205934
 20
414.198094666275
 30
0.0
 11
35.87517711794067
 21
414.198094666275
 31
0.0
  0
CIRCLE
  5
6B6
330
1F
100
AcDbEntity
  8
0
100
AcDbCircle
 10
3.375177117940665
 20
411.1980946662747
 30
0.0
 40
1.5
  0
LINE
  5
6B7
330
1F
100
AcDbEntity
  8
7A
100
AcDbLine
 10
7.875177117940665
 20
411.1980946662747
 30
0.0
 11
-1.124822882059334
 21
411.1980946662747
 31
0.0
1001
GENIUS_GENOBJ-N-CEN_13
1002
{
1000
OWNER
1000
GEN
1002
}
1001
GENIUS_GENODEF_13
1002
{
1000
HIER
1070
     0
1002
}
1002
{
1000
MANEDIT
1070
     0
1002
}
1002
{
1000
NOSEL
1070
     0
1002
}
1002
{
1000
BEHIND
1070
     0
1002
}
1002
{
1000
OTHER
1070
     0
1002
}
1002
{
1000
REACTOR
1002
}
  0
LINE
  5
6B8
330
1F
100
AcDbEntity
  8
0
100
AcDbLine
 10
-25.12482288205934
 20
416.6980946662749
 30
0.0
 11
31.87517711794067
 21
416.6980946662749
 31
0.0
  0
LINE
  5
6B9
330
1F
100
AcDbEntity
  8
0
100
AcDbLine
 10
31.87517711794067
 20
416.6980946662749
 30
0.0
 11
31.87517711794067
 21
414.198094666275
 31
0.0
  0
LINE
  5
6BA
330
1F
100
AcDbEntity
  8
0
100
AcDbLine
 10
31.87517711794067
 20
412.6980946662749
 30
0.0
 11
31.87517711794067
 21
410.198094666275
 31
0.0
  0
LINE
  5
6BB
330
1F
100
AcDbEntity
  8
0
100
AcDbLine
 10
-25.12482288205934
 20
416.6980946662749
 30
0.0
 11
-25.12482288205934
 21
414.198094666275
 31
0.0
  0
LINE
  5
6BC
330
1F
100
AcDbEntity
  8
0
100
AcDbLine
 10
-25.12482288205934
 20
412.6980946662749
 30
0.0
 11
-25.12482288205934
 21
410.198094666275
 31
0.0
  0
LINE
  5
6BD
330
1F
100
AcDbEntity
  8
0
100
AcDbLine
 10
-16.62482288205933
 20
410.198094666275
 30
0.0
 11
-25.12482288205934
 21
410.198094666275
 31
0.0
  0
LINE
  5
6BE
330
1F
100
AcDbEntity
  8
0
100
AcDbLine
 10
36.87517711794067
 20
414.198094666275
 30
0.0
 11
36.87517711794067
 21
412.6980946662749
 31
0.0
  0
LINE
  5
6BF
330
1F
100
AcDbEntity
  8
0
100
AcDbLine
 10
39.87517711794067
 20
414.198094666275
 30
0.0
 11
37.87517711794067
 21
415.1980946662747
 31
0.0
  0
LINE
  5
6C0
330
1F
100
AcDbEntity
  8
0
100
AcDbLine
 10
37.87517711794067
 20
415.1980946662747
 30
0.0
 11
31.87517711794067
 21
416.6980946662749
 31
0.0
  0
LINE
  5
6C1
330
1F
100
AcDbEntity
  8
0
100
AcDbLine
 10
37.87517711794067
 20
411.6980946662749
 30
0.0
 11
31.87517711794067
 21
410.198094666275
 31
0.0
  0
LINE
  5
6C2
330
1F
100
AcDbEntity
  8
0
100
AcDbLine
 10
39.87517711794067
 20
412.6980946662749
 30
0.0
 11
37.87517711794067
 21
411.6980946662749
 31
0.0
  0
LINE
  5
6C3
330
1F
100
AcDbEntity
  8
0
100
AcDbLine
 10
36.87517711794067
 20
414.198094666275
 30
0.0
 11
39.87517711794067
 21
414.198094666275
 31
0.0
  0
LINE
  5
6C4
330
1F
100
AcDbEntity
  8
0
100
AcDbLine
 10
35.87517711794067
 20
412.6980946662749
 30
0.0
 11
25.37517711794067
 21
412.6980946662749
 31
0.0
  0
LINE
  5
6C5
330
1F
100
AcDbEntity
  8
0
100
AcDbLine
 10
-33.12482288205933
 20
412.6980946662749
 30
0.0
 11
-30.12482288205934
 21
412.6980946662749
 31
0.0
  0
LINE
  5
6C6
330
1F
100
AcDbEntity
  8
0
100
AcDbLine
 10
-30.12482288205934
 20
414.198094666275
 30
0.0
 11
-33.12482288205933
 21
414.198094666275
 31
0.0
  0
LINE
  5
6C7
330
1F
100
AcDbEntity
  8
0
100
AcDbLine
 10
-33.12482288205933
 20
412.6980946662749
 30
0.0
 11
-31.12482288205934
 21
411.6980946662749
 31
0.0
  0
LINE
  5
6C8
330
1F
100
AcDbEntity
  8
0
100
AcDbLine
 10
-33.12482288205933
 20
414.198094666275
 30
0.0
 11
-31.12482288205934
 21
415.1980946662747
 31
0.0
  0
LINE
  5
6C9
330
1F
100
AcDbEntity
  8
0
100
AcDbLine
 10
-31.12482288205934
 20
415.1980946662747
 30
0.0
 11
-25.12482288205934
 21
416.6980946662749
 31
0.0
  0
LINE
  5
6CA
330
1F
100
AcDbEntity
  8
0
100
AcDbLine
 10
-31.12482288205934
 20
411.6980946662749
 30
0.0
 11
-25.12482288205934
 21
410.198094666275
 31
0.0
  0
HATCH
  5
6CB
330
1F
100
AcDbEntity
  8
8
100
AcDbHatch
 10
0.0
 20
0.0
 30
0.0
210
0.0
220
0.0
230
1.0
  2
NET
 70
     0
 71
     0
 91
        2
 92
        7
 72
     0
 73
     1
 93
       12
 10
39.87517711794067
 20
412.6980946662749
 10
37.87517711794067
 20
411.6980946662749
 10
31.87517711794067
 20
410.198094666275
 10
31.87517711794067
 20
412.6980946662749
 10
35.87517711794067
 20
412.6980946662749
 10
35.87517711794067
 20
414.198094666275
 10
31.87517711794067
 20
414.198094666275
 10
31.87517711794067
 20
416.6980946662749
 10
37.87517711794067
 20
415.1980946662747
 10
39.87517711794067
 20
414.198094666275
 10
36.87517711794067
 20
414.198094666275
 10
36.87517711794067
 20
412.6980946662749
 97
        0
 92
        7
 72
     0
 73
     1
 93
       12
 10
-29.12482288205934
 20
412.6980946662749
 10
-25.12482288205934
 20
412.6980946662749
 10
-25.12482288205934
 20
410.198094666275
 10
-31.12482288205934
 20
411.6980946662749
 10
-33.12482288205933
 20
412.6980946662749
 10
-30.12482288205934
 20
412.6980946662749
 10
-30.12482288205934
 20
414.198094666275
 10
-33.12482288205933
 20
414.198094666275
 10
-31.12482288205934
 20
415.1980946662747
 10
-25.12482288205934
 20
416.6980946662749
 10
-25.12482288205934
 20
414.198094666275
 10
-29.12482288205934
 20
414.198094666275
 97
        0
 75
     0
 76
     1
 52
135.0
 41
0.5
 77
     0
 78
     2
 53
45.0
 43
121.4387841128175
 44
211.8937056218356
 45
1.122532015133643
 46
-1.122532015133643
 79
     0
 53
315.0
 43
121.4387841128175
 44
211.8937056218356
 45
-1.122532015133643
 46
-1.122532015133643
 79
     0
 47
0.1492324330864038
 98
        2
 10
33.34278797451748
 20
411.6637379221792
 10
-27.57821990801062
 20
411.5145044769531
  0
LINE
  5
6CC
330
1F
100
AcDbEntity
  8
0
100
AcDbLine
 10
30.87517711794067
 20
400.6980946662749
 30
0.0
 11
30.87517711794067
 21
344.698094666275
 31
0.0
  0
LINE
  5
6CD
330
1F
100
AcDbEntity
  8
0
100
AcDbLine
 10
25.87517711794067
 20
339.6980946662752
 30
0.0
 11
-19.12482288205933
 21
339.6980946662752
 31
0.0
  0
LINE
  5
6CE
330
1F
100
AcDbEntity
  8
0
100
AcDbLine
 10
-24.12482288205934
 20
344.698094666275
 30
0.0
 11
-24.12482288205934
 21
400.6980946662749
 31
0.0
  0
ARC
  5
6CF
330
1F
100
AcDbEntity
  8
0
100
AcDbCircle
 10
25.87517711794067
 20
344.698094666275
 30
0.0
 40
5.0
100
AcDbArc
 50
270.0
 51
0.0
1001
GENIUS_GENOBJ-N-FIL_13
1002
{
1000
OWNER
1000
GEN
1002
}
1001
GENIUS_GENODEF_13
1002
{
1000
HIER
1070
     0
1002
}
1002
{
1000
MANEDIT
1070
     0
1002
}
1002
{
1000
NOSEL
1070
     0
1002
}
1002
{
1000
BEHIND
1070
     0
1002
}
1002
{
1000
OTHER
1070
     0
1002
}
1002
{
1000
REACTOR
1002
}
  0
ARC
  5
6D0
330
1F
100
AcDbEntity
  8
0
100
AcDbCircle
 10
-19.12482288205933
 20
344.698094666275
 30
0.0
 40
5.0
100
AcDbArc
 50
180.0
 51
270.0
1001
GENIUS_GENOBJ-N-FIL_13
1002
{
1000
OWNER
1000
GEN
1002
}
1001
GENIUS_GENODEF_13
1002
{
1000
HIER
1070
     0
1002
}
1002
{
1000
MANEDIT
1070
     0
1002
}
1002
{
1000
NOSEL
1070
     0
1002
}
1002
{
1000
BEHIND
1070
     0
1002
}
1002
{
1000
OTHER
1070
     0
1002
}
1002
{
1000
REACTOR
1002
}
  0
ARC
  5
6D1
330
1F
100
AcDbEntity
  8
0
100
AcDbCircle
 10
25.87517711794067
 20
344.698094666275
 30
0.0
 40
6.0
100
AcDbArc
 50
270.0
 51
0.0
1001
GENIUS_GENOBJ-N-FIL_13
1002
{
1000
OWNER
1000
GEN
1002
}
1001
GENIUS_GENODEF_13
1002
{
1000
HIER
1070
     0
1002
}
1002
{
1000
MANEDIT
1070
     0
1002
}
1002
{
1000
NOSEL
1070
     0
1002
}
1002
{
1000
BEHIND
1070
     0
1002
}
1002
{
1000
OTHER
1070
     0
1002
}
1002
{
1000
REACTOR
1002
}
  0
ARC
  5
6D2
330
1F
100
AcDbEntity
  8
0
100
AcDbCircle
 10
-19.12482288205933
 20
344.698094666275
 30
0.0
 40
6.0
100
AcDbArc
 50
180.0
 51
270.0
1001
GENIUS_GENODEF_13
1002
{
1000
HIER
1070
     0
1002
}
1002
{
1000
MANEDIT
1070
     0
1002
}
1002
{
1000
NOSEL
1070
     0
1002
}
1002
{
1000
BEHIND
1070
     0
1002
}
1002
{
1000
OTHER
1070
     0
1002
}
1002
{
1000
REACTOR
1002
}
1001
GENIUS_GENOBJ-N-FIL_13
1002
{
1000
OWNER
1000
GEN
1002
}
  0
ARC
  5
6D3
330
1F
100
AcDbEntity
  8
0
100
AcDbCircle
 10
25.37517711794067
 20
410.6980946662747
 30
0.0
 40
2.0
100
AcDbArc
 50
90.0
 51
180.0
1001
GENIUS_GENODEF_13
1002
{
1000
HIER
1070
     0
1002
}
1002
{
1000
MANEDIT
1070
     0
1002
}
1002
{
1000
NOSEL
1070
     0
1002
}
1002
{
1000
BEHIND
1070
     0
1002
}
1002
{
1000
OTHER
1070
     0
1002
}
1002
{
1000
REACTOR
1002
}
1001
GENIUS_GENOBJ-N-FIL_13
1002
{
1000
OWNER
1000
GEN
1002
}
  0
LINE
  5
6D4
330
1F
100
AcDbEntity
  8
0
100
AcDbLine
 10
-29.12482288205934
 20
412.6980946662749
 30
0.0
 11
-18.62482288205933
 21
412.6980946662749
 31
0.0
  0
ARC
  5
6D5
330
1F
100
AcDbEntity
  8
0
100
AcDbCircle
 10
-18.62482288205933
 20
410.6980946662747
 30
0.0
 40
2.0
100
AcDbArc
 50
0.0
 51
90.0
1001
GENIUS_GENODEF_13
1002
{
1000
HIER
1070
     0
1002
}
1002
{
1000
MANEDIT
1070
     0
1002
}
1002
{
1000
NOSEL
1070
     0
1002
}
1002
{
1000
BEHIND
1070
     0
1002
}
1002
{
1000
OTHER
1070
     0
1002
}
1002
{
1000
REACTOR
1002
}
1001
GENIUS_GENOBJ-N-FIL_13
1002
{
1000
OWNER
1000
GEN
1002
}
  0
ARC
  5
6D6
330
1F
100
AcDbEntity
  8
0
100
AcDbCircle
 10
25.37517711794067
 20
410.6980946662747
 30
0.0
 40
3.5
100
AcDbArc
 50
90.0
 51
180.0
1001
GENIUS_GENODEF_13
1002
{
1000
HIER
1070
     0
1002
}
1002
{
1000
MANEDIT
1070
     0
1002
}
1002
{
1000
NOSEL
1070
     0
1002
}
1002
{
1000
BEHIND
1070
     0
1002
}
1002
{
1000
OTHER
1070
     0
1002
}
1002
{
1000
REACTOR
1002
}
1001
GENIUS_GENOBJ-N-FIL_13
1002
{
1000
OWNER
1000
GEN
1002
}
  0
ARC
  5
6D7
330
1F
100
AcDbEntity
  8
0
100
AcDbCircle
 10
-18.62482288205933
 20
410.6980946662747
 30
0.0
 40
3.5
100
AcDbArc
 50
0.0
 51
90.0
1001
GENIUS_GENODEF_13
1002
{
1000
HIER
1070
     0
1002
}
1002
{
1000
MANEDIT
1070
     0
1002
}
1002
{
1000
NOSEL
1070
     0
1002
}
1002
{
1000
BEHIND
1070
     0
1002
}
1002
{
1000
OTHER
1070
     0
1002
}
1002
{
1000
REACTOR
1002
}
1001
GENIUS_GENOBJ-N-FIL_13
1002
{
1000
OWNER
1000
GEN
1002
}
  0
HATCH
  5
6D8
330
1F
100
AcDbEntity
  8
8
100
AcDbHatch
 10
0.0
 20
0.0
 30
0.0
210
0.0
220
0.0
230
1.0
  2
_U
 70
     0
 71
     0
 91
        1
 92
        1
 93
        8
 72
     1
 10
-16.62482288205933
 20
353.698094666275
 11
-16.62482288205933
 21
410.6980946662747
 72
     2
 10
-18.62482288205933
 20
410.6980946662747
 40
2.0
 50
360.0
 51
450.0
 73
     1
 72
     1
 10
-18.62482288205933
 20
412.6980946662749
 11
-29.12482288205934
 21
412.6980946662749
 72
     1
 10
-29.12482288205934
 20
412.6980946662749
 11
-29.12482288205934
 21
414.198094666275
 72
     1
 10
-29.12482288205934
 20
414.198094666275
 11
-18.62482288205933
 21
414.198094666275
 72
     2
 10
-18.62482288205933
 20
410.6980946662747
 40
3.5
 50
-90.0
 51
0.0
 73
     0
 72
     1
 10
-15.12482288205933
 20
410.6980946662747
 11
-15.12482288205933
 21
353.698094666275
 72
     1
 10
-15.12482288205933
 20
353.698094666275
 11
-16.62482288205933
 21
353.698094666275
 97
        0
 75
     0
 76
     0
 52
45.0
 41
5.0
 77
     0
 78
     1
 53
135.0
 43
121.4387841128175
 44
210.9837353287332
 45
3.535533905932736
 46
3.535533905932736
 79
     0
 98
        1
 10
121.4387841128175
 20
210.9837353287332
1001
GENIUS_GENODEF_13
1002
{
1000
HIER
1070
     0
1002
}
1002
{
1000
MANEDIT
1070
     0
1002
}
1002
{
1000
NOSEL
1070
     0
1002
}
1002
{
1000
BEHIND
1070
     0
1002
}
1002
{
1000
OTHER
1070
     0
1002
}
1002
{
1000
REACTOR
1002
}
1001
GENIUS_GENOBJ-N-HTC_13
1002
{
1000
OWNER
1000
GEN
1002
}
1001
GENIUS_GENHATCH_13
1002
{
1000
DATA
1040
45.0
1042
-5.0
1000
_U
1070
     0
1011
-15.85450181114834
1021
393.6652952434124
1031
0.0
1002
}
1002
{
1000
UCS
1010
0.0
1020
0.0
1030
0.0
1010
1.0
1020
0.0
1030
0.0
1010
0.0
1020
1.0
1030
0.0
1002
}
  0
HATCH
  5
6D9
330
1F
100
AcDbEntity
  8
8
100
AcDbHatch
 10
0.0
 20
0.0
 30
0.0
210
0.0
220
0.0
230
1.0
  2
_U
 70
     0
 71
     0
 91
        1
 92
        1
 93
        8
 72
     1
 10
25.37517711794067
 20
414.198094666275
 11
35.87517711794067
 21
414.198094666275
 72
     1
 10
35.87517711794067
 20
414.198094666275
 11
35.87517711794067
 21
412.6980946662752
 72
     1
 10
35.87517711794067
 20
412.6980946662749
 11
25.37517711794067
 21
412.6980946662749
 72
     2
 10
25.37517711794067
 20
410.6980946662747
 40
2.0
 50
450.0
 51
540.0
 73
     1
 72
     1
 10
23.37517711794067
 20
410.6980946662747
 11
23.37517711794067
 21
353.698094666275
 72
     1
 10
23.37517711794067
 20
353.698094666275
 11
21.87517711794066
 21
353.698094666275
 72
     1
 10
21.87517711794066
 20
353.698094666275
 11
21.87517711794066
 21
410.6980946662747
 72
     2
 10
25.37517711794067
 20
410.6980946662747
 40
3.5
 50
-180.0
 51
-90.0
 73
     0
 97
        0
 75
     0
 76
     0
 52
45.0
 41
5.0
 77
     0
 78
     1
 53
135.0
 43
121.4387841128175
 44
210.9837353287332
 45
3.535533905932736
 46
3.535533905932736
 79
     0
 98
        1
 10
121.4387841128175
 20
210.9837353287332
1001
GENIUS_GENODEF_13
1002
{
1000
HIER
1070
     0
1002
}
1002
{
1000
MANEDIT
1070
     0
1002
}
1002
{
1000
NOSEL
1070
     0
1002
}
1002
{
1000
BEHIND
1070
     0
1002
}
1002
{
1000
OTHER
1070
     0
1002
}
1002
{
1000
REACTOR
1002
}
1001
GENIUS_GENOBJ-N-HTC_13
1002
{
1000
OWNER
1000
GEN
1002
}
1001
GENIUS_GENHATCH_13
1002
{
1000
DATA
1040
45.0
1042
-5.0
1000
_U
1070
     0
1011
22.51244508784066
1021
391.4457559245814
1031
0.0
1002
}
1002
{
1000
UCS
1010
0.0
1020
0.0
1030
0.0
1010
1.0
1020
0.0
1030
0.0
1010
0.0
1020
1.0
1030
0.0
1002
}
  0
LINE
  5
6DA
330
1F
100
AcDbEntity
  8
0
100
AcDbLine
 10
31.87517711794067
 20
403.6980946662749
 30
0.0
 11
30.87517711794067
 21
403.6980946662749
 31
0.0
  0
LINE
  5
6DB
330
1F
100
AcDbEntity
  8
0
100
AcDbLine
 10
31.87517711794067
 20
412.6980946662749
 30
0.0
 11
25.37517711794067
 21
412.6980946662749
 31
0.0
  0
LINE
  5
6DC
330
1F
100
AcDbEntity
  8
0
100
AcDbLine
 10
31.87517711794067
 20
403.6980946662749
 30
0.0
 11
30.11447256212546
 21
403.6980946662749
 31
0.0
  0
LINE
  5
6DD
330
1F
100
AcDbEntity
  8
0
100
AcDbLine
 10
23.37517711794067
 20
410.6980946662747
 30
0.0
 11
23.37517711794067
 21
392.698094666275
 31
0.0
  0
LINE
  5
6DE
330
1F
100
AcDbEntity
  8
0
100
AcDbLine
 10
30.37517711794067
 20
401.2180946662749
 30
0.0
 11
30.37517711794067
 21
399.218094666275
 31
0.0
  0
LINE
  5
6DF
330
1F
100
AcDbEntity
  8
0
100
AcDbLine
 10
23.37517711794067
 20
392.698094666275
 30
0.0
 11
26.6108533628244
 21
392.698094666275
 31
0.0
  0
LINE
  5
6E0
330
1F
100
AcDbEntity
  8
0
100
AcDbLine
 10
31.87517711794067
 20
403.6980946662749
 30
0.0
 11
31.87517711794067
 21
412.6980946662749
 31
0.0
  0
LINE
  5
6E1
330
1F
100
AcDbEntity
  8
0
100
AcDbLine
 10
30.37517711794067
 20
401.2180946662749
 30
0.0
 11
29.65088063484245
 21
403.0107913695672
 31
0.0
  0
ARC
  5
6E2
330
1F
100
AcDbEntity
  8
0
100
AcDbCircle
 10
30.11447256212546
 20
403.1980946662749
 30
0.0
 40
0.5
100
AcDbArc
 50
90.0
 51
201.9999999999892
  0
LINE
  5
6E3
330
1F
100
AcDbEntity
  8
0
100
AcDbLine
 10
30.37517711794067
 20
399.218094666275
 30
0.0
 11
26.6108533628244
 21
392.698094666275
 31
0.0
  0
LINE
  5
6E4
330
1F
100
AcDbEntity
  8
0
100
AcDbLine
 10
25.37517711794067
 20
412.6980946662749
 30
0.0
 11
23.37517711794067
 21
410.6980946662747
 31
0.0
  0
LINE
  5
6E5
330
1F
100
AcDbEntity
  8
3
100
AcDbLine
 10
31.87517711794067
 20
410.198094666275
 30
0.0
 11
23.37517711794067
 21
410.198094666275
 31
0.0
  0
LINE
  5
6E6
330
1F
100
AcDbEntity
  8
3
100
AcDbLine
 10
30.11447256212546
 20
403.6980946662749
 30
0.0
 11
23.37517711794067
 21
403.6980946662749
 31
0.0
  0
LINE
  5
6E7
330
1F
100
AcDbEntity
  8
0
100
AcDbLine
 10
30.87517711794067
 20
400.6980946662749
 30
0.0
 11
30.40220414496776
 21
403.5359325041127
 31
0.0
  0
LINE
  5
6E8
330
1F
100
AcDbEntity
  8
0
100
AcDbLine
 10
31.87517711794067
 20
400.6980946662749
 30
0.0
 11
31.37517711794067
 21
403.6980946662749
 31
0.0
  0
LINE
  5
6E9
330
1F
100
AcDbEntity
  8
0
100
AcDbLine
 10
31.37517711794067
 20
403.6980946662749
 30
0.0
 11
30.40220414496776
 21
403.5359325041127
 31
0.0
  0
LINE
  5
6EA
330
1F
100
AcDbEntity
  8
0
100
AcDbLine
 10
30.40220414496776
 20
403.5359325041127
 30
0.0
 11
29.74587305680143
 21
403.5359325041127
 31
0.0
  0
LINE
  5
6EB
330
1F
100
AcDbEntity
  8
0
100
AcDbLine
 10
-24.12482288205934
 20
400.6980946662749
 30
0.0
 11
-23.65184990908665
 21
403.5359325041127
 31
0.0
  0
LINE
  5
6EC
330
1F
100
AcDbEntity
  8
0
100
AcDbLine
 10
-25.12482288205934
 20
400.6980946662749
 30
0.0
 11
-24.62482288205933
 21
403.6980946662749
 31
0.0
  0
LINE
  5
6ED
330
1F
100
AcDbEntity
  8
0
100
AcDbLine
 10
-24.62482288205933
 20
403.6980946662749
 30
0.0
 11
-23.65184990908665
 21
403.5359325041127
 31
0.0
  0
LINE
  5
6EE
330
1F
100
AcDbEntity
  8
0
100
AcDbLine
 10
-23.65184990908665
 20
403.5359325041127
 30
0.0
 11
-16.62482288205933
 21
403.5359325041127
 31
0.0
  0
LINE
  5
6EF
330
1F
100
AcDbEntity
  8
0
100
AcDbLine
 10
1826.031458895082
 20
442.7226660952356
 30
0.0
 11
1726.031454748282
 21
442.7226660951019
 31
0.0
  0
LINE
  5
6F0
330
1F
100
AcDbEntity
  8
0
100
AcDbLine
 10
1744.031458895145
 20
423.6427989766876
 30
0.0
 11
1744.03145474829
 21
440.7226660950736
 31
0.0
  0
LINE
  5
6F1
330
1F
100
AcDbEntity
  8
0
100
AcDbLine
 10
1745.031458895139
 20
423.6427989766967
 30
0.0
 11
1745.031454748386
 21
440.7226660950656
 31
0.0
  0
LINE
  5
6F2
330
1F
100
AcDbEntity
  8
0
100
AcDbLine
 10
1747.197549854794
 20
422.5421585151585
 30
0.0
 11
1745.948413415289
 21
422.6462532184495
 31
0.0
  0
LINE
  5
6F3
330
1F
100
AcDbEntity
  8
0
100
AcDbLine
 10
1857.031458895079
 20
427.7226660950881
 30
0.0
 11
1857.03145889508
 21
426.7226660950969
 31
0.0
  0
LINE
  5
6F4
330
1F
100
AcDbEntity
  8
0
100
AcDbLine
 10
1828.031458895054
 20
426.7226660951243
 30
0.0
 11
1857.03145889508
 21
426.7226660950986
 31
0.0
  0
LINE
  5
6F5
330
1F
100
AcDbEntity
  8
0
100
AcDbLine
 10
1828.031458895106
 20
427.7226660951242
 30
0.0
 11
1857.031458895079
 21
427.7226660950986
 31
0.0
  0
LINE
  5
6F6
330
1F
100
AcDbEntity
  8
0
100
AcDbLine
 10
1822.865367935383
 20
422.5421585151572
 30
0.0
 11
1824.114504374891
 21
422.6462532184495
 31
0.0
  0
LINE
  5
6F7
330
1F
100
AcDbEntity
  8
0
100
AcDbLine
 10
1826.031458895039
 20
423.6427989766876
 30
0.0
 11
1826.031458895095
 21
441.7226660952356
 31
0.0
  0
LINE
  5
6F8
330
1F
100
AcDbEntity
  8
0
100
AcDbLine
 10
1825.031458895039
 20
423.6427989766899
 30
0.0
 11
1825.031458895099
 21
441.7226660952342
 31
0.0
  0
LINE
  5
6F9
330
1F
100
AcDbEntity
  8
0
100
AcDbLine
 10
1827.031458895068
 20
441.7226660952333
 30
0.0
 11
1827.031458895106
 21
428.7226660951214
 31
0.0
  0
LINE
  5
6FA
330
1F
100
AcDbEntity
  8
7A
100
AcDbLine
 10
1785.031458895152
 20
329.8509310736196
 30
0.0
 11
1785.031458895136
 21
359.3055057573402
 31
0.0
1001
GENIUS_GENOBJ-N-CEN_13
1002
{
1000
OWNER
1000
GEN
1002
}
1001
GENIUS_GENODEF_13
1002
{
1000
HIER
1070
     0
1002
}
1002
{
1000
MANEDIT
1070
     0
1002
}
1002
{
1000
NOSEL
1070
     0
1002
}
1002
{
1000
BEHIND
1070
     0
1002
}
1002
{
1000
OTHER
1070
     0
1002
}
1002
{
1000
REACTOR
1002
}
  0
LINE
  5
6FB
330
1F
100
AcDbEntity
  8
0
100
AcDbLine
 10
1747.031458895088
 20
410.7226660951246
 30
0.0
 11
1747.031458895088
 21
343.6980946662766
 31
0.0
1001
GENIUS_GENODEF_13
1002
{
1000
HIER
1070
     0
1002
}
1002
{
1000
MANEDIT
1070
     0
1002
}
1002
{
1000
NOSEL
1070
     0
1002
}
1002
{
1000
BEHIND
1070
     0
1002
}
1002
{
1000
REACTOR
1002
}
1001
GENIUS_GENOBJ-N-CEN_13
1002
{
1000
OWNER
1000
GEN
1002
}
  0
LINE
  5
6FC
330
1F
100
AcDbEntity
  8
0
100
AcDbLine
 10
1823.031458895088
 20
410.7226660951246
 30
0.0
 11
1823.031458895088
 21
403.6980946663864
 31
0.0
1001
GENIUS_GENODEF_13
1002
{
1000
HIER
1070
     0
1002
}
1002
{
1000
MANEDIT
1070
     0
1002
}
1002
{
1000
NOSEL
1070
     0
1002
}
1002
{
1000
BEHIND
1070
     0
1002
}
1002
{
1000
REACTOR
1002
}
1001
GENIUS_GENOBJ-N-CEN_13
1002
{
1000
OWNER
1000
GEN
1002
}
  0
LINE
  5
6FD
330
1F
100
AcDbEntity
  8
7A
100
AcDbLine
 10
1815.81963063159
 20
378.6980946663872
 30
0.0
 11
1888.406634502811
 21
378.6980946663872
 31
0.0
1001
GENIUS_GENOBJ-N-CEN_13
1002
{
1000
OWNER
1000
GEN
1002
}
1001
GENIUS_GENODEF_13
1002
{
1000
HIER
1070
     0
1002
}
1002
{
1000
MANEDIT
1070
     0
1002
}
1002
{
1000
NOSEL
1070
     0
1002
}
1002
{
1000
BEHIND
1070
     0
1002
}
1002
{
1000
OTHER
1070
     0
1002
}
1002
{
1000
REACTOR
1002
}
  0
LINE
  5
6FE
330
1F
100
AcDbEntity
  8
0
100
AcDbLine
 10
1754.031458895089
 20
336.6980946662754
 30
0.0
 11
1816.031458895091
 21
336.6980946662754
 31
0.0
  0
LINE
  5
6FF
330
1F
100
AcDbEntity
  8
0
100
AcDbLine
 10
1883.031458895089
 20
403.6980946663864
 30
0.0
 11
1883.031458895089
 21
353.6980946663871
 31
0.0
1001
GENIUS_GENODEF_13
1002
{
1000
HIER
1070
     0
1002
}
1002
{
1000
MANEDIT
1070
     0
1002
}
1002
{
1000
NOSEL
1070
     0
1002
}
1002
{
1000
BEHIND
1070
     0
1002
}
1002
{
1000
REACTOR
1002
}
1001
GENIUS_GENOBJ-N-CEN_13
1002
{
1000
OWNER
1000
GEN
1002
}
  0
LINE
  5
700
330
1F
100
AcDbEntity
  8
0
100
AcDbLine
 10
1821.031458895088
 20
403.6980946663864
 30
0.0
 11
1883.031458895089
 21
403.6980946663864
 31
0.0
1001
GENIUS_GENOBJ-N-CEN_13
1002
{
1000
OWNER
1000
GEN
1002
}
1001
GENIUS_GENODEF_13
1002
{
1000
HIER
1070
     0
1002
}
1002
{
1000
MANEDIT
1070
     0
1002
}
1002
{
1000
NOSEL
1070
     0
1002
}
1002
{
1000
BEHIND
1070
     0
1002
}
1002
{
1000
OTHER
1070
     0
1002
}
1002
{
1000
REACTOR
1002
}
  0
LINE
  5
701
330
1F
100
AcDbEntity
  8
0
100
AcDbLine
 10
1821.031458895088
 20
353.6980946663871
 30
0.0
 11
1883.031458895089
 21
353.6980946663871
 31
0.0
1001
GENIUS_GENOBJ-N-CEN_13
1002
{
1000
OWNER
1000
GEN
1002
}
1001
GENIUS_GENODEF_13
1002
{
1000
HIER
1070
     0
1002
}
1002
{
1000
MANEDIT
1070
     0
1002
}
1002
{
1000
NOSEL
1070
     0
1002
}
1002
{
1000
BEHIND
1070
     0
1002
}
1002
{
1000
OTHER
1070
     0
1002
}
1002
{
1000
REACTOR
1002
}
  0
ARC
  5
702
330
1F
100
AcDbEntity
  8
0
100
AcDbCircle
 10
1872.114792228423
 20
378.6980946663872
 30
0.0
 40
55.08333333333284
100
AcDbArc
 50
154.746352100939
 51
205.2536478990609
  0
LINE
  5
703
330
1F
100
AcDbEntity
  8
0
100
AcDbLine
 10
1823.031458895088
 20
353.6980946663871
 30
0.0
 11
1823.03145889509
 21
343.6980946662766
 31
0.0
1001
GENIUS_GENODEF_13
1002
{
1000
HIER
1070
     0
1002
}
1002
{
1000
MANEDIT
1070
     0
1002
}
1002
{
1000
NOSEL
1070
     0
1002
}
1002
{
1000
BEHIND
1070
     0
1002
}
1002
{
1000
REACTOR
1002
}
1001
GENIUS_GENOBJ-N-CEN_13
1002
{
1000
OWNER
1000
GEN
1002
}
  0
LINE
  5
704
330
1F
100
AcDbEntity
  8
0
100
AcDbLine
 10
1822.295884059824
 20
402.198094666387
 30
0.0
 11
1883.031458895089
 21
402.198094666387
 31
0.0
1001
GENIUS_GENOBJ-N-CEN_13
1002
{
1000
OWNER
1000
GEN
1002
}
1001
GENIUS_GENODEF_13
1002
{
1000
HIER
1070
     0
1002
}
1002
{
1000
MANEDIT
1070
     0
1002
}
1002
{
1000
NOSEL
1070
     0
1002
}
1002
{
1000
BEHIND
1070
     0
1002
}
1002
{
1000
OTHER
1070
     0
1002
}
1002
{
1000
REACTOR
1002
}
  0
LINE
  5
705
330
1F
100
AcDbEntity
  8
0
100
AcDbLine
 10
1822.295884059824
 20
355.1980946663871
 30
0.0
 11
1883.031458895089
 21
355.1980946663871
 31
0.0
1001
GENIUS_GENOBJ-N-CEN_13
1002
{
1000
OWNER
1000
GEN
1002
}
1001
GENIUS_GENODEF_13
1002
{
1000
HIER
1070
     0
1002
}
1002
{
1000
MANEDIT
1070
     0
1002
}
1002
{
1000
NOSEL
1070
     0
1002
}
1002
{
1000
BEHIND
1070
     0
1002
}
1002
{
1000
OTHER
1070
     0
1002
}
1002
{
1000
REACTOR
1002
}
  0
ARC
  5
706
330
1F
100
AcDbEntity
  8
0
100
AcDbCircle
 10
1881.054098471028
 20
378.6980946663872
 30
0.0
 40
65.02089865314991
100
AcDbArc
 50
157.3878080414821
 51
202.6121919585178
  0
LINE
  5
707
330
1F
100
AcDbEntity
  8
0
100
AcDbLine
 10
1821.031458895088
 20
403.6980946663864
 30
0.0
 11
1822.295884059824
 21
402.198094666387
 31
0.0
  0
LINE
  5
708
330
1F
100
AcDbEntity
  8
0
100
AcDbLine
 10
1821.031458895088
 20
353.6980946663871
 30
0.0
 11
1822.295884059824
 21
355.1980946663871
 31
0.0
  0
LINE
  5
709
330
1F
100
AcDbEntity
  8
0
100
AcDbLine
 10
1785.072981635018
 20
418.3824063186044
 30
0.0
 11
1748.840572260286
 21
421.4017737664699
 31
0.0
  0
LINE
  5
70A
330
1F
100
AcDbEntity
  8
0
100
AcDbLine
 10
1784.989936155167
 20
418.3824063186044
 30
0.0
 11
1821.22234552989
 21
421.4017737664691
 31
0.0
  0
ARC
  5
70B
330
1F
100
AcDbEntity
  8
0
100
AcDbCircle
 10
1826.031458895082
 20
441.7226660952302
 30
0.0
 40
0.9999999999848339
100
AcDbArc
 50
359.9999999997655
 51
179.9999999997655
  0
ARC
  5
70C
330
1F
100
AcDbEntity
  8
0
100
AcDbCircle
 10
1746.031458895145
 20
423.6427989766941
 30
0.0
 40
2.0
100
AcDbArc
 50
180.0000000001563
 51
265.2363583092438
  0
ARC
  5
70D
330
1F
100
AcDbEntity
  8
0
100
AcDbCircle
 10
1824.03145889504
 20
423.6427989766941
 30
0.0
 40
2.0
100
AcDbArc
 50
274.7636416907562
 51
359.9999999997655
  0
ARC
  5
70E
330
1F
100
AcDbEntity
  8
0
100
AcDbCircle
 10
1828.031458895056
 20
428.7226660951242
 30
0.0
 40
2.0
100
AcDbArc
 50
179.9999999997655
 51
269.9999999998958
  0
ARC
  5
70F
330
1F
100
AcDbEntity
  8
0
100
AcDbCircle
 10
1746.03145889514
 20
423.6427989766941
 30
0.0
 40
1.0
100
AcDbArc
 50
179.9999999998437
 51
265.2363583092438
  0
ARC
  5
710
330
1F
100
AcDbEntity
  8
0
100
AcDbCircle
 10
1824.03145889504
 20
423.6427989766941
 30
0.0
 40
1.0
100
AcDbArc
 50
274.7636416907562
 51
359.9999999997655
  0
ARC
  5
711
330
1F
100
AcDbEntity
  8
0
100
AcDbCircle
 10
1828.031458895106
 20
428.7226660951242
 30
0.0
 40
1.0
100
AcDbArc
 50
180.0000000001302
 51
269.9999999998958
  0
ARC
  5
712
330
1F
100
AcDbEntity
  8
0
100
AcDbCircle
 10
1754.031458895089
 20
343.6980946662754
 30
0.0
 40
7.0
100
AcDbArc
 50
180.0
 51
270.0
  0
ARC
  5
713
330
1F
100
AcDbEntity
  8
0
100
AcDbCircle
 10
1816.031458895091
 20
343.6980946662754
 30
0.0
 40
7.0
100
AcDbArc
 50
270.0
 51
0.0
1001
GENIUS_GENODEF_13
1002
{
1000
HIER
1070
     0
1002
}
1002
{
1000
MANEDIT
1070
     0
1002
}
1002
{
1000
NOSEL
1070
     0
1002
}
1002
{
1000
BEHIND
1070
     0
1002
}
1002
{
1000
REACTOR
1002
}
1001
GENIUS_GENOBJ-N-CEN_13
1002
{
1000
OWNER
1000
GEN
1002
}
  0
LINE
  5
714
330
1F
100
AcDbEntity
  8
0
100
AcDbLine
 10
1821.031458895088
 20
420.5490669986689
 30
0.0
 11
1821.031458895088
 21
403.6980946663864
 31
0.0
1001
GENIUS_GENODEF_13
1002
{
1000
HIER
1070
     0
1002
}
1002
{
1000
MANEDIT
1070
     0
1002
}
1002
{
1000
NOSEL
1070
     0
1002
}
1002
{
1000
BEHIND
1070
     0
1002
}
1002
{
1000
REACTOR
1002
}
1001
GENIUS_GENOBJ-N-CEN_13
1002
{
1000
OWNER
1000
GEN
1002
}
  0
LINE
  5
715
330
1F
100
AcDbEntity
  8
0
100
AcDbLine
 10
1821.031458895088
 20
353.6980946663871
 30
0.0
 11
1821.03145889509
 21
343.6980946662766
 31
0.0
1001
GENIUS_GENODEF_13
1002
{
1000
HIER
1070
     0
1002
}
1002
{
1000
MANEDIT
1070
     0
1002
}
1002
{
1000
NOSEL
1070
     0
1002
}
1002
{
1000
BEHIND
1070
     0
1002
}
1002
{
1000
REACTOR
1002
}
1001
GENIUS_GENOBJ-N-CEN_13
1002
{
1000
OWNER
1000
GEN
1002
}
  0
ARC
  5
716
330
1F
100
AcDbEntity
  8
0
100
AcDbCircle
 10
1816.031458895091
 20
343.6980946662754
 30
0.0
 40
5.0
100
AcDbArc
 50
270.0
 51
0.0
1001
GENIUS_GENODEF_13
1002
{
1000
HIER
1070
     0
1002
}
1002
{
1000
MANEDIT
1070
     0
1002
}
1002
{
1000
NOSEL
1070
     0
1002
}
1002
{
1000
BEHIND
1070
     0
1002
}
1002
{
1000
REACTOR
1002
}
1001
GENIUS_GENOBJ-N-CEN_13
1002
{
1000
OWNER
1000
GEN
1002
}
  0
LINE
  5
717
330
1F
100
AcDbEntity
  8
0
100
AcDbLine
 10
1754.031458895089
 20
338.6980946662754
 30
0.0
 11
1816.031458895091
 21
338.6980946662754
 31
0.0
  0
ARC
  5
718
330
1F
100
AcDbEntity
  8
0
100
AcDbCircle
 10
1754.031458895089
 20
343.6980946662754
 30
0.0
 40
5.0
100
AcDbArc
 50
180.0
 51
270.0
  0
LINE
  5
719
330
1F
100
AcDbEntity
  8
0
100
AcDbLine
 10
1749.031458895087
 20
420.5490669986689
 30
0.0
 11
1749.031458895087
 21
343.6980946662754
 31
0.0
1001
GENIUS_GENODEF_13
1002
{
1000
HIER
1070
     0
1002
}
1002
{
1000
MANEDIT
1070
     0
1002
}
1002
{
1000
NOSEL
1070
     0
1002
}
1002
{
1000
BEHIND
1070
     0
1002
}
1002
{
1000
REACTOR
1002
}
1001
GENIUS_GENOBJ-N-CEN_13
1002
{
1000
OWNER
1000
GEN
1002
}
  0
LINE
  5
71A
330
1F
100
AcDbEntity
  8
0
  6
ByBlock
100
AcDbLine
 10
1747.031458895088
 20
410.7226660951246
 30
0.0
 11
1754.433173179746
 21
410.722666095125
 31
0.0
  0
LINE
  5
71B
330
1F
100
AcDbEntity
  8
0
  6
ByBlock
100
AcDbLine
 10
1815.629744610546
 20
410.722666095125
 30
0.0
 11
1823.031458895088
 21
410.7226660951246
 31
0.0
  0
LINE
  5
71C
330
1F
100
AcDbEntity
  8
0
100
AcDbLine
 10
1748.031458895088
 20
420.5490669986689
 30
0.0
 11
1748.031458895088
 21
410.722666095126
 31
0.0
1001
GENIUS_GENODEF_13
1002
{
1000
HIER
1070
     0
1002
}
1002
{
1000
MANEDIT
1070
     0
1002
}
1002
{
1000
NOSEL
1070
     0
1002
}
1002
{
1000
BEHIND
1070
     0
1002
}
1002
{
1000
REACTOR
1002
}
1001
GENIUS_GENOBJ-N-CEN_13
1002
{
1000
OWNER
1000
GEN
1002
}
  0
LINE
  5
71D
330
1F
100
AcDbEntity
  8
0
100
AcDbLine
 10
1822.031458895089
 20
420.5490669986689
 30
0.0
 11
1822.031458895089
 21
410.7226660951246
 31
0.0
1001
GENIUS_GENODEF_13
1002
{
1000
HIER
1070
     0
1002
}
1002
{
1000
MANEDIT
1070
     0
1002
}
1002
{
1000
NOSEL
1070
     0
1002
}
1002
{
1000
BEHIND
1070
     0
1002
}
1002
{
1000
REACTOR
1002
}
1001
GENIUS_GENOBJ-N-CEN_13
1002
{
1000
OWNER
1000
GEN
1002
}
  0
ARC
  5
71E
330
1F
100
AcDbEntity
  8
0
100
AcDbCircle
 10
1747.031458895088
 20
420.5490669986689
 30
0.0
 40
2.0
100
AcDbArc
 50
0.0
 51
85.23635830924375
1001
GENIUS_GENODEF_13
1002
{
1000
HIER
1070
     0
1002
}
1002
{
1000
MANEDIT
1070
     0
1002
}
1002
{
1000
NOSEL
1070
     0
1002
}
1002
{
1000
BEHIND
1070
     0
1002
}
1002
{
1000
REACTOR
1002
}
1001
GENIUS_GENOBJ-N-CEN_13
1002
{
1000
OWNER
1000
GEN
1002
}
  0
LINE
  5
71F
330
1F
100
AcDbEntity
  8
0
  6
ByBlock
100
AcDbLine
 10
1747.197549854794
 20
422.5421585151585
 30
0.0
 11
1785.03145889509
 21
419.3893327618321
 31
0.0
  0
ARC
  5
720
330
1F
100
AcDbEntity
  8
0
100
AcDbCircle
 10
1823.031458895088
 20
420.5490669986689
 30
0.0
 40
2.0
100
AcDbArc
 50
94.76364169075626
 51
180.0
1001
GENIUS_GENODEF_13
1002
{
1000
HIER
1070
     0
1002
}
1002
{
1000
MANEDIT
1070
     0
1002
}
1002
{
1000
NOSEL
1070
     0
1002
}
1002
{
1000
BEHIND
1070
     0
1002
}
1002
{
1000
REACTOR
1002
}
1001
GENIUS_GENOBJ-N-CEN_13
1002
{
1000
OWNER
1000
GEN
1002
}
  0
LINE
  5
721
330
1F
100
AcDbEntity
  8
0
  6
ByBlock
100
AcDbLine
 10
1822.865367935383
 20
422.5421585151572
 30
0.0
 11
1785.03145889509
 21
419.3893327618321
 31
0.0
  0
LINE
  5
722
330
1F
100
AcDbEntity
  8
0
100
AcDbLine
 10
1822.948413415234
 20
421.5456127569127
 30
0.0
 11
1824.197549854747
 21
421.6497074602049
 31
0.0
  0
LINE
  5
723
330
1F
100
AcDbEntity
  8
0
100
AcDbLine
 10
1747.11450437494
 20
421.5456127569127
 30
0.0
 11
1745.865367935438
 21
421.6497074602049
 31
0.0
  0
ARC
  5
724
330
1F
100
AcDbEntity
  8
0
100
AcDbCircle
 10
1747.031458895088
 20
420.5490669986689
 30
0.0
 40
1.0
100
AcDbArc
 50
0.0
 51
85.23635830924375
1001
GENIUS_GENODEF_13
1002
{
1000
HIER
1070
     0
1002
}
1002
{
1000
MANEDIT
1070
     0
1002
}
1002
{
1000
NOSEL
1070
     0
1002
}
1002
{
1000
BEHIND
1070
     0
1002
}
1002
{
1000
REACTOR
1002
}
1001
GENIUS_GENOBJ-N-CEN_13
1002
{
1000
OWNER
1000
GEN
1002
}
  0
ARC
  5
725
330
1F
100
AcDbEntity
  8
0
100
AcDbCircle
 10
1823.031458895088
 20
420.5490669986689
 30
0.0
 40
1.0
100
AcDbArc
 50
94.76364169075626
 51
180.0
  0
HATCH
  5
726
330
1F
100
AcDbEntity
  8
KLIN
  6
ByBlock
100
AcDbHatch
 10
0.0
 20
0.0
 30
0.0
210
0.0
220
0.0
230
1.0
  2
LINE
 70
     0
 71
     0
 91
        4
 92
        7
 72
     0
 73
     1
 93
        4
 10
1823.031458895088
 20
411.6980946662748
 10
1821.031458895088
 20
411.6980946662762
 10
1821.031458895088
 20
403.6980946663864
 10
1823.031458895088
 20
403.6980946663864
 97
        0
 92
        7
 72
     1
 73
     1
 93
        8
 10
1749.031458895087
 20
386.124727136974
 42
0.0
 10
1747.031458895088
 20
385.450134532997
 42
0.0
 10
1747.031458895088
 20
343.6980946662766
 42
0.4142135623730982
 10
1754.031458895089
 20
336.6980946662754
 42
0.0
 10
1785.031458895149
 20
336.6980946662754
 42
0.0
 10
1785.031458895147
 20
338.6980946662754
 42
0.0
 10
1754.031458895089
 20
338.6980946662754
 42
-0.4142135623730974
 10
1749.031458895087
 20
343.6980946662766
 42
0.0
 97
        0
 92
        7
 72
     1
 73
     1
 93
        8
 10
1823.03145889509
 20
343.6980946662766
 42
0.0
 10
1823.031458895088
 20
353.6980946663871
 42
0.0
 10
1821.031458895088
 20
353.6980946663871
 42
0.0
 10
1821.03145889509
 20
343.6980946662766
 42
-0.4142135623731005
 10
1816.031458895091
 20
338.6980946662754
 42
0.0
 10
1785.031458895147
 20
338.6980946662754
 42
0.0
 10
1785.031458895149
 20
336.6980946662754
 42
0.0
 10
1816.031458895091
 20
336.6980946662754
 42
0.4142135623730998
 97
        0
 92
        1
 93
        4
 72
     1
 10
1749.031458895087
 20
410.7226660951246
 11
1747.031458895088
 21
410.7226660951246
 72
     1
 10
1747.031458895088
 20
410.7226660951246
 11
1747.031458895088
 21
385.450134532997
 72
     1
 10
1747.031458895088
 20
385.450134532997
 11
1749.03145889509
 21
386.124727136974
 72
     1
 10
1749.031458895087
 20
386.124727136974
 11
1749.031458895087
 21
410.722666095125
 97
        0
 75
     0
 76
     1
 52
135.0
 41
1.0
 77
     0
 78
     1
 53
135.0
 43
1562.943747127279
 44
155.8568350465301
 45
-2.245064030267287
 46
-2.245064030267287
 79
     0
 47
2.718374431718904
 98
        4
 10
1822.251526446518
 20
407.8242035221279
 10
1748.27003761843
 20
401.3001045488495
 10
1748.27003761843
 20
368.1359358052802
 10
1808.651986117863
 20
337.9619803012666
  0
HATCH
  5
727
330
1F
100
AcDbEntity
  8
KLIN
  6
ByBlock
100
AcDbHatch
 10
0.0
 20
0.0
 30
0.0
210
0.0
220
0.0
230
1.0
  2
LINE
 70
     0
 71
     0
 91
        3
 92
        7
 72
     0
 73
     1
 93
        4
 10
1883.031458895089
 20
403.6980946663864
 10
1821.031458895088
 20
403.6980946663864
 10
1822.295884059824
 20
402.198094666387
 10
1883.031458895089
 20
402.198094666387
 97
        0
 92
        7
 72
     0
 73
     1
 93
        4
 10
1855.353948024983
 20
355.1980946663871
 10
1822.295884059824
 20
355.1980946663871
 10
1821.031458895088
 20
353.6980946663871
 10
1856.111972570101
 20
353.6980946663871
 97
        0
 92
        7
 72
     0
 73
     1
 93
        4
 10
1883.031458895089
 20
355.1980946663871
 10
1855.353948024983
 20
355.1980946663871
 10
1856.111972570101
 20
353.6980946663871
 10
1883.031458895089
 20
353.6980946663871
 97
        0
 75
     0
 76
     1
 52
45.0
 41
0.5
 77
     0
 78
     1
 53
45.0
 43
1562.943747127279
 44
155.8568350465301
 45
-1.122532015133643
 46
1.122532015133643
 79
     0
 47
2.718374431718904
 98
        3
 10
1840.474907469832
 20
402.9311289464145
 10
1840.746897605941
 20
354.5440639815444
 10
1864.682086153946
 20
354.2722270429555
  0
DIMENSION
  5
728
330
1F
100
AcDbEntity
  8
AM_5
100
AcDbDimension
  2
*D20
 10
1745.031454748386
 20
490.4532535941462
 30
0.0
 11
1785.031456821743
 21
496.9532535941462
 31
0.0
 70
    32
 71
     5
 42
80.00000414671195
  3
AM_DIN$0
100
AcDbAlignedDimension
 13
1825.031458895099
 23
441.7226660952302
 33
0.0
 14
1745.031454748386
 24
440.7226660950656
 34
0.0
100
AcDbRotatedDimension
1001
ACAD_DSTYLE_DIMINSPECT
1070
   396
1000
100%
1070
   395
1000

1070
   394
1070
    33
1070
   393
1070
     0
1001
ACAD
1000
DSTYLE
1002
{
1070
    41
1040
7.0
1070
   140
1040
10.0
1070
   271
1070
     0
1002
}
  0
LINE
  5
729
330
1F
100
AcDbEntity
  8
0
100
AcDbLine
 10
1760.031458895156
 20
315.7340946663873
 30
0.0
 11
1810.031458895156
 21
315.7340946663873
 31
0.0
  0
LINE
  5
72A
330
1F
100
AcDbEntity
  8
0
100
AcDbLine
 10
1760.031458895154
 20
317.7329518094945
 30
0.0
 11
1810.031458895156
 21
317.7329518094945
 31
0.0
  0
LINE
  5
72B
330
1F
100
AcDbEntity
  8
0
100
AcDbLine
 10
1760.031458895156
 20
315.7340946663873
 30
0.0
 11
1760.031458895145
 21
336.6980946662754
 31
0.0
  0
LINE
  5
72C
330
1F
100
AcDbEntity
  8
0
100
AcDbLine
 10
1810.031458895156
 20
315.7340946663873
 30
0.0
 11
1810.031458895149
 21
336.6980946662754
 31
0.0
  0
LINE
  5
72D
330
1F
100
AcDbEntity
  8
0
100
AcDbLine
 10
1765.031458895147
 20
410.6980946662747
 30
0.0
 11
1765.031458895147
 21
353.6980946662752
 31
0.0
  0
LINE
  5
72E
330
1F
100
AcDbEntity
  8
0
100
AcDbLine
 10
1765.031458895147
 20
353.6980946662752
 30
0.0
 11
1805.031458895147
 21
353.6980946662752
 31
0.0
  0
LINE
  5
72F
330
1F
100
AcDbEntity
  8
0
100
AcDbLine
 10
1805.031458895147
 20
353.6980946662752
 30
0.0
 11
1805.031458895147
 21
410.6980946662747
 31
0.0
  0
LINE
  5
730
330
1F
100
AcDbEntity
  8
0
100
AcDbLine
 10
1766.531458895147
 20
410.6980946662747
 30
0.0
 11
1766.531458895147
 21
353.6980946662752
 31
0.0
  0
LINE
  5
731
330
1F
100
AcDbEntity
  8
0
100
AcDbLine
 10
1803.531458895147
 20
353.6980946662752
 30
0.0
 11
1803.531458895147
 21
410.6980946662747
 31
0.0
  0
HATCH
  5
732
330
1F
100
AcDbEntity
  8
8
100
AcDbHatch
 10
0.0
 20
0.0
 30
0.0
210
0.0
220
0.0
230
1.0
  2
LINE
 70
     0
 71
     0
 91
        4
 92
        7
 72
     0
 73
     1
 93
        6
 10
1757.531458895147
 20
400.6980946662751
 10
1758.004431868118
 20
403.5359325041126
 10
1757.031458895147
 20
403.6980946662751
 10
1756.531458895147
 20
400.6980946662751
 10
1756.531458895147
 20
379.2141922782854
 10
1757.531458895147
 20
379.4704586956729
 97
        0
 92
        7
 72
     0
 73
     1
 93
        4
 10
1757.531458895147
 20
379.4704586956729
 10
1756.531458895147
 20
379.2141922782854
 10
1756.531458895147
 20
366.0348716040027
 10
1757.531458895147
 20
366.2911380213901
 97
        0
 92
        7
 72
     1
 73
     1
 93
        8
 10
1757.531458895147
 20
366.2911380213901
 42
0.0
 10
1756.531458895147
 20
366.0348716040027
 42
0.0
 10
1756.531458895147
 20
344.6980946662754
 42
0.4142135623730951
 10
1762.531458895147
 20
338.6980946662754
 42
0.0
 10
1785.031458895147
 20
338.6980946662754
 42
0.0
 10
1785.031458895147
 20
339.6980946662754
 42
0.0
 10
1762.531458895147
 20
339.6980946662754
 42
-0.4142135623730951
 10
1757.531458895147
 20
344.6980946662754
 42
0.0
 97
        0
 92
        7
 72
     1
 73
     1
 93
       10
 10
1813.531458895147
 20
344.6980946662754
 42
0.0
 10
1813.531458895147
 20
400.6980946662751
 42
0.0
 10
1813.031458895147
 20
403.6980946662751
 42
0.0
 10
1812.058485922174
 20
403.5359325041126
 42
0.0
 10
1812.531458895147
 20
400.6980946662751
 42
0.0
 10
1812.531458895147
 20
344.6980946662754
 42
-0.4142135623730951
 10
1807.531458895146
 20
339.6980946662754
 42
0.0
 10
1785.031458895147
 20
339.6980946662754
 42
0.0
 10
1785.031458895147
 20
338.6980946662754
 42
0.0
 10
1807.531458895146
 20
338.6980946662754
 42
0.4142135623730951
 97
        0
 75
     0
 76
     1
 52
45.0
 41
1.0
 77
     0
 78
     1
 53
45.0
 43
1666.967851900269
 44
210.9837353287336
 45
-2.245064030267287
 46
2.245064030267287
 79
     0
 47
0.144641785732262
 98
        4
 10
1756.852911989165
 20
397.3454933505633
 10
1756.997617460054
 20
369.8635520541821
 10
1757.142320429116
 20
362.0528962177997
 10
1791.581712128258
 20
339.3441355992169
  0
LINE
  5
733
330
1F
100
AcDbEntity
  8
0
100
AcDbLine
 10
1756.531458895147
 20
400.6980946662751
 30
0.0
 11
1756.531458895147
 21
344.6980946662754
 31
0.0
  0
LINE
  5
734
330
1F
100
AcDbEntity
  8
0
100
AcDbLine
 10
1813.531458895147
 20
344.6980946662754
 30
0.0
 11
1813.531458895147
 21
400.6980946662751
 31
0.0
  0
LINE
  5
735
330
1F
100
AcDbEntity
  8
0
100
AcDbLine
 10
1762.531458895147
 20
338.6980946662754
 30
0.0
 11
1807.531458895146
 21
338.6980946662754
 31
0.0
  0
LINE
  5
736
330
1F
100
AcDbEntity
  8
0
100
AcDbLine
 10
1805.031458895147
 20
403.6980946662751
 30
0.0
 11
1813.031458895147
 21
403.6980946662751
 31
0.0
  0
LINE
  5
737
330
1F
100
AcDbEntity
  8
0
100
AcDbLine
 10
1752.531458895147
 20
414.1980946662748
 30
0.0
 11
1752.531458895147
 21
412.6980946662751
 31
0.0
  0
LINE
  5
738
330
1F
100
AcDbEntity
  8
0
100
AcDbLine
 10
1748.531458895147
 20
412.6980946662751
 30
0.0
 11
1751.531458895145
 21
412.6980946662751
 31
0.0
  0
LINE
  5
739
330
1F
100
AcDbEntity
  8
0
100
AcDbLine
 10
1817.531458895147
 20
412.6980946662751
 30
0.0
 11
1817.531458895147
 21
414.1980946662748
 31
0.0
  0
LINE
  5
73A
330
1F
100
AcDbEntity
  8
0
100
AcDbLine
 10
1817.531458895147
 20
414.1980946662748
 30
0.0
 11
1752.531458895147
 21
414.1980946662748
 31
0.0
  0
CIRCLE
  5
73B
330
1F
100
AcDbEntity
  8
0
100
AcDbCircle
 10
1785.031458895147
 20
411.1980946662746
 30
0.0
 40
1.5
  0
LINE
  5
73C
330
1F
100
AcDbEntity
  8
7A
100
AcDbLine
 10
1780.531458895147
 20
411.1980946662746
 30
0.0
 11
1789.531458895147
 21
411.1980946662746
 31
0.0
1001
GENIUS_GENOBJ-N-CEN_13
1002
{
1000
OWNER
1000
GEN
1002
}
1001
GENIUS_GENODEF_13
1002
{
1000
HIER
1070
     0
1002
}
1002
{
1000
MANEDIT
1070
     0
1002
}
1002
{
1000
NOSEL
1070
     0
1002
}
1002
{
1000
BEHIND
1070
     0
1002
}
1002
{
1000
OTHER
1070
     0
1002
}
1002
{
1000
REACTOR
1002
}
  0
LINE
  5
73D
330
1F
100
AcDbEntity
  8
0
100
AcDbLine
 10
1813.531458895147
 20
416.6980946662751
 30
0.0
 11
1756.531458895147
 21
416.6980946662751
 31
0.0
  0
LINE
  5
73E
330
1F
100
AcDbEntity
  8
0
100
AcDbLine
 10
1756.531458895147
 20
416.6980946662751
 30
0.0
 11
1756.531458895147
 21
414.1980946662748
 31
0.0
  0
LINE
  5
73F
330
1F
100
AcDbEntity
  8
0
100
AcDbLine
 10
1756.531458895147
 20
412.6980946662751
 30
0.0
 11
1756.531458895147
 21
410.1980946662748
 31
0.0
  0
LINE
  5
740
330
1F
100
AcDbEntity
  8
0
100
AcDbLine
 10
1813.531458895147
 20
416.6980946662751
 30
0.0
 11
1813.531458895147
 21
414.1980946662748
 31
0.0
  0
LINE
  5
741
330
1F
100
AcDbEntity
  8
0
100
AcDbLine
 10
1813.531458895147
 20
412.6980946662751
 30
0.0
 11
1813.531458895147
 21
410.1980946662748
 31
0.0
  0
LINE
  5
742
330
1F
100
AcDbEntity
  8
0
100
AcDbLine
 10
1805.031458895147
 20
410.1980946662748
 30
0.0
 11
1813.531458895147
 21
410.1980946662748
 31
0.0
  0
LINE
  5
743
330
1F
100
AcDbEntity
  8
0
100
AcDbLine
 10
1751.531458895145
 20
414.1980946662748
 30
0.0
 11
1751.531458895145
 21
412.6980946662751
 31
0.0
  0
LINE
  5
744
330
1F
100
AcDbEntity
  8
0
100
AcDbLine
 10
1748.531458895147
 20
414.1980946662748
 30
0.0
 11
1750.531458895147
 21
415.1980946662746
 31
0.0
  0
LINE
  5
745
330
1F
100
AcDbEntity
  8
0
100
AcDbLine
 10
1750.531458895147
 20
415.1980946662746
 30
0.0
 11
1756.531458895147
 21
416.6980946662751
 31
0.0
  0
LINE
  5
746
330
1F
100
AcDbEntity
  8
0
100
AcDbLine
 10
1750.531458895147
 20
411.6980946662748
 30
0.0
 11
1756.531458895147
 21
410.1980946662748
 31
0.0
  0
LINE
  5
747
330
1F
100
AcDbEntity
  8
0
100
AcDbLine
 10
1748.531458895147
 20
412.6980946662751
 30
0.0
 11
1750.531458895147
 21
411.6980946662748
 31
0.0
  0
LINE
  5
748
330
1F
100
AcDbEntity
  8
0
100
AcDbLine
 10
1751.531458895145
 20
414.1980946662748
 30
0.0
 11
1748.531458895147
 21
414.1980946662748
 31
0.0
  0
LINE
  5
749
330
1F
100
AcDbEntity
  8
0
100
AcDbLine
 10
1752.531458895147
 20
412.6980946662751
 30
0.0
 11
1763.031458895147
 21
412.6980946662751
 31
0.0
  0
LINE
  5
74A
330
1F
100
AcDbEntity
  8
0
100
AcDbLine
 10
1821.531458895147
 20
412.6980946662751
 30
0.0
 11
1818.531458895147
 21
412.6980946662751
 31
0.0
  0
LINE
  5
74B
330
1F
100
AcDbEntity
  8
0
100
AcDbLine
 10
1818.531458895147
 20
414.1980946662748
 30
0.0
 11
1821.531458895147
 21
414.1980946662748
 31
0.0
  0
LINE
  5
74C
330
1F
100
AcDbEntity
  8
0
100
AcDbLine
 10
1821.531458895147
 20
412.6980946662751
 30
0.0
 11
1819.531458895147
 21
411.6980946662748
 31
0.0
  0
LINE
  5
74D
330
1F
100
AcDbEntity
  8
0
100
AcDbLine
 10
1821.531458895147
 20
414.1980946662748
 30
0.0
 11
1819.531458895147
 21
415.1980946662746
 31
0.0
  0
LINE
  5
74E
330
1F
100
AcDbEntity
  8
0
100
AcDbLine
 10
1818.531458895147
 20
414.1980946662748
 30
0.0
 11
1818.531458895147
 21
412.6980946662751
 31
0.0
  0
LINE
  5
74F
330
1F
100
AcDbEntity
  8
0
100
AcDbLine
 10
1819.531458895147
 20
415.1980946662746
 30
0.0
 11
1813.531458895147
 21
416.6980946662751
 31
0.0
  0
LINE
  5
750
330
1F
100
AcDbEntity
  8
0
100
AcDbLine
 10
1819.531458895147
 20
411.6980946662748
 30
0.0
 11
1813.531458895147
 21
410.1980946662748
 31
0.0
  0
HATCH
  5
751
330
1F
100
AcDbEntity
  8
8
100
AcDbHatch
 10
0.0
 20
0.0
 30
0.0
210
0.0
220
0.0
230
1.0
  2
NET
 70
     0
 71
     0
 91
        2
 92
        7
 72
     0
 73
     1
 93
       12
 10
1748.531458895147
 20
412.6980946662751
 10
1750.531458895147
 20
411.6980946662748
 10
1756.531458895147
 20
410.1980946662748
 10
1756.531458895147
 20
412.6980946662751
 10
1752.531458895147
 20
412.6980946662751
 10
1752.531458895147
 20
414.1980946662748
 10
1756.531458895147
 20
414.1980946662748
 10
1756.531458895147
 20
416.6980946662751
 10
1750.531458895147
 20
415.1980946662746
 10
1748.531458895147
 20
414.1980946662748
 10
1751.531458895145
 20
414.1980946662748
 10
1751.531458895145
 20
412.6980946662751
 97
        0
 92
        7
 72
     0
 73
     1
 93
       12
 10
1817.531458895147
 20
412.6980946662751
 10
1813.531458895147
 20
412.6980946662751
 10
1813.531458895147
 20
410.1980946662748
 10
1819.531458895147
 20
411.6980946662748
 10
1821.531458895147
 20
412.6980946662751
 10
1818.531458895147
 20
412.6980946662751
 10
1818.531458895147
 20
414.1980946662748
 10
1821.531458895147
 20
414.1980946662748
 10
1819.531458895147
 20
415.1980946662746
 10
1813.531458895147
 20
416.6980946662751
 10
1813.531458895147
 20
414.1980946662748
 10
1817.531458895147
 20
414.1980946662748
 97
        0
 75
     0
 76
     1
 52
135.0
 41
0.5
 77
     0
 78
     2
 53
135.0
 43
1666.967851900269
 44
211.8937056218358
 45
-1.122532015133643
 46
-1.122532015133643
 79
     0
 53
225.0
 43
1666.967851900269
 44
211.8937056218358
 45
1.122532015133643
 46
-1.122532015133643
 79
     0
 47
0.1492324330864038
 98
        2
 10
1755.06384803857
 20
411.6637379221794
 10
1815.984855921098
 20
411.5145044769529
  0
LINE
  5
752
330
1F
100
AcDbEntity
  8
0
100
AcDbLine
 10
1757.531458895147
 20
400.6980946662751
 30
0.0
 11
1757.531458895147
 21
344.6980946662754
 31
0.0
  0
LINE
  5
753
330
1F
100
AcDbEntity
  8
0
100
AcDbLine
 10
1762.531458895147
 20
339.6980946662754
 30
0.0
 11
1807.531458895146
 21
339.6980946662754
 31
0.0
  0
LINE
  5
754
330
1F
100
AcDbEntity
  8
0
100
AcDbLine
 10
1812.531458895147
 20
344.6980946662754
 30
0.0
 11
1812.531458895147
 21
400.6980946662751
 31
0.0
  0
ARC
  5
755
330
1F
100
AcDbEntity
  8
0
100
AcDbCircle
 10
1762.531458895147
 20
344.6980946662754
 30
0.0
 40
5.0
100
AcDbArc
 50
180.0
 51
270.0
1001
GENIUS_GENOBJ-N-FIL_13
1002
{
1000
OWNER
1000
GEN
1002
}
1001
GENIUS_GENODEF_13
1002
{
1000
HIER
1070
     0
1002
}
1002
{
1000
MANEDIT
1070
     0
1002
}
1002
{
1000
NOSEL
1070
     0
1002
}
1002
{
1000
BEHIND
1070
     0
1002
}
1002
{
1000
OTHER
1070
     0
1002
}
1002
{
1000
REACTOR
1002
}
  0
ARC
  5
756
330
1F
100
AcDbEntity
  8
0
100
AcDbCircle
 10
1807.531458895146
 20
344.6980946662754
 30
0.0
 40
5.0
100
AcDbArc
 50
270.0
 51
0.0
1001
GENIUS_GENOBJ-N-FIL_13
1002
{
1000
OWNER
1000
GEN
1002
}
1001
GENIUS_GENODEF_13
1002
{
1000
HIER
1070
     0
1002
}
1002
{
1000
MANEDIT
1070
     0
1002
}
1002
{
1000
NOSEL
1070
     0
1002
}
1002
{
1000
BEHIND
1070
     0
1002
}
1002
{
1000
OTHER
1070
     0
1002
}
1002
{
1000
REACTOR
1002
}
  0
ARC
  5
757
330
1F
100
AcDbEntity
  8
0
100
AcDbCircle
 10
1762.531458895147
 20
344.6980946662754
 30
0.0
 40
6.0
100
AcDbArc
 50
180.0
 51
270.0
1001
GENIUS_GENOBJ-N-FIL_13
1002
{
1000
OWNER
1000
GEN
1002
}
1001
GENIUS_GENODEF_13
1002
{
1000
HIER
1070
     0
1002
}
1002
{
1000
MANEDIT
1070
     0
1002
}
1002
{
1000
NOSEL
1070
     0
1002
}
1002
{
1000
BEHIND
1070
     0
1002
}
1002
{
1000
OTHER
1070
     0
1002
}
1002
{
1000
REACTOR
1002
}
  0
ARC
  5
758
330
1F
100
AcDbEntity
  8
0
100
AcDbCircle
 10
1807.531458895146
 20
344.6980946662754
 30
0.0
 40
6.0
100
AcDbArc
 50
270.0
 51
0.0
1001
GENIUS_GENODEF_13
1002
{
1000
HIER
1070
     0
1002
}
1002
{
1000
MANEDIT
1070
     0
1002
}
1002
{
1000
NOSEL
1070
     0
1002
}
1002
{
1000
BEHIND
1070
     0
1002
}
1002
{
1000
OTHER
1070
     0
1002
}
1002
{
1000
REACTOR
1002
}
1001
GENIUS_GENOBJ-N-FIL_13
1002
{
1000
OWNER
1000
GEN
1002
}
  0
ARC
  5
759
330
1F
100
AcDbEntity
  8
0
100
AcDbCircle
 10
1763.031458895147
 20
410.6980946662747
 30
0.0
 40
2.0
100
AcDbArc
 50
0.0
 51
90.0
1001
GENIUS_GENODEF_13
1002
{
1000
HIER
1070
     0
1002
}
1002
{
1000
MANEDIT
1070
     0
1002
}
1002
{
1000
NOSEL
1070
     0
1002
}
1002
{
1000
BEHIND
1070
     0
1002
}
1002
{
1000
OTHER
1070
     0
1002
}
1002
{
1000
REACTOR
1002
}
1001
GENIUS_GENOBJ-N-FIL_13
1002
{
1000
OWNER
1000
GEN
1002
}
  0
LINE
  5
75A
330
1F
100
AcDbEntity
  8
0
100
AcDbLine
 10
1817.531458895147
 20
412.6980946662751
 30
0.0
 11
1807.031458895149
 21
412.6980946662751
 31
0.0
  0
ARC
  5
75B
330
1F
100
AcDbEntity
  8
0
100
AcDbCircle
 10
1807.031458895149
 20
410.6980946662747
 30
0.0
 40
2.0
100
AcDbArc
 50
90.0
 51
180.0
1001
GENIUS_GENODEF_13
1002
{
1000
HIER
1070
     0
1002
}
1002
{
1000
MANEDIT
1070
     0
1002
}
1002
{
1000
NOSEL
1070
     0
1002
}
1002
{
1000
BEHIND
1070
     0
1002
}
1002
{
1000
OTHER
1070
     0
1002
}
1002
{
1000
REACTOR
1002
}
1001
GENIUS_GENOBJ-N-FIL_13
1002
{
1000
OWNER
1000
GEN
1002
}
  0
ARC
  5
75C
330
1F
100
AcDbEntity
  8
0
100
AcDbCircle
 10
1763.031458895147
 20
410.6980946662747
 30
0.0
 40
3.5
100
AcDbArc
 50
0.0
 51
90.0
1001
GENIUS_GENODEF_13
1002
{
1000
HIER
1070
     0
1002
}
1002
{
1000
MANEDIT
1070
     0
1002
}
1002
{
1000
NOSEL
1070
     0
1002
}
1002
{
1000
BEHIND
1070
     0
1002
}
1002
{
1000
OTHER
1070
     0
1002
}
1002
{
1000
REACTOR
1002
}
1001
GENIUS_GENOBJ-N-FIL_13
1002
{
1000
OWNER
1000
GEN
1002
}
  0
ARC
  5
75D
330
1F
100
AcDbEntity
  8
0
100
AcDbCircle
 10
1807.031458895149
 20
410.6980946662747
 30
0.0
 40
3.5
100
AcDbArc
 50
90.0
 51
180.0
1001
GENIUS_GENODEF_13
1002
{
1000
HIER
1070
     0
1002
}
1002
{
1000
MANEDIT
1070
     0
1002
}
1002
{
1000
NOSEL
1070
     0
1002
}
1002
{
1000
BEHIND
1070
     0
1002
}
1002
{
1000
OTHER
1070
     0
1002
}
1002
{
1000
REACTOR
1002
}
1001
GENIUS_GENOBJ-N-FIL_13
1002
{
1000
OWNER
1000
GEN
1002
}
  0
HATCH
  5
75E
330
1F
100
AcDbEntity
  8
8
100
AcDbHatch
 10
0.0
 20
0.0
 30
0.0
210
0.0
220
0.0
230
1.0
  2
_U
 70
     0
 71
     0
 91
        1
 92
        1
 93
        8
 72
     1
 10
1805.031458895147
 20
353.6980946662752
 11
1805.031458895147
 21
410.6980946662747
 72
     2
 10
1807.031458895149
 20
410.6980946662747
 40
2.0
 50
180.0
 51
270.0
 73
     0
 72
     1
 10
1807.031458895149
 20
412.6980946662751
 11
1817.531458895147
 21
412.6980946662751
 72
     1
 10
1817.531458895147
 20
412.6980946662751
 11
1817.531458895147
 21
414.1980946662751
 72
     1
 10
1817.531458895147
 20
414.1980946662748
 11
1807.031458895149
 21
414.1980946662748
 72
     2
 10
1807.031458895149
 20
410.6980946662747
 40
3.5
 50
90.0
 51
180.0
 73
     1
 72
     1
 10
1803.531458895147
 20
410.6980946662747
 11
1803.531458895147
 21
353.6980946662752
 72
     1
 10
1803.531458895147
 20
353.6980946662752
 11
1805.031458895147
 21
353.6980946662752
 97
        0
 75
     0
 76
     0
 52
45.0
 41
5.0
 77
     0
 78
     1
 53
45.0
 43
1666.967851900269
 44
210.9837353287336
 45
-3.535533905932736
 46
3.535533905932736
 79
     0
 98
        1
 10
1666.967851900269
 20
210.9837353287336
1001
GENIUS_GENODEF_13
1002
{
1000
HIER
1070
     0
1002
}
1002
{
1000
MANEDIT
1070
     0
1002
}
1002
{
1000
NOSEL
1070
     0
1002
}
1002
{
1000
BEHIND
1070
     0
1002
}
1002
{
1000
OTHER
1070
     0
1002
}
1002
{
1000
REACTOR
1002
}
1001
GENIUS_GENOBJ-N-HTC_13
1002
{
1000
OWNER
1000
GEN
1002
}
1001
GENIUS_GENHATCH_13
1002
{
1000
DATA
1040
45.0
1042
5.0
1000
_U
1070
     0
1011
1804.261137824236
1021
393.6652952434124
1031
0.0
1002
}
1002
{
1000
UCS
1010
0.0
1020
0.0
1030
0.0
1010
1.0
1020
0.0
1030
0.0
1010
0.0
1020
1.0
1030
0.0
1002
}
  0
HATCH
  5
75F
330
1F
100
AcDbEntity
  8
8
100
AcDbHatch
 10
0.0
 20
0.0
 30
0.0
210
0.0
220
0.0
230
1.0
  2
_U
 70
     0
 71
     0
 91
        1
 92
        1
 93
        8
 72
     1
 10
1763.031458895147
 20
414.1980946662748
 11
1752.531458895147
 21
414.1980946662748
 72
     1
 10
1752.531458895147
 20
414.1980946662748
 11
1752.531458895147
 21
412.6980946662748
 72
     1
 10
1752.531458895147
 20
412.6980946662751
 11
1763.031458895147
 21
412.6980946662751
 72
     2
 10
1763.031458895147
 20
410.6980946662747
 40
2.0
 50
270.0
 51
360.0
 73
     0
 72
     1
 10
1765.031458895147
 20
410.6980946662747
 11
1765.031458895147
 21
353.6980946662752
 72
     1
 10
1765.031458895147
 20
353.6980946662752
 11
1766.531458895147
 21
353.6980946662752
 72
     1
 10
1766.531458895147
 20
353.6980946662752
 11
1766.531458895147
 21
410.6980946662747
 72
     2
 10
1763.031458895147
 20
410.6980946662747
 40
3.5
 50
0.0
 51
90.0
 73
     1
 97
        0
 75
     0
 76
     0
 52
45.0
 41
5.0
 77
     0
 78
     1
 53
45.0
 43
1666.967851900269
 44
210.9837353287336
 45
-3.535533905932736
 46
3.535533905932736
 79
     0
 98
        1
 10
1666.967851900269
 20
210.9837353287336
1001
GENIUS_GENODEF_13
1002
{
1000
HIER
1070
     0
1002
}
1002
{
1000
MANEDIT
1070
     0
1002
}
1002
{
1000
NOSEL
1070
     0
1002
}
1002
{
1000
BEHIND
1070
     0
1002
}
1002
{
1000
OTHER
1070
     0
1002
}
1002
{
1000
REACTOR
1002
}
1001
GENIUS_GENOBJ-N-HTC_13
1002
{
1000
OWNER
1000
GEN
1002
}
1001
GENIUS_GENHATCH_13
1002
{
1000
DATA
1040
45.0
1042
5.0
1000
_U
1070
     0
1011
1765.894190925247
1021
391.4457559245816
1031
0.0
1002
}
1002
{
1000
UCS
1010
0.0
1020
0.0
1030
0.0
1010
1.0
1020
0.0
1030
0.0
1010
0.0
1020
1.0
1030
0.0
1002
}
  0
LINE
  5
760
330
1F
100
AcDbEntity
  8
0
100
AcDbLine
 10
1756.531458895147
 20
403.6980946662751
 30
0.0
 11
1757.531458895147
 21
403.6980946662751
 31
0.0
  0
LINE
  5
761
330
1F
100
AcDbEntity
  8
0
100
AcDbLine
 10
1756.531458895147
 20
412.6980946662751
 30
0.0
 11
1763.031458895147
 21
412.6980946662751
 31
0.0
  0
LINE
  5
762
330
1F
100
AcDbEntity
  8
0
100
AcDbLine
 10
1756.531458895147
 20
403.6980946662751
 30
0.0
 11
1758.292163450963
 21
403.6980946662751
 31
0.0
  0
LINE
  5
763
330
1F
100
AcDbEntity
  8
0
100
AcDbLine
 10
1765.031458895147
 20
410.6980946662747
 30
0.0
 11
1765.031458895147
 21
392.6980946662752
 31
0.0
  0
LINE
  5
764
330
1F
100
AcDbEntity
  8
0
100
AcDbLine
 10
1758.031458895147
 20
401.2180946662748
 30
0.0
 11
1758.031458895147
 21
399.2180946662752
 31
0.0
  0
LINE
  5
765
330
1F
100
AcDbEntity
  8
0
100
AcDbLine
 10
1765.031458895147
 20
392.6980946662752
 30
0.0
 11
1761.795782650263
 21
392.6980946662752
 31
0.0
  0
LINE
  5
766
330
1F
100
AcDbEntity
  8
0
100
AcDbLine
 10
1756.531458895147
 20
403.6980946662751
 30
0.0
 11
1756.531458895147
 21
412.6980946662751
 31
0.0
  0
LINE
  5
767
330
1F
100
AcDbEntity
  8
0
100
AcDbLine
 10
1758.031458895147
 20
401.2180946662748
 30
0.0
 11
1758.755755378245
 21
403.0107913695671
 31
0.0
  0
ARC
  5
768
330
1F
100
AcDbEntity
  8
0
100
AcDbCircle
 10
1758.292163450963
 20
403.1980946662746
 30
0.0
 40
0.5
100
AcDbArc
 50
337.9999999999847
 51
90.0
  0
LINE
  5
769
330
1F
100
AcDbEntity
  8
0
100
AcDbLine
 10
1758.031458895147
 20
399.2180946662752
 30
0.0
 11
1761.795782650263
 21
392.6980946662752
 31
0.0
  0
LINE
  5
76A
330
1F
100
AcDbEntity
  8
0
100
AcDbLine
 10
1763.031458895147
 20
412.6980946662751
 30
0.0
 11
1765.031458895147
 21
410.6980946662747
 31
0.0
  0
LINE
  5
76B
330
1F
100
AcDbEntity
  8
3
100
AcDbLine
 10
1756.531458895147
 20
410.1980946662748
 30
0.0
 11
1765.031458895147
 21
410.1980946662748
 31
0.0
  0
LINE
  5
76C
330
1F
100
AcDbEntity
  8
3
100
AcDbLine
 10
1758.292163450963
 20
403.6980946662751
 30
0.0
 11
1765.031458895147
 21
403.6980946662751
 31
0.0
  0
LINE
  5
76D
330
1F
100
AcDbEntity
  8
0
100
AcDbLine
 10
1757.531458895147
 20
400.6980946662751
 30
0.0
 11
1758.004431868118
 21
403.5359325041126
 31
0.0
  0
LINE
  5
76E
330
1F
100
AcDbEntity
  8
0
100
AcDbLine
 10
1756.531458895147
 20
400.6980946662751
 30
0.0
 11
1757.031458895147
 21
403.6980946662751
 31
0.0
  0
LINE
  5
76F
330
1F
100
AcDbEntity
  8
0
100
AcDbLine
 10
1757.031458895147
 20
403.6980946662751
 30
0.0
 11
1758.004431868118
 21
403.5359325041126
 31
0.0
  0
LINE
  5
770
330
1F
100
AcDbEntity
  8
0
100
AcDbLine
 10
1758.004431868118
 20
403.5359325041126
 30
0.0
 11
1758.660762956288
 21
403.5359325041126
 31
0.0
  0
LINE
  5
771
330
1F
100
AcDbEntity
  8
0
100
AcDbLine
 10
1812.531458895147
 20
400.6980946662751
 30
0.0
 11
1812.058485922174
 21
403.5359325041126
 31
0.0
  0
LINE
  5
772
330
1F
100
AcDbEntity
  8
0
100
AcDbLine
 10
1813.531458895147
 20
400.6980946662751
 30
0.0
 11
1813.031458895147
 21
403.6980946662751
 31
0.0
  0
LINE
  5
773
330
1F
100
AcDbEntity
  8
0
100
AcDbLine
 10
1813.031458895147
 20
403.6980946662751
 30
0.0
 11
1812.058485922174
 21
403.5359325041126
 31
0.0
  0
LINE
  5
774
330
1F
100
AcDbEntity
  8
0
100
AcDbLine
 10
1812.058485922174
 20
403.5359325041126
 30
0.0
 11
1805.031458895147
 21
403.5359325041126
 31
0.0
  0
ARC
  5
775
330
1F
100
AcDbEntity
  8
0
100
AcDbCircle
 10
1743.031454748386
 20
440.7226660950656
 30
0.0
 40
2.0
100
AcDbArc
 50
0.0
 51
90.00000000026055
  0
LINE
  5
776
330
1F
100
AcDbEntity
  8
0
  6
ByBlock
100
AcDbLine
 10
1725.031454748281
 20
443.7226660950161
 30
0.0
 11
1725.031454748167
 21
482.722666095016
 31
0.0
  0
ARC
  5
777
330
1F
100
AcDbEntity
  8
0
  6
ByBlock
100
AcDbCircle
 10
1726.031454748279
 20
443.7226660950186
 30
0.0
 40
1.0
100
AcDbArc
 50
180.0000000002605
 51
270.0000000002606
  0
LINE
  5
778
330
1F
100
AcDbEntity
  8
0
  6
ByBlock
100
AcDbLine
 10
1725.031454748167
 20
482.722666095016
 30
0.0
 11
1724.031454748167
 21
482.7226660950132
 31
0.0
  0
LINE
  5
779
330
1F
100
AcDbEntity
  8
0
  6
ByBlock
100
AcDbLine
 10
1724.031454748167
 20
482.7226660950132
 30
0.0
 11
1724.03145474828
 21
443.7226660950134
 31
0.0
  0
ARC
  5
77A
330
1F
100
AcDbEntity
  8
0
  6
ByBlock
100
AcDbCircle
 10
1726.031454748279
 20
443.7226660950186
 30
0.0
 40
2.0
100
AcDbArc
 50
180.0000000002605
 51
270.0000000002606
  0
LINE
  5
77B
330
1F
100
AcDbEntity
  8
0
  6
ByBlock
100
AcDbLine
 10
1726.031454748287
 20
441.7226660950187
 30
0.0
 11
1743.031454748289
 21
441.7226660950692
 31
0.0
  0
ARC
  5
77C
330
1F
100
AcDbEntity
  8
0
  6
ByBlock
100
AcDbCircle
 10
1743.031454748289
 20
440.7226660950691
 30
0.0
 40
1.0
100
AcDbArc
 50
0.000000000260551
 51
90.00000000026055
  0
INSERT
  5
77D
330
1F
100
AcDbEntity
  8
0
100
AcDbBlockReference
  2
befestigung
 10
3451.850451317351
 20
-984.3351719079505
 30
0.0
 41
-1.0
  0
INSERT
  5
77E
330
1F
100
AcDbEntity
  8
0
100
AcDbBlockReference
  2
befestigung
 10
-1775.029446062239
 20
-984.3351719079521
 30
0.0
  0
POINT
  5
77F
330
1F
100
AcDbEntity
  8
0
 60
     1
100
AcDbPoint
 10
-569.3562150130155
 20
-839.0638498015402
 30
0.0
1001
GENIUS_GENOENT_13
1002
{
1000
MYREF
1005
77F
1002
}
1002
{
1000
GRP
1005
0
1002
}
1001
GENIUS_GENOLIS_13
1002
{
1000
ENT
1005
640
1005
63F
1005
63E
1005
63D
1002
}
1001
GENIUS_GENODEF_13
1002
{
1000
HIER
1070
    10
1002
}
1002
{
1000
MANEDIT
1070
     0
1002
}
1002
{
1000
NOSEL
1070
     0
1002
}
1002
{
1000
BEHIND
1070
     0
1002
}
1002
{
1000
OTHER
1070
     0
1002
}
1002
{
1000
REACTOR
1002
}
1001
GENIUS_GENOBJ-N-CRS_13
1002
{
1000
OWNER
1000
GEN
1002
}
  0
ENDSEC
  0
SECTION
  2
OBJECTS
  0
DICTIONARY
  5
C
330
0
100
AcDbDictionary
281
     1
  3
ACAD_2007HEADERVARS_RT
350
844
  3
ACAD_COLOR
350
BE
  3
ACAD_GROUP
350
D
  3
ACAD_LAYOUT
350
1A
  3
ACAD_MATERIAL
350
BD
  3
ACAD_MLEADERSTYLE
350
2C4
  3
ACAD_MLINESTYLE
350
17
  3
ACAD_PLOTSETTINGS
350
19
  3
ACAD_PLOTSTYLENAME
350
E
  3
ACAD_SCALELIST
350
2A2
  3
ACAD_TABLESTYLE
350
11A
  3
ACAD_VISUALSTYLE
350
26E
  3
ACDB_RECOMPOSE_DATA
350
2E6
  3
AcDbVariableDictionary
350
94
  3
AcmDictionary
350
5B
  3
AcmSystemVariableManager
350
852
  3
AEC_PROPERTY_SET_DEFS
350
5F3
  3
AMG
350
41
  3
AMGSNAPSETTINGS
350
364
  3
DWGPROPS
350
843
  0
DICTIONARY
  5
462
330
2
100
AcDbDictionary
280
     1
281
     1
  3
ACAD_LAYERSTATES
360
463
  0
DICTIONARY
  5
834
330
10
100
AcDbDictionary
280
     1
281
     1
  3
ADSK_XREC_LAYER_RECONCILED
360
835
  0
DICTIONARY
  5
43F
330
43E
100
AcDbDictionary
280
     1
281
     1
  3
ADSK_XREC_LAYER_RECONCILED
360
836
  0
DICTIONARY
  5
441
330
440
100
AcDbDictionary
280
     1
281
     1
  3
ADSK_XREC_LAYER_RECONCILED
360
837
  0
DICTIONARY
  5
444
330
443
100
AcDbDictionary
280
     1
281
     1
  3
ADSK_XREC_LAYER_RECONCILED
360
838
  0
DICTIONARY
  5
446
330
445
100
AcDbDictionary
280
     1
281
     1
  3
ADSK_XREC_LAYER_RECONCILED
360
839
  0
DICTIONARY
  5
448
330
447
100
AcDbDictionary
280
     1
281
     1
  3
ADSK_XREC_LAYER_RECONCILED
360
83A
  0
DICTIONARY
  5
44A
330
449
100
AcDbDictionary
280
     1
281
     1
  3
ADSK_XREC_LAYER_RECONCILED
360
83B
  0
DICTIONARY
  5
44C
330
44B
100
AcDbDictionary
280
     1
281
     1
  3
ADSK_XREC_LAYER_RECONCILED
360
83C
  0
DICTIONARY
  5
44E
330
44D
100
AcDbDictionary
280
     1
281
     1
  3
ADSK_XREC_LAYER_RECONCILED
360
83D
  0
DICTIONARY
  5
450
330
44F
100
AcDbDictionary
280
     1
281
     1
  3
ADSK_XREC_LAYER_RECONCILED
360
83E
  0
DICTIONARY
  5
452
330
451
100
AcDbDictionary
280
     1
281
     1
  3
ADSK_XREC_LAYER_RECONCILED
360
83F
  0
DICTIONARY
  5
454
330
453
100
AcDbDictionary
280
     1
281
     1
  3
ADSK_XREC_LAYER_RECONCILED
360
840
  0
DICTIONARY
  5
8F
330
1F
100
AcDbDictionary
280
     1
281
     1
  0
DICTIONARY
  5
844
102
{ACAD_REACTORS
330
C
102
}
330
C
100
AcDbDictionary
281
     1
  3
DIMARCSYM
350
845
  3
DIMLTEX1
350
847
  3
DIMLTEX2
350
848
  3
DIMLTYPE
350
846
  0
DICTIONARY
  5
BE
102
{ACAD_REACTORS
330
C
102
}
330
C
100
AcDbDictionary
281
     1
  0
DICTIONARY
  5
D
102
{ACAD_REACTORS
330
C
102
}
330
C
100
AcDbDictionary
281
     1
  0
DICTIONARY
  5
1A
102
{ACAD_REACTORS
330
C
102
}
330
C
100
AcDbDictionary
281
     1
  3
Layout1
350
1E
  3
Layout2
350
26
  3
Model
350
22
  0
DICTIONARY
  5
BD
102
{ACAD_REACTORS
330
C
102
}
330
C
100
AcDbDictionary
281
     1
  3
ByBlock
350
26C
  3
ByLayer
350
26B
  3
Global
350
26D
  0
DICTIONARY
  5
2C4
102
{ACAD_REACTORS
330
C
102
}
330
C
100
AcDbDictionary
281
     1
  3
Standard
350
2C5
  0
DICTIONARY
  5
17
102
{ACAD_REACTORS
330
C
102
}
330
C
100
AcDbDictionary
281
     1
  3
Standard
350
18
  0
DICTIONARY
  5
19
102
{ACAD_REACTORS
330
C
102
}
330
C
100
AcDbDictionary
281
     1
  0
ACDBDICTIONARYWDFLT
  5
E
102
{ACAD_REACTORS
330
C
102
}
330
C
100
AcDbDictionary
281
     1
  3
Normal
350
F
100
AcDbDictionaryWithDefault
340
F
  0
DICTIONARY
  5
2A2
102
{ACAD_REACTORS
330
C
102
}
330
C
100
AcDbDictionary
281
     1
  3
A0
350
2A3
  3
A1
350
2A4
  3
A2
350
2A5
  3
A3
350
2A6
  3
A4
350
2A7
  3
A5
350
2A8
  3
A6
350
2A9
  3
A7
350
2AA
  3
A8
350
2AB
  3
A9
350
2AC
  3
B0
350
2AD
  3
B1
350
2AE
  3
B2
350
2AF
  3
B3
350
2B0
  3
B4
350
2B1
  3
B5
350
2B2
  3
B6
350
2B3
  3
B7
350
2B4
  3
B8
350
2B5
  3
B9
350
2B6
  3
C0
350
2B7
  3
C1
350
2B8
  3
C2
350
2B9
  3
C3
350
2BA
  3
C4
350
2BB
  3
C5
350
2BC
  3
C6
350
2BD
  3
C7
350
2BE
  3
C8
350
2BF
  3
C9
350
2C0
  3
D0
350
2C1
  3
D1
350
2C2
  3
D2
350
2C3
  0
DICTIONARY
  5
11A
102
{ACAD_REACTORS
330
C
102
}
330
C
100
AcDbDictionary
281
     1
  3
Standard
350
11B
  0
DICTIONARY
  5
26E
102
{ACAD_REACTORS
330
C
102
}
330
C
100
AcDbDictionary
281
     1
  3
2dWireframe
350
274
  3
3D Hidden
350
276
  3
3dWireframe
350
275
  3
Basic
350
273
  3
Brighten
350
27A
  3
ColorChange
350
27E
  3
Conceptual
350
277
  3
Dim
350
279
  3
Facepattern
350
27D
  3
Flat
350
26F
  3
FlatWithEdges
350
270
  3
Gouraud
350
271
  3
GouraudWithEdges
350
272
  3
Linepattern
350
27C
  3
Realistic
350
278
  3
Thicken
350
27B
  0
XRECORD
  5
2E6
102
{ACAD_REACTORS
330
C
102
}
330
C
100
AcDbXrecord
280
     1
 90
        1
330
11B
  0
DICTIONARY
  5
94
102
{ACAD_REACTORS
330
C
102
}
330
C
100
AcDbDictionary
281
     1
  3
CANNOSCALE
350
2E9
  3
CMLEADERSTYLE
350
2E7
  3
CTABLESTYLE
350
138
  3
DIMASSOC
350
96
  3
INDEXCTL
350
95
  3
LAYEREVAL
350
346
  3
LAYERNOTIFY
350
347
  3
LIGHTINGUNITS
350
2EA
  3
MSLTSCALE
350
2E8
  3
SORTENTS
350
841
  0
DICTIONARY
  5
5B
102
{ACAD_REACTORS
330
C
102
}
330
C
100
AcDbDictionary
281
     1
  3
AcmBOM
350
36B
  3
AcmStdDictionary
350
61
  3
AMDTSECTSYM_ARROWCOLOR
350
123
  0
DICTIONARY
  5
5F3
102
{ACAD_REACTORS
330
C
102
}
330
C
100
AcDbDictionary
281
     1
  0
DICTIONARY
  5
41
102
{ACAD_REACTORS
330
C
102
}
330
C
100
AcDbDictionary
281
     1
  0
DICTIONARY
  5
364
102
{ACAD_REACTORS
330
C
102
}
330
C
100
AcDbDictionary
281
     1
  0
XRECORD
  5
843
102
{ACAD_REACTORS
330
C
102
}
330
C
100
AcDbXrecord
280
     1
  1
DWGPROPS COOKIE
  2

  3

  4

  6

  7

  8
nlazaar
  9

300
AmdtFileType=84
301
=
302
=
303
=
304
=
305
=
306
=
307
=
308
=
309
=
 40
0.0017862268518519
 41
2455098.654416609
 42
2455098.656202106
  1

 90
        1
  0
DICTIONARY
  5
463
102
{ACAD_REACTORS
330
462
102
}
330
462
100
AcDbDictionary
281
     1
  0
XRECORD
  5
835
102
{ACAD_REACTORS
330
834
102
}
330
834
100
AcDbXrecord
280
     1
290
     1
  0
XRECORD
  5
836
102
{ACAD_REACTORS
330
43F
102
}
330
43F
100
AcDbXrecord
280
     1
290
     1
  0
XRECORD
  5
837
102
{ACAD_REACTORS
330
441
102
}
330
441
100
AcDbXrecord
280
     1
290
     1
  0
XRECORD
  5
838
102
{ACAD_REACTORS
330
444
102
}
330
444
100
AcDbXrecord
280
     1
290
     1
  0
XRECORD
  5
839
102
{ACAD_REACTORS
330
446
102
}
330
446
100
AcDbXrecord
280
     1
290
     1
  0
XRECORD
  5
83A
102
{ACAD_REACTORS
330
448
102
}
330
448
100
AcDbXrecord
280
     1
290
     1
  0
XRECORD
  5
83B
102
{ACAD_REACTORS
330
44A
102
}
330
44A
100
AcDbXrecord
280
     1
290
     1
  0
XRECORD
  5
83C
102
{ACAD_REACTORS
330
44C
102
}
330
44C
100
AcDbXrecord
280
     1
290
     1
  0
XRECORD
  5
83D
102
{ACAD_REACTORS
330
44E
102
}
330
44E
100
AcDbXrecord
280
     1
290
     1
  0
XRECORD
  5
83E
102
{ACAD_REACTORS
330
450
102
}
330
450
100
AcDbXrecord
280
     1
290
     1
  0
XRECORD
  5
83F
102
{ACAD_REACTORS
330
452
102
}
330
452
100
AcDbXrecord
280
     1
290
     1
  0
XRECORD
  5
840
102
{ACAD_REACTORS
330
454
102
}
330
454
100
AcDbXrecord
280
     1
290
     1
  0
XRECORD
  5
845
102
{ACAD_REACTORS
330
844
102
}
330
844
100
AcDbXrecord
280
     1
 70
     1
  0
XRECORD
  5
847
102
{ACAD_REACTORS
330
844
102
}
330
844
100
AcDbXrecord
280
     1
340
14
  0
XRECORD
  5
848
102
{ACAD_REACTORS
330
844
102
}
330
844
100
AcDbXrecord
280
     1
340
14
  0
XRECORD
  5
846
102
{ACAD_REACTORS
330
844
102
}
330
844
100
AcDbXrecord
280
     1
340
14
  0
LAYOUT
  5
1E
102
{ACAD_XDICTIONARY
360
849
102
}
102
{ACAD_REACTORS
330
1A
102
}
330
1A
100
AcDbPlotSettings
  1

  2

  4

  6

 40
0.0
 41
0.0
 42
0.0
 43
0.0
 44
0.0
 45
0.0
 46
0.0
 47
0.0
 48
0.0
 49
0.0
140
0.0
141
0.0
142
1.0
143
1.0
 70
   688
 72
     0
 73
     0
 74
     5
  7

 75
    16
147
1.0
148
0.0
149
0.0
100
AcDbLayout
  1
Layout1
 70
     1
 71
     1
 10
0.0
 20
0.0
 11
420.0
 21
297.0
 12
0.0
 22
0.0
 32
0.0
 14
1.000000000000000E+20
 24
1.000000000000000E+20
 34
1.000000000000000E+20
 15
-1.000000000000000E+20
 25
-1.000000000000000E+20
 35
-1.000000000000000E+20
146
0.0
 13
0.0
 23
0.0
 33
0.0
 16
1.0
 26
0.0
 36
0.0
 17
0.0
 27
1.0
 37
0.0
 76
     0
330
1B
  0
LAYOUT
  5
26
102
{ACAD_XDICTIONARY
360
84D
102
}
102
{ACAD_REACTORS
330
1A
102
}
330
1A
100
AcDbPlotSettings
  1

  2

  4

  6

 40
0.0
 41
0.0
 42
0.0
 43
0.0
 44
0.0
 45
0.0
 46
0.0
 47
0.0
 48
0.0
 49
0.0
140
0.0
141
0.0
142
1.0
143
1.0
 70
   688
 72
     0
 73
     0
 74
     5
  7

 75
    16
147
1.0
148
0.0
149
0.0
100
AcDbLayout
  1
Layout2
 70
     1
 71
     2
 10
0.0
 20
0.0
 11
12.0
 21
9.0
 12
0.0
 22
0.0
 32
0.0
 14
0.0
 24
0.0
 34
0.0
 15
0.0
 25
0.0
 35
0.0
146
0.0
 13
0.0
 23
0.0
 33
0.0
 16
1.0
 26
0.0
 36
0.0
 17
0.0
 27
1.0
 37
0.0
 76
     0
330
23
  0
LAYOUT
  5
22
102
{ACAD_XDICTIONARY
360
84B
102
}
102
{ACAD_REACTORS
330
1A
102
}
330
1A
100
AcDbPlotSettings
  1

  2

  4

  6

 40
0.0
 41
0.0
 42
0.0
 43
0.0
 44
0.0
 45
0.0
 46
0.0
 47
0.0
 48
0.0
 49
0.0
140
0.0
141
0.0
142
1.0
143
1.0
 70
  1712
 72
     0
 73
     0
 74
     0
  7

 75
     0
147
1.0
148
0.0
149
0.0
100
AcDbLayout
  1
Model
 70
     1
 71
     0
 10
0.0
 20
0.0
 11
12.0
 21
9.0
 12
0.0
 22
0.0
 32
0.0
 14
0.0
 24
0.0
 34
0.0
 15
0.0
 25
0.0
 35
0.0
146
0.0
 13
0.0
 23
0.0
 33
0.0
 16
1.0
 26
0.0
 36
0.0
 17
0.0
 27
1.0
 37
0.0
 76
     0
330
1F
331
269
  0
MATERIAL
  5
26C
102
{ACAD_XDICTIONARY
360
857
102
}
102
{ACAD_REACTORS
330
BD
102
}
330
BD
100
AcDbMaterial
  1
ByBlock
 73
     1
 78
     1
172
     1
176
     1
270
     1
274
     1
  0
MATERIAL
  5
26B
102
{ACAD_XDICTIONARY
360
855
102
}
102
{ACAD_REACTORS
330
BD
102
}
330
BD
100
AcDbMaterial
  1
ByLayer
 73
     1
 78
     1
172
     1
176
     1
270
     1
274
     1
  0
MATERIAL
  5
26D
102
{ACAD_XDICTIONARY
360
859
102
}
102
{ACAD_REACTORS
330
BD
102
}
330
BD
100
AcDbMaterial
  1
Global
 73
     1
 78
     1
172
     1
176
     1
270
     1
274
     1
  0
MLEADERSTYLE
  5
2C5
102
{ACAD_REACTORS
330
2C4
102
}
330
2C4
100
AcDbMLeaderStyle
170
     2
171
     1
172
     0
 90
        2
 40
0.0
 41
0.0
173
     1
 91
-1056964608
340
14
 92
       -2
290
     1
 42
2.0
291
     1
 43
0.36
  3
Standard
 44
4.0
300

342
11
174
     1
178
     6
175
     1
176
     0
 93
-1056964608
 45
4.0
292
     0
297
     0
 46
4.0
 94
-1056964608
 47
1.0
 49
1.0
140
1.0
293
     1
141
0.0
294
     1
177
     0
142
1.0
295
     0
296
     0
143
0.125
1001
ACAD_MLEADERVER
1070
     2
  0
MLINESTYLE
  5
18
102
{ACAD_REACTORS
330
17
102
}
330
17
100
AcDbMlineStyle
  2
STANDARD
 70
     0
  3

 62
   256
 51
90.0
 52
90.0
 71
     2
 49
0.5
 62
   256
  6
BYLAYER
 49
-0.5
 62
   256
  6
BYLAYER
  0
ACDBPLACEHOLDER
  5
F
102
{ACAD_REACTORS
330
E
102
}
330
E
  0
SCALE
  5
2A3
102
{ACAD_REACTORS
330
2A2
102
}
330
2A2
100
AcDbScale
 70
     0
300
1:1
140
1.0
141
1.0
290
     1
  0
SCALE
  5
2A4
102
{ACAD_REACTORS
330
2A2
102
}
330
2A2
100
AcDbScale
 70
     0
300
1:2
140
1.0
141
2.0
290
     0
  0
SCALE
  5
2A5
102
{ACAD_REACTORS
330
2A2
102
}
330
2A2
100
AcDbScale
 70
     0
300
1:4
140
1.0
141
4.0
290
     0
  0
SCALE
  5
2A6
102
{ACAD_REACTORS
330
2A2
102
}
330
2A2
100
AcDbScale
 70
     0
300
1:5
140
1.0
141
5.0
290
     0
  0
SCALE
  5
2A7
102
{ACAD_REACTORS
330
2A2
102
}
330
2A2
100
AcDbScale
 70
     0
300
1:8
140
1.0
141
8.0
290
     0
  0
SCALE
  5
2A8
102
{ACAD_REACTORS
330
2A2
102
}
330
2A2
100
AcDbScale
 70
     0
300
1:10
140
1.0
141
10.0
290
     0
  0
SCALE
  5
2A9
102
{ACAD_REACTORS
330
2A2
102
}
330
2A2
100
AcDbScale
 70
     0
300
1:16
140
1.0
141
16.0
290
     0
  0
SCALE
  5
2AA
102
{ACAD_REACTORS
330
2A2
102
}
330
2A2
100
AcDbScale
 70
     0
300
1:20
140
1.0
141
20.0
290
     0
  0
SCALE
  5
2AB
102
{ACAD_REACTORS
330
2A2
102
}
330
2A2
100
AcDbScale
 70
     0
300
1:30
140
1.0
141
30.0
290
     0
  0
SCALE
  5
2AC
102
{ACAD_REACTORS
330
2A2
102
}
330
2A2
100
AcDbScale
 70
     0
300
1:40
140
1.0
141
40.0
290
     0
  0
SCALE
  5
2AD
102
{ACAD_REACTORS
330
2A2
102
}
330
2A2
100
AcDbScale
 70
     0
300
1:50
140
1.0
141
50.0
290
     0
  0
SCALE
  5
2AE
102
{ACAD_REACTORS
330
2A2
102
}
330
2A2
100
AcDbScale
 70
     0
300
1:100
140
1.0
141
100.0
290
     0
  0
SCALE
  5
2AF
102
{ACAD_REACTORS
330
2A2
102
}
330
2A2
100
AcDbScale
 70
     0
300
2:1
140
2.0
141
1.0
290
     0
  0
SCALE
  5
2B0
102
{ACAD_REACTORS
330
2A2
102
}
330
2A2
100
AcDbScale
 70
     0
300
4:1
140
4.0
141
1.0
290
     0
  0
SCALE
  5
2B1
102
{ACAD_REACTORS
330
2A2
102
}
330
2A2
100
AcDbScale
 70
     0
300
8:1
140
8.0
141
1.0
290
     0
  0
SCALE
  5
2B2
102
{ACAD_REACTORS
330
2A2
102
}
330
2A2
100
AcDbScale
 70
     0
300
10:1
140
10.0
141
1.0
290
     0
  0
SCALE
  5
2B3
102
{ACAD_REACTORS
330
2A2
102
}
330
2A2
100
AcDbScale
 70
     0
300
100:1
140
100.0
141
1.0
290
     0
  0
SCALE
  5
2B4
102
{ACAD_REACTORS
330
2A2
102
}
330
2A2
100
AcDbScale
 70
     0
300
1/128" = 1'-0"
140
0.0078125
141
12.0
290
     0
  0
SCALE
  5
2B5
102
{ACAD_REACTORS
330
2A2
102
}
330
2A2
100
AcDbScale
 70
     0
300
1/64" = 1'-0"
140
0.015625
141
12.0
290
     0
  0
SCALE
  5
2B6
102
{ACAD_REACTORS
330
2A2
102
}
330
2A2
100
AcDbScale
 70
     0
300
1/32" = 1'-0"
140
0.03125
141
12.0
290
     0
  0
SCALE
  5
2B7
102
{ACAD_REACTORS
330
2A2
102
}
330
2A2
100
AcDbScale
 70
     0
300
1/16" = 1'-0"
140
0.0625
141
12.0
290
     0
  0
SCALE
  5
2B8
102
{ACAD_REACTORS
330
2A2
102
}
330
2A2
100
AcDbScale
 70
     0
300
3/32" = 1'-0"
140
0.09375
141
12.0
290
     0
  0
SCALE
  5
2B9
102
{ACAD_REACTORS
330
2A2
102
}
330
2A2
100
AcDbScale
 70
     0
300
1/8" = 1'-0"
140
0.125
141
12.0
290
     0
  0
SCALE
  5
2BA
102
{ACAD_REACTORS
330
2A2
102
}
330
2A2
100
AcDbScale
 70
     0
300
3/16" = 1'-0"
140
0.1875
141
12.0
290
     0
  0
SCALE
  5
2BB
102
{ACAD_REACTORS
330
2A2
102
}
330
2A2
100
AcDbScale
 70
     0
300
1/4" = 1'-0"
140
0.25
141
12.0
290
     0
  0
SCALE
  5
2BC
102
{ACAD_REACTORS
330
2A2
102
}
330
2A2
100
AcDbScale
 70
     0
300
3/8" = 1'-0"
140
0.375
141
12.0
290
     0
  0
SCALE
  5
2BD
102
{ACAD_REACTORS
330
2A2
102
}
330
2A2
100
AcDbScale
 70
     0
300
1/2" = 1'-0"
140
0.5
141
12.0
290
     0
  0
SCALE
  5
2BE
102
{ACAD_REACTORS
330
2A2
102
}
330
2A2
100
AcDbScale
 70
     0
300
3/4" = 1'-0"
140
0.75
141
12.0
290
     0
  0
SCALE
  5
2BF
102
{ACAD_REACTORS
330
2A2
102
}
330
2A2
100
AcDbScale
 70
     0
300
1" = 1'-0"
140
1.0
141
12.0
290
     0
  0
SCALE
  5
2C0
102
{ACAD_REACTORS
330
2A2
102
}
330
2A2
100
AcDbScale
 70
     0
300
1-1/2" = 1'-0"
140
1.5
141
12.0
290
     0
  0
SCALE
  5
2C1
102
{ACAD_REACTORS
330
2A2
102
}
330
2A2
100
AcDbScale
 70
     0
300
3" = 1'-0"
140
3.0
141
12.0
290
     0
  0
SCALE
  5
2C2
102
{ACAD_REACTORS
330
2A2
102
}
330
2A2
100
AcDbScale
 70
     0
300
6" = 1'-0"
140
6.0
141
12.0
290
     0
  0
SCALE
  5
2C3
102
{ACAD_REACTORS
330
2A2
102
}
330
2A2
100
AcDbScale
 70
     0
300
1'-0" = 1'-0"
140
12.0
141
12.0
290
     0
  0
TABLESTYLE
  5
11B
102
{ACAD_XDICTIONARY
360
2E4
102
}
102
{ACAD_REACTORS
330
11A
102
}
330
11A
100
AcDbTableStyle
  3
Standard
 70
     0
 71
     0
 40
1.5
 41
1.5
280
     0
281
     0
  7
STANDARD
140
4.5
170
     2
 62
     0
 63
     7
283
     0
274
    -2
284
     1
 64
     0
275
    -2
285
     1
 65
     0
276
    -2
286
     1
 66
     0
277
    -2
287
     1
 67
     0
278
    -2
288
     1
 68
     0
279
    -2
289
     1
 69
     0
  7
STANDARD
140
6.0
170
     5
 62
     0
 63
     7
283
     0
274
    -2
284
     1
 64
     0
275
    -2
285
     1
 65
     0
276
    -2
286
     1
 66
     0
277
    -2
287
     1
 67
     0
278
    -2
288
     1
 68
     0
279
    -2
289
     1
 69
     0
  7
STANDARD
140
4.5
170
     5
 62
     0
 63
     7
283
     0
274
    -2
284
     1
 64
     0
275
    -2
285
     1
 65
     0
276
    -2
286
     1
 66
     0
277
    -2
287
     1
 67
     0
278
    -2
288
     1
 68
     0
279
    -2
289
     1
 69
     0
  0
VISUALSTYLE
  5
274
102
{ACAD_REACTORS
330
26E
102
}
330
26E
100
AcDbVisualStyle
  2
2dWireframe
 70
     4
 71
     0
 72
     2
 73
     0
 90
        0
 40
-0.6
 41
-30.0
 62
     5
 63
     7
 74
     1
 91
        4
 64
     7
 65
   257
 75
     1
175
     1
 42
1.0
 92
        0
 66
   257
 43
1.0
 76
     1
 77
     6
 78
     2
 67
     7
 79
     5
170
     0
171
     0
290
     0
174
     0
 93
        1
 44
0.0
173
     0
291
     0
 45
0.0
1001
ACAD
1000
AcDbSavedByObjectVersion
1070
     0
  0
VISUALSTYLE
  5
276
102
{ACAD_REACTORS
330
26E
102
}
330
26E
100
AcDbVisualStyle
  2
3D Hidden
 70
     6
 71
     1
 72
     2
 73
     2
 90
        0
 40
-0.6
 41
-30.0
 62
     5
 63
     7
 74
     2
 91
        2
 64
     7
 65
   257
 75
     2
175
     1
 42
40.0
 92
        0
 66
   257
 43
1.0
 76
     1
 77
     6
 78
     2
 67
     7
 79
     3
170
     0
171
     0
290
     0
174
     0
 93
        1
 44
0.0
173
     0
291
     0
 45
0.0
1001
ACAD
1000
AcDbSavedByObjectVersion
1070
     0
  0
VISUALSTYLE
  5
275
102
{ACAD_REACTORS
330
26E
102
}
330
26E
100
AcDbVisualStyle
  2
3dWireframe
 70
     5
 71
     0
 72
     2
 73
     0
 90
        0
 40
-0.6
 41
-30.0
 62
     5
 63
     7
 74
     1
 91
        4
 64
     7
 65
   257
 75
     1
175
     1
 42
1.0
 92
        0
 66
   257
 43
1.0
 76
     1
 77
     6
 78
     2
 67
     7
 79
     5
170
     0
171
     0
290
     0
174
     0
 93
        1
 44
0.0
173
     0
291
     0
 45
0.0
1001
ACAD
1000
AcDbSavedByObjectVersion
1070
     0
  0
VISUALSTYLE
  5
273
102
{ACAD_REACTORS
330
26E
102
}
330
26E
100
AcDbVisualStyle
  2
Basic
 70
     7
 71
     1
 72
     0
 73
     1
 90
        0
 40
-0.6
 41
-30.0
 62
     5
 63
     7
 74
     0
 91
        4
 64
     7
 65
   257
 75
     1
175
     1
 42
1.0
 92
        8
 66
     7
 43
1.0
 76
     1
 77
     6
 78
     2
 67
     7
 79
     5
170
     0
171
     0
290
     0
174
     0
 93
        1
 44
0.0
173
     0
291
     1
 45
0.0
1001
ACAD
1000
AcDbSavedByObjectVersion
1070
     0
  0
VISUALSTYLE
  5
27A
102
{ACAD_REACTORS
330
26E
102
}
330
26E
100
AcDbVisualStyle
  2
Brighten
 70
    12
 71
     2
 72
     2
 73
     0
 90
        0
 40
-0.6
 41
-30.0
 62
     5
 63
     7
 74
     1
 91
        4
 64
     7
 65
   257
 75
     1
175
     1
 42
1.0
 92
        8
 66
     7
 43
1.0
 76
     1
 77
     6
 78
     2
 67
     7
 79
     5
170
     0
171
     0
290
     0
174
     0
 93
        1
 44
50.0
173
     0
291
     1
 45
0.0
1001
ACAD
1000
AcDbSavedByObjectVersion
1070
     0
  0
VISUALSTYLE
  5
27E
102
{ACAD_REACTORS
330
26E
102
}
330
26E
100
AcDbVisualStyle
  2
ColorChange
 70
    16
 71
     2
 72
     2
 73
     3
 90
        0
 40
-0.6
 41
-30.0
 62
     5
 63
     8
 74
     1
 91
        4
 64
     7
 65
   257
 75
     1
175
     1
 42
1.0
 92
        8
 66
     8
 43
1.0
 76
     1
 77
     6
 78
     2
 67
     7
 79
     5
170
     0
171
     0
290
     0
174
     0
 93
        1
 44
0.0
173
     0
291
     1
 45
0.0
1001
ACAD
1000
AcDbSavedByObjectVersion
1070
     0
  0
VISUALSTYLE
  5
277
102
{ACAD_REACTORS
330
26E
102
}
330
26E
100
AcDbVisualStyle
  2
Conceptual
 70
     9
 71
     3
 72
     2
 73
     0
 90
        0
 40
-0.6
 41
-30.0
 62
     5
 63
     7
 74
     2
 91
        2
 64
     7
 65
   257
 75
     1
175
     1
 42
40.0
 92
        8
 66
     7
 43
1.0
 76
     1
 77
     6
 78
     2
 67
     7
 79
     3
170
     0
171
     0
290
     0
174
     0
 93
        1
 44
0.0
173
     0
291
     0
 45
0.0
1001
ACAD
1000
AcDbSavedByObjectVersion
1070
     0
  0
VISUALSTYLE
  5
279
102
{ACAD_REACTORS
330
26E
102
}
330
26E
100
AcDbVisualStyle
  2
Dim
 70
    11
 71
     2
 72
     2
 73
     0
 90
        0
 40
-0.6
 41
-30.0
 62
     5
 63
     7
 74
     1
 91
        4
 64
     7
 65
   257
 75
     1
175
     1
 42
1.0
 92
        8
 66
     7
 43
1.0
 76
     1
 77
     6
 78
     2
 67
     7
 79
     5
170
     0
171
     0
290
     0
174
     0
 93
        1
 44
-50.0
173
     0
291
     1
 45
0.0
1001
ACAD
1000
AcDbSavedByObjectVersion
1070
     0
  0
VISUALSTYLE
  5
27D
102
{ACAD_REACTORS
330
26E
102
}
330
26E
100
AcDbVisualStyle
  2
Facepattern
 70
    15
 71
     2
 72
     2
 73
     0
 90
        0
 40
-0.6
 41
-30.0
 62
     5
 63
     7
 74
     1
 91
        4
 64
     7
 65
   257
 75
     1
175
     1
 42
1.0
 92
        8
 66
     7
 43
1.0
 76
     1
 77
     6
 78
     2
 67
     7
 79
     5
170
     0
171
     0
290
     0
174
     0
 93
        1
 44
0.0
173
     0
291
     1
 45
0.0
1001
ACAD
1000
AcDbSavedByObjectVersion
1070
     0
  0
VISUALSTYLE
  5
26F
102
{ACAD_REACTORS
330
26E
102
}
330
26E
100
AcDbVisualStyle
  2
Flat
 70
     0
 71
     2
 72
     1
 73
     1
 90
        2
 40
-0.6
 41
30.0
 62
     5
 63
     7
 74
     0
 91
        4
 64
     7
 65
   257
 75
     1
175
     1
 42
1.0
 92
        8
 66
     7
 43
1.0
 76
     1
 77
     6
 78
     2
 67
     7
 79
     5
170
     0
171
     0
290
     0
174
     0
 93
       13
 44
0.0
173
     0
291
     1
 45
0.0
1001
ACAD
1000
AcDbSavedByObjectVersion
1070
     0
  0
VISUALSTYLE
  5
270
102
{ACAD_REACTORS
330
26E
102
}
330
26E
100
AcDbVisualStyle
  2
FlatWithEdges
 70
     1
 71
     2
 72
     1
 73
     1
 90
        2
 40
-0.6
 41
30.0
 62
     5
 63
     7
 74
     1
 91
        4
 64
     7
 65
   257
 75
     1
175
     1
 42
1.0
 92
        0
 66
   257
 43
1.0
 76
     1
 77
     6
 78
     2
 67
     7
 79
     5
170
     0
171
     0
290
     0
174
     0
 93
       13
 44
0.0
173
     0
291
     1
 45
0.0
1001
ACAD
1000
AcDbSavedByObjectVersion
1070
     0
  0
VISUALSTYLE
  5
271
102
{ACAD_REACTORS
330
26E
102
}
330
26E
100
AcDbVisualStyle
  2
Gouraud
 70
     2
 71
     2
 72
     2
 73
     1
 90
        2
 40
-0.6
 41
30.0
 62
     5
 63
     7
 74
     0
 91
        4
 64
     7
 65
   257
 75
     1
175
     1
 42
1.0
 92
        0
 66
     7
 43
1.0
 76
     1
 77
     6
 78
     2
 67
     7
 79
     5
170
     0
171
     0
290
     0
174
     0
 93
       13
 44
0.0
173
     0
291
     1
 45
0.0
1001
ACAD
1000
AcDbSavedByObjectVersion
1070
     0
  0
VISUALSTYLE
  5
272
102
{ACAD_REACTORS
330
26E
102
}
330
26E
100
AcDbVisualStyle
  2
GouraudWithEdges
 70
     3
 71
     2
 72
     2
 73
     1
 90
        2
 40
-0.6
 41
30.0
 62
     5
 63
     7
 74
     1
 91
        4
 64
     7
 65
   257
 75
     1
175
     1
 42
1.0
 92
        0
 66
   257
 43
1.0
 76
     1
 77
     6
 78
     2
 67
     7
 79
     5
170
     0
171
     0
290
     0
174
     0
 93
       13
 44
0.0
173
     0
291
     1
 45
0.0
1001
ACAD
1000
AcDbSavedByObjectVersion
1070
     0
  0
VISUALSTYLE
  5
27C
102
{ACAD_REACTORS
330
26E
102
}
330
26E
100
AcDbVisualStyle
  2
Linepattern
 70
    14
 71
     2
 72
     2
 73
     0
 90
        0
 40
-0.6
 41
-30.0
 62
     5
 63
     7
 74
     1
 91
        4
 64
     7
 65
   257
 75
     7
175
     7
 42
1.0
 92
        8
 66
     7
 43
1.0
 76
     1
 77
     6
 78
     2
 67
     7
 79
     5
170
     0
171
     0
290
     0
174
     0
 93
        1
 44
0.0
173
     0
291
     1
 45
0.0
1001
ACAD
1000
AcDbSavedByObjectVersion
1070
     0
  0
VISUALSTYLE
  5
278
102
{ACAD_REACTORS
330
26E
102
}
330
26E
100
AcDbVisualStyle
  2
Realistic
 70
     8
 71
     2
 72
     2
 73
     0
 90
        0
 40
-0.6
 41
-30.0
 62
     5
 63
     7
 74
     1
 91
        0
 64
     7
 65
   257
 75
     1
175
     1
 42
1.0
 92
        8
 66
     8
 43
1.0
 76
     1
 77
     6
 78
     2
 67
     7
 79
     5
170
     0
171
     0
290
     0
174
     0
 93
       13
 44
0.0
173
     0
291
     0
 45
0.0
1001
ACAD
1000
AcDbSavedByObjectVersion
1070
     0
  0
VISUALSTYLE
  5
27B
102
{ACAD_REACTORS
330
26E
102
}
330
26E
100
AcDbVisualStyle
  2
Thicken
 70
    13
 71
     2
 72
     2
 73
     0
 90
        0
 40
-0.6
 41
-30.0
 62
     5
 63
     7
 74
     1
 91
        4
 64
     7
 65
   257
 75
     1
175
     1
 42
1.0
 92
       12
 66
     7
 43
1.0
 76
     1
 77
     6
 78
     2
 67
     7
 79
     5
170
     0
171
     0
290
     0
174
     0
 93
        1
 44
0.0
173
     0
291
     1
 45
0.0
1001
ACAD
1000
AcDbSavedByObjectVersion
1070
     0
  0
DICTIONARYVAR
  5
2E9
102
{ACAD_REACTORS
330
94
102
}
330
94
100
DictionaryVariables
280
     0
  1
1:1
  0
DICTIONARYVAR
  5
2E7
102
{ACAD_REACTORS
330
94
102
}
330
94
100
DictionaryVariables
280
     0
  1
STANDARD
  0
DICTIONARYVAR
  5
138
102
{ACAD_REACTORS
330
94
102
}
330
94
100
DictionaryVariables
280
     0
  1
STANDARD
  0
DICTIONARYVAR
  5
96
102
{ACAD_REACTORS
330
94
102
}
330
94
100
DictionaryVariables
280
     0
  1
2
  0
DICTIONARYVAR
  5
95
102
{ACAD_REACTORS
330
94
102
}
330
94
100
DictionaryVariables
280
     0
  1
0
  0
DICTIONARYVAR
  5
346
102
{ACAD_REACTORS
330
94
102
}
330
94
100
DictionaryVariables
280
     0
  1
1
  0
DICTIONARYVAR
  5
347
102
{ACAD_REACTORS
330
94
102
}
330
94
100
DictionaryVariables
280
     0
  1
15
  0
DICTIONARYVAR
  5
2EA
102
{ACAD_REACTORS
330
94
102
}
330
94
100
DictionaryVariables
280
     0
  1
0
  0
DICTIONARYVAR
  5
2E8
102
{ACAD_REACTORS
330
94
102
}
330
94
100
DictionaryVariables
280
     0
  1
0
  0
DICTIONARYVAR
  5
841
102
{ACAD_REACTORS
330
94
102
}
330
94
100
DictionaryVariables
280
     0
  1
127
  0
DICTIONARY
  5
36B
102
{ACAD_REACTORS
330
5B
102
}
330
5B
100
AcDbDictionary
281
     1
  0
DICTIONARY
  5
61
102
{ACAD_REACTORS
330
5B
102
}
330
5B
100
AcDbDictionary
281
     1
  0
XRECORD
  5
123
102
{ACAD_REACTORS
330
5B
102
}
330
5B
100
AcDbXrecord
280
     1
 90
-1023410169
  0
DICTIONARY
  5
849
330
1E
100
AcDbDictionary
280
     1
281
     1
  3
ACAD_XREC_ROUNDTRIP
360
84A
  0
DICTIONARY
  5
84D
330
26
100
AcDbDictionary
280
     1
281
     1
  3
ACAD_XREC_ROUNDTRIP
360
84E
  0
DICTIONARY
  5
84B
330
22
100
AcDbDictionary
280
     1
281
     1
  3
ACAD_XREC_ROUNDTRIP
360
84C
  0
DICTIONARY
  5
857
330
26C
100
AcDbDictionary
280
     1
281
     1
  3
ACAD_XREC_ROUNDTRIP
360
858
  0
DICTIONARY
  5
855
330
26B
100
AcDbDictionary
280
     1
281
     1
  3
ACAD_XREC_ROUNDTRIP
360
856
  0
DICTIONARY
  5
859
330
26D
100
AcDbDictionary
280
     1
281
     1
  3
ACAD_XREC_ROUNDTRIP
360
85A
  0
DICTIONARY
  5
2E4
330
11B
100
AcDbDictionary
280
     1
281
     1
  3
ACAD_ROUNDTRIP_2008_TABLESTYLE_CELLSTYLEMAP
360
842
  3
ACAD_XREC_ROUNDTRIP
360
854
  0
XRECORD
  5
84A
102
{ACAD_REACTORS
330
849
102
}
330
849
100
AcDbXrecord
280
     1
102
SHADEPLOT
 70
     0
102
SHADEPLOTRESLEVEL
 70
     2
102
SHADEPLOTCUSTOMDPI
 70
   300
  0
XRECORD
  5
84E
102
{ACAD_REACTORS
330
84D
102
}
330
84D
100
AcDbXrecord
280
     1
102
SHADEPLOT
 70
     0
102
SHADEPLOTRESLEVEL
 70
     2
102
SHADEPLOTCUSTOMDPI
 70
   300
  0
XRECORD
  5
84C
102
{ACAD_REACTORS
330
84B
102
}
330
84B
100
AcDbXrecord
280
     1
102
SHADEPLOT
 70
     0
102
SHADEPLOTRESLEVEL
 70
     2
102
SHADEPLOTCUSTOMDPI
 70
   300
  0
XRECORD
  5
858
102
{ACAD_REACTORS
330
857
102
}
330
857
100
AcDbXrecord
280
     1
102
MATERIAL
148
0.0
149
0.0
149
0.0
 93
        0
 94
       63
282
     0
 72
     1
 77
     1
171
     1
175
     1
179
     1
273
     0
  0
XRECORD
  5
856
102
{ACAD_REACTORS
330
855
102
}
330
855
100
AcDbXrecord
280
     1
102
MATERIAL
148
0.0
149
0.0
149
0.0
 93
        0
 94
       63
282
     0
 72
     1
 77
     1
171
     1
175
     1
179
     1
273
     0
  0
XRECORD
  5
85A
102
{ACAD_REACTORS
330
859
102
}
330
859
100
AcDbXrecord
280
     1
102
MATERIAL
148
0.0
149
0.0
149
0.0
 93
        0
 94
       63
282
     0
 72
     1
 77
     1
171
     1
175
     1
179
     1
273
     0
  0
CELLSTYLEMAP
  5
842
102
{ACAD_REACTORS
330
2E4
102
}
330
2E4
100
AcDbCellStyleMap
 90
        3
300
CELLSTYLE
  1
TABLEFORMAT_BEGIN
 90
        5
170
     1
 91
        0
 92
    32768
 62
   257
 93
        1
300
CONTENTFORMAT
  1
CONTENTFORMAT_BEGIN
 90
        0
 91
        0
 92
      512
 93
        0
300

 40
0.0
140
1.0
 94
        5
 62
     0
340
11
144
6.0
309
CONTENTFORMAT_END
171
     1
301
MARGIN
  1
CELLMARGIN_BEGIN
 40
1.5
 40
1.5
 40
1.5
 40
1.5
 40
0.18
 40
0.18
309
CELLMARGIN_END
 94
        6
 95
        1
302
GRIDFORMAT
  1
GRIDFORMAT_BEGIN
 90
        0
 91
        1
 62
     0
 92
       -2
340
0
 93
        0
 40
0.045
309
GRIDFORMAT_END
 95
        2
302
GRIDFORMAT
  1
GRIDFORMAT_BEGIN
 90
        0
 91
        1
 62
     0
 92
       -2
340
0
 93
        0
 40
0.045
309
GRIDFORMAT_END
 95
        4
302
GRIDFORMAT
  1
GRIDFORMAT_BEGIN
 90
        0
 91
        1
 62
     0
 92
       -2
340
0
 93
        0
 40
0.045
309
GRIDFORMAT_END
 95
        8
302
GRIDFORMAT
  1
GRIDFORMAT_BEGIN
 90
        0
 91
        1
 62
     0
 92
       -2
340
0
 93
        0
 40
0.045
309
GRIDFORMAT_END
 95
       16
302
GRIDFORMAT
  1
GRIDFORMAT_BEGIN
 90
        0
 91
        1
 62
     0
 92
       -2
340
0
 93
        0
 40
0.045
309
GRIDFORMAT_END
 95
       32
302
GRIDFORMAT
  1
GRIDFORMAT_BEGIN
 90
        0
 91
        1
 62
     0
 92
       -2
340
0
 93
        0
 40
0.045
309
GRIDFORMAT_END
309
TABLEFORMAT_END
  1
CELLSTYLE_BEGIN
 90
        1
 91
        1
300
_TITLE
309
CELLSTYLE_END
300
CELLSTYLE
  1
TABLEFORMAT_BEGIN
 90
        5
170
     1
 91
        0
 92
        0
 62
   257
 93
        1
300
CONTENTFORMAT
  1
CONTENTFORMAT_BEGIN
 90
        0
 91
        0
 92
      512
 93
        0
300

 40
0.0
140
1.0
 94
        5
 62
     0
340
11
144
4.5
309
CONTENTFORMAT_END
171
     1
301
MARGIN
  1
CELLMARGIN_BEGIN
 40
1.5
 40
1.5
 40
1.5
 40
1.5
 40
0.18
 40
0.18
309
CELLMARGIN_END
 94
        6
 95
        1
302
GRIDFORMAT
  1
GRIDFORMAT_BEGIN
 90
        0
 91
        1
 62
     0
 92
       -2
340
0
 93
        0
 40
0.045
309
GRIDFORMAT_END
 95
        2
302
GRIDFORMAT
  1
GRIDFORMAT_BEGIN
 90
        0
 91
        1
 62
     0
 92
       -2
340
0
 93
        0
 40
0.045
309
GRIDFORMAT_END
 95
        4
302
GRIDFORMAT
  1
GRIDFORMAT_BEGIN
 90
        0
 91
        1
 62
     0
 92
       -2
340
0
 93
        0
 40
0.045
309
GRIDFORMAT_END
 95
        8
302
GRIDFORMAT
  1
GRIDFORMAT_BEGIN
 90
        0
 91
        1
 62
     0
 92
       -2
340
0
 93
        0
 40
0.045
309
GRIDFORMAT_END
 95
       16
302
GRIDFORMAT
  1
GRIDFORMAT_BEGIN
 90
        0
 91
        1
 62
     0
 92
       -2
340
0
 93
        0
 40
0.045
309
GRIDFORMAT_END
 95
       32
302
GRIDFORMAT
  1
GRIDFORMAT_BEGIN
 90
        0
 91
        1
 62
     0
 92
       -2
340
0
 93
        0
 40
0.045
309
GRIDFORMAT_END
309
TABLEFORMAT_END
  1
CELLSTYLE_BEGIN
 90
        2
 91
        1
300
_HEADER
309
CELLSTYLE_END
300
CELLSTYLE
  1
TABLEFORMAT_BEGIN
 90
        5
170
     1
 91
        0
 92
        0
 62
   257
 93
        1
300
CONTENTFORMAT
  1
CONTENTFORMAT_BEGIN
 90
        0
 91
        0
 92
      512
 93
        0
300

 40
0.0
140
1.0
 94
        2
 62
     0
340
11
144
4.5
309
CONTENTFORMAT_END
171
     1
301
MARGIN
  1
CELLMARGIN_BEGIN
 40
1.5
 40
1.5
 40
1.5
 40
1.5
 40
0.18
 40
0.18
309
CELLMARGIN_END
 94
        6
 95
        1
302
GRIDFORMAT
  1
GRIDFORMAT_BEGIN
 90
        0
 91
        1
 62
     0
 92
       -2
340
0
 93
        0
 40
0.045
309
GRIDFORMAT_END
 95
        2
302
GRIDFORMAT
  1
GRIDFORMAT_BEGIN
 90
        0
 91
        1
 62
     0
 92
       -2
340
0
 93
        0
 40
0.045
309
GRIDFORMAT_END
 95
        4
302
GRIDFORMAT
  1
GRIDFORMAT_BEGIN
 90
        0
 91
        1
 62
     0
 92
       -2
340
0
 93
        0
 40
0.045
309
GRIDFORMAT_END
 95
        8
302
GRIDFORMAT
  1
GRIDFORMAT_BEGIN
 90
        0
 91
        1
 62
     0
 92
       -2
340
0
 93
        0
 40
0.045
309
GRIDFORMAT_END
 95
       16
302
GRIDFORMAT
  1
GRIDFORMAT_BEGIN
 90
        0
 91
        1
 62
     0
 92
       -2
340
0
 93
        0
 40
0.045
309
GRIDFORMAT_END
 95
       32
302
GRIDFORMAT
  1
GRIDFORMAT_BEGIN
 90
        0
 91
        1
 62
     0
 92
       -2
340
0
 93
        0
 40
0.045
309
GRIDFORMAT_END
309
TABLEFORMAT_END
  1
CELLSTYLE_BEGIN
 90
        3
 91
        2
300
_DATA
309
CELLSTYLE_END
  0
XRECORD
  5
854
102
{ACAD_REACTORS
330
2E4
102
}
330
2E4
100
AcDbXrecord
280
     1
102
ACAD_ROUNDTRIP_PRE2007_TABLESTYLE
 90
      512
 91
        0
  1

 92
      512
 93
        0
  2

 94
      512
 95
        0
  3

  0
ENDSEC
  0
EOF
