  0
SECTION
  2
HEADER
  9
$ACADVER
  1
AC1015
  9
$ACADMAINTVER
 70
    20
  9
$DWGCODEPAGE
  3
ANSI_1252
  9
$INSBASE
 10
0.0
 20
0.0
 30
0.0
  9
$EXTMIN
 10
-317.661866025258
 20
-0.141226147312409
 30
-0.0000000000112498
  9
$EXTMAX
 10
1170.921581515786
 20
515.9742018665938
 30
0.0000000000002956
  9
$LIMMIN
 10
0.0
 20
0.0
  9
$LIMMAX
 10
420.0
 20
297.0
  9
$ORTHOMODE
 70
     1
  9
$REGENMODE
 70
     1
  9
$FILLMODE
 70
     1
  9
$QTEXTMODE
 70
     0
  9
$MIRRTEXT
 70
     1
  9
$LTSCALE
 40
1.0
  9
$ATTMODE
 70
     1
  9
$TEXTSIZE
 40
2.5
  9
$TRACEWID
 40
1.0
  9
$TEXTSTYLE
  7
STANDARD
  9
$CLAYER
  8
0
  9
$CELTYPE
  6
ByLayer
  9
$CECOLOR
 62
   256
  9
$CELTSCALE
 40
1.0
  9
$DISPSILH
 70
     0
  9
$DIMSCALE
 40
1.0
  9
$DIMASZ
 40
3.5
  9
$DIMEXO
 40
1.0
  9
$DIMDLI
 40
10.0
  9
$DIMRND
 40
0.0
  9
$DIMDLE
 40
0.0
  9
$DIMEXE
 40
1.0
  9
$DIMTP
 40
0.1
  9
$DIMTM
 40
0.1
  9
$DIMTXT
 40
3.5
  9
$DIMCEN
 40
0.0
  9
$DIMTSZ
 40
0.0
  9
$DIMTOL
 70
     0
  9
$DIMLIM
 70
     0
  9
$DIMTIH
 70
     0
  9
$DIMTOH
 70
     0
  9
$DIMSE1
 70
     0
  9
$DIMSE2
 70
     0
  9
$DIMTAD
 70
     1
  9
$DIMZIN
 70
     8
  9
$DIMBLK
  1

  9
$DIMASO
 70
     1
  9
$DIMSHO
 70
     1
  9
$DIMPOST
  1

  9
$DIMAPOST
  1
"
  9
$DIMALT
 70
     0
  9
$DIMALTD
 70
     2
  9
$DIMALTF
 40
0.0393701
  9
$DIMLFAC
 40
1.0
  9
$DIMTOFL
 70
     1
  9
$DIMTVP
 40
0.0
  9
$DIMTIX
 70
     0
  9
$DIMSOXD
 70
     0
  9
$DIMSAH
 70
     0
  9
$DIMBLK1
  1

  9
$DIMBLK2
  1

  9
$DIMSTYLE
  2
AM_ISO
  9
$DIMCLRD
 70
   256
  9
$DIMCLRE
 70
   256
  9
$DIMCLRT
 70
   140
  9
$DIMTFAC
 40
0.71
  9
$DIMGAP
 40
1.5
  9
$DIMJUST
 70
     0
  9
$DIMSD1
 70
     0
  9
$DIMSD2
 70
     0
  9
$DIMTOLJ
 70
     0
  9
$DIMTZIN
 70
     8
  9
$DIMALTZ
 70
     0
  9
$DIMALTTZ
 70
     0
  9
$DIMUPT
 70
     0
  9
$DIMDEC
 70
     2
  9
$DIMTDEC
 70
     3
  9
$DIMALTU
 70
     2
  9
$DIMALTTD
 70
     4
  9
$DIMTXSTY
  7
STANDARD
  9
$DIMAUNIT
 70
     0
  9
$DIMADEC
 70
     0
  9
$DIMALTRND
 40
0.0
  9
$DIMAZIN
 70
     2
  9
$DIMDSEP
 70
    46
  9
$DIMATFIT
 70
     3
  9
$DIMFRAC
 70
     0
  9
$DIMLDRBLK
  1

  9
$DIMLUNIT
 70
     2
  9
$DIMLWD
 70
    -1
  9
$DIMLWE
 70
    -1
  9
$DIMTMOVE
 70
     0
  9
$LUNITS
 70
     2
  9
$LUPREC
 70
     2
  9
$SKETCHINC
 40
1.0
  9
$FILLETRAD
 40
0.0
  9
$AUNITS
 70
     0
  9
$AUPREC
 70
     0
  9
$MENU
  1
.
  9
$ELEVATION
 40
0.0
  9
$PELEVATION
 40
0.0
  9
$THICKNESS
 40
0.0
  9
$LIMCHECK
 70
     0
  9
$CHAMFERA
 40
2.5
  9
$CHAMFERB
 40
2.5
  9
$CHAMFERC
 40
20.0
  9
$CHAMFERD
 40
0.0
  9
$SKPOLY
 70
     0
  9
$TDCREATE
 40
2455098.440821597
  9
$TDUCREATE
 40
2455098.357488264
  9
$TDUPDATE
 40
2455098.648189445
  9
$TDUUPDATE
 40
2455098.564856111
  9
$TDINDWG
 40
0.2073692824
  9
$TDUSRTIMER
 40
0.2073691088
  9
$USRTIMER
 70
     1
  9
$ANGBASE
 50
0.0
  9
$ANGDIR
 70
     0
  9
$PDMODE
 70
     0
  9
$PDSIZE
 40
0.0
  9
$PLINEWID
 40
0.0
  9
$SPLFRAME
 70
     0
  9
$SPLINETYPE
 70
     6
  9
$SPLINESEGS
 70
     8
  9
$HANDSEED
  5
DC6
  9
$SURFTAB1
 70
     6
  9
$SURFTAB2
 70
     6
  9
$SURFTYPE
 70
     6
  9
$SURFU
 70
     6
  9
$SURFV
 70
     6
  9
$UCSBASE
  2

  9
$UCSNAME
  2

  9
$UCSORG
 10
0.0
 20
0.0
 30
0.0
  9
$UCSXDIR
 10
1.0
 20
0.0
 30
0.0
  9
$UCSYDIR
 10
0.0
 20
1.0
 30
0.0
  9
$UCSORTHOREF
  2

  9
$UCSORTHOVIEW
 70
     0
  9
$UCSORGTOP
 10
0.0
 20
0.0
 30
0.0
  9
$UCSORGBOTTOM
 10
0.0
 20
0.0
 30
0.0
  9
$UCSORGLEFT
 10
0.0
 20
0.0
 30
0.0
  9
$UCSORGRIGHT
 10
0.0
 20
0.0
 30
0.0
  9
$UCSORGFRONT
 10
0.0
 20
0.0
 30
0.0
  9
$UCSORGBACK
 10
0.0
 20
0.0
 30
0.0
  9
$PUCSBASE
  2

  9
$PUCSNAME
  2

  9
$PUCSORG
 10
0.0
 20
0.0
 30
0.0
  9
$PUCSXDIR
 10
1.0
 20
0.0
 30
0.0
  9
$PUCSYDIR
 10
0.0
 20
1.0
 30
0.0
  9
$PUCSORTHOREF
  2

  9
$PUCSORTHOVIEW
 70
     0
  9
$PUCSORGTOP
 10
0.0
 20
0.0
 30
0.0
  9
$PUCSORGBOTTOM
 10
0.0
 20
0.0
 30
0.0
  9
$PUCSORGLEFT
 10
0.0
 20
0.0
 30
0.0
  9
$PUCSORGRIGHT
 10
0.0
 20
0.0
 30
0.0
  9
$PUCSORGFRONT
 10
0.0
 20
0.0
 30
0.0
  9
$PUCSORGBACK
 10
0.0
 20
0.0
 30
0.0
  9
$USERI1
 70
     0
  9
$USERI2
 70
     0
  9
$USERI3
 70
     0
  9
$USERI4
 70
     0
  9
$USERI5
 70
     0
  9
$USERR1
 40
0.0
  9
$USERR2
 40
0.0
  9
$USERR3
 40
0.0
  9
$USERR4
 40
0.0
  9
$USERR5
 40
0.0
  9
$WORLDVIEW
 70
     1
  9
$SHADEDGE
 70
     3
  9
$SHADEDIF
 70
    70
  9
$TILEMODE
 70
     1
  9
$MAXACTVP
 70
    64
  9
$PINSBASE
 10
0.0
 20
0.0
 30
0.0
  9
$PLIMCHECK
 70
     0
  9
$PEXTMIN
 10
1.000000000000000E+20
 20
1.000000000000000E+20
 30
1.000000000000000E+20
  9
$PEXTMAX
 10
-1.000000000000000E+20
 20
-1.000000000000000E+20
 30
-1.000000000000000E+20
  9
$PLIMMIN
 10
0.0
 20
0.0
  9
$PLIMMAX
 10
420.0
 20
297.0
  9
$UNITMODE
 70
     0
  9
$VISRETAIN
 70
     1
  9
$PLINEGEN
 70
     0
  9
$PSLTSCALE
 70
     1
  9
$TREEDEPTH
 70
  3020
  9
$CMLSTYLE
  2
Standard
  9
$CMLJUST
 70
     0
  9
$CMLSCALE
 40
20.0
  9
$PROXYGRAPHICS
 70
     1
  9
$MEASUREMENT
 70
     1
  9
$CELWEIGHT
370
    -1
  9
$ENDCAPS
280
     0
  9
$JOINSTYLE
280
     0
  9
$LWDISPLAY
290
     0
  9
$INSUNITS
 70
     4
  9
$HYPERLINKBASE
  1

  9
$STYLESHEET
  1

  9
$XEDIT
290
     1
  9
$CEPSNTYPE
380
     0
  9
$PSTYLEMODE
290
     1
  9
$FINGERPRINTGUID
  2
{8A96CC7D-F0E0-47A3-90B6-B93E815B1818}
  9
$VERSIONGUID
  2
{9926F378-7BF5-4D70-862E-A9CA19B25CF7}
  9
$EXTNAMES
290
     1
  9
$PSVPSCALE
 40
0.0
  9
$OLESTARTUP
290
     0
  0
ENDSEC
  0
SECTION
  2
CLASSES
  0
CLASS
  1
ACDBDICTIONARYWDFLT
  2
AcDbDictionaryWithDefault
  3
ObjectDBX Classes
 90
        0
280
     0
281
     0
  0
CLASS
  1
ACDBPLACEHOLDER
  2
AcDbPlaceHolder
  3
ObjectDBX Classes
 90
        0
280
     0
281
     0
  0
CLASS
  1
LAYOUT
  2
AcDbLayout
  3
ObjectDBX Classes
 90
        0
280
     0
281
     0
  0
CLASS
  1
ACME_DOCUMENT
  2
AcMeDbDoc
  3
AcMeServices
 90
     1024
280
     0
281
     0
  0
CLASS
  1
AMGSETTINGSOBJ
  2
AmgSettingsObj
  3
"AcadM|Product Description: AutoCAD Mechanical|Company: Autodesk, Inc."
 90
     1024
280
     0
281
     0
  0
CLASS
  1
ACMESCOPE
  2
AcMeScope
  3
AcMeServices
 90
     1024
280
     0
281
     0
  0
CLASS
  1
ACMECOMMANDHISTORY
  2
AcMeCommandHistory
  3
AcMeServices
 90
     1024
280
     0
281
     0
  0
CLASS
  1
ACIMSYSVARMAN
  2
AcImSysVarManager
  3
AcMeServices
 90
     1024
280
     0
281
     0
  0
CLASS
  1
ACIMREALSYSVAR
  2
AcImRealSysVar
  3
AcMeServices
 90
     1024
280
     0
281
     0
  0
CLASS
  1
ACIMINTSYSVAR
  2
AcImIntSysVar
  3
AcMeServices
 90
     1024
280
     0
281
     0
  0
CLASS
  1
ACMEDRAWINGMAN
  2
AcMeDrawingMan
  3
AcMeServices
 90
     1024
280
     0
281
     0
  0
CLASS
  1
ACMEVIEW
  2
AcMeView
  3
AcMeServices
 90
     1024
280
     0
281
     0
  0
CLASS
  1
ACDBENTITYCACHE
  2
AcMeEntityCache
  3
AcMeServices
 90
     1024
280
     0
281
     0
  0
CLASS
  1
GSMANAGER
  2
AcMeGSManager
  3
AcMeServices
 90
     1024
280
     0
281
     0
  0
CLASS
  1
AMDTINTERNALREACTOR
  2
AmdtInternalReactor
  3
AcMeServices
 90
     1024
280
     0
281
     0
  0
CLASS
  1
ACMESTATEMGR
  2
AcMeStateMgr
  3
AcMeServices
 90
     1024
280
     0
281
     0
  0
CLASS
  1
ACGREFMASTER
  2
AcGrefMaster
  3
AcAttribServices
 90
     1024
280
     0
281
     0
  0
CLASS
  1
ACME_DATABASE
  2
AcMeDbDatabase
  3
AcMeServices
 90
     1024
280
     0
281
     0
  0
CLASS
  1
ACRFINSADJUSTERMGR
  2
AcRfInsAdjusterMgr
  3
AcMeServices
 90
     1024
280
     0
281
     0
  0
CLASS
  1
ACGREFACADMASTER
  2
AcGrefacadMaster
  3
AcGrefServices
 90
     1024
280
     0
281
     0
  0
CLASS
  1
AMIMASTER
  2
AmiMaster
  3
AmiServices
 90
     1024
280
     0
281
     0
  0
CLASS
  1
ACMDATADICTIONARY
  2
AcmDataDictionary
  3
"AcmSymBB|Product Description: AutoCAD Mechanical|Company: Autodesk, Inc."
 90
     1024
280
     0
281
     0
  0
CLASS
  1
ACMDATAENTRYBLOCK
  2
AcmDataEntryBlock
  3
AcmSymBB|Product Description: AutoCAD Mechanical|Company: Autodesk, Inc.
 90
     1024
280
     0
281
     0
  0
CLASS
  1
ACIMSTRSYSVAR
  2
AcImStrSysVar
  3
AcMeServices
 90
     1024
280
     0
281
     0
  0
CLASS
  1
ACMSTANDARDISO
  2
AcmStandardISO
  3
"Amdt_StdImp|Product Description: AutoCAD Mechanical|Company: Autodesk, Inc."
 90
     1024
280
     0
281
     0
  0
CLASS
  1
AMGOBJPROPCFG
  2
AmgObjPropCfg
  3
"AmgLay|Product Description: AutoCAD Mechanical|Company: Autodesk, Inc."
 90
     1025
280
     0
281
     0
  0
CLASS
  1
AMDTEDGESTANDARDISO
  2
AmdtEdgeStdISO
  3
"Amdt_StdImp|Product Description: AutoCAD Mechanical|Company: Autodesk, Inc."
 90
    33792
280
     0
281
     0
  0
CLASS
  1
ACMSURFSTANDARDISO
  2
AcmSurfTextStdISO
  3
"Amdt_StdImp|Product Description: AutoCAD Mechanical|Company: Autodesk, Inc."
 90
    33792
280
     0
281
     0
  0
CLASS
  1
ACMFCFSTANDARDISO
  2
AcmFCFStdISO
  3
"Amdt_StdImp|Product Description: AutoCAD Mechanical|Company: Autodesk, Inc."
 90
     1024
280
     0
281
     0
  0
CLASS
  1
ACMWELDSTANDARDISO
  2
AcmWeldingStdISO
  3
"Amdt_StdImp|Product Description: AutoCAD Mechanical|Company: Autodesk, Inc."
 90
     1024
280
     0
281
     0
  0
CLASS
  1
ACMIDSTANDARDISO
  2
AcmIdStdISO
  3
"Amdt_StdImp|Product Description: AutoCAD Mechanical|Company: Autodesk, Inc."
 90
     1024
280
     0
281
     0
  0
CLASS
  1
ACMDATUMSTANDARDISO
  2
AcmDatumStdISO
  3
"Amdt_StdImp|Product Description: AutoCAD Mechanical|Company: Autodesk, Inc."
 90
     1024
280
     0
281
     0
  0
CLASS
  1
ACMBOMSTANDARDISO
  2
AcmBOMStdISO
  3
"Amdt_StdImp|Product Description: AutoCAD Mechanical|Company: Autodesk, Inc."
 90
     1024
280
     0
281
     0
  0
CLASS
  1
ACMDETAILSTANDARDISO
  2
AmdtDetailSymStdISO
  3
"Amdt_StdImp|Product Description: AutoCAD Mechanical|Company: Autodesk, Inc."
 90
     1024
280
     0
281
     0
  0
CLASS
  1
ACMSECTIONSTANDARDISO
  2
AmdtSectionSymStdISO
  3
"Amdt_StdImp|Product Description: AutoCAD Mechanical|Company: Autodesk, Inc."
 90
    33792
280
     0
281
     0
  0
CLASS
  1
ACMCENTERLINESTANDARDISO
  2
AmdtCenterLineStdISO
  3
"Amdt_StdImp|Product Description: AutoCAD Mechanical|Company: Autodesk, Inc."
 90
     1024
280
     0
281
     0
  0
CLASS
  1
ACMNOTESTANDARDISO
  2
AmdtNoteStdISO
  3
"Amdt_StdImp|Product Description: AutoCAD Mechanical|Company: Autodesk, Inc."
 90
     1024
280
     0
281
     0
  0
CLASS
  1
ACAMGLAYSTD
  2
AcAmgLayStd
  3
"AmgLay|Product Description: AutoCAD Mechanical|Company: Autodesk, Inc."
 90
     1024
280
     0
281
     0
  0
CLASS
  1
ACAMGDIMSTD
  2
AcAmgDimStd
  3
"AmgDim|Product Description: AutoCAD Mechanical|Company: Autodesk, Inc."
 90
     1024
280
     0
281
     0
  0
CLASS
  1
ACAMGHOLECHARTSTDISO
  2
AcAmgHoleChartStdISO
  3
AmgDim|Product Description: AutoCAD Mechanical|Company: Autodesk, Inc.
 90
     1024
280
     0
281
     0
  0
CLASS
  1
ACAMGTITLESTD
  2
AcAmgTitleStd
  3
"AmgTitle|Product Description: AutoCAD Mechanical|Company: Autodesk, Inc."
 90
     4095
280
     0
281
     0
  0
CLASS
  1
LAYER_INDEX
  2
AcDbLayerIndex
  3
ObjectDBX Classes
 90
    32768
280
     0
281
     0
  0
CLASS
  1
IDBUFFER
  2
AcDbIdBuffer
  3
ObjectDBX Classes
 90
    32768
280
     0
281
     0
  0
CLASS
  1
DICTIONARYVAR
  2
AcDbDictionaryVar
  3
ObjectDBX Classes
 90
        0
280
     0
281
     0
  0
CLASS
  1
AM_DRAWING_MGR
  2
AcDmDwgMgr
  3
AcMechDwgViewMgmt
 90
     1024
280
     0
281
     0
  0
CLASS
  1
AM_DWG_DOCUMENT
  2
AcDmDwgDocument
  3
AcMechDwgViewMgmt
 90
     1024
280
     0
281
     0
  0
CLASS
  1
AM_DWG_SHEET
  2
AcDmSheet
  3
AcMechDwgViewMgmt
 90
     1024
280
     0
281
     0
  0
CLASS
  1
AM_VIEWDIMPARMAP
  2
AcDmViewDimParMap
  3
AcMechDwgViewMgmt
 90
     1024
280
     0
281
     0
  0
CLASS
  1
AM_DWGMGR_NAME
  2
AcDmDwgMgrName
  3
AcMechDwgViewMgmt
 90
     1024
280
     0
281
     0
  0
CLASS
  1
AMDTMENUSTATEMGR
  2
AmdtMenuStateMgr
  3
McadcomServices
 90
     1024
280
     0
281
     0
  0
CLASS
  1
AMDTMCOMMENUSTATE
  2
AmdtMcomMenuState
  3
McadcomServices
 90
     1024
280
     0
281
     0
  0
CLASS
  1
MAPIAMMOUDLE
  2
MApiAmModule
  3
MApiAmServices
 90
     1024
280
     0
281
     0
  0
CLASS
  1
AMDTADMENUSTATE
  2
AmdtAdMenuState
  3
DesignerServices
 90
     1024
280
     0
281
     0
  0
CLASS
  1
ADAPPL
  2
AcAdAppl
  3
DesignerServices
 90
     1024
280
     0
281
     0
  0
CLASS
  1
DEPMGR
  2
AcAdDepMgr
  3
DesignerServices
 90
     1024
280
     0
281
     0
  0
CLASS
  1
PARAMMGR
  2
AcAdParamMgr
  3
DesignerServices
 90
     1024
280
     0
281
     0
  0
CLASS
  1
PARAMSCOPE
  2
AcAdParamScope
  3
DesignerServices
 90
     1024
280
     0
281
     0
  0
CLASS
  1
NAMEDAPPL
  2
AcAdNamedAppl
  3
DesignerServices
 90
     1024
280
     0
281
     0
  0
CLASS
  1
AMDTDMMENUSTATE
  2
AmdtDmMenuState
  3
AcMechDwgViewMgmt
 90
     1024
280
     0
281
     0
  0
CLASS
  1
AMDTAMMENUSTATE
  2
AmdtAmMenuState
  3
DesignerAssemblies
 90
     1024
280
     0
281
     0
  0
CLASS
  1
ACAMPROJECT
  2
AcAmProject
  3
DesignerAssemblies
 90
     1024
280
     0
281
     0
  0
CLASS
  1
ACAMGRCOMPDEF
  2
AcAmGrCompDef
  3
DesignerAssemblies
 90
     1024
280
     0
281
     0
  0
CLASS
  1
ACCMCONTEXT
  2
AcCmContext
  3
DesignerAssemblies
 90
     1024
280
     0
281
     0
  0
CLASS
  1
ACAMCOMPDEF
  2
AcAmCompDef
  3
DesignerAssemblies
 90
     1024
280
     0
281
     0
  0
CLASS
  1
ACAMCOMPDEFMGR
  2
AcAmCompDefMgr
  3
DesignerAssemblies
 90
     1024
280
     0
281
     0
  0
CLASS
  1
AMCONTEXTMGR
  2
AcAmContextMgr
  3
DesignerAssemblies
 90
     1024
280
     0
281
     0
  0
CLASS
  1
ACAMCONTEXTMODELER
  2
AcAmContextModeler
  3
DesignerAssemblies
 90
     1024
280
     0
281
     0
  0
CLASS
  1
ACMTHREADLINESTANDARDISO
  2
AmdtThreadLineStdISO
  3
"Amdt_StdImp|Product Description: AutoCAD Mechanical|Company: Autodesk, Inc."
 90
     1024
280
     0
281
     0
  0
CLASS
  1
CATALOGSTATE
  2
AcAmCatalogState
  3
DesignerAssemblies
 90
     1024
280
     0
281
     0
  0
CLASS
  1
ACAMGRCOMPDEFSET
  2
AcAmGrCompDefSet
  3
DesignerAssemblies
 90
     1024
280
     0
281
     0
  0
CLASS
  1
AMDTBROWSERDBTAB
  2
AmdtBrowserDbTab
  3
McadcomServices
 90
     1024
280
     0
281
     0
  0
CLASS
  1
CBROWSERAPPOBJECT
  2
CBrowserAppObject
  3
McadcomServices
 90
     1024
280
     0
281
     0
  0
CLASS
  1
DM_PLACEHOLDER
  2
AcDmSelsetPlaceholder
  3
AcMechDwgViewMgmt
 90
     1024
280
     0
281
     0
  0
CLASS
  1
TABLESTYLE
  2
AcDbTableStyle
  3
ObjectDBX Classes
 90
     4095
280
     0
281
     0
  0
CLASS
  1
VAACXREFPANELOBJECT
  2
VaAcXREFPanelObject
  3
VAAC_ADDIN
 90
    32768
280
     0
281
     0
  0
CLASS
  1
VAACIMAGEINVENTORY
  2
VaAcImageInventory
  3
VAAC_ADDIN
 90
    32768
280
     0
281
     0
  0
CLASS
  1
AMDTNOTETEMPLATEDB
  2
AmdtNoteTemplateDB
  3
AcmSymBB|Product Description: AutoCAD Mechanical|Company: Autodesk, Inc.
 90
     1024
280
     0
281
     0
  0
CLASS
  1
MATERIAL
  2
AcDbMaterial
  3
ObjectDBX Classes
 90
     1153
280
     0
281
     0
  0
CLASS
  1
VISUALSTYLE
  2
AcDbVisualStyle
  3
ObjectDBX Classes
 90
     4095
280
     0
281
     0
  0
CLASS
  1
ACRFATTGENMGR
  2
AcRfAttGeneralMgr
  3
AcAttribServices
 90
     1024
280
     0
281
     0
  0
CLASS
  1
ACRFOBJATTMGR
  2
AcRfObjAttGroupMgr
  3
AcAttribServices
 90
     1024
280
     0
281
     0
  0
CLASS
  1
ACRFMCADAPIATTHOLDER
  2
AcRfMCADAPIAttHolder
  3
AcAttribServices
 90
     1024
280
     0
281
     0
  0
CLASS
  1
AMDTSYSATTR
  2
AmdtSystemAttribute
  3
AcAttribServices
 90
     1024
280
     0
281
     0
  0
CLASS
  1
ACMTAPERSTANDARDISO
  2
AcmTaperStdISO
  3
"Amdt_StdImp|Product Description: AutoCAD Mechanical|Company: Autodesk, Inc."
 90
     1024
280
     0
281
     0
  0
CLASS
  1
CAMSSTRUCTBTNSTATE
  2
StructBtnState
  3
DesignerAssemblies
 90
     1024
280
     0
281
     0
  0
CLASS
  1
SCALE
  2
AcDbScale
  3
ObjectDBX Classes
 90
     1153
280
     0
281
     0
  0
CLASS
  1
MLEADERSTYLE
  2
AcDbMLeaderStyle
  3
ACDB_MLEADERSTYLE_CLASS
 90
     4095
280
     0
281
     0
  0
CLASS
  1
ACMANOOTATIONVIEWSTANDARDISO
  2
AmdtAnViewStdISO
  3
"Amdt_StdImp|Product Description: AutoCAD Mechanical|Company: Autodesk, Inc."
 90
     1024
280
     0
281
     0
  0
CLASS
  1
ACMSURFSTANDARDISO2002
  2
AcmSurfTextStdISO2002
  3
"Amdt_StdImp|Product Description: AutoCAD Mechanical|Company: Autodesk, Inc."
 90
     1024
280
     0
281
     0
  0
CLASS
  1
CELLSTYLEMAP
  2
AcDbCellStyleMap
  3
ObjectDBX Classes
 90
     1152
280
     0
281
     0
  0
CLASS
  1
ACMSECTIONSTANDARDISO2001
  2
AmdtSectionSymStdISO2001
  3
"Amdt_StdImp|Product Description: AutoCAD Mechanical|Company: Autodesk, Inc."
 90
     1024
280
     0
281
     0
  0
CLASS
  1
EXACXREFPANELOBJECT
  2
ExAcXREFPanelObject
  3
EXAC_ESW
 90
     1025
280
     0
281
     0
  0
CLASS
  1
NPOCOLLECTION
  2
AcDbImpNonPersistentObjectsCollection
  3
ObjectDBX Classes
 90
     1153
280
     0
281
     0
  0
CLASS
  1
AMDTEDGESTANDARDISO13715
  2
AmdtEdgeStdISO13715
  3
"Amdt_StdImp|Product Description: AutoCAD Mechanical|Company: Autodesk, Inc."
 90
     1024
280
     0
281
     0
  0
CLASS
  1
ACAMGFILTERDAT
  2
AcAmgFilterDat
  3
"AcadM|Product Description: AutoCAD Mechanical|Company: Autodesk, Inc."
 90
     1024
280
     0
281
     0
  0
CLASS
  1
ACMBOM
  2
AcmBom
  3
"AcmSymBB|Product Description: AutoCAD Mechanical|Company: Autodesk, Inc."
 90
    33792
280
     0
281
     0
  0
CLASS
  1
AMDTFORMULAUPDATEDISPATCHER
  2
AmdtFormulaUpdateDispatcher
  3
AcMeServices
 90
    33792
280
     0
281
     0
  0
CLASS
  1
SORTENTSTABLE
  2
AcDbSortentsTable
  3
ObjectDBX Classes
 90
        0
280
     0
281
     0
  0
CLASS
  1
ACMDIMBREAKPERSREACTOR
  2
AcmDimBreakPersReactor
  3
AmgDim|Product Description: AutoCAD Mechanical|Company: Autodesk, Inc.
 90
     4095
280
     0
281
     0
  0
CLASS
  1
ACMSTANDARDDIN
  2
AcmStandardDIN
  3
"Amdt_StdImp|Product Description: AutoCAD Mechanical|Company: Autodesk, Inc."
 90
     1024
280
     0
281
     0
  0
CLASS
  1
AMDTEDGESTANDARDDIN
  2
AmdtEdgeStdDIN
  3
"Amdt_StdImp|Product Description: AutoCAD Mechanical|Company: Autodesk, Inc."
 90
     1024
280
     0
281
     0
  0
CLASS
  1
ACMSURFSTANDARDDIN
  2
AcmSurfTextStdDIN
  3
"Amdt_StdImp|Product Description: AutoCAD Mechanical|Company: Autodesk, Inc."
 90
     1024
280
     0
281
     0
  0
CLASS
  1
ACMFCFSTANDARDDIN
  2
AcmFCFStdDIN
  3
"Amdt_StdImp|Product Description: AutoCAD Mechanical|Company: Autodesk, Inc."
 90
     1024
280
     0
281
     0
  0
CLASS
  1
ACMWELDSTANDARDDIN
  2
AcmWeldingStdDIN
  3
"Amdt_StdImp|Product Description: AutoCAD Mechanical|Company: Autodesk, Inc."
 90
     1024
280
     0
281
     0
  0
CLASS
  1
ACMIDSTANDARDDIN
  2
AcmIdStdDIN
  3
"Amdt_StdImp|Product Description: AutoCAD Mechanical|Company: Autodesk, Inc."
 90
     1024
280
     0
281
     0
  0
CLASS
  1
ACMDATUMSTANDARDDIN
  2
AcmDatumStdDIN
  3
"Amdt_StdImp|Product Description: AutoCAD Mechanical|Company: Autodesk, Inc."
 90
     1024
280
     0
281
     0
  0
CLASS
  1
ACMBOMSTANDARDDIN
  2
AcmBOMStdDIN
  3
"Amdt_StdImp|Product Description: AutoCAD Mechanical|Company: Autodesk, Inc."
 90
     1024
280
     0
281
     0
  0
CLASS
  1
ACMDETAILSTANDARDDIN
  2
AmdtDetailSymStdDIN
  3
"Amdt_StdImp|Product Description: AutoCAD Mechanical|Company: Autodesk, Inc."
 90
     1024
280
     0
281
     0
  0
CLASS
  1
ACMSECTIONSTANDARDDIN
  2
AmdtSectionSymStdDIN
  3
"Amdt_StdImp|Product Description: AutoCAD Mechanical|Company: Autodesk, Inc."
 90
     1024
280
     0
281
     0
  0
CLASS
  1
ACMCENTERLINESTANDARDDIN
  2
AmdtCenterLineStdDIN
  3
"Amdt_StdImp|Product Description: AutoCAD Mechanical|Company: Autodesk, Inc."
 90
     1024
280
     0
281
     0
  0
CLASS
  1
ACMTHREADLINESTANDARDDIN
  2
AmdtThreadLineStdDIN
  3
"Amdt_StdImp|Product Description: AutoCAD Mechanical|Company: Autodesk, Inc."
 90
     1024
280
     0
281
     0
  0
CLASS
  1
ACMNOTESTANDARDDIN
  2
AmdtNoteStdDIN
  3
"Amdt_StdImp|Product Description: AutoCAD Mechanical|Company: Autodesk, Inc."
 90
     1024
280
     0
281
     0
  0
CLASS
  1
ACMTAPERSTANDARDDIN
  2
AcmTaperStdDIN
  3
"Amdt_StdImp|Product Description: AutoCAD Mechanical|Company: Autodesk, Inc."
 90
     1024
280
     0
281
     0
  0
CLASS
  1
ACMANOOTATIONVIEWSTANDARDDIN
  2
AmdtAnViewStdDIN
  3
"Amdt_StdImp|Product Description: AutoCAD Mechanical|Company: Autodesk, Inc."
 90
     1024
280
     0
281
     0
  0
CLASS
  1
DIMASSOC
  2
AcDbDimAssoc
  3
"AcDbDimAssoc|Product Desc:     AcDim ARX App For Dimension|Company:          Autodesk, Inc.|WEB Address:      www.autodesk.com"
 90
        0
280
     0
281
     0
  0
CLASS
  1
AEC_REFEDIT_STATUS_TRACKER
  2
AecDbRefEditStatusTracker
  3
AecArchBase50|Product Desc: Autodesk Architectural Desktop 2007 |Company: Autodesk,Inc. |WEB Address: www.autodesk.com
 90
      129
280
     0
281
     0
  0
ENDSEC
  0
SECTION
  2
TABLES
  0
TABLE
  2
VPORT
  5
8
330
0
100
AcDbSymbolTable
 70
     1
  0
VPORT
  5
269
330
8
100
AcDbSymbolTableRecord
100
AcDbViewportTableRecord
  2
*Active
 70
     0
 10
0.0
 20
0.0
 11
1.0
 21
1.0
 12
426.6298577452639
 22
257.9164878596407
 13
0.0
 23
0.0
 14
2.5
 24
2.5
 15
10.0
 25
10.0
 16
0.0
 26
0.0
 36
1.0
 17
0.0
 27
0.0
 37
0.0
 40
790.3252922750279
 41
1.890606420927467
 42
50.0
 43
0.0
 44
0.0
 50
0.0
 51
0.0
 71
     0
 72
   100
 73
     1
 74
     3
 75
     0
 76
     0
 77
     0
 78
     0
281
     0
 65
     1
110
0.0
120
0.0
130
0.0
111
1.0
121
0.0
131
0.0
112
0.0
122
1.0
132
0.0
 79
     0
146
0.0
  0
ENDTAB
  0
TABLE
  2
LTYPE
  5
5
330
0
100
AcDbSymbolTable
 70
    25
  0
LTYPE
  5
14
330
5
100
AcDbSymbolTableRecord
100
AcDbLinetypeTableRecord
  2
ByBlock
 70
     0
  3

 72
    65
 73
     0
 40
0.0
  0
LTYPE
  5
15
330
5
100
AcDbSymbolTableRecord
100
AcDbLinetypeTableRecord
  2
ByLayer
 70
     0
  3

 72
    65
 73
     0
 40
0.0
  0
LTYPE
  5
16
330
5
100
AcDbSymbolTableRecord
100
AcDbLinetypeTableRecord
  2
Continuous
 70
     0
  3
Solid line
 72
    65
 73
     0
 40
0.0
  0
LTYPE
  5
64
330
5
100
AcDbSymbolTableRecord
100
AcDbLinetypeTableRecord
  2
AM_ISO02W050
 70
     0
  3
__ __ __ __ __ __ __ __ __ __ __ __ __ __ __
 72
    65
 73
     2
 40
7.5
 49
6.0
 74
     0
 49
-1.5
 74
     0
  0
LTYPE
  5
65
330
5
100
AcDbSymbolTableRecord
100
AcDbLinetypeTableRecord
  2
AM_ISO08W050
 70
     0
  3
____ . ____ . ____ . ____ . ____ . ____ . ____
 72
    65
 73
     4
 40
18.0
 49
12.0
 74
     0
 49
-1.5
 74
     0
 49
3.0
 74
     0
 49
-1.5
 74
     0
  0
LTYPE
  5
66
330
5
100
AcDbSymbolTableRecord
100
AcDbLinetypeTableRecord
  2
AM_ISO09W050
 70
     0
  3
_____ . . _____ . . _____ . . ____ .. ____
 72
    65
 73
     6
 40
22.5
 49
12.0
 74
     0
 49
-1.5
 74
     0
 49
3.0
 74
     0
 49
-1.5
 74
     0
 49
3.0
 74
     0
 49
-1.5
 74
     0
  0
LTYPE
  5
67
330
5
100
AcDbSymbolTableRecord
100
AcDbLinetypeTableRecord
  2
Amconstr
 70
     0
  3
_______________________
 72
    65
 73
     2
 40
9999.0
 49
9999.0
 74
     0
 49
0.0
 74
     0
  0
LTYPE
  5
68
330
5
100
AcDbSymbolTableRecord
100
AcDbLinetypeTableRecord
  2
AM_ISO08W050x2
 70
     0
  3
__ . __ . __ . __ . __ . __
 72
    65
 73
     4
 40
9.0
 49
6.0
 74
     0
 49
-0.75
 74
     0
 49
1.5
 74
     0
 49
-0.75
 74
     0
  0
LTYPE
  5
69
330
5
100
AcDbSymbolTableRecord
100
AcDbLinetypeTableRecord
  2
AM_ISO02W050x2
 70
     0
  3
 _ _ _ _ _ _ _ _ _ _ _ _
 72
    65
 73
     2
 40
3.75
 49
3.0
 74
     0
 49
-0.75
 74
     0
  0
LTYPE
  5
6C
330
5
100
AcDbSymbolTableRecord
100
AcDbLinetypeTableRecord
  2
Amzigzag
 70
     0
  3
/\/-/\/-/\/-/\/-/\/-/\/
 72
    65
 73
     2
 40
11.0001
 49
0.0001
 74
     4
 75
   136
340
22C
 46
0.04
 50
0.0
 44
0.0
 45
0.0
 49
-11.0
 74
     0
  0
LTYPE
  5
7A
330
5
100
AcDbSymbolTableRecord
100
AcDbLinetypeTableRecord
  2
ACISOWELD
 70
     0
  3
_ _ _ _ _
 72
    65
 73
     2
 40
2.0
 49
2.0
 74
     0
 49
-1.0
 74
     0
  0
LTYPE
  5
7B
330
5
100
AcDbSymbolTableRecord
100
AcDbLinetypeTableRecord
  2
ACISOTGB
 70
     0
  3
__ . . __ . .
 72
    65
 73
     6
 40
9.0
 49
4.0
 74
     0
 49
-1.0
 74
     0
 49
1.0
 74
     0
 49
-1.0
 74
     0
 49
1.0
 74
     0
 49
-1.0
 74
     0
  0
LTYPE
  5
7C
330
5
100
AcDbSymbolTableRecord
100
AcDbLinetypeTableRecord
  2
ACISOTGL
 70
     0
  3
_ _ _ _ _
 72
    65
 73
     2
 40
3.0
 49
2.0
 74
     0
 49
-1.0
 74
     0
  0
LTYPE
  5
7E
330
5
100
AcDbSymbolTableRecord
100
AcDbLinetypeTableRecord
  2
CENTER
 70
     0
  3
__ . __
 72
    65
 73
     4
 40
7.0
 49
4.0
 74
     0
 49
-1.0
 74
     0
 49
1.0
 74
     0
 49
-1.0
 74
     0
  0
LTYPE
  5
D8
330
5
100
AcDbSymbolTableRecord
100
AcDbLinetypeTableRecord
  2
HIDDEN
 70
     0
  3
Hidden __ __ __ __ __ __ __ __ __ __ __ __ __ _
 72
    65
 73
     2
 40
9.524999999999998
 49
6.349999999999999
 74
     0
 49
-3.174999999999999
 74
     0
  0
LTYPE
  5
D9
330
5
100
AcDbSymbolTableRecord
100
AcDbLinetypeTableRecord
  2
PHANTOM2
 70
     0
  3
Phantom (.5x) ___ _ _ ___ _ _ ___ _ _ ___ _ _
 72
    65
 73
     6
 40
31.75
 49
15.875
 74
     0
 49
-3.174999999999999
 74
     0
 49
3.174999999999999
 74
     0
 49
-3.174999999999999
 74
     0
 49
3.174999999999999
 74
     0
 49
-3.174999999999999
 74
     0
  0
LTYPE
  5
5CC
330
5
100
AcDbSymbolTableRecord
100
AcDbLinetypeTableRecord
  2
AM_DIN_F_W050
 70
     0
  3
__ __ __ __ __ __ __ __ __ __ __ __ __ __ __
 72
    65
 73
     2
 40
6.25
 49
4.75
 74
     0
 49
-1.5
 74
     0
  0
LTYPE
  5
5CD
330
5
100
AcDbSymbolTableRecord
100
AcDbLinetypeTableRecord
  2
AM_DIN_G_W050
 70
     0
  3
____ . ____ . ____ . ____ . ____ . ____ . ____
 72
    65
 73
     4
 40
13.75
 49
9.75
 74
     0
 49
-1.5
 74
     0
 49
1.0
 74
     0
 49
-1.5
 74
     0
  0
LTYPE
  5
5CE
330
5
100
AcDbSymbolTableRecord
100
AcDbLinetypeTableRecord
  2
AM_DIN_K_W050
 70
     0
  3
_____ . . _____ . . _____ . . ____ .. ____
 72
    65
 73
     6
 40
16.25
 49
9.75
 74
     0
 49
-1.5
 74
     0
 49
1.0
 74
     0
 49
-1.5
 74
     0
 49
1.0
 74
     0
 49
-1.5
 74
     0
  0
LTYPE
  5
5CF
330
5
100
AcDbSymbolTableRecord
100
AcDbLinetypeTableRecord
  2
AM_DIN_G_W050x2
 70
     0
  3
__ . __ . __ . __ . __ . __
 72
    65
 73
     4
 40
6.875
 49
4.75
 74
     0
 49
-0.875
 74
     0
 49
0.375
 74
     0
 49
-0.875
 74
     0
  0
LTYPE
  5
5D0
330
5
100
AcDbSymbolTableRecord
100
AcDbLinetypeTableRecord
  2
AM_DIN_F_W050x2
 70
     0
  3
 _ _ _ _ _ _ _ _ _ _ _ _
 72
    65
 73
     2
 40
3.125
 49
2.25
 74
     0
 49
-0.875
 74
     0
  0
LTYPE
  5
5D1
330
5
100
AcDbSymbolTableRecord
100
AcDbLinetypeTableRecord
  2
ACDINWELD
 70
     0
  3
_ _ _ _ _
 72
    65
 73
     2
 40
2.0
 49
2.0
 74
     0
 49
-1.0
 74
     0
  0
LTYPE
  5
5D2
330
5
100
AcDbSymbolTableRecord
100
AcDbLinetypeTableRecord
  2
ACDINTGB
 70
     0
  3
__ . . __ . .
 72
    65
 73
     6
 40
9.0
 49
4.0
 74
     0
 49
-1.0
 74
     0
 49
1.0
 74
     0
 49
-1.0
 74
     0
 49
1.0
 74
     0
 49
-1.0
 74
     0
  0
LTYPE
  5
5D3
330
5
100
AcDbSymbolTableRecord
100
AcDbLinetypeTableRecord
  2
ACDINTGL
 70
     0
  3
_ _ _ _ _
 72
    65
 73
     2
 40
3.0
 49
2.0
 74
     0
 49
-1.0
 74
     0
  0
LTYPE
  5
5D4
330
5
100
AcDbSymbolTableRecord
100
AcDbLinetypeTableRecord
  2
GEN7A
 70
     0
  3
__ . __ . __
 72
    65
 73
     4
 40
6.875
 49
5.0
 74
     0
 49
-0.625
 74
     0
 49
0.625
 74
     0
 49
-0.625
 74
     0
  0
LTYPE
  5
820
330
5
100
AcDbSymbolTableRecord
100
AcDbLinetypeTableRecord
  2
GEN3
 70
     0
  3
-- -- -- -- -- -- -- -- -- -- -- -- -- -- --
 72
    65
 73
     2
 40
6.25
 49
5.0
 74
     0
 49
-1.25
 74
     0
  0
ENDTAB
  0
TABLE
  2
LAYER
  5
2
102
{ACAD_XDICTIONARY
360
5EC
102
}
330
0
100
AcDbSymbolTable
 70
    16
  0
LAYER
  5
10
102
{ACAD_XDICTIONARY
360
D97
102
}
330
2
100
AcDbSymbolTableRecord
100
AcDbLayerTableRecord
  2
0
 70
     0
 62
     7
  6
Continuous
370
    -3
390
F
  0
LAYER
  5
3EA
102
{ACAD_XDICTIONARY
360
3EB
102
}
330
2
100
AcDbSymbolTableRecord
100
AcDbLayerTableRecord
  2
AM_7
 70
     0
 62
     4
  6
AM_ISO08W050
370
    25
390
F
1001
AcAecLayerStandard
1000

1000

  0
LAYER
  5
3EC
102
{ACAD_XDICTIONARY
360
3ED
102
}
330
2
100
AcDbSymbolTableRecord
100
AcDbLayerTableRecord
  2
AM_CL
 70
     0
 62
     1
  6
Amconstr
370
    25
390
F
1001
AcAecLayerStandard
1000

1000

  0
LAYER
  5
3EE
330
2
100
AcDbSymbolTableRecord
100
AcDbLayerTableRecord
  2
Defpoints
 70
     0
 62
     7
  6
Continuous
290
     0
370
    -3
390
F
  0
LAYER
  5
3EF
102
{ACAD_XDICTIONARY
360
3F0
102
}
330
2
100
AcDbSymbolTableRecord
100
AcDbLayerTableRecord
  2
AM_5
 70
     0
 62
     3
  6
Continuous
370
    25
390
F
1001
AcAecLayerStandard
1000

1000

  0
LAYER
  5
5D5
102
{ACAD_XDICTIONARY
360
D9C
102
}
330
2
100
AcDbSymbolTableRecord
100
AcDbLayerTableRecord
  2
7A
 70
     0
 62
     4
  6
GEN7A
370
    -3
390
F
  0
LAYER
  5
5D6
102
{ACAD_XDICTIONARY
360
D9E
102
}
330
2
100
AcDbSymbolTableRecord
100
AcDbLayerTableRecord
  2
5
 70
     0
 62
     3
  6
Continuous
370
    -3
390
F
  0
LAYER
  5
5D7
102
{ACAD_XDICTIONARY
360
DA0
102
}
330
2
100
AcDbSymbolTableRecord
100
AcDbLayerTableRecord
  2
6
 70
     0
 62
     2
  6
Continuous
370
    -3
390
F
  0
LAYER
  5
5D8
102
{ACAD_XDICTIONARY
360
DA2
102
}
330
2
100
AcDbSymbolTableRecord
100
AcDbLayerTableRecord
  2
4
 70
     0
 62
     3
  6
Continuous
370
    -3
390
F
  0
LAYER
  5
5D9
102
{ACAD_XDICTIONARY
360
DA4
102
}
330
2
100
AcDbSymbolTableRecord
100
AcDbLayerTableRecord
  2
KLIN
 70
     0
 62
     1
  6
Continuous
370
    -3
390
F
  0
LAYER
  5
821
102
{ACAD_XDICTIONARY
360
822
102
}
330
2
100
AcDbSymbolTableRecord
100
AcDbLayerTableRecord
  2
8
 70
     0
 62
     1
  6
Continuous
370
    -3
390
F
  0
LAYER
  5
823
102
{ACAD_XDICTIONARY
360
824
102
}
330
2
100
AcDbSymbolTableRecord
100
AcDbLayerTableRecord
  2
3
 70
     0
 62
     6
  6
GEN3
370
    -3
390
F
  0
LAYER
  5
D86
102
{ACAD_XDICTIONARY
360
D87
102
}
330
2
100
AcDbSymbolTableRecord
100
AcDbLayerTableRecord
  2
AM_0N
 70
     0
 62
     7
  6
Continuous
370
    50
390
F
1001
AcAecLayerStandard
1000

1000

  0
LAYER
  5
D88
102
{ACAD_XDICTIONARY
360
D89
102
}
330
2
100
AcDbSymbolTableRecord
100
AcDbLayerTableRecord
  2
AM_7N
 70
     0
 62
   142
  6
AM_ISO08W050
370
    25
390
F
1001
AcAecLayerStandard
1000

1000

  0
LAYER
  5
D8A
102
{ACAD_XDICTIONARY
360
D8B
102
}
330
2
100
AcDbSymbolTableRecord
100
AcDbLayerTableRecord
  2
AM_4N
 70
     0
 62
    92
  6
Continuous
370
    25
390
F
1001
AcAecLayerStandard
1000

1000

  0
LAYER
  5
D8C
102
{ACAD_XDICTIONARY
360
D8D
102
}
330
2
100
AcDbSymbolTableRecord
100
AcDbLayerTableRecord
  2
AM_9N
 70
     0
 62
  -253
  6
Continuous
370
     0
390
F
1001
AcAecLayerStandard
1000

1000

  0
ENDTAB
  0
TABLE
  2
STYLE
  5
3
330
0
100
AcDbSymbolTable
 70
    10
  0
STYLE
  5
11
330
3
100
AcDbSymbolTableRecord
100
AcDbTextStyleTableRecord
  2
STANDARD
 70
     0
 40
0.0
 41
1.0
 50
0.0
 71
     0
 42
2.5
  3
ISOCP.SHX
  4

  0
STYLE
  5
6B
330
3
100
AcDbSymbolTableRecord
100
AcDbTextStyleTableRecord
  2

 70
     1
 40
0.0
 41
1.0
 50
0.0
 71
     0
 42
2.5
  3
ltypeshp.shx
  4

  0
STYLE
  5
6D
330
3
100
AcDbSymbolTableRecord
100
AcDbTextStyleTableRecord
  2
ACISOTS
 70
     0
 40
1.0
 41
1.0
 50
0.0
 71
     0
 42
2.5
  3
isocp.shx
  4

  0
STYLE
  5
79
330
3
100
AcDbSymbolTableRecord
100
AcDbTextStyleTableRecord
  2
ACISOGDT
 70
     0
 40
0.0
 41
1.0
 50
0.0
 71
     0
 42
2.5
  3
amgdt.shx
  4

  0
STYLE
  5
1ED
330
3
100
AcDbSymbolTableRecord
100
AcDbTextStyleTableRecord
  2
USER1
 70
     0
 40
0.0
 41
1.0
 50
0.0
 71
     0
 42
2.5
  3
TXT.SHX
  4

  0
STYLE
  5
1EE
330
3
100
AcDbSymbolTableRecord
100
AcDbTextStyleTableRecord
  2
USER2
 70
     0
 40
0.0
 41
1.0
 50
0.0
 71
     0
 42
2.5
  3
SIMPLEX.SHX
  4

  0
STYLE
  5
1EF
330
3
100
AcDbSymbolTableRecord
100
AcDbTextStyleTableRecord
  2
USER3
 70
     0
 40
0.0
 41
1.0
 50
0.0
 71
     0
 42
2.5
  3
ITALIC.SHX
  4

  0
STYLE
  5
22C
330
3
100
AcDbSymbolTableRecord
100
AcDbTextStyleTableRecord
  2

 70
     1
 40
0.0
 41
1.0
 50
0.0
 71
     0
 42
2.5
  3
genltshp.shx
  4

  0
STYLE
  5
5DA
330
3
100
AcDbSymbolTableRecord
100
AcDbTextStyleTableRecord
  2
ACDINTS
 70
     0
 40
1.0
 41
1.0
 50
0.0
 71
     0
 42
2.5
  3
isocp.shx
  4

  0
STYLE
  5
5DB
330
3
100
AcDbSymbolTableRecord
100
AcDbTextStyleTableRecord
  2
ACDINGDT
 70
     0
 40
0.0
 41
1.0
 50
0.0
 71
     0
 42
2.5
  3
amgdt.shx
  4

  0
ENDTAB
  0
TABLE
  2
VIEW
  5
6
330
0
100
AcDbSymbolTable
 70
     0
  0
ENDTAB
  0
TABLE
  2
UCS
  5
7
330
0
100
AcDbSymbolTable
 70
     0
  0
ENDTAB
  0
TABLE
  2
APPID
  5
9
330
0
100
AcDbSymbolTable
 70
    36
  0
APPID
  5
12
330
9
100
AcDbSymbolTableRecord
100
AcDbRegAppTableRecord
  2
ACAD
 70
     0
  0
APPID
  5
46
330
9
100
AcDbSymbolTableRecord
100
AcDbRegAppTableRecord
  2
MCAD_NO_VIS
 70
     0
  0
APPID
  5
47
330
9
100
AcDbSymbolTableRecord
100
AcDbRegAppTableRecord
  2
ACAD_TEMP_GRAPHIC
 70
     0
  0
APPID
  5
58
330
9
100
AcDbSymbolTableRecord
100
AcDbRegAppTableRecord
  2
ACATTRIBSERVICES
 70
     0
  0
APPID
  5
EE
330
9
100
AcDbSymbolTableRecord
100
AcDbRegAppTableRecord
  2
AD_DRAW
 70
     0
  0
APPID
  5
10C
330
9
100
AcDbSymbolTableRecord
100
AcDbRegAppTableRecord
  2
DESIGNERASSEMBLIES
 70
     0
  0
APPID
  5
111
330
9
100
AcDbSymbolTableRecord
100
AcDbRegAppTableRecord
  2
ACADM_DIM_EDIT
 70
     0
  0
APPID
  5
112
330
9
100
AcDbSymbolTableRecord
100
AcDbRegAppTableRecord
  2
AMDT_DM_ADJ
 70
     0
  0
APPID
  5
1A3
330
9
100
AcDbSymbolTableRecord
100
AcDbRegAppTableRecord
  2
ACAD_DSTYLE_DIMARC_LENGTH_SYMBOL
 70
     0
  0
APPID
  5
1A4
330
9
100
AcDbSymbolTableRecord
100
AcDbRegAppTableRecord
  2
ACAD_DSTYLE_DIMJOGGED_JOGANGLE_SYMBOL
 70
     0
  0
APPID
  5
2C6
330
9
100
AcDbSymbolTableRecord
100
AcDbRegAppTableRecord
  2
ACAD_MLEADERVER
 70
     0
  0
APPID
  5
36E
330
9
100
AcDbSymbolTableRecord
100
AcDbRegAppTableRecord
  2
ACAD_EXEMPT_FROM_CAD_STANDARDS
 70
     0
  0
APPID
  5
3F3
330
9
100
AcDbSymbolTableRecord
100
AcDbRegAppTableRecord
  2
AcAecLayerStandard
 70
     0
  0
APPID
  5
3F4
330
9
100
AcDbSymbolTableRecord
100
AcDbRegAppTableRecord
  2
GENIUS_GENOENT_13
 70
     0
  0
APPID
  5
3F5
330
9
100
AcDbSymbolTableRecord
100
AcDbRegAppTableRecord
  2
GENIUS_GENOLIS_13
 70
     0
  0
APPID
  5
3F6
330
9
100
AcDbSymbolTableRecord
100
AcDbRegAppTableRecord
  2
GENIUS_GENODEF_13
 70
     0
  0
APPID
  5
3F7
330
9
100
AcDbSymbolTableRecord
100
AcDbRegAppTableRecord
  2
GENIUS_GENOBJ-N-CRS_13
 70
     0
  0
APPID
  5
3F8
330
9
100
AcDbSymbolTableRecord
100
AcDbRegAppTableRecord
  2
GENIUS_GENOREF_13
 70
     0
  0
APPID
  5
3F9
330
9
100
AcDbSymbolTableRecord
100
AcDbRegAppTableRecord
  2
GENIUS_GENOBJ-N-CEN_13
 70
     0
  0
APPID
  5
3FA
330
9
100
AcDbSymbolTableRecord
100
AcDbRegAppTableRecord
  2
GENIUS_GENCEN_19
 70
     0
  0
APPID
  5
3FB
330
9
100
AcDbSymbolTableRecord
100
AcDbRegAppTableRecord
  2
ACAD_DSTYLE_DIMINSPECT
 70
     0
  0
APPID
  5
5E3
330
9
100
AcDbSymbolTableRecord
100
AcDbRegAppTableRecord
  2
GENIUS_GENHINW_13
 70
     0
  0
APPID
  5
5E4
330
9
100
AcDbSymbolTableRecord
100
AcDbRegAppTableRecord
  2
GENIUS_GENOBJ-N-HINW_13
 70
     0
  0
APPID
  5
5E5
330
9
100
AcDbSymbolTableRecord
100
AcDbRegAppTableRecord
  2
GENIUS_GENOBJ-N-DIMBR_13
 70
     0
  0
APPID
  5
5E6
330
9
100
AcDbSymbolTableRecord
100
AcDbRegAppTableRecord
  2
GENIUS_DIMBR_14
 70
     0
  0
APPID
  5
5E7
330
9
100
AcDbSymbolTableRecord
100
AcDbRegAppTableRecord
  2
GENIUS_GENTRA_14
 70
     0
  0
APPID
  5
5E8
330
9
100
AcDbSymbolTableRecord
100
AcDbRegAppTableRecord
  2
GENIUS_DIMBRX_14
 70
     0
  0
APPID
  5
5E9
330
9
100
AcDbSymbolTableRecord
100
AcDbRegAppTableRecord
  2
GENIUS_GENOBJ-N-DIMBRX_13
 70
     0
  0
APPID
  5
5EA
330
9
100
AcDbSymbolTableRecord
100
AcDbRegAppTableRecord
  2
GENIUS_FIRSTVISTXT_14
 70
     0
  0
APPID
  5
5EB
330
9
100
AcDbSymbolTableRecord
100
AcDbRegAppTableRecord
  2
GENIUS_SECONDVISTXT_14
 70
     0
  0
APPID
  5
825
330
9
100
AcDbSymbolTableRecord
100
AcDbRegAppTableRecord
  2
GENIUS_GENOBJ-N-FIL_13
 70
     0
  0
APPID
  5
826
330
9
100
AcDbSymbolTableRecord
100
AcDbRegAppTableRecord
  2
GENIUS_GENOBJ-N-HTC_13
 70
     0
  0
APPID
  5
827
330
9
100
AcDbSymbolTableRecord
100
AcDbRegAppTableRecord
  2
GENIUS_GENHATCH_13
 70
     0
  0
APPID
  5
DBA
330
9
100
AcDbSymbolTableRecord
100
AcDbRegAppTableRecord
  2
ACAD_DSTYLE_DIM_LINETYPE
 70
     0
  0
APPID
  5
DBB
330
9
100
AcDbSymbolTableRecord
100
AcDbRegAppTableRecord
  2
ACAD_DSTYLE_DIM_EXT1_LINETYPE
 70
     0
  0
APPID
  5
DBC
330
9
100
AcDbSymbolTableRecord
100
AcDbRegAppTableRecord
  2
ACAD_DSTYLE_DIM_EXT2_LINETYPE
 70
     0
  0
ENDTAB
  0
TABLE
  2
DIMSTYLE
  5
A
330
0
100
AcDbSymbolTable
 70
    17
100
AcDbDimStyleTable
 71
     1
340
81
  0
DIMSTYLE
105
27
330
A
100
AcDbSymbolTableRecord
100
AcDbDimStyleTableRecord
  2
ISO-25
 70
     0
 41
2.5
 42
0.625
 43
3.75
 44
1.25
 73
     0
 74
     0
 77
     1
 78
     8
140
2.5
141
2.5
143
0.03937007874016
147
0.625
171
     3
172
     1
271
     2
272
     2
274
     3
278
    44
283
     0
284
     8
340
11
  0
DIMSTYLE
105
81
102
{ACAD_REACTORS
330
62
102
}
330
A
100
AcDbSymbolTableRecord
100
AcDbDimStyleTableRecord
  2
AM_ISO
 70
     0
  4
"
 41
3.5
 42
1.0
 43
10.0
 44
1.0
 47
0.1
 48
0.1
 73
     0
 74
     0
 77
     1
 78
     8
 79
     2
140
3.5
141
0.0
143
0.0393701
146
0.71
147
1.5
172
     1
176
   256
177
   256
178
   140
271
     2
272
     3
274
     4
283
     0
284
     8
340
11
371
    -1
372
    -1
1001
ACAD_DSTYLE_DIMJOGGED_JOGANGLE_SYMBOL
1070
   384
1040
0.7853981633974483
1001
ACAD_DSTYLE_DIMARC_LENGTH_SYMBOL
1070
   379
1070
     1
1001
ACAD_DSTYLE_DIM_LINETYPE
1070
   380
1005
14
1001
ACAD_DSTYLE_DIM_EXT1_LINETYPE
1070
   381
1005
14
1001
ACAD_DSTYLE_DIM_EXT2_LINETYPE
1070
   382
1005
14
  0
DIMSTYLE
105
82
330
A
100
AcDbSymbolTableRecord
100
AcDbDimStyleTableRecord
  2
AM_ISO$3
 70
     0
  4
"
 41
3.5
 42
1.0
 43
10.0
 44
1.0
 47
0.1
 48
0.1
 73
     0
 77
     1
 78
     8
 79
     2
140
3.5
141
0.0
143
0.0393701
146
0.71
147
1.5
176
   256
177
   256
178
   140
271
     2
272
     3
274
     4
283
     0
284
     8
288
     1
289
     0
340
11
371
    -1
372
    -1
1001
ACAD_DSTYLE_DIMJOGGED_JOGANGLE_SYMBOL
1070
   384
1040
0.7853981633974483
1001
ACAD_DSTYLE_DIMARC_LENGTH_SYMBOL
1070
   379
1070
     1
1001
ACAD_DSTYLE_DIM_LINETYPE
1070
   380
1005
14
1001
ACAD_DSTYLE_DIM_EXT1_LINETYPE
1070
   381
1005
14
1001
ACAD_DSTYLE_DIM_EXT2_LINETYPE
1070
   382
1005
14
  0
DIMSTYLE
105
83
330
A
100
AcDbSymbolTableRecord
100
AcDbDimStyleTableRecord
  2
AM_ISO$4
 70
     0
  4
"
 41
3.5
 42
1.0
 43
10.0
 44
1.0
 47
0.1
 48
0.1
 73
     0
 74
     0
 77
     1
 78
     8
 79
     2
140
3.5
141
0.0
143
0.0393701
146
0.71
147
1.5
172
     1
176
   256
177
   256
178
   140
271
     2
272
     3
274
     4
283
     0
284
     8
340
11
371
    -1
372
    -1
1001
ACAD_DSTYLE_DIMJOGGED_JOGANGLE_SYMBOL
1070
   384
1040
0.7853981633974483
1001
ACAD_DSTYLE_DIMARC_LENGTH_SYMBOL
1070
   379
1070
     1
1001
ACAD_DSTYLE_DIM_LINETYPE
1070
   380
1005
14
1001
ACAD_DSTYLE_DIM_EXT1_LINETYPE
1070
   381
1005
14
1001
ACAD_DSTYLE_DIM_EXT2_LINETYPE
1070
   382
1005
14
  0
DIMSTYLE
105
84
330
A
100
AcDbSymbolTableRecord
100
AcDbDimStyleTableRecord
  2
AM_ISO$6
 70
     0
  4
"
 41
3.5
 42
1.0
 43
10.0
 44
1.0
 47
0.1
 48
0.1
 73
     0
 74
     0
 78
     8
 79
     2
140
3.5
141
0.0
143
0.0393701
146
0.71
147
1.5
172
     1
176
   256
177
   256
178
   140
271
     2
272
     3
274
     4
283
     0
284
     8
340
11
371
    -1
372
    -1
1001
ACAD_DSTYLE_DIMJOGGED_JOGANGLE_SYMBOL
1070
   384
1040
0.7853981633974483
1001
ACAD_DSTYLE_DIMARC_LENGTH_SYMBOL
1070
   379
1070
     1
1001
ACAD_DSTYLE_DIM_LINETYPE
1070
   380
1005
14
1001
ACAD_DSTYLE_DIM_EXT1_LINETYPE
1070
   381
1005
14
1001
ACAD_DSTYLE_DIM_EXT2_LINETYPE
1070
   382
1005
14
  0
DIMSTYLE
105
85
330
A
100
AcDbSymbolTableRecord
100
AcDbDimStyleTableRecord
  2
AM_ISO$7
 70
     0
  4
"
 41
3.5
 42
1.0
 43
10.0
 44
1.0
 47
0.1
 48
0.1
 73
     0
 74
     0
 77
     1
 78
     8
 79
     2
140
3.5
141
0.0
143
0.0393701
146
0.71
147
1.5
172
     1
176
   256
177
   256
178
   140
271
     2
272
     3
274
     4
283
     0
284
     8
340
11
371
    -1
372
    -1
1001
ACAD_DSTYLE_DIMJOGGED_JOGANGLE_SYMBOL
1070
   384
1040
0.7853981633974483
1001
ACAD_DSTYLE_DIMARC_LENGTH_SYMBOL
1070
   379
1070
     1
1001
ACAD_DSTYLE_DIM_LINETYPE
1070
   380
1005
14
1001
ACAD_DSTYLE_DIM_EXT1_LINETYPE
1070
   381
1005
14
1001
ACAD_DSTYLE_DIM_EXT2_LINETYPE
1070
   382
1005
14
  0
DIMSTYLE
105
86
330
A
100
AcDbSymbolTableRecord
100
AcDbDimStyleTableRecord
  2
AM_ISO$SF
 70
     0
  4
"
 41
3.5
 42
1.0
 43
10.0
 44
1.0
 47
0.1
 48
0.1
 73
     0
 74
     0
 75
     1
 76
     1
 77
     1
 78
     8
 79
     2
140
3.5
141
0.0
143
0.0393701
146
0.71
147
1.5
172
     1
176
   256
177
   256
178
   140
271
     2
272
     3
274
     4
283
     0
284
     8
340
11
371
    -1
372
    -1
1001
ACAD_DSTYLE_DIMJOGGED_JOGANGLE_SYMBOL
1070
   384
1040
0.7853981633974483
1001
ACAD_DSTYLE_DIMARC_LENGTH_SYMBOL
1070
   379
1070
     1
1001
ACAD_DSTYLE_DIM_LINETYPE
1070
   380
1005
14
1001
ACAD_DSTYLE_DIM_EXT1_LINETYPE
1070
   381
1005
14
1001
ACAD_DSTYLE_DIM_EXT2_LINETYPE
1070
   382
1005
14
  0
DIMSTYLE
105
8B
330
A
100
AcDbSymbolTableRecord
100
AcDbDimStyleTableRecord
  2
AM_ISO$SH
 70
     0
  4
"
 41
3.5
 42
1.0
 43
10.0
 44
1.0
 47
0.1
 48
0.1
 73
     0
 74
     0
 75
     1
 76
     1
 77
     1
 78
     8
 79
     2
140
3.5
141
0.0
143
0.0393701
144
2.0
146
0.71
147
1.5
172
     1
173
     1
176
   256
177
   256
178
   140
271
     2
272
     3
274
     4
283
     0
284
     8
340
11
343
87
371
    -1
372
    -1
1001
ACAD_DSTYLE_DIMJOGGED_JOGANGLE_SYMBOL
1070
   384
1040
0.7853981633974483
1001
ACAD_DSTYLE_DIMARC_LENGTH_SYMBOL
1070
   379
1070
     1
1001
ACAD_DSTYLE_DIM_LINETYPE
1070
   380
1005
14
1001
ACAD_DSTYLE_DIM_EXT1_LINETYPE
1070
   381
1005
14
1001
ACAD_DSTYLE_DIM_EXT2_LINETYPE
1070
   382
1005
14
  0
DIMSTYLE
105
3F1
330
A
100
AcDbSymbolTableRecord
100
AcDbDimStyleTableRecord
  2
AM_DIN
 70
     0
  4
"
 41
3.5
 42
1.0
 43
10.0
 44
1.0
 47
0.1
 48
0.1
 73
     0
 74
     0
 77
     1
 78
     8
 79
     2
140
3.5
141
0.0
143
0.0393701
146
0.71
147
1.5
172
     1
176
   256
177
   256
178
     2
271
     2
272
     3
274
     4
283
     0
284
     8
340
11
371
    -1
372
    -1
1001
ACAD_DSTYLE_DIMJOGGED_JOGANGLE_SYMBOL
1070
   384
1040
1.570796326794896
1001
ACAD_DSTYLE_DIM_LINETYPE
1070
   380
1005
14
1001
ACAD_DSTYLE_DIM_EXT1_LINETYPE
1070
   381
1005
14
1001
ACAD_DSTYLE_DIM_EXT2_LINETYPE
1070
   382
1005
14
  0
DIMSTYLE
105
3F2
102
{ACAD_REACTORS
330
462
330
463
330
464
330
465
330
466
330
4D2
330
4D3
330
4D4
330
4D5
330
4D6
330
9A9
330
CEA
102
}
330
A
100
AcDbSymbolTableRecord
100
AcDbDimStyleTableRecord
  2
AM_DIN$0
 70
     0
  4
"
 41
3.5
 42
1.0
 43
10.0
 44
1.0
 47
0.1
 48
0.1
 73
     0
 74
     0
 77
     1
 78
     8
 79
     2
140
3.5
141
0.0
143
0.0393701
146
0.71
147
1.5
172
     1
176
   256
177
   256
178
     2
271
     2
272
     3
274
     4
283
     0
284
     8
340
11
371
    -1
372
    -1
1001
ACAD_DSTYLE_DIMJOGGED_JOGANGLE_SYMBOL
1070
   384
1040
1.570796326794896
1001
ACAD_DSTYLE_DIM_LINETYPE
1070
   380
1005
14
1001
ACAD_DSTYLE_DIM_EXT1_LINETYPE
1070
   381
1005
14
1001
ACAD_DSTYLE_DIM_EXT2_LINETYPE
1070
   382
1005
14
  0
DIMSTYLE
105
5DC
330
A
100
AcDbSymbolTableRecord
100
AcDbDimStyleTableRecord
  2
AM_DIN$3
 70
     0
  4
"
 41
2.5
 42
1.0
 43
10.0
 44
1.0
 47
0.1
 48
0.1
 73
     0
 77
     1
 78
     8
 79
     2
140
3.5
141
0.0
143
0.0393701
146
0.71
147
1.5
176
   256
177
   256
178
     2
271
     2
272
     3
274
     4
283
     0
284
     8
288
     1
289
     0
340
11
371
    -1
372
    -1
1001
ACAD_DSTYLE_DIMJOGGED_JOGANGLE_SYMBOL
1070
   384
1040
1.570796326794896
  0
DIMSTYLE
105
5DD
330
A
100
AcDbSymbolTableRecord
100
AcDbDimStyleTableRecord
  2
AM_DIN$4
 70
     0
  4
"
 41
2.5
 42
1.0
 43
10.0
 44
1.0
 47
0.1
 48
0.1
 73
     0
 77
     1
 78
     8
 79
     2
140
3.5
141
0.0
143
0.0393701
146
0.71
147
1.5
176
   256
177
   256
178
     2
271
     2
272
     3
274
     4
283
     0
284
     8
288
     1
289
     0
340
11
371
    -1
372
    -1
1001
ACAD_DSTYLE_DIMJOGGED_JOGANGLE_SYMBOL
1070
   384
1040
1.570796326794896
  0
DIMSTYLE
105
5DE
330
A
100
AcDbSymbolTableRecord
100
AcDbDimStyleTableRecord
  2
AM_DIN$6
 70
     0
  4
"
 41
2.5
 42
1.0
 43
10.0
 44
1.0
 47
0.1
 48
0.1
 73
     0
 74
     0
 78
     8
 79
     2
140
3.5
141
0.0
143
0.0393701
146
0.71
147
1.5
172
     1
176
   256
177
   256
178
     2
271
     2
272
     3
274
     4
283
     0
284
     8
340
11
371
    -1
372
    -1
1001
ACAD_DSTYLE_DIMJOGGED_JOGANGLE_SYMBOL
1070
   384
1040
1.570796326794896
  0
DIMSTYLE
105
5DF
330
A
100
AcDbSymbolTableRecord
100
AcDbDimStyleTableRecord
  2
AM_DIN$7
 70
     0
  4
"
 41
2.5
 42
1.0
 43
10.0
 44
1.0
 47
0.1
 48
0.1
 73
     0
 74
     0
 77
     1
 78
     8
 79
     2
140
5.0
141
0.0
143
0.0393701
146
0.71
147
1.5
172
     1
176
   256
177
   256
178
     2
271
     2
272
     3
274
     4
283
     0
284
     8
340
11
371
    -1
372
    -1
1001
ACAD_DSTYLE_DIMJOGGED_JOGANGLE_SYMBOL
1070
   384
1040
1.570796326794896
  0
DIMSTYLE
105
5E0
330
A
100
AcDbSymbolTableRecord
100
AcDbDimStyleTableRecord
  2
AM_DIN$SF
 70
     0
  4
"
 41
2.5
 42
1.0
 43
10.0
 44
1.0
 47
0.1
 48
0.1
 73
     0
 74
     0
 75
     1
 76
     1
 77
     1
 78
     8
 79
     2
140
3.5
141
0.0
143
0.0393701
146
0.71
147
1.5
172
     1
176
   256
177
   256
178
     2
271
     2
272
     3
274
     4
283
     0
284
     8
340
11
371
    -1
372
    -1
1001
ACAD_DSTYLE_DIMJOGGED_JOGANGLE_SYMBOL
1070
   384
1040
1.570796326794896
  0
DIMSTYLE
105
5E1
330
A
100
AcDbSymbolTableRecord
100
AcDbDimStyleTableRecord
  2
AM_DIN$SH
 70
     0
  4
"
 41
2.5
 42
1.0
 43
10.0
 44
1.0
 47
0.1
 48
0.1
 73
     0
 74
     0
 75
     1
 76
     1
 77
     1
 78
     8
 79
     2
140
3.5
141
0.0
143
0.0393701
144
2.0
146
0.71
147
1.5
172
     1
173
     1
176
   256
177
   256
178
     2
271
     2
272
     3
274
     4
283
     0
284
     8
340
11
343
87
371
    -1
372
    -1
1001
ACAD_DSTYLE_DIMJOGGED_JOGANGLE_SYMBOL
1070
   384
1040
1.570796326794896
  0
DIMSTYLE
105
5E2
102
{ACAD_REACTORS
330
5EF
330
5F0
330
5F1
330
5FA
330
5FC
330
5FD
330
5FE
330
5FF
330
613
330
630
330
640
330
64E
330
65A
330
65B
102
}
330
A
100
AcDbSymbolTableRecord
100
AcDbDimStyleTableRecord
  2
GEN-ISO
 70
     0
  3
<>
  4
"
 40
20.0
 41
2.5
 42
1.0
 43
7.0
 44
1.0
 47
0.1
 48
0.1
 73
     0
 74
     0
 77
     1
 78
     8
140
3.5
141
0.0
143
0.0393701
146
0.71
147
0.6
172
     1
176
   256
177
   256
178
     2
271
     2
272
     3
274
     4
283
     0
340
11
  0
ENDTAB
  0
TABLE
  2
BLOCK_RECORD
  5
1
330
0
100
AcDbSymbolTable
 70
    73
  0
BLOCK_RECORD
  5
1F
102
{ACAD_XDICTIONARY
360
8F
102
}
330
1
100
AcDbSymbolTableRecord
100
AcDbBlockTableRecord
  2
*Model_Space
340
22
  0
BLOCK_RECORD
  5
1B
330
1
100
AcDbSymbolTableRecord
100
AcDbBlockTableRecord
  2
*Paper_Space
340
1E
  0
BLOCK_RECORD
  5
23
330
1
100
AcDbSymbolTableRecord
100
AcDbBlockTableRecord
  2
*Paper_Space0
340
26
  0
BLOCK_RECORD
  5
87
330
1
100
AcDbSymbolTableRecord
100
AcDbBlockTableRecord
  2
GENAXEH
340
0
  0
BLOCK_RECORD
  5
3AE
330
1
100
AcDbSymbolTableRecord
100
AcDbBlockTableRecord
  2
*D3
340
0
  0
BLOCK_RECORD
  5
3BA
330
1
100
AcDbSymbolTableRecord
100
AcDbBlockTableRecord
  2
*D4
340
0
  0
BLOCK_RECORD
  5
3C6
330
1
100
AcDbSymbolTableRecord
100
AcDbBlockTableRecord
  2
*D5
340
0
  0
BLOCK_RECORD
  5
3D2
330
1
100
AcDbSymbolTableRecord
100
AcDbBlockTableRecord
  2
*D6
340
0
  0
BLOCK_RECORD
  5
3DE
330
1
100
AcDbSymbolTableRecord
100
AcDbBlockTableRecord
  2
*D7
340
0
  0
BLOCK_RECORD
  5
4D8
330
1
100
AcDbSymbolTableRecord
100
AcDbBlockTableRecord
  2
*D9
340
0
  0
BLOCK_RECORD
  5
4E4
330
1
100
AcDbSymbolTableRecord
100
AcDbBlockTableRecord
  2
*D10
340
0
  0
BLOCK_RECORD
  5
4F0
330
1
100
AcDbSymbolTableRecord
100
AcDbBlockTableRecord
  2
*D11
340
0
  0
BLOCK_RECORD
  5
4FC
330
1
100
AcDbSymbolTableRecord
100
AcDbBlockTableRecord
  2
*D12
340
0
  0
BLOCK_RECORD
  5
508
330
1
100
AcDbSymbolTableRecord
100
AcDbBlockTableRecord
  2
*D13
340
0
  0
BLOCK_RECORD
  5
515
330
1
100
AcDbSymbolTableRecord
100
AcDbBlockTableRecord
  2
GENPOS14
340
0
102
{BLKREFS
331
600
331
643
102
}
  0
BLOCK_RECORD
  5
521
330
1
100
AcDbSymbolTableRecord
100
AcDbBlockTableRecord
  2
*D15
340
0
  0
BLOCK_RECORD
  5
52D
330
1
100
AcDbSymbolTableRecord
100
AcDbBlockTableRecord
  2
*D16
340
0
  0
BLOCK_RECORD
  5
539
330
1
100
AcDbSymbolTableRecord
100
AcDbBlockTableRecord
  2
*D17
340
0
  0
BLOCK_RECORD
  5
545
330
1
100
AcDbSymbolTableRecord
100
AcDbBlockTableRecord
  2
*D18
340
0
  0
BLOCK_RECORD
  5
551
330
1
100
AcDbSymbolTableRecord
100
AcDbBlockTableRecord
  2
*D19
340
0
  0
BLOCK_RECORD
  5
55D
330
1
100
AcDbSymbolTableRecord
100
AcDbBlockTableRecord
  2
*D20
340
0
  0
BLOCK_RECORD
  5
569
330
1
100
AcDbSymbolTableRecord
100
AcDbBlockTableRecord
  2
*D21
340
0
  0
BLOCK_RECORD
  5
575
330
1
100
AcDbSymbolTableRecord
100
AcDbBlockTableRecord
  2
*D22
340
0
  0
BLOCK_RECORD
  5
581
330
1
100
AcDbSymbolTableRecord
100
AcDbBlockTableRecord
  2
*D23
340
0
  0
BLOCK_RECORD
  5
58D
330
1
100
AcDbSymbolTableRecord
100
AcDbBlockTableRecord
  2
*D24
340
0
  0
BLOCK_RECORD
  5
599
330
1
100
AcDbSymbolTableRecord
100
AcDbBlockTableRecord
  2
*D25
340
0
  0
BLOCK_RECORD
  5
5A6
330
1
100
AcDbSymbolTableRecord
100
AcDbBlockTableRecord
  2
*D26
340
0
  0
BLOCK_RECORD
  5
5B4
330
1
100
AcDbSymbolTableRecord
100
AcDbBlockTableRecord
  2
*D27
340
0
  0
BLOCK_RECORD
  5
5C0
330
1
100
AcDbSymbolTableRecord
100
AcDbBlockTableRecord
  2
*D28
340
0
  0
BLOCK_RECORD
  5
6F2
330
1
100
AcDbSymbolTableRecord
100
AcDbBlockTableRecord
  2
*D30
340
0
  0
BLOCK_RECORD
  5
6FE
330
1
100
AcDbSymbolTableRecord
100
AcDbBlockTableRecord
  2
*D31
340
0
  0
BLOCK_RECORD
  5
70A
330
1
100
AcDbSymbolTableRecord
100
AcDbBlockTableRecord
  2
*D32
340
0
  0
BLOCK_RECORD
  5
716
330
1
100
AcDbSymbolTableRecord
100
AcDbBlockTableRecord
  2
*D33
340
0
  0
BLOCK_RECORD
  5
722
330
1
100
AcDbSymbolTableRecord
100
AcDbBlockTableRecord
  2
*D34
340
0
  0
BLOCK_RECORD
  5
72E
330
1
100
AcDbSymbolTableRecord
100
AcDbBlockTableRecord
  2
*D35
340
0
  0
BLOCK_RECORD
  5
73A
330
1
100
AcDbSymbolTableRecord
100
AcDbBlockTableRecord
  2
*D36
340
0
  0
BLOCK_RECORD
  5
746
330
1
100
AcDbSymbolTableRecord
100
AcDbBlockTableRecord
  2
*D37
340
0
  0
BLOCK_RECORD
  5
752
330
1
100
AcDbSymbolTableRecord
100
AcDbBlockTableRecord
  2
*D38
340
0
  0
BLOCK_RECORD
  5
75E
330
1
100
AcDbSymbolTableRecord
100
AcDbBlockTableRecord
  2
*D39
340
0
  0
BLOCK_RECORD
  5
76A
330
1
100
AcDbSymbolTableRecord
100
AcDbBlockTableRecord
  2
*D40
340
0
  0
BLOCK_RECORD
  5
776
330
1
100
AcDbSymbolTableRecord
100
AcDbBlockTableRecord
  2
*D41
340
0
  0
BLOCK_RECORD
  5
784
330
1
100
AcDbSymbolTableRecord
100
AcDbBlockTableRecord
  2
*D42
340
0
  0
BLOCK_RECORD
  5
790
330
1
100
AcDbSymbolTableRecord
100
AcDbBlockTableRecord
  2
*D43
340
0
  0
BLOCK_RECORD
  5
79C
330
1
100
AcDbSymbolTableRecord
100
AcDbBlockTableRecord
  2
*D44
340
0
  0
BLOCK_RECORD
  5
814
330
1
100
AcDbSymbolTableRecord
100
AcDbBlockTableRecord
  2
*D45
340
0
  0
BLOCK_RECORD
  5
947
330
1
100
AcDbSymbolTableRecord
100
AcDbBlockTableRecord
  2
*D47
340
0
  0
BLOCK_RECORD
  5
9F5
330
1
100
AcDbSymbolTableRecord
100
AcDbBlockTableRecord
  2
*D48
340
0
  0
BLOCK_RECORD
  5
A15
330
1
100
AcDbSymbolTableRecord
100
AcDbBlockTableRecord
  2
*D49
340
0
  0
BLOCK_RECORD
  5
A21
330
1
100
AcDbSymbolTableRecord
100
AcDbBlockTableRecord
  2
*D50
340
0
  0
BLOCK_RECORD
  5
A2F
330
1
100
AcDbSymbolTableRecord
100
AcDbBlockTableRecord
  2
*D51
340
0
  0
BLOCK_RECORD
  5
A3B
330
1
100
AcDbSymbolTableRecord
100
AcDbBlockTableRecord
  2
*D52
340
0
  0
BLOCK_RECORD
  5
A47
330
1
100
AcDbSymbolTableRecord
100
AcDbBlockTableRecord
  2
*D53
340
0
  0
BLOCK_RECORD
  5
A53
330
1
100
AcDbSymbolTableRecord
100
AcDbBlockTableRecord
  2
*D54
340
0
  0
BLOCK_RECORD
  5
A5F
330
1
100
AcDbSymbolTableRecord
100
AcDbBlockTableRecord
  2
*D55
340
0
  0
BLOCK_RECORD
  5
A6B
330
1
100
AcDbSymbolTableRecord
100
AcDbBlockTableRecord
  2
*D56
340
0
  0
BLOCK_RECORD
  5
B63
330
1
100
AcDbSymbolTableRecord
100
AcDbBlockTableRecord
  2
*D58
340
0
  0
BLOCK_RECORD
  5
B6F
330
1
100
AcDbSymbolTableRecord
100
AcDbBlockTableRecord
  2
*D59
340
0
  0
BLOCK_RECORD
  5
B7D
330
1
100
AcDbSymbolTableRecord
100
AcDbBlockTableRecord
  2
*D60
340
0
  0
BLOCK_RECORD
  5
B89
330
1
100
AcDbSymbolTableRecord
100
AcDbBlockTableRecord
  2
*D61
340
0
  0
BLOCK_RECORD
  5
B95
330
1
100
AcDbSymbolTableRecord
100
AcDbBlockTableRecord
  2
*D62
340
0
  0
BLOCK_RECORD
  5
BA1
330
1
100
AcDbSymbolTableRecord
100
AcDbBlockTableRecord
  2
*D63
340
0
  0
BLOCK_RECORD
  5
BAD
330
1
100
AcDbSymbolTableRecord
100
AcDbBlockTableRecord
  2
*D64
340
0
  0
BLOCK_RECORD
  5
BB9
330
1
100
AcDbSymbolTableRecord
100
AcDbBlockTableRecord
  2
*D65
340
0
  0
BLOCK_RECORD
  5
C10
330
1
100
AcDbSymbolTableRecord
100
AcDbBlockTableRecord
  2
*D66
340
0
  0
BLOCK_RECORD
  5
D3F
330
1
100
AcDbSymbolTableRecord
100
AcDbBlockTableRecord
  2
*D68
340
0
  0
BLOCK_RECORD
  5
D4C
330
1
100
AcDbSymbolTableRecord
100
AcDbBlockTableRecord
  2
befestigung
340
0
310
2800000020000000200000000100080000000000000400000000000000000000000000000000000000000000000080000080000000808000800000008000800080800000C0C0C000C0DCC000F0CAA6000020400000206000002080000020A0000020C0000020E00000400000004020000040400000406000004080000040A0
310
000040C0000040E00000600000006020000060400000606000006080000060A0000060C0000060E00000800000008020000080400000806000008080000080A0000080C0000080E00000A0000000A0200000A0400000A0600000A0800000A0A00000A0C00000A0E00000C0000000C0200000C0400000C0600000C0800000C0
310
A00000C0C00000C0E00000E0000000E0200000E0400000E0600000E0800000E0A00000E0C00000E0E00040000000400020004000400040006000400080004000A0004000C0004000E00040200000402020004020400040206000402080004020A0004020C0004020E000404000004040200040404000404060004040800040
310
40A0004040C0004040E00040600000406020004060400040606000406080004060A0004060C0004060E00040800000408020004080400040806000408080004080A0004080C0004080E00040A0000040A0200040A0400040A0600040A0800040A0A00040A0C00040A0E00040C0000040C0200040C0400040C0600040C08000
310
40C0A00040C0C00040C0E00040E0000040E0200040E0400040E0600040E0800040E0A00040E0C00040E0E00080000000800020008000400080006000800080008000A0008000C0008000E00080200000802020008020400080206000802080008020A0008020C0008020E00080400000804020008040400080406000804080
310
008040A0008040C0008040E00080600000806020008060400080606000806080008060A0008060C0008060E00080800000808020008080400080806000808080008080A0008080C0008080E00080A0000080A0200080A0400080A0600080A0800080A0A00080A0C00080A0E00080C0000080C0200080C0400080C0600080C0
310
800080C0A00080C0C00080C0E00080E0000080E0200080E0400080E0600080E0800080E0A00080E0C00080E0E000C0000000C0002000C0004000C0006000C0008000C000A000C000C000C000E000C0200000C0202000C0204000C0206000C0208000C020A000C020C000C020E000C0400000C0402000C0404000C0406000C0
310
408000C040A000C040C000C040E000C0600000C0602000C0604000C0606000C0608000C060A000C060C000C060E000C0800000C0802000C0804000C0806000C0808000C080A000C080C000C080E000C0A00000C0A02000C0A04000C0A06000C0A08000C0A0A000C0A0C000C0A0E000C0C00000C0C02000C0C04000C0C06000
310
C0C08000C0C0A000F0FBFF00A4A0A000808080000000FF0000FF000000FFFF00FF000000FF00FF00FFFF0000FFFFFF00000000000000000000000000000000000000000000000000000000000000000000000000000000000000000000000000000000000000FF000000000000000000000000000000000000000000000000
310
000000000000FF00FFFFFF00000000000000000000000000000000000000000000000000FFFF0000000000FF0000000000000000000000000000000000000000000000FF00000000000000FF00000000000000000000000000000000000000000000FF000000000000000000FF000000000000000000000000000000000000
310
0000FF00000000000000000000FF00000000000000000000000000000000000000FF0000000000000000000000FF000000000000000000000000000000000000FF0000000000000000000000FF00000000000000000000000000000000FFFFFF0000000000000000000000FF0000000000000000000000FFFFFFFFFF00FFFF
310
FFFFFF00000000000000FFFF0000000000000000000000FFFF000000FF00FFFF000000FFFFFFFFFFFFFF00000000000000000000000000FFFF000000FF00FFFF00000000000000FF000000000000000000000000000000FFFFFFFFFFFF00FFFF00000000000000FF3030303030FFFF0000000000000000FFFF000000FF00FF
310
FF00000000000000FF0000000000FFFF0000000000000000FFFF000000FF00FFFF00000000000000FF0000000000FFFF000000000000E8E8FFFFE8E8E8E8E8FFFFE8E8E8E8E8E8E8FFE8E8E8E8E8FFFFE8E8000000000000FFFF000000FF00FFFF00000000000000FF0000000000FFFF0000000000000000FFFFFFFFFFFF00
310
FFFF00000000000000FFFFFFFFFFFFFFFF0000000000000000FFFF000000FF00FFFF00000000000000FF000000000000000000000000000000FFFF000000FF00FFFF00000000FFFFFFFFFF000000000000000000000000000000FFFFFFFFFF00FFFFFFFFFFFF0000000000FFFFFF0000000000000000000000000000000000
310
00FFFFFF0000000000000000000000FF0000000000000000000000000000000000000000FF0000000000000000000000FF0000000000000000000000000000000000000000FF0000000000000000000000FF0000000000000000000000000000000000000000FF00000000000000000000FF00000000000000000000000000
310
0000000000000000FF000000000000000000FF00000000000000000000000000000000000000000000FF00000000000000FF000000000000000000000000000000000000000000000000FF000000000000FF00000000000000000000000000000000000000000000000000FFFF0000FFFF0000000000000000000000000000
310
0000000000000000000000000000FFFF00000000000000000000000000000000000000000000000000000000000000000000000000000000
102
{BLKREFS
331
D8F
331
D90
331
D96
331
D95
102
}
1001
ACAD
1000
DesignCenter Data
1002
{
1070
     1
1070
     4
1002
}
  0
BLOCK_RECORD
  5
D70
330
1
100
AcDbSymbolTableRecord
100
AcDbBlockTableRecord
  2
*U70
340
0
102
{BLKREFS
331
D6D
102
}
  0
BLOCK_RECORD
  5
D7E
330
1
100
AcDbSymbolTableRecord
100
AcDbBlockTableRecord
  2
*U71
340
0
102
{BLKREFS
331
D6E
102
}
  0
ENDTAB
  0
ENDSEC
  0
SECTION
  2
BLOCKS
  0
BLOCK
  5
20
330
1F
100
AcDbEntity
  8
0
100
AcDbBlockBegin
  2
*Model_Space
 70
     0
 10
0.0
 20
0.0
 30
0.0
  3
*Model_Space
  1

  0
ENDBLK
  5
21
330
1F
100
AcDbEntity
  8
0
100
AcDbBlockEnd
  0
BLOCK
  5
1C
330
1B
100
AcDbEntity
 67
     1
  8
0
100
AcDbBlockBegin
  2
*Paper_Space
 70
     0
 10
0.0
 20
0.0
 30
0.0
  3
*Paper_Space
  1

  0
ENDBLK
  5
1D
330
1B
100
AcDbEntity
 67
     1
  8
0
100
AcDbBlockEnd
  0
BLOCK
  5
24
330
23
100
AcDbEntity
 67
     1
  8
0
100
AcDbBlockBegin
  2
*Paper_Space0
 70
     0
 10
0.0
 20
0.0
 30
0.0
  3
*Paper_Space0
  1

  0
ENDBLK
  5
25
330
23
100
AcDbEntity
 67
     1
  8
0
100
AcDbBlockEnd
  0
BLOCK
  5
89
330
87
100
AcDbEntity
  8
0
100
AcDbBlockBegin
  2
GENAXEH
 70
     0
 10
0.0
 20
0.0
 30
0.0
  3
GENAXEH
  1

  0
LINE
  5
88
330
87
100
AcDbEntity
  8
0
100
AcDbLine
 10
-1.0
 20
0.0
 30
0.0
 11
1.0
 21
0.0
 31
0.0
  0
ENDBLK
  5
8A
330
87
100
AcDbEntity
  8
0
100
AcDbBlockEnd
  0
BLOCK
  5
3AF
330
3AE
100
AcDbEntity
  8
0
100
AcDbBlockBegin
  2
*D3
 70
     1
 10
0.0
 20
0.0
 30
0.0
  3
*D3
  1

  0
LINE
  5
3B0
330
3AE
100
AcDbEntity
  8
AM_5
  6
ByBlock
100
AcDbLine
 10
8708.127263030574
 20
1945.374477454327
 30
0.0
 11
8830.410950679807
 21
1945.374477454327
 31
0.0
  0
LINE
  5
3B1
330
3AE
100
AcDbEntity
  8
AM_5
  6
ByBlock
100
AcDbLine
 10
8700.131834459309
 20
2072.301906025588
 30
0.0
 11
8830.410950679807
 21
2072.301906025588
 31
0.0
  0
LINE
  5
3B2
330
3AE
100
AcDbEntity
  8
AM_5
  6
ByBlock
100
AcDbLine
 10
8829.410950679806
 20
1952.374477454327
 30
0.0
 11
8829.410950679806
 21
2065.301906025588
 31
0.0
  0
SOLID
  5
3B3
330
3AE
100
AcDbEntity
  8
AM_5
100
AcDbTrace
 10
8828.244284013141
 20
1952.374477454327
 30
0.0
 11
8830.577617346474
 21
1952.374477454327
 31
0.0
 12
8829.410950679806
 22
1945.374477454327
 32
0.0
 13
8829.410950679806
 23
1945.374477454327
 33
0.0
  0
SOLID
  5
3B4
330
3AE
100
AcDbEntity
  8
AM_5
100
AcDbTrace
 10
8828.244284013141
 20
2065.301906025588
 30
0.0
 11
8830.577617346474
 21
2065.301906025588
 31
0.0
 12
8829.410950679806
 22
2072.301906025588
 32
0.0
 13
8829.410950679806
 23
2072.301906025588
 33
0.0
  0
MTEXT
  5
3B5
330
3AE
100
AcDbEntity
  8
AM_5
 62
     2
100
AcDbMText
 10
8822.910950679807
 20
2008.838191739959
 30
0.0
 40
10.0
 41
0.0
 71
     5
 72
     1
  1
105-160
 11
0.0000000000000001
 21
1.0
 31
0.0
 73
     1
 44
1.0
1001
ACAD
1000
MTEXTBEGIN
1070
    73
1070
     1
1070
    44
1040
1.0
1070
    74
1070
     0
1000
MTEXTEND
  0
POINT
  5
3B6
330
3AE
100
AcDbEntity
  8
Defpoints
 62
     0
100
AcDbPoint
 10
8707.127263030574
 20
1945.374477454327
 30
0.0
  0
POINT
  5
3B7
330
3AE
100
AcDbEntity
  8
Defpoints
 62
     0
100
AcDbPoint
 10
8699.13183445931
 20
2072.301906025588
 30
0.0
  0
POINT
  5
3B8
330
3AE
100
AcDbEntity
  8
Defpoints
 62
     0
100
AcDbPoint
 10
8829.410950679806
 20
2072.301906025588
 30
0.0
  0
ENDBLK
  5
3B9
330
3AE
100
AcDbEntity
  8
0
100
AcDbBlockEnd
  0
BLOCK
  5
3BB
330
3BA
100
AcDbEntity
  8
0
100
AcDbBlockBegin
  2
*D4
 70
     1
 10
0.0
 20
0.0
 30
0.0
  3
*D4
  1

  0
LINE
  5
3BC
330
3BA
100
AcDbEntity
  8
AM_5
  6
ByBlock
100
AcDbLine
 10
8700.131834458723
 20
1680.664040656667
 30
0.0
 11
8771.401082457812
 21
1680.664040656667
 31
0.0
  0
LINE
  5
3BD
330
3BA
100
AcDbEntity
  8
AM_5
  6
ByBlock
100
AcDbLine
 10
8702.330691601828
 20
1764.664040656666
 30
0.0
 11
8771.401082457812
 21
1764.664040656666
 31
0.0
  0
LINE
  5
3BE
330
3BA
100
AcDbEntity
  8
AM_5
  6
ByBlock
100
AcDbLine
 10
8770.40108245781
 20
1687.664040656667
 30
0.0
 11
8770.40108245781
 21
1757.664040656665
 31
0.0
  0
SOLID
  5
3BF
330
3BA
100
AcDbEntity
  8
AM_5
100
AcDbTrace
 10
8769.234415791144
 20
1687.664040656667
 30
0.0
 11
8771.567749124477
 21
1687.664040656667
 31
0.0
 12
8770.40108245781
 22
1680.664040656667
 32
0.0
 13
8770.40108245781
 23
1680.664040656667
 33
0.0
  0
SOLID
  5
3C0
330
3BA
100
AcDbEntity
  8
AM_5
100
AcDbTrace
 10
8769.234415791144
 20
1757.664040656665
 30
0.0
 11
8771.567749124477
 21
1757.664040656665
 31
0.0
 12
8770.40108245781
 22
1764.664040656666
 32
0.0
 13
8770.40108245781
 23
1764.664040656666
 33
0.0
  0
MTEXT
  5
3C1
330
3BA
100
AcDbEntity
  8
AM_5
 62
     2
100
AcDbMText
 10
8763.901082457811
 20
1722.664040656668
 30
0.0
 40
10.0
 41
0.0
 71
     5
 72
     1
  1
84
 11
0.0000000000000001
 21
1.0
 31
0.0
 73
     1
 44
1.0
1001
ACAD
1000
MTEXTBEGIN
1070
    73
1070
     1
1070
    44
1040
1.0
1070
    74
1070
     0
1000
MTEXTEND
  0
POINT
  5
3C2
330
3BA
100
AcDbEntity
  8
Defpoints
 62
     0
100
AcDbPoint
 10
8699.131834458723
 20
1680.664040656667
 30
0.0
  0
POINT
  5
3C3
330
3BA
100
AcDbEntity
  8
Defpoints
 62
     0
100
AcDbPoint
 10
8701.330691601828
 20
1764.664040656666
 30
0.0
  0
POINT
  5
3C4
330
3BA
100
AcDbEntity
  8
Defpoints
 62
     0
100
AcDbPoint
 10
8770.40108245781
 20
1764.664040656666
 30
0.0
  0
ENDBLK
  5
3C5
330
3BA
100
AcDbEntity
  8
0
100
AcDbBlockEnd
  0
BLOCK
  5
3C7
330
3C6
100
AcDbEntity
  8
0
100
AcDbBlockBegin
  2
*D5
 70
     1
 10
0.0
 20
0.0
 30
0.0
  3
*D5
  1

  0
LINE
  5
3C8
330
3C6
100
AcDbEntity
  8
AM_5
  6
ByBlock
100
AcDbLine
 10
8732.113548744942
 20
1656.164040656666
 30
0.0
 11
8807.297832398072
 21
1656.164040656666
 31
0.0
  0
LINE
  5
3C9
330
3C6
100
AcDbEntity
  8
AM_5
  6
ByBlock
100
AcDbLine
 10
8732.113548744942
 20
1789.164040656666
 30
0.0
 11
8807.297832398072
 21
1789.164040656666
 31
0.0
  0
LINE
  5
3CA
330
3C6
100
AcDbEntity
  8
AM_5
  6
ByBlock
100
AcDbLine
 10
8806.297832398071
 20
1663.164040656666
 30
0.0
 11
8806.297832398071
 21
1782.164040656666
 31
0.0
  0
SOLID
  5
3CB
330
3C6
100
AcDbEntity
  8
AM_5
100
AcDbTrace
 10
8805.131165731406
 20
1663.164040656666
 30
0.0
 11
8807.464499064737
 21
1663.164040656666
 31
0.0
 12
8806.297832398071
 22
1656.164040656666
 32
0.0
 13
8806.297832398071
 23
1656.164040656666
 33
0.0
  0
SOLID
  5
3CC
330
3C6
100
AcDbEntity
  8
AM_5
100
AcDbTrace
 10
8805.131165731406
 20
1782.164040656666
 30
0.0
 11
8807.464499064737
 21
1782.164040656666
 31
0.0
 12
8806.297832398071
 22
1789.164040656666
 32
0.0
 13
8806.297832398071
 23
1789.164040656666
 33
0.0
  0
MTEXT
  5
3CD
330
3C6
100
AcDbEntity
  8
AM_5
 62
     2
100
AcDbMText
 10
8799.797832398072
 20
1722.664040656668
 30
0.0
 40
10.0
 41
0.0
 71
     5
 72
     1
  1
133
 11
0.0000000000000001
 21
1.0
 31
0.0
 73
     1
 44
1.0
1001
ACAD
1000
MTEXTBEGIN
1070
    73
1070
     1
1070
    44
1040
1.0
1070
    74
1070
     0
1000
MTEXTEND
  0
POINT
  5
3CE
330
3C6
100
AcDbEntity
  8
Defpoints
 62
     0
100
AcDbPoint
 10
8731.113548744943
 20
1656.164040656666
 30
0.0
  0
POINT
  5
3CF
330
3C6
100
AcDbEntity
  8
Defpoints
 62
     0
100
AcDbPoint
 10
8731.113548744943
 20
1789.164040656666
 30
0.0
  0
POINT
  5
3D0
330
3C6
100
AcDbEntity
  8
Defpoints
 62
     0
100
AcDbPoint
 10
8806.297832398071
 20
1789.164040656666
 30
0.0
  0
ENDBLK
  5
3D1
330
3C6
100
AcDbEntity
  8
0
100
AcDbBlockEnd
  0
BLOCK
  5
3D3
330
3D2
100
AcDbEntity
  8
0
100
AcDbBlockBegin
  2
*D6
 70
     1
 10
0.0
 20
0.0
 30
0.0
  3
*D6
  1

  0
LINE
  5
3D4
330
3D2
100
AcDbEntity
  8
AM_5
  6
ByBlock
100
AcDbLine
 10
8701.330691601828
 20
1763.041526370743
 30
0.0
 11
8701.330691601828
 21
1832.637750190683
 31
0.0
  0
LINE
  5
3D5
330
3D2
100
AcDbEntity
  8
AM_5
  6
ByBlock
100
AcDbLine
 10
8001.330691601827
 20
1763.041526370743
 30
0.0
 11
8001.330691601827
 21
1832.637750190683
 31
0.0
  0
LINE
  5
3D6
330
3D2
100
AcDbEntity
  8
AM_5
  6
ByBlock
100
AcDbLine
 10
8694.330691601829
 20
1831.637750190683
 30
0.0
 11
8008.330691601829
 21
1831.637750190683
 31
0.0
  0
SOLID
  5
3D7
330
3D2
100
AcDbEntity
  8
AM_5
100
AcDbTrace
 10
8694.330691601829
 20
1832.80441685735
 30
0.0
 11
8694.330691601829
 21
1830.471083524016
 31
0.0
 12
8701.330691601828
 22
1831.637750190683
 32
0.0
 13
8701.330691601828
 23
1831.637750190683
 33
0.0
  0
SOLID
  5
3D8
330
3D2
100
AcDbEntity
  8
AM_5
100
AcDbTrace
 10
8008.330691601829
 20
1832.80441685735
 30
0.0
 11
8008.330691601829
 21
1830.471083524016
 31
0.0
 12
8001.330691601827
 22
1831.637750190683
 32
0.0
 13
8001.330691601827
 23
1831.637750190683
 33
0.0
  0
MTEXT
  5
3D9
330
3D2
100
AcDbEntity
  8
AM_5
 62
     2
100
AcDbMText
 10
8351.330691601829
 20
1838.137750190683
 30
0.0
 40
10.0
 41
0.0
 71
     5
 72
     1
  1
700
 73
     1
 44
1.0
1001
ACAD
1000
MTEXTBEGIN
1070
    73
1070
     1
1070
    44
1040
1.0
1070
    74
1070
     0
1000
MTEXTEND
  0
POINT
  5
3DA
330
3D2
100
AcDbEntity
  8
Defpoints
 62
     0
100
AcDbPoint
 10
8701.330691601828
 20
1762.041526370743
 30
0.0
  0
POINT
  5
3DB
330
3D2
100
AcDbEntity
  8
Defpoints
 62
     0
100
AcDbPoint
 10
8001.330691601827
 20
1762.041526370743
 30
0.0
  0
POINT
  5
3DC
330
3D2
100
AcDbEntity
  8
Defpoints
 62
     0
100
AcDbPoint
 10
8001.330691601827
 20
1831.637750190683
 30
0.0
  0
ENDBLK
  5
3DD
330
3D2
100
AcDbEntity
  8
0
100
AcDbBlockEnd
  0
BLOCK
  5
3DF
330
3DE
100
AcDbEntity
  8
0
100
AcDbBlockBegin
  2
*D7
 70
     1
 10
0.0
 20
0.0
 30
0.0
  3
*D7
  1

  0
LINE
  5
3E0
330
3DE
100
AcDbEntity
  8
AM_5
  6
ByBlock
100
AcDbLine
 10
8731.113548744943
 20
1784.029812085113
 30
0.0
 11
8731.113548744943
 21
1867.761205257787
 31
0.0
  0
LINE
  5
3E1
330
3DE
100
AcDbEntity
  8
AM_5
  6
ByBlock
100
AcDbLine
 10
7978.543263030558
 20
1783.030097799481
 30
0.0
 11
7978.543263030558
 21
1867.761205257787
 31
0.0
  0
LINE
  5
3E2
330
3DE
100
AcDbEntity
  8
AM_5
  6
ByBlock
100
AcDbLine
 10
8724.113548744943
 20
1866.761205257787
 30
0.0
 11
7985.543263030557
 21
1866.761205257787
 31
0.0
  0
SOLID
  5
3E3
330
3DE
100
AcDbEntity
  8
AM_5
100
AcDbTrace
 10
8724.113548744943
 20
1867.927871924453
 30
0.0
 11
8724.113548744943
 21
1865.59453859112
 31
0.0
 12
8731.113548744943
 22
1866.761205257787
 32
0.0
 13
8731.113548744943
 23
1866.761205257787
 33
0.0
  0
SOLID
  5
3E4
330
3DE
100
AcDbEntity
  8
AM_5
100
AcDbTrace
 10
7985.543263030557
 20
1867.927871924453
 30
0.0
 11
7985.543263030557
 21
1865.59453859112
 31
0.0
 12
7978.543263030558
 22
1866.761205257787
 32
0.0
 13
7978.543263030558
 23
1866.761205257787
 33
0.0
  0
MTEXT
  5
3E5
330
3DE
100
AcDbEntity
  8
AM_5
 62
     2
100
AcDbMText
 10
8354.828405887751
 20
1873.261205257787
 30
0.0
 40
10.0
 41
0.0
 71
     5
 72
     1
  1
753
 73
     1
 44
1.0
1001
ACAD
1000
MTEXTBEGIN
1070
    73
1070
     1
1070
    44
1040
1.0
1070
    74
1070
     0
1000
MTEXTEND
  0
POINT
  5
3E6
330
3DE
100
AcDbEntity
  8
Defpoints
 62
     0
100
AcDbPoint
 10
8731.113548744943
 20
1783.029812085113
 30
0.0
  0
POINT
  5
3E7
330
3DE
100
AcDbEntity
  8
Defpoints
 62
     0
100
AcDbPoint
 10
7978.543263030558
 20
1782.030097799481
 30
0.0
  0
POINT
  5
3E8
330
3DE
100
AcDbEntity
  8
Defpoints
 62
     0
100
AcDbPoint
 10
7978.543263030558
 20
1866.761205257787
 30
0.0
  0
ENDBLK
  5
3E9
330
3DE
100
AcDbEntity
  8
0
100
AcDbBlockEnd
  0
BLOCK
  5
4D9
330
4D8
100
AcDbEntity
  8
0
100
AcDbBlockBegin
  2
*D9
 70
     1
 10
0.0
 20
0.0
 30
0.0
  3
*D9
  1

  0
LINE
  5
4DB
330
4D8
100
AcDbEntity
  8
AM_5
  6
ByBlock
100
AcDbLine
 10
729.5839999790859
 20
315.7952366729053
 30
0.0
 11
851.8676876283189
 21
315.7952366729053
 31
0.0
  0
LINE
  5
4DC
330
4D8
100
AcDbEntity
  8
AM_5
  6
ByBlock
100
AcDbLine
 10
721.5885714078212
 20
442.7226652441661
 30
0.0
 11
851.8676876283189
 21
442.7226652441661
 31
0.0
  0
LINE
  5
4DD
330
4D8
100
AcDbEntity
  8
AM_5
  6
ByBlock
100
AcDbLine
 10
850.8676876283189
 20
322.7952366729053
 30
0.0
 11
850.8676876283189
 21
435.7226652441661
 31
0.0
  0
SOLID
  5
4DE
330
4D8
100
AcDbEntity
  8
AM_5
100
AcDbTrace
 10
849.7010209616522
 20
322.7952366729053
 30
0.0
 11
852.0343542949856
 21
322.7952366729053
 31
0.0
 12
850.8676876283189
 22
315.7952366729053
 32
0.0
 13
850.8676876283189
 23
315.7952366729053
 33
0.0
  0
SOLID
  5
4DF
330
4D8
100
AcDbEntity
  8
AM_5
100
AcDbTrace
 10
849.7010209616522
 20
435.7226652441661
 30
0.0
 11
852.0343542949856
 21
435.7226652441661
 31
0.0
 12
850.8676876283189
 22
442.7226652441661
 32
0.0
 13
850.8676876283189
 23
442.7226652441661
 33
0.0
  0
MTEXT
  5
4E0
330
4D8
100
AcDbEntity
  8
AM_5
 62
     2
100
AcDbMText
 10
844.3676876283188
 20
379.2589509585358
 30
0.0
 40
10.0
 41
0.0
 71
     5
 72
     1
  1
105-160
 11
0.0000000000000001
 21
1.0
 31
0.0
 73
     1
 44
1.0
1001
ACAD
1000
MTEXTBEGIN
1070
    73
1070
     1
1070
    44
1040
1.0
1070
    74
1070
     0
1000
MTEXTEND
  0
POINT
  5
4E1
330
4D8
100
AcDbEntity
  8
Defpoints
 62
     0
100
AcDbPoint
 10
728.583999979086
 20
315.7952366729053
 30
0.0
  0
POINT
  5
4E2
330
4D8
100
AcDbEntity
  8
Defpoints
 62
     0
100
AcDbPoint
 10
720.5885714078212
 20
442.7226652441661
 30
0.0
  0
POINT
  5
4E3
330
4D8
100
AcDbEntity
  8
Defpoints
 62
     0
100
AcDbPoint
 10
850.8676876283189
 20
442.7226652441661
 30
0.0
  0
ENDBLK
  5
4DA
330
4D8
100
AcDbEntity
  8
0
100
AcDbBlockEnd
  0
BLOCK
  5
4E5
330
4E4
100
AcDbEntity
  8
0
100
AcDbBlockBegin
  2
*D10
 70
     1
 10
0.0
 20
0.0
 30
0.0
  3
*D10
  1

  0
LINE
  5
4E7
330
4E4
100
AcDbEntity
  8
AM_5
  6
ByBlock
100
AcDbLine
 10
721.5885714072356
 20
51.08479987524515
 30
0.0
 11
792.8578194063229
 21
51.08479987524513
 31
0.0
  0
LINE
  5
4E8
330
4E4
100
AcDbEntity
  8
AM_5
  6
ByBlock
100
AcDbLine
 10
723.7874285503403
 20
135.0847998752442
 30
0.0
 11
792.8578194063229
 21
135.0847998752442
 31
0.0
  0
LINE
  5
4E9
330
4E4
100
AcDbEntity
  8
AM_5
  6
ByBlock
100
AcDbLine
 10
791.8578194063229
 20
58.08479987524513
 30
0.0
 11
791.8578194063229
 21
128.0847998752442
 31
0.0
  0
SOLID
  5
4EA
330
4E4
100
AcDbEntity
  8
AM_5
100
AcDbTrace
 10
790.6911527396563
 20
58.08479987524513
 30
0.0
 11
793.0244860729896
 21
58.08479987524513
 31
0.0
 12
791.8578194063229
 22
51.08479987524513
 32
0.0
 13
791.8578194063229
 23
51.08479987524513
 33
0.0
  0
SOLID
  5
4EB
330
4E4
100
AcDbEntity
  8
AM_5
100
AcDbTrace
 10
790.6911527396563
 20
128.0847998752442
 30
0.0
 11
793.0244860729896
 21
128.0847998752442
 31
0.0
 12
791.8578194063229
 22
135.0847998752442
 32
0.0
 13
791.8578194063229
 23
135.0847998752442
 33
0.0
  0
MTEXT
  5
4EC
330
4E4
100
AcDbEntity
  8
AM_5
 62
     2
100
AcDbMText
 10
785.357819406323
 20
93.08479987524483
 30
0.0
 40
10.0
 41
0.0
 71
     5
 72
     1
  1
84
 11
0.0000000000000001
 21
1.0
 31
0.0
 73
     1
 44
1.0
1001
ACAD
1000
MTEXTBEGIN
1070
    73
1070
     1
1070
    44
1040
1.0
1070
    74
1070
     0
1000
MTEXTEND
  0
POINT
  5
4ED
330
4E4
100
AcDbEntity
  8
Defpoints
 62
     0
100
AcDbPoint
 10
720.5885714072356
 20
51.08479987524515
 30
0.0
  0
POINT
  5
4EE
330
4E4
100
AcDbEntity
  8
Defpoints
 62
     0
100
AcDbPoint
 10
722.7874285503403
 20
135.0847998752442
 30
0.0
  0
POINT
  5
4EF
330
4E4
100
AcDbEntity
  8
Defpoints
 62
     0
100
AcDbPoint
 10
791.8578194063229
 20
135.0847998752442
 30
0.0
  0
ENDBLK
  5
4E6
330
4E4
100
AcDbEntity
  8
0
100
AcDbBlockEnd
  0
BLOCK
  5
4F1
330
4F0
100
AcDbEntity
  8
0
100
AcDbBlockBegin
  2
*D11
 70
     1
 10
0.0
 20
0.0
 30
0.0
  3
*D11
  1

  0
LINE
  5
4F3
330
4F0
100
AcDbEntity
  8
AM_5
  6
ByBlock
100
AcDbLine
 10
753.5702856934549
 20
26.58479987524425
 30
0.0
 11
828.7545693465835
 21
26.58479987524422
 31
0.0
  0
LINE
  5
4F4
330
4F0
100
AcDbEntity
  8
AM_5
  6
ByBlock
100
AcDbLine
 10
753.5702856934549
 20
159.5847998752442
 30
0.0
 11
828.7545693465835
 21
159.5847998752442
 31
0.0
  0
LINE
  5
4F5
330
4F0
100
AcDbEntity
  8
AM_5
  6
ByBlock
100
AcDbLine
 10
827.7545693465835
 20
33.58479987524422
 30
0.0
 11
827.7545693465835
 21
152.5847998752442
 31
0.0
  0
SOLID
  5
4F6
330
4F0
100
AcDbEntity
  8
AM_5
100
AcDbTrace
 10
826.5879026799169
 20
33.58479987524422
 30
0.0
 11
828.9212360132502
 21
33.58479987524422
 31
0.0
 12
827.7545693465835
 22
26.58479987524422
 32
0.0
 13
827.7545693465835
 23
26.58479987524422
 33
0.0
  0
SOLID
  5
4F7
330
4F0
100
AcDbEntity
  8
AM_5
100
AcDbTrace
 10
826.5879026799169
 20
152.5847998752442
 30
0.0
 11
828.9212360132502
 21
152.5847998752442
 31
0.0
 12
827.7545693465835
 22
159.5847998752442
 32
0.0
 13
827.7545693465835
 23
159.5847998752442
 33
0.0
  0
MTEXT
  5
4F8
330
4F0
100
AcDbEntity
  8
AM_5
 62
     2
100
AcDbMText
 10
821.2545693465836
 20
93.08479987524435
 30
0.0
 40
10.0
 41
0.0
 71
     5
 72
     1
  1
133
 11
0.0000000000000001
 21
1.0
 31
0.0
 73
     1
 44
1.0
1001
ACAD
1000
MTEXTBEGIN
1070
    73
1070
     1
1070
    44
1040
1.0
1070
    74
1070
     0
1000
MTEXTEND
  0
POINT
  5
4F9
330
4F0
100
AcDbEntity
  8
Defpoints
 62
     0
100
AcDbPoint
 10
752.5702856934549
 20
26.58479987524425
 30
0.0
  0
POINT
  5
4FA
330
4F0
100
AcDbEntity
  8
Defpoints
 62
     0
100
AcDbPoint
 10
752.5702856934549
 20
159.5847998752442
 30
0.0
  0
POINT
  5
4FB
330
4F0
100
AcDbEntity
  8
Defpoints
 62
     0
100
AcDbPoint
 10
827.7545693465835
 20
159.5847998752442
 30
0.0
  0
ENDBLK
  5
4F2
330
4F0
100
AcDbEntity
  8
0
100
AcDbBlockEnd
  0
BLOCK
  5
4FD
330
4FC
100
AcDbEntity
  8
0
100
AcDbBlockBegin
  2
*D12
 70
     1
 10
0.0
 20
0.0
 30
0.0
  3
*D12
  1

  0
LINE
  5
C04
330
4FC
100
AcDbEntity
  8
AM_5
  6
ByBlock
100
AcDbLine
 10
722.7874285503403
 20
133.4622855893215
 30
0.0
 11
722.7874285503403
 21
204.4235498340731
 31
0.0
  0
LINE
  5
C05
330
4FC
100
AcDbEntity
  8
AM_5
  6
ByBlock
100
AcDbLine
 10
22.78742855034034
 20
133.4622855893215
 30
0.0
 11
22.78742855034034
 21
204.4235498340731
 31
0.0
  0
LINE
  5
C06
330
4FC
100
AcDbEntity
  8
AM_5
  6
ByBlock
100
AcDbLine
 10
715.7874285503403
 20
203.4235498340731
 30
0.0
 11
29.78742855034034
 21
203.4235498340731
 31
0.0
  0
SOLID
  5
C07
330
4FC
100
AcDbEntity
  8
AM_5
100
AcDbTrace
 10
715.7874285503403
 20
204.5902165007398
 30
0.0
 11
715.7874285503403
 21
202.2568831674065
 31
0.0
 12
722.7874285503403
 22
203.4235498340731
 32
0.0
 13
722.7874285503403
 23
203.4235498340731
 33
0.0
  0
SOLID
  5
C08
330
4FC
100
AcDbEntity
  8
AM_5
100
AcDbTrace
 10
29.78742855034034
 20
204.5902165007398
 30
0.0
 11
29.78742855034034
 21
202.2568831674065
 31
0.0
 12
22.78742855034034
 22
203.4235498340731
 32
0.0
 13
22.78742855034034
 23
203.4235498340731
 33
0.0
  0
MTEXT
  5
C09
330
4FC
100
AcDbEntity
  8
AM_5
 62
     2
100
AcDbMText
 10
376.5639905947773
 20
209.9235498340731
 30
0.0
 40
10.0
 41
0.0
 71
     5
 72
     1
  1
700
 73
     1
 44
1.0
1001
ACAD
1000
MTEXTBEGIN
1070
    73
1070
     1
1070
    44
1040
1.0
1070
    74
1070
     0
1000
MTEXTEND
  0
POINT
  5
C0A
330
4FC
100
AcDbEntity
  8
Defpoints
 62
     0
100
AcDbPoint
 10
722.7874285503403
 20
132.4622855893215
 30
0.0
  0
POINT
  5
C0B
330
4FC
100
AcDbEntity
  8
Defpoints
 62
     0
100
AcDbPoint
 10
22.78742855034034
 20
132.4622855893215
 30
0.0
  0
POINT
  5
C0C
330
4FC
100
AcDbEntity
  8
Defpoints
 62
     0
100
AcDbPoint
 10
22.78742855034034
 20
203.4235498340731
 30
0.0
  0
ENDBLK
  5
4FE
330
4FC
100
AcDbEntity
  8
0
100
AcDbBlockEnd
  0
BLOCK
  5
509
330
508
100
AcDbEntity
  8
0
100
AcDbBlockBegin
  2
*D13
 70
     1
 10
0.0
 20
0.0
 30
0.0
  3
*D13
  1

  0
LINE
  5
50B
330
508
100
AcDbEntity
  8
AM_5
  6
ByBlock
100
AcDbLine
 10
752.5702856934549
 20
154.4505713036913
 30
0.0
 11
752.5702856934549
 21
238.1819644763652
 31
0.0
  0
LINE
  5
50C
330
508
100
AcDbEntity
  8
AM_5
  6
ByBlock
100
AcDbLine
 10
-0.0000000209302015
 20
153.4508570180592
 30
0.0
 11
-0.0000000209301963
 21
238.1819644763652
 31
0.0
  0
LINE
  5
50D
330
508
100
AcDbEntity
  8
AM_5
  6
ByBlock
100
AcDbLine
 10
745.5702856934549
 20
237.1819644763653
 30
0.0
 11
6.999999979069803
 21
237.1819644763653
 31
0.0
  0
SOLID
  5
50E
330
508
100
AcDbEntity
  8
AM_5
100
AcDbTrace
 10
745.5702856934549
 20
238.3486311430319
 30
0.0
 11
745.5702856934549
 21
236.0152978096986
 31
0.0
 12
752.5702856934549
 22
237.1819644763653
 32
0.0
 13
752.5702856934549
 23
237.1819644763653
 33
0.0
  0
SOLID
  5
50F
330
508
100
AcDbEntity
  8
AM_5
100
AcDbTrace
 10
6.999999979069803
 20
238.3486311430319
 30
0.0
 11
6.999999979069803
 21
236.0152978096986
 31
0.0
 12
-0.0000000209301964
 22
237.1819644763653
 32
0.0
 13
-0.0000000209301964
 23
237.1819644763653
 33
0.0
  0
MTEXT
  5
510
330
508
100
AcDbEntity
  8
AM_5
 62
     2
100
AcDbMText
 10
376.2851428362623
 20
243.6819644763652
 30
0.0
 40
10.0
 41
0.0
 71
     5
 72
     1
  1
753
 73
     1
 44
1.0
1001
ACAD
1000
MTEXTBEGIN
1070
    73
1070
     1
1070
    44
1040
1.0
1070
    74
1070
     0
1000
MTEXTEND
  0
POINT
  5
511
330
508
100
AcDbEntity
  8
Defpoints
 62
     0
100
AcDbPoint
 10
752.5702856934549
 20
153.4505713036913
 30
0.0
  0
POINT
  5
512
330
508
100
AcDbEntity
  8
Defpoints
 62
     0
100
AcDbPoint
 10
-0.0000000209302016
 20
152.4508570180592
 30
0.0
  0
POINT
  5
513
330
508
100
AcDbEntity
  8
Defpoints
 62
     0
100
AcDbPoint
 10
-0.0000000209301964
 20
237.1819644763653
 30
0.0
  0
ENDBLK
  5
50A
330
508
100
AcDbEntity
  8
0
100
AcDbBlockEnd
  0
BLOCK
  5
516
330
515
100
AcDbEntity
  8
0
100
AcDbBlockBegin
  2
GENPOS14
 70
     2
 10
0.0
 20
0.0
 30
0.0
  3
GENPOS14
  1
GENPOS14
  0
ATTDEF
  5
517
330
515
100
AcDbEntity
  8
0
 62
     0
100
AcDbText
 10
0.0
 20
0.0
 30
0.0
 40
1.0
  1
1
100
AcDbAttributeDefinition
  3
Positionsnummer
  2
1GENPOS
 70
     1
1001
GENIUS_GENTRA_14
1002
{
1070
     3
1000
GENTRAPR,%s,(GENMSG gendwg 31)
1000
Positionsnummer
1000
D
1070
     0
1002
}
  0
ATTDEF
  5
518
330
515
100
AcDbEntity
  8
0
 62
     0
100
AcDbText
 10
0.0
 20
-1.5
 30
0.0
 40
1.0
  1
1
100
AcDbAttributeDefinition
  3
Menge
  2
2GENPOS
 70
     1
1001
GENIUS_GENTRA_14
1002
{
1070
     3
1000
GENTRAPR,%s,(GENMSG gendwg 32)
1000
Menge
1000
D
1070
     0
1002
}
  0
ATTDEF
  5
519
330
515
100
AcDbEntity
  8
0
 62
     0
100
AcDbText
 10
0.0
 20
-3.0
 30
0.0
 40
1.0
  1

100
AcDbAttributeDefinition
  3
Benennung
  2
5GENPOS
 70
     1
1001
GENIUS_GENTRA_14
1002
{
1070
     3
1000
GENTRAPR,%s,(GENMSG gendwg 35)
1000
Benennung
1000
D
1070
     0
1002
}
  0
ATTDEF
  5
51A
330
515
100
AcDbEntity
  8
0
 62
     0
100
AcDbText
 10
0.0
 20
-4.5
 30
0.0
 40
1.0
  1

100
AcDbAttributeDefinition
  3
Norm
  2
7GENPOS
 70
     1
1001
GENIUS_GENTRA_14
1002
{
1070
     3
1000
GENTRAPR,%s,(GENMSG gendwg 37)
1000
Norm
1000
D
1070
     0
1002
}
  0
ATTDEF
  5
51B
330
515
100
AcDbEntity
  8
0
 62
     0
100
AcDbText
 10
0.0
 20
-6.0
 30
0.0
 40
1.0
  1

100
AcDbAttributeDefinition
  3
Vorerzeugnis / Werkstoff
  2
9GENPOS
 70
     1
1001
GENIUS_GENTRA_14
1002
{
1070
     3
1000
GENTRAPR,%s,(GENMSG gendwg 39)
1000
Vorerzeugnis / Werkstoff
1000
D
1070
     0
1002
}
  0
ATTDEF
  5
51C
330
515
100
AcDbEntity
  8
0
 62
     0
100
AcDbText
 10
0.0
 20
-7.5
 30
0.0
 40
1.0
  1

100
AcDbAttributeDefinition
  3
Sach.-Nr.
  2
11GENPOS
 70
     1
1001
GENIUS_GENTRA_14
1002
{
1070
     3
1000
GENTRAPR,%s,(GENMSG gendwg 41)
1000
Sach.-Nr.
1000
D
1070
     0
1002
}
  0
ATTDEF
  5
51D
330
515
100
AcDbEntity
  8
0
 62
     0
100
AcDbText
 10
0.0
 20
-9.0
 30
0.0
 40
1.0
  1

100
AcDbAttributeDefinition
  3
Abmessungen
  2
14GENPOS
 70
     1
1001
GENIUS_GENTRA_14
1002
{
1070
     3
1000
GENTRAPR,%s,(GENMSG gendwg 44)
1000
Abmessungen
1000
D
1070
     0
1002
}
  0
ATTDEF
  5
51E
330
515
100
AcDbEntity
  8
0
 62
     0
100
AcDbText
 10
0.0
 20
-10.5
 30
0.0
 40
1.0
  1

100
AcDbAttributeDefinition
  3
1. sichtbare Attribut
  2
GENPOS14_VISIBLE1
 70
     1
1001
GENIUS_FIRSTVISTXT_14
1070
     1
1001
GENIUS_GENTRA_14
1002
{
1070
     3
1000
GENTRAPR,%s,(GENMSG gendwg 107)
1000
1. sichtbare Attribut
1000
D
1070
     0
1002
}
  0
ATTDEF
  5
51F
330
515
100
AcDbEntity
  8
0
 62
     0
100
AcDbText
 10
0.0
 20
-12.0
 30
0.0
 40
1.0
  1

100
AcDbAttributeDefinition
  3
2. sichtbare Attribut
  2
GENPOS14_VISIBLE2
 70
     1
1001
GENIUS_SECONDVISTXT_14
1070
     1
1001
GENIUS_GENTRA_14
1002
{
1070
     3
1000
GENTRAPR,%s,(GENMSG gendwg 108)
1000
2. sichtbare Attribut
1000
D
1070
     0
1002
}
  0
ENDBLK
  5
520
330
515
100
AcDbEntity
  8
0
100
AcDbBlockEnd
  0
BLOCK
  5
522
330
521
100
AcDbEntity
  8
0
100
AcDbBlockBegin
  2
*D15
 70
     1
 10
0.0
 20
0.0
 30
0.0
  3
*D15
  1

  0
LINE
  5
523
330
521
100
AcDbEntity
  8
5
  6
ByBlock
370
    -2
100
AcDbLine
 10
4082.499129752188
 20
1889.353426368758
 30
0.0
 11
4082.499129751727
 21
2227.251023332033
 31
0.0
  0
LINE
  5
524
330
521
100
AcDbEntity
  8
5
  6
ByBlock
370
    -2
100
AcDbLine
 10
3362.499129752191
 20
1889.35342636779
 30
0.0
 11
3362.49912975173
 21
2227.251023331051
 31
0.0
  0
LINE
  5
525
330
521
100
AcDbEntity
  8
5
  6
ByBlock
370
    -2
100
AcDbLine
 10
4032.499129751754
 20
2207.251023331965
 30
0.0
 11
3412.499129751757
 21
2207.251023331119
 31
0.0
  0
SOLID
  5
526
330
521
100
AcDbEntity
  8
5
  6
ByBlock
100
AcDbTrace
 10
4032.499129751744
 20
2215.584356665298
 30
0.0
 11
4032.499129751766
 21
2198.917689998632
 31
0.0
 12
4082.499129751755
 22
2207.251023332033
 32
0.0
 13
4082.499129751755
 23
2207.251023332033
 33
0.0
  0
SOLID
  5
527
330
521
100
AcDbEntity
  8
5
  6
ByBlock
100
AcDbTrace
 10
3412.499129751746
 20
2215.584356664453
 30
0.0
 11
3412.499129751768
 21
2198.917689997786
 31
0.0
 12
3362.499129751757
 22
2207.251023331051
 32
0.0
 13
3362.499129751757
 23
2207.251023331051
 33
0.0
  0
MTEXT
  5
528
330
521
100
AcDbEntity
  8
5
  6
ByBlock
 62
     2
100
AcDbMText
 10
3720.786696344273
 20
2254.257913095319
 30
0.0
 40
70.0
 41
0.0
 71
     5
 72
     1
  1
72
 73
     1
 44
1.0
1001
ACAD
1000
MTEXTBEGIN
1070
    73
1070
     1
1070
    44
1040
1.0
1070
    74
1070
     0
1000
MTEXTEND
  0
POINT
  5
529
330
521
100
AcDbEntity
  8
Defpoints
  6
ByBlock
 62
     0
100
AcDbPoint
 10
4082.499129752215
 20
1869.353426368759
 30
0.0
  0
POINT
  5
52A
330
521
100
AcDbEntity
  8
Defpoints
  6
ByBlock
 62
     0
100
AcDbPoint
 10
3362.499129752218
 20
1869.353426367791
 30
0.0
  0
POINT
  5
52B
330
521
100
AcDbEntity
  8
Defpoints
  6
ByBlock
 62
     0
100
AcDbPoint
 10
3362.499129751757
 20
2207.251023331051
 30
0.0
  0
ENDBLK
  5
52C
330
521
100
AcDbEntity
  8
0
100
AcDbBlockEnd
  0
BLOCK
  5
52E
330
52D
100
AcDbEntity
  8
0
100
AcDbBlockBegin
  2
*D16
 70
     1
 10
0.0
 20
0.0
 30
0.0
  3
*D16
  1

  0
LINE
  5
52F
330
52D
100
AcDbEntity
  8
5
370
    -2
100
AcDbLine
 10
4122.499129751881
 20
2096.089417333429
 30
0.0
 11
4122.499129751505
 21
2371.575655046468
 31
0.0
  0
LINE
  5
530
330
52D
100
AcDbEntity
  8
5
370
    -2
100
AcDbLine
 10
3322.499129751877
 20
2096.089417332362
 30
0.0
 11
3322.499129751501
 21
2371.575655045376
 31
0.0
  0
LINE
  5
531
330
52D
100
AcDbEntity
  8
5
370
    -2
100
AcDbLine
 10
4072.499129751532
 20
2351.575655046399
 30
0.0
 11
3372.499129751528
 21
2351.575655045444
 31
0.0
  0
SOLID
  5
532
330
52D
100
AcDbEntity
  8
5
100
AcDbTrace
 10
4072.499129751521
 20
2359.908988379733
 30
0.0
 11
4072.499129751544
 21
2343.242321713066
 31
0.0
 12
4122.499129751532
 22
2351.575655046468
 32
0.0
 13
4122.499129751532
 23
2351.575655046468
 33
0.0
  0
SOLID
  5
533
330
52D
100
AcDbEntity
  8
5
100
AcDbTrace
 10
3372.499129751517
 20
2359.908988378778
 30
0.0
 11
3372.49912975154
 21
2343.242321712111
 31
0.0
 12
3322.499129751528
 22
2351.575655045376
 32
0.0
 13
3322.499129751528
 23
2351.575655045376
 33
0.0
  0
MTEXT
  5
534
330
52D
100
AcDbEntity
  8
5
 62
     2
100
AcDbMText
 10
3722.499129751475
 20
2398.575655045922
 30
0.0
 40
70.0
 41
0.0
 71
     5
 72
     1
  1
80
 73
     1
 44
1.0
1001
ACAD
1000
MTEXTBEGIN
1070
    73
1070
     1
1070
    44
1040
1.0
1070
    74
1070
     0
1000
MTEXTEND
  0
POINT
  5
535
330
52D
100
AcDbEntity
  8
Defpoints
 62
     0
100
AcDbPoint
 10
4122.499129751908
 20
2076.089417333429
 30
0.0
  0
POINT
  5
536
330
52D
100
AcDbEntity
  8
Defpoints
 62
     0
100
AcDbPoint
 10
3322.499129751904
 20
2076.089417332362
 30
0.0
  0
POINT
  5
537
330
52D
100
AcDbEntity
  8
Defpoints
 62
     0
100
AcDbPoint
 10
3322.499129751528
 20
2351.575655045376
 30
0.0
  0
ENDBLK
  5
538
330
52D
100
AcDbEntity
  8
0
100
AcDbBlockEnd
  0
BLOCK
  5
53A
330
539
100
AcDbEntity
  8
0
100
AcDbBlockBegin
  2
*D17
 70
     1
 10
0.0
 20
0.0
 30
0.0
  3
*D17
  1

  0
LINE
  5
53B
330
539
100
AcDbEntity
  8
5
370
    -2
100
AcDbLine
 10
4122.499129750875
 20
2101.089417333323
 30
0.0
 11
4122.499129750589
 21
2311.089418333303
 31
0.0
  0
LINE
  5
53C
330
539
100
AcDbEntity
  8
5
370
    -2
100
AcDbLine
 10
4322.49912975138
 20
2471.089417333406
 30
0.0
 11
4322.499129751654
 21
2271.089418333576
 31
0.0
  0
LINE
  5
53D
330
539
100
AcDbEntity
  8
5
370
    -2
100
AcDbLine
 10
4172.499129750615
 20
2291.089418333371
 30
0.0
 11
4272.499129751626
 21
2291.089418333508
 31
0.0
  0
SOLID
  5
53E
330
539
100
AcDbEntity
  8
5
100
AcDbTrace
 10
4172.499129750605
 20
2299.422751666705
 30
0.0
 11
4172.499129750628
 21
2282.756085000038
 31
0.0
 12
4122.499129750615
 22
2291.089418333303
 32
0.0
 13
4122.499129750615
 23
2291.089418333303
 33
0.0
  0
SOLID
  5
53F
330
539
100
AcDbEntity
  8
5
100
AcDbTrace
 10
4272.499129751615
 20
2299.422751666841
 30
0.0
 11
4272.499129751638
 21
2282.756085000174
 31
0.0
 12
4322.499129751625
 22
2291.089418333576
 32
0.0
 13
4322.499129751625
 23
2291.089418333576
 33
0.0
  0
MTEXT
  5
540
330
539
100
AcDbEntity
  8
5
 62
     2
100
AcDbMText
 10
4222.499129751057
 20
2338.096308097219
 30
0.0
 40
70.0
 41
0.0
 71
     5
 72
     1
  1
20
 73
     1
 44
1.0
1001
ACAD
1000
MTEXTBEGIN
1070
    73
1070
     1
1070
    44
1040
1.0
1070
    74
1070
     0
1000
MTEXTEND
  0
POINT
  5
541
330
539
100
AcDbEntity
  8
Defpoints
 62
     0
100
AcDbPoint
 10
4122.499129750901
 20
2081.089417333323
 30
0.0
  0
POINT
  5
542
330
539
100
AcDbEntity
  8
Defpoints
 62
     0
100
AcDbPoint
 10
4322.499129751353
 20
2491.089417333406
 30
0.0
  0
POINT
  5
543
330
539
100
AcDbEntity
  8
Defpoints
 62
     0
100
AcDbPoint
 10
4322.499129751625
 20
2291.089418333576
 30
0.0
  0
ENDBLK
  5
544
330
539
100
AcDbEntity
  8
0
100
AcDbBlockEnd
  0
BLOCK
  5
546
330
545
100
AcDbEntity
  8
0
100
AcDbBlockBegin
  2
*D18
 70
     1
 10
0.0
 20
0.0
 30
0.0
  3
*D18
  1

  0
LINE
  5
547
330
545
100
AcDbEntity
  8
5
370
    -2
100
AcDbLine
 10
3287.49912975214
 20
2091.089417333402
 30
0.0
 11
2488.130418780684
 21
2091.089417333402
 31
0.0
  0
LINE
  5
548
330
545
100
AcDbEntity
  8
5
370
    -2
100
AcDbLine
 10
2663.747373675557
 20
1441.089417332569
 30
0.0
 11
2488.130418780684
 21
1441.089417332569
 31
0.0
  0
LINE
  5
549
330
545
100
AcDbEntity
  8
5
370
    -2
100
AcDbLine
 10
2508.130418780684
 20
2041.089417333402
 30
0.0
 11
2508.130418780684
 21
1491.089417332569
 31
0.0
  0
SOLID
  5
54A
330
545
100
AcDbEntity
  8
5
100
AcDbTrace
 10
2499.79708544735
 20
2041.089417333402
 30
0.0
 11
2516.463752114017
 21
2041.089417333402
 31
0.0
 12
2508.130418780684
 22
2091.089417333402
 32
0.0
 13
2508.130418780684
 23
2091.089417333402
 33
0.0
  0
SOLID
  5
54B
330
545
100
AcDbEntity
  8
5
100
AcDbTrace
 10
2499.79708544735
 20
1491.089417332569
 30
0.0
 11
2516.463752114017
 21
1491.089417332569
 31
0.0
 12
2508.130418780684
 22
1441.089417332569
 32
0.0
 13
2508.130418780684
 23
1441.089417332569
 33
0.0
  0
MTEXT
  5
54C
330
545
100
AcDbEntity
  8
5
 62
     2
100
AcDbMText
 10
2461.130418780684
 20
1816.922750666176
 30
0.0
 40
70.0
 41
0.0
 71
     5
 72
     1
  1
65
 11
0.0000000000000001
 21
1.0
 31
0.0
 73
     1
 44
1.0
1001
ACAD
1000
MTEXTBEGIN
1070
    73
1070
     1
1070
    44
1040
1.0
1070
    74
1070
     0
1000
MTEXTEND
  0
POINT
  5
54D
330
545
100
AcDbEntity
  8
Defpoints
 62
     0
100
AcDbPoint
 10
3307.499129752141
 20
2091.089417333402
 30
0.0
  0
POINT
  5
54E
330
545
100
AcDbEntity
  8
Defpoints
 62
     0
100
AcDbPoint
 10
2683.747373675557
 20
1441.089417332569
 30
0.0
  0
POINT
  5
54F
330
545
100
AcDbEntity
  8
Defpoints
 62
     0
100
AcDbPoint
 10
2508.130418780684
 20
1441.089417332569
 30
0.0
  0
ENDBLK
  5
550
330
545
100
AcDbEntity
  8
0
100
AcDbBlockEnd
  0
BLOCK
  5
552
330
551
100
AcDbEntity
  8
0
100
AcDbBlockBegin
  2
*D19
 70
     1
 10
0.0
 20
0.0
 30
0.0
  3
*D19
  1

  0
LINE
  5
553
330
551
100
AcDbEntity
  8
5
370
    -2
100
AcDbLine
 10
4342.499129751888
 20
2091.089417333405
 30
0.0
 11
4534.046589747907
 21
2091.089417333405
 31
0.0
  0
LINE
  5
554
330
551
100
AcDbEntity
  8
5
370
    -2
100
AcDbLine
 10
4352.499129751353
 20
2491.089417333419
 30
0.0
 11
4534.046589747907
 21
2491.089417333419
 31
0.0
  0
LINE
  5
555
330
551
100
AcDbEntity
  8
5
370
    -2
100
AcDbLine
 10
4514.046589747907
 20
2141.089417333406
 30
0.0
 11
4514.046589747907
 21
2441.089417333419
 31
0.0
  0
SOLID
  5
556
330
551
100
AcDbEntity
  8
5
100
AcDbTrace
 10
4505.713256414574
 20
2141.089417333406
 30
0.0
 11
4522.37992308124
 21
2141.089417333406
 31
0.0
 12
4514.046589747907
 22
2091.089417333405
 32
0.0
 13
4514.046589747907
 23
2091.089417333405
 33
0.0
  0
SOLID
  5
557
330
551
100
AcDbEntity
  8
5
100
AcDbTrace
 10
4505.713256414574
 20
2441.089417333419
 30
0.0
 11
4522.37992308124
 21
2441.089417333419
 31
0.0
 12
4514.046589747907
 22
2491.089417333419
 32
0.0
 13
4514.046589747907
 23
2491.089417333419
 33
0.0
  0
MTEXT
  5
558
330
551
100
AcDbEntity
  8
5
 62
     2
100
AcDbMText
 10
4467.046589747906
 20
2291.089417333662
 30
0.0
 40
70.0
 41
0.0
 71
     5
 72
     1
  1
40
 11
0.0000000000000001
 21
1.0
 31
0.0
 73
     1
 44
1.0
1001
ACAD
1000
MTEXTBEGIN
1070
    73
1070
     1
1070
    44
1040
1.0
1070
    74
1070
     0
1000
MTEXTEND
  0
POINT
  5
559
330
551
100
AcDbEntity
  8
Defpoints
 62
     0
100
AcDbPoint
 10
4322.499129751888
 20
2091.089417333405
 30
0.0
  0
POINT
  5
55A
330
551
100
AcDbEntity
  8
Defpoints
 62
     0
100
AcDbPoint
 10
4332.499129751353
 20
2491.089417333419
 30
0.0
  0
POINT
  5
55B
330
551
100
AcDbEntity
  8
Defpoints
 62
     0
100
AcDbPoint
 10
4514.046589747907
 20
2491.089417333419
 30
0.0
  0
ENDBLK
  5
55C
330
551
100
AcDbEntity
  8
0
100
AcDbBlockEnd
  0
BLOCK
  5
55E
330
55D
100
AcDbEntity
  8
0
100
AcDbBlockBegin
  2
*D20
 70
     1
 10
0.0
 20
0.0
 30
0.0
  3
*D20
  1

  0
LINE
  5
55F
330
55D
100
AcDbEntity
  8
5
370
    -2
100
AcDbLine
 10
4342.499129751888
 20
2091.089417333405
 30
0.0
 11
4534.046589748339
 21
2091.089417333405
 31
0.0
  0
LINE
  5
560
330
55D
100
AcDbEntity
  8
5
370
    -2
100
AcDbLine
 10
3742.499129752219
 20
1841.089417333403
 30
0.0
 11
4534.046589748339
 21
1841.089417333403
 31
0.0
  0
LINE
  5
561
330
55D
100
AcDbEntity
  8
5
370
    -2
100
AcDbLine
 10
4514.046589748339
 20
2041.089417333405
 30
0.0
 11
4514.046589748339
 21
1891.089417333403
 31
0.0
  0
SOLID
  5
562
330
55D
100
AcDbEntity
  8
5
100
AcDbTrace
 10
4505.713256415005
 20
2041.089417333405
 30
0.0
 11
4522.379923081672
 21
2041.089417333405
 31
0.0
 12
4514.04658974834
 22
2091.089417333405
 32
0.0
 13
4514.04658974834
 23
2091.089417333405
 33
0.0
  0
SOLID
  5
563
330
55D
100
AcDbEntity
  8
5
100
AcDbTrace
 10
4505.713256415005
 20
1891.089417333403
 30
0.0
 11
4522.379923081672
 21
1891.089417333403
 31
0.0
 12
4514.046589748339
 22
1841.089417333403
 32
0.0
 13
4514.046589748339
 23
1841.089417333403
 33
0.0
  0
MTEXT
  5
564
330
55D
100
AcDbEntity
  8
5
 62
     2
100
AcDbMText
 10
4467.039699984559
 20
1966.089417334183
 30
0.0
 40
70.0
 41
0.0
 71
     5
 72
     1
  1
25
 11
0.0000000000000001
 21
1.0
 31
0.0
 73
     1
 44
1.0
1001
ACAD
1000
MTEXTBEGIN
1070
    73
1070
     1
1070
    44
1040
1.0
1070
    74
1070
     0
1000
MTEXTEND
  0
POINT
  5
565
330
55D
100
AcDbEntity
  8
Defpoints
 62
     0
100
AcDbPoint
 10
4322.499129751888
 20
2091.089417333405
 30
0.0
  0
POINT
  5
566
330
55D
100
AcDbEntity
  8
Defpoints
 62
     0
100
AcDbPoint
 10
3722.49912975222
 20
1841.089417333403
 30
0.0
  0
POINT
  5
567
330
55D
100
AcDbEntity
  8
Defpoints
 62
     0
100
AcDbPoint
 10
4514.046589748339
 20
1841.089417333403
 30
0.0
  0
ENDBLK
  5
568
330
55D
100
AcDbEntity
  8
0
100
AcDbBlockEnd
  0
BLOCK
  5
56A
330
569
100
AcDbEntity
  8
0
100
AcDbBlockBegin
  2
*D21
 70
     1
 10
0.0
 20
0.0
 30
0.0
  3
*D21
  1

  0
ARC
  5
56B
330
569
100
AcDbEntity
  8
5
370
    -2
100
AcDbCircle
 10
3722.499129752197
 20
1857.756083999906
 30
0.0
 40
146.0280237356524
100
AcDbArc
 50
24.47883738071437
 51
155.5211626194386
  0
SOLID
  5
56C
330
569
100
AcDbEntity
  8
5
100
AcDbTrace
 10
3863.464797713187
 20
1920.367401653972
 30
0.0
 11
3847.337870014433
 21
1916.160267144963
 31
0.0
 12
3868.022737390839
 22
1869.883051303202
 32
0.0
 13
3868.022737390839
 23
1869.883051303202
 33
0.0
  0
SOLID
  5
56D
330
569
100
AcDbEntity
  8
5
100
AcDbTrace
 10
3597.660389489807
 20
1916.160267144629
 30
0.0
 11
3581.533461791042
 21
1920.367401653595
 31
0.0
 12
3576.975522113525
 22
1869.883051302813
 32
0.0
 13
3576.975522113525
 23
1869.883051302813
 33
0.0
  0
MTEXT
  5
56E
330
569
100
AcDbEntity
  8
5
 62
     2
100
AcDbMText
 10
3817.766911373668
 20
2025.636600237542
 30
0.0
 40
70.0
 41
0.0
 71
     5
 72
     1
  1
170\U+00B0
 11
0.8697209502986236
 21
-0.4935437859113
 31
0.0
 73
     1
 44
1.0
1001
ACAD
1000
MTEXTBEGIN
1070
    73
1070
     1
1070
    44
1040
1.0
1070
    74
1070
     0
1000
MTEXTEND
  0
POINT
  5
56F
330
569
100
AcDbEntity
  8
Defpoints
 62
     0
100
AcDbPoint
 10
3653.017497040877
 20
1986.194732513152
 30
0.0
  0
POINT
  5
570
330
569
100
AcDbEntity
  8
Defpoints
 62
     0
100
AcDbPoint
 10
3722.499129752197
 20
1857.756083999906
 30
0.0
  0
POINT
  5
571
330
569
100
AcDbEntity
  8
Defpoints
 62
     0
100
AcDbPoint
 10
3722.499129752197
 20
1857.756083999906
 30
0.0
  0
POINT
  5
572
330
569
100
AcDbEntity
  8
Defpoints
 62
     0
100
AcDbPoint
 10
3136.253447554849
 20
1906.609890848415
 30
0.0
  0
POINT
  5
573
330
569
100
AcDbEntity
  8
Defpoints
 62
     0
100
AcDbPoint
 10
4308.744811949415
 20
1906.60989084998
 30
0.0
  0
ENDBLK
  5
574
330
569
100
AcDbEntity
  8
0
100
AcDbBlockEnd
  0
BLOCK
  5
576
330
575
100
AcDbEntity
  8
0
100
AcDbBlockBegin
  2
*D22
 70
     1
 10
0.0
 20
0.0
 30
0.0
  3
*D22
  1

  0
LINE
  5
577
330
575
100
AcDbEntity
  8
5
370
    -2
100
AcDbLine
 10
4342.499129751888
 20
2091.089417333405
 30
0.0
 11
4671.897898375228
 21
2091.089417333405
 31
0.0
  0
LINE
  5
578
330
575
100
AcDbEntity
  8
5
370
    -2
100
AcDbLine
 10
4052.499129753356
 20
1021.089417333264
 30
0.0
 11
4671.897898375227
 21
1021.089417333264
 31
0.0
  0
LINE
  5
579
330
575
100
AcDbEntity
  8
5
370
    -2
100
AcDbLine
 10
4651.897898375227
 20
2041.089417333405
 30
0.0
 11
4651.897898375227
 21
1071.089417333264
 31
0.0
  0
SOLID
  5
57A
330
575
100
AcDbEntity
  8
5
100
AcDbTrace
 10
4643.564565041894
 20
2041.089417333405
 30
0.0
 11
4660.23123170856
 21
2041.089417333405
 31
0.0
 12
4651.897898375228
 22
2091.089417333405
 32
0.0
 13
4651.897898375228
 23
2091.089417333405
 33
0.0
  0
SOLID
  5
57B
330
575
100
AcDbEntity
  8
5
100
AcDbTrace
 10
4643.564565041894
 20
1071.089417333264
 30
0.0
 11
4660.23123170856
 21
1071.089417333264
 31
0.0
 12
4651.897898375227
 22
1021.089417333264
 32
0.0
 13
4651.897898375227
 23
1021.089417333264
 33
0.0
  0
MTEXT
  5
57C
330
575
100
AcDbEntity
  8
5
 62
     2
100
AcDbMText
 10
4604.897898375227
 20
1556.089417334091
 30
0.0
 40
70.0
 41
0.0
 71
     5
 72
     1
  1
107
 11
0.0000000000000001
 21
1.0
 31
0.0
 73
     1
 44
1.0
1001
ACAD
1000
MTEXTBEGIN
1070
    73
1070
     1
1070
    44
1040
1.0
1070
    74
1070
     0
1000
MTEXTEND
  0
POINT
  5
57D
330
575
100
AcDbEntity
  8
Defpoints
 62
     0
100
AcDbPoint
 10
4322.499129751888
 20
2091.089417333405
 30
0.0
  0
POINT
  5
57E
330
575
100
AcDbEntity
  8
Defpoints
 62
     0
100
AcDbPoint
 10
4032.499129753357
 20
1021.089417333264
 30
0.0
  0
POINT
  5
57F
330
575
100
AcDbEntity
  8
Defpoints
 62
     0
100
AcDbPoint
 10
4651.897898375227
 20
1021.089417333264
 30
0.0
  0
ENDBLK
  5
580
330
575
100
AcDbEntity
  8
0
100
AcDbBlockEnd
  0
BLOCK
  5
582
330
581
100
AcDbEntity
  8
0
100
AcDbBlockBegin
  2
*D23
 70
     1
 10
0.0
 20
0.0
 30
0.0
  3
*D23
  1

  0
LINE
  5
583
330
581
100
AcDbEntity
  8
5
  6
ByBlock
370
    -2
100
AcDbLine
 10
4102.499129753288
 20
1071.089417333358
 30
0.0
 11
4102.499129753628
 21
822.9820453391553
 31
0.0
  0
LINE
  5
584
330
581
100
AcDbEntity
  8
5
  6
ByBlock
370
    -2
100
AcDbLine
 10
3342.499129753272
 20
1071.089417332344
 30
0.0
 11
3342.499129753611
 21
822.9820453381185
 31
0.0
  0
LINE
  5
585
330
581
100
AcDbEntity
  8
5
  6
ByBlock
370
    -2
100
AcDbLine
 10
4052.4991297536
 20
842.982045339087
 30
0.0
 11
3392.499129753583
 21
842.9820453381866
 31
0.0
  0
SOLID
  5
586
330
581
100
AcDbEntity
  8
5
  6
ByBlock
100
AcDbTrace
 10
4052.499129753589
 20
851.3153786724204
 30
0.0
 11
4052.499129753612
 21
834.6487120057537
 31
0.0
 12
4102.499129753601
 22
842.9820453391553
 32
0.0
 13
4102.499129753601
 23
842.9820453391553
 33
0.0
  0
SOLID
  5
587
330
581
100
AcDbEntity
  8
5
  6
ByBlock
100
AcDbTrace
 10
3392.499129753572
 20
851.31537867152
 30
0.0
 11
3392.499129753595
 21
834.6487120048532
 31
0.0
 12
3342.499129753583
 22
842.9820453381184
 32
0.0
 13
3342.499129753583
 23
842.9820453381184
 33
0.0
  0
MTEXT
  5
588
330
581
100
AcDbEntity
  8
5
  6
ByBlock
 62
     2
100
AcDbMText
 10
3722.499129753528
 20
889.9820453386368
 30
0.0
 40
70.0
 41
0.0
 71
     5
 72
     1
  1
%%c 75
 73
     1
 44
1.0
1001
ACAD
1000
MTEXTBEGIN
1070
    73
1070
     1
1070
    44
1040
1.0
1070
    74
1070
     0
1000
MTEXTEND
  0
POINT
  5
589
330
581
100
AcDbEntity
  8
Defpoints
  6
ByBlock
 62
     0
100
AcDbPoint
 10
4102.499129753261
 20
1091.089417333358
 30
0.0
  0
POINT
  5
58A
330
581
100
AcDbEntity
  8
Defpoints
  6
ByBlock
 62
     0
100
AcDbPoint
 10
3342.499129753245
 20
1091.089417332344
 30
0.0
  0
POINT
  5
58B
330
581
100
AcDbEntity
  8
Defpoints
  6
ByBlock
 62
     0
100
AcDbPoint
 10
3342.499129753583
 20
842.9820453381184
 30
0.0
  0
ENDBLK
  5
58C
330
581
100
AcDbEntity
  8
0
100
AcDbBlockEnd
  0
BLOCK
  5
58E
330
58D
100
AcDbEntity
  8
0
100
AcDbBlockBegin
  2
*D24
 70
     1
 10
0.0
 20
0.0
 30
0.0
  3
*D24
  1

  0
LINE
  5
58F
330
58D
100
AcDbEntity
  8
5
370
    -2
100
AcDbLine
 10
3327.499129752141
 20
2091.089417333401
 30
0.0
 11
3464.127116378747
 21
2091.089417333401
 31
0.0
  0
LINE
  5
590
330
58D
100
AcDbEntity
  8
5
370
    -2
100
AcDbLine
 10
3346.460895451688
 20
1894.734768221049
 30
0.0
 11
3464.127116378747
 21
1894.734768221049
 31
0.0
  0
LINE
  5
591
330
58D
100
AcDbEntity
  8
5
370
    -2
100
AcDbLine
 10
3444.127116378747
 20
2041.089417333401
 30
0.0
 11
3444.127116378747
 21
1944.734768221049
 31
0.0
  0
SOLID
  5
592
330
58D
100
AcDbEntity
  8
5
100
AcDbTrace
 10
3435.793783045414
 20
2041.089417333401
 30
0.0
 11
3452.460449712081
 21
2041.089417333401
 31
0.0
 12
3444.127116378747
 22
2091.089417333401
 32
0.0
 13
3444.127116378747
 23
2091.089417333401
 33
0.0
  0
SOLID
  5
593
330
58D
100
AcDbEntity
  8
5
100
AcDbTrace
 10
3435.793783045414
 20
1944.734768221049
 30
0.0
 11
3452.460449712081
 21
1944.734768221049
 31
0.0
 12
3444.127116378747
 22
1894.734768221049
 32
0.0
 13
3444.127116378747
 23
1894.734768221049
 33
0.0
  0
MTEXT
  5
594
330
58D
100
AcDbEntity
  8
5
 62
     2
100
AcDbMText
 10
3397.120226614968
 20
1990.516320757953
 30
0.0
 40
70.0
 41
0.0
 71
     5
 72
     1
  1
20
 11
0.0000000000000001
 21
1.0
 31
0.0
 73
     1
 44
1.0
1001
ACAD
1000
MTEXTBEGIN
1070
    73
1070
     1
1070
    44
1040
1.0
1070
    74
1070
     0
1000
MTEXTEND
  0
POINT
  5
595
330
58D
100
AcDbEntity
  8
Defpoints
 62
     0
100
AcDbPoint
 10
3307.499129752141
 20
2091.089417333401
 30
0.0
  0
POINT
  5
596
330
58D
100
AcDbEntity
  8
Defpoints
 62
     0
100
AcDbPoint
 10
3326.460895451689
 20
1894.734768221049
 30
0.0
  0
POINT
  5
597
330
58D
100
AcDbEntity
  8
Defpoints
 62
     0
100
AcDbPoint
 10
3444.127116378747
 20
1894.734768221049
 30
0.0
  0
ENDBLK
  5
598
330
58D
100
AcDbEntity
  8
0
100
AcDbBlockEnd
  0
BLOCK
  5
59A
330
599
100
AcDbEntity
  8
0
100
AcDbBlockBegin
  2
*D25
 70
     1
 10
0.0
 20
0.0
 30
0.0
  3
*D25
  1

  0
LINE
  5
59B
330
599
100
AcDbEntity
  8
5
370
    -2
100
AcDbLine
 10
2737.499129752454
 20
1691.089417332667
 30
0.0
 11
2543.130418780684
 21
1691.089417332667
 31
0.0
  0
LINE
  5
59C
330
599
100
AcDbEntity
  8
5
370
    -2
100
AcDbLine
 10
2737.499129753114
 20
1191.089417332668
 30
0.0
 11
2317.490032436726
 21
1191.089417332668
 31
0.0
  0
LINE
  5
59D
330
599
100
AcDbEntity
  8
5
370
    -2
100
AcDbLine
 10
2337.490032436726
 20
1641.089417332667
 30
0.0
 11
2337.490032436726
 21
1241.089417332668
 31
0.0
  0
SOLID
  5
59E
330
599
100
AcDbEntity
  8
5
100
AcDbTrace
 10
2329.156699103392
 20
1641.089417332667
 30
0.0
 11
2345.823365770059
 21
1641.089417332667
 31
0.0
 12
2337.490032436726
 22
1691.089417332667
 32
0.0
 13
2337.490032436726
 23
1691.089417332667
 33
0.0
  0
SOLID
  5
59F
330
599
100
AcDbEntity
  8
5
100
AcDbTrace
 10
2329.156699103392
 20
1241.089417332668
 30
0.0
 11
2345.823365770059
 21
1241.089417332668
 31
0.0
 12
2337.490032436726
 22
1191.089417332668
 32
0.0
 13
2337.490032436726
 23
1191.089417332668
 33
0.0
  0
MTEXT
  5
5A0
330
599
100
AcDbEntity
  8
5
 62
     2
100
AcDbMText
 10
2290.490032436725
 20
1439.83941733212
 30
0.0
 40
70.0
 41
0.0
 71
     5
 72
     1
  1
%%c 50
 11
0.0000000000000001
 21
1.0
 31
0.0
 73
     1
 44
1.0
1001
ACAD
1000
MTEXTBEGIN
1070
    73
1070
     1
1070
    44
1040
1.0
1070
    74
1070
     0
1000
MTEXTEND
  0
POINT
  5
5A1
330
599
100
AcDbEntity
  8
Defpoints
 62
     0
100
AcDbPoint
 10
2757.499129752453
 20
1691.089417332667
 30
0.0
  0
POINT
  5
5A2
330
599
100
AcDbEntity
  8
Defpoints
 62
     0
100
AcDbPoint
 10
2757.499129753114
 20
1191.089417332668
 30
0.0
  0
POINT
  5
5A3
330
599
100
AcDbEntity
  8
Defpoints
 62
     0
100
AcDbPoint
 10
2337.490032436726
 20
1191.089417332668
 30
0.0
  0
LINE
  5
5A4
330
599
100
AcDbEntity
  8
5
370
    -2
100
AcDbLine
 10
2473.130418780684
 20
1691.089417332667
 30
0.0
 11
2317.490032436726
 21
1691.089417332667
 31
0.0
  0
ENDBLK
  5
5A5
330
599
100
AcDbEntity
  8
0
100
AcDbBlockEnd
  0
BLOCK
  5
5A7
330
5A6
100
AcDbEntity
  8
0
100
AcDbBlockBegin
  2
*D26
 70
     1
 10
0.0
 20
0.0
 30
0.0
  3
*D26
  1

  0
LINE
  5
5A8
330
5A6
100
AcDbEntity
  8
5
  6
ByBlock
370
    -2
100
AcDbLine
 10
2982.499129752226
 20
1941.089417331617
 30
0.0
 11
2873.301146893393
 21
1941.089417331617
 31
0.0
  0
LINE
  5
5A9
330
5A6
100
AcDbEntity
  8
5
  6
ByBlock
370
    -2
100
AcDbLine
 10
2982.499129752219
 20
1931.089417331608
 30
0.0
 11
2873.301146893393
 21
1931.089417331608
 31
0.0
  0
LINE
  5
5AA
330
5A6
100
AcDbEntity
  8
5
  6
ByBlock
370
    -2
100
AcDbLine
 10
2893.301146893393
 20
1991.089417331617
 30
0.0
 11
2893.301146893393
 21
2041.089417331617
 31
0.0
  0
LINE
  5
5AB
330
5A6
100
AcDbEntity
  8
5
  6
ByBlock
370
    -2
100
AcDbLine
 10
2893.301146893393
 20
1881.089417331608
 30
0.0
 11
2893.301146893393
 21
1793.089417331608
 31
0.0
  0
LINE
  5
5AC
330
5A6
100
AcDbEntity
  8
5
  6
ByBlock
370
    -2
100
AcDbLine
 10
2893.301146893393
 20
1941.089417331617
 30
0.0
 11
2893.301146893393
 21
1931.089417331608
 31
0.0
  0
SOLID
  5
5AD
330
5A6
100
AcDbEntity
  8
5
  6
ByBlock
100
AcDbTrace
 10
2884.967813560059
 20
1991.089417331617
 30
0.0
 11
2901.634480226726
 21
1991.089417331617
 31
0.0
 12
2893.301146893393
 22
1941.089417331617
 32
0.0
 13
2893.301146893393
 23
1941.089417331617
 33
0.0
  0
SOLID
  5
5AE
330
5A6
100
AcDbEntity
  8
5
  6
ByBlock
100
AcDbTrace
 10
2884.967813560059
 20
1881.089417331608
 30
0.0
 11
2901.634480226726
 21
1881.089417331608
 31
0.0
 12
2893.301146893393
 22
1931.089417331608
 32
0.0
 13
2893.301146893393
 23
1931.089417331608
 33
0.0
  0
MTEXT
  5
5AF
330
5A6
100
AcDbEntity
  8
5
  6
ByBlock
 62
     2
100
AcDbMText
 10
2846.301146893392
 20
1812.089417331608
 30
0.0
 40
70.0
 41
0.0
 71
     5
 72
     1
  1
1
 11
0.0000000000000001
 21
1.0
 31
0.0
 73
     1
 44
1.0
1001
ACAD
1000
MTEXTBEGIN
1070
    73
1070
     1
1070
    44
1040
1.0
1070
    74
1070
     0
1000
MTEXTEND
  0
POINT
  5
5B0
330
5A6
100
AcDbEntity
  8
Defpoints
  6
ByBlock
 62
     0
100
AcDbPoint
 10
3002.499129752226
 20
1941.089417331617
 30
0.0
  0
POINT
  5
5B1
330
5A6
100
AcDbEntity
  8
Defpoints
  6
ByBlock
 62
     0
100
AcDbPoint
 10
3002.499129752219
 20
1931.089417331608
 30
0.0
  0
POINT
  5
5B2
330
5A6
100
AcDbEntity
  8
Defpoints
  6
ByBlock
 62
     0
100
AcDbPoint
 10
2893.301146893393
 20
1931.089417331608
 30
0.0
  0
ENDBLK
  5
5B3
330
5A6
100
AcDbEntity
  8
0
100
AcDbBlockEnd
  0
BLOCK
  5
5B5
330
5B4
100
AcDbEntity
  8
0
100
AcDbBlockBegin
  2
*D27
 70
     1
 10
0.0
 20
0.0
 30
0.0
  3
*D27
  1

  0
LINE
  5
5B6
330
5B4
100
AcDbEntity
  8
5
  6
ByBlock
370
    -2
100
AcDbLine
 10
3302.499129752009
 20
2036.089417332811
 30
0.0
 11
3302.49912975164
 21
2305.956678885709
 31
0.0
  0
LINE
  5
5B7
330
5B4
100
AcDbEntity
  8
5
  6
ByBlock
370
    -2
100
AcDbLine
 10
3002.499129752199
 20
1961.089417331617
 30
0.0
 11
3002.499129751728
 21
2305.9566788853
 31
0.0
  0
LINE
  5
5B8
330
5B4
100
AcDbEntity
  8
5
  6
ByBlock
370
    -2
100
AcDbLine
 10
3252.499129751668
 20
2285.956678885641
 30
0.0
 11
3052.499129751756
 21
2285.956678885368
 31
0.0
  0
SOLID
  5
5B9
330
5B4
100
AcDbEntity
  8
5
  6
ByBlock
100
AcDbTrace
 10
3252.499129751657
 20
2294.290012218974
 30
0.0
 11
3252.499129751679
 21
2277.623345552308
 31
0.0
 12
3302.499129751668
 22
2285.956678885709
 32
0.0
 13
3302.499129751668
 23
2285.956678885709
 33
0.0
  0
SOLID
  5
5BA
330
5B4
100
AcDbEntity
  8
5
  6
ByBlock
100
AcDbTrace
 10
3052.499129751744
 20
2294.290012218702
 30
0.0
 11
3052.499129751767
 21
2277.623345552035
 31
0.0
 12
3002.499129751756
 22
2285.9566788853
 32
0.0
 13
3002.499129751756
 23
2285.9566788853
 33
0.0
  0
MTEXT
  5
5BB
330
5B4
100
AcDbEntity
  8
5
  6
ByBlock
 62
     2
100
AcDbMText
 10
3152.499129751648
 20
2332.956678885505
 30
0.0
 40
70.0
 41
0.0
 71
     5
 72
     1
  1
30
 73
     1
 44
1.0
1001
ACAD
1000
MTEXTBEGIN
1070
    73
1070
     1
1070
    44
1040
1.0
1070
    74
1070
     0
1000
MTEXTEND
  0
POINT
  5
5BC
330
5B4
100
AcDbEntity
  8
Defpoints
  6
ByBlock
 62
     0
100
AcDbPoint
 10
3302.499129752036
 20
2016.08941733281
 30
0.0
  0
POINT
  5
5BD
330
5B4
100
AcDbEntity
  8
Defpoints
  6
ByBlock
 62
     0
100
AcDbPoint
 10
3002.499129752226
 20
1941.089417331617
 30
0.0
  0
POINT
  5
5BE
330
5B4
100
AcDbEntity
  8
Defpoints
  6
ByBlock
 62
     0
100
AcDbPoint
 10
3002.499129751756
 20
2285.9566788853
 30
0.0
  0
ENDBLK
  5
5BF
330
5B4
100
AcDbEntity
  8
0
100
AcDbBlockEnd
  0
BLOCK
  5
5C1
330
5C0
100
AcDbEntity
  8
0
100
AcDbBlockBegin
  2
*D28
 70
     1
 10
0.0
 20
0.0
 30
0.0
  3
*D28
  1

  0
LINE
  5
5C2
330
5C0
100
AcDbEntity
  8
5
  6
ByBlock
370
    -2
100
AcDbLine
 10
3292.499129752002
 20
2091.089417333206
 30
0.0
 11
2678.557333191151
 21
2091.089417333207
 31
0.0
  0
LINE
  5
5C3
330
5C0
100
AcDbEntity
  8
5
  6
ByBlock
370
    -2
100
AcDbLine
 10
2982.499129752206
 20
1941.089417331617
 30
0.0
 11
2678.557333191151
 21
1941.089417331617
 31
0.0
  0
LINE
  5
5C4
330
5C0
100
AcDbEntity
  8
5
  6
ByBlock
370
    -2
100
AcDbLine
 10
2698.557333191151
 20
2041.089417333207
 30
0.0
 11
2698.557333191151
 21
1991.089417331617
 31
0.0
  0
SOLID
  5
5C5
330
5C0
100
AcDbEntity
  8
5
  6
ByBlock
100
AcDbTrace
 10
2690.223999857817
 20
2041.089417333207
 30
0.0
 11
2706.890666524484
 21
2041.089417333207
 31
0.0
 12
2698.557333191151
 22
2091.089417333207
 32
0.0
 13
2698.557333191151
 23
2091.089417333207
 33
0.0
  0
SOLID
  5
5C6
330
5C0
100
AcDbEntity
  8
5
  6
ByBlock
100
AcDbTrace
 10
2690.223999857817
 20
1991.089417331617
 30
0.0
 11
2706.890666524484
 21
1991.089417331617
 31
0.0
 12
2698.557333191151
 22
1941.089417331617
 32
0.0
 13
2698.557333191151
 23
1941.089417331617
 33
0.0
  0
MTEXT
  5
5C7
330
5C0
100
AcDbEntity
  8
5
  6
ByBlock
 62
     2
100
AcDbMText
 10
2651.55733319115
 20
2016.089417332413
 30
0.0
 40
70.0
 41
0.0
 71
     5
 72
     1
  1
15
 11
0.0000000000000001
 21
1.0
 31
0.0
 73
     1
 44
1.0
1001
ACAD
1000
MTEXTBEGIN
1070
    73
1070
     1
1070
    44
1040
1.0
1070
    74
1070
     0
1000
MTEXTEND
  0
POINT
  5
5C8
330
5C0
100
AcDbEntity
  8
Defpoints
  6
ByBlock
 62
     0
100
AcDbPoint
 10
3312.499129752003
 20
2091.089417333206
 30
0.0
  0
POINT
  5
5C9
330
5C0
100
AcDbEntity
  8
Defpoints
  6
ByBlock
 62
     0
100
AcDbPoint
 10
3002.499129752206
 20
1941.089417331617
 30
0.0
  0
POINT
  5
5CA
330
5C0
100
AcDbEntity
  8
Defpoints
  6
ByBlock
 62
     0
100
AcDbPoint
 10
2698.557333191151
 20
1941.089417331617
 30
0.0
  0
ENDBLK
  5
5CB
330
5C0
100
AcDbEntity
  8
0
100
AcDbBlockEnd
  0
BLOCK
  5
6F3
330
6F2
100
AcDbEntity
  8
0
100
AcDbBlockBegin
  2
*D30
 70
     1
 10
0.0
 20
0.0
 30
0.0
  3
*D30
  1

  0
LINE
  5
6F5
330
6F2
100
AcDbEntity
  8
5
  6
ByBlock
370
    -2
100
AcDbLine
 10
3634.96721452776
 20
974.3659667645477
 30
0.0
 11
3634.967214527299
 21
1312.263563727822
 31
0.0
  0
LINE
  5
6F6
330
6F2
100
AcDbEntity
  8
5
  6
ByBlock
370
    -2
100
AcDbLine
 10
2914.967214527762
 20
974.3659667635794
 30
0.0
 11
2914.967214527301
 21
1312.26356372684
 31
0.0
  0
LINE
  5
6F7
330
6F2
100
AcDbEntity
  8
5
  6
ByBlock
370
    -2
100
AcDbLine
 10
3584.967214527326
 20
1292.263563727753
 30
0.0
 11
2964.967214527328
 21
1292.263563726908
 31
0.0
  0
SOLID
  5
6F8
330
6F2
100
AcDbEntity
  8
5
  6
ByBlock
100
AcDbTrace
 10
3584.967214527315
 20
1300.596897061087
 30
0.0
 11
3584.967214527337
 21
1283.93023039442
 31
0.0
 12
3634.967214527326
 22
1292.263563727822
 32
0.0
 13
3634.967214527326
 23
1292.263563727822
 33
0.0
  0
SOLID
  5
6F9
330
6F2
100
AcDbEntity
  8
5
  6
ByBlock
100
AcDbTrace
 10
2964.967214527317
 20
1300.596897060241
 30
0.0
 11
2964.967214527339
 21
1283.930230393575
 31
0.0
 12
2914.967214527328
 22
1292.26356372684
 32
0.0
 13
2914.967214527328
 23
1292.26356372684
 33
0.0
  0
MTEXT
  5
6FA
330
6F2
100
AcDbEntity
  8
5
  6
ByBlock
 62
     2
100
AcDbMText
 10
3273.254781119844
 20
1339.270453491108
 30
0.0
 40
70.0
 41
0.0
 71
     5
 72
     1
  1
72
 73
     1
 44
1.0
1001
ACAD
1000
MTEXTBEGIN
1070
    73
1070
     1
1070
    44
1040
1.0
1070
    74
1070
     0
1000
MTEXTEND
  0
POINT
  5
6FB
330
6F2
100
AcDbEntity
  8
Defpoints
  6
ByBlock
 62
     0
100
AcDbPoint
 10
3634.967214527787
 20
954.3659667645476
 30
0.0
  0
POINT
  5
6FC
330
6F2
100
AcDbEntity
  8
Defpoints
  6
ByBlock
 62
     0
100
AcDbPoint
 10
2914.967214527789
 20
954.3659667635795
 30
0.0
  0
POINT
  5
6FD
330
6F2
100
AcDbEntity
  8
Defpoints
  6
ByBlock
 62
     0
100
AcDbPoint
 10
2914.967214527328
 20
1292.26356372684
 30
0.0
  0
ENDBLK
  5
6F4
330
6F2
100
AcDbEntity
  8
0
100
AcDbBlockEnd
  0
BLOCK
  5
6FF
330
6FE
100
AcDbEntity
  8
0
100
AcDbBlockBegin
  2
*D31
 70
     1
 10
0.0
 20
0.0
 30
0.0
  3
*D31
  1

  0
LINE
  5
701
330
6FE
100
AcDbEntity
  8
5
370
    -2
100
AcDbLine
 10
3674.967214527452
 20
1181.101957729218
 30
0.0
 11
3674.967214527077
 21
1456.588195442256
 31
0.0
  0
LINE
  5
702
330
6FE
100
AcDbEntity
  8
5
370
    -2
100
AcDbLine
 10
2874.967214527448
 20
1181.10195772815
 30
0.0
 11
2874.967214527072
 21
1456.588195441165
 31
0.0
  0
LINE
  5
703
330
6FE
100
AcDbEntity
  8
5
370
    -2
100
AcDbLine
 10
3624.967214527103
 20
1436.588195442188
 30
0.0
 11
2924.967214527099
 21
1436.588195441233
 31
0.0
  0
SOLID
  5
704
330
6FE
100
AcDbEntity
  8
5
100
AcDbTrace
 10
3624.967214527092
 20
1444.921528775521
 30
0.0
 11
3624.967214527115
 21
1428.254862108855
 31
0.0
 12
3674.967214527104
 22
1436.588195442256
 32
0.0
 13
3674.967214527104
 23
1436.588195442256
 33
0.0
  0
SOLID
  5
705
330
6FE
100
AcDbEntity
  8
5
100
AcDbTrace
 10
2924.967214527088
 20
1444.921528774566
 30
0.0
 11
2924.967214527111
 21
1428.2548621079
 31
0.0
 12
2874.967214527099
 22
1436.588195441165
 32
0.0
 13
2874.967214527099
 23
1436.588195441165
 33
0.0
  0
MTEXT
  5
706
330
6FE
100
AcDbEntity
  8
5
 62
     2
100
AcDbMText
 10
3274.967214527046
 20
1483.588195441711
 30
0.0
 40
70.0
 41
0.0
 71
     5
 72
     1
  1
80
 73
     1
 44
1.0
1001
ACAD
1000
MTEXTBEGIN
1070
    73
1070
     1
1070
    44
1040
1.0
1070
    74
1070
     0
1000
MTEXTEND
  0
POINT
  5
707
330
6FE
100
AcDbEntity
  8
Defpoints
 62
     0
100
AcDbPoint
 10
3674.967214527479
 20
1161.101957729218
 30
0.0
  0
POINT
  5
708
330
6FE
100
AcDbEntity
  8
Defpoints
 62
     0
100
AcDbPoint
 10
2874.967214527476
 20
1161.10195772815
 30
0.0
  0
POINT
  5
709
330
6FE
100
AcDbEntity
  8
Defpoints
 62
     0
100
AcDbPoint
 10
2874.967214527099
 20
1436.588195441165
 30
0.0
  0
ENDBLK
  5
700
330
6FE
100
AcDbEntity
  8
0
100
AcDbBlockEnd
  0
BLOCK
  5
70B
330
70A
100
AcDbEntity
  8
0
100
AcDbBlockBegin
  2
*D32
 70
     1
 10
0.0
 20
0.0
 30
0.0
  3
*D32
  1

  0
LINE
  5
70D
330
70A
100
AcDbEntity
  8
5
370
    -2
100
AcDbLine
 10
3674.967214526446
 20
1186.101957729112
 30
0.0
 11
3674.96721452616
 21
1396.101958729092
 31
0.0
  0
LINE
  5
70E
330
70A
100
AcDbEntity
  8
5
370
    -2
100
AcDbLine
 10
3874.967214526952
 20
1556.101957729194
 30
0.0
 11
3874.967214527225
 21
1356.101958729365
 31
0.0
  0
LINE
  5
70F
330
70A
100
AcDbEntity
  8
5
370
    -2
100
AcDbLine
 10
3724.967214526187
 20
1376.10195872916
 30
0.0
 11
3824.967214527197
 21
1376.101958729296
 31
0.0
  0
SOLID
  5
710
330
70A
100
AcDbEntity
  8
5
100
AcDbTrace
 10
3724.967214526176
 20
1384.435292062493
 30
0.0
 11
3724.967214526198
 21
1367.768625395827
 31
0.0
 12
3674.967214526187
 22
1376.101958729092
 32
0.0
 13
3674.967214526187
 23
1376.101958729092
 33
0.0
  0
SOLID
  5
711
330
70A
100
AcDbEntity
  8
5
100
AcDbTrace
 10
3824.967214527186
 20
1384.43529206263
 30
0.0
 11
3824.967214527209
 21
1367.768625395963
 31
0.0
 12
3874.967214527197
 22
1376.101958729365
 32
0.0
 13
3874.967214527197
 23
1376.101958729365
 33
0.0
  0
MTEXT
  5
712
330
70A
100
AcDbEntity
  8
5
 62
     2
100
AcDbMText
 10
3774.967214526628
 20
1423.108848493008
 30
0.0
 40
70.0
 41
0.0
 71
     5
 72
     1
  1
20
 73
     1
 44
1.0
1001
ACAD
1000
MTEXTBEGIN
1070
    73
1070
     1
1070
    44
1040
1.0
1070
    74
1070
     0
1000
MTEXTEND
  0
POINT
  5
713
330
70A
100
AcDbEntity
  8
Defpoints
 62
     0
100
AcDbPoint
 10
3674.967214526474
 20
1166.101957729112
 30
0.0
  0
POINT
  5
714
330
70A
100
AcDbEntity
  8
Defpoints
 62
     0
100
AcDbPoint
 10
3874.967214526924
 20
1576.101957729194
 30
0.0
  0
POINT
  5
715
330
70A
100
AcDbEntity
  8
Defpoints
 62
     0
100
AcDbPoint
 10
3874.967214527197
 20
1376.101958729365
 30
0.0
  0
ENDBLK
  5
70C
330
70A
100
AcDbEntity
  8
0
100
AcDbBlockEnd
  0
BLOCK
  5
717
330
716
100
AcDbEntity
  8
0
100
AcDbBlockBegin
  2
*D33
 70
     1
 10
0.0
 20
0.0
 30
0.0
  3
*D33
  1

  0
LINE
  5
719
330
716
100
AcDbEntity
  8
5
370
    -2
100
AcDbLine
 10
2839.967214527712
 20
1176.10195772919
 30
0.0
 11
2040.598503556255
 21
1176.101957729191
 31
0.0
  0
LINE
  5
71A
330
716
100
AcDbEntity
  8
5
370
    -2
100
AcDbLine
 10
2216.215458451128
 20
526.1019577283577
 30
0.0
 11
2040.598503556255
 21
526.1019577283577
 31
0.0
  0
LINE
  5
71B
330
716
100
AcDbEntity
  8
5
370
    -2
100
AcDbLine
 10
2060.598503556255
 20
1126.101957729191
 30
0.0
 11
2060.598503556255
 21
576.1019577283577
 31
0.0
  0
SOLID
  5
71C
330
716
100
AcDbEntity
  8
5
100
AcDbTrace
 10
2052.265170222922
 20
1126.101957729191
 30
0.0
 11
2068.931836889588
 21
1126.101957729191
 31
0.0
 12
2060.598503556255
 22
1176.101957729191
 32
0.0
 13
2060.598503556255
 23
1176.101957729191
 33
0.0
  0
SOLID
  5
71D
330
716
100
AcDbEntity
  8
5
100
AcDbTrace
 10
2052.265170222921
 20
576.1019577283577
 30
0.0
 11
2068.931836889588
 21
576.1019577283577
 31
0.0
 12
2060.598503556255
 22
526.1019577283577
 32
0.0
 13
2060.598503556255
 23
526.1019577283577
 33
0.0
  0
MTEXT
  5
71E
330
716
100
AcDbEntity
  8
5
 62
     2
100
AcDbMText
 10
2013.598503556254
 20
901.9352910619655
 30
0.0
 40
70.0
 41
0.0
 71
     5
 72
     1
  1
65
 11
0.0000000000000001
 21
1.0
 31
0.0
 73
     1
 44
1.0
1001
ACAD
1000
MTEXTBEGIN
1070
    73
1070
     1
1070
    44
1040
1.0
1070
    74
1070
     0
1000
MTEXTEND
  0
POINT
  5
71F
330
716
100
AcDbEntity
  8
Defpoints
 62
     0
100
AcDbPoint
 10
2859.967214527712
 20
1176.10195772919
 30
0.0
  0
POINT
  5
720
330
716
100
AcDbEntity
  8
Defpoints
 62
     0
100
AcDbPoint
 10
2236.215458451128
 20
526.1019577283577
 30
0.0
  0
POINT
  5
721
330
716
100
AcDbEntity
  8
Defpoints
 62
     0
100
AcDbPoint
 10
2060.598503556255
 20
526.1019577283577
 30
0.0
  0
ENDBLK
  5
718
330
716
100
AcDbEntity
  8
0
100
AcDbBlockEnd
  0
BLOCK
  5
723
330
722
100
AcDbEntity
  8
0
100
AcDbBlockBegin
  2
*D34
 70
     1
 10
0.0
 20
0.0
 30
0.0
  3
*D34
  1

  0
LINE
  5
725
330
722
100
AcDbEntity
  8
5
370
    -2
100
AcDbLine
 10
3894.96721452746
 20
1176.101957729194
 30
0.0
 11
4086.514674523478
 21
1176.101957729194
 31
0.0
  0
LINE
  5
726
330
722
100
AcDbEntity
  8
5
370
    -2
100
AcDbLine
 10
3904.967214526925
 20
1576.101957729208
 30
0.0
 11
4086.514674523478
 21
1576.101957729208
 31
0.0
  0
LINE
  5
727
330
722
100
AcDbEntity
  8
5
370
    -2
100
AcDbLine
 10
4066.514674523477
 20
1226.101957729194
 30
0.0
 11
4066.514674523477
 21
1526.101957729208
 31
0.0
  0
SOLID
  5
728
330
722
100
AcDbEntity
  8
5
100
AcDbTrace
 10
4058.181341190144
 20
1226.101957729194
 30
0.0
 11
4074.848007856811
 21
1226.101957729194
 31
0.0
 12
4066.514674523477
 22
1176.101957729194
 32
0.0
 13
4066.514674523477
 23
1176.101957729194
 33
0.0
  0
SOLID
  5
729
330
722
100
AcDbEntity
  8
5
100
AcDbTrace
 10
4058.181341190144
 20
1526.101957729208
 30
0.0
 11
4074.848007856811
 21
1526.101957729208
 31
0.0
 12
4066.514674523477
 22
1576.101957729208
 32
0.0
 13
4066.514674523477
 23
1576.101957729208
 33
0.0
  0
MTEXT
  5
72A
330
722
100
AcDbEntity
  8
5
 62
     2
100
AcDbMText
 10
4019.514674523477
 20
1376.101957729451
 30
0.0
 40
70.0
 41
0.0
 71
     5
 72
     1
  1
40
 11
0.0000000000000001
 21
1.0
 31
0.0
 73
     1
 44
1.0
1001
ACAD
1000
MTEXTBEGIN
1070
    73
1070
     1
1070
    44
1040
1.0
1070
    74
1070
     0
1000
MTEXTEND
  0
POINT
  5
72B
330
722
100
AcDbEntity
  8
Defpoints
 62
     0
100
AcDbPoint
 10
3874.96721452746
 20
1176.101957729194
 30
0.0
  0
POINT
  5
72C
330
722
100
AcDbEntity
  8
Defpoints
 62
     0
100
AcDbPoint
 10
3884.967214526925
 20
1576.101957729208
 30
0.0
  0
POINT
  5
72D
330
722
100
AcDbEntity
  8
Defpoints
 62
     0
100
AcDbPoint
 10
4066.514674523477
 20
1576.101957729208
 30
0.0
  0
ENDBLK
  5
724
330
722
100
AcDbEntity
  8
0
100
AcDbBlockEnd
  0
BLOCK
  5
72F
330
72E
100
AcDbEntity
  8
0
100
AcDbBlockBegin
  2
*D35
 70
     1
 10
0.0
 20
0.0
 30
0.0
  3
*D35
  1

  0
LINE
  5
731
330
72E
100
AcDbEntity
  8
5
370
    -2
100
AcDbLine
 10
3894.96721452746
 20
1176.101957729194
 30
0.0
 11
4086.51467452391
 21
1176.101957729194
 31
0.0
  0
LINE
  5
732
330
72E
100
AcDbEntity
  8
5
370
    -2
100
AcDbLine
 10
3294.967214527791
 20
926.1019577291921
 30
0.0
 11
4086.51467452391
 21
926.101957729192
 31
0.0
  0
LINE
  5
733
330
72E
100
AcDbEntity
  8
5
370
    -2
100
AcDbLine
 10
4066.514674523911
 20
1126.101957729194
 30
0.0
 11
4066.514674523911
 21
976.101957729192
 31
0.0
  0
SOLID
  5
734
330
72E
100
AcDbEntity
  8
5
100
AcDbTrace
 10
4058.181341190578
 20
1126.101957729194
 30
0.0
 11
4074.848007857243
 21
1126.101957729194
 31
0.0
 12
4066.514674523911
 22
1176.101957729194
 32
0.0
 13
4066.514674523911
 23
1176.101957729194
 33
0.0
  0
SOLID
  5
735
330
72E
100
AcDbEntity
  8
5
100
AcDbTrace
 10
4058.181341190577
 20
976.101957729192
 30
0.0
 11
4074.848007857243
 21
976.101957729192
 31
0.0
 12
4066.514674523911
 22
926.101957729192
 32
0.0
 13
4066.514674523911
 23
926.101957729192
 33
0.0
  0
MTEXT
  5
736
330
72E
100
AcDbEntity
  8
5
 62
     2
100
AcDbMText
 10
4019.507784760131
 20
1051.101957729972
 30
0.0
 40
70.0
 41
0.0
 71
     5
 72
     1
  1
25
 11
0.0000000000000001
 21
1.0
 31
0.0
 73
     1
 44
1.0
1001
ACAD
1000
MTEXTBEGIN
1070
    73
1070
     1
1070
    44
1040
1.0
1070
    74
1070
     0
1000
MTEXTEND
  0
POINT
  5
737
330
72E
100
AcDbEntity
  8
Defpoints
 62
     0
100
AcDbPoint
 10
3874.96721452746
 20
1176.101957729194
 30
0.0
  0
POINT
  5
738
330
72E
100
AcDbEntity
  8
Defpoints
 62
     0
100
AcDbPoint
 10
3274.967214527791
 20
926.1019577291921
 30
0.0
  0
POINT
  5
739
330
72E
100
AcDbEntity
  8
Defpoints
 62
     0
100
AcDbPoint
 10
4066.514674523911
 20
926.101957729192
 30
0.0
  0
ENDBLK
  5
730
330
72E
100
AcDbEntity
  8
0
100
AcDbBlockEnd
  0
BLOCK
  5
73B
330
73A
100
AcDbEntity
  8
0
100
AcDbBlockBegin
  2
*D36
 70
     1
 10
0.0
 20
0.0
 30
0.0
  3
*D36
  1

  0
ARC
  5
73D
330
73A
100
AcDbEntity
  8
5
370
    -2
100
AcDbCircle
 10
3274.967214527769
 20
942.7686243956948
 30
0.0
 40
146.028023735652
100
AcDbArc
 50
24.47883738071439
 51
155.5211626194385
  0
SOLID
  5
73E
330
73A
100
AcDbEntity
  8
5
100
AcDbTrace
 10
3415.932882488758
 20
1005.379942049761
 30
0.0
 11
3399.805954790003
 21
1001.172807540751
 31
0.0
 12
3420.490822166409
 22
954.8955916989907
 32
0.0
 13
3420.490822166409
 23
954.8955916989907
 33
0.0
  0
SOLID
  5
73F
330
73A
100
AcDbEntity
  8
5
100
AcDbTrace
 10
3150.128474265379
 20
1001.172807540418
 30
0.0
 11
3134.001546566612
 21
1005.379942049385
 31
0.0
 12
3129.443606889096
 22
954.8955916986022
 32
0.0
 13
3129.443606889096
 23
954.8955916986022
 33
0.0
  0
MTEXT
  5
740
330
73A
100
AcDbEntity
  8
5
 62
     2
100
AcDbMText
 10
3370.234996149238
 20
1110.649140633331
 30
0.0
 40
70.0
 41
0.0
 71
     5
 72
     1
  1
170\U+00B0
 11
0.869720950298624
 21
-0.4935437859112992
 31
0.0
 73
     1
 44
1.0
1001
ACAD
1000
MTEXTBEGIN
1070
    73
1070
     1
1070
    44
1040
1.0
1070
    74
1070
     0
1000
MTEXTEND
  0
POINT
  5
741
330
73A
100
AcDbEntity
  8
Defpoints
 62
     0
100
AcDbPoint
 10
3205.485581816449
 20
1071.207272908942
 30
0.0
  0
POINT
  5
742
330
73A
100
AcDbEntity
  8
Defpoints
 62
     0
100
AcDbPoint
 10
3274.967214527769
 20
942.7686243956948
 30
0.0
  0
POINT
  5
743
330
73A
100
AcDbEntity
  8
Defpoints
 62
     0
100
AcDbPoint
 10
3274.967214527769
 20
942.7686243956948
 30
0.0
  0
POINT
  5
744
330
73A
100
AcDbEntity
  8
Defpoints
 62
     0
100
AcDbPoint
 10
2688.72153233042
 20
991.6224312442041
 30
0.0
  0
POINT
  5
745
330
73A
100
AcDbEntity
  8
Defpoints
 62
     0
100
AcDbPoint
 10
3861.212896724986
 20
991.6224312457689
 30
0.0
  0
ENDBLK
  5
73C
330
73A
100
AcDbEntity
  8
0
100
AcDbBlockEnd
  0
BLOCK
  5
747
330
746
100
AcDbEntity
  8
0
100
AcDbBlockBegin
  2
*D37
 70
     1
 10
0.0
 20
0.0
 30
0.0
  3
*D37
  1

  0
LINE
  5
749
330
746
100
AcDbEntity
  8
5
370
    -2
100
AcDbLine
 10
3894.96721452746
 20
1176.101957729194
 30
0.0
 11
4224.365983150799
 21
1176.101957729194
 31
0.0
  0
LINE
  5
74A
330
746
100
AcDbEntity
  8
5
370
    -2
100
AcDbLine
 10
3604.967214528927
 20
106.1019577290532
 30
0.0
 11
4224.365983150799
 21
106.101957729053
 31
0.0
  0
LINE
  5
74B
330
746
100
AcDbEntity
  8
5
370
    -2
100
AcDbLine
 10
4204.3659831508
 20
1126.101957729194
 30
0.0
 11
4204.3659831508
 21
156.101957729053
 31
0.0
  0
SOLID
  5
74C
330
746
100
AcDbEntity
  8
5
100
AcDbTrace
 10
4196.032649817467
 20
1126.101957729194
 30
0.0
 11
4212.699316484132
 21
1126.101957729194
 31
0.0
 12
4204.3659831508
 22
1176.101957729194
 32
0.0
 13
4204.3659831508
 23
1176.101957729194
 33
0.0
  0
SOLID
  5
74D
330
746
100
AcDbEntity
  8
5
100
AcDbTrace
 10
4196.032649817467
 20
156.101957729053
 30
0.0
 11
4212.699316484132
 21
156.101957729053
 31
0.0
 12
4204.3659831508
 22
106.101957729053
 32
0.0
 13
4204.3659831508
 23
106.101957729053
 33
0.0
  0
MTEXT
  5
74E
330
746
100
AcDbEntity
  8
5
 62
     2
100
AcDbMText
 10
4157.365983150799
 20
641.1019577298803
 30
0.0
 40
70.0
 41
0.0
 71
     5
 72
     1
  1
107
 11
0.0000000000000001
 21
1.0
 31
0.0
 73
     1
 44
1.0
1001
ACAD
1000
MTEXTBEGIN
1070
    73
1070
     1
1070
    44
1040
1.0
1070
    74
1070
     0
1000
MTEXTEND
  0
POINT
  5
74F
330
746
100
AcDbEntity
  8
Defpoints
 62
     0
100
AcDbPoint
 10
3874.96721452746
 20
1176.101957729194
 30
0.0
  0
POINT
  5
750
330
746
100
AcDbEntity
  8
Defpoints
 62
     0
100
AcDbPoint
 10
3584.967214528928
 20
106.1019577290532
 30
0.0
  0
POINT
  5
751
330
746
100
AcDbEntity
  8
Defpoints
 62
     0
100
AcDbPoint
 10
4204.3659831508
 20
106.101957729053
 30
0.0
  0
ENDBLK
  5
748
330
746
100
AcDbEntity
  8
0
100
AcDbBlockEnd
  0
BLOCK
  5
753
330
752
100
AcDbEntity
  8
0
100
AcDbBlockBegin
  2
*D38
 70
     1
 10
0.0
 20
0.0
 30
0.0
  3
*D38
  1

  0
LINE
  5
755
330
752
100
AcDbEntity
  8
5
  6
ByBlock
370
    -2
100
AcDbLine
 10
3654.96721452886
 20
156.101957729147
 30
0.0
 11
3654.967214529199
 21
-92.00541426505582
 31
0.0
  0
LINE
  5
756
330
752
100
AcDbEntity
  8
5
  6
ByBlock
370
    -2
100
AcDbLine
 10
2894.967214528843
 20
156.1019577281331
 30
0.0
 11
2894.967214529182
 21
-92.00541426609264
 31
0.0
  0
LINE
  5
757
330
752
100
AcDbEntity
  8
5
  6
ByBlock
370
    -2
100
AcDbLine
 10
3604.967214529171
 20
-72.00541426512405
 30
0.0
 11
2944.967214529155
 21
-72.00541426602445
 31
0.0
  0
SOLID
  5
758
330
752
100
AcDbEntity
  8
5
  6
ByBlock
100
AcDbTrace
 10
3604.96721452916
 20
-63.67208093179071
 30
0.0
 11
3604.967214529182
 21
-80.33874759845737
 31
0.0
 12
3654.967214529171
 22
-72.00541426505584
 32
0.0
 13
3654.967214529171
 23
-72.00541426505584
 33
0.0
  0
SOLID
  5
759
330
752
100
AcDbEntity
  8
5
  6
ByBlock
100
AcDbTrace
 10
2944.967214529143
 20
-63.67208093269111
 30
0.0
 11
2944.967214529166
 21
-80.33874759935777
 31
0.0
 12
2894.967214529155
 22
-72.00541426609266
 32
0.0
 13
2894.967214529155
 23
-72.00541426609266
 33
0.0
  0
MTEXT
  5
75A
330
752
100
AcDbEntity
  8
5
  6
ByBlock
 62
     2
100
AcDbMText
 10
3274.967214529099
 20
-25.00541426557425
 30
0.0
 40
70.0
 41
0.0
 71
     5
 72
     1
  1
%%c 75
 73
     1
 44
1.0
1001
ACAD
1000
MTEXTBEGIN
1070
    73
1070
     1
1070
    44
1040
1.0
1070
    74
1070
     0
1000
MTEXTEND
  0
POINT
  5
75B
330
752
100
AcDbEntity
  8
Defpoints
  6
ByBlock
 62
     0
100
AcDbPoint
 10
3654.967214528833
 20
176.101957729147
 30
0.0
  0
POINT
  5
75C
330
752
100
AcDbEntity
  8
Defpoints
  6
ByBlock
 62
     0
100
AcDbPoint
 10
2894.967214528816
 20
176.1019577281331
 30
0.0
  0
POINT
  5
75D
330
752
100
AcDbEntity
  8
Defpoints
  6
ByBlock
 62
     0
100
AcDbPoint
 10
2894.967214529155
 20
-72.00541426609266
 30
0.0
  0
ENDBLK
  5
754
330
752
100
AcDbEntity
  8
0
100
AcDbBlockEnd
  0
BLOCK
  5
75F
330
75E
100
AcDbEntity
  8
0
100
AcDbBlockBegin
  2
*D39
 70
     1
 10
0.0
 20
0.0
 30
0.0
  3
*D39
  1

  0
LINE
  5
761
330
75E
100
AcDbEntity
  8
5
370
    -2
100
AcDbLine
 10
2879.967214527712
 20
1176.10195772919
 30
0.0
 11
3016.595201154319
 21
1176.10195772919
 31
0.0
  0
LINE
  5
762
330
75E
100
AcDbEntity
  8
5
370
    -2
100
AcDbLine
 10
2898.92898022726
 20
979.7473086168379
 30
0.0
 11
3016.595201154318
 21
979.7473086168379
 31
0.0
  0
LINE
  5
763
330
75E
100
AcDbEntity
  8
5
370
    -2
100
AcDbLine
 10
2996.595201154318
 20
1126.10195772919
 30
0.0
 11
2996.595201154318
 21
1029.747308616838
 31
0.0
  0
SOLID
  5
764
330
75E
100
AcDbEntity
  8
5
100
AcDbTrace
 10
2988.261867820985
 20
1126.10195772919
 30
0.0
 11
3004.928534487652
 21
1126.10195772919
 31
0.0
 12
2996.595201154318
 22
1176.10195772919
 32
0.0
 13
2996.595201154318
 23
1176.10195772919
 33
0.0
  0
SOLID
  5
765
330
75E
100
AcDbEntity
  8
5
100
AcDbTrace
 10
2988.261867820985
 20
1029.747308616838
 30
0.0
 11
3004.928534487652
 21
1029.747308616838
 31
0.0
 12
2996.595201154318
 22
979.7473086168379
 32
0.0
 13
2996.595201154318
 23
979.7473086168379
 33
0.0
  0
MTEXT
  5
766
330
75E
100
AcDbEntity
  8
5
 62
     2
100
AcDbMText
 10
2949.588311390538
 20
1075.528861153742
 30
0.0
 40
70.0
 41
0.0
 71
     5
 72
     1
  1
20
 11
0.0000000000000001
 21
1.0
 31
0.0
 73
     1
 44
1.0
1001
ACAD
1000
MTEXTBEGIN
1070
    73
1070
     1
1070
    44
1040
1.0
1070
    74
1070
     0
1000
MTEXTEND
  0
POINT
  5
767
330
75E
100
AcDbEntity
  8
Defpoints
 62
     0
100
AcDbPoint
 10
2859.967214527712
 20
1176.10195772919
 30
0.0
  0
POINT
  5
768
330
75E
100
AcDbEntity
  8
Defpoints
 62
     0
100
AcDbPoint
 10
2878.92898022726
 20
979.7473086168379
 30
0.0
  0
POINT
  5
769
330
75E
100
AcDbEntity
  8
Defpoints
 62
     0
100
AcDbPoint
 10
2996.595201154318
 20
979.7473086168379
 30
0.0
  0
ENDBLK
  5
760
330
75E
100
AcDbEntity
  8
0
100
AcDbBlockEnd
  0
BLOCK
  5
76B
330
76A
100
AcDbEntity
  8
0
100
AcDbBlockBegin
  2
*D40
 70
     1
 10
0.0
 20
0.0
 30
0.0
  3
*D40
  1

  0
LINE
  5
7A9
330
76A
100
AcDbEntity
  8
5
370
    -2
100
AcDbLine
 10
2289.967214528024
 20
776.1019577284563
 30
0.0
 11
2062.348503556254
 21
776.1019577284563
 31
0.0
  0
LINE
  5
7AA
330
76A
100
AcDbEntity
  8
5
370
    -2
100
AcDbLine
 10
2289.967214528685
 20
276.1019577284567
 30
0.0
 11
1869.958117212296
 21
276.1019577284568
 31
0.0
  0
LINE
  5
7AB
330
76A
100
AcDbEntity
  8
5
370
    -2
100
AcDbLine
 10
1889.958117212296
 20
726.1019577284563
 30
0.0
 11
1889.958117212296
 21
326.1019577284568
 31
0.0
  0
SOLID
  5
7AC
330
76A
100
AcDbEntity
  8
5
100
AcDbTrace
 10
1881.624783878963
 20
726.1019577284563
 30
0.0
 11
1898.291450545629
 21
726.1019577284563
 31
0.0
 12
1889.958117212296
 22
776.1019577284563
 32
0.0
 13
1889.958117212296
 23
776.1019577284563
 33
0.0
  0
SOLID
  5
7AD
330
76A
100
AcDbEntity
  8
5
100
AcDbTrace
 10
1881.624783878963
 20
326.1019577284568
 30
0.0
 11
1898.291450545629
 21
326.1019577284568
 31
0.0
 12
1889.958117212296
 22
276.1019577284568
 32
0.0
 13
1889.958117212296
 23
276.1019577284568
 33
0.0
  0
MTEXT
  5
7AE
330
76A
100
AcDbEntity
  8
5
 62
     2
100
AcDbMText
 10
1842.958117212296
 20
524.8519577279084
 30
0.0
 40
70.0
 41
0.0
 71
     5
 72
     1
  1
%%c 50
 11
0.0000000000000001
 21
1.0
 31
0.0
 73
     1
 44
1.0
1001
ACAD
1000
MTEXTBEGIN
1070
    73
1070
     1
1070
    44
1040
1.0
1070
    74
1070
     0
1000
MTEXTEND
  0
POINT
  5
7AF
330
76A
100
AcDbEntity
  8
Defpoints
 62
     0
100
AcDbPoint
 10
2309.967214528025
 20
776.1019577284562
 30
0.0
  0
POINT
  5
7B0
330
76A
100
AcDbEntity
  8
Defpoints
 62
     0
100
AcDbPoint
 10
2309.967214528685
 20
276.1019577284567
 30
0.0
  0
POINT
  5
7B1
330
76A
100
AcDbEntity
  8
Defpoints
 62
     0
100
AcDbPoint
 10
1889.958117212296
 20
276.1019577284568
 30
0.0
  0
LINE
  5
7B2
330
76A
100
AcDbEntity
  8
5
370
    -2
100
AcDbLine
 10
2058.848503556255
 20
776.1019577284563
 30
0.0
 11
1869.958117212296
 21
776.1019577284563
 31
0.0
  0
ENDBLK
  5
76C
330
76A
100
AcDbEntity
  8
0
100
AcDbBlockEnd
  0
BLOCK
  5
777
330
776
100
AcDbEntity
  8
0
100
AcDbBlockBegin
  2
*D41
 70
     1
 10
0.0
 20
0.0
 30
0.0
  3
*D41
  1

  0
LINE
  5
779
330
776
100
AcDbEntity
  8
5
  6
ByBlock
370
    -2
100
AcDbLine
 10
2534.967214527798
 20
1026.101957727406
 30
0.0
 11
2425.769231668964
 21
1026.101957727406
 31
0.0
  0
LINE
  5
77A
330
776
100
AcDbEntity
  8
5
  6
ByBlock
370
    -2
100
AcDbLine
 10
2534.96721452779
 20
1016.101957727396
 30
0.0
 11
2425.769231668964
 21
1016.101957727396
 31
0.0
  0
LINE
  5
77B
330
776
100
AcDbEntity
  8
5
  6
ByBlock
370
    -2
100
AcDbLine
 10
2445.769231668964
 20
1076.101957727406
 30
0.0
 11
2445.769231668964
 21
1126.101957727406
 31
0.0
  0
LINE
  5
77C
330
776
100
AcDbEntity
  8
5
  6
ByBlock
370
    -2
100
AcDbLine
 10
2445.769231668964
 20
966.1019577273966
 30
0.0
 11
2445.769231668964
 21
878.1019577273966
 31
0.0
  0
LINE
  5
77D
330
776
100
AcDbEntity
  8
5
  6
ByBlock
370
    -2
100
AcDbLine
 10
2445.769231668964
 20
1026.101957727406
 30
0.0
 11
2445.769231668964
 21
1016.101957727396
 31
0.0
  0
SOLID
  5
77E
330
776
100
AcDbEntity
  8
5
  6
ByBlock
100
AcDbTrace
 10
2437.435898335631
 20
1076.101957727406
 30
0.0
 11
2454.102565002298
 21
1076.101957727406
 31
0.0
 12
2445.769231668964
 22
1026.101957727406
 32
0.0
 13
2445.769231668964
 23
1026.101957727406
 33
0.0
  0
SOLID
  5
77F
330
776
100
AcDbEntity
  8
5
  6
ByBlock
100
AcDbTrace
 10
2437.435898335631
 20
966.1019577273966
 30
0.0
 11
2454.102565002297
 21
966.1019577273966
 31
0.0
 12
2445.769231668964
 22
1016.101957727396
 32
0.0
 13
2445.769231668964
 23
1016.101957727396
 33
0.0
  0
MTEXT
  5
780
330
776
100
AcDbEntity
  8
5
  6
ByBlock
 62
     2
100
AcDbMText
 10
2398.769231668964
 20
897.101957727397
 30
0.0
 40
70.0
 41
0.0
 71
     5
 72
     1
  1
1
 11
0.0000000000000001
 21
1.0
 31
0.0
 73
     1
 44
1.0
1001
ACAD
1000
MTEXTBEGIN
1070
    73
1070
     1
1070
    44
1040
1.0
1070
    74
1070
     0
1000
MTEXTEND
  0
POINT
  5
781
330
776
100
AcDbEntity
  8
Defpoints
  6
ByBlock
 62
     0
100
AcDbPoint
 10
2554.967214527798
 20
1026.101957727406
 30
0.0
  0
POINT
  5
782
330
776
100
AcDbEntity
  8
Defpoints
  6
ByBlock
 62
     0
100
AcDbPoint
 10
2554.96721452779
 20
1016.101957727396
 30
0.0
  0
POINT
  5
783
330
776
100
AcDbEntity
  8
Defpoints
  6
ByBlock
 62
     0
100
AcDbPoint
 10
2445.769231668964
 20
1016.101957727396
 30
0.0
  0
ENDBLK
  5
778
330
776
100
AcDbEntity
  8
0
100
AcDbBlockEnd
  0
BLOCK
  5
785
330
784
100
AcDbEntity
  8
0
100
AcDbBlockBegin
  2
*D42
 70
     1
 10
0.0
 20
0.0
 30
0.0
  3
*D42
  1

  0
LINE
  5
787
330
784
100
AcDbEntity
  8
5
  6
ByBlock
370
    -2
100
AcDbLine
 10
2854.96721452758
 20
1121.101957728599
 30
0.0
 11
2854.967214527212
 21
1390.969219281498
 31
0.0
  0
LINE
  5
788
330
784
100
AcDbEntity
  8
5
  6
ByBlock
370
    -2
100
AcDbLine
 10
2554.96721452777
 20
1046.101957727406
 30
0.0
 11
2554.967214527299
 21
1390.969219281088
 31
0.0
  0
LINE
  5
789
330
784
100
AcDbEntity
  8
5
  6
ByBlock
370
    -2
100
AcDbLine
 10
2804.967214527239
 20
1370.96921928143
 30
0.0
 11
2604.967214527327
 21
1370.969219281157
 31
0.0
  0
SOLID
  5
78A
330
784
100
AcDbEntity
  8
5
  6
ByBlock
100
AcDbTrace
 10
2804.967214527227
 20
1379.302552614763
 30
0.0
 11
2804.96721452725
 21
1362.635885948096
 31
0.0
 12
2854.967214527239
 22
1370.969219281498
 32
0.0
 13
2854.967214527239
 23
1370.969219281498
 33
0.0
  0
SOLID
  5
78B
330
784
100
AcDbEntity
  8
5
  6
ByBlock
100
AcDbTrace
 10
2604.967214527315
 20
1379.30255261449
 30
0.0
 11
2604.967214527338
 21
1362.635885947824
 31
0.0
 12
2554.967214527327
 22
1370.969219281089
 32
0.0
 13
2554.967214527327
 23
1370.969219281089
 33
0.0
  0
MTEXT
  5
78C
330
784
100
AcDbEntity
  8
5
  6
ByBlock
 62
     2
100
AcDbMText
 10
2704.967214527219
 20
1417.969219281293
 30
0.0
 40
70.0
 41
0.0
 71
     5
 72
     1
  1
30
 73
     1
 44
1.0
1001
ACAD
1000
MTEXTBEGIN
1070
    73
1070
     1
1070
    44
1040
1.0
1070
    74
1070
     0
1000
MTEXTEND
  0
POINT
  5
78D
330
784
100
AcDbEntity
  8
Defpoints
  6
ByBlock
 62
     0
100
AcDbPoint
 10
2854.967214527608
 20
1101.101957728599
 30
0.0
  0
POINT
  5
78E
330
784
100
AcDbEntity
  8
Defpoints
  6
ByBlock
 62
     0
100
AcDbPoint
 10
2554.967214527798
 20
1026.101957727406
 30
0.0
  0
POINT
  5
78F
330
784
100
AcDbEntity
  8
Defpoints
  6
ByBlock
 62
     0
100
AcDbPoint
 10
2554.967214527327
 20
1370.969219281089
 30
0.0
  0
ENDBLK
  5
786
330
784
100
AcDbEntity
  8
0
100
AcDbBlockEnd
  0
BLOCK
  5
791
330
790
100
AcDbEntity
  8
0
100
AcDbBlockBegin
  2
*D43
 70
     1
 10
0.0
 20
0.0
 30
0.0
  3
*D43
  1

  0
LINE
  5
793
330
790
100
AcDbEntity
  8
5
  6
ByBlock
370
    -2
100
AcDbLine
 10
2844.967214527574
 20
1176.101957728995
 30
0.0
 11
2231.025417966722
 21
1176.101957728995
 31
0.0
  0
LINE
  5
794
330
790
100
AcDbEntity
  8
5
  6
ByBlock
370
    -2
100
AcDbLine
 10
2534.967214527777
 20
1026.101957727406
 30
0.0
 11
2231.025417966722
 21
1026.101957727406
 31
0.0
  0
LINE
  5
795
330
790
100
AcDbEntity
  8
5
  6
ByBlock
370
    -2
100
AcDbLine
 10
2251.025417966722
 20
1126.101957728995
 30
0.0
 11
2251.025417966722
 21
1076.101957727406
 31
0.0
  0
SOLID
  5
796
330
790
100
AcDbEntity
  8
5
  6
ByBlock
100
AcDbTrace
 10
2242.692084633388
 20
1126.101957728995
 30
0.0
 11
2259.358751300055
 21
1126.101957728995
 31
0.0
 12
2251.025417966722
 22
1176.101957728995
 32
0.0
 13
2251.025417966722
 23
1176.101957728995
 33
0.0
  0
SOLID
  5
797
330
790
100
AcDbEntity
  8
5
  6
ByBlock
100
AcDbTrace
 10
2242.692084633388
 20
1076.101957727406
 30
0.0
 11
2259.358751300055
 21
1076.101957727406
 31
0.0
 12
2251.025417966722
 22
1026.101957727406
 32
0.0
 13
2251.025417966722
 23
1026.101957727406
 33
0.0
  0
MTEXT
  5
798
330
790
100
AcDbEntity
  8
5
  6
ByBlock
 62
     2
100
AcDbMText
 10
2204.025417966721
 20
1101.101957728201
 30
0.0
 40
70.0
 41
0.0
 71
     5
 72
     1
  1
15
 11
0.0000000000000001
 21
1.0
 31
0.0
 73
     1
 44
1.0
1001
ACAD
1000
MTEXTBEGIN
1070
    73
1070
     1
1070
    44
1040
1.0
1070
    74
1070
     0
1000
MTEXTEND
  0
POINT
  5
799
330
790
100
AcDbEntity
  8
Defpoints
  6
ByBlock
 62
     0
100
AcDbPoint
 10
2864.967214527574
 20
1176.101957728995
 30
0.0
  0
POINT
  5
79A
330
790
100
AcDbEntity
  8
Defpoints
  6
ByBlock
 62
     0
100
AcDbPoint
 10
2554.967214527778
 20
1026.101957727406
 30
0.0
  0
POINT
  5
79B
330
790
100
AcDbEntity
  8
Defpoints
  6
ByBlock
 62
     0
100
AcDbPoint
 10
2251.025417966722
 20
1026.101957727406
 30
0.0
  0
ENDBLK
  5
792
330
790
100
AcDbEntity
  8
0
100
AcDbBlockEnd
  0
BLOCK
  5
79D
330
79C
100
AcDbEntity
  8
0
100
AcDbBlockBegin
  2
*D44
 70
     1
 10
0.0
 20
0.0
 30
0.0
  3
*D44
  1

  0
LINE
  5
79F
330
79C
100
AcDbEntity
  8
5
370
    -2
100
AcDbLine
 10
1300.986095758711
 20
868.1073700511756
 30
0.0
 11
1073.367384786941
 21
868.1073700511758
 31
0.0
  0
LINE
  5
7A0
330
79C
100
AcDbEntity
  8
5
370
    -2
100
AcDbLine
 10
1300.986095759371
 20
368.1073700511761
 30
0.0
 11
880.9769984429827
 21
368.1073700511762
 31
0.0
  0
LINE
  5
7A1
330
79C
100
AcDbEntity
  8
5
370
    -2
100
AcDbLine
 10
900.9769984429828
 20
818.1073700511756
 30
0.0
 11
900.9769984429828
 21
418.1073700511761
 31
0.0
  0
SOLID
  5
7A2
330
79C
100
AcDbEntity
  8
5
100
AcDbTrace
 10
892.6436651096494
 20
818.1073700511756
 30
0.0
 11
909.3103317763162
 21
818.1073700511756
 31
0.0
 12
900.9769984429828
 22
868.1073700511758
 32
0.0
 13
900.9769984429828
 23
868.1073700511758
 33
0.0
  0
SOLID
  5
7A3
330
79C
100
AcDbEntity
  8
5
100
AcDbTrace
 10
892.6436651096494
 20
418.1073700511761
 30
0.0
 11
909.3103317763162
 21
418.1073700511761
 31
0.0
 12
900.9769984429828
 22
368.1073700511761
 32
0.0
 13
900.9769984429828
 23
368.1073700511761
 33
0.0
  0
MTEXT
  5
7A4
330
79C
100
AcDbEntity
  8
5
 62
     2
100
AcDbMText
 10
853.9769984429826
 20
616.8573700506279
 30
0.0
 40
70.0
 41
0.0
 71
     5
 72
     1
  1
%%c 50
 11
0.0000000000000001
 21
1.0
 31
0.0
 73
     1
 44
1.0
1001
ACAD
1000
MTEXTBEGIN
1070
    73
1070
     1
1070
    44
1040
1.0
1070
    74
1070
     0
1000
MTEXTEND
  0
POINT
  5
7A5
330
79C
100
AcDbEntity
  8
Defpoints
 62
     0
100
AcDbPoint
 10
1320.986095758711
 20
868.1073700511756
 30
0.0
  0
POINT
  5
7A6
330
79C
100
AcDbEntity
  8
Defpoints
 62
     0
100
AcDbPoint
 10
1320.986095759371
 20
368.1073700511761
 30
0.0
  0
POINT
  5
7A7
330
79C
100
AcDbEntity
  8
Defpoints
 62
     0
100
AcDbPoint
 10
900.9769984429828
 20
368.1073700511761
 30
0.0
  0
LINE
  5
7A8
330
79C
100
AcDbEntity
  8
5
370
    -2
100
AcDbLine
 10
1069.867384786941
 20
868.1073700511758
 30
0.0
 11
880.9769984429829
 21
868.1073700511758
 31
0.0
  0
ENDBLK
  5
79E
330
79C
100
AcDbEntity
  8
0
100
AcDbBlockEnd
  0
BLOCK
  5
815
330
814
100
AcDbEntity
  8
0
100
AcDbBlockBegin
  2
*D45
 70
     1
 10
0.0
 20
0.0
 30
0.0
  3
*D45
  1

  0
LINE
  5
816
330
814
100
AcDbEntity
  8
AM_5
  6
ByBlock
100
AcDbLine
 10
1488.139607463106
 20
401.6829570955692
 30
0.0
 11
1488.139607463106
 21
465.8533864880531
 31
0.0
  0
LINE
  5
817
330
814
100
AcDbEntity
  8
AM_5
  6
ByBlock
100
AcDbLine
 10
1408.139607463205
 20
401.6829570954593
 30
0.0
 11
1408.139607463205
 21
465.8533864880531
 31
0.0
  0
LINE
  5
818
330
814
100
AcDbEntity
  8
AM_5
  6
ByBlock
100
AcDbLine
 10
1481.139607463107
 20
464.8533864880532
 30
0.0
 11
1415.139607463205
 21
464.8533864880532
 31
0.0
  0
SOLID
  5
819
330
814
100
AcDbEntity
  8
AM_5
100
AcDbTrace
 10
1481.139607463107
 20
466.0200531547198
 30
0.0
 11
1481.139607463107
 21
463.6867198213866
 31
0.0
 12
1488.139607463106
 22
464.8533864880532
 32
0.0
 13
1488.139607463106
 23
464.8533864880532
 33
0.0
  0
SOLID
  5
81A
330
814
100
AcDbEntity
  8
AM_5
100
AcDbTrace
 10
1415.139607463205
 20
466.0200531547198
 30
0.0
 11
1415.139607463205
 21
463.6867198213866
 31
0.0
 12
1408.139607463205
 22
464.8533864880532
 32
0.0
 13
1408.139607463205
 23
464.8533864880532
 33
0.0
  0
MTEXT
  5
81B
330
814
100
AcDbEntity
  8
AM_5
 62
     2
100
AcDbMText
 10
1447.049537386099
 20
471.3533864880532
 30
0.0
 40
10.0
 41
0.0
 71
     5
 72
     1
  1
80
 73
     1
 44
1.0
1001
ACAD
1000
MTEXTBEGIN
1070
    73
1070
     1
1070
    44
1040
1.0
1070
    74
1070
     0
1000
MTEXTEND
  0
POINT
  5
81C
330
814
100
AcDbEntity
  8
Defpoints
 62
     0
100
AcDbPoint
 10
1488.139607463106
 20
400.6829570955693
 30
0.0
  0
POINT
  5
81D
330
814
100
AcDbEntity
  8
Defpoints
 62
     0
100
AcDbPoint
 10
1408.139607463205
 20
400.6829570954593
 30
0.0
  0
POINT
  5
81E
330
814
100
AcDbEntity
  8
Defpoints
 62
     0
100
AcDbPoint
 10
1408.139607463205
 20
464.8533864880532
 30
0.0
  0
ENDBLK
  5
81F
330
814
100
AcDbEntity
  8
0
100
AcDbBlockEnd
  0
BLOCK
  5
948
330
947
100
AcDbEntity
  8
0
100
AcDbBlockBegin
  2
*D47
 70
     1
 10
0.0
 20
0.0
 30
0.0
  3
*D47
  1

  0
LINE
  5
BE0
330
947
100
AcDbEntity
  8
AM_5
  6
ByBlock
100
AcDbLine
 10
1107.444728657889
 20
441.7226652442762
 30
0.0
 11
1107.444728657889
 21
505.8930946367603
 31
0.0
  0
LINE
  5
BE1
330
947
100
AcDbEntity
  8
AM_5
  6
ByBlock
100
AcDbLine
 10
1027.444728657988
 20
441.7226652441664
 30
0.0
 11
1027.444728657988
 21
505.8930946367603
 31
0.0
  0
LINE
  5
BE2
330
947
100
AcDbEntity
  8
AM_5
  6
ByBlock
100
AcDbLine
 10
1100.444728657889
 20
504.8930946367603
 30
0.0
 11
1034.444728657988
 21
504.8930946367603
 31
0.0
  0
SOLID
  5
BE3
330
947
100
AcDbEntity
  8
AM_5
100
AcDbTrace
 10
1100.444728657889
 20
506.059761303427
 30
0.0
 11
1100.444728657889
 21
503.7264279700935
 31
0.0
 12
1107.444728657889
 22
504.8930946367603
 32
0.0
 13
1107.444728657889
 23
504.8930946367603
 33
0.0
  0
SOLID
  5
BE4
330
947
100
AcDbEntity
  8
AM_5
100
AcDbTrace
 10
1034.444728657988
 20
506.059761303427
 30
0.0
 11
1034.444728657988
 21
503.7264279700935
 31
0.0
 12
1027.444728657988
 22
504.8930946367603
 32
0.0
 13
1027.444728657988
 23
504.8930946367603
 33
0.0
  0
MTEXT
  5
BE5
330
947
100
AcDbEntity
  8
AM_5
 62
     2
100
AcDbMText
 10
1066.354658580882
 20
511.3930946367602
 30
0.0
 40
10.0
 41
0.0
 71
     5
 72
     1
  1
80
 73
     1
 44
1.0
1001
ACAD
1000
MTEXTBEGIN
1070
    73
1070
     1
1070
    44
1040
1.0
1070
    74
1070
     0
1000
MTEXTEND
  0
POINT
  5
BE6
330
947
100
AcDbEntity
  8
Defpoints
 62
     0
100
AcDbPoint
 10
1107.444728657889
 20
440.7226652442762
 30
0.0
  0
POINT
  5
BE7
330
947
100
AcDbEntity
  8
Defpoints
 62
     0
100
AcDbPoint
 10
1027.444728657988
 20
440.7226652441663
 30
0.0
  0
POINT
  5
BE8
330
947
100
AcDbEntity
  8
Defpoints
 62
     0
100
AcDbPoint
 10
1027.444728657988
 20
504.8930946367603
 30
0.0
  0
ENDBLK
  5
949
330
947
100
AcDbEntity
  8
0
100
AcDbBlockEnd
  0
BLOCK
  5
9F6
330
9F5
100
AcDbEntity
  8
0
100
AcDbBlockBegin
  2
*D48
 70
     1
 10
0.0
 20
0.0
 30
0.0
  3
*D48
  1

  0
LINE
  5
BCE
330
9F5
100
AcDbEntity
  8
AM_5
  6
ByBlock
100
AcDbLine
 10
-254.2115531192615
 20
441.7226652442762
 30
0.0
 11
-254.2115531192615
 21
505.8930946367602
 31
0.0
  0
LINE
  5
BCF
330
9F5
100
AcDbEntity
  8
AM_5
  6
ByBlock
100
AcDbLine
 10
-174.2115531193603
 20
441.7226652441663
 30
0.0
 11
-174.2115531193603
 21
505.8930946367602
 31
0.0
  0
LINE
  5
BD0
330
9F5
100
AcDbEntity
  8
AM_5
  6
ByBlock
100
AcDbLine
 10
-247.2115531192614
 20
504.8930946367602
 30
0.0
 11
-181.2115531193603
 21
504.8930946367602
 31
0.0
  0
SOLID
  5
BD1
330
9F5
100
AcDbEntity
  8
AM_5
100
AcDbTrace
 10
-247.2115531192614
 20
506.0597613034269
 30
0.0
 11
-247.2115531192614
 21
503.7264279700935
 31
0.0
 12
-254.2115531192615
 22
504.8930946367602
 32
0.0
 13
-254.2115531192615
 23
504.8930946367602
 33
0.0
  0
SOLID
  5
BD2
330
9F5
100
AcDbEntity
  8
AM_5
100
AcDbTrace
 10
-181.2115531193603
 20
506.0597613034269
 30
0.0
 11
-181.2115531193603
 21
503.7264279700935
 31
0.0
 12
-174.2115531193603
 22
504.8930946367602
 32
0.0
 13
-174.2115531193603
 23
504.8930946367602
 33
0.0
  0
MTEXT
  5
BD3
330
9F5
100
AcDbEntity
  8
AM_5
 62
     2
100
AcDbMText
 10
-213.1214830422544
 20
511.3930946367601
 30
0.0
 40
10.0
 41
0.0
 71
     5
 72
     1
  1
80
 73
     1
 44
1.0
1001
ACAD
1000
MTEXTBEGIN
1070
    73
1070
     1
1070
    44
1040
1.0
1070
    74
1070
     0
1000
MTEXTEND
  0
POINT
  5
BD4
330
9F5
100
AcDbEntity
  8
Defpoints
 62
     0
100
AcDbPoint
 10
-254.2115531192615
 20
440.7226652442761
 30
0.0
  0
POINT
  5
BD5
330
9F5
100
AcDbEntity
  8
Defpoints
 62
     0
100
AcDbPoint
 10
-174.2115531193603
 20
440.7226652441663
 30
0.0
  0
POINT
  5
BD6
330
9F5
100
AcDbEntity
  8
Defpoints
 62
     0
100
AcDbPoint
 10
-174.2115531193603
 20
504.8930946367602
 30
0.0
  0
ENDBLK
  5
9F7
330
9F5
100
AcDbEntity
  8
0
100
AcDbBlockEnd
  0
BLOCK
  5
A16
330
A15
100
AcDbEntity
  8
0
100
AcDbBlockBegin
  2
*D49
 70
     1
 10
0.0
 20
0.0
 30
0.0
  3
*D49
  1

  0
LINE
  5
A17
330
A15
100
AcDbEntity
  8
AM_5
  6
ByBlock
100
AcDbLine
 10
8708.127263030574
 20
1945.374477454327
 30
0.0
 11
8830.410950679807
 21
1945.374477454327
 31
0.0
  0
LINE
  5
A18
330
A15
100
AcDbEntity
  8
AM_5
  6
ByBlock
100
AcDbLine
 10
8700.131834459309
 20
2072.301906025588
 30
0.0
 11
8830.410950679807
 21
2072.301906025588
 31
0.0
  0
LINE
  5
A19
330
A15
100
AcDbEntity
  8
AM_5
  6
ByBlock
100
AcDbLine
 10
8829.410950679806
 20
1952.374477454327
 30
0.0
 11
8829.410950679806
 21
2065.301906025588
 31
0.0
  0
SOLID
  5
A1A
330
A15
100
AcDbEntity
  8
AM_5
100
AcDbTrace
 10
8828.244284013141
 20
1952.374477454327
 30
0.0
 11
8830.577617346476
 21
1952.374477454327
 31
0.0
 12
8829.410950679806
 22
1945.374477454327
 32
0.0
 13
8829.410950679806
 23
1945.374477454327
 33
0.0
  0
SOLID
  5
A1B
330
A15
100
AcDbEntity
  8
AM_5
100
AcDbTrace
 10
8828.244284013141
 20
2065.301906025588
 30
0.0
 11
8830.577617346476
 21
2065.301906025588
 31
0.0
 12
8829.410950679806
 22
2072.301906025588
 32
0.0
 13
8829.410950679806
 23
2072.301906025588
 33
0.0
  0
MTEXT
  5
A1C
330
A15
100
AcDbEntity
  8
AM_5
 62
     2
100
AcDbMText
 10
8822.910950679807
 20
2008.838191739959
 30
0.0
 40
10.0
 41
0.0
 71
     5
 72
     1
  1
107-160
 11
0.0000000000000001
 21
1.0
 31
0.0
 73
     1
 44
1.0
1001
ACAD
1000
MTEXTBEGIN
1070
    73
1070
     1
1070
    44
1040
1.0
1070
    74
1070
     0
1000
MTEXTEND
  0
POINT
  5
A1D
330
A15
100
AcDbEntity
  8
Defpoints
 62
     0
100
AcDbPoint
 10
8707.127263030574
 20
1945.374477454327
 30
0.0
  0
POINT
  5
A1E
330
A15
100
AcDbEntity
  8
Defpoints
 62
     0
100
AcDbPoint
 10
8699.13183445931
 20
2072.301906025588
 30
0.0
  0
POINT
  5
A1F
330
A15
100
AcDbEntity
  8
Defpoints
 62
     0
100
AcDbPoint
 10
8829.410950679806
 20
2072.301906025588
 30
0.0
  0
ENDBLK
  5
A20
330
A15
100
AcDbEntity
  8
0
100
AcDbBlockEnd
  0
BLOCK
  5
A22
330
A21
100
AcDbEntity
  8
0
100
AcDbBlockBegin
  2
*D50
 70
     1
 10
0.0
 20
0.0
 30
0.0
  3
*D50
  1

  0
LINE
  5
A23
330
A21
100
AcDbEntity
  8
AM_5
  6
ByBlock
100
AcDbLine
 10
8732.113548744941
 20
2057.310477454327
 30
0.0
 11
8785.045740891952
 21
2057.310477454327
 31
0.0
  0
LINE
  5
A24
330
A21
100
AcDbEntity
  8
AM_5
  6
ByBlock
100
AcDbLine
 10
8700.131834459309
 20
2072.301906025588
 30
0.0
 11
8785.045740891952
 21
2072.301906025588
 31
0.0
  0
LINE
  5
A25
330
A21
100
AcDbEntity
  8
AM_5
  6
ByBlock
100
AcDbLine
 10
8784.045740891953
 20
2050.310477454327
 30
0.0
 11
8784.045740891953
 21
2043.310477454327
 31
0.0
  0
LINE
  5
A26
330
A21
100
AcDbEntity
  8
AM_5
  6
ByBlock
100
AcDbLine
 10
8784.045740891953
 20
2079.301906025588
 30
0.0
 11
8784.045740891953
 21
2086.301906025588
 31
0.0
  0
LINE
  5
A27
330
A21
100
AcDbEntity
  8
AM_5
  6
ByBlock
100
AcDbLine
 10
8784.045740891953
 20
2057.310477454327
 30
0.0
 11
8784.045740891953
 21
2072.301906025588
 31
0.0
  0
SOLID
  5
A28
330
A21
100
AcDbEntity
  8
AM_5
100
AcDbTrace
 10
8782.879074225286
 20
2050.310477454327
 30
0.0
 11
8785.212407558615
 21
2050.310477454327
 31
0.0
 12
8784.045740891953
 22
2057.310477454327
 32
0.0
 13
8784.045740891953
 23
2057.310477454327
 33
0.0
  0
SOLID
  5
A29
330
A21
100
AcDbEntity
  8
AM_5
100
AcDbTrace
 10
8782.879074225286
 20
2079.301906025588
 30
0.0
 11
8785.212407558615
 21
2079.301906025588
 31
0.0
 12
8784.045740891953
 22
2072.301906025588
 32
0.0
 13
8784.045740891953
 23
2072.301906025588
 33
0.0
  0
MTEXT
  5
A2A
330
A21
100
AcDbEntity
  8
AM_5
 62
     2
100
AcDbMText
 10
8777.545740891952
 20
2064.806191739959
 30
0.0
 40
10.0
 41
0.0
 71
     5
 72
     1
  1
15
 11
0.0000000000000001
 21
1.0
 31
0.0
 73
     1
 44
1.0
1001
ACAD
1000
MTEXTBEGIN
1070
    73
1070
     1
1070
    44
1040
1.0
1070
    74
1070
     0
1000
MTEXTEND
  0
POINT
  5
A2B
330
A21
100
AcDbEntity
  8
Defpoints
 62
     0
100
AcDbPoint
 10
8731.113548744943
 20
2057.310477454327
 30
0.0
  0
POINT
  5
A2C
330
A21
100
AcDbEntity
  8
Defpoints
 62
     0
100
AcDbPoint
 10
8699.13183445931
 20
2072.301906025588
 30
0.0
  0
POINT
  5
A2D
330
A21
100
AcDbEntity
  8
Defpoints
 62
     0
100
AcDbPoint
 10
8784.045740891953
 20
2072.301906025588
 30
0.0
  0
ENDBLK
  5
A2E
330
A21
100
AcDbEntity
  8
0
100
AcDbBlockEnd
  0
BLOCK
  5
A30
330
A2F
100
AcDbEntity
  8
0
100
AcDbBlockBegin
  2
*D51
 70
     1
 10
0.0
 20
0.0
 30
0.0
  3
*D51
  1

  0
LINE
  5
A31
330
A2F
100
AcDbEntity
  8
AM_5
  6
ByBlock
100
AcDbLine
 10
8326.344977316198
 20
1623.720040656376
 30
0.0
 11
8326.344977316198
 21
1591.029950563587
 31
0.0
  0
LINE
  5
A32
330
A2F
100
AcDbEntity
  8
AM_5
  6
ByBlock
100
AcDbLine
 10
8376.316405887459
 20
1623.720040656376
 30
0.0
 11
8376.316405887459
 21
1591.029950563587
 31
0.0
  0
LINE
  5
A33
330
A2F
100
AcDbEntity
  8
AM_5
  6
ByBlock
100
AcDbLine
 10
8333.344977316198
 20
1592.029950563587
 30
0.0
 11
8369.316405887458
 21
1592.029950563587
 31
0.0
  0
SOLID
  5
A34
330
A2F
100
AcDbEntity
  8
AM_5
100
AcDbTrace
 10
8333.344977316198
 20
1593.196617230254
 30
0.0
 11
8333.344977316198
 21
1590.86328389692
 31
0.0
 12
8326.344977316198
 22
1592.029950563587
 32
0.0
 13
8326.344977316198
 23
1592.029950563587
 33
0.0
  0
SOLID
  5
A35
330
A2F
100
AcDbEntity
  8
AM_5
100
AcDbTrace
 10
8369.316405887458
 20
1593.196617230254
 30
0.0
 11
8369.316405887458
 21
1590.86328389692
 31
0.0
 12
8376.316405887459
 22
1592.029950563587
 32
0.0
 13
8376.316405887459
 23
1592.029950563587
 33
0.0
  0
MTEXT
  5
A36
330
A2F
100
AcDbEntity
  8
AM_5
 62
     2
100
AcDbMText
 10
8351.330691601829
 20
1598.59949421185
 30
0.0
 40
10.0
 41
0.0
 71
     5
 72
     1
  1
DN50
 73
     1
 44
1.0
1001
ACAD
1000
MTEXTBEGIN
1070
    73
1070
     1
1070
    44
1040
1.0
1070
    74
1070
     0
1000
MTEXTEND
  0
POINT
  5
A37
330
A2F
100
AcDbEntity
  8
Defpoints
 62
     0
100
AcDbPoint
 10
8326.344977316198
 20
1624.720040656376
 30
0.0
  0
POINT
  5
A38
330
A2F
100
AcDbEntity
  8
Defpoints
 62
     0
100
AcDbPoint
 10
8376.316405887459
 20
1624.720040656376
 30
0.0
  0
POINT
  5
A39
330
A2F
100
AcDbEntity
  8
Defpoints
 62
     0
100
AcDbPoint
 10
8376.316405887459
 20
1592.029950563587
 30
0.0
  0
ENDBLK
  5
A3A
330
A2F
100
AcDbEntity
  8
0
100
AcDbBlockEnd
  0
BLOCK
  5
A3C
330
A3B
100
AcDbEntity
  8
0
100
AcDbBlockBegin
  2
*D52
 70
     1
 10
0.0
 20
0.0
 30
0.0
  3
*D52
  1

  0
LINE
  5
A3D
330
A3B
100
AcDbEntity
  8
AM_5
  6
ByBlock
100
AcDbLine
 10
8700.131834458721
 20
1681.287697799483
 30
0.0
 11
8771.401082457812
 21
1681.287697799483
 31
0.0
  0
LINE
  5
A3E
330
A3B
100
AcDbEntity
  8
AM_5
  6
ByBlock
100
AcDbLine
 10
8700.131834459309
 20
1762.041526370743
 30
0.0
 11
8771.401082457812
 21
1762.041526370743
 31
0.0
  0
LINE
  5
A3F
330
A3B
100
AcDbEntity
  8
AM_5
  6
ByBlock
100
AcDbLine
 10
8770.401082457809
 20
1688.287697799483
 30
0.0
 11
8770.401082457809
 21
1755.041526370743
 31
0.0
  0
SOLID
  5
A40
330
A3B
100
AcDbEntity
  8
AM_5
100
AcDbTrace
 10
8769.234415791144
 20
1688.287697799483
 30
0.0
 11
8771.567749124477
 21
1688.287697799483
 31
0.0
 12
8770.401082457809
 22
1681.287697799483
 32
0.0
 13
8770.401082457809
 23
1681.287697799483
 33
0.0
  0
SOLID
  5
A41
330
A3B
100
AcDbEntity
  8
AM_5
100
AcDbTrace
 10
8769.234415791144
 20
1755.041526370743
 30
0.0
 11
8771.567749124477
 21
1755.041526370743
 31
0.0
 12
8770.401082457809
 22
1762.041526370743
 32
0.0
 13
8770.401082457809
 23
1762.041526370743
 33
0.0
  0
MTEXT
  5
A42
330
A3B
100
AcDbEntity
  8
AM_5
 62
     2
100
AcDbMText
 10
8763.901082457811
 20
1721.664612085115
 30
0.0
 40
10.0
 41
0.0
 71
     5
 72
     1
  1
84
 11
0.0000000000000001
 21
1.0
 31
0.0
 73
     1
 44
1.0
1001
ACAD
1000
MTEXTBEGIN
1070
    73
1070
     1
1070
    44
1040
1.0
1070
    74
1070
     0
1000
MTEXTEND
  0
POINT
  5
A43
330
A3B
100
AcDbEntity
  8
Defpoints
 62
     0
100
AcDbPoint
 10
8699.131834458722
 20
1681.287697799483
 30
0.0
  0
POINT
  5
A44
330
A3B
100
AcDbEntity
  8
Defpoints
 62
     0
100
AcDbPoint
 10
8699.13183445931
 20
1762.041526370743
 30
0.0
  0
POINT
  5
A45
330
A3B
100
AcDbEntity
  8
Defpoints
 62
     0
100
AcDbPoint
 10
8770.401082457809
 20
1762.041526370743
 30
0.0
  0
ENDBLK
  5
A46
330
A3B
100
AcDbEntity
  8
0
100
AcDbBlockEnd
  0
BLOCK
  5
A48
330
A47
100
AcDbEntity
  8
0
100
AcDbBlockBegin
  2
*D53
 70
     1
 10
0.0
 20
0.0
 30
0.0
  3
*D53
  1

  0
LINE
  5
A49
330
A47
100
AcDbEntity
  8
AM_5
  6
ByBlock
100
AcDbLine
 10
8702.130691601826
 20
1651.304840656376
 30
0.0
 11
8807.297832398074
 21
1651.304840656376
 31
0.0
  0
LINE
  5
A4A
330
A47
100
AcDbEntity
  8
AM_5
  6
ByBlock
100
AcDbLine
 10
8732.113548744941
 20
1784.029812085113
 30
0.0
 11
8807.297832398074
 21
1784.029812085113
 31
0.0
  0
LINE
  5
A4B
330
A47
100
AcDbEntity
  8
AM_5
  6
ByBlock
100
AcDbLine
 10
8806.297832398071
 20
1658.304840656376
 30
0.0
 11
8806.297832398071
 21
1777.029812085113
 31
0.0
  0
SOLID
  5
A4C
330
A47
100
AcDbEntity
  8
AM_5
100
AcDbTrace
 10
8805.131165731406
 20
1658.304840656376
 30
0.0
 11
8807.464499064737
 21
1658.304840656376
 31
0.0
 12
8806.297832398071
 22
1651.304840656376
 32
0.0
 13
8806.297832398071
 23
1651.304840656376
 33
0.0
  0
SOLID
  5
A4D
330
A47
100
AcDbEntity
  8
AM_5
100
AcDbTrace
 10
8805.131165731406
 20
1777.029812085113
 30
0.0
 11
8807.464499064737
 21
1777.029812085113
 31
0.0
 12
8806.297832398071
 22
1784.029812085113
 32
0.0
 13
8806.297832398071
 23
1784.029812085113
 33
0.0
  0
MTEXT
  5
A4E
330
A47
100
AcDbEntity
  8
AM_5
 62
     2
100
AcDbMText
 10
8799.797832398073
 20
1717.667326370746
 30
0.0
 40
10.0
 41
0.0
 71
     5
 72
     1
  1
133
 11
0.0000000000000001
 21
1.0
 31
0.0
 73
     1
 44
1.0
1001
ACAD
1000
MTEXTBEGIN
1070
    73
1070
     1
1070
    44
1040
1.0
1070
    74
1070
     0
1000
MTEXTEND
  0
POINT
  5
A4F
330
A47
100
AcDbEntity
  8
Defpoints
 62
     0
100
AcDbPoint
 10
8701.130691601825
 20
1651.304840656376
 30
0.0
  0
POINT
  5
A50
330
A47
100
AcDbEntity
  8
Defpoints
 62
     0
100
AcDbPoint
 10
8731.113548744943
 20
1784.029812085113
 30
0.0
  0
POINT
  5
A51
330
A47
100
AcDbEntity
  8
Defpoints
 62
     0
100
AcDbPoint
 10
8806.297832398071
 20
1784.029812085113
 30
0.0
  0
ENDBLK
  5
A52
330
A47
100
AcDbEntity
  8
0
100
AcDbBlockEnd
  0
BLOCK
  5
A54
330
A53
100
AcDbEntity
  8
0
100
AcDbBlockBegin
  2
*D54
 70
     1
 10
0.0
 20
0.0
 30
0.0
  3
*D54
  1

  0
LINE
  5
A55
330
A53
100
AcDbEntity
  8
AM_5
  6
ByBlock
100
AcDbLine
 10
8699.131834458725
 20
1763.041526370746
 30
0.0
 11
8699.131834458725
 21
1832.637750190683
 31
0.0
  0
LINE
  5
A56
330
A53
100
AcDbEntity
  8
AM_5
  6
ByBlock
100
AcDbLine
 10
8000.531263030564
 20
1763.041526370743
 30
0.0
 11
8000.531263030564
 21
1832.637750190683
 31
0.0
  0
LINE
  5
A57
330
A53
100
AcDbEntity
  8
AM_5
  6
ByBlock
100
AcDbLine
 10
8692.131834458725
 20
1831.637750190683
 30
0.0
 11
8007.531263030564
 21
1831.637750190683
 31
0.0
  0
SOLID
  5
A58
330
A53
100
AcDbEntity
  8
AM_5
100
AcDbTrace
 10
8692.131834458725
 20
1832.80441685735
 30
0.0
 11
8692.131834458725
 21
1830.471083524016
 31
0.0
 12
8699.131834458725
 22
1831.637750190683
 32
0.0
 13
8699.131834458725
 23
1831.637750190683
 33
0.0
  0
SOLID
  5
A59
330
A53
100
AcDbEntity
  8
AM_5
100
AcDbTrace
 10
8007.531263030564
 20
1832.80441685735
 30
0.0
 11
8007.531263030564
 21
1830.471083524016
 31
0.0
 12
8000.531263030564
 22
1831.637750190683
 32
0.0
 13
8000.531263030564
 23
1831.637750190683
 33
0.0
  0
MTEXT
  5
A5A
330
A53
100
AcDbEntity
  8
AM_5
 62
     2
100
AcDbMText
 10
8349.831548744644
 20
1838.137750190683
 30
0.0
 40
10.0
 41
0.0
 71
     5
 72
     1
  1
a1
 73
     1
 44
1.0
1001
ACAD
1000
MTEXTBEGIN
1070
    73
1070
     1
1070
    44
1040
1.0
1070
    74
1070
     0
1000
MTEXTEND
  0
POINT
  5
A5B
330
A53
100
AcDbEntity
  8
Defpoints
 62
     0
100
AcDbPoint
 10
8699.131834458725
 20
1762.041526370746
 30
0.0
  0
POINT
  5
A5C
330
A53
100
AcDbEntity
  8
Defpoints
 62
     0
100
AcDbPoint
 10
8000.531263030564
 20
1762.041526370743
 30
0.0
  0
POINT
  5
A5D
330
A53
100
AcDbEntity
  8
Defpoints
 62
     0
100
AcDbPoint
 10
8000.531263030564
 20
1831.637750190683
 30
0.0
  0
ENDBLK
  5
A5E
330
A53
100
AcDbEntity
  8
0
100
AcDbBlockEnd
  0
BLOCK
  5
A60
330
A5F
100
AcDbEntity
  8
0
100
AcDbBlockBegin
  2
*D55
 70
     1
 10
0.0
 20
0.0
 30
0.0
  3
*D55
  1

  0
LINE
  5
A61
330
A5F
100
AcDbEntity
  8
AM_5
  6
ByBlock
100
AcDbLine
 10
8731.113548744943
 20
1784.029812085113
 30
0.0
 11
8731.113548744943
 21
1867.761205257787
 31
0.0
  0
LINE
  5
A62
330
A5F
100
AcDbEntity
  8
AM_5
  6
ByBlock
100
AcDbLine
 10
7978.543263030558
 20
1783.030097799481
 30
0.0
 11
7978.543263030558
 21
1867.761205257787
 31
0.0
  0
LINE
  5
A63
330
A5F
100
AcDbEntity
  8
AM_5
  6
ByBlock
100
AcDbLine
 10
8724.113548744943
 20
1866.761205257787
 30
0.0
 11
7985.543263030557
 21
1866.761205257787
 31
0.0
  0
SOLID
  5
A64
330
A5F
100
AcDbEntity
  8
AM_5
100
AcDbTrace
 10
8724.113548744943
 20
1867.927871924454
 30
0.0
 11
8724.113548744943
 21
1865.59453859112
 31
0.0
 12
8731.113548744943
 22
1866.761205257787
 32
0.0
 13
8731.113548744943
 23
1866.761205257787
 33
0.0
  0
SOLID
  5
A65
330
A5F
100
AcDbEntity
  8
AM_5
100
AcDbTrace
 10
7985.543263030557
 20
1867.927871924454
 30
0.0
 11
7985.543263030557
 21
1865.59453859112
 31
0.0
 12
7978.543263030558
 22
1866.761205257787
 32
0.0
 13
7978.543263030558
 23
1866.761205257787
 33
0.0
  0
MTEXT
  5
A66
330
A5F
100
AcDbEntity
  8
AM_5
 62
     2
100
AcDbMText
 10
8354.828405887751
 20
1873.262189509756
 30
0.0
 40
10.0
 41
0.0
 71
     5
 72
     1
  1
a2
 73
     1
 44
1.0
1001
ACAD
1000
MTEXTBEGIN
1070
    73
1070
     1
1070
    44
1040
1.0
1070
    74
1070
     0
1000
MTEXTEND
  0
POINT
  5
A67
330
A5F
100
AcDbEntity
  8
Defpoints
 62
     0
100
AcDbPoint
 10
8731.113548744943
 20
1783.029812085113
 30
0.0
  0
POINT
  5
A68
330
A5F
100
AcDbEntity
  8
Defpoints
 62
     0
100
AcDbPoint
 10
7978.543263030558
 20
1782.030097799481
 30
0.0
  0
POINT
  5
A69
330
A5F
100
AcDbEntity
  8
Defpoints
 62
     0
100
AcDbPoint
 10
7978.543263030558
 20
1866.761205257787
 30
0.0
  0
ENDBLK
  5
A6A
330
A5F
100
AcDbEntity
  8
0
100
AcDbBlockEnd
  0
BLOCK
  5
A6C
330
A6B
100
AcDbEntity
  8
0
100
AcDbBlockBegin
  2
*D56
 70
     1
 10
0.0
 20
0.0
 30
0.0
  3
*D56
  1

  0
LINE
  5
A6D
330
A6B
100
AcDbEntity
  8
AM_5
  6
ByBlock
100
AcDbLine
 10
8700.131834459309
 20
2072.301906025588
 30
0.0
 11
8785.195891464296
 21
2072.301906025588
 31
0.0
  0
LINE
  5
A6E
330
A6B
100
AcDbEntity
  8
AM_5
  6
ByBlock
100
AcDbLine
 10
8732.113548744941
 20
2112.279048882481
 30
0.0
 11
8785.195891464296
 21
2112.279048882481
 31
0.0
  0
LINE
  5
A6F
330
A6B
100
AcDbEntity
  8
AM_5
  6
ByBlock
100
AcDbLine
 10
8784.195891464294
 20
2079.301906025588
 30
0.0
 11
8784.195891464294
 21
2105.279048882481
 31
0.0
  0
SOLID
  5
A70
330
A6B
100
AcDbEntity
  8
AM_5
100
AcDbTrace
 10
8783.029224797628
 20
2079.301906025588
 30
0.0
 11
8785.362558130961
 21
2079.301906025588
 31
0.0
 12
8784.195891464294
 22
2072.301906025588
 32
0.0
 13
8784.195891464294
 23
2072.301906025588
 33
0.0
  0
SOLID
  5
A71
330
A6B
100
AcDbEntity
  8
AM_5
100
AcDbTrace
 10
8783.029224797628
 20
2105.279048882481
 30
0.0
 11
8785.362558130961
 21
2105.279048882481
 31
0.0
 12
8784.195891464294
 22
2112.279048882481
 32
0.0
 13
8784.195891464294
 23
2112.279048882481
 33
0.0
  0
MTEXT
  5
A72
330
A6B
100
AcDbEntity
  8
AM_5
 62
     2
100
AcDbMText
 10
8777.695891464295
 20
2092.290477454036
 30
0.0
 40
10.0
 41
0.0
 71
     5
 72
     1
  1
40
 11
0.0000000000000001
 21
1.0
 31
0.0
 73
     1
 44
1.0
1001
ACAD
1000
MTEXTBEGIN
1070
    73
1070
     1
1070
    44
1040
1.0
1070
    74
1070
     0
1000
MTEXTEND
  0
POINT
  5
A73
330
A6B
100
AcDbEntity
  8
Defpoints
 62
     0
100
AcDbPoint
 10
8699.13183445931
 20
2072.301906025588
 30
0.0
  0
POINT
  5
A74
330
A6B
100
AcDbEntity
  8
Defpoints
 62
     0
100
AcDbPoint
 10
8731.113548744943
 20
2112.279048882481
 30
0.0
  0
POINT
  5
A75
330
A6B
100
AcDbEntity
  8
Defpoints
 62
     0
100
AcDbPoint
 10
8784.195891464294
 20
2112.279048882481
 30
0.0
  0
ENDBLK
  5
A76
330
A6B
100
AcDbEntity
  8
0
100
AcDbBlockEnd
  0
BLOCK
  5
B64
330
B63
100
AcDbEntity
  8
0
100
AcDbBlockBegin
  2
*D58
 70
     1
 10
0.0
 20
0.0
 30
0.0
  3
*D58
  1

  0
LINE
  5
B66
330
B63
100
AcDbEntity
  8
AM_5
  6
ByBlock
100
AcDbLine
 10
707.3070071009933
 20
-406.2835859182971
 30
0.0
 11
829.5906947502261
 21
-406.2835859182971
 31
0.0
  0
LINE
  5
B67
330
B63
100
AcDbEntity
  8
AM_5
  6
ByBlock
100
AcDbLine
 10
699.3115785297286
 20
-279.3561573470363
 30
0.0
 11
829.5906947502261
 21
-279.3561573470363
 31
0.0
  0
LINE
  5
B68
330
B63
100
AcDbEntity
  8
AM_5
  6
ByBlock
100
AcDbLine
 10
828.5906947502262
 20
-399.2835859182972
 30
0.0
 11
828.5906947502262
 21
-286.3561573470363
 31
0.0
  0
SOLID
  5
B69
330
B63
100
AcDbEntity
  8
AM_5
100
AcDbTrace
 10
827.4240280835595
 20
-399.2835859182972
 30
0.0
 11
829.7573614168928
 21
-399.2835859182972
 31
0.0
 12
828.5906947502262
 22
-406.2835859182971
 32
0.0
 13
828.5906947502262
 23
-406.2835859182971
 33
0.0
  0
SOLID
  5
B6A
330
B63
100
AcDbEntity
  8
AM_5
100
AcDbTrace
 10
827.4240280835595
 20
-286.3561573470363
 30
0.0
 11
829.7573614168928
 21
-286.3561573470363
 31
0.0
 12
828.5906947502262
 22
-279.3561573470363
 32
0.0
 13
828.5906947502262
 23
-279.3561573470363
 33
0.0
  0
MTEXT
  5
B6B
330
B63
100
AcDbEntity
  8
AM_5
 62
     2
100
AcDbMText
 10
822.0906947502264
 20
-342.8198716326666
 30
0.0
 40
10.0
 41
0.0
 71
     5
 72
     1
  1
107-160
 11
0.0000000000000001
 21
1.0
 31
0.0
 73
     1
 44
1.0
1001
ACAD
1000
MTEXTBEGIN
1070
    73
1070
     1
1070
    44
1040
1.0
1070
    74
1070
     0
1000
MTEXTEND
  0
POINT
  5
B6C
330
B63
100
AcDbEntity
  8
Defpoints
 62
     0
100
AcDbPoint
 10
706.3070071009933
 20
-406.2835859182971
 30
0.0
  0
POINT
  5
B6D
330
B63
100
AcDbEntity
  8
Defpoints
 62
     0
100
AcDbPoint
 10
698.3115785297286
 20
-279.3561573470363
 30
0.0
  0
POINT
  5
B6E
330
B63
100
AcDbEntity
  8
Defpoints
 62
     0
100
AcDbPoint
 10
828.5906947502262
 20
-279.3561573470363
 30
0.0
  0
ENDBLK
  5
B65
330
B63
100
AcDbEntity
  8
0
100
AcDbBlockEnd
  0
BLOCK
  5
B70
330
B6F
100
AcDbEntity
  8
0
100
AcDbBlockBegin
  2
*D59
 70
     1
 10
0.0
 20
0.0
 30
0.0
  3
*D59
  1

  0
LINE
  5
B72
330
B6F
100
AcDbEntity
  8
AM_5
  6
ByBlock
100
AcDbLine
 10
731.2932928153623
 20
-294.347585918297
 30
0.0
 11
784.2254849623732
 21
-294.347585918297
 31
0.0
  0
LINE
  5
B73
330
B6F
100
AcDbEntity
  8
AM_5
  6
ByBlock
100
AcDbLine
 10
699.3115785297286
 20
-279.3561573470363
 30
0.0
 11
784.2254849623732
 21
-279.3561573470363
 31
0.0
  0
LINE
  5
B74
330
B6F
100
AcDbEntity
  8
AM_5
  6
ByBlock
100
AcDbLine
 10
783.2254849623732
 20
-301.347585918297
 30
0.0
 11
783.2254849623732
 21
-308.347585918297
 31
0.0
  0
LINE
  5
B75
330
B6F
100
AcDbEntity
  8
AM_5
  6
ByBlock
100
AcDbLine
 10
783.2254849623732
 20
-272.3561573470363
 30
0.0
 11
783.2254849623732
 21
-265.3561573470363
 31
0.0
  0
LINE
  5
B76
330
B6F
100
AcDbEntity
  8
AM_5
  6
ByBlock
100
AcDbLine
 10
783.2254849623732
 20
-294.347585918297
 30
0.0
 11
783.2254849623732
 21
-279.3561573470363
 31
0.0
  0
SOLID
  5
B77
330
B6F
100
AcDbEntity
  8
AM_5
100
AcDbTrace
 10
782.0588182957066
 20
-301.347585918297
 30
0.0
 11
784.3921516290398
 21
-301.347585918297
 31
0.0
 12
783.2254849623732
 22
-294.347585918297
 32
0.0
 13
783.2254849623732
 23
-294.347585918297
 33
0.0
  0
SOLID
  5
B78
330
B6F
100
AcDbEntity
  8
AM_5
100
AcDbTrace
 10
782.0588182957066
 20
-272.3561573470363
 30
0.0
 11
784.3921516290398
 21
-272.3561573470363
 31
0.0
 12
783.2254849623732
 22
-279.3561573470363
 32
0.0
 13
783.2254849623732
 23
-279.3561573470363
 33
0.0
  0
MTEXT
  5
B79
330
B6F
100
AcDbEntity
  8
AM_5
 62
     2
100
AcDbMText
 10
776.7254849623733
 20
-286.8518716326665
 30
0.0
 40
10.0
 41
0.0
 71
     5
 72
     1
  1
15
 11
0.0000000000000001
 21
1.0
 31
0.0
 73
     1
 44
1.0
1001
ACAD
1000
MTEXTBEGIN
1070
    73
1070
     1
1070
    44
1040
1.0
1070
    74
1070
     0
1000
MTEXTEND
  0
POINT
  5
B7A
330
B6F
100
AcDbEntity
  8
Defpoints
 62
     0
100
AcDbPoint
 10
730.2932928153623
 20
-294.347585918297
 30
0.0
  0
POINT
  5
B7B
330
B6F
100
AcDbEntity
  8
Defpoints
 62
     0
100
AcDbPoint
 10
698.3115785297286
 20
-279.3561573470363
 30
0.0
  0
POINT
  5
B7C
330
B6F
100
AcDbEntity
  8
Defpoints
 62
     0
100
AcDbPoint
 10
783.2254849623732
 20
-279.3561573470363
 30
0.0
  0
ENDBLK
  5
B71
330
B6F
100
AcDbEntity
  8
0
100
AcDbBlockEnd
  0
BLOCK
  5
B7E
330
B7D
100
AcDbEntity
  8
0
100
AcDbBlockBegin
  2
*D60
 70
     1
 10
0.0
 20
0.0
 30
0.0
  3
*D60
  1

  0
LINE
  5
B80
330
B7D
100
AcDbEntity
  8
AM_5
  6
ByBlock
100
AcDbLine
 10
325.5247213866169
 20
-727.938022716248
 30
0.0
 11
325.5247213866169
 21
-760.628112809037
 31
0.0
  0
LINE
  5
B81
330
B7D
100
AcDbEntity
  8
AM_5
  6
ByBlock
100
AcDbLine
 10
375.4961499578785
 20
-727.938022716248
 30
0.0
 11
375.4961499578785
 21
-760.628112809037
 31
0.0
  0
LINE
  5
B82
330
B7D
100
AcDbEntity
  8
AM_5
  6
ByBlock
100
AcDbLine
 10
332.5247213866169
 20
-759.628112809037
 30
0.0
 11
368.4961499578785
 21
-759.628112809037
 31
0.0
  0
SOLID
  5
B83
330
B7D
100
AcDbEntity
  8
AM_5
100
AcDbTrace
 10
332.5247213866169
 20
-758.4614461423703
 30
0.0
 11
332.5247213866169
 21
-760.7947794757036
 31
0.0
 12
325.5247213866169
 22
-759.628112809037
 32
0.0
 13
325.5247213866169
 23
-759.628112809037
 33
0.0
  0
SOLID
  5
B84
330
B7D
100
AcDbEntity
  8
AM_5
100
AcDbTrace
 10
368.4961499578785
 20
-758.4614461423703
 30
0.0
 11
368.4961499578785
 21
-760.7947794757036
 31
0.0
 12
375.4961499578785
 22
-759.628112809037
 32
0.0
 13
375.4961499578785
 23
-759.628112809037
 33
0.0
  0
MTEXT
  5
B85
330
B7D
100
AcDbEntity
  8
AM_5
 62
     2
100
AcDbMText
 10
350.5104356722477
 20
-753.058569160774
 30
0.0
 40
10.0
 41
0.0
 71
     5
 72
     1
  1
DN50
 73
     1
 44
1.0
1001
ACAD
1000
MTEXTBEGIN
1070
    73
1070
     1
1070
    44
1040
1.0
1070
    74
1070
     0
1000
MTEXTEND
  0
POINT
  5
B86
330
B7D
100
AcDbEntity
  8
Defpoints
 62
     0
100
AcDbPoint
 10
325.5247213866169
 20
-726.938022716248
 30
0.0
  0
POINT
  5
B87
330
B7D
100
AcDbEntity
  8
Defpoints
 62
     0
100
AcDbPoint
 10
375.4961499578785
 20
-726.938022716248
 30
0.0
  0
POINT
  5
B88
330
B7D
100
AcDbEntity
  8
Defpoints
 62
     0
100
AcDbPoint
 10
375.4961499578785
 20
-759.628112809037
 30
0.0
  0
ENDBLK
  5
B7F
330
B7D
100
AcDbEntity
  8
0
100
AcDbBlockEnd
  0
BLOCK
  5
B8A
330
B89
100
AcDbEntity
  8
0
100
AcDbBlockBegin
  2
*D61
 70
     1
 10
0.0
 20
0.0
 30
0.0
  3
*D61
  1

  0
LINE
  5
B8C
330
B89
100
AcDbEntity
  8
AM_5
  6
ByBlock
100
AcDbLine
 10
699.311578529141
 20
-670.370365573141
 30
0.0
 11
770.5808265282285
 21
-670.3703655731411
 31
0.0
  0
LINE
  5
B8D
330
B89
100
AcDbEntity
  8
AM_5
  6
ByBlock
100
AcDbLine
 10
699.3115785297286
 20
-589.6165370018809
 30
0.0
 11
770.5808265282285
 21
-589.6165370018811
 31
0.0
  0
LINE
  5
B8E
330
B89
100
AcDbEntity
  8
AM_5
  6
ByBlock
100
AcDbLine
 10
769.5808265282285
 20
-663.3703655731411
 30
0.0
 11
769.5808265282285
 21
-596.616537001881
 31
0.0
  0
SOLID
  5
B8F
330
B89
100
AcDbEntity
  8
AM_5
100
AcDbTrace
 10
768.4141598615618
 20
-663.3703655731411
 30
0.0
 11
770.7474931948951
 21
-663.3703655731411
 31
0.0
 12
769.5808265282285
 22
-670.3703655731411
 32
0.0
 13
769.5808265282285
 23
-670.3703655731411
 33
0.0
  0
SOLID
  5
B90
330
B89
100
AcDbEntity
  8
AM_5
100
AcDbTrace
 10
768.4141598615618
 20
-596.616537001881
 30
0.0
 11
770.7474931948951
 21
-596.616537001881
 31
0.0
 12
769.5808265282285
 22
-589.6165370018811
 32
0.0
 13
769.5808265282285
 23
-589.6165370018811
 33
0.0
  0
MTEXT
  5
B91
330
B89
100
AcDbEntity
  8
AM_5
 62
     2
100
AcDbMText
 10
763.0808265282285
 20
-629.9934512875108
 30
0.0
 40
10.0
 41
0.0
 71
     5
 72
     1
  1
84
 11
0.0000000000000001
 21
1.0
 31
0.0
 73
     1
 44
1.0
1001
ACAD
1000
MTEXTBEGIN
1070
    73
1070
     1
1070
    44
1040
1.0
1070
    74
1070
     0
1000
MTEXTEND
  0
POINT
  5
B92
330
B89
100
AcDbEntity
  8
Defpoints
 62
     0
100
AcDbPoint
 10
698.3115785291411
 20
-670.370365573141
 30
0.0
  0
POINT
  5
B93
330
B89
100
AcDbEntity
  8
Defpoints
 62
     0
100
AcDbPoint
 10
698.3115785297286
 20
-589.6165370018809
 30
0.0
  0
POINT
  5
B94
330
B89
100
AcDbEntity
  8
Defpoints
 62
     0
100
AcDbPoint
 10
769.5808265282285
 20
-589.6165370018811
 30
0.0
  0
ENDBLK
  5
B8B
330
B89
100
AcDbEntity
  8
0
100
AcDbBlockEnd
  0
BLOCK
  5
B96
330
B95
100
AcDbEntity
  8
0
100
AcDbBlockBegin
  2
*D62
 70
     1
 10
0.0
 20
0.0
 30
0.0
  3
*D62
  1

  0
LINE
  5
B98
330
B95
100
AcDbEntity
  8
AM_5
  6
ByBlock
100
AcDbLine
 10
701.3104356722451
 20
-700.3532227162481
 30
0.0
 11
806.477576468491
 21
-700.3532227162483
 31
0.0
  0
LINE
  5
B99
330
B95
100
AcDbEntity
  8
AM_5
  6
ByBlock
100
AcDbLine
 10
731.2932928153623
 20
-567.6282512875111
 30
0.0
 11
806.477576468491
 21
-567.6282512875112
 31
0.0
  0
LINE
  5
B9A
330
B95
100
AcDbEntity
  8
AM_5
  6
ByBlock
100
AcDbLine
 10
805.477576468491
 20
-693.3532227162483
 30
0.0
 11
805.477576468491
 21
-574.6282512875112
 31
0.0
  0
SOLID
  5
B9B
330
B95
100
AcDbEntity
  8
AM_5
100
AcDbTrace
 10
804.3109098018243
 20
-693.3532227162483
 30
0.0
 11
806.6442431351575
 21
-693.3532227162483
 31
0.0
 12
805.477576468491
 22
-700.3532227162483
 32
0.0
 13
805.477576468491
 23
-700.3532227162483
 33
0.0
  0
SOLID
  5
B9C
330
B95
100
AcDbEntity
  8
AM_5
100
AcDbTrace
 10
804.3109098018243
 20
-574.6282512875112
 30
0.0
 11
806.6442431351575
 21
-574.6282512875112
 31
0.0
 12
805.477576468491
 22
-567.6282512875112
 32
0.0
 13
805.477576468491
 23
-567.6282512875112
 33
0.0
  0
MTEXT
  5
B9D
330
B95
100
AcDbEntity
  8
AM_5
 62
     2
100
AcDbMText
 10
798.977576468491
 20
-633.9907370018795
 30
0.0
 40
10.0
 41
0.0
 71
     5
 72
     1
  1
133
 11
0.0000000000000001
 21
1.0
 31
0.0
 73
     1
 44
1.0
1001
ACAD
1000
MTEXTBEGIN
1070
    73
1070
     1
1070
    44
1040
1.0
1070
    74
1070
     0
1000
MTEXTEND
  0
POINT
  5
B9E
330
B95
100
AcDbEntity
  8
Defpoints
 62
     0
100
AcDbPoint
 10
700.3104356722452
 20
-700.3532227162481
 30
0.0
  0
POINT
  5
B9F
330
B95
100
AcDbEntity
  8
Defpoints
 62
     0
100
AcDbPoint
 10
730.2932928153623
 20
-567.6282512875111
 30
0.0
  0
POINT
  5
BA0
330
B95
100
AcDbEntity
  8
Defpoints
 62
     0
100
AcDbPoint
 10
805.477576468491
 20
-567.6282512875112
 30
0.0
  0
ENDBLK
  5
B97
330
B95
100
AcDbEntity
  8
0
100
AcDbBlockEnd
  0
BLOCK
  5
BA2
330
BA1
100
AcDbEntity
  8
0
100
AcDbBlockBegin
  2
*D63
 70
     1
 10
0.0
 20
0.0
 30
0.0
  3
*D63
  1

  0
LINE
  5
BA4
330
BA1
100
AcDbEntity
  8
AM_5
  6
ByBlock
100
AcDbLine
 10
698.3115785291447
 20
-588.6165370018781
 30
0.0
 11
698.3115785291447
 21
-519.0203131819412
 31
0.0
  0
LINE
  5
BA5
330
BA1
100
AcDbEntity
  8
AM_5
  6
ByBlock
100
AcDbLine
 10
-0.2889928990161934
 20
-588.6165370018809
 30
0.0
 11
-0.2889928990161891
 21
-519.0203131819412
 31
0.0
  0
LINE
  5
BA6
330
BA1
100
AcDbEntity
  8
AM_5
  6
ByBlock
100
AcDbLine
 10
691.3115785291447
 20
-520.0203131819412
 30
0.0
 11
6.711007100983811
 21
-520.0203131819412
 31
0.0
  0
SOLID
  5
BA7
330
BA1
100
AcDbEntity
  8
AM_5
100
AcDbTrace
 10
691.3115785291447
 20
-518.8536465152745
 30
0.0
 11
691.3115785291447
 21
-521.1869798486078
 31
0.0
 12
698.3115785291447
 22
-520.0203131819412
 32
0.0
 13
698.3115785291447
 23
-520.0203131819412
 33
0.0
  0
SOLID
  5
BA8
330
BA1
100
AcDbEntity
  8
AM_5
100
AcDbTrace
 10
6.711007100983811
 20
-518.8536465152745
 30
0.0
 11
6.711007100983811
 21
-521.1869798486078
 31
0.0
 12
-0.2889928990161891
 22
-520.0203131819412
 32
0.0
 13
-0.2889928990161891
 23
-520.0203131819412
 33
0.0
  0
MTEXT
  5
BA9
330
BA1
100
AcDbEntity
  8
AM_5
 62
     2
100
AcDbMText
 10
349.0112928150643
 20
-513.5203131819412
 30
0.0
 40
10.0
 41
0.0
 71
     5
 72
     1
  1
a1
 73
     1
 44
1.0
1001
ACAD
1000
MTEXTBEGIN
1070
    73
1070
     1
1070
    44
1040
1.0
1070
    74
1070
     0
1000
MTEXTEND
  0
POINT
  5
BAA
330
BA1
100
AcDbEntity
  8
Defpoints
 62
     0
100
AcDbPoint
 10
698.3115785291447
 20
-589.6165370018782
 30
0.0
  0
POINT
  5
BAB
330
BA1
100
AcDbEntity
  8
Defpoints
 62
     0
100
AcDbPoint
 10
-0.2889928990161934
 20
-589.6165370018809
 30
0.0
  0
POINT
  5
BAC
330
BA1
100
AcDbEntity
  8
Defpoints
 62
     0
100
AcDbPoint
 10
-0.2889928990161891
 20
-520.0203131819412
 30
0.0
  0
ENDBLK
  5
BA3
330
BA1
100
AcDbEntity
  8
0
100
AcDbBlockEnd
  0
BLOCK
  5
BAE
330
BAD
100
AcDbEntity
  8
0
100
AcDbBlockBegin
  2
*D64
 70
     1
 10
0.0
 20
0.0
 30
0.0
  3
*D64
  1

  0
LINE
  5
BB0
330
BAD
100
AcDbEntity
  8
AM_5
  6
ByBlock
100
AcDbLine
 10
730.2932928153623
 20
-567.6282512875111
 30
0.0
 11
730.2932928153623
 21
-483.8968581148371
 31
0.0
  0
LINE
  5
BB1
330
BAD
100
AcDbEntity
  8
AM_5
  6
ByBlock
100
AcDbLine
 10
-22.27699289902284
 20
-568.6279655731432
 30
0.0
 11
-22.27699289902284
 21
-483.8968581148371
 31
0.0
  0
LINE
  5
BB2
330
BAD
100
AcDbEntity
  8
AM_5
  6
ByBlock
100
AcDbLine
 10
723.2932928153623
 20
-484.8968581148372
 30
0.0
 11
-15.27699289902284
 21
-484.8968581148372
 31
0.0
  0
SOLID
  5
BB3
330
BAD
100
AcDbEntity
  8
AM_5
100
AcDbTrace
 10
723.2932928153623
 20
-483.7301914481705
 30
0.0
 11
723.2932928153623
 21
-486.0635247815038
 31
0.0
 12
730.2932928153623
 22
-484.8968581148372
 32
0.0
 13
730.2932928153623
 23
-484.8968581148372
 33
0.0
  0
SOLID
  5
BB4
330
BAD
100
AcDbEntity
  8
AM_5
100
AcDbTrace
 10
-15.27699289902284
 20
-483.7301914481705
 30
0.0
 11
-15.27699289902284
 21
-486.0635247815038
 31
0.0
 12
-22.27699289902284
 22
-484.8968581148372
 32
0.0
 13
-22.27699289902284
 23
-484.8968581148372
 33
0.0
  0
MTEXT
  5
BB5
330
BAD
100
AcDbEntity
  8
AM_5
 62
     2
100
AcDbMText
 10
354.0081499581697
 20
-478.3958738628686
 30
0.0
 40
10.0
 41
0.0
 71
     5
 72
     1
  1
a2
 73
     1
 44
1.0
1001
ACAD
1000
MTEXTBEGIN
1070
    73
1070
     1
1070
    44
1040
1.0
1070
    74
1070
     0
1000
MTEXTEND
  0
POINT
  5
BB6
330
BAD
100
AcDbEntity
  8
Defpoints
 62
     0
100
AcDbPoint
 10
730.2932928153623
 20
-568.6282512875111
 30
0.0
  0
POINT
  5
BB7
330
BAD
100
AcDbEntity
  8
Defpoints
 62
     0
100
AcDbPoint
 10
-22.27699289902284
 20
-569.6279655731432
 30
0.0
  0
POINT
  5
BB8
330
BAD
100
AcDbEntity
  8
Defpoints
 62
     0
100
AcDbPoint
 10
-22.27699289902284
 20
-484.8968581148372
 30
0.0
  0
ENDBLK
  5
BAF
330
BAD
100
AcDbEntity
  8
0
100
AcDbBlockEnd
  0
BLOCK
  5
BBA
330
BB9
100
AcDbEntity
  8
0
100
AcDbBlockBegin
  2
*D65
 70
     1
 10
0.0
 20
0.0
 30
0.0
  3
*D65
  1

  0
LINE
  5
BBC
330
BB9
100
AcDbEntity
  8
AM_5
  6
ByBlock
100
AcDbLine
 10
699.3115785297286
 20
-279.3561573470363
 30
0.0
 11
784.375635534714
 21
-279.3561573470363
 31
0.0
  0
LINE
  5
BBD
330
BB9
100
AcDbEntity
  8
AM_5
  6
ByBlock
100
AcDbLine
 10
731.2932928153623
 20
-239.379014490143
 30
0.0
 11
784.375635534714
 21
-239.379014490143
 31
0.0
  0
LINE
  5
BBE
330
BB9
100
AcDbEntity
  8
AM_5
  6
ByBlock
100
AcDbLine
 10
783.375635534714
 20
-272.3561573470363
 30
0.0
 11
783.3756355347141
 21
-246.3790144901429
 31
0.0
  0
SOLID
  5
BBF
330
BB9
100
AcDbEntity
  8
AM_5
100
AcDbTrace
 10
782.2089688680473
 20
-272.3561573470363
 30
0.0
 11
784.5423022013806
 21
-272.3561573470363
 31
0.0
 12
783.375635534714
 22
-279.3561573470363
 32
0.0
 13
783.375635534714
 23
-279.3561573470363
 33
0.0
  0
SOLID
  5
BC0
330
BB9
100
AcDbEntity
  8
AM_5
100
AcDbTrace
 10
782.2089688680474
 20
-246.3790144901429
 30
0.0
 11
784.5423022013807
 21
-246.3790144901429
 31
0.0
 12
783.3756355347141
 22
-239.379014490143
 32
0.0
 13
783.3756355347141
 23
-239.379014490143
 33
0.0
  0
MTEXT
  5
BC1
330
BB9
100
AcDbEntity
  8
AM_5
 62
     2
100
AcDbMText
 10
776.875635534714
 20
-259.3675859185895
 30
0.0
 40
10.0
 41
0.0
 71
     5
 72
     1
  1
40
 11
0.0000000000000001
 21
1.0
 31
0.0
 73
     1
 44
1.0
1001
ACAD
1000
MTEXTBEGIN
1070
    73
1070
     1
1070
    44
1040
1.0
1070
    74
1070
     0
1000
MTEXTEND
  0
POINT
  5
BC2
330
BB9
100
AcDbEntity
  8
Defpoints
 62
     0
100
AcDbPoint
 10
698.3115785297286
 20
-279.3561573470363
 30
0.0
  0
POINT
  5
BC3
330
BB9
100
AcDbEntity
  8
Defpoints
 62
     0
100
AcDbPoint
 10
730.2932928153623
 20
-239.379014490143
 30
0.0
  0
POINT
  5
BC4
330
BB9
100
AcDbEntity
  8
Defpoints
 62
     0
100
AcDbPoint
 10
783.3756355347141
 20
-239.379014490143
 30
0.0
  0
ENDBLK
  5
BBB
330
BB9
100
AcDbEntity
  8
0
100
AcDbBlockEnd
  0
BLOCK
  5
C11
330
C10
100
AcDbEntity
  8
0
100
AcDbBlockBegin
  2
*D66
 70
     1
 10
0.0
 20
0.0
 30
0.0
  3
*D66
  1

  0
LINE
  5
C12
330
C10
100
AcDbEntity
  8
AM_5
  6
ByBlock
100
AcDbLine
 10
4398.441128890381
 20
452.7165108900164
 30
0.0
 11
4398.441128890381
 21
501.4470983889324
 31
0.0
  0
LINE
  5
C13
330
C10
100
AcDbEntity
  8
AM_5
  6
ByBlock
100
AcDbLine
 10
4318.441124743669
 20
451.7165108898518
 30
0.0
 11
4318.441124743669
 21
501.4470983889324
 31
0.0
  0
LINE
  5
C14
330
C10
100
AcDbEntity
  8
AM_5
  6
ByBlock
100
AcDbLine
 10
4391.441128890381
 20
500.4470983889325
 30
0.0
 11
4325.441124743669
 21
500.4470983889325
 31
0.0
  0
SOLID
  5
C15
330
C10
100
AcDbEntity
  8
AM_5
100
AcDbTrace
 10
4391.441128890381
 20
501.6137650555991
 30
0.0
 11
4391.441128890381
 21
499.2804317222658
 31
0.0
 12
4398.441128890381
 22
500.4470983889325
 32
0.0
 13
4398.441128890381
 23
500.4470983889325
 33
0.0
  0
SOLID
  5
C16
330
C10
100
AcDbEntity
  8
AM_5
100
AcDbTrace
 10
4325.441124743669
 20
501.6137650555991
 30
0.0
 11
4325.441124743669
 21
499.2804317222658
 31
0.0
 12
4318.441124743669
 22
500.4470983889325
 32
0.0
 13
4318.441124743669
 23
500.4470983889325
 33
0.0
  0
MTEXT
  5
C17
330
C10
100
AcDbEntity
  8
AM_5
 62
     2
100
AcDbMText
 10
4358.441126817025
 20
506.9470983889324
 30
0.0
 40
10.0
 41
0.0
 71
     5
 72
     1
  1
80
 73
     1
 44
1.0
1001
ACAD
1000
MTEXTBEGIN
1070
    73
1070
     1
1070
    44
1040
1.0
1070
    74
1070
     0
1000
MTEXTEND
  0
POINT
  5
C18
330
C10
100
AcDbEntity
  8
Defpoints
 62
     0
100
AcDbPoint
 10
4398.441128890381
 20
451.7165108900164
 30
0.0
  0
POINT
  5
C19
330
C10
100
AcDbEntity
  8
Defpoints
 62
     0
100
AcDbPoint
 10
4318.441124743669
 20
450.7165108898518
 30
0.0
  0
POINT
  5
C1A
330
C10
100
AcDbEntity
  8
Defpoints
 62
     0
100
AcDbPoint
 10
4318.441124743669
 20
500.4470983889325
 30
0.0
  0
ENDBLK
  5
C1B
330
C10
100
AcDbEntity
  8
0
100
AcDbBlockEnd
  0
BLOCK
  5
D40
330
D3F
100
AcDbEntity
  8
0
100
AcDbBlockBegin
  2
*D68
 70
     1
 10
0.0
 20
0.0
 30
0.0
  3
*D68
  1

  0
LINE
  5
D42
330
D3F
100
AcDbEntity
  8
AM_5
  6
ByBlock
100
AcDbLine
 10
1107.444728657869
 20
442.7226652442155
 30
0.0
 11
1107.444728657869
 21
491.4532527431315
 31
0.0
  0
LINE
  5
D43
330
D3F
100
AcDbEntity
  8
AM_5
  6
ByBlock
100
AcDbLine
 10
1027.444724511157
 20
441.7226652440509
 30
0.0
 11
1027.444724511157
 21
491.4532527431315
 31
0.0
  0
LINE
  5
D44
330
D3F
100
AcDbEntity
  8
AM_5
  6
ByBlock
100
AcDbLine
 10
1100.444728657869
 20
490.4532527431316
 30
0.0
 11
1034.444724511157
 21
490.4532527431316
 31
0.0
  0
SOLID
  5
D45
330
D3F
100
AcDbEntity
  8
AM_5
100
AcDbTrace
 10
1100.444728657869
 20
491.6199194097982
 30
0.0
 11
1100.444728657869
 21
489.2865860764649
 31
0.0
 12
1107.444728657869
 22
490.4532527431316
 32
0.0
 13
1107.444728657869
 23
490.4532527431316
 33
0.0
  0
SOLID
  5
D46
330
D3F
100
AcDbEntity
  8
AM_5
100
AcDbTrace
 10
1034.444724511157
 20
491.6199194097982
 30
0.0
 11
1034.444724511157
 21
489.2865860764649
 31
0.0
 12
1027.444724511157
 22
490.4532527431316
 32
0.0
 13
1027.444724511157
 23
490.4532527431316
 33
0.0
  0
MTEXT
  5
D47
330
D3F
100
AcDbEntity
  8
AM_5
 62
     2
100
AcDbMText
 10
1067.444726584513
 20
496.9532527431316
 30
0.0
 40
10.0
 41
0.0
 71
     5
 72
     1
  1
80
 73
     1
 44
1.0
1001
ACAD
1000
MTEXTBEGIN
1070
    73
1070
     1
1070
    44
1040
1.0
1070
    74
1070
     0
1000
MTEXTEND
  0
POINT
  5
D48
330
D3F
100
AcDbEntity
  8
Defpoints
 62
     0
100
AcDbPoint
 10
1107.444728657869
 20
441.7226652442155
 30
0.0
  0
POINT
  5
D49
330
D3F
100
AcDbEntity
  8
Defpoints
 62
     0
100
AcDbPoint
 10
1027.444724511157
 20
440.722665244051
 30
0.0
  0
POINT
  5
D4A
330
D3F
100
AcDbEntity
  8
Defpoints
 62
     0
100
AcDbPoint
 10
1027.444724511157
 20
490.4532527431316
 30
0.0
  0
ENDBLK
  5
D41
330
D3F
100
AcDbEntity
  8
0
100
AcDbBlockEnd
  0
BLOCK
  5
D4D
330
D4C
100
AcDbEntity
  8
0
100
AcDbBlockBegin
  2
befestigung
 70
     0
 10
0.0
 20
0.0
 30
0.0
  3
befestigung
  1

  0
LINE
  5
D4E
330
D4C
100
AcDbEntity
  8
AM_7N
  6
AM_ISO08W050x2
100
AcDbLine
 10
2003.869006815402
 20
1351.458312600669
 30
0.0
 11
2040.549006815402
 21
1351.458312600669
 31
0.0
1001
GENIUS_GENOREF_13
1005
0
1005
0
1005
0
  0
LINE
  5
D4F
330
D4C
100
AcDbEntity
  8
AM_9N
100
AcDbLine
 10
2015.674006815402
 20
1347.458312600669
 30
0.0
 11
2017.974006815402
 21
1347.458312600669
 31
0.0
1001
GENIUS_GENOREF_13
1005
0
1005
0
1005
0
  0
LINE
  5
D50
330
D4C
100
AcDbEntity
  8
AM_9N
100
AcDbLine
 10
2022.209006815402
 20
1347.458312600669
 30
0.0
 11
2032.209006815401
 21
1347.458312600669
 31
0.0
1001
GENIUS_GENOREF_13
1005
0
1005
0
1005
0
  0
LINE
  5
D51
330
D4C
100
AcDbEntity
  8
AM_0N
100
AcDbLine
 10
2027.974006815401
 20
1347.458312600669
 30
0.0
 11
2036.782194315402
 21
1347.458312600669
 31
0.0
1001
GENIUS_GENOREF_13
1005
0
1005
0
1005
0
  0
LINE
  5
D52
330
D4C
100
AcDbEntity
  8
AM_9N
100
AcDbLine
 10
2015.674006815402
 20
1348.225125100669
 30
0.0
 11
2017.974006815402
 21
1348.225125100669
 31
0.0
1001
GENIUS_GENOREF_13
1005
0
1005
0
1005
0
  0
LINE
  5
D53
330
D4C
100
AcDbEntity
  8
AM_9N
100
AcDbLine
 10
2022.209006815402
 20
1348.225125100669
 30
0.0
 11
2032.209006815401
 21
1348.225125100669
 31
0.0
1001
GENIUS_GENOREF_13
1005
0
1005
0
1005
0
  0
LINE
  5
D54
330
D4C
100
AcDbEntity
  8
AM_4N
100
AcDbLine
 10
2027.974006815401
 20
1348.225125100669
 30
0.0
 11
2037.549006815402
 21
1348.225125100669
 31
0.0
1001
GENIUS_GENOREF_13
1005
0
1005
0
1005
0
  0
LINE
  5
D55
330
D4C
100
AcDbEntity
  8
AM_9N
100
AcDbLine
 10
2015.674006815402
 20
1354.691500100669
 30
0.0
 11
2017.974006815402
 21
1354.691500100669
 31
0.0
1001
GENIUS_GENOREF_13
1005
0
1005
0
1005
0
  0
LINE
  5
D56
330
D4C
100
AcDbEntity
  8
AM_9N
100
AcDbLine
 10
2027.974006815401
 20
1354.691500100669
 30
0.0
 11
2032.209006815401
 21
1354.691500100669
 31
0.0
1001
GENIUS_GENOREF_13
1005
0
1005
0
1005
0
  0
LINE
  5
D57
330
D4C
100
AcDbEntity
  8
AM_4N
100
AcDbLine
 10
2027.974006815401
 20
1354.691500100669
 30
0.0
 11
2037.549006815402
 21
1354.691500100669
 31
0.0
1001
GENIUS_GENOREF_13
1005
0
1005
0
1005
0
  0
LINE
  5
D58
330
D4C
100
AcDbEntity
  8
AM_9N
100
AcDbLine
 10
2015.674006815402
 20
1355.458312600669
 30
0.0
 11
2017.974006815402
 21
1355.458312600669
 31
0.0
1001
GENIUS_GENOREF_13
1005
0
1005
0
1005
0
  0
LINE
  5
D59
330
D4C
100
AcDbEntity
  8
AM_9N
100
AcDbLine
 10
2027.974006815401
 20
1355.458312600669
 30
0.0
 11
2032.209006815401
 21
1355.458312600669
 31
0.0
1001
GENIUS_GENOREF_13
1005
0
1005
0
1005
0
  0
LINE
  5
D5A
330
D4C
100
AcDbEntity
  8
AM_0N
100
AcDbLine
 10
2027.974006815401
 20
1355.458312600669
 30
0.0
 11
2036.782194315402
 21
1355.458312600669
 31
0.0
1001
GENIUS_GENOREF_13
1005
0
1005
0
1005
0
  0
ARC
  5
D5B
330
D4C
100
AcDbEntity
  8
AM_0N
100
AcDbCircle
 10
2019.27813978905
 20
1351.458312600669
 30
0.0
 40
12.4091329736479
100
AcDbArc
 50
162.3875260144767
 51
197.6124739855233
1001
GENIUS_GENOREF_13
1005
0
1005
0
1005
0
  0
LINE
  5
D5C
330
D4C
100
AcDbEntity
  8
AM_0N
100
AcDbLine
 10
2012.549006815402
 20
1347.458312600669
 30
0.0
 11
2012.549006815402
 21
1355.458312600669
 31
0.0
1001
GENIUS_GENOREF_13
1005
0
1005
0
1005
0
  0
LINE
  5
D5D
330
D4C
100
AcDbEntity
  8
AM_0N
100
AcDbLine
 10
2012.549006815402
 20
1355.458312600669
 30
0.0
 11
2012.549006815402
 21
1347.458312600669
 31
0.0
1001
GENIUS_GENOREF_13
1005
0
1005
0
1005
0
  0
LINE
  5
D5E
330
D4C
100
AcDbEntity
  8
AM_0N
100
AcDbLine
 10
2006.869006815402
 20
1357.958312600669
 30
0.0
 11
2006.869006815402
 21
1344.958312600669
 31
0.0
1001
GENIUS_GENOREF_13
1005
0
1005
0
1005
0
  0
LINE
  5
D5F
330
D4C
100
AcDbEntity
  8
AM_0N
100
AcDbLine
 10
2007.45068721161
 20
1343.950812600669
 30
0.0
 11
2012.549006815402
 21
1343.950812600669
 31
0.0
1001
GENIUS_GENOREF_13
1005
0
1005
0
1005
0
  0
LINE
  5
D60
330
D4C
100
AcDbEntity
  8
AM_0N
100
AcDbLine
 10
2007.45068721161
 20
1347.703589350401
 30
0.0
 11
2012.549006815402
 21
1347.703589350401
 31
0.0
1001
GENIUS_GENOREF_13
1005
0
1005
0
1005
0
  0
ARC
  5
D61
330
D4C
100
AcDbEntity
  8
AM_0N
100
AcDbCircle
 10
2010.186279876194
 20
1345.827200975535
 30
0.0
 40
3.317273060791837
100
AcDbArc
 50
145.5531276177371
 51
205.5531276177362
1001
GENIUS_GENOREF_13
1005
0
1005
0
1005
0
  0
LINE
  5
D62
330
D4C
100
AcDbEntity
  8
AM_0N
100
AcDbLine
 10
2007.45068721161
 20
1343.950812600669
 30
0.0
 11
2006.869006815402
 21
1344.958312600669
 31
0.0
1001
GENIUS_GENOREF_13
1005
0
1005
0
1005
0
  0
LINE
  5
D63
330
D4C
100
AcDbEntity
  8
AM_0N
100
AcDbLine
 10
2012.549006815402
 20
1343.950812600669
 30
0.0
 11
2012.549006815402
 21
1347.458312600669
 31
0.0
1001
GENIUS_GENOREF_13
1005
0
1005
0
1005
0
  0
LINE
  5
D64
330
D4C
100
AcDbEntity
  8
AM_0N
100
AcDbLine
 10
2012.549006815402
 20
1355.458312600669
 30
0.0
 11
2012.549006815402
 21
1358.965812600669
 31
0.0
1001
GENIUS_GENOREF_13
1005
0
1005
0
1005
0
  0
LINE
  5
D65
330
D4C
100
AcDbEntity
  8
AM_0N
100
AcDbLine
 10
2007.45068721161
 20
1358.965812600669
 30
0.0
 11
2006.869006815402
 21
1357.958312600669
 31
0.0
1001
GENIUS_GENOREF_13
1005
0
1005
0
1005
0
  0
LINE
  5
D66
330
D4C
100
AcDbEntity
  8
AM_0N
100
AcDbLine
 10
2007.45068721161
 20
1355.213035850936
 30
0.0
 11
2012.549006815402
 21
1355.213035850936
 31
0.0
1001
GENIUS_GENOREF_13
1005
0
1005
0
1005
0
  0
ARC
  5
D67
330
D4C
100
AcDbEntity
  8
AM_0N
100
AcDbCircle
 10
2010.186279876194
 20
1357.089424225803
 30
0.0
 40
3.317273060791837
100
AcDbArc
 50
154.4468723822637
 51
214.4468723822629
1001
GENIUS_GENOREF_13
1005
0
1005
0
1005
0
  0
LINE
  5
D68
330
D4C
100
AcDbEntity
  8
AM_0N
100
AcDbLine
 10
2007.45068721161
 20
1358.965812600669
 30
0.0
 11
2012.549006815402
 21
1358.965812600669
 31
0.0
1001
GENIUS_GENOREF_13
1005
0
1005
0
1005
0
  0
LINE
  5
D69
330
D4C
100
AcDbEntity
  8
AM_0N
100
AcDbLine
 10
2036.782194315402
 20
1347.458312600669
 30
0.0
 11
2036.782194315402
 21
1355.458312600669
 31
0.0
1001
GENIUS_GENOREF_13
1005
0
1005
0
1005
0
  0
LINE
  5
D6A
330
D4C
100
AcDbEntity
  8
AM_0N
100
AcDbLine
 10
2037.549006815402
 20
1348.225125100669
 30
0.0
 11
2036.782194315402
 21
1347.458312600669
 31
0.0
1001
GENIUS_GENOREF_13
1005
0
1005
0
1005
0
  0
LINE
  5
D6B
330
D4C
100
AcDbEntity
  8
AM_0N
100
AcDbLine
 10
2037.549006815402
 20
1348.225125100669
 30
0.0
 11
2037.549006815402
 21
1354.691500100669
 31
0.0
1001
GENIUS_GENOREF_13
1005
0
1005
0
1005
0
  0
LINE
  5
D6C
330
D4C
100
AcDbEntity
  8
AM_0N
100
AcDbLine
 10
2036.782194315402
 20
1355.458312600669
 30
0.0
 11
2037.549006815402
 21
1354.691500100669
 31
0.0
1001
GENIUS_GENOREF_13
1005
0
1005
0
1005
0
  0
INSERT
  5
D6D
330
D4C
100
AcDbEntity
  8
AM_0N
100
AcDbBlockReference
  2
*U70
 10
0.0
 20
0.0
 30
0.0
1001
GENIUS_GENOREF_13
1005
0
  0
INSERT
  5
D6E
330
D4C
100
AcDbEntity
  8
AM_0N
100
AcDbBlockReference
  2
*U71
 10
0.0
 20
0.0
 30
0.0
1001
GENIUS_GENOREF_13
1005
0
  0
ENDBLK
  5
D6F
330
D4C
100
AcDbEntity
  8
0
100
AcDbBlockEnd
  0
BLOCK
  5
D71
330
D70
100
AcDbEntity
  8
0
100
AcDbBlockBegin
  2
*U70
 70
     1
 10
0.0
 20
0.0
 30
0.0
  3
*U70
  1

  0
ARC
  5
D72
330
D70
100
AcDbEntity
  8
AM_0N
100
AcDbCircle
 10
2031.974006815402
 20
1364.958312600669
 30
0.0
 40
6.0
100
AcDbArc
 50
284.6765041088877
 51
134.956760177952
  0
LINE
  5
D73
330
D70
100
AcDbEntity
  8
AM_0N
100
AcDbLine
 10
2017.974006815402
 20
1359.458312600669
 30
0.0
 11
2027.734569160611
 21
1369.204153903773
 31
0.0
  0
LINE
  5
D74
330
D70
100
AcDbEntity
  8
AM_0N
100
AcDbLine
 10
2027.974006815401
 20
1357.708312600669
 30
0.0
 11
2033.494174408163
 21
1359.154082204663
 31
0.0
  0
ARC
  5
D75
330
D70
100
AcDbEntity
  8
AM_0N
100
AcDbCircle
 10
2031.974006815402
 20
1337.958312600669
 30
0.0
 40
6.0
100
AcDbArc
 50
225.043239822048
 51
75.3234958911123
  0
LINE
  5
D76
330
D70
100
AcDbEntity
  8
AM_0N
100
AcDbLine
 10
2017.974006815402
 20
1343.458312600669
 30
0.0
 11
2027.734569160611
 21
1333.712471297565
 31
0.0
  0
LINE
  5
D77
330
D70
100
AcDbEntity
  8
AM_7N
  6
AM_ISO08W050x2
100
AcDbLine
 10
2030.974006815402
 20
1351.458312600669
 30
0.0
 11
2014.974006815402
 21
1351.458312600669
 31
0.0
  0
LINE
  5
D78
330
D70
100
AcDbEntity
  8
AM_0N
100
AcDbLine
 10
2017.974006815402
 20
1343.458312600669
 30
0.0
 11
2017.974006815402
 21
1359.458312600669
 31
0.0
  0
LINE
  5
D79
330
D70
100
AcDbEntity
  8
AM_0N
100
AcDbLine
 10
2027.974006815401
 20
1357.708312600669
 30
0.0
 11
2027.974006815401
 21
1345.208312600669
 31
0.0
  0
LINE
  5
D7A
330
D70
100
AcDbEntity
  8
AM_0N
100
AcDbLine
 10
2027.974006815401
 20
1345.208312600669
 30
0.0
 11
2017.974006815402
 21
1343.458312600669
 31
0.0
  0
LINE
  5
D7B
330
D70
100
AcDbEntity
  8
AM_0N
100
AcDbLine
 10
2027.974006815401
 20
1345.208312600669
 30
0.0
 11
2033.494174408163
 21
1343.762542996675
 31
0.0
  0
LINE
  5
D7C
330
D70
100
AcDbEntity
  8
AM_0N
100
AcDbLine
 10
2017.974006815402
 20
1359.458312600669
 30
0.0
 11
2027.974006815401
 21
1357.708312600669
 31
0.0
  0
ENDBLK
  5
D7D
330
D70
100
AcDbEntity
  8
0
100
AcDbBlockEnd
  0
BLOCK
  5
D7F
330
D7E
100
AcDbEntity
  8
0
100
AcDbBlockBegin
  2
*U71
 70
     1
 10
0.0
 20
0.0
 30
0.0
  3
*U71
  1

  0
LINE
  5
D80
330
D7E
100
AcDbEntity
  8
AM_7N
  6
AM_ISO08W050x2
100
AcDbLine
 10
2012.674006815402
 20
1351.458312600669
 30
0.0
 11
2020.974006815402
 21
1351.458312600669
 31
0.0
  0
LINE
  5
D81
330
D7E
100
AcDbEntity
  8
AM_0N
100
AcDbLine
 10
2015.674006815402
 20
1360.858312600669
 30
0.0
 11
2015.674006815402
 21
1342.058312600669
 31
0.0
  0
LINE
  5
D82
330
D7E
100
AcDbEntity
  8
AM_0N
100
AcDbLine
 10
2017.974006815402
 20
1342.058312600669
 30
0.0
 11
2017.974006815402
 21
1360.858312600669
 31
0.0
  0
LINE
  5
D83
330
D7E
100
AcDbEntity
  8
AM_0N
100
AcDbLine
 10
2015.674006815402
 20
1342.058312600669
 30
0.0
 11
2017.974006815402
 21
1342.058312600669
 31
0.0
  0
LINE
  5
D84
330
D7E
100
AcDbEntity
  8
AM_0N
100
AcDbLine
 10
2017.974006815402
 20
1360.858312600669
 30
0.0
 11
2015.674006815402
 21
1360.858312600669
 31
0.0
  0
ENDBLK
  5
D85
330
D7E
100
AcDbEntity
  8
0
100
AcDbBlockEnd
  0
ENDSEC
  0
SECTION
  2
ENTITIES
  0
LINE
  5
46D
330
1F
100
AcDbEntity
  8
0
  6
Continuous
 62
     7
100
AcDbLine
 10
0.0709733734120164
 20
426.7318081010601
 30
0.0
 11
0.0709733734120164
 21
482.6998081010595
 31
0.0
  0
LINE
  5
46E
330
1F
100
AcDbEntity
  8
0
  6
Continuous
 62
     7
100
AcDbLine
 10
1.070401944676632
 20
423.6499013715331
 30
0.0
 11
1.070401944676632
 21
426.7318081010601
 31
0.0
  0
LINE
  5
46F
330
1F
100
AcDbEntity
  8
0
  6
Continuous
 62
     7
100
AcDbLine
 10
1.070401944676632
 20
426.7318081010601
 30
0.0
 11
1.070401944676632
 21
482.6998081010595
 31
0.0
  0
LINE
  5
470
330
1F
100
AcDbEntity
  8
0
  6
Continuous
 62
     7
100
AcDbLine
 10
20.0595448015647
 20
423.6499013715331
 30
0.0
 11
20.0595448015647
 21
357.771236672904
 31
0.0
  0
LINE
  5
471
330
1F
100
AcDbEntity
  8
0
  6
Continuous
 62
     7
100
AcDbLine
 10
21.05897337341594
 20
423.6499013715331
 30
0.0
 11
21.05897337341594
 21
421.9205120573512
 31
0.0
  0
LINE
  5
472
330
1F
100
AcDbEntity
  8
0
  6
Continuous
 62
     7
100
AcDbLine
 10
21.05897337341594
 20
421.9205120573512
 30
0.0
 11
21.05897337341594
 21
357.771236672904
 31
0.0
  0
LINE
  5
473
330
1F
100
AcDbEntity
  8
0
  6
Continuous
 62
     7
100
AcDbLine
 10
21.05897337341594
 20
357.771236672904
 30
0.0
 11
21.05897337341594
 21
319.7929509585351
 31
0.0
  0
LINE
  5
474
330
1F
100
AcDbEntity
  8
0
  6
Continuous
 62
     7
100
AcDbLine
 10
21.05897337341594
 20
442.7226652441661
 30
0.0
 11
21.05897337341594
 21
443.0128297340013
 31
0.0
  0
LINE
  5
475
330
1F
100
AcDbEntity
  8
0
  6
Continuous
 62
     7
100
AcDbLine
 10
23.05783051593244
 20
397.7483795297971
 30
0.0
 11
23.05783051593244
 21
319.7929509585351
 31
0.0
  0
LINE
  5
476
330
1F
100
AcDbEntity
  8
0
  6
Continuous
 62
     7
100
AcDbLine
 10
83.02354480157374
 20
317.7940938154272
 30
0.0
 11
83.02354480157374
 21
315.7952366729042
 31
0.0
  0
LINE
  5
477
330
1F
100
AcDbEntity
  8
0
  6
Continuous
 62
     7
100
AcDbLine
 10
25.05668765904557
 20
315.7952366729042
 30
0.0
 11
83.02354480157374
 21
315.7952366729042
 31
0.0
  0
LINE
  5
478
330
1F
100
AcDbEntity
  8
0
  6
Continuous
 62
     7
100
AcDbLine
 10
658.6239999790814
 20
315.7952366729042
 30
0.0
 11
716.5908571221843
 21
315.7952366729042
 31
0.0
  0
LINE
  5
479
330
1F
100
AcDbEntity
  8
0
  6
Continuous
 62
     7
100
AcDbLine
 10
25.05668765904557
 20
317.7940938154272
 30
0.0
 11
83.02354480157374
 21
317.7940938154272
 31
0.0
  0
LINE
  5
47A
330
1F
100
AcDbEntity
  8
0
  6
Continuous
 62
     7
100
AcDbLine
 10
658.6239999790814
 20
317.7940938154272
 30
0.0
 11
716.5908571221843
 21
317.7940938154272
 31
0.0
  0
LINE
  5
47B
330
1F
100
AcDbEntity
  8
0
  6
Continuous
 62
     7
100
AcDbLine
 10
335.8066968651801
 20
417.3551517798182
 30
0.0
 11
335.8085712311713
 21
417.2939709226313
 31
0.0
  0
LINE
  5
47C
330
1F
100
AcDbEntity
  8
0
  6
Continuous
 62
     7
100
AcDbLine
 10
335.3088571221924
 20
411.740379529797
 30
0.0
 11
335.3088571221924
 21
342.2800938154282
 31
0.0
  0
LINE
  5
47D
330
1F
100
AcDbEntity
  8
0
  6
Continuous
 62
     7
100
AcDbLine
 10
335.8085714078206
 20
417.2939707296572
 30
0.0
 11
335.8085714078206
 21
411.740379529797
 31
0.0
  0
LINE
  5
47E
330
1F
100
AcDbEntity
  8
0
  6
Continuous
 62
     7
100
AcDbLine
 10
403.7085778012224
 20
335.7838081010593
 30
0.0
 11
341.8051428365616
 21
335.7838081010593
 31
0.0
  0
LINE
  5
47F
330
1F
100
AcDbEntity
  8
0
  6
Continuous
 62
     7
100
AcDbLine
 10
720.5885714078212
 20
342.7798081010585
 30
0.0
 11
721.5879999790868
 21
342.7798081010585
 31
0.0
  0
LINE
  5
480
330
1F
100
AcDbEntity
  8
0
  6
Continuous
 62
     7
100
AcDbLine
 10
335.7958873776479
 20
417.4526920103432
 30
0.0
 11
335.8066968651801
 21
417.3551517798182
 31
0.0
  0
LINE
  5
481
330
1F
100
AcDbEntity
  8
0
  6
Continuous
 62
     7
100
AcDbLine
 10
21.05897337341594
 20
357.771236672904
 30
0.0
 11
20.0595448015647
 21
357.771236672904
 31
0.0
  0
LINE
  5
482
330
1F
100
AcDbEntity
  8
0
  6
Continuous
 62
     7
100
AcDbLine
 10
720.5885714078212
 20
397.7483795297971
 30
0.0
 11
718.589714264719
 21
397.7483795297971
 31
0.0
  0
LINE
  5
483
330
1F
100
AcDbEntity
  8
0
  6
Continuous
 62
     7
100
AcDbLine
 10
21.05897337341594
 20
397.7483795297971
 30
0.0
 11
23.05783051593244
 21
397.7483795297971
 31
0.0
  0
LINE
  5
484
330
1F
100
AcDbEntity
  8
0
  6
Continuous
 62
     7
100
AcDbLine
 10
409.7662856934602
 20
417.2939707296572
 30
0.0
 11
409.7662856934602
 21
411.740379529797
 31
0.0
  0
LINE
  5
485
330
1F
100
AcDbEntity
  8
0
  6
Continuous
 62
     7
100
AcDbLine
 10
410.2659999790812
 20
411.740379529797
 30
0.0
 11
410.2659999790812
 21
342.2800938154282
 31
0.0
  0
LINE
  5
486
330
1F
100
AcDbEntity
  8
0
  6
Continuous
 62
     7
100
AcDbLine
 10
409.7662857663344
 20
417.2939713674582
 30
0.0
 11
409.768152039107
 21
417.3550194516444
 31
0.0
  0
LINE
  5
487
330
1F
100
AcDbEntity
  8
0
  6
Continuous
 62
     7
100
AcDbLine
 10
409.768152039107
 20
417.3550194516444
 30
0.0
 11
409.7789333141008
 21
417.4524659194453
 31
0.0
  0
LWPOLYLINE
  5
488
330
1F
100
AcDbEntity
  8
0
  6
Continuous
 62
     7
100
AcDbPolyline
 90
       16
 70
     0
 43
0.0
 10
409.7789333141008
 20
417.4524659194453
 10
409.7992247684487
 20
417.5484416578091
 10
409.8288423624216
 20
417.6420058831333
 10
409.8675083198868
 20
417.7322440917121
 10
409.9148544797953
 20
417.8182751414203
 10
409.9704253536019
 20
417.8992583188603
 10
410.0336830194464
 20
417.9744027996894
 10
410.1040107426197
 20
418.042974080281
 10
410.1807282227509
 20
418.1043095006803
 10
410.2630891667685
 20
418.1578142481412
 10
410.3503004445938
 20
418.2029751235054
 10
410.4415206531229
 20
418.2393574996894
 10
410.5358704138179
 20
418.2666111854993
 10
410.6324402898135
 20
418.2844734828872
 10
410.7302995146128
 20
418.292771736982
 10
410.7657142647112
 20
418.2933993947822
  0
LINE
  5
489
330
1F
100
AcDbEntity
  8
0
  6
Continuous
 62
     7
100
AcDbLine
 10
21.05897337341594
 20
407.7426652441663
 30
0.0
 11
20.0595448015647
 21
407.7426652441663
 31
0.0
  0
LINE
  5
48A
330
1F
100
AcDbEntity
  8
0
  6
Continuous
 62
     7
100
AcDbLine
 10
335.3088287674091
 20
411.740379529797
 30
0.0
 11
410.2660283338755
 21
411.740379529797
 31
0.0
  0
LINE
  5
48B
330
1F
100
AcDbEntity
  8
0
  6
Continuous
 62
     7
100
AcDbLine
 10
720.5885714078212
 20
412.7398081010595
 30
0.0
 11
721.5879999790868
 21
412.7398081010595
 31
0.0
  0
LINE
  5
48C
330
1F
100
AcDbEntity
  8
0
  6
Continuous
 62
     7
100
AcDbLine
 10
21.05897337341594
 20
418.2933993009191
 30
0.0
 11
372.7874285503403
 21
418.2933993009191
 31
0.0
  0
LINE
  5
48D
330
1F
100
AcDbEntity
  8
0
  6
Continuous
 62
     7
100
AcDbLine
 10
372.7874285503403
 20
418.2933993009191
 30
0.0
 11
720.5885714078212
 21
418.2933993009191
 31
0.0
  0
LINE
  5
48E
330
1F
100
AcDbEntity
  8
0
  6
Continuous
 62
     7
100
AcDbLine
 10
1.070401944676632
 20
423.6499013715331
 30
0.0
 11
21.05897337341594
 21
423.6499013715331
 31
0.0
  0
LINE
  5
48F
330
1F
100
AcDbEntity
  8
0
  6
Continuous
 62
     7
100
AcDbLine
 10
0.0822921069484437
 20
426.7318081010601
 30
0.0
 11
720.5885714078212
 21
426.7318081010601
 31
0.0
  0
LINE
  5
490
330
1F
100
AcDbEntity
  8
0
  6
Continuous
 62
     7
100
AcDbLine
 10
721.5879999790868
 20
426.7318081010601
 30
0.0
 11
752.5702856934549
 21
426.7318081010601
 31
0.0
  0
LWPOLYLINE
  5
491
330
1F
100
AcDbEntity
  8
0
  6
Continuous
 62
     7
100
AcDbPolyline
 90
       16
 70
     0
 43
0.0
 10
334.8091428365551
 20
418.2933995422813
 10
334.8445037973251
 20
418.2927737920595
 10
334.9423416499358
 20
418.2844837442703
 10
335.0388931386897
 20
418.2666334380262
 10
335.1332268756268
 20
418.2393952162913
 10
335.2244328449633
 20
418.2030318400773
 10
335.311631171453
 20
418.1578939471562
 10
335.3939804391448
 20
418.1044167685972
 10
335.4706864697328
 20
418.0431154198852
 10
335.5410072429622
 20
417.9745823467812
 10
335.6042636629318
 20
417.8994791814143
 10
335.6598433942672
 20
417.8185335013672
 10
335.7072095831427
 20
417.732529258583
 10
335.7459055616037
 20
417.6422995757979
 10
335.7755594059381
 20
417.5487183018021
 10
335.7958873776479
 20
417.4526920103432
  0
LINE
  5
492
330
1F
100
AcDbEntity
  8
0
  6
Continuous
 62
     7
100
AcDbLine
 10
1.070401944676632
 20
427.7312366729041
 30
0.0
 11
720.5885714078212
 21
427.7312366729041
 31
0.0
  0
LINE
  5
493
330
1F
100
AcDbEntity
  8
0
  6
Continuous
 62
     7
100
AcDbLine
 10
721.5879999790868
 20
427.7312366729041
 30
0.0
 11
752.5702856934549
 21
427.7312366729041
 31
0.0
  0
LINE
  5
494
330
1F
100
AcDbEntity
  8
0
  6
Continuous
 62
     7
100
AcDbLine
 10
722.5874285503414
 20
429.7400881010601
 30
0.0
 11
721.5879999790868
 21
429.7400881010601
 31
0.0
  0
LINE
  5
495
330
1F
100
AcDbEntity
  8
0
  6
Continuous
 62
     7
100
AcDbLine
 10
722.5874285503414
 20
430.7395166729054
 30
0.0
 11
721.5879999790868
 21
430.7395166729054
 31
0.0
  0
LINE
  5
496
330
1F
100
AcDbEntity
  8
0
  6
Continuous
 62
     7
100
AcDbLine
 10
720.5885714078212
 20
442.7226652441661
 30
0.0
 11
1.070401944676632
 21
442.7226652441661
 31
0.0
  0
LINE
  5
497
330
1F
100
AcDbEntity
  8
0
  6
Continuous
 62
     7
100
AcDbLine
 10
1.366079495891426
 20
443.0128297340013
 30
0.0
 11
21.05897337341594
 21
443.0128297340013
 31
0.0
  0
LINE
  5
498
330
1F
100
AcDbEntity
  8
0
  6
Continuous
 62
     7
100
AcDbLine
 10
721.5879999790868
 20
443.2223795297971
 30
0.0
 11
720.5885714078212
 21
443.2223795297971
 31
0.0
  0
LINE
  5
499
330
1F
100
AcDbEntity
  8
0
  6
Continuous
 62
     7
100
AcDbLine
 10
752.5702856934549
 20
482.6998081010595
 30
0.0
 11
1.070401944676632
 21
482.6998081010595
 31
0.0
  0
LINE
  5
49A
330
1F
100
AcDbEntity
  8
0
  6
Continuous
 62
     7
100
AcDbLine
 10
0.0709733734120164
 20
482.6998081010595
 30
0.0
 11
1.070401944676632
 21
482.6998081010595
 31
0.0
  0
LINE
  5
49B
330
1F
100
AcDbEntity
  8
0
  6
Continuous
 62
     7
100
AcDbLine
 10
658.6239999790814
 20
317.7940938154272
 30
0.0
 11
658.6239999790814
 21
315.7952366729042
 31
0.0
  0
LINE
  5
49C
330
1F
100
AcDbEntity
  8
0
  6
Continuous
 62
     7
100
AcDbLine
 10
718.589714264719
 20
319.7929509585351
 30
0.0
 11
718.589714264719
 21
397.7483795297971
 31
0.0
  0
LINE
  5
49D
330
1F
100
AcDbEntity
  8
0
  6
Continuous
 62
     7
100
AcDbLine
 10
720.5885714078212
 20
427.7312366729041
 30
0.0
 11
720.5885714078212
 21
426.7318081010601
 31
0.0
  0
LINE
  5
49E
330
1F
100
AcDbEntity
  8
0
  6
Continuous
 62
     7
100
AcDbLine
 10
720.5885714078212
 20
319.7929509585351
 30
0.0
 11
720.5885714078212
 21
342.7798081010585
 31
0.0
  0
LINE
  5
49F
330
1F
100
AcDbEntity
  8
0
  6
Continuous
 62
     7
100
AcDbLine
 10
720.5885714078212
 20
342.7798081010585
 30
0.0
 11
720.5885714078212
 21
426.7318081010601
 31
0.0
  0
LINE
  5
4A0
330
1F
100
AcDbEntity
  8
0
  6
Continuous
 62
     7
100
AcDbLine
 10
720.5885714078212
 20
427.7312366729041
 30
0.0
 11
720.5885714078212
 21
443.7220938154289
 31
0.0
  0
LINE
  5
4A1
330
1F
100
AcDbEntity
  8
0
  6
Continuous
 62
     7
100
AcDbLine
 10
721.5879999790868
 20
342.7798081010585
 30
0.0
 11
721.5879999790868
 21
430.7395166729054
 31
0.0
  0
LINE
  5
4A2
330
1F
100
AcDbEntity
  8
0
  6
Continuous
 62
     7
100
AcDbLine
 10
722.5874285503414
 20
428.730665244165
 30
0.0
 11
722.5874285503414
 21
441.7232366729051
 31
0.0
  0
LINE
  5
4A3
330
1F
100
AcDbEntity
  8
0
  6
Continuous
 62
     7
100
AcDbLine
 10
723.0871428365626
 20
427.8651347119923
 30
0.0
 11
723.0871428365626
 21
441.7232366729051
 31
0.0
  0
LINE
  5
4A4
330
1F
100
AcDbEntity
  8
0
  6
Continuous
 62
     7
100
AcDbLine
 10
752.5702856934549
 20
482.6998081010595
 30
0.0
 11
752.5702856934549
 21
427.7312366729041
 31
0.0
  0
LINE
  5
4A5
330
1F
100
AcDbEntity
  8
0
  6
Continuous
 62
     7
100
AcDbLine
 10
752.5702856934549
 20
426.7318081010601
 30
0.0
 11
752.5702856934549
 21
427.7312366729041
 31
0.0
  0
CIRCLE
  5
4A6
330
1F
100
AcDbEntity
  8
0
  6
Continuous
 62
     7
100
AcDbCircle
 10
372.7874285503403
 20
378.7592366729054
 30
0.0
 40
24.985714285631
  0
CIRCLE
  5
4A7
330
1F
100
AcDbEntity
  8
0
  6
Continuous
 62
     7
100
AcDbCircle
 10
372.7874285503403
 20
378.7592366729054
 30
0.0
 40
23.48657142873801
  0
ARC
  5
4A8
330
1F
100
AcDbEntity
  8
0
  6
Continuous
 62
     7
100
AcDbCircle
 10
723.5868571221908
 20
428.730665244165
 30
0.0
 40
1.998857143106999
100
AcDbArc
 50
180.0
 51
210.0383073756207
  0
ARC
  5
4A9
330
1F
100
AcDbEntity
  8
0
  6
Continuous
 62
     7
100
AcDbCircle
 10
716.5908571221843
 20
319.7929509585351
 30
0.0
 40
3.997714285630998
100
AcDbArc
 50
270.0
 51
0.0
  0
ARC
  5
4AA
330
1F
100
AcDbEntity
  8
0
  6
Continuous
 62
     7
100
AcDbCircle
 10
25.05668765904557
 20
319.7929509585351
 30
0.0
 40
3.997714285630998
100
AcDbArc
 50
180.0
 51
270.0
  0
ARC
  5
4AB
330
1F
100
AcDbEntity
  8
0
  6
Continuous
 62
     7
100
AcDbCircle
 10
341.8051428365616
 20
342.2800938154282
 30
0.0
 40
6.496285714368996
100
AcDbArc
 50
180.0
 51
270.0
  0
ARC
  5
4AC
330
1F
100
AcDbEntity
  8
0
  6
Continuous
 62
     7
100
AcDbCircle
 10
403.7697142647211
 20
342.2800938154282
 30
0.0
 40
6.496285714368996
100
AcDbArc
 50
270.0
 51
0.0
  0
CIRCLE
  5
4AD
330
1F
100
AcDbEntity
  8
0
  6
Continuous
 62
     7
100
AcDbCircle
 10
372.7874285503403
 20
378.7592366729054
 30
0.0
 40
25.085657143107
  0
ARC
  5
4AE
330
1F
100
AcDbEntity
  8
0
  6
Continuous
 62
     7
100
AcDbCircle
 10
2.069830515945795
 20
443.7220938154289
 30
0.0
 40
0.9994285712619999
100
AcDbArc
 50
180.0
 51
270.0
  0
ARC
  5
4AF
330
1F
100
AcDbEntity
  8
0
  6
Continuous
 62
     7
100
AcDbCircle
 10
723.5868571221908
 20
428.730665244165
 30
0.0
 40
0.9994285712619999
100
AcDbArc
 50
180.0
 51
270.0
  0
ARC
  5
4B0
330
1F
100
AcDbEntity
  8
0
  6
Continuous
 62
     7
100
AcDbCircle
 10
721.5879999790868
 20
441.7232366729051
 30
0.0
 40
0.9994285712619999
100
AcDbArc
 50
0.0
 51
180.0
  0
ARC
  5
4B1
330
1F
100
AcDbEntity
  8
0
  6
Continuous
 62
     7
100
AcDbCircle
 10
716.5908571221843
 20
319.7929509585351
 30
0.0
 40
1.998857143106999
100
AcDbArc
 50
270.0
 51
0.0
  0
ARC
  5
4B2
330
1F
100
AcDbEntity
  8
0
  6
Continuous
 62
     7
100
AcDbCircle
 10
25.05668765904557
 20
319.7929509585351
 30
0.0
 40
1.998857143106999
100
AcDbArc
 50
180.0
 51
270.0
  0
ARC
  5
4B3
330
1F
100
AcDbEntity
  8
0
  6
Continuous
 62
     7
100
AcDbCircle
 10
721.5879999790868
 20
441.7232366729051
 30
0.0
 40
1.499142856893
100
AcDbArc
 50
0.0
 51
90.0
  0
LINE
  5
4B4
330
1F
100
AcDbEntity
  8
AM_7
100
AcDbLine
 10
372.7874285503403
 20
378.7592366729054
 30
0.0
 11
397.8730856934453
 21
378.7592366729054
 31
0.0
1001
GENIUS_GENOREF_13
1005
4D7
  0
LINE
  5
4B5
330
1F
100
AcDbEntity
  8
AM_7
100
AcDbLine
 10
372.7874285503403
 20
378.7592366729054
 30
0.0
 11
372.7874285503403
 21
448.1840842109034
 31
0.0
1001
GENIUS_GENOREF_13
1005
4D7
  0
LINE
  5
4B6
330
1F
100
AcDbEntity
  8
AM_7
100
AcDbLine
 10
372.7874285503403
 20
378.7592366729054
 30
0.0
 11
347.7017714072335
 21
378.7592366729054
 31
0.0
1001
GENIUS_GENOREF_13
1005
4D7
  0
LINE
  5
4B7
330
1F
100
AcDbEntity
  8
AM_7
100
AcDbLine
 10
372.7874285503403
 20
378.7592366729054
 30
0.0
 11
372.7874285503403
 21
331.8851451934293
 31
0.0
1001
GENIUS_GENOREF_13
1005
4D7
  0
LINE
  5
4B8
330
1F
100
AcDbEntity
  8
AM_CL
 62
     0
100
AcDbLine
 10
-0.0000000209302016
 20
159.5847998752442
 30
0.0
 11
-0.0000000209292921
 21
26.58479987524425
 31
0.0
  0
LINE
  5
4B9
330
1F
100
AcDbEntity
  8
AM_CL
 62
     0
100
AcDbLine
 10
1.999428550334414
 20
154.4502855893231
 30
0.0
 11
1.999428550334414
 21
152.4508570180592
 31
0.0
  0
LINE
  5
4BA
330
1F
100
AcDbEntity
  8
AM_CL
 62
     0
100
AcDbLine
 10
1.999428550334414
 20
159.5847998752445
 30
0.0
 11
1.999428550335323
 21
26.58479987524425
 31
0.0
  0
LINE
  5
4BB
330
1F
100
AcDbEntity
  8
0
  6
Continuous
 62
     7
100
AcDbLine
 10
22.78742855033943
 20
53.08365701776802
 30
0.0
 11
22.78742855034216
 21
152.4508570180592
 31
0.0
  0
LINE
  5
4BC
330
1F
100
AcDbEntity
  8
0
  6
Continuous
 62
     7
100
AcDbLine
 10
347.8017142647186
 20
-0.0000001247565251
 30
0.0
 11
397.7731428365623
 21
-0.0000001247565251
 31
0.0
  0
LINE
  5
4BD
330
1F
100
AcDbEntity
  8
0
  6
Continuous
 62
     7
100
AcDbLine
 10
-0.0000000209302016
 20
26.58479987524425
 30
0.0
 11
752.5702856934549
 21
26.58479987524425
 31
0.0
  0
LINE
  5
4BE
330
1F
100
AcDbEntity
  8
0
  6
Continuous
 62
     7
100
AcDbLine
 10
347.8017142647186
 20
-0.0000001247565251
 30
0.0
 11
347.8017142647186
 21
26.58479987524425
 31
0.0
  0
LINE
  5
4BF
330
1F
100
AcDbEntity
  8
0
  6
Continuous
 62
     7
100
AcDbLine
 10
720.788571407822
 20
51.08479987524424
 30
0.0
 11
1.999428550335323
 21
51.08479987524424
 31
0.0
  0
LINE
  5
4C0
330
1F
100
AcDbEntity
  8
0
  6
Continuous
 62
     7
100
AcDbLine
 10
722.7874285503421
 20
51.48457130339807
 30
0.0
 11
720.788571407822
 21
51.48457130339807
 31
0.0
  0
LINE
  5
4C1
330
1F
100
AcDbEntity
  8
0
  6
Continuous
 62
     7
100
AcDbLine
 10
1.999428550335323
 20
53.08365701776802
 30
0.0
 11
720.788571407822
 21
53.08365701776802
 31
0.0
  0
LINE
  5
4C2
330
1F
100
AcDbEntity
  8
0
  6
Continuous
 62
     7
100
AcDbLine
 10
397.7731428365623
 20
-0.0000001247565251
 30
0.0
 11
397.7731428365623
 21
26.58479987524425
 31
0.0
  0
LINE
  5
4C3
330
1F
100
AcDbEntity
  8
0
  6
Continuous
 62
     7
100
AcDbLine
 10
720.7885714078201
 20
135.0847998752444
 30
0.0
 11
22.78742855034216
 21
135.0847998752442
 31
0.0
  0
LINE
  5
4C4
330
1F
100
AcDbEntity
  8
AM_CL
 62
     0
100
AcDbLine
 10
1.999428550334414
 20
157.5853713039803
 30
0.0
 11
-0.0000000209320206
 21
157.5853713039794
 31
0.0
  0
LINE
  5
4C5
330
1F
100
AcDbEntity
  8
AM_CL
 62
     0
100
AcDbLine
 10
752.5702856934549
 20
157.5853713039803
 30
0.0
 11
1.999428550334414
 21
157.5853713039803
 31
0.0
  0
LINE
  5
4C6
330
1F
100
AcDbEntity
  8
AM_CL
 62
     0
100
AcDbLine
 10
752.5702856934549
 20
159.5847998752442
 30
0.0
 11
1.999428550334414
 21
159.5847998752442
 31
0.0
  0
LINE
  5
4C7
330
1F
100
AcDbEntity
  8
0
  6
Continuous
 62
     7
100
AcDbLine
 10
720.7885714078201
 20
26.58479987524425
 30
0.0
 11
720.7885714078201
 21
159.5847998752442
 31
0.0
  0
LINE
  5
4C8
330
1F
100
AcDbEntity
  8
0
  6
Continuous
 62
     7
100
AcDbLine
 10
722.7874285503403
 20
157.5853713039803
 30
0.0
 11
722.7874285503421
 21
51.48457130339807
 31
0.0
  0
LINE
  5
4C9
330
1F
100
AcDbEntity
  8
0
  6
Continuous
 62
     7
100
AcDbLine
 10
752.5702856934549
 20
152.4508570180592
 30
0.0
 11
752.5702856934549
 21
159.5847998752442
 31
0.0
  0
LINE
  5
4CA
330
1F
100
AcDbEntity
  8
0
  6
Continuous
 62
     7
100
AcDbLine
 10
752.5702856934549
 20
26.58479987524425
 30
0.0
 11
752.5702856934549
 21
152.4508570180592
 31
0.0
  0
CIRCLE
  5
4CB
330
1F
100
AcDbEntity
  8
0
  6
Continuous
 62
     7
100
AcDbCircle
 10
372.7874285503403
 20
93.08479987495344
 30
0.0
 40
35.97942857126201
  0
CIRCLE
  5
4CC
330
1F
100
AcDbEntity
  8
0
100
AcDbCircle
 10
372.7874285503403
 20
93.08479987495344
 30
0.0
 40
17.5
  0
CIRCLE
  5
4CD
330
1F
100
AcDbEntity
  8
0
100
AcDbCircle
 10
372.7874285503403
 20
93.08479987495344
 30
0.0
 40
30.0
  0
LINE
  5
4CE
330
1F
100
AcDbEntity
  8
0
100
AcDbLine
 10
373.7874285503385
 20
110.5562050846092
 30
0.0
 11
373.7874285503385
 21
75.61339466529739
 31
0.0
  0
LINE
  5
4CF
330
1F
100
AcDbEntity
  8
0
100
AcDbLine
 10
371.7874285503385
 20
110.5562050846092
 30
0.0
 11
371.7874285503385
 21
75.61339466529739
 31
0.0
  0
LINE
  5
4D0
330
1F
100
AcDbEntity
  8
0
100
AcDbLine
 10
720.5885714072337
 20
93.08479987524425
 30
0.0
 11
408.7668571216036
 21
93.08479987524425
 31
0.0
1001
GENIUS_GENOBJ-N-CEN_13
1002
{
1000
OWNER
1000
GEN
1002
}
1001
GENIUS_GENODEF_13
1002
{
1000
HIER
1070
     0
1002
}
1002
{
1000
MANEDIT
1070
     0
1002
}
1002
{
1000
NOSEL
1070
     0
1002
}
1002
{
1000
BEHIND
1070
     0
1002
}
1002
{
1000
OTHER
1070
     0
1002
}
1002
{
1000
REACTOR
1002
}
1001
GENIUS_GENCEN_19
1002
{
1040
3.0
1002
}
  0
LINE
  5
4D1
330
1F
100
AcDbEntity
  8
0
100
AcDbLine
 10
336.8079999790771
 20
93.08479987524425
 30
0.0
 11
22.78742855034125
 21
93.08479987524425
 31
0.0
1001
GENIUS_GENOBJ-N-CEN_13
1002
{
1000
OWNER
1000
GEN
1002
}
1001
GENIUS_GENODEF_13
1002
{
1000
HIER
1070
     0
1002
}
1002
{
1000
MANEDIT
1070
     0
1002
}
1002
{
1000
NOSEL
1070
     0
1002
}
1002
{
1000
BEHIND
1070
     0
1002
}
1002
{
1000
OTHER
1070
     0
1002
}
1002
{
1000
REACTOR
1002
}
1001
GENIUS_GENCEN_19
1002
{
1040
3.0
1002
}
  0
DIMENSION
  5
4D2
330
1F
100
AcDbEntity
  8
AM_5
100
AcDbDimension
  2
*D9
 10
850.8676876283189
 20
442.7226652441661
 30
0.0
 11
844.3676876283188
 21
379.2589509585358
 31
0.0
 70
    32
  1
105-160
 71
     5
 42
126.9274285712608
  3
AM_DIN$0
100
AcDbAlignedDimension
 13
728.583999979086
 23
315.7952366729053
 33
0.0
 14
720.5885714078212
 24
442.7226652441661
 34
0.0
 50
90.0
100
AcDbRotatedDimension
1001
ACAD
1000
DSTYLE
1002
{
1070
    41
1040
7.0
1070
   140
1040
10.0
1002
}
1001
ACAD_DSTYLE_DIMINSPECT
1070
   396
1000
100%
1070
   395
1000

1070
   394
1070
    33
1070
   393
1070
     0
  0
DIMENSION
  5
4D3
330
1F
100
AcDbEntity
  8
AM_5
100
AcDbDimension
  2
*D10
 10
791.8578194063229
 20
135.0847998752442
 30
0.0
 11
785.357819406323
 21
93.08479987524483
 31
0.0
 70
    32
  1
<>
 71
     5
 42
83.99999999999909
  3
AM_DIN$0
100
AcDbAlignedDimension
 13
720.5885714072356
 23
51.08479987524515
 33
0.0
 14
722.7874285503403
 24
135.0847998752442
 34
0.0
 50
90.0
100
AcDbRotatedDimension
1001
ACAD
1000
DSTYLE
1002
{
1070
    41
1040
7.0
1070
   140
1040
10.0
1002
}
1001
ACAD_DSTYLE_DIMINSPECT
1070
   396
1000
100%
1070
   395
1000

1070
   394
1070
    33
1070
   393
1070
     0
  0
DIMENSION
  5
4D4
330
1F
100
AcDbEntity
  8
AM_5
100
AcDbDimension
  2
*D11
 10
827.7545693465835
 20
159.5847998752442
 30
0.0
 11
821.2545693465836
 21
93.08479987524435
 31
0.0
 70
    32
  1
<>
 71
     5
 42
133.0
  3
AM_DIN$0
100
AcDbAlignedDimension
 13
752.5702856934549
 23
26.58479987524425
 33
0.0
 14
752.5702856934549
 24
159.5847998752442
 34
0.0
 50
90.0
100
AcDbRotatedDimension
1001
ACAD
1000
DSTYLE
1002
{
1070
    41
1040
7.0
1070
   140
1040
10.0
1002
}
1001
ACAD_DSTYLE_DIMINSPECT
1070
   396
1000
100%
1070
   395
1000

1070
   394
1070
    33
1070
   393
1070
     0
  0
DIMENSION
  5
4D5
330
1F
100
AcDbEntity
  8
AM_5
100
AcDbDimension
  2
*D12
 10
22.78742855034034
 20
203.4235498340731
 30
0.0
 11
376.5639905947773
 21
203.4235498340731
 31
0.0
 70
   160
  1
<>
 71
     5
 42
700.0
  3
AM_DIN$0
100
AcDbAlignedDimension
 13
722.7874285503403
 23
132.4622855893215
 33
0.0
 14
22.78742855034034
 24
132.4622855893215
 34
0.0
100
AcDbRotatedDimension
1001
ACAD
1000
DSTYLE
1002
{
1070
    41
1040
7.0
1070
   140
1040
10.0
1002
}
1001
ACAD_DSTYLE_DIMINSPECT
1070
   396
1000
100%
1070
   395
1000

1070
   394
1070
    33
1070
   393
1070
     0
  0
DIMENSION
  5
4D6
330
1F
100
AcDbEntity
  8
AM_5
100
AcDbDimension
  2
*D13
 10
-0.0000000209301964
 20
237.1819644763653
 30
0.0
 11
376.2851428362623
 21
243.6819644763652
 31
0.0
 70
    32
  1
<>
 71
     5
 42
752.5702857143851
  3
AM_DIN$0
100
AcDbAlignedDimension
 13
752.5702856934549
 23
153.4505713036913
 33
0.0
 14
-0.0000000209302016
 24
152.4508570180592
 34
0.0
100
AcDbRotatedDimension
1001
ACAD_DSTYLE_DIMINSPECT
1070
   396
1000
100%
1070
   395
1000

1070
   394
1070
    33
1070
   393
1070
     0
1001
ACAD
1000
DSTYLE
1002
{
1070
    41
1040
7.0
1070
   140
1040
10.0
1070
   271
1070
     0
1002
}
  0
POINT
  5
4D7
330
1F
100
AcDbEntity
  8
0
 60
     1
100
AcDbPoint
 10
-1036.942945250245
 20
-839.0638506525549
 30
0.0
1001
GENIUS_GENOENT_13
1002
{
1000
MYREF
1005
4D7
1002
}
1002
{
1000
GRP
1005
0
1002
}
1001
GENIUS_GENOLIS_13
1002
{
1000
ENT
1005
4B7
1005
4B6
1005
4B5
1005
4B4
1002
}
1001
GENIUS_GENODEF_13
1002
{
1000
HIER
1070
    10
1002
}
1002
{
1000
MANEDIT
1070
     0
1002
}
1002
{
1000
NOSEL
1070
     0
1002
}
1002
{
1000
BEHIND
1070
     0
1002
}
1002
{
1000
OTHER
1070
     0
1002
}
1002
{
1000
REACTOR
1002
}
1001
GENIUS_GENOBJ-N-CRS_13
1002
{
1000
OWNER
1000
GEN
1002
}
  0
LINE
  5
8C4
330
1F
100
AcDbEntity
  8
7A
100
AcDbLine
 10
1067.444728657803
 20
329.8509302226153
 30
0.0
 11
1067.444728657882
 21
448.7226652441777
 31
0.0
1001
GENIUS_GENOBJ-N-CEN_13
1002
{
1000
OWNER
1000
GEN
1002
}
1001
GENIUS_GENODEF_13
1002
{
1000
HIER
1070
     0
1002
}
1002
{
1000
MANEDIT
1070
     0
1002
}
1002
{
1000
NOSEL
1070
     0
1002
}
1002
{
1000
BEHIND
1070
     0
1002
}
1002
{
1000
OTHER
1070
     0
1002
}
1002
{
1000
REACTOR
1002
}
  0
LINE
  5
8D1
330
1F
100
AcDbEntity
  8
0
100
AcDbLine
 10
1108.444728657885
 20
442.7226652441579
 30
0.0
 11
1008.444728657894
 21
442.722665244178
 31
0.0
  0
LINE
  5
968
330
1F
100
AcDbEntity
  8
0
100
AcDbLine
 10
-250.2115531192083
 20
402.7226652441847
 30
0.0
 11
-312.2115531192083
 21
402.722665244102
 31
0.0
1001
GENIUS_GENOBJ-N-CEN_13
1002
{
1000
OWNER
1000
GEN
1002
}
1001
GENIUS_GENODEF_13
1002
{
1000
HIER
1070
     0
1002
}
1002
{
1000
MANEDIT
1070
     0
1002
}
1002
{
1000
NOSEL
1070
     0
1002
}
1002
{
1000
BEHIND
1070
     0
1002
}
1002
{
1000
OTHER
1070
     0
1002
}
1002
{
1000
REACTOR
1002
}
  0
LINE
  5
969
330
1F
100
AcDbEntity
  8
0
100
AcDbLine
 10
-251.4759782839421
 20
401.222665244183
 30
0.0
 11
-312.2115531192064
 21
401.222665244102
 31
0.0
1001
GENIUS_GENOBJ-N-CEN_13
1002
{
1000
OWNER
1000
GEN
1002
}
1001
GENIUS_GENODEF_13
1002
{
1000
HIER
1070
     0
1002
}
1002
{
1000
MANEDIT
1070
     0
1002
}
1002
{
1000
NOSEL
1070
     0
1002
}
1002
{
1000
BEHIND
1070
     0
1002
}
1002
{
1000
OTHER
1070
     0
1002
}
1002
{
1000
REACTOR
1002
}
  0
LINE
  5
96A
330
1F
100
AcDbEntity
  8
0
100
AcDbLine
 10
-251.4759782838803
 20
354.2226652441832
 30
0.0
 11
-312.2115531191441
 21
354.2226652441022
 31
0.0
1001
GENIUS_GENOBJ-N-CEN_13
1002
{
1000
OWNER
1000
GEN
1002
}
1001
GENIUS_GENODEF_13
1002
{
1000
HIER
1070
     0
1002
}
1002
{
1000
MANEDIT
1070
     0
1002
}
1002
{
1000
NOSEL
1070
     0
1002
}
1002
{
1000
BEHIND
1070
     0
1002
}
1002
{
1000
OTHER
1070
     0
1002
}
1002
{
1000
REACTOR
1002
}
  0
LINE
  5
96B
330
1F
100
AcDbEntity
  8
0
100
AcDbLine
 10
-250.2115531191423
 20
352.7226652441848
 30
0.0
 11
-312.2115531191423
 21
352.7226652441023
 31
0.0
1001
GENIUS_GENOBJ-N-CEN_13
1002
{
1000
OWNER
1000
GEN
1002
}
1001
GENIUS_GENODEF_13
1002
{
1000
HIER
1070
     0
1002
}
1002
{
1000
MANEDIT
1070
     0
1002
}
1002
{
1000
NOSEL
1070
     0
1002
}
1002
{
1000
BEHIND
1070
     0
1002
}
1002
{
1000
OTHER
1070
     0
1002
}
1002
{
1000
REACTOR
1002
}
  0
HATCH
  5
96C
330
1F
100
AcDbEntity
  8
KLIN
  6
ByBlock
100
AcDbHatch
 10
0.0
 20
0.0
 30
0.0
210
0.0
220
0.0
230
1.0
  2
LINE
 70
     0
 71
     0
 91
        3
 92
        7
 72
     0
 73
     1
 93
        4
 10
-312.2115531192083
 20
402.722665244102
 10
-250.2115531192083
 20
402.7226652441847
 10
-251.4759782839421
 20
401.222665244183
 10
-312.2115531192064
 20
401.222665244102
 97
        0
 92
        7
 72
     0
 73
     1
 93
        4
 10
-284.5340422490354
 20
354.2226652441391
 10
-251.4759782838803
 20
354.2226652441832
 10
-250.2115531191423
 20
352.7226652441848
 10
-285.2920667941526
 20
352.7226652441379
 97
        0
 92
        7
 72
     0
 73
     1
 93
        4
 10
-312.2115531191441
 20
354.2226652441022
 10
-284.5340422490354
 20
354.2226652441391
 10
-285.2920667941526
 20
352.7226652441382
 10
-312.2115531191423
 20
352.7226652441023
 97
        0
 75
     0
 76
     1
 52
45.0
 41
0.5
 77
     0
 78
     1
 53
135.0000000000764
 43
7.87615864893064
 44
154.8814056246735
 45
1.122532015132146
 46
1.122532015135142
 79
     0
 47
2.718374431718905
 98
        3
 10
-269.6550016939505
 20
401.955699524188
 10
-269.9269918299953
 20
353.5686345593167
 10
-293.8621803779984
 20
353.2967976206951
  0
LINE
  5
96D
330
1F
100
AcDbEntity
  8
0
100
AcDbLine
 10
-257.2115531192574
 20
427.7226652440638
 30
0.0
 11
-286.2115531192303
 21
427.7226652439992
 31
0.0
  0
LINE
  5
96E
330
1F
100
AcDbEntity
  8
0
100
AcDbLine
 10
-257.2115531192053
 20
426.7226652440638
 30
0.0
 11
-286.2115531192312
 21
426.7226652439992
 31
0.0
  0
LINE
  5
96F
330
1F
100
AcDbEntity
  8
7A
100
AcDbLine
 10
-237.3204874056032
 20
377.7226652442021
 30
0.0
 11
-317.5867287268984
 21
377.722665244095
 31
0.0
1001
GENIUS_GENOBJ-N-CEN_13
1002
{
1000
OWNER
1000
GEN
1002
}
1001
GENIUS_GENODEF_13
1002
{
1000
HIER
1070
     0
1002
}
1002
{
1000
MANEDIT
1070
     0
1002
}
1002
{
1000
NOSEL
1070
     0
1002
}
1002
{
1000
BEHIND
1070
     0
1002
}
1002
{
1000
OTHER
1070
     0
1002
}
1002
{
1000
REACTOR
1002
}
  0
LINE
  5
970
330
1F
100
AcDbEntity
  8
0
100
AcDbLine
 10
-176.2115531192194
 20
410.7226652441731
 30
0.0
 11
-176.2115531191275
 21
342.7226652441732
 31
0.0
1001
GENIUS_GENODEF_13
1002
{
1000
HIER
1070
     0
1002
}
1002
{
1000
MANEDIT
1070
     0
1002
}
1002
{
1000
NOSEL
1070
     0
1002
}
1002
{
1000
BEHIND
1070
     0
1002
}
1002
{
1000
REACTOR
1002
}
1001
GENIUS_GENOBJ-N-CEN_13
1002
{
1000
OWNER
1000
GEN
1002
}
  0
LINE
  5
971
330
1F
100
AcDbEntity
  8
0
100
AcDbLine
 10
-178.2115531192323
 20
420.5490661477133
 30
0.0
 11
-178.2115531191275
 21
342.7226652441705
 31
0.0
1001
GENIUS_GENODEF_13
1002
{
1000
HIER
1070
     0
1002
}
1002
{
1000
MANEDIT
1070
     0
1002
}
1002
{
1000
NOSEL
1070
     0
1002
}
1002
{
1000
BEHIND
1070
     0
1002
}
1002
{
1000
REACTOR
1002
}
1001
GENIUS_GENOBJ-N-CEN_13
1002
{
1000
OWNER
1000
GEN
1002
}
  0
LINE
  5
972
330
1F
100
AcDbEntity
  8
7A
100
AcDbLine
 10
-214.2115531191753
 20
329.8509302226153
 30
0.0
 11
-214.2115531192544
 21
448.7226652441777
 31
0.0
1001
GENIUS_GENOBJ-N-CEN_13
1002
{
1000
OWNER
1000
GEN
1002
}
1001
GENIUS_GENODEF_13
1002
{
1000
HIER
1070
     0
1002
}
1002
{
1000
MANEDIT
1070
     0
1002
}
1002
{
1000
NOSEL
1070
     0
1002
}
1002
{
1000
BEHIND
1070
     0
1002
}
1002
{
1000
OTHER
1070
     0
1002
}
1002
{
1000
REACTOR
1002
}
  0
HATCH
  5
973
330
1F
100
AcDbEntity
  8
KLIN
  6
ByBlock
100
AcDbHatch
 10
0.0
 20
0.0
 30
0.0
210
0.0
220
0.0
230
1.0
  2
LINE
 70
     0
 71
     0
 91
        4
 92
        7
 72
     0
 73
     1
 93
        4
 10
-252.2115531192194
 20
410.7226652440718
 10
-250.2115531192194
 20
410.7226652440746
 10
-250.2115531192083
 20
402.7226652441847
 10
-252.2115531192083
 20
402.7226652441822
 97
        0
 92
        7
 72
     0
 73
     1
 93
        4
 10
-178.2115531192194
 20
410.7226652441704
 10
-176.2115531192194
 20
410.7226652441731
 10
-176.2115531191832
 20
384.4747051108939
 10
-178.2115531191841
 20
385.1492977148692
 97
        0
 92
        7
 72
     1
 73
     1
 93
        8
 10
-178.2115531191841
 20
385.1492977148692
 42
0.0
 10
-176.2115531191832
 20
384.4747051108939
 42
0.0
 10
-176.2115531191275
 20
342.7226652441732
 42
-0.4142135623730915
 10
-183.2115531191182
 20
335.7226652441639
 42
0.0
 10
-214.2115531191794
 20
335.7226652441225
 42
0.0
 10
-214.2115531191803
 20
337.7226652441225
 42
0.0
 10
-183.2115531191213
 20
337.7226652441639
 42
0.4142135623730919
 10
-178.2115531191275
 20
342.7226652441705
 42
0.0
 97
        0
 92
        7
 72
     1
 73
     1
 93
        8
 10
-214.2115531191803
 20
337.7226652441225
 42
0.0
 10
-214.2115531191794
 20
335.7226652441225
 42
0.0
 10
-245.2115531191205
 20
335.7226652440811
 42
-0.4142135623730973
 10
-252.2115531191285
 20
342.7226652440718
 42
0.0
 10
-252.2115531191423
 20
352.7226652441821
 42
0.0
 10
-250.2115531191423
 20
352.7226652441848
 42
0.0
 10
-250.2115531191293
 20
342.7226652440745
 42
0.414213562373096
 10
-245.2115531191223
 20
337.7226652440811
 42
0.0
 97
        0
 75
     0
 76
     1
 52
135.0
 41
1.0
 77
     0
 78
     1
 53
45.00000000007651
 43
7.87615864893064
 44
154.8814056246735
 45
2.245064030270284
 46
-2.245064030264292
 79
     0
 47
2.718374431718905
 98
        4
 10
-251.4316206706433
 20
406.8487740999246
 10
-177.4501318425473
 20
400.3246751267449
 10
-177.4501318425023
 20
367.1605063831755
 10
-237.8320803418954
 20
336.9865508790817
  0
ARC
  5
974
330
1F
100
AcDbEntity
  8
0
100
AcDbCircle
 10
-301.2948864525085
 20
377.7226652441175
 30
0.0
 40
55.08333333333285
100
AcDbArc
 50
334.7463521008771
 51
25.25364789923198
  0
ARC
  5
975
330
1F
100
AcDbEntity
  8
0
100
AcDbCircle
 10
-310.2341926951153
 20
377.7226652441056
 30
0.0
 40
65.02089865314991
100
AcDbArc
 50
337.387808041586
 51
22.61219195863846
  0
LINE
  5
976
330
1F
100
AcDbEntity
  8
0
100
AcDbLine
 10
-183.2115531191182
 20
335.7226652441639
 30
0.0
 11
-245.2115531191205
 21
335.7226652440811
 31
0.0
  0
LINE
  5
977
330
1F
100
AcDbEntity
  8
0
100
AcDbLine
 10
-183.2115531191213
 20
337.7226652441639
 30
0.0
 11
-245.2115531191223
 21
337.7226652440811
 31
0.0
  0
ARC
  5
978
330
1F
100
AcDbEntity
  8
0
100
AcDbCircle
 10
-183.2115531191275
 20
342.7226652441639
 30
0.0
 40
7.0
100
AcDbArc
 50
270.0
 51
0.0000000001302755
  0
ARC
  5
979
330
1F
100
AcDbEntity
  8
0
100
AcDbCircle
 10
-183.2115531191275
 20
342.7226652441639
 30
0.0
 40
5.0
100
AcDbArc
 50
270.0
 51
0.0000000001302755
  0
ARC
  5
97A
330
1F
100
AcDbEntity
  8
0
100
AcDbCircle
 10
-245.2115531191294
 20
342.7226652440811
 30
0.0
 40
5.0
100
AcDbArc
 50
180.0000000001302
 51
270.0
1001
GENIUS_GENODEF_13
1002
{
1000
HIER
1070
     0
1002
}
1002
{
1000
MANEDIT
1070
     0
1002
}
1002
{
1000
NOSEL
1070
     0
1002
}
1002
{
1000
BEHIND
1070
     0
1002
}
1002
{
1000
REACTOR
1002
}
1001
GENIUS_GENOBJ-N-CEN_13
1002
{
1000
OWNER
1000
GEN
1002
}
  0
ARC
  5
97B
330
1F
100
AcDbEntity
  8
0
100
AcDbCircle
 10
-245.2115531191294
 20
342.7226652440811
 30
0.0
 40
7.0
100
AcDbArc
 50
180.0000000001302
 51
270.0
1001
GENIUS_GENODEF_13
1002
{
1000
HIER
1070
     0
1002
}
1002
{
1000
MANEDIT
1070
     0
1002
}
1002
{
1000
NOSEL
1070
     0
1002
}
1002
{
1000
BEHIND
1070
     0
1002
}
1002
{
1000
REACTOR
1002
}
1001
GENIUS_GENOBJ-N-CEN_13
1002
{
1000
OWNER
1000
GEN
1002
}
  0
LINE
  5
97C
330
1F
100
AcDbEntity
  8
0
100
AcDbLine
 10
-252.2115531191423
 20
352.7226652441823
 30
0.0
 11
-252.2115531191285
 21
342.7226652440718
 31
0.0
1001
GENIUS_GENODEF_13
1002
{
1000
HIER
1070
     0
1002
}
1002
{
1000
MANEDIT
1070
     0
1002
}
1002
{
1000
NOSEL
1070
     0
1002
}
1002
{
1000
BEHIND
1070
     0
1002
}
1002
{
1000
REACTOR
1002
}
1001
GENIUS_GENOBJ-N-CEN_13
1002
{
1000
OWNER
1000
GEN
1002
}
  0
LINE
  5
97D
330
1F
100
AcDbEntity
  8
0
100
AcDbLine
 10
-250.2115531191423
 20
352.7226652441848
 30
0.0
 11
-250.2115531191293
 21
342.7226652440745
 31
0.0
1001
GENIUS_GENODEF_13
1002
{
1000
HIER
1070
     0
1002
}
1002
{
1000
MANEDIT
1070
     0
1002
}
1002
{
1000
NOSEL
1070
     0
1002
}
1002
{
1000
BEHIND
1070
     0
1002
}
1002
{
1000
REACTOR
1002
}
1001
GENIUS_GENOBJ-N-CEN_13
1002
{
1000
OWNER
1000
GEN
1002
}
  0
LINE
  5
97E
330
1F
100
AcDbEntity
  8
0
100
AcDbLine
 10
-250.2115531191423
 20
352.7226652441848
 30
0.0
 11
-251.4759782838803
 21
354.2226652441832
 31
0.0
  0
LINE
  5
97F
330
1F
100
AcDbEntity
  8
0
100
AcDbLine
 10
-255.2115531192574
 20
442.7226652441578
 30
0.0
 11
-155.2115531192662
 21
442.7226652441779
 31
0.0
  0
ARC
  5
980
330
1F
100
AcDbEntity
  8
0
  6
ByBlock
100
AcDbCircle
 10
-155.2115531192662
 20
443.7226652441779
 30
0.0
 40
1.0
100
AcDbArc
 50
270.0
 51
0.0000000001302755
  0
LINE
  5
981
330
1F
100
AcDbEntity
  8
0
  6
ByBlock
100
AcDbLine
 10
-252.0454621595284
 20
422.542157664104
 30
0.0
 11
-214.2115531192342
 21
419.3893319108278
 31
0.0
  0
LINE
  5
982
330
1F
100
AcDbEntity
  8
0
100
AcDbLine
 10
-214.1700303793064
 20
418.3824054676015
 30
0.0
 11
-250.4024397540322
 21
421.4017729154168
 31
0.0
  0
LINE
  5
983
330
1F
100
AcDbEntity
  8
0
  6
ByBlock
100
AcDbLine
 10
-176.3776440789404
 20
422.5421576642056
 30
0.0
 11
-214.2115531192342
 21
419.3893319108278
 31
0.0
  0
LINE
  5
984
330
1F
100
AcDbEntity
  8
0
100
AcDbLine
 10
-214.2530758591595
 20
418.3824054676015
 30
0.0
 11
-178.0206664844331
 21
421.4017729155141
 31
0.0
  0
LINE
  5
985
330
1F
100
AcDbEntity
  8
0
100
AcDbLine
 10
-173.2115531192912
 20
423.6427981257395
 30
0.0
 11
-173.2115531192633
 21
440.7226652441555
 31
0.0
  0
ARC
  5
986
330
1F
100
AcDbEntity
  8
0
  6
ByBlock
100
AcDbCircle
 10
-172.2115531192633
 20
440.7226652441538
 30
0.0
 40
1.0
100
AcDbArc
 50
90.0
 51
179.9999999998697
  0
LINE
  5
987
330
1F
100
AcDbEntity
  8
0
100
AcDbLine
 10
-174.2115531192892
 20
423.6427981257472
 30
0.0
 11
-174.2115531193594
 21
440.7226652441697
 31
0.0
  0
ARC
  5
988
330
1F
100
AcDbEntity
  8
0
100
AcDbCircle
 10
-172.2115531193594
 20
440.7226652441778
 30
0.0
 40
2.0
100
AcDbArc
 50
90.0
 51
180.0000000002605
  0
ARC
  5
989
330
1F
100
AcDbEntity
  8
0
100
AcDbCircle
 10
-175.2115531192912
 20
423.6427981257429
 30
0.0
 40
2.0
100
AcDbArc
 50
274.7636416908085
 51
359.9999999998697
  0
LINE
  5
98A
330
1F
100
AcDbEntity
  8
0
100
AcDbLine
 10
-177.2115531192323
 20
420.5490661477145
 30
0.0
 11
-177.2115531192194
 21
410.7226652441718
 31
0.0
1001
GENIUS_GENODEF_13
1002
{
1000
HIER
1070
     0
1002
}
1002
{
1000
MANEDIT
1070
     0
1002
}
1002
{
1000
NOSEL
1070
     0
1002
}
1002
{
1000
BEHIND
1070
     0
1002
}
1002
{
1000
REACTOR
1002
}
1001
GENIUS_GENOBJ-N-CEN_13
1002
{
1000
OWNER
1000
GEN
1002
}
  0
LINE
  5
98B
330
1F
100
AcDbEntity
  8
0
100
AcDbLine
 10
-176.2945985990861
 20
421.5456119059606
 30
0.0
 11
-175.0454621595834
 21
421.6497066092531
 31
0.0
  0
ARC
  5
98C
330
1F
100
AcDbEntity
  8
0
100
AcDbCircle
 10
-176.2115531192323
 20
420.5490661477158
 30
0.0
 40
1.0
100
AcDbArc
 50
94.76364169080854
 51
180.0000000001302
1001
GENIUS_GENODEF_13
1002
{
1000
HIER
1070
     0
1002
}
1002
{
1000
MANEDIT
1070
     0
1002
}
1002
{
1000
NOSEL
1070
     0
1002
}
1002
{
1000
BEHIND
1070
     0
1002
}
1002
{
1000
REACTOR
1002
}
1001
GENIUS_GENOBJ-N-CEN_13
1002
{
1000
OWNER
1000
GEN
1002
}
  0
ARC
  5
98D
330
1F
100
AcDbEntity
  8
0
100
AcDbCircle
 10
-176.2115531192323
 20
420.5490661477158
 30
0.0
 40
2.0
100
AcDbArc
 50
94.76364169080854
 51
180.0000000001302
1001
GENIUS_GENODEF_13
1002
{
1000
HIER
1070
     0
1002
}
1002
{
1000
MANEDIT
1070
     0
1002
}
1002
{
1000
NOSEL
1070
     0
1002
}
1002
{
1000
BEHIND
1070
     0
1002
}
1002
{
1000
REACTOR
1002
}
1001
GENIUS_GENOBJ-N-CEN_13
1002
{
1000
OWNER
1000
GEN
1002
}
  0
LINE
  5
98E
330
1F
100
AcDbEntity
  8
0
100
AcDbLine
 10
-176.3776440789404
 20
422.5421576642056
 30
0.0
 11
-175.1285076394354
 21
422.6462523674983
 31
0.0
  0
ARC
  5
98F
330
1F
100
AcDbEntity
  8
0
100
AcDbCircle
 10
-175.2115531192892
 20
423.6427981257431
 30
0.0
 40
1.0
100
AcDbArc
 50
274.7636416908085
 51
0.000000000260551
  0
LINE
  5
990
330
1F
100
AcDbEntity
  8
0
100
AcDbLine
 10
-250.2115531192312
 20
420.5490661476164
 30
0.0
 11
-250.2115531192083
 21
402.7226652441847
 31
0.0
1001
GENIUS_GENODEF_13
1002
{
1000
HIER
1070
     0
1002
}
1002
{
1000
MANEDIT
1070
     0
1002
}
1002
{
1000
NOSEL
1070
     0
1002
}
1002
{
1000
BEHIND
1070
     0
1002
}
1002
{
1000
REACTOR
1002
}
1001
GENIUS_GENOBJ-N-CEN_13
1002
{
1000
OWNER
1000
GEN
1002
}
  0
LINE
  5
991
330
1F
100
AcDbEntity
  8
0
100
AcDbLine
 10
-252.2115531192194
 20
410.7226652440718
 30
0.0
 11
-252.2115531192083
 21
402.7226652441822
 31
0.0
1001
GENIUS_GENODEF_13
1002
{
1000
HIER
1070
     0
1002
}
1002
{
1000
MANEDIT
1070
     0
1002
}
1002
{
1000
NOSEL
1070
     0
1002
}
1002
{
1000
BEHIND
1070
     0
1002
}
1002
{
1000
REACTOR
1002
}
1001
GENIUS_GENOBJ-N-CEN_13
1002
{
1000
OWNER
1000
GEN
1002
}
  0
LINE
  5
992
330
1F
100
AcDbEntity
  8
0
100
AcDbLine
 10
-250.2115531192083
 20
402.7226652441847
 30
0.0
 11
-251.4759782839421
 21
401.222665244183
 31
0.0
  0
ARC
  5
993
330
1F
100
AcDbEntity
  8
0
100
AcDbCircle
 10
-257.2115531192592
 20
428.7226652440637
 30
0.0
 40
1.0
100
AcDbArc
 50
270.0
 51
359.9999999998697
  0
LINE
  5
994
330
1F
100
AcDbEntity
  8
0
100
AcDbLine
 10
-254.2115531191873
 20
423.6427981256342
 30
0.0
 11
-254.2115531192685
 21
441.7226652441775
 31
0.0
  0
LINE
  5
995
330
1F
100
AcDbEntity
  8
0
100
AcDbLine
 10
-255.2115531191873
 20
423.6427981256301
 30
0.0
 11
-255.2115531192653
 21
441.7226652441775
 31
0.0
  0
ARC
  5
996
330
1F
100
AcDbEntity
  8
0
100
AcDbCircle
 10
-257.2115531192092
 20
428.7226652440637
 30
0.0
 40
2.0
100
AcDbArc
 50
270.0
 51
0.000000000260551
  0
LINE
  5
997
330
1F
100
AcDbEntity
  8
0
100
AcDbLine
 10
-251.2115531192312
 20
420.5490661476151
 30
0.0
 11
-251.2115531192194
 21
410.7226652440731
 31
0.0
1001
GENIUS_GENODEF_13
1002
{
1000
HIER
1070
     0
1002
}
1002
{
1000
MANEDIT
1070
     0
1002
}
1002
{
1000
NOSEL
1070
     0
1002
}
1002
{
1000
BEHIND
1070
     0
1002
}
1002
{
1000
REACTOR
1002
}
1001
GENIUS_GENOBJ-N-CEN_13
1002
{
1000
OWNER
1000
GEN
1002
}
  0
LINE
  5
998
330
1F
100
AcDbEntity
  8
0
100
AcDbLine
 10
-252.0454621595284
 20
422.542157664104
 30
0.0
 11
-253.2945985990384
 21
422.6462523673937
 31
0.0
  0
LINE
  5
999
330
1F
100
AcDbEntity
  8
0
100
AcDbLine
 10
-252.1285076393803
 20
421.5456119058587
 30
0.0
 11
-253.3776440788904
 21
421.6497066091488
 31
0.0
  0
ARC
  5
99A
330
1F
100
AcDbEntity
  8
0
100
AcDbCircle
 10
-252.2115531192323
 20
420.5490661476138
 30
0.0
 40
2.0
100
AcDbArc
 50
0.0000000001302755
 51
85.23635830945286
1001
GENIUS_GENODEF_13
1002
{
1000
HIER
1070
     0
1002
}
1002
{
1000
MANEDIT
1070
     0
1002
}
1002
{
1000
NOSEL
1070
     0
1002
}
1002
{
1000
BEHIND
1070
     0
1002
}
1002
{
1000
REACTOR
1002
}
1001
GENIUS_GENOBJ-N-CEN_13
1002
{
1000
OWNER
1000
GEN
1002
}
  0
ARC
  5
99B
330
1F
100
AcDbEntity
  8
0
100
AcDbCircle
 10
-252.2115531192323
 20
420.5490661476138
 30
0.0
 40
1.0
100
AcDbArc
 50
0.0000000001302755
 51
85.23635830945286
  0
ARC
  5
99C
330
1F
100
AcDbEntity
  8
0
100
AcDbCircle
 10
-253.2115531191873
 20
423.6427981256388
 30
0.0
 40
1.0
100
AcDbArc
 50
180.0000000002605
 51
265.2363583094529
  0
ARC
  5
99D
330
1F
100
AcDbEntity
  8
0
100
AcDbCircle
 10
-253.2115531191873
 20
423.6427981256388
 30
0.0
 40
2.0
100
AcDbArc
 50
180.0000000002605
 51
265.2363583094529
  0
LINE
  5
99E
330
1F
100
AcDbEntity
  8
0
100
AcDbLine
 10
-256.2115531192403
 20
441.7226652441745
 30
0.0
 11
-256.2115531192592
 21
428.7226652440621
 31
0.0
  0
ARC
  5
99F
330
1F
100
AcDbEntity
  8
0
100
AcDbCircle
 10
-255.2115531192535
 20
441.7226652441732
 30
0.0
 40
0.9999999999848339
100
AcDbArc
 50
0.000000000260551
 51
180.0000000002605
  0
LINE
  5
9A0
330
1F
100
AcDbEntity
  8
0
100
AcDbLine
 10
-312.2115531192083
 20
402.722665244102
 30
0.0
 11
-312.2115531191423
 21
352.722665244102
 31
0.0
1001
GENIUS_GENODEF_13
1002
{
1000
HIER
1070
     0
1002
}
1002
{
1000
MANEDIT
1070
     0
1002
}
1002
{
1000
NOSEL
1070
     0
1002
}
1002
{
1000
BEHIND
1070
     0
1002
}
1002
{
1000
REACTOR
1002
}
1001
GENIUS_GENOBJ-N-CEN_13
1002
{
1000
OWNER
1000
GEN
1002
}
  0
LINE
  5
9A1
330
1F
100
AcDbEntity
  8
0
100
AcDbLine
 10
-286.2115531193044
 20
482.7226652440017
 30
0.0
 11
-286.2115531192312
 21
426.7226652439981
 31
0.0
  0
LINE
  5
9A2
330
1F
100
AcDbEntity
  8
0
  6
ByBlock
100
AcDbLine
 10
-154.2115531192662
 20
443.7226652441792
 30
0.0
 11
-154.2115531193185
 21
482.7226652441778
 31
0.0
  0
LINE
  5
9A3
330
1F
100
AcDbEntity
  8
0
  6
ByBlock
100
AcDbLine
 10
-286.2115531193044
 20
482.7226652440017
 30
0.0
 11
-153.2115531193185
 21
482.7226652441793
 31
0.0
  0
LINE
  5
9A4
330
1F
100
AcDbEntity
  8
0
  6
ByBlock
100
AcDbLine
 10
-153.2115531193185
 20
482.7226652441793
 30
0.0
 11
-153.2115531192662
 21
443.7226652441792
 31
0.0
  0
LINE
  5
9A5
330
1F
100
AcDbEntity
  8
0
  6
ByBlock
100
AcDbLine
 10
-155.2115531192632
 20
441.7226652441765
 30
0.0
 11
-172.2115531192653
 21
441.7226652441538
 31
0.0
  0
ARC
  5
9A6
330
1F
100
AcDbEntity
  8
0
  6
ByBlock
100
AcDbCircle
 10
-155.2115531192662
 20
443.7226652441766
 30
0.0
 40
2.0
100
AcDbArc
 50
270.0
 51
0.0000000001302755
  0
LINE
  5
9A7
330
1F
100
AcDbEntity
  8
0
  6
ByBlock
100
AcDbLine
 10
-176.2115531192303
 20
410.72266524411
 30
0.0
 11
-183.6132674038881
 21
410.7226652441104
 31
0.0
  0
LINE
  5
9A8
330
1F
100
AcDbEntity
  8
0
  6
ByBlock
100
AcDbLine
 10
-244.8098388346894
 20
410.7226652441104
 30
0.0
 11
-252.2115531192312
 21
410.72266524411
 31
0.0
  0
DIMENSION
  5
9A9
330
1F
100
AcDbEntity
  8
AM_5
100
AcDbDimension
  2
*D48
 10
-174.2115531193603
 20
504.8930946367602
 30
0.0
 11
-213.1214830422544
 21
504.8930946367602
 31
0.0
 70
   160
 71
     5
 42
79.99999999990109
  3
AM_DIN$0
100
AcDbAlignedDimension
 13
-254.2115531192615
 23
440.7226652442761
 33
0.0
 14
-174.2115531193603
 24
440.7226652441663
 34
0.0
 50
180.0
100
AcDbRotatedDimension
1001
ACAD_DSTYLE_DIMINSPECT
1070
   396
1000
100%
1070
   395
1000

1070
   394
1070
    33
1070
   393
1070
     0
1001
ACAD
1000
DSTYLE
1002
{
1070
    41
1040
7.0
1070
   140
1040
10.0
1070
   271
1070
     0
1002
}
  0
LINE
  5
9AA
330
1F
100
AcDbEntity
  8
0
100
AcDbLine
 10
-189.2115531192974
 20
315.7340938153723
 30
0.0
 11
-239.2115531192983
 21
315.7340938153723
 31
0.0
  0
LINE
  5
9AB
330
1F
100
AcDbEntity
  8
0
100
AcDbLine
 10
-189.2115531192962
 20
317.7329509584797
 30
0.0
 11
-239.2115531192974
 21
317.7329509584797
 31
0.0
  0
LINE
  5
9AC
330
1F
100
AcDbEntity
  8
0
100
AcDbLine
 10
-189.2115531192974
 20
315.7340938153723
 30
0.0
 11
-189.2115531192883
 21
335.7226652441559
 31
0.0
  0
LINE
  5
9AD
330
1F
100
AcDbEntity
  8
0
100
AcDbLine
 10
-239.2115531192983
 20
315.7340938153723
 30
0.0
 11
-239.2115531192892
 21
335.722665244089
 31
0.0
  0
LINE
  5
9AE
330
1F
100
AcDbEntity
  8
0
100
AcDbLine
 10
-194.2115531192892
 20
410.6980938152601
 30
0.0
 11
-194.2115531192892
 21
353.6980938152603
 31
0.0
  0
LINE
  5
9AF
330
1F
100
AcDbEntity
  8
0
100
AcDbLine
 10
-194.2115531192892
 20
353.6980938152603
 30
0.0
 11
-234.2115531192892
 21
353.6980938152603
 31
0.0
  0
LINE
  5
9B0
330
1F
100
AcDbEntity
  8
0
100
AcDbLine
 10
-234.2115531192892
 20
353.6980938152603
 30
0.0
 11
-234.2115531192892
 21
410.6980938152601
 31
0.0
  0
LINE
  5
9B1
330
1F
100
AcDbEntity
  8
0
100
AcDbLine
 10
-195.7115531192892
 20
410.6980938152601
 30
0.0
 11
-195.7115531192892
 21
353.6980938152603
 31
0.0
  0
LINE
  5
9B2
330
1F
100
AcDbEntity
  8
0
100
AcDbLine
 10
-232.7115531192892
 20
353.6980938152603
 30
0.0
 11
-232.7115531192892
 21
410.6980938152601
 31
0.0
  0
HATCH
  5
9B3
330
1F
100
AcDbEntity
  8
8
100
AcDbHatch
 10
0.0
 20
0.0
 30
0.0
210
0.0
220
0.0
230
1.0
  2
LINE
 70
     0
 71
     0
 91
        4
 92
        7
 72
     0
 73
     1
 93
        6
 10
-186.7115531192892
 20
400.6980938152603
 10
-187.1845260922621
 20
403.535931653098
 10
-186.2115531192891
 20
403.6980938152603
 10
-185.7115531192892
 20
400.6980938152603
 10
-185.7115531192892
 20
379.2141914272706
 10
-186.7115531192892
 20
379.4704578446583
 97
        0
 92
        7
 72
     0
 73
     1
 93
        4
 10
-186.7115531192892
 20
379.4704578446578
 10
-185.7115531192892
 20
379.2141914272706
 10
-185.7115531192892
 20
366.0348707529881
 10
-186.7115531192892
 20
366.2911371703753
 97
        0
 92
        7
 72
     1
 73
     1
 93
        8
 10
-186.7115531192892
 20
366.2911371703753
 42
0.0
 10
-185.7115531192892
 20
366.0348707529881
 42
0.0
 10
-185.7115531192892
 20
344.6980938152603
 42
-0.4142135623730951
 10
-191.7115531192892
 20
338.6980938152603
 42
0.0
 10
-214.2115531192892
 20
338.6980938152603
 42
0.0
 10
-214.2115531192892
 20
339.6980938152605
 42
0.0
 10
-191.7115531192892
 20
339.6980938152605
 42
0.4142135623730951
 10
-186.7115531192892
 20
344.6980938152603
 42
0.0
 97
        0
 92
        7
 72
     1
 73
     1
 93
       10
 10
-242.7115531192892
 20
344.6980938152603
 42
0.0
 10
-242.7115531192892
 20
400.6980938152603
 42
0.0
 10
-242.2115531192892
 20
403.6980938152603
 42
0.0
 10
-241.2385801463165
 20
403.535931653098
 42
0.0
 10
-241.7115531192892
 20
400.6980938152603
 42
0.0
 10
-241.7115531192892
 20
344.6980938152603
 42
0.4142135623730951
 10
-236.7115531192892
 20
339.6980938152605
 42
0.0
 10
-214.2115531192892
 20
339.6980938152605
 42
0.0
 10
-214.2115531192892
 20
338.6980938152603
 42
0.0
 10
-236.7115531192892
 20
338.6980938152603
 42
-0.4142135623730951
 97
        0
 75
     0
 76
     1
 52
45.0
 41
1.0
 77
     0
 78
     1
 53
135.0
 43
-96.14794612441233
 44
210.9837344777186
 45
2.245064030267287
 46
2.245064030267287
 79
     0
 47
0.144641785732262
 98
        4
 10
-186.0330062133082
 20
397.3454924995485
 10
-186.1777116841954
 20
369.8635512031674
 10
-186.3224146532582
 20
362.0528953667849
 10
-220.7618063523991
 20
339.3441347482024
  0
LINE
  5
9B4
330
1F
100
AcDbEntity
  8
0
100
AcDbLine
 10
-185.7115531192892
 20
400.6980938152603
 30
0.0
 11
-185.7115531192892
 21
344.6980938152603
 31
0.0
  0
LINE
  5
9B5
330
1F
100
AcDbEntity
  8
0
100
AcDbLine
 10
-242.7115531192892
 20
344.6980938152603
 30
0.0
 11
-242.7115531192892
 21
400.6980938152603
 31
0.0
  0
LINE
  5
9B6
330
1F
100
AcDbEntity
  8
0
100
AcDbLine
 10
-191.7115531192892
 20
338.6980938152603
 30
0.0
 11
-236.7115531192892
 21
338.6980938152603
 31
0.0
  0
LINE
  5
9B7
330
1F
100
AcDbEntity
  8
0
100
AcDbLine
 10
-234.2115531192892
 20
403.6980938152603
 30
0.0
 11
-242.2115531192892
 21
403.6980938152603
 31
0.0
  0
LINE
  5
9B8
330
1F
100
AcDbEntity
  8
0
100
AcDbLine
 10
-181.7115531192892
 20
414.1980938152603
 30
0.0
 11
-181.7115531192892
 21
412.6980938152603
 31
0.0
  0
LINE
  5
9B9
330
1F
100
AcDbEntity
  8
0
100
AcDbLine
 10
-177.7115531192892
 20
412.6980938152603
 30
0.0
 11
-180.7115531192892
 21
412.6980938152603
 31
0.0
  0
LINE
  5
9BA
330
1F
100
AcDbEntity
  8
0
100
AcDbLine
 10
-246.7115531192892
 20
412.6980938152603
 30
0.0
 11
-246.7115531192892
 21
414.1980938152603
 31
0.0
  0
LINE
  5
9BB
330
1F
100
AcDbEntity
  8
0
100
AcDbLine
 10
-246.7115531192892
 20
414.1980938152603
 30
0.0
 11
-181.7115531192892
 21
414.1980938152603
 31
0.0
  0
CIRCLE
  5
9BC
330
1F
100
AcDbEntity
  8
0
100
AcDbCircle
 10
-214.2115531192892
 20
411.19809381526
 30
0.0
 40
1.5
  0
LINE
  5
9BD
330
1F
100
AcDbEntity
  8
7A
100
AcDbLine
 10
-209.7115531192892
 20
411.19809381526
 30
0.0
 11
-218.7115531192892
 21
411.19809381526
 31
0.0
1001
GENIUS_GENOBJ-N-CEN_13
1002
{
1000
OWNER
1000
GEN
1002
}
1001
GENIUS_GENODEF_13
1002
{
1000
HIER
1070
     0
1002
}
1002
{
1000
MANEDIT
1070
     0
1002
}
1002
{
1000
NOSEL
1070
     0
1002
}
1002
{
1000
BEHIND
1070
     0
1002
}
1002
{
1000
OTHER
1070
     0
1002
}
1002
{
1000
REACTOR
1002
}
  0
LINE
  5
9BE
330
1F
100
AcDbEntity
  8
0
100
AcDbLine
 10
-242.7115531192892
 20
416.6980938152603
 30
0.0
 11
-185.7115531192892
 21
416.6980938152603
 31
0.0
  0
LINE
  5
9BF
330
1F
100
AcDbEntity
  8
0
100
AcDbLine
 10
-185.7115531192892
 20
416.6980938152603
 30
0.0
 11
-185.7115531192892
 21
414.1980938152603
 31
0.0
  0
LINE
  5
9C0
330
1F
100
AcDbEntity
  8
0
100
AcDbLine
 10
-185.7115531192892
 20
412.6980938152603
 30
0.0
 11
-185.7115531192892
 21
410.1980938152603
 31
0.0
  0
LINE
  5
9C1
330
1F
100
AcDbEntity
  8
0
100
AcDbLine
 10
-242.7115531192892
 20
416.6980938152603
 30
0.0
 11
-242.7115531192892
 21
414.1980938152603
 31
0.0
  0
LINE
  5
9C2
330
1F
100
AcDbEntity
  8
0
100
AcDbLine
 10
-242.7115531192892
 20
412.6980938152603
 30
0.0
 11
-242.7115531192892
 21
410.1980938152603
 31
0.0
  0
LINE
  5
9C3
330
1F
100
AcDbEntity
  8
0
100
AcDbLine
 10
-234.2115531192892
 20
410.1980938152603
 30
0.0
 11
-242.7115531192892
 21
410.1980938152603
 31
0.0
  0
LINE
  5
9C4
330
1F
100
AcDbEntity
  8
0
100
AcDbLine
 10
-180.7115531192892
 20
414.1980938152603
 30
0.0
 11
-180.7115531192892
 21
412.6980938152603
 31
0.0
  0
LINE
  5
9C5
330
1F
100
AcDbEntity
  8
0
100
AcDbLine
 10
-177.7115531192892
 20
414.1980938152603
 30
0.0
 11
-179.7115531192892
 21
415.19809381526
 31
0.0
  0
LINE
  5
9C6
330
1F
100
AcDbEntity
  8
0
100
AcDbLine
 10
-179.7115531192892
 20
415.19809381526
 30
0.0
 11
-185.7115531192892
 21
416.6980938152603
 31
0.0
  0
LINE
  5
9C7
330
1F
100
AcDbEntity
  8
0
100
AcDbLine
 10
-179.7115531192892
 20
411.6980938152603
 30
0.0
 11
-185.7115531192892
 21
410.1980938152603
 31
0.0
  0
LINE
  5
9C8
330
1F
100
AcDbEntity
  8
0
100
AcDbLine
 10
-177.7115531192892
 20
412.6980938152603
 30
0.0
 11
-179.7115531192892
 21
411.6980938152603
 31
0.0
  0
LINE
  5
9C9
330
1F
100
AcDbEntity
  8
0
100
AcDbLine
 10
-180.7115531192892
 20
414.1980938152603
 30
0.0
 11
-177.7115531192892
 21
414.1980938152603
 31
0.0
  0
LINE
  5
9CA
330
1F
100
AcDbEntity
  8
0
100
AcDbLine
 10
-181.7115531192892
 20
412.6980938152603
 30
0.0
 11
-192.2115531192892
 21
412.6980938152603
 31
0.0
  0
LINE
  5
9CB
330
1F
100
AcDbEntity
  8
0
100
AcDbLine
 10
-250.7115531192892
 20
412.6980938152603
 30
0.0
 11
-247.7115531192892
 21
412.6980938152603
 31
0.0
  0
LINE
  5
9CC
330
1F
100
AcDbEntity
  8
0
100
AcDbLine
 10
-247.7115531192892
 20
414.1980938152603
 30
0.0
 11
-250.7115531192892
 21
414.1980938152603
 31
0.0
  0
LINE
  5
9CD
330
1F
100
AcDbEntity
  8
0
100
AcDbLine
 10
-250.7115531192892
 20
412.6980938152603
 30
0.0
 11
-248.7115531192892
 21
411.6980938152603
 31
0.0
  0
LINE
  5
9CE
330
1F
100
AcDbEntity
  8
0
100
AcDbLine
 10
-250.7115531192892
 20
414.1980938152603
 30
0.0
 11
-248.7115531192892
 21
415.19809381526
 31
0.0
  0
LINE
  5
9CF
330
1F
100
AcDbEntity
  8
0
100
AcDbLine
 10
-248.7115531192892
 20
415.19809381526
 30
0.0
 11
-242.7115531192892
 21
416.6980938152603
 31
0.0
  0
LINE
  5
9D0
330
1F
100
AcDbEntity
  8
0
100
AcDbLine
 10
-248.7115531192892
 20
411.6980938152603
 30
0.0
 11
-242.7115531192892
 21
410.1980938152603
 31
0.0
  0
HATCH
  5
9D1
330
1F
100
AcDbEntity
  8
8
100
AcDbHatch
 10
0.0
 20
0.0
 30
0.0
210
0.0
220
0.0
230
1.0
  2
NET
 70
     0
 71
     0
 91
        2
 92
        7
 72
     0
 73
     1
 93
       12
 10
-177.7115531192892
 20
412.6980938152603
 10
-179.7115531192892
 20
411.6980938152603
 10
-185.7115531192892
 20
410.1980938152603
 10
-185.7115531192892
 20
412.6980938152603
 10
-181.7115531192892
 20
412.6980938152603
 10
-181.7115531192892
 20
414.1980938152603
 10
-185.7115531192892
 20
414.1980938152603
 10
-185.7115531192892
 20
416.6980938152603
 10
-179.7115531192892
 20
415.19809381526
 10
-177.7115531192892
 20
414.1980938152603
 10
-180.7115531192892
 20
414.1980938152603
 10
-180.7115531192892
 20
412.6980938152603
 97
        0
 92
        7
 72
     0
 73
     1
 93
       12
 10
-246.7115531192892
 20
412.6980938152603
 10
-242.7115531192892
 20
412.6980938152603
 10
-242.7115531192892
 20
410.1980938152603
 10
-248.7115531192892
 20
411.6980938152603
 10
-250.7115531192892
 20
412.6980938152603
 10
-247.7115531192892
 20
412.6980938152603
 10
-247.7115531192892
 20
414.1980938152603
 10
-250.7115531192892
 20
414.1980938152603
 10
-248.7115531192892
 20
415.19809381526
 10
-242.7115531192892
 20
416.6980938152603
 10
-242.7115531192892
 20
414.1980938152603
 10
-246.7115531192892
 20
414.1980938152603
 97
        0
 75
     0
 76
     1
 52
135.0
 41
0.5
 77
     0
 78
     2
 53
45.0
 43
-96.14794612441233
 44
211.8937047708209
 45
1.122532015133643
 46
-1.122532015133643
 79
     0
 53
315.0
 43
-96.14794612441233
 44
211.8937047708209
 45
-1.122532015133643
 46
-1.122532015133643
 79
     0
 47
0.1492324330864038
 98
        2
 10
-184.2439422627124
 20
411.6637370711646
 10
-245.1649501452405
 20
411.5145036259384
  0
LINE
  5
9D2
330
1F
100
AcDbEntity
  8
0
100
AcDbLine
 10
-186.7115531192892
 20
400.6980938152603
 30
0.0
 11
-186.7115531192892
 21
344.6980938152603
 31
0.0
  0
LINE
  5
9D3
330
1F
100
AcDbEntity
  8
0
100
AcDbLine
 10
-191.7115531192892
 20
339.6980938152605
 30
0.0
 11
-236.7115531192892
 21
339.6980938152605
 31
0.0
  0
LINE
  5
9D4
330
1F
100
AcDbEntity
  8
0
100
AcDbLine
 10
-241.7115531192892
 20
344.6980938152603
 30
0.0
 11
-241.7115531192892
 21
400.6980938152603
 31
0.0
  0
ARC
  5
9D5
330
1F
100
AcDbEntity
  8
0
100
AcDbCircle
 10
-191.7115531192892
 20
344.6980938152603
 30
0.0
 40
5.0
100
AcDbArc
 50
270.0
 51
0.0
1001
GENIUS_GENOBJ-N-FIL_13
1002
{
1000
OWNER
1000
GEN
1002
}
1001
GENIUS_GENODEF_13
1002
{
1000
HIER
1070
     0
1002
}
1002
{
1000
MANEDIT
1070
     0
1002
}
1002
{
1000
NOSEL
1070
     0
1002
}
1002
{
1000
BEHIND
1070
     0
1002
}
1002
{
1000
OTHER
1070
     0
1002
}
1002
{
1000
REACTOR
1002
}
  0
ARC
  5
9D6
330
1F
100
AcDbEntity
  8
0
100
AcDbCircle
 10
-236.7115531192892
 20
344.6980938152603
 30
0.0
 40
5.0
100
AcDbArc
 50
180.0
 51
270.0
1001
GENIUS_GENOBJ-N-FIL_13
1002
{
1000
OWNER
1000
GEN
1002
}
1001
GENIUS_GENODEF_13
1002
{
1000
HIER
1070
     0
1002
}
1002
{
1000
MANEDIT
1070
     0
1002
}
1002
{
1000
NOSEL
1070
     0
1002
}
1002
{
1000
BEHIND
1070
     0
1002
}
1002
{
1000
OTHER
1070
     0
1002
}
1002
{
1000
REACTOR
1002
}
  0
ARC
  5
9D7
330
1F
100
AcDbEntity
  8
0
100
AcDbCircle
 10
-191.7115531192892
 20
344.6980938152603
 30
0.0
 40
6.0
100
AcDbArc
 50
270.0
 51
0.0
1001
GENIUS_GENOBJ-N-FIL_13
1002
{
1000
OWNER
1000
GEN
1002
}
1001
GENIUS_GENODEF_13
1002
{
1000
HIER
1070
     0
1002
}
1002
{
1000
MANEDIT
1070
     0
1002
}
1002
{
1000
NOSEL
1070
     0
1002
}
1002
{
1000
BEHIND
1070
     0
1002
}
1002
{
1000
OTHER
1070
     0
1002
}
1002
{
1000
REACTOR
1002
}
  0
ARC
  5
9D8
330
1F
100
AcDbEntity
  8
0
100
AcDbCircle
 10
-236.7115531192892
 20
344.6980938152603
 30
0.0
 40
6.0
100
AcDbArc
 50
180.0
 51
270.0
1001
GENIUS_GENODEF_13
1002
{
1000
HIER
1070
     0
1002
}
1002
{
1000
MANEDIT
1070
     0
1002
}
1002
{
1000
NOSEL
1070
     0
1002
}
1002
{
1000
BEHIND
1070
     0
1002
}
1002
{
1000
OTHER
1070
     0
1002
}
1002
{
1000
REACTOR
1002
}
1001
GENIUS_GENOBJ-N-FIL_13
1002
{
1000
OWNER
1000
GEN
1002
}
  0
ARC
  5
9D9
330
1F
100
AcDbEntity
  8
0
100
AcDbCircle
 10
-192.2115531192892
 20
410.6980938152601
 30
0.0
 40
2.0
100
AcDbArc
 50
90.0
 51
180.0
1001
GENIUS_GENODEF_13
1002
{
1000
HIER
1070
     0
1002
}
1002
{
1000
MANEDIT
1070
     0
1002
}
1002
{
1000
NOSEL
1070
     0
1002
}
1002
{
1000
BEHIND
1070
     0
1002
}
1002
{
1000
OTHER
1070
     0
1002
}
1002
{
1000
REACTOR
1002
}
1001
GENIUS_GENOBJ-N-FIL_13
1002
{
1000
OWNER
1000
GEN
1002
}
  0
LINE
  5
9DA
330
1F
100
AcDbEntity
  8
0
100
AcDbLine
 10
-246.7115531192892
 20
412.6980938152603
 30
0.0
 11
-236.2115531192892
 21
412.6980938152603
 31
0.0
  0
ARC
  5
9DB
330
1F
100
AcDbEntity
  8
0
100
AcDbCircle
 10
-236.2115531192892
 20
410.6980938152601
 30
0.0
 40
2.0
100
AcDbArc
 50
0.0
 51
90.0
1001
GENIUS_GENODEF_13
1002
{
1000
HIER
1070
     0
1002
}
1002
{
1000
MANEDIT
1070
     0
1002
}
1002
{
1000
NOSEL
1070
     0
1002
}
1002
{
1000
BEHIND
1070
     0
1002
}
1002
{
1000
OTHER
1070
     0
1002
}
1002
{
1000
REACTOR
1002
}
1001
GENIUS_GENOBJ-N-FIL_13
1002
{
1000
OWNER
1000
GEN
1002
}
  0
ARC
  5
9DC
330
1F
100
AcDbEntity
  8
0
100
AcDbCircle
 10
-192.2115531192892
 20
410.6980938152601
 30
0.0
 40
3.5
100
AcDbArc
 50
90.0
 51
180.0
1001
GENIUS_GENODEF_13
1002
{
1000
HIER
1070
     0
1002
}
1002
{
1000
MANEDIT
1070
     0
1002
}
1002
{
1000
NOSEL
1070
     0
1002
}
1002
{
1000
BEHIND
1070
     0
1002
}
1002
{
1000
OTHER
1070
     0
1002
}
1002
{
1000
REACTOR
1002
}
1001
GENIUS_GENOBJ-N-FIL_13
1002
{
1000
OWNER
1000
GEN
1002
}
  0
ARC
  5
9DD
330
1F
100
AcDbEntity
  8
0
100
AcDbCircle
 10
-236.2115531192892
 20
410.6980938152601
 30
0.0
 40
3.5
100
AcDbArc
 50
0.0
 51
90.0
1001
GENIUS_GENODEF_13
1002
{
1000
HIER
1070
     0
1002
}
1002
{
1000
MANEDIT
1070
     0
1002
}
1002
{
1000
NOSEL
1070
     0
1002
}
1002
{
1000
BEHIND
1070
     0
1002
}
1002
{
1000
OTHER
1070
     0
1002
}
1002
{
1000
REACTOR
1002
}
1001
GENIUS_GENOBJ-N-FIL_13
1002
{
1000
OWNER
1000
GEN
1002
}
  0
HATCH
  5
9DE
330
1F
100
AcDbEntity
  8
8
100
AcDbHatch
 10
0.0
 20
0.0
 30
0.0
210
0.0
220
0.0
230
1.0
  2
_U
 70
     0
 71
     0
 91
        1
 92
        1
 93
        8
 72
     1
 10
-234.2115531192892
 20
353.6980938152603
 11
-234.2115531192892
 21
410.6980938152601
 72
     2
 10
-236.2115531192892
 20
410.6980938152601
 40
2.0
 50
360.0
 51
450.0
 73
     1
 72
     1
 10
-236.2115531192892
 20
412.6980938152603
 11
-246.7115531192892
 21
412.6980938152603
 72
     1
 10
-246.7115531192892
 20
412.6980938152603
 11
-246.7115531192892
 21
414.1980938152603
 72
     1
 10
-246.7115531192892
 20
414.1980938152603
 11
-236.2115531192892
 21
414.1980938152603
 72
     2
 10
-236.2115531192892
 20
410.6980938152601
 40
3.5
 50
-90.0
 51
0.0
 73
     0
 72
     1
 10
-232.7115531192892
 20
410.6980938152601
 11
-232.7115531192892
 21
353.6980938152603
 72
     1
 10
-232.7115531192892
 20
353.6980938152603
 11
-234.2115531192892
 21
353.6980938152603
 97
        0
 75
     0
 76
     0
 52
45.0
 41
5.0
 77
     0
 78
     1
 53
135.0
 43
-96.14794612441233
 44
210.9837344777186
 45
3.535533905932736
 46
3.535533905932736
 79
     0
 98
        1
 10
-96.14794612441233
 20
210.9837344777186
1001
GENIUS_GENODEF_13
1002
{
1000
HIER
1070
     0
1002
}
1002
{
1000
MANEDIT
1070
     0
1002
}
1002
{
1000
NOSEL
1070
     0
1002
}
1002
{
1000
BEHIND
1070
     0
1002
}
1002
{
1000
OTHER
1070
     0
1002
}
1002
{
1000
REACTOR
1002
}
1001
GENIUS_GENOBJ-N-HTC_13
1002
{
1000
OWNER
1000
GEN
1002
}
1001
GENIUS_GENHATCH_13
1002
{
1000
DATA
1040
45.0
1042
-5.0
1000
_U
1070
     0
1011
-233.4412320483782
1021
393.6652943923978
1031
0.0
1002
}
1002
{
1000
UCS
1010
0.0
1020
0.0
1030
0.0
1010
1.0
1020
0.0
1030
0.0
1010
0.0
1020
1.0
1030
0.0
1002
}
  0
HATCH
  5
9DF
330
1F
100
AcDbEntity
  8
8
100
AcDbHatch
 10
0.0
 20
0.0
 30
0.0
210
0.0
220
0.0
230
1.0
  2
_U
 70
     0
 71
     0
 91
        1
 92
        1
 93
        8
 72
     1
 10
-192.2115531192892
 20
414.1980938152603
 11
-181.7115531192892
 21
414.1980938152603
 72
     1
 10
-181.7115531192892
 20
414.1980938152603
 11
-181.7115531192892
 21
412.6980938152605
 72
     1
 10
-181.7115531192892
 20
412.6980938152603
 11
-192.2115531192892
 21
412.6980938152603
 72
     2
 10
-192.2115531192892
 20
410.6980938152601
 40
2.0
 50
450.0
 51
540.0
 73
     1
 72
     1
 10
-194.2115531192892
 20
410.6980938152601
 11
-194.2115531192892
 21
353.6980938152603
 72
     1
 10
-194.2115531192892
 20
353.6980938152603
 11
-195.7115531192892
 21
353.6980938152603
 72
     1
 10
-195.7115531192892
 20
353.6980938152603
 11
-195.7115531192892
 21
410.6980938152601
 72
     2
 10
-192.2115531192892
 20
410.6980938152601
 40
3.5
 50
-180.0
 51
-90.0
 73
     0
 97
        0
 75
     0
 76
     0
 52
45.0
 41
5.0
 77
     0
 78
     1
 53
135.0
 43
-96.14794612441233
 44
210.9837344777186
 45
3.535533905932736
 46
3.535533905932736
 79
     0
 98
        1
 10
-96.14794612441233
 20
210.9837344777186
1001
GENIUS_GENODEF_13
1002
{
1000
HIER
1070
     0
1002
}
1002
{
1000
MANEDIT
1070
     0
1002
}
1002
{
1000
NOSEL
1070
     0
1002
}
1002
{
1000
BEHIND
1070
     0
1002
}
1002
{
1000
OTHER
1070
     0
1002
}
1002
{
1000
REACTOR
1002
}
1001
GENIUS_GENOBJ-N-HTC_13
1002
{
1000
OWNER
1000
GEN
1002
}
1001
GENIUS_GENHATCH_13
1002
{
1000
DATA
1040
45.0
1042
-5.0
1000
_U
1070
     0
1011
-195.0742851493892
1021
391.4457550735667
1031
0.0
1002
}
1002
{
1000
UCS
1010
0.0
1020
0.0
1030
0.0
1010
1.0
1020
0.0
1030
0.0
1010
0.0
1020
1.0
1030
0.0
1002
}
  0
LINE
  5
9E0
330
1F
100
AcDbEntity
  8
0
100
AcDbLine
 10
-185.7115531192892
 20
403.6980938152603
 30
0.0
 11
-186.7115531192892
 21
403.6980938152603
 31
0.0
  0
LINE
  5
9E1
330
1F
100
AcDbEntity
  8
0
100
AcDbLine
 10
-185.7115531192892
 20
412.6980938152603
 30
0.0
 11
-192.2115531192892
 21
412.6980938152603
 31
0.0
  0
LINE
  5
9E2
330
1F
100
AcDbEntity
  8
0
100
AcDbLine
 10
-185.7115531192892
 20
403.6980938152603
 30
0.0
 11
-187.4722576751044
 21
403.6980938152603
 31
0.0
  0
LINE
  5
9E3
330
1F
100
AcDbEntity
  8
0
100
AcDbLine
 10
-194.2115531192892
 20
410.6980938152601
 30
0.0
 11
-194.2115531192892
 21
392.6980938152603
 31
0.0
  0
LINE
  5
9E4
330
1F
100
AcDbEntity
  8
0
100
AcDbLine
 10
-187.2115531192892
 20
401.2180938152603
 30
0.0
 11
-187.2115531192892
 21
399.2180938152603
 31
0.0
  0
LINE
  5
9E5
330
1F
100
AcDbEntity
  8
0
100
AcDbLine
 10
-194.2115531192892
 20
392.6980938152603
 30
0.0
 11
-190.9758768744054
 21
392.6980938152603
 31
0.0
  0
LINE
  5
9E6
330
1F
100
AcDbEntity
  8
0
100
AcDbLine
 10
-185.7115531192892
 20
403.6980938152603
 30
0.0
 11
-185.7115531192892
 21
412.6980938152603
 31
0.0
  0
LINE
  5
9E7
330
1F
100
AcDbEntity
  8
0
100
AcDbLine
 10
-187.2115531192892
 20
401.2180938152603
 30
0.0
 11
-187.9358496023874
 21
403.0107905185525
 31
0.0
  0
ARC
  5
9E8
330
1F
100
AcDbEntity
  8
0
100
AcDbCircle
 10
-187.4722576751044
 20
403.1980938152603
 30
0.0
 40
0.5
100
AcDbArc
 50
90.0
 51
201.9999999999892
  0
LINE
  5
9E9
330
1F
100
AcDbEntity
  8
0
100
AcDbLine
 10
-187.2115531192892
 20
399.2180938152603
 30
0.0
 11
-190.9758768744054
 21
392.6980938152603
 31
0.0
  0
LINE
  5
9EA
330
1F
100
AcDbEntity
  8
0
100
AcDbLine
 10
-192.2115531192892
 20
412.6980938152603
 30
0.0
 11
-194.2115531192892
 21
410.6980938152601
 31
0.0
  0
LINE
  5
9EB
330
1F
100
AcDbEntity
  8
3
100
AcDbLine
 10
-185.7115531192892
 20
410.1980938152603
 30
0.0
 11
-194.2115531192892
 21
410.1980938152603
 31
0.0
  0
LINE
  5
9EC
330
1F
100
AcDbEntity
  8
3
100
AcDbLine
 10
-187.4722576751044
 20
403.6980938152603
 30
0.0
 11
-194.2115531192892
 21
403.6980938152603
 31
0.0
  0
LINE
  5
9ED
330
1F
100
AcDbEntity
  8
0
100
AcDbLine
 10
-186.7115531192892
 20
400.6980938152603
 30
0.0
 11
-187.1845260922621
 21
403.535931653098
 31
0.0
  0
LINE
  5
9EE
330
1F
100
AcDbEntity
  8
0
100
AcDbLine
 10
-185.7115531192892
 20
400.6980938152603
 30
0.0
 11
-186.2115531192891
 21
403.6980938152603
 31
0.0
  0
LINE
  5
9EF
330
1F
100
AcDbEntity
  8
0
100
AcDbLine
 10
-186.2115531192891
 20
403.6980938152603
 30
0.0
 11
-187.1845260922621
 21
403.535931653098
 31
0.0
  0
LINE
  5
9F0
330
1F
100
AcDbEntity
  8
0
100
AcDbLine
 10
-187.1845260922621
 20
403.535931653098
 30
0.0
 11
-187.8408571804284
 21
403.535931653098
 31
0.0
  0
LINE
  5
9F1
330
1F
100
AcDbEntity
  8
0
100
AcDbLine
 10
-241.7115531192892
 20
400.6980938152603
 30
0.0
 11
-241.2385801463165
 21
403.535931653098
 31
0.0
  0
LINE
  5
9F2
330
1F
100
AcDbEntity
  8
0
100
AcDbLine
 10
-242.7115531192892
 20
400.6980938152603
 30
0.0
 11
-242.2115531192892
 21
403.6980938152603
 31
0.0
  0
LINE
  5
9F3
330
1F
100
AcDbEntity
  8
0
100
AcDbLine
 10
-242.2115531192892
 20
403.6980938152603
 30
0.0
 11
-241.2385801463165
 21
403.535931653098
 31
0.0
  0
LINE
  5
9F4
330
1F
100
AcDbEntity
  8
0
100
AcDbLine
 10
-241.2385801463165
 20
403.535931653098
 30
0.0
 11
-234.2115531192892
 21
403.535931653098
 31
0.0
  0
LINE
  5
CB0
330
1F
100
AcDbEntity
  8
0
100
AcDbLine
 10
1108.444728657852
 20
442.7226652442209
 30
0.0
 11
1008.444724511052
 21
442.7226652440872
 31
0.0
  0
LINE
  5
CB1
330
1F
100
AcDbEntity
  8
0
100
AcDbLine
 10
1026.444728657915
 20
423.642798125673
 30
0.0
 11
1026.44472451106
 21
440.722665244059
 31
0.0
  0
LINE
  5
CB2
330
1F
100
AcDbEntity
  8
0
100
AcDbLine
 10
1027.44472865791
 20
423.6427981256821
 30
0.0
 11
1027.444724511157
 21
440.722665244051
 31
0.0
  0
LINE
  5
CB3
330
1F
100
AcDbEntity
  8
0
100
AcDbLine
 10
1029.610819617564
 20
422.5421576641439
 30
0.0
 11
1028.361683178059
 21
422.6462523674348
 31
0.0
  0
LINE
  5
CB4
330
1F
100
AcDbEntity
  8
0
100
AcDbLine
 10
1139.444728657849
 20
427.7226652440734
 30
0.0
 11
1139.444728657849
 21
426.7226652440823
 31
0.0
  0
LINE
  5
CB5
330
1F
100
AcDbEntity
  8
0
100
AcDbLine
 10
1110.444728657824
 20
426.7226652441096
 30
0.0
 11
1139.444728657849
 21
426.7226652440839
 31
0.0
  0
LINE
  5
CB6
330
1F
100
AcDbEntity
  8
0
100
AcDbLine
 10
1110.444728657876
 20
427.7226652441096
 30
0.0
 11
1139.444728657849
 21
427.7226652440839
 31
0.0
  0
LINE
  5
CB7
330
1F
100
AcDbEntity
  8
0
100
AcDbLine
 10
1105.278637698153
 20
422.5421576641426
 30
0.0
 11
1106.527774137661
 21
422.6462523674348
 31
0.0
  0
LINE
  5
CB8
330
1F
100
AcDbEntity
  8
0
100
AcDbLine
 10
1108.44472865781
 20
423.642798125673
 30
0.0
 11
1108.444728657865
 21
441.7226652442209
 31
0.0
  0
LINE
  5
CB9
330
1F
100
AcDbEntity
  8
0
100
AcDbLine
 10
1107.444728657809
 20
423.6427981256753
 30
0.0
 11
1107.444728657869
 21
441.7226652442196
 31
0.0
  0
LINE
  5
CBA
330
1F
100
AcDbEntity
  8
0
100
AcDbLine
 10
1109.444728657839
 20
441.7226652442186
 30
0.0
 11
1109.444728657876
 21
428.7226652441067
 31
0.0
  0
LINE
  5
CBB
330
1F
100
AcDbEntity
  8
7A
100
AcDbLine
 10
1067.444728657922
 20
329.8509302226049
 30
0.0
 11
1067.444728657906
 21
359.3055049063255
 31
0.0
1001
GENIUS_GENOBJ-N-CEN_13
1002
{
1000
OWNER
1000
GEN
1002
}
1001
GENIUS_GENODEF_13
1002
{
1000
HIER
1070
     0
1002
}
1002
{
1000
MANEDIT
1070
     0
1002
}
1002
{
1000
NOSEL
1070
     0
1002
}
1002
{
1000
BEHIND
1070
     0
1002
}
1002
{
1000
OTHER
1070
     0
1002
}
1002
{
1000
REACTOR
1002
}
  0
LINE
  5
CBD
330
1F
100
AcDbEntity
  8
0
100
AcDbLine
 10
1029.444728657859
 20
410.72266524411
 30
0.0
 11
1029.444728657859
 21
343.698093815262
 31
0.0
1001
GENIUS_GENODEF_13
1002
{
1000
HIER
1070
     0
1002
}
1002
{
1000
MANEDIT
1070
     0
1002
}
1002
{
1000
NOSEL
1070
     0
1002
}
1002
{
1000
BEHIND
1070
     0
1002
}
1002
{
1000
REACTOR
1002
}
1001
GENIUS_GENOBJ-N-CEN_13
1002
{
1000
OWNER
1000
GEN
1002
}
  0
LINE
  5
CBE
330
1F
100
AcDbEntity
  8
0
100
AcDbLine
 10
1105.444728657859
 20
410.72266524411
 30
0.0
 11
1105.444728657859
 21
403.6980938153718
 31
0.0
1001
GENIUS_GENODEF_13
1002
{
1000
HIER
1070
     0
1002
}
1002
{
1000
MANEDIT
1070
     0
1002
}
1002
{
1000
NOSEL
1070
     0
1002
}
1002
{
1000
BEHIND
1070
     0
1002
}
1002
{
1000
REACTOR
1002
}
1001
GENIUS_GENOBJ-N-CEN_13
1002
{
1000
OWNER
1000
GEN
1002
}
  0
LINE
  5
CBF
330
1F
100
AcDbEntity
  8
7A
100
AcDbLine
 10
1098.23290039436
 20
378.6980938153726
 30
0.0
 11
1170.819904265581
 21
378.6980938153726
 31
0.0
1001
GENIUS_GENOBJ-N-CEN_13
1002
{
1000
OWNER
1000
GEN
1002
}
1001
GENIUS_GENODEF_13
1002
{
1000
HIER
1070
     0
1002
}
1002
{
1000
MANEDIT
1070
     0
1002
}
1002
{
1000
NOSEL
1070
     0
1002
}
1002
{
1000
BEHIND
1070
     0
1002
}
1002
{
1000
OTHER
1070
     0
1002
}
1002
{
1000
REACTOR
1002
}
  0
LINE
  5
CC0
330
1F
100
AcDbEntity
  8
0
100
AcDbLine
 10
1036.444728657859
 20
336.6980938152607
 30
0.0
 11
1098.44472865786
 21
336.6980938152607
 31
0.0
  0
LINE
  5
CC1
330
1F
100
AcDbEntity
  8
0
100
AcDbLine
 10
1165.444728657859
 20
403.6980938153718
 30
0.0
 11
1165.444728657859
 21
353.6980938153725
 31
0.0
1001
GENIUS_GENODEF_13
1002
{
1000
HIER
1070
     0
1002
}
1002
{
1000
MANEDIT
1070
     0
1002
}
1002
{
1000
NOSEL
1070
     0
1002
}
1002
{
1000
BEHIND
1070
     0
1002
}
1002
{
1000
REACTOR
1002
}
1001
GENIUS_GENOBJ-N-CEN_13
1002
{
1000
OWNER
1000
GEN
1002
}
  0
LINE
  5
CC2
330
1F
100
AcDbEntity
  8
0
100
AcDbLine
 10
1103.444728657859
 20
403.6980938153718
 30
0.0
 11
1165.444728657859
 21
403.6980938153718
 31
0.0
1001
GENIUS_GENOBJ-N-CEN_13
1002
{
1000
OWNER
1000
GEN
1002
}
1001
GENIUS_GENODEF_13
1002
{
1000
HIER
1070
     0
1002
}
1002
{
1000
MANEDIT
1070
     0
1002
}
1002
{
1000
NOSEL
1070
     0
1002
}
1002
{
1000
BEHIND
1070
     0
1002
}
1002
{
1000
OTHER
1070
     0
1002
}
1002
{
1000
REACTOR
1002
}
  0
LINE
  5
CC3
330
1F
100
AcDbEntity
  8
0
100
AcDbLine
 10
1103.444728657859
 20
353.6980938153725
 30
0.0
 11
1165.444728657859
 21
353.6980938153725
 31
0.0
1001
GENIUS_GENOBJ-N-CEN_13
1002
{
1000
OWNER
1000
GEN
1002
}
1001
GENIUS_GENODEF_13
1002
{
1000
HIER
1070
     0
1002
}
1002
{
1000
MANEDIT
1070
     0
1002
}
1002
{
1000
NOSEL
1070
     0
1002
}
1002
{
1000
BEHIND
1070
     0
1002
}
1002
{
1000
OTHER
1070
     0
1002
}
1002
{
1000
REACTOR
1002
}
  0
ARC
  5
CC4
330
1F
100
AcDbEntity
  8
0
100
AcDbCircle
 10
1154.528061991193
 20
378.6980938153726
 30
0.0
 40
55.08333333333284
100
AcDbArc
 50
154.7463521009398
 51
205.2536478990602
  0
LINE
  5
CC5
330
1F
100
AcDbEntity
  8
0
100
AcDbLine
 10
1105.444728657859
 20
353.6980938153725
 30
0.0
 11
1105.44472865786
 21
343.698093815262
 31
0.0
1001
GENIUS_GENODEF_13
1002
{
1000
HIER
1070
     0
1002
}
1002
{
1000
MANEDIT
1070
     0
1002
}
1002
{
1000
NOSEL
1070
     0
1002
}
1002
{
1000
BEHIND
1070
     0
1002
}
1002
{
1000
REACTOR
1002
}
1001
GENIUS_GENOBJ-N-CEN_13
1002
{
1000
OWNER
1000
GEN
1002
}
  0
LINE
  5
CC6
330
1F
100
AcDbEntity
  8
0
100
AcDbLine
 10
1104.709153822594
 20
402.1980938153724
 30
0.0
 11
1165.444728657859
 21
402.1980938153724
 31
0.0
1001
GENIUS_GENOBJ-N-CEN_13
1002
{
1000
OWNER
1000
GEN
1002
}
1001
GENIUS_GENODEF_13
1002
{
1000
HIER
1070
     0
1002
}
1002
{
1000
MANEDIT
1070
     0
1002
}
1002
{
1000
NOSEL
1070
     0
1002
}
1002
{
1000
BEHIND
1070
     0
1002
}
1002
{
1000
OTHER
1070
     0
1002
}
1002
{
1000
REACTOR
1002
}
  0
LINE
  5
CC7
330
1F
100
AcDbEntity
  8
0
100
AcDbLine
 10
1104.709153822594
 20
355.1980938153725
 30
0.0
 11
1165.444728657859
 21
355.1980938153725
 31
0.0
1001
GENIUS_GENOBJ-N-CEN_13
1002
{
1000
OWNER
1000
GEN
1002
}
1001
GENIUS_GENODEF_13
1002
{
1000
HIER
1070
     0
1002
}
1002
{
1000
MANEDIT
1070
     0
1002
}
1002
{
1000
NOSEL
1070
     0
1002
}
1002
{
1000
BEHIND
1070
     0
1002
}
1002
{
1000
OTHER
1070
     0
1002
}
1002
{
1000
REACTOR
1002
}
  0
ARC
  5
CC8
330
1F
100
AcDbEntity
  8
0
100
AcDbCircle
 10
1163.467368233799
 20
378.6980938153726
 30
0.0
 40
65.02089865314991
100
AcDbArc
 50
157.3878080414823
 51
202.6121919585177
  0
LINE
  5
CC9
330
1F
100
AcDbEntity
  8
0
100
AcDbLine
 10
1103.444728657859
 20
403.6980938153718
 30
0.0
 11
1104.709153822594
 21
402.1980938153724
 31
0.0
  0
LINE
  5
CCA
330
1F
100
AcDbEntity
  8
0
100
AcDbLine
 10
1103.444728657859
 20
353.6980938153725
 30
0.0
 11
1104.709153822594
 21
355.1980938153725
 31
0.0
  0
LINE
  5
CCB
330
1F
100
AcDbEntity
  8
0
100
AcDbLine
 10
1067.486251397788
 20
418.3824054675898
 30
0.0
 11
1031.253842023057
 21
421.4017729154552
 31
0.0
  0
LINE
  5
CCC
330
1F
100
AcDbEntity
  8
0
100
AcDbLine
 10
1067.403205917937
 20
418.3824054675898
 30
0.0
 11
1103.63561529266
 21
421.4017729154544
 31
0.0
  0
ARC
  5
CCD
330
1F
100
AcDbEntity
  8
0
100
AcDbCircle
 10
1108.444728657852
 20
441.7226652442155
 30
0.0
 40
0.9999999999848339
100
AcDbArc
 50
359.9999999997655
 51
179.9999999997655
  0
ARC
  5
CCE
330
1F
100
AcDbEntity
  8
0
100
AcDbCircle
 10
1028.444728657915
 20
423.6427981256794
 30
0.0
 40
2.0
100
AcDbArc
 50
180.0000000001563
 51
265.2363583092438
  0
ARC
  5
CCF
330
1F
100
AcDbEntity
  8
0
100
AcDbCircle
 10
1106.44472865781
 20
423.6427981256794
 30
0.0
 40
2.0
100
AcDbArc
 50
274.7636416907562
 51
359.9999999997655
  0
ARC
  5
CD0
330
1F
100
AcDbEntity
  8
0
100
AcDbCircle
 10
1110.444728657826
 20
428.7226652441096
 30
0.0
 40
2.0
100
AcDbArc
 50
179.9999999997655
 51
269.9999999998958
  0
ARC
  5
CD1
330
1F
100
AcDbEntity
  8
0
100
AcDbCircle
 10
1028.444728657911
 20
423.6427981256794
 30
0.0
 40
1.0
100
AcDbArc
 50
179.9999999998437
 51
265.2363583092438
  0
ARC
  5
CD2
330
1F
100
AcDbEntity
  8
0
100
AcDbCircle
 10
1106.44472865781
 20
423.6427981256794
 30
0.0
 40
1.0
100
AcDbArc
 50
274.7636416907562
 51
359.9999999997655
  0
ARC
  5
CD3
330
1F
100
AcDbEntity
  8
0
100
AcDbCircle
 10
1110.444728657876
 20
428.7226652441096
 30
0.0
 40
1.0
100
AcDbArc
 50
180.0000000001302
 51
269.9999999998958
  0
ARC
  5
CD4
330
1F
100
AcDbEntity
  8
0
100
AcDbCircle
 10
1036.444728657859
 20
343.6980938152607
 30
0.0
 40
7.0
100
AcDbArc
 50
180.0
 51
270.0
  0
ARC
  5
CD5
330
1F
100
AcDbEntity
  8
0
100
AcDbCircle
 10
1098.44472865786
 20
343.6980938152607
 30
0.0
 40
7.0
100
AcDbArc
 50
270.0
 51
0.0
1001
GENIUS_GENODEF_13
1002
{
1000
HIER
1070
     0
1002
}
1002
{
1000
MANEDIT
1070
     0
1002
}
1002
{
1000
NOSEL
1070
     0
1002
}
1002
{
1000
BEHIND
1070
     0
1002
}
1002
{
1000
REACTOR
1002
}
1001
GENIUS_GENOBJ-N-CEN_13
1002
{
1000
OWNER
1000
GEN
1002
}
  0
LINE
  5
CD6
330
1F
100
AcDbEntity
  8
0
100
AcDbLine
 10
1103.444728657859
 20
420.5490661476543
 30
0.0
 11
1103.444728657859
 21
403.6980938153718
 31
0.0
1001
GENIUS_GENODEF_13
1002
{
1000
HIER
1070
     0
1002
}
1002
{
1000
MANEDIT
1070
     0
1002
}
1002
{
1000
NOSEL
1070
     0
1002
}
1002
{
1000
BEHIND
1070
     0
1002
}
1002
{
1000
REACTOR
1002
}
1001
GENIUS_GENOBJ-N-CEN_13
1002
{
1000
OWNER
1000
GEN
1002
}
  0
LINE
  5
CD7
330
1F
100
AcDbEntity
  8
0
100
AcDbLine
 10
1103.444728657859
 20
353.6980938153725
 30
0.0
 11
1103.44472865786
 21
343.698093815262
 31
0.0
1001
GENIUS_GENODEF_13
1002
{
1000
HIER
1070
     0
1002
}
1002
{
1000
MANEDIT
1070
     0
1002
}
1002
{
1000
NOSEL
1070
     0
1002
}
1002
{
1000
BEHIND
1070
     0
1002
}
1002
{
1000
REACTOR
1002
}
1001
GENIUS_GENOBJ-N-CEN_13
1002
{
1000
OWNER
1000
GEN
1002
}
  0
ARC
  5
CD8
330
1F
100
AcDbEntity
  8
0
100
AcDbCircle
 10
1098.44472865786
 20
343.6980938152607
 30
0.0
 40
5.0
100
AcDbArc
 50
270.0
 51
0.0
1001
GENIUS_GENODEF_13
1002
{
1000
HIER
1070
     0
1002
}
1002
{
1000
MANEDIT
1070
     0
1002
}
1002
{
1000
NOSEL
1070
     0
1002
}
1002
{
1000
BEHIND
1070
     0
1002
}
1002
{
1000
REACTOR
1002
}
1001
GENIUS_GENOBJ-N-CEN_13
1002
{
1000
OWNER
1000
GEN
1002
}
  0
LINE
  5
CD9
330
1F
100
AcDbEntity
  8
0
100
AcDbLine
 10
1036.444728657859
 20
338.6980938152607
 30
0.0
 11
1098.44472865786
 21
338.6980938152607
 31
0.0
  0
ARC
  5
CDA
330
1F
100
AcDbEntity
  8
0
100
AcDbCircle
 10
1036.444728657859
 20
343.6980938152607
 30
0.0
 40
5.0
100
AcDbArc
 50
180.0
 51
270.0
  0
LINE
  5
CDB
330
1F
100
AcDbEntity
  8
0
100
AcDbLine
 10
1031.444728657858
 20
420.5490661476543
 30
0.0
 11
1031.444728657858
 21
343.6980938152607
 31
0.0
1001
GENIUS_GENODEF_13
1002
{
1000
HIER
1070
     0
1002
}
1002
{
1000
MANEDIT
1070
     0
1002
}
1002
{
1000
NOSEL
1070
     0
1002
}
1002
{
1000
BEHIND
1070
     0
1002
}
1002
{
1000
REACTOR
1002
}
1001
GENIUS_GENOBJ-N-CEN_13
1002
{
1000
OWNER
1000
GEN
1002
}
  0
LINE
  5
CDC
330
1F
100
AcDbEntity
  8
0
  6
ByBlock
100
AcDbLine
 10
1029.444728657859
 20
410.72266524411
 30
0.0
 11
1036.846442942517
 21
410.7226652441104
 31
0.0
  0
LINE
  5
CDD
330
1F
100
AcDbEntity
  8
0
  6
ByBlock
100
AcDbLine
 10
1098.043014373316
 20
410.7226652441104
 30
0.0
 11
1105.444728657859
 21
410.72266524411
 31
0.0
  0
LINE
  5
CDE
330
1F
100
AcDbEntity
  8
0
100
AcDbLine
 10
1030.444728657859
 20
420.5490661476543
 30
0.0
 11
1030.444728657859
 21
410.7226652441114
 31
0.0
1001
GENIUS_GENODEF_13
1002
{
1000
HIER
1070
     0
1002
}
1002
{
1000
MANEDIT
1070
     0
1002
}
1002
{
1000
NOSEL
1070
     0
1002
}
1002
{
1000
BEHIND
1070
     0
1002
}
1002
{
1000
REACTOR
1002
}
1001
GENIUS_GENOBJ-N-CEN_13
1002
{
1000
OWNER
1000
GEN
1002
}
  0
LINE
  5
CDF
330
1F
100
AcDbEntity
  8
0
100
AcDbLine
 10
1104.44472865786
 20
420.5490661476543
 30
0.0
 11
1104.44472865786
 21
410.72266524411
 31
0.0
1001
GENIUS_GENODEF_13
1002
{
1000
HIER
1070
     0
1002
}
1002
{
1000
MANEDIT
1070
     0
1002
}
1002
{
1000
NOSEL
1070
     0
1002
}
1002
{
1000
BEHIND
1070
     0
1002
}
1002
{
1000
REACTOR
1002
}
1001
GENIUS_GENOBJ-N-CEN_13
1002
{
1000
OWNER
1000
GEN
1002
}
  0
ARC
  5
CE0
330
1F
100
AcDbEntity
  8
0
100
AcDbCircle
 10
1029.444728657859
 20
420.5490661476543
 30
0.0
 40
2.0
100
AcDbArc
 50
0.0
 51
85.2363583092438
1001
GENIUS_GENODEF_13
1002
{
1000
HIER
1070
     0
1002
}
1002
{
1000
MANEDIT
1070
     0
1002
}
1002
{
1000
NOSEL
1070
     0
1002
}
1002
{
1000
BEHIND
1070
     0
1002
}
1002
{
1000
REACTOR
1002
}
1001
GENIUS_GENOBJ-N-CEN_13
1002
{
1000
OWNER
1000
GEN
1002
}
  0
LINE
  5
CE1
330
1F
100
AcDbEntity
  8
0
  6
ByBlock
100
AcDbLine
 10
1029.610819617564
 20
422.5421576641439
 30
0.0
 11
1067.44472865786
 21
419.3893319108174
 31
0.0
  0
ARC
  5
CE2
330
1F
100
AcDbEntity
  8
0
100
AcDbCircle
 10
1105.444728657859
 20
420.5490661476543
 30
0.0
 40
2.0
100
AcDbArc
 50
94.76364169075621
 51
180.0
1001
GENIUS_GENODEF_13
1002
{
1000
HIER
1070
     0
1002
}
1002
{
1000
MANEDIT
1070
     0
1002
}
1002
{
1000
NOSEL
1070
     0
1002
}
1002
{
1000
BEHIND
1070
     0
1002
}
1002
{
1000
REACTOR
1002
}
1001
GENIUS_GENOBJ-N-CEN_13
1002
{
1000
OWNER
1000
GEN
1002
}
  0
LINE
  5
CE3
330
1F
100
AcDbEntity
  8
0
  6
ByBlock
100
AcDbLine
 10
1105.278637698153
 20
422.5421576641426
 30
0.0
 11
1067.44472865786
 21
419.3893319108174
 31
0.0
  0
LINE
  5
CE4
330
1F
100
AcDbEntity
  8
0
100
AcDbLine
 10
1105.361683178004
 20
421.545611905898
 30
0.0
 11
1106.610819617517
 21
421.6497066091903
 31
0.0
  0
LINE
  5
CE5
330
1F
100
AcDbEntity
  8
0
100
AcDbLine
 10
1029.52777413771
 20
421.545611905898
 30
0.0
 11
1028.278637698208
 21
421.6497066091903
 31
0.0
  0
ARC
  5
CE6
330
1F
100
AcDbEntity
  8
0
100
AcDbCircle
 10
1029.444728657859
 20
420.5490661476543
 30
0.0
 40
1.0
100
AcDbArc
 50
0.0
 51
85.2363583092438
1001
GENIUS_GENODEF_13
1002
{
1000
HIER
1070
     0
1002
}
1002
{
1000
MANEDIT
1070
     0
1002
}
1002
{
1000
NOSEL
1070
     0
1002
}
1002
{
1000
BEHIND
1070
     0
1002
}
1002
{
1000
REACTOR
1002
}
1001
GENIUS_GENOBJ-N-CEN_13
1002
{
1000
OWNER
1000
GEN
1002
}
  0
ARC
  5
CE7
330
1F
100
AcDbEntity
  8
0
100
AcDbCircle
 10
1105.444728657859
 20
420.5490661476543
 30
0.0
 40
1.0
100
AcDbArc
 50
94.76364169075621
 51
180.0
  0
HATCH
  5
CE8
330
1F
100
AcDbEntity
  8
KLIN
  6
ByBlock
100
AcDbHatch
 10
0.0
 20
0.0
 30
0.0
210
0.0
220
0.0
230
1.0
  2
LINE
 70
     0
 71
     0
 91
        4
 92
        7
 72
     0
 73
     1
 93
        4
 10
1105.444728657859
 20
411.6980938152602
 10
1103.444728657859
 20
411.6980938152615
 10
1103.444728657859
 20
403.6980938153718
 10
1105.444728657859
 20
403.6980938153718
 97
        0
 92
        7
 72
     1
 73
     1
 93
        8
 10
1031.444728657858
 20
386.1247262859593
 42
0.0
 10
1029.444728657859
 20
385.4501336819823
 42
0.0
 10
1029.444728657859
 20
343.698093815262
 42
0.4142135623730982
 10
1036.444728657859
 20
336.6980938152607
 42
0.0
 10
1067.444728657919
 20
336.6980938152607
 42
0.0
 10
1067.444728657917
 20
338.6980938152607
 42
0.0
 10
1036.444728657859
 20
338.6980938152607
 42
-0.4142135623730974
 10
1031.444728657858
 20
343.698093815262
 42
0.0
 97
        0
 92
        7
 72
     1
 73
     1
 93
        8
 10
1105.44472865786
 20
343.698093815262
 42
0.0
 10
1105.444728657859
 20
353.6980938153725
 42
0.0
 10
1103.444728657859
 20
353.6980938153725
 42
0.0
 10
1103.44472865786
 20
343.698093815262
 42
-0.4142135623731005
 10
1098.44472865786
 20
338.6980938152607
 42
0.0
 10
1067.444728657917
 20
338.6980938152607
 42
0.0
 10
1067.444728657919
 20
336.6980938152607
 42
0.0
 10
1098.44472865786
 20
336.6980938152607
 42
0.4142135623730998
 97
        0
 92
        1
 93
        4
 72
     1
 10
1031.444728657858
 20
410.72266524411
 11
1029.444728657859
 21
410.72266524411
 72
     1
 10
1029.444728657859
 20
410.72266524411
 11
1029.444728657859
 21
385.4501336819823
 72
     1
 10
1029.444728657859
 20
385.4501336819823
 11
1031.44472865786
 21
386.1247262859593
 72
     1
 10
1031.444728657858
 20
386.1247262859593
 11
1031.444728657858
 21
410.7226652441104
 97
        0
 75
     0
 76
     1
 52
135.0
 41
1.0
 77
     0
 78
     1
 53
135.0
 43
845.3570168900496
 44
155.8568341955155
 45
-2.245064030267287
 46
-2.245064030267287
 79
     0
 47
2.718374431718904
 98
        4
 10
1104.664796209288
 20
407.8242026711133
 10
1030.6833073812
 20
401.3001036978349
 10
1030.6833073812
 20
368.1359349542655
 10
1091.065255880633
 20
337.961979450252
  0
HATCH
  5
CE9
330
1F
100
AcDbEntity
  8
KLIN
  6
ByBlock
100
AcDbHatch
 10
0.0
 20
0.0
 30
0.0
210
0.0
220
0.0
230
1.0
  2
LINE
 70
     0
 71
     0
 91
        3
 92
        7
 72
     0
 73
     1
 93
        4
 10
1165.444728657859
 20
403.6980938153718
 10
1103.444728657859
 20
403.6980938153718
 10
1104.709153822594
 20
402.1980938153724
 10
1165.444728657859
 20
402.1980938153724
 97
        0
 92
        7
 72
     0
 73
     1
 93
        4
 10
1137.767217787753
 20
355.1980938153725
 10
1104.709153822594
 20
355.1980938153725
 10
1103.444728657859
 20
353.6980938153725
 10
1138.525242332871
 20
353.6980938153725
 97
        0
 92
        7
 72
     0
 73
     1
 93
        4
 10
1165.444728657859
 20
355.1980938153725
 10
1137.767217787753
 20
355.1980938153725
 10
1138.525242332871
 20
353.6980938153725
 10
1165.444728657859
 20
353.6980938153725
 97
        0
 75
     0
 76
     1
 52
45.0
 41
0.5
 77
     0
 78
     1
 53
45.0
 43
845.3570168900496
 44
155.8568341955155
 45
-1.122532015133643
 46
1.122532015133643
 79
     0
 47
2.718374431718904
 98
        3
 10
1122.888177232602
 20
402.9311280953999
 10
1123.160167368711
 20
354.5440631305297
 10
1147.095355916716
 20
354.2722261919408
  0
DIMENSION
  5
CEA
330
1F
100
AcDbEntity
  8
AM_5
100
AcDbDimension
  2
*D68
 10
1027.444724511157
 20
490.4532527431316
 30
0.0
 11
1067.444726584513
 21
496.9532527431316
 31
0.0
 70
    32
 71
     5
 42
80.00000414671195
  3
AM_DIN$0
100
AcDbAlignedDimension
 13
1107.444728657869
 23
441.7226652442155
 33
0.0
 14
1027.444724511157
 24
440.722665244051
 34
0.0
100
AcDbRotatedDimension
1001
ACAD_DSTYLE_DIMINSPECT
1070
   396
1000
100%
1070
   395
1000

1070
   394
1070
    33
1070
   393
1070
     0
1001
ACAD
1000
DSTYLE
1002
{
1070
    41
1040
7.0
1070
   140
1040
10.0
1070
   271
1070
     0
1002
}
  0
LINE
  5
CEB
330
1F
100
AcDbEntity
  8
0
100
AcDbLine
 10
1042.444728657926
 20
315.7340938153726
 30
0.0
 11
1092.444728657926
 21
315.7340938153726
 31
0.0
  0
LINE
  5
CEC
330
1F
100
AcDbEntity
  8
0
100
AcDbLine
 10
1042.444728657924
 20
317.7329509584798
 30
0.0
 11
1092.444728657926
 21
317.7329509584798
 31
0.0
  0
LINE
  5
CED
330
1F
100
AcDbEntity
  8
0
100
AcDbLine
 10
1042.444728657926
 20
315.7340938153726
 30
0.0
 11
1042.444728657915
 21
336.6980938152607
 31
0.0
  0
LINE
  5
CEE
330
1F
100
AcDbEntity
  8
0
100
AcDbLine
 10
1092.444728657926
 20
315.7340938153726
 30
0.0
 11
1092.444728657919
 21
336.6980938152607
 31
0.0
  0
LINE
  5
CEF
330
1F
100
AcDbEntity
  8
0
100
AcDbLine
 10
1047.444728657917
 20
410.6980938152601
 30
0.0
 11
1047.444728657917
 21
353.6980938152606
 31
0.0
  0
LINE
  5
CF0
330
1F
100
AcDbEntity
  8
0
100
AcDbLine
 10
1047.444728657917
 20
353.6980938152606
 30
0.0
 11
1087.444728657917
 21
353.6980938152606
 31
0.0
  0
LINE
  5
CF1
330
1F
100
AcDbEntity
  8
0
100
AcDbLine
 10
1087.444728657917
 20
353.6980938152606
 30
0.0
 11
1087.444728657917
 21
410.6980938152601
 31
0.0
  0
LINE
  5
CF2
330
1F
100
AcDbEntity
  8
0
100
AcDbLine
 10
1048.944728657917
 20
410.6980938152601
 30
0.0
 11
1048.944728657917
 21
353.6980938152606
 31
0.0
  0
LINE
  5
CF3
330
1F
100
AcDbEntity
  8
0
100
AcDbLine
 10
1085.944728657917
 20
353.6980938152606
 30
0.0
 11
1085.944728657917
 21
410.6980938152601
 31
0.0
  0
HATCH
  5
CF4
330
1F
100
AcDbEntity
  8
8
100
AcDbHatch
 10
0.0
 20
0.0
 30
0.0
210
0.0
220
0.0
230
1.0
  2
LINE
 70
     0
 71
     0
 91
        4
 92
        7
 72
     0
 73
     1
 93
        6
 10
1039.944728657917
 20
400.6980938152604
 10
1040.417701630888
 20
403.5359316530979
 10
1039.444728657917
 20
403.6980938152605
 10
1038.944728657917
 20
400.6980938152604
 10
1038.944728657917
 20
379.2141914272707
 10
1039.944728657917
 20
379.4704578446582
 97
        0
 92
        7
 72
     0
 73
     1
 93
        4
 10
1039.944728657917
 20
379.4704578446582
 10
1038.944728657917
 20
379.2141914272707
 10
1038.944728657917
 20
366.034870752988
 10
1039.944728657917
 20
366.2911371703755
 97
        0
 92
        7
 72
     1
 73
     1
 93
        8
 10
1039.944728657917
 20
366.2911371703755
 42
0.0
 10
1038.944728657917
 20
366.034870752988
 42
0.0
 10
1038.944728657917
 20
344.6980938152607
 42
0.4142135623730951
 10
1044.944728657917
 20
338.6980938152607
 42
0.0
 10
1067.444728657917
 20
338.6980938152607
 42
0.0
 10
1067.444728657917
 20
339.6980938152607
 42
0.0
 10
1044.944728657917
 20
339.6980938152607
 42
-0.4142135623730951
 10
1039.944728657917
 20
344.6980938152607
 42
0.0
 97
        0
 92
        7
 72
     1
 73
     1
 93
       10
 10
1095.944728657917
 20
344.6980938152607
 42
0.0
 10
1095.944728657917
 20
400.6980938152604
 42
0.0
 10
1095.444728657917
 20
403.6980938152605
 42
0.0
 10
1094.471755684944
 20
403.5359316530979
 42
0.0
 10
1094.944728657917
 20
400.6980938152604
 42
0.0
 10
1094.944728657917
 20
344.6980938152607
 42
-0.4142135623730951
 10
1089.944728657917
 20
339.6980938152607
 42
0.0
 10
1067.444728657917
 20
339.6980938152607
 42
0.0
 10
1067.444728657917
 20
338.6980938152607
 42
0.0
 10
1089.944728657917
 20
338.6980938152607
 42
0.4142135623730951
 97
        0
 75
     0
 76
     1
 52
45.0
 41
1.0
 77
     0
 78
     1
 53
45.0
 43
949.3811216630392
 44
210.983734477719
 45
-2.245064030267287
 46
2.245064030267287
 79
     0
 47
0.144641785732262
 98
        4
 10
1039.266181751935
 20
397.3454924995487
 10
1039.410887222824
 20
369.8635512031674
 10
1039.555590191886
 20
362.0528953667851
 10
1073.994981891028
 20
339.3441347482022
  0
LINE
  5
CF5
330
1F
100
AcDbEntity
  8
0
100
AcDbLine
 10
1038.944728657917
 20
400.6980938152604
 30
0.0
 11
1038.944728657917
 21
344.6980938152607
 31
0.0
  0
LINE
  5
CF6
330
1F
100
AcDbEntity
  8
0
100
AcDbLine
 10
1095.944728657917
 20
344.6980938152607
 30
0.0
 11
1095.944728657917
 21
400.6980938152604
 31
0.0
  0
LINE
  5
CF7
330
1F
100
AcDbEntity
  8
0
100
AcDbLine
 10
1044.944728657917
 20
338.6980938152607
 30
0.0
 11
1089.944728657917
 21
338.6980938152607
 31
0.0
  0
LINE
  5
CF8
330
1F
100
AcDbEntity
  8
0
100
AcDbLine
 10
1087.444728657917
 20
403.6980938152605
 30
0.0
 11
1095.444728657917
 21
403.6980938152605
 31
0.0
  0
LINE
  5
CF9
330
1F
100
AcDbEntity
  8
0
100
AcDbLine
 10
1034.944728657917
 20
414.1980938152602
 30
0.0
 11
1034.944728657917
 21
412.6980938152605
 31
0.0
  0
LINE
  5
CFA
330
1F
100
AcDbEntity
  8
0
100
AcDbLine
 10
1030.944728657917
 20
412.6980938152605
 30
0.0
 11
1033.944728657915
 21
412.6980938152605
 31
0.0
  0
LINE
  5
CFB
330
1F
100
AcDbEntity
  8
0
100
AcDbLine
 10
1099.944728657917
 20
412.6980938152605
 30
0.0
 11
1099.944728657917
 21
414.1980938152602
 31
0.0
  0
LINE
  5
CFC
330
1F
100
AcDbEntity
  8
0
100
AcDbLine
 10
1099.944728657917
 20
414.1980938152602
 30
0.0
 11
1034.944728657917
 21
414.1980938152602
 31
0.0
  0
CIRCLE
  5
CFD
330
1F
100
AcDbEntity
  8
0
100
AcDbCircle
 10
1067.444728657917
 20
411.19809381526
 30
0.0
 40
1.5
  0
LINE
  5
CFE
330
1F
100
AcDbEntity
  8
7A
100
AcDbLine
 10
1062.944728657917
 20
411.19809381526
 30
0.0
 11
1071.944728657917
 21
411.19809381526
 31
0.0
1001
GENIUS_GENOBJ-N-CEN_13
1002
{
1000
OWNER
1000
GEN
1002
}
1001
GENIUS_GENODEF_13
1002
{
1000
HIER
1070
     0
1002
}
1002
{
1000
MANEDIT
1070
     0
1002
}
1002
{
1000
NOSEL
1070
     0
1002
}
1002
{
1000
BEHIND
1070
     0
1002
}
1002
{
1000
OTHER
1070
     0
1002
}
1002
{
1000
REACTOR
1002
}
  0
LINE
  5
CFF
330
1F
100
AcDbEntity
  8
0
100
AcDbLine
 10
1095.944728657917
 20
416.6980938152605
 30
0.0
 11
1038.944728657917
 21
416.6980938152605
 31
0.0
  0
LINE
  5
D00
330
1F
100
AcDbEntity
  8
0
100
AcDbLine
 10
1038.944728657917
 20
416.6980938152605
 30
0.0
 11
1038.944728657917
 21
414.1980938152602
 31
0.0
  0
LINE
  5
D01
330
1F
100
AcDbEntity
  8
0
100
AcDbLine
 10
1038.944728657917
 20
412.6980938152605
 30
0.0
 11
1038.944728657917
 21
410.1980938152602
 31
0.0
  0
LINE
  5
D02
330
1F
100
AcDbEntity
  8
0
100
AcDbLine
 10
1095.944728657917
 20
416.6980938152605
 30
0.0
 11
1095.944728657917
 21
414.1980938152602
 31
0.0
  0
LINE
  5
D03
330
1F
100
AcDbEntity
  8
0
100
AcDbLine
 10
1095.944728657917
 20
412.6980938152605
 30
0.0
 11
1095.944728657917
 21
410.1980938152602
 31
0.0
  0
LINE
  5
D04
330
1F
100
AcDbEntity
  8
0
100
AcDbLine
 10
1087.444728657917
 20
410.1980938152602
 30
0.0
 11
1095.944728657917
 21
410.1980938152602
 31
0.0
  0
LINE
  5
D05
330
1F
100
AcDbEntity
  8
0
100
AcDbLine
 10
1033.944728657915
 20
414.1980938152602
 30
0.0
 11
1033.944728657915
 21
412.6980938152605
 31
0.0
  0
LINE
  5
D06
330
1F
100
AcDbEntity
  8
0
100
AcDbLine
 10
1030.944728657917
 20
414.1980938152602
 30
0.0
 11
1032.944728657917
 21
415.19809381526
 31
0.0
  0
LINE
  5
D07
330
1F
100
AcDbEntity
  8
0
100
AcDbLine
 10
1032.944728657917
 20
415.19809381526
 30
0.0
 11
1038.944728657917
 21
416.6980938152605
 31
0.0
  0
LINE
  5
D08
330
1F
100
AcDbEntity
  8
0
100
AcDbLine
 10
1032.944728657917
 20
411.6980938152602
 30
0.0
 11
1038.944728657917
 21
410.1980938152602
 31
0.0
  0
LINE
  5
D09
330
1F
100
AcDbEntity
  8
0
100
AcDbLine
 10
1030.944728657917
 20
412.6980938152605
 30
0.0
 11
1032.944728657917
 21
411.6980938152602
 31
0.0
  0
LINE
  5
D0A
330
1F
100
AcDbEntity
  8
0
100
AcDbLine
 10
1033.944728657915
 20
414.1980938152602
 30
0.0
 11
1030.944728657917
 21
414.1980938152602
 31
0.0
  0
LINE
  5
D0B
330
1F
100
AcDbEntity
  8
0
100
AcDbLine
 10
1034.944728657917
 20
412.6980938152605
 30
0.0
 11
1045.444728657917
 21
412.6980938152605
 31
0.0
  0
LINE
  5
D0C
330
1F
100
AcDbEntity
  8
0
100
AcDbLine
 10
1103.944728657917
 20
412.6980938152605
 30
0.0
 11
1100.944728657917
 21
412.6980938152605
 31
0.0
  0
LINE
  5
D0D
330
1F
100
AcDbEntity
  8
0
100
AcDbLine
 10
1100.944728657917
 20
414.1980938152602
 30
0.0
 11
1103.944728657917
 21
414.1980938152602
 31
0.0
  0
LINE
  5
D0E
330
1F
100
AcDbEntity
  8
0
100
AcDbLine
 10
1103.944728657917
 20
412.6980938152605
 30
0.0
 11
1101.944728657917
 21
411.6980938152602
 31
0.0
  0
LINE
  5
D0F
330
1F
100
AcDbEntity
  8
0
100
AcDbLine
 10
1103.944728657917
 20
414.1980938152602
 30
0.0
 11
1101.944728657917
 21
415.19809381526
 31
0.0
  0
LINE
  5
D10
330
1F
100
AcDbEntity
  8
0
100
AcDbLine
 10
1100.944728657917
 20
414.1980938152602
 30
0.0
 11
1100.944728657917
 21
412.6980938152605
 31
0.0
  0
LINE
  5
D11
330
1F
100
AcDbEntity
  8
0
100
AcDbLine
 10
1101.944728657917
 20
415.19809381526
 30
0.0
 11
1095.944728657917
 21
416.6980938152605
 31
0.0
  0
LINE
  5
D12
330
1F
100
AcDbEntity
  8
0
100
AcDbLine
 10
1101.944728657917
 20
411.6980938152602
 30
0.0
 11
1095.944728657917
 21
410.1980938152602
 31
0.0
  0
HATCH
  5
D13
330
1F
100
AcDbEntity
  8
8
100
AcDbHatch
 10
0.0
 20
0.0
 30
0.0
210
0.0
220
0.0
230
1.0
  2
NET
 70
     0
 71
     0
 91
        2
 92
        7
 72
     0
 73
     1
 93
       12
 10
1030.944728657917
 20
412.6980938152605
 10
1032.944728657917
 20
411.6980938152602
 10
1038.944728657917
 20
410.1980938152602
 10
1038.944728657917
 20
412.6980938152605
 10
1034.944728657917
 20
412.6980938152605
 10
1034.944728657917
 20
414.1980938152602
 10
1038.944728657917
 20
414.1980938152602
 10
1038.944728657917
 20
416.6980938152605
 10
1032.944728657917
 20
415.19809381526
 10
1030.944728657917
 20
414.1980938152602
 10
1033.944728657915
 20
414.1980938152602
 10
1033.944728657915
 20
412.6980938152605
 97
        0
 92
        7
 72
     0
 73
     1
 93
       12
 10
1099.944728657917
 20
412.6980938152605
 10
1095.944728657917
 20
412.6980938152605
 10
1095.944728657917
 20
410.1980938152602
 10
1101.944728657917
 20
411.6980938152602
 10
1103.944728657917
 20
412.6980938152605
 10
1100.944728657917
 20
412.6980938152605
 10
1100.944728657917
 20
414.1980938152602
 10
1103.944728657917
 20
414.1980938152602
 10
1101.944728657917
 20
415.19809381526
 10
1095.944728657917
 20
416.6980938152605
 10
1095.944728657917
 20
414.1980938152602
 10
1099.944728657917
 20
414.1980938152602
 97
        0
 75
     0
 76
     1
 52
135.0
 41
0.5
 77
     0
 78
     2
 53
135.0
 43
949.3811216630392
 44
211.8937047708211
 45
-1.122532015133643
 46
-1.122532015133643
 79
     0
 53
225.0
 43
949.3811216630392
 44
211.8937047708211
 45
1.122532015133643
 46
-1.122532015133643
 79
     0
 47
0.1492324330864038
 98
        2
 10
1037.47711780134
 20
411.6637370711647
 10
1098.398125683869
 20
411.5145036259383
  0
LINE
  5
D14
330
1F
100
AcDbEntity
  8
0
100
AcDbLine
 10
1039.944728657917
 20
400.6980938152604
 30
0.0
 11
1039.944728657917
 21
344.6980938152607
 31
0.0
  0
LINE
  5
D15
330
1F
100
AcDbEntity
  8
0
100
AcDbLine
 10
1044.944728657917
 20
339.6980938152607
 30
0.0
 11
1089.944728657917
 21
339.6980938152607
 31
0.0
  0
LINE
  5
D16
330
1F
100
AcDbEntity
  8
0
100
AcDbLine
 10
1094.944728657917
 20
344.6980938152607
 30
0.0
 11
1094.944728657917
 21
400.6980938152604
 31
0.0
  0
ARC
  5
D17
330
1F
100
AcDbEntity
  8
0
100
AcDbCircle
 10
1044.944728657917
 20
344.6980938152607
 30
0.0
 40
5.0
100
AcDbArc
 50
180.0
 51
270.0
1001
GENIUS_GENOBJ-N-FIL_13
1002
{
1000
OWNER
1000
GEN
1002
}
1001
GENIUS_GENODEF_13
1002
{
1000
HIER
1070
     0
1002
}
1002
{
1000
MANEDIT
1070
     0
1002
}
1002
{
1000
NOSEL
1070
     0
1002
}
1002
{
1000
BEHIND
1070
     0
1002
}
1002
{
1000
OTHER
1070
     0
1002
}
1002
{
1000
REACTOR
1002
}
  0
ARC
  5
D18
330
1F
100
AcDbEntity
  8
0
100
AcDbCircle
 10
1089.944728657917
 20
344.6980938152607
 30
0.0
 40
5.0
100
AcDbArc
 50
270.0
 51
0.0
1001
GENIUS_GENOBJ-N-FIL_13
1002
{
1000
OWNER
1000
GEN
1002
}
1001
GENIUS_GENODEF_13
1002
{
1000
HIER
1070
     0
1002
}
1002
{
1000
MANEDIT
1070
     0
1002
}
1002
{
1000
NOSEL
1070
     0
1002
}
1002
{
1000
BEHIND
1070
     0
1002
}
1002
{
1000
OTHER
1070
     0
1002
}
1002
{
1000
REACTOR
1002
}
  0
ARC
  5
D19
330
1F
100
AcDbEntity
  8
0
100
AcDbCircle
 10
1044.944728657917
 20
344.6980938152607
 30
0.0
 40
6.0
100
AcDbArc
 50
180.0
 51
270.0
1001
GENIUS_GENOBJ-N-FIL_13
1002
{
1000
OWNER
1000
GEN
1002
}
1001
GENIUS_GENODEF_13
1002
{
1000
HIER
1070
     0
1002
}
1002
{
1000
MANEDIT
1070
     0
1002
}
1002
{
1000
NOSEL
1070
     0
1002
}
1002
{
1000
BEHIND
1070
     0
1002
}
1002
{
1000
OTHER
1070
     0
1002
}
1002
{
1000
REACTOR
1002
}
  0
ARC
  5
D1A
330
1F
100
AcDbEntity
  8
0
100
AcDbCircle
 10
1089.944728657917
 20
344.6980938152607
 30
0.0
 40
6.0
100
AcDbArc
 50
270.0
 51
0.0
1001
GENIUS_GENODEF_13
1002
{
1000
HIER
1070
     0
1002
}
1002
{
1000
MANEDIT
1070
     0
1002
}
1002
{
1000
NOSEL
1070
     0
1002
}
1002
{
1000
BEHIND
1070
     0
1002
}
1002
{
1000
OTHER
1070
     0
1002
}
1002
{
1000
REACTOR
1002
}
1001
GENIUS_GENOBJ-N-FIL_13
1002
{
1000
OWNER
1000
GEN
1002
}
  0
ARC
  5
D1B
330
1F
100
AcDbEntity
  8
0
100
AcDbCircle
 10
1045.444728657917
 20
410.6980938152601
 30
0.0
 40
2.0
100
AcDbArc
 50
0.0
 51
90.0
1001
GENIUS_GENODEF_13
1002
{
1000
HIER
1070
     0
1002
}
1002
{
1000
MANEDIT
1070
     0
1002
}
1002
{
1000
NOSEL
1070
     0
1002
}
1002
{
1000
BEHIND
1070
     0
1002
}
1002
{
1000
OTHER
1070
     0
1002
}
1002
{
1000
REACTOR
1002
}
1001
GENIUS_GENOBJ-N-FIL_13
1002
{
1000
OWNER
1000
GEN
1002
}
  0
LINE
  5
D1C
330
1F
100
AcDbEntity
  8
0
100
AcDbLine
 10
1099.944728657917
 20
412.6980938152605
 30
0.0
 11
1089.444728657919
 21
412.6980938152605
 31
0.0
  0
ARC
  5
D1D
330
1F
100
AcDbEntity
  8
0
100
AcDbCircle
 10
1089.444728657919
 20
410.6980938152601
 30
0.0
 40
2.0
100
AcDbArc
 50
90.0
 51
180.0
1001
GENIUS_GENODEF_13
1002
{
1000
HIER
1070
     0
1002
}
1002
{
1000
MANEDIT
1070
     0
1002
}
1002
{
1000
NOSEL
1070
     0
1002
}
1002
{
1000
BEHIND
1070
     0
1002
}
1002
{
1000
OTHER
1070
     0
1002
}
1002
{
1000
REACTOR
1002
}
1001
GENIUS_GENOBJ-N-FIL_13
1002
{
1000
OWNER
1000
GEN
1002
}
  0
ARC
  5
D1E
330
1F
100
AcDbEntity
  8
0
100
AcDbCircle
 10
1045.444728657917
 20
410.6980938152601
 30
0.0
 40
3.5
100
AcDbArc
 50
0.0
 51
90.0
1001
GENIUS_GENODEF_13
1002
{
1000
HIER
1070
     0
1002
}
1002
{
1000
MANEDIT
1070
     0
1002
}
1002
{
1000
NOSEL
1070
     0
1002
}
1002
{
1000
BEHIND
1070
     0
1002
}
1002
{
1000
OTHER
1070
     0
1002
}
1002
{
1000
REACTOR
1002
}
1001
GENIUS_GENOBJ-N-FIL_13
1002
{
1000
OWNER
1000
GEN
1002
}
  0
ARC
  5
D1F
330
1F
100
AcDbEntity
  8
0
100
AcDbCircle
 10
1089.444728657919
 20
410.6980938152601
 30
0.0
 40
3.5
100
AcDbArc
 50
90.0
 51
180.0
1001
GENIUS_GENODEF_13
1002
{
1000
HIER
1070
     0
1002
}
1002
{
1000
MANEDIT
1070
     0
1002
}
1002
{
1000
NOSEL
1070
     0
1002
}
1002
{
1000
BEHIND
1070
     0
1002
}
1002
{
1000
OTHER
1070
     0
1002
}
1002
{
1000
REACTOR
1002
}
1001
GENIUS_GENOBJ-N-FIL_13
1002
{
1000
OWNER
1000
GEN
1002
}
  0
HATCH
  5
D20
330
1F
100
AcDbEntity
  8
8
100
AcDbHatch
 10
0.0
 20
0.0
 30
0.0
210
0.0
220
0.0
230
1.0
  2
_U
 70
     0
 71
     0
 91
        1
 92
        1
 93
        8
 72
     1
 10
1087.444728657917
 20
353.6980938152606
 11
1087.444728657917
 21
410.6980938152601
 72
     2
 10
1089.444728657919
 20
410.6980938152601
 40
2.0
 50
180.0
 51
270.0
 73
     0
 72
     1
 10
1089.444728657919
 20
412.6980938152605
 11
1099.944728657917
 21
412.6980938152605
 72
     1
 10
1099.944728657917
 20
412.6980938152605
 11
1099.944728657917
 21
414.1980938152604
 72
     1
 10
1099.944728657917
 20
414.1980938152602
 11
1089.444728657919
 21
414.1980938152602
 72
     2
 10
1089.444728657919
 20
410.6980938152601
 40
3.5
 50
90.0
 51
180.0
 73
     1
 72
     1
 10
1085.944728657917
 20
410.6980938152601
 11
1085.944728657917
 21
353.6980938152606
 72
     1
 10
1085.944728657917
 20
353.6980938152606
 11
1087.444728657917
 21
353.6980938152606
 97
        0
 75
     0
 76
     0
 52
45.0
 41
5.0
 77
     0
 78
     1
 53
45.0
 43
949.3811216630392
 44
210.983734477719
 45
-3.535533905932736
 46
3.535533905932736
 79
     0
 98
        1
 10
949.3811216630392
 20
210.983734477719
1001
GENIUS_GENODEF_13
1002
{
1000
HIER
1070
     0
1002
}
1002
{
1000
MANEDIT
1070
     0
1002
}
1002
{
1000
NOSEL
1070
     0
1002
}
1002
{
1000
BEHIND
1070
     0
1002
}
1002
{
1000
OTHER
1070
     0
1002
}
1002
{
1000
REACTOR
1002
}
1001
GENIUS_GENOBJ-N-HTC_13
1002
{
1000
OWNER
1000
GEN
1002
}
1001
GENIUS_GENHATCH_13
1002
{
1000
DATA
1040
45.0
1042
5.0
1000
_U
1070
     0
1011
1086.674407587006
1021
393.6652943923978
1031
0.0
1002
}
1002
{
1000
UCS
1010
0.0
1020
0.0
1030
0.0
1010
1.0
1020
0.0
1030
0.0
1010
0.0
1020
1.0
1030
0.0
1002
}
  0
HATCH
  5
D21
330
1F
100
AcDbEntity
  8
8
100
AcDbHatch
 10
0.0
 20
0.0
 30
0.0
210
0.0
220
0.0
230
1.0
  2
_U
 70
     0
 71
     0
 91
        1
 92
        1
 93
        8
 72
     1
 10
1045.444728657917
 20
414.1980938152602
 11
1034.944728657917
 21
414.1980938152602
 72
     1
 10
1034.944728657917
 20
414.1980938152602
 11
1034.944728657917
 21
412.6980938152602
 72
     1
 10
1034.944728657917
 20
412.6980938152605
 11
1045.444728657917
 21
412.6980938152605
 72
     2
 10
1045.444728657917
 20
410.6980938152601
 40
2.0
 50
270.0
 51
360.0
 73
     0
 72
     1
 10
1047.444728657917
 20
410.6980938152601
 11
1047.444728657917
 21
353.6980938152606
 72
     1
 10
1047.444728657917
 20
353.6980938152606
 11
1048.944728657917
 21
353.6980938152606
 72
     1
 10
1048.944728657917
 20
353.6980938152606
 11
1048.944728657917
 21
410.6980938152601
 72
     2
 10
1045.444728657917
 20
410.6980938152601
 40
3.5
 50
0.0
 51
90.0
 73
     1
 97
        0
 75
     0
 76
     0
 52
45.0
 41
5.0
 77
     0
 78
     1
 53
45.0
 43
949.3811216630392
 44
210.983734477719
 45
-3.535533905932736
 46
3.535533905932736
 79
     0
 98
        1
 10
949.3811216630392
 20
210.983734477719
1001
GENIUS_GENODEF_13
1002
{
1000
HIER
1070
     0
1002
}
1002
{
1000
MANEDIT
1070
     0
1002
}
1002
{
1000
NOSEL
1070
     0
1002
}
1002
{
1000
BEHIND
1070
     0
1002
}
1002
{
1000
OTHER
1070
     0
1002
}
1002
{
1000
REACTOR
1002
}
1001
GENIUS_GENOBJ-N-HTC_13
1002
{
1000
OWNER
1000
GEN
1002
}
1001
GENIUS_GENHATCH_13
1002
{
1000
DATA
1040
45.0
1042
5.0
1000
_U
1070
     0
1011
1048.307460688017
1021
391.445755073567
1031
0.0
1002
}
1002
{
1000
UCS
1010
0.0
1020
0.0
1030
0.0
1010
1.0
1020
0.0
1030
0.0
1010
0.0
1020
1.0
1030
0.0
1002
}
  0
LINE
  5
D22
330
1F
100
AcDbEntity
  8
0
100
AcDbLine
 10
1038.944728657917
 20
403.6980938152605
 30
0.0
 11
1039.944728657917
 21
403.6980938152605
 31
0.0
  0
LINE
  5
D23
330
1F
100
AcDbEntity
  8
0
100
AcDbLine
 10
1038.944728657917
 20
412.6980938152605
 30
0.0
 11
1045.444728657917
 21
412.6980938152605
 31
0.0
  0
LINE
  5
D24
330
1F
100
AcDbEntity
  8
0
100
AcDbLine
 10
1038.944728657917
 20
403.6980938152605
 30
0.0
 11
1040.705433213733
 21
403.6980938152605
 31
0.0
  0
LINE
  5
D25
330
1F
100
AcDbEntity
  8
0
100
AcDbLine
 10
1047.444728657917
 20
410.6980938152601
 30
0.0
 11
1047.444728657917
 21
392.6980938152605
 31
0.0
  0
LINE
  5
D26
330
1F
100
AcDbEntity
  8
0
100
AcDbLine
 10
1040.444728657917
 20
401.2180938152601
 30
0.0
 11
1040.444728657917
 21
399.2180938152605
 31
0.0
  0
LINE
  5
D27
330
1F
100
AcDbEntity
  8
0
100
AcDbLine
 10
1047.444728657917
 20
392.6980938152605
 30
0.0
 11
1044.209052413033
 21
392.6980938152605
 31
0.0
  0
LINE
  5
D28
330
1F
100
AcDbEntity
  8
0
100
AcDbLine
 10
1038.944728657917
 20
403.6980938152605
 30
0.0
 11
1038.944728657917
 21
412.6980938152605
 31
0.0
  0
LINE
  5
D29
330
1F
100
AcDbEntity
  8
0
100
AcDbLine
 10
1040.444728657917
 20
401.2180938152601
 30
0.0
 11
1041.169025141015
 21
403.0107905185523
 31
0.0
  0
ARC
  5
D2A
330
1F
100
AcDbEntity
  8
0
100
AcDbCircle
 10
1040.705433213733
 20
403.1980938152599
 30
0.0
 40
0.5
100
AcDbArc
 50
337.9999999999847
 51
90.0
  0
LINE
  5
D2B
330
1F
100
AcDbEntity
  8
0
100
AcDbLine
 10
1040.444728657917
 20
399.2180938152605
 30
0.0
 11
1044.209052413033
 21
392.6980938152605
 31
0.0
  0
LINE
  5
D2C
330
1F
100
AcDbEntity
  8
0
100
AcDbLine
 10
1045.444728657917
 20
412.6980938152605
 30
0.0
 11
1047.444728657917
 21
410.6980938152601
 31
0.0
  0
LINE
  5
D2D
330
1F
100
AcDbEntity
  8
3
100
AcDbLine
 10
1038.944728657917
 20
410.1980938152602
 30
0.0
 11
1047.444728657917
 21
410.1980938152602
 31
0.0
  0
LINE
  5
D2E
330
1F
100
AcDbEntity
  8
3
100
AcDbLine
 10
1040.705433213733
 20
403.6980938152605
 30
0.0
 11
1047.444728657917
 21
403.6980938152605
 31
0.0
  0
LINE
  5
D2F
330
1F
100
AcDbEntity
  8
0
100
AcDbLine
 10
1039.944728657917
 20
400.6980938152604
 30
0.0
 11
1040.417701630888
 21
403.5359316530979
 31
0.0
  0
LINE
  5
D30
330
1F
100
AcDbEntity
  8
0
100
AcDbLine
 10
1038.944728657917
 20
400.6980938152604
 30
0.0
 11
1039.444728657917
 21
403.6980938152605
 31
0.0
  0
LINE
  5
D31
330
1F
100
AcDbEntity
  8
0
100
AcDbLine
 10
1039.444728657917
 20
403.6980938152605
 30
0.0
 11
1040.417701630888
 21
403.5359316530979
 31
0.0
  0
LINE
  5
D32
330
1F
100
AcDbEntity
  8
0
100
AcDbLine
 10
1040.417701630888
 20
403.5359316530979
 30
0.0
 11
1041.074032719058
 21
403.5359316530979
 31
0.0
  0
LINE
  5
D33
330
1F
100
AcDbEntity
  8
0
100
AcDbLine
 10
1094.944728657917
 20
400.6980938152604
 30
0.0
 11
1094.471755684944
 21
403.5359316530979
 31
0.0
  0
LINE
  5
D34
330
1F
100
AcDbEntity
  8
0
100
AcDbLine
 10
1095.944728657917
 20
400.6980938152604
 30
0.0
 11
1095.444728657917
 21
403.6980938152605
 31
0.0
  0
LINE
  5
D35
330
1F
100
AcDbEntity
  8
0
100
AcDbLine
 10
1095.444728657917
 20
403.6980938152605
 30
0.0
 11
1094.471755684944
 21
403.5359316530979
 31
0.0
  0
LINE
  5
D36
330
1F
100
AcDbEntity
  8
0
100
AcDbLine
 10
1094.471755684944
 20
403.5359316530979
 30
0.0
 11
1087.444728657917
 21
403.5359316530979
 31
0.0
  0
ARC
  5
D37
330
1F
100
AcDbEntity
  8
0
100
AcDbCircle
 10
1025.444724511157
 20
440.722665244051
 30
0.0
 40
2.0
100
AcDbArc
 50
0.0
 51
90.00000000026055
  0
LINE
  5
D38
330
1F
100
AcDbEntity
  8
0
  6
ByBlock
100
AcDbLine
 10
1007.444724511051
 20
443.7226652440014
 30
0.0
 11
1007.444724510937
 21
482.7226652440014
 31
0.0
  0
ARC
  5
D39
330
1F
100
AcDbEntity
  8
0
  6
ByBlock
100
AcDbCircle
 10
1008.444724511049
 20
443.7226652440039
 30
0.0
 40
1.0
100
AcDbArc
 50
180.0000000002605
 51
270.0000000002606
  0
LINE
  5
D3A
330
1F
100
AcDbEntity
  8
0
  6
ByBlock
100
AcDbLine
 10
1007.444724510937
 20
482.7226652440014
 30
0.0
 11
1006.444724510937
 21
482.7226652439986
 31
0.0
  0
LINE
  5
D3B
330
1F
100
AcDbEntity
  8
0
  6
ByBlock
100
AcDbLine
 10
1006.444724510937
 20
482.7226652439986
 30
0.0
 11
1006.44472451105
 21
443.7226652439988
 31
0.0
  0
ARC
  5
D3C
330
1F
100
AcDbEntity
  8
0
  6
ByBlock
100
AcDbCircle
 10
1008.444724511049
 20
443.7226652440039
 30
0.0
 40
2.0
100
AcDbArc
 50
180.0000000002605
 51
270.0000000002606
  0
LINE
  5
D3D
330
1F
100
AcDbEntity
  8
0
  6
ByBlock
100
AcDbLine
 10
1008.444724511057
 20
441.722665244004
 30
0.0
 11
1025.444724511058
 21
441.7226652440546
 31
0.0
  0
ARC
  5
D3E
330
1F
100
AcDbEntity
  8
0
  6
ByBlock
100
AcDbCircle
 10
1025.444724511059
 20
440.7226652440544
 30
0.0
 40
1.0
100
AcDbArc
 50
0.000000000260551
 51
90.00000000026055
  0
INSERT
  5
D95
330
1F
100
AcDbEntity
  8
0
100
AcDbBlockReference
  2
befestigung
 10
2734.263721080122
 20
-984.3351727589652
 30
0.0
 41
-1.0
  0
INSERT
  5
D96
330
1F
100
AcDbEntity
  8
0
100
AcDbBlockReference
  2
befestigung
 10
-1992.616176299469
 20
-984.3351727589668
 30
0.0
  0
ENDSEC
  0
SECTION
  2
OBJECTS
  0
DICTIONARY
  5
C
330
0
100
AcDbDictionary
281
     1
  3
ACAD_2007HEADERVARS_RT
350
DAF
  3
ACAD_COLOR
350
BE
  3
ACAD_GROUP
350
D
  3
ACAD_LAYOUT
350
1A
  3
ACAD_MATERIAL
350
BD
  3
ACAD_MLEADERSTYLE
350
2C4
  3
ACAD_MLINESTYLE
350
17
  3
ACAD_PLOTSETTINGS
350
19
  3
ACAD_PLOTSTYLENAME
350
E
  3
ACAD_SCALELIST
350
2A2
  3
ACAD_TABLESTYLE
350
11A
  3
ACAD_VISUALSTYLE
350
26E
  3
ACDB_RECOMPOSE_DATA
350
2E6
  3
AcDbVariableDictionary
350
94
  3
AcmDictionary
350
5B
  3
AcmSystemVariableManager
350
DBD
  3
AEC_PROPERTY_SET_DEFS
350
AEE
  3
AMG
350
41
  3
AMGSNAPSETTINGS
350
364
  3
DWGPROPS
350
DAE
  0
DICTIONARY
  5
5EC
330
2
100
AcDbDictionary
280
     1
281
     1
  3
ACAD_LAYERSTATES
360
5ED
  0
DICTIONARY
  5
D97
330
10
100
AcDbDictionary
280
     1
281
     1
  3
ADSK_XREC_LAYER_RECONCILED
360
D98
  0
DICTIONARY
  5
3EB
330
3EA
100
AcDbDictionary
280
     1
281
     1
  3
ADSK_XREC_LAYER_RECONCILED
360
D99
  0
DICTIONARY
  5
3ED
330
3EC
100
AcDbDictionary
280
     1
281
     1
  3
ADSK_XREC_LAYER_RECONCILED
360
D9A
  0
DICTIONARY
  5
3F0
330
3EF
100
AcDbDictionary
280
     1
281
     1
  3
ADSK_XREC_LAYER_RECONCILED
360
D9B
  0
DICTIONARY
  5
D9C
330
5D5
100
AcDbDictionary
280
     1
281
     1
  3
ADSK_XREC_LAYER_RECONCILED
360
D9D
  0
DICTIONARY
  5
D9E
330
5D6
100
AcDbDictionary
280
     1
281
     1
  3
ADSK_XREC_LAYER_RECONCILED
360
D9F
  0
DICTIONARY
  5
DA0
330
5D7
100
AcDbDictionary
280
     1
281
     1
  3
ADSK_XREC_LAYER_RECONCILED
360
DA1
  0
DICTIONARY
  5
DA2
330
5D8
100
AcDbDictionary
280
     1
281
     1
  3
ADSK_XREC_LAYER_RECONCILED
360
DA3
  0
DICTIONARY
  5
DA4
330
5D9
100
AcDbDictionary
280
     1
281
     1
  3
ADSK_XREC_LAYER_RECONCILED
360
DA5
  0
DICTIONARY
  5
822
330
821
100
AcDbDictionary
280
     1
281
     1
  3
ADSK_XREC_LAYER_RECONCILED
360
DA6
  0
DICTIONARY
  5
824
330
823
100
AcDbDictionary
280
     1
281
     1
  3
ADSK_XREC_LAYER_RECONCILED
360
DA7
  0
DICTIONARY
  5
D87
330
D86
100
AcDbDictionary
280
     1
281
     1
  3
ADSK_XREC_LAYER_RECONCILED
360
DA8
  0
DICTIONARY
  5
D89
330
D88
100
AcDbDictionary
280
     1
281
     1
  3
ADSK_XREC_LAYER_RECONCILED
360
DA9
  0
DICTIONARY
  5
D8B
330
D8A
100
AcDbDictionary
280
     1
281
     1
  3
ADSK_XREC_LAYER_RECONCILED
360
DAA
  0
DICTIONARY
  5
D8D
330
D8C
100
AcDbDictionary
280
     1
281
     1
  3
ADSK_XREC_LAYER_RECONCILED
360
DAB
  0
DICTIONARY
  5
8F
330
1F
100
AcDbDictionary
280
     1
281
     1
  0
DICTIONARY
  5
DAF
102
{ACAD_REACTORS
330
C
102
}
330
C
100
AcDbDictionary
281
     1
  3
DIMARCSYM
350
DB0
  3
DIMLTEX1
350
DB2
  3
DIMLTEX2
350
DB3
  3
DIMLTYPE
350
DB1
  0
DICTIONARY
  5
BE
102
{ACAD_REACTORS
330
C
102
}
330
C
100
AcDbDictionary
281
     1
  0
DICTIONARY
  5
D
102
{ACAD_REACTORS
330
C
102
}
330
C
100
AcDbDictionary
281
     1
  0
DICTIONARY
  5
1A
102
{ACAD_REACTORS
330
C
102
}
330
C
100
AcDbDictionary
281
     1
  3
Layout1
350
1E
  3
Layout2
350
26
  3
Model
350
22
  0
DICTIONARY
  5
BD
102
{ACAD_REACTORS
330
C
102
}
330
C
100
AcDbDictionary
281
     1
  3
ByBlock
350
26C
  3
ByLayer
350
26B
  3
Global
350
26D
  0
DICTIONARY
  5
2C4
102
{ACAD_REACTORS
330
C
102
}
330
C
100
AcDbDictionary
281
     1
  3
Standard
350
2C5
  0
DICTIONARY
  5
17
102
{ACAD_REACTORS
330
C
102
}
330
C
100
AcDbDictionary
281
     1
  3
Standard
350
18
  0
DICTIONARY
  5
19
102
{ACAD_REACTORS
330
C
102
}
330
C
100
AcDbDictionary
281
     1
  0
ACDBDICTIONARYWDFLT
  5
E
102
{ACAD_REACTORS
330
C
102
}
330
C
100
AcDbDictionary
281
     1
  3
Normal
350
F
100
AcDbDictionaryWithDefault
340
F
  0
DICTIONARY
  5
2A2
102
{ACAD_REACTORS
330
C
102
}
330
C
100
AcDbDictionary
281
     1
  3
A0
350
2A3
  3
A1
350
2A4
  3
A2
350
2A5
  3
A3
350
2A6
  3
A4
350
2A7
  3
A5
350
2A8
  3
A6
350
2A9
  3
A7
350
2AA
  3
A8
350
2AB
  3
A9
350
2AC
  3
B0
350
2AD
  3
B1
350
2AE
  3
B2
350
2AF
  3
B3
350
2B0
  3
B4
350
2B1
  3
B5
350
2B2
  3
B6
350
2B3
  3
B7
350
2B4
  3
B8
350
2B5
  3
B9
350
2B6
  3
C0
350
2B7
  3
C1
350
2B8
  3
C2
350
2B9
  3
C3
350
2BA
  3
C4
350
2BB
  3
C5
350
2BC
  3
C6
350
2BD
  3
C7
350
2BE
  3
C8
350
2BF
  3
C9
350
2C0
  3
D0
350
2C1
  3
D1
350
2C2
  3
D2
350
2C3
  0
DICTIONARY
  5
11A
102
{ACAD_REACTORS
330
C
102
}
330
C
100
AcDbDictionary
281
     1
  3
Standard
350
11B
  0
DICTIONARY
  5
26E
102
{ACAD_REACTORS
330
C
102
}
330
C
100
AcDbDictionary
281
     1
  3
2dWireframe
350
274
  3
3D Hidden
350
276
  3
3dWireframe
350
275
  3
Basic
350
273
  3
Brighten
350
27A
  3
ColorChange
350
27E
  3
Conceptual
350
277
  3
Dim
350
279
  3
Facepattern
350
27D
  3
Flat
350
26F
  3
FlatWithEdges
350
270
  3
Gouraud
350
271
  3
GouraudWithEdges
350
272
  3
Linepattern
350
27C
  3
Realistic
350
278
  3
Thicken
350
27B
  0
XRECORD
  5
2E6
102
{ACAD_REACTORS
330
C
102
}
330
C
100
AcDbXrecord
280
     1
 90
        1
330
11B
  0
DICTIONARY
  5
94
102
{ACAD_REACTORS
330
C
102
}
330
C
100
AcDbDictionary
281
     1
  3
CANNOSCALE
350
2E9
  3
CMLEADERSTYLE
350
2E7
  3
CTABLESTYLE
350
138
  3
DIMASSOC
350
96
  3
INDEXCTL
350
95
  3
LAYEREVAL
350
346
  3
LAYERNOTIFY
350
347
  3
LIGHTINGUNITS
350
2EA
  3
MSLTSCALE
350
2E8
  3
SORTENTS
350
DAC
  0
DICTIONARY
  5
5B
102
{ACAD_REACTORS
330
C
102
}
330
C
100
AcDbDictionary
281
     1
  3
AcmBOM
350
36B
  3
AcmStdDictionary
350
61
  3
AMDTSECTSYM_ARROWCOLOR
350
123
  0
DICTIONARY
  5
AEE
102
{ACAD_REACTORS
330
C
102
}
330
C
100
AcDbDictionary
281
     1
  0
DICTIONARY
  5
41
102
{ACAD_REACTORS
330
C
102
}
330
C
100
AcDbDictionary
281
     1
  0
DICTIONARY
  5
364
102
{ACAD_REACTORS
330
C
102
}
330
C
100
AcDbDictionary
281
     1
  0
XRECORD
  5
DAE
102
{ACAD_REACTORS
330
C
102
}
330
C
100
AcDbXrecord
280
     1
  1
DWGPROPS COOKIE
  2

  3

  4

  6

  7

  8
nlazaar
  9

300
AmdtFileType=84
301
=
302
=
303
=
304
=
305
=
306
=
307
=
308
=
309
=
 40
0.2073687384259259
 41
2455098.440821597
 42
2455098.648189445
  1

 90
        1
  0
DICTIONARY
  5
5ED
102
{ACAD_REACTORS
330
5EC
102
}
330
5EC
100
AcDbDictionary
281
     1
  0
XRECORD
  5
D98
102
{ACAD_REACTORS
330
D97
102
}
330
D97
100
AcDbXrecord
280
     1
290
     1
  0
XRECORD
  5
D99
102
{ACAD_REACTORS
330
3EB
102
}
330
3EB
100
AcDbXrecord
280
     1
290
     1
  0
XRECORD
  5
D9A
102
{ACAD_REACTORS
330
3ED
102
}
330
3ED
100
AcDbXrecord
280
     1
290
     1
  0
XRECORD
  5
D9B
102
{ACAD_REACTORS
330
3F0
102
}
330
3F0
100
AcDbXrecord
280
     1
290
     1
  0
XRECORD
  5
D9D
102
{ACAD_REACTORS
330
D9C
102
}
330
D9C
100
AcDbXrecord
280
     1
290
     1
  0
XRECORD
  5
D9F
102
{ACAD_REACTORS
330
D9E
102
}
330
D9E
100
AcDbXrecord
280
     1
290
     1
  0
XRECORD
  5
DA1
102
{ACAD_REACTORS
330
DA0
102
}
330
DA0
100
AcDbXrecord
280
     1
290
     1
  0
XRECORD
  5
DA3
102
{ACAD_REACTORS
330
DA2
102
}
330
DA2
100
AcDbXrecord
280
     1
290
     1
  0
XRECORD
  5
DA5
102
{ACAD_REACTORS
330
DA4
102
}
330
DA4
100
AcDbXrecord
280
     1
290
     1
  0
XRECORD
  5
DA6
102
{ACAD_REACTORS
330
822
102
}
330
822
100
AcDbXrecord
280
     1
290
     1
  0
XRECORD
  5
DA7
102
{ACAD_REACTORS
330
824
102
}
330
824
100
AcDbXrecord
280
     1
290
     1
  0
XRECORD
  5
DA8
102
{ACAD_REACTORS
330
D87
102
}
330
D87
100
AcDbXrecord
280
     1
290
     1
  0
XRECORD
  5
DA9
102
{ACAD_REACTORS
330
D89
102
}
330
D89
100
AcDbXrecord
280
     1
290
     1
  0
XRECORD
  5
DAA
102
{ACAD_REACTORS
330
D8B
102
}
330
D8B
100
AcDbXrecord
280
     1
290
     1
  0
XRECORD
  5
DAB
102
{ACAD_REACTORS
330
D8D
102
}
330
D8D
100
AcDbXrecord
280
     1
290
     1
  0
XRECORD
  5
DB0
102
{ACAD_REACTORS
330
DAF
102
}
330
DAF
100
AcDbXrecord
280
     1
 70
     1
  0
XRECORD
  5
DB2
102
{ACAD_REACTORS
330
DAF
102
}
330
DAF
100
AcDbXrecord
280
     1
340
14
  0
XRECORD
  5
DB3
102
{ACAD_REACTORS
330
DAF
102
}
330
DAF
100
AcDbXrecord
280
     1
340
14
  0
XRECORD
  5
DB1
102
{ACAD_REACTORS
330
DAF
102
}
330
DAF
100
AcDbXrecord
280
     1
340
14
  0
LAYOUT
  5
1E
102
{ACAD_XDICTIONARY
360
DB4
102
}
102
{ACAD_REACTORS
330
1A
102
}
330
1A
100
AcDbPlotSettings
  1

  2

  4

  6

 40
0.0
 41
0.0
 42
0.0
 43
0.0
 44
0.0
 45
0.0
 46
0.0
 47
0.0
 48
0.0
 49
0.0
140
0.0
141
0.0
142
1.0
143
1.0
 70
   688
 72
     0
 73
     0
 74
     5
  7

 75
    16
147
1.0
148
0.0
149
0.0
100
AcDbLayout
  1
Layout1
 70
     1
 71
     1
 10
0.0
 20
0.0
 11
420.0
 21
297.0
 12
0.0
 22
0.0
 32
0.0
 14
1.000000000000000E+20
 24
1.000000000000000E+20
 34
1.000000000000000E+20
 15
-1.000000000000000E+20
 25
-1.000000000000000E+20
 35
-1.000000000000000E+20
146
0.0
 13
0.0
 23
0.0
 33
0.0
 16
1.0
 26
0.0
 36
0.0
 17
0.0
 27
1.0
 37
0.0
 76
     0
330
1B
  0
LAYOUT
  5
26
102
{ACAD_XDICTIONARY
360
DB8
102
}
102
{ACAD_REACTORS
330
1A
102
}
330
1A
100
AcDbPlotSettings
  1

  2

  4

  6

 40
0.0
 41
0.0
 42
0.0
 43
0.0
 44
0.0
 45
0.0
 46
0.0
 47
0.0
 48
0.0
 49
0.0
140
0.0
141
0.0
142
1.0
143
1.0
 70
   688
 72
     0
 73
     0
 74
     5
  7

 75
    16
147
1.0
148
0.0
149
0.0
100
AcDbLayout
  1
Layout2
 70
     1
 71
     2
 10
0.0
 20
0.0
 11
12.0
 21
9.0
 12
0.0
 22
0.0
 32
0.0
 14
0.0
 24
0.0
 34
0.0
 15
0.0
 25
0.0
 35
0.0
146
0.0
 13
0.0
 23
0.0
 33
0.0
 16
1.0
 26
0.0
 36
0.0
 17
0.0
 27
1.0
 37
0.0
 76
     0
330
23
  0
LAYOUT
  5
22
102
{ACAD_XDICTIONARY
360
DB6
102
}
102
{ACAD_REACTORS
330
1A
102
}
330
1A
100
AcDbPlotSettings
  1

  2

  4

  6

 40
0.0
 41
0.0
 42
0.0
 43
0.0
 44
0.0
 45
0.0
 46
0.0
 47
0.0
 48
0.0
 49
0.0
140
0.0
141
0.0
142
1.0
143
1.0
 70
  1712
 72
     0
 73
     0
 74
     0
  7

 75
     0
147
1.0
148
0.0
149
0.0
100
AcDbLayout
  1
Model
 70
     1
 71
     0
 10
0.0
 20
0.0
 11
12.0
 21
9.0
 12
0.0
 22
0.0
 32
0.0
 14
0.0
 24
0.0
 34
0.0
 15
0.0
 25
0.0
 35
0.0
146
0.0
 13
0.0
 23
0.0
 33
0.0
 16
1.0
 26
0.0
 36
0.0
 17
0.0
 27
1.0
 37
0.0
 76
     0
330
1F
331
269
  0
MATERIAL
  5
26C
102
{ACAD_XDICTIONARY
360
DC2
102
}
102
{ACAD_REACTORS
330
BD
102
}
330
BD
100
AcDbMaterial
  1
ByBlock
 73
     1
 78
     1
172
     1
176
     1
270
     1
274
     1
  0
MATERIAL
  5
26B
102
{ACAD_XDICTIONARY
360
DC0
102
}
102
{ACAD_REACTORS
330
BD
102
}
330
BD
100
AcDbMaterial
  1
ByLayer
 73
     1
 78
     1
172
     1
176
     1
270
     1
274
     1
  0
MATERIAL
  5
26D
102
{ACAD_XDICTIONARY
360
DC4
102
}
102
{ACAD_REACTORS
330
BD
102
}
330
BD
100
AcDbMaterial
  1
Global
 73
     1
 78
     1
172
     1
176
     1
270
     1
274
     1
  0
MLEADERSTYLE
  5
2C5
102
{ACAD_REACTORS
330
2C4
102
}
330
2C4
100
AcDbMLeaderStyle
170
     2
171
     1
172
     0
 90
        2
 40
0.0
 41
0.0
173
     1
 91
-1056964608
340
14
 92
       -2
290
     1
 42
2.0
291
     1
 43
0.36
  3
Standard
 44
4.0
300

342
11
174
     1
178
     6
175
     1
176
     0
 93
-1056964608
 45
4.0
292
     0
297
     0
 46
4.0
 94
-1056964608
 47
1.0
 49
1.0
140
1.0
293
     1
141
0.0
294
     1
177
     0
142
1.0
295
     0
296
     0
143
0.125
1001
ACAD_MLEADERVER
1070
     2
  0
MLINESTYLE
  5
18
102
{ACAD_REACTORS
330
17
102
}
330
17
100
AcDbMlineStyle
  2
STANDARD
 70
     0
  3

 62
   256
 51
90.0
 52
90.0
 71
     2
 49
0.5
 62
   256
  6
BYLAYER
 49
-0.5
 62
   256
  6
BYLAYER
  0
ACDBPLACEHOLDER
  5
F
102
{ACAD_REACTORS
330
E
102
}
330
E
  0
SCALE
  5
2A3
102
{ACAD_REACTORS
330
2A2
102
}
330
2A2
100
AcDbScale
 70
     0
300
1:1
140
1.0
141
1.0
290
     1
  0
SCALE
  5
2A4
102
{ACAD_REACTORS
330
2A2
102
}
330
2A2
100
AcDbScale
 70
     0
300
1:2
140
1.0
141
2.0
290
     0
  0
SCALE
  5
2A5
102
{ACAD_REACTORS
330
2A2
102
}
330
2A2
100
AcDbScale
 70
     0
300
1:4
140
1.0
141
4.0
290
     0
  0
SCALE
  5
2A6
102
{ACAD_REACTORS
330
2A2
102
}
330
2A2
100
AcDbScale
 70
     0
300
1:5
140
1.0
141
5.0
290
     0
  0
SCALE
  5
2A7
102
{ACAD_REACTORS
330
2A2
102
}
330
2A2
100
AcDbScale
 70
     0
300
1:8
140
1.0
141
8.0
290
     0
  0
SCALE
  5
2A8
102
{ACAD_REACTORS
330
2A2
102
}
330
2A2
100
AcDbScale
 70
     0
300
1:10
140
1.0
141
10.0
290
     0
  0
SCALE
  5
2A9
102
{ACAD_REACTORS
330
2A2
102
}
330
2A2
100
AcDbScale
 70
     0
300
1:16
140
1.0
141
16.0
290
     0
  0
SCALE
  5
2AA
102
{ACAD_REACTORS
330
2A2
102
}
330
2A2
100
AcDbScale
 70
     0
300
1:20
140
1.0
141
20.0
290
     0
  0
SCALE
  5
2AB
102
{ACAD_REACTORS
330
2A2
102
}
330
2A2
100
AcDbScale
 70
     0
300
1:30
140
1.0
141
30.0
290
     0
  0
SCALE
  5
2AC
102
{ACAD_REACTORS
330
2A2
102
}
330
2A2
100
AcDbScale
 70
     0
300
1:40
140
1.0
141
40.0
290
     0
  0
SCALE
  5
2AD
102
{ACAD_REACTORS
330
2A2
102
}
330
2A2
100
AcDbScale
 70
     0
300
1:50
140
1.0
141
50.0
290
     0
  0
SCALE
  5
2AE
102
{ACAD_REACTORS
330
2A2
102
}
330
2A2
100
AcDbScale
 70
     0
300
1:100
140
1.0
141
100.0
290
     0
  0
SCALE
  5
2AF
102
{ACAD_REACTORS
330
2A2
102
}
330
2A2
100
AcDbScale
 70
     0
300
2:1
140
2.0
141
1.0
290
     0
  0
SCALE
  5
2B0
102
{ACAD_REACTORS
330
2A2
102
}
330
2A2
100
AcDbScale
 70
     0
300
4:1
140
4.0
141
1.0
290
     0
  0
SCALE
  5
2B1
102
{ACAD_REACTORS
330
2A2
102
}
330
2A2
100
AcDbScale
 70
     0
300
8:1
140
8.0
141
1.0
290
     0
  0
SCALE
  5
2B2
102
{ACAD_REACTORS
330
2A2
102
}
330
2A2
100
AcDbScale
 70
     0
300
10:1
140
10.0
141
1.0
290
     0
  0
SCALE
  5
2B3
102
{ACAD_REACTORS
330
2A2
102
}
330
2A2
100
AcDbScale
 70
     0
300
100:1
140
100.0
141
1.0
290
     0
  0
SCALE
  5
2B4
102
{ACAD_REACTORS
330
2A2
102
}
330
2A2
100
AcDbScale
 70
     0
300
1/128" = 1'-0"
140
0.0078125
141
12.0
290
     0
  0
SCALE
  5
2B5
102
{ACAD_REACTORS
330
2A2
102
}
330
2A2
100
AcDbScale
 70
     0
300
1/64" = 1'-0"
140
0.015625
141
12.0
290
     0
  0
SCALE
  5
2B6
102
{ACAD_REACTORS
330
2A2
102
}
330
2A2
100
AcDbScale
 70
     0
300
1/32" = 1'-0"
140
0.03125
141
12.0
290
     0
  0
SCALE
  5
2B7
102
{ACAD_REACTORS
330
2A2
102
}
330
2A2
100
AcDbScale
 70
     0
300
1/16" = 1'-0"
140
0.0625
141
12.0
290
     0
  0
SCALE
  5
2B8
102
{ACAD_REACTORS
330
2A2
102
}
330
2A2
100
AcDbScale
 70
     0
300
3/32" = 1'-0"
140
0.09375
141
12.0
290
     0
  0
SCALE
  5
2B9
102
{ACAD_REACTORS
330
2A2
102
}
330
2A2
100
AcDbScale
 70
     0
300
1/8" = 1'-0"
140
0.125
141
12.0
290
     0
  0
SCALE
  5
2BA
102
{ACAD_REACTORS
330
2A2
102
}
330
2A2
100
AcDbScale
 70
     0
300
3/16" = 1'-0"
140
0.1875
141
12.0
290
     0
  0
SCALE
  5
2BB
102
{ACAD_REACTORS
330
2A2
102
}
330
2A2
100
AcDbScale
 70
     0
300
1/4" = 1'-0"
140
0.25
141
12.0
290
     0
  0
SCALE
  5
2BC
102
{ACAD_REACTORS
330
2A2
102
}
330
2A2
100
AcDbScale
 70
     0
300
3/8" = 1'-0"
140
0.375
141
12.0
290
     0
  0
SCALE
  5
2BD
102
{ACAD_REACTORS
330
2A2
102
}
330
2A2
100
AcDbScale
 70
     0
300
1/2" = 1'-0"
140
0.5
141
12.0
290
     0
  0
SCALE
  5
2BE
102
{ACAD_REACTORS
330
2A2
102
}
330
2A2
100
AcDbScale
 70
     0
300
3/4" = 1'-0"
140
0.75
141
12.0
290
     0
  0
SCALE
  5
2BF
102
{ACAD_REACTORS
330
2A2
102
}
330
2A2
100
AcDbScale
 70
     0
300
1" = 1'-0"
140
1.0
141
12.0
290
     0
  0
SCALE
  5
2C0
102
{ACAD_REACTORS
330
2A2
102
}
330
2A2
100
AcDbScale
 70
     0
300
1-1/2" = 1'-0"
140
1.5
141
12.0
290
     0
  0
SCALE
  5
2C1
102
{ACAD_REACTORS
330
2A2
102
}
330
2A2
100
AcDbScale
 70
     0
300
3" = 1'-0"
140
3.0
141
12.0
290
     0
  0
SCALE
  5
2C2
102
{ACAD_REACTORS
330
2A2
102
}
330
2A2
100
AcDbScale
 70
     0
300
6" = 1'-0"
140
6.0
141
12.0
290
     0
  0
SCALE
  5
2C3
102
{ACAD_REACTORS
330
2A2
102
}
330
2A2
100
AcDbScale
 70
     0
300
1'-0" = 1'-0"
140
12.0
141
12.0
290
     0
  0
TABLESTYLE
  5
11B
102
{ACAD_XDICTIONARY
360
2E4
102
}
102
{ACAD_REACTORS
330
11A
102
}
330
11A
100
AcDbTableStyle
  3
Standard
 70
     0
 71
     0
 40
1.5
 41
1.5
280
     0
281
     0
  7
STANDARD
140
4.5
170
     2
 62
     0
 63
     7
283
     0
274
    -2
284
     1
 64
     0
275
    -2
285
     1
 65
     0
276
    -2
286
     1
 66
     0
277
    -2
287
     1
 67
     0
278
    -2
288
     1
 68
     0
279
    -2
289
     1
 69
     0
  7
STANDARD
140
6.0
170
     5
 62
     0
 63
     7
283
     0
274
    -2
284
     1
 64
     0
275
    -2
285
     1
 65
     0
276
    -2
286
     1
 66
     0
277
    -2
287
     1
 67
     0
278
    -2
288
     1
 68
     0
279
    -2
289
     1
 69
     0
  7
STANDARD
140
4.5
170
     5
 62
     0
 63
     7
283
     0
274
    -2
284
     1
 64
     0
275
    -2
285
     1
 65
     0
276
    -2
286
     1
 66
     0
277
    -2
287
     1
 67
     0
278
    -2
288
     1
 68
     0
279
    -2
289
     1
 69
     0
  0
VISUALSTYLE
  5
274
102
{ACAD_REACTORS
330
26E
102
}
330
26E
100
AcDbVisualStyle
  2
2dWireframe
 70
     4
 71
     0
 72
     2
 73
     0
 90
        0
 40
-0.6
 41
-30.0
 62
     5
 63
     7
 74
     1
 91
        4
 64
     7
 65
   257
 75
     1
175
     1
 42
1.0
 92
        0
 66
   257
 43
1.0
 76
     1
 77
     6
 78
     2
 67
     7
 79
     5
170
     0
171
     0
290
     0
174
     0
 93
        1
 44
0.0
173
     0
291
     0
 45
0.0
1001
ACAD
1000
AcDbSavedByObjectVersion
1070
     0
  0
VISUALSTYLE
  5
276
102
{ACAD_REACTORS
330
26E
102
}
330
26E
100
AcDbVisualStyle
  2
3D Hidden
 70
     6
 71
     1
 72
     2
 73
     2
 90
        0
 40
-0.6
 41
-30.0
 62
     5
 63
     7
 74
     2
 91
        2
 64
     7
 65
   257
 75
     2
175
     1
 42
40.0
 92
        0
 66
   257
 43
1.0
 76
     1
 77
     6
 78
     2
 67
     7
 79
     3
170
     0
171
     0
290
     0
174
     0
 93
        1
 44
0.0
173
     0
291
     0
 45
0.0
1001
ACAD
1000
AcDbSavedByObjectVersion
1070
     0
  0
VISUALSTYLE
  5
275
102
{ACAD_REACTORS
330
26E
102
}
330
26E
100
AcDbVisualStyle
  2
3dWireframe
 70
     5
 71
     0
 72
     2
 73
     0
 90
        0
 40
-0.6
 41
-30.0
 62
     5
 63
     7
 74
     1
 91
        4
 64
     7
 65
   257
 75
     1
175
     1
 42
1.0
 92
        0
 66
   257
 43
1.0
 76
     1
 77
     6
 78
     2
 67
     7
 79
     5
170
     0
171
     0
290
     0
174
     0
 93
        1
 44
0.0
173
     0
291
     0
 45
0.0
1001
ACAD
1000
AcDbSavedByObjectVersion
1070
     0
  0
VISUALSTYLE
  5
273
102
{ACAD_REACTORS
330
26E
102
}
330
26E
100
AcDbVisualStyle
  2
Basic
 70
     7
 71
     1
 72
     0
 73
     1
 90
        0
 40
-0.6
 41
-30.0
 62
     5
 63
     7
 74
     0
 91
        4
 64
     7
 65
   257
 75
     1
175
     1
 42
1.0
 92
        8
 66
     7
 43
1.0
 76
     1
 77
     6
 78
     2
 67
     7
 79
     5
170
     0
171
     0
290
     0
174
     0
 93
        1
 44
0.0
173
     0
291
     1
 45
0.0
1001
ACAD
1000
AcDbSavedByObjectVersion
1070
     0
  0
VISUALSTYLE
  5
27A
102
{ACAD_REACTORS
330
26E
102
}
330
26E
100
AcDbVisualStyle
  2
Brighten
 70
    12
 71
     2
 72
     2
 73
     0
 90
        0
 40
-0.6
 41
-30.0
 62
     5
 63
     7
 74
     1
 91
        4
 64
     7
 65
   257
 75
     1
175
     1
 42
1.0
 92
        8
 66
     7
 43
1.0
 76
     1
 77
     6
 78
     2
 67
     7
 79
     5
170
     0
171
     0
290
     0
174
     0
 93
        1
 44
50.0
173
     0
291
     1
 45
0.0
1001
ACAD
1000
AcDbSavedByObjectVersion
1070
     0
  0
VISUALSTYLE
  5
27E
102
{ACAD_REACTORS
330
26E
102
}
330
26E
100
AcDbVisualStyle
  2
ColorChange
 70
    16
 71
     2
 72
     2
 73
     3
 90
        0
 40
-0.6
 41
-30.0
 62
     5
 63
     8
 74
     1
 91
        4
 64
     7
 65
   257
 75
     1
175
     1
 42
1.0
 92
        8
 66
     8
 43
1.0
 76
     1
 77
     6
 78
     2
 67
     7
 79
     5
170
     0
171
     0
290
     0
174
     0
 93
        1
 44
0.0
173
     0
291
     1
 45
0.0
1001
ACAD
1000
AcDbSavedByObjectVersion
1070
     0
  0
VISUALSTYLE
  5
277
102
{ACAD_REACTORS
330
26E
102
}
330
26E
100
AcDbVisualStyle
  2
Conceptual
 70
     9
 71
     3
 72
     2
 73
     0
 90
        0
 40
-0.6
 41
-30.0
 62
     5
 63
     7
 74
     2
 91
        2
 64
     7
 65
   257
 75
     1
175
     1
 42
40.0
 92
        8
 66
     7
 43
1.0
 76
     1
 77
     6
 78
     2
 67
     7
 79
     3
170
     0
171
     0
290
     0
174
     0
 93
        1
 44
0.0
173
     0
291
     0
 45
0.0
1001
ACAD
1000
AcDbSavedByObjectVersion
1070
     0
  0
VISUALSTYLE
  5
279
102
{ACAD_REACTORS
330
26E
102
}
330
26E
100
AcDbVisualStyle
  2
Dim
 70
    11
 71
     2
 72
     2
 73
     0
 90
        0
 40
-0.6
 41
-30.0
 62
     5
 63
     7
 74
     1
 91
        4
 64
     7
 65
   257
 75
     1
175
     1
 42
1.0
 92
        8
 66
     7
 43
1.0
 76
     1
 77
     6
 78
     2
 67
     7
 79
     5
170
     0
171
     0
290
     0
174
     0
 93
        1
 44
-50.0
173
     0
291
     1
 45
0.0
1001
ACAD
1000
AcDbSavedByObjectVersion
1070
     0
  0
VISUALSTYLE
  5
27D
102
{ACAD_REACTORS
330
26E
102
}
330
26E
100
AcDbVisualStyle
  2
Facepattern
 70
    15
 71
     2
 72
     2
 73
     0
 90
        0
 40
-0.6
 41
-30.0
 62
     5
 63
     7
 74
     1
 91
        4
 64
     7
 65
   257
 75
     1
175
     1
 42
1.0
 92
        8
 66
     7
 43
1.0
 76
     1
 77
     6
 78
     2
 67
     7
 79
     5
170
     0
171
     0
290
     0
174
     0
 93
        1
 44
0.0
173
     0
291
     1
 45
0.0
1001
ACAD
1000
AcDbSavedByObjectVersion
1070
     0
  0
VISUALSTYLE
  5
26F
102
{ACAD_REACTORS
330
26E
102
}
330
26E
100
AcDbVisualStyle
  2
Flat
 70
     0
 71
     2
 72
     1
 73
     1
 90
        2
 40
-0.6
 41
30.0
 62
     5
 63
     7
 74
     0
 91
        4
 64
     7
 65
   257
 75
     1
175
     1
 42
1.0
 92
        8
 66
     7
 43
1.0
 76
     1
 77
     6
 78
     2
 67
     7
 79
     5
170
     0
171
     0
290
     0
174
     0
 93
       13
 44
0.0
173
     0
291
     1
 45
0.0
1001
ACAD
1000
AcDbSavedByObjectVersion
1070
     0
  0
VISUALSTYLE
  5
270
102
{ACAD_REACTORS
330
26E
102
}
330
26E
100
AcDbVisualStyle
  2
FlatWithEdges
 70
     1
 71
     2
 72
     1
 73
     1
 90
        2
 40
-0.6
 41
30.0
 62
     5
 63
     7
 74
     1
 91
        4
 64
     7
 65
   257
 75
     1
175
     1
 42
1.0
 92
        0
 66
   257
 43
1.0
 76
     1
 77
     6
 78
     2
 67
     7
 79
     5
170
     0
171
     0
290
     0
174
     0
 93
       13
 44
0.0
173
     0
291
     1
 45
0.0
1001
ACAD
1000
AcDbSavedByObjectVersion
1070
     0
  0
VISUALSTYLE
  5
271
102
{ACAD_REACTORS
330
26E
102
}
330
26E
100
AcDbVisualStyle
  2
Gouraud
 70
     2
 71
     2
 72
     2
 73
     1
 90
        2
 40
-0.6
 41
30.0
 62
     5
 63
     7
 74
     0
 91
        4
 64
     7
 65
   257
 75
     1
175
     1
 42
1.0
 92
        0
 66
     7
 43
1.0
 76
     1
 77
     6
 78
     2
 67
     7
 79
     5
170
     0
171
     0
290
     0
174
     0
 93
       13
 44
0.0
173
     0
291
     1
 45
0.0
1001
ACAD
1000
AcDbSavedByObjectVersion
1070
     0
  0
VISUALSTYLE
  5
272
102
{ACAD_REACTORS
330
26E
102
}
330
26E
100
AcDbVisualStyle
  2
GouraudWithEdges
 70
     3
 71
     2
 72
     2
 73
     1
 90
        2
 40
-0.6
 41
30.0
 62
     5
 63
     7
 74
     1
 91
        4
 64
     7
 65
   257
 75
     1
175
     1
 42
1.0
 92
        0
 66
   257
 43
1.0
 76
     1
 77
     6
 78
     2
 67
     7
 79
     5
170
     0
171
     0
290
     0
174
     0
 93
       13
 44
0.0
173
     0
291
     1
 45
0.0
1001
ACAD
1000
AcDbSavedByObjectVersion
1070
     0
  0
VISUALSTYLE
  5
27C
102
{ACAD_REACTORS
330
26E
102
}
330
26E
100
AcDbVisualStyle
  2
Linepattern
 70
    14
 71
     2
 72
     2
 73
     0
 90
        0
 40
-0.6
 41
-30.0
 62
     5
 63
     7
 74
     1
 91
        4
 64
     7
 65
   257
 75
     7
175
     7
 42
1.0
 92
        8
 66
     7
 43
1.0
 76
     1
 77
     6
 78
     2
 67
     7
 79
     5
170
     0
171
     0
290
     0
174
     0
 93
        1
 44
0.0
173
     0
291
     1
 45
0.0
1001
ACAD
1000
AcDbSavedByObjectVersion
1070
     0
  0
VISUALSTYLE
  5
278
102
{ACAD_REACTORS
330
26E
102
}
330
26E
100
AcDbVisualStyle
  2
Realistic
 70
     8
 71
     2
 72
     2
 73
     0
 90
        0
 40
-0.6
 41
-30.0
 62
     5
 63
     7
 74
     1
 91
        0
 64
     7
 65
   257
 75
     1
175
     1
 42
1.0
 92
        8
 66
     8
 43
1.0
 76
     1
 77
     6
 78
     2
 67
     7
 79
     5
170
     0
171
     0
290
     0
174
     0
 93
       13
 44
0.0
173
     0
291
     0
 45
0.0
1001
ACAD
1000
AcDbSavedByObjectVersion
1070
     0
  0
VISUALSTYLE
  5
27B
102
{ACAD_REACTORS
330
26E
102
}
330
26E
100
AcDbVisualStyle
  2
Thicken
 70
    13
 71
     2
 72
     2
 73
     0
 90
        0
 40
-0.6
 41
-30.0
 62
     5
 63
     7
 74
     1
 91
        4
 64
     7
 65
   257
 75
     1
175
     1
 42
1.0
 92
       12
 66
     7
 43
1.0
 76
     1
 77
     6
 78
     2
 67
     7
 79
     5
170
     0
171
     0
290
     0
174
     0
 93
        1
 44
0.0
173
     0
291
     1
 45
0.0
1001
ACAD
1000
AcDbSavedByObjectVersion
1070
     0
  0
DICTIONARYVAR
  5
2E9
102
{ACAD_REACTORS
330
94
102
}
330
94
100
DictionaryVariables
280
     0
  1
1:1
  0
DICTIONARYVAR
  5
2E7
102
{ACAD_REACTORS
330
94
102
}
330
94
100
DictionaryVariables
280
     0
  1
STANDARD
  0
DICTIONARYVAR
  5
138
102
{ACAD_REACTORS
330
94
102
}
330
94
100
DictionaryVariables
280
     0
  1
STANDARD
  0
DICTIONARYVAR
  5
96
102
{ACAD_REACTORS
330
94
102
}
330
94
100
DictionaryVariables
280
     0
  1
2
  0
DICTIONARYVAR
  5
95
102
{ACAD_REACTORS
330
94
102
}
330
94
100
DictionaryVariables
280
     0
  1
0
  0
DICTIONARYVAR
  5
346
102
{ACAD_REACTORS
330
94
102
}
330
94
100
DictionaryVariables
280
     0
  1
1
  0
DICTIONARYVAR
  5
347
102
{ACAD_REACTORS
330
94
102
}
330
94
100
DictionaryVariables
280
     0
  1
15
  0
DICTIONARYVAR
  5
2EA
102
{ACAD_REACTORS
330
94
102
}
330
94
100
DictionaryVariables
280
     0
  1
0
  0
DICTIONARYVAR
  5
2E8
102
{ACAD_REACTORS
330
94
102
}
330
94
100
DictionaryVariables
280
     0
  1
0
  0
DICTIONARYVAR
  5
DAC
102
{ACAD_REACTORS
330
94
102
}
330
94
100
DictionaryVariables
280
     0
  1
127
  0
DICTIONARY
  5
36B
102
{ACAD_REACTORS
330
5B
102
}
330
5B
100
AcDbDictionary
281
     1
  0
DICTIONARY
  5
61
102
{ACAD_REACTORS
330
5B
102
}
330
5B
100
AcDbDictionary
281
     1
  0
XRECORD
  5
123
102
{ACAD_REACTORS
330
5B
102
}
330
5B
100
AcDbXrecord
280
     1
 90
-1023410169
  0
DICTIONARY
  5
DB4
330
1E
100
AcDbDictionary
280
     1
281
     1
  3
ACAD_XREC_ROUNDTRIP
360
DB5
  0
DICTIONARY
  5
DB8
330
26
100
AcDbDictionary
280
     1
281
     1
  3
ACAD_XREC_ROUNDTRIP
360
DB9
  0
DICTIONARY
  5
DB6
330
22
100
AcDbDictionary
280
     1
281
     1
  3
ACAD_XREC_ROUNDTRIP
360
DB7
  0
DICTIONARY
  5
DC2
330
26C
100
AcDbDictionary
280
     1
281
     1
  3
ACAD_XREC_ROUNDTRIP
360
DC3
  0
DICTIONARY
  5
DC0
330
26B
100
AcDbDictionary
280
     1
281
     1
  3
ACAD_XREC_ROUNDTRIP
360
DC1
  0
DICTIONARY
  5
DC4
330
26D
100
AcDbDictionary
280
     1
281
     1
  3
ACAD_XREC_ROUNDTRIP
360
DC5
  0
DICTIONARY
  5
2E4
330
11B
100
AcDbDictionary
280
     1
281
     1
  3
ACAD_ROUNDTRIP_2008_TABLESTYLE_CELLSTYLEMAP
360
DAD
  3
ACAD_XREC_ROUNDTRIP
360
DBF
  0
XRECORD
  5
DB5
102
{ACAD_REACTORS
330
DB4
102
}
330
DB4
100
AcDbXrecord
280
     1
102
SHADEPLOT
 70
     0
102
SHADEPLOTRESLEVEL
 70
     2
102
SHADEPLOTCUSTOMDPI
 70
   300
  0
XRECORD
  5
DB9
102
{ACAD_REACTORS
330
DB8
102
}
330
DB8
100
AcDbXrecord
280
     1
102
SHADEPLOT
 70
     0
102
SHADEPLOTRESLEVEL
 70
     2
102
SHADEPLOTCUSTOMDPI
 70
   300
  0
XRECORD
  5
DB7
102
{ACAD_REACTORS
330
DB6
102
}
330
DB6
100
AcDbXrecord
280
     1
102
SHADEPLOT
 70
     0
102
SHADEPLOTRESLEVEL
 70
     2
102
SHADEPLOTCUSTOMDPI
 70
   300
  0
XRECORD
  5
DC3
102
{ACAD_REACTORS
330
DC2
102
}
330
DC2
100
AcDbXrecord
280
     1
102
MATERIAL
148
0.0
149
0.0
149
0.0
 93
        0
 94
       63
282
     0
 72
     1
 77
     1
171
     1
175
     1
179
     1
273
     0
  0
XRECORD
  5
DC1
102
{ACAD_REACTORS
330
DC0
102
}
330
DC0
100
AcDbXrecord
280
     1
102
MATERIAL
148
0.0
149
0.0
149
0.0
 93
        0
 94
       63
282
     0
 72
     1
 77
     1
171
     1
175
     1
179
     1
273
     0
  0
XRECORD
  5
DC5
102
{ACAD_REACTORS
330
DC4
102
}
330
DC4
100
AcDbXrecord
280
     1
102
MATERIAL
148
0.0
149
0.0
149
0.0
 93
        0
 94
       63
282
     0
 72
     1
 77
     1
171
     1
175
     1
179
     1
273
     0
  0
CELLSTYLEMAP
  5
DAD
102
{ACAD_REACTORS
330
2E4
102
}
330
2E4
100
AcDbCellStyleMap
 90
        3
300
CELLSTYLE
  1
TABLEFORMAT_BEGIN
 90
        5
170
     1
 91
        0
 92
    32768
 62
   257
 93
        1
300
CONTENTFORMAT
  1
CONTENTFORMAT_BEGIN
 90
        0
 91
        0
 92
      512
 93
        0
300

 40
0.0
140
1.0
 94
        5
 62
     0
340
11
144
6.0
309
CONTENTFORMAT_END
171
     1
301
MARGIN
  1
CELLMARGIN_BEGIN
 40
1.5
 40
1.5
 40
1.5
 40
1.5
 40
0.18
 40
0.18
309
CELLMARGIN_END
 94
        6
 95
        1
302
GRIDFORMAT
  1
GRIDFORMAT_BEGIN
 90
        0
 91
        1
 62
     0
 92
       -2
340
0
 93
        0
 40
0.045
309
GRIDFORMAT_END
 95
        2
302
GRIDFORMAT
  1
GRIDFORMAT_BEGIN
 90
        0
 91
        1
 62
     0
 92
       -2
340
0
 93
        0
 40
0.045
309
GRIDFORMAT_END
 95
        4
302
GRIDFORMAT
  1
GRIDFORMAT_BEGIN
 90
        0
 91
        1
 62
     0
 92
       -2
340
0
 93
        0
 40
0.045
309
GRIDFORMAT_END
 95
        8
302
GRIDFORMAT
  1
GRIDFORMAT_BEGIN
 90
        0
 91
        1
 62
     0
 92
       -2
340
0
 93
        0
 40
0.045
309
GRIDFORMAT_END
 95
       16
302
GRIDFORMAT
  1
GRIDFORMAT_BEGIN
 90
        0
 91
        1
 62
     0
 92
       -2
340
0
 93
        0
 40
0.045
309
GRIDFORMAT_END
 95
       32
302
GRIDFORMAT
  1
GRIDFORMAT_BEGIN
 90
        0
 91
        1
 62
     0
 92
       -2
340
0
 93
        0
 40
0.045
309
GRIDFORMAT_END
309
TABLEFORMAT_END
  1
CELLSTYLE_BEGIN
 90
        1
 91
        1
300
_TITLE
309
CELLSTYLE_END
300
CELLSTYLE
  1
TABLEFORMAT_BEGIN
 90
        5
170
     1
 91
        0
 92
        0
 62
   257
 93
        1
300
CONTENTFORMAT
  1
CONTENTFORMAT_BEGIN
 90
        0
 91
        0
 92
      512
 93
        0
300

 40
0.0
140
1.0
 94
        5
 62
     0
340
11
144
4.5
309
CONTENTFORMAT_END
171
     1
301
MARGIN
  1
CELLMARGIN_BEGIN
 40
1.5
 40
1.5
 40
1.5
 40
1.5
 40
0.18
 40
0.18
309
CELLMARGIN_END
 94
        6
 95
        1
302
GRIDFORMAT
  1
GRIDFORMAT_BEGIN
 90
        0
 91
        1
 62
     0
 92
       -2
340
0
 93
        0
 40
0.045
309
GRIDFORMAT_END
 95
        2
302
GRIDFORMAT
  1
GRIDFORMAT_BEGIN
 90
        0
 91
        1
 62
     0
 92
       -2
340
0
 93
        0
 40
0.045
309
GRIDFORMAT_END
 95
        4
302
GRIDFORMAT
  1
GRIDFORMAT_BEGIN
 90
        0
 91
        1
 62
     0
 92
       -2
340
0
 93
        0
 40
0.045
309
GRIDFORMAT_END
 95
        8
302
GRIDFORMAT
  1
GRIDFORMAT_BEGIN
 90
        0
 91
        1
 62
     0
 92
       -2
340
0
 93
        0
 40
0.045
309
GRIDFORMAT_END
 95
       16
302
GRIDFORMAT
  1
GRIDFORMAT_BEGIN
 90
        0
 91
        1
 62
     0
 92
       -2
340
0
 93
        0
 40
0.045
309
GRIDFORMAT_END
 95
       32
302
GRIDFORMAT
  1
GRIDFORMAT_BEGIN
 90
        0
 91
        1
 62
     0
 92
       -2
340
0
 93
        0
 40
0.045
309
GRIDFORMAT_END
309
TABLEFORMAT_END
  1
CELLSTYLE_BEGIN
 90
        2
 91
        1
300
_HEADER
309
CELLSTYLE_END
300
CELLSTYLE
  1
TABLEFORMAT_BEGIN
 90
        5
170
     1
 91
        0
 92
        0
 62
   257
 93
        1
300
CONTENTFORMAT
  1
CONTENTFORMAT_BEGIN
 90
        0
 91
        0
 92
      512
 93
        0
300

 40
0.0
140
1.0
 94
        2
 62
     0
340
11
144
4.5
309
CONTENTFORMAT_END
171
     1
301
MARGIN
  1
CELLMARGIN_BEGIN
 40
1.5
 40
1.5
 40
1.5
 40
1.5
 40
0.18
 40
0.18
309
CELLMARGIN_END
 94
        6
 95
        1
302
GRIDFORMAT
  1
GRIDFORMAT_BEGIN
 90
        0
 91
        1
 62
     0
 92
       -2
340
0
 93
        0
 40
0.045
309
GRIDFORMAT_END
 95
        2
302
GRIDFORMAT
  1
GRIDFORMAT_BEGIN
 90
        0
 91
        1
 62
     0
 92
       -2
340
0
 93
        0
 40
0.045
309
GRIDFORMAT_END
 95
        4
302
GRIDFORMAT
  1
GRIDFORMAT_BEGIN
 90
        0
 91
        1
 62
     0
 92
       -2
340
0
 93
        0
 40
0.045
309
GRIDFORMAT_END
 95
        8
302
GRIDFORMAT
  1
GRIDFORMAT_BEGIN
 90
        0
 91
        1
 62
     0
 92
       -2
340
0
 93
        0
 40
0.045
309
GRIDFORMAT_END
 95
       16
302
GRIDFORMAT
  1
GRIDFORMAT_BEGIN
 90
        0
 91
        1
 62
     0
 92
       -2
340
0
 93
        0
 40
0.045
309
GRIDFORMAT_END
 95
       32
302
GRIDFORMAT
  1
GRIDFORMAT_BEGIN
 90
        0
 91
        1
 62
     0
 92
       -2
340
0
 93
        0
 40
0.045
309
GRIDFORMAT_END
309
TABLEFORMAT_END
  1
CELLSTYLE_BEGIN
 90
        3
 91
        2
300
_DATA
309
CELLSTYLE_END
  0
XRECORD
  5
DBF
102
{ACAD_REACTORS
330
2E4
102
}
330
2E4
100
AcDbXrecord
280
     1
102
ACAD_ROUNDTRIP_PRE2007_TABLESTYLE
 90
      512
 91
        0
  1

 92
      512
 93
        0
  2

 94
      512
 95
        0
  3

  0
ENDSEC
  0
EOF
