  0
SECTION
  2
HEADER
  9
$ACADVER
  1
AC1015
  9
$ACADMAINTVER
 70
    20
  9
$DWGCODEPAGE
  3
ANSI_1252
  9
$INSBASE
 10
0.0
 20
0.0
 30
0.0
  9
$EXTMIN
 10
-0.0672041738580447
 20
-0.0418311814917161
 30
-0.000000000000013
  9
$EXTMAX
 10
1246.909493277698
 20
739.3720332690256
 30
0.0000000000000023
  9
$LIMMIN
 10
0.0
 20
0.0
  9
$LIMMAX
 10
420.0
 20
297.0
  9
$ORTHOMODE
 70
     1
  9
$REGENMODE
 70
     1
  9
$FILLMODE
 70
     1
  9
$QTEXTMODE
 70
     0
  9
$MIRRTEXT
 70
     1
  9
$LTSCALE
 40
1.0
  9
$ATTMODE
 70
     1
  9
$TEXTSIZE
 40
2.5
  9
$TRACEWID
 40
1.0
  9
$TEXTSTYLE
  7
STANDARD
  9
$CLAYER
  8
0
  9
$CELTYPE
  6
ByLayer
  9
$CECOLOR
 62
   256
  9
$CELTSCALE
 40
1.0
  9
$DISPSILH
 70
     0
  9
$DIMSCALE
 40
1.0
  9
$DIMASZ
 40
3.5
  9
$DIMEXO
 40
1.0
  9
$DIMDLI
 40
10.0
  9
$DIMRND
 40
0.0
  9
$DIMDLE
 40
0.0
  9
$DIMEXE
 40
1.0
  9
$DIMTP
 40
0.1
  9
$DIMTM
 40
0.1
  9
$DIMTXT
 40
3.5
  9
$DIMCEN
 40
0.0
  9
$DIMTSZ
 40
0.0
  9
$DIMTOL
 70
     0
  9
$DIMLIM
 70
     0
  9
$DIMTIH
 70
     0
  9
$DIMTOH
 70
     0
  9
$DIMSE1
 70
     0
  9
$DIMSE2
 70
     0
  9
$DIMTAD
 70
     1
  9
$DIMZIN
 70
     8
  9
$DIMBLK
  1

  9
$DIMASO
 70
     1
  9
$DIMSHO
 70
     1
  9
$DIMPOST
  1

  9
$DIMAPOST
  1
"
  9
$DIMALT
 70
     0
  9
$DIMALTD
 70
     2
  9
$DIMALTF
 40
0.0393701
  9
$DIMLFAC
 40
1.0
  9
$DIMTOFL
 70
     1
  9
$DIMTVP
 40
0.0
  9
$DIMTIX
 70
     0
  9
$DIMSOXD
 70
     0
  9
$DIMSAH
 70
     0
  9
$DIMBLK1
  1

  9
$DIMBLK2
  1

  9
$DIMSTYLE
  2
AM_DIN
  9
$DIMCLRD
 70
   256
  9
$DIMCLRE
 70
   256
  9
$DIMCLRT
 70
     2
  9
$DIMTFAC
 40
0.71
  9
$DIMGAP
 40
1.5
  9
$DIMJUST
 70
     0
  9
$DIMSD1
 70
     0
  9
$DIMSD2
 70
     0
  9
$DIMTOLJ
 70
     0
  9
$DIMTZIN
 70
     8
  9
$DIMALTZ
 70
     0
  9
$DIMALTTZ
 70
     0
  9
$DIMUPT
 70
     0
  9
$DIMDEC
 70
     2
  9
$DIMTDEC
 70
     3
  9
$DIMALTU
 70
     2
  9
$DIMALTTD
 70
     4
  9
$DIMTXSTY
  7
STANDARD
  9
$DIMAUNIT
 70
     0
  9
$DIMADEC
 70
     0
  9
$DIMALTRND
 40
0.0
  9
$DIMAZIN
 70
     2
  9
$DIMDSEP
 70
    46
  9
$DIMATFIT
 70
     3
  9
$DIMFRAC
 70
     0
  9
$DIMLDRBLK
  1

  9
$DIMLUNIT
 70
     2
  9
$DIMLWD
 70
    -1
  9
$DIMLWE
 70
    -1
  9
$DIMTMOVE
 70
     0
  9
$LUNITS
 70
     2
  9
$LUPREC
 70
     2
  9
$SKETCHINC
 40
1.0
  9
$FILLETRAD
 40
0.0
  9
$AUNITS
 70
     0
  9
$AUPREC
 70
     0
  9
$MENU
  1
.
  9
$ELEVATION
 40
0.0
  9
$PELEVATION
 40
0.0
  9
$THICKNESS
 40
0.0
  9
$LIMCHECK
 70
     0
  9
$CHAMFERA
 40
2.5
  9
$CHAMFERB
 40
2.5
  9
$CHAMFERC
 40
20.0
  9
$CHAMFERD
 40
0.0
  9
$SKPOLY
 70
     0
  9
$TDCREATE
 40
2455659.563997743
  9
$TDUCREATE
 40
2455659.480664410
  9
$TDUPDATE
 40
2455665.438649039
  9
$TDUUPDATE
 40
2455665.355315706
  9
$TDINDWG
 40
0.0770816204
  9
$TDUSRTIMER
 40
0.0770808912
  9
$USRTIMER
 70
     1
  9
$ANGBASE
 50
0.0
  9
$ANGDIR
 70
     0
  9
$PDMODE
 70
     0
  9
$PDSIZE
 40
0.0
  9
$PLINEWID
 40
0.0
  9
$SPLFRAME
 70
     0
  9
$SPLINETYPE
 70
     6
  9
$SPLINESEGS
 70
     8
  9
$HANDSEED
  5
D0D
  9
$SURFTAB1
 70
     6
  9
$SURFTAB2
 70
     6
  9
$SURFTYPE
 70
     6
  9
$SURFU
 70
     6
  9
$SURFV
 70
     6
  9
$UCSBASE
  2

  9
$UCSNAME
  2

  9
$UCSORG
 10
0.0
 20
0.0
 30
0.0
  9
$UCSXDIR
 10
1.0
 20
0.0
 30
0.0
  9
$UCSYDIR
 10
0.0
 20
1.0
 30
0.0
  9
$UCSORTHOREF
  2

  9
$UCSORTHOVIEW
 70
     0
  9
$UCSORGTOP
 10
0.0
 20
0.0
 30
0.0
  9
$UCSORGBOTTOM
 10
0.0
 20
0.0
 30
0.0
  9
$UCSORGLEFT
 10
0.0
 20
0.0
 30
0.0
  9
$UCSORGRIGHT
 10
0.0
 20
0.0
 30
0.0
  9
$UCSORGFRONT
 10
0.0
 20
0.0
 30
0.0
  9
$UCSORGBACK
 10
0.0
 20
0.0
 30
0.0
  9
$PUCSBASE
  2

  9
$PUCSNAME
  2

  9
$PUCSORG
 10
0.0
 20
0.0
 30
0.0
  9
$PUCSXDIR
 10
1.0
 20
0.0
 30
0.0
  9
$PUCSYDIR
 10
0.0
 20
1.0
 30
0.0
  9
$PUCSORTHOREF
  2

  9
$PUCSORTHOVIEW
 70
     0
  9
$PUCSORGTOP
 10
0.0
 20
0.0
 30
0.0
  9
$PUCSORGBOTTOM
 10
0.0
 20
0.0
 30
0.0
  9
$PUCSORGLEFT
 10
0.0
 20
0.0
 30
0.0
  9
$PUCSORGRIGHT
 10
0.0
 20
0.0
 30
0.0
  9
$PUCSORGFRONT
 10
0.0
 20
0.0
 30
0.0
  9
$PUCSORGBACK
 10
0.0
 20
0.0
 30
0.0
  9
$USERI1
 70
     0
  9
$USERI2
 70
     0
  9
$USERI3
 70
     0
  9
$USERI4
 70
     0
  9
$USERI5
 70
     0
  9
$USERR1
 40
0.0
  9
$USERR2
 40
0.0
  9
$USERR3
 40
0.0
  9
$USERR4
 40
0.0
  9
$USERR5
 40
0.0
  9
$WORLDVIEW
 70
     1
  9
$SHADEDGE
 70
     3
  9
$SHADEDIF
 70
    70
  9
$TILEMODE
 70
     1
  9
$MAXACTVP
 70
    64
  9
$PINSBASE
 10
0.0
 20
0.0
 30
0.0
  9
$PLIMCHECK
 70
     0
  9
$PEXTMIN
 10
1.000000000000000E+20
 20
1.000000000000000E+20
 30
1.000000000000000E+20
  9
$PEXTMAX
 10
-1.000000000000000E+20
 20
-1.000000000000000E+20
 30
-1.000000000000000E+20
  9
$PLIMMIN
 10
0.0
 20
0.0
  9
$PLIMMAX
 10
420.0
 20
297.0
  9
$UNITMODE
 70
     0
  9
$VISRETAIN
 70
     1
  9
$PLINEGEN
 70
     0
  9
$PSLTSCALE
 70
     1
  9
$TREEDEPTH
 70
  3020
  9
$CMLSTYLE
  2
Standard
  9
$CMLJUST
 70
     0
  9
$CMLSCALE
 40
20.0
  9
$PROXYGRAPHICS
 70
     1
  9
$MEASUREMENT
 70
     1
  9
$CELWEIGHT
370
    -1
  9
$ENDCAPS
280
     0
  9
$JOINSTYLE
280
     0
  9
$LWDISPLAY
290
     0
  9
$INSUNITS
 70
     4
  9
$HYPERLINKBASE
  1

  9
$STYLESHEET
  1

  9
$XEDIT
290
     1
  9
$CEPSNTYPE
380
     0
  9
$PSTYLEMODE
290
     1
  9
$FINGERPRINTGUID
  2
{EDB57D9E-DAF3-4962-8944-F9517380D66C}
  9
$VERSIONGUID
  2
{982B47D2-602B-4128-B368-7A51F3CA6A10}
  9
$EXTNAMES
290
     1
  9
$PSVPSCALE
 40
0.0
  9
$OLESTARTUP
290
     0
  0
ENDSEC
  0
SECTION
  2
CLASSES
  0
CLASS
  1
ACDBDICTIONARYWDFLT
  2
AcDbDictionaryWithDefault
  3
ObjectDBX Classes
 90
        0
280
     0
281
     0
  0
CLASS
  1
ACDBPLACEHOLDER
  2
AcDbPlaceHolder
  3
ObjectDBX Classes
 90
        0
280
     0
281
     0
  0
CLASS
  1
LAYOUT
  2
AcDbLayout
  3
ObjectDBX Classes
 90
        0
280
     0
281
     0
  0
CLASS
  1
ACME_DOCUMENT
  2
AcMeDbDoc
  3
AcMeServices
 90
     1024
280
     0
281
     0
  0
CLASS
  1
AMGSETTINGSOBJ
  2
AmgSettingsObj
  3
"AcadM|Product Description: AutoCAD Mechanical|Company: Autodesk, Inc."
 90
     1024
280
     0
281
     0
  0
CLASS
  1
ACMESCOPE
  2
AcMeScope
  3
AcMeServices
 90
     1024
280
     0
281
     0
  0
CLASS
  1
ACMECOMMANDHISTORY
  2
AcMeCommandHistory
  3
AcMeServices
 90
     1024
280
     0
281
     0
  0
CLASS
  1
ACIMSYSVARMAN
  2
AcImSysVarManager
  3
AcMeServices
 90
     1024
280
     0
281
     0
  0
CLASS
  1
ACIMREALSYSVAR
  2
AcImRealSysVar
  3
AcMeServices
 90
     1024
280
     0
281
     0
  0
CLASS
  1
ACIMINTSYSVAR
  2
AcImIntSysVar
  3
AcMeServices
 90
     1024
280
     0
281
     0
  0
CLASS
  1
ACMEDRAWINGMAN
  2
AcMeDrawingMan
  3
AcMeServices
 90
     1024
280
     0
281
     0
  0
CLASS
  1
ACMEVIEW
  2
AcMeView
  3
AcMeServices
 90
     1024
280
     0
281
     0
  0
CLASS
  1
ACDBENTITYCACHE
  2
AcMeEntityCache
  3
AcMeServices
 90
     1024
280
     0
281
     0
  0
CLASS
  1
GSMANAGER
  2
AcMeGSManager
  3
AcMeServices
 90
     1024
280
     0
281
     0
  0
CLASS
  1
AMDTINTERNALREACTOR
  2
AmdtInternalReactor
  3
AcMeServices
 90
     1024
280
     0
281
     0
  0
CLASS
  1
ACMESTATEMGR
  2
AcMeStateMgr
  3
AcMeServices
 90
     1024
280
     0
281
     0
  0
CLASS
  1
ACGREFMASTER
  2
AcGrefMaster
  3
AcAttribServices
 90
     1024
280
     0
281
     0
  0
CLASS
  1
ACME_DATABASE
  2
AcMeDbDatabase
  3
AcMeServices
 90
     1024
280
     0
281
     0
  0
CLASS
  1
ACRFINSADJUSTERMGR
  2
AcRfInsAdjusterMgr
  3
AcMeServices
 90
     1024
280
     0
281
     0
  0
CLASS
  1
ACGREFACADMASTER
  2
AcGrefacadMaster
  3
AcGrefServices
 90
     1024
280
     0
281
     0
  0
CLASS
  1
AMIMASTER
  2
AmiMaster
  3
AmiServices
 90
     1024
280
     0
281
     0
  0
CLASS
  1
ACMDATADICTIONARY
  2
AcmDataDictionary
  3
"AcmSymBB|Product Description: AutoCAD Mechanical|Company: Autodesk, Inc."
 90
     1024
280
     0
281
     0
  0
CLASS
  1
ACMDATAENTRYBLOCK
  2
AcmDataEntryBlock
  3
AcmSymBB|Product Description: AutoCAD Mechanical|Company: Autodesk, Inc.
 90
    33792
280
     0
281
     0
  0
CLASS
  1
ACIMSTRSYSVAR
  2
AcImStrSysVar
  3
AcMeServices
 90
     1024
280
     0
281
     0
  0
CLASS
  1
ACMSTANDARDISO
  2
AcmStandardISO
  3
"Amdt_StdImp|Product Description: AutoCAD Mechanical|Company: Autodesk, Inc."
 90
    33792
280
     0
281
     0
  0
CLASS
  1
AMGOBJPROPCFG
  2
AmgObjPropCfg
  3
"AmgLay|Product Description: AutoCAD Mechanical|Company: Autodesk, Inc."
 90
     1025
280
     0
281
     0
  0
CLASS
  1
AMDTEDGESTANDARDISO
  2
AmdtEdgeStdISO
  3
"Amdt_StdImp|Product Description: AutoCAD Mechanical|Company: Autodesk, Inc."
 90
    33792
280
     0
281
     0
  0
CLASS
  1
ACMSURFSTANDARDISO
  2
AcmSurfTextStdISO
  3
"Amdt_StdImp|Product Description: AutoCAD Mechanical|Company: Autodesk, Inc."
 90
    33792
280
     0
281
     0
  0
CLASS
  1
ACMFCFSTANDARDISO
  2
AcmFCFStdISO
  3
"Amdt_StdImp|Product Description: AutoCAD Mechanical|Company: Autodesk, Inc."
 90
    33792
280
     0
281
     0
  0
CLASS
  1
ACMWELDSTANDARDISO
  2
AcmWeldingStdISO
  3
"Amdt_StdImp|Product Description: AutoCAD Mechanical|Company: Autodesk, Inc."
 90
    33792
280
     0
281
     0
  0
CLASS
  1
ACMIDSTANDARDISO
  2
AcmIdStdISO
  3
"Amdt_StdImp|Product Description: AutoCAD Mechanical|Company: Autodesk, Inc."
 90
    33792
280
     0
281
     0
  0
CLASS
  1
ACMDATUMSTANDARDISO
  2
AcmDatumStdISO
  3
"Amdt_StdImp|Product Description: AutoCAD Mechanical|Company: Autodesk, Inc."
 90
    33792
280
     0
281
     0
  0
CLASS
  1
ACMBOMSTANDARDISO
  2
AcmBOMStdISO
  3
"Amdt_StdImp|Product Description: AutoCAD Mechanical|Company: Autodesk, Inc."
 90
    33792
280
     0
281
     0
  0
CLASS
  1
ACMDETAILSTANDARDISO
  2
AmdtDetailSymStdISO
  3
"Amdt_StdImp|Product Description: AutoCAD Mechanical|Company: Autodesk, Inc."
 90
    33792
280
     0
281
     0
  0
CLASS
  1
ACMSECTIONSTANDARDISO
  2
AmdtSectionSymStdISO
  3
"Amdt_StdImp|Product Description: AutoCAD Mechanical|Company: Autodesk, Inc."
 90
    33792
280
     0
281
     0
  0
CLASS
  1
ACMCENTERLINESTANDARDISO
  2
AmdtCenterLineStdISO
  3
"Amdt_StdImp|Product Description: AutoCAD Mechanical|Company: Autodesk, Inc."
 90
    33792
280
     0
281
     0
  0
CLASS
  1
ACMNOTESTANDARDISO
  2
AmdtNoteStdISO
  3
"Amdt_StdImp|Product Description: AutoCAD Mechanical|Company: Autodesk, Inc."
 90
    33792
280
     0
281
     0
  0
CLASS
  1
ACAMGLAYSTD
  2
AcAmgLayStd
  3
"AmgLay|Product Description: AutoCAD Mechanical|Company: Autodesk, Inc."
 90
     1024
280
     0
281
     0
  0
CLASS
  1
ACAMGDIMSTD
  2
AcAmgDimStd
  3
"AmgDim|Product Description: AutoCAD Mechanical|Company: Autodesk, Inc."
 90
     1024
280
     0
281
     0
  0
CLASS
  1
ACAMGHOLECHARTSTDISO
  2
AcAmgHoleChartStdISO
  3
AmgDim|Product Description: AutoCAD Mechanical|Company: Autodesk, Inc.
 90
    33792
280
     0
281
     0
  0
CLASS
  1
ACAMGTITLESTD
  2
AcAmgTitleStd
  3
"AmgTitle|Product Description: AutoCAD Mechanical|Company: Autodesk, Inc."
 90
     4095
280
     0
281
     0
  0
CLASS
  1
LAYER_INDEX
  2
AcDbLayerIndex
  3
ObjectDBX Classes
 90
    32768
280
     0
281
     0
  0
CLASS
  1
IDBUFFER
  2
AcDbIdBuffer
  3
ObjectDBX Classes
 90
    32768
280
     0
281
     0
  0
CLASS
  1
DICTIONARYVAR
  2
AcDbDictionaryVar
  3
ObjectDBX Classes
 90
        0
280
     0
281
     0
  0
CLASS
  1
AM_DRAWING_MGR
  2
AcDmDwgMgr
  3
AcMechDwgViewMgmt
 90
     1024
280
     0
281
     0
  0
CLASS
  1
AM_DWG_DOCUMENT
  2
AcDmDwgDocument
  3
AcMechDwgViewMgmt
 90
     1024
280
     0
281
     0
  0
CLASS
  1
AM_DWG_SHEET
  2
AcDmSheet
  3
AcMechDwgViewMgmt
 90
     1024
280
     0
281
     0
  0
CLASS
  1
AM_VIEWDIMPARMAP
  2
AcDmViewDimParMap
  3
AcMechDwgViewMgmt
 90
     1024
280
     0
281
     0
  0
CLASS
  1
AM_DWGMGR_NAME
  2
AcDmDwgMgrName
  3
AcMechDwgViewMgmt
 90
     1024
280
     0
281
     0
  0
CLASS
  1
AMDTMENUSTATEMGR
  2
AmdtMenuStateMgr
  3
McadcomServices
 90
     1024
280
     0
281
     0
  0
CLASS
  1
AMDTMCOMMENUSTATE
  2
AmdtMcomMenuState
  3
McadcomServices
 90
     1024
280
     0
281
     0
  0
CLASS
  1
MAPIAMMOUDLE
  2
MApiAmModule
  3
MApiAmServices
 90
     1024
280
     0
281
     0
  0
CLASS
  1
AMDTADMENUSTATE
  2
AmdtAdMenuState
  3
DesignerServices
 90
     1024
280
     0
281
     0
  0
CLASS
  1
ADAPPL
  2
AcAdAppl
  3
DesignerServices
 90
     1024
280
     0
281
     0
  0
CLASS
  1
DEPMGR
  2
AcAdDepMgr
  3
DesignerServices
 90
     1024
280
     0
281
     0
  0
CLASS
  1
PARAMMGR
  2
AcAdParamMgr
  3
DesignerServices
 90
     1024
280
     0
281
     0
  0
CLASS
  1
PARAMSCOPE
  2
AcAdParamScope
  3
DesignerServices
 90
     1024
280
     0
281
     0
  0
CLASS
  1
NAMEDAPPL
  2
AcAdNamedAppl
  3
DesignerServices
 90
     1024
280
     0
281
     0
  0
CLASS
  1
AMDTDMMENUSTATE
  2
AmdtDmMenuState
  3
AcMechDwgViewMgmt
 90
     1024
280
     0
281
     0
  0
CLASS
  1
AMDTAMMENUSTATE
  2
AmdtAmMenuState
  3
DesignerAssemblies
 90
     1024
280
     0
281
     0
  0
CLASS
  1
ACAMPROJECT
  2
AcAmProject
  3
DesignerAssemblies
 90
     1024
280
     0
281
     0
  0
CLASS
  1
ACAMGRCOMPDEF
  2
AcAmGrCompDef
  3
DesignerAssemblies
 90
     1024
280
     0
281
     0
  0
CLASS
  1
ACCMCONTEXT
  2
AcCmContext
  3
DesignerAssemblies
 90
     1024
280
     0
281
     0
  0
CLASS
  1
ACAMCOMPDEF
  2
AcAmCompDef
  3
DesignerAssemblies
 90
     1024
280
     0
281
     0
  0
CLASS
  1
ACAMCOMPDEFMGR
  2
AcAmCompDefMgr
  3
DesignerAssemblies
 90
     1024
280
     0
281
     0
  0
CLASS
  1
AMCONTEXTMGR
  2
AcAmContextMgr
  3
DesignerAssemblies
 90
     1024
280
     0
281
     0
  0
CLASS
  1
ACAMCONTEXTMODELER
  2
AcAmContextModeler
  3
DesignerAssemblies
 90
     1024
280
     0
281
     0
  0
CLASS
  1
ACMTHREADLINESTANDARDISO
  2
AmdtThreadLineStdISO
  3
"Amdt_StdImp|Product Description: AutoCAD Mechanical|Company: Autodesk, Inc."
 90
    33792
280
     0
281
     0
  0
CLASS
  1
CATALOGSTATE
  2
AcAmCatalogState
  3
DesignerAssemblies
 90
     1024
280
     0
281
     0
  0
CLASS
  1
ACAMGRCOMPDEFSET
  2
AcAmGrCompDefSet
  3
DesignerAssemblies
 90
     1024
280
     0
281
     0
  0
CLASS
  1
AMDTBROWSERDBTAB
  2
AmdtBrowserDbTab
  3
McadcomServices
 90
     1024
280
     0
281
     0
  0
CLASS
  1
CBROWSERAPPOBJECT
  2
CBrowserAppObject
  3
McadcomServices
 90
     1024
280
     0
281
     0
  0
CLASS
  1
DM_PLACEHOLDER
  2
AcDmSelsetPlaceholder
  3
AcMechDwgViewMgmt
 90
     1024
280
     0
281
     0
  0
CLASS
  1
TABLESTYLE
  2
AcDbTableStyle
  3
ObjectDBX Classes
 90
     4095
280
     0
281
     0
  0
CLASS
  1
VAACXREFPANELOBJECT
  2
VaAcXREFPanelObject
  3
VAAC_ADDIN
 90
    32768
280
     0
281
     0
  0
CLASS
  1
VAACIMAGEINVENTORY
  2
VaAcImageInventory
  3
VAAC_ADDIN
 90
    32768
280
     0
281
     0
  0
CLASS
  1
AMDTNOTETEMPLATEDB
  2
AmdtNoteTemplateDB
  3
AcmSymBB|Product Description: AutoCAD Mechanical|Company: Autodesk, Inc.
 90
     1024
280
     0
281
     0
  0
CLASS
  1
ACAMGFILTERDAT
  2
AcAmgFilterDat
  3
"AcadM|Product Description: AutoCAD Mechanical|Company: Autodesk, Inc."
 90
    33792
280
     0
281
     0
  0
CLASS
  1
ACMBOM
  2
AcmBom
  3
"AcmSymBB|Product Description: AutoCAD Mechanical|Company: Autodesk, Inc."
 90
    33792
280
     0
281
     0
  0
CLASS
  1
AMDTFORMULAUPDATEDISPATCHER
  2
AmdtFormulaUpdateDispatcher
  3
AcMeServices
 90
    33792
280
     0
281
     0
  0
CLASS
  1
ACMSTANDARDDIN
  2
AcmStandardDIN
  3
"Amdt_StdImp|Product Description: AutoCAD Mechanical|Company: Autodesk, Inc."
 90
     1024
280
     0
281
     0
  0
CLASS
  1
AMDTEDGESTANDARDDIN13715
  2
AmdtEdgeStdDIN13715
  3
"Amdt_StdImp|Product Description: AutoCAD Mechanical|Company: Autodesk, Inc."
 90
     1024
280
     0
281
     0
  0
CLASS
  1
ACMSURFSTANDARDDIN
  2
AcmSurfTextStdDIN
  3
"Amdt_StdImp|Product Description: AutoCAD Mechanical|Company: Autodesk, Inc."
 90
    33792
280
     0
281
     0
  0
CLASS
  1
ACMFCFSTANDARDDIN
  2
AcmFCFStdDIN
  3
"Amdt_StdImp|Product Description: AutoCAD Mechanical|Company: Autodesk, Inc."
 90
     1024
280
     0
281
     0
  0
CLASS
  1
ACMWELDSTANDARDDIN
  2
AcmWeldingStdDIN
  3
"Amdt_StdImp|Product Description: AutoCAD Mechanical|Company: Autodesk, Inc."
 90
     1024
280
     0
281
     0
  0
CLASS
  1
ACMIDSTANDARDDIN
  2
AcmIdStdDIN
  3
"Amdt_StdImp|Product Description: AutoCAD Mechanical|Company: Autodesk, Inc."
 90
     1024
280
     0
281
     0
  0
CLASS
  1
ACMDATUMSTANDARDDIN
  2
AcmDatumStdDIN
  3
"Amdt_StdImp|Product Description: AutoCAD Mechanical|Company: Autodesk, Inc."
 90
     1024
280
     0
281
     0
  0
CLASS
  1
ACMBOMSTANDARDDIN
  2
AcmBOMStdDIN
  3
"Amdt_StdImp|Product Description: AutoCAD Mechanical|Company: Autodesk, Inc."
 90
     1024
280
     0
281
     0
  0
CLASS
  1
ACMDETAILSTANDARDDIN
  2
AmdtDetailSymStdDIN
  3
"Amdt_StdImp|Product Description: AutoCAD Mechanical|Company: Autodesk, Inc."
 90
     1024
280
     0
281
     0
  0
CLASS
  1
ACMSECTIONSTANDARDDIN
  2
AmdtSectionSymStdDIN
  3
"Amdt_StdImp|Product Description: AutoCAD Mechanical|Company: Autodesk, Inc."
 90
     1024
280
     0
281
     0
  0
CLASS
  1
ACMCENTERLINESTANDARDDIN
  2
AmdtCenterLineStdDIN
  3
"Amdt_StdImp|Product Description: AutoCAD Mechanical|Company: Autodesk, Inc."
 90
     1024
280
     0
281
     0
  0
CLASS
  1
ACMTHREADLINESTANDARDDIN
  2
AmdtThreadLineStdDIN
  3
"Amdt_StdImp|Product Description: AutoCAD Mechanical|Company: Autodesk, Inc."
 90
     1024
280
     0
281
     0
  0
CLASS
  1
ACMNOTESTANDARDDIN
  2
AmdtNoteStdDIN
  3
"Amdt_StdImp|Product Description: AutoCAD Mechanical|Company: Autodesk, Inc."
 90
     1024
280
     0
281
     0
  0
CLASS
  1
ACAMGHOLECHARTSTDDIN
  2
AcAmgHoleChartStdDIN
  3
AmgDim|Product Description: AutoCAD Mechanical|Company: Autodesk, Inc.
 90
     1024
280
     0
281
     0
  0
CLASS
  1
MATERIAL
  2
AcDbMaterial
  3
ObjectDBX Classes
 90
     1153
280
     0
281
     0
  0
CLASS
  1
VISUALSTYLE
  2
AcDbVisualStyle
  3
ObjectDBX Classes
 90
     4095
280
     0
281
     0
  0
CLASS
  1
SCALE
  2
AcDbScale
  3
ObjectDBX Classes
 90
     1153
280
     0
281
     0
  0
CLASS
  1
MLEADERSTYLE
  2
AcDbMLeaderStyle
  3
ACDB_MLEADERSTYLE_CLASS
 90
     4095
280
     0
281
     0
  0
CLASS
  1
ACRFATTGENMGR
  2
AcRfAttGeneralMgr
  3
AcAttribServices
 90
    33792
280
     0
281
     0
  0
CLASS
  1
ACRFOBJATTMGR
  2
AcRfObjAttGroupMgr
  3
AcAttribServices
 90
    33792
280
     0
281
     0
  0
CLASS
  1
ACRFMCADAPIATTHOLDER
  2
AcRfMCADAPIAttHolder
  3
AcAttribServices
 90
    33792
280
     0
281
     0
  0
CLASS
  1
AMDTSYSATTR
  2
AmdtSystemAttribute
  3
AcAttribServices
 90
    33792
280
     0
281
     0
  0
CLASS
  1
ACMTAPERSTANDARDISO
  2
AcmTaperStdISO
  3
"Amdt_StdImp|Product Description: AutoCAD Mechanical|Company: Autodesk, Inc."
 90
    33792
280
     0
281
     0
  0
CLASS
  1
ACMANOOTATIONVIEWSTANDARDISO
  2
AmdtAnViewStdISO
  3
"Amdt_StdImp|Product Description: AutoCAD Mechanical|Company: Autodesk, Inc."
 90
    33792
280
     0
281
     0
  0
CLASS
  1
ACMTAPERSTANDARDDIN
  2
AcmTaperStdDIN
  3
"Amdt_StdImp|Product Description: AutoCAD Mechanical|Company: Autodesk, Inc."
 90
     1024
280
     0
281
     0
  0
CLASS
  1
ACMANOOTATIONVIEWSTANDARDDIN
  2
AmdtAnViewStdDIN
  3
"Amdt_StdImp|Product Description: AutoCAD Mechanical|Company: Autodesk, Inc."
 90
     1024
280
     0
281
     0
  0
CLASS
  1
EXACXREFPANELOBJECT
  2
ExAcXREFPanelObject
  3
EXAC_ESW
 90
     1025
280
     0
281
     0
  0
CLASS
  1
NPOCOLLECTION
  2
AcDbImpNonPersistentObjectsCollection
  3
ObjectDBX Classes
 90
     1153
280
     0
281
     0
  0
CLASS
  1
CAMSSTRUCTBTNSTATE
  2
StructBtnState
  3
DesignerAssemblies
 90
    33792
280
     0
281
     0
  0
CLASS
  1
CELLSTYLEMAP
  2
AcDbCellStyleMap
  3
ObjectDBX Classes
 90
     1152
280
     0
281
     0
  0
CLASS
  1
AEC_REFEDIT_STATUS_TRACKER
  2
AecDbRefEditStatusTracker
  3
AecArchBase50|Product Desc: Autodesk Architectural Desktop 2007 |Company: Autodesk,Inc. |WEB Address: www.autodesk.com
 90
      129
280
     0
281
     0
  0
CLASS
  1
IMAGE
  2
AcDbRasterImage
  3
ISM
 90
    34943
280
     0
281
     1
  0
CLASS
  1
IMAGEDEF_REACTOR
  2
AcDbRasterImageDefReactor
  3
ISM
 90
    32769
280
     0
281
     0
  0
CLASS
  1
IMAGEDEF
  2
AcDbRasterImageDef
  3
ISM
 90
    32768
280
     0
281
     0
  0
CLASS
  1
RASTERVARIABLES
  2
AcDbRasterVariables
  3
ISM
 90
    32768
280
     0
281
     0
  0
CLASS
  1
DIMASSOC
  2
AcDbDimAssoc
  3
"AcDbDimAssoc|Product Desc:     AcDim ARX App For Dimension|Company:          Autodesk, Inc.|WEB Address:      www.autodesk.com"
 90
        0
280
     0
281
     0
  0
CLASS
  1
SORTENTSTABLE
  2
AcDbSortentsTable
  3
ObjectDBX Classes
 90
        0
280
     0
281
     0
  0
CLASS
  1
ACMSURFSTANDARDDIN2002
  2
AcmSurfTextStdDIN2002
  3
"Amdt_StdImp|Product Description: AutoCAD Mechanical|Company: Autodesk, Inc."
 90
     1024
280
     0
281
     0
  0
ENDSEC
  0
SECTION
  2
TABLES
  0
TABLE
  2
VPORT
  5
8
330
0
100
AcDbSymbolTable
 70
     1
  0
VPORT
  5
3B2
330
8
100
AcDbSymbolTableRecord
100
AcDbViewportTableRecord
  2
*Active
 70
     0
 10
0.0
 20
0.0
 11
1.0
 21
1.0
 12
623.4211445519199
 22
369.665101043767
 13
0.0
 23
0.0
 14
2.5
 24
2.5
 15
10.0
 25
10.0
 16
0.0
 26
0.0
 36
1.0
 17
0.0
 27
0.0
 37
0.0
 40
744.6839198475596
 41
1.803695150115473
 42
50.0
 43
0.0
 44
0.0
 50
0.0
 51
0.0
 71
     0
 72
   100
 73
     1
 74
     3
 75
     0
 76
     0
 77
     0
 78
     0
281
     0
 65
     0
110
0.0
120
0.0
130
0.0
111
1.0
121
0.0
131
0.0
112
0.0
122
1.0
132
0.0
 79
     0
146
0.0
  0
ENDTAB
  0
TABLE
  2
LTYPE
  5
5
330
0
100
AcDbSymbolTable
 70
    24
  0
LTYPE
  5
14
330
5
100
AcDbSymbolTableRecord
100
AcDbLinetypeTableRecord
  2
ByBlock
 70
     0
  3

 72
    65
 73
     0
 40
0.0
  0
LTYPE
  5
15
330
5
100
AcDbSymbolTableRecord
100
AcDbLinetypeTableRecord
  2
ByLayer
 70
     0
  3

 72
    65
 73
     0
 40
0.0
  0
LTYPE
  5
16
330
5
100
AcDbSymbolTableRecord
100
AcDbLinetypeTableRecord
  2
Continuous
 70
     0
  3
Solid line
 72
    65
 73
     0
 40
0.0
  0
LTYPE
  5
64
330
5
100
AcDbSymbolTableRecord
100
AcDbLinetypeTableRecord
  2
AM_ISO02W050
 70
     0
  3
__ __ __ __ __ __ __ __ __ __ __ __ __ __ __
 72
    65
 73
     2
 40
7.5
 49
6.0
 74
     0
 49
-1.5
 74
     0
  0
LTYPE
  5
65
330
5
100
AcDbSymbolTableRecord
100
AcDbLinetypeTableRecord
  2
AM_ISO08W050
 70
     0
  3
____ . ____ . ____ . ____ . ____ . ____ . ____
 72
    65
 73
     4
 40
18.0
 49
12.0
 74
     0
 49
-1.5
 74
     0
 49
3.0
 74
     0
 49
-1.5
 74
     0
  0
LTYPE
  5
66
330
5
100
AcDbSymbolTableRecord
100
AcDbLinetypeTableRecord
  2
AM_ISO09W050
 70
     0
  3
_____ . . _____ . . _____ . . ____ .. ____
 72
    65
 73
     6
 40
22.5
 49
12.0
 74
     0
 49
-1.5
 74
     0
 49
3.0
 74
     0
 49
-1.5
 74
     0
 49
3.0
 74
     0
 49
-1.5
 74
     0
  0
LTYPE
  5
67
330
5
100
AcDbSymbolTableRecord
100
AcDbLinetypeTableRecord
  2
Amconstr
 70
     0
  3
_______________________
 72
    65
 73
     2
 40
9999.0
 49
9999.0
 74
     0
 49
0.0
 74
     0
  0
LTYPE
  5
68
330
5
100
AcDbSymbolTableRecord
100
AcDbLinetypeTableRecord
  2
AM_ISO08W050x2
 70
     0
  3
__ . __ . __ . __ . __ . __
 72
    65
 73
     4
 40
9.0
 49
6.0
 74
     0
 49
-0.75
 74
     0
 49
1.5
 74
     0
 49
-0.75
 74
     0
  0
LTYPE
  5
69
330
5
100
AcDbSymbolTableRecord
100
AcDbLinetypeTableRecord
  2
AM_ISO02W050x2
 70
     0
  3
 _ _ _ _ _ _ _ _ _ _ _ _
 72
    65
 73
     2
 40
3.75
 49
3.0
 74
     0
 49
-0.75
 74
     0
  0
LTYPE
  5
6C
330
5
100
AcDbSymbolTableRecord
100
AcDbLinetypeTableRecord
  2
Amzigzag
 70
     0
  3
/\/-/\/-/\/-/\/-/\/-/\/
 72
    65
 73
     2
 40
11.0001
 49
0.0001
 74
     4
 75
   136
340
22C
 46
0.04
 50
0.0
 44
0.0
 45
0.0
 49
-11.0
 74
     0
  0
LTYPE
  5
7A
330
5
100
AcDbSymbolTableRecord
100
AcDbLinetypeTableRecord
  2
ACISOWELD
 70
     0
  3
_ _ _ _ _
 72
    65
 73
     2
 40
2.0
 49
2.0
 74
     0
 49
-1.0
 74
     0
  0
LTYPE
  5
7B
330
5
100
AcDbSymbolTableRecord
100
AcDbLinetypeTableRecord
  2
ACISOTGB
 70
     0
  3
__ . . __ . .
 72
    65
 73
     6
 40
9.0
 49
4.0
 74
     0
 49
-1.0
 74
     0
 49
1.0
 74
     0
 49
-1.0
 74
     0
 49
1.0
 74
     0
 49
-1.0
 74
     0
  0
LTYPE
  5
7C
330
5
100
AcDbSymbolTableRecord
100
AcDbLinetypeTableRecord
  2
ACISOTGL
 70
     0
  3
_ _ _ _ _
 72
    65
 73
     2
 40
3.0
 49
2.0
 74
     0
 49
-1.0
 74
     0
  0
LTYPE
  5
7E
330
5
100
AcDbSymbolTableRecord
100
AcDbLinetypeTableRecord
  2
CENTER
 70
     0
  3
__ . __
 72
    65
 73
     4
 40
7.0
 49
4.0
 74
     0
 49
-1.0
 74
     0
 49
1.0
 74
     0
 49
-1.0
 74
     0
  0
LTYPE
  5
D8
330
5
100
AcDbSymbolTableRecord
100
AcDbLinetypeTableRecord
  2
HIDDEN
 70
     0
  3
Hidden __ __ __ __ __ __ __ __ __ __ __ __ __ _
 72
    65
 73
     2
 40
9.524999999999996
 49
6.349999999999997
 74
     0
 49
-3.174999999999998
 74
     0
  0
LTYPE
  5
D9
330
5
100
AcDbSymbolTableRecord
100
AcDbLinetypeTableRecord
  2
PHANTOM2
 70
     0
  3
Phantom (.5x) ___ _ _ ___ _ _ ___ _ _ ___ _ _
 72
    65
 73
     6
 40
31.75
 49
15.875
 74
     0
 49
-3.174999999999998
 74
     0
 49
3.174999999999998
 74
     0
 49
-3.174999999999998
 74
     0
 49
3.174999999999998
 74
     0
 49
-3.174999999999998
 74
     0
  0
LTYPE
  5
2E5
330
5
100
AcDbSymbolTableRecord
100
AcDbLinetypeTableRecord
  2
ACDINWELD
 70
     0
  3
_ _ _ _ _
 72
    65
 73
     2
 40
2.0
 49
2.0
 74
     0
 49
-1.0
 74
     0
  0
LTYPE
  5
2E6
330
5
100
AcDbSymbolTableRecord
100
AcDbLinetypeTableRecord
  2
ACDINTGB
 70
     0
  3
__ . . __ . .
 72
    65
 73
     6
 40
9.0
 49
4.0
 74
     0
 49
-1.0
 74
     0
 49
1.0
 74
     0
 49
-1.0
 74
     0
 49
1.0
 74
     0
 49
-1.0
 74
     0
  0
LTYPE
  5
2E7
330
5
100
AcDbSymbolTableRecord
100
AcDbLinetypeTableRecord
  2
ACDINTGL
 70
     0
  3
_ _ _ _ _
 72
    65
 73
     2
 40
3.0
 49
2.0
 74
     0
 49
-1.0
 74
     0
  0
LTYPE
  5
321
330
5
100
AcDbSymbolTableRecord
100
AcDbLinetypeTableRecord
  2
AM_DIN_F_W050
 70
     0
  3
__ __ __ __ __ __ __ __ __ __ __ __ __ __ __
 72
    65
 73
     2
 40
6.25
 49
4.75
 74
     0
 49
-1.5
 74
     0
  0
LTYPE
  5
322
330
5
100
AcDbSymbolTableRecord
100
AcDbLinetypeTableRecord
  2
AM_DIN_G_W050
 70
     0
  3
____ . ____ . ____ . ____ . ____ . ____ . ____
 72
    65
 73
     4
 40
13.75
 49
9.75
 74
     0
 49
-1.5
 74
     0
 49
1.0
 74
     0
 49
-1.5
 74
     0
  0
LTYPE
  5
323
330
5
100
AcDbSymbolTableRecord
100
AcDbLinetypeTableRecord
  2
AM_DIN_K_W050
 70
     0
  3
_____ . . _____ . . _____ . . ____ .. ____
 72
    65
 73
     6
 40
16.25
 49
9.75
 74
     0
 49
-1.5
 74
     0
 49
1.0
 74
     0
 49
-1.5
 74
     0
 49
1.0
 74
     0
 49
-1.5
 74
     0
  0
LTYPE
  5
324
330
5
100
AcDbSymbolTableRecord
100
AcDbLinetypeTableRecord
  2
AM_DIN_G_W050x2
 70
     0
  3
__ . __ . __ . __ . __ . __
 72
    65
 73
     4
 40
6.875
 49
4.75
 74
     0
 49
-0.875
 74
     0
 49
0.375
 74
     0
 49
-0.875
 74
     0
  0
LTYPE
  5
325
330
5
100
AcDbSymbolTableRecord
100
AcDbLinetypeTableRecord
  2
AM_DIN_F_W050x2
 70
     0
  3
 _ _ _ _ _ _ _ _ _ _ _ _
 72
    65
 73
     2
 40
3.125
 49
2.25
 74
     0
 49
-0.875
 74
     0
  0
LTYPE
  5
659
330
5
100
AcDbSymbolTableRecord
100
AcDbLinetypeTableRecord
  2
GEN7A
 70
     0
  3
__ . __ . __
 72
    65
 73
     4
 40
6.875
 49
5.0
 74
     0
 49
-0.625
 74
     0
 49
0.625
 74
     0
 49
-0.625
 74
     0
  0
ENDTAB
  0
TABLE
  2
LAYER
  5
2
102
{ACAD_XDICTIONARY
360
673
102
}
330
0
100
AcDbSymbolTable
 70
    10
  0
LAYER
  5
10
102
{ACAD_XDICTIONARY
360
7A9
102
}
330
2
100
AcDbSymbolTableRecord
100
AcDbLayerTableRecord
  2
0
 70
     0
 62
     7
  6
Continuous
370
    -3
390
F
  0
LAYER
  5
65A
102
{ACAD_XDICTIONARY
360
65B
102
}
330
2
100
AcDbSymbolTableRecord
100
AcDbLayerTableRecord
  2
7A
 70
     0
 62
     4
  6
GEN7A
370
    -3
390
F
  0
LAYER
  5
65C
102
{ACAD_XDICTIONARY
360
65D
102
}
330
2
100
AcDbSymbolTableRecord
100
AcDbLayerTableRecord
  2
5
 70
     0
 62
     3
  6
Continuous
370
    -3
390
F
  0
LAYER
  5
65E
330
2
100
AcDbSymbolTableRecord
100
AcDbLayerTableRecord
  2
DEFPOINTS
 70
     0
 62
     7
  6
Continuous
290
     0
370
    -3
390
F
  0
LAYER
  5
65F
102
{ACAD_XDICTIONARY
360
660
102
}
330
2
100
AcDbSymbolTableRecord
100
AcDbLayerTableRecord
  2
KLIN
 70
     0
 62
     1
  6
Continuous
370
    -3
390
F
  0
LAYER
  5
661
102
{ACAD_XDICTIONARY
360
662
102
}
330
2
100
AcDbSymbolTableRecord
100
AcDbLayerTableRecord
  2
RUNDUNGEN
 70
     0
 62
     7
  6
Continuous
370
    -3
390
F
  0
LAYER
  5
663
102
{ACAD_XDICTIONARY
360
664
102
}
330
2
100
AcDbSymbolTableRecord
100
AcDbLayerTableRecord
  2
AM_5
 70
     0
 62
     3
  6
Continuous
370
    25
390
F
1001
AcAecLayerStandard
1000

1000

  0
LAYER
  5
665
102
{ACAD_XDICTIONARY
360
666
102
}
330
2
100
AcDbSymbolTableRecord
100
AcDbLayerTableRecord
  2
AM_7
 70
     0
 62
     4
  6
AM_ISO08W050
370
    25
390
F
1001
AcAecLayerStandard
1000

1000

  0
LAYER
  5
7A2
102
{ACAD_XDICTIONARY
360
7B1
102
}
330
2
100
AcDbSymbolTableRecord
100
AcDbLayerTableRecord
  2
AM_CL
 70
     0
 62
     1
  6
Amconstr
370
    25
390
F
1001
AcAecLayerStandard
1000

1000

  0
LAYER
  5
8EA
102
{ACAD_XDICTIONARY
360
8EB
102
}
330
2
100
AcDbSymbolTableRecord
100
AcDbLayerTableRecord
  2
BEZUGSACHSEN
 70
     0
 62
     7
  6
Continuous
370
    -3
390
F
  0
ENDTAB
  0
TABLE
  2
STYLE
  5
3
330
0
100
AcDbSymbolTable
 70
    10
  0
STYLE
  5
11
330
3
100
AcDbSymbolTableRecord
100
AcDbTextStyleTableRecord
  2
STANDARD
 70
     0
 40
0.0
 41
1.0
 50
0.0
 71
     0
 42
2.5
  3
ISOCP.SHX
  4

  0
STYLE
  5
6B
330
3
100
AcDbSymbolTableRecord
100
AcDbTextStyleTableRecord
  2

 70
     1
 40
0.0
 41
1.0
 50
0.0
 71
     0
 42
2.5
  3
ltypeshp.shx
  4

  0
STYLE
  5
6D
330
3
100
AcDbSymbolTableRecord
100
AcDbTextStyleTableRecord
  2
ACISOTS
 70
     0
 40
1.0
 41
1.0
 50
0.0
 71
     0
 42
2.5
  3
isocp.shx
  4
bigfont.shx
  0
STYLE
  5
79
330
3
100
AcDbSymbolTableRecord
100
AcDbTextStyleTableRecord
  2
ACISOGDT
 70
     0
 40
0.0
 41
1.0
 50
0.0
 71
     0
 42
2.5
  3
AMGDT
  4
bigfont.shx
  0
STYLE
  5
1ED
330
3
100
AcDbSymbolTableRecord
100
AcDbTextStyleTableRecord
  2
USER1
 70
     0
 40
0.0
 41
1.0
 50
0.0
 71
     0
 42
2.5
  3
TXT.SHX
  4
bigfont.shx
  0
STYLE
  5
1EE
330
3
100
AcDbSymbolTableRecord
100
AcDbTextStyleTableRecord
  2
USER2
 70
     0
 40
0.0
 41
1.0
 50
0.0
 71
     0
 42
2.5
  3
SIMPLEX.SHX
  4
bigfont.shx
  0
STYLE
  5
1EF
330
3
100
AcDbSymbolTableRecord
100
AcDbTextStyleTableRecord
  2
USER3
 70
     0
 40
0.0
 41
1.0
 50
0.0
 71
     0
 42
2.5
  3
ITALIC.SHX
  4
bigfont.shx
  0
STYLE
  5
22C
330
3
100
AcDbSymbolTableRecord
100
AcDbTextStyleTableRecord
  2

 70
     1
 40
0.0
 41
1.0
 50
0.0
 71
     0
 42
2.5
  3
genltshp.shx
  4

  0
STYLE
  5
2D7
330
3
100
AcDbSymbolTableRecord
100
AcDbTextStyleTableRecord
  2
ACDINTS
 70
     0
 40
1.0
 41
1.0
 50
0.0
 71
     0
 42
2.5
  3
isocp.shx
  4

  0
STYLE
  5
2E4
330
3
100
AcDbSymbolTableRecord
100
AcDbTextStyleTableRecord
  2
ACDINGDT
 70
     0
 40
0.0
 41
1.0
 50
0.0
 71
     0
 42
2.5
  3
amgdt.shx
  4

  0
ENDTAB
  0
TABLE
  2
VIEW
  5
6
330
0
100
AcDbSymbolTable
 70
     0
  0
ENDTAB
  0
TABLE
  2
UCS
  5
7
330
0
100
AcDbSymbolTable
 70
     0
  0
ENDTAB
  0
TABLE
  2
APPID
  5
9
330
0
100
AcDbSymbolTable
 70
    26
  0
APPID
  5
12
330
9
100
AcDbSymbolTableRecord
100
AcDbRegAppTableRecord
  2
ACAD
 70
     0
  0
APPID
  5
46
330
9
100
AcDbSymbolTableRecord
100
AcDbRegAppTableRecord
  2
MCAD_NO_VIS
 70
     0
  0
APPID
  5
47
330
9
100
AcDbSymbolTableRecord
100
AcDbRegAppTableRecord
  2
ACAD_TEMP_GRAPHIC
 70
     0
  0
APPID
  5
58
330
9
100
AcDbSymbolTableRecord
100
AcDbRegAppTableRecord
  2
ACATTRIBSERVICES
 70
     0
  0
APPID
  5
EE
330
9
100
AcDbSymbolTableRecord
100
AcDbRegAppTableRecord
  2
AD_DRAW
 70
     0
  0
APPID
  5
10C
330
9
100
AcDbSymbolTableRecord
100
AcDbRegAppTableRecord
  2
DESIGNERASSEMBLIES
 70
     0
  0
APPID
  5
111
330
9
100
AcDbSymbolTableRecord
100
AcDbRegAppTableRecord
  2
ACADM_DIM_EDIT
 70
     0
  0
APPID
  5
112
330
9
100
AcDbSymbolTableRecord
100
AcDbRegAppTableRecord
  2
AMDT_DM_ADJ
 70
     0
  0
APPID
  5
1A3
330
9
100
AcDbSymbolTableRecord
100
AcDbRegAppTableRecord
  2
ACAD_DSTYLE_DIMARC_LENGTH_SYMBOL
 70
     0
  0
APPID
  5
1A4
330
9
100
AcDbSymbolTableRecord
100
AcDbRegAppTableRecord
  2
ACAD_DSTYLE_DIMJOGGED_JOGANGLE_SYMBOL
 70
     0
  0
APPID
  5
3F1
330
9
100
AcDbSymbolTableRecord
100
AcDbRegAppTableRecord
  2
ACAD_MLEADERVER
 70
     0
  0
APPID
  5
669
330
9
100
AcDbSymbolTableRecord
100
AcDbRegAppTableRecord
  2
GENIUS_GENOENT_13
 70
     0
  0
APPID
  5
66A
330
9
100
AcDbSymbolTableRecord
100
AcDbRegAppTableRecord
  2
GENIUS_GENODEF_13
 70
     0
  0
APPID
  5
66B
330
9
100
AcDbSymbolTableRecord
100
AcDbRegAppTableRecord
  2
GENIUS_GENOLIS_13
 70
     0
  0
APPID
  5
66C
330
9
100
AcDbSymbolTableRecord
100
AcDbRegAppTableRecord
  2
GENIUS_GENOREF_13
 70
     0
  0
APPID
  5
66D
330
9
100
AcDbSymbolTableRecord
100
AcDbRegAppTableRecord
  2
GENIUS_GENOBJ-N-CRS_13
 70
     0
  0
APPID
  5
66E
330
9
100
AcDbSymbolTableRecord
100
AcDbRegAppTableRecord
  2
GENIUS_GENOBJ-N-CEN_13
 70
     0
  0
APPID
  5
66F
330
9
100
AcDbSymbolTableRecord
100
AcDbRegAppTableRecord
  2
ACAD_PSEXT
 70
     0
  0
APPID
  5
670
330
9
100
AcDbSymbolTableRecord
100
AcDbRegAppTableRecord
  2
AcAecLayerStandard
 70
     0
  0
APPID
  5
671
330
9
100
AcDbSymbolTableRecord
100
AcDbRegAppTableRecord
  2
ACAD_DSTYLE_DIMINSPECT
 70
     0
  0
APPID
  5
672
330
9
100
AcDbSymbolTableRecord
100
AcDbRegAppTableRecord
  2
GENIUS_GENCEN_19
 70
     0
  0
APPID
  5
7D4
330
9
100
AcDbSymbolTableRecord
100
AcDbRegAppTableRecord
  2
ACAD_DSTYLE_DIM_LINETYPE
 70
     0
  0
APPID
  5
7D5
330
9
100
AcDbSymbolTableRecord
100
AcDbRegAppTableRecord
  2
ACAD_DSTYLE_DIM_EXT1_LINETYPE
 70
     0
  0
APPID
  5
7D6
330
9
100
AcDbSymbolTableRecord
100
AcDbRegAppTableRecord
  2
ACAD_DSTYLE_DIM_EXT2_LINETYPE
 70
     0
  0
APPID
  5
8DA
330
9
100
AcDbSymbolTableRecord
100
AcDbRegAppTableRecord
  2
ACAD_EXEMPT_FROM_CAD_STANDARDS
 70
     0
  0
APPID
  5
C98
330
9
100
AcDbSymbolTableRecord
100
AcDbRegAppTableRecord
  2
DCO15
 70
     0
  0
ENDTAB
  0
TABLE
  2
DIMSTYLE
  5
A
330
0
100
AcDbSymbolTable
 70
    18
100
AcDbDimStyleTable
 71
     2
340
2F0
340
81
  0
DIMSTYLE
105
27
330
A
100
AcDbSymbolTableRecord
100
AcDbDimStyleTableRecord
  2
ISO-25
 70
     0
 41
2.5
 42
0.625
 43
3.75
 44
1.25
 73
     0
 74
     0
 77
     1
 78
     8
140
2.5
141
2.5
143
0.03937007874016
147
0.625
171
     3
172
     1
271
     2
272
     2
274
     3
278
    44
283
     0
284
     8
340
11
  0
DIMSTYLE
105
81
330
A
100
AcDbSymbolTableRecord
100
AcDbDimStyleTableRecord
  2
AM_ISO
 70
     0
  4
"
 41
2.5
 42
1.0
 43
10.0
 44
1.0
 47
0.1
 48
0.1
 73
     0
 74
     0
 77
     1
 78
     8
 79
     2
140
3.5
141
0.0
143
0.0393701
146
0.71
147
1.5
172
     1
176
   256
177
   256
178
     2
271
     2
272
     3
274
     4
283
     0
284
     8
340
11
371
    -1
372
    -1
1001
ACAD_DSTYLE_DIMJOGGED_JOGANGLE_SYMBOL
1070
   384
1040
0.7853981633974483
1001
ACAD_DSTYLE_DIMARC_LENGTH_SYMBOL
1070
   379
1070
     1
  0
DIMSTYLE
105
82
330
A
100
AcDbSymbolTableRecord
100
AcDbDimStyleTableRecord
  2
AM_ISO$3
 70
     0
  4
"
 41
2.5
 42
1.0
 43
10.0
 44
1.0
 47
0.1
 48
0.1
 73
     0
 77
     1
 78
     8
 79
     2
140
3.5
141
0.0
143
0.0393701
146
0.71
147
1.5
176
   256
177
   256
178
     2
271
     2
272
     3
274
     4
283
     0
284
     8
288
     1
289
     0
340
11
371
    -1
372
    -1
1001
ACAD_DSTYLE_DIMJOGGED_JOGANGLE_SYMBOL
1070
   384
1040
0.7853981633974483
1001
ACAD_DSTYLE_DIMARC_LENGTH_SYMBOL
1070
   379
1070
     1
  0
DIMSTYLE
105
83
330
A
100
AcDbSymbolTableRecord
100
AcDbDimStyleTableRecord
  2
AM_ISO$4
 70
     0
  4
"
 41
2.5
 42
1.0
 43
10.0
 44
1.0
 47
0.1
 48
0.1
 73
     0
 77
     1
 78
     8
 79
     2
140
3.5
141
0.0
143
0.0393701
146
0.71
147
1.5
176
   256
177
   256
178
     2
271
     2
272
     3
274
     4
283
     0
284
     8
288
     1
289
     0
340
11
371
    -1
372
    -1
1001
ACAD_DSTYLE_DIMJOGGED_JOGANGLE_SYMBOL
1070
   384
1040
0.7853981633974483
1001
ACAD_DSTYLE_DIMARC_LENGTH_SYMBOL
1070
   379
1070
     1
  0
DIMSTYLE
105
84
330
A
100
AcDbSymbolTableRecord
100
AcDbDimStyleTableRecord
  2
AM_ISO$6
 70
     0
  4
"
 41
2.5
 42
1.0
 43
10.0
 44
1.0
 47
0.1
 48
0.1
 73
     0
 74
     0
 78
     8
 79
     2
140
3.5
141
0.0
143
0.0393701
146
0.71
147
1.5
172
     1
176
   256
177
   256
178
     2
271
     2
272
     3
274
     4
283
     0
284
     8
340
11
371
    -1
372
    -1
1001
ACAD_DSTYLE_DIMJOGGED_JOGANGLE_SYMBOL
1070
   384
1040
0.7853981633974483
1001
ACAD_DSTYLE_DIMARC_LENGTH_SYMBOL
1070
   379
1070
     1
  0
DIMSTYLE
105
85
330
A
100
AcDbSymbolTableRecord
100
AcDbDimStyleTableRecord
  2
AM_ISO$7
 70
     0
  4
"
 41
2.5
 42
1.0
 43
10.0
 44
1.0
 47
0.1
 48
0.1
 73
     0
 74
     0
 77
     1
 78
     8
 79
     2
140
5.0
141
0.0
143
0.0393701
146
0.71
147
1.5
172
     1
176
   256
177
   256
178
     2
271
     2
272
     3
274
     4
283
     0
284
     8
340
11
371
    -1
372
    -1
1001
ACAD_DSTYLE_DIMJOGGED_JOGANGLE_SYMBOL
1070
   384
1040
0.7853981633974483
1001
ACAD_DSTYLE_DIMARC_LENGTH_SYMBOL
1070
   379
1070
     1
  0
DIMSTYLE
105
86
330
A
100
AcDbSymbolTableRecord
100
AcDbDimStyleTableRecord
  2
AM_ISO$SF
 70
     0
  4
"
 41
2.5
 42
1.0
 43
10.0
 44
1.0
 47
0.1
 48
0.1
 73
     0
 74
     0
 75
     1
 76
     1
 77
     1
 78
     8
 79
     2
140
3.5
141
0.0
143
0.0393701
146
0.71
147
1.5
172
     1
176
   256
177
   256
178
     2
271
     2
272
     3
274
     4
283
     0
284
     8
340
11
371
    -1
372
    -1
1001
ACAD_DSTYLE_DIMJOGGED_JOGANGLE_SYMBOL
1070
   384
1040
0.7853981633974483
1001
ACAD_DSTYLE_DIMARC_LENGTH_SYMBOL
1070
   379
1070
     1
  0
DIMSTYLE
105
8B
330
A
100
AcDbSymbolTableRecord
100
AcDbDimStyleTableRecord
  2
AM_ISO$SH
 70
     0
  4
"
 41
2.5
 42
1.0
 43
10.0
 44
1.0
 47
0.1
 48
0.1
 73
     0
 74
     0
 75
     1
 76
     1
 77
     1
 78
     8
 79
     2
140
3.5
141
0.0
143
0.0393701
144
2.0
146
0.71
147
1.5
172
     1
173
     1
176
   256
177
   256
178
     2
271
     2
272
     3
274
     4
283
     0
284
     8
340
11
343
87
371
    -1
372
    -1
1001
ACAD_DSTYLE_DIMJOGGED_JOGANGLE_SYMBOL
1070
   384
1040
0.7853981633974483
1001
ACAD_DSTYLE_DIMARC_LENGTH_SYMBOL
1070
   379
1070
     1
  0
DIMSTYLE
105
2F0
330
A
100
AcDbSymbolTableRecord
100
AcDbDimStyleTableRecord
  2
AM_DIN
 70
     0
  4
"
 41
3.5
 42
1.0
 43
10.0
 44
1.0
 47
0.1
 48
0.1
 73
     0
 74
     0
 77
     1
 78
     8
 79
     2
140
3.5
141
0.0
143
0.0393701
146
0.71
147
1.5
172
     1
176
   256
177
   256
178
     2
271
     2
272
     3
274
     4
283
     0
284
     8
340
11
371
    -1
372
    -1
1001
ACAD_DSTYLE_DIMJOGGED_JOGANGLE_SYMBOL
1070
   384
1040
1.570796326794896
1001
ACAD_DSTYLE_DIM_LINETYPE
1070
   380
1005
14
1001
ACAD_DSTYLE_DIM_EXT1_LINETYPE
1070
   381
1005
14
1001
ACAD_DSTYLE_DIM_EXT2_LINETYPE
1070
   382
1005
14
  0
DIMSTYLE
105
301
330
A
100
AcDbSymbolTableRecord
100
AcDbDimStyleTableRecord
  2
AM_DIN$3
 70
     0
  4
"
 41
3.5
 42
1.0
 43
10.0
 44
1.0
 47
0.1
 48
0.1
 73
     0
 77
     1
 78
     8
 79
     2
140
3.5
141
0.0
143
0.0393701
146
0.71
147
1.5
176
   256
177
   256
178
     2
271
     2
272
     3
274
     4
283
     0
284
     8
288
     1
289
     0
340
11
371
    -1
372
    -1
1001
ACAD_DSTYLE_DIMJOGGED_JOGANGLE_SYMBOL
1070
   384
1040
1.570796326794896
1001
ACAD_DSTYLE_DIM_LINETYPE
1070
   380
1005
14
1001
ACAD_DSTYLE_DIM_EXT1_LINETYPE
1070
   381
1005
14
1001
ACAD_DSTYLE_DIM_EXT2_LINETYPE
1070
   382
1005
14
  0
DIMSTYLE
105
306
330
A
100
AcDbSymbolTableRecord
100
AcDbDimStyleTableRecord
  2
AM_DIN$4
 70
     0
  4
"
 41
3.5
 42
1.0
 43
10.0
 44
1.0
 47
0.1
 48
0.1
 73
     0
 74
     0
 77
     1
 78
     8
 79
     2
140
3.5
141
0.0
143
0.0393701
146
0.71
147
1.5
172
     1
176
   256
177
   256
178
     2
271
     2
272
     3
274
     4
283
     0
284
     8
340
11
371
    -1
372
    -1
1001
ACAD_DSTYLE_DIMJOGGED_JOGANGLE_SYMBOL
1070
   384
1040
1.570796326794896
1001
ACAD_DSTYLE_DIM_LINETYPE
1070
   380
1005
14
1001
ACAD_DSTYLE_DIM_EXT1_LINETYPE
1070
   381
1005
14
1001
ACAD_DSTYLE_DIM_EXT2_LINETYPE
1070
   382
1005
14
  0
DIMSTYLE
105
30B
330
A
100
AcDbSymbolTableRecord
100
AcDbDimStyleTableRecord
  2
AM_DIN$6
 70
     0
  4
"
 41
3.5
 42
1.0
 43
10.0
 44
1.0
 47
0.1
 48
0.1
 73
     0
 74
     0
 78
     8
 79
     2
140
3.5
141
0.0
143
0.0393701
146
0.71
147
1.5
172
     1
176
   256
177
   256
178
     2
271
     2
272
     3
274
     4
283
     0
284
     8
340
11
371
    -1
372
    -1
1001
ACAD_DSTYLE_DIMJOGGED_JOGANGLE_SYMBOL
1070
   384
1040
1.570796326794896
1001
ACAD_DSTYLE_DIM_LINETYPE
1070
   380
1005
14
1001
ACAD_DSTYLE_DIM_EXT1_LINETYPE
1070
   381
1005
14
1001
ACAD_DSTYLE_DIM_EXT2_LINETYPE
1070
   382
1005
14
  0
DIMSTYLE
105
310
330
A
100
AcDbSymbolTableRecord
100
AcDbDimStyleTableRecord
  2
AM_DIN$7
 70
     0
  4
"
 41
3.5
 42
1.0
 43
10.0
 44
1.0
 47
0.1
 48
0.1
 73
     0
 74
     0
 77
     1
 78
     8
 79
     2
140
3.5
141
0.0
143
0.0393701
146
0.71
147
1.5
172
     1
176
   256
177
   256
178
     2
271
     2
272
     3
274
     4
283
     0
284
     8
340
11
371
    -1
372
    -1
1001
ACAD_DSTYLE_DIMJOGGED_JOGANGLE_SYMBOL
1070
   384
1040
1.570796326794896
1001
ACAD_DSTYLE_DIM_LINETYPE
1070
   380
1005
14
1001
ACAD_DSTYLE_DIM_EXT1_LINETYPE
1070
   381
1005
14
1001
ACAD_DSTYLE_DIM_EXT2_LINETYPE
1070
   382
1005
14
  0
DIMSTYLE
105
315
330
A
100
AcDbSymbolTableRecord
100
AcDbDimStyleTableRecord
  2
AM_DIN$SF
 70
     0
  4
"
 41
3.5
 42
1.0
 43
10.0
 44
1.0
 47
0.1
 48
0.1
 73
     0
 74
     0
 75
     1
 76
     1
 77
     1
 78
     8
 79
     2
140
3.5
141
0.0
143
0.0393701
146
0.71
147
1.5
172
     1
176
   256
177
   256
178
     2
271
     2
272
     3
274
     4
283
     0
284
     8
340
11
371
    -1
372
    -1
1001
ACAD_DSTYLE_DIMJOGGED_JOGANGLE_SYMBOL
1070
   384
1040
1.570796326794896
1001
ACAD_DSTYLE_DIM_LINETYPE
1070
   380
1005
14
1001
ACAD_DSTYLE_DIM_EXT1_LINETYPE
1070
   381
1005
14
1001
ACAD_DSTYLE_DIM_EXT2_LINETYPE
1070
   382
1005
14
  0
DIMSTYLE
105
31A
330
A
100
AcDbSymbolTableRecord
100
AcDbDimStyleTableRecord
  2
AM_DIN$SH
 70
     0
  4
"
 41
3.5
 42
1.0
 43
10.0
 44
1.0
 47
0.1
 48
0.1
 73
     0
 74
     0
 75
     1
 76
     1
 77
     1
 78
     8
 79
     2
140
3.5
141
0.0
143
0.0393701
144
2.0
146
0.71
147
1.5
172
     1
173
     1
176
   256
177
   256
178
     2
271
     2
272
     3
274
     4
283
     0
284
     8
340
11
343
87
371
    -1
372
    -1
1001
ACAD_DSTYLE_DIMJOGGED_JOGANGLE_SYMBOL
1070
   384
1040
1.570796326794896
1001
ACAD_DSTYLE_DIM_LINETYPE
1070
   380
1005
14
1001
ACAD_DSTYLE_DIM_EXT1_LINETYPE
1070
   381
1005
14
1001
ACAD_DSTYLE_DIM_EXT2_LINETYPE
1070
   382
1005
14
  0
DIMSTYLE
105
667
330
A
100
AcDbSymbolTableRecord
100
AcDbDimStyleTableRecord
  2
GEN-ISO
 70
     0
  3
<>
  4
"
 40
20.0
 41
2.5
 42
1.0
 43
7.0
 44
1.0
 47
0.1
 48
0.1
 73
     0
 74
     0
 77
     1
 78
     8
140
3.5
141
0.0
143
0.0393701
146
0.71
147
0.6
172
     1
176
   256
177
   256
178
     2
271
     2
272
     3
274
     4
283
     0
340
11
  0
DIMSTYLE
105
668
102
{ACAD_REACTORS
330
74F
330
750
330
751
330
755
330
756
330
757
330
976
330
9C1
102
}
330
A
100
AcDbSymbolTableRecord
100
AcDbDimStyleTableRecord
  2
AM_DIN$0
 70
     0
  4
"
 41
3.5
 42
1.0
 43
10.0
 44
1.0
 47
0.1
 48
0.1
 73
     0
 74
     0
 77
     1
 78
     8
 79
     2
140
3.5
141
0.0
143
0.0393701
146
0.71
147
1.5
172
     1
176
   256
177
   256
178
     2
271
     2
272
     3
274
     4
283
     0
284
     8
340
11
371
    -1
372
    -1
1001
ACAD_DSTYLE_DIMJOGGED_JOGANGLE_SYMBOL
1070
   384
1040
1.570796326794896
1001
ACAD_DSTYLE_DIM_LINETYPE
1070
   380
1005
14
1001
ACAD_DSTYLE_DIM_EXT1_LINETYPE
1070
   381
1005
14
1001
ACAD_DSTYLE_DIM_EXT2_LINETYPE
1070
   382
1005
14
  0
ENDTAB
  0
TABLE
  2
BLOCK_RECORD
  5
1
330
0
100
AcDbSymbolTable
 70
    21
  0
BLOCK_RECORD
  5
1F
102
{ACAD_XDICTIONARY
360
8F
102
}
330
1
100
AcDbSymbolTableRecord
100
AcDbBlockTableRecord
  2
*Model_Space
340
22
  0
BLOCK_RECORD
  5
1B
330
1
100
AcDbSymbolTableRecord
100
AcDbBlockTableRecord
  2
*Paper_Space
340
1E
  0
BLOCK_RECORD
  5
23
330
1
100
AcDbSymbolTableRecord
100
AcDbBlockTableRecord
  2
*Paper_Space0
340
26
  0
BLOCK_RECORD
  5
87
330
1
100
AcDbSymbolTableRecord
100
AcDbBlockTableRecord
  2
GENAXEH
340
0
  0
BLOCK_RECORD
  5
5C1
330
1
100
AcDbSymbolTableRecord
100
AcDbBlockTableRecord
  2
stutzen
340
0
310
2800000020000000200000000100080000000000000400000000000000000000000000000000000000000000000080000080000000808000800000008000800080800000C0C0C000C0DCC000F0CAA6000020400000206000002080000020A0000020C0000020E00000400000004020000040400000406000004080000040A0
310
000040C0000040E00000600000006020000060400000606000006080000060A0000060C0000060E00000800000008020000080400000806000008080000080A0000080C0000080E00000A0000000A0200000A0400000A0600000A0800000A0A00000A0C00000A0E00000C0000000C0200000C0400000C0600000C0800000C0
310
A00000C0C00000C0E00000E0000000E0200000E0400000E0600000E0800000E0A00000E0C00000E0E00040000000400020004000400040006000400080004000A0004000C0004000E00040200000402020004020400040206000402080004020A0004020C0004020E000404000004040200040404000404060004040800040
310
40A0004040C0004040E00040600000406020004060400040606000406080004060A0004060C0004060E00040800000408020004080400040806000408080004080A0004080C0004080E00040A0000040A0200040A0400040A0600040A0800040A0A00040A0C00040A0E00040C0000040C0200040C0400040C0600040C08000
310
40C0A00040C0C00040C0E00040E0000040E0200040E0400040E0600040E0800040E0A00040E0C00040E0E00080000000800020008000400080006000800080008000A0008000C0008000E00080200000802020008020400080206000802080008020A0008020C0008020E00080400000804020008040400080406000804080
310
008040A0008040C0008040E00080600000806020008060400080606000806080008060A0008060C0008060E00080800000808020008080400080806000808080008080A0008080C0008080E00080A0000080A0200080A0400080A0600080A0800080A0A00080A0C00080A0E00080C0000080C0200080C0400080C0600080C0
310
800080C0A00080C0C00080C0E00080E0000080E0200080E0400080E0600080E0800080E0A00080E0C00080E0E000C0000000C0002000C0004000C0006000C0008000C000A000C000C000C000E000C0200000C0202000C0204000C0206000C0208000C020A000C020C000C020E000C0400000C0402000C0404000C0406000C0
310
408000C040A000C040C000C040E000C0600000C0602000C0604000C0606000C0608000C060A000C060C000C060E000C0800000C0802000C0804000C0806000C0808000C080A000C080C000C080E000C0A00000C0A02000C0A04000C0A06000C0A08000C0A0A000C0A0C000C0A0E000C0C00000C0C02000C0C04000C0C06000
310
C0C08000C0C0A000F0FBFF00A4A0A000808080000000FF0000FF000000FFFF00FF000000FF00FF00FFFF0000FFFFFF00000000000000000000000000000000000000000000000000000000000000000000000000000000000000000000000000FE0000000000000000000000000000000000000000000000FFFFFFFFFFFFFF
310
FFFFFFFFFFFFFFFFFF00000000000000000000000000000000FFFF000000000000FE0000000000FFFF0000000000000000000000000000F9FFFFFF070707070707070707070707FFFFFFF90000000000000000000000F9FFF9FFFFFFFFFFFFFFFFFFFFFFFFFFFFFFFFF9FFF900000000000000000000F9FF07070707070707
310
0707070707070707070707FFFF00000000000000000000F900000000000000000000FE000000000000000000F900000000000000000000F900000000000000000000FE000000000000000000F900000000000000000000FF00000000000000000000FE000000000000000000F900000000000000000000F900000000000000
310
000000FE000000000000000000F900000000000000000000F900000000000000000000FE000000000000000000FF00000000000000000000F900000000000000000000FE000000000000000000F900000000000000000000F900000000000000000000FE000000000000000000FF00000000000000000000FF000000000000
310
00000000FE000000000000000000F900000000000000000000F900000000000000000000FE000000000000000000F900000000000000000000FF00000000000000000000FE000000000000000000F900000000000000000000F900000000000000000000FE000000000000000000F900000000000000000000F90000000000
310
0000000000FE000000000000000000FF00000000000000000000F900000000000000000000FE000000000000000000F900000000000000000000F900000000000000000000FE000000000000000000F900000000000000000000FF00000000000000000000FE000000000000000000F900000000000000000000F900000000
310
000000000000FE000000000000000000F900000000000000000000FF00000000000000000000FE000000000000000000F900000000000000000000F900000000000000000000FE000000000000000000F900000000000000000000F900000000000000000000FE000000000000000000FF00000000000000000000F9000000
310
00000000000000FE000000000000000000F900000000000000000000F900000000000000000000FE000000000000000000F900000000000000000000FF00000000000000000000FE000000000000000000F900000000000000000000FBFFFFFFFFFFFFFFFFFFFFFFFFFFFFFFFFFFFFFFFFFF00000000000000000000000000
310
0000000000000000FE0000000000000000000000000000000000000000000000000000000000000000000000000000000000000000000000
102
{BLKREFS
331
73F
102
}
  0
BLOCK_RECORD
  5
5FF
330
1
100
AcDbSymbolTableRecord
100
AcDbBlockTableRecord
  2
fklö
340
0
310
2800000020000000200000000100080000000000000400000000000000000000000000000000000000000000000080000080000000808000800000008000800080800000C0C0C000C0DCC000F0CAA6000020400000206000002080000020A0000020C0000020E00000400000004020000040400000406000004080000040A0
310
000040C0000040E00000600000006020000060400000606000006080000060A0000060C0000060E00000800000008020000080400000806000008080000080A0000080C0000080E00000A0000000A0200000A0400000A0600000A0800000A0A00000A0C00000A0E00000C0000000C0200000C0400000C0600000C0800000C0
310
A00000C0C00000C0E00000E0000000E0200000E0400000E0600000E0800000E0A00000E0C00000E0E00040000000400020004000400040006000400080004000A0004000C0004000E00040200000402020004020400040206000402080004020A0004020C0004020E000404000004040200040404000404060004040800040
310
40A0004040C0004040E00040600000406020004060400040606000406080004060A0004060C0004060E00040800000408020004080400040806000408080004080A0004080C0004080E00040A0000040A0200040A0400040A0600040A0800040A0A00040A0C00040A0E00040C0000040C0200040C0400040C0600040C08000
310
40C0A00040C0C00040C0E00040E0000040E0200040E0400040E0600040E0800040E0A00040E0C00040E0E00080000000800020008000400080006000800080008000A0008000C0008000E00080200000802020008020400080206000802080008020A0008020C0008020E00080400000804020008040400080406000804080
310
008040A0008040C0008040E00080600000806020008060400080606000806080008060A0008060C0008060E00080800000808020008080400080806000808080008080A0008080C0008080E00080A0000080A0200080A0400080A0600080A0800080A0A00080A0C00080A0E00080C0000080C0200080C0400080C0600080C0
310
800080C0A00080C0C00080C0E00080E0000080E0200080E0400080E0600080E0800080E0A00080E0C00080E0E000C0000000C0002000C0004000C0006000C0008000C000A000C000C000C000E000C0200000C0202000C0204000C0206000C0208000C020A000C020C000C020E000C0400000C0402000C0404000C0406000C0
310
408000C040A000C040C000C040E000C0600000C0602000C0604000C0606000C0608000C060A000C060C000C060E000C0800000C0802000C0804000C0806000C0808000C080A000C080C000C080E000C0A00000C0A02000C0A04000C0A06000C0A08000C0A0A000C0A0C000C0A0E000C0C00000C0C02000C0C04000C0C06000
310
C0C08000C0C0A000F0FBFF00A4A0A000808080000000FF0000FF000000FFFF00FF000000FF00FF00FFFF0000FFFFFF00000000000000000000000000000000000000000000000000000000000000000000000000000000000000000000000000FE000000000000000000000000000000000000000000000000000000000000
310
00FE000000000000000000000000000000000000FBFFFFFFFFFFFFFFFFFFFFFFFFFFFFFFFFFFFFFFFFFFFFFFFFFF000000000000FF000000000000000000000000FE0000000000000000000000FF000000000000FF000000000000000000000000FE0000000000000000000000FF000000000000FF00000000000000000000
310
0000FE0000000000000000000000FB000000000000FF000000000000000000000000FE0000000000000000000000FB000000000000FF000000000000000000000000FE0000000000000000000000FF000000000000FB000000000000000000000000FE0000000000000000000000FF000000000000FB000000000000000000
310
000000FE0000000000000000000000FF000000000000FF000000000000000000000000FE0000000000000000000000FF000000000000FF000000000000000000000000FE0000000000000000000000FB000000000000FF000000000000000000000000FE0000000000000000000000FB000000000000FF0000000000000000
310
00000000FE0000000000000000000000FF000000000000FF000000000000000000000000FE0000000000000000000000FF000000000000FB000000000000000000000000FE0000000000000000000000FF000000000000FB000000000000000000000000FE0000000000000000000000FF000000000000FF00000000000000
310
0000000000FE0000000000000000000000FF000000000000FF000000000000000000000000FE0000000000000000000000FB000000000000FF000000000000000000000000FE0000000000000000000000FB000000000000FF000000000000000000000000FE0000000000000000000000FF000000000000FB000000000000
310
000000000000FE0000000000000000000000FF000000000000FB000000000000000000000000FE0000000000000000000000FF000000000000FF000000000000000000000000FE0000000000000000000000FF000000000000FF000000000000000000000000FE0000000000000000000000FF000000000000FF0000000000
310
00000000000000FE0000000000000000000000FB000000000000FF000000000000000000000000FE0000000000000000000000FB000000000000FFFFFFFFFFFFFFFFFFFFFFFFFFFFFFFFFFFFFFFFFFFFFFFFFFFF00000000000000000000000000000000000000FE0000000000000000000000000000000000000000000000
310
0000000000000000FE0000000000000000000000000000000000000000000000000000000000000000000000000000000000000000000000
  0
BLOCK_RECORD
  5
611
330
1
100
AcDbSymbolTableRecord
100
AcDbBlockTableRecord
  2
*D4
340
0
  0
BLOCK_RECORD
  5
61D
330
1
100
AcDbSymbolTableRecord
100
AcDbBlockTableRecord
  2
*D5
340
0
  0
BLOCK_RECORD
  5
629
330
1
100
AcDbSymbolTableRecord
100
AcDbBlockTableRecord
  2
*D6
340
0
  0
BLOCK_RECORD
  5
635
330
1
100
AcDbSymbolTableRecord
100
AcDbBlockTableRecord
  2
*D7
340
0
  0
BLOCK_RECORD
  5
641
330
1
100
AcDbSymbolTableRecord
100
AcDbBlockTableRecord
  2
*D8
340
0
  0
BLOCK_RECORD
  5
64D
330
1
100
AcDbSymbolTableRecord
100
AcDbBlockTableRecord
  2
*D9
340
0
  0
BLOCK_RECORD
  5
759
330
1
100
AcDbSymbolTableRecord
100
AcDbBlockTableRecord
  2
*D10
340
0
  0
BLOCK_RECORD
  5
765
330
1
100
AcDbSymbolTableRecord
100
AcDbBlockTableRecord
  2
*D11
340
0
  0
BLOCK_RECORD
  5
771
330
1
100
AcDbSymbolTableRecord
100
AcDbBlockTableRecord
  2
*D12
340
0
  0
BLOCK_RECORD
  5
77D
330
1
100
AcDbSymbolTableRecord
100
AcDbBlockTableRecord
  2
*D13
340
0
  0
BLOCK_RECORD
  5
789
330
1
100
AcDbSymbolTableRecord
100
AcDbBlockTableRecord
  2
*D14
340
0
  0
BLOCK_RECORD
  5
795
330
1
100
AcDbSymbolTableRecord
100
AcDbBlockTableRecord
  2
*D15
340
0
  0
BLOCK_RECORD
  5
977
330
1
100
AcDbSymbolTableRecord
100
AcDbBlockTableRecord
  2
*D16
340
0
  0
BLOCK_RECORD
  5
9C2
330
1
100
AcDbSymbolTableRecord
100
AcDbBlockTableRecord
  2
*D17
340
0
  0
ENDTAB
  0
ENDSEC
  0
SECTION
  2
BLOCKS
  0
BLOCK
  5
20
330
1F
100
AcDbEntity
  8
0
100
AcDbBlockBegin
  2
*Model_Space
 70
     0
 10
0.0
 20
0.0
 30
0.0
  3
*Model_Space
  1

  0
ENDBLK
  5
21
330
1F
100
AcDbEntity
  8
0
100
AcDbBlockEnd
  0
BLOCK
  5
1C
330
1B
100
AcDbEntity
 67
     1
  8
0
100
AcDbBlockBegin
  2
*Paper_Space
 70
     0
 10
0.0
 20
0.0
 30
0.0
  3
*Paper_Space
  1

  0
ENDBLK
  5
1D
330
1B
100
AcDbEntity
 67
     1
  8
0
100
AcDbBlockEnd
  0
BLOCK
  5
24
330
23
100
AcDbEntity
 67
     1
  8
0
100
AcDbBlockBegin
  2
*Paper_Space0
 70
     0
 10
0.0
 20
0.0
 30
0.0
  3
*Paper_Space0
  1

  0
ENDBLK
  5
25
330
23
100
AcDbEntity
 67
     1
  8
0
100
AcDbBlockEnd
  0
BLOCK
  5
89
330
87
100
AcDbEntity
  8
0
100
AcDbBlockBegin
  2
GENAXEH
 70
     0
 10
0.0
 20
0.0
 30
0.0
  3
GENAXEH
  1

  0
LINE
  5
88
330
87
100
AcDbEntity
  8
0
100
AcDbLine
 10
-1.0
 20
0.0
 30
0.0
 11
1.0
 21
0.0
 31
0.0
  0
ENDBLK
  5
8A
330
87
100
AcDbEntity
  8
0
100
AcDbBlockEnd
  0
BLOCK
  5
5C2
330
5C1
100
AcDbEntity
  8
0
100
AcDbBlockBegin
  2
stutzen
 70
     0
 10
0.0
 20
0.0
 30
0.0
  3
stutzen
  1

  0
LINE
  5
5C3
330
5C1
100
AcDbEntity
  8
0
  6
Continuous
 62
     2
100
AcDbLine
 10
5583.692362419846
 20
3572.388833737998
 30
0.0
 11
5585.24221523384
 21
3573.938686551999
 31
0.0
  0
LINE
  5
5C4
330
5C1
100
AcDbEntity
  8
KLIN
  6
ByBlock
100
AcDbLine
 10
5583.692362419846
 20
3512.779110133001
 30
0.0
 11
5593.692362419846
 21
3522.779110133001
 31
0.0
  0
LINE
  5
5C5
330
5C1
100
AcDbEntity
  8
KLIN
  6
ByBlock
100
AcDbLine
 10
5583.692362419846
 20
3453.169386528003
 30
0.0
 11
5593.692362419846
 21
3463.169386528003
 31
0.0
  0
LINE
  5
5C6
330
5C1
100
AcDbEntity
  8
KLIN
  6
ByBlock
100
AcDbLine
 10
5583.692362419846
 20
3393.559662922001
 30
0.0
 11
5593.692362419846
 21
3403.559662922002
 31
0.0
  0
LINE
  5
5C7
330
5C1
100
AcDbEntity
  8
0
  6
Continuous
 62
     7
100
AcDbLine
 10
6203.692362419847
 20
2658.938686551999
 30
0.0
 11
5703.692362419847
 21
2658.938686551999
 31
0.0
  0
LINE
  5
5C8
330
5C1
100
AcDbEntity
  8
KLIN
  6
ByBlock
100
AcDbLine
 10
5583.692362419846
 20
3333.949939317005
 30
0.0
 11
5593.692362419846
 21
3343.949939317005
 31
0.0
  0
LINE
  5
5C9
330
5C1
100
AcDbEntity
  8
0
  6
Continuous
 62
     9
100
AcDbLine
 10
6193.692362419846
 20
2708.938686551999
 30
0.0
 11
5713.692362419846
 21
2708.938686551999
 31
0.0
  0
LINE
  5
5CA
330
5C1
100
AcDbEntity
  8
0
  6
Continuous
 62
     7
100
AcDbLine
 10
6263.692362419846
 20
2728.938686551999
 30
0.0
 11
6223.692362419846
 21
2728.938686551999
 31
0.0
  0
LINE
  5
5CB
330
5C1
100
AcDbEntity
  8
0
  6
Continuous
 62
     7
100
AcDbLine
 10
5683.692362419846
 20
2728.938686551999
 30
0.0
 11
5643.692362419846
 21
2728.938686551999
 31
0.0
  0
LINE
  5
5CC
330
5C1
100
AcDbEntity
  8
0
  6
Continuous
 62
     7
100
AcDbLine
 10
5583.692362419846
 20
3573.938686551999
 30
0.0
 11
5583.692362419846
 21
2788.938686551999
 31
0.0
  0
LINE
  5
5CD
330
5C1
100
AcDbEntity
  8
0
  6
Continuous
 62
     7
100
AcDbLine
 10
5593.692362419846
 20
3573.938686551999
 30
0.0
 11
5593.692362419846
 21
2788.938686551999
 31
0.0
  0
LINE
  5
5CE
330
5C1
100
AcDbEntity
  8
KLIN
  6
ByBlock
100
AcDbLine
 10
5583.692362419846
 20
3274.340215711
 30
0.0
 11
5593.692362419846
 21
3284.340215710999
 31
0.0
  0
LINE
  5
5CF
330
5C1
100
AcDbEntity
  8
0
  6
Continuous
 62
     7
100
AcDbLine
 10
6263.692362419846
 20
2738.938686551999
 30
0.0
 11
5643.692362419846
 21
2738.938686551999
 31
0.0
  0
LINE
  5
5D0
330
5C1
100
AcDbEntity
  8
KLIN
  6
ByBlock
100
AcDbLine
 10
5583.692362419846
 20
3214.730492105998
 30
0.0
 11
5593.692362419846
 21
3224.730492106
 31
0.0
  0
LINE
  5
5D1
330
5C1
100
AcDbEntity
  8
0
  6
Continuous
 62
     9
100
AcDbLine
 10
5593.692362419846
 20
2788.938686551999
 30
0.0
 11
6313.692362419846
 21
2788.938686551999
 31
0.0
  0
LINE
  5
5D2
330
5C1
100
AcDbEntity
  8
KLIN
  6
ByBlock
100
AcDbLine
 10
5583.692362419846
 20
3155.120768500002
 30
0.0
 11
5593.692362419846
 21
3165.120768500001
 31
0.0
  0
LINE
  5
5D3
330
5C1
100
AcDbEntity
  8
0
  6
Continuous
 62
     7
100
AcDbLine
 10
5703.692362419847
 20
2708.938686551999
 30
0.0
 11
5703.692362419847
 21
2658.938686551999
 31
0.0
  0
LINE
  5
5D4
330
5C1
100
AcDbEntity
  8
0
  6
Continuous
 62
     7
100
AcDbLine
 10
5713.692362419846
 20
2708.938686551999
 30
0.0
 11
5713.692362419846
 21
2658.938686551999
 31
0.0
  0
LINE
  5
5D5
330
5C1
100
AcDbEntity
  8
KLIN
  6
ByBlock
100
AcDbLine
 10
5583.692362419846
 20
3095.511044895
 30
0.0
 11
5593.692362419846
 21
3105.511044895
 31
0.0
  0
LINE
  5
5D6
330
5C1
100
AcDbEntity
  8
KLIN
  6
ByBlock
100
AcDbLine
 10
5583.692362419846
 20
3035.901321289002
 30
0.0
 11
5593.692362419846
 21
3045.901321289003
 31
0.0
  0
LINE
  5
5D7
330
5C1
100
AcDbEntity
  8
KLIN
  6
ByBlock
100
AcDbLine
 10
5583.692362419846
 20
2976.291597684001
 30
0.0
 11
5593.692362419846
 21
2986.291597684001
 31
0.0
  0
LINE
  5
5D8
330
5C1
100
AcDbEntity
  8
KLIN
  6
ByBlock
100
AcDbLine
 10
5583.692362419846
 20
2916.681874078004
 30
0.0
 11
5593.692362419846
 21
2926.681874078004
 31
0.0
  0
LINE
  5
5D9
330
5C1
100
AcDbEntity
  8
KLIN
  6
ByBlock
100
AcDbLine
 10
5583.692362419846
 20
2857.072150472999
 30
0.0
 11
5593.692362419846
 21
2867.072150472999
 31
0.0
  0
LINE
  5
5DA
330
5C1
100
AcDbEntity
  8
KLIN
  6
ByBlock
100
AcDbLine
 10
5583.692362419846
 20
2797.462426867002
 30
0.0
 11
5593.692362419846
 21
2807.462426867001
 31
0.0
  0
LINE
  5
5DB
330
5C1
100
AcDbEntity
  8
KLIN
  6
ByBlock
100
AcDbLine
 10
6313.692362419846
 20
3527.462426867002
 30
0.0
 11
6323.692362419846
 21
3537.462426867001
 31
0.0
  0
LINE
  5
5DC
330
5C1
100
AcDbEntity
  8
7A
100
AcDbLine
 10
5953.692362419847
 20
2628.938686551999
 30
0.0
 11
5953.692362419847
 21
3603.938686552
 31
0.0
  0
LINE
  5
5DD
330
5C1
100
AcDbEntity
  8
KLIN
  6
ByBlock
100
AcDbLine
 10
5597.058898933843
 20
2751.219239776001
 30
0.0
 11
5604.198228947839
 21
2758.358569790002
 31
0.0
  0
LINE
  5
5DE
330
5C1
100
AcDbEntity
  8
KLIN
  6
ByBlock
100
AcDbLine
 10
6313.692362419846
 20
3467.852703262
 30
0.0
 11
6323.692362419846
 21
3477.852703262001
 31
0.0
  0
LINE
  5
5DF
330
5C1
100
AcDbEntity
  8
KLIN
  6
ByBlock
100
AcDbLine
 10
5635.082190905843
 20
2729.632808142
 30
0.0
 11
5644.388069315843
 21
2738.938686551999
 31
0.0
  0
LINE
  5
5E0
330
5C1
100
AcDbEntity
  8
KLIN
  6
ByBlock
100
AcDbLine
 10
6313.692362419846
 20
3408.242979656003
 30
0.0
 11
6323.692362419846
 21
3418.242979656003
 31
0.0
  0
LINE
  5
5E1
330
5C1
100
AcDbEntity
  8
KLIN
  6
ByBlock
100
AcDbLine
 10
5692.120413673838
 20
2727.061307305001
 30
0.0
 11
5699.488629873842
 21
2734.429523505002
 31
0.0
  0
LINE
  5
5E2
330
5C1
100
AcDbEntity
  8
KLIN
  6
ByBlock
100
AcDbLine
 10
6313.692362419846
 20
3348.633256051002
 30
0.0
 11
6323.692362419846
 21
3358.633256051002
 31
0.0
  0
LINE
  5
5E3
330
5C1
100
AcDbEntity
  8
KLIN
  6
ByBlock
100
AcDbLine
 10
5703.692362419847
 20
2679.023532445004
 30
0.0
 11
5713.692362419846
 21
2689.023532445004
 31
0.0
  0
LINE
  5
5E4
330
5C1
100
AcDbEntity
  8
KLIN
  6
ByBlock
100
AcDbLine
 10
6313.692362419846
 20
3289.023532445004
 30
0.0
 11
6323.692362419846
 21
3299.023532445004
 31
0.0
  0
LINE
  5
5E5
330
5C1
100
AcDbEntity
  8
KLIN
  6
ByBlock
100
AcDbLine
 10
6313.692362419846
 20
3229.41380884
 30
0.0
 11
6323.692362419846
 21
3239.41380884
 31
0.0
  0
LINE
  5
5E6
330
5C1
100
AcDbEntity
  8
0
  6
Continuous
 62
     7
100
AcDbLine
 10
6193.692362419846
 20
2708.938686551999
 30
0.0
 11
6193.692362419846
 21
2658.938686551999
 31
0.0
  0
LINE
  5
5E7
330
5C1
100
AcDbEntity
  8
KLIN
  6
ByBlock
100
AcDbLine
 10
6313.692362419846
 20
3169.804085233999
 30
0.0
 11
6323.692362419846
 21
3179.804085233998
 31
0.0
  0
LINE
  5
5E8
330
5C1
100
AcDbEntity
  8
0
  6
Continuous
 62
     7
100
AcDbLine
 10
6203.692362419847
 20
2708.938686551999
 30
0.0
 11
6203.692362419847
 21
2658.938686551999
 31
0.0
  0
LINE
  5
5E9
330
5C1
100
AcDbEntity
  8
KLIN
  6
ByBlock
100
AcDbLine
 10
6313.692362419846
 20
3110.194361629001
 30
0.0
 11
6323.692362419846
 21
3120.194361629001
 31
0.0
  0
LINE
  5
5EA
330
5C1
100
AcDbEntity
  8
KLIN
  6
ByBlock
100
AcDbLine
 10
6313.692362419846
 20
3050.584638023
 30
0.0
 11
6323.692362419846
 21
3060.584638023
 31
0.0
  0
LINE
  5
5EB
330
5C1
100
AcDbEntity
  8
KLIN
  6
ByBlock
100
AcDbLine
 10
6313.692362419846
 20
2990.974914418002
 30
0.0
 11
6323.692362419846
 21
3000.974914418002
 31
0.0
  0
LINE
  5
5EC
330
5C1
100
AcDbEntity
  8
0
  6
Continuous
 62
     7
100
AcDbLine
 10
6313.692362419846
 20
3573.938686551999
 30
0.0
 11
6313.692362419846
 21
2788.938686551999
 31
0.0
  0
LINE
  5
5ED
330
5C1
100
AcDbEntity
  8
0
  6
Continuous
 62
     7
100
AcDbLine
 10
6323.692362419846
 20
3573.938686551999
 30
0.0
 11
6323.692362419846
 21
2788.938686551999
 31
0.0
  0
LINE
  5
5EE
330
5C1
100
AcDbEntity
  8
KLIN
  6
ByBlock
100
AcDbLine
 10
6313.692362419846
 20
2931.365190813002
 30
0.0
 11
6323.692362419846
 21
2941.365190813002
 31
0.0
  0
LINE
  5
5EF
330
5C1
100
AcDbEntity
  8
KLIN
  6
ByBlock
100
AcDbLine
 10
6313.692362419846
 20
2871.755467207004
 30
0.0
 11
6323.692362419846
 21
2881.755467207004
 31
0.0
  0
LINE
  5
5F0
330
5C1
100
AcDbEntity
  8
KLIN
  6
ByBlock
100
AcDbLine
 10
6313.692362419846
 20
2812.145743601999
 30
0.0
 11
6323.692362419846
 21
2822.145743601999
 31
0.0
  0
LINE
  5
5F1
330
5C1
100
AcDbEntity
  8
0
  6
Continuous
 62
     7
100
AcDbLine
 10
6323.692362419846
 20
3573.938686551999
 30
0.0
 11
5583.692362419846
 21
3573.938686551999
 31
0.0
  0
ARC
  5
5F2
330
5C1
100
AcDbEntity
  8
0
  6
Continuous
 62
     7
100
AcDbCircle
 10
6263.692362419846
 20
2788.938686551999
 30
0.0
 40
60.0
100
AcDbArc
 50
270.0
 51
0.0
  0
ARC
  5
5F3
330
5C1
100
AcDbEntity
  8
0
  6
Continuous
 62
     7
100
AcDbCircle
 10
5643.692362419846
 20
2788.938686551999
 30
0.0
 40
60.0
100
AcDbArc
 50
180.0
 51
270.0
  0
ARC
  5
5F4
330
5C1
100
AcDbEntity
  8
0
  6
Continuous
 62
     7
100
AcDbCircle
 10
5643.692362419846
 20
2788.938686551999
 30
0.0
 40
50.0
100
AcDbArc
 50
180.0
 51
270.0
  0
ARC
  5
5F5
330
5C1
100
AcDbEntity
  8
0
  6
Continuous
 62
     7
100
AcDbCircle
 10
6263.692362419846
 20
2788.938686551999
 30
0.0
 40
50.0
100
AcDbArc
 50
270.0
 51
0.0
  0
ARC
  5
5F6
330
5C1
100
AcDbEntity
  8
0
  6
Continuous
 62
     7
100
AcDbCircle
 10
6223.692362419846
 20
2708.938686551999
 30
0.0
 40
30.0
100
AcDbArc
 50
90.0
 51
180.0
  0
ARC
  5
5F7
330
5C1
100
AcDbEntity
  8
0
  6
Continuous
 62
     7
100
AcDbCircle
 10
5683.692362419846
 20
2708.938686551999
 30
0.0
 40
30.0
100
AcDbArc
 50
0.0
 51
90.0
  0
ARC
  5
5F8
330
5C1
100
AcDbEntity
  8
0
  6
Continuous
 62
     7
100
AcDbCircle
 10
6223.692362419846
 20
2708.938686551999
 30
0.0
 40
20.0
100
AcDbArc
 50
90.0
 51
180.0
  0
ARC
  5
5F9
330
5C1
100
AcDbEntity
  8
0
  6
Continuous
 62
     7
100
AcDbCircle
 10
5683.692362419846
 20
2708.938686551999
 30
0.0
 40
20.0
100
AcDbArc
 50
0.0
 51
90.0
  0
LINE
  5
5FA
330
5C1
100
AcDbEntity
  8
KLIN
  6
ByBlock
100
AcDbLine
 10
6310.325825905849
 20
2751.219239776001
 30
0.0
 11
6303.186495891853
 21
2758.358569790002
 31
0.0
  0
LINE
  5
5FB
330
5C1
100
AcDbEntity
  8
KLIN
  6
ByBlock
100
AcDbLine
 10
6272.302533933849
 20
2729.632808142
 30
0.0
 11
6262.996655523849
 21
2738.938686551999
 31
0.0
  0
LINE
  5
5FC
330
5C1
100
AcDbEntity
  8
KLIN
  6
ByBlock
100
AcDbLine
 10
6215.264311165855
 20
2727.061307305001
 30
0.0
 11
6207.89609496585
 21
2734.429523505002
 31
0.0
  0
LINE
  5
5FD
330
5C1
100
AcDbEntity
  8
KLIN
  6
ByBlock
100
AcDbLine
 10
6203.692362419847
 20
2679.023532445004
 30
0.0
 11
6193.692362419846
 21
2689.023532445004
 31
0.0
  0
ENDBLK
  5
5FE
330
5C1
100
AcDbEntity
  8
0
100
AcDbBlockEnd
  0
BLOCK
  5
600
330
5FF
100
AcDbEntity
  8
0
100
AcDbBlockBegin
  2
fklö
 70
     0
 10
0.0
 20
0.0
 30
0.0
  3
fklö
  1

  0
LINE
  5
601
330
5FF
100
AcDbEntity
  8
0
  6
Continuous
 62
     2
100
AcDbLine
 10
9574.808407686447
 20
1094.245064227623
 30
0.0
 11
9584.808407686447
 21
1115.690133432625
 31
0.0
  0
LINE
  5
602
330
5FF
100
AcDbEntity
  8
0
  6
Continuous
 62
     2
100
AcDbLine
 10
9574.808407686447
 20
1223.478428617625
 30
0.0
 11
9584.808407686447
 21
1244.923497822627
 31
0.0
  0
LINE
  5
603
330
5FF
100
AcDbEntity
  8
0
  6
Continuous
 62
     2
100
AcDbLine
 10
9574.808407686447
 20
1352.711793007627
 30
0.0
 11
9584.808407686447
 21
1374.156862212629
 31
0.0
  0
LINE
  5
604
330
5FF
100
AcDbEntity
  8
0
  6
Continuous
 62
     2
100
AcDbLine
 10
9574.808407686447
 20
1481.94515739863
 30
0.0
 11
9584.808407686447
 21
1503.390226603631
 31
0.0
  0
LINE
  5
605
330
5FF
100
AcDbEntity
  8
0
  6
Continuous
 62
     7
100
AcDbLine
 10
9584.808407686447
 20
1528.116201654636
 30
0.0
 11
9584.808407686447
 21
1043.116201654637
 31
0.0
  0
LINE
  5
606
330
5FF
100
AcDbEntity
  8
0
  6
Continuous
 62
     7
100
AcDbLine
 10
9574.808407686447
 20
1528.116201654636
 30
0.0
 11
9574.808407686447
 21
1043.116201654637
 31
0.0
  0
LINE
  5
607
330
5FF
100
AcDbEntity
  8
0
  6
Continuous
 62
     2
100
AcDbLine
 10
9090.866567481048
 20
1043.116201654637
 30
0.0
 11
9094.808407686448
 21
1051.569505254636
 31
0.0
  0
LINE
  5
608
330
5FF
100
AcDbEntity
  8
0
  6
Continuous
 62
     2
100
AcDbLine
 10
9084.808407686447
 20
1159.357800439637
 30
0.0
 11
9094.808407686448
 21
1180.80286964462
 31
0.0
  0
LINE
  5
609
330
5FF
100
AcDbEntity
  8
0
  6
Continuous
 62
     2
100
AcDbLine
 10
9084.808407686447
 20
1288.591164830621
 30
0.0
 11
9094.808407686448
 21
1310.036234035622
 31
0.0
  0
LINE
  5
60A
330
5FF
100
AcDbEntity
  8
0
  6
Continuous
 62
     2
100
AcDbLine
 10
9084.808407686447
 20
1417.824529220641
 30
0.0
 11
9094.808407686448
 21
1439.269598425642
 31
0.0
  0
LINE
  5
60B
330
5FF
100
AcDbEntity
  8
0
  6
Continuous
 62
     7
100
AcDbLine
 10
9094.808407686448
 20
1528.116201654636
 30
0.0
 11
9094.808407686448
 21
1043.116201654637
 31
0.0
  0
LINE
  5
60C
330
5FF
100
AcDbEntity
  8
0
  6
Continuous
 62
     7
100
AcDbLine
 10
9084.808407686447
 20
1528.116201654636
 30
0.0
 11
9084.808407686447
 21
1043.116201654637
 31
0.0
  0
LINE
  5
60D
330
5FF
100
AcDbEntity
  8
0
  6
Continuous
 62
     7
100
AcDbLine
 10
9584.808407686447
 20
1528.116201654636
 30
0.0
 11
9084.808407686447
 21
1528.116201654636
 31
0.0
  0
LINE
  5
60E
330
5FF
100
AcDbEntity
  8
0
100
AcDbLine
 10
9084.808407686447
 20
1043.116201654637
 30
0.0
 11
9584.808407686447
 21
1043.116201654637
 31
0.0
  0
LINE
  5
60F
330
5FF
100
AcDbEntity
  8
AM_7
100
AcDbLine
 10
9334.808407686447
 20
1558.116201654637
 30
0.0
 11
9334.808407686447
 21
1013.116201654637
 31
0.0
1001
GENIUS_GENODEF_13
1002
{
1000
HIER
1070
     0
1002
}
1002
{
1000
MANEDIT
1070
     0
1002
}
1002
{
1000
NOSEL
1070
     0
1002
}
1002
{
1000
BEHIND
1070
     0
1002
}
1002
{
1000
OTHER
1070
     0
1002
}
1002
{
1000
REACTOR
1002
}
1001
GENIUS_GENOBJ-N-CEN_13
1002
{
1000
OWNER
1000
GEN
1002
}
1001
GENIUS_GENCEN_19
1002
{
1040
3.0
1002
}
  0
ENDBLK
  5
610
330
5FF
100
AcDbEntity
  8
0
100
AcDbBlockEnd
  0
BLOCK
  5
612
330
611
100
AcDbEntity
  8
0
 62
     0
100
AcDbBlockBegin
  2
*D4
 70
     1
 10
0.0
 20
0.0
 30
0.0
  3
*D4
  1

  0
LINE
  5
613
330
611
100
AcDbEntity
  8
AM_5
  6
ByBlock
100
AcDbLine
 10
102.1278867929286
 20
726.0080149168292
 30
0.0
 11
102.1278867929286
 21
622.0431878233052
 31
0.0
  0
LINE
  5
614
330
611
100
AcDbEntity
  8
AM_5
  6
ByBlock
100
AcDbLine
 10
1102.127886792928
 20
726.0080149168292
 30
0.0
 11
1102.127886792928
 21
622.0431878233052
 31
0.0
  0
LINE
  5
615
330
611
100
AcDbEntity
  8
AM_5
  6
ByBlock
100
AcDbLine
 10
119.6278867929286
 20
627.0431878233052
 30
0.0
 11
1084.627886792928
 21
627.0431878233052
 31
0.0
  0
SOLID
  5
616
330
611
100
AcDbEntity
  8
AM_5
100
AcDbTrace
 10
119.6278867929286
 20
629.9598544899717
 30
0.0
 11
119.6278867929286
 21
624.1265211566386
 31
0.0
 12
102.1278867929286
 22
627.0431878233052
 32
0.0
 13
102.1278867929286
 23
627.0431878233052
 33
0.0
  0
SOLID
  5
617
330
611
100
AcDbEntity
  8
AM_5
100
AcDbTrace
 10
1084.627886792928
 20
629.9598544899717
 30
0.0
 11
1084.627886792928
 21
624.1265211566386
 31
0.0
 12
1102.127886792928
 22
627.0431878233052
 32
0.0
 13
1102.127886792928
 23
627.0431878233052
 33
0.0
  0
MTEXT
  5
618
330
611
100
AcDbEntity
  8
AM_5
 62
     2
100
AcDbMText
 10
600.4216405023935
 20
643.2931878233053
 30
0.0
 40
17.5
 41
0.0
 71
     5
 72
     1
  1
1000
 73
     1
 44
1.0
1001
ACAD
1000
MTEXTBEGIN
1070
    73
1070
     1
1070
    44
1040
1.0
1070
    74
1070
     0
1000
MTEXTEND
  0
POINT
  5
619
330
611
100
AcDbEntity
  8
DEFPOINTS
 62
     0
100
AcDbPoint
 10
102.1278867929286
 20
731.0080149168292
 30
0.0
  0
POINT
  5
61A
330
611
100
AcDbEntity
  8
DEFPOINTS
 62
     0
100
AcDbPoint
 10
1102.127886792928
 20
731.0080149168292
 30
0.0
  0
POINT
  5
61B
330
611
100
AcDbEntity
  8
DEFPOINTS
 62
     0
100
AcDbPoint
 10
1102.127886792928
 20
627.0431878233052
 30
0.0
  0
ENDBLK
  5
61C
330
611
100
AcDbEntity
  8
0
 62
     0
100
AcDbBlockEnd
  0
BLOCK
  5
61E
330
61D
100
AcDbEntity
  8
0
 62
     0
100
AcDbBlockBegin
  2
*D5
 70
     1
 10
0.0
 20
0.0
 30
0.0
  3
*D5
  1

  0
LINE
  5
61F
330
61D
100
AcDbEntity
  8
AM_5
  6
ByBlock
100
AcDbLine
 10
72.12788679292863
 20
694.3980149166342
 30
0.0
 11
72.12788679292859
 21
551.4748550195504
 31
0.0
  0
LINE
  5
620
330
61D
100
AcDbEntity
  8
AM_5
  6
ByBlock
100
AcDbLine
 10
1132.127886792928
 20
694.3980149177187
 30
0.0
 11
1132.127886792928
 21
551.4748550195504
 31
0.0
  0
LINE
  5
621
330
61D
100
AcDbEntity
  8
AM_5
  6
ByBlock
100
AcDbLine
 10
89.62788679292861
 20
556.4748550195504
 30
0.0
 11
1114.627886792928
 21
556.4748550195504
 31
0.0
  0
SOLID
  5
622
330
61D
100
AcDbEntity
  8
AM_5
100
AcDbTrace
 10
89.62788679292861
 20
559.3915216862168
 30
0.0
 11
89.62788679292861
 21
553.5581883528838
 31
0.0
 12
72.12788679292859
 22
556.4748550195504
 32
0.0
 13
72.12788679292859
 23
556.4748550195504
 33
0.0
  0
SOLID
  5
623
330
61D
100
AcDbEntity
  8
AM_5
100
AcDbTrace
 10
1114.627886792928
 20
559.3915216862168
 30
0.0
 11
1114.627886792928
 21
553.5581883528838
 31
0.0
 12
1132.127886792928
 22
556.4748550195504
 32
0.0
 13
1132.127886792928
 23
556.4748550195504
 33
0.0
  0
MTEXT
  5
624
330
61D
100
AcDbEntity
  8
AM_5
 62
     2
100
AcDbMText
 10
600.4216405023935
 20
572.7248550195504
 30
0.0
 40
17.5
 41
0.0
 71
     5
 72
     1
  1
1060
 73
     1
 44
1.0
1001
ACAD
1000
MTEXTBEGIN
1070
    73
1070
     1
1070
    44
1040
1.0
1070
    74
1070
     0
1000
MTEXTEND
  0
POINT
  5
625
330
61D
100
AcDbEntity
  8
DEFPOINTS
 62
     0
100
AcDbPoint
 10
72.12788679292863
 20
699.3980149166342
 30
0.0
  0
POINT
  5
626
330
61D
100
AcDbEntity
  8
DEFPOINTS
 62
     0
100
AcDbPoint
 10
1132.127886792928
 20
699.3980149177188
 30
0.0
  0
POINT
  5
627
330
61D
100
AcDbEntity
  8
DEFPOINTS
 62
     0
100
AcDbPoint
 10
1132.127886792928
 20
556.4748550195504
 30
0.0
  0
ENDBLK
  5
628
330
61D
100
AcDbEntity
  8
0
 62
     0
100
AcDbBlockEnd
  0
BLOCK
  5
62A
330
629
100
AcDbEntity
  8
0
 62
     0
100
AcDbBlockBegin
  2
*D6
 70
     1
 10
0.0
 20
0.0
 30
0.0
  3
*D6
  1

  0
LINE
  5
62B
330
629
100
AcDbEntity
  8
AM_5
  6
ByBlock
100
AcDbLine
 10
98.12788679292864
 20
1141.810015227197
 30
0.0
 11
38.12788679292861
 21
1141.810015227197
 31
0.0
  0
LINE
  5
62C
330
629
100
AcDbEntity
  8
AM_5
  6
ByBlock
100
AcDbLine
 10
98.12788679292864
 20
1215.810015227197
 30
0.0
 11
38.12788679292862
 21
1215.810015227197
 31
0.0
  0
LINE
  5
62D
330
629
100
AcDbEntity
  8
AM_5
  6
ByBlock
100
AcDbLine
 10
43.1278867929286
 20
1159.310015227197
 30
0.0
 11
43.1278867929286
 21
1198.310015227197
 31
0.0
  0
SOLID
  5
62E
330
629
100
AcDbEntity
  8
AM_5
100
AcDbTrace
 10
40.21122012626192
 20
1159.310015227197
 30
0.0
 11
46.04455345959527
 21
1159.310015227197
 31
0.0
 12
43.1278867929286
 22
1141.810015227197
 32
0.0
 13
43.1278867929286
 23
1141.810015227197
 33
0.0
  0
SOLID
  5
62F
330
629
100
AcDbEntity
  8
AM_5
100
AcDbTrace
 10
40.21122012626196
 20
1198.310015227197
 30
0.0
 11
46.04455345959528
 21
1198.310015227197
 31
0.0
 12
43.12788679292862
 22
1215.810015227197
 32
0.0
 13
43.12788679292862
 23
1215.810015227197
 33
0.0
  0
MTEXT
  5
630
330
629
100
AcDbEntity
  8
AM_5
 62
     2
100
AcDbMText
 10
26.87788679292843
 20
1178.810015227197
 30
0.0
 40
17.5
 41
0.0
 71
     5
 72
     1
  1
74
 11
0.0000000000000001
 21
1.0
 31
0.0
 73
     1
 44
1.0
1001
ACAD
1000
MTEXTBEGIN
1070
    73
1070
     1
1070
    44
1040
1.0
1070
    74
1070
     0
1000
MTEXTEND
  0
POINT
  5
631
330
629
100
AcDbEntity
  8
DEFPOINTS
 62
     0
100
AcDbPoint
 10
103.1278867929286
 20
1141.810015227197
 30
0.0
  0
POINT
  5
632
330
629
100
AcDbEntity
  8
DEFPOINTS
 62
     0
100
AcDbPoint
 10
103.1278867929286
 20
1215.810015227197
 30
0.0
  0
POINT
  5
633
330
629
100
AcDbEntity
  8
DEFPOINTS
 62
     0
100
AcDbPoint
 10
43.12788679292862
 20
1215.810015227197
 30
0.0
  0
ENDBLK
  5
634
330
629
100
AcDbEntity
  8
0
 62
     0
100
AcDbBlockEnd
  0
BLOCK
  5
636
330
635
100
AcDbEntity
  8
0
 62
     0
100
AcDbBlockBegin
  2
*D7
 70
     1
 10
0.0
 20
0.0
 30
0.0
  3
*D7
  1

  0
LINE
  5
637
330
635
100
AcDbEntity
  8
AM_5
  6
ByBlock
100
AcDbLine
 10
67.12788679292862
 20
699.3980149177188
 30
0.0
 11
-7.872078281265999
 21
699.3980149177188
 31
0.0
  0
LINE
  5
638
330
635
100
AcDbEntity
  8
AM_5
  6
ByBlock
100
AcDbLine
 10
67.12788679292862
 20
843.3980149166432
 30
0.0
 11
-7.872078281265967
 21
843.3980149166432
 31
0.0
  0
LINE
  5
639
330
635
100
AcDbEntity
  8
AM_5
  6
ByBlock
100
AcDbLine
 10
-2.872078281266
 20
716.8980149177188
 30
0.0
 11
-2.872078281265975
 21
825.8980149166431
 31
0.0
  0
SOLID
  5
63A
330
635
100
AcDbEntity
  8
AM_5
100
AcDbTrace
 10
-5.788744947932667
 20
716.8980149177188
 30
0.0
 11
0.0445883854006659
 21
716.8980149177188
 31
0.0
 12
-2.872078281266004
 22
699.3980149177188
 32
0.0
 13
-2.872078281266004
 23
699.3980149177188
 33
0.0
  0
SOLID
  5
63B
330
635
100
AcDbEntity
  8
AM_5
100
AcDbTrace
 10
-5.788744947932642
 20
825.8980149166431
 30
0.0
 11
0.0445883854006901
 21
825.8980149166431
 31
0.0
 12
-2.872078281265971
 22
843.3980149166432
 32
0.0
 13
-2.872078281265971
 23
843.3980149166432
 33
0.0
  0
MTEXT
  5
63C
330
635
100
AcDbEntity
  8
AM_5
 62
     2
100
AcDbMText
 10
-19.12207828126611
 20
771.3980149171809
 30
0.0
 40
17.5
 41
0.0
 71
     5
 72
     1
  1
144
 11
0.0000000000000001
 21
1.0
 31
0.0
 73
     1
 44
1.0
1001
ACAD
1000
MTEXTBEGIN
1070
    73
1070
     1
1070
    44
1040
1.0
1070
    74
1070
     0
1000
MTEXTEND
  0
POINT
  5
63D
330
635
100
AcDbEntity
  8
DEFPOINTS
 62
     0
100
AcDbPoint
 10
72.12788679292863
 20
699.3980149177188
 30
0.0
  0
POINT
  5
63E
330
635
100
AcDbEntity
  8
DEFPOINTS
 62
     0
100
AcDbPoint
 10
72.12788679292863
 20
843.3980149166432
 30
0.0
  0
POINT
  5
63F
330
635
100
AcDbEntity
  8
DEFPOINTS
 62
     0
100
AcDbPoint
 10
-2.872078281265971
 20
843.3980149166432
 30
0.0
  0
ENDBLK
  5
640
330
635
100
AcDbEntity
  8
0
 62
     0
100
AcDbBlockEnd
  0
BLOCK
  5
642
330
641
100
AcDbEntity
  8
0
 62
     0
100
AcDbBlockBegin
  2
*D8
 70
     1
 10
0.0
 20
0.0
 30
0.0
  3
*D8
  1

  0
LINE
  5
643
330
641
100
AcDbEntity
  8
AM_5
  6
ByBlock
100
AcDbLine
 10
99.12788679292862
 20
729.3980149168296
 30
0.0
 11
39.99146658510485
 21
729.3980149168296
 31
0.0
  0
LINE
  5
644
330
641
100
AcDbEntity
  8
AM_5
  6
ByBlock
100
AcDbLine
 10
99.12788679292862
 20
813.3980149166669
 30
0.0
 11
39.99146658510485
 21
813.3980149166669
 31
0.0
  0
LINE
  5
645
330
641
100
AcDbEntity
  8
AM_5
  6
ByBlock
100
AcDbLine
 10
44.99146658510483
 20
746.8980149168296
 30
0.0
 11
44.99146658510484
 21
795.8980149166667
 31
0.0
  0
SOLID
  5
646
330
641
100
AcDbEntity
  8
AM_5
100
AcDbTrace
 10
42.07479991843817
 20
746.8980149168296
 30
0.0
 11
47.9081332517715
 21
746.8980149168296
 31
0.0
 12
44.99146658510483
 22
729.3980149168296
 32
0.0
 13
44.99146658510483
 23
729.3980149168296
 33
0.0
  0
SOLID
  5
647
330
641
100
AcDbEntity
  8
AM_5
100
AcDbTrace
 10
42.07479991843817
 20
795.8980149166667
 30
0.0
 11
47.9081332517715
 21
795.8980149166667
 31
0.0
 12
44.99146658510484
 22
813.3980149166669
 32
0.0
 13
44.99146658510484
 23
813.3980149166669
 33
0.0
  0
MTEXT
  5
648
330
641
100
AcDbEntity
  8
AM_5
 62
     2
100
AcDbMText
 10
28.74146658510472
 20
771.3980149167483
 30
0.0
 40
17.5
 41
0.0
 71
     5
 72
     1
  1
84
 11
0.0000000000000001
 21
1.0
 31
0.0
 73
     1
 44
1.0
1001
ACAD
1000
MTEXTBEGIN
1070
    73
1070
     1
1070
    44
1040
1.0
1070
    74
1070
     0
1000
MTEXTEND
  0
POINT
  5
649
330
641
100
AcDbEntity
  8
DEFPOINTS
 62
     0
100
AcDbPoint
 10
104.1278867929286
 20
729.3980149168296
 30
0.0
  0
POINT
  5
64A
330
641
100
AcDbEntity
  8
DEFPOINTS
 62
     0
100
AcDbPoint
 10
104.1278867929286
 20
813.3980149166669
 30
0.0
  0
POINT
  5
64B
330
641
100
AcDbEntity
  8
DEFPOINTS
 62
     0
100
AcDbPoint
 10
44.99146658510484
 20
813.3980149166669
 30
0.0
  0
ENDBLK
  5
64C
330
641
100
AcDbEntity
  8
0
 62
     0
100
AcDbBlockEnd
  0
BLOCK
  5
64E
330
64D
100
AcDbEntity
  8
0
 62
     0
100
AcDbBlockBegin
  2
*D9
 70
     1
 10
0.0
 20
0.0
 30
0.0
  3
*D9
  1

  0
LINE
  5
64F
330
64D
100
AcDbEntity
  8
AM_5
  6
ByBlock
100
AcDbLine
 10
577.1278868105847
 20
1043.131671521601
 30
0.0
 11
577.1278868105847
 21
979.7070383728113
 31
0.0
  0
LINE
  5
650
330
64D
100
AcDbEntity
  8
AM_5
  6
ByBlock
100
AcDbLine
 10
627.1278868116761
 20
1043.131671521601
 30
0.0
 11
627.1278868116761
 21
979.7070383728113
 31
0.0
  0
LINE
  5
651
330
64D
100
AcDbEntity
  8
AM_5
  6
ByBlock
100
AcDbLine
 10
594.6278868105848
 20
984.7070383728114
 30
0.0
 11
609.6278868116761
 21
984.7070383728114
 31
0.0
  0
SOLID
  5
652
330
64D
100
AcDbEntity
  8
AM_5
100
AcDbTrace
 10
594.6278868105848
 20
987.6237050394779
 30
0.0
 11
594.6278868105848
 21
981.7903717061447
 31
0.0
 12
577.1278868105847
 22
984.7070383728114
 32
0.0
 13
577.1278868105847
 23
984.7070383728114
 33
0.0
  0
SOLID
  5
653
330
64D
100
AcDbEntity
  8
AM_5
100
AcDbTrace
 10
609.6278868116761
 20
987.6237050394779
 30
0.0
 11
609.6278868116761
 21
981.7903717061447
 31
0.0
 12
627.1278868116761
 22
984.7070383728114
 32
0.0
 13
627.1278868116761
 23
984.7070383728114
 33
0.0
  0
MTEXT
  5
654
330
64D
100
AcDbEntity
  8
AM_5
 62
     2
100
AcDbMText
 10
602.1278868111302
 20
1000.957038372811
 30
0.0
 40
17.5
 41
0.0
 71
     5
 72
     1
  1
%%c50
 73
     1
 44
1.0
1001
ACAD
1000
MTEXTBEGIN
1070
    73
1070
     1
1070
    44
1040
1.0
1070
    74
1070
     0
1000
MTEXTEND
  0
POINT
  5
655
330
64D
100
AcDbEntity
  8
DEFPOINTS
 62
     0
100
AcDbPoint
 10
577.1278868105847
 20
1048.131671521601
 30
0.0
  0
POINT
  5
656
330
64D
100
AcDbEntity
  8
DEFPOINTS
 62
     0
100
AcDbPoint
 10
627.1278868116761
 20
1048.131671521601
 30
0.0
  0
POINT
  5
657
330
64D
100
AcDbEntity
  8
DEFPOINTS
 62
     0
100
AcDbPoint
 10
627.1278868116761
 20
984.7070383728114
 30
0.0
  0
ENDBLK
  5
658
330
64D
100
AcDbEntity
  8
0
 62
     0
100
AcDbBlockEnd
  0
BLOCK
  5
75A
330
759
100
AcDbEntity
  8
0
100
AcDbBlockBegin
  2
*D10
 70
     1
 10
0.0
 20
0.0
 30
0.0
  3
*D10
  1

  0
LINE
  5
B98
330
759
100
AcDbEntity
  8
AM_5
  6
ByBlock
100
AcDbLine
 10
129.1249651379407
 20
174.5331592320706
 30
0.0
 11
129.1249651379407
 21
70.56833213854668
 31
0.0
  0
LINE
  5
B99
330
759
100
AcDbEntity
  8
AM_5
  6
ByBlock
100
AcDbLine
 10
1129.12496513794
 20
174.5331592320706
 30
0.0
 11
1129.12496513794
 21
70.56833213854668
 31
0.0
  0
LINE
  5
B9A
330
759
100
AcDbEntity
  8
AM_5
  6
ByBlock
100
AcDbLine
 10
146.6249651379407
 20
75.56833213854668
 30
0.0
 11
1111.62496513794
 21
75.56833213854668
 31
0.0
  0
SOLID
  5
B9B
330
759
100
AcDbEntity
  8
AM_5
100
AcDbTrace
 10
146.6249651379407
 20
78.48499880521335
 30
0.0
 11
146.6249651379407
 21
72.65166547188002
 31
0.0
 12
129.1249651379407
 22
75.56833213854668
 32
0.0
 13
129.1249651379407
 23
75.56833213854668
 33
0.0
  0
SOLID
  5
B9C
330
759
100
AcDbEntity
  8
AM_5
100
AcDbTrace
 10
1111.62496513794
 20
78.48499880521335
 30
0.0
 11
1111.62496513794
 21
72.65166547188002
 31
0.0
 12
1129.12496513794
 22
75.56833213854668
 32
0.0
 13
1129.12496513794
 23
75.56833213854668
 33
0.0
  0
MTEXT
  5
B9D
330
759
100
AcDbEntity
  8
AM_5
 62
     2
100
AcDbMText
 10
627.4187188474058
 20
91.8183321385467
 30
0.0
 40
17.5
 41
0.0
 71
     5
 72
     1
  1
1000
 73
     1
 44
1.0
1001
ACAD
1000
MTEXTBEGIN
1070
    73
1070
     1
1070
    44
1040
1.0
1070
    74
1070
     0
1000
MTEXTEND
  0
POINT
  5
B9E
330
759
100
AcDbEntity
  8
DEFPOINTS
 62
     0
100
AcDbPoint
 10
129.1249651379407
 20
179.5331592320706
 30
0.0
  0
POINT
  5
B9F
330
759
100
AcDbEntity
  8
DEFPOINTS
 62
     0
100
AcDbPoint
 10
1129.12496513794
 20
179.5331592320706
 30
0.0
  0
POINT
  5
BA0
330
759
100
AcDbEntity
  8
DEFPOINTS
 62
     0
100
AcDbPoint
 10
1129.12496513794
 20
75.56833213854668
 30
0.0
  0
ENDBLK
  5
75B
330
759
100
AcDbEntity
  8
0
100
AcDbBlockEnd
  0
BLOCK
  5
766
330
765
100
AcDbEntity
  8
0
100
AcDbBlockBegin
  2
*D11
 70
     1
 10
0.0
 20
0.0
 30
0.0
  3
*D11
  1

  0
LINE
  5
BA1
330
765
100
AcDbEntity
  8
AM_5
  6
ByBlock
100
AcDbLine
 10
99.1249651379408
 20
142.9231592318756
 30
0.0
 11
99.1249651379408
 21
-0.0000006652081765
 31
0.0
  0
LINE
  5
BA2
330
765
100
AcDbEntity
  8
AM_5
  6
ByBlock
100
AcDbLine
 10
1159.12496513794
 20
142.9231592329602
 30
0.0
 11
1159.12496513794
 21
-0.0000006652081765
 31
0.0
  0
LINE
  5
BA3
330
765
100
AcDbEntity
  8
AM_5
  6
ByBlock
100
AcDbLine
 10
116.6249651379408
 20
4.999999334791823
 30
0.0
 11
1141.62496513794
 21
4.999999334791823
 31
0.0
  0
SOLID
  5
BA4
330
765
100
AcDbEntity
  8
AM_5
100
AcDbTrace
 10
116.6249651379408
 20
7.916666001458488
 30
0.0
 11
116.6249651379408
 21
2.083332668125156
 31
0.0
 12
99.1249651379408
 22
4.999999334791823
 32
0.0
 13
99.1249651379408
 23
4.999999334791823
 33
0.0
  0
SOLID
  5
BA5
330
765
100
AcDbEntity
  8
AM_5
100
AcDbTrace
 10
1141.62496513794
 20
7.916666001458488
 30
0.0
 11
1141.62496513794
 21
2.083332668125156
 31
0.0
 12
1159.12496513794
 22
4.999999334791823
 32
0.0
 13
1159.12496513794
 23
4.999999334791823
 33
0.0
  0
MTEXT
  5
BA6
330
765
100
AcDbEntity
  8
AM_5
 62
     2
100
AcDbMText
 10
627.4187188474058
 20
21.24999933479182
 30
0.0
 40
17.5
 41
0.0
 71
     5
 72
     1
  1
1060
 73
     1
 44
1.0
1001
ACAD
1000
MTEXTBEGIN
1070
    73
1070
     1
1070
    44
1040
1.0
1070
    74
1070
     0
1000
MTEXTEND
  0
POINT
  5
BA7
330
765
100
AcDbEntity
  8
DEFPOINTS
 62
     0
100
AcDbPoint
 10
99.1249651379408
 20
147.9231592318756
 30
0.0
  0
POINT
  5
BA8
330
765
100
AcDbEntity
  8
DEFPOINTS
 62
     0
100
AcDbPoint
 10
1159.12496513794
 20
147.9231592329602
 30
0.0
  0
POINT
  5
BA9
330
765
100
AcDbEntity
  8
DEFPOINTS
 62
     0
100
AcDbPoint
 10
1159.12496513794
 20
4.999999334791823
 30
0.0
  0
ENDBLK
  5
767
330
765
100
AcDbEntity
  8
0
100
AcDbBlockEnd
  0
BLOCK
  5
772
330
771
100
AcDbEntity
  8
0
100
AcDbBlockBegin
  2
*D12
 70
     1
 10
0.0
 20
0.0
 30
0.0
  3
*D12
  1

  0
LINE
  5
BAA
330
771
100
AcDbEntity
  8
AM_5
  6
ByBlock
100
AcDbLine
 10
125.1249651379407
 20
590.3351595424383
 30
0.0
 11
65.12496513794075
 21
590.3351595424383
 31
0.0
  0
LINE
  5
BAB
330
771
100
AcDbEntity
  8
AM_5
  6
ByBlock
100
AcDbLine
 10
125.1249651379407
 20
664.3351595424383
 30
0.0
 11
65.12496513794076
 21
664.3351595424383
 31
0.0
  0
LINE
  5
BAC
330
771
100
AcDbEntity
  8
AM_5
  6
ByBlock
100
AcDbLine
 10
70.12496513794075
 20
607.8351595424383
 30
0.0
 11
70.12496513794076
 21
646.8351595424382
 31
0.0
  0
SOLID
  5
BAD
330
771
100
AcDbEntity
  8
AM_5
100
AcDbTrace
 10
67.20829847127408
 20
607.8351595424383
 30
0.0
 11
73.04163180460742
 21
607.8351595424383
 31
0.0
 12
70.12496513794075
 22
590.3351595424383
 32
0.0
 13
70.12496513794075
 23
590.3351595424383
 33
0.0
  0
SOLID
  5
BAE
330
771
100
AcDbEntity
  8
AM_5
100
AcDbTrace
 10
67.20829847127409
 20
646.8351595424382
 30
0.0
 11
73.04163180460744
 21
646.8351595424382
 31
0.0
 12
70.12496513794076
 22
664.3351595424383
 32
0.0
 13
70.12496513794076
 23
664.3351595424383
 33
0.0
  0
MTEXT
  5
BAF
330
771
100
AcDbEntity
  8
AM_5
 62
     2
100
AcDbMText
 10
53.87496513794065
 20
627.3351595424383
 30
0.0
 40
17.5
 41
0.0
 71
     5
 72
     1
  1
74
 11
0.0000000000000001
 21
1.0
 31
0.0
 73
     1
 44
1.0
1001
ACAD
1000
MTEXTBEGIN
1070
    73
1070
     1
1070
    44
1040
1.0
1070
    74
1070
     0
1000
MTEXTEND
  0
POINT
  5
BB0
330
771
100
AcDbEntity
  8
DEFPOINTS
 62
     0
100
AcDbPoint
 10
130.1249651379407
 20
590.3351595424383
 30
0.0
  0
POINT
  5
BB1
330
771
100
AcDbEntity
  8
DEFPOINTS
 62
     0
100
AcDbPoint
 10
130.1249651379407
 20
664.3351595424383
 30
0.0
  0
POINT
  5
BB2
330
771
100
AcDbEntity
  8
DEFPOINTS
 62
     0
100
AcDbPoint
 10
70.12496513794076
 20
664.3351595424383
 30
0.0
  0
ENDBLK
  5
773
330
771
100
AcDbEntity
  8
0
100
AcDbBlockEnd
  0
BLOCK
  5
77E
330
77D
100
AcDbEntity
  8
0
100
AcDbBlockBegin
  2
*D13
 70
     1
 10
0.0
 20
0.0
 30
0.0
  3
*D13
  1

  0
LINE
  5
BB3
330
77D
100
AcDbEntity
  8
AM_5
  6
ByBlock
100
AcDbLine
 10
94.1249651379408
 20
147.9231592329602
 30
0.0
 11
19.12500006374606
 21
147.9231592329602
 31
0.0
  0
LINE
  5
BB4
330
77D
100
AcDbEntity
  8
AM_5
  6
ByBlock
100
AcDbLine
 10
94.1249651379408
 20
280.9131592319113
 30
0.0
 11
19.12500006374609
 21
280.9131592319113
 31
0.0
  0
LINE
  5
BB5
330
77D
100
AcDbEntity
  8
AM_5
  6
ByBlock
100
AcDbLine
 10
24.12500006374606
 20
165.4231592329602
 30
0.0
 11
24.12500006374608
 21
263.4131592319113
 31
0.0
  0
SOLID
  5
BB6
330
77D
100
AcDbEntity
  8
AM_5
100
AcDbTrace
 10
21.20833339707939
 20
165.4231592329602
 30
0.0
 11
27.04166673041273
 21
165.4231592329602
 31
0.0
 12
24.12500006374605
 22
147.9231592329602
 32
0.0
 13
24.12500006374605
 23
147.9231592329602
 33
0.0
  0
SOLID
  5
BB7
330
77D
100
AcDbEntity
  8
AM_5
100
AcDbTrace
 10
21.20833339707941
 20
263.4131592319113
 30
0.0
 11
27.04166673041275
 21
263.4131592319113
 31
0.0
 12
24.12500006374609
 22
280.9131592319113
 32
0.0
 13
24.12500006374609
 23
280.9131592319113
 33
0.0
  0
MTEXT
  5
BB8
330
77D
100
AcDbEntity
  8
AM_5
 62
     2
100
AcDbMText
 10
7.875000063746035
 20
219.9231592324224
 30
0.0
 40
17.5
 41
0.0
 71
     5
 72
     1
  1
133
 11
0.0000000000000001
 21
1.0
 31
0.0
 73
     1
 44
1.0
1001
ACAD
1000
MTEXTBEGIN
1070
    73
1070
     1
1070
    44
1040
1.0
1070
    74
1070
     0
1000
MTEXTEND
  0
POINT
  5
BB9
330
77D
100
AcDbEntity
  8
DEFPOINTS
 62
     0
100
AcDbPoint
 10
99.1249651379408
 20
147.9231592329602
 30
0.0
  0
POINT
  5
BBA
330
77D
100
AcDbEntity
  8
DEFPOINTS
 62
     0
100
AcDbPoint
 10
99.1249651379408
 20
280.9131592319113
 30
0.0
  0
POINT
  5
BBB
330
77D
100
AcDbEntity
  8
DEFPOINTS
 62
     0
100
AcDbPoint
 10
24.12500006374609
 20
280.9131592319113
 30
0.0
  0
ENDBLK
  5
77F
330
77D
100
AcDbEntity
  8
0
100
AcDbBlockEnd
  0
BLOCK
  5
78A
330
789
100
AcDbEntity
  8
0
100
AcDbBlockBegin
  2
*D14
 70
     1
 10
0.0
 20
0.0
 30
0.0
  3
*D14
  1

  0
LINE
  5
C05
330
789
100
AcDbEntity
  8
AM_5
  6
ByBlock
100
AcDbLine
 10
126.1249651379407
 20
177.923159232071
 30
0.0
 11
66.98854493011689
 21
177.923159232071
 31
0.0
  0
LINE
  5
C06
330
789
100
AcDbEntity
  8
AM_5
  6
ByBlock
100
AcDbLine
 10
126.1249651379408
 20
259.9131592319111
 30
0.0
 11
66.9885449301169
 21
259.9131592319111
 31
0.0
  0
LINE
  5
C07
330
789
100
AcDbEntity
  8
AM_5
  6
ByBlock
100
AcDbLine
 10
71.98854493011689
 20
195.423159232071
 30
0.0
 11
71.98854493011691
 21
242.4131592319111
 31
0.0
  0
SOLID
  5
C08
330
789
100
AcDbEntity
  8
AM_5
100
AcDbTrace
 10
69.07187826345022
 20
195.423159232071
 30
0.0
 11
74.90521159678356
 21
195.423159232071
 31
0.0
 12
71.98854493011689
 22
177.923159232071
 32
0.0
 13
71.98854493011689
 23
177.923159232071
 33
0.0
  0
SOLID
  5
C09
330
789
100
AcDbEntity
  8
AM_5
100
AcDbTrace
 10
69.07187826345022
 20
242.4131592319111
 30
0.0
 11
74.90521159678356
 21
242.4131592319111
 31
0.0
 12
71.98854493011691
 22
259.9131592319111
 32
0.0
 13
71.98854493011691
 23
259.9131592319111
 33
0.0
  0
MTEXT
  5
C0A
330
789
100
AcDbEntity
  8
AM_5
 62
     2
100
AcDbMText
 10
55.73682248917197
 20
219.9231592319896
 30
0.0
 40
17.5
 41
0.0
 71
     5
 72
     1
  1
82
 11
0.0000000000000001
 21
1.0
 31
0.0
 73
     1
 44
1.0
1001
ACAD
1000
MTEXTBEGIN
1070
    73
1070
     1
1070
    44
1040
1.0
1070
    74
1070
     0
1000
MTEXTEND
  0
POINT
  5
C0B
330
789
100
AcDbEntity
  8
DEFPOINTS
 62
     0
100
AcDbPoint
 10
131.1249651379407
 20
177.923159232071
 30
0.0
  0
POINT
  5
C0C
330
789
100
AcDbEntity
  8
DEFPOINTS
 62
     0
100
AcDbPoint
 10
131.1249651379408
 20
259.913159231911
 30
0.0
  0
POINT
  5
C0D
330
789
100
AcDbEntity
  8
DEFPOINTS
 62
     0
100
AcDbPoint
 10
71.98854493011691
 20
259.9131592319111
 30
0.0
  0
ENDBLK
  5
78B
330
789
100
AcDbEntity
  8
0
100
AcDbBlockEnd
  0
BLOCK
  5
796
330
795
100
AcDbEntity
  8
0
100
AcDbBlockBegin
  2
*D15
 70
     1
 10
0.0
 20
0.0
 30
0.0
  3
*D15
  1

  0
LINE
  5
CE3
330
795
100
AcDbEntity
  8
AM_5
  6
ByBlock
100
AcDbLine
 10
604.1249651559194
 20
496.5528453885169
 30
0.0
 11
604.1249651559194
 21
428.2321826880528
 31
0.0
  0
LINE
  5
CE4
330
795
100
AcDbEntity
  8
AM_5
  6
ByBlock
100
AcDbLine
 10
654.1249651565561
 20
496.5528453885169
 30
0.0
 11
654.1249651565561
 21
428.2321826880528
 31
0.0
  0
LINE
  5
CE5
330
795
100
AcDbEntity
  8
AM_5
  6
ByBlock
100
AcDbLine
 10
621.6249651559194
 20
433.2321826880528
 30
0.0
 11
636.624965156556
 21
433.2321826880528
 31
0.0
  0
SOLID
  5
CE6
330
795
100
AcDbEntity
  8
AM_5
100
AcDbTrace
 10
621.6249651559194
 20
436.1488493547195
 30
0.0
 11
621.6249651559194
 21
430.3155160213861
 31
0.0
 12
604.1249651559194
 22
433.2321826880528
 32
0.0
 13
604.1249651559194
 23
433.2321826880528
 33
0.0
  0
SOLID
  5
CE7
330
795
100
AcDbEntity
  8
AM_5
100
AcDbTrace
 10
636.624965156556
 20
436.1488493547195
 30
0.0
 11
636.624965156556
 21
430.3155160213861
 31
0.0
 12
654.1249651565561
 22
433.2321826880528
 32
0.0
 13
654.1249651565561
 23
433.2321826880528
 33
0.0
  0
MTEXT
  5
CE8
330
795
100
AcDbEntity
  8
AM_5
 62
     2
100
AcDbMText
 10
629.1249651562377
 20
449.4821826880528
 30
0.0
 40
17.5
 41
0.0
 71
     5
 72
     1
  1
%%c50
 73
     1
 44
1.0
1001
ACAD
1000
MTEXTBEGIN
1070
    73
1070
     1
1070
    44
1040
1.0
1070
    74
1070
     0
1000
MTEXTEND
  0
POINT
  5
CE9
330
795
100
AcDbEntity
  8
DEFPOINTS
 62
     0
100
AcDbPoint
 10
604.1249651559194
 20
501.552845388517
 30
0.0
  0
POINT
  5
CEA
330
795
100
AcDbEntity
  8
DEFPOINTS
 62
     0
100
AcDbPoint
 10
654.1249651565561
 20
501.552845388517
 30
0.0
  0
POINT
  5
CEB
330
795
100
AcDbEntity
  8
DEFPOINTS
 62
     0
100
AcDbPoint
 10
654.1249651565561
 20
433.2321826880528
 30
0.0
  0
ENDBLK
  5
797
330
795
100
AcDbEntity
  8
0
100
AcDbBlockEnd
  0
BLOCK
  5
978
330
977
100
AcDbEntity
  8
0
100
AcDbBlockBegin
  2
*D16
 70
     1
 10
0.0
 20
0.0
 30
0.0
  3
*D16
  1

  0
LINE
  5
BCE
330
977
100
AcDbEntity
  8
AM_5
  6
ByBlock
100
AcDbLine
 10
1164.12496513794
 20
704.3351595424374
 30
0.0
 11
1241.001649169921
 21
704.3351595424374
 31
0.0
  0
LINE
  5
BCF
330
977
100
AcDbEntity
  8
AM_5
  6
ByBlock
100
AcDbLine
 10
1132.12496513794
 20
664.3351595424383
 30
0.0
 11
1241.001649169921
 21
664.3351595424383
 31
0.0
  0
LINE
  5
BD0
330
977
100
AcDbEntity
  8
AM_5
  6
ByBlock
100
AcDbLine
 10
1236.001649169921
 20
721.8351595424373
 30
0.0
 11
1236.001649169921
 21
739.3351595424372
 31
0.0
  0
LINE
  5
BD1
330
977
100
AcDbEntity
  8
AM_5
  6
ByBlock
100
AcDbLine
 10
1236.001649169921
 20
646.8351595424382
 30
0.0
 11
1236.001649169921
 21
629.3351595424383
 31
0.0
  0
LINE
  5
BD2
330
977
100
AcDbEntity
  8
AM_5
  6
ByBlock
100
AcDbLine
 10
1236.001649169921
 20
704.3351595424374
 30
0.0
 11
1236.001649169921
 21
664.3351595424383
 31
0.0
  0
SOLID
  5
BD3
330
977
100
AcDbEntity
  8
AM_5
100
AcDbTrace
 10
1233.084982503254
 20
721.8351595424373
 30
0.0
 11
1238.918315836588
 21
721.8351595424373
 31
0.0
 12
1236.001649169921
 22
704.3351595424374
 32
0.0
 13
1236.001649169921
 23
704.3351595424374
 33
0.0
  0
SOLID
  5
BD4
330
977
100
AcDbEntity
  8
AM_5
100
AcDbTrace
 10
1233.084982503254
 20
646.8351595424382
 30
0.0
 11
1238.918315836588
 21
646.8351595424382
 31
0.0
 12
1236.001649169921
 22
664.3351595424383
 32
0.0
 13
1236.001649169921
 23
664.3351595424383
 33
0.0
  0
MTEXT
  5
BD5
330
977
100
AcDbEntity
  8
AM_5
 62
     2
100
AcDbMText
 10
1219.751649169921
 20
684.335159542438
 30
0.0
 40
17.5
 41
0.0
 71
     5
 72
     1
  1
40
 11
0.0000000000000001
 21
1.0
 31
0.0
 73
     1
 44
1.0
1001
ACAD
1000
MTEXTBEGIN
1070
    73
1070
     1
1070
    44
1040
1.0
1070
    74
1070
     0
1000
MTEXTEND
  0
POINT
  5
BD6
330
977
100
AcDbEntity
  8
DEFPOINTS
 62
     0
100
AcDbPoint
 10
1159.12496513794
 20
704.3351595424374
 30
0.0
  0
POINT
  5
BD7
330
977
100
AcDbEntity
  8
DEFPOINTS
 62
     0
100
AcDbPoint
 10
1127.12496513794
 20
664.3351595424383
 30
0.0
  0
POINT
  5
BD8
330
977
100
AcDbEntity
  8
DEFPOINTS
 62
     0
100
AcDbPoint
 10
1236.001649169921
 20
664.3351595424383
 30
0.0
  0
ENDBLK
  5
979
330
977
100
AcDbEntity
  8
0
100
AcDbBlockEnd
  0
BLOCK
  5
9C3
330
9C2
100
AcDbEntity
  8
0
100
AcDbBlockBegin
  2
*D17
 70
     1
 10
0.0
 20
0.0
 30
0.0
  3
*D17
  1

  0
LINE
  5
BD9
330
9C2
100
AcDbEntity
  8
AM_5
  6
ByBlock
100
AcDbLine
 10
1164.12496513794
 20
279.9131592319113
 30
0.0
 11
1246.886597481455
 21
279.9131592319113
 31
0.0
  0
LINE
  5
BDA
330
9C2
100
AcDbEntity
  8
AM_5
  6
ByBlock
100
AcDbLine
 10
1132.12496513794
 20
259.9131592319101
 30
0.0
 11
1246.886597481455
 21
259.91315923191
 31
0.0
  0
LINE
  5
BDB
330
9C2
100
AcDbEntity
  8
AM_5
  6
ByBlock
100
AcDbLine
 10
1241.886597481455
 20
297.4131592319113
 30
0.0
 11
1241.886597481455
 21
314.9131592319113
 31
0.0
  0
LINE
  5
BDC
330
9C2
100
AcDbEntity
  8
AM_5
  6
ByBlock
100
AcDbLine
 10
1241.886597481455
 20
242.41315923191
 30
0.0
 11
1241.886597481455
 21
190.2049899405714
 31
0.0
  0
LINE
  5
BDD
330
9C2
100
AcDbEntity
  8
AM_5
  6
ByBlock
100
AcDbLine
 10
1241.886597481455
 20
279.9131592319113
 30
0.0
 11
1241.886597481455
 21
259.91315923191
 31
0.0
  0
SOLID
  5
BDE
330
9C2
100
AcDbEntity
  8
AM_5
100
AcDbTrace
 10
1238.969930814788
 20
297.4131592319113
 30
0.0
 11
1244.803264148121
 21
297.4131592319113
 31
0.0
 12
1241.886597481455
 22
279.9131592319113
 32
0.0
 13
1241.886597481455
 23
279.9131592319113
 33
0.0
  0
SOLID
  5
BDF
330
9C2
100
AcDbEntity
  8
AM_5
100
AcDbTrace
 10
1238.969930814788
 20
242.41315923191
 30
0.0
 11
1244.803264148121
 21
242.41315923191
 31
0.0
 12
1241.886597481455
 22
259.91315923191
 32
0.0
 13
1241.886597481455
 23
259.91315923191
 33
0.0
  0
MTEXT
  5
BE0
330
9C2
100
AcDbEntity
  8
AM_5
 62
     2
100
AcDbMText
 10
1225.63487504051
 20
207.5590745862409
 30
0.0
 40
17.5
 41
0.0
 71
     5
 72
     1
  1
20
 11
0.0000000000000001
 21
1.0
 31
0.0
 73
     1
 44
1.0
1001
ACAD
1000
MTEXTBEGIN
1070
    73
1070
     1
1070
    44
1040
1.0
1070
    74
1070
     0
1000
MTEXTEND
  0
POINT
  5
BE1
330
9C2
100
AcDbEntity
  8
DEFPOINTS
 62
     0
100
AcDbPoint
 10
1159.12496513794
 20
279.9131592319113
 30
0.0
  0
POINT
  5
BE2
330
9C2
100
AcDbEntity
  8
DEFPOINTS
 62
     0
100
AcDbPoint
 10
1127.12496513794
 20
259.9131592319101
 30
0.0
  0
POINT
  5
BE3
330
9C2
100
AcDbEntity
  8
DEFPOINTS
 62
     0
100
AcDbPoint
 10
1241.886597481455
 20
259.91315923191
 30
0.0
  0
ENDBLK
  5
9C4
330
9C2
100
AcDbEntity
  8
0
100
AcDbBlockEnd
  0
ENDSEC
  0
SECTION
  2
ENTITIES
  0
LINE
  5
6EB
330
1F
100
AcDbEntity
  8
RUNDUNGEN
  6
Continuous
 62
     7
100
AcDbLine
 10
131.1249651379407
 20
644.6568158368403
 30
0.0
 11
131.1249651379407
 21
650.3351595424383
 31
0.0
  0
LINE
  5
6EC
330
1F
100
AcDbEntity
  8
RUNDUNGEN
  6
Continuous
 62
     7
100
AcDbLine
 10
131.1249651379407
 20
651.3351595424382
 30
0.0
 11
131.1249651379407
 21
664.3351595424383
 31
0.0
  0
LINE
  5
6ED
330
1F
100
AcDbEntity
  8
RUNDUNGEN
  6
Continuous
 62
     7
100
AcDbLine
 10
131.1249651379407
 20
664.3351595424375
 30
0.0
 11
1127.12496513794
 21
664.3351595424383
 31
0.0
  0
LINE
  5
6EE
330
1F
100
AcDbEntity
  8
0
  6
Continuous
 62
     7
100
AcDbLine
 10
1159.12496513794
 20
651.3351595424364
 30
0.0
 11
99.1249651379408
 21
651.3351595424382
 31
0.0
  0
LINE
  5
6EF
330
1F
100
AcDbEntity
  8
0
  6
Continuous
 62
     7
100
AcDbLine
 10
1159.12496513794
 20
650.3351595424391
 30
0.0
 11
99.1249651379408
 21
650.3351595424383
 31
0.0
  0
LINE
  5
6F0
330
1F
100
AcDbEntity
  8
RUNDUNGEN
  6
Continuous
 62
     9
100
AcDbLine
 10
131.1249651379407
 20
648.2591013202402
 30
0.0
 11
1127.12496513794
 21
648.2591013202372
 31
0.0
  0
LINE
  5
6F1
330
1F
100
AcDbEntity
  8
RUNDUNGEN
  6
Continuous
 62
     7
100
AcDbLine
 10
1127.12496513794
 20
644.6568158368392
 30
0.0
 11
667.5965160627387
 21
644.6568158368403
 31
0.0
  0
LINE
  5
6F2
330
1F
100
AcDbEntity
  8
RUNDUNGEN
  6
Continuous
 62
     7
100
AcDbLine
 10
590.6534142131497
 20
644.6568158368403
 30
0.0
 11
131.1249651379407
 21
644.6568158368403
 31
0.0
  0
LINE
  5
6F3
102
{ACAD_REACTORS
330
984
102
}
330
1F
100
AcDbEntity
  8
RUNDUNGEN
  6
Continuous
 62
     7
100
AcDbLine
 10
1127.12496513794
 20
664.3351595424383
 30
0.0
 11
1127.12496513794
 21
651.3351595424382
 31
0.0
  0
LINE
  5
6F4
330
1F
100
AcDbEntity
  8
RUNDUNGEN
  6
Continuous
 62
     7
100
AcDbLine
 10
1127.12496513794
 20
650.3351595424383
 30
0.0
 11
1127.12496513794
 21
644.6568158368381
 31
0.0
  0
LINE
  5
6F5
330
1F
100
AcDbEntity
  8
RUNDUNGEN
  6
Continuous
 62
     7
100
AcDbLine
 10
131.1249651379407
 20
147.9231592319082
 30
0.0
 11
131.1249651379408
 21
279.9131592319114
 31
0.0
  0
LINE
  5
6F6
330
1F
100
AcDbEntity
  8
0
  6
Continuous
 62
     7
100
AcDbLine
 10
1127.12496513794
 20
280.9131592319149
 30
0.0
 11
131.1249651379408
 21
280.9131592319111
 31
0.0
  0
LINE
  5
6F8
102
{ACAD_REACTORS
330
9CF
102
}
330
1F
100
AcDbEntity
  8
RUNDUNGEN
  6
Continuous
 62
     7
100
AcDbLine
 10
131.1249651379407
 20
259.913159231911
 30
0.0
 11
1127.12496513794
 21
259.9131592319101
 31
0.0
  0
LINE
  5
6F9
330
1F
100
AcDbEntity
  8
RUNDUNGEN
  6
Continuous
 62
     7
100
AcDbLine
 10
131.1249651379407
 20
219.9231592319211
 30
0.0
 11
591.1251900238425
 21
219.9231592323662
 31
0.0
  0
LINE
  5
6FA
330
1F
100
AcDbEntity
  8
RUNDUNGEN
  6
Continuous
 62
     7
100
AcDbLine
 10
666.6249651379407
 20
219.9231592315657
 30
0.0
 11
1127.12496513794
 21
219.9231592323105
 31
0.0
  0
LINE
  5
6FB
330
1F
100
AcDbEntity
  8
RUNDUNGEN
  6
Continuous
 62
     7
100
AcDbLine
 10
131.1249651379407
 20
179.933159232071
 30
0.0
 11
1127.12496513794
 21
179.933159232071
 31
0.0
  0
LINE
  5
6FC
330
1F
100
AcDbEntity
  8
RUNDUNGEN
  6
Continuous
 62
     7
100
AcDbLine
 10
131.1249651379407
 20
177.923159232071
 30
0.0
 11
1127.12496513794
 21
177.9231592320669
 31
0.0
  0
LINE
  5
6FD
330
1F
100
AcDbEntity
  8
0
  6
Continuous
 62
     7
100
AcDbLine
 10
1127.124965137941
 20
147.9231592329611
 30
0.0
 11
131.1249651379407
 21
147.9231592329602
 31
0.0
  0
LINE
  5
6FE
330
1F
100
AcDbEntity
  8
RUNDUNGEN
  6
Continuous
 62
     7
100
AcDbLine
 10
1127.12496513794
 20
279.9131592319113
 30
0.0
 11
1127.12496513794
 21
147.9231592329274
 31
0.0
  0
LINE
  5
6FF
330
1F
100
AcDbEntity
  8
RUNDUNGEN
  6
Continuous
 62
     7
100
AcDbLine
 10
591.6392246363397
 20
219.9231592257667
 30
0.0
 11
591.6249651379407
 21
219.923159225967
 31
0.0
  0
LINE
  5
700
330
1F
100
AcDbEntity
  8
RUNDUNGEN
  6
Continuous
 62
     7
100
AcDbLine
 10
591.6249651379407
 20
219.923159225967
 30
0.0
 11
591.1251900238425
 21
219.9231592317659
 31
0.0
  0
LINE
  5
701
330
1F
100
AcDbEntity
  8
RUNDUNGEN
  6
Continuous
 62
     7
100
AcDbLine
 10
666.6107056396432
 20
219.9231592382669
 30
0.0
 11
666.6249651379407
 21
219.9231592380666
 31
0.0
  0
LINE
  5
702
330
1F
100
AcDbEntity
  8
AM_7
100
AcDbLine
 10
629.1249651379407
 20
606.5235921436133
 30
0.0
 11
629.1249651379407
 21
676.3351595424382
 31
0.0
1001
GENIUS_GENOBJ-N-CEN_13
1002
{
1000
OWNER
1000
GEN
1002
}
1001
GENIUS_GENODEF_13
1002
{
1000
HIER
1070
     0
1002
}
1002
{
1000
MANEDIT
1070
     0
1002
}
1002
{
1000
NOSEL
1070
     0
1002
}
1002
{
1000
BEHIND
1070
     0
1002
}
1002
{
1000
OTHER
1070
     0
1002
}
1002
{
1000
REACTOR
1002
}
1001
GENIUS_GENCEN_19
1002
{
1040
12.0
1002
}
  0
LINE
  5
703
330
1F
100
AcDbEntity
  8
0
100
AcDbLine
 10
1127.12496513794
 20
279.9131592319113
 30
0.0
 11
1127.12496513794
 21
147.9231592329274
 31
0.0
  0
LINE
  5
704
330
1F
100
AcDbEntity
  8
0
100
AcDbLine
 10
131.1249651379407
 20
147.9231592319082
 30
0.0
 11
131.1249651379407
 21
279.9131592319112
 31
0.0
  0
LINE
  5
705
330
1F
100
AcDbEntity
  8
0
100
AcDbLine
 10
591.6529978618857
 20
643.6856694184982
 30
0.0
 11
592.1249651379407
 21
627.3351595424383
 31
0.0
  0
ARC
  5
706
330
1F
100
AcDbEntity
  8
0
100
AcDbCircle
 10
590.6534142131497
 20
643.6568158368403
 30
0.0
 40
1.0
100
AcDbArc
 50
1.653417926862472
 51
90.0
  0
LINE
  5
707
330
1F
100
AcDbEntity
  8
0
100
AcDbLine
 10
592.1249651379407
 20
627.3351595424383
 30
0.0
 11
666.1249651379407
 21
627.3351595424383
 31
0.0
  0
LINE
  5
708
330
1F
100
AcDbEntity
  8
0
100
AcDbLine
 10
666.1249651379407
 20
627.3351595424383
 30
0.0
 11
666.5969324139953
 21
643.6856694184982
 31
0.0
  0
ARC
  5
709
330
1F
100
AcDbEntity
  8
0
100
AcDbCircle
 10
667.5965160627387
 20
643.6568158368403
 30
0.0
 40
1.0
100
AcDbArc
 50
90.0
 51
178.3465820731375
  0
LINE
  5
70A
330
1F
100
AcDbEntity
  8
AM_7
100
AcDbLine
 10
629.1249651379407
 20
219.9231592366007
 30
0.0
 11
678.6249651379407
 21
219.9231592366007
 31
0.0
1001
GENIUS_GENOREF_13
1005
758
  0
LINE
  5
70B
330
1F
100
AcDbEntity
  8
AM_7
100
AcDbLine
 10
629.1249651379407
 20
219.9231592366007
 30
0.0
 11
579.6249651379407
 21
219.9231592366007
 31
0.0
1001
GENIUS_GENOREF_13
1005
758
  0
ARC
  5
70C
330
1F
100
AcDbEntity
  8
0
100
AcDbCircle
 10
628.8714777563002
 20
443.7316433175396
 30
0.0
 40
204.5276150863223
100
AcDbArc
 50
89.92898875367945
 51
100.7696033285291
  0
ARC
  5
70D
330
1F
100
AcDbEntity
  8
0
100
AcDbCircle
 10
629.3784525195807
 20
443.7316433175396
 30
0.0
 40
204.5276150863223
100
AcDbArc
 50
79.23039667147091
 51
90.07101124611208
  0
LINE
  5
70E
330
1F
100
AcDbEntity
  8
RUNDUNGEN
  6
Continuous
 62
     7
100
AcDbLine
 10
1127.12496513794
 20
567.3351595424382
 30
0.0
 11
1127.124965137944
 21
650.3351595424391
 31
0.0
  0
LINE
  5
70F
330
1F
100
AcDbEntity
  8
RUNDUNGEN
  6
Continuous
 62
     7
100
AcDbLine
 10
1127.124965137944
 20
651.3351595424382
 30
0.0
 11
1127.12496513794
 21
663.3351595424382
 31
0.0
  0
LINE
  5
710
330
1F
100
AcDbEntity
  8
0
  6
Continuous
 62
     9
100
AcDbLine
 10
1128.12496513794
 20
663.3351595424382
 30
0.0
 11
1128.12496513794
 21
652.3443632156385
 31
0.0
  0
LINE
  5
711
330
1F
100
AcDbEntity
  8
RUNDUNGEN
  6
Continuous
 62
     7
100
AcDbLine
 10
1128.124965137944
 20
590.3351595424383
 30
0.0
 11
1128.12496513794
 21
650.3351595424383
 31
0.0
  0
LINE
  5
712
330
1F
100
AcDbEntity
  8
RUNDUNGEN
  6
Continuous
 62
     7
100
AcDbLine
 10
1128.12496513794
 20
651.3351595424382
 30
0.0
 11
1128.12496513794
 21
652.3443632156385
 31
0.0
  0
LINE
  5
713
330
1F
100
AcDbEntity
  8
RUNDUNGEN
  6
Continuous
 62
     7
100
AcDbLine
 10
1129.12496513794
 20
652.3351595424383
 30
0.0
 11
1129.12496513794
 21
663.3351595424382
 31
0.0
  0
LINE
  5
714
330
1F
100
AcDbEntity
  8
0
  6
Continuous
 62
     7
100
AcDbLine
 10
1159.12496513794
 20
704.3351595424374
 30
0.0
 11
1159.12496513794
 21
650.3351595424383
 31
0.0
  0
LINE
  5
715
330
1F
100
AcDbEntity
  8
RUNDUNGEN
  6
Continuous
 62
     7
100
AcDbLine
 10
1127.12496513794
 20
634.3351595424382
 30
0.0
 11
1128.12496513794
 21
634.3351595424382
 31
0.0
  0
LINE
  5
716
330
1F
100
AcDbEntity
  8
0
  6
Continuous
 62
     7
100
AcDbLine
 10
1159.12496513794
 20
650.3351595424383
 30
0.0
 11
1128.12496513794
 21
650.3351595424383
 31
0.0
  0
LINE
  5
717
330
1F
100
AcDbEntity
  8
RUNDUNGEN
  6
Continuous
 62
     7
100
AcDbLine
 10
1128.12496513794
 20
651.3351595424382
 30
0.0
 11
1159.12496513794
 21
651.3351595424382
 31
0.0
  0
LINE
  5
718
330
1F
100
AcDbEntity
  8
RUNDUNGEN
  6
Continuous
 62
     7
100
AcDbLine
 10
1129.12496513794
 20
652.3351595424383
 30
0.0
 11
1128.12496513794
 21
652.3351595424383
 31
0.0
  0
LINE
  5
719
330
1F
100
AcDbEntity
  8
RUNDUNGEN
  6
Continuous
 62
     7
100
AcDbLine
 10
1129.12496513794
 20
653.3443632156385
 30
0.0
 11
1128.12496513794
 21
653.3443632156385
 31
0.0
  0
LINE
  5
71A
330
1F
100
AcDbEntity
  8
RUNDUNGEN
  6
Continuous
 62
     7
100
AcDbLine
 10
1129.12496513794
 20
654.3443632156384
 30
0.0
 11
1128.12496513794
 21
654.3443632156384
 31
0.0
  0
LINE
  5
71B
330
1F
100
AcDbEntity
  8
RUNDUNGEN
  6
Continuous
 62
     7
100
AcDbLine
 10
1129.12496513794
 20
663.3351595424382
 30
0.0
 11
1127.12496513794
 21
663.3351595424382
 31
0.0
  0
ARC
  5
71C
330
1F
100
AcDbEntity
  8
0
  6
Continuous
 62
     7
100
AcDbCircle
 10
1130.12496513794
 20
652.3351595424383
 30
0.0
 40
2.0
100
AcDbArc
 50
180.0
 51
210.0383073755363
  0
ARC
  5
71D
330
1F
100
AcDbEntity
  8
RUNDUNGEN
  6
Continuous
 62
     7
100
AcDbCircle
 10
1130.12496513794
 20
652.3351595424383
 30
0.0
 40
1.0
100
AcDbArc
 50
180.0
 51
270.0
  0
ARC
  5
71E
330
1F
100
AcDbEntity
  8
RUNDUNGEN
  6
Continuous
 62
     7
100
AcDbCircle
 10
1128.12496513794
 20
663.3351595424382
 30
0.0
 40
1.0
100
AcDbArc
 50
0.0
 51
180.0
  0
LINE
  5
71F
330
1F
100
AcDbEntity
  8
0
100
AcDbLine
 10
1127.12496513794
 20
147.9231592329602
 30
0.0
 11
1159.12496513794
 21
147.9231592329602
 31
0.0
  0
LINE
  5
720
330
1F
100
AcDbEntity
  8
0
100
AcDbLine
 10
1129.12496513794
 20
260.3131592319096
 30
0.0
 11
1129.12496513794
 21
179.5331592320706
 31
0.0
  0
LINE
  5
721
330
1F
100
AcDbEntity
  8
0
100
AcDbLine
 10
1159.12496513794
 20
147.9231592329602
 30
0.0
 11
1159.12496513794
 21
280.9131592319113
 31
0.0
  0
LINE
  5
722
330
1F
100
AcDbEntity
  8
0
100
AcDbLine
 10
1129.12496513794
 20
260.3131592319096
 30
0.0
 11
1127.12496513794
 21
260.3131592319096
 31
0.0
  0
LINE
  5
723
330
1F
100
AcDbEntity
  8
0
100
AcDbLine
 10
1127.12496513794
 20
280.9131592319113
 30
0.0
 11
1159.12496513794
 21
280.9131592319113
 31
0.0
  0
LINE
  5
724
330
1F
100
AcDbEntity
  8
0
100
AcDbLine
 10
1129.12496513794
 20
179.5331592320706
 30
0.0
 11
1127.12496513794
 21
179.5331592320706
 31
0.0
  0
LINE
  5
725
330
1F
100
AcDbEntity
  8
0
100
AcDbLine
 10
131.1249651379407
 20
147.9231592329602
 30
0.0
 11
99.1249651379408
 21
147.9231592329602
 31
0.0
  0
LINE
  5
726
330
1F
100
AcDbEntity
  8
0
100
AcDbLine
 10
129.1249651379407
 20
260.3131592319096
 30
0.0
 11
129.1249651379407
 21
179.5331592320706
 31
0.0
  0
LINE
  5
727
330
1F
100
AcDbEntity
  8
0
100
AcDbLine
 10
99.1249651379408
 20
147.9231592318756
 30
0.0
 11
99.1249651379408
 21
280.9131592319113
 31
0.0
  0
LINE
  5
728
330
1F
100
AcDbEntity
  8
0
100
AcDbLine
 10
129.1249651379407
 20
260.3131592319096
 30
0.0
 11
131.1249651379407
 21
260.3131592319096
 31
0.0
  0
LINE
  5
729
330
1F
100
AcDbEntity
  8
0
100
AcDbLine
 10
131.1249651379408
 20
280.9131592319113
 30
0.0
 11
99.12496513794089
 21
280.9131592319113
 31
0.0
  0
LINE
  5
72A
330
1F
100
AcDbEntity
  8
0
100
AcDbLine
 10
129.1249651379407
 20
179.5331592320706
 30
0.0
 11
131.1249651379407
 21
179.5331592320706
 31
0.0
  0
LINE
  5
72B
330
1F
100
AcDbEntity
  8
RUNDUNGEN
  6
Continuous
 62
     7
100
AcDbLine
 10
131.1249651379407
 20
567.3351595424382
 30
0.0
 11
131.1249651379407
 21
644.6568158368403
 31
0.0
  0
LINE
  5
72C
330
1F
100
AcDbEntity
  8
0
  6
Continuous
 62
     9
100
AcDbLine
 10
130.1249651379407
 20
663.3351595424382
 30
0.0
 11
130.1249651379407
 21
652.3443632156385
 31
0.0
  0
LINE
  5
72D
330
1F
100
AcDbEntity
  8
RUNDUNGEN
  6
Continuous
 62
     7
100
AcDbLine
 10
130.1249651379407
 20
590.3351595424392
 30
0.0
 11
130.1249651379407
 21
650.3351595424383
 31
0.0
  0
LINE
  5
72E
330
1F
100
AcDbEntity
  8
RUNDUNGEN
  6
Continuous
 62
     7
100
AcDbLine
 10
129.1249651379407
 20
652.3351595424383
 30
0.0
 11
129.1249651379407
 21
663.3351595424382
 31
0.0
  0
LINE
  5
72F
330
1F
100
AcDbEntity
  8
0
  6
Continuous
 62
     7
100
AcDbLine
 10
99.1249651379408
 20
704.3351595424374
 30
0.0
 11
99.1249651379408
 21
650.3351595424383
 31
0.0
  0
LINE
  5
730
330
1F
100
AcDbEntity
  8
RUNDUNGEN
  6
Continuous
 62
     7
100
AcDbLine
 10
131.1249651379407
 20
634.3351595424382
 30
0.0
 11
130.1249651379407
 21
634.3351595424382
 31
0.0
  0
LINE
  5
731
330
1F
100
AcDbEntity
  8
0
  6
Continuous
 62
     7
100
AcDbLine
 10
99.1249651379408
 20
650.3351595424383
 30
0.0
 11
130.1249651379407
 21
650.3351595424383
 31
0.0
  0
LINE
  5
732
330
1F
100
AcDbEntity
  8
RUNDUNGEN
  6
Continuous
 62
     7
100
AcDbLine
 10
130.1249651379407
 20
651.3351595424382
 30
0.0
 11
99.1249651379408
 21
651.3351595424382
 31
0.0
  0
LINE
  5
733
330
1F
100
AcDbEntity
  8
RUNDUNGEN
  6
Continuous
 62
     7
100
AcDbLine
 10
129.1249651379407
 20
652.3351595424383
 30
0.0
 11
130.1249651379407
 21
652.3351595424383
 31
0.0
  0
LINE
  5
734
330
1F
100
AcDbEntity
  8
RUNDUNGEN
  6
Continuous
 62
     7
100
AcDbLine
 10
129.1249651379407
 20
653.3443632156385
 30
0.0
 11
130.1249651379407
 21
653.3443632156385
 31
0.0
  0
LINE
  5
735
330
1F
100
AcDbEntity
  8
RUNDUNGEN
  6
Continuous
 62
     7
100
AcDbLine
 10
129.1249651379407
 20
654.3443632156384
 30
0.0
 11
130.1249651379407
 21
654.3443632156384
 31
0.0
  0
LINE
  5
736
330
1F
100
AcDbEntity
  8
RUNDUNGEN
  6
Continuous
 62
     7
100
AcDbLine
 10
129.1249651379407
 20
663.3351595424382
 30
0.0
 11
131.1249651379407
 21
663.3351595424382
 31
0.0
  0
ARC
  5
737
330
1F
100
AcDbEntity
  8
0
  6
Continuous
 62
     7
100
AcDbCircle
 10
128.1249651379407
 20
652.3351595424383
 30
0.0
 40
2.0
100
AcDbArc
 50
329.9616926244635
 51
0.0
  0
ARC
  5
738
330
1F
100
AcDbEntity
  8
RUNDUNGEN
  6
Continuous
 62
     7
100
AcDbCircle
 10
128.1249651379407
 20
652.3351595424383
 30
0.0
 40
1.0
100
AcDbArc
 50
270.0
 51
0.0
  0
ARC
  5
739
102
{ACAD_REACTORS
330
753
102
}
330
1F
100
AcDbEntity
  8
RUNDUNGEN
  6
Continuous
 62
     7
100
AcDbCircle
 10
130.1249651379407
 20
663.3351595424382
 30
0.0
 40
1.0
100
AcDbArc
 50
0.0
 51
180.0
  0
INSERT
  5
73F
330
1F
100
AcDbEntity
  8
5
  6
ByBlock
100
AcDbBlockReference
  2
stutzen
 10
33.7557288937901
 20
279.2629471812627
 30
0.0
 41
0.1000000000021828
 42
0.1000000000003638
 43
0.1
  0
LINE
  5
741
330
1F
100
AcDbEntity
  8
0
100
AcDbLine
 10
1064.12496513794
 20
544.8397613790395
 30
0.0
 11
1124.12496513794
 21
544.8397613790395
 31
0.0
  0
LINE
  5
742
330
1F
100
AcDbEntity
  8
0
100
AcDbLine
 10
1124.12496513794
 20
544.8397613790395
 30
0.0
 11
1124.12496513794
 21
609.8397613790393
 31
0.0
  0
LINE
  5
743
330
1F
100
AcDbEntity
  8
0
100
AcDbLine
 10
1124.12496513794
 20
609.8397613790393
 30
0.0
 11
1127.12496513794
 21
609.8397613790393
 31
0.0
  0
LINE
  5
744
330
1F
100
AcDbEntity
  8
0
100
AcDbLine
 10
1127.12496513794
 20
609.8397613790393
 30
0.0
 11
1127.12496513794
 21
541.8397613790395
 31
0.0
  0
LINE
  5
745
330
1F
100
AcDbEntity
  8
0
100
AcDbLine
 10
1127.12496513794
 20
541.8397613790395
 30
0.0
 11
1064.12496513794
 21
541.8397613790395
 31
0.0
  0
LINE
  5
746
330
1F
100
AcDbEntity
  8
0
100
AcDbLine
 10
1064.12496513794
 20
541.8397613790395
 30
0.0
 11
1064.12496513794
 21
544.8397613790395
 31
0.0
  0
LINE
  5
747
330
1F
100
AcDbEntity
  8
0
100
AcDbLine
 10
194.1249651379407
 20
540.9959876896382
 30
0.0
 11
134.1249651379407
 21
540.9959876896382
 31
0.0
  0
LINE
  5
748
330
1F
100
AcDbEntity
  8
0
100
AcDbLine
 10
131.1249651379407
 20
537.9959876896382
 30
0.0
 11
194.1249651379407
 21
537.9959876896382
 31
0.0
  0
LINE
  5
749
330
1F
100
AcDbEntity
  8
0
100
AcDbLine
 10
134.1249651379407
 20
540.9959876896382
 30
0.0
 11
134.1249651379407
 21
605.9959876896384
 31
0.0
  0
LINE
  5
74A
330
1F
100
AcDbEntity
  8
0
100
AcDbLine
 10
134.1249651379407
 20
605.9959876896384
 30
0.0
 11
131.1249651379407
 21
605.9959876896384
 31
0.0
  0
LINE
  5
74B
330
1F
100
AcDbEntity
  8
0
100
AcDbLine
 10
131.1249651379407
 20
605.9959876896384
 30
0.0
 11
131.1249651379407
 21
537.9959876896382
 31
0.0
  0
LINE
  5
74C
330
1F
100
AcDbEntity
  8
0
100
AcDbLine
 10
194.1249651379407
 20
537.9959876896382
 30
0.0
 11
194.1249651379407
 21
540.9959876896382
 31
0.0
  0
LINE
  5
74D
102
{ACAD_REACTORS
330
753
102
}
330
1F
100
AcDbEntity
  8
0
100
AcDbLine
 10
130.1249651379407
 20
590.3351595424383
 30
0.0
 11
131.1249651379407
 21
590.3351595424383
 31
0.0
  0
LINE
  5
74E
330
1F
100
AcDbEntity
  8
0
100
AcDbLine
 10
1127.124965137944
 20
590.3351595424392
 30
0.0
 11
1128.12496513794
 21
590.3351595424383
 31
0.0
  0
DIMENSION
  5
74F
330
1F
100
AcDbEntity
  8
AM_5
100
AcDbDimension
  2
*D10
 10
1129.12496513794
 20
75.56833213854668
 30
0.0
 11
627.4187188474058
 21
75.56833213854668
 31
0.0
 70
   160
  1
<>
 71
     5
 42
999.9999999999992
  3
AM_DIN$0
100
AcDbAlignedDimension
 13
129.1249651379407
 23
179.5331592320706
 33
0.0
 14
1129.12496513794
 24
179.5331592320706
 34
0.0
100
AcDbRotatedDimension
1001
ACAD
1000
DSTYLE
1002
{
1070
   286
1070
     0
1070
   284
1070
     8
1070
   274
1070
     4
1070
   272
1070
     3
1070
    40
1040
5.0
1070
    47
1040
1.0
1070
    48
1040
1.0
1002
}
1001
ACAD_DSTYLE_DIMINSPECT
1070
   396
1000

1070
   395
1000

1070
   394
1070
     1
1070
   393
1070
     0
  0
DIMENSION
  5
750
330
1F
100
AcDbEntity
  8
AM_5
100
AcDbDimension
  2
*D11
 10
1159.12496513794
 20
4.999999334791823
 30
0.0
 11
627.4187188474058
 21
4.999999334791823
 31
0.0
 70
   160
  1
<>
 71
     5
 42
1059.999999999999
  3
AM_DIN$0
100
AcDbAlignedDimension
 13
99.1249651379408
 23
147.9231592318756
 33
0.0
 14
1159.12496513794
 24
147.9231592329602
 34
0.0
100
AcDbRotatedDimension
1001
ACAD
1000
DSTYLE
1002
{
1070
   286
1070
     0
1070
   284
1070
     8
1070
   274
1070
     4
1070
   272
1070
     3
1070
    40
1040
5.0
1070
    47
1040
1.0
1070
    48
1040
1.0
1002
}
1001
ACAD_DSTYLE_DIMINSPECT
1070
   396
1000
100%
1070
   395
1000

1070
   394
1070
    33
1070
   393
1070
     0
  0
DIMENSION
  5
751
102
{ACAD_XDICTIONARY
360
752
102
}
102
{ACAD_REACTORS
330
753
102
}
330
1F
100
AcDbEntity
  8
AM_5
100
AcDbDimension
  2
*D12
 10
70.12496513794076
 20
664.3351595424383
 30
0.0
 11
53.87496513794065
 21
627.3351595424383
 31
0.0
 70
    32
  1
<>
 71
     5
 42
74.0
  3
AM_DIN$0
100
AcDbAlignedDimension
 13
130.1249651379407
 23
590.3351595424383
 33
0.0
 14
130.1249651379407
 24
664.3351595424383
 34
0.0
 50
90.0
100
AcDbRotatedDimension
1001
ACAD
1000
DSTYLE
1002
{
1070
   286
1070
     0
1070
   284
1070
     8
1070
   274
1070
     4
1070
   272
1070
     3
1070
    40
1040
5.0
1070
    47
1040
1.0
1070
    48
1040
1.0
1002
}
1001
ACAD_DSTYLE_DIMINSPECT
1070
   396
1000
100%
1070
   395
1000

1070
   394
1070
    33
1070
   393
1070
     0
  0
LINE
  5
754
330
1F
100
AcDbEntity
  8
AM_7
100
AcDbLine
 10
629.1249651379404
 20
283.913159231913
 30
0.0
 11
629.1249651379407
 21
144.9231592329606
 31
0.0
1001
GENIUS_GENODEF_13
1002
{
1000
HIER
1070
     0
1002
}
1002
{
1000
MANEDIT
1070
     0
1002
}
1002
{
1000
NOSEL
1070
     0
1002
}
1002
{
1000
BEHIND
1070
     0
1002
}
1002
{
1000
OTHER
1070
     0
1002
}
1002
{
1000
REACTOR
1002
}
1001
GENIUS_GENOBJ-N-CEN_13
1002
{
1000
OWNER
1000
GEN
1002
}
1001
GENIUS_GENCEN_19
1002
{
1040
3.0
1002
}
  0
DIMENSION
  5
755
330
1F
100
AcDbEntity
  8
AM_5
100
AcDbDimension
  2
*D13
 10
24.12500006374609
 20
280.9131592319113
 30
0.0
 11
24.12500006374604
 21
219.9231592324224
 31
0.0
 70
   160
 71
     5
 42
132.9899999989511
  3
AM_DIN$0
100
AcDbAlignedDimension
 13
99.1249651379408
 23
147.9231592329602
 33
0.0
 14
99.1249651379408
 24
280.9131592319113
 34
0.0
 50
90.0
100
AcDbRotatedDimension
1001
ACAD_DSTYLE_DIMINSPECT
1070
   396
1000
100%
1070
   395
1000

1070
   394
1070
    33
1070
   393
1070
     0
1001
ACAD
1000
DSTYLE
1002
{
1070
    40
1040
5.0
1070
    47
1040
1.0
1070
    48
1040
1.0
1070
   271
1070
     0
1002
}
  0
DIMENSION
  5
756
330
1F
100
AcDbEntity
  8
AM_5
100
AcDbDimension
  2
*D14
 10
71.98854493011691
 20
259.9131592319111
 30
0.0
 11
71.98854493011686
 21
219.9231592319896
 31
0.0
 70
   160
 71
     5
 42
81.98999999984009
  3
AM_DIN$0
100
AcDbAlignedDimension
 13
131.1249651379407
 23
177.923159232071
 33
0.0
 14
131.1249651379408
 24
259.913159231911
 34
0.0
 50
89.99999999999978
100
AcDbRotatedDimension
1001
ACAD_DSTYLE_DIMINSPECT
1070
   396
1000
100%
1070
   395
1000

1070
   394
1070
    33
1070
   393
1070
     0
1001
ACAD
1000
DSTYLE
1002
{
1070
    40
1040
5.0
1070
    47
1040
1.0
1070
    48
1040
1.0
1070
   271
1070
     0
1002
}
  0
DIMENSION
  5
757
330
1F
100
AcDbEntity
  8
AM_5
100
AcDbDimension
  2
*D15
 10
654.1249651565561
 20
433.2321826880528
 30
0.0
 11
629.1249651562377
 21
433.2321826880528
 31
0.0
 70
   160
  1
%%c<>
 71
     5
 42
50.00000000063664
  3
AM_DIN$0
100
AcDbAlignedDimension
 13
604.1249651559194
 23
501.552845388517
 33
0.0
 14
654.1249651565561
 24
501.552845388517
 34
0.0
100
AcDbRotatedDimension
1001
ACAD_DSTYLE_DIMINSPECT
1070
   396
1000

1070
   395
1000

1070
   394
1070
     1
1070
   393
1070
     0
1001
ACAD
1000
DSTYLE
1002
{
1070
    40
1040
5.0
1070
    47
1040
1.0
1070
    48
1040
1.0
1002
}
  0
POINT
  5
758
330
1F
100
AcDbEntity
  8
0
 60
     1
100
AcDbPoint
 10
-11996.43074737411
 20
3106.674821209609
 30
0.0
1001
GENIUS_GENOENT_13
1002
{
1000
MYREF
1005
758
1002
}
1002
{
1000
GRP
1005
0
1002
}
1001
GENIUS_GENOLIS_13
1002
{
1000
ENT
1005
0
1005
70B
1005
0
1005
70A
1002
}
1001
GENIUS_GENOBJ-N-CRS_13
1002
{
1000
OWNER
1000
GEN
1002
}
1001
GENIUS_GENODEF_13
1002
{
1000
HIER
1070
    10
1002
}
1002
{
1000
MANEDIT
1070
     1
1002
}
1002
{
1000
NOSEL
1070
     0
1002
}
1002
{
1000
BEHIND
1070
     0
1002
}
1002
{
1000
OTHER
1070
     0
1002
}
1002
{
1000
REACTOR
1002
}
  0
LINE
  5
7A4
102
{ACAD_REACTORS
330
984
102
}
330
1F
100
AcDbEntity
  8
0
100
AcDbLine
 10
1159.12496513794
 20
704.3351595424374
 30
0.0
 11
99.1249651379408
 21
704.3351595424374
 31
0.0
  0
LINE
  5
7A5
330
1F
100
AcDbEntity
  8
0
100
AcDbLine
 10
131.1249651379408
 20
279.9131592319113
 30
0.0
 11
99.12496513794089
 21
279.9131592319113
 31
0.0
  0
LINE
  5
7A7
330
1F
100
AcDbEntity
  8
0
  6
Continuous
 62
     7
100
AcDbLine
 10
1127.12496513794
 20
279.9131592319148
 30
0.0
 11
131.1249651379408
 21
279.9131592319112
 31
0.0
  0
LINE
  5
7A8
102
{ACAD_REACTORS
330
9CF
102
}
330
1F
100
AcDbEntity
  8
0
100
AcDbLine
 10
1127.12496513794
 20
279.9131592319113
 30
0.0
 11
1159.12496513794
 21
279.9131592319113
 31
0.0
  0
LINE
  5
934
330
1F
100
AcDbEntity
  8
RUNDUNGEN
  6
Continuous
 62
     7
100
AcDbLine
 10
591.6392246363397
 20
219.9231592296472
 30
0.0
 11
591.6249651379407
 21
219.9231592298481
 31
0.0
  0
LINE
  5
935
330
1F
100
AcDbEntity
  8
RUNDUNGEN
  6
Continuous
 62
     7
100
AcDbLine
 10
591.6249651379407
 20
219.9231592298481
 30
0.0
 11
591.1251900238535
 21
219.9231592356462
 31
0.0
  0
LINE
  5
936
330
1F
100
AcDbEntity
  8
RUNDUNGEN
  6
Continuous
 62
     7
100
AcDbLine
 10
666.6107056396545
 20
219.9231592421472
 30
0.0
 11
666.6249651379407
 21
219.9231592419481
 31
0.0
  0
CIRCLE
  5
937
330
1F
100
AcDbEntity
  8
0
  6
Continuous
 62
     7
100
AcDbCircle
 10
629.1249651379407
 20
219.9231592404811
 30
0.0
 40
37.0
  0
LINE
  5
938
330
1F
100
AcDbEntity
  8
RUNDUNGEN
  6
Continuous
 62
     7
100
AcDbLine
 10
591.6392246363397
 20
219.9231592257677
 30
0.0
 11
591.6249651379407
 21
219.9231592259669
 31
0.0
  0
LINE
  5
939
330
1F
100
AcDbEntity
  8
RUNDUNGEN
  6
Continuous
 62
     7
100
AcDbLine
 10
591.6249651379407
 20
219.9231592259669
 30
0.0
 11
591.1251900238426
 21
219.9231592317658
 31
0.0
  0
LINE
  5
93A
330
1F
100
AcDbEntity
  8
RUNDUNGEN
  6
Continuous
 62
     7
100
AcDbLine
 10
666.6107056396436
 20
219.9231592382669
 30
0.0
 11
666.6249651379407
 21
219.9231592380668
 31
0.0
  0
LINE
  5
93B
330
1F
100
AcDbEntity
  8
0
  6
Continuous
 62
     7
100
AcDbLine
 10
659.1090881207422
 20
222.1731592366007
 30
0.0
 11
659.1090881207422
 21
217.6731592366007
 31
0.0
  0
LINE
  5
93C
330
1F
100
AcDbEntity
  8
0
  6
Continuous
 62
     7
100
AcDbLine
 10
651.9179320846419
 20
200.3121728051995
 30
0.0
 11
648.7359515693428
 21
197.1301922897994
 31
0.0
  0
LINE
  5
93D
330
1F
100
AcDbEntity
  8
0
  6
Continuous
 62
     7
100
AcDbLine
 10
626.8749651379407
 20
249.9072822194996
 30
0.0
 11
631.3749651379407
 21
249.9072822194996
 31
0.0
  0
LINE
  5
93E
330
1F
100
AcDbEntity
  8
0
  6
Continuous
 62
     7
100
AcDbLine
 10
648.7359515693428
 20
242.7161261834001
 30
0.0
 11
651.9179320846419
 21
239.5341456679992
 31
0.0
  0
LINE
  5
93F
330
1F
100
AcDbEntity
  8
0
  6
Continuous
 62
     7
100
AcDbLine
 10
652.09470877994
 20
198.3676291568993
 30
0.0
 11
651.9179320846419
 21
200.3121728051995
 31
0.0
  0
LINE
  5
940
330
1F
100
AcDbEntity
  8
0
  6
Continuous
 62
     7
100
AcDbLine
 10
651.9179320846419
 20
239.5341456679992
 30
0.0
 11
652.09470877994
 21
241.4786893163012
 31
0.0
  0
LINE
  5
941
330
1F
100
AcDbEntity
  8
0
  6
Continuous
 62
     7
100
AcDbLine
 10
630.1249651379407
 20
188.4390362537008
 30
0.0
 11
631.3749651379407
 21
189.9390362537008
 31
0.0
  0
LINE
  5
942
330
1F
100
AcDbEntity
  8
0
  6
Continuous
 62
     7
100
AcDbLine
 10
659.1090881207422
 20
217.6731592366007
 30
0.0
 11
660.6090881207422
 21
218.9231592365998
 31
0.0
  0
LINE
  5
943
330
1F
100
AcDbEntity
  8
0
  6
Continuous
 62
     7
100
AcDbLine
 10
650.6804952176394
 20
242.8929028787
 30
0.0
 11
648.7359515693428
 21
242.7161261834001
 31
0.0
  0
LINE
  5
944
330
1F
100
AcDbEntity
  8
0
  6
Continuous
 62
     7
100
AcDbLine
 10
609.5139787064403
 20
242.7161261834001
 30
0.0
 11
607.5694350582421
 21
242.8929028787
 31
0.0
  0
LINE
  5
945
330
1F
100
AcDbEntity
  8
0
  6
Continuous
 62
     7
100
AcDbLine
 10
660.6090881207422
 20
220.9231592365998
 30
0.0
 11
659.1090881207422
 21
222.1731592366007
 31
0.0
  0
LINE
  5
946
330
1F
100
AcDbEntity
  8
0
  6
Continuous
 62
     7
100
AcDbLine
 10
631.3749651379407
 20
249.9072822194996
 30
0.0
 11
630.1249651379407
 21
251.4072822194997
 31
0.0
  0
LINE
  5
947
330
1F
100
AcDbEntity
  8
RUNDUNGEN
  6
Continuous
 62
     9
100
AcDbLine
 10
638.6249651379407
 20
221.4231592366007
 30
0.0
 11
638.6249651379407
 21
218.4231592366016
 31
0.0
  0
LINE
  5
948
330
1F
100
AcDbEntity
  8
0
  6
Continuous
 62
     7
100
AcDbLine
 10
637.1249651379407
 20
221.2231592366
 30
0.0
 11
637.1249651379407
 21
218.6231592366014
 31
0.0
  0
LINE
  5
949
330
1F
100
AcDbEntity
  8
RUNDUNGEN
  6
Continuous
 62
     7
100
AcDbLine
 10
609.3479581832403
 20
221.4231592366007
 30
0.0
 11
620.9249635127421
 21
221.4231592366007
 31
0.0
  0
LINE
  5
94A
330
1F
100
AcDbEntity
  8
RUNDUNGEN
  6
Continuous
 62
     7
100
AcDbLine
 10
637.32507107034
 20
221.4231592366007
 30
0.0
 11
648.901972092543
 21
221.4231592366007
 31
0.0
  0
LINE
  5
94B
330
1F
100
AcDbEntity
  8
RUNDUNGEN
  6
Continuous
 62
     9
100
AcDbLine
 10
608.1652418573399
 20
221.2231592366
 30
0.0
 11
621.1249651379407
 21
221.2231592366
 31
0.0
  0
LINE
  5
94C
330
1F
100
AcDbEntity
  8
RUNDUNGEN
  6
Continuous
 62
     9
100
AcDbLine
 10
637.1249651379407
 20
221.2231592366
 30
0.0
 11
650.0846884185416
 21
221.2231592366
 31
0.0
  0
LINE
  5
94D
330
1F
100
AcDbEntity
  8
RUNDUNGEN
  6
Continuous
 62
     9
100
AcDbLine
 10
650.0846884185416
 20
218.6231592366014
 30
0.0
 11
637.1249651379407
 21
218.6231592366014
 31
0.0
  0
LINE
  5
94E
330
1F
100
AcDbEntity
  8
RUNDUNGEN
  6
Continuous
 62
     9
100
AcDbLine
 10
621.1249651379407
 20
218.6231592366014
 30
0.0
 11
608.1652418573399
 21
218.6231592366014
 31
0.0
  0
LINE
  5
94F
330
1F
100
AcDbEntity
  8
RUNDUNGEN
  6
Continuous
 62
     7
100
AcDbLine
 10
648.901972092543
 20
218.4231592366016
 30
0.0
 11
637.3249667630411
 21
218.4231592366016
 31
0.0
  0
LINE
  5
950
330
1F
100
AcDbEntity
  8
RUNDUNGEN
  6
Continuous
 62
     7
100
AcDbLine
 10
620.9249635177408
 20
218.4231592366016
 30
0.0
 11
609.3479581832403
 21
218.4231592366016
 31
0.0
  0
LINE
  5
951
330
1F
100
AcDbEntity
  8
0
  6
Continuous
 62
     7
100
AcDbLine
 10
621.1249651379407
 20
218.6231592366014
 30
0.0
 11
621.1249651379407
 21
221.2231592366
 31
0.0
  0
LINE
  5
952
330
1F
100
AcDbEntity
  8
RUNDUNGEN
  6
Continuous
 62
     9
100
AcDbLine
 10
619.6249651379408
 20
221.4231592366007
 30
0.0
 11
619.6249651379408
 21
218.4231592366016
 31
0.0
  0
LINE
  5
953
330
1F
100
AcDbEntity
  8
0
  6
Continuous
 62
     7
100
AcDbLine
 10
606.1552214958396
 20
241.4786893163012
 30
0.0
 11
606.3319981911413
 21
239.5341456679992
 31
0.0
  0
LINE
  5
954
330
1F
100
AcDbEntity
  8
0
  6
Continuous
 62
     7
100
AcDbLine
 10
606.3319981911413
 20
200.3121728051995
 30
0.0
 11
606.1552214958396
 21
198.3676291568993
 31
0.0
  0
LINE
  5
955
330
1F
100
AcDbEntity
  8
0
  6
Continuous
 62
     7
100
AcDbLine
 10
628.1249651379408
 20
251.4072822194997
 30
0.0
 11
626.8749651379407
 21
249.9072822194996
 31
0.0
  0
LINE
  5
956
330
1F
100
AcDbEntity
  8
0
  6
Continuous
 62
     7
100
AcDbLine
 10
599.1408421550409
 20
222.1731592366007
 30
0.0
 11
597.6408421550408
 21
220.9231592365998
 31
0.0
  0
LINE
  5
957
330
1F
100
AcDbEntity
  8
0
  6
Continuous
 62
     7
100
AcDbLine
 10
607.5694350582421
 20
196.9534155945005
 30
0.0
 11
609.5139787064403
 21
197.1301922897994
 31
0.0
  0
LINE
  5
958
330
1F
100
AcDbEntity
  8
0
  6
Continuous
 62
     7
100
AcDbLine
 10
648.7359515693428
 20
197.1301922897994
 30
0.0
 11
650.6804952176394
 21
196.9534155945005
 31
0.0
  0
LINE
  5
959
330
1F
100
AcDbEntity
  8
0
  6
Continuous
 62
     7
100
AcDbLine
 10
597.6408421550408
 20
218.9231592365998
 30
0.0
 11
599.1408421550409
 21
217.6731592366007
 31
0.0
  0
LINE
  5
95A
330
1F
100
AcDbEntity
  8
0
  6
Continuous
 62
     7
100
AcDbLine
 10
626.8749651379407
 20
189.9390362537008
 30
0.0
 11
628.1249651379408
 21
188.4390362537008
 31
0.0
  0
LINE
  5
95B
330
1F
100
AcDbEntity
  8
0
  6
Continuous
 62
     7
100
AcDbLine
 10
599.1408421550409
 20
217.6731592366007
 30
0.0
 11
599.1408421550409
 21
222.1731592366007
 31
0.0
  0
LINE
  5
95C
330
1F
100
AcDbEntity
  8
0
  6
Continuous
 62
     7
100
AcDbLine
 10
606.3319981911413
 20
239.5341456679992
 30
0.0
 11
609.5139787064403
 21
242.7161261834001
 31
0.0
  0
LINE
  5
95D
330
1F
100
AcDbEntity
  8
0
  6
Continuous
 62
     7
100
AcDbLine
 10
631.3749651379407
 20
189.9390362537008
 30
0.0
 11
626.8749651379407
 21
189.9390362537008
 31
0.0
  0
LINE
  5
95E
330
1F
100
AcDbEntity
  8
0
  6
Continuous
 62
     7
100
AcDbLine
 10
609.5139787064403
 20
197.1301922897994
 30
0.0
 11
606.3319981911413
 21
200.3121728051995
 31
0.0
  0
ARC
  5
95F
330
1F
100
AcDbEntity
  8
RUNDUNGEN
  6
Continuous
 62
     7
100
AcDbCircle
 10
637.3249651379413
 20
221.2231592366
 30
0.0
 40
0.2
100
AcDbArc
 50
89.99953587230413
 51
180.0
  0
ARC
  5
960
330
1F
100
AcDbEntity
  8
RUNDUNGEN
  6
Continuous
 62
     7
100
AcDbCircle
 10
620.92496513794
 20
221.2231592366
 30
0.0
 40
0.2
100
AcDbArc
 50
0.0
 51
90.00046556135194
  0
CIRCLE
  5
961
330
1F
100
AcDbEntity
  8
BEZUGSACHSEN
  6
Continuous
 62
     7
100
AcDbCircle
 10
629.1249651379407
 20
219.9231592366007
 30
0.0
 40
37.75
  0
CIRCLE
  5
962
330
1F
100
AcDbEntity
  8
BEZUGSACHSEN
  6
Continuous
 62
     9
100
AcDbCircle
 10
629.1249651379407
 20
219.9231592366007
 30
0.0
 40
34.8249358981
  0
ARC
  5
963
330
1F
100
AcDbEntity
  8
0
  6
Continuous
 62
     7
100
AcDbCircle
 10
629.1249651379407
 20
219.9231592366007
 30
0.0
 40
31.5
100
AcDbArc
 50
226.8192192939946
 51
268.1807807059966
  0
ARC
  5
964
330
1F
100
AcDbEntity
  8
0
  6
Continuous
 62
     7
100
AcDbCircle
 10
629.1249651379407
 20
219.9231592366007
 30
0.0
 40
31.5
100
AcDbArc
 50
181.8192192940034
 51
223.1807807060768
  0
ARC
  5
965
330
1F
100
AcDbEntity
  8
0
  6
Continuous
 62
     7
100
AcDbCircle
 10
629.1249651379407
 20
219.9231592366007
 30
0.0
 40
31.5
100
AcDbArc
 50
136.8192192939231
 51
178.1807807059965
  0
ARC
  5
966
330
1F
100
AcDbEntity
  8
0
  6
Continuous
 62
     7
100
AcDbCircle
 10
629.1249651379407
 20
219.9231592366007
 30
0.0
 40
31.5
100
AcDbArc
 50
91.8192192940034
 51
133.1807807060054
  0
ARC
  5
967
330
1F
100
AcDbEntity
  8
0
  6
Continuous
 62
     7
100
AcDbCircle
 10
629.1249651379407
 20
219.9231592366007
 30
0.0
 40
31.5
100
AcDbArc
 50
46.81921929399464
 51
88.18078070599661
  0
ARC
  5
968
330
1F
100
AcDbEntity
  8
0
  6
Continuous
 62
     7
100
AcDbCircle
 10
629.1249651379407
 20
219.9231592366007
 30
0.0
 40
31.5
100
AcDbArc
 50
1.819219294003455
 51
43.18078070607684
  0
ARC
  5
969
330
1F
100
AcDbEntity
  8
0
  6
Continuous
 62
     7
100
AcDbCircle
 10
629.1249651379407
 20
219.9231592366007
 30
0.0
 40
31.5
100
AcDbArc
 50
316.8192192939232
 51
358.1807807059965
  0
ARC
  5
96A
330
1F
100
AcDbEntity
  8
0
  6
Continuous
 62
     7
100
AcDbCircle
 10
629.1249651379407
 20
219.9231592366007
 30
0.0
 40
31.5
100
AcDbArc
 50
271.8192192940034
 51
313.1807807060054
  0
ARC
  5
96B
330
1F
100
AcDbEntity
  8
RUNDUNGEN
  6
Continuous
 62
     9
100
AcDbCircle
 10
629.1249651379407
 20
219.9231592366007
 30
0.0
 40
21.0
100
AcDbArc
 50
3.549150897490096
 51
176.4508491025099
  0
ARC
  5
96C
330
1F
100
AcDbEntity
  8
RUNDUNGEN
  6
Continuous
 62
     9
100
AcDbCircle
 10
629.1249651379407
 20
219.9231592366007
 30
0.0
 40
21.0
100
AcDbArc
 50
183.5491508974901
 51
356.4508491025098
  0
ARC
  5
96D
330
1F
100
AcDbEntity
  8
0
  6
Continuous
 62
     7
100
AcDbCircle
 10
629.1249651379407
 20
219.9231592366007
 30
0.0
 40
17.5
100
AcDbArc
 50
184.9171003355094
 51
355.0828996644906
  0
ARC
  5
96E
330
1F
100
AcDbEntity
  8
0
  6
Continuous
 62
     7
100
AcDbCircle
 10
629.1249651379407
 20
219.9231592366007
 30
0.0
 40
17.5
100
AcDbArc
 50
4.917100335509385
 51
175.0828996644905
  0
ARC
  5
96F
330
1F
100
AcDbEntity
  8
RUNDUNGEN
  6
Continuous
 62
     7
100
AcDbCircle
 10
637.3249651379413
 20
218.6231592366014
 30
0.0
 40
0.2
100
AcDbArc
 50
180.0
 51
270.0004655613519
  0
ARC
  5
970
330
1F
100
AcDbEntity
  8
RUNDUNGEN
  6
Continuous
 62
     7
100
AcDbCircle
 10
620.92496513794
 20
218.6231592366014
 30
0.0
 40
0.2
100
AcDbArc
 50
269.9995358720957
 51
0.0
  0
SPLINE
  5
971
330
1F
100
AcDbEntity
  8
RUNDUNGEN
  6
Continuous
 62
     7
100
AcDbSpline
210
0.0
220
0.0
230
1.0
 70
     8
 71
     3
 72
    15
 73
    11
 74
     9
 42
0.0000000001
 43
0.0000000001
 44
0.0000000001
 12
-0.9734575250016488
 22
-0.228867750060301
 32
0.0
 13
-1.0
 23
0.0000000000000001
 33
0.0
 40
0.0
 40
0.0
 40
0.0
 40
0.0
 40
0.1510810008470959
 40
0.3012692817882411
 40
0.4508995578786581
 40
0.6001317707656578
 40
0.7491566218494451
 40
0.8985674046151782
 40
1.049070534296941
 40
1.201862823993109
 40
1.201862823993109
 40
1.201862823993109
 40
1.201862823993109
 10
650.0846884185416
 20
218.6231592366014
 30
0.0
 10
650.0356647728218
 20
218.6116333803545
 30
0.0
 10
649.9379055641483
 20
218.588656293556
 30
0.0
 10
649.791428766245
 20
218.5549672581209
 30
0.0
 10
649.6452336848809
 20
218.5228232861097
 30
0.0
 10
649.4989452647327
 20
218.4929669915888
 30
0.0
 10
649.3521095172509
 20
218.4663004549482
 30
0.0
 10
649.2040974799799
 20
218.4440136701145
 30
0.0
 10
649.0540141587396
 20
218.4278608898149
 30
0.0
 10
648.952902855775
 20
218.4231592365998
 30
0.0
 10
648.901972092543
 20
218.4231592365998
 30
0.0
 11
650.0846884185416
 21
218.6231592366014
 31
0.0
 11
649.9375883457401
 21
218.5887058274996
 31
0.0
 11
649.7911940722409
 21
218.5551612837001
 31
0.0
 11
649.6450251231403
 21
218.5231635050007
 31
0.0
 11
649.4987742884408
 21
218.4934827584996
 31
0.0
 11
649.3521102208401
 21
218.4670619804004
 31
0.0
 11
649.2043212858411
 21
218.4451071928009
 31
0.0
 11
649.0546348430402
 21
218.4294495784991
 31
0.0
 11
648.901972092543
 21
218.4231592365998
 31
0.0
  0
SPLINE
  5
972
330
1F
100
AcDbEntity
  8
RUNDUNGEN
  6
Continuous
 62
     7
100
AcDbSpline
210
0.0
220
0.0
230
1.0
 70
     8
 71
     3
 72
    15
 73
    11
 74
     9
 42
0.0000000001
 43
0.0000000001
 44
0.0000000001
 12
0.9734575250016488
 22
0.228867750060301
 32
0.0
 13
1.0
 23
-0.0000000000000001
 33
0.0
 40
0.0
 40
0.0
 40
0.0
 40
0.0
 40
0.1510810007472878
 40
0.301269281787797
 40
0.4508995577789352
 40
0.600131770665754
 40
0.7491566218500591
 40
0.898567404518633
 40
1.049070534298
 40
1.201862823896062
 40
1.201862823896062
 40
1.201862823896062
 40
1.201862823896062
 10
608.1652418573399
 20
221.2231592366
 30
0.0
 10
608.2142655030272
 20
221.2346850928393
 30
0.0
 10
608.3120247116916
 20
221.257662179677
 30
0.0
 10
608.4585015095755
 20
221.2913512150476
 30
0.0
 10
608.604696590929
 20
221.3234951871065
 30
0.0
 10
608.7509850110789
 20
221.3533514816218
 30
0.0
 10
608.8978207585673
 20
221.3800180182299
 30
0.0
 10
609.0458327958661
 20
221.4023048031056
 30
0.0
 10
609.1959161170778
 20
221.4184575833709
 30
0.0
 10
609.2970274200409
 20
221.4231592366007
 30
0.0
 10
609.3479581832403
 20
221.4231592366007
 30
0.0
 11
608.1652418573399
 21
221.2231592366
 31
0.0
 11
608.3123419300395
 21
221.2576126456991
 31
0.0
 11
608.4587362036402
 21
221.2911571895004
 31
0.0
 11
608.6049051526392
 21
221.3231549681998
 31
0.0
 11
608.7511559873387
 21
221.3528357147
 31
0.0
 11
608.8978200550414
 21
221.3792564928001
 31
0.0
 11
609.0456089899421
 21
221.4012112803996
 31
0.0
 11
609.1952954328412
 21
221.4168688947005
 31
0.0
 11
609.3479581832403
 21
221.4231592366007
 31
0.0
  0
SPLINE
  5
973
330
1F
100
AcDbEntity
  8
RUNDUNGEN
  6
Continuous
 62
     7
100
AcDbSpline
210
0.0
220
0.0
230
1.0
 70
     8
 71
     3
 72
    14
 73
    10
 74
     8
 42
0.0000000001
 43
0.0000000001
 44
0.0000000001
 12
1.0
 22
-0.0000000000000001
 32
0.0
 13
0.9734575249949113
 23
-0.2288677500889577
 33
0.0
 40
0.0
 40
0.0
 40
0.0
 40
0.0
 40
0.1775159166275462
 40
0.3522169696262092
 40
0.5240382291779591
 40
0.6932544782933352
 40
0.8615176794676502
 40
1.030378979886341
 40
1.201839310652414
 40
1.201839310652414
 40
1.201839310652414
 40
1.201839310652414
 10
648.901972092543
 20
221.4231592366007
 30
0.0
 10
648.9611440647522
 20
221.4231592366007
 30
0.0
 10
649.0785610332468
 20
221.416852802033
 30
0.0
 10
649.2520492036541
 20
221.3960003851836
 30
0.0
 10
649.4217172824705
 20
221.3680566832689
 30
0.0
 10
649.5883573534446
 20
221.3355488140374
 30
0.0
 10
649.7533526052904
 20
221.2999714919847
 30
0.0
 10
649.9186203448345
 20
221.2621945040589
 30
0.0
 10
650.0290519688008
 20
221.236239816644
 30
0.0
 10
650.0846884185416
 20
221.2231592366
 30
0.0
 11
648.901972092543
 21
221.4231592366007
 31
0.0
 11
649.0792931618421
 21
221.4148442478002
 31
0.0
 11
649.2528194464397
 21
221.3946183616001
 31
0.0
 11
649.4224195930407
 21
221.3670804693995
 31
0.0
 11
649.5885558514387
 21
221.3349419782992
 31
0.0
 11
649.7530819542411
 21
221.2996763241001
 31
0.0
 11
649.9177368841415
 21
221.2622211129995
 31
0.0
 11
650.0846884185416
 21
221.2231592366
 31
0.0
  0
SPLINE
  5
974
330
1F
100
AcDbEntity
  8
RUNDUNGEN
  6
Continuous
 62
     7
100
AcDbSpline
210
0.0
220
0.0
230
1.0
 70
     8
 71
     3
 72
    14
 73
    10
 74
     8
 42
0.0000000001
 43
0.0000000001
 44
0.0000000001
 12
-1.0
 22
0.0000000000000001
 32
0.0
 13
-0.9734575249949113
 23
0.2288677500889577
 33
0.0
 40
0.0
 40
0.0
 40
0.0
 40
0.0
 40
0.1775159165293847
 40
0.3522169696179681
 40
0.5240382291852317
 40
0.6932544783010199
 40
0.8615176793755988
 40
1.030378979889982
 40
1.201839310560834
 40
1.201839310560834
 40
1.201839310560834
 40
1.201839310560834
 10
609.3479581832403
 20
218.4231592365998
 30
0.0
 10
609.2887862110638
 20
218.4231592365998
 30
0.0
 10
609.1713692425794
 20
218.4294656712284
 30
0.0
 10
608.9978810721394
 20
218.450318087836
 30
0.0
 10
608.8282129933207
 20
218.4782617899762
 30
0.0
 10
608.661572922364
 20
218.5107696591335
 30
0.0
 10
608.4965776705318
 20
218.5463469812503
 30
0.0
 10
608.3313099310061
 20
218.5841239691041
 30
0.0
 10
608.2208783070498
 20
218.6100786565647
 30
0.0
 10
608.1652418573399
 20
218.6231592366014
 30
0.0
 11
609.3479581832403
 21
218.4231592365998
 31
0.0
 11
609.1706371140394
 21
218.4314742253994
 31
0.0
 11
608.9971108293397
 21
218.4517001115003
 31
0.0
 11
608.8275106827389
 21
218.4792380037991
 31
0.0
 11
608.6613744243407
 21
218.5113764949004
 31
0.0
 11
608.4968483216402
 21
218.5466421490994
 31
0.0
 11
608.3321933916417
 21
218.5840973602001
 31
0.0
 11
608.1652418573399
 21
218.6231592366014
 31
0.0
  0
DIMENSION
  5
976
102
{ACAD_XDICTIONARY
360
983
102
}
102
{ACAD_REACTORS
330
984
102
}
330
1F
100
AcDbEntity
  8
AM_5
100
AcDbDimension
  2
*D16
 10
1236.001649169921
 20
664.3351595424383
 30
0.0
 11
1236.001649169921
 21
684.335159542438
 31
0.0
 70
   160
 71
     5
 42
39.99999999999909
  3
AM_DIN$0
100
AcDbAlignedDimension
 13
1159.12496513794
 23
704.3351595424374
 33
0.0
 14
1127.12496513794
 24
664.3351595424383
 34
0.0
 50
90.00000000000005
100
AcDbRotatedDimension
1001
ACAD_DSTYLE_DIMINSPECT
1070
   396
1000
100%
1070
   395
1000

1070
   394
1070
    33
1070
   393
1070
     0
1001
ACAD
1000
DSTYLE
1002
{
1070
    40
1040
5.0
1070
    47
1040
1.0
1070
    48
1040
1.0
1002
}
  0
DIMENSION
  5
9C1
102
{ACAD_XDICTIONARY
360
9CE
102
}
102
{ACAD_REACTORS
330
9CF
102
}
330
1F
100
AcDbEntity
  8
AM_5
100
AcDbDimension
  2
*D17
 10
1241.886597481455
 20
259.91315923191
 30
0.0
 11
1225.63487504051
 21
207.5590745862409
 31
0.0
 70
    32
 71
     5
 42
20.00000000000131
  3
AM_DIN$0
100
AcDbAlignedDimension
 13
1159.12496513794
 23
279.9131592319113
 33
0.0
 14
1127.12496513794
 24
259.9131592319101
 34
0.0
 50
90.00000000000005
100
AcDbRotatedDimension
1001
ACAD_DSTYLE_DIMINSPECT
1070
   396
1000
100%
1070
   395
1000

1070
   394
1070
    33
1070
   393
1070
     0
1001
ACAD
1000
DSTYLE
1002
{
1070
    40
1040
5.0
1070
    47
1040
1.0
1070
    48
1040
1.0
1002
}
  0
LINE
  5
CBF
330
1F
100
AcDbEntity
  8
0
100
AcDbLine
 10
605.1041710661604
 20
496.6568158373164
 30
0.0
 11
653.1457592461251
 21
496.6568158363678
 31
0.0
  0
LINE
  5
CC0
330
1F
100
AcDbEntity
  8
0
  6
ByBlock
 62
     0
100
AcDbLine
 10
605.1249651559321
 20
501.906815877726
 30
0.0
 11
606.1749651642038
 21
496.6568158363678
 31
0.0
  0
LINE
  5
CC1
330
1F
100
AcDbEntity
  8
0
100
AcDbLine
 10
604.1249651559194
 20
501.552845388517
 30
0.0
 11
605.1041710663503
 21
496.6568158363678
 31
0.0
  0
LINE
  5
CC2
330
1F
100
AcDbEntity
  8
0
  6
ByBlock
 62
     0
100
AcDbLine
 10
653.1249651565432
 20
501.906815877726
 30
0.0
 11
652.0749651482715
 21
496.6568158363678
 31
0.0
  0
LINE
  5
CC3
330
1F
100
AcDbEntity
  8
0
100
AcDbLine
 10
654.1249651565561
 20
501.552845388517
 30
0.0
 11
653.1457592461251
 21
496.6568158363678
 31
0.0
  0
LINE
  5
CC4
330
1F
100
AcDbEntity
  8
0
  6
Continuous
 62
     2
100
AcDbLine
 10
604.7702145743587
 20
498.3265982963242
 30
0.0
 11
605.5195973587616
 21
499.933654863579
 31
0.0
  0
LINE
  5
CC5
330
1F
100
AcDbEntity
  8
0
  6
Continuous
 62
     2
100
AcDbLine
 10
653.1249651479583
 20
501.7697020951545
 30
0.0
 11
654.1249651479709
 21
503.914209015682
 31
0.0
  0
LINE
  5
CC6
330
1F
100
AcDbEntity
  8
0
  6
Continuous
 62
     2
100
AcDbLine
 10
653.1249651479583
 20
514.6930385343194
 30
0.0
 11
654.1249651479709
 21
516.8375454548468
 31
0.0
  0
LINE
  5
CC7
330
1F
100
AcDbEntity
  8
0
  6
Continuous
 62
     2
100
AcDbLine
 10
653.1249651479583
 20
527.616374973484
 30
0.0
 11
654.1249651479709
 21
529.7608818940116
 31
0.0
  0
LINE
  5
CC8
330
1F
100
AcDbEntity
  8
0
  6
Continuous
 62
     2
100
AcDbLine
 10
653.1249651479583
 20
540.5397114127489
 30
0.0
 11
654.1249651479709
 21
542.6842183332763
 31
0.0
  0
LINE
  5
CC9
330
1F
100
AcDbEntity
  8
0
  6
Continuous
 62
     7
100
AcDbLine
 10
654.1249651479709
 20
545.1568158384083
 30
0.0
 11
654.1249651479709
 21
501.5528453455917
 31
0.0
  0
LINE
  5
CCA
330
1F
100
AcDbEntity
  8
0
  6
Continuous
 62
     7
100
AcDbLine
 10
653.1249651479583
 20
545.1568158384083
 30
0.0
 11
653.1249651565432
 21
501.906815877726
 31
0.0
  0
LINE
  5
CCC
330
1F
100
AcDbEntity
  8
0
  6
Continuous
 62
     2
100
AcDbLine
 10
604.1249651473343
 20
508.2809757164389
 30
0.0
 11
605.1249651473471
 21
510.4254826369644
 31
0.0
  0
LINE
  5
CCD
330
1F
100
AcDbEntity
  8
0
  6
Continuous
 62
     2
100
AcDbLine
 10
604.1249651473343
 20
521.2043121557018
 30
0.0
 11
605.1249651473471
 21
523.3488190762292
 31
0.0
  0
LINE
  5
CCE
330
1F
100
AcDbEntity
  8
0
  6
Continuous
 62
     2
100
AcDbLine
 10
604.1249651473343
 20
534.1276485948683
 30
0.0
 11
605.1249651473471
 21
536.2721555153957
 31
0.0
  0
LINE
  5
CCF
330
1F
100
AcDbEntity
  8
0
  6
Continuous
 62
     7
100
AcDbLine
 10
605.1249651473471
 20
545.1568158384083
 30
0.0
 11
605.1249651473471
 21
501.9068159206513
 31
0.0
  0
LINE
  5
CD0
330
1F
100
AcDbEntity
  8
0
  6
Continuous
 62
     7
100
AcDbLine
 10
604.1249651473343
 20
545.1568158384083
 30
0.0
 11
604.1249651559194
 21
501.552845388517
 31
0.0
  0
LINE
  5
CD1
330
1F
100
AcDbEntity
  8
0
  6
Continuous
 62
     7
100
AcDbLine
 10
654.1249651479709
 20
545.1568158384083
 30
0.0
 11
604.1249651473343
 21
545.1568158384083
 31
0.0
  0
LINE
  5
CD2
330
1F
100
AcDbEntity
  8
0
100
AcDbLine
 10
605.1041710660656
 20
496.6568158377908
 30
0.0
 11
653.1457592461251
 21
496.6568158363678
 31
0.0
  0
LINE
  5
CD3
330
1F
100
AcDbEntity
  8
AM_7
100
AcDbLine
 10
629.1249651476526
 20
548.1568158384466
 30
0.0
 11
629.1249651476526
 21
493.6568158377526
 31
0.0
1001
GENIUS_GENODEF_13
1002
{
1000
HIER
1070
     0
1002
}
1002
{
1000
MANEDIT
1070
     0
1002
}
1002
{
1000
NOSEL
1070
     0
1002
}
1002
{
1000
BEHIND
1070
     0
1002
}
1002
{
1000
OTHER
1070
     0
1002
}
1002
{
1000
REACTOR
1002
}
1001
GENIUS_GENOBJ-N-CEN_13
1002
{
1000
OWNER
1000
GEN
1002
}
1001
GENIUS_GENCEN_19
1002
{
1040
3.0
1002
}
  0
ENDSEC
  0
SECTION
  2
OBJECTS
  0
DICTIONARY
  5
C
330
0
100
AcDbDictionary
281
     1
  3
ACAD_2007HEADERVARS_RT
350
D00
  3
ACAD_COLOR
350
BE
  3
ACAD_GROUP
350
D
  3
ACAD_LAYOUT
350
1A
  3
ACAD_MATERIAL
350
BD
  3
ACAD_MLEADERSTYLE
350
3EF
  3
ACAD_MLINESTYLE
350
17
  3
ACAD_PLOTSETTINGS
350
19
  3
ACAD_PLOTSTYLENAME
350
E
  3
ACAD_SCALELIST
350
3DD
  3
ACAD_TABLESTYLE
350
11A
  3
ACAD_VISUALSTYLE
350
3CC
  3
ACDB_RECOMPOSE_DATA
350
41D
  3
AcDbVariableDictionary
350
94
  3
AcmDictionary
350
5B
  3
AEC_PROPERTY_SET_DEFS
350
6E8
  3
AMG
350
41
  3
AMGSNAPSETTINGS
350
26B
  3
DWGPROPS
350
CFF
  0
DICTIONARY
  5
673
330
2
100
AcDbDictionary
280
     1
281
     1
  3
ACAD_LAYERSTATES
360
674
  0
DICTIONARY
  5
7A9
330
10
100
AcDbDictionary
280
     1
281
     1
  3
ADSK_XREC_LAYER_RECONCILED
360
7AA
  0
DICTIONARY
  5
65B
330
65A
100
AcDbDictionary
280
     1
281
     1
  3
ADSK_XREC_LAYER_RECONCILED
360
7AB
  0
DICTIONARY
  5
65D
330
65C
100
AcDbDictionary
280
     1
281
     1
  3
ADSK_XREC_LAYER_RECONCILED
360
7AC
  0
DICTIONARY
  5
660
330
65F
100
AcDbDictionary
280
     1
281
     1
  3
ADSK_XREC_LAYER_RECONCILED
360
7AD
  0
DICTIONARY
  5
662
330
661
100
AcDbDictionary
280
     1
281
     1
  3
ADSK_XREC_LAYER_RECONCILED
360
7AE
  0
DICTIONARY
  5
664
330
663
100
AcDbDictionary
280
     1
281
     1
  3
ADSK_XREC_LAYER_RECONCILED
360
7AF
  0
DICTIONARY
  5
666
330
665
100
AcDbDictionary
280
     1
281
     1
  3
ADSK_XREC_LAYER_RECONCILED
360
7B0
  0
DICTIONARY
  5
7B1
330
7A2
100
AcDbDictionary
280
     1
281
     1
  3
ADSK_XREC_LAYER_RECONCILED
360
7B2
  0
DICTIONARY
  5
8EB
330
8EA
100
AcDbDictionary
280
     1
281
     1
  0
DICTIONARY
  5
8F
330
1F
100
AcDbDictionary
280
     1
281
     1
  3
ACAD_SORTENTS
360
7A6
  0
DICTIONARY
  5
752
330
751
100
AcDbDictionary
280
     1
281
     1
  3
ACAD_DIMASSOC
360
753
  0
DICTIONARY
  5
983
330
976
100
AcDbDictionary
280
     1
281
     1
  3
ACAD_DIMASSOC
360
984
  0
DICTIONARY
  5
9CE
330
9C1
100
AcDbDictionary
280
     1
281
     1
  3
ACAD_DIMASSOC
360
9CF
  0
DICTIONARY
  5
D00
102
{ACAD_REACTORS
330
C
102
}
330
C
100
AcDbDictionary
281
     1
  3
DIMARCSYM
350
D01
  3
DIMJOGANG
350
D02
  3
DIMLTEX1
350
D04
  3
DIMLTEX2
350
D05
  3
DIMLTYPE
350
D03
  0
DICTIONARY
  5
BE
102
{ACAD_REACTORS
330
C
102
}
330
C
100
AcDbDictionary
281
     1
  0
DICTIONARY
  5
D
102
{ACAD_REACTORS
330
C
102
}
330
C
100
AcDbDictionary
281
     1
  0
DICTIONARY
  5
1A
102
{ACAD_REACTORS
330
C
102
}
330
C
100
AcDbDictionary
281
     1
  3
Layout1
350
1E
  3
Layout2
350
26
  3
Model
350
22
  0
DICTIONARY
  5
BD
102
{ACAD_REACTORS
330
C
102
}
330
C
100
AcDbDictionary
281
     1
  3
ByBlock
350
3BC
  3
ByLayer
350
3B4
  3
Global
350
3C4
  0
DICTIONARY
  5
3EF
102
{ACAD_REACTORS
330
C
102
}
330
C
100
AcDbDictionary
281
     1
  3
Standard
350
3F0
  0
DICTIONARY
  5
17
102
{ACAD_REACTORS
330
C
102
}
330
C
100
AcDbDictionary
281
     1
  3
Standard
350
18
  0
DICTIONARY
  5
19
102
{ACAD_REACTORS
330
C
102
}
330
C
100
AcDbDictionary
281
     1
  0
ACDBDICTIONARYWDFLT
  5
E
102
{ACAD_REACTORS
330
C
102
}
330
C
100
AcDbDictionary
281
     1
  3
Normal
350
F
100
AcDbDictionaryWithDefault
340
F
  0
DICTIONARY
  5
3DD
102
{ACAD_REACTORS
330
C
102
}
330
C
100
AcDbDictionary
281
     1
  3
A0
350
3DE
  3
A1
350
3DF
  3
A2
350
3E0
  3
A3
350
3E1
  3
A4
350
3E2
  3
A5
350
3E3
  3
A6
350
3E4
  3
A7
350
3E5
  3
A8
350
3E6
  3
A9
350
3E7
  3
B0
350
3E8
  3
B1
350
3E9
  3
B2
350
3EA
  3
B3
350
3EB
  3
B4
350
3EC
  3
B5
350
3ED
  3
B6
350
3EE
  0
DICTIONARY
  5
11A
102
{ACAD_REACTORS
330
C
102
}
330
C
100
AcDbDictionary
281
     1
  3
Standard
350
11B
  0
DICTIONARY
  5
3CC
102
{ACAD_REACTORS
330
C
102
}
330
C
100
AcDbDictionary
281
     1
  3
2dWireframe
350
3D2
  3
3D Hidden
350
3D4
  3
3dWireframe
350
3D3
  3
Basic
350
3D1
  3
Brighten
350
3D8
  3
ColorChange
350
3DC
  3
Conceptual
350
3D5
  3
Dim
350
3D7
  3
Facepattern
350
3DB
  3
Flat
350
3CD
  3
FlatWithEdges
350
3CE
  3
Gouraud
350
3CF
  3
GouraudWithEdges
350
3D0
  3
Linepattern
350
3DA
  3
Realistic
350
3D6
  3
Thicken
350
3D9
  0
XRECORD
  5
41D
102
{ACAD_REACTORS
330
C
102
}
330
C
100
AcDbXrecord
280
     1
 90
        1
330
11B
  0
DICTIONARY
  5
94
102
{ACAD_REACTORS
330
C
102
}
330
C
100
AcDbDictionary
281
     1
  3
CANNOSCALE
350
420
  3
CMLEADERSTYLE
350
41E
  3
CTABLESTYLE
350
138
  3
DIMASSOC
350
96
  3
INDEXCTL
350
95
  3
LAYEREVAL
350
422
  3
LAYERNOTIFY
350
423
  3
LIGHTINGUNITS
350
421
  3
MSLTSCALE
350
41F
  3
SORTENTS
350
7C5
  0
DICTIONARY
  5
5B
102
{ACAD_REACTORS
330
C
102
}
330
C
100
AcDbDictionary
281
     1
  3
AcmBOM
350
272
  3
AcmStdDictionary
350
61
  3
AMDTSECTSYM_ARROWCOLOR
350
123
  0
DICTIONARY
  5
6E8
102
{ACAD_REACTORS
330
C
102
}
330
C
100
AcDbDictionary
281
     1
  0
DICTIONARY
  5
41
102
{ACAD_REACTORS
330
C
102
}
330
C
100
AcDbDictionary
281
     1
  0
DICTIONARY
  5
26B
102
{ACAD_REACTORS
330
C
102
}
330
C
100
AcDbDictionary
281
     1
  0
XRECORD
  5
CFF
102
{ACAD_REACTORS
330
C
102
}
330
C
100
AcDbXrecord
280
     1
  1
DWGPROPS COOKIE
  2

  3

  4

  6

  7

  8
nlazaar
  9

300
AmdtFileType=84
301
=
302
=
303
=
304
=
305
=
306
=
307
=
308
=
309
=
 40
0.0770814467592593
 41
2455659.563997743
 42
2455665.438649039
  1

 90
        1
  0
DICTIONARY
  5
674
102
{ACAD_REACTORS
330
673
102
}
330
673
100
AcDbDictionary
281
     1
  0
XRECORD
  5
7AA
102
{ACAD_REACTORS
330
7A9
102
}
330
7A9
100
AcDbXrecord
280
     1
290
     1
  0
XRECORD
  5
7AB
102
{ACAD_REACTORS
330
65B
102
}
330
65B
100
AcDbXrecord
280
     1
290
     1
  0
XRECORD
  5
7AC
102
{ACAD_REACTORS
330
65D
102
}
330
65D
100
AcDbXrecord
280
     1
290
     1
  0
XRECORD
  5
7AD
102
{ACAD_REACTORS
330
660
102
}
330
660
100
AcDbXrecord
280
     1
290
     1
  0
XRECORD
  5
7AE
102
{ACAD_REACTORS
330
662
102
}
330
662
100
AcDbXrecord
280
     1
290
     1
  0
XRECORD
  5
7AF
102
{ACAD_REACTORS
330
664
102
}
330
664
100
AcDbXrecord
280
     1
290
     1
  0
XRECORD
  5
7B0
102
{ACAD_REACTORS
330
666
102
}
330
666
100
AcDbXrecord
280
     1
290
     1
  0
XRECORD
  5
7B2
102
{ACAD_REACTORS
330
7B1
102
}
330
7B1
100
AcDbXrecord
280
     1
290
     1
  0
SORTENTSTABLE
  5
7A6
102
{ACAD_REACTORS
330
8F
102
}
330
8F
100
AcDbSortentsTable
330
1F
331
967
  5
9C1
331
949
  5
958
331
733
  5
736
331
74B
  5
937
331
715
  5
716
331
974
  5
CCB
331
738
  5
73B
331
701
  5
702
331
6F3
  5
6F3
331
708
  5
709
331
7A7
  5
6F7
331
957
  5
966
331
939
  5
948
331
CCA
  5
749
331
723
  5
724
331
968
  5
CBF
331
94A
  5
959
331
734
  5
737
331
74C
  5
938
331
716
  5
717
331
709
  5
70A
331
739
  5
73C
331
6F4
  5
6F4
331
702
  5
703
331
750
  5
93C
331
958
  5
967
331
93A
  5
949
331
724
  5
726
331
969
  5
CC0
331
94B
  5
95A
331
735
  5
738
331
74D
  5
939
331
717
  5
718
331
728
  5
72A
331
976
  5
CCC
331
703
  5
704
331
6F5
  5
6F5
331
70A
  5
70B
331
751
  5
93D
331
959
  5
968
331
93B
  5
94A
331
CCC
  5
74B
331
725
  5
727
331
96A
  5
CC1
331
94C
  5
95B
331
CBF
  5
CCE
331
736
  5
739
331
718
  5
719
331
74E
  5
93A
331
CD0
  5
74F
331
729
  5
72B
331
70B
  5
70C
331
6F6
  5
6F6
331
704
  5
705
331
95A
  5
969
331
93C
  5
94B
331
CCD
  5
74C
331
726
  5
728
331
96B
  5
CC2
331
94D
  5
95C
331
CC0
  5
CCF
331
737
  5
73A
331
74F
  5
93B
331
741
  5
755
331
719
  5
71A
331
940
  5
94F
331
CD1
  5
750
331
72A
  5
72D
331
705
  5
706
331
70C
  5
70D
331
6F8
  5
6F9
331
95B
  5
96A
331
93D
  5
94C
331
CCE
  5
74D
331
727
  5
729
331
96C
  5
CC3
331
CC1
  5
CD0
331
94E
  5
95D
331
742
  5
756
331
71A
  5
71B
331
941
  5
950
331
CD2
  5
751
331
72B
  5
72E
331
9C1
  5
CCD
331
706
  5
707
331
70D
  5
70E
331
754
  5
93E
331
6F9
  5
6FA
331
6EB
  5
6EB
331
95C
  5
96B
331
93E
  5
94D
331
CCF
  5
74E
331
96D
  5
CC4
331
CC2
  5
CD1
331
94F
  5
95E
331
743
  5
757
331
71B
  5
71C
331
960
  5
96F
331
942
  5
951
331
CD3
  5
754
331
72C
  5
72F
331
707
  5
708
331
70E
  5
70F
331
755
  5
93F
331
6FA
  5
6FB
331
7A8
  5
725
331
6EC
  5
6EC
331
95D
  5
96C
331
93F
  5
94E
331
96E
  5
CC5
331
CC3
  5
CD2
331
950
  5
95F
331
744
  5
7A4
331
71C
  5
71D
331
961
  5
970
331
943
  5
952
331
72D
  5
730
331
70F
  5
710
331
73F
  5
742
331
756
  5
940
331
6FB
  5
6FC
331
6ED
  5
6ED
331
95E
  5
96D
331
96F
  5
CC6
331
CC4
  5
CD3
331
951
  5
960
331
745
  5
7A5
331
71D
  5
71E
331
962
  5
971
331
944
  5
953
331
710
  5
711
331
72E
  5
731
331
757
  5
941
331
6FC
  5
6FD
331
6EE
  5
6EE
331
95F
  5
96E
331
952
  5
961
331
934
  5
943
331
CC5
  5
744
331
746
  5
7A7
331
71E
  5
71F
331
963
  5
972
331
945
  5
954
331
72F
  5
732
331
711
  5
712
331
970
  5
CC7
331
6FD
  5
6FE
331
6EF
  5
6EF
331
953
  5
962
331
935
  5
944
331
CC6
  5
745
331
747
  5
7A8
331
71F
  5
720
331
964
  5
973
331
946
  5
955
331
748
  5
934
331
712
  5
713
331
730
  5
733
331
971
  5
CC8
331
6FE
  5
6FF
331
6F0
  5
6F0
331
7A4
  5
942
331
954
  5
963
331
936
  5
945
331
CC7
  5
746
331
720
  5
721
331
965
  5
974
331
947
  5
956
331
731
  5
734
331
749
  5
935
331
713
  5
714
331
972
  5
CC9
331
6FF
  5
700
331
6F1
  5
6F1
331
7A5
  5
72C
331
955
  5
964
331
937
  5
946
331
CC8
  5
747
331
721
  5
722
331
966
  5
976
331
948
  5
957
331
732
  5
735
331
74A
  5
936
331
714
  5
715
331
973
  5
CCA
331
700
  5
701
331
6F2
  5
6F2
331
956
  5
965
331
938
  5
947
331
CC9
  5
748
331
722
  5
723
  0
DIMASSOC
  5
753
102
{ACAD_REACTORS
330
752
102
}
330
752
100
AcDbDimAssoc
330
751
 90
        3
 70
     0
 71
     0
  1
AcDbOsnapPointRef
 72
    13
331
74D
 73
     0
 91
        0
 40
0.0
 10
0.0
 20
0.0
 30
2.000000000000000E+50
 75
     0
  1
AcDbOsnapPointRef
 72
     2
331
739
 73
     0
 91
        0
 40
0.0
 10
0.0
 20
0.0
 30
0.0
 75
     0
  0
DIMASSOC
  5
984
102
{ACAD_REACTORS
330
983
102
}
330
983
100
AcDbDimAssoc
330
976
 90
        3
 70
     0
 71
     0
  1
AcDbOsnapPointRef
 72
    13
331
7A4
 73
     0
 91
        0
 40
0.0
 10
0.0
 20
0.0
 30
2.000000000000000E+50
 75
     0
  1
AcDbOsnapPointRef
 72
    13
331
6F3
 73
     0
 91
        0
 40
0.0
 10
0.0
 20
0.0
 30
2.000000000000000E+50
 75
     0
  0
DIMASSOC
  5
9CF
102
{ACAD_REACTORS
330
9CE
102
}
330
9CE
100
AcDbDimAssoc
330
9C1
 90
        3
 70
     0
 71
     0
  1
AcDbOsnapPointRef
 72
     1
331
7A8
 73
     0
 91
        0
 40
0.0
 10
0.0
 20
0.0
 30
2.000000000000000E+50
 75
     0
  1
AcDbOsnapPointRef
 72
     1
331
6F8
 73
     0
 91
        0
 40
0.0
 10
0.0
 20
0.0
 30
2.000000000000000E+50
 75
     0
  0
XRECORD
  5
D01
102
{ACAD_REACTORS
330
D00
102
}
330
D00
100
AcDbXrecord
280
     1
 70
     1
  0
XRECORD
  5
D02
102
{ACAD_REACTORS
330
D00
102
}
330
D00
100
AcDbXrecord
280
     1
 40
1.570796326794896
  0
XRECORD
  5
D04
102
{ACAD_REACTORS
330
D00
102
}
330
D00
100
AcDbXrecord
280
     1
340
14
  0
XRECORD
  5
D05
102
{ACAD_REACTORS
330
D00
102
}
330
D00
100
AcDbXrecord
280
     1
340
14
  0
XRECORD
  5
D03
102
{ACAD_REACTORS
330
D00
102
}
330
D00
100
AcDbXrecord
280
     1
340
14
  0
LAYOUT
  5
1E
102
{ACAD_XDICTIONARY
360
D06
102
}
102
{ACAD_REACTORS
330
1A
102
}
330
1A
100
AcDbPlotSettings
  1

  2

  4

  6

 40
0.0
 41
0.0
 42
0.0
 43
0.0
 44
0.0
 45
0.0
 46
0.0
 47
0.0
 48
0.0
 49
0.0
140
0.0
141
0.0
142
1.0
143
1.0
 70
   688
 72
     0
 73
     0
 74
     5
  7

 75
    16
147
1.0
148
0.0
149
0.0
100
AcDbLayout
  1
Layout1
 70
     1
 71
     1
 10
0.0
 20
0.0
 11
420.0
 21
297.0
 12
0.0
 22
0.0
 32
0.0
 14
1.000000000000000E+20
 24
1.000000000000000E+20
 34
1.000000000000000E+20
 15
-1.000000000000000E+20
 25
-1.000000000000000E+20
 35
-1.000000000000000E+20
146
0.0
 13
0.0
 23
0.0
 33
0.0
 16
1.0
 26
0.0
 36
0.0
 17
0.0
 27
1.0
 37
0.0
 76
     0
330
1B
  0
LAYOUT
  5
26
102
{ACAD_XDICTIONARY
360
D0A
102
}
102
{ACAD_REACTORS
330
1A
102
}
330
1A
100
AcDbPlotSettings
  1

  2

  4

  6

 40
0.0
 41
0.0
 42
0.0
 43
0.0
 44
0.0
 45
0.0
 46
0.0
 47
0.0
 48
0.0
 49
0.0
140
0.0
141
0.0
142
1.0
143
1.0
 70
   688
 72
     0
 73
     0
 74
     5
  7

 75
    16
147
1.0
148
0.0
149
0.0
100
AcDbLayout
  1
Layout2
 70
     1
 71
     2
 10
0.0
 20
0.0
 11
12.0
 21
9.0
 12
0.0
 22
0.0
 32
0.0
 14
0.0
 24
0.0
 34
0.0
 15
0.0
 25
0.0
 35
0.0
146
0.0
 13
0.0
 23
0.0
 33
0.0
 16
1.0
 26
0.0
 36
0.0
 17
0.0
 27
1.0
 37
0.0
 76
     0
330
23
  0
LAYOUT
  5
22
102
{ACAD_XDICTIONARY
360
D08
102
}
102
{ACAD_REACTORS
330
1A
102
}
330
1A
100
AcDbPlotSettings
  1

  2

  4

  6

 40
0.0
 41
0.0
 42
0.0
 43
0.0
 44
0.0
 45
0.0
 46
0.0
 47
0.0
 48
0.0
 49
0.0
140
0.0
141
0.0
142
1.0
143
1.0
 70
  1712
 72
     0
 73
     0
 74
     0
  7

 75
     0
147
1.0
148
0.0
149
0.0
100
AcDbLayout
  1
Model
 70
     1
 71
     0
 10
0.0
 20
0.0
 11
12.0
 21
9.0
 12
0.0
 22
0.0
 32
0.0
 14
0.0
 24
0.0
 34
0.0
 15
0.0
 25
0.0
 35
0.0
146
0.0
 13
0.0
 23
0.0
 33
0.0
 16
1.0
 26
0.0
 36
0.0
 17
0.0
 27
1.0
 37
0.0
 76
     0
330
1F
331
3B2
  0
MATERIAL
  5
3BC
102
{ACAD_XDICTIONARY
360
3BD
102
}
102
{ACAD_REACTORS
330
BD
102
}
330
BD
100
AcDbMaterial
  1
ByBlock
 72
     0
 43
0.0008202099737533
 43
0.0
 43
0.0
 43
0.0
 43
0.0
 43
0.0008202099737533
 43
0.0
 43
0.0
 43
0.0
 43
0.0
 43
1.0
 43
0.0
 43
0.0
 43
0.0
 43
0.0
 43
1.0
 77
     0
 47
0.0008202099737533
 47
0.0
 47
0.0
 47
0.0
 47
0.0
 47
0.0008202099737533
 47
0.0
 47
0.0
 47
0.0
 47
0.0
 47
1.0
 47
0.0
 47
0.0
 47
0.0
 47
0.0
 47
1.0
171
     0
 49
0.0008202099737533
 49
0.0
 49
0.0
 49
0.0
 49
0.0
 49
0.0008202099737533
 49
0.0
 49
0.0
 49
0.0
 49
0.0
 49
1.0
 49
0.0
 49
0.0
 49
0.0
 49
0.0
 49
1.0
175
     0
142
0.0008202099737533
142
0.0
142
0.0
142
0.0
142
0.0
142
0.0008202099737533
142
0.0
142
0.0
142
0.0
142
0.0
142
1.0
142
0.0
142
0.0
142
0.0
142
0.0
142
1.0
179
     0
144
0.0008202099737533
144
0.0
144
0.0
144
0.0
144
0.0
144
0.0008202099737533
144
0.0
144
0.0
144
0.0
144
0.0
144
1.0
144
0.0
144
0.0
144
0.0
144
0.0
144
1.0
147
0.0008202099737533
147
0.0
147
0.0
147
0.0
147
0.0
147
0.0008202099737533
147
0.0
147
0.0
147
0.0
147
0.0
147
1.0
147
0.0
147
0.0
147
0.0
147
0.0
147
1.0
  0
MATERIAL
  5
3B4
102
{ACAD_XDICTIONARY
360
3B5
102
}
102
{ACAD_REACTORS
330
BD
102
}
330
BD
100
AcDbMaterial
  1
ByLayer
 72
     0
 43
0.0008202099737533
 43
0.0
 43
0.0
 43
0.0
 43
0.0
 43
0.0008202099737533
 43
0.0
 43
0.0
 43
0.0
 43
0.0
 43
1.0
 43
0.0
 43
0.0
 43
0.0
 43
0.0
 43
1.0
 77
     0
 47
0.0008202099737533
 47
0.0
 47
0.0
 47
0.0
 47
0.0
 47
0.0008202099737533
 47
0.0
 47
0.0
 47
0.0
 47
0.0
 47
1.0
 47
0.0
 47
0.0
 47
0.0
 47
0.0
 47
1.0
171
     0
 49
0.0008202099737533
 49
0.0
 49
0.0
 49
0.0
 49
0.0
 49
0.0008202099737533
 49
0.0
 49
0.0
 49
0.0
 49
0.0
 49
1.0
 49
0.0
 49
0.0
 49
0.0
 49
0.0
 49
1.0
175
     0
142
0.0008202099737533
142
0.0
142
0.0
142
0.0
142
0.0
142
0.0008202099737533
142
0.0
142
0.0
142
0.0
142
0.0
142
1.0
142
0.0
142
0.0
142
0.0
142
0.0
142
1.0
179
     0
144
0.0008202099737533
144
0.0
144
0.0
144
0.0
144
0.0
144
0.0008202099737533
144
0.0
144
0.0
144
0.0
144
0.0
144
1.0
144
0.0
144
0.0
144
0.0
144
0.0
144
1.0
147
0.0008202099737533
147
0.0
147
0.0
147
0.0
147
0.0
147
0.0008202099737533
147
0.0
147
0.0
147
0.0
147
0.0
147
1.0
147
0.0
147
0.0
147
0.0
147
0.0
147
1.0
  0
MATERIAL
  5
3C4
102
{ACAD_XDICTIONARY
360
3C5
102
}
102
{ACAD_REACTORS
330
BD
102
}
330
BD
100
AcDbMaterial
  1
Global
 72
     0
 43
0.0008202099737533
 43
0.0
 43
0.0
 43
0.0
 43
0.0
 43
0.0008202099737533
 43
0.0
 43
0.0
 43
0.0
 43
0.0
 43
1.0
 43
0.0
 43
0.0
 43
0.0
 43
0.0
 43
1.0
 77
     0
 47
0.0008202099737533
 47
0.0
 47
0.0
 47
0.0
 47
0.0
 47
0.0008202099737533
 47
0.0
 47
0.0
 47
0.0
 47
0.0
 47
1.0
 47
0.0
 47
0.0
 47
0.0
 47
0.0
 47
1.0
171
     0
 49
0.0008202099737533
 49
0.0
 49
0.0
 49
0.0
 49
0.0
 49
0.0008202099737533
 49
0.0
 49
0.0
 49
0.0
 49
0.0
 49
1.0
 49
0.0
 49
0.0
 49
0.0
 49
0.0
 49
1.0
175
     0
142
0.0008202099737533
142
0.0
142
0.0
142
0.0
142
0.0
142
0.0008202099737533
142
0.0
142
0.0
142
0.0
142
0.0
142
1.0
142
0.0
142
0.0
142
0.0
142
0.0
142
1.0
179
     0
144
0.0008202099737533
144
0.0
144
0.0
144
0.0
144
0.0
144
0.0008202099737533
144
0.0
144
0.0
144
0.0
144
0.0
144
1.0
144
0.0
144
0.0
144
0.0
144
0.0
144
1.0
147
0.0008202099737533
147
0.0
147
0.0
147
0.0
147
0.0
147
0.0008202099737533
147
0.0
147
0.0
147
0.0
147
0.0
147
1.0
147
0.0
147
0.0
147
0.0
147
0.0
147
1.0
  0
MLEADERSTYLE
  5
3F0
102
{ACAD_REACTORS
330
3EF
102
}
330
3EF
100
AcDbMLeaderStyle
170
     2
171
     1
172
     0
 90
        2
 40
0.0
 41
0.0
173
     1
 91
-1056964608
340
14
 92
       -2
290
     1
 42
2.0
291
     1
 43
0.36
  3
Standard
 44
4.0
300

342
11
174
     1
178
     6
175
     1
176
     0
 93
-1056964608
 45
4.0
292
     0
297
     0
 46
4.0
 94
-1056964608
 47
1.0
 49
1.0
140
1.0
293
     1
141
0.0
294
     1
177
     0
142
1.0
295
     0
296
     0
143
0.125
1001
ACAD_MLEADERVER
1070
     2
  0
MLINESTYLE
  5
18
102
{ACAD_REACTORS
330
17
102
}
330
17
100
AcDbMlineStyle
  2
STANDARD
 70
     0
  3

 62
   256
 51
90.0
 52
90.0
 71
     2
 49
0.5
 62
   256
  6
BYLAYER
 49
-0.5
 62
   256
  6
BYLAYER
  0
ACDBPLACEHOLDER
  5
F
102
{ACAD_REACTORS
330
E
102
}
330
E
  0
SCALE
  5
3DE
102
{ACAD_REACTORS
330
3DD
102
}
330
3DD
100
AcDbScale
 70
     0
300
1:1
140
1.0
141
1.0
290
     1
  0
SCALE
  5
3DF
102
{ACAD_REACTORS
330
3DD
102
}
330
3DD
100
AcDbScale
 70
     0
300
1:2
140
1.0
141
2.0
290
     0
  0
SCALE
  5
3E0
102
{ACAD_REACTORS
330
3DD
102
}
330
3DD
100
AcDbScale
 70
     0
300
1:4
140
1.0
141
4.0
290
     0
  0
SCALE
  5
3E1
102
{ACAD_REACTORS
330
3DD
102
}
330
3DD
100
AcDbScale
 70
     0
300
1:5
140
1.0
141
5.0
290
     0
  0
SCALE
  5
3E2
102
{ACAD_REACTORS
330
3DD
102
}
330
3DD
100
AcDbScale
 70
     0
300
1:8
140
1.0
141
8.0
290
     0
  0
SCALE
  5
3E3
102
{ACAD_REACTORS
330
3DD
102
}
330
3DD
100
AcDbScale
 70
     0
300
1:10
140
1.0
141
10.0
290
     0
  0
SCALE
  5
3E4
102
{ACAD_REACTORS
330
3DD
102
}
330
3DD
100
AcDbScale
 70
     0
300
1:16
140
1.0
141
16.0
290
     0
  0
SCALE
  5
3E5
102
{ACAD_REACTORS
330
3DD
102
}
330
3DD
100
AcDbScale
 70
     0
300
1:20
140
1.0
141
20.0
290
     0
  0
SCALE
  5
3E6
102
{ACAD_REACTORS
330
3DD
102
}
330
3DD
100
AcDbScale
 70
     0
300
1:30
140
1.0
141
30.0
290
     0
  0
SCALE
  5
3E7
102
{ACAD_REACTORS
330
3DD
102
}
330
3DD
100
AcDbScale
 70
     0
300
1:40
140
1.0
141
40.0
290
     0
  0
SCALE
  5
3E8
102
{ACAD_REACTORS
330
3DD
102
}
330
3DD
100
AcDbScale
 70
     0
300
1:50
140
1.0
141
50.0
290
     0
  0
SCALE
  5
3E9
102
{ACAD_REACTORS
330
3DD
102
}
330
3DD
100
AcDbScale
 70
     0
300
1:100
140
1.0
141
100.0
290
     0
  0
SCALE
  5
3EA
102
{ACAD_REACTORS
330
3DD
102
}
330
3DD
100
AcDbScale
 70
     0
300
2:1
140
2.0
141
1.0
290
     0
  0
SCALE
  5
3EB
102
{ACAD_REACTORS
330
3DD
102
}
330
3DD
100
AcDbScale
 70
     0
300
4:1
140
4.0
141
1.0
290
     0
  0
SCALE
  5
3EC
102
{ACAD_REACTORS
330
3DD
102
}
330
3DD
100
AcDbScale
 70
     0
300
8:1
140
8.0
141
1.0
290
     0
  0
SCALE
  5
3ED
102
{ACAD_REACTORS
330
3DD
102
}
330
3DD
100
AcDbScale
 70
     0
300
10:1
140
10.0
141
1.0
290
     0
  0
SCALE
  5
3EE
102
{ACAD_REACTORS
330
3DD
102
}
330
3DD
100
AcDbScale
 70
     0
300
100:1
140
100.0
141
1.0
290
     0
  0
TABLESTYLE
  5
11B
102
{ACAD_XDICTIONARY
360
41B
102
}
102
{ACAD_REACTORS
330
11A
102
}
330
11A
100
AcDbTableStyle
  3
Standard
 70
     0
 71
     0
 40
1.5
 41
1.5
280
     0
281
     0
  7
STANDARD
140
4.5
170
     2
 62
     0
 63
     7
283
     0
274
    -2
284
     1
 64
     0
275
    -2
285
     1
 65
     0
276
    -2
286
     1
 66
     0
277
    -2
287
     1
 67
     0
278
    -2
288
     1
 68
     0
279
    -2
289
     1
 69
     0
  7
STANDARD
140
6.0
170
     5
 62
     0
 63
     7
283
     0
274
    -2
284
     1
 64
     0
275
    -2
285
     1
 65
     0
276
    -2
286
     1
 66
     0
277
    -2
287
     1
 67
     0
278
    -2
288
     1
 68
     0
279
    -2
289
     1
 69
     0
  7
STANDARD
140
4.5
170
     5
 62
     0
 63
     7
283
     0
274
    -2
284
     1
 64
     0
275
    -2
285
     1
 65
     0
276
    -2
286
     1
 66
     0
277
    -2
287
     1
 67
     0
278
    -2
288
     1
 68
     0
279
    -2
289
     1
 69
     0
  0
VISUALSTYLE
  5
3D2
102
{ACAD_REACTORS
330
3CC
102
}
330
3CC
100
AcDbVisualStyle
  2
2dWireframe
 70
     4
 71
     0
 72
     2
 73
     0
 90
        0
 40
-0.6
 41
-30.0
 62
     5
 63
     7
 74
     1
 91
        4
 64
     7
 65
   257
 75
     1
175
     1
 42
1.0
 92
        0
 66
   257
 43
1.0
 76
     1
 77
     6
 78
     2
 67
     7
 79
     5
170
     0
171
     0
290
     0
174
     0
 93
        1
 44
0.0
173
     0
291
     0
 45
0.0
1001
ACAD
1000
AcDbSavedByObjectVersion
1070
     0
1000
AcDbSavedByObjectVersion
1070
     0
1000
AcDbSavedByObjectVersion
1070
     0
1000
AcDbSavedByObjectVersion
1070
     0
1000
AcDbSavedByObjectVersion
1070
     0
  0
VISUALSTYLE
  5
3D4
102
{ACAD_REACTORS
330
3CC
102
}
330
3CC
100
AcDbVisualStyle
  2
3D Hidden
 70
     6
 71
     1
 72
     2
 73
     2
 90
        0
 40
-0.6
 41
-30.0
 62
     5
 63
     7
 74
     2
 91
        2
 64
     7
 65
   257
 75
     2
175
     1
 42
40.0
 92
        0
 66
   257
 43
1.0
 76
     1
 77
     6
 78
     2
 67
     7
 79
     3
170
     0
171
     0
290
     0
174
     0
 93
        1
 44
0.0
173
     0
291
     0
 45
0.0
1001
ACAD
1000
AcDbSavedByObjectVersion
1070
     0
1000
AcDbSavedByObjectVersion
1070
     0
1000
AcDbSavedByObjectVersion
1070
     0
1000
AcDbSavedByObjectVersion
1070
     0
1000
AcDbSavedByObjectVersion
1070
     0
  0
VISUALSTYLE
  5
3D3
102
{ACAD_REACTORS
330
3CC
102
}
330
3CC
100
AcDbVisualStyle
  2
3dWireframe
 70
     5
 71
     0
 72
     2
 73
     0
 90
        0
 40
-0.6
 41
-30.0
 62
     5
 63
     7
 74
     1
 91
        4
 64
     7
 65
   257
 75
     1
175
     1
 42
1.0
 92
        0
 66
   257
 43
1.0
 76
     1
 77
     6
 78
     2
 67
     7
 79
     5
170
     0
171
     0
290
     0
174
     0
 93
        1
 44
0.0
173
     0
291
     0
 45
0.0
1001
ACAD
1000
AcDbSavedByObjectVersion
1070
     0
1000
AcDbSavedByObjectVersion
1070
     0
1000
AcDbSavedByObjectVersion
1070
     0
1000
AcDbSavedByObjectVersion
1070
     0
1000
AcDbSavedByObjectVersion
1070
     0
  0
VISUALSTYLE
  5
3D1
102
{ACAD_REACTORS
330
3CC
102
}
330
3CC
100
AcDbVisualStyle
  2
Basic
 70
     7
 71
     1
 72
     0
 73
     1
 90
        0
 40
-0.6
 41
-30.0
 62
     5
 63
     7
 74
     0
 91
        4
 64
     7
 65
   257
 75
     1
175
     1
 42
1.0
 92
        8
 66
     7
 43
1.0
 76
     1
 77
     6
 78
     2
 67
     7
 79
     5
170
     0
171
     0
290
     0
174
     0
 93
        1
 44
0.0
173
     0
291
     1
 45
0.0
1001
ACAD
1000
AcDbSavedByObjectVersion
1070
     0
1000
AcDbSavedByObjectVersion
1070
     0
1000
AcDbSavedByObjectVersion
1070
     0
1000
AcDbSavedByObjectVersion
1070
     0
1000
AcDbSavedByObjectVersion
1070
     0
  0
VISUALSTYLE
  5
3D8
102
{ACAD_REACTORS
330
3CC
102
}
330
3CC
100
AcDbVisualStyle
  2
Brighten
 70
    12
 71
     2
 72
     2
 73
     0
 90
        0
 40
-0.6
 41
-30.0
 62
     5
 63
     7
 74
     1
 91
        4
 64
     7
 65
   257
 75
     1
175
     1
 42
1.0
 92
        8
 66
     7
 43
1.0
 76
     1
 77
     6
 78
     2
 67
     7
 79
     5
170
     0
171
     0
290
     0
174
     0
 93
        1
 44
50.0
173
     0
291
     1
 45
0.0
1001
ACAD
1000
AcDbSavedByObjectVersion
1070
     0
1000
AcDbSavedByObjectVersion
1070
     0
1000
AcDbSavedByObjectVersion
1070
     0
1000
AcDbSavedByObjectVersion
1070
     0
1000
AcDbSavedByObjectVersion
1070
     0
  0
VISUALSTYLE
  5
3DC
102
{ACAD_REACTORS
330
3CC
102
}
330
3CC
100
AcDbVisualStyle
  2
ColorChange
 70
    16
 71
     2
 72
     2
 73
     3
 90
        0
 40
-0.6
 41
-30.0
 62
     5
 63
     8
 74
     1
 91
        4
 64
     7
 65
   257
 75
     1
175
     1
 42
1.0
 92
        8
 66
     8
 43
1.0
 76
     1
 77
     6
 78
     2
 67
     7
 79
     5
170
     0
171
     0
290
     0
174
     0
 93
        1
 44
0.0
173
     0
291
     1
 45
0.0
1001
ACAD
1000
AcDbSavedByObjectVersion
1070
     0
1000
AcDbSavedByObjectVersion
1070
     0
1000
AcDbSavedByObjectVersion
1070
     0
1000
AcDbSavedByObjectVersion
1070
     0
1000
AcDbSavedByObjectVersion
1070
     0
  0
VISUALSTYLE
  5
3D5
102
{ACAD_REACTORS
330
3CC
102
}
330
3CC
100
AcDbVisualStyle
  2
Conceptual
 70
     9
 71
     3
 72
     2
 73
     0
 90
        0
 40
-0.6
 41
-30.0
 62
     5
 63
     7
 74
     2
 91
        2
 64
     7
 65
   257
 75
     1
175
     1
 42
40.0
 92
        8
 66
     7
 43
1.0
 76
     1
 77
     6
 78
     2
 67
     7
 79
     3
170
     0
171
     0
290
     0
174
     0
 93
        1
 44
0.0
173
     0
291
     0
 45
0.0
1001
ACAD
1000
AcDbSavedByObjectVersion
1070
     0
1000
AcDbSavedByObjectVersion
1070
     0
1000
AcDbSavedByObjectVersion
1070
     0
1000
AcDbSavedByObjectVersion
1070
     0
1000
AcDbSavedByObjectVersion
1070
     0
  0
VISUALSTYLE
  5
3D7
102
{ACAD_REACTORS
330
3CC
102
}
330
3CC
100
AcDbVisualStyle
  2
Dim
 70
    11
 71
     2
 72
     2
 73
     0
 90
        0
 40
-0.6
 41
-30.0
 62
     5
 63
     7
 74
     1
 91
        4
 64
     7
 65
   257
 75
     1
175
     1
 42
1.0
 92
        8
 66
     7
 43
1.0
 76
     1
 77
     6
 78
     2
 67
     7
 79
     5
170
     0
171
     0
290
     0
174
     0
 93
        1
 44
-50.0
173
     0
291
     1
 45
0.0
1001
ACAD
1000
AcDbSavedByObjectVersion
1070
     0
1000
AcDbSavedByObjectVersion
1070
     0
1000
AcDbSavedByObjectVersion
1070
     0
1000
AcDbSavedByObjectVersion
1070
     0
1000
AcDbSavedByObjectVersion
1070
     0
  0
VISUALSTYLE
  5
3DB
102
{ACAD_REACTORS
330
3CC
102
}
330
3CC
100
AcDbVisualStyle
  2
Facepattern
 70
    15
 71
     2
 72
     2
 73
     0
 90
        0
 40
-0.6
 41
-30.0
 62
     5
 63
     7
 74
     1
 91
        4
 64
     7
 65
   257
 75
     1
175
     1
 42
1.0
 92
        8
 66
     7
 43
1.0
 76
     1
 77
     6
 78
     2
 67
     7
 79
     5
170
     0
171
     0
290
     0
174
     0
 93
        1
 44
0.0
173
     0
291
     1
 45
0.0
1001
ACAD
1000
AcDbSavedByObjectVersion
1070
     0
1000
AcDbSavedByObjectVersion
1070
     0
1000
AcDbSavedByObjectVersion
1070
     0
1000
AcDbSavedByObjectVersion
1070
     0
1000
AcDbSavedByObjectVersion
1070
     0
  0
VISUALSTYLE
  5
3CD
102
{ACAD_REACTORS
330
3CC
102
}
330
3CC
100
AcDbVisualStyle
  2
Flat
 70
     0
 71
     2
 72
     1
 73
     1
 90
        2
 40
-0.6
 41
30.0
 62
     5
 63
     7
 74
     0
 91
        4
 64
     7
 65
   257
 75
     1
175
     1
 42
1.0
 92
        8
 66
     7
 43
1.0
 76
     1
 77
     6
 78
     2
 67
     7
 79
     5
170
     0
171
     0
290
     0
174
     0
 93
       13
 44
0.0
173
     0
291
     1
 45
0.0
1001
ACAD
1000
AcDbSavedByObjectVersion
1070
     0
1000
AcDbSavedByObjectVersion
1070
     0
1000
AcDbSavedByObjectVersion
1070
     0
1000
AcDbSavedByObjectVersion
1070
     0
1000
AcDbSavedByObjectVersion
1070
     0
  0
VISUALSTYLE
  5
3CE
102
{ACAD_REACTORS
330
3CC
102
}
330
3CC
100
AcDbVisualStyle
  2
FlatWithEdges
 70
     1
 71
     2
 72
     1
 73
     1
 90
        2
 40
-0.6
 41
30.0
 62
     5
 63
     7
 74
     1
 91
        4
 64
     7
 65
   257
 75
     1
175
     1
 42
1.0
 92
        0
 66
   257
 43
1.0
 76
     1
 77
     6
 78
     2
 67
     7
 79
     5
170
     0
171
     0
290
     0
174
     0
 93
       13
 44
0.0
173
     0
291
     1
 45
0.0
1001
ACAD
1000
AcDbSavedByObjectVersion
1070
     0
1000
AcDbSavedByObjectVersion
1070
     0
1000
AcDbSavedByObjectVersion
1070
     0
1000
AcDbSavedByObjectVersion
1070
     0
1000
AcDbSavedByObjectVersion
1070
     0
  0
VISUALSTYLE
  5
3CF
102
{ACAD_REACTORS
330
3CC
102
}
330
3CC
100
AcDbVisualStyle
  2
Gouraud
 70
     2
 71
     2
 72
     2
 73
     1
 90
        2
 40
-0.6
 41
30.0
 62
     5
 63
     7
 74
     0
 91
        4
 64
     7
 65
   257
 75
     1
175
     1
 42
1.0
 92
        0
 66
     7
 43
1.0
 76
     1
 77
     6
 78
     2
 67
     7
 79
     5
170
     0
171
     0
290
     0
174
     0
 93
       13
 44
0.0
173
     0
291
     1
 45
0.0
1001
ACAD
1000
AcDbSavedByObjectVersion
1070
     0
1000
AcDbSavedByObjectVersion
1070
     0
1000
AcDbSavedByObjectVersion
1070
     0
1000
AcDbSavedByObjectVersion
1070
     0
1000
AcDbSavedByObjectVersion
1070
     0
  0
VISUALSTYLE
  5
3D0
102
{ACAD_REACTORS
330
3CC
102
}
330
3CC
100
AcDbVisualStyle
  2
GouraudWithEdges
 70
     3
 71
     2
 72
     2
 73
     1
 90
        2
 40
-0.6
 41
30.0
 62
     5
 63
     7
 74
     1
 91
        4
 64
     7
 65
   257
 75
     1
175
     1
 42
1.0
 92
        0
 66
   257
 43
1.0
 76
     1
 77
     6
 78
     2
 67
     7
 79
     5
170
     0
171
     0
290
     0
174
     0
 93
       13
 44
0.0
173
     0
291
     1
 45
0.0
1001
ACAD
1000
AcDbSavedByObjectVersion
1070
     0
1000
AcDbSavedByObjectVersion
1070
     0
1000
AcDbSavedByObjectVersion
1070
     0
1000
AcDbSavedByObjectVersion
1070
     0
1000
AcDbSavedByObjectVersion
1070
     0
  0
VISUALSTYLE
  5
3DA
102
{ACAD_REACTORS
330
3CC
102
}
330
3CC
100
AcDbVisualStyle
  2
Linepattern
 70
    14
 71
     2
 72
     2
 73
     0
 90
        0
 40
-0.6
 41
-30.0
 62
     5
 63
     7
 74
     1
 91
        4
 64
     7
 65
   257
 75
     7
175
     7
 42
1.0
 92
        8
 66
     7
 43
1.0
 76
     1
 77
     6
 78
     2
 67
     7
 79
     5
170
     0
171
     0
290
     0
174
     0
 93
        1
 44
0.0
173
     0
291
     1
 45
0.0
1001
ACAD
1000
AcDbSavedByObjectVersion
1070
     0
1000
AcDbSavedByObjectVersion
1070
     0
1000
AcDbSavedByObjectVersion
1070
     0
1000
AcDbSavedByObjectVersion
1070
     0
1000
AcDbSavedByObjectVersion
1070
     0
  0
VISUALSTYLE
  5
3D6
102
{ACAD_REACTORS
330
3CC
102
}
330
3CC
100
AcDbVisualStyle
  2
Realistic
 70
     8
 71
     2
 72
     2
 73
     0
 90
        0
 40
-0.6
 41
-30.0
 62
     5
 63
     7
 74
     1
 91
        0
 64
     7
 65
   257
 75
     1
175
     1
 42
1.0
 92
        8
 66
     8
 43
1.0
 76
     1
 77
     6
 78
     2
 67
     7
 79
     5
170
     0
171
     0
290
     0
174
     0
 93
       13
 44
0.0
173
     0
291
     0
 45
0.0
1001
ACAD
1000
AcDbSavedByObjectVersion
1070
     0
1000
AcDbSavedByObjectVersion
1070
     0
1000
AcDbSavedByObjectVersion
1070
     0
1000
AcDbSavedByObjectVersion
1070
     0
1000
AcDbSavedByObjectVersion
1070
     0
  0
VISUALSTYLE
  5
3D9
102
{ACAD_REACTORS
330
3CC
102
}
330
3CC
100
AcDbVisualStyle
  2
Thicken
 70
    13
 71
     2
 72
     2
 73
     0
 90
        0
 40
-0.6
 41
-30.0
 62
     5
 63
     7
 74
     1
 91
        4
 64
     7
 65
   257
 75
     1
175
     1
 42
1.0
 92
       12
 66
     7
 43
1.0
 76
     1
 77
     6
 78
     2
 67
     7
 79
     5
170
     0
171
     0
290
     0
174
     0
 93
        1
 44
0.0
173
     0
291
     1
 45
0.0
1001
ACAD
1000
AcDbSavedByObjectVersion
1070
     0
1000
AcDbSavedByObjectVersion
1070
     0
1000
AcDbSavedByObjectVersion
1070
     0
1000
AcDbSavedByObjectVersion
1070
     0
1000
AcDbSavedByObjectVersion
1070
     0
  0
DICTIONARYVAR
  5
420
102
{ACAD_REACTORS
330
94
102
}
330
94
100
DictionaryVariables
280
     0
  1
1:1
  0
DICTIONARYVAR
  5
41E
102
{ACAD_REACTORS
330
94
102
}
330
94
100
DictionaryVariables
280
     0
  1
STANDARD
  0
DICTIONARYVAR
  5
138
102
{ACAD_REACTORS
330
94
102
}
330
94
100
DictionaryVariables
280
     0
  1
STANDARD
  0
DICTIONARYVAR
  5
96
102
{ACAD_REACTORS
330
94
102
}
330
94
100
DictionaryVariables
280
     0
  1
2
  0
DICTIONARYVAR
  5
95
102
{ACAD_REACTORS
330
94
102
}
330
94
100
DictionaryVariables
280
     0
  1
0
  0
DICTIONARYVAR
  5
422
102
{ACAD_REACTORS
330
94
102
}
330
94
100
DictionaryVariables
280
     0
  1
1
  0
DICTIONARYVAR
  5
423
102
{ACAD_REACTORS
330
94
102
}
330
94
100
DictionaryVariables
280
     0
  1
15
  0
DICTIONARYVAR
  5
421
102
{ACAD_REACTORS
330
94
102
}
330
94
100
DictionaryVariables
280
     0
  1
0
  0
DICTIONARYVAR
  5
41F
102
{ACAD_REACTORS
330
94
102
}
330
94
100
DictionaryVariables
280
     0
  1
0
  0
DICTIONARYVAR
  5
7C5
102
{ACAD_REACTORS
330
94
102
}
330
94
100
DictionaryVariables
280
     0
  1
127
  0
DICTIONARY
  5
272
102
{ACAD_REACTORS
330
5B
102
}
330
5B
100
AcDbDictionary
281
     1
  0
DICTIONARY
  5
61
102
{ACAD_REACTORS
330
5B
102
}
330
5B
100
AcDbDictionary
281
     1
  0
XRECORD
  5
123
102
{ACAD_REACTORS
330
5B
102
}
330
5B
100
AcDbXrecord
280
     1
 90
-1023410169
  0
DICTIONARY
  5
D06
330
1E
100
AcDbDictionary
280
     1
281
     1
  3
ACAD_XREC_ROUNDTRIP
360
D07
  0
DICTIONARY
  5
D0A
330
26
100
AcDbDictionary
280
     1
281
     1
  3
ACAD_XREC_ROUNDTRIP
360
D0B
  0
DICTIONARY
  5
D08
330
22
100
AcDbDictionary
280
     1
281
     1
  3
ACAD_XREC_ROUNDTRIP
360
D09
  0
DICTIONARY
  5
3BD
330
3BC
100
AcDbDictionary
280
     1
281
     1
  3
ACAD_XREC_ROUNDTRIP
360
7D2
  3
BUMPTILE
360
3BF
  3
DIFFUSETILE
360
3BE
  3
OPACITYTILE
360
3C2
  3
REFLECTIONTILE
360
3C1
  3
REFRACTIONTILE
360
3C3
  3
SPECULARTILE
360
3C0
  0
DICTIONARY
  5
3B5
330
3B4
100
AcDbDictionary
280
     1
281
     1
  3
ACAD_XREC_ROUNDTRIP
360
7D1
  3
BUMPTILE
360
3B7
  3
DIFFUSETILE
360
3B6
  3
OPACITYTILE
360
3BA
  3
REFLECTIONTILE
360
3B9
  3
REFRACTIONTILE
360
3BB
  3
SPECULARTILE
360
3B8
  0
DICTIONARY
  5
3C5
330
3C4
100
AcDbDictionary
280
     1
281
     1
  3
ACAD_XREC_ROUNDTRIP
360
7D3
  3
BUMPTILE
360
3C7
  3
DIFFUSETILE
360
3C6
  3
OPACITYTILE
360
3CA
  3
REFLECTIONTILE
360
3C9
  3
REFRACTIONTILE
360
3CB
  3
SPECULARTILE
360
3C8
  0
DICTIONARY
  5
41B
330
11B
100
AcDbDictionary
280
     1
281
     1
  3
ACAD_ROUNDTRIP_2008_TABLESTYLE_CELLSTYLEMAP
360
CFE
  3
ACAD_XREC_ROUNDTRIP
360
D0C
  0
XRECORD
  5
D07
102
{ACAD_REACTORS
330
D06
102
}
330
D06
100
AcDbXrecord
280
     1
102
SHADEPLOT
 70
     0
102
SHADEPLOTRESLEVEL
 70
     2
102
SHADEPLOTCUSTOMDPI
 70
   300
  0
XRECORD
  5
D0B
102
{ACAD_REACTORS
330
D0A
102
}
330
D0A
100
AcDbXrecord
280
     1
102
SHADEPLOT
 70
     0
102
SHADEPLOTRESLEVEL
 70
     2
102
SHADEPLOTCUSTOMDPI
 70
   300
  0
XRECORD
  5
D09
102
{ACAD_REACTORS
330
D08
102
}
330
D08
100
AcDbXrecord
280
     1
102
SHADEPLOT
 70
     0
102
SHADEPLOTRESLEVEL
 70
     2
102
SHADEPLOTCUSTOMDPI
 70
   300
  0
XRECORD
  5
7D2
102
{ACAD_REACTORS
330
3BD
102
}
330
3BD
100
AcDbXrecord
280
     1
102
MATERIAL
148
0.0
149
0.0
149
0.0
 93
        0
 94
      127
282
     0
 72
     0
 77
     0
171
     0
175
     0
179
     0
273
     0
  0
XRECORD
  5
3BF
102
{ACAD_REACTORS
330
3BD
102
}
330
3BD
100
AcDbXrecord
280
     1
270
     1
271
     1
  0
XRECORD
  5
3BE
102
{ACAD_REACTORS
330
3BD
102
}
330
3BD
100
AcDbXrecord
280
     1
270
     1
271
     1
  0
XRECORD
  5
3C2
102
{ACAD_REACTORS
330
3BD
102
}
330
3BD
100
AcDbXrecord
280
     1
270
     1
271
     1
  0
XRECORD
  5
3C1
102
{ACAD_REACTORS
330
3BD
102
}
330
3BD
100
AcDbXrecord
280
     1
270
     1
271
     1
  0
XRECORD
  5
3C3
102
{ACAD_REACTORS
330
3BD
102
}
330
3BD
100
AcDbXrecord
280
     1
270
     1
271
     1
  0
XRECORD
  5
3C0
102
{ACAD_REACTORS
330
3BD
102
}
330
3BD
100
AcDbXrecord
280
     1
270
     1
271
     1
  0
XRECORD
  5
7D1
102
{ACAD_REACTORS
330
3B5
102
}
330
3B5
100
AcDbXrecord
280
     1
102
MATERIAL
148
0.0
149
0.0
149
0.0
 93
        0
 94
      127
282
     0
 72
     0
 77
     0
171
     0
175
     0
179
     0
273
     0
  0
XRECORD
  5
3B7
102
{ACAD_REACTORS
330
3B5
102
}
330
3B5
100
AcDbXrecord
280
     1
270
     1
271
     1
  0
XRECORD
  5
3B6
102
{ACAD_REACTORS
330
3B5
102
}
330
3B5
100
AcDbXrecord
280
     1
270
     1
271
     1
  0
XRECORD
  5
3BA
102
{ACAD_REACTORS
330
3B5
102
}
330
3B5
100
AcDbXrecord
280
     1
270
     1
271
     1
  0
XRECORD
  5
3B9
102
{ACAD_REACTORS
330
3B5
102
}
330
3B5
100
AcDbXrecord
280
     1
270
     1
271
     1
  0
XRECORD
  5
3BB
102
{ACAD_REACTORS
330
3B5
102
}
330
3B5
100
AcDbXrecord
280
     1
270
     1
271
     1
  0
XRECORD
  5
3B8
102
{ACAD_REACTORS
330
3B5
102
}
330
3B5
100
AcDbXrecord
280
     1
270
     1
271
     1
  0
XRECORD
  5
7D3
102
{ACAD_REACTORS
330
3C5
102
}
330
3C5
100
AcDbXrecord
280
     1
102
MATERIAL
148
0.0
149
0.0
149
0.0
 93
        0
 94
      127
282
     0
 72
     0
 77
     0
171
     0
175
     0
179
     0
273
     0
  0
XRECORD
  5
3C7
102
{ACAD_REACTORS
330
3C5
102
}
330
3C5
100
AcDbXrecord
280
     1
270
     1
271
     1
  0
XRECORD
  5
3C6
102
{ACAD_REACTORS
330
3C5
102
}
330
3C5
100
AcDbXrecord
280
     1
270
     1
271
     1
  0
XRECORD
  5
3CA
102
{ACAD_REACTORS
330
3C5
102
}
330
3C5
100
AcDbXrecord
280
     1
270
     1
271
     1
  0
XRECORD
  5
3C9
102
{ACAD_REACTORS
330
3C5
102
}
330
3C5
100
AcDbXrecord
280
     1
270
     1
271
     1
  0
XRECORD
  5
3CB
102
{ACAD_REACTORS
330
3C5
102
}
330
3C5
100
AcDbXrecord
280
     1
270
     1
271
     1
  0
XRECORD
  5
3C8
102
{ACAD_REACTORS
330
3C5
102
}
330
3C5
100
AcDbXrecord
280
     1
270
     1
271
     1
  0
CELLSTYLEMAP
  5
CFE
102
{ACAD_REACTORS
330
41B
102
}
330
41B
100
AcDbCellStyleMap
 90
        3
300
CELLSTYLE
  1
TABLEFORMAT_BEGIN
 90
        5
170
     1
 91
        0
 92
    32768
 62
   257
 93
        1
300
CONTENTFORMAT
  1
CONTENTFORMAT_BEGIN
 90
        0
 91
        0
 92
        4
 93
        0
300

 40
0.0
140
1.0
 94
        5
 62
     0
340
11
144
6.0
309
CONTENTFORMAT_END
171
     1
301
MARGIN
  1
CELLMARGIN_BEGIN
 40
1.5
 40
1.5
 40
1.5
 40
1.5
 40
0.18
 40
0.18
309
CELLMARGIN_END
 94
        6
 95
        1
302
GRIDFORMAT
  1
GRIDFORMAT_BEGIN
 90
        0
 91
        1
 62
     0
 92
       -2
340
0
 93
        0
 40
0.045
309
GRIDFORMAT_END
 95
        2
302
GRIDFORMAT
  1
GRIDFORMAT_BEGIN
 90
        0
 91
        1
 62
     0
 92
       -2
340
0
 93
        0
 40
0.045
309
GRIDFORMAT_END
 95
        4
302
GRIDFORMAT
  1
GRIDFORMAT_BEGIN
 90
        0
 91
        1
 62
     0
 92
       -2
340
0
 93
        0
 40
0.045
309
GRIDFORMAT_END
 95
        8
302
GRIDFORMAT
  1
GRIDFORMAT_BEGIN
 90
        0
 91
        1
 62
     0
 92
       -2
340
0
 93
        0
 40
0.045
309
GRIDFORMAT_END
 95
       16
302
GRIDFORMAT
  1
GRIDFORMAT_BEGIN
 90
        0
 91
        1
 62
     0
 92
       -2
340
0
 93
        0
 40
0.045
309
GRIDFORMAT_END
 95
       32
302
GRIDFORMAT
  1
GRIDFORMAT_BEGIN
 90
        0
 91
        1
 62
     0
 92
       -2
340
0
 93
        0
 40
0.045
309
GRIDFORMAT_END
309
TABLEFORMAT_END
  1
CELLSTYLE_BEGIN
 90
        1
 91
        1
300
_TITLE
309
CELLSTYLE_END
300
CELLSTYLE
  1
TABLEFORMAT_BEGIN
 90
        5
170
     1
 91
        0
 92
        0
 62
   257
 93
        1
300
CONTENTFORMAT
  1
CONTENTFORMAT_BEGIN
 90
        0
 91
        0
 92
        4
 93
        0
300

 40
0.0
140
1.0
 94
        5
 62
     0
340
11
144
4.5
309
CONTENTFORMAT_END
171
     1
301
MARGIN
  1
CELLMARGIN_BEGIN
 40
1.5
 40
1.5
 40
1.5
 40
1.5
 40
0.18
 40
0.18
309
CELLMARGIN_END
 94
        6
 95
        1
302
GRIDFORMAT
  1
GRIDFORMAT_BEGIN
 90
        0
 91
        1
 62
     0
 92
       -2
340
0
 93
        0
 40
0.045
309
GRIDFORMAT_END
 95
        2
302
GRIDFORMAT
  1
GRIDFORMAT_BEGIN
 90
        0
 91
        1
 62
     0
 92
       -2
340
0
 93
        0
 40
0.045
309
GRIDFORMAT_END
 95
        4
302
GRIDFORMAT
  1
GRIDFORMAT_BEGIN
 90
        0
 91
        1
 62
     0
 92
       -2
340
0
 93
        0
 40
0.045
309
GRIDFORMAT_END
 95
        8
302
GRIDFORMAT
  1
GRIDFORMAT_BEGIN
 90
        0
 91
        1
 62
     0
 92
       -2
340
0
 93
        0
 40
0.045
309
GRIDFORMAT_END
 95
       16
302
GRIDFORMAT
  1
GRIDFORMAT_BEGIN
 90
        0
 91
        1
 62
     0
 92
       -2
340
0
 93
        0
 40
0.045
309
GRIDFORMAT_END
 95
       32
302
GRIDFORMAT
  1
GRIDFORMAT_BEGIN
 90
        0
 91
        1
 62
     0
 92
       -2
340
0
 93
        0
 40
0.045
309
GRIDFORMAT_END
309
TABLEFORMAT_END
  1
CELLSTYLE_BEGIN
 90
        2
 91
        1
300
_HEADER
309
CELLSTYLE_END
300
CELLSTYLE
  1
TABLEFORMAT_BEGIN
 90
        5
170
     1
 91
        0
 92
        0
 62
   257
 93
        1
300
CONTENTFORMAT
  1
CONTENTFORMAT_BEGIN
 90
        0
 91
        0
 92
        4
 93
        0
300

 40
0.0
140
1.0
 94
        2
 62
     0
340
11
144
4.5
309
CONTENTFORMAT_END
171
     1
301
MARGIN
  1
CELLMARGIN_BEGIN
 40
1.5
 40
1.5
 40
1.5
 40
1.5
 40
0.18
 40
0.18
309
CELLMARGIN_END
 94
        6
 95
        1
302
GRIDFORMAT
  1
GRIDFORMAT_BEGIN
 90
        0
 91
        1
 62
     0
 92
       -2
340
0
 93
        0
 40
0.045
309
GRIDFORMAT_END
 95
        2
302
GRIDFORMAT
  1
GRIDFORMAT_BEGIN
 90
        0
 91
        1
 62
     0
 92
       -2
340
0
 93
        0
 40
0.045
309
GRIDFORMAT_END
 95
        4
302
GRIDFORMAT
  1
GRIDFORMAT_BEGIN
 90
        0
 91
        1
 62
     0
 92
       -2
340
0
 93
        0
 40
0.045
309
GRIDFORMAT_END
 95
        8
302
GRIDFORMAT
  1
GRIDFORMAT_BEGIN
 90
        0
 91
        1
 62
     0
 92
       -2
340
0
 93
        0
 40
0.045
309
GRIDFORMAT_END
 95
       16
302
GRIDFORMAT
  1
GRIDFORMAT_BEGIN
 90
        0
 91
        1
 62
     0
 92
       -2
340
0
 93
        0
 40
0.045
309
GRIDFORMAT_END
 95
       32
302
GRIDFORMAT
  1
GRIDFORMAT_BEGIN
 90
        0
 91
        1
 62
     0
 92
       -2
340
0
 93
        0
 40
0.045
309
GRIDFORMAT_END
309
TABLEFORMAT_END
  1
CELLSTYLE_BEGIN
 90
        3
 91
        2
300
_DATA
309
CELLSTYLE_END
  0
XRECORD
  5
D0C
102
{ACAD_REACTORS
330
41B
102
}
330
41B
100
AcDbXrecord
280
     1
102
ACAD_ROUNDTRIP_PRE2007_TABLESTYLE
 90
        4
 91
        0
  1

 92
        4
 93
        0
  2

 94
        4
 95
        0
  3

  0
ENDSEC
  0
EOF
