  0
SECTION
  2
HEADER
  9
$ACADVER
  1
AC1015
  9
$ACADMAINTVER
 70
    20
  9
$DWGCODEPAGE
  3
ANSI_1252
  9
$INSBASE
 10
0.0
 20
0.0
 30
0.0
  9
$EXTMIN
 10
-0.062632391891384
 20
-0.0423546590711794
 30
-0.000000000000013
  9
$EXTMAX
 10
1137.667538329997
 20
750.7664244670604
 30
0.0000000000000023
  9
$LIMMIN
 10
0.0
 20
0.0
  9
$LIMMAX
 10
420.0
 20
297.0
  9
$ORTHOMODE
 70
     1
  9
$REGENMODE
 70
     1
  9
$FILLMODE
 70
     1
  9
$QTEXTMODE
 70
     0
  9
$MIRRTEXT
 70
     1
  9
$LTSCALE
 40
1.0
  9
$ATTMODE
 70
     1
  9
$TEXTSIZE
 40
2.5
  9
$TRACEWID
 40
1.0
  9
$TEXTSTYLE
  7
STANDARD
  9
$CLAYER
  8
0
  9
$CELTYPE
  6
ByLayer
  9
$CECOLOR
 62
   256
  9
$CELTSCALE
 40
1.0
  9
$DISPSILH
 70
     0
  9
$DIMSCALE
 40
1.0
  9
$DIMASZ
 40
3.5
  9
$DIMEXO
 40
1.0
  9
$DIMDLI
 40
10.0
  9
$DIMRND
 40
0.0
  9
$DIMDLE
 40
0.0
  9
$DIMEXE
 40
1.0
  9
$DIMTP
 40
0.1
  9
$DIMTM
 40
0.1
  9
$DIMTXT
 40
3.5
  9
$DIMCEN
 40
0.0
  9
$DIMTSZ
 40
0.0
  9
$DIMTOL
 70
     0
  9
$DIMLIM
 70
     0
  9
$DIMTIH
 70
     0
  9
$DIMTOH
 70
     0
  9
$DIMSE1
 70
     0
  9
$DIMSE2
 70
     0
  9
$DIMTAD
 70
     1
  9
$DIMZIN
 70
     8
  9
$DIMBLK
  1

  9
$DIMASO
 70
     1
  9
$DIMSHO
 70
     1
  9
$DIMPOST
  1

  9
$DIMAPOST
  1
"
  9
$DIMALT
 70
     0
  9
$DIMALTD
 70
     2
  9
$DIMALTF
 40
0.0393701
  9
$DIMLFAC
 40
1.0
  9
$DIMTOFL
 70
     1
  9
$DIMTVP
 40
0.0
  9
$DIMTIX
 70
     0
  9
$DIMSOXD
 70
     0
  9
$DIMSAH
 70
     0
  9
$DIMBLK1
  1

  9
$DIMBLK2
  1

  9
$DIMSTYLE
  2
AM_DIN
  9
$DIMCLRD
 70
   256
  9
$DIMCLRE
 70
   256
  9
$DIMCLRT
 70
     2
  9
$DIMTFAC
 40
0.71
  9
$DIMGAP
 40
1.5
  9
$DIMJUST
 70
     0
  9
$DIMSD1
 70
     0
  9
$DIMSD2
 70
     0
  9
$DIMTOLJ
 70
     0
  9
$DIMTZIN
 70
     8
  9
$DIMALTZ
 70
     0
  9
$DIMALTTZ
 70
     0
  9
$DIMUPT
 70
     0
  9
$DIMDEC
 70
     2
  9
$DIMTDEC
 70
     3
  9
$DIMALTU
 70
     2
  9
$DIMALTTD
 70
     4
  9
$DIMTXSTY
  7
STANDARD
  9
$DIMAUNIT
 70
     0
  9
$DIMADEC
 70
     0
  9
$DIMALTRND
 40
0.0
  9
$DIMAZIN
 70
     2
  9
$DIMDSEP
 70
    46
  9
$DIMATFIT
 70
     3
  9
$DIMFRAC
 70
     0
  9
$DIMLDRBLK
  1

  9
$DIMLUNIT
 70
     2
  9
$DIMLWD
 70
    -1
  9
$DIMLWE
 70
    -1
  9
$DIMTMOVE
 70
     0
  9
$LUNITS
 70
     2
  9
$LUPREC
 70
     2
  9
$SKETCHINC
 40
1.0
  9
$FILLETRAD
 40
0.0
  9
$AUNITS
 70
     0
  9
$AUPREC
 70
     0
  9
$MENU
  1
.
  9
$ELEVATION
 40
0.0
  9
$PELEVATION
 40
0.0
  9
$THICKNESS
 40
0.0
  9
$LIMCHECK
 70
     0
  9
$CHAMFERA
 40
2.5
  9
$CHAMFERB
 40
2.5
  9
$CHAMFERC
 40
20.0
  9
$CHAMFERD
 40
0.0
  9
$SKPOLY
 70
     0
  9
$TDCREATE
 40
2455659.560568600
  9
$TDUCREATE
 40
2455659.477235266
  9
$TDUPDATE
 40
2455665.438702373
  9
$TDUUPDATE
 40
2455665.355369040
  9
$TDINDWG
 40
0.0841467824
  9
$TDUSRTIMER
 40
0.0841464236
  9
$USRTIMER
 70
     1
  9
$ANGBASE
 50
0.0
  9
$ANGDIR
 70
     0
  9
$PDMODE
 70
     0
  9
$PDSIZE
 40
0.0
  9
$PLINEWID
 40
0.0
  9
$SPLFRAME
 70
     0
  9
$SPLINETYPE
 70
     6
  9
$SPLINESEGS
 70
     8
  9
$HANDSEED
  5
E6A
  9
$SURFTAB1
 70
     6
  9
$SURFTAB2
 70
     6
  9
$SURFTYPE
 70
     6
  9
$SURFU
 70
     6
  9
$SURFV
 70
     6
  9
$UCSBASE
  2

  9
$UCSNAME
  2

  9
$UCSORG
 10
0.0
 20
0.0
 30
0.0
  9
$UCSXDIR
 10
1.0
 20
0.0
 30
0.0
  9
$UCSYDIR
 10
0.0
 20
1.0
 30
0.0
  9
$UCSORTHOREF
  2

  9
$UCSORTHOVIEW
 70
     0
  9
$UCSORGTOP
 10
0.0
 20
0.0
 30
0.0
  9
$UCSORGBOTTOM
 10
0.0
 20
0.0
 30
0.0
  9
$UCSORGLEFT
 10
0.0
 20
0.0
 30
0.0
  9
$UCSORGRIGHT
 10
0.0
 20
0.0
 30
0.0
  9
$UCSORGFRONT
 10
0.0
 20
0.0
 30
0.0
  9
$UCSORGBACK
 10
0.0
 20
0.0
 30
0.0
  9
$PUCSBASE
  2

  9
$PUCSNAME
  2

  9
$PUCSORG
 10
0.0
 20
0.0
 30
0.0
  9
$PUCSXDIR
 10
1.0
 20
0.0
 30
0.0
  9
$PUCSYDIR
 10
0.0
 20
1.0
 30
0.0
  9
$PUCSORTHOREF
  2

  9
$PUCSORTHOVIEW
 70
     0
  9
$PUCSORGTOP
 10
0.0
 20
0.0
 30
0.0
  9
$PUCSORGBOTTOM
 10
0.0
 20
0.0
 30
0.0
  9
$PUCSORGLEFT
 10
0.0
 20
0.0
 30
0.0
  9
$PUCSORGRIGHT
 10
0.0
 20
0.0
 30
0.0
  9
$PUCSORGFRONT
 10
0.0
 20
0.0
 30
0.0
  9
$PUCSORGBACK
 10
0.0
 20
0.0
 30
0.0
  9
$USERI1
 70
     0
  9
$USERI2
 70
     0
  9
$USERI3
 70
     0
  9
$USERI4
 70
     0
  9
$USERI5
 70
     0
  9
$USERR1
 40
0.0
  9
$USERR2
 40
0.0
  9
$USERR3
 40
0.0
  9
$USERR4
 40
0.0
  9
$USERR5
 40
0.0
  9
$WORLDVIEW
 70
     1
  9
$SHADEDGE
 70
     3
  9
$SHADEDIF
 70
    70
  9
$TILEMODE
 70
     1
  9
$MAXACTVP
 70
    64
  9
$PINSBASE
 10
0.0
 20
0.0
 30
0.0
  9
$PLIMCHECK
 70
     0
  9
$PEXTMIN
 10
1.000000000000000E+20
 20
1.000000000000000E+20
 30
1.000000000000000E+20
  9
$PEXTMAX
 10
-1.000000000000000E+20
 20
-1.000000000000000E+20
 30
-1.000000000000000E+20
  9
$PLIMMIN
 10
0.0
 20
0.0
  9
$PLIMMAX
 10
420.0
 20
297.0
  9
$UNITMODE
 70
     0
  9
$VISRETAIN
 70
     1
  9
$PLINEGEN
 70
     0
  9
$PSLTSCALE
 70
     1
  9
$TREEDEPTH
 70
  3020
  9
$CMLSTYLE
  2
Standard
  9
$CMLJUST
 70
     0
  9
$CMLSCALE
 40
20.0
  9
$PROXYGRAPHICS
 70
     1
  9
$MEASUREMENT
 70
     1
  9
$CELWEIGHT
370
    -1
  9
$ENDCAPS
280
     0
  9
$JOINSTYLE
280
     0
  9
$LWDISPLAY
290
     0
  9
$INSUNITS
 70
     4
  9
$HYPERLINKBASE
  1

  9
$STYLESHEET
  1

  9
$XEDIT
290
     1
  9
$CEPSNTYPE
380
     0
  9
$PSTYLEMODE
290
     1
  9
$FINGERPRINTGUID
  2
{F523BB7A-647F-46AF-A027-9EE3A3426625}
  9
$VERSIONGUID
  2
{FD16FFD3-C5C4-43D9-BEC8-C934F38823B2}
  9
$EXTNAMES
290
     1
  9
$PSVPSCALE
 40
0.0
  9
$OLESTARTUP
290
     0
  0
ENDSEC
  0
SECTION
  2
CLASSES
  0
CLASS
  1
ACDBDICTIONARYWDFLT
  2
AcDbDictionaryWithDefault
  3
ObjectDBX Classes
 90
        0
280
     0
281
     0
  0
CLASS
  1
ACDBPLACEHOLDER
  2
AcDbPlaceHolder
  3
ObjectDBX Classes
 90
        0
280
     0
281
     0
  0
CLASS
  1
LAYOUT
  2
AcDbLayout
  3
ObjectDBX Classes
 90
        0
280
     0
281
     0
  0
CLASS
  1
ACME_DOCUMENT
  2
AcMeDbDoc
  3
AcMeServices
 90
     1024
280
     0
281
     0
  0
CLASS
  1
AMGSETTINGSOBJ
  2
AmgSettingsObj
  3
"AcadM|Product Description: AutoCAD Mechanical|Company: Autodesk, Inc."
 90
     1024
280
     0
281
     0
  0
CLASS
  1
ACMESCOPE
  2
AcMeScope
  3
AcMeServices
 90
     1024
280
     0
281
     0
  0
CLASS
  1
ACMECOMMANDHISTORY
  2
AcMeCommandHistory
  3
AcMeServices
 90
     1024
280
     0
281
     0
  0
CLASS
  1
ACIMSYSVARMAN
  2
AcImSysVarManager
  3
AcMeServices
 90
     1024
280
     0
281
     0
  0
CLASS
  1
ACIMREALSYSVAR
  2
AcImRealSysVar
  3
AcMeServices
 90
     1024
280
     0
281
     0
  0
CLASS
  1
ACIMINTSYSVAR
  2
AcImIntSysVar
  3
AcMeServices
 90
     1024
280
     0
281
     0
  0
CLASS
  1
ACMEDRAWINGMAN
  2
AcMeDrawingMan
  3
AcMeServices
 90
     1024
280
     0
281
     0
  0
CLASS
  1
ACMEVIEW
  2
AcMeView
  3
AcMeServices
 90
     1024
280
     0
281
     0
  0
CLASS
  1
ACDBENTITYCACHE
  2
AcMeEntityCache
  3
AcMeServices
 90
     1024
280
     0
281
     0
  0
CLASS
  1
GSMANAGER
  2
AcMeGSManager
  3
AcMeServices
 90
     1024
280
     0
281
     0
  0
CLASS
  1
AMDTINTERNALREACTOR
  2
AmdtInternalReactor
  3
AcMeServices
 90
     1024
280
     0
281
     0
  0
CLASS
  1
ACMESTATEMGR
  2
AcMeStateMgr
  3
AcMeServices
 90
     1024
280
     0
281
     0
  0
CLASS
  1
ACGREFMASTER
  2
AcGrefMaster
  3
AcAttribServices
 90
     1024
280
     0
281
     0
  0
CLASS
  1
ACME_DATABASE
  2
AcMeDbDatabase
  3
AcMeServices
 90
     1024
280
     0
281
     0
  0
CLASS
  1
ACRFINSADJUSTERMGR
  2
AcRfInsAdjusterMgr
  3
AcMeServices
 90
     1024
280
     0
281
     0
  0
CLASS
  1
ACGREFACADMASTER
  2
AcGrefacadMaster
  3
AcGrefServices
 90
     1024
280
     0
281
     0
  0
CLASS
  1
AMIMASTER
  2
AmiMaster
  3
AmiServices
 90
     1024
280
     0
281
     0
  0
CLASS
  1
ACMDATADICTIONARY
  2
AcmDataDictionary
  3
"AcmSymBB|Product Description: AutoCAD Mechanical|Company: Autodesk, Inc."
 90
     1024
280
     0
281
     0
  0
CLASS
  1
ACMDATAENTRYBLOCK
  2
AcmDataEntryBlock
  3
AcmSymBB|Product Description: AutoCAD Mechanical|Company: Autodesk, Inc.
 90
    33792
280
     0
281
     0
  0
CLASS
  1
ACIMSTRSYSVAR
  2
AcImStrSysVar
  3
AcMeServices
 90
     1024
280
     0
281
     0
  0
CLASS
  1
ACMSTANDARDISO
  2
AcmStandardISO
  3
"Amdt_StdImp|Product Description: AutoCAD Mechanical|Company: Autodesk, Inc."
 90
    33792
280
     0
281
     0
  0
CLASS
  1
AMGOBJPROPCFG
  2
AmgObjPropCfg
  3
"AmgLay|Product Description: AutoCAD Mechanical|Company: Autodesk, Inc."
 90
     1025
280
     0
281
     0
  0
CLASS
  1
AMDTEDGESTANDARDISO
  2
AmdtEdgeStdISO
  3
"Amdt_StdImp|Product Description: AutoCAD Mechanical|Company: Autodesk, Inc."
 90
    33792
280
     0
281
     0
  0
CLASS
  1
ACMSURFSTANDARDISO
  2
AcmSurfTextStdISO
  3
"Amdt_StdImp|Product Description: AutoCAD Mechanical|Company: Autodesk, Inc."
 90
    33792
280
     0
281
     0
  0
CLASS
  1
ACMFCFSTANDARDISO
  2
AcmFCFStdISO
  3
"Amdt_StdImp|Product Description: AutoCAD Mechanical|Company: Autodesk, Inc."
 90
    33792
280
     0
281
     0
  0
CLASS
  1
ACMWELDSTANDARDISO
  2
AcmWeldingStdISO
  3
"Amdt_StdImp|Product Description: AutoCAD Mechanical|Company: Autodesk, Inc."
 90
    33792
280
     0
281
     0
  0
CLASS
  1
ACMIDSTANDARDISO
  2
AcmIdStdISO
  3
"Amdt_StdImp|Product Description: AutoCAD Mechanical|Company: Autodesk, Inc."
 90
    33792
280
     0
281
     0
  0
CLASS
  1
ACMDATUMSTANDARDISO
  2
AcmDatumStdISO
  3
"Amdt_StdImp|Product Description: AutoCAD Mechanical|Company: Autodesk, Inc."
 90
    33792
280
     0
281
     0
  0
CLASS
  1
ACMBOMSTANDARDISO
  2
AcmBOMStdISO
  3
"Amdt_StdImp|Product Description: AutoCAD Mechanical|Company: Autodesk, Inc."
 90
    33792
280
     0
281
     0
  0
CLASS
  1
ACMDETAILSTANDARDISO
  2
AmdtDetailSymStdISO
  3
"Amdt_StdImp|Product Description: AutoCAD Mechanical|Company: Autodesk, Inc."
 90
    33792
280
     0
281
     0
  0
CLASS
  1
ACMSECTIONSTANDARDISO
  2
AmdtSectionSymStdISO
  3
"Amdt_StdImp|Product Description: AutoCAD Mechanical|Company: Autodesk, Inc."
 90
    33792
280
     0
281
     0
  0
CLASS
  1
ACMCENTERLINESTANDARDISO
  2
AmdtCenterLineStdISO
  3
"Amdt_StdImp|Product Description: AutoCAD Mechanical|Company: Autodesk, Inc."
 90
    33792
280
     0
281
     0
  0
CLASS
  1
ACMNOTESTANDARDISO
  2
AmdtNoteStdISO
  3
"Amdt_StdImp|Product Description: AutoCAD Mechanical|Company: Autodesk, Inc."
 90
    33792
280
     0
281
     0
  0
CLASS
  1
ACAMGLAYSTD
  2
AcAmgLayStd
  3
"AmgLay|Product Description: AutoCAD Mechanical|Company: Autodesk, Inc."
 90
     1024
280
     0
281
     0
  0
CLASS
  1
ACAMGDIMSTD
  2
AcAmgDimStd
  3
"AmgDim|Product Description: AutoCAD Mechanical|Company: Autodesk, Inc."
 90
     1024
280
     0
281
     0
  0
CLASS
  1
ACAMGHOLECHARTSTDISO
  2
AcAmgHoleChartStdISO
  3
AmgDim|Product Description: AutoCAD Mechanical|Company: Autodesk, Inc.
 90
    33792
280
     0
281
     0
  0
CLASS
  1
ACAMGTITLESTD
  2
AcAmgTitleStd
  3
"AmgTitle|Product Description: AutoCAD Mechanical|Company: Autodesk, Inc."
 90
     4095
280
     0
281
     0
  0
CLASS
  1
LAYER_INDEX
  2
AcDbLayerIndex
  3
ObjectDBX Classes
 90
    32768
280
     0
281
     0
  0
CLASS
  1
IDBUFFER
  2
AcDbIdBuffer
  3
ObjectDBX Classes
 90
    32768
280
     0
281
     0
  0
CLASS
  1
DICTIONARYVAR
  2
AcDbDictionaryVar
  3
ObjectDBX Classes
 90
        0
280
     0
281
     0
  0
CLASS
  1
AM_DRAWING_MGR
  2
AcDmDwgMgr
  3
AcMechDwgViewMgmt
 90
     1024
280
     0
281
     0
  0
CLASS
  1
AM_DWG_DOCUMENT
  2
AcDmDwgDocument
  3
AcMechDwgViewMgmt
 90
     1024
280
     0
281
     0
  0
CLASS
  1
AM_DWG_SHEET
  2
AcDmSheet
  3
AcMechDwgViewMgmt
 90
     1024
280
     0
281
     0
  0
CLASS
  1
AM_VIEWDIMPARMAP
  2
AcDmViewDimParMap
  3
AcMechDwgViewMgmt
 90
     1024
280
     0
281
     0
  0
CLASS
  1
AM_DWGMGR_NAME
  2
AcDmDwgMgrName
  3
AcMechDwgViewMgmt
 90
     1024
280
     0
281
     0
  0
CLASS
  1
AMDTMENUSTATEMGR
  2
AmdtMenuStateMgr
  3
McadcomServices
 90
     1024
280
     0
281
     0
  0
CLASS
  1
AMDTMCOMMENUSTATE
  2
AmdtMcomMenuState
  3
McadcomServices
 90
     1024
280
     0
281
     0
  0
CLASS
  1
MAPIAMMOUDLE
  2
MApiAmModule
  3
MApiAmServices
 90
     1024
280
     0
281
     0
  0
CLASS
  1
AMDTADMENUSTATE
  2
AmdtAdMenuState
  3
DesignerServices
 90
     1024
280
     0
281
     0
  0
CLASS
  1
ADAPPL
  2
AcAdAppl
  3
DesignerServices
 90
     1024
280
     0
281
     0
  0
CLASS
  1
DEPMGR
  2
AcAdDepMgr
  3
DesignerServices
 90
     1024
280
     0
281
     0
  0
CLASS
  1
PARAMMGR
  2
AcAdParamMgr
  3
DesignerServices
 90
     1024
280
     0
281
     0
  0
CLASS
  1
PARAMSCOPE
  2
AcAdParamScope
  3
DesignerServices
 90
     1024
280
     0
281
     0
  0
CLASS
  1
NAMEDAPPL
  2
AcAdNamedAppl
  3
DesignerServices
 90
     1024
280
     0
281
     0
  0
CLASS
  1
AMDTDMMENUSTATE
  2
AmdtDmMenuState
  3
AcMechDwgViewMgmt
 90
     1024
280
     0
281
     0
  0
CLASS
  1
AMDTAMMENUSTATE
  2
AmdtAmMenuState
  3
DesignerAssemblies
 90
     1024
280
     0
281
     0
  0
CLASS
  1
ACAMPROJECT
  2
AcAmProject
  3
DesignerAssemblies
 90
     1024
280
     0
281
     0
  0
CLASS
  1
ACAMGRCOMPDEF
  2
AcAmGrCompDef
  3
DesignerAssemblies
 90
     1024
280
     0
281
     0
  0
CLASS
  1
ACCMCONTEXT
  2
AcCmContext
  3
DesignerAssemblies
 90
     1024
280
     0
281
     0
  0
CLASS
  1
ACAMCOMPDEF
  2
AcAmCompDef
  3
DesignerAssemblies
 90
     1024
280
     0
281
     0
  0
CLASS
  1
ACAMCOMPDEFMGR
  2
AcAmCompDefMgr
  3
DesignerAssemblies
 90
     1024
280
     0
281
     0
  0
CLASS
  1
AMCONTEXTMGR
  2
AcAmContextMgr
  3
DesignerAssemblies
 90
     1024
280
     0
281
     0
  0
CLASS
  1
ACAMCONTEXTMODELER
  2
AcAmContextModeler
  3
DesignerAssemblies
 90
     1024
280
     0
281
     0
  0
CLASS
  1
ACMTHREADLINESTANDARDISO
  2
AmdtThreadLineStdISO
  3
"Amdt_StdImp|Product Description: AutoCAD Mechanical|Company: Autodesk, Inc."
 90
    33792
280
     0
281
     0
  0
CLASS
  1
CATALOGSTATE
  2
AcAmCatalogState
  3
DesignerAssemblies
 90
     1024
280
     0
281
     0
  0
CLASS
  1
ACAMGRCOMPDEFSET
  2
AcAmGrCompDefSet
  3
DesignerAssemblies
 90
     1024
280
     0
281
     0
  0
CLASS
  1
AMDTBROWSERDBTAB
  2
AmdtBrowserDbTab
  3
McadcomServices
 90
     1024
280
     0
281
     0
  0
CLASS
  1
CBROWSERAPPOBJECT
  2
CBrowserAppObject
  3
McadcomServices
 90
     1024
280
     0
281
     0
  0
CLASS
  1
DM_PLACEHOLDER
  2
AcDmSelsetPlaceholder
  3
AcMechDwgViewMgmt
 90
     1024
280
     0
281
     0
  0
CLASS
  1
TABLESTYLE
  2
AcDbTableStyle
  3
ObjectDBX Classes
 90
     4095
280
     0
281
     0
  0
CLASS
  1
VAACXREFPANELOBJECT
  2
VaAcXREFPanelObject
  3
VAAC_ADDIN
 90
    32768
280
     0
281
     0
  0
CLASS
  1
VAACIMAGEINVENTORY
  2
VaAcImageInventory
  3
VAAC_ADDIN
 90
    32768
280
     0
281
     0
  0
CLASS
  1
AMDTNOTETEMPLATEDB
  2
AmdtNoteTemplateDB
  3
AcmSymBB|Product Description: AutoCAD Mechanical|Company: Autodesk, Inc.
 90
     1024
280
     0
281
     0
  0
CLASS
  1
ACAMGFILTERDAT
  2
AcAmgFilterDat
  3
"AcadM|Product Description: AutoCAD Mechanical|Company: Autodesk, Inc."
 90
    33792
280
     0
281
     0
  0
CLASS
  1
ACMBOM
  2
AcmBom
  3
"AcmSymBB|Product Description: AutoCAD Mechanical|Company: Autodesk, Inc."
 90
    33792
280
     0
281
     0
  0
CLASS
  1
AMDTFORMULAUPDATEDISPATCHER
  2
AmdtFormulaUpdateDispatcher
  3
AcMeServices
 90
    33792
280
     0
281
     0
  0
CLASS
  1
ACMSTANDARDDIN
  2
AcmStandardDIN
  3
"Amdt_StdImp|Product Description: AutoCAD Mechanical|Company: Autodesk, Inc."
 90
     1024
280
     0
281
     0
  0
CLASS
  1
AMDTEDGESTANDARDDIN13715
  2
AmdtEdgeStdDIN13715
  3
"Amdt_StdImp|Product Description: AutoCAD Mechanical|Company: Autodesk, Inc."
 90
     1024
280
     0
281
     0
  0
CLASS
  1
ACMSURFSTANDARDDIN
  2
AcmSurfTextStdDIN
  3
"Amdt_StdImp|Product Description: AutoCAD Mechanical|Company: Autodesk, Inc."
 90
    33792
280
     0
281
     0
  0
CLASS
  1
ACMFCFSTANDARDDIN
  2
AcmFCFStdDIN
  3
"Amdt_StdImp|Product Description: AutoCAD Mechanical|Company: Autodesk, Inc."
 90
     1024
280
     0
281
     0
  0
CLASS
  1
ACMWELDSTANDARDDIN
  2
AcmWeldingStdDIN
  3
"Amdt_StdImp|Product Description: AutoCAD Mechanical|Company: Autodesk, Inc."
 90
     1024
280
     0
281
     0
  0
CLASS
  1
ACMIDSTANDARDDIN
  2
AcmIdStdDIN
  3
"Amdt_StdImp|Product Description: AutoCAD Mechanical|Company: Autodesk, Inc."
 90
     1024
280
     0
281
     0
  0
CLASS
  1
ACMDATUMSTANDARDDIN
  2
AcmDatumStdDIN
  3
"Amdt_StdImp|Product Description: AutoCAD Mechanical|Company: Autodesk, Inc."
 90
     1024
280
     0
281
     0
  0
CLASS
  1
ACMBOMSTANDARDDIN
  2
AcmBOMStdDIN
  3
"Amdt_StdImp|Product Description: AutoCAD Mechanical|Company: Autodesk, Inc."
 90
     1024
280
     0
281
     0
  0
CLASS
  1
ACMDETAILSTANDARDDIN
  2
AmdtDetailSymStdDIN
  3
"Amdt_StdImp|Product Description: AutoCAD Mechanical|Company: Autodesk, Inc."
 90
     1024
280
     0
281
     0
  0
CLASS
  1
ACMSECTIONSTANDARDDIN
  2
AmdtSectionSymStdDIN
  3
"Amdt_StdImp|Product Description: AutoCAD Mechanical|Company: Autodesk, Inc."
 90
     1024
280
     0
281
     0
  0
CLASS
  1
ACMCENTERLINESTANDARDDIN
  2
AmdtCenterLineStdDIN
  3
"Amdt_StdImp|Product Description: AutoCAD Mechanical|Company: Autodesk, Inc."
 90
     1024
280
     0
281
     0
  0
CLASS
  1
ACMTHREADLINESTANDARDDIN
  2
AmdtThreadLineStdDIN
  3
"Amdt_StdImp|Product Description: AutoCAD Mechanical|Company: Autodesk, Inc."
 90
     1024
280
     0
281
     0
  0
CLASS
  1
ACMNOTESTANDARDDIN
  2
AmdtNoteStdDIN
  3
"Amdt_StdImp|Product Description: AutoCAD Mechanical|Company: Autodesk, Inc."
 90
     1024
280
     0
281
     0
  0
CLASS
  1
ACAMGHOLECHARTSTDDIN
  2
AcAmgHoleChartStdDIN
  3
AmgDim|Product Description: AutoCAD Mechanical|Company: Autodesk, Inc.
 90
     1024
280
     0
281
     0
  0
CLASS
  1
MATERIAL
  2
AcDbMaterial
  3
ObjectDBX Classes
 90
     1153
280
     0
281
     0
  0
CLASS
  1
VISUALSTYLE
  2
AcDbVisualStyle
  3
ObjectDBX Classes
 90
     4095
280
     0
281
     0
  0
CLASS
  1
SCALE
  2
AcDbScale
  3
ObjectDBX Classes
 90
     1153
280
     0
281
     0
  0
CLASS
  1
MLEADERSTYLE
  2
AcDbMLeaderStyle
  3
ACDB_MLEADERSTYLE_CLASS
 90
     4095
280
     0
281
     0
  0
CLASS
  1
ACRFATTGENMGR
  2
AcRfAttGeneralMgr
  3
AcAttribServices
 90
    33792
280
     0
281
     0
  0
CLASS
  1
ACRFOBJATTMGR
  2
AcRfObjAttGroupMgr
  3
AcAttribServices
 90
    33792
280
     0
281
     0
  0
CLASS
  1
ACRFMCADAPIATTHOLDER
  2
AcRfMCADAPIAttHolder
  3
AcAttribServices
 90
    33792
280
     0
281
     0
  0
CLASS
  1
AMDTSYSATTR
  2
AmdtSystemAttribute
  3
AcAttribServices
 90
    33792
280
     0
281
     0
  0
CLASS
  1
ACMTAPERSTANDARDISO
  2
AcmTaperStdISO
  3
"Amdt_StdImp|Product Description: AutoCAD Mechanical|Company: Autodesk, Inc."
 90
    33792
280
     0
281
     0
  0
CLASS
  1
ACMANOOTATIONVIEWSTANDARDISO
  2
AmdtAnViewStdISO
  3
"Amdt_StdImp|Product Description: AutoCAD Mechanical|Company: Autodesk, Inc."
 90
    33792
280
     0
281
     0
  0
CLASS
  1
ACMTAPERSTANDARDDIN
  2
AcmTaperStdDIN
  3
"Amdt_StdImp|Product Description: AutoCAD Mechanical|Company: Autodesk, Inc."
 90
     1024
280
     0
281
     0
  0
CLASS
  1
ACMANOOTATIONVIEWSTANDARDDIN
  2
AmdtAnViewStdDIN
  3
"Amdt_StdImp|Product Description: AutoCAD Mechanical|Company: Autodesk, Inc."
 90
     1024
280
     0
281
     0
  0
CLASS
  1
EXACXREFPANELOBJECT
  2
ExAcXREFPanelObject
  3
EXAC_ESW
 90
     1025
280
     0
281
     0
  0
CLASS
  1
NPOCOLLECTION
  2
AcDbImpNonPersistentObjectsCollection
  3
ObjectDBX Classes
 90
     1153
280
     0
281
     0
  0
CLASS
  1
CAMSSTRUCTBTNSTATE
  2
StructBtnState
  3
DesignerAssemblies
 90
    33792
280
     0
281
     0
  0
CLASS
  1
CELLSTYLEMAP
  2
AcDbCellStyleMap
  3
ObjectDBX Classes
 90
     1152
280
     0
281
     0
  0
CLASS
  1
AEC_REFEDIT_STATUS_TRACKER
  2
AecDbRefEditStatusTracker
  3
AecArchBase50|Product Desc: Autodesk Architectural Desktop 2007 |Company: Autodesk,Inc. |WEB Address: www.autodesk.com
 90
      129
280
     0
281
     0
  0
CLASS
  1
IMAGE
  2
AcDbRasterImage
  3
ISM
 90
    34943
280
     0
281
     1
  0
CLASS
  1
IMAGEDEF_REACTOR
  2
AcDbRasterImageDefReactor
  3
ISM
 90
    32769
280
     0
281
     0
  0
CLASS
  1
IMAGEDEF
  2
AcDbRasterImageDef
  3
ISM
 90
    32768
280
     0
281
     0
  0
CLASS
  1
RASTERVARIABLES
  2
AcDbRasterVariables
  3
ISM
 90
    32768
280
     0
281
     0
  0
CLASS
  1
DIMASSOC
  2
AcDbDimAssoc
  3
"AcDbDimAssoc|Product Desc:     AcDim ARX App For Dimension|Company:          Autodesk, Inc.|WEB Address:      www.autodesk.com"
 90
        0
280
     0
281
     0
  0
CLASS
  1
SORTENTSTABLE
  2
AcDbSortentsTable
  3
ObjectDBX Classes
 90
        0
280
     0
281
     0
  0
CLASS
  1
ACMSURFSTANDARDDIN2002
  2
AcmSurfTextStdDIN2002
  3
"Amdt_StdImp|Product Description: AutoCAD Mechanical|Company: Autodesk, Inc."
 90
     1024
280
     0
281
     0
  0
ENDSEC
  0
SECTION
  2
TABLES
  0
TABLE
  2
VPORT
  5
8
330
0
100
AcDbSymbolTable
 70
     1
  0
VPORT
  5
3B2
330
8
100
AcDbSymbolTableRecord
100
AcDbViewportTableRecord
  2
*Active
 70
     0
 10
0.0
 20
0.0
 11
1.0
 21
1.0
 12
568.8024529690527
 22
375.3620349039946
 13
0.0
 23
0.0
 14
2.5
 24
2.5
 15
10.0
 25
10.0
 16
0.0
 26
0.0
 36
1.0
 17
0.0
 27
0.0
 37
0.0
 40
756.135437416803
 41
1.803695150115473
 42
50.0
 43
0.0
 44
0.0
 50
0.0
 51
0.0
 71
     0
 72
   100
 73
     1
 74
     3
 75
     0
 76
     0
 77
     0
 78
     0
281
     0
 65
     0
110
0.0
120
0.0
130
0.0
111
1.0
121
0.0
131
0.0
112
0.0
122
1.0
132
0.0
 79
     0
146
0.0
  0
ENDTAB
  0
TABLE
  2
LTYPE
  5
5
330
0
100
AcDbSymbolTable
 70
    24
  0
LTYPE
  5
14
330
5
100
AcDbSymbolTableRecord
100
AcDbLinetypeTableRecord
  2
ByBlock
 70
     0
  3

 72
    65
 73
     0
 40
0.0
  0
LTYPE
  5
15
330
5
100
AcDbSymbolTableRecord
100
AcDbLinetypeTableRecord
  2
ByLayer
 70
     0
  3

 72
    65
 73
     0
 40
0.0
  0
LTYPE
  5
16
330
5
100
AcDbSymbolTableRecord
100
AcDbLinetypeTableRecord
  2
Continuous
 70
     0
  3
Solid line
 72
    65
 73
     0
 40
0.0
  0
LTYPE
  5
64
330
5
100
AcDbSymbolTableRecord
100
AcDbLinetypeTableRecord
  2
AM_ISO02W050
 70
     0
  3
__ __ __ __ __ __ __ __ __ __ __ __ __ __ __
 72
    65
 73
     2
 40
7.5
 49
6.0
 74
     0
 49
-1.5
 74
     0
  0
LTYPE
  5
65
330
5
100
AcDbSymbolTableRecord
100
AcDbLinetypeTableRecord
  2
AM_ISO08W050
 70
     0
  3
____ . ____ . ____ . ____ . ____ . ____ . ____
 72
    65
 73
     4
 40
18.0
 49
12.0
 74
     0
 49
-1.5
 74
     0
 49
3.0
 74
     0
 49
-1.5
 74
     0
  0
LTYPE
  5
66
330
5
100
AcDbSymbolTableRecord
100
AcDbLinetypeTableRecord
  2
AM_ISO09W050
 70
     0
  3
_____ . . _____ . . _____ . . ____ .. ____
 72
    65
 73
     6
 40
22.5
 49
12.0
 74
     0
 49
-1.5
 74
     0
 49
3.0
 74
     0
 49
-1.5
 74
     0
 49
3.0
 74
     0
 49
-1.5
 74
     0
  0
LTYPE
  5
67
330
5
100
AcDbSymbolTableRecord
100
AcDbLinetypeTableRecord
  2
Amconstr
 70
     0
  3
_______________________
 72
    65
 73
     2
 40
9999.0
 49
9999.0
 74
     0
 49
0.0
 74
     0
  0
LTYPE
  5
68
330
5
100
AcDbSymbolTableRecord
100
AcDbLinetypeTableRecord
  2
AM_ISO08W050x2
 70
     0
  3
__ . __ . __ . __ . __ . __
 72
    65
 73
     4
 40
9.0
 49
6.0
 74
     0
 49
-0.75
 74
     0
 49
1.5
 74
     0
 49
-0.75
 74
     0
  0
LTYPE
  5
69
330
5
100
AcDbSymbolTableRecord
100
AcDbLinetypeTableRecord
  2
AM_ISO02W050x2
 70
     0
  3
 _ _ _ _ _ _ _ _ _ _ _ _
 72
    65
 73
     2
 40
3.75
 49
3.0
 74
     0
 49
-0.75
 74
     0
  0
LTYPE
  5
6C
330
5
100
AcDbSymbolTableRecord
100
AcDbLinetypeTableRecord
  2
Amzigzag
 70
     0
  3
/\/-/\/-/\/-/\/-/\/-/\/
 72
    65
 73
     2
 40
11.0001
 49
0.0001
 74
     4
 75
   136
340
22C
 46
0.04
 50
0.0
 44
0.0
 45
0.0
 49
-11.0
 74
     0
  0
LTYPE
  5
7A
330
5
100
AcDbSymbolTableRecord
100
AcDbLinetypeTableRecord
  2
ACISOWELD
 70
     0
  3
_ _ _ _ _
 72
    65
 73
     2
 40
2.0
 49
2.0
 74
     0
 49
-1.0
 74
     0
  0
LTYPE
  5
7B
330
5
100
AcDbSymbolTableRecord
100
AcDbLinetypeTableRecord
  2
ACISOTGB
 70
     0
  3
__ . . __ . .
 72
    65
 73
     6
 40
9.0
 49
4.0
 74
     0
 49
-1.0
 74
     0
 49
1.0
 74
     0
 49
-1.0
 74
     0
 49
1.0
 74
     0
 49
-1.0
 74
     0
  0
LTYPE
  5
7C
330
5
100
AcDbSymbolTableRecord
100
AcDbLinetypeTableRecord
  2
ACISOTGL
 70
     0
  3
_ _ _ _ _
 72
    65
 73
     2
 40
3.0
 49
2.0
 74
     0
 49
-1.0
 74
     0
  0
LTYPE
  5
7E
330
5
100
AcDbSymbolTableRecord
100
AcDbLinetypeTableRecord
  2
CENTER
 70
     0
  3
__ . __
 72
    65
 73
     4
 40
7.0
 49
4.0
 74
     0
 49
-1.0
 74
     0
 49
1.0
 74
     0
 49
-1.0
 74
     0
  0
LTYPE
  5
D8
330
5
100
AcDbSymbolTableRecord
100
AcDbLinetypeTableRecord
  2
HIDDEN
 70
     0
  3
Hidden __ __ __ __ __ __ __ __ __ __ __ __ __ _
 72
    65
 73
     2
 40
9.524999999999996
 49
6.349999999999997
 74
     0
 49
-3.174999999999998
 74
     0
  0
LTYPE
  5
D9
330
5
100
AcDbSymbolTableRecord
100
AcDbLinetypeTableRecord
  2
PHANTOM2
 70
     0
  3
Phantom (.5x) ___ _ _ ___ _ _ ___ _ _ ___ _ _
 72
    65
 73
     6
 40
31.75
 49
15.875
 74
     0
 49
-3.174999999999998
 74
     0
 49
3.174999999999998
 74
     0
 49
-3.174999999999998
 74
     0
 49
3.174999999999998
 74
     0
 49
-3.174999999999998
 74
     0
  0
LTYPE
  5
2E5
330
5
100
AcDbSymbolTableRecord
100
AcDbLinetypeTableRecord
  2
ACDINWELD
 70
     0
  3
_ _ _ _ _
 72
    65
 73
     2
 40
2.0
 49
2.0
 74
     0
 49
-1.0
 74
     0
  0
LTYPE
  5
2E6
330
5
100
AcDbSymbolTableRecord
100
AcDbLinetypeTableRecord
  2
ACDINTGB
 70
     0
  3
__ . . __ . .
 72
    65
 73
     6
 40
9.0
 49
4.0
 74
     0
 49
-1.0
 74
     0
 49
1.0
 74
     0
 49
-1.0
 74
     0
 49
1.0
 74
     0
 49
-1.0
 74
     0
  0
LTYPE
  5
2E7
330
5
100
AcDbSymbolTableRecord
100
AcDbLinetypeTableRecord
  2
ACDINTGL
 70
     0
  3
_ _ _ _ _
 72
    65
 73
     2
 40
3.0
 49
2.0
 74
     0
 49
-1.0
 74
     0
  0
LTYPE
  5
321
330
5
100
AcDbSymbolTableRecord
100
AcDbLinetypeTableRecord
  2
AM_DIN_F_W050
 70
     0
  3
__ __ __ __ __ __ __ __ __ __ __ __ __ __ __
 72
    65
 73
     2
 40
6.25
 49
4.75
 74
     0
 49
-1.5
 74
     0
  0
LTYPE
  5
322
330
5
100
AcDbSymbolTableRecord
100
AcDbLinetypeTableRecord
  2
AM_DIN_G_W050
 70
     0
  3
____ . ____ . ____ . ____ . ____ . ____ . ____
 72
    65
 73
     4
 40
13.75
 49
9.75
 74
     0
 49
-1.5
 74
     0
 49
1.0
 74
     0
 49
-1.5
 74
     0
  0
LTYPE
  5
323
330
5
100
AcDbSymbolTableRecord
100
AcDbLinetypeTableRecord
  2
AM_DIN_K_W050
 70
     0
  3
_____ . . _____ . . _____ . . ____ .. ____
 72
    65
 73
     6
 40
16.25
 49
9.75
 74
     0
 49
-1.5
 74
     0
 49
1.0
 74
     0
 49
-1.5
 74
     0
 49
1.0
 74
     0
 49
-1.5
 74
     0
  0
LTYPE
  5
324
330
5
100
AcDbSymbolTableRecord
100
AcDbLinetypeTableRecord
  2
AM_DIN_G_W050x2
 70
     0
  3
__ . __ . __ . __ . __ . __
 72
    65
 73
     4
 40
6.875
 49
4.75
 74
     0
 49
-0.875
 74
     0
 49
0.375
 74
     0
 49
-0.875
 74
     0
  0
LTYPE
  5
325
330
5
100
AcDbSymbolTableRecord
100
AcDbLinetypeTableRecord
  2
AM_DIN_F_W050x2
 70
     0
  3
 _ _ _ _ _ _ _ _ _ _ _ _
 72
    65
 73
     2
 40
3.125
 49
2.25
 74
     0
 49
-0.875
 74
     0
  0
LTYPE
  5
659
330
5
100
AcDbSymbolTableRecord
100
AcDbLinetypeTableRecord
  2
GEN7A
 70
     0
  3
__ . __ . __
 72
    65
 73
     4
 40
6.875
 49
5.0
 74
     0
 49
-0.625
 74
     0
 49
0.625
 74
     0
 49
-0.625
 74
     0
  0
ENDTAB
  0
TABLE
  2
LAYER
  5
2
102
{ACAD_XDICTIONARY
360
673
102
}
330
0
100
AcDbSymbolTable
 70
    10
  0
LAYER
  5
10
102
{ACAD_XDICTIONARY
360
91C
102
}
330
2
100
AcDbSymbolTableRecord
100
AcDbLayerTableRecord
  2
0
 70
     0
 62
     7
  6
Continuous
370
    -3
390
F
  0
LAYER
  5
65A
102
{ACAD_XDICTIONARY
360
65B
102
}
330
2
100
AcDbSymbolTableRecord
100
AcDbLayerTableRecord
  2
7A
 70
     0
 62
     4
  6
GEN7A
370
    -3
390
F
  0
LAYER
  5
65C
102
{ACAD_XDICTIONARY
360
65D
102
}
330
2
100
AcDbSymbolTableRecord
100
AcDbLayerTableRecord
  2
5
 70
     0
 62
     3
  6
Continuous
370
    -3
390
F
  0
LAYER
  5
65E
330
2
100
AcDbSymbolTableRecord
100
AcDbLayerTableRecord
  2
DEFPOINTS
 70
     0
 62
     7
  6
Continuous
290
     0
370
    -3
390
F
  0
LAYER
  5
65F
102
{ACAD_XDICTIONARY
360
660
102
}
330
2
100
AcDbSymbolTableRecord
100
AcDbLayerTableRecord
  2
KLIN
 70
     0
 62
     1
  6
Continuous
370
    -3
390
F
  0
LAYER
  5
661
102
{ACAD_XDICTIONARY
360
662
102
}
330
2
100
AcDbSymbolTableRecord
100
AcDbLayerTableRecord
  2
RUNDUNGEN
 70
     0
 62
     7
  6
Continuous
370
    -3
390
F
  0
LAYER
  5
663
102
{ACAD_XDICTIONARY
360
664
102
}
330
2
100
AcDbSymbolTableRecord
100
AcDbLayerTableRecord
  2
AM_5
 70
     0
 62
     3
  6
Continuous
370
    25
390
F
1001
AcAecLayerStandard
1000

1000

  0
LAYER
  5
665
102
{ACAD_XDICTIONARY
360
666
102
}
330
2
100
AcDbSymbolTableRecord
100
AcDbLayerTableRecord
  2
AM_7
 70
     0
 62
     4
  6
AM_ISO08W050
370
    25
390
F
1001
AcAecLayerStandard
1000

1000

  0
LAYER
  5
919
102
{ACAD_XDICTIONARY
360
924
102
}
330
2
100
AcDbSymbolTableRecord
100
AcDbLayerTableRecord
  2
AM_CL
 70
     0
 62
     1
  6
Amconstr
370
    25
390
F
1001
AcAecLayerStandard
1000

1000

  0
LAYER
  5
A8E
102
{ACAD_XDICTIONARY
360
A8F
102
}
330
2
100
AcDbSymbolTableRecord
100
AcDbLayerTableRecord
  2
BEZUGSACHSEN
 70
     0
 62
     7
  6
Continuous
370
    -3
390
F
  0
ENDTAB
  0
TABLE
  2
STYLE
  5
3
330
0
100
AcDbSymbolTable
 70
    10
  0
STYLE
  5
11
330
3
100
AcDbSymbolTableRecord
100
AcDbTextStyleTableRecord
  2
STANDARD
 70
     0
 40
0.0
 41
1.0
 50
0.0
 71
     0
 42
2.5
  3
ISOCP.SHX
  4

  0
STYLE
  5
6B
330
3
100
AcDbSymbolTableRecord
100
AcDbTextStyleTableRecord
  2

 70
     1
 40
0.0
 41
1.0
 50
0.0
 71
     0
 42
2.5
  3
ltypeshp.shx
  4

  0
STYLE
  5
6D
330
3
100
AcDbSymbolTableRecord
100
AcDbTextStyleTableRecord
  2
ACISOTS
 70
     0
 40
1.0
 41
1.0
 50
0.0
 71
     0
 42
2.5
  3
isocp.shx
  4
bigfont.shx
  0
STYLE
  5
79
330
3
100
AcDbSymbolTableRecord
100
AcDbTextStyleTableRecord
  2
ACISOGDT
 70
     0
 40
0.0
 41
1.0
 50
0.0
 71
     0
 42
2.5
  3
AMGDT
  4
bigfont.shx
  0
STYLE
  5
1ED
330
3
100
AcDbSymbolTableRecord
100
AcDbTextStyleTableRecord
  2
USER1
 70
     0
 40
0.0
 41
1.0
 50
0.0
 71
     0
 42
2.5
  3
TXT.SHX
  4
bigfont.shx
  0
STYLE
  5
1EE
330
3
100
AcDbSymbolTableRecord
100
AcDbTextStyleTableRecord
  2
USER2
 70
     0
 40
0.0
 41
1.0
 50
0.0
 71
     0
 42
2.5
  3
SIMPLEX.SHX
  4
bigfont.shx
  0
STYLE
  5
1EF
330
3
100
AcDbSymbolTableRecord
100
AcDbTextStyleTableRecord
  2
USER3
 70
     0
 40
0.0
 41
1.0
 50
0.0
 71
     0
 42
2.5
  3
ITALIC.SHX
  4
bigfont.shx
  0
STYLE
  5
22C
330
3
100
AcDbSymbolTableRecord
100
AcDbTextStyleTableRecord
  2

 70
     1
 40
0.0
 41
1.0
 50
0.0
 71
     0
 42
2.5
  3
genltshp.shx
  4

  0
STYLE
  5
2D7
330
3
100
AcDbSymbolTableRecord
100
AcDbTextStyleTableRecord
  2
ACDINTS
 70
     0
 40
1.0
 41
1.0
 50
0.0
 71
     0
 42
2.5
  3
isocp.shx
  4

  0
STYLE
  5
2E4
330
3
100
AcDbSymbolTableRecord
100
AcDbTextStyleTableRecord
  2
ACDINGDT
 70
     0
 40
0.0
 41
1.0
 50
0.0
 71
     0
 42
2.5
  3
amgdt.shx
  4

  0
ENDTAB
  0
TABLE
  2
VIEW
  5
6
330
0
100
AcDbSymbolTable
 70
     0
  0
ENDTAB
  0
TABLE
  2
UCS
  5
7
330
0
100
AcDbSymbolTable
 70
     0
  0
ENDTAB
  0
TABLE
  2
APPID
  5
9
330
0
100
AcDbSymbolTable
 70
    26
  0
APPID
  5
12
330
9
100
AcDbSymbolTableRecord
100
AcDbRegAppTableRecord
  2
ACAD
 70
     0
  0
APPID
  5
46
330
9
100
AcDbSymbolTableRecord
100
AcDbRegAppTableRecord
  2
MCAD_NO_VIS
 70
     0
  0
APPID
  5
47
330
9
100
AcDbSymbolTableRecord
100
AcDbRegAppTableRecord
  2
ACAD_TEMP_GRAPHIC
 70
     0
  0
APPID
  5
58
330
9
100
AcDbSymbolTableRecord
100
AcDbRegAppTableRecord
  2
ACATTRIBSERVICES
 70
     0
  0
APPID
  5
EE
330
9
100
AcDbSymbolTableRecord
100
AcDbRegAppTableRecord
  2
AD_DRAW
 70
     0
  0
APPID
  5
10C
330
9
100
AcDbSymbolTableRecord
100
AcDbRegAppTableRecord
  2
DESIGNERASSEMBLIES
 70
     0
  0
APPID
  5
111
330
9
100
AcDbSymbolTableRecord
100
AcDbRegAppTableRecord
  2
ACADM_DIM_EDIT
 70
     0
  0
APPID
  5
112
330
9
100
AcDbSymbolTableRecord
100
AcDbRegAppTableRecord
  2
AMDT_DM_ADJ
 70
     0
  0
APPID
  5
1A3
330
9
100
AcDbSymbolTableRecord
100
AcDbRegAppTableRecord
  2
ACAD_DSTYLE_DIMARC_LENGTH_SYMBOL
 70
     0
  0
APPID
  5
1A4
330
9
100
AcDbSymbolTableRecord
100
AcDbRegAppTableRecord
  2
ACAD_DSTYLE_DIMJOGGED_JOGANGLE_SYMBOL
 70
     0
  0
APPID
  5
3F1
330
9
100
AcDbSymbolTableRecord
100
AcDbRegAppTableRecord
  2
ACAD_MLEADERVER
 70
     0
  0
APPID
  5
669
330
9
100
AcDbSymbolTableRecord
100
AcDbRegAppTableRecord
  2
GENIUS_GENOENT_13
 70
     0
  0
APPID
  5
66A
330
9
100
AcDbSymbolTableRecord
100
AcDbRegAppTableRecord
  2
GENIUS_GENODEF_13
 70
     0
  0
APPID
  5
66B
330
9
100
AcDbSymbolTableRecord
100
AcDbRegAppTableRecord
  2
GENIUS_GENOLIS_13
 70
     0
  0
APPID
  5
66C
330
9
100
AcDbSymbolTableRecord
100
AcDbRegAppTableRecord
  2
GENIUS_GENOREF_13
 70
     0
  0
APPID
  5
66D
330
9
100
AcDbSymbolTableRecord
100
AcDbRegAppTableRecord
  2
GENIUS_GENOBJ-N-CRS_13
 70
     0
  0
APPID
  5
66E
330
9
100
AcDbSymbolTableRecord
100
AcDbRegAppTableRecord
  2
GENIUS_GENOBJ-N-CEN_13
 70
     0
  0
APPID
  5
66F
330
9
100
AcDbSymbolTableRecord
100
AcDbRegAppTableRecord
  2
ACAD_PSEXT
 70
     0
  0
APPID
  5
670
330
9
100
AcDbSymbolTableRecord
100
AcDbRegAppTableRecord
  2
AcAecLayerStandard
 70
     0
  0
APPID
  5
671
330
9
100
AcDbSymbolTableRecord
100
AcDbRegAppTableRecord
  2
ACAD_DSTYLE_DIMINSPECT
 70
     0
  0
APPID
  5
672
330
9
100
AcDbSymbolTableRecord
100
AcDbRegAppTableRecord
  2
GENIUS_GENCEN_19
 70
     0
  0
APPID
  5
935
330
9
100
AcDbSymbolTableRecord
100
AcDbRegAppTableRecord
  2
ACAD_DSTYLE_DIM_LINETYPE
 70
     0
  0
APPID
  5
936
330
9
100
AcDbSymbolTableRecord
100
AcDbRegAppTableRecord
  2
ACAD_DSTYLE_DIM_EXT1_LINETYPE
 70
     0
  0
APPID
  5
937
330
9
100
AcDbSymbolTableRecord
100
AcDbRegAppTableRecord
  2
ACAD_DSTYLE_DIM_EXT2_LINETYPE
 70
     0
  0
APPID
  5
A54
330
9
100
AcDbSymbolTableRecord
100
AcDbRegAppTableRecord
  2
ACAD_EXEMPT_FROM_CAD_STANDARDS
 70
     0
  0
APPID
  5
DF3
330
9
100
AcDbSymbolTableRecord
100
AcDbRegAppTableRecord
  2
DCO15
 70
     0
  0
ENDTAB
  0
TABLE
  2
DIMSTYLE
  5
A
330
0
100
AcDbSymbolTable
 70
    18
100
AcDbDimStyleTable
 71
     2
340
2F0
340
81
  0
DIMSTYLE
105
27
330
A
100
AcDbSymbolTableRecord
100
AcDbDimStyleTableRecord
  2
ISO-25
 70
     0
 41
2.5
 42
0.625
 43
3.75
 44
1.25
 73
     0
 74
     0
 77
     1
 78
     8
140
2.5
141
2.5
143
0.03937007874016
147
0.625
171
     3
172
     1
271
     2
272
     2
274
     3
278
    44
283
     0
284
     8
340
11
  0
DIMSTYLE
105
81
330
A
100
AcDbSymbolTableRecord
100
AcDbDimStyleTableRecord
  2
AM_ISO
 70
     0
  4
"
 41
2.5
 42
1.0
 43
10.0
 44
1.0
 47
0.1
 48
0.1
 73
     0
 74
     0
 77
     1
 78
     8
 79
     2
140
3.5
141
0.0
143
0.0393701
146
0.71
147
1.5
172
     1
176
   256
177
   256
178
     2
271
     2
272
     3
274
     4
283
     0
284
     8
340
11
371
    -1
372
    -1
1001
ACAD_DSTYLE_DIMJOGGED_JOGANGLE_SYMBOL
1070
   384
1040
0.7853981633974483
1001
ACAD_DSTYLE_DIMARC_LENGTH_SYMBOL
1070
   379
1070
     1
  0
DIMSTYLE
105
82
330
A
100
AcDbSymbolTableRecord
100
AcDbDimStyleTableRecord
  2
AM_ISO$3
 70
     0
  4
"
 41
2.5
 42
1.0
 43
10.0
 44
1.0
 47
0.1
 48
0.1
 73
     0
 77
     1
 78
     8
 79
     2
140
3.5
141
0.0
143
0.0393701
146
0.71
147
1.5
176
   256
177
   256
178
     2
271
     2
272
     3
274
     4
283
     0
284
     8
288
     1
289
     0
340
11
371
    -1
372
    -1
1001
ACAD_DSTYLE_DIMJOGGED_JOGANGLE_SYMBOL
1070
   384
1040
0.7853981633974483
1001
ACAD_DSTYLE_DIMARC_LENGTH_SYMBOL
1070
   379
1070
     1
  0
DIMSTYLE
105
83
330
A
100
AcDbSymbolTableRecord
100
AcDbDimStyleTableRecord
  2
AM_ISO$4
 70
     0
  4
"
 41
2.5
 42
1.0
 43
10.0
 44
1.0
 47
0.1
 48
0.1
 73
     0
 77
     1
 78
     8
 79
     2
140
3.5
141
0.0
143
0.0393701
146
0.71
147
1.5
176
   256
177
   256
178
     2
271
     2
272
     3
274
     4
283
     0
284
     8
288
     1
289
     0
340
11
371
    -1
372
    -1
1001
ACAD_DSTYLE_DIMJOGGED_JOGANGLE_SYMBOL
1070
   384
1040
0.7853981633974483
1001
ACAD_DSTYLE_DIMARC_LENGTH_SYMBOL
1070
   379
1070
     1
  0
DIMSTYLE
105
84
330
A
100
AcDbSymbolTableRecord
100
AcDbDimStyleTableRecord
  2
AM_ISO$6
 70
     0
  4
"
 41
2.5
 42
1.0
 43
10.0
 44
1.0
 47
0.1
 48
0.1
 73
     0
 74
     0
 78
     8
 79
     2
140
3.5
141
0.0
143
0.0393701
146
0.71
147
1.5
172
     1
176
   256
177
   256
178
     2
271
     2
272
     3
274
     4
283
     0
284
     8
340
11
371
    -1
372
    -1
1001
ACAD_DSTYLE_DIMJOGGED_JOGANGLE_SYMBOL
1070
   384
1040
0.7853981633974483
1001
ACAD_DSTYLE_DIMARC_LENGTH_SYMBOL
1070
   379
1070
     1
  0
DIMSTYLE
105
85
330
A
100
AcDbSymbolTableRecord
100
AcDbDimStyleTableRecord
  2
AM_ISO$7
 70
     0
  4
"
 41
2.5
 42
1.0
 43
10.0
 44
1.0
 47
0.1
 48
0.1
 73
     0
 74
     0
 77
     1
 78
     8
 79
     2
140
5.0
141
0.0
143
0.0393701
146
0.71
147
1.5
172
     1
176
   256
177
   256
178
     2
271
     2
272
     3
274
     4
283
     0
284
     8
340
11
371
    -1
372
    -1
1001
ACAD_DSTYLE_DIMJOGGED_JOGANGLE_SYMBOL
1070
   384
1040
0.7853981633974483
1001
ACAD_DSTYLE_DIMARC_LENGTH_SYMBOL
1070
   379
1070
     1
  0
DIMSTYLE
105
86
330
A
100
AcDbSymbolTableRecord
100
AcDbDimStyleTableRecord
  2
AM_ISO$SF
 70
     0
  4
"
 41
2.5
 42
1.0
 43
10.0
 44
1.0
 47
0.1
 48
0.1
 73
     0
 74
     0
 75
     1
 76
     1
 77
     1
 78
     8
 79
     2
140
3.5
141
0.0
143
0.0393701
146
0.71
147
1.5
172
     1
176
   256
177
   256
178
     2
271
     2
272
     3
274
     4
283
     0
284
     8
340
11
371
    -1
372
    -1
1001
ACAD_DSTYLE_DIMJOGGED_JOGANGLE_SYMBOL
1070
   384
1040
0.7853981633974483
1001
ACAD_DSTYLE_DIMARC_LENGTH_SYMBOL
1070
   379
1070
     1
  0
DIMSTYLE
105
8B
330
A
100
AcDbSymbolTableRecord
100
AcDbDimStyleTableRecord
  2
AM_ISO$SH
 70
     0
  4
"
 41
2.5
 42
1.0
 43
10.0
 44
1.0
 47
0.1
 48
0.1
 73
     0
 74
     0
 75
     1
 76
     1
 77
     1
 78
     8
 79
     2
140
3.5
141
0.0
143
0.0393701
144
2.0
146
0.71
147
1.5
172
     1
173
     1
176
   256
177
   256
178
     2
271
     2
272
     3
274
     4
283
     0
284
     8
340
11
343
87
371
    -1
372
    -1
1001
ACAD_DSTYLE_DIMJOGGED_JOGANGLE_SYMBOL
1070
   384
1040
0.7853981633974483
1001
ACAD_DSTYLE_DIMARC_LENGTH_SYMBOL
1070
   379
1070
     1
  0
DIMSTYLE
105
2F0
330
A
100
AcDbSymbolTableRecord
100
AcDbDimStyleTableRecord
  2
AM_DIN
 70
     0
  4
"
 41
3.5
 42
1.0
 43
10.0
 44
1.0
 47
0.1
 48
0.1
 73
     0
 74
     0
 77
     1
 78
     8
 79
     2
140
3.5
141
0.0
143
0.0393701
146
0.71
147
1.5
172
     1
176
   256
177
   256
178
     2
271
     2
272
     3
274
     4
283
     0
284
     8
340
11
371
    -1
372
    -1
1001
ACAD_DSTYLE_DIMJOGGED_JOGANGLE_SYMBOL
1070
   384
1040
1.570796326794896
1001
ACAD_DSTYLE_DIM_LINETYPE
1070
   380
1005
14
1001
ACAD_DSTYLE_DIM_EXT1_LINETYPE
1070
   381
1005
14
1001
ACAD_DSTYLE_DIM_EXT2_LINETYPE
1070
   382
1005
14
  0
DIMSTYLE
105
301
330
A
100
AcDbSymbolTableRecord
100
AcDbDimStyleTableRecord
  2
AM_DIN$3
 70
     0
  4
"
 41
3.5
 42
1.0
 43
10.0
 44
1.0
 47
0.1
 48
0.1
 73
     0
 77
     1
 78
     8
 79
     2
140
3.5
141
0.0
143
0.0393701
146
0.71
147
1.5
176
   256
177
   256
178
     2
271
     2
272
     3
274
     4
283
     0
284
     8
288
     1
289
     0
340
11
371
    -1
372
    -1
1001
ACAD_DSTYLE_DIMJOGGED_JOGANGLE_SYMBOL
1070
   384
1040
1.570796326794896
1001
ACAD_DSTYLE_DIM_LINETYPE
1070
   380
1005
14
1001
ACAD_DSTYLE_DIM_EXT1_LINETYPE
1070
   381
1005
14
1001
ACAD_DSTYLE_DIM_EXT2_LINETYPE
1070
   382
1005
14
  0
DIMSTYLE
105
306
330
A
100
AcDbSymbolTableRecord
100
AcDbDimStyleTableRecord
  2
AM_DIN$4
 70
     0
  4
"
 41
3.5
 42
1.0
 43
10.0
 44
1.0
 47
0.1
 48
0.1
 73
     0
 74
     0
 77
     1
 78
     8
 79
     2
140
3.5
141
0.0
143
0.0393701
146
0.71
147
1.5
172
     1
176
   256
177
   256
178
     2
271
     2
272
     3
274
     4
283
     0
284
     8
340
11
371
    -1
372
    -1
1001
ACAD_DSTYLE_DIMJOGGED_JOGANGLE_SYMBOL
1070
   384
1040
1.570796326794896
1001
ACAD_DSTYLE_DIM_LINETYPE
1070
   380
1005
14
1001
ACAD_DSTYLE_DIM_EXT1_LINETYPE
1070
   381
1005
14
1001
ACAD_DSTYLE_DIM_EXT2_LINETYPE
1070
   382
1005
14
  0
DIMSTYLE
105
30B
330
A
100
AcDbSymbolTableRecord
100
AcDbDimStyleTableRecord
  2
AM_DIN$6
 70
     0
  4
"
 41
3.5
 42
1.0
 43
10.0
 44
1.0
 47
0.1
 48
0.1
 73
     0
 74
     0
 78
     8
 79
     2
140
3.5
141
0.0
143
0.0393701
146
0.71
147
1.5
172
     1
176
   256
177
   256
178
     2
271
     2
272
     3
274
     4
283
     0
284
     8
340
11
371
    -1
372
    -1
1001
ACAD_DSTYLE_DIMJOGGED_JOGANGLE_SYMBOL
1070
   384
1040
1.570796326794896
1001
ACAD_DSTYLE_DIM_LINETYPE
1070
   380
1005
14
1001
ACAD_DSTYLE_DIM_EXT1_LINETYPE
1070
   381
1005
14
1001
ACAD_DSTYLE_DIM_EXT2_LINETYPE
1070
   382
1005
14
  0
DIMSTYLE
105
310
330
A
100
AcDbSymbolTableRecord
100
AcDbDimStyleTableRecord
  2
AM_DIN$7
 70
     0
  4
"
 41
3.5
 42
1.0
 43
10.0
 44
1.0
 47
0.1
 48
0.1
 73
     0
 74
     0
 77
     1
 78
     8
 79
     2
140
3.5
141
0.0
143
0.0393701
146
0.71
147
1.5
172
     1
176
   256
177
   256
178
     2
271
     2
272
     3
274
     4
283
     0
284
     8
340
11
371
    -1
372
    -1
1001
ACAD_DSTYLE_DIMJOGGED_JOGANGLE_SYMBOL
1070
   384
1040
1.570796326794896
1001
ACAD_DSTYLE_DIM_LINETYPE
1070
   380
1005
14
1001
ACAD_DSTYLE_DIM_EXT1_LINETYPE
1070
   381
1005
14
1001
ACAD_DSTYLE_DIM_EXT2_LINETYPE
1070
   382
1005
14
  0
DIMSTYLE
105
315
330
A
100
AcDbSymbolTableRecord
100
AcDbDimStyleTableRecord
  2
AM_DIN$SF
 70
     0
  4
"
 41
3.5
 42
1.0
 43
10.0
 44
1.0
 47
0.1
 48
0.1
 73
     0
 74
     0
 75
     1
 76
     1
 77
     1
 78
     8
 79
     2
140
3.5
141
0.0
143
0.0393701
146
0.71
147
1.5
172
     1
176
   256
177
   256
178
     2
271
     2
272
     3
274
     4
283
     0
284
     8
340
11
371
    -1
372
    -1
1001
ACAD_DSTYLE_DIMJOGGED_JOGANGLE_SYMBOL
1070
   384
1040
1.570796326794896
1001
ACAD_DSTYLE_DIM_LINETYPE
1070
   380
1005
14
1001
ACAD_DSTYLE_DIM_EXT1_LINETYPE
1070
   381
1005
14
1001
ACAD_DSTYLE_DIM_EXT2_LINETYPE
1070
   382
1005
14
  0
DIMSTYLE
105
31A
330
A
100
AcDbSymbolTableRecord
100
AcDbDimStyleTableRecord
  2
AM_DIN$SH
 70
     0
  4
"
 41
3.5
 42
1.0
 43
10.0
 44
1.0
 47
0.1
 48
0.1
 73
     0
 74
     0
 75
     1
 76
     1
 77
     1
 78
     8
 79
     2
140
3.5
141
0.0
143
0.0393701
144
2.0
146
0.71
147
1.5
172
     1
173
     1
176
   256
177
   256
178
     2
271
     2
272
     3
274
     4
283
     0
284
     8
340
11
343
87
371
    -1
372
    -1
1001
ACAD_DSTYLE_DIMJOGGED_JOGANGLE_SYMBOL
1070
   384
1040
1.570796326794896
1001
ACAD_DSTYLE_DIM_LINETYPE
1070
   380
1005
14
1001
ACAD_DSTYLE_DIM_EXT1_LINETYPE
1070
   381
1005
14
1001
ACAD_DSTYLE_DIM_EXT2_LINETYPE
1070
   382
1005
14
  0
DIMSTYLE
105
667
330
A
100
AcDbSymbolTableRecord
100
AcDbDimStyleTableRecord
  2
GEN-ISO
 70
     0
  3
<>
  4
"
 40
20.0
 41
2.5
 42
1.0
 43
7.0
 44
1.0
 47
0.1
 48
0.1
 73
     0
 74
     0
 77
     1
 78
     8
140
3.5
141
0.0
143
0.0393701
146
0.71
147
0.6
172
     1
176
   256
177
   256
178
     2
271
     2
272
     3
274
     4
283
     0
340
11
  0
DIMSTYLE
105
668
102
{ACAD_REACTORS
330
8C2
330
8C3
330
8C4
330
8C8
330
8C9
330
8CA
330
A27
330
A63
102
}
330
A
100
AcDbSymbolTableRecord
100
AcDbDimStyleTableRecord
  2
AM_DIN$0
 70
     0
  4
"
 41
3.5
 42
1.0
 43
10.0
 44
1.0
 47
0.1
 48
0.1
 73
     0
 74
     0
 77
     1
 78
     8
 79
     2
140
3.5
141
0.0
143
0.0393701
146
0.71
147
1.5
172
     1
176
   256
177
   256
178
     2
271
     2
272
     3
274
     4
283
     0
284
     8
340
11
371
    -1
372
    -1
1001
ACAD_DSTYLE_DIMJOGGED_JOGANGLE_SYMBOL
1070
   384
1040
1.570796326794896
1001
ACAD_DSTYLE_DIM_LINETYPE
1070
   380
1005
14
1001
ACAD_DSTYLE_DIM_EXT1_LINETYPE
1070
   381
1005
14
1001
ACAD_DSTYLE_DIM_EXT2_LINETYPE
1070
   382
1005
14
  0
ENDTAB
  0
TABLE
  2
BLOCK_RECORD
  5
1
330
0
100
AcDbSymbolTable
 70
    33
  0
BLOCK_RECORD
  5
1F
102
{ACAD_XDICTIONARY
360
8F
102
}
330
1
100
AcDbSymbolTableRecord
100
AcDbBlockTableRecord
  2
*Model_Space
340
22
  0
BLOCK_RECORD
  5
1B
330
1
100
AcDbSymbolTableRecord
100
AcDbBlockTableRecord
  2
*Paper_Space
340
1E
  0
BLOCK_RECORD
  5
23
330
1
100
AcDbSymbolTableRecord
100
AcDbBlockTableRecord
  2
*Paper_Space0
340
26
  0
BLOCK_RECORD
  5
87
330
1
100
AcDbSymbolTableRecord
100
AcDbBlockTableRecord
  2
GENAXEH
340
0
  0
BLOCK_RECORD
  5
5C1
330
1
100
AcDbSymbolTableRecord
100
AcDbBlockTableRecord
  2
stutzen
340
0
310
2800000020000000200000000100080000000000000400000000000000000000000000000000000000000000000080000080000000808000800000008000800080800000C0C0C000C0DCC000F0CAA6000020400000206000002080000020A0000020C0000020E00000400000004020000040400000406000004080000040A0
310
000040C0000040E00000600000006020000060400000606000006080000060A0000060C0000060E00000800000008020000080400000806000008080000080A0000080C0000080E00000A0000000A0200000A0400000A0600000A0800000A0A00000A0C00000A0E00000C0000000C0200000C0400000C0600000C0800000C0
310
A00000C0C00000C0E00000E0000000E0200000E0400000E0600000E0800000E0A00000E0C00000E0E00040000000400020004000400040006000400080004000A0004000C0004000E00040200000402020004020400040206000402080004020A0004020C0004020E000404000004040200040404000404060004040800040
310
40A0004040C0004040E00040600000406020004060400040606000406080004060A0004060C0004060E00040800000408020004080400040806000408080004080A0004080C0004080E00040A0000040A0200040A0400040A0600040A0800040A0A00040A0C00040A0E00040C0000040C0200040C0400040C0600040C08000
310
40C0A00040C0C00040C0E00040E0000040E0200040E0400040E0600040E0800040E0A00040E0C00040E0E00080000000800020008000400080006000800080008000A0008000C0008000E00080200000802020008020400080206000802080008020A0008020C0008020E00080400000804020008040400080406000804080
310
008040A0008040C0008040E00080600000806020008060400080606000806080008060A0008060C0008060E00080800000808020008080400080806000808080008080A0008080C0008080E00080A0000080A0200080A0400080A0600080A0800080A0A00080A0C00080A0E00080C0000080C0200080C0400080C0600080C0
310
800080C0A00080C0C00080C0E00080E0000080E0200080E0400080E0600080E0800080E0A00080E0C00080E0E000C0000000C0002000C0004000C0006000C0008000C000A000C000C000C000E000C0200000C0202000C0204000C0206000C0208000C020A000C020C000C020E000C0400000C0402000C0404000C0406000C0
310
408000C040A000C040C000C040E000C0600000C0602000C0604000C0606000C0608000C060A000C060C000C060E000C0800000C0802000C0804000C0806000C0808000C080A000C080C000C080E000C0A00000C0A02000C0A04000C0A06000C0A08000C0A0A000C0A0C000C0A0E000C0C00000C0C02000C0C04000C0C06000
310
C0C08000C0C0A000F0FBFF00A4A0A000808080000000FF0000FF000000FFFF00FF000000FF00FF00FFFF0000FFFFFF00000000000000000000000000000000000000000000000000000000000000000000000000000000000000000000000000FE0000000000000000000000000000000000000000000000FFFFFFFFFFFFFF
310
FFFFFFFFFFFFFFFFFF00000000000000000000000000000000FFFF000000000000FE0000000000FFFF0000000000000000000000000000F9FFFFFF070707070707070707070707FFFFFFF90000000000000000000000F9FFF9FFFFFFFFFFFFFFFFFFFFFFFFFFFFFFFFF9FFF900000000000000000000F9FF07070707070707
310
0707070707070707070707FFFF00000000000000000000F900000000000000000000FE000000000000000000F900000000000000000000F900000000000000000000FE000000000000000000F900000000000000000000FF00000000000000000000FE000000000000000000F900000000000000000000F900000000000000
310
000000FE000000000000000000F900000000000000000000F900000000000000000000FE000000000000000000FF00000000000000000000F900000000000000000000FE000000000000000000F900000000000000000000F900000000000000000000FE000000000000000000FF00000000000000000000FF000000000000
310
00000000FE000000000000000000F900000000000000000000F900000000000000000000FE000000000000000000F900000000000000000000FF00000000000000000000FE000000000000000000F900000000000000000000F900000000000000000000FE000000000000000000F900000000000000000000F90000000000
310
0000000000FE000000000000000000FF00000000000000000000F900000000000000000000FE000000000000000000F900000000000000000000F900000000000000000000FE000000000000000000F900000000000000000000FF00000000000000000000FE000000000000000000F900000000000000000000F900000000
310
000000000000FE000000000000000000F900000000000000000000FF00000000000000000000FE000000000000000000F900000000000000000000F900000000000000000000FE000000000000000000F900000000000000000000F900000000000000000000FE000000000000000000FF00000000000000000000F9000000
310
00000000000000FE000000000000000000F900000000000000000000F900000000000000000000FE000000000000000000F900000000000000000000FF00000000000000000000FE000000000000000000F900000000000000000000FBFFFFFFFFFFFFFFFFFFFFFFFFFFFFFFFFFFFFFFFFFF00000000000000000000000000
310
0000000000000000FE0000000000000000000000000000000000000000000000000000000000000000000000000000000000000000000000
102
{BLKREFS
331
8B2
102
}
  0
BLOCK_RECORD
  5
5FF
330
1
100
AcDbSymbolTableRecord
100
AcDbBlockTableRecord
  2
fklö
340
0
310
2800000020000000200000000100080000000000000400000000000000000000000000000000000000000000000080000080000000808000800000008000800080800000C0C0C000C0DCC000F0CAA6000020400000206000002080000020A0000020C0000020E00000400000004020000040400000406000004080000040A0
310
000040C0000040E00000600000006020000060400000606000006080000060A0000060C0000060E00000800000008020000080400000806000008080000080A0000080C0000080E00000A0000000A0200000A0400000A0600000A0800000A0A00000A0C00000A0E00000C0000000C0200000C0400000C0600000C0800000C0
310
A00000C0C00000C0E00000E0000000E0200000E0400000E0600000E0800000E0A00000E0C00000E0E00040000000400020004000400040006000400080004000A0004000C0004000E00040200000402020004020400040206000402080004020A0004020C0004020E000404000004040200040404000404060004040800040
310
40A0004040C0004040E00040600000406020004060400040606000406080004060A0004060C0004060E00040800000408020004080400040806000408080004080A0004080C0004080E00040A0000040A0200040A0400040A0600040A0800040A0A00040A0C00040A0E00040C0000040C0200040C0400040C0600040C08000
310
40C0A00040C0C00040C0E00040E0000040E0200040E0400040E0600040E0800040E0A00040E0C00040E0E00080000000800020008000400080006000800080008000A0008000C0008000E00080200000802020008020400080206000802080008020A0008020C0008020E00080400000804020008040400080406000804080
310
008040A0008040C0008040E00080600000806020008060400080606000806080008060A0008060C0008060E00080800000808020008080400080806000808080008080A0008080C0008080E00080A0000080A0200080A0400080A0600080A0800080A0A00080A0C00080A0E00080C0000080C0200080C0400080C0600080C0
310
800080C0A00080C0C00080C0E00080E0000080E0200080E0400080E0600080E0800080E0A00080E0C00080E0E000C0000000C0002000C0004000C0006000C0008000C000A000C000C000C000E000C0200000C0202000C0204000C0206000C0208000C020A000C020C000C020E000C0400000C0402000C0404000C0406000C0
310
408000C040A000C040C000C040E000C0600000C0602000C0604000C0606000C0608000C060A000C060C000C060E000C0800000C0802000C0804000C0806000C0808000C080A000C080C000C080E000C0A00000C0A02000C0A04000C0A06000C0A08000C0A0A000C0A0C000C0A0E000C0C00000C0C02000C0C04000C0C06000
310
C0C08000C0C0A000F0FBFF00A4A0A000808080000000FF0000FF000000FFFF00FF000000FF00FF00FFFF0000FFFFFF00000000000000000000000000000000000000000000000000000000000000000000000000000000000000000000000000FE000000000000000000000000000000000000000000000000000000000000
310
00FE000000000000000000000000000000000000FBFFFFFFFFFFFFFFFFFFFFFFFFFFFFFFFFFFFFFFFFFFFFFFFFFF000000000000FF000000000000000000000000FE0000000000000000000000FF000000000000FF000000000000000000000000FE0000000000000000000000FF000000000000FF00000000000000000000
310
0000FE0000000000000000000000FB000000000000FF000000000000000000000000FE0000000000000000000000FB000000000000FF000000000000000000000000FE0000000000000000000000FF000000000000FB000000000000000000000000FE0000000000000000000000FF000000000000FB000000000000000000
310
000000FE0000000000000000000000FF000000000000FF000000000000000000000000FE0000000000000000000000FF000000000000FF000000000000000000000000FE0000000000000000000000FB000000000000FF000000000000000000000000FE0000000000000000000000FB000000000000FF0000000000000000
310
00000000FE0000000000000000000000FF000000000000FF000000000000000000000000FE0000000000000000000000FF000000000000FB000000000000000000000000FE0000000000000000000000FF000000000000FB000000000000000000000000FE0000000000000000000000FF000000000000FF00000000000000
310
0000000000FE0000000000000000000000FF000000000000FF000000000000000000000000FE0000000000000000000000FB000000000000FF000000000000000000000000FE0000000000000000000000FB000000000000FF000000000000000000000000FE0000000000000000000000FF000000000000FB000000000000
310
000000000000FE0000000000000000000000FF000000000000FB000000000000000000000000FE0000000000000000000000FF000000000000FF000000000000000000000000FE0000000000000000000000FF000000000000FF000000000000000000000000FE0000000000000000000000FF000000000000FF0000000000
310
00000000000000FE0000000000000000000000FB000000000000FF000000000000000000000000FE0000000000000000000000FB000000000000FFFFFFFFFFFFFFFFFFFFFFFFFFFFFFFFFFFFFFFFFFFFFFFFFFFF00000000000000000000000000000000000000FE0000000000000000000000000000000000000000000000
310
0000000000000000FE0000000000000000000000000000000000000000000000000000000000000000000000000000000000000000000000
  0
BLOCK_RECORD
  5
611
330
1
100
AcDbSymbolTableRecord
100
AcDbBlockTableRecord
  2
*D4
340
0
  0
BLOCK_RECORD
  5
61D
330
1
100
AcDbSymbolTableRecord
100
AcDbBlockTableRecord
  2
*D5
340
0
  0
BLOCK_RECORD
  5
629
330
1
100
AcDbSymbolTableRecord
100
AcDbBlockTableRecord
  2
*D6
340
0
  0
BLOCK_RECORD
  5
635
330
1
100
AcDbSymbolTableRecord
100
AcDbBlockTableRecord
  2
*D7
340
0
  0
BLOCK_RECORD
  5
641
330
1
100
AcDbSymbolTableRecord
100
AcDbBlockTableRecord
  2
*D8
340
0
  0
BLOCK_RECORD
  5
64D
330
1
100
AcDbSymbolTableRecord
100
AcDbBlockTableRecord
  2
*D9
340
0
  0
BLOCK_RECORD
  5
759
330
1
100
AcDbSymbolTableRecord
100
AcDbBlockTableRecord
  2
*D10
340
0
  0
BLOCK_RECORD
  5
765
330
1
100
AcDbSymbolTableRecord
100
AcDbBlockTableRecord
  2
*D11
340
0
  0
BLOCK_RECORD
  5
771
330
1
100
AcDbSymbolTableRecord
100
AcDbBlockTableRecord
  2
*D12
340
0
  0
BLOCK_RECORD
  5
77D
330
1
100
AcDbSymbolTableRecord
100
AcDbBlockTableRecord
  2
*D13
340
0
  0
BLOCK_RECORD
  5
789
330
1
100
AcDbSymbolTableRecord
100
AcDbBlockTableRecord
  2
*D14
340
0
  0
BLOCK_RECORD
  5
795
330
1
100
AcDbSymbolTableRecord
100
AcDbBlockTableRecord
  2
*D15
340
0
  0
BLOCK_RECORD
  5
7A2
330
1
100
AcDbSymbolTableRecord
100
AcDbBlockTableRecord
  2
*D16
340
0
  0
BLOCK_RECORD
  5
7AE
330
1
100
AcDbSymbolTableRecord
100
AcDbBlockTableRecord
  2
*D17
340
0
  0
BLOCK_RECORD
  5
7BA
330
1
100
AcDbSymbolTableRecord
100
AcDbBlockTableRecord
  2
*D18
340
0
  0
BLOCK_RECORD
  5
7C6
330
1
100
AcDbSymbolTableRecord
100
AcDbBlockTableRecord
  2
*D19
340
0
  0
BLOCK_RECORD
  5
7D2
330
1
100
AcDbSymbolTableRecord
100
AcDbBlockTableRecord
  2
*D20
340
0
  0
BLOCK_RECORD
  5
7DE
330
1
100
AcDbSymbolTableRecord
100
AcDbBlockTableRecord
  2
*D21
340
0
  0
BLOCK_RECORD
  5
8CC
330
1
100
AcDbSymbolTableRecord
100
AcDbBlockTableRecord
  2
*D22
340
0
  0
BLOCK_RECORD
  5
8D8
330
1
100
AcDbSymbolTableRecord
100
AcDbBlockTableRecord
  2
*D23
340
0
  0
BLOCK_RECORD
  5
8E4
330
1
100
AcDbSymbolTableRecord
100
AcDbBlockTableRecord
  2
*D24
340
0
  0
BLOCK_RECORD
  5
8F0
330
1
100
AcDbSymbolTableRecord
100
AcDbBlockTableRecord
  2
*D25
340
0
  0
BLOCK_RECORD
  5
8FC
330
1
100
AcDbSymbolTableRecord
100
AcDbBlockTableRecord
  2
*D26
340
0
  0
BLOCK_RECORD
  5
908
330
1
100
AcDbSymbolTableRecord
100
AcDbBlockTableRecord
  2
*D27
340
0
  0
BLOCK_RECORD
  5
A28
330
1
100
AcDbSymbolTableRecord
100
AcDbBlockTableRecord
  2
*D28
340
0
  0
BLOCK_RECORD
  5
A64
330
1
100
AcDbSymbolTableRecord
100
AcDbBlockTableRecord
  2
*D29
340
0
  0
ENDTAB
  0
ENDSEC
  0
SECTION
  2
BLOCKS
  0
BLOCK
  5
20
330
1F
100
AcDbEntity
  8
0
100
AcDbBlockBegin
  2
*Model_Space
 70
     0
 10
0.0
 20
0.0
 30
0.0
  3
*Model_Space
  1

  0
ENDBLK
  5
21
330
1F
100
AcDbEntity
  8
0
100
AcDbBlockEnd
  0
BLOCK
  5
1C
330
1B
100
AcDbEntity
 67
     1
  8
0
100
AcDbBlockBegin
  2
*Paper_Space
 70
     0
 10
0.0
 20
0.0
 30
0.0
  3
*Paper_Space
  1

  0
ENDBLK
  5
1D
330
1B
100
AcDbEntity
 67
     1
  8
0
100
AcDbBlockEnd
  0
BLOCK
  5
24
330
23
100
AcDbEntity
 67
     1
  8
0
100
AcDbBlockBegin
  2
*Paper_Space0
 70
     0
 10
0.0
 20
0.0
 30
0.0
  3
*Paper_Space0
  1

  0
ENDBLK
  5
25
330
23
100
AcDbEntity
 67
     1
  8
0
100
AcDbBlockEnd
  0
BLOCK
  5
89
330
87
100
AcDbEntity
  8
0
100
AcDbBlockBegin
  2
GENAXEH
 70
     0
 10
0.0
 20
0.0
 30
0.0
  3
GENAXEH
  1

  0
LINE
  5
88
330
87
100
AcDbEntity
  8
0
100
AcDbLine
 10
-1.0
 20
0.0
 30
0.0
 11
1.0
 21
0.0
 31
0.0
  0
ENDBLK
  5
8A
330
87
100
AcDbEntity
  8
0
100
AcDbBlockEnd
  0
BLOCK
  5
5C2
330
5C1
100
AcDbEntity
  8
0
100
AcDbBlockBegin
  2
stutzen
 70
     0
 10
0.0
 20
0.0
 30
0.0
  3
stutzen
  1

  0
LINE
  5
5C3
330
5C1
100
AcDbEntity
  8
0
  6
Continuous
 62
     2
100
AcDbLine
 10
5583.692362419846
 20
3572.388833737998
 30
0.0
 11
5585.24221523384
 21
3573.938686551999
 31
0.0
  0
LINE
  5
5C4
330
5C1
100
AcDbEntity
  8
KLIN
  6
ByBlock
100
AcDbLine
 10
5583.692362419846
 20
3512.779110133001
 30
0.0
 11
5593.692362419846
 21
3522.779110133001
 31
0.0
  0
LINE
  5
5C5
330
5C1
100
AcDbEntity
  8
KLIN
  6
ByBlock
100
AcDbLine
 10
5583.692362419846
 20
3453.169386528003
 30
0.0
 11
5593.692362419846
 21
3463.169386528003
 31
0.0
  0
LINE
  5
5C6
330
5C1
100
AcDbEntity
  8
KLIN
  6
ByBlock
100
AcDbLine
 10
5583.692362419846
 20
3393.559662922001
 30
0.0
 11
5593.692362419846
 21
3403.559662922002
 31
0.0
  0
LINE
  5
5C7
330
5C1
100
AcDbEntity
  8
0
  6
Continuous
 62
     7
100
AcDbLine
 10
6203.692362419847
 20
2658.938686551999
 30
0.0
 11
5703.692362419847
 21
2658.938686551999
 31
0.0
  0
LINE
  5
5C8
330
5C1
100
AcDbEntity
  8
KLIN
  6
ByBlock
100
AcDbLine
 10
5583.692362419846
 20
3333.949939317005
 30
0.0
 11
5593.692362419846
 21
3343.949939317005
 31
0.0
  0
LINE
  5
5C9
330
5C1
100
AcDbEntity
  8
0
  6
Continuous
 62
     9
100
AcDbLine
 10
6193.692362419846
 20
2708.938686551999
 30
0.0
 11
5713.692362419846
 21
2708.938686551999
 31
0.0
  0
LINE
  5
5CA
330
5C1
100
AcDbEntity
  8
0
  6
Continuous
 62
     7
100
AcDbLine
 10
6263.692362419846
 20
2728.938686551999
 30
0.0
 11
6223.692362419846
 21
2728.938686551999
 31
0.0
  0
LINE
  5
5CB
330
5C1
100
AcDbEntity
  8
0
  6
Continuous
 62
     7
100
AcDbLine
 10
5683.692362419846
 20
2728.938686551999
 30
0.0
 11
5643.692362419846
 21
2728.938686551999
 31
0.0
  0
LINE
  5
5CC
330
5C1
100
AcDbEntity
  8
0
  6
Continuous
 62
     7
100
AcDbLine
 10
5583.692362419846
 20
3573.938686551999
 30
0.0
 11
5583.692362419846
 21
2788.938686551999
 31
0.0
  0
LINE
  5
5CD
330
5C1
100
AcDbEntity
  8
0
  6
Continuous
 62
     7
100
AcDbLine
 10
5593.692362419846
 20
3573.938686551999
 30
0.0
 11
5593.692362419846
 21
2788.938686551999
 31
0.0
  0
LINE
  5
5CE
330
5C1
100
AcDbEntity
  8
KLIN
  6
ByBlock
100
AcDbLine
 10
5583.692362419846
 20
3274.340215711
 30
0.0
 11
5593.692362419846
 21
3284.340215710999
 31
0.0
  0
LINE
  5
5CF
330
5C1
100
AcDbEntity
  8
0
  6
Continuous
 62
     7
100
AcDbLine
 10
6263.692362419846
 20
2738.938686551999
 30
0.0
 11
5643.692362419846
 21
2738.938686551999
 31
0.0
  0
LINE
  5
5D0
330
5C1
100
AcDbEntity
  8
KLIN
  6
ByBlock
100
AcDbLine
 10
5583.692362419846
 20
3214.730492105998
 30
0.0
 11
5593.692362419846
 21
3224.730492106
 31
0.0
  0
LINE
  5
5D1
330
5C1
100
AcDbEntity
  8
0
  6
Continuous
 62
     9
100
AcDbLine
 10
5593.692362419846
 20
2788.938686551999
 30
0.0
 11
6313.692362419846
 21
2788.938686551999
 31
0.0
  0
LINE
  5
5D2
330
5C1
100
AcDbEntity
  8
KLIN
  6
ByBlock
100
AcDbLine
 10
5583.692362419846
 20
3155.120768500002
 30
0.0
 11
5593.692362419846
 21
3165.120768500001
 31
0.0
  0
LINE
  5
5D3
330
5C1
100
AcDbEntity
  8
0
  6
Continuous
 62
     7
100
AcDbLine
 10
5703.692362419847
 20
2708.938686551999
 30
0.0
 11
5703.692362419847
 21
2658.938686551999
 31
0.0
  0
LINE
  5
5D4
330
5C1
100
AcDbEntity
  8
0
  6
Continuous
 62
     7
100
AcDbLine
 10
5713.692362419846
 20
2708.938686551999
 30
0.0
 11
5713.692362419846
 21
2658.938686551999
 31
0.0
  0
LINE
  5
5D5
330
5C1
100
AcDbEntity
  8
KLIN
  6
ByBlock
100
AcDbLine
 10
5583.692362419846
 20
3095.511044895
 30
0.0
 11
5593.692362419846
 21
3105.511044895
 31
0.0
  0
LINE
  5
5D6
330
5C1
100
AcDbEntity
  8
KLIN
  6
ByBlock
100
AcDbLine
 10
5583.692362419846
 20
3035.901321289002
 30
0.0
 11
5593.692362419846
 21
3045.901321289003
 31
0.0
  0
LINE
  5
5D7
330
5C1
100
AcDbEntity
  8
KLIN
  6
ByBlock
100
AcDbLine
 10
5583.692362419846
 20
2976.291597684001
 30
0.0
 11
5593.692362419846
 21
2986.291597684001
 31
0.0
  0
LINE
  5
5D8
330
5C1
100
AcDbEntity
  8
KLIN
  6
ByBlock
100
AcDbLine
 10
5583.692362419846
 20
2916.681874078004
 30
0.0
 11
5593.692362419846
 21
2926.681874078004
 31
0.0
  0
LINE
  5
5D9
330
5C1
100
AcDbEntity
  8
KLIN
  6
ByBlock
100
AcDbLine
 10
5583.692362419846
 20
2857.072150472999
 30
0.0
 11
5593.692362419846
 21
2867.072150472999
 31
0.0
  0
LINE
  5
5DA
330
5C1
100
AcDbEntity
  8
KLIN
  6
ByBlock
100
AcDbLine
 10
5583.692362419846
 20
2797.462426867002
 30
0.0
 11
5593.692362419846
 21
2807.462426867001
 31
0.0
  0
LINE
  5
5DB
330
5C1
100
AcDbEntity
  8
KLIN
  6
ByBlock
100
AcDbLine
 10
6313.692362419846
 20
3527.462426867002
 30
0.0
 11
6323.692362419846
 21
3537.462426867001
 31
0.0
  0
LINE
  5
5DC
330
5C1
100
AcDbEntity
  8
7A
100
AcDbLine
 10
5953.692362419847
 20
2628.938686551999
 30
0.0
 11
5953.692362419847
 21
3603.938686552
 31
0.0
  0
LINE
  5
5DD
330
5C1
100
AcDbEntity
  8
KLIN
  6
ByBlock
100
AcDbLine
 10
5597.058898933843
 20
2751.219239776001
 30
0.0
 11
5604.198228947839
 21
2758.358569790002
 31
0.0
  0
LINE
  5
5DE
330
5C1
100
AcDbEntity
  8
KLIN
  6
ByBlock
100
AcDbLine
 10
6313.692362419846
 20
3467.852703262
 30
0.0
 11
6323.692362419846
 21
3477.852703262001
 31
0.0
  0
LINE
  5
5DF
330
5C1
100
AcDbEntity
  8
KLIN
  6
ByBlock
100
AcDbLine
 10
5635.082190905843
 20
2729.632808142
 30
0.0
 11
5644.388069315843
 21
2738.938686551999
 31
0.0
  0
LINE
  5
5E0
330
5C1
100
AcDbEntity
  8
KLIN
  6
ByBlock
100
AcDbLine
 10
6313.692362419846
 20
3408.242979656003
 30
0.0
 11
6323.692362419846
 21
3418.242979656003
 31
0.0
  0
LINE
  5
5E1
330
5C1
100
AcDbEntity
  8
KLIN
  6
ByBlock
100
AcDbLine
 10
5692.120413673838
 20
2727.061307305001
 30
0.0
 11
5699.488629873842
 21
2734.429523505002
 31
0.0
  0
LINE
  5
5E2
330
5C1
100
AcDbEntity
  8
KLIN
  6
ByBlock
100
AcDbLine
 10
6313.692362419846
 20
3348.633256051002
 30
0.0
 11
6323.692362419846
 21
3358.633256051002
 31
0.0
  0
LINE
  5
5E3
330
5C1
100
AcDbEntity
  8
KLIN
  6
ByBlock
100
AcDbLine
 10
5703.692362419847
 20
2679.023532445004
 30
0.0
 11
5713.692362419846
 21
2689.023532445004
 31
0.0
  0
LINE
  5
5E4
330
5C1
100
AcDbEntity
  8
KLIN
  6
ByBlock
100
AcDbLine
 10
6313.692362419846
 20
3289.023532445004
 30
0.0
 11
6323.692362419846
 21
3299.023532445004
 31
0.0
  0
LINE
  5
5E5
330
5C1
100
AcDbEntity
  8
KLIN
  6
ByBlock
100
AcDbLine
 10
6313.692362419846
 20
3229.41380884
 30
0.0
 11
6323.692362419846
 21
3239.41380884
 31
0.0
  0
LINE
  5
5E6
330
5C1
100
AcDbEntity
  8
0
  6
Continuous
 62
     7
100
AcDbLine
 10
6193.692362419846
 20
2708.938686551999
 30
0.0
 11
6193.692362419846
 21
2658.938686551999
 31
0.0
  0
LINE
  5
5E7
330
5C1
100
AcDbEntity
  8
KLIN
  6
ByBlock
100
AcDbLine
 10
6313.692362419846
 20
3169.804085233999
 30
0.0
 11
6323.692362419846
 21
3179.804085233998
 31
0.0
  0
LINE
  5
5E8
330
5C1
100
AcDbEntity
  8
0
  6
Continuous
 62
     7
100
AcDbLine
 10
6203.692362419847
 20
2708.938686551999
 30
0.0
 11
6203.692362419847
 21
2658.938686551999
 31
0.0
  0
LINE
  5
5E9
330
5C1
100
AcDbEntity
  8
KLIN
  6
ByBlock
100
AcDbLine
 10
6313.692362419846
 20
3110.194361629001
 30
0.0
 11
6323.692362419846
 21
3120.194361629001
 31
0.0
  0
LINE
  5
5EA
330
5C1
100
AcDbEntity
  8
KLIN
  6
ByBlock
100
AcDbLine
 10
6313.692362419846
 20
3050.584638023
 30
0.0
 11
6323.692362419846
 21
3060.584638023
 31
0.0
  0
LINE
  5
5EB
330
5C1
100
AcDbEntity
  8
KLIN
  6
ByBlock
100
AcDbLine
 10
6313.692362419846
 20
2990.974914418002
 30
0.0
 11
6323.692362419846
 21
3000.974914418002
 31
0.0
  0
LINE
  5
5EC
330
5C1
100
AcDbEntity
  8
0
  6
Continuous
 62
     7
100
AcDbLine
 10
6313.692362419846
 20
3573.938686551999
 30
0.0
 11
6313.692362419846
 21
2788.938686551999
 31
0.0
  0
LINE
  5
5ED
330
5C1
100
AcDbEntity
  8
0
  6
Continuous
 62
     7
100
AcDbLine
 10
6323.692362419846
 20
3573.938686551999
 30
0.0
 11
6323.692362419846
 21
2788.938686551999
 31
0.0
  0
LINE
  5
5EE
330
5C1
100
AcDbEntity
  8
KLIN
  6
ByBlock
100
AcDbLine
 10
6313.692362419846
 20
2931.365190813002
 30
0.0
 11
6323.692362419846
 21
2941.365190813002
 31
0.0
  0
LINE
  5
5EF
330
5C1
100
AcDbEntity
  8
KLIN
  6
ByBlock
100
AcDbLine
 10
6313.692362419846
 20
2871.755467207004
 30
0.0
 11
6323.692362419846
 21
2881.755467207004
 31
0.0
  0
LINE
  5
5F0
330
5C1
100
AcDbEntity
  8
KLIN
  6
ByBlock
100
AcDbLine
 10
6313.692362419846
 20
2812.145743601999
 30
0.0
 11
6323.692362419846
 21
2822.145743601999
 31
0.0
  0
LINE
  5
5F1
330
5C1
100
AcDbEntity
  8
0
  6
Continuous
 62
     7
100
AcDbLine
 10
6323.692362419846
 20
3573.938686551999
 30
0.0
 11
5583.692362419846
 21
3573.938686551999
 31
0.0
  0
ARC
  5
5F2
330
5C1
100
AcDbEntity
  8
0
  6
Continuous
 62
     7
100
AcDbCircle
 10
6263.692362419846
 20
2788.938686551999
 30
0.0
 40
60.0
100
AcDbArc
 50
270.0
 51
0.0
  0
ARC
  5
5F3
330
5C1
100
AcDbEntity
  8
0
  6
Continuous
 62
     7
100
AcDbCircle
 10
5643.692362419846
 20
2788.938686551999
 30
0.0
 40
60.0
100
AcDbArc
 50
180.0
 51
270.0
  0
ARC
  5
5F4
330
5C1
100
AcDbEntity
  8
0
  6
Continuous
 62
     7
100
AcDbCircle
 10
5643.692362419846
 20
2788.938686551999
 30
0.0
 40
50.0
100
AcDbArc
 50
180.0
 51
270.0
  0
ARC
  5
5F5
330
5C1
100
AcDbEntity
  8
0
  6
Continuous
 62
     7
100
AcDbCircle
 10
6263.692362419846
 20
2788.938686551999
 30
0.0
 40
50.0
100
AcDbArc
 50
270.0
 51
0.0
  0
ARC
  5
5F6
330
5C1
100
AcDbEntity
  8
0
  6
Continuous
 62
     7
100
AcDbCircle
 10
6223.692362419846
 20
2708.938686551999
 30
0.0
 40
30.0
100
AcDbArc
 50
90.0
 51
180.0
  0
ARC
  5
5F7
330
5C1
100
AcDbEntity
  8
0
  6
Continuous
 62
     7
100
AcDbCircle
 10
5683.692362419846
 20
2708.938686551999
 30
0.0
 40
30.0
100
AcDbArc
 50
0.0
 51
90.0
  0
ARC
  5
5F8
330
5C1
100
AcDbEntity
  8
0
  6
Continuous
 62
     7
100
AcDbCircle
 10
6223.692362419846
 20
2708.938686551999
 30
0.0
 40
20.0
100
AcDbArc
 50
90.0
 51
180.0
  0
ARC
  5
5F9
330
5C1
100
AcDbEntity
  8
0
  6
Continuous
 62
     7
100
AcDbCircle
 10
5683.692362419846
 20
2708.938686551999
 30
0.0
 40
20.0
100
AcDbArc
 50
0.0
 51
90.0
  0
LINE
  5
5FA
330
5C1
100
AcDbEntity
  8
KLIN
  6
ByBlock
100
AcDbLine
 10
6310.325825905849
 20
2751.219239776001
 30
0.0
 11
6303.186495891853
 21
2758.358569790002
 31
0.0
  0
LINE
  5
5FB
330
5C1
100
AcDbEntity
  8
KLIN
  6
ByBlock
100
AcDbLine
 10
6272.302533933849
 20
2729.632808142
 30
0.0
 11
6262.996655523849
 21
2738.938686551999
 31
0.0
  0
LINE
  5
5FC
330
5C1
100
AcDbEntity
  8
KLIN
  6
ByBlock
100
AcDbLine
 10
6215.264311165855
 20
2727.061307305001
 30
0.0
 11
6207.89609496585
 21
2734.429523505002
 31
0.0
  0
LINE
  5
5FD
330
5C1
100
AcDbEntity
  8
KLIN
  6
ByBlock
100
AcDbLine
 10
6203.692362419847
 20
2679.023532445004
 30
0.0
 11
6193.692362419846
 21
2689.023532445004
 31
0.0
  0
ENDBLK
  5
5FE
330
5C1
100
AcDbEntity
  8
0
100
AcDbBlockEnd
  0
BLOCK
  5
600
330
5FF
100
AcDbEntity
  8
0
100
AcDbBlockBegin
  2
fklö
 70
     0
 10
0.0
 20
0.0
 30
0.0
  3
fklö
  1

  0
LINE
  5
601
330
5FF
100
AcDbEntity
  8
0
  6
Continuous
 62
     2
100
AcDbLine
 10
9574.808407686447
 20
1094.245064227623
 30
0.0
 11
9584.808407686447
 21
1115.690133432625
 31
0.0
  0
LINE
  5
602
330
5FF
100
AcDbEntity
  8
0
  6
Continuous
 62
     2
100
AcDbLine
 10
9574.808407686447
 20
1223.478428617625
 30
0.0
 11
9584.808407686447
 21
1244.923497822627
 31
0.0
  0
LINE
  5
603
330
5FF
100
AcDbEntity
  8
0
  6
Continuous
 62
     2
100
AcDbLine
 10
9574.808407686447
 20
1352.711793007627
 30
0.0
 11
9584.808407686447
 21
1374.156862212629
 31
0.0
  0
LINE
  5
604
330
5FF
100
AcDbEntity
  8
0
  6
Continuous
 62
     2
100
AcDbLine
 10
9574.808407686447
 20
1481.94515739863
 30
0.0
 11
9584.808407686447
 21
1503.390226603631
 31
0.0
  0
LINE
  5
605
330
5FF
100
AcDbEntity
  8
0
  6
Continuous
 62
     7
100
AcDbLine
 10
9584.808407686447
 20
1528.116201654636
 30
0.0
 11
9584.808407686447
 21
1043.116201654637
 31
0.0
  0
LINE
  5
606
330
5FF
100
AcDbEntity
  8
0
  6
Continuous
 62
     7
100
AcDbLine
 10
9574.808407686447
 20
1528.116201654636
 30
0.0
 11
9574.808407686447
 21
1043.116201654637
 31
0.0
  0
LINE
  5
607
330
5FF
100
AcDbEntity
  8
0
  6
Continuous
 62
     2
100
AcDbLine
 10
9090.866567481048
 20
1043.116201654637
 30
0.0
 11
9094.808407686448
 21
1051.569505254636
 31
0.0
  0
LINE
  5
608
330
5FF
100
AcDbEntity
  8
0
  6
Continuous
 62
     2
100
AcDbLine
 10
9084.808407686447
 20
1159.357800439637
 30
0.0
 11
9094.808407686448
 21
1180.80286964462
 31
0.0
  0
LINE
  5
609
330
5FF
100
AcDbEntity
  8
0
  6
Continuous
 62
     2
100
AcDbLine
 10
9084.808407686447
 20
1288.591164830621
 30
0.0
 11
9094.808407686448
 21
1310.036234035622
 31
0.0
  0
LINE
  5
60A
330
5FF
100
AcDbEntity
  8
0
  6
Continuous
 62
     2
100
AcDbLine
 10
9084.808407686447
 20
1417.824529220641
 30
0.0
 11
9094.808407686448
 21
1439.269598425642
 31
0.0
  0
LINE
  5
60B
330
5FF
100
AcDbEntity
  8
0
  6
Continuous
 62
     7
100
AcDbLine
 10
9094.808407686448
 20
1528.116201654636
 30
0.0
 11
9094.808407686448
 21
1043.116201654637
 31
0.0
  0
LINE
  5
60C
330
5FF
100
AcDbEntity
  8
0
  6
Continuous
 62
     7
100
AcDbLine
 10
9084.808407686447
 20
1528.116201654636
 30
0.0
 11
9084.808407686447
 21
1043.116201654637
 31
0.0
  0
LINE
  5
60D
330
5FF
100
AcDbEntity
  8
0
  6
Continuous
 62
     7
100
AcDbLine
 10
9584.808407686447
 20
1528.116201654636
 30
0.0
 11
9084.808407686447
 21
1528.116201654636
 31
0.0
  0
LINE
  5
60E
330
5FF
100
AcDbEntity
  8
0
100
AcDbLine
 10
9084.808407686447
 20
1043.116201654637
 30
0.0
 11
9584.808407686447
 21
1043.116201654637
 31
0.0
  0
LINE
  5
60F
330
5FF
100
AcDbEntity
  8
AM_7
100
AcDbLine
 10
9334.808407686447
 20
1558.116201654637
 30
0.0
 11
9334.808407686447
 21
1013.116201654637
 31
0.0
1001
GENIUS_GENODEF_13
1002
{
1000
HIER
1070
     0
1002
}
1002
{
1000
MANEDIT
1070
     0
1002
}
1002
{
1000
NOSEL
1070
     0
1002
}
1002
{
1000
BEHIND
1070
     0
1002
}
1002
{
1000
OTHER
1070
     0
1002
}
1002
{
1000
REACTOR
1002
}
1001
GENIUS_GENOBJ-N-CEN_13
1002
{
1000
OWNER
1000
GEN
1002
}
1001
GENIUS_GENCEN_19
1002
{
1040
3.0
1002
}
  0
ENDBLK
  5
610
330
5FF
100
AcDbEntity
  8
0
100
AcDbBlockEnd
  0
BLOCK
  5
612
330
611
100
AcDbEntity
  8
0
 62
     0
100
AcDbBlockBegin
  2
*D4
 70
     1
 10
0.0
 20
0.0
 30
0.0
  3
*D4
  1

  0
LINE
  5
613
330
611
100
AcDbEntity
  8
AM_5
  6
ByBlock
100
AcDbLine
 10
268.0292364209117
 20
726.0080137824208
 30
0.0
 11
268.0292364209117
 21
627.2936124096267
 31
0.0
  0
LINE
  5
614
330
611
100
AcDbEntity
  8
AM_5
  6
ByBlock
100
AcDbLine
 10
1068.029236420912
 20
726.0080137824208
 30
0.0
 11
1068.029236420912
 21
627.2936124096267
 31
0.0
  0
LINE
  5
615
330
611
100
AcDbEntity
  8
AM_5
  6
ByBlock
100
AcDbLine
 10
285.5292364209118
 20
632.2936124096267
 30
0.0
 11
1050.529236420912
 21
632.2936124096267
 31
0.0
  0
SOLID
  5
616
330
611
100
AcDbEntity
  8
AM_5
100
AcDbTrace
 10
285.5292364209118
 20
635.2102790762934
 30
0.0
 11
285.5292364209118
 21
629.3769457429601
 31
0.0
 12
268.0292364209117
 22
632.2936124096267
 32
0.0
 13
268.0292364209117
 23
632.2936124096267
 33
0.0
  0
SOLID
  5
617
330
611
100
AcDbEntity
  8
AM_5
100
AcDbTrace
 10
1050.529236420912
 20
635.2102790762934
 30
0.0
 11
1050.529236420912
 21
629.3769457429601
 31
0.0
 12
1068.029236420912
 22
632.2936124096267
 32
0.0
 13
1068.029236420912
 23
632.2936124096267
 33
0.0
  0
MTEXT
  5
618
330
611
100
AcDbEntity
  8
AM_5
 62
     2
100
AcDbMText
 10
668.0292364209117
 20
648.5436124096268
 30
0.0
 40
17.5
 41
0.0
 71
     5
 72
     1
  1
800
 73
     1
 44
1.0
1001
ACAD
1000
MTEXTBEGIN
1070
    73
1070
     1
1070
    44
1040
1.0
1070
    74
1070
     0
1000
MTEXTEND
  0
POINT
  5
619
330
611
100
AcDbEntity
  8
DEFPOINTS
 62
     0
100
AcDbPoint
 10
268.0292364209117
 20
731.0080137824208
 30
0.0
  0
POINT
  5
61A
330
611
100
AcDbEntity
  8
DEFPOINTS
 62
     0
100
AcDbPoint
 10
1068.029236420912
 20
731.0080137824208
 30
0.0
  0
POINT
  5
61B
330
611
100
AcDbEntity
  8
DEFPOINTS
 62
     0
100
AcDbPoint
 10
1068.029236420912
 20
632.2936124096267
 30
0.0
  0
ENDBLK
  5
61C
330
611
100
AcDbEntity
  8
0
 62
     0
100
AcDbBlockEnd
  0
BLOCK
  5
61E
330
61D
100
AcDbEntity
  8
0
 62
     0
100
AcDbBlockBegin
  2
*D5
 70
     1
 10
0.0
 20
0.0
 30
0.0
  3
*D5
  1

  0
LINE
  5
61F
330
61D
100
AcDbEntity
  8
AM_5
  6
ByBlock
100
AcDbLine
 10
238.0292364209117
 20
694.398013782351
 30
0.0
 11
238.0292364209117
 21
562.0669427484767
 31
0.0
  0
LINE
  5
620
330
61D
100
AcDbEntity
  8
AM_5
  6
ByBlock
100
AcDbLine
 10
1098.029236420912
 20
694.3980137831332
 30
0.0
 11
1098.029236420912
 21
562.0669427484767
 31
0.0
  0
LINE
  5
621
330
61D
100
AcDbEntity
  8
AM_5
  6
ByBlock
100
AcDbLine
 10
255.5292364209117
 20
567.0669427484766
 30
0.0
 11
1080.529236420912
 21
567.0669427484766
 31
0.0
  0
SOLID
  5
622
330
61D
100
AcDbEntity
  8
AM_5
100
AcDbTrace
 10
255.5292364209117
 20
569.9836094151434
 30
0.0
 11
255.5292364209117
 21
564.1502760818101
 31
0.0
 12
238.0292364209117
 22
567.0669427484766
 32
0.0
 13
238.0292364209117
 23
567.0669427484766
 33
0.0
  0
SOLID
  5
623
330
61D
100
AcDbEntity
  8
AM_5
100
AcDbTrace
 10
1080.529236420912
 20
569.9836094151434
 30
0.0
 11
1080.529236420912
 21
564.1502760818101
 31
0.0
 12
1098.029236420912
 22
567.0669427484766
 32
0.0
 13
1098.029236420912
 23
567.0669427484766
 33
0.0
  0
MTEXT
  5
624
330
61D
100
AcDbEntity
  8
AM_5
 62
     2
100
AcDbMText
 10
668.0292364209117
 20
583.3169427484766
 30
0.0
 40
17.5
 41
0.0
 71
     5
 72
     1
  1
860
 73
     1
 44
1.0
1001
ACAD
1000
MTEXTBEGIN
1070
    73
1070
     1
1070
    44
1040
1.0
1070
    74
1070
     0
1000
MTEXTEND
  0
POINT
  5
625
330
61D
100
AcDbEntity
  8
DEFPOINTS
 62
     0
100
AcDbPoint
 10
238.0292364209117
 20
699.3980137823511
 30
0.0
  0
POINT
  5
626
330
61D
100
AcDbEntity
  8
DEFPOINTS
 62
     0
100
AcDbPoint
 10
1098.029236420912
 20
699.3980137831332
 30
0.0
  0
POINT
  5
627
330
61D
100
AcDbEntity
  8
DEFPOINTS
 62
     0
100
AcDbPoint
 10
1098.029236420912
 20
567.0669427484766
 30
0.0
  0
ENDBLK
  5
628
330
61D
100
AcDbEntity
  8
0
 62
     0
100
AcDbBlockEnd
  0
BLOCK
  5
62A
330
629
100
AcDbEntity
  8
0
 62
     0
100
AcDbBlockBegin
  2
*D6
 70
     1
 10
0.0
 20
0.0
 30
0.0
  3
*D6
  1

  0
LINE
  5
62B
330
629
100
AcDbEntity
  8
AM_5
  6
ByBlock
100
AcDbLine
 10
264.0292364209117
 20
1141.81001409279
 30
0.0
 11
204.0292364209117
 21
1141.81001409279
 31
0.0
  0
LINE
  5
62C
330
629
100
AcDbEntity
  8
AM_5
  6
ByBlock
100
AcDbLine
 10
264.0292364209117
 20
1215.81001409279
 30
0.0
 11
204.0292364209117
 21
1215.81001409279
 31
0.0
  0
LINE
  5
62D
330
629
100
AcDbEntity
  8
AM_5
  6
ByBlock
100
AcDbLine
 10
209.0292364209117
 20
1159.31001409279
 30
0.0
 11
209.0292364209117
 21
1198.31001409279
 31
0.0
  0
SOLID
  5
62E
330
629
100
AcDbEntity
  8
AM_5
100
AcDbTrace
 10
206.1125697542451
 20
1159.31001409279
 30
0.0
 11
211.9459030875784
 21
1159.31001409279
 31
0.0
 12
209.0292364209117
 22
1141.81001409279
 32
0.0
 13
209.0292364209117
 23
1141.81001409279
 33
0.0
  0
SOLID
  5
62F
330
629
100
AcDbEntity
  8
AM_5
100
AcDbTrace
 10
206.1125697542451
 20
1198.31001409279
 30
0.0
 11
211.9459030875784
 21
1198.31001409279
 31
0.0
 12
209.0292364209117
 22
1215.81001409279
 32
0.0
 13
209.0292364209117
 23
1215.81001409279
 33
0.0
  0
MTEXT
  5
630
330
629
100
AcDbEntity
  8
AM_5
 62
     2
100
AcDbMText
 10
192.7792364209116
 20
1178.81001409279
 30
0.0
 40
17.5
 41
0.0
 71
     5
 72
     1
  1
74
 11
0.0000000000000001
 21
1.0
 31
0.0
 73
     1
 44
1.0
1001
ACAD
1000
MTEXTBEGIN
1070
    73
1070
     1
1070
    44
1040
1.0
1070
    74
1070
     0
1000
MTEXTEND
  0
POINT
  5
631
330
629
100
AcDbEntity
  8
DEFPOINTS
 62
     0
100
AcDbPoint
 10
269.0292364209117
 20
1141.81001409279
 30
0.0
  0
POINT
  5
632
330
629
100
AcDbEntity
  8
DEFPOINTS
 62
     0
100
AcDbPoint
 10
269.0292364209117
 20
1215.81001409279
 30
0.0
  0
POINT
  5
633
330
629
100
AcDbEntity
  8
DEFPOINTS
 62
     0
100
AcDbPoint
 10
209.0292364209117
 20
1215.81001409279
 30
0.0
  0
ENDBLK
  5
634
330
629
100
AcDbEntity
  8
0
 62
     0
100
AcDbBlockEnd
  0
BLOCK
  5
636
330
635
100
AcDbEntity
  8
0
 62
     0
100
AcDbBlockBegin
  2
*D7
 70
     1
 10
0.0
 20
0.0
 30
0.0
  3
*D7
  1

  0
LINE
  5
637
330
635
100
AcDbEntity
  8
AM_5
  6
ByBlock
100
AcDbLine
 10
265.0292364209117
 20
813.3980137823725
 30
0.0
 11
183.1867805378508
 21
813.3980137823725
 31
0.0
  0
LINE
  5
638
330
635
100
AcDbEntity
  8
AM_5
  6
ByBlock
100
AcDbLine
 10
265.0292364209117
 20
729.3980137824212
 30
0.0
 11
183.1867805378508
 21
729.3980137824212
 31
0.0
  0
LINE
  5
639
330
635
100
AcDbEntity
  8
AM_5
  6
ByBlock
100
AcDbLine
 10
188.1867805378508
 20
795.8980137823727
 30
0.0
 11
188.1867805378508
 21
746.8980137824212
 31
0.0
  0
SOLID
  5
63A
330
635
100
AcDbEntity
  8
AM_5
100
AcDbTrace
 10
185.2701138711841
 20
795.8980137823727
 30
0.0
 11
191.1034472045175
 21
795.8980137823727
 31
0.0
 12
188.1867805378508
 22
813.3980137823725
 32
0.0
 13
188.1867805378508
 23
813.3980137823725
 33
0.0
  0
SOLID
  5
63B
330
635
100
AcDbEntity
  8
AM_5
100
AcDbTrace
 10
185.2701138711841
 20
746.8980137824212
 30
0.0
 11
191.1034472045175
 21
746.8980137824212
 31
0.0
 12
188.1867805378508
 22
729.3980137824212
 32
0.0
 13
188.1867805378508
 23
729.3980137824212
 33
0.0
  0
MTEXT
  5
63C
330
635
100
AcDbEntity
  8
AM_5
 62
     2
100
AcDbMText
 10
171.9367805378507
 20
771.3980137823971
 30
0.0
 40
17.5
 41
0.0
 71
     5
 72
     1
  1
84
 11
0.0000000000000001
 21
1.0
 31
0.0
 73
     1
 44
1.0
1001
ACAD
1000
MTEXTBEGIN
1070
    73
1070
     1
1070
    44
1040
1.0
1070
    74
1070
     0
1000
MTEXTEND
  0
POINT
  5
63D
330
635
100
AcDbEntity
  8
DEFPOINTS
 62
     0
100
AcDbPoint
 10
270.0292364209117
 20
813.3980137823725
 30
0.0
  0
POINT
  5
63E
330
635
100
AcDbEntity
  8
DEFPOINTS
 62
     0
100
AcDbPoint
 10
270.0292364209117
 20
729.3980137824212
 30
0.0
  0
POINT
  5
63F
330
635
100
AcDbEntity
  8
DEFPOINTS
 62
     0
100
AcDbPoint
 10
188.1867805378508
 20
729.3980137824212
 30
0.0
  0
ENDBLK
  5
640
330
635
100
AcDbEntity
  8
0
 62
     0
100
AcDbBlockEnd
  0
BLOCK
  5
642
330
641
100
AcDbEntity
  8
0
 62
     0
100
AcDbBlockBegin
  2
*D8
 70
     1
 10
0.0
 20
0.0
 30
0.0
  3
*D8
  1

  0
LINE
  5
643
330
641
100
AcDbEntity
  8
AM_5
  6
ByBlock
100
AcDbLine
 10
233.0292364209118
 20
843.3980137823747
 30
0.0
 11
122.7397479723695
 21
843.3980137823747
 31
0.0
  0
LINE
  5
644
330
641
100
AcDbEntity
  8
AM_5
  6
ByBlock
100
AcDbLine
 10
233.0292364209118
 20
699.3980137823511
 30
0.0
 11
122.7397479723695
 21
699.3980137823511
 31
0.0
  0
LINE
  5
645
330
641
100
AcDbEntity
  8
AM_5
  6
ByBlock
100
AcDbLine
 10
127.7397479723695
 20
825.8980137823746
 30
0.0
 11
127.7397479723695
 21
716.8980137823511
 31
0.0
  0
SOLID
  5
646
330
641
100
AcDbEntity
  8
AM_5
100
AcDbTrace
 10
124.8230813057028
 20
825.8980137823746
 30
0.0
 11
130.6564146390361
 21
825.8980137823746
 31
0.0
 12
127.7397479723695
 22
843.3980137823747
 32
0.0
 13
127.7397479723695
 23
843.3980137823747
 33
0.0
  0
SOLID
  5
647
330
641
100
AcDbEntity
  8
AM_5
100
AcDbTrace
 10
124.8230813057028
 20
716.8980137823511
 30
0.0
 11
130.6564146390361
 21
716.8980137823511
 31
0.0
 12
127.7397479723695
 22
699.3980137823511
 32
0.0
 13
127.7397479723695
 23
699.3980137823511
 33
0.0
  0
MTEXT
  5
648
330
641
100
AcDbEntity
  8
AM_5
 62
     2
100
AcDbMText
 10
111.4897479723694
 20
771.3980137823628
 30
0.0
 40
17.5
 41
0.0
 71
     5
 72
     1
  1
144
 11
0.0000000000000001
 21
1.0
 31
0.0
 73
     1
 44
1.0
1001
ACAD
1000
MTEXTBEGIN
1070
    73
1070
     1
1070
    44
1040
1.0
1070
    74
1070
     0
1000
MTEXTEND
  0
POINT
  5
649
330
641
100
AcDbEntity
  8
DEFPOINTS
 62
     0
100
AcDbPoint
 10
238.0292364209117
 20
843.3980137823747
 30
0.0
  0
POINT
  5
64A
330
641
100
AcDbEntity
  8
DEFPOINTS
 62
     0
100
AcDbPoint
 10
238.0292364209117
 20
699.3980137823511
 30
0.0
  0
POINT
  5
64B
330
641
100
AcDbEntity
  8
DEFPOINTS
 62
     0
100
AcDbPoint
 10
127.7397479723695
 20
699.3980137823511
 30
0.0
  0
ENDBLK
  5
64C
330
641
100
AcDbEntity
  8
0
 62
     0
100
AcDbBlockEnd
  0
BLOCK
  5
64E
330
64D
100
AcDbEntity
  8
0
 62
     0
100
AcDbBlockBegin
  2
*D9
 70
     1
 10
0.0
 20
0.0
 30
0.0
  3
*D9
  1

  0
LINE
  5
64F
330
64D
100
AcDbEntity
  8
AM_5
  6
ByBlock
100
AcDbLine
 10
693.0292364396592
 20
1043.131670387193
 30
0.0
 11
693.0292364396592
 21
973.6712893512073
 31
0.0
  0
LINE
  5
650
330
64D
100
AcDbEntity
  8
AM_5
  6
ByBlock
100
AcDbLine
 10
643.0292364385677
 20
1043.131670387193
 30
0.0
 11
643.0292364385677
 21
973.6712893512073
 31
0.0
  0
LINE
  5
651
330
64D
100
AcDbEntity
  8
AM_5
  6
ByBlock
100
AcDbLine
 10
675.5292364396592
 20
978.6712893512072
 30
0.0
 11
660.5292364385677
 21
978.6712893512072
 31
0.0
  0
SOLID
  5
652
330
64D
100
AcDbEntity
  8
AM_5
100
AcDbTrace
 10
675.5292364396592
 20
981.5879560178737
 30
0.0
 11
675.5292364396592
 21
975.7546226845406
 31
0.0
 12
693.0292364396592
 22
978.6712893512072
 32
0.0
 13
693.0292364396592
 23
978.6712893512072
 33
0.0
  0
SOLID
  5
653
330
64D
100
AcDbEntity
  8
AM_5
100
AcDbTrace
 10
660.5292364385677
 20
981.5879560178737
 30
0.0
 11
660.5292364385677
 21
975.7546226845406
 31
0.0
 12
643.0292364385677
 22
978.6712893512072
 32
0.0
 13
643.0292364385677
 23
978.6712893512072
 33
0.0
  0
MTEXT
  5
654
330
64D
100
AcDbEntity
  8
AM_5
 62
     2
100
AcDbMText
 10
667.5038799855181
 20
994.9212893512072
 30
0.0
 40
17.5
 41
0.0
 71
     5
 72
     1
  1
%%c50
 73
     1
 44
1.0
1001
ACAD
1000
MTEXTBEGIN
1070
    73
1070
     1
1070
    44
1040
1.0
1070
    74
1070
     0
1000
MTEXTEND
  0
POINT
  5
655
330
64D
100
AcDbEntity
  8
DEFPOINTS
 62
     0
100
AcDbPoint
 10
693.0292364396592
 20
1048.131670387193
 30
0.0
  0
POINT
  5
656
330
64D
100
AcDbEntity
  8
DEFPOINTS
 62
     0
100
AcDbPoint
 10
643.0292364385677
 20
1048.131670387193
 30
0.0
  0
POINT
  5
657
330
64D
100
AcDbEntity
  8
DEFPOINTS
 62
     0
100
AcDbPoint
 10
643.0292364385677
 20
978.6712893512072
 30
0.0
  0
ENDBLK
  5
658
330
64D
100
AcDbEntity
  8
0
 62
     0
100
AcDbBlockEnd
  0
BLOCK
  5
75A
330
759
100
AcDbEntity
  8
0
100
AcDbBlockBegin
  2
*D10
 70
     1
 10
0.0
 20
0.0
 30
0.0
  3
*D10
  1

  0
LINE
  5
75C
330
759
100
AcDbEntity
  8
AM_5
  6
ByBlock
100
AcDbLine
 10
164.4144888972136
 20
163.9410713261962
 30
0.0
 11
164.4144888972136
 21
65.22666995340228
 31
0.0
  0
LINE
  5
75D
330
759
100
AcDbEntity
  8
AM_5
  6
ByBlock
100
AcDbLine
 10
964.4144888972141
 20
163.9410713261962
 30
0.0
 11
964.4144888972141
 21
65.22666995340228
 31
0.0
  0
LINE
  5
75E
330
759
100
AcDbEntity
  8
AM_5
  6
ByBlock
100
AcDbLine
 10
181.9144888972136
 20
70.22666995340228
 30
0.0
 11
946.9144888972138
 21
70.22666995340228
 31
0.0
  0
SOLID
  5
75F
330
759
100
AcDbEntity
  8
AM_5
100
AcDbTrace
 10
181.9144888972136
 20
73.14333662006895
 30
0.0
 11
181.9144888972136
 21
67.31000328673561
 31
0.0
 12
164.4144888972136
 22
70.22666995340228
 32
0.0
 13
164.4144888972136
 23
70.22666995340228
 33
0.0
  0
SOLID
  5
760
330
759
100
AcDbEntity
  8
AM_5
100
AcDbTrace
 10
946.9144888972138
 20
73.14333662006895
 30
0.0
 11
946.9144888972138
 21
67.31000328673561
 31
0.0
 12
964.4144888972141
 22
70.22666995340228
 32
0.0
 13
964.4144888972141
 23
70.22666995340228
 33
0.0
  0
MTEXT
  5
761
330
759
100
AcDbEntity
  8
AM_5
 62
     2
100
AcDbMText
 10
564.4144888972132
 20
86.47666995340228
 30
0.0
 40
17.5
 41
0.0
 71
     5
 72
     1
  1
800
 73
     1
 44
1.0
1001
ACAD
1000
MTEXTBEGIN
1070
    73
1070
     1
1070
    44
1040
1.0
1070
    74
1070
     0
1000
MTEXTEND
  0
POINT
  5
762
330
759
100
AcDbEntity
  8
DEFPOINTS
 62
     0
100
AcDbPoint
 10
164.4144888972136
 20
168.9410713261962
 30
0.0
  0
POINT
  5
763
330
759
100
AcDbEntity
  8
DEFPOINTS
 62
     0
100
AcDbPoint
 10
964.4144888972141
 20
168.9410713261962
 30
0.0
  0
POINT
  5
764
330
759
100
AcDbEntity
  8
DEFPOINTS
 62
     0
100
AcDbPoint
 10
964.4144888972141
 20
70.22666995340228
 30
0.0
  0
ENDBLK
  5
75B
330
759
100
AcDbEntity
  8
0
100
AcDbBlockEnd
  0
BLOCK
  5
766
330
765
100
AcDbEntity
  8
0
100
AcDbBlockBegin
  2
*D11
 70
     1
 10
0.0
 20
0.0
 30
0.0
  3
*D11
  1

  0
LINE
  5
768
330
765
100
AcDbEntity
  8
AM_5
  6
ByBlock
100
AcDbLine
 10
134.4144888972136
 20
132.3310713261265
 30
0.0
 11
134.4144888972136
 21
0.0000002922521389
 31
0.0
  0
LINE
  5
769
330
765
100
AcDbEntity
  8
AM_5
  6
ByBlock
100
AcDbLine
 10
994.4144888972139
 20
132.3310713269087
 30
0.0
 11
994.4144888972139
 21
0.0000002922521389
 31
0.0
  0
LINE
  5
76A
330
765
100
AcDbEntity
  8
AM_5
  6
ByBlock
100
AcDbLine
 10
151.9144888972136
 20
5.000000292252138
 30
0.0
 11
976.9144888972141
 21
5.000000292252138
 31
0.0
  0
SOLID
  5
76B
330
765
100
AcDbEntity
  8
AM_5
100
AcDbTrace
 10
151.9144888972136
 20
7.916666958918805
 30
0.0
 11
151.9144888972136
 21
2.083333625585471
 31
0.0
 12
134.4144888972136
 22
5.000000292252138
 32
0.0
 13
134.4144888972136
 23
5.000000292252138
 33
0.0
  0
SOLID
  5
76C
330
765
100
AcDbEntity
  8
AM_5
100
AcDbTrace
 10
976.9144888972141
 20
7.916666958918805
 30
0.0
 11
976.9144888972141
 21
2.083333625585471
 31
0.0
 12
994.4144888972139
 22
5.000000292252138
 32
0.0
 13
994.4144888972139
 23
5.000000292252138
 33
0.0
  0
MTEXT
  5
76D
330
765
100
AcDbEntity
  8
AM_5
 62
     2
100
AcDbMText
 10
564.4144888972132
 20
21.25000029225214
 30
0.0
 40
17.5
 41
0.0
 71
     5
 72
     1
  1
860
 73
     1
 44
1.0
1001
ACAD
1000
MTEXTBEGIN
1070
    73
1070
     1
1070
    44
1040
1.0
1070
    74
1070
     0
1000
MTEXTEND
  0
POINT
  5
76E
330
765
100
AcDbEntity
  8
DEFPOINTS
 62
     0
100
AcDbPoint
 10
134.4144888972136
 20
137.3310713261265
 30
0.0
  0
POINT
  5
76F
330
765
100
AcDbEntity
  8
DEFPOINTS
 62
     0
100
AcDbPoint
 10
994.4144888972139
 20
137.3310713269087
 30
0.0
  0
POINT
  5
770
330
765
100
AcDbEntity
  8
DEFPOINTS
 62
     0
100
AcDbPoint
 10
994.4144888972139
 20
5.000000292252138
 30
0.0
  0
ENDBLK
  5
767
330
765
100
AcDbEntity
  8
0
100
AcDbBlockEnd
  0
BLOCK
  5
772
330
771
100
AcDbEntity
  8
0
100
AcDbBlockBegin
  2
*D12
 70
     1
 10
0.0
 20
0.0
 30
0.0
  3
*D12
  1

  0
LINE
  5
774
330
771
100
AcDbEntity
  8
AM_5
  6
ByBlock
100
AcDbLine
 10
160.4144888972136
 20
579.7430716365654
 30
0.0
 11
100.4144888972136
 21
579.7430716365654
 31
0.0
  0
LINE
  5
775
330
771
100
AcDbEntity
  8
AM_5
  6
ByBlock
100
AcDbLine
 10
160.4144888972136
 20
653.7430716365654
 30
0.0
 11
100.4144888972136
 21
653.7430716365654
 31
0.0
  0
LINE
  5
776
330
771
100
AcDbEntity
  8
AM_5
  6
ByBlock
100
AcDbLine
 10
105.4144888972136
 20
597.2430716365654
 30
0.0
 11
105.4144888972136
 21
636.2430716365654
 31
0.0
  0
SOLID
  5
777
330
771
100
AcDbEntity
  8
AM_5
100
AcDbTrace
 10
102.4978222305469
 20
597.2430716365654
 30
0.0
 11
108.3311555638803
 21
597.2430716365654
 31
0.0
 12
105.4144888972136
 22
579.7430716365654
 32
0.0
 13
105.4144888972136
 23
579.7430716365654
 33
0.0
  0
SOLID
  5
778
330
771
100
AcDbEntity
  8
AM_5
100
AcDbTrace
 10
102.4978222305469
 20
636.2430716365654
 30
0.0
 11
108.3311555638803
 21
636.2430716365654
 31
0.0
 12
105.4144888972136
 22
653.7430716365654
 32
0.0
 13
105.4144888972136
 23
653.7430716365654
 33
0.0
  0
MTEXT
  5
779
330
771
100
AcDbEntity
  8
AM_5
 62
     2
100
AcDbMText
 10
89.16448889721353
 20
616.7430716365654
 30
0.0
 40
17.5
 41
0.0
 71
     5
 72
     1
  1
74
 11
0.0000000000000001
 21
1.0
 31
0.0
 73
     1
 44
1.0
1001
ACAD
1000
MTEXTBEGIN
1070
    73
1070
     1
1070
    44
1040
1.0
1070
    74
1070
     0
1000
MTEXTEND
  0
POINT
  5
77A
330
771
100
AcDbEntity
  8
DEFPOINTS
 62
     0
100
AcDbPoint
 10
165.4144888972136
 20
579.7430716365654
 30
0.0
  0
POINT
  5
77B
330
771
100
AcDbEntity
  8
DEFPOINTS
 62
     0
100
AcDbPoint
 10
165.4144888972136
 20
653.7430716365654
 30
0.0
  0
POINT
  5
77C
330
771
100
AcDbEntity
  8
DEFPOINTS
 62
     0
100
AcDbPoint
 10
105.4144888972136
 20
653.7430716365654
 30
0.0
  0
ENDBLK
  5
773
330
771
100
AcDbEntity
  8
0
100
AcDbBlockEnd
  0
BLOCK
  5
77E
330
77D
100
AcDbEntity
  8
0
100
AcDbBlockBegin
  2
*D13
 70
     1
 10
0.0
 20
0.0
 30
0.0
  3
*D13
  1

  0
LINE
  5
780
330
77D
100
AcDbEntity
  8
AM_5
  6
ByBlock
100
AcDbLine
 10
161.4144888972136
 20
251.3310713261481
 30
0.0
 11
79.57203301415269
 21
251.3310713261481
 31
0.0
  0
LINE
  5
781
330
77D
100
AcDbEntity
  8
AM_5
  6
ByBlock
100
AcDbLine
 10
161.4144888972136
 20
167.3310713261967
 30
0.0
 11
79.57203301415269
 21
167.3310713261967
 31
0.0
  0
LINE
  5
782
330
77D
100
AcDbEntity
  8
AM_5
  6
ByBlock
100
AcDbLine
 10
84.57203301415269
 20
233.831071326148
 30
0.0
 11
84.57203301415267
 21
184.8310713261966
 31
0.0
  0
SOLID
  5
783
330
77D
100
AcDbEntity
  8
AM_5
100
AcDbTrace
 10
81.65536634748603
 20
233.831071326148
 30
0.0
 11
87.48869968081939
 21
233.831071326148
 31
0.0
 12
84.57203301415269
 22
251.3310713261481
 32
0.0
 13
84.57203301415269
 23
251.3310713261481
 33
0.0
  0
SOLID
  5
784
330
77D
100
AcDbEntity
  8
AM_5
100
AcDbTrace
 10
81.65536634748603
 20
184.8310713261966
 30
0.0
 11
87.48869968081931
 21
184.8310713261966
 31
0.0
 12
84.57203301415267
 22
167.3310713261967
 32
0.0
 13
84.57203301415267
 23
167.3310713261967
 33
0.0
  0
MTEXT
  5
785
330
77D
100
AcDbEntity
  8
AM_5
 62
     2
100
AcDbMText
 10
68.32203301415265
 20
209.3310713261726
 30
0.0
 40
17.5
 41
0.0
 71
     5
 72
     1
  1
84
 11
0.0000000000000001
 21
1.0
 31
0.0
 73
     1
 44
1.0
1001
ACAD
1000
MTEXTBEGIN
1070
    73
1070
     1
1070
    44
1040
1.0
1070
    74
1070
     0
1000
MTEXTEND
  0
POINT
  5
786
330
77D
100
AcDbEntity
  8
DEFPOINTS
 62
     0
100
AcDbPoint
 10
166.4144888972136
 20
251.3310713261481
 30
0.0
  0
POINT
  5
787
330
77D
100
AcDbEntity
  8
DEFPOINTS
 62
     0
100
AcDbPoint
 10
166.4144888972136
 20
167.3310713261967
 30
0.0
  0
POINT
  5
788
330
77D
100
AcDbEntity
  8
DEFPOINTS
 62
     0
100
AcDbPoint
 10
84.57203301415267
 20
167.3310713261967
 30
0.0
  0
ENDBLK
  5
77F
330
77D
100
AcDbEntity
  8
0
100
AcDbBlockEnd
  0
BLOCK
  5
78A
330
789
100
AcDbEntity
  8
0
100
AcDbBlockBegin
  2
*D14
 70
     1
 10
0.0
 20
0.0
 30
0.0
  3
*D14
  1

  0
LINE
  5
78C
330
789
100
AcDbEntity
  8
AM_5
  6
ByBlock
100
AcDbLine
 10
129.4144888972136
 20
281.3310713261501
 30
0.0
 11
19.12500044867149
 21
281.3310713261503
 31
0.0
  0
LINE
  5
78D
330
789
100
AcDbEntity
  8
AM_5
  6
ByBlock
100
AcDbLine
 10
129.4144888972136
 20
137.3310713261265
 30
0.0
 11
19.12500044867146
 21
137.3310713261266
 31
0.0
  0
LINE
  5
78E
330
789
100
AcDbEntity
  8
AM_5
  6
ByBlock
100
AcDbLine
 10
24.12500044867148
 20
263.8310713261503
 30
0.0
 11
24.12500044867146
 21
154.8310713261266
 31
0.0
  0
SOLID
  5
78F
330
789
100
AcDbEntity
  8
AM_5
100
AcDbTrace
 10
21.20833378200481
 20
263.8310713261503
 30
0.0
 11
27.04166711533815
 21
263.8310713261503
 31
0.0
 12
24.12500044867149
 22
281.3310713261503
 32
0.0
 13
24.12500044867149
 23
281.3310713261503
 33
0.0
  0
SOLID
  5
790
330
789
100
AcDbEntity
  8
AM_5
100
AcDbTrace
 10
21.2083337820048
 20
154.8310713261266
 30
0.0
 11
27.04166711533813
 21
154.8310713261266
 31
0.0
 12
24.12500044867146
 22
137.3310713261266
 32
0.0
 13
24.12500044867146
 23
137.3310713261266
 33
0.0
  0
MTEXT
  5
791
330
789
100
AcDbEntity
  8
AM_5
 62
     2
100
AcDbMText
 10
7.875000448671437
 20
209.3310713261384
 30
0.0
 40
17.5
 41
0.0
 71
     5
 72
     1
  1
144
 11
0.0000000000000001
 21
1.0
 31
0.0
 73
     1
 44
1.0
1001
ACAD
1000
MTEXTBEGIN
1070
    73
1070
     1
1070
    44
1040
1.0
1070
    74
1070
     0
1000
MTEXTEND
  0
POINT
  5
792
330
789
100
AcDbEntity
  8
DEFPOINTS
 62
     0
100
AcDbPoint
 10
134.4144888972136
 20
281.3310713261501
 30
0.0
  0
POINT
  5
793
330
789
100
AcDbEntity
  8
DEFPOINTS
 62
     0
100
AcDbPoint
 10
134.4144888972136
 20
137.3310713261265
 30
0.0
  0
POINT
  5
794
330
789
100
AcDbEntity
  8
DEFPOINTS
 62
     0
100
AcDbPoint
 10
24.12500044867146
 20
137.3310713261266
 30
0.0
  0
ENDBLK
  5
78B
330
789
100
AcDbEntity
  8
0
100
AcDbBlockEnd
  0
BLOCK
  5
796
330
795
100
AcDbEntity
  8
0
100
AcDbBlockBegin
  2
*D15
 70
     1
 10
0.0
 20
0.0
 30
0.0
  3
*D15
  1

  0
LINE
  5
798
330
795
100
AcDbEntity
  8
AM_5
  6
ByBlock
100
AcDbLine
 10
589.4144889159612
 20
481.0647279309685
 30
0.0
 11
589.4144889159612
 21
411.6043468949825
 31
0.0
  0
LINE
  5
799
330
795
100
AcDbEntity
  8
AM_5
  6
ByBlock
100
AcDbLine
 10
539.4144889148697
 20
481.0647279309685
 30
0.0
 11
539.4144889148697
 21
411.6043468949825
 31
0.0
  0
LINE
  5
79A
330
795
100
AcDbEntity
  8
AM_5
  6
ByBlock
100
AcDbLine
 10
571.9144889159612
 20
416.6043468949825
 30
0.0
 11
556.9144889148697
 21
416.6043468949825
 31
0.0
  0
SOLID
  5
79B
330
795
100
AcDbEntity
  8
AM_5
100
AcDbTrace
 10
571.9144889159612
 20
419.5210135616494
 30
0.0
 11
571.9144889159612
 21
413.6876802283159
 31
0.0
 12
589.4144889159612
 22
416.6043468949825
 32
0.0
 13
589.4144889159612
 23
416.6043468949825
 33
0.0
  0
SOLID
  5
79C
330
795
100
AcDbEntity
  8
AM_5
100
AcDbTrace
 10
556.9144889148697
 20
419.5210135616494
 30
0.0
 11
556.9144889148697
 21
413.6876802283159
 31
0.0
 12
539.4144889148697
 22
416.6043468949825
 32
0.0
 13
539.4144889148697
 23
416.6043468949825
 33
0.0
  0
MTEXT
  5
79D
330
795
100
AcDbEntity
  8
AM_5
 62
     2
100
AcDbMText
 10
563.8891324618201
 20
432.8543468949828
 30
0.0
 40
17.5
 41
0.0
 71
     5
 72
     1
  1
%%c50
 73
     1
 44
1.0
1001
ACAD
1000
MTEXTBEGIN
1070
    73
1070
     1
1070
    44
1040
1.0
1070
    74
1070
     0
1000
MTEXTEND
  0
POINT
  5
79E
330
795
100
AcDbEntity
  8
DEFPOINTS
 62
     0
100
AcDbPoint
 10
589.4144889159612
 20
486.0647279309683
 30
0.0
  0
POINT
  5
79F
330
795
100
AcDbEntity
  8
DEFPOINTS
 62
     0
100
AcDbPoint
 10
539.4144889148697
 20
486.0647279309683
 30
0.0
  0
POINT
  5
7A0
330
795
100
AcDbEntity
  8
DEFPOINTS
 62
     0
100
AcDbPoint
 10
539.4144889148697
 20
416.6043468949825
 30
0.0
  0
ENDBLK
  5
797
330
795
100
AcDbEntity
  8
0
100
AcDbBlockEnd
  0
BLOCK
  5
7A3
330
7A2
100
AcDbEntity
  8
0
 62
     0
100
AcDbBlockBegin
  2
*D16
 70
     1
 10
0.0
 20
0.0
 30
0.0
  3
*D16
  1

  0
LINE
  5
7A4
330
7A2
100
AcDbEntity
  8
AM_5
  6
ByBlock
100
AcDbLine
 10
23464.07571883
 20
6201.129106550935
 30
0.0
 11
23464.07571883
 21
6084.258410067575
 31
0.0
  0
LINE
  5
7A5
330
7A2
100
AcDbEntity
  8
AM_5
  6
ByBlock
100
AcDbLine
 10
24364.07571883
 20
6201.129106550935
 30
0.0
 11
24364.07571883
 21
6084.258410067575
 31
0.0
  0
LINE
  5
7A6
330
7A2
100
AcDbEntity
  8
AM_5
  6
ByBlock
100
AcDbLine
 10
23481.57571883
 20
6089.258410067575
 30
0.0
 11
24346.57571883
 21
6089.258410067575
 31
0.0
  0
SOLID
  5
7A7
330
7A2
100
AcDbEntity
  8
AM_5
100
AcDbTrace
 10
23481.57571883
 20
6092.175076734241
 30
0.0
 11
23481.57571883
 21
6086.341743400907
 31
0.0
 12
23464.07571883
 22
6089.258410067575
 32
0.0
 13
23464.07571883
 23
6089.258410067575
 33
0.0
  0
SOLID
  5
7A8
330
7A2
100
AcDbEntity
  8
AM_5
100
AcDbTrace
 10
24346.57571883
 20
6092.175076734241
 30
0.0
 11
24346.57571883
 21
6086.341743400907
 31
0.0
 12
24364.07571883
 22
6089.258410067575
 32
0.0
 13
24364.07571883
 23
6089.258410067575
 33
0.0
  0
MTEXT
  5
7A9
330
7A2
100
AcDbEntity
  8
AM_5
 62
     2
100
AcDbMText
 10
23914.07571883
 20
6105.508410067574
 30
0.0
 40
17.5
 41
0.0
 71
     5
 72
     1
  1
900
 73
     1
 44
1.0
1001
ACAD
1000
MTEXTBEGIN
1070
    73
1070
     1
1070
    44
1040
1.0
1070
    74
1070
     0
1000
MTEXTEND
  0
POINT
  5
7AA
330
7A2
100
AcDbEntity
  8
DEFPOINTS
 62
     0
100
AcDbPoint
 10
23464.07571883
 20
6206.129106550935
 30
0.0
  0
POINT
  5
7AB
330
7A2
100
AcDbEntity
  8
DEFPOINTS
 62
     0
100
AcDbPoint
 10
24364.07571883
 20
6206.129106550935
 30
0.0
  0
POINT
  5
7AC
330
7A2
100
AcDbEntity
  8
DEFPOINTS
 62
     0
100
AcDbPoint
 10
24364.07571883
 20
6089.258410067575
 30
0.0
  0
ENDBLK
  5
7AD
330
7A2
100
AcDbEntity
  8
0
 62
     0
100
AcDbBlockEnd
  0
BLOCK
  5
7AF
330
7AE
100
AcDbEntity
  8
0
 62
     0
100
AcDbBlockBegin
  2
*D17
 70
     1
 10
0.0
 20
0.0
 30
0.0
  3
*D17
  1

  0
LINE
  5
7B0
330
7AE
100
AcDbEntity
  8
AM_5
  6
ByBlock
100
AcDbLine
 10
23434.07571883
 20
6169.51910655082
 30
0.0
 11
23434.07571883
 21
6015.211616062603
 31
0.0
  0
LINE
  5
7B1
330
7AE
100
AcDbEntity
  8
AM_5
  6
ByBlock
100
AcDbLine
 10
24394.07571883
 20
6169.51910655082
 30
0.0
 11
24394.07571883
 21
6015.211616062603
 31
0.0
  0
LINE
  5
7B2
330
7AE
100
AcDbEntity
  8
AM_5
  6
ByBlock
100
AcDbLine
 10
23451.57571883
 20
6020.211616062603
 30
0.0
 11
24376.57571883
 21
6020.211616062603
 31
0.0
  0
SOLID
  5
7B3
330
7AE
100
AcDbEntity
  8
AM_5
100
AcDbTrace
 10
23451.57571883
 20
6023.12828272927
 30
0.0
 11
23451.57571883
 21
6017.294949395935
 31
0.0
 12
23434.07571883
 22
6020.211616062603
 32
0.0
 13
23434.07571883
 23
6020.211616062603
 33
0.0
  0
SOLID
  5
7B4
330
7AE
100
AcDbEntity
  8
AM_5
100
AcDbTrace
 10
24376.57571883
 20
6023.12828272927
 30
0.0
 11
24376.57571883
 21
6017.294949395935
 31
0.0
 12
24394.07571883
 22
6020.211616062603
 32
0.0
 13
24394.07571883
 23
6020.211616062603
 33
0.0
  0
MTEXT
  5
7B5
330
7AE
100
AcDbEntity
  8
AM_5
 62
     2
100
AcDbMText
 10
23912.90268955919
 20
6036.461616062602
 30
0.0
 40
17.5
 41
0.0
 71
     5
 72
     1
  1
960
 73
     1
 44
1.0
1001
ACAD
1000
MTEXTBEGIN
1070
    73
1070
     1
1070
    44
1040
1.0
1070
    74
1070
     0
1000
MTEXTEND
  0
POINT
  5
7B6
330
7AE
100
AcDbEntity
  8
DEFPOINTS
 62
     0
100
AcDbPoint
 10
23434.07571883
 20
6174.519106550821
 30
0.0
  0
POINT
  5
7B7
330
7AE
100
AcDbEntity
  8
DEFPOINTS
 62
     0
100
AcDbPoint
 10
24394.07571883
 20
6174.519106550821
 30
0.0
  0
POINT
  5
7B8
330
7AE
100
AcDbEntity
  8
DEFPOINTS
 62
     0
100
AcDbPoint
 10
24394.07571883
 20
6020.211616062603
 30
0.0
  0
ENDBLK
  5
7B9
330
7AE
100
AcDbEntity
  8
0
 62
     0
100
AcDbBlockEnd
  0
BLOCK
  5
7BB
330
7BA
100
AcDbEntity
  8
0
 62
     0
100
AcDbBlockBegin
  2
*D18
 70
     1
 10
0.0
 20
0.0
 30
0.0
  3
*D18
  1

  0
LINE
  5
7BC
330
7BA
100
AcDbEntity
  8
AM_5
  6
ByBlock
100
AcDbLine
 10
23460.07571883
 20
6616.931106861307
 30
0.0
 11
23400.07571883
 21
6616.931106861307
 31
0.0
  0
LINE
  5
7BD
330
7BA
100
AcDbEntity
  8
AM_5
  6
ByBlock
100
AcDbLine
 10
23460.07571883
 20
6690.931106861306
 30
0.0
 11
23400.07571883
 21
6690.931106861306
 31
0.0
  0
LINE
  5
7BE
330
7BA
100
AcDbEntity
  8
AM_5
  6
ByBlock
100
AcDbLine
 10
23405.07571883
 20
6634.431106861306
 30
0.0
 11
23405.07571883
 21
6673.431106861307
 31
0.0
  0
SOLID
  5
7BF
330
7BA
100
AcDbEntity
  8
AM_5
100
AcDbTrace
 10
23402.15905216333
 20
6634.431106861306
 30
0.0
 11
23407.99238549667
 21
6634.431106861306
 31
0.0
 12
23405.07571883
 22
6616.931106861307
 32
0.0
 13
23405.07571883
 23
6616.931106861307
 33
0.0
  0
SOLID
  5
7C0
330
7BA
100
AcDbEntity
  8
AM_5
100
AcDbTrace
 10
23402.15905216333
 20
6673.431106861307
 30
0.0
 11
23407.99238549667
 21
6673.431106861307
 31
0.0
 12
23405.07571883
 22
6690.931106861306
 32
0.0
 13
23405.07571883
 23
6690.931106861306
 33
0.0
  0
MTEXT
  5
7C1
330
7BA
100
AcDbEntity
  8
AM_5
 62
     2
100
AcDbMText
 10
23388.82571883
 20
6653.93110686131
 30
0.0
 40
17.5
 41
0.0
 71
     5
 72
     1
  1
74
 11
0.0000000000000001
 21
1.0
 31
0.0
 73
     1
 44
1.0
1001
ACAD
1000
MTEXTBEGIN
1070
    73
1070
     1
1070
    44
1040
1.0
1070
    74
1070
     0
1000
MTEXTEND
  0
POINT
  5
7C2
330
7BA
100
AcDbEntity
  8
DEFPOINTS
 62
     0
100
AcDbPoint
 10
23465.07571883
 20
6616.931106861307
 30
0.0
  0
POINT
  5
7C3
330
7BA
100
AcDbEntity
  8
DEFPOINTS
 62
     0
100
AcDbPoint
 10
23465.07571883
 20
6690.931106861306
 30
0.0
  0
POINT
  5
7C4
330
7BA
100
AcDbEntity
  8
DEFPOINTS
 62
     0
100
AcDbPoint
 10
23405.07571883
 20
6690.931106861306
 30
0.0
  0
ENDBLK
  5
7C5
330
7BA
100
AcDbEntity
  8
0
 62
     0
100
AcDbBlockEnd
  0
BLOCK
  5
7C7
330
7C6
100
AcDbEntity
  8
0
 62
     0
100
AcDbBlockBegin
  2
*D19
 70
     1
 10
0.0
 20
0.0
 30
0.0
  3
*D19
  1

  0
LINE
  5
7C8
330
7C6
100
AcDbEntity
  8
AM_5
  6
ByBlock
100
AcDbLine
 10
23889.07571884765
 20
6518.252763155711
 30
0.0
 11
23889.07571884765
 21
6450.758535189706
 31
0.0
  0
LINE
  5
7C9
330
7C6
100
AcDbEntity
  8
AM_5
  6
ByBlock
100
AcDbLine
 10
23939.07571884875
 20
6518.252763155711
 30
0.0
 11
23939.07571884875
 21
6450.758535189706
 31
0.0
  0
LINE
  5
7CA
330
7C6
100
AcDbEntity
  8
AM_5
  6
ByBlock
100
AcDbLine
 10
23906.57571884765
 20
6455.758535189706
 30
0.0
 11
23921.57571884875
 21
6455.758535189706
 31
0.0
  0
SOLID
  5
7CB
330
7C6
100
AcDbEntity
  8
AM_5
100
AcDbTrace
 10
23906.57571884765
 20
6458.675201856372
 30
0.0
 11
23906.57571884765
 21
6452.841868523041
 31
0.0
 12
23889.07571884765
 22
6455.758535189706
 32
0.0
 13
23889.07571884765
 23
6455.758535189706
 33
0.0
  0
SOLID
  5
7CC
330
7C6
100
AcDbEntity
  8
AM_5
100
AcDbTrace
 10
23921.57571884875
 20
6458.675201856372
 30
0.0
 11
23921.57571884875
 21
6452.841868523041
 31
0.0
 12
23939.07571884875
 22
6455.758535189706
 32
0.0
 13
23939.07571884875
 23
6455.758535189706
 33
0.0
  0
MTEXT
  5
7CD
330
7C6
100
AcDbEntity
  8
AM_5
 62
     2
100
AcDbMText
 10
23914.12342663179
 20
6472.008535189704
 30
0.0
 40
17.5
 41
0.0
 71
     5
 72
     1
  1
%%c50
 73
     1
 44
1.0
1001
ACAD
1000
MTEXTBEGIN
1070
    73
1070
     1
1070
    44
1040
1.0
1070
    74
1070
     0
1000
MTEXTEND
  0
POINT
  5
7CE
330
7C6
100
AcDbEntity
  8
DEFPOINTS
 62
     0
100
AcDbPoint
 10
23889.07571884765
 20
6523.25276315571
 30
0.0
  0
POINT
  5
7CF
330
7C6
100
AcDbEntity
  8
DEFPOINTS
 62
     0
100
AcDbPoint
 10
23939.07571884875
 20
6523.25276315571
 30
0.0
  0
POINT
  5
7D0
330
7C6
100
AcDbEntity
  8
DEFPOINTS
 62
     0
100
AcDbPoint
 10
23939.07571884875
 20
6455.758535189706
 30
0.0
  0
ENDBLK
  5
7D1
330
7C6
100
AcDbEntity
  8
0
 62
     0
100
AcDbBlockEnd
  0
BLOCK
  5
7D3
330
7D2
100
AcDbEntity
  8
0
 62
     0
100
AcDbBlockBegin
  2
*D20
 70
     1
 10
0.0
 20
0.0
 30
0.0
  3
*D20
  1

  0
LINE
  5
7D4
330
7D2
100
AcDbEntity
  8
AM_5
  6
ByBlock
100
AcDbLine
 10
23461.07571883
 20
6288.51910655085
 30
0.0
 11
23396.29320847072
 21
6288.51910655085
 31
0.0
  0
LINE
  5
7D5
330
7D2
100
AcDbEntity
  8
AM_5
  6
ByBlock
100
AcDbLine
 10
23461.07571883
 20
6204.519106550936
 30
0.0
 11
23396.29320847072
 21
6204.519106550936
 31
0.0
  0
LINE
  5
7D6
330
7D2
100
AcDbEntity
  8
AM_5
  6
ByBlock
100
AcDbLine
 10
23401.29320847073
 20
6271.019106550849
 30
0.0
 11
23401.29320847073
 21
6222.019106550935
 31
0.0
  0
SOLID
  5
7D7
330
7D2
100
AcDbEntity
  8
AM_5
100
AcDbTrace
 10
23398.37654180406
 20
6271.019106550849
 30
0.0
 11
23404.20987513739
 21
6271.019106550849
 31
0.0
 12
23401.29320847073
 22
6288.51910655085
 32
0.0
 13
23401.29320847073
 23
6288.51910655085
 33
0.0
  0
SOLID
  5
7D8
330
7D2
100
AcDbEntity
  8
AM_5
100
AcDbTrace
 10
23398.37654180406
 20
6222.019106550935
 30
0.0
 11
23404.20987513739
 21
6222.019106550935
 31
0.0
 12
23401.29320847073
 22
6204.519106550936
 32
0.0
 13
23401.29320847073
 23
6204.519106550936
 33
0.0
  0
MTEXT
  5
7D9
330
7D2
100
AcDbEntity
  8
AM_5
 62
     2
100
AcDbMText
 10
23385.04320847072
 20
6245.364204906387
 30
0.0
 40
17.5
 41
0.0
 71
     5
 72
     1
  1
84
 11
0.0000000000000001
 21
1.0
 31
0.0
 73
     1
 44
1.0
1001
ACAD
1000
MTEXTBEGIN
1070
    73
1070
     1
1070
    44
1040
1.0
1070
    74
1070
     0
1000
MTEXTEND
  0
POINT
  5
7DA
330
7D2
100
AcDbEntity
  8
DEFPOINTS
 62
     0
100
AcDbPoint
 10
23466.07571883
 20
6288.51910655085
 30
0.0
  0
POINT
  5
7DB
330
7D2
100
AcDbEntity
  8
DEFPOINTS
 62
     0
100
AcDbPoint
 10
23466.07571883
 20
6204.519106550936
 30
0.0
  0
POINT
  5
7DC
330
7D2
100
AcDbEntity
  8
DEFPOINTS
 62
     0
100
AcDbPoint
 10
23401.29320847073
 20
6204.519106550936
 30
0.0
  0
ENDBLK
  5
7DD
330
7D2
100
AcDbEntity
  8
0
 62
     0
100
AcDbBlockEnd
  0
BLOCK
  5
7DF
330
7DE
100
AcDbEntity
  8
0
 62
     0
100
AcDbBlockBegin
  2
*D21
 70
     1
 10
0.0
 20
0.0
 30
0.0
  3
*D21
  1

  0
LINE
  5
7E0
330
7DE
100
AcDbEntity
  8
AM_5
  6
ByBlock
100
AcDbLine
 10
23429.07571883
 20
6318.519106550846
 30
0.0
 11
23349.23714896195
 21
6318.519106550846
 31
0.0
  0
LINE
  5
7E1
330
7DE
100
AcDbEntity
  8
AM_5
  6
ByBlock
100
AcDbLine
 10
23429.07571883
 20
6174.519106550821
 30
0.0
 11
23349.23714896195
 21
6174.519106550821
 31
0.0
  0
LINE
  5
7E2
330
7DE
100
AcDbEntity
  8
AM_5
  6
ByBlock
100
AcDbLine
 10
23354.23714896195
 20
6301.019106550846
 30
0.0
 11
23354.23714896195
 21
6192.01910655082
 31
0.0
  0
SOLID
  5
7E3
330
7DE
100
AcDbEntity
  8
AM_5
100
AcDbTrace
 10
23351.32048229529
 20
6301.019106550846
 30
0.0
 11
23357.15381562862
 21
6301.019106550846
 31
0.0
 12
23354.23714896195
 22
6318.519106550846
 32
0.0
 13
23354.23714896195
 23
6318.519106550846
 33
0.0
  0
SOLID
  5
7E4
330
7DE
100
AcDbEntity
  8
AM_5
100
AcDbTrace
 10
23351.32048229529
 20
6192.01910655082
 30
0.0
 11
23357.15381562862
 21
6192.01910655082
 31
0.0
 12
23354.23714896195
 22
6174.519106550821
 32
0.0
 13
23354.23714896195
 23
6174.519106550821
 33
0.0
  0
MTEXT
  5
7E5
330
7DE
100
AcDbEntity
  8
AM_5
 62
     2
100
AcDbMText
 10
23337.98714896195
 20
6246.519106550834
 30
0.0
 40
17.5
 41
0.0
 71
     5
 72
     1
  1
144
 11
0.0000000000000001
 21
1.0
 31
0.0
 73
     1
 44
1.0
1001
ACAD
1000
MTEXTBEGIN
1070
    73
1070
     1
1070
    44
1040
1.0
1070
    74
1070
     0
1000
MTEXTEND
  0
POINT
  5
7E6
330
7DE
100
AcDbEntity
  8
DEFPOINTS
 62
     0
100
AcDbPoint
 10
23434.07571883
 20
6318.519106550846
 30
0.0
  0
POINT
  5
7E7
330
7DE
100
AcDbEntity
  8
DEFPOINTS
 62
     0
100
AcDbPoint
 10
23434.07571883
 20
6174.519106550821
 30
0.0
  0
POINT
  5
7E8
330
7DE
100
AcDbEntity
  8
DEFPOINTS
 62
     0
100
AcDbPoint
 10
23354.23714896195
 20
6174.519106550821
 30
0.0
  0
ENDBLK
  5
7E9
330
7DE
100
AcDbEntity
  8
0
 62
     0
100
AcDbBlockEnd
  0
BLOCK
  5
8CD
330
8CC
100
AcDbEntity
  8
0
100
AcDbBlockBegin
  2
*D22
 70
     1
 10
0.0
 20
0.0
 30
0.0
  3
*D22
  1

  0
LINE
  5
CFC
330
8CC
100
AcDbEntity
  8
AM_5
  6
ByBlock
100
AcDbLine
 10
133.963570808879
 20
185.9174907359538
 30
0.0
 11
133.963570808879
 21
69.04679425259383
 31
0.0
  0
LINE
  5
CFD
330
8CC
100
AcDbEntity
  8
AM_5
  6
ByBlock
100
AcDbLine
 10
1033.963570808879
 20
185.9174907359538
 30
0.0
 11
1033.963570808879
 21
69.04679425259383
 31
0.0
  0
LINE
  5
CFE
330
8CC
100
AcDbEntity
  8
AM_5
  6
ByBlock
100
AcDbLine
 10
151.463570808879
 20
74.04679425259383
 30
0.0
 11
1016.463570808879
 21
74.04679425259383
 31
0.0
  0
SOLID
  5
CFF
330
8CC
100
AcDbEntity
  8
AM_5
100
AcDbTrace
 10
151.463570808879
 20
76.9634609192605
 30
0.0
 11
151.463570808879
 21
71.13012758592716
 31
0.0
 12
133.963570808879
 22
74.04679425259383
 32
0.0
 13
133.963570808879
 23
74.04679425259383
 33
0.0
  0
SOLID
  5
D00
330
8CC
100
AcDbEntity
  8
AM_5
100
AcDbTrace
 10
1016.463570808879
 20
76.9634609192605
 30
0.0
 11
1016.463570808879
 21
71.13012758592716
 31
0.0
 12
1033.963570808879
 22
74.04679425259383
 32
0.0
 13
1033.963570808879
 23
74.04679425259383
 33
0.0
  0
MTEXT
  5
D01
330
8CC
100
AcDbEntity
  8
AM_5
 62
     2
100
AcDbMText
 10
583.963570808879
 20
90.29679425259384
 30
0.0
 40
17.5
 41
0.0
 71
     5
 72
     1
  1
900
 73
     1
 44
1.0
1001
ACAD
1000
MTEXTBEGIN
1070
    73
1070
     1
1070
    44
1040
1.0
1070
    74
1070
     0
1000
MTEXTEND
  0
POINT
  5
D02
330
8CC
100
AcDbEntity
  8
DEFPOINTS
 62
     0
100
AcDbPoint
 10
133.963570808879
 20
190.9174907359538
 30
0.0
  0
POINT
  5
D03
330
8CC
100
AcDbEntity
  8
DEFPOINTS
 62
     0
100
AcDbPoint
 10
1033.963570808879
 20
190.9174907359538
 30
0.0
  0
POINT
  5
D04
330
8CC
100
AcDbEntity
  8
DEFPOINTS
 62
     0
100
AcDbPoint
 10
1033.963570808879
 20
74.04679425259383
 30
0.0
  0
ENDBLK
  5
8CE
330
8CC
100
AcDbEntity
  8
0
100
AcDbBlockEnd
  0
BLOCK
  5
8D9
330
8D8
100
AcDbEntity
  8
0
100
AcDbBlockBegin
  2
*D23
 70
     1
 10
0.0
 20
0.0
 30
0.0
  3
*D23
  1

  0
LINE
  5
D05
330
8D8
100
AcDbEntity
  8
AM_5
  6
ByBlock
100
AcDbLine
 10
103.963570808879
 20
154.3074907358404
 30
0.0
 11
103.963570808879
 21
0.000000247621756
 31
0.0
  0
LINE
  5
D06
330
8D8
100
AcDbEntity
  8
AM_5
  6
ByBlock
100
AcDbLine
 10
1063.963570808879
 20
154.3074907358404
 30
0.0
 11
1063.963570808879
 21
0.000000247621756
 31
0.0
  0
LINE
  5
D07
330
8D8
100
AcDbEntity
  8
AM_5
  6
ByBlock
100
AcDbLine
 10
121.463570808879
 20
5.000000247621755
 30
0.0
 11
1046.463570808879
 21
5.000000247621755
 31
0.0
  0
SOLID
  5
D08
330
8D8
100
AcDbEntity
  8
AM_5
100
AcDbTrace
 10
121.463570808879
 20
7.916666914288422
 30
0.0
 11
121.463570808879
 21
2.083333580955088
 31
0.0
 12
103.963570808879
 22
5.000000247621755
 32
0.0
 13
103.963570808879
 23
5.000000247621755
 33
0.0
  0
SOLID
  5
D09
330
8D8
100
AcDbEntity
  8
AM_5
100
AcDbTrace
 10
1046.463570808879
 20
7.916666914288422
 30
0.0
 11
1046.463570808879
 21
2.083333580955088
 31
0.0
 12
1063.963570808879
 22
5.000000247621755
 32
0.0
 13
1063.963570808879
 23
5.000000247621755
 33
0.0
  0
MTEXT
  5
D0A
330
8D8
100
AcDbEntity
  8
AM_5
 62
     2
100
AcDbMText
 10
582.7905415380662
 20
21.25000024762176
 30
0.0
 40
17.5
 41
0.0
 71
     5
 72
     1
  1
960
 73
     1
 44
1.0
1001
ACAD
1000
MTEXTBEGIN
1070
    73
1070
     1
1070
    44
1040
1.0
1070
    74
1070
     0
1000
MTEXTEND
  0
POINT
  5
D0B
330
8D8
100
AcDbEntity
  8
DEFPOINTS
 62
     0
100
AcDbPoint
 10
103.963570808879
 20
159.3074907358404
 30
0.0
  0
POINT
  5
D0C
330
8D8
100
AcDbEntity
  8
DEFPOINTS
 62
     0
100
AcDbPoint
 10
1063.963570808879
 20
159.3074907358404
 30
0.0
  0
POINT
  5
D0D
330
8D8
100
AcDbEntity
  8
DEFPOINTS
 62
     0
100
AcDbPoint
 10
1063.963570808879
 20
5.000000247621755
 30
0.0
  0
ENDBLK
  5
8DA
330
8D8
100
AcDbEntity
  8
0
100
AcDbBlockEnd
  0
BLOCK
  5
8E5
330
8E4
100
AcDbEntity
  8
0
100
AcDbBlockBegin
  2
*D24
 70
     1
 10
0.0
 20
0.0
 30
0.0
  3
*D24
  1

  0
LINE
  5
D0E
330
8E4
100
AcDbEntity
  8
AM_5
  6
ByBlock
100
AcDbLine
 10
129.963570808879
 20
601.7194910463257
 30
0.0
 11
69.96357080887896
 21
601.7194910463257
 31
0.0
  0
LINE
  5
D0F
330
8E4
100
AcDbEntity
  8
AM_5
  6
ByBlock
100
AcDbLine
 10
129.963570808879
 20
675.7194910463247
 30
0.0
 11
69.963570808879
 21
675.7194910463247
 31
0.0
  0
LINE
  5
D10
330
8E4
100
AcDbEntity
  8
AM_5
  6
ByBlock
100
AcDbLine
 10
74.963570808879
 20
619.2194910463257
 30
0.0
 11
74.963570808879
 21
658.2194910463247
 31
0.0
  0
SOLID
  5
D11
330
8E4
100
AcDbEntity
  8
AM_5
100
AcDbTrace
 10
72.04690414221231
 20
619.2194910463257
 30
0.0
 11
77.88023747554567
 21
619.2194910463257
 31
0.0
 12
74.96357080887898
 22
601.7194910463257
 32
0.0
 13
74.96357080887898
 23
601.7194910463257
 33
0.0
  0
SOLID
  5
D12
330
8E4
100
AcDbEntity
  8
AM_5
100
AcDbTrace
 10
72.04690414221231
 20
658.2194910463247
 30
0.0
 11
77.88023747554567
 21
658.2194910463247
 31
0.0
 12
74.96357080887901
 22
675.7194910463247
 32
0.0
 13
74.96357080887901
 23
675.7194910463247
 33
0.0
  0
MTEXT
  5
D13
330
8E4
100
AcDbEntity
  8
AM_5
 62
     2
100
AcDbMText
 10
58.71357080887889
 20
638.7194910463251
 30
0.0
 40
17.5
 41
0.0
 71
     5
 72
     1
  1
74
 11
0.0000000000000001
 21
1.0
 31
0.0
 73
     1
 44
1.0
1001
ACAD
1000
MTEXTBEGIN
1070
    73
1070
     1
1070
    44
1040
1.0
1070
    74
1070
     0
1000
MTEXTEND
  0
POINT
  5
D14
330
8E4
100
AcDbEntity
  8
DEFPOINTS
 62
     0
100
AcDbPoint
 10
134.963570808879
 20
601.7194910463257
 30
0.0
  0
POINT
  5
D15
330
8E4
100
AcDbEntity
  8
DEFPOINTS
 62
     0
100
AcDbPoint
 10
134.963570808879
 20
675.7194910463247
 30
0.0
  0
POINT
  5
D16
330
8E4
100
AcDbEntity
  8
DEFPOINTS
 62
     0
100
AcDbPoint
 10
74.96357080887901
 20
675.7194910463247
 30
0.0
  0
ENDBLK
  5
8E6
330
8E4
100
AcDbEntity
  8
0
100
AcDbBlockEnd
  0
BLOCK
  5
8F1
330
8F0
100
AcDbEntity
  8
0
100
AcDbBlockBegin
  2
*D25
 70
     1
 10
0.0
 20
0.0
 30
0.0
  3
*D25
  1

  0
LINE
  5
E3E
330
8F0
100
AcDbEntity
  8
AM_5
  6
ByBlock
100
AcDbLine
 10
558.9635708268538
 20
507.937176892404
 30
0.0
 11
558.9635708268538
 21
435.5469193747248
 31
0.0
  0
LINE
  5
E3F
330
8F0
100
AcDbEntity
  8
AM_5
  6
ByBlock
100
AcDbLine
 10
608.9635708189056
 20
507.9371768494793
 30
0.0
 11
608.9635708189056
 21
435.5469193747248
 31
0.0
  0
LINE
  5
E40
330
8F0
100
AcDbEntity
  8
AM_5
  6
ByBlock
100
AcDbLine
 10
541.4635708268538
 20
440.5469193747249
 30
0.0
 11
523.9635708268537
 21
440.5469193747249
 31
0.0
  0
LINE
  5
E41
330
8F0
100
AcDbEntity
  8
AM_5
  6
ByBlock
100
AcDbLine
 10
626.4635708189056
 20
440.5469193747249
 30
0.0
 11
643.9635708189056
 21
440.5469193747249
 31
0.0
  0
LINE
  5
E42
330
8F0
100
AcDbEntity
  8
AM_5
  6
ByBlock
100
AcDbLine
 10
558.9635708268538
 20
440.5469193747249
 30
0.0
 11
608.9635708189056
 21
440.5469193747249
 31
0.0
  0
SOLID
  5
E43
330
8F0
100
AcDbEntity
  8
AM_5
100
AcDbTrace
 10
541.4635708268538
 20
443.4635860413916
 30
0.0
 11
541.4635708268538
 21
437.6302527080581
 31
0.0
 12
558.9635708268538
 22
440.5469193747249
 32
0.0
 13
558.9635708268538
 23
440.5469193747249
 33
0.0
  0
SOLID
  5
E44
330
8F0
100
AcDbEntity
  8
AM_5
100
AcDbTrace
 10
626.4635708189056
 20
443.4635860413916
 30
0.0
 11
626.4635708189056
 21
437.6302527080581
 31
0.0
 12
608.9635708189056
 22
440.5469193747249
 32
0.0
 13
608.9635708189056
 23
440.5469193747249
 33
0.0
  0
MTEXT
  5
E45
330
8F0
100
AcDbEntity
  8
AM_5
 62
     2
100
AcDbMText
 10
583.9635708228797
 20
456.7969193747249
 30
0.0
 40
17.5
 41
0.0
 71
     5
 72
     1
  1
%%c50
 73
     1
 44
1.0
1001
ACAD
1000
MTEXTBEGIN
1070
    73
1070
     1
1070
    44
1040
1.0
1070
    74
1070
     0
1000
MTEXTEND
  0
POINT
  5
E46
330
8F0
100
AcDbEntity
  8
DEFPOINTS
 62
     0
100
AcDbPoint
 10
558.9635708268538
 20
512.937176892404
 30
0.0
  0
POINT
  5
E47
330
8F0
100
AcDbEntity
  8
DEFPOINTS
 62
     0
100
AcDbPoint
 10
608.9635708189056
 20
512.9371768494793
 30
0.0
  0
POINT
  5
E48
330
8F0
100
AcDbEntity
  8
DEFPOINTS
 62
     0
100
AcDbPoint
 10
608.9635708189056
 20
440.5469193747249
 30
0.0
  0
ENDBLK
  5
8F2
330
8F0
100
AcDbEntity
  8
0
100
AcDbBlockEnd
  0
BLOCK
  5
8FD
330
8FC
100
AcDbEntity
  8
0
100
AcDbBlockBegin
  2
*D26
 70
     1
 10
0.0
 20
0.0
 30
0.0
  3
*D26
  1

  0
LINE
  5
D60
330
8FC
100
AcDbEntity
  8
AM_5
  6
ByBlock
100
AcDbLine
 10
130.963570808879
 20
271.2974907358712
 30
0.0
 11
66.18106044960955
 21
271.2974907358713
 31
0.0
  0
LINE
  5
D61
330
8FC
100
AcDbEntity
  8
AM_5
  6
ByBlock
100
AcDbLine
 10
130.963570808879
 20
189.3074907359551
 30
0.0
 11
66.18106044960953
 21
189.3074907359551
 31
0.0
  0
LINE
  5
D62
330
8FC
100
AcDbEntity
  8
AM_5
  6
ByBlock
100
AcDbLine
 10
71.18106044960955
 20
253.7974907358712
 30
0.0
 11
71.18106044960953
 21
206.8074907359551
 31
0.0
  0
SOLID
  5
D63
330
8FC
100
AcDbEntity
  8
AM_5
100
AcDbTrace
 10
68.26439378294288
 20
253.7974907358712
 30
0.0
 11
74.09772711627621
 21
253.7974907358712
 31
0.0
 12
71.18106044960955
 22
271.2974907358713
 32
0.0
 13
71.18106044960955
 23
271.2974907358713
 33
0.0
  0
SOLID
  5
D64
330
8FC
100
AcDbEntity
  8
AM_5
100
AcDbTrace
 10
68.26439378294286
 20
206.8074907359551
 30
0.0
 11
74.09772711627621
 21
206.8074907359551
 31
0.0
 12
71.18106044960953
 22
189.3074907359551
 32
0.0
 13
71.18106044960953
 23
189.3074907359551
 33
0.0
  0
MTEXT
  5
D65
330
8FC
100
AcDbEntity
  8
AM_5
 62
     2
100
AcDbMText
 10
54.92933800866461
 20
230.1525890914054
 30
0.0
 40
17.5
 41
0.0
 71
     5
 72
     1
  1
82
 11
0.0000000000000001
 21
1.0
 31
0.0
 73
     1
 44
1.0
1001
ACAD
1000
MTEXTBEGIN
1070
    73
1070
     1
1070
    44
1040
1.0
1070
    74
1070
     0
1000
MTEXTEND
  0
POINT
  5
D66
330
8FC
100
AcDbEntity
  8
DEFPOINTS
 62
     0
100
AcDbPoint
 10
135.963570808879
 20
271.2974907358712
 30
0.0
  0
POINT
  5
D67
330
8FC
100
AcDbEntity
  8
DEFPOINTS
 62
     0
100
AcDbPoint
 10
135.963570808879
 20
189.3074907359551
 30
0.0
  0
POINT
  5
D68
330
8FC
100
AcDbEntity
  8
DEFPOINTS
 62
     0
100
AcDbPoint
 10
71.18106044960953
 20
189.3074907359551
 30
0.0
  0
ENDBLK
  5
8FE
330
8FC
100
AcDbEntity
  8
0
100
AcDbBlockEnd
  0
BLOCK
  5
909
330
908
100
AcDbEntity
  8
0
100
AcDbBlockBegin
  2
*D27
 70
     1
 10
0.0
 20
0.0
 30
0.0
  3
*D27
  1

  0
LINE
  5
D29
330
908
100
AcDbEntity
  8
AM_5
  6
ByBlock
100
AcDbLine
 10
98.963570808879
 20
292.2974907358712
 30
0.0
 11
19.12500094082504
 21
292.2974907358712
 31
0.0
  0
LINE
  5
D2A
330
908
100
AcDbEntity
  8
AM_5
  6
ByBlock
100
AcDbLine
 10
98.963570808879
 20
159.3074907358404
 30
0.0
 11
19.12500094082499
 21
159.3074907358404
 31
0.0
  0
LINE
  5
D2B
330
908
100
AcDbEntity
  8
AM_5
  6
ByBlock
100
AcDbLine
 10
24.12500094082503
 20
274.7974907358712
 30
0.0
 11
24.12500094082501
 21
176.8074907358404
 31
0.0
  0
SOLID
  5
D2C
330
908
100
AcDbEntity
  8
AM_5
100
AcDbTrace
 10
21.20833427415836
 20
274.7974907358712
 30
0.0
 11
27.0416676074917
 21
274.7974907358712
 31
0.0
 12
24.12500094082503
 22
292.2974907358712
 32
0.0
 13
24.12500094082503
 23
292.2974907358712
 33
0.0
  0
SOLID
  5
D2D
330
908
100
AcDbEntity
  8
AM_5
100
AcDbTrace
 10
21.20833427415834
 20
176.8074907358404
 30
0.0
 11
27.04166760749167
 21
176.8074907358404
 31
0.0
 12
24.125000940825
 22
159.3074907358404
 32
0.0
 13
24.125000940825
 23
159.3074907358404
 33
0.0
  0
MTEXT
  5
D2E
330
908
100
AcDbEntity
  8
AM_5
 62
     2
100
AcDbMText
 10
7.875000940824982
 20
231.3074907358523
 30
0.0
 40
17.5
 41
0.0
 71
     5
 72
     1
  1
133
 11
0.0000000000000001
 21
1.0
 31
0.0
 73
     1
 44
1.0
1001
ACAD
1000
MTEXTBEGIN
1070
    73
1070
     1
1070
    44
1040
1.0
1070
    74
1070
     0
1000
MTEXTEND
  0
POINT
  5
D2F
330
908
100
AcDbEntity
  8
DEFPOINTS
 62
     0
100
AcDbPoint
 10
103.963570808879
 20
292.2974907358712
 30
0.0
  0
POINT
  5
D30
330
908
100
AcDbEntity
  8
DEFPOINTS
 62
     0
100
AcDbPoint
 10
103.963570808879
 20
159.3074907358404
 30
0.0
  0
POINT
  5
D31
330
908
100
AcDbEntity
  8
DEFPOINTS
 62
     0
100
AcDbPoint
 10
24.125000940825
 20
159.3074907358404
 30
0.0
  0
ENDBLK
  5
90A
330
908
100
AcDbEntity
  8
0
100
AcDbBlockEnd
  0
BLOCK
  5
A29
330
A28
100
AcDbEntity
  8
0
100
AcDbBlockBegin
  2
*D28
 70
     1
 10
0.0
 20
0.0
 30
0.0
  3
*D28
  1

  0
LINE
  5
D32
330
A28
100
AcDbEntity
  8
AM_5
  6
ByBlock
100
AcDbLine
 10
1068.963570808879
 20
715.7194910463249
 30
0.0
 11
1137.619063065072
 21
715.7194910463249
 31
0.0
  0
LINE
  5
D33
330
A28
100
AcDbEntity
  8
AM_5
  6
ByBlock
100
AcDbLine
 10
1036.963570808879
 20
675.7194910463247
 30
0.0
 11
1137.619063065072
 21
675.7194910463247
 31
0.0
  0
LINE
  5
D34
330
A28
100
AcDbEntity
  8
AM_5
  6
ByBlock
100
AcDbLine
 10
1132.619063065072
 20
733.219491046325
 30
0.0
 11
1132.619063065072
 21
750.7194910463249
 31
0.0
  0
LINE
  5
D35
330
A28
100
AcDbEntity
  8
AM_5
  6
ByBlock
100
AcDbLine
 10
1132.619063065072
 20
658.2194910463247
 30
0.0
 11
1132.619063065072
 21
640.7194910463247
 31
0.0
  0
LINE
  5
D36
330
A28
100
AcDbEntity
  8
AM_5
  6
ByBlock
100
AcDbLine
 10
1132.619063065072
 20
715.7194910463249
 30
0.0
 11
1132.619063065072
 21
675.7194910463247
 31
0.0
  0
SOLID
  5
D37
330
A28
100
AcDbEntity
  8
AM_5
100
AcDbTrace
 10
1129.702396398405
 20
733.219491046325
 30
0.0
 11
1135.535729731738
 21
733.219491046325
 31
0.0
 12
1132.619063065072
 22
715.7194910463249
 32
0.0
 13
1132.619063065072
 23
715.7194910463249
 33
0.0
  0
SOLID
  5
D38
330
A28
100
AcDbEntity
  8
AM_5
100
AcDbTrace
 10
1129.702396398405
 20
658.2194910463247
 30
0.0
 11
1135.535729731738
 21
658.2194910463247
 31
0.0
 12
1132.619063065072
 22
675.7194910463247
 32
0.0
 13
1132.619063065072
 23
675.7194910463247
 33
0.0
  0
MTEXT
  5
D39
330
A28
100
AcDbEntity
  8
AM_5
 62
     2
100
AcDbMText
 10
1116.369063065071
 20
695.719491046325
 30
0.0
 40
17.5
 41
0.0
 71
     5
 72
     1
  1
40
 11
0.0000000000000001
 21
1.0
 31
0.0
 73
     1
 44
1.0
1001
ACAD
1000
MTEXTBEGIN
1070
    73
1070
     1
1070
    44
1040
1.0
1070
    74
1070
     0
1000
MTEXTEND
  0
POINT
  5
D3A
330
A28
100
AcDbEntity
  8
DEFPOINTS
 62
     0
100
AcDbPoint
 10
1063.963570808879
 20
715.7194910463249
 30
0.0
  0
POINT
  5
D3B
330
A28
100
AcDbEntity
  8
DEFPOINTS
 62
     0
100
AcDbPoint
 10
1031.963570808879
 20
675.7194910463247
 30
0.0
  0
POINT
  5
D3C
330
A28
100
AcDbEntity
  8
DEFPOINTS
 62
     0
100
AcDbPoint
 10
1132.619063065072
 20
675.7194910463247
 30
0.0
  0
ENDBLK
  5
A2A
330
A28
100
AcDbEntity
  8
0
100
AcDbBlockEnd
  0
BLOCK
  5
A65
330
A64
100
AcDbEntity
  8
0
100
AcDbBlockBegin
  2
*D29
 70
     1
 10
0.0
 20
0.0
 30
0.0
  3
*D29
  1

  0
LINE
  5
D3D
330
A64
100
AcDbEntity
  8
AM_5
  6
ByBlock
100
AcDbLine
 10
1036.963570808879
 20
271.2974907358712
 30
0.0
 11
1127.96812091511
 21
271.2974907358712
 31
0.0
  0
LINE
  5
D3E
330
A64
100
AcDbEntity
  8
AM_5
  6
ByBlock
100
AcDbLine
 10
1068.963570808879
 20
291.2974907358712
 30
0.0
 11
1127.96812091511
 21
291.2974907358712
 31
0.0
  0
LINE
  5
D3F
330
A64
100
AcDbEntity
  8
AM_5
  6
ByBlock
100
AcDbLine
 10
1122.96812091511
 20
308.7974907358712
 30
0.0
 11
1122.96812091511
 21
326.2974907358712
 31
0.0
  0
LINE
  5
D40
330
A64
100
AcDbEntity
  8
AM_5
  6
ByBlock
100
AcDbLine
 10
1122.96812091511
 20
253.7974907358711
 30
0.0
 11
1122.96812091511
 21
201.5893214445326
 31
0.0
  0
LINE
  5
D41
330
A64
100
AcDbEntity
  8
AM_5
  6
ByBlock
100
AcDbLine
 10
1122.96812091511
 20
291.2974907358712
 30
0.0
 11
1122.96812091511
 21
271.2974907358712
 31
0.0
  0
SOLID
  5
D42
330
A64
100
AcDbEntity
  8
AM_5
100
AcDbTrace
 10
1120.051454248443
 20
308.7974907358712
 30
0.0
 11
1125.884787581776
 21
308.7974907358712
 31
0.0
 12
1122.96812091511
 22
291.2974907358712
 32
0.0
 13
1122.96812091511
 23
291.2974907358712
 33
0.0
  0
SOLID
  5
D43
330
A64
100
AcDbEntity
  8
AM_5
100
AcDbTrace
 10
1120.051454248443
 20
253.7974907358711
 30
0.0
 11
1125.884787581776
 21
253.7974907358711
 31
0.0
 12
1122.96812091511
 22
271.2974907358712
 32
0.0
 13
1122.96812091511
 23
271.2974907358712
 33
0.0
  0
MTEXT
  5
D44
330
A64
100
AcDbEntity
  8
AM_5
 62
     2
100
AcDbMText
 10
1106.716398474165
 20
218.9434060902021
 30
0.0
 40
17.5
 41
0.0
 71
     5
 72
     1
  1
20
 11
0.0000000000000001
 21
1.0
 31
0.0
 73
     1
 44
1.0
1001
ACAD
1000
MTEXTBEGIN
1070
    73
1070
     1
1070
    44
1040
1.0
1070
    74
1070
     0
1000
MTEXTEND
  0
POINT
  5
D45
330
A64
100
AcDbEntity
  8
DEFPOINTS
 62
     0
100
AcDbPoint
 10
1031.963570808879
 20
271.2974907358712
 30
0.0
  0
POINT
  5
D46
330
A64
100
AcDbEntity
  8
DEFPOINTS
 62
     0
100
AcDbPoint
 10
1063.963570808879
 20
291.2974907358712
 30
0.0
  0
POINT
  5
D47
330
A64
100
AcDbEntity
  8
DEFPOINTS
 62
     0
100
AcDbPoint
 10
1122.96812091511
 20
291.2974907358712
 30
0.0
  0
ENDBLK
  5
A66
330
A64
100
AcDbEntity
  8
0
100
AcDbBlockEnd
  0
ENDSEC
  0
SECTION
  2
ENTITIES
  0
LINE
  5
85E
330
1F
100
AcDbEntity
  8
RUNDUNGEN
  6
Continuous
 62
     7
100
AcDbLine
 10
135.963570808879
 20
656.0411473407294
 30
0.0
 11
135.963570808879
 21
661.7194910463259
 31
0.0
  0
LINE
  5
85F
330
1F
100
AcDbEntity
  8
RUNDUNGEN
  6
Continuous
 62
     7
100
AcDbLine
 10
135.963570808879
 20
662.7194910463257
 30
0.0
 11
135.963570808879
 21
675.7194910463247
 31
0.0
  0
LINE
  5
860
330
1F
100
AcDbEntity
  8
RUNDUNGEN
  6
Continuous
 62
     7
100
AcDbLine
 10
135.963570808879
 20
675.7194910463247
 30
0.0
 11
1031.963570808879
 21
675.7194910463247
 31
0.0
  0
LINE
  5
861
330
1F
100
AcDbEntity
  8
0
  6
Continuous
 62
     7
100
AcDbLine
 10
1063.963570808879
 20
662.719491046324
 30
0.0
 11
134.963570808879
 21
662.7194910463257
 31
0.0
  0
LINE
  5
862
330
1F
100
AcDbEntity
  8
0
  6
Continuous
 62
     7
100
AcDbLine
 10
1063.963570808879
 20
661.7194910463259
 30
0.0
 11
134.963570808879
 21
661.7194910463259
 31
0.0
  0
LINE
  5
863
330
1F
100
AcDbEntity
  8
RUNDUNGEN
  6
Continuous
 62
     9
100
AcDbLine
 10
135.963570808879
 20
659.6434328241265
 30
0.0
 11
1031.963570808879
 21
659.6434328241257
 31
0.0
  0
LINE
  5
864
330
1F
100
AcDbEntity
  8
RUNDUNGEN
  6
Continuous
 62
     7
100
AcDbLine
 10
1031.963570808879
 20
656.0411473407266
 30
0.0
 11
622.4351217336772
 21
656.0411473407294
 31
0.0
  0
LINE
  5
865
330
1F
100
AcDbEntity
  8
RUNDUNGEN
  6
Continuous
 62
     7
100
AcDbLine
 10
545.4920198840881
 20
656.0411473407294
 30
0.0
 11
135.963570808879
 21
656.0411473407294
 31
0.0
  0
LINE
  5
866
102
{ACAD_REACTORS
330
A35
102
}
330
1F
100
AcDbEntity
  8
RUNDUNGEN
  6
Continuous
 62
     7
100
AcDbLine
 10
1031.963570808879
 20
675.7194910463247
 30
0.0
 11
1031.963570808879
 21
662.7194910463257
 31
0.0
  0
LINE
  5
867
330
1F
100
AcDbEntity
  8
RUNDUNGEN
  6
Continuous
 62
     7
100
AcDbLine
 10
1031.963570808879
 20
661.7194910463259
 30
0.0
 11
1031.963570808879
 21
656.0411473407246
 31
0.0
  0
LINE
  5
868
330
1F
100
AcDbEntity
  8
RUNDUNGEN
  6
Continuous
 62
     7
100
AcDbLine
 10
135.963570808879
 20
159.3074907358404
 30
0.0
 11
135.963570808879
 21
291.2974907358712
 31
0.0
  0
LINE
  5
869
330
1F
100
AcDbEntity
  8
0
  6
Continuous
 62
     7
100
AcDbLine
 10
1031.963570808879
 20
292.2974907358749
 30
0.0
 11
135.963570808879
 21
292.2974907358712
 31
0.0
  0
LINE
  5
86B
102
{ACAD_REACTORS
330
A71
102
}
330
1F
100
AcDbEntity
  8
RUNDUNGEN
  6
Continuous
 62
     7
100
AcDbLine
 10
135.963570808879
 20
271.2974907358712
 30
0.0
 11
1031.963570808879
 21
271.2974907358712
 31
0.0
  0
LINE
  5
86C
330
1F
100
AcDbEntity
  8
RUNDUNGEN
  6
Continuous
 62
     7
100
AcDbLine
 10
135.963570808879
 20
231.3074907358559
 30
0.0
 11
545.9637956947772
 21
231.3074907362534
 31
0.0
  0
LINE
  5
86D
330
1F
100
AcDbEntity
  8
RUNDUNGEN
  6
Continuous
 62
     7
100
AcDbLine
 10
621.463570808879
 20
231.307490735453
 30
0.0
 11
1031.963570808879
 21
231.3074907361161
 31
0.0
  0
LINE
  5
86E
330
1F
100
AcDbEntity
  8
RUNDUNGEN
  6
Continuous
 62
     7
100
AcDbLine
 10
135.963570808879
 20
191.3174907359544
 30
0.0
 11
1031.963570808879
 21
191.3174907359544
 31
0.0
  0
LINE
  5
86F
330
1F
100
AcDbEntity
  8
RUNDUNGEN
  6
Continuous
 62
     7
100
AcDbLine
 10
135.963570808879
 20
189.3074907359551
 30
0.0
 11
1031.963570808879
 21
189.3074907359505
 31
0.0
  0
LINE
  5
870
330
1F
100
AcDbEntity
  8
0
  6
Continuous
 62
     7
100
AcDbLine
 10
1031.963570808879
 20
159.3074907358404
 30
0.0
 11
135.963570808879
 21
159.3074907358404
 31
0.0
  0
LINE
  5
871
330
1F
100
AcDbEntity
  8
RUNDUNGEN
  6
Continuous
 62
     7
100
AcDbLine
 10
1031.963570808879
 20
291.2974907358749
 30
0.0
 11
1031.963570808879
 21
159.3074907358404
 31
0.0
  0
LINE
  5
872
330
1F
100
AcDbEntity
  8
RUNDUNGEN
  6
Continuous
 62
     7
100
AcDbLine
 10
546.4778303072744
 20
231.3074907296541
 30
0.0
 11
546.463570808879
 21
231.3074907298542
 31
0.0
  0
LINE
  5
873
330
1F
100
AcDbEntity
  8
RUNDUNGEN
  6
Continuous
 62
     7
100
AcDbLine
 10
546.463570808879
 20
231.3074907298542
 30
0.0
 11
545.9637956947772
 21
231.307490735654
 31
0.0
  0
LINE
  5
874
330
1F
100
AcDbEntity
  8
RUNDUNGEN
  6
Continuous
 62
     7
100
AcDbLine
 10
621.4493113105781
 20
231.3074907421542
 30
0.0
 11
621.463570808879
 21
231.3074907419523
 31
0.0
  0
LINE
  5
875
330
1F
100
AcDbEntity
  8
AM_7
100
AcDbLine
 10
583.963570808879
 20
617.907923647499
 30
0.0
 11
583.963570808879
 21
687.7194910463249
 31
0.0
1001
GENIUS_GENOBJ-N-CEN_13
1002
{
1000
OWNER
1000
GEN
1002
}
1001
GENIUS_GENODEF_13
1002
{
1000
HIER
1070
     0
1002
}
1002
{
1000
MANEDIT
1070
     0
1002
}
1002
{
1000
NOSEL
1070
     0
1002
}
1002
{
1000
BEHIND
1070
     0
1002
}
1002
{
1000
OTHER
1070
     0
1002
}
1002
{
1000
REACTOR
1002
}
1001
GENIUS_GENCEN_19
1002
{
1040
12.0
1002
}
  0
LINE
  5
876
330
1F
100
AcDbEntity
  8
0
100
AcDbLine
 10
1031.963570808879
 20
291.2974907358749
 30
0.0
 11
1031.963570808879
 21
159.3074907358404
 31
0.0
  0
LINE
  5
877
330
1F
100
AcDbEntity
  8
0
100
AcDbLine
 10
135.963570808879
 20
159.3074907358404
 30
0.0
 11
135.963570808879
 21
291.2974907358712
 31
0.0
  0
LINE
  5
878
330
1F
100
AcDbEntity
  8
0
100
AcDbLine
 10
546.4916035328168
 20
655.0700009223856
 30
0.0
 11
546.963570808879
 21
638.7194910463257
 31
0.0
  0
ARC
  5
879
330
1F
100
AcDbEntity
  8
0
100
AcDbCircle
 10
545.4920198840881
 20
655.0411473407266
 30
0.0
 40
1.0
100
AcDbArc
 50
1.653417926860603
 51
90.0
  0
LINE
  5
87A
330
1F
100
AcDbEntity
  8
0
100
AcDbLine
 10
546.963570808879
 20
638.7194910463257
 30
0.0
 11
620.9635708088788
 21
638.7194910463257
 31
0.0
  0
LINE
  5
87B
330
1F
100
AcDbEntity
  8
0
100
AcDbLine
 10
620.9635708088788
 20
638.7194910463257
 30
0.0
 11
621.4355380849265
 21
655.0700009223856
 31
0.0
  0
ARC
  5
87C
330
1F
100
AcDbEntity
  8
0
100
AcDbCircle
 10
622.4351217336772
 20
655.0411473407266
 30
0.0
 40
1.0
100
AcDbArc
 50
90.0
 51
178.3465820731394
  0
LINE
  5
87D
330
1F
100
AcDbEntity
  8
AM_7
100
AcDbLine
 10
583.963570808879
 20
231.307490740488
 30
0.0
 11
633.4635708088788
 21
231.307490740488
 31
0.0
1001
GENIUS_GENOREF_13
1005
8CB
  0
LINE
  5
87E
330
1F
100
AcDbEntity
  8
AM_7
100
AcDbLine
 10
583.963570808879
 20
231.307490740488
 30
0.0
 11
534.463570808879
 21
231.307490740488
 31
0.0
1001
GENIUS_GENOREF_13
1005
8CB
  0
ARC
  5
87F
330
1F
100
AcDbEntity
  8
0
100
AcDbCircle
 10
583.7100834272387
 20
455.1159748214266
 30
0.0
 40
204.5276150863223
100
AcDbArc
 50
89.92898875367947
 51
100.7696033285292
  0
ARC
  5
880
330
1F
100
AcDbEntity
  8
0
100
AcDbCircle
 10
584.2170581905192
 20
455.1159748214266
 30
0.0
 40
204.5276150863223
100
AcDbArc
 50
79.23039667147077
 51
90.07101124611207
  0
LINE
  5
881
330
1F
100
AcDbEntity
  8
RUNDUNGEN
  6
Continuous
 62
     7
100
AcDbLine
 10
1031.963570808879
 20
578.7194910463247
 30
0.0
 11
1031.963570808879
 21
661.7194910463259
 31
0.0
  0
LINE
  5
882
330
1F
100
AcDbEntity
  8
RUNDUNGEN
  6
Continuous
 62
     7
100
AcDbLine
 10
1031.963570808879
 20
662.7194910463257
 30
0.0
 11
1031.963570808879
 21
674.7194910463257
 31
0.0
  0
LINE
  5
883
330
1F
100
AcDbEntity
  8
0
  6
Continuous
 62
     9
100
AcDbLine
 10
1032.963570808879
 20
674.7194910463257
 30
0.0
 11
1032.963570808879
 21
663.7286947195262
 31
0.0
  0
LINE
  5
884
330
1F
100
AcDbEntity
  8
RUNDUNGEN
  6
Continuous
 62
     7
100
AcDbLine
 10
1032.963570808879
 20
601.7194910463257
 30
0.0
 11
1032.963570808879
 21
661.7194910463259
 31
0.0
  0
LINE
  5
885
330
1F
100
AcDbEntity
  8
RUNDUNGEN
  6
Continuous
 62
     7
100
AcDbLine
 10
1032.963570808879
 20
662.7194910463257
 30
0.0
 11
1032.963570808879
 21
663.7286947195262
 31
0.0
  0
LINE
  5
886
330
1F
100
AcDbEntity
  8
RUNDUNGEN
  6
Continuous
 62
     7
100
AcDbLine
 10
1033.963570808879
 20
663.7194910463257
 30
0.0
 11
1033.963570808879
 21
674.7194910463257
 31
0.0
  0
LINE
  5
887
330
1F
100
AcDbEntity
  8
0
  6
Continuous
 62
     7
100
AcDbLine
 10
1063.963570808879
 20
715.7194910463249
 30
0.0
 11
1063.963570808879
 21
661.7194910463259
 31
0.0
  0
LINE
  5
888
330
1F
100
AcDbEntity
  8
RUNDUNGEN
  6
Continuous
 62
     7
100
AcDbLine
 10
1031.963570808879
 20
645.7194910463257
 30
0.0
 11
1032.963570808879
 21
645.7194910463257
 31
0.0
  0
LINE
  5
889
330
1F
100
AcDbEntity
  8
0
  6
Continuous
 62
     7
100
AcDbLine
 10
1063.963570808879
 20
661.7194910463259
 30
0.0
 11
1032.963570808879
 21
661.7194910463259
 31
0.0
  0
LINE
  5
88A
330
1F
100
AcDbEntity
  8
RUNDUNGEN
  6
Continuous
 62
     7
100
AcDbLine
 10
1032.963570808879
 20
662.7194910463257
 30
0.0
 11
1063.963570808879
 21
662.7194910463257
 31
0.0
  0
LINE
  5
88B
330
1F
100
AcDbEntity
  8
RUNDUNGEN
  6
Continuous
 62
     7
100
AcDbLine
 10
1033.963570808879
 20
663.7194910463257
 30
0.0
 11
1032.963570808879
 21
663.7194910463257
 31
0.0
  0
LINE
  5
88C
330
1F
100
AcDbEntity
  8
RUNDUNGEN
  6
Continuous
 62
     7
100
AcDbLine
 10
1033.963570808879
 20
664.728694719527
 30
0.0
 11
1032.963570808879
 21
664.728694719527
 31
0.0
  0
LINE
  5
88D
330
1F
100
AcDbEntity
  8
RUNDUNGEN
  6
Continuous
 62
     7
100
AcDbLine
 10
1033.963570808879
 20
665.7286947195261
 30
0.0
 11
1032.963570808879
 21
665.7286947195261
 31
0.0
  0
LINE
  5
88E
330
1F
100
AcDbEntity
  8
RUNDUNGEN
  6
Continuous
 62
     7
100
AcDbLine
 10
1033.963570808879
 20
674.7194910463257
 30
0.0
 11
1031.963570808879
 21
674.7194910463257
 31
0.0
  0
ARC
  5
88F
330
1F
100
AcDbEntity
  8
0
  6
Continuous
 62
     7
100
AcDbCircle
 10
1034.963570808879
 20
663.7194910463257
 30
0.0
 40
2.0
100
AcDbArc
 50
180.0
 51
210.0383073755382
  0
ARC
  5
890
330
1F
100
AcDbEntity
  8
RUNDUNGEN
  6
Continuous
 62
     7
100
AcDbCircle
 10
1034.963570808879
 20
663.7194910463257
 30
0.0
 40
1.0
100
AcDbArc
 50
180.0
 51
270.0
  0
ARC
  5
891
330
1F
100
AcDbEntity
  8
RUNDUNGEN
  6
Continuous
 62
     7
100
AcDbCircle
 10
1032.963570808879
 20
674.7194910463257
 30
0.0
 40
1.0
100
AcDbArc
 50
0.0
 51
180.0
  0
LINE
  5
892
330
1F
100
AcDbEntity
  8
0
100
AcDbLine
 10
1031.963570808879
 20
159.3074907358404
 30
0.0
 11
1063.963570808879
 21
159.3074907358404
 31
0.0
  0
LINE
  5
893
330
1F
100
AcDbEntity
  8
0
100
AcDbLine
 10
1033.963570808879
 20
271.6974907358699
 30
0.0
 11
1033.963570808879
 21
190.9174907359538
 31
0.0
  0
LINE
  5
894
330
1F
100
AcDbEntity
  8
0
100
AcDbLine
 10
1063.963570808879
 20
159.3074907358404
 30
0.0
 11
1063.963570808879
 21
292.2974907358712
 31
0.0
  0
LINE
  5
895
330
1F
100
AcDbEntity
  8
0
100
AcDbLine
 10
1033.963570808879
 20
271.6974907358699
 30
0.0
 11
1031.963570808879
 21
271.6974907358699
 31
0.0
  0
LINE
  5
896
330
1F
100
AcDbEntity
  8
0
100
AcDbLine
 10
1031.963570808879
 20
292.2974907358712
 30
0.0
 11
1063.963570808879
 21
292.2974907358712
 31
0.0
  0
LINE
  5
897
330
1F
100
AcDbEntity
  8
0
100
AcDbLine
 10
1033.963570808879
 20
190.9174907359538
 30
0.0
 11
1031.963570808879
 21
190.9174907359538
 31
0.0
  0
LINE
  5
898
330
1F
100
AcDbEntity
  8
0
100
AcDbLine
 10
135.963570808879
 20
159.3074907358404
 30
0.0
 11
103.963570808879
 21
159.3074907358404
 31
0.0
  0
LINE
  5
899
330
1F
100
AcDbEntity
  8
0
100
AcDbLine
 10
133.963570808879
 20
271.6974907358699
 30
0.0
 11
133.963570808879
 21
190.9174907359538
 31
0.0
  0
LINE
  5
89A
330
1F
100
AcDbEntity
  8
0
100
AcDbLine
 10
103.963570808879
 20
159.3074907358404
 30
0.0
 11
103.963570808879
 21
292.2974907358712
 31
0.0
  0
LINE
  5
89B
330
1F
100
AcDbEntity
  8
0
100
AcDbLine
 10
133.9635708088681
 20
271.6974907358699
 30
0.0
 11
135.963570808879
 21
271.6974907358699
 31
0.0
  0
LINE
  5
89C
330
1F
100
AcDbEntity
  8
0
100
AcDbLine
 10
135.963570808879
 20
292.2974907358712
 30
0.0
 11
103.963570808879
 21
292.2974907358712
 31
0.0
  0
LINE
  5
89D
330
1F
100
AcDbEntity
  8
0
100
AcDbLine
 10
133.9635708088681
 20
190.9174907359538
 30
0.0
 11
135.963570808879
 21
190.9174907359538
 31
0.0
  0
LINE
  5
89E
330
1F
100
AcDbEntity
  8
RUNDUNGEN
  6
Continuous
 62
     7
100
AcDbLine
 10
135.963570808879
 20
578.7194910463247
 30
0.0
 11
135.963570808879
 21
656.0411473407294
 31
0.0
  0
LINE
  5
89F
330
1F
100
AcDbEntity
  8
0
  6
Continuous
 62
     9
100
AcDbLine
 10
134.963570808879
 20
674.7194910463257
 30
0.0
 11
134.963570808879
 21
663.7286947195262
 31
0.0
  0
LINE
  5
8A0
330
1F
100
AcDbEntity
  8
RUNDUNGEN
  6
Continuous
 62
     7
100
AcDbLine
 10
134.963570808879
 20
601.7194910463278
 30
0.0
 11
134.963570808879
 21
661.7194910463259
 31
0.0
  0
LINE
  5
8A1
330
1F
100
AcDbEntity
  8
RUNDUNGEN
  6
Continuous
 62
     7
100
AcDbLine
 10
133.963570808879
 20
663.7194910463257
 30
0.0
 11
133.963570808879
 21
674.7194910463257
 31
0.0
  0
LINE
  5
8A2
330
1F
100
AcDbEntity
  8
0
  6
Continuous
 62
     7
100
AcDbLine
 10
103.963570808879
 20
715.7194910463249
 30
0.0
 11
103.963570808879
 21
661.7194910463259
 31
0.0
  0
LINE
  5
8A3
330
1F
100
AcDbEntity
  8
RUNDUNGEN
  6
Continuous
 62
     7
100
AcDbLine
 10
135.963570808879
 20
645.7194910463257
 30
0.0
 11
134.963570808879
 21
645.7194910463257
 31
0.0
  0
LINE
  5
8A4
330
1F
100
AcDbEntity
  8
0
  6
Continuous
 62
     7
100
AcDbLine
 10
103.963570808879
 20
661.7194910463259
 30
0.0
 11
134.963570808879
 21
661.7194910463259
 31
0.0
  0
LINE
  5
8A5
330
1F
100
AcDbEntity
  8
RUNDUNGEN
  6
Continuous
 62
     7
100
AcDbLine
 10
134.963570808879
 20
662.7194910463257
 30
0.0
 11
103.963570808879
 21
662.7194910463257
 31
0.0
  0
LINE
  5
8A6
330
1F
100
AcDbEntity
  8
RUNDUNGEN
  6
Continuous
 62
     7
100
AcDbLine
 10
133.963570808879
 20
663.7194910463257
 30
0.0
 11
134.963570808879
 21
663.7194910463257
 31
0.0
  0
LINE
  5
8A7
330
1F
100
AcDbEntity
  8
RUNDUNGEN
  6
Continuous
 62
     7
100
AcDbLine
 10
133.963570808879
 20
664.728694719527
 30
0.0
 11
134.963570808879
 21
664.728694719527
 31
0.0
  0
LINE
  5
8A8
330
1F
100
AcDbEntity
  8
RUNDUNGEN
  6
Continuous
 62
     7
100
AcDbLine
 10
133.963570808879
 20
665.7286947195261
 30
0.0
 11
134.963570808879
 21
665.7286947195261
 31
0.0
  0
LINE
  5
8A9
330
1F
100
AcDbEntity
  8
RUNDUNGEN
  6
Continuous
 62
     7
100
AcDbLine
 10
133.963570808879
 20
674.7194910463257
 30
0.0
 11
135.963570808879
 21
674.7194910463257
 31
0.0
  0
ARC
  5
8AA
330
1F
100
AcDbEntity
  8
0
  6
Continuous
 62
     7
100
AcDbCircle
 10
132.963570808879
 20
663.7194910463257
 30
0.0
 40
2.0
100
AcDbArc
 50
329.9616926244618
 51
0.0
  0
ARC
  5
8AB
330
1F
100
AcDbEntity
  8
RUNDUNGEN
  6
Continuous
 62
     7
100
AcDbCircle
 10
132.963570808879
 20
663.7194910463257
 30
0.0
 40
1.0
100
AcDbArc
 50
270.0
 51
0.0
  0
ARC
  5
8AC
102
{ACAD_REACTORS
330
8C6
102
}
330
1F
100
AcDbEntity
  8
RUNDUNGEN
  6
Continuous
 62
     7
100
AcDbCircle
 10
134.963570808879
 20
674.7194910463257
 30
0.0
 40
1.0
100
AcDbArc
 50
0.0
 51
180.0
  0
INSERT
  5
8B2
330
1F
100
AcDbEntity
  8
5
  6
ByBlock
100
AcDbBlockReference
  2
stutzen
 10
-11.40566543527166
 20
290.6472786851491
 30
0.0
 41
0.1000000000021828
 42
0.1000000000003638
 43
0.1
  0
LINE
  5
8B4
330
1F
100
AcDbEntity
  8
0
100
AcDbLine
 10
968.9635708088788
 20
556.2240928829266
 30
0.0
 11
1028.963570808879
 21
556.2240928829266
 31
0.0
  0
LINE
  5
8B5
330
1F
100
AcDbEntity
  8
0
100
AcDbLine
 10
1028.963570808879
 20
556.2240928829266
 30
0.0
 11
1028.963570808879
 21
621.2240928829267
 31
0.0
  0
LINE
  5
8B6
330
1F
100
AcDbEntity
  8
0
100
AcDbLine
 10
1028.963570808879
 20
621.2240928829267
 30
0.0
 11
1031.963570808879
 21
621.2240928829267
 31
0.0
  0
LINE
  5
8B7
330
1F
100
AcDbEntity
  8
0
100
AcDbLine
 10
1031.963570808879
 20
621.2240928829267
 30
0.0
 11
1031.963570808879
 21
553.2240928829268
 31
0.0
  0
LINE
  5
8B8
330
1F
100
AcDbEntity
  8
0
100
AcDbLine
 10
1031.963570808879
 20
553.2240928829268
 30
0.0
 11
968.9635708088788
 21
553.2240928829268
 31
0.0
  0
LINE
  5
8B9
330
1F
100
AcDbEntity
  8
0
100
AcDbLine
 10
968.9635708088788
 20
553.2240928829268
 30
0.0
 11
968.9635708088788
 21
556.2240928829266
 31
0.0
  0
LINE
  5
8BA
330
1F
100
AcDbEntity
  8
0
100
AcDbLine
 10
198.963570808879
 20
552.3803191935257
 30
0.0
 11
138.963570808879
 21
552.3803191935257
 31
0.0
  0
LINE
  5
8BB
330
1F
100
AcDbEntity
  8
0
100
AcDbLine
 10
135.963570808879
 20
549.3803191935255
 30
0.0
 11
198.963570808879
 21
549.3803191935255
 31
0.0
  0
LINE
  5
8BC
330
1F
100
AcDbEntity
  8
0
100
AcDbLine
 10
138.963570808879
 20
552.3803191935257
 30
0.0
 11
138.963570808879
 21
617.3803191935258
 31
0.0
  0
LINE
  5
8BD
330
1F
100
AcDbEntity
  8
0
100
AcDbLine
 10
138.963570808879
 20
617.3803191935258
 30
0.0
 11
135.963570808879
 21
617.3803191935258
 31
0.0
  0
LINE
  5
8BE
330
1F
100
AcDbEntity
  8
0
100
AcDbLine
 10
135.963570808879
 20
617.3803191935258
 30
0.0
 11
135.963570808879
 21
549.3803191935255
 31
0.0
  0
LINE
  5
8BF
330
1F
100
AcDbEntity
  8
0
100
AcDbLine
 10
198.963570808879
 20
549.3803191935255
 30
0.0
 11
198.963570808879
 21
552.3803191935257
 31
0.0
  0
LINE
  5
8C0
102
{ACAD_REACTORS
330
8C6
102
}
330
1F
100
AcDbEntity
  8
0
100
AcDbLine
 10
134.963570808879
 20
601.7194910463257
 30
0.0
 11
135.963570808879
 21
601.7194910463257
 31
0.0
  0
LINE
  5
8C1
330
1F
100
AcDbEntity
  8
0
100
AcDbLine
 10
1031.963570808879
 20
601.7194910463278
 30
0.0
 11
1032.963570808879
 21
601.7194910463257
 31
0.0
  0
DIMENSION
  5
8C2
330
1F
100
AcDbEntity
  8
AM_5
100
AcDbDimension
  2
*D22
 10
1033.963570808879
 20
74.04679425259383
 30
0.0
 11
583.963570808879
 21
74.04679425259383
 31
0.0
 70
   160
  1
<>
 71
     5
 42
900.0
  3
AM_DIN$0
100
AcDbAlignedDimension
 13
133.963570808879
 23
190.9174907359538
 33
0.0
 14
1033.963570808879
 24
190.9174907359538
 34
0.0
100
AcDbRotatedDimension
1001
ACAD
1000
DSTYLE
1002
{
1070
   286
1070
     0
1070
   284
1070
     8
1070
   274
1070
     4
1070
   272
1070
     3
1070
    40
1040
5.0
1070
    47
1040
1.0
1070
    48
1040
1.0
1002
}
1001
ACAD_DSTYLE_DIMINSPECT
1070
   396
1000

1070
   395
1000

1070
   394
1070
     1
1070
   393
1070
     0
  0
DIMENSION
  5
8C3
330
1F
100
AcDbEntity
  8
AM_5
100
AcDbDimension
  2
*D23
 10
1063.963570808879
 20
5.000000247621755
 30
0.0
 11
582.7905415380662
 21
5.000000247621755
 31
0.0
 70
   160
  1
<>
 71
     5
 42
960.0
  3
AM_DIN$0
100
AcDbAlignedDimension
 13
103.963570808879
 23
159.3074907358404
 33
0.0
 14
1063.963570808879
 24
159.3074907358404
 34
0.0
100
AcDbRotatedDimension
1001
ACAD
1000
DSTYLE
1002
{
1070
   286
1070
     0
1070
   284
1070
     8
1070
   274
1070
     4
1070
   272
1070
     3
1070
    40
1040
5.0
1070
    47
1040
1.0
1070
    48
1040
1.0
1002
}
1001
ACAD_DSTYLE_DIMINSPECT
1070
   396
1000
100%
1070
   395
1000

1070
   394
1070
    33
1070
   393
1070
     0
  0
DIMENSION
  5
8C4
102
{ACAD_XDICTIONARY
360
8C5
102
}
102
{ACAD_REACTORS
330
8C6
102
}
330
1F
100
AcDbEntity
  8
AM_5
100
AcDbDimension
  2
*D24
 10
74.96357080887901
 20
675.7194910463247
 30
0.0
 11
58.71357080887889
 21
638.7194910463251
 31
0.0
 70
    32
  1
<>
 71
     5
 42
73.99999999999899
  3
AM_DIN$0
100
AcDbAlignedDimension
 13
134.963570808879
 23
601.7194910463257
 33
0.0
 14
134.963570808879
 24
675.7194910463247
 34
0.0
 50
90.0
100
AcDbRotatedDimension
1001
ACAD
1000
DSTYLE
1002
{
1070
   286
1070
     0
1070
   284
1070
     8
1070
   274
1070
     4
1070
   272
1070
     3
1070
    40
1040
5.0
1070
    47
1040
1.0
1070
    48
1040
1.0
1002
}
1001
ACAD_DSTYLE_DIMINSPECT
1070
   396
1000
100%
1070
   395
1000

1070
   394
1070
    33
1070
   393
1070
     0
  0
LINE
  5
8C7
330
1F
100
AcDbEntity
  8
AM_7
100
AcDbLine
 10
583.963570808879
 20
295.297490735873
 30
0.0
 11
583.963570808879
 21
156.3074907358403
 31
0.0
1001
GENIUS_GENOBJ-N-CEN_13
1002
{
1000
OWNER
1000
GEN
1002
}
1001
GENIUS_GENODEF_13
1002
{
1000
HIER
1070
     0
1002
}
1002
{
1000
MANEDIT
1070
     0
1002
}
1002
{
1000
NOSEL
1070
     0
1002
}
1002
{
1000
BEHIND
1070
     0
1002
}
1002
{
1000
OTHER
1070
     0
1002
}
1002
{
1000
REACTOR
1002
}
1001
GENIUS_GENCEN_19
1002
{
1040
3.0
1002
}
  0
DIMENSION
  5
8C8
330
1F
100
AcDbEntity
  8
AM_5
100
AcDbDimension
  2
*D25
 10
608.9635708189056
 20
440.5469193747249
 30
0.0
 11
583.9635708228797
 21
440.5469193747249
 31
0.0
 70
   160
  1
%%c<>
 71
     5
 42
49.99999999205181
  3
AM_DIN$0
100
AcDbAlignedDimension
 13
558.9635708268538
 23
512.937176892404
 33
0.0
 14
608.9635708189056
 24
512.9371768494793
 34
0.0
100
AcDbRotatedDimension
1001
ACAD_DSTYLE_DIMINSPECT
1070
   396
1000

1070
   395
1000

1070
   394
1070
     1
1070
   393
1070
     0
1001
ACAD
1000
DSTYLE
1002
{
1070
    40
1040
5.0
1070
    47
1040
1.0
1070
    48
1040
1.0
1002
}
  0
DIMENSION
  5
8C9
330
1F
100
AcDbEntity
  8
AM_5
100
AcDbDimension
  2
*D26
 10
71.18106044960953
 20
189.3074907359551
 30
0.0
 11
71.1810604496095
 21
230.1525890914054
 31
0.0
 70
   160
 71
     5
 42
81.98999999991611
  3
AM_DIN$0
100
AcDbAlignedDimension
 13
135.963570808879
 23
271.2974907358712
 33
0.0
 14
135.963570808879
 24
189.3074907359551
 34
0.0
 50
90.0
100
AcDbRotatedDimension
1001
ACAD_DSTYLE_DIMINSPECT
1070
   396
1000
100%
1070
   395
1000

1070
   394
1070
    33
1070
   393
1070
     0
1001
ACAD
1000
DSTYLE
1002
{
1070
    40
1040
5.0
1070
    47
1040
1.0
1070
    48
1040
1.0
1070
   271
1070
     0
1002
}
  0
DIMENSION
  5
8CA
330
1F
100
AcDbEntity
  8
AM_5
100
AcDbDimension
  2
*D27
 10
24.125000940825
 20
159.3074907358404
 30
0.0
 11
24.12500094082498
 21
231.3074907358523
 31
0.0
 70
   160
 71
     5
 42
132.9900000000307
  3
AM_DIN$0
100
AcDbAlignedDimension
 13
103.963570808879
 23
292.2974907358712
 33
0.0
 14
103.963570808879
 24
159.3074907358404
 34
0.0
 50
90.0
100
AcDbRotatedDimension
1001
ACAD_DSTYLE_DIMINSPECT
1070
   396
1000
100%
1070
   395
1000

1070
   394
1070
    33
1070
   393
1070
     0
1001
ACAD
1000
DSTYLE
1002
{
1070
    40
1040
5.0
1070
    47
1040
1.0
1070
    48
1040
1.0
1070
   271
1070
     0
1002
}
  0
POINT
  5
8CB
330
1F
100
AcDbEntity
  8
0
 60
     1
100
AcDbPoint
 10
-12041.59214170318
 20
3118.059152713496
 30
0.0
1001
GENIUS_GENOENT_13
1002
{
1000
MYREF
1005
8CB
1002
}
1002
{
1000
GRP
1005
0
1002
}
1001
GENIUS_GENOLIS_13
1002
{
1000
ENT
1005
0
1005
87E
1005
0
1005
87D
1002
}
1001
GENIUS_GENOBJ-N-CRS_13
1002
{
1000
OWNER
1000
GEN
1002
}
1001
GENIUS_GENODEF_13
1002
{
1000
HIER
1070
    10
1002
}
1002
{
1000
MANEDIT
1070
     1
1002
}
1002
{
1000
NOSEL
1070
     0
1002
}
1002
{
1000
BEHIND
1070
     0
1002
}
1002
{
1000
OTHER
1070
     0
1002
}
1002
{
1000
REACTOR
1002
}
  0
LINE
  5
914
330
1F
100
AcDbEntity
  8
0
100
AcDbLine
 10
135.963570808879
 20
291.2974907358712
 30
0.0
 11
103.963570808879
 21
291.2974907358712
 31
0.0
  0
LINE
  5
916
330
1F
100
AcDbEntity
  8
0
  6
Continuous
 62
     7
100
AcDbLine
 10
1031.963570808879
 20
291.2974907358749
 30
0.0
 11
135.963570808879
 21
291.2974907358712
 31
0.0
  0
LINE
  5
917
102
{ACAD_REACTORS
330
A71
102
}
330
1F
100
AcDbEntity
  8
0
100
AcDbLine
 10
1031.963570808879
 20
291.2974907358712
 30
0.0
 11
1063.963570808879
 21
291.2974907358712
 31
0.0
  0
LINE
  5
91B
102
{ACAD_REACTORS
330
A35
102
}
330
1F
100
AcDbEntity
  8
0
100
AcDbLine
 10
1063.963570808879
 20
715.7194910463249
 30
0.0
 11
103.963570808879
 21
715.7194910463249
 31
0.0
  0
DIMENSION
  5
A27
102
{ACAD_XDICTIONARY
360
A34
102
}
102
{ACAD_REACTORS
330
A35
102
}
330
1F
100
AcDbEntity
  8
AM_5
100
AcDbDimension
  2
*D28
 10
1132.619063065072
 20
675.7194910463247
 30
0.0
 11
1116.369063065071
 21
695.719491046325
 31
0.0
 70
    32
 71
     5
 42
40.00000000000023
  3
AM_DIN$0
100
AcDbAlignedDimension
 13
1063.963570808879
 23
715.7194910463249
 33
0.0
 14
1031.963570808879
 24
675.7194910463247
 34
0.0
 50
90.00000000000005
100
AcDbRotatedDimension
1001
ACAD_DSTYLE_DIMINSPECT
1070
   396
1000
100%
1070
   395
1000

1070
   394
1070
    33
1070
   393
1070
     0
1001
ACAD
1000
DSTYLE
1002
{
1070
    40
1040
5.0
1070
    47
1040
1.0
1070
    48
1040
1.0
1002
}
  0
DIMENSION
  5
A63
102
{ACAD_XDICTIONARY
360
A70
102
}
102
{ACAD_REACTORS
330
A71
102
}
330
1F
100
AcDbEntity
  8
AM_5
100
AcDbDimension
  2
*D29
 10
1122.96812091511
 20
291.2974907358712
 30
0.0
 11
1122.96812091511
 21
218.9434060902021
 31
0.0
 70
   160
 71
     5
 42
20.0
  3
AM_DIN$0
100
AcDbAlignedDimension
 13
1031.963570808879
 23
271.2974907358712
 33
0.0
 14
1063.963570808879
 24
291.2974907358712
 34
0.0
 50
90.0
100
AcDbRotatedDimension
1001
ACAD_DSTYLE_DIMINSPECT
1070
   396
1000
100%
1070
   395
1000

1070
   394
1070
    33
1070
   393
1070
     0
1001
ACAD
1000
DSTYLE
1002
{
1070
    40
1040
5.0
1070
    47
1040
1.0
1070
    48
1040
1.0
1002
}
  0
LINE
  5
AD8
330
1F
100
AcDbEntity
  8
RUNDUNGEN
  6
Continuous
 62
     7
100
AcDbLine
 10
546.4778303072781
 20
231.3074907296541
 30
0.0
 11
546.463570808879
 21
231.3074907298551
 31
0.0
  0
LINE
  5
AD9
330
1F
100
AcDbEntity
  8
RUNDUNGEN
  6
Continuous
 62
     7
100
AcDbLine
 10
546.463570808879
 20
231.3074907298551
 30
0.0
 11
545.9637956947918
 21
231.3074907356531
 31
0.0
  0
LINE
  5
ADA
330
1F
100
AcDbEntity
  8
RUNDUNGEN
  6
Continuous
 62
     7
100
AcDbLine
 10
621.4493113105927
 20
231.3074907421542
 30
0.0
 11
621.463570808879
 21
231.307490741955
 31
0.0
  0
CIRCLE
  5
ADB
330
1F
100
AcDbEntity
  8
0
  6
Continuous
 62
     7
100
AcDbCircle
 10
583.963570808879
 20
231.307490740488
 30
0.0
 40
37.0
  0
LINE
  5
ADC
330
1F
100
AcDbEntity
  8
RUNDUNGEN
  6
Continuous
 62
     7
100
AcDbLine
 10
546.4778303072781
 20
231.3074907257747
 30
0.0
 11
546.463570808879
 21
231.3074907259739
 31
0.0
  0
LINE
  5
ADD
330
1F
100
AcDbEntity
  8
RUNDUNGEN
  6
Continuous
 62
     7
100
AcDbLine
 10
546.463570808879
 20
231.3074907259739
 30
0.0
 11
545.9637956947808
 21
231.3074907317728
 31
0.0
  0
LINE
  5
ADE
330
1F
100
AcDbEntity
  8
RUNDUNGEN
  6
Continuous
 62
     7
100
AcDbLine
 10
621.4493113105817
 20
231.3074907382739
 30
0.0
 11
621.463570808879
 21
231.3074907380737
 31
0.0
  0
LINE
  5
ADF
330
1F
100
AcDbEntity
  8
0
  6
Continuous
 62
     7
100
AcDbLine
 10
613.9476937916806
 20
233.5574907366077
 30
0.0
 11
613.9476937916806
 21
229.0574907366077
 31
0.0
  0
LINE
  5
AE0
330
1F
100
AcDbEntity
  8
0
  6
Continuous
 62
     7
100
AcDbLine
 10
606.75653775558
 20
211.6965043052065
 30
0.0
 11
603.5745572402811
 21
208.5145237898064
 31
0.0
  0
LINE
  5
AE1
330
1F
100
AcDbEntity
  8
0
  6
Continuous
 62
     7
100
AcDbLine
 10
581.713570808879
 20
261.2916137195066
 30
0.0
 11
586.213570808879
 21
261.2916137195066
 31
0.0
  0
LINE
  5
AE2
330
1F
100
AcDbEntity
  8
0
  6
Continuous
 62
     7
100
AcDbLine
 10
603.5745572402811
 20
254.1004576834071
 30
0.0
 11
606.75653775558
 21
250.9184771680061
 31
0.0
  0
LINE
  5
AE3
330
1F
100
AcDbEntity
  8
0
  6
Continuous
 62
     7
100
AcDbLine
 10
606.9333144508782
 20
209.7519606569063
 30
0.0
 11
606.75653775558
 21
211.6965043052065
 31
0.0
  0
LINE
  5
AE4
330
1F
100
AcDbEntity
  8
0
  6
Continuous
 62
     7
100
AcDbLine
 10
606.75653775558
 20
250.9184771680061
 30
0.0
 11
606.9333144508782
 21
252.8630208163082
 31
0.0
  0
LINE
  5
AE5
330
1F
100
AcDbEntity
  8
0
  6
Continuous
 62
     7
100
AcDbLine
 10
584.963570808879
 20
199.8233677537078
 30
0.0
 11
586.213570808879
 21
201.3233677537078
 31
0.0
  0
LINE
  5
AE6
330
1F
100
AcDbEntity
  8
0
  6
Continuous
 62
     7
100
AcDbLine
 10
613.9476937916806
 20
229.0574907366077
 30
0.0
 11
615.4476937916806
 21
230.3074907366069
 31
0.0
  0
LINE
  5
AE7
330
1F
100
AcDbEntity
  8
0
  6
Continuous
 62
     7
100
AcDbLine
 10
605.5191008885778
 20
254.2772343787069
 30
0.0
 11
603.5745572402811
 21
254.1004576834071
 31
0.0
  0
LINE
  5
AE8
330
1F
100
AcDbEntity
  8
0
  6
Continuous
 62
     7
100
AcDbLine
 10
564.3525843773786
 20
254.1004576834071
 30
0.0
 11
562.4080407291804
 21
254.2772343787069
 31
0.0
  0
LINE
  5
AE9
330
1F
100
AcDbEntity
  8
0
  6
Continuous
 62
     7
100
AcDbLine
 10
615.4476937916806
 20
232.3074907366069
 30
0.0
 11
613.9476937916806
 21
233.5574907366077
 31
0.0
  0
LINE
  5
AEA
330
1F
100
AcDbEntity
  8
0
  6
Continuous
 62
     7
100
AcDbLine
 10
586.213570808879
 20
261.2916137195066
 30
0.0
 11
584.963570808879
 21
262.7916137195066
 31
0.0
  0
LINE
  5
AEB
330
1F
100
AcDbEntity
  8
RUNDUNGEN
  6
Continuous
 62
     9
100
AcDbLine
 10
593.463570808879
 20
232.8074907366076
 30
0.0
 11
593.463570808879
 21
229.8074907366085
 31
0.0
  0
LINE
  5
AEC
330
1F
100
AcDbEntity
  8
0
  6
Continuous
 62
     7
100
AcDbLine
 10
591.9635708088788
 20
232.607490736607
 30
0.0
 11
591.9635708088788
 21
230.0074907366084
 31
0.0
  0
LINE
  5
AED
330
1F
100
AcDbEntity
  8
RUNDUNGEN
  6
Continuous
 62
     7
100
AcDbLine
 10
564.1865638541784
 20
232.8074907366076
 30
0.0
 11
575.7635691836802
 21
232.8074907366076
 31
0.0
  0
LINE
  5
AEE
330
1F
100
AcDbEntity
  8
RUNDUNGEN
  6
Continuous
 62
     7
100
AcDbLine
 10
592.1636767412782
 20
232.8074907366076
 30
0.0
 11
603.7405777634813
 21
232.8074907366076
 31
0.0
  0
LINE
  5
AEF
330
1F
100
AcDbEntity
  8
RUNDUNGEN
  6
Continuous
 62
     9
100
AcDbLine
 10
563.0038475282781
 20
232.607490736607
 30
0.0
 11
575.963570808879
 21
232.607490736607
 31
0.0
  0
LINE
  5
AF0
330
1F
100
AcDbEntity
  8
RUNDUNGEN
  6
Continuous
 62
     9
100
AcDbLine
 10
591.9635708088788
 20
232.607490736607
 30
0.0
 11
604.9232940894799
 21
232.607490736607
 31
0.0
  0
LINE
  5
AF1
330
1F
100
AcDbEntity
  8
RUNDUNGEN
  6
Continuous
 62
     9
100
AcDbLine
 10
604.9232940894799
 20
230.0074907366084
 30
0.0
 11
591.9635708088788
 21
230.0074907366084
 31
0.0
  0
LINE
  5
AF2
330
1F
100
AcDbEntity
  8
RUNDUNGEN
  6
Continuous
 62
     9
100
AcDbLine
 10
575.963570808879
 20
230.0074907366084
 30
0.0
 11
563.0038475282781
 21
230.0074907366084
 31
0.0
  0
LINE
  5
AF3
330
1F
100
AcDbEntity
  8
RUNDUNGEN
  6
Continuous
 62
     7
100
AcDbLine
 10
603.7405777634813
 20
229.8074907366085
 30
0.0
 11
592.1635724339792
 21
229.8074907366085
 31
0.0
  0
LINE
  5
AF4
330
1F
100
AcDbEntity
  8
RUNDUNGEN
  6
Continuous
 62
     7
100
AcDbLine
 10
575.7635691886787
 20
229.8074907366085
 30
0.0
 11
564.1865638541784
 21
229.8074907366085
 31
0.0
  0
LINE
  5
AF5
330
1F
100
AcDbEntity
  8
0
  6
Continuous
 62
     7
100
AcDbLine
 10
575.963570808879
 20
230.0074907366084
 30
0.0
 11
575.963570808879
 21
232.607490736607
 31
0.0
  0
LINE
  5
AF6
330
1F
100
AcDbEntity
  8
RUNDUNGEN
  6
Continuous
 62
     9
100
AcDbLine
 10
574.4635708088789
 20
232.8074907366076
 30
0.0
 11
574.4635708088789
 21
229.8074907366085
 31
0.0
  0
LINE
  5
AF7
330
1F
100
AcDbEntity
  8
0
  6
Continuous
 62
     7
100
AcDbLine
 10
560.9938271667779
 20
252.8630208163082
 30
0.0
 11
561.1706038620796
 21
250.9184771680061
 31
0.0
  0
LINE
  5
AF8
330
1F
100
AcDbEntity
  8
0
  6
Continuous
 62
     7
100
AcDbLine
 10
561.1706038620796
 20
211.6965043052065
 30
0.0
 11
560.9938271667779
 21
209.7519606569063
 31
0.0
  0
LINE
  5
AF9
330
1F
100
AcDbEntity
  8
0
  6
Continuous
 62
     7
100
AcDbLine
 10
582.9635708088789
 20
262.7916137195066
 30
0.0
 11
581.713570808879
 21
261.2916137195066
 31
0.0
  0
LINE
  5
AFA
330
1F
100
AcDbEntity
  8
0
  6
Continuous
 62
     7
100
AcDbLine
 10
553.9794478259791
 20
233.5574907366077
 30
0.0
 11
552.4794478259791
 21
232.3074907366069
 31
0.0
  0
LINE
  5
AFB
330
1F
100
AcDbEntity
  8
0
  6
Continuous
 62
     7
100
AcDbLine
 10
562.4080407291804
 20
208.3377470945075
 30
0.0
 11
564.3525843773786
 21
208.5145237898064
 31
0.0
  0
LINE
  5
AFC
330
1F
100
AcDbEntity
  8
0
  6
Continuous
 62
     7
100
AcDbLine
 10
603.5745572402811
 20
208.5145237898064
 30
0.0
 11
605.5191008885778
 21
208.3377470945075
 31
0.0
  0
LINE
  5
AFD
330
1F
100
AcDbEntity
  8
0
  6
Continuous
 62
     7
100
AcDbLine
 10
552.4794478259791
 20
230.3074907366069
 30
0.0
 11
553.9794478259791
 21
229.0574907366077
 31
0.0
  0
LINE
  5
AFE
330
1F
100
AcDbEntity
  8
0
  6
Continuous
 62
     7
100
AcDbLine
 10
581.713570808879
 20
201.3233677537078
 30
0.0
 11
582.9635708088789
 21
199.8233677537078
 31
0.0
  0
LINE
  5
AFF
330
1F
100
AcDbEntity
  8
0
  6
Continuous
 62
     7
100
AcDbLine
 10
553.9794478259791
 20
229.0574907366077
 30
0.0
 11
553.9794478259791
 21
233.5574907366077
 31
0.0
  0
LINE
  5
B00
330
1F
100
AcDbEntity
  8
0
  6
Continuous
 62
     7
100
AcDbLine
 10
561.1706038620796
 20
250.9184771680061
 30
0.0
 11
564.3525843773786
 21
254.1004576834071
 31
0.0
  0
LINE
  5
B01
330
1F
100
AcDbEntity
  8
0
  6
Continuous
 62
     7
100
AcDbLine
 10
586.213570808879
 20
201.3233677537078
 30
0.0
 11
581.713570808879
 21
201.3233677537078
 31
0.0
  0
LINE
  5
B02
330
1F
100
AcDbEntity
  8
0
  6
Continuous
 62
     7
100
AcDbLine
 10
564.3525843773786
 20
208.5145237898064
 30
0.0
 11
561.1706038620796
 21
211.6965043052065
 31
0.0
  0
ARC
  5
B03
330
1F
100
AcDbEntity
  8
RUNDUNGEN
  6
Continuous
 62
     7
100
AcDbCircle
 10
592.1635708088797
 20
232.607490736607
 30
0.0
 40
0.2
100
AcDbArc
 50
89.99953587230413
 51
180.0
  0
ARC
  5
B04
330
1F
100
AcDbEntity
  8
RUNDUNGEN
  6
Continuous
 62
     7
100
AcDbCircle
 10
575.7635708088782
 20
232.607490736607
 30
0.0
 40
0.2
100
AcDbArc
 50
0.0
 51
90.00046556135194
  0
CIRCLE
  5
B05
330
1F
100
AcDbEntity
  8
BEZUGSACHSEN
  6
Continuous
 62
     7
100
AcDbCircle
 10
583.963570808879
 20
231.3074907366077
 30
0.0
 40
37.75
  0
CIRCLE
  5
B06
330
1F
100
AcDbEntity
  8
BEZUGSACHSEN
  6
Continuous
 62
     9
100
AcDbCircle
 10
583.963570808879
 20
231.3074907366077
 30
0.0
 40
34.8249358981
  0
ARC
  5
B07
330
1F
100
AcDbEntity
  8
0
  6
Continuous
 62
     7
100
AcDbCircle
 10
583.963570808879
 20
231.3074907366077
 30
0.0
 40
31.5
100
AcDbArc
 50
226.8192192939946
 51
268.1807807059966
  0
ARC
  5
B08
330
1F
100
AcDbEntity
  8
0
  6
Continuous
 62
     7
100
AcDbCircle
 10
583.963570808879
 20
231.3074907366077
 30
0.0
 40
31.5
100
AcDbArc
 50
181.8192192940034
 51
223.1807807060768
  0
ARC
  5
B09
330
1F
100
AcDbEntity
  8
0
  6
Continuous
 62
     7
100
AcDbCircle
 10
583.963570808879
 20
231.3074907366077
 30
0.0
 40
31.5
100
AcDbArc
 50
136.8192192939231
 51
178.1807807059965
  0
ARC
  5
B0A
330
1F
100
AcDbEntity
  8
0
  6
Continuous
 62
     7
100
AcDbCircle
 10
583.963570808879
 20
231.3074907366077
 30
0.0
 40
31.5
100
AcDbArc
 50
91.8192192940034
 51
133.1807807060054
  0
ARC
  5
B0B
330
1F
100
AcDbEntity
  8
0
  6
Continuous
 62
     7
100
AcDbCircle
 10
583.963570808879
 20
231.3074907366077
 30
0.0
 40
31.5
100
AcDbArc
 50
46.81921929399464
 51
88.18078070599661
  0
ARC
  5
B0C
330
1F
100
AcDbEntity
  8
0
  6
Continuous
 62
     7
100
AcDbCircle
 10
583.963570808879
 20
231.3074907366077
 30
0.0
 40
31.5
100
AcDbArc
 50
1.819219294003455
 51
43.18078070607684
  0
ARC
  5
B0D
330
1F
100
AcDbEntity
  8
0
  6
Continuous
 62
     7
100
AcDbCircle
 10
583.963570808879
 20
231.3074907366077
 30
0.0
 40
31.5
100
AcDbArc
 50
316.8192192939232
 51
358.1807807059965
  0
ARC
  5
B0E
330
1F
100
AcDbEntity
  8
0
  6
Continuous
 62
     7
100
AcDbCircle
 10
583.963570808879
 20
231.3074907366077
 30
0.0
 40
31.5
100
AcDbArc
 50
271.8192192940034
 51
313.1807807060054
  0
ARC
  5
B0F
330
1F
100
AcDbEntity
  8
RUNDUNGEN
  6
Continuous
 62
     9
100
AcDbCircle
 10
583.963570808879
 20
231.3074907366077
 30
0.0
 40
21.0
100
AcDbArc
 50
3.549150897490096
 51
176.4508491025099
  0
ARC
  5
B10
330
1F
100
AcDbEntity
  8
RUNDUNGEN
  6
Continuous
 62
     9
100
AcDbCircle
 10
583.963570808879
 20
231.3074907366077
 30
0.0
 40
21.0
100
AcDbArc
 50
183.5491508974901
 51
356.4508491025098
  0
ARC
  5
B11
330
1F
100
AcDbEntity
  8
0
  6
Continuous
 62
     7
100
AcDbCircle
 10
583.963570808879
 20
231.3074907366077
 30
0.0
 40
17.5
100
AcDbArc
 50
184.9171003355094
 51
355.0828996644906
  0
ARC
  5
B12
330
1F
100
AcDbEntity
  8
0
  6
Continuous
 62
     7
100
AcDbCircle
 10
583.963570808879
 20
231.3074907366077
 30
0.0
 40
17.5
100
AcDbArc
 50
4.917100335509385
 51
175.0828996644905
  0
ARC
  5
B13
330
1F
100
AcDbEntity
  8
RUNDUNGEN
  6
Continuous
 62
     7
100
AcDbCircle
 10
592.1635708088797
 20
230.0074907366084
 30
0.0
 40
0.2
100
AcDbArc
 50
180.0
 51
270.0004655613519
  0
ARC
  5
B14
330
1F
100
AcDbEntity
  8
RUNDUNGEN
  6
Continuous
 62
     7
100
AcDbCircle
 10
575.7635708088782
 20
230.0074907366084
 30
0.0
 40
0.2
100
AcDbArc
 50
269.9995358720957
 51
0.0
  0
SPLINE
  5
B15
330
1F
100
AcDbEntity
  8
RUNDUNGEN
  6
Continuous
 62
     7
100
AcDbSpline
210
0.0
220
0.0
230
1.0
 70
     8
 71
     3
 72
    15
 73
    11
 74
     9
 42
0.0000000001
 43
0.0000000001
 44
0.0000000001
 12
-0.9734575250016488
 22
-0.228867750060301
 32
0.0
 13
-1.0
 23
0.0000000000000001
 33
0.0
 40
0.0
 40
0.0
 40
0.0
 40
0.0
 40
0.1510810008472195
 40
0.3012692817882539
 40
0.4508995578785599
 40
0.6001317707656711
 40
0.7491566218495703
 40
0.898567404615191
 40
1.049070534296948
 40
1.201862823993114
 40
1.201862823993114
 40
1.201862823993114
 40
1.201862823993114
 10
604.9232940894799
 20
230.0074907366084
 30
0.0
 10
604.8742704437601
 20
229.9959648803615
 30
0.0
 10
604.7765112350864
 20
229.9729877935629
 30
0.0
 10
604.6300344371834
 20
229.9392987581279
 30
0.0
 10
604.483839355819
 20
229.9071547861165
 30
0.0
 10
604.337550935671
 20
229.8772984915957
 30
0.0
 10
604.1907151881892
 20
229.8506319549552
 30
0.0
 10
604.0427031509182
 20
229.8283451701214
 30
0.0
 10
603.8926198296778
 20
229.8121923898219
 30
0.0
 10
603.7915085267132
 20
229.8074907366068
 30
0.0
 10
603.7405777634813
 20
229.8074907366068
 30
0.0
 11
604.9232940894799
 21
230.0074907366084
 31
0.0
 11
604.7761940166782
 21
229.9730373275065
 31
0.0
 11
604.6297997431792
 21
229.939492783707
 31
0.0
 11
604.4836307940786
 21
229.9074950050076
 31
0.0
 11
604.3373799593791
 21
229.8778142585065
 31
0.0
 11
604.1907158917783
 21
229.8513934804073
 31
0.0
 11
604.0429269567794
 21
229.8294386928078
 31
0.0
 11
603.8932405139785
 21
229.8137810785061
 31
0.0
 11
603.7405777634813
 21
229.8074907366068
 31
0.0
  0
SPLINE
  5
B16
330
1F
100
AcDbEntity
  8
RUNDUNGEN
  6
Continuous
 62
     7
100
AcDbSpline
210
0.0
220
0.0
230
1.0
 70
     8
 71
     3
 72
    15
 73
    11
 74
     9
 42
0.0000000001
 43
0.0000000001
 44
0.0000000001
 12
0.9734575250016488
 22
0.228867750060301
 32
0.0
 13
1.0
 23
-0.0000000000000001
 33
0.0
 40
0.0
 40
0.0
 40
0.0
 40
0.0
 40
0.1510810007472878
 40
0.3012692817881295
 40
0.4508995577789344
 40
0.6001317706655078
 40
0.7491566218500518
 40
0.8985674045185175
 40
1.049070534297759
 40
1.201862823895934
 40
1.201862823895934
 40
1.201862823895934
 40
1.201862823895934
 10
563.0038475282781
 20
232.607490736607
 30
0.0
 10
563.0528711739655
 20
232.6190165928463
 30
0.0
 10
563.15063038263
 20
232.6419936796842
 30
0.0
 10
563.2971071805139
 20
232.6756827150545
 30
0.0
 10
563.4433022618671
 20
232.7078266871135
 30
0.0
 10
563.5895906820173
 20
232.7376829816288
 30
0.0
 10
563.7364264295054
 20
232.7643495182368
 30
0.0
 10
563.8844384668044
 20
232.7866363031127
 30
0.0
 10
564.0345217880159
 20
232.8027890833777
 30
0.0
 10
564.135633090979
 20
232.8074907366076
 30
0.0
 10
564.1865638541784
 20
232.8074907366076
 30
0.0
 11
563.0038475282781
 21
232.607490736607
 31
0.0
 11
563.1509476009778
 21
232.6419441457061
 31
0.0
 11
563.2973418745788
 21
232.6754886895074
 31
0.0
 11
563.4435108235775
 21
232.7074864682068
 31
0.0
 11
563.5897616582767
 21
232.7371672147069
 31
0.0
 11
563.7364257259796
 21
232.7635879928071
 31
0.0
 11
563.8842146608802
 21
232.7855427804066
 31
0.0
 11
564.0339011037792
 21
232.8012003947074
 31
0.0
 11
564.1865638541784
 21
232.8074907366076
 31
0.0
  0
SPLINE
  5
B17
330
1F
100
AcDbEntity
  8
RUNDUNGEN
  6
Continuous
 62
     7
100
AcDbSpline
210
0.0
220
0.0
230
1.0
 70
     8
 71
     3
 72
    14
 73
    10
 74
     8
 42
0.0000000001
 43
0.0000000001
 44
0.0000000001
 12
1.0
 22
-0.0000000000000001
 32
0.0
 13
0.9734575249949113
 23
-0.2288677500889577
 33
0.0
 40
0.0
 40
0.0
 40
0.0
 40
0.0
 40
0.1775159166274313
 40
0.3522169696264199
 40
0.5240382291776087
 40
0.6932544782930964
 40
0.8615176794675225
 40
1.030378979886349
 40
1.201839310652397
 40
1.201839310652397
 40
1.201839310652397
 40
1.201839310652397
 10
603.7405777634813
 20
232.8074907366076
 30
0.0
 10
603.7997497356903
 20
232.8074907366076
 30
0.0
 10
603.9171667041848
 20
232.8011843020397
 30
0.0
 10
604.0906548745921
 20
232.7803318851908
 30
0.0
 10
604.2603229534089
 20
232.7523881832758
 30
0.0
 10
604.4269630243823
 20
232.7198803140444
 30
0.0
 10
604.5919582762285
 20
232.6843029919917
 30
0.0
 10
604.7572260157726
 20
232.6465260040658
 30
0.0
 10
604.8676576397391
 20
232.620571316651
 30
0.0
 10
604.9232940894799
 20
232.607490736607
 30
0.0
 11
603.7405777634813
 21
232.8074907366076
 31
0.0
 11
603.9178988327802
 21
232.7991757478071
 31
0.0
 11
604.0914251173782
 21
232.7789498616071
 31
0.0
 11
604.2610252639787
 21
232.7514119694065
 31
0.0
 11
604.4271615223768
 21
232.7192734783062
 31
0.0
 11
604.5916876251792
 21
232.6840078241071
 31
0.0
 11
604.7563425550797
 21
232.6465526130064
 31
0.0
 11
604.9232940894799
 21
232.607490736607
 31
0.0
  0
SPLINE
  5
B18
330
1F
100
AcDbEntity
  8
RUNDUNGEN
  6
Continuous
 62
     7
100
AcDbSpline
210
0.0
220
0.0
230
1.0
 70
     8
 71
     3
 72
    14
 73
    10
 74
     8
 42
0.0000000001
 43
0.0000000001
 44
0.0000000001
 12
-1.0
 22
0.0000000000000001
 32
0.0
 13
-0.9734575249949113
 23
0.2288677500889577
 33
0.0
 40
0.0
 40
0.0
 40
0.0
 40
0.0
 40
0.1775159165292711
 40
0.3522169696177252
 40
0.524038229185007
 40
0.6932544783006675
 40
0.8615176793754924
 40
1.030378979889987
 40
1.201839310560715
 40
1.201839310560715
 40
1.201839310560715
 40
1.201839310560715
 10
564.1865638541784
 20
229.8074907366068
 30
0.0
 10
564.127391882002
 20
229.8074907366068
 30
0.0
 10
564.0099749135175
 20
229.8137971712356
 30
0.0
 10
563.8364867430775
 20
229.8346495878427
 30
0.0
 10
563.6668186642595
 20
229.8625932899833
 30
0.0
 10
563.500178593302
 20
229.8951011591404
 30
0.0
 10
563.3351833414701
 20
229.9306784812574
 30
0.0
 10
563.1699156019443
 20
229.9684554691112
 30
0.0
 10
563.0594839779879
 20
229.9944101565717
 30
0.0
 10
563.0038475282781
 20
230.0074907366084
 30
0.0
 11
564.1865638541784
 21
229.8074907366068
 31
0.0
 11
564.0092427849777
 21
229.8158057254064
 31
0.0
 11
563.835716500278
 21
229.8360316115072
 31
0.0
 11
563.6661163536772
 21
229.8635695038061
 31
0.0
 11
563.4999800952791
 21
229.8957079949073
 31
0.0
 11
563.3354539925785
 21
229.9309736491064
 31
0.0
 11
563.1707990625799
 21
229.9684288602071
 31
0.0
 11
563.0038475282781
 21
230.0074907366084
 31
0.0
  0
LINE
  5
E1A
330
1F
100
AcDbEntity
  8
0
100
AcDbLine
 10
559.9427767370951
 20
508.0411473412036
 30
0.0
 11
607.9843649170595
 21
508.0411473402548
 31
0.0
  0
LINE
  5
E1B
330
1F
100
AcDbEntity
  8
0
  6
ByBlock
 62
     0
100
AcDbLine
 10
559.9635708268666
 20
513.2911473816132
 30
0.0
 11
561.0135708351383
 21
508.0411473402548
 31
0.0
  0
LINE
  5
E1C
330
1F
100
AcDbEntity
  8
0
100
AcDbLine
 10
558.9635708268538
 20
512.937176892404
 30
0.0
 11
559.9427767372848
 21
508.0411473402548
 31
0.0
  0
LINE
  5
E1D
330
1F
100
AcDbEntity
  8
0
  6
ByBlock
 62
     0
100
AcDbLine
 10
607.9635708274777
 20
513.2911473816132
 30
0.0
 11
606.913570819206
 21
508.0411473402548
 31
0.0
  0
LINE
  5
E1E
330
1F
100
AcDbEntity
  8
0
100
AcDbLine
 10
608.9635708274905
 20
512.937176892404
 30
0.0
 11
607.9843649170595
 21
508.0411473402548
 31
0.0
  0
LINE
  5
E1F
330
1F
100
AcDbEntity
  8
0
  6
Continuous
 62
     2
100
AcDbLine
 10
559.6088202452931
 20
509.7109298002114
 30
0.0
 11
560.3582030296961
 21
511.3179863674661
 31
0.0
  0
LINE
  5
E20
330
1F
100
AcDbEntity
  8
0
  6
Continuous
 62
     2
100
AcDbLine
 10
607.9635708188929
 20
513.1540335990417
 30
0.0
 11
608.9635708189056
 21
515.2985405195692
 31
0.0
  0
LINE
  5
E21
330
1F
100
AcDbEntity
  8
0
  6
Continuous
 62
     2
100
AcDbLine
 10
607.9635708188929
 20
526.0773700382064
 30
0.0
 11
608.9635708189056
 21
528.2218769587339
 31
0.0
  0
LINE
  5
E22
330
1F
100
AcDbEntity
  8
0
  6
Continuous
 62
     2
100
AcDbLine
 10
607.9635708188929
 20
539.0007064773711
 30
0.0
 11
608.9635708189056
 21
541.1452133978987
 31
0.0
  0
LINE
  5
E23
330
1F
100
AcDbEntity
  8
0
  6
Continuous
 62
     2
100
AcDbLine
 10
607.9635708188929
 20
551.924042916636
 30
0.0
 11
608.9635708189056
 21
554.0685498371634
 31
0.0
  0
LINE
  5
E24
330
1F
100
AcDbEntity
  8
0
  6
Continuous
 62
     7
100
AcDbLine
 10
608.9635708189056
 20
556.5411473422954
 30
0.0
 11
608.9635708189056
 21
512.9371768494793
 31
0.0
  0
LINE
  5
E25
330
1F
100
AcDbEntity
  8
0
  6
Continuous
 62
     7
100
AcDbLine
 10
607.9635708188929
 20
556.5411473422954
 30
0.0
 11
607.9635708274777
 21
513.2911473816132
 31
0.0
  0
LINE
  5
E27
330
1F
100
AcDbEntity
  8
0
  6
Continuous
 62
     2
100
AcDbLine
 10
558.9635708182689
 20
519.6653072203259
 30
0.0
 11
559.9635708182817
 21
521.8098141408516
 31
0.0
  0
LINE
  5
E28
330
1F
100
AcDbEntity
  8
0
  6
Continuous
 62
     2
100
AcDbLine
 10
558.9635708182689
 20
532.5886436595888
 30
0.0
 11
559.9635708182817
 21
534.7331505801163
 31
0.0
  0
LINE
  5
E29
330
1F
100
AcDbEntity
  8
0
  6
Continuous
 62
     2
100
AcDbLine
 10
558.9635708182689
 20
545.5119800987554
 30
0.0
 11
559.9635708182817
 21
547.6564870192828
 31
0.0
  0
LINE
  5
E2A
330
1F
100
AcDbEntity
  8
0
  6
Continuous
 62
     7
100
AcDbLine
 10
559.9635708182817
 20
556.5411473422954
 30
0.0
 11
559.9635708268666
 21
513.2911473816132
 31
0.0
  0
LINE
  5
E2B
330
1F
100
AcDbEntity
  8
0
  6
Continuous
 62
     7
100
AcDbLine
 10
558.9635708182689
 20
556.5411473422954
 30
0.0
 11
558.9635708268538
 21
512.937176892404
 31
0.0
  0
LINE
  5
E2C
330
1F
100
AcDbEntity
  8
0
  6
Continuous
 62
     7
100
AcDbLine
 10
608.9635708189056
 20
556.5411473422954
 30
0.0
 11
558.9635708182689
 21
556.5411473422954
 31
0.0
  0
LINE
  5
E2D
330
1F
100
AcDbEntity
  8
0
100
AcDbLine
 10
559.9635708182817
 20
508.0411473412032
 30
0.0
 11
607.9843649173422
 21
508.0411473416685
 31
0.0
  0
LINE
  5
E2E
330
1F
100
AcDbEntity
  8
AM_7
100
AcDbLine
 10
583.9635708185872
 20
559.5411473423337
 30
0.0
 11
583.9635708185872
 21
505.0411473416398
 31
0.0
1001
GENIUS_GENODEF_13
1002
{
1000
HIER
1070
     0
1002
}
1002
{
1000
MANEDIT
1070
     0
1002
}
1002
{
1000
NOSEL
1070
     0
1002
}
1002
{
1000
BEHIND
1070
     0
1002
}
1002
{
1000
OTHER
1070
     0
1002
}
1002
{
1000
REACTOR
1002
}
1001
GENIUS_GENOBJ-N-CEN_13
1002
{
1000
OWNER
1000
GEN
1002
}
1001
GENIUS_GENCEN_19
1002
{
1040
3.0
1002
}
  0
ENDSEC
  0
SECTION
  2
OBJECTS
  0
DICTIONARY
  5
C
330
0
100
AcDbDictionary
281
     1
  3
ACAD_2007HEADERVARS_RT
350
E5D
  3
ACAD_COLOR
350
BE
  3
ACAD_GROUP
350
D
  3
ACAD_LAYOUT
350
1A
  3
ACAD_MATERIAL
350
BD
  3
ACAD_MLEADERSTYLE
350
3EF
  3
ACAD_MLINESTYLE
350
17
  3
ACAD_PLOTSETTINGS
350
19
  3
ACAD_PLOTSTYLENAME
350
E
  3
ACAD_SCALELIST
350
3DD
  3
ACAD_TABLESTYLE
350
11A
  3
ACAD_VISUALSTYLE
350
3CC
  3
ACDB_RECOMPOSE_DATA
350
41D
  3
AcDbVariableDictionary
350
94
  3
AcmDictionary
350
5B
  3
AEC_PROPERTY_SET_DEFS
350
6E8
  3
AMG
350
41
  3
AMGSNAPSETTINGS
350
26B
  3
DWGPROPS
350
E5C
  0
DICTIONARY
  5
673
330
2
100
AcDbDictionary
280
     1
281
     1
  3
ACAD_LAYERSTATES
360
674
  0
DICTIONARY
  5
91C
330
10
100
AcDbDictionary
280
     1
281
     1
  3
ADSK_XREC_LAYER_RECONCILED
360
91D
  0
DICTIONARY
  5
65B
330
65A
100
AcDbDictionary
280
     1
281
     1
  3
ADSK_XREC_LAYER_RECONCILED
360
91E
  0
DICTIONARY
  5
65D
330
65C
100
AcDbDictionary
280
     1
281
     1
  3
ADSK_XREC_LAYER_RECONCILED
360
91F
  0
DICTIONARY
  5
660
330
65F
100
AcDbDictionary
280
     1
281
     1
  3
ADSK_XREC_LAYER_RECONCILED
360
920
  0
DICTIONARY
  5
662
330
661
100
AcDbDictionary
280
     1
281
     1
  3
ADSK_XREC_LAYER_RECONCILED
360
921
  0
DICTIONARY
  5
664
330
663
100
AcDbDictionary
280
     1
281
     1
  3
ADSK_XREC_LAYER_RECONCILED
360
922
  0
DICTIONARY
  5
666
330
665
100
AcDbDictionary
280
     1
281
     1
  3
ADSK_XREC_LAYER_RECONCILED
360
923
  0
DICTIONARY
  5
924
330
919
100
AcDbDictionary
280
     1
281
     1
  3
ADSK_XREC_LAYER_RECONCILED
360
925
  0
DICTIONARY
  5
A8F
330
A8E
100
AcDbDictionary
280
     1
281
     1
  0
DICTIONARY
  5
8F
330
1F
100
AcDbDictionary
280
     1
281
     1
  3
ACAD_SORTENTS
360
915
  0
DICTIONARY
  5
8C5
330
8C4
100
AcDbDictionary
280
     1
281
     1
  3
ACAD_DIMASSOC
360
8C6
  0
DICTIONARY
  5
A34
330
A27
100
AcDbDictionary
280
     1
281
     1
  3
ACAD_DIMASSOC
360
A35
  0
DICTIONARY
  5
A70
330
A63
100
AcDbDictionary
280
     1
281
     1
  3
ACAD_DIMASSOC
360
A71
  0
DICTIONARY
  5
E5D
102
{ACAD_REACTORS
330
C
102
}
330
C
100
AcDbDictionary
281
     1
  3
DIMARCSYM
350
E5E
  3
DIMJOGANG
350
E5F
  3
DIMLTEX1
350
E61
  3
DIMLTEX2
350
E62
  3
DIMLTYPE
350
E60
  0
DICTIONARY
  5
BE
102
{ACAD_REACTORS
330
C
102
}
330
C
100
AcDbDictionary
281
     1
  0
DICTIONARY
  5
D
102
{ACAD_REACTORS
330
C
102
}
330
C
100
AcDbDictionary
281
     1
  0
DICTIONARY
  5
1A
102
{ACAD_REACTORS
330
C
102
}
330
C
100
AcDbDictionary
281
     1
  3
Layout1
350
1E
  3
Layout2
350
26
  3
Model
350
22
  0
DICTIONARY
  5
BD
102
{ACAD_REACTORS
330
C
102
}
330
C
100
AcDbDictionary
281
     1
  3
ByBlock
350
3BC
  3
ByLayer
350
3B4
  3
Global
350
3C4
  0
DICTIONARY
  5
3EF
102
{ACAD_REACTORS
330
C
102
}
330
C
100
AcDbDictionary
281
     1
  3
Standard
350
3F0
  0
DICTIONARY
  5
17
102
{ACAD_REACTORS
330
C
102
}
330
C
100
AcDbDictionary
281
     1
  3
Standard
350
18
  0
DICTIONARY
  5
19
102
{ACAD_REACTORS
330
C
102
}
330
C
100
AcDbDictionary
281
     1
  0
ACDBDICTIONARYWDFLT
  5
E
102
{ACAD_REACTORS
330
C
102
}
330
C
100
AcDbDictionary
281
     1
  3
Normal
350
F
100
AcDbDictionaryWithDefault
340
F
  0
DICTIONARY
  5
3DD
102
{ACAD_REACTORS
330
C
102
}
330
C
100
AcDbDictionary
281
     1
  3
A0
350
3DE
  3
A1
350
3DF
  3
A2
350
3E0
  3
A3
350
3E1
  3
A4
350
3E2
  3
A5
350
3E3
  3
A6
350
3E4
  3
A7
350
3E5
  3
A8
350
3E6
  3
A9
350
3E7
  3
B0
350
3E8
  3
B1
350
3E9
  3
B2
350
3EA
  3
B3
350
3EB
  3
B4
350
3EC
  3
B5
350
3ED
  3
B6
350
3EE
  0
DICTIONARY
  5
11A
102
{ACAD_REACTORS
330
C
102
}
330
C
100
AcDbDictionary
281
     1
  3
Standard
350
11B
  0
DICTIONARY
  5
3CC
102
{ACAD_REACTORS
330
C
102
}
330
C
100
AcDbDictionary
281
     1
  3
2dWireframe
350
3D2
  3
3D Hidden
350
3D4
  3
3dWireframe
350
3D3
  3
Basic
350
3D1
  3
Brighten
350
3D8
  3
ColorChange
350
3DC
  3
Conceptual
350
3D5
  3
Dim
350
3D7
  3
Facepattern
350
3DB
  3
Flat
350
3CD
  3
FlatWithEdges
350
3CE
  3
Gouraud
350
3CF
  3
GouraudWithEdges
350
3D0
  3
Linepattern
350
3DA
  3
Realistic
350
3D6
  3
Thicken
350
3D9
  0
XRECORD
  5
41D
102
{ACAD_REACTORS
330
C
102
}
330
C
100
AcDbXrecord
280
     1
 90
        1
330
11B
  0
DICTIONARY
  5
94
102
{ACAD_REACTORS
330
C
102
}
330
C
100
AcDbDictionary
281
     1
  3
CANNOSCALE
350
420
  3
CMLEADERSTYLE
350
41E
  3
CTABLESTYLE
350
138
  3
DIMASSOC
350
96
  3
INDEXCTL
350
95
  3
LAYEREVAL
350
422
  3
LAYERNOTIFY
350
423
  3
LIGHTINGUNITS
350
421
  3
MSLTSCALE
350
41F
  3
SORTENTS
350
926
  0
DICTIONARY
  5
5B
102
{ACAD_REACTORS
330
C
102
}
330
C
100
AcDbDictionary
281
     1
  3
AcmBOM
350
272
  3
AcmStdDictionary
350
61
  3
AMDTSECTSYM_ARROWCOLOR
350
123
  0
DICTIONARY
  5
6E8
102
{ACAD_REACTORS
330
C
102
}
330
C
100
AcDbDictionary
281
     1
  0
DICTIONARY
  5
41
102
{ACAD_REACTORS
330
C
102
}
330
C
100
AcDbDictionary
281
     1
  0
DICTIONARY
  5
26B
102
{ACAD_REACTORS
330
C
102
}
330
C
100
AcDbDictionary
281
     1
  0
XRECORD
  5
E5C
102
{ACAD_REACTORS
330
C
102
}
330
C
100
AcDbXrecord
280
     1
  1
DWGPROPS COOKIE
  2

  3

  4

  6

  7

  8
nlazaar
  9

300
AmdtFileType=84
301
=
302
=
303
=
304
=
305
=
306
=
307
=
308
=
309
=
 40
0.0841464120370371
 41
2455659.5605686
 42
2455665.438702373
  1

 90
        1
  0
DICTIONARY
  5
674
102
{ACAD_REACTORS
330
673
102
}
330
673
100
AcDbDictionary
281
     1
  0
XRECORD
  5
91D
102
{ACAD_REACTORS
330
91C
102
}
330
91C
100
AcDbXrecord
280
     1
290
     1
  0
XRECORD
  5
91E
102
{ACAD_REACTORS
330
65B
102
}
330
65B
100
AcDbXrecord
280
     1
290
     1
  0
XRECORD
  5
91F
102
{ACAD_REACTORS
330
65D
102
}
330
65D
100
AcDbXrecord
280
     1
290
     1
  0
XRECORD
  5
920
102
{ACAD_REACTORS
330
660
102
}
330
660
100
AcDbXrecord
280
     1
290
     1
  0
XRECORD
  5
921
102
{ACAD_REACTORS
330
662
102
}
330
662
100
AcDbXrecord
280
     1
290
     1
  0
XRECORD
  5
922
102
{ACAD_REACTORS
330
664
102
}
330
664
100
AcDbXrecord
280
     1
290
     1
  0
XRECORD
  5
923
102
{ACAD_REACTORS
330
666
102
}
330
666
100
AcDbXrecord
280
     1
290
     1
  0
XRECORD
  5
925
102
{ACAD_REACTORS
330
924
102
}
330
924
100
AcDbXrecord
280
     1
290
     1
  0
SORTENTSTABLE
  5
915
102
{ACAD_REACTORS
330
8F
102
}
330
8F
100
AcDbSortentsTable
330
1F
331
8A9
  5
8AC
331
88B
  5
88C
331
E1B
  5
E2A
331
B02
  5
B11
331
AE4
  5
AF3
331
8BE
  5
AD9
331
898
  5
89A
331
B0F
  5
E1F
331
AF1
  5
B00
331
E28
  5
8BF
331
8C1
  5
ADC
331
8A5
  5
8A8
331
887
  5
888
331
87A
  5
87B
331
85F
  5
85F
331
AD8
  5
AE7
331
8AA
  5
8AD
331
88C
  5
88D
331
E1C
  5
E2B
331
B03
  5
B12
331
AE5
  5
AF4
331
8BF
  5
ADA
331
899
  5
89B
331
B10
  5
E20
331
AF2
  5
B01
331
E29
  5
8C0
331
8C2
  5
ADD
331
87B
  5
87C
331
860
  5
860
331
8A6
  5
8A9
331
AD9
  5
AE8
331
8AB
  5
8AE
331
E1D
  5
E2C
331
B04
  5
B13
331
AE6
  5
AF5
331
861
  5
861
331
89A
  5
89C
331
B11
  5
E21
331
AF3
  5
B02
331
E2A
  5
8C1
331
8C3
  5
ADE
331
8A7
  5
8AA
331
87C
  5
87D
331
88D
  5
88E
331
AF8
  5
B07
331
ADA
  5
AE9
331
8C8
  5
AE1
331
88E
  5
88F
331
870
  5
871
331
E1E
  5
E2D
331
B05
  5
B14
331
AE7
  5
AF6
331
89B
  5
89D
331
B12
  5
E22
331
AF4
  5
B03
331
E2B
  5
8C2
331
8C4
  5
ADF
331
87D
  5
87E
331
862
  5
862
331
8AC
  5
8AF
331
AF9
  5
B08
331
ADB
  5
AEA
331
8C9
  5
AE2
331
88F
  5
890
331
E1F
  5
E2E
331
B06
  5
B15
331
AE8
  5
AF7
331
863
  5
863
331
89C
  5
89E
331
87E
  5
87F
331
B13
  5
E23
331
AF5
  5
B04
331
E2C
  5
8C3
331
868
  5
868
331
871
  5
872
331
B18
  5
E28
331
AFA
  5
B09
331
ADC
  5
AEB
331
8CA
  5
AE3
331
8B2
  5
8B5
331
890
  5
891
331
872
  5
873
331
B07
  5
B16
331
A27
  5
AE5
331
AE9
  5
AF8
331
E20
  5
8B7
331
89D
  5
8A0
331
87F
  5
880
331
B14
  5
E24
331
AF6
  5
B05
331
E2D
  5
8C4
331
869
  5
869
331
864
  5
864
331
AFB
  5
B0A
331
ADD
  5
AEC
331
873
  5
874
331
B08
  5
B17
331
AEA
  5
AF9
331
E21
  5
8B8
331
865
  5
865
331
914
  5
89F
331
89E
  5
8A1
331
B15
  5
E25
331
AF7
  5
B06
331
E2E
  5
8C7
331
8C7
  5
AE0
331
880
  5
881
331
891
  5
892
331
AFC
  5
B0B
331
ADE
  5
AED
331
8B8
  5
916
331
8B4
  5
8C8
331
892
  5
893
331
874
  5
875
331
B09
  5
B18
331
AEB
  5
AFA
331
E22
  5
8B9
331
89F
  5
8A2
331
881
  5
882
331
B16
  5
E26
331
86B
  5
86C
331
866
  5
866
331
AFD
  5
B0C
331
ADF
  5
AEE
331
8B9
  5
917
331
8B5
  5
8C9
331
875
  5
876
331
B0A
  5
E1A
331
AEC
  5
AFB
331
E23
  5
8BA
331
867
  5
867
331
916
  5
86A
331
8A0
  5
8A3
331
B17
  5
E27
331
86C
  5
86D
331
882
  5
883
331
893
  5
894
331
AFE
  5
B0D
331
AE0
  5
AEF
331
8BA
  5
91B
331
8B6
  5
8CA
331
894
  5
895
331
B0B
  5
E1B
331
A63
  5
AE6
331
AED
  5
AFC
331
E24
  5
8BB
331
917
  5
898
331
8A1
  5
8A4
331
883
  5
884
331
86D
  5
86E
331
876
  5
877
331
AFF
  5
B0E
331
AE1
  5
AF0
331
8BB
  5
A27
331
888
  5
889
331
8B7
  5
914
331
895
  5
896
331
B0C
  5
E1C
331
AEE
  5
AFD
331
E25
  5
8BC
331
91B
  5
AE4
331
884
  5
885
331
86E
  5
86F
331
8A2
  5
8A5
331
877
  5
878
331
B00
  5
B0F
331
AE2
  5
AF1
331
8BC
  5
A63
331
896
  5
897
331
B0D
  5
E1D
331
AEF
  5
AFE
331
8A3
  5
8A6
331
885
  5
886
331
86F
  5
870
331
878
  5
879
331
889
  5
88A
331
8A8
  5
8AB
331
88A
  5
88B
331
E1A
  5
E29
331
B01
  5
B10
331
AE3
  5
AF2
331
8BD
  5
AD8
331
85E
  5
85E
331
B0E
  5
E1E
331
AF0
  5
AFF
331
E27
  5
8BE
331
8C0
  5
ADB
331
879
  5
87A
331
886
  5
887
331
8A4
  5
8A7
331
897
  5
899
  0
DIMASSOC
  5
8C6
102
{ACAD_REACTORS
330
8C5
102
}
330
8C5
100
AcDbDimAssoc
330
8C4
 90
        3
 70
     0
 71
     0
  1
AcDbOsnapPointRef
 72
    13
331
8C0
 73
     0
 91
        0
 40
0.0
 10
0.0
 20
0.0
 30
2.000000000000000E+50
 75
     0
  1
AcDbOsnapPointRef
 72
     2
331
8AC
 73
     0
 91
        0
 40
0.0
 10
0.0
 20
0.0
 30
0.0
 75
     0
  0
DIMASSOC
  5
A35
102
{ACAD_REACTORS
330
A34
102
}
330
A34
100
AcDbDimAssoc
330
A27
 90
        3
 70
     0
 71
     0
  1
AcDbOsnapPointRef
 72
    13
331
91B
 73
     0
 91
        0
 40
0.0
 10
0.0
 20
0.0
 30
2.000000000000000E+50
 75
     0
  1
AcDbOsnapPointRef
 72
    13
331
866
 73
     0
 91
        0
 40
0.0
 10
0.0
 20
0.0
 30
2.000000000000000E+50
 75
     0
  0
DIMASSOC
  5
A71
102
{ACAD_REACTORS
330
A70
102
}
330
A70
100
AcDbDimAssoc
330
A63
 90
        3
 70
     0
 71
     0
  1
AcDbOsnapPointRef
 72
     1
331
86B
 73
     0
 91
        0
 40
0.0
 10
0.0
 20
0.0
 30
2.000000000000000E+50
 75
     0
  1
AcDbOsnapPointRef
 72
     1
331
917
 73
     0
 91
        0
 40
0.0
 10
0.0
 20
0.0
 30
2.000000000000000E+50
 75
     0
  0
XRECORD
  5
E5E
102
{ACAD_REACTORS
330
E5D
102
}
330
E5D
100
AcDbXrecord
280
     1
 70
     1
  0
XRECORD
  5
E5F
102
{ACAD_REACTORS
330
E5D
102
}
330
E5D
100
AcDbXrecord
280
     1
 40
1.570796326794896
  0
XRECORD
  5
E61
102
{ACAD_REACTORS
330
E5D
102
}
330
E5D
100
AcDbXrecord
280
     1
340
14
  0
XRECORD
  5
E62
102
{ACAD_REACTORS
330
E5D
102
}
330
E5D
100
AcDbXrecord
280
     1
340
14
  0
XRECORD
  5
E60
102
{ACAD_REACTORS
330
E5D
102
}
330
E5D
100
AcDbXrecord
280
     1
340
14
  0
LAYOUT
  5
1E
102
{ACAD_XDICTIONARY
360
E63
102
}
102
{ACAD_REACTORS
330
1A
102
}
330
1A
100
AcDbPlotSettings
  1

  2

  4

  6

 40
0.0
 41
0.0
 42
0.0
 43
0.0
 44
0.0
 45
0.0
 46
0.0
 47
0.0
 48
0.0
 49
0.0
140
0.0
141
0.0
142
1.0
143
1.0
 70
   688
 72
     0
 73
     0
 74
     5
  7

 75
    16
147
1.0
148
0.0
149
0.0
100
AcDbLayout
  1
Layout1
 70
     1
 71
     1
 10
0.0
 20
0.0
 11
420.0
 21
297.0
 12
0.0
 22
0.0
 32
0.0
 14
1.000000000000000E+20
 24
1.000000000000000E+20
 34
1.000000000000000E+20
 15
-1.000000000000000E+20
 25
-1.000000000000000E+20
 35
-1.000000000000000E+20
146
0.0
 13
0.0
 23
0.0
 33
0.0
 16
1.0
 26
0.0
 36
0.0
 17
0.0
 27
1.0
 37
0.0
 76
     0
330
1B
  0
LAYOUT
  5
26
102
{ACAD_XDICTIONARY
360
E67
102
}
102
{ACAD_REACTORS
330
1A
102
}
330
1A
100
AcDbPlotSettings
  1

  2

  4

  6

 40
0.0
 41
0.0
 42
0.0
 43
0.0
 44
0.0
 45
0.0
 46
0.0
 47
0.0
 48
0.0
 49
0.0
140
0.0
141
0.0
142
1.0
143
1.0
 70
   688
 72
     0
 73
     0
 74
     5
  7

 75
    16
147
1.0
148
0.0
149
0.0
100
AcDbLayout
  1
Layout2
 70
     1
 71
     2
 10
0.0
 20
0.0
 11
12.0
 21
9.0
 12
0.0
 22
0.0
 32
0.0
 14
0.0
 24
0.0
 34
0.0
 15
0.0
 25
0.0
 35
0.0
146
0.0
 13
0.0
 23
0.0
 33
0.0
 16
1.0
 26
0.0
 36
0.0
 17
0.0
 27
1.0
 37
0.0
 76
     0
330
23
  0
LAYOUT
  5
22
102
{ACAD_XDICTIONARY
360
E65
102
}
102
{ACAD_REACTORS
330
1A
102
}
330
1A
100
AcDbPlotSettings
  1

  2

  4

  6

 40
0.0
 41
0.0
 42
0.0
 43
0.0
 44
0.0
 45
0.0
 46
0.0
 47
0.0
 48
0.0
 49
0.0
140
0.0
141
0.0
142
1.0
143
1.0
 70
  1712
 72
     0
 73
     0
 74
     0
  7

 75
     0
147
1.0
148
0.0
149
0.0
100
AcDbLayout
  1
Model
 70
     1
 71
     0
 10
0.0
 20
0.0
 11
12.0
 21
9.0
 12
0.0
 22
0.0
 32
0.0
 14
0.0
 24
0.0
 34
0.0
 15
0.0
 25
0.0
 35
0.0
146
0.0
 13
0.0
 23
0.0
 33
0.0
 16
1.0
 26
0.0
 36
0.0
 17
0.0
 27
1.0
 37
0.0
 76
     0
330
1F
331
3B2
  0
MATERIAL
  5
3BC
102
{ACAD_XDICTIONARY
360
3BD
102
}
102
{ACAD_REACTORS
330
BD
102
}
330
BD
100
AcDbMaterial
  1
ByBlock
 72
     0
 43
0.0008202099737533
 43
0.0
 43
0.0
 43
0.0
 43
0.0
 43
0.0008202099737533
 43
0.0
 43
0.0
 43
0.0
 43
0.0
 43
1.0
 43
0.0
 43
0.0
 43
0.0
 43
0.0
 43
1.0
 77
     0
 47
0.0008202099737533
 47
0.0
 47
0.0
 47
0.0
 47
0.0
 47
0.0008202099737533
 47
0.0
 47
0.0
 47
0.0
 47
0.0
 47
1.0
 47
0.0
 47
0.0
 47
0.0
 47
0.0
 47
1.0
171
     0
 49
0.0008202099737533
 49
0.0
 49
0.0
 49
0.0
 49
0.0
 49
0.0008202099737533
 49
0.0
 49
0.0
 49
0.0
 49
0.0
 49
1.0
 49
0.0
 49
0.0
 49
0.0
 49
0.0
 49
1.0
175
     0
142
0.0008202099737533
142
0.0
142
0.0
142
0.0
142
0.0
142
0.0008202099737533
142
0.0
142
0.0
142
0.0
142
0.0
142
1.0
142
0.0
142
0.0
142
0.0
142
0.0
142
1.0
179
     0
144
0.0008202099737533
144
0.0
144
0.0
144
0.0
144
0.0
144
0.0008202099737533
144
0.0
144
0.0
144
0.0
144
0.0
144
1.0
144
0.0
144
0.0
144
0.0
144
0.0
144
1.0
147
0.0008202099737533
147
0.0
147
0.0
147
0.0
147
0.0
147
0.0008202099737533
147
0.0
147
0.0
147
0.0
147
0.0
147
1.0
147
0.0
147
0.0
147
0.0
147
0.0
147
1.0
  0
MATERIAL
  5
3B4
102
{ACAD_XDICTIONARY
360
3B5
102
}
102
{ACAD_REACTORS
330
BD
102
}
330
BD
100
AcDbMaterial
  1
ByLayer
 72
     0
 43
0.0008202099737533
 43
0.0
 43
0.0
 43
0.0
 43
0.0
 43
0.0008202099737533
 43
0.0
 43
0.0
 43
0.0
 43
0.0
 43
1.0
 43
0.0
 43
0.0
 43
0.0
 43
0.0
 43
1.0
 77
     0
 47
0.0008202099737533
 47
0.0
 47
0.0
 47
0.0
 47
0.0
 47
0.0008202099737533
 47
0.0
 47
0.0
 47
0.0
 47
0.0
 47
1.0
 47
0.0
 47
0.0
 47
0.0
 47
0.0
 47
1.0
171
     0
 49
0.0008202099737533
 49
0.0
 49
0.0
 49
0.0
 49
0.0
 49
0.0008202099737533
 49
0.0
 49
0.0
 49
0.0
 49
0.0
 49
1.0
 49
0.0
 49
0.0
 49
0.0
 49
0.0
 49
1.0
175
     0
142
0.0008202099737533
142
0.0
142
0.0
142
0.0
142
0.0
142
0.0008202099737533
142
0.0
142
0.0
142
0.0
142
0.0
142
1.0
142
0.0
142
0.0
142
0.0
142
0.0
142
1.0
179
     0
144
0.0008202099737533
144
0.0
144
0.0
144
0.0
144
0.0
144
0.0008202099737533
144
0.0
144
0.0
144
0.0
144
0.0
144
1.0
144
0.0
144
0.0
144
0.0
144
0.0
144
1.0
147
0.0008202099737533
147
0.0
147
0.0
147
0.0
147
0.0
147
0.0008202099737533
147
0.0
147
0.0
147
0.0
147
0.0
147
1.0
147
0.0
147
0.0
147
0.0
147
0.0
147
1.0
  0
MATERIAL
  5
3C4
102
{ACAD_XDICTIONARY
360
3C5
102
}
102
{ACAD_REACTORS
330
BD
102
}
330
BD
100
AcDbMaterial
  1
Global
 72
     0
 43
0.0008202099737533
 43
0.0
 43
0.0
 43
0.0
 43
0.0
 43
0.0008202099737533
 43
0.0
 43
0.0
 43
0.0
 43
0.0
 43
1.0
 43
0.0
 43
0.0
 43
0.0
 43
0.0
 43
1.0
 77
     0
 47
0.0008202099737533
 47
0.0
 47
0.0
 47
0.0
 47
0.0
 47
0.0008202099737533
 47
0.0
 47
0.0
 47
0.0
 47
0.0
 47
1.0
 47
0.0
 47
0.0
 47
0.0
 47
0.0
 47
1.0
171
     0
 49
0.0008202099737533
 49
0.0
 49
0.0
 49
0.0
 49
0.0
 49
0.0008202099737533
 49
0.0
 49
0.0
 49
0.0
 49
0.0
 49
1.0
 49
0.0
 49
0.0
 49
0.0
 49
0.0
 49
1.0
175
     0
142
0.0008202099737533
142
0.0
142
0.0
142
0.0
142
0.0
142
0.0008202099737533
142
0.0
142
0.0
142
0.0
142
0.0
142
1.0
142
0.0
142
0.0
142
0.0
142
0.0
142
1.0
179
     0
144
0.0008202099737533
144
0.0
144
0.0
144
0.0
144
0.0
144
0.0008202099737533
144
0.0
144
0.0
144
0.0
144
0.0
144
1.0
144
0.0
144
0.0
144
0.0
144
0.0
144
1.0
147
0.0008202099737533
147
0.0
147
0.0
147
0.0
147
0.0
147
0.0008202099737533
147
0.0
147
0.0
147
0.0
147
0.0
147
1.0
147
0.0
147
0.0
147
0.0
147
0.0
147
1.0
  0
MLEADERSTYLE
  5
3F0
102
{ACAD_REACTORS
330
3EF
102
}
330
3EF
100
AcDbMLeaderStyle
170
     2
171
     1
172
     0
 90
        2
 40
0.0
 41
0.0
173
     1
 91
-1056964608
340
14
 92
       -2
290
     1
 42
2.0
291
     1
 43
0.36
  3
Standard
 44
4.0
300

342
11
174
     1
178
     6
175
     1
176
     0
 93
-1056964608
 45
4.0
292
     0
297
     0
 46
4.0
 94
-1056964608
 47
1.0
 49
1.0
140
1.0
293
     1
141
0.0
294
     1
177
     0
142
1.0
295
     0
296
     0
143
0.125
1001
ACAD_MLEADERVER
1070
     2
  0
MLINESTYLE
  5
18
102
{ACAD_REACTORS
330
17
102
}
330
17
100
AcDbMlineStyle
  2
STANDARD
 70
     0
  3

 62
   256
 51
90.0
 52
90.0
 71
     2
 49
0.5
 62
   256
  6
BYLAYER
 49
-0.5
 62
   256
  6
BYLAYER
  0
ACDBPLACEHOLDER
  5
F
102
{ACAD_REACTORS
330
E
102
}
330
E
  0
SCALE
  5
3DE
102
{ACAD_REACTORS
330
3DD
102
}
330
3DD
100
AcDbScale
 70
     0
300
1:1
140
1.0
141
1.0
290
     1
  0
SCALE
  5
3DF
102
{ACAD_REACTORS
330
3DD
102
}
330
3DD
100
AcDbScale
 70
     0
300
1:2
140
1.0
141
2.0
290
     0
  0
SCALE
  5
3E0
102
{ACAD_REACTORS
330
3DD
102
}
330
3DD
100
AcDbScale
 70
     0
300
1:4
140
1.0
141
4.0
290
     0
  0
SCALE
  5
3E1
102
{ACAD_REACTORS
330
3DD
102
}
330
3DD
100
AcDbScale
 70
     0
300
1:5
140
1.0
141
5.0
290
     0
  0
SCALE
  5
3E2
102
{ACAD_REACTORS
330
3DD
102
}
330
3DD
100
AcDbScale
 70
     0
300
1:8
140
1.0
141
8.0
290
     0
  0
SCALE
  5
3E3
102
{ACAD_REACTORS
330
3DD
102
}
330
3DD
100
AcDbScale
 70
     0
300
1:10
140
1.0
141
10.0
290
     0
  0
SCALE
  5
3E4
102
{ACAD_REACTORS
330
3DD
102
}
330
3DD
100
AcDbScale
 70
     0
300
1:16
140
1.0
141
16.0
290
     0
  0
SCALE
  5
3E5
102
{ACAD_REACTORS
330
3DD
102
}
330
3DD
100
AcDbScale
 70
     0
300
1:20
140
1.0
141
20.0
290
     0
  0
SCALE
  5
3E6
102
{ACAD_REACTORS
330
3DD
102
}
330
3DD
100
AcDbScale
 70
     0
300
1:30
140
1.0
141
30.0
290
     0
  0
SCALE
  5
3E7
102
{ACAD_REACTORS
330
3DD
102
}
330
3DD
100
AcDbScale
 70
     0
300
1:40
140
1.0
141
40.0
290
     0
  0
SCALE
  5
3E8
102
{ACAD_REACTORS
330
3DD
102
}
330
3DD
100
AcDbScale
 70
     0
300
1:50
140
1.0
141
50.0
290
     0
  0
SCALE
  5
3E9
102
{ACAD_REACTORS
330
3DD
102
}
330
3DD
100
AcDbScale
 70
     0
300
1:100
140
1.0
141
100.0
290
     0
  0
SCALE
  5
3EA
102
{ACAD_REACTORS
330
3DD
102
}
330
3DD
100
AcDbScale
 70
     0
300
2:1
140
2.0
141
1.0
290
     0
  0
SCALE
  5
3EB
102
{ACAD_REACTORS
330
3DD
102
}
330
3DD
100
AcDbScale
 70
     0
300
4:1
140
4.0
141
1.0
290
     0
  0
SCALE
  5
3EC
102
{ACAD_REACTORS
330
3DD
102
}
330
3DD
100
AcDbScale
 70
     0
300
8:1
140
8.0
141
1.0
290
     0
  0
SCALE
  5
3ED
102
{ACAD_REACTORS
330
3DD
102
}
330
3DD
100
AcDbScale
 70
     0
300
10:1
140
10.0
141
1.0
290
     0
  0
SCALE
  5
3EE
102
{ACAD_REACTORS
330
3DD
102
}
330
3DD
100
AcDbScale
 70
     0
300
100:1
140
100.0
141
1.0
290
     0
  0
TABLESTYLE
  5
11B
102
{ACAD_XDICTIONARY
360
41B
102
}
102
{ACAD_REACTORS
330
11A
102
}
330
11A
100
AcDbTableStyle
  3
Standard
 70
     0
 71
     0
 40
1.5
 41
1.5
280
     0
281
     0
  7
STANDARD
140
4.5
170
     2
 62
     0
 63
     7
283
     0
274
    -2
284
     1
 64
     0
275
    -2
285
     1
 65
     0
276
    -2
286
     1
 66
     0
277
    -2
287
     1
 67
     0
278
    -2
288
     1
 68
     0
279
    -2
289
     1
 69
     0
  7
STANDARD
140
6.0
170
     5
 62
     0
 63
     7
283
     0
274
    -2
284
     1
 64
     0
275
    -2
285
     1
 65
     0
276
    -2
286
     1
 66
     0
277
    -2
287
     1
 67
     0
278
    -2
288
     1
 68
     0
279
    -2
289
     1
 69
     0
  7
STANDARD
140
4.5
170
     5
 62
     0
 63
     7
283
     0
274
    -2
284
     1
 64
     0
275
    -2
285
     1
 65
     0
276
    -2
286
     1
 66
     0
277
    -2
287
     1
 67
     0
278
    -2
288
     1
 68
     0
279
    -2
289
     1
 69
     0
  0
VISUALSTYLE
  5
3D2
102
{ACAD_REACTORS
330
3CC
102
}
330
3CC
100
AcDbVisualStyle
  2
2dWireframe
 70
     4
 71
     0
 72
     2
 73
     0
 90
        0
 40
-0.6
 41
-30.0
 62
     5
 63
     7
 74
     1
 91
        4
 64
     7
 65
   257
 75
     1
175
     1
 42
1.0
 92
        0
 66
   257
 43
1.0
 76
     1
 77
     6
 78
     2
 67
     7
 79
     5
170
     0
171
     0
290
     0
174
     0
 93
        1
 44
0.0
173
     0
291
     0
 45
0.0
1001
ACAD
1000
AcDbSavedByObjectVersion
1070
     0
1000
AcDbSavedByObjectVersion
1070
     0
1000
AcDbSavedByObjectVersion
1070
     0
1000
AcDbSavedByObjectVersion
1070
     0
1000
AcDbSavedByObjectVersion
1070
     0
  0
VISUALSTYLE
  5
3D4
102
{ACAD_REACTORS
330
3CC
102
}
330
3CC
100
AcDbVisualStyle
  2
3D Hidden
 70
     6
 71
     1
 72
     2
 73
     2
 90
        0
 40
-0.6
 41
-30.0
 62
     5
 63
     7
 74
     2
 91
        2
 64
     7
 65
   257
 75
     2
175
     1
 42
40.0
 92
        0
 66
   257
 43
1.0
 76
     1
 77
     6
 78
     2
 67
     7
 79
     3
170
     0
171
     0
290
     0
174
     0
 93
        1
 44
0.0
173
     0
291
     0
 45
0.0
1001
ACAD
1000
AcDbSavedByObjectVersion
1070
     0
1000
AcDbSavedByObjectVersion
1070
     0
1000
AcDbSavedByObjectVersion
1070
     0
1000
AcDbSavedByObjectVersion
1070
     0
1000
AcDbSavedByObjectVersion
1070
     0
  0
VISUALSTYLE
  5
3D3
102
{ACAD_REACTORS
330
3CC
102
}
330
3CC
100
AcDbVisualStyle
  2
3dWireframe
 70
     5
 71
     0
 72
     2
 73
     0
 90
        0
 40
-0.6
 41
-30.0
 62
     5
 63
     7
 74
     1
 91
        4
 64
     7
 65
   257
 75
     1
175
     1
 42
1.0
 92
        0
 66
   257
 43
1.0
 76
     1
 77
     6
 78
     2
 67
     7
 79
     5
170
     0
171
     0
290
     0
174
     0
 93
        1
 44
0.0
173
     0
291
     0
 45
0.0
1001
ACAD
1000
AcDbSavedByObjectVersion
1070
     0
1000
AcDbSavedByObjectVersion
1070
     0
1000
AcDbSavedByObjectVersion
1070
     0
1000
AcDbSavedByObjectVersion
1070
     0
1000
AcDbSavedByObjectVersion
1070
     0
  0
VISUALSTYLE
  5
3D1
102
{ACAD_REACTORS
330
3CC
102
}
330
3CC
100
AcDbVisualStyle
  2
Basic
 70
     7
 71
     1
 72
     0
 73
     1
 90
        0
 40
-0.6
 41
-30.0
 62
     5
 63
     7
 74
     0
 91
        4
 64
     7
 65
   257
 75
     1
175
     1
 42
1.0
 92
        8
 66
     7
 43
1.0
 76
     1
 77
     6
 78
     2
 67
     7
 79
     5
170
     0
171
     0
290
     0
174
     0
 93
        1
 44
0.0
173
     0
291
     1
 45
0.0
1001
ACAD
1000
AcDbSavedByObjectVersion
1070
     0
1000
AcDbSavedByObjectVersion
1070
     0
1000
AcDbSavedByObjectVersion
1070
     0
1000
AcDbSavedByObjectVersion
1070
     0
1000
AcDbSavedByObjectVersion
1070
     0
  0
VISUALSTYLE
  5
3D8
102
{ACAD_REACTORS
330
3CC
102
}
330
3CC
100
AcDbVisualStyle
  2
Brighten
 70
    12
 71
     2
 72
     2
 73
     0
 90
        0
 40
-0.6
 41
-30.0
 62
     5
 63
     7
 74
     1
 91
        4
 64
     7
 65
   257
 75
     1
175
     1
 42
1.0
 92
        8
 66
     7
 43
1.0
 76
     1
 77
     6
 78
     2
 67
     7
 79
     5
170
     0
171
     0
290
     0
174
     0
 93
        1
 44
50.0
173
     0
291
     1
 45
0.0
1001
ACAD
1000
AcDbSavedByObjectVersion
1070
     0
1000
AcDbSavedByObjectVersion
1070
     0
1000
AcDbSavedByObjectVersion
1070
     0
1000
AcDbSavedByObjectVersion
1070
     0
1000
AcDbSavedByObjectVersion
1070
     0
  0
VISUALSTYLE
  5
3DC
102
{ACAD_REACTORS
330
3CC
102
}
330
3CC
100
AcDbVisualStyle
  2
ColorChange
 70
    16
 71
     2
 72
     2
 73
     3
 90
        0
 40
-0.6
 41
-30.0
 62
     5
 63
     8
 74
     1
 91
        4
 64
     7
 65
   257
 75
     1
175
     1
 42
1.0
 92
        8
 66
     8
 43
1.0
 76
     1
 77
     6
 78
     2
 67
     7
 79
     5
170
     0
171
     0
290
     0
174
     0
 93
        1
 44
0.0
173
     0
291
     1
 45
0.0
1001
ACAD
1000
AcDbSavedByObjectVersion
1070
     0
1000
AcDbSavedByObjectVersion
1070
     0
1000
AcDbSavedByObjectVersion
1070
     0
1000
AcDbSavedByObjectVersion
1070
     0
1000
AcDbSavedByObjectVersion
1070
     0
  0
VISUALSTYLE
  5
3D5
102
{ACAD_REACTORS
330
3CC
102
}
330
3CC
100
AcDbVisualStyle
  2
Conceptual
 70
     9
 71
     3
 72
     2
 73
     0
 90
        0
 40
-0.6
 41
-30.0
 62
     5
 63
     7
 74
     2
 91
        2
 64
     7
 65
   257
 75
     1
175
     1
 42
40.0
 92
        8
 66
     7
 43
1.0
 76
     1
 77
     6
 78
     2
 67
     7
 79
     3
170
     0
171
     0
290
     0
174
     0
 93
        1
 44
0.0
173
     0
291
     0
 45
0.0
1001
ACAD
1000
AcDbSavedByObjectVersion
1070
     0
1000
AcDbSavedByObjectVersion
1070
     0
1000
AcDbSavedByObjectVersion
1070
     0
1000
AcDbSavedByObjectVersion
1070
     0
1000
AcDbSavedByObjectVersion
1070
     0
  0
VISUALSTYLE
  5
3D7
102
{ACAD_REACTORS
330
3CC
102
}
330
3CC
100
AcDbVisualStyle
  2
Dim
 70
    11
 71
     2
 72
     2
 73
     0
 90
        0
 40
-0.6
 41
-30.0
 62
     5
 63
     7
 74
     1
 91
        4
 64
     7
 65
   257
 75
     1
175
     1
 42
1.0
 92
        8
 66
     7
 43
1.0
 76
     1
 77
     6
 78
     2
 67
     7
 79
     5
170
     0
171
     0
290
     0
174
     0
 93
        1
 44
-50.0
173
     0
291
     1
 45
0.0
1001
ACAD
1000
AcDbSavedByObjectVersion
1070
     0
1000
AcDbSavedByObjectVersion
1070
     0
1000
AcDbSavedByObjectVersion
1070
     0
1000
AcDbSavedByObjectVersion
1070
     0
1000
AcDbSavedByObjectVersion
1070
     0
  0
VISUALSTYLE
  5
3DB
102
{ACAD_REACTORS
330
3CC
102
}
330
3CC
100
AcDbVisualStyle
  2
Facepattern
 70
    15
 71
     2
 72
     2
 73
     0
 90
        0
 40
-0.6
 41
-30.0
 62
     5
 63
     7
 74
     1
 91
        4
 64
     7
 65
   257
 75
     1
175
     1
 42
1.0
 92
        8
 66
     7
 43
1.0
 76
     1
 77
     6
 78
     2
 67
     7
 79
     5
170
     0
171
     0
290
     0
174
     0
 93
        1
 44
0.0
173
     0
291
     1
 45
0.0
1001
ACAD
1000
AcDbSavedByObjectVersion
1070
     0
1000
AcDbSavedByObjectVersion
1070
     0
1000
AcDbSavedByObjectVersion
1070
     0
1000
AcDbSavedByObjectVersion
1070
     0
1000
AcDbSavedByObjectVersion
1070
     0
  0
VISUALSTYLE
  5
3CD
102
{ACAD_REACTORS
330
3CC
102
}
330
3CC
100
AcDbVisualStyle
  2
Flat
 70
     0
 71
     2
 72
     1
 73
     1
 90
        2
 40
-0.6
 41
30.0
 62
     5
 63
     7
 74
     0
 91
        4
 64
     7
 65
   257
 75
     1
175
     1
 42
1.0
 92
        8
 66
     7
 43
1.0
 76
     1
 77
     6
 78
     2
 67
     7
 79
     5
170
     0
171
     0
290
     0
174
     0
 93
       13
 44
0.0
173
     0
291
     1
 45
0.0
1001
ACAD
1000
AcDbSavedByObjectVersion
1070
     0
1000
AcDbSavedByObjectVersion
1070
     0
1000
AcDbSavedByObjectVersion
1070
     0
1000
AcDbSavedByObjectVersion
1070
     0
1000
AcDbSavedByObjectVersion
1070
     0
  0
VISUALSTYLE
  5
3CE
102
{ACAD_REACTORS
330
3CC
102
}
330
3CC
100
AcDbVisualStyle
  2
FlatWithEdges
 70
     1
 71
     2
 72
     1
 73
     1
 90
        2
 40
-0.6
 41
30.0
 62
     5
 63
     7
 74
     1
 91
        4
 64
     7
 65
   257
 75
     1
175
     1
 42
1.0
 92
        0
 66
   257
 43
1.0
 76
     1
 77
     6
 78
     2
 67
     7
 79
     5
170
     0
171
     0
290
     0
174
     0
 93
       13
 44
0.0
173
     0
291
     1
 45
0.0
1001
ACAD
1000
AcDbSavedByObjectVersion
1070
     0
1000
AcDbSavedByObjectVersion
1070
     0
1000
AcDbSavedByObjectVersion
1070
     0
1000
AcDbSavedByObjectVersion
1070
     0
1000
AcDbSavedByObjectVersion
1070
     0
  0
VISUALSTYLE
  5
3CF
102
{ACAD_REACTORS
330
3CC
102
}
330
3CC
100
AcDbVisualStyle
  2
Gouraud
 70
     2
 71
     2
 72
     2
 73
     1
 90
        2
 40
-0.6
 41
30.0
 62
     5
 63
     7
 74
     0
 91
        4
 64
     7
 65
   257
 75
     1
175
     1
 42
1.0
 92
        0
 66
     7
 43
1.0
 76
     1
 77
     6
 78
     2
 67
     7
 79
     5
170
     0
171
     0
290
     0
174
     0
 93
       13
 44
0.0
173
     0
291
     1
 45
0.0
1001
ACAD
1000
AcDbSavedByObjectVersion
1070
     0
1000
AcDbSavedByObjectVersion
1070
     0
1000
AcDbSavedByObjectVersion
1070
     0
1000
AcDbSavedByObjectVersion
1070
     0
1000
AcDbSavedByObjectVersion
1070
     0
  0
VISUALSTYLE
  5
3D0
102
{ACAD_REACTORS
330
3CC
102
}
330
3CC
100
AcDbVisualStyle
  2
GouraudWithEdges
 70
     3
 71
     2
 72
     2
 73
     1
 90
        2
 40
-0.6
 41
30.0
 62
     5
 63
     7
 74
     1
 91
        4
 64
     7
 65
   257
 75
     1
175
     1
 42
1.0
 92
        0
 66
   257
 43
1.0
 76
     1
 77
     6
 78
     2
 67
     7
 79
     5
170
     0
171
     0
290
     0
174
     0
 93
       13
 44
0.0
173
     0
291
     1
 45
0.0
1001
ACAD
1000
AcDbSavedByObjectVersion
1070
     0
1000
AcDbSavedByObjectVersion
1070
     0
1000
AcDbSavedByObjectVersion
1070
     0
1000
AcDbSavedByObjectVersion
1070
     0
1000
AcDbSavedByObjectVersion
1070
     0
  0
VISUALSTYLE
  5
3DA
102
{ACAD_REACTORS
330
3CC
102
}
330
3CC
100
AcDbVisualStyle
  2
Linepattern
 70
    14
 71
     2
 72
     2
 73
     0
 90
        0
 40
-0.6
 41
-30.0
 62
     5
 63
     7
 74
     1
 91
        4
 64
     7
 65
   257
 75
     7
175
     7
 42
1.0
 92
        8
 66
     7
 43
1.0
 76
     1
 77
     6
 78
     2
 67
     7
 79
     5
170
     0
171
     0
290
     0
174
     0
 93
        1
 44
0.0
173
     0
291
     1
 45
0.0
1001
ACAD
1000
AcDbSavedByObjectVersion
1070
     0
1000
AcDbSavedByObjectVersion
1070
     0
1000
AcDbSavedByObjectVersion
1070
     0
1000
AcDbSavedByObjectVersion
1070
     0
1000
AcDbSavedByObjectVersion
1070
     0
  0
VISUALSTYLE
  5
3D6
102
{ACAD_REACTORS
330
3CC
102
}
330
3CC
100
AcDbVisualStyle
  2
Realistic
 70
     8
 71
     2
 72
     2
 73
     0
 90
        0
 40
-0.6
 41
-30.0
 62
     5
 63
     7
 74
     1
 91
        0
 64
     7
 65
   257
 75
     1
175
     1
 42
1.0
 92
        8
 66
     8
 43
1.0
 76
     1
 77
     6
 78
     2
 67
     7
 79
     5
170
     0
171
     0
290
     0
174
     0
 93
       13
 44
0.0
173
     0
291
     0
 45
0.0
1001
ACAD
1000
AcDbSavedByObjectVersion
1070
     0
1000
AcDbSavedByObjectVersion
1070
     0
1000
AcDbSavedByObjectVersion
1070
     0
1000
AcDbSavedByObjectVersion
1070
     0
1000
AcDbSavedByObjectVersion
1070
     0
  0
VISUALSTYLE
  5
3D9
102
{ACAD_REACTORS
330
3CC
102
}
330
3CC
100
AcDbVisualStyle
  2
Thicken
 70
    13
 71
     2
 72
     2
 73
     0
 90
        0
 40
-0.6
 41
-30.0
 62
     5
 63
     7
 74
     1
 91
        4
 64
     7
 65
   257
 75
     1
175
     1
 42
1.0
 92
       12
 66
     7
 43
1.0
 76
     1
 77
     6
 78
     2
 67
     7
 79
     5
170
     0
171
     0
290
     0
174
     0
 93
        1
 44
0.0
173
     0
291
     1
 45
0.0
1001
ACAD
1000
AcDbSavedByObjectVersion
1070
     0
1000
AcDbSavedByObjectVersion
1070
     0
1000
AcDbSavedByObjectVersion
1070
     0
1000
AcDbSavedByObjectVersion
1070
     0
1000
AcDbSavedByObjectVersion
1070
     0
  0
DICTIONARYVAR
  5
420
102
{ACAD_REACTORS
330
94
102
}
330
94
100
DictionaryVariables
280
     0
  1
1:1
  0
DICTIONARYVAR
  5
41E
102
{ACAD_REACTORS
330
94
102
}
330
94
100
DictionaryVariables
280
     0
  1
STANDARD
  0
DICTIONARYVAR
  5
138
102
{ACAD_REACTORS
330
94
102
}
330
94
100
DictionaryVariables
280
     0
  1
STANDARD
  0
DICTIONARYVAR
  5
96
102
{ACAD_REACTORS
330
94
102
}
330
94
100
DictionaryVariables
280
     0
  1
2
  0
DICTIONARYVAR
  5
95
102
{ACAD_REACTORS
330
94
102
}
330
94
100
DictionaryVariables
280
     0
  1
0
  0
DICTIONARYVAR
  5
422
102
{ACAD_REACTORS
330
94
102
}
330
94
100
DictionaryVariables
280
     0
  1
1
  0
DICTIONARYVAR
  5
423
102
{ACAD_REACTORS
330
94
102
}
330
94
100
DictionaryVariables
280
     0
  1
15
  0
DICTIONARYVAR
  5
421
102
{ACAD_REACTORS
330
94
102
}
330
94
100
DictionaryVariables
280
     0
  1
0
  0
DICTIONARYVAR
  5
41F
102
{ACAD_REACTORS
330
94
102
}
330
94
100
DictionaryVariables
280
     0
  1
0
  0
DICTIONARYVAR
  5
926
102
{ACAD_REACTORS
330
94
102
}
330
94
100
DictionaryVariables
280
     0
  1
127
  0
DICTIONARY
  5
272
102
{ACAD_REACTORS
330
5B
102
}
330
5B
100
AcDbDictionary
281
     1
  0
DICTIONARY
  5
61
102
{ACAD_REACTORS
330
5B
102
}
330
5B
100
AcDbDictionary
281
     1
  0
XRECORD
  5
123
102
{ACAD_REACTORS
330
5B
102
}
330
5B
100
AcDbXrecord
280
     1
 90
-1023410169
  0
DICTIONARY
  5
E63
330
1E
100
AcDbDictionary
280
     1
281
     1
  3
ACAD_XREC_ROUNDTRIP
360
E64
  0
DICTIONARY
  5
E67
330
26
100
AcDbDictionary
280
     1
281
     1
  3
ACAD_XREC_ROUNDTRIP
360
E68
  0
DICTIONARY
  5
E65
330
22
100
AcDbDictionary
280
     1
281
     1
  3
ACAD_XREC_ROUNDTRIP
360
E66
  0
DICTIONARY
  5
3BD
330
3BC
100
AcDbDictionary
280
     1
281
     1
  3
ACAD_XREC_ROUNDTRIP
360
933
  3
BUMPTILE
360
3BF
  3
DIFFUSETILE
360
3BE
  3
OPACITYTILE
360
3C2
  3
REFLECTIONTILE
360
3C1
  3
REFRACTIONTILE
360
3C3
  3
SPECULARTILE
360
3C0
  0
DICTIONARY
  5
3B5
330
3B4
100
AcDbDictionary
280
     1
281
     1
  3
ACAD_XREC_ROUNDTRIP
360
932
  3
BUMPTILE
360
3B7
  3
DIFFUSETILE
360
3B6
  3
OPACITYTILE
360
3BA
  3
REFLECTIONTILE
360
3B9
  3
REFRACTIONTILE
360
3BB
  3
SPECULARTILE
360
3B8
  0
DICTIONARY
  5
3C5
330
3C4
100
AcDbDictionary
280
     1
281
     1
  3
ACAD_XREC_ROUNDTRIP
360
934
  3
BUMPTILE
360
3C7
  3
DIFFUSETILE
360
3C6
  3
OPACITYTILE
360
3CA
  3
REFLECTIONTILE
360
3C9
  3
REFRACTIONTILE
360
3CB
  3
SPECULARTILE
360
3C8
  0
DICTIONARY
  5
41B
330
11B
100
AcDbDictionary
280
     1
281
     1
  3
ACAD_ROUNDTRIP_2008_TABLESTYLE_CELLSTYLEMAP
360
E5B
  3
ACAD_XREC_ROUNDTRIP
360
E69
  0
XRECORD
  5
E64
102
{ACAD_REACTORS
330
E63
102
}
330
E63
100
AcDbXrecord
280
     1
102
SHADEPLOT
 70
     0
102
SHADEPLOTRESLEVEL
 70
     2
102
SHADEPLOTCUSTOMDPI
 70
   300
  0
XRECORD
  5
E68
102
{ACAD_REACTORS
330
E67
102
}
330
E67
100
AcDbXrecord
280
     1
102
SHADEPLOT
 70
     0
102
SHADEPLOTRESLEVEL
 70
     2
102
SHADEPLOTCUSTOMDPI
 70
   300
  0
XRECORD
  5
E66
102
{ACAD_REACTORS
330
E65
102
}
330
E65
100
AcDbXrecord
280
     1
102
SHADEPLOT
 70
     0
102
SHADEPLOTRESLEVEL
 70
     2
102
SHADEPLOTCUSTOMDPI
 70
   300
  0
XRECORD
  5
933
102
{ACAD_REACTORS
330
3BD
102
}
330
3BD
100
AcDbXrecord
280
     1
102
MATERIAL
148
0.0
149
0.0
149
0.0
 93
        0
 94
      127
282
     0
 72
     0
 77
     0
171
     0
175
     0
179
     0
273
     0
  0
XRECORD
  5
3BF
102
{ACAD_REACTORS
330
3BD
102
}
330
3BD
100
AcDbXrecord
280
     1
270
     1
271
     1
  0
XRECORD
  5
3BE
102
{ACAD_REACTORS
330
3BD
102
}
330
3BD
100
AcDbXrecord
280
     1
270
     1
271
     1
  0
XRECORD
  5
3C2
102
{ACAD_REACTORS
330
3BD
102
}
330
3BD
100
AcDbXrecord
280
     1
270
     1
271
     1
  0
XRECORD
  5
3C1
102
{ACAD_REACTORS
330
3BD
102
}
330
3BD
100
AcDbXrecord
280
     1
270
     1
271
     1
  0
XRECORD
  5
3C3
102
{ACAD_REACTORS
330
3BD
102
}
330
3BD
100
AcDbXrecord
280
     1
270
     1
271
     1
  0
XRECORD
  5
3C0
102
{ACAD_REACTORS
330
3BD
102
}
330
3BD
100
AcDbXrecord
280
     1
270
     1
271
     1
  0
XRECORD
  5
932
102
{ACAD_REACTORS
330
3B5
102
}
330
3B5
100
AcDbXrecord
280
     1
102
MATERIAL
148
0.0
149
0.0
149
0.0
 93
        0
 94
      127
282
     0
 72
     0
 77
     0
171
     0
175
     0
179
     0
273
     0
  0
XRECORD
  5
3B7
102
{ACAD_REACTORS
330
3B5
102
}
330
3B5
100
AcDbXrecord
280
     1
270
     1
271
     1
  0
XRECORD
  5
3B6
102
{ACAD_REACTORS
330
3B5
102
}
330
3B5
100
AcDbXrecord
280
     1
270
     1
271
     1
  0
XRECORD
  5
3BA
102
{ACAD_REACTORS
330
3B5
102
}
330
3B5
100
AcDbXrecord
280
     1
270
     1
271
     1
  0
XRECORD
  5
3B9
102
{ACAD_REACTORS
330
3B5
102
}
330
3B5
100
AcDbXrecord
280
     1
270
     1
271
     1
  0
XRECORD
  5
3BB
102
{ACAD_REACTORS
330
3B5
102
}
330
3B5
100
AcDbXrecord
280
     1
270
     1
271
     1
  0
XRECORD
  5
3B8
102
{ACAD_REACTORS
330
3B5
102
}
330
3B5
100
AcDbXrecord
280
     1
270
     1
271
     1
  0
XRECORD
  5
934
102
{ACAD_REACTORS
330
3C5
102
}
330
3C5
100
AcDbXrecord
280
     1
102
MATERIAL
148
0.0
149
0.0
149
0.0
 93
        0
 94
      127
282
     0
 72
     0
 77
     0
171
     0
175
     0
179
     0
273
     0
  0
XRECORD
  5
3C7
102
{ACAD_REACTORS
330
3C5
102
}
330
3C5
100
AcDbXrecord
280
     1
270
     1
271
     1
  0
XRECORD
  5
3C6
102
{ACAD_REACTORS
330
3C5
102
}
330
3C5
100
AcDbXrecord
280
     1
270
     1
271
     1
  0
XRECORD
  5
3CA
102
{ACAD_REACTORS
330
3C5
102
}
330
3C5
100
AcDbXrecord
280
     1
270
     1
271
     1
  0
XRECORD
  5
3C9
102
{ACAD_REACTORS
330
3C5
102
}
330
3C5
100
AcDbXrecord
280
     1
270
     1
271
     1
  0
XRECORD
  5
3CB
102
{ACAD_REACTORS
330
3C5
102
}
330
3C5
100
AcDbXrecord
280
     1
270
     1
271
     1
  0
XRECORD
  5
3C8
102
{ACAD_REACTORS
330
3C5
102
}
330
3C5
100
AcDbXrecord
280
     1
270
     1
271
     1
  0
CELLSTYLEMAP
  5
E5B
102
{ACAD_REACTORS
330
41B
102
}
330
41B
100
AcDbCellStyleMap
 90
        3
300
CELLSTYLE
  1
TABLEFORMAT_BEGIN
 90
        5
170
     1
 91
        0
 92
    32768
 62
   257
 93
        1
300
CONTENTFORMAT
  1
CONTENTFORMAT_BEGIN
 90
        0
 91
        0
 92
        4
 93
        0
300

 40
0.0
140
1.0
 94
        5
 62
     0
340
11
144
6.0
309
CONTENTFORMAT_END
171
     1
301
MARGIN
  1
CELLMARGIN_BEGIN
 40
1.5
 40
1.5
 40
1.5
 40
1.5
 40
0.18
 40
0.18
309
CELLMARGIN_END
 94
        6
 95
        1
302
GRIDFORMAT
  1
GRIDFORMAT_BEGIN
 90
        0
 91
        1
 62
     0
 92
       -2
340
0
 93
        0
 40
0.045
309
GRIDFORMAT_END
 95
        2
302
GRIDFORMAT
  1
GRIDFORMAT_BEGIN
 90
        0
 91
        1
 62
     0
 92
       -2
340
0
 93
        0
 40
0.045
309
GRIDFORMAT_END
 95
        4
302
GRIDFORMAT
  1
GRIDFORMAT_BEGIN
 90
        0
 91
        1
 62
     0
 92
       -2
340
0
 93
        0
 40
0.045
309
GRIDFORMAT_END
 95
        8
302
GRIDFORMAT
  1
GRIDFORMAT_BEGIN
 90
        0
 91
        1
 62
     0
 92
       -2
340
0
 93
        0
 40
0.045
309
GRIDFORMAT_END
 95
       16
302
GRIDFORMAT
  1
GRIDFORMAT_BEGIN
 90
        0
 91
        1
 62
     0
 92
       -2
340
0
 93
        0
 40
0.045
309
GRIDFORMAT_END
 95
       32
302
GRIDFORMAT
  1
GRIDFORMAT_BEGIN
 90
        0
 91
        1
 62
     0
 92
       -2
340
0
 93
        0
 40
0.045
309
GRIDFORMAT_END
309
TABLEFORMAT_END
  1
CELLSTYLE_BEGIN
 90
        1
 91
        1
300
_TITLE
309
CELLSTYLE_END
300
CELLSTYLE
  1
TABLEFORMAT_BEGIN
 90
        5
170
     1
 91
        0
 92
        0
 62
   257
 93
        1
300
CONTENTFORMAT
  1
CONTENTFORMAT_BEGIN
 90
        0
 91
        0
 92
        4
 93
        0
300

 40
0.0
140
1.0
 94
        5
 62
     0
340
11
144
4.5
309
CONTENTFORMAT_END
171
     1
301
MARGIN
  1
CELLMARGIN_BEGIN
 40
1.5
 40
1.5
 40
1.5
 40
1.5
 40
0.18
 40
0.18
309
CELLMARGIN_END
 94
        6
 95
        1
302
GRIDFORMAT
  1
GRIDFORMAT_BEGIN
 90
        0
 91
        1
 62
     0
 92
       -2
340
0
 93
        0
 40
0.045
309
GRIDFORMAT_END
 95
        2
302
GRIDFORMAT
  1
GRIDFORMAT_BEGIN
 90
        0
 91
        1
 62
     0
 92
       -2
340
0
 93
        0
 40
0.045
309
GRIDFORMAT_END
 95
        4
302
GRIDFORMAT
  1
GRIDFORMAT_BEGIN
 90
        0
 91
        1
 62
     0
 92
       -2
340
0
 93
        0
 40
0.045
309
GRIDFORMAT_END
 95
        8
302
GRIDFORMAT
  1
GRIDFORMAT_BEGIN
 90
        0
 91
        1
 62
     0
 92
       -2
340
0
 93
        0
 40
0.045
309
GRIDFORMAT_END
 95
       16
302
GRIDFORMAT
  1
GRIDFORMAT_BEGIN
 90
        0
 91
        1
 62
     0
 92
       -2
340
0
 93
        0
 40
0.045
309
GRIDFORMAT_END
 95
       32
302
GRIDFORMAT
  1
GRIDFORMAT_BEGIN
 90
        0
 91
        1
 62
     0
 92
       -2
340
0
 93
        0
 40
0.045
309
GRIDFORMAT_END
309
TABLEFORMAT_END
  1
CELLSTYLE_BEGIN
 90
        2
 91
        1
300
_HEADER
309
CELLSTYLE_END
300
CELLSTYLE
  1
TABLEFORMAT_BEGIN
 90
        5
170
     1
 91
        0
 92
        0
 62
   257
 93
        1
300
CONTENTFORMAT
  1
CONTENTFORMAT_BEGIN
 90
        0
 91
        0
 92
        4
 93
        0
300

 40
0.0
140
1.0
 94
        2
 62
     0
340
11
144
4.5
309
CONTENTFORMAT_END
171
     1
301
MARGIN
  1
CELLMARGIN_BEGIN
 40
1.5
 40
1.5
 40
1.5
 40
1.5
 40
0.18
 40
0.18
309
CELLMARGIN_END
 94
        6
 95
        1
302
GRIDFORMAT
  1
GRIDFORMAT_BEGIN
 90
        0
 91
        1
 62
     0
 92
       -2
340
0
 93
        0
 40
0.045
309
GRIDFORMAT_END
 95
        2
302
GRIDFORMAT
  1
GRIDFORMAT_BEGIN
 90
        0
 91
        1
 62
     0
 92
       -2
340
0
 93
        0
 40
0.045
309
GRIDFORMAT_END
 95
        4
302
GRIDFORMAT
  1
GRIDFORMAT_BEGIN
 90
        0
 91
        1
 62
     0
 92
       -2
340
0
 93
        0
 40
0.045
309
GRIDFORMAT_END
 95
        8
302
GRIDFORMAT
  1
GRIDFORMAT_BEGIN
 90
        0
 91
        1
 62
     0
 92
       -2
340
0
 93
        0
 40
0.045
309
GRIDFORMAT_END
 95
       16
302
GRIDFORMAT
  1
GRIDFORMAT_BEGIN
 90
        0
 91
        1
 62
     0
 92
       -2
340
0
 93
        0
 40
0.045
309
GRIDFORMAT_END
 95
       32
302
GRIDFORMAT
  1
GRIDFORMAT_BEGIN
 90
        0
 91
        1
 62
     0
 92
       -2
340
0
 93
        0
 40
0.045
309
GRIDFORMAT_END
309
TABLEFORMAT_END
  1
CELLSTYLE_BEGIN
 90
        3
 91
        2
300
_DATA
309
CELLSTYLE_END
  0
XRECORD
  5
E69
102
{ACAD_REACTORS
330
41B
102
}
330
41B
100
AcDbXrecord
280
     1
102
ACAD_ROUNDTRIP_PRE2007_TABLESTYLE
 90
        4
 91
        0
  1

 92
        4
 93
        0
  2

 94
        4
 95
        0
  3

  0
ENDSEC
  0
EOF
