  0
SECTION
  2
HEADER
  9
$ACADVER
  1
AC1015
  9
$ACADMAINTVER
 70
    20
  9
$DWGCODEPAGE
  3
ANSI_1252
  9
$INSBASE
 10
0.0
 20
0.0
 30
0.0
  9
$EXTMIN
 10
-0.0568097571187991
 20
-0.0413077044788679
 30
-0.000000000000013
  9
$EXTMAX
 10
961.3349064215348
 20
727.9417440301785
 30
0.0000000000000023
  9
$LIMMIN
 10
0.0
 20
0.0
  9
$LIMMAX
 10
420.0
 20
297.0
  9
$ORTHOMODE
 70
     1
  9
$REGENMODE
 70
     1
  9
$FILLMODE
 70
     1
  9
$QTEXTMODE
 70
     0
  9
$MIRRTEXT
 70
     1
  9
$LTSCALE
 40
1.0
  9
$ATTMODE
 70
     1
  9
$TEXTSIZE
 40
2.5
  9
$TRACEWID
 40
1.0
  9
$TEXTSTYLE
  7
STANDARD
  9
$CLAYER
  8
0
  9
$CELTYPE
  6
ByLayer
  9
$CECOLOR
 62
   256
  9
$CELTSCALE
 40
1.0
  9
$DISPSILH
 70
     0
  9
$DIMSCALE
 40
1.0
  9
$DIMASZ
 40
3.5
  9
$DIMEXO
 40
1.0
  9
$DIMDLI
 40
10.0
  9
$DIMRND
 40
0.0
  9
$DIMDLE
 40
0.0
  9
$DIMEXE
 40
1.0
  9
$DIMTP
 40
0.1
  9
$DIMTM
 40
0.1
  9
$DIMTXT
 40
3.5
  9
$DIMCEN
 40
0.0
  9
$DIMTSZ
 40
0.0
  9
$DIMTOL
 70
     0
  9
$DIMLIM
 70
     0
  9
$DIMTIH
 70
     0
  9
$DIMTOH
 70
     0
  9
$DIMSE1
 70
     0
  9
$DIMSE2
 70
     0
  9
$DIMTAD
 70
     1
  9
$DIMZIN
 70
     8
  9
$DIMBLK
  1

  9
$DIMASO
 70
     1
  9
$DIMSHO
 70
     1
  9
$DIMPOST
  1

  9
$DIMAPOST
  1
"
  9
$DIMALT
 70
     0
  9
$DIMALTD
 70
     2
  9
$DIMALTF
 40
0.0393701
  9
$DIMLFAC
 40
1.0
  9
$DIMTOFL
 70
     1
  9
$DIMTVP
 40
0.0
  9
$DIMTIX
 70
     0
  9
$DIMSOXD
 70
     0
  9
$DIMSAH
 70
     0
  9
$DIMBLK1
  1

  9
$DIMBLK2
  1

  9
$DIMSTYLE
  2
AM_DIN
  9
$DIMCLRD
 70
   256
  9
$DIMCLRE
 70
   256
  9
$DIMCLRT
 70
     2
  9
$DIMTFAC
 40
0.71
  9
$DIMGAP
 40
1.5
  9
$DIMJUST
 70
     0
  9
$DIMSD1
 70
     0
  9
$DIMSD2
 70
     0
  9
$DIMTOLJ
 70
     0
  9
$DIMTZIN
 70
     8
  9
$DIMALTZ
 70
     0
  9
$DIMALTTZ
 70
     0
  9
$DIMUPT
 70
     0
  9
$DIMDEC
 70
     2
  9
$DIMTDEC
 70
     3
  9
$DIMALTU
 70
     2
  9
$DIMALTTD
 70
     4
  9
$DIMTXSTY
  7
STANDARD
  9
$DIMAUNIT
 70
     0
  9
$DIMADEC
 70
     0
  9
$DIMALTRND
 40
0.0
  9
$DIMAZIN
 70
     2
  9
$DIMDSEP
 70
    46
  9
$DIMATFIT
 70
     3
  9
$DIMFRAC
 70
     0
  9
$DIMLDRBLK
  1

  9
$DIMLUNIT
 70
     2
  9
$DIMLWD
 70
    -1
  9
$DIMLWE
 70
    -1
  9
$DIMTMOVE
 70
     0
  9
$LUNITS
 70
     2
  9
$LUPREC
 70
     2
  9
$SKETCHINC
 40
1.0
  9
$FILLETRAD
 40
0.0
  9
$AUNITS
 70
     0
  9
$AUPREC
 70
     0
  9
$MENU
  1
.
  9
$ELEVATION
 40
0.0
  9
$PELEVATION
 40
0.0
  9
$THICKNESS
 40
0.0
  9
$LIMCHECK
 70
     0
  9
$CHAMFERA
 40
2.5
  9
$CHAMFERB
 40
2.5
  9
$CHAMFERC
 40
20.0
  9
$CHAMFERD
 40
0.0
  9
$SKPOLY
 70
     0
  9
$TDCREATE
 40
2455659.553479873
  9
$TDUCREATE
 40
2455659.470146539
  9
$TDUPDATE
 40
2455665.438834005
  9
$TDUUPDATE
 40
2455665.355500671
  9
$TDINDWG
 40
0.2572651273
  9
$TDUSRTIMER
 40
0.2572644097
  9
$USRTIMER
 70
     1
  9
$ANGBASE
 50
0.0
  9
$ANGDIR
 70
     0
  9
$PDMODE
 70
     0
  9
$PDSIZE
 40
0.0
  9
$PLINEWID
 40
0.0
  9
$SPLFRAME
 70
     0
  9
$SPLINETYPE
 70
     6
  9
$SPLINESEGS
 70
     8
  9
$HANDSEED
  5
F6C
  9
$SURFTAB1
 70
     6
  9
$SURFTAB2
 70
     6
  9
$SURFTYPE
 70
     6
  9
$SURFU
 70
     6
  9
$SURFV
 70
     6
  9
$UCSBASE
  2

  9
$UCSNAME
  2

  9
$UCSORG
 10
0.0
 20
0.0
 30
0.0
  9
$UCSXDIR
 10
1.0
 20
0.0
 30
0.0
  9
$UCSYDIR
 10
0.0
 20
1.0
 30
0.0
  9
$UCSORTHOREF
  2

  9
$UCSORTHOVIEW
 70
     0
  9
$UCSORGTOP
 10
0.0
 20
0.0
 30
0.0
  9
$UCSORGBOTTOM
 10
0.0
 20
0.0
 30
0.0
  9
$UCSORGLEFT
 10
0.0
 20
0.0
 30
0.0
  9
$UCSORGRIGHT
 10
0.0
 20
0.0
 30
0.0
  9
$UCSORGFRONT
 10
0.0
 20
0.0
 30
0.0
  9
$UCSORGBACK
 10
0.0
 20
0.0
 30
0.0
  9
$PUCSBASE
  2

  9
$PUCSNAME
  2

  9
$PUCSORG
 10
0.0
 20
0.0
 30
0.0
  9
$PUCSXDIR
 10
1.0
 20
0.0
 30
0.0
  9
$PUCSYDIR
 10
0.0
 20
1.0
 30
0.0
  9
$PUCSORTHOREF
  2

  9
$PUCSORTHOVIEW
 70
     0
  9
$PUCSORGTOP
 10
0.0
 20
0.0
 30
0.0
  9
$PUCSORGBOTTOM
 10
0.0
 20
0.0
 30
0.0
  9
$PUCSORGLEFT
 10
0.0
 20
0.0
 30
0.0
  9
$PUCSORGRIGHT
 10
0.0
 20
0.0
 30
0.0
  9
$PUCSORGFRONT
 10
0.0
 20
0.0
 30
0.0
  9
$PUCSORGBACK
 10
0.0
 20
0.0
 30
0.0
  9
$USERI1
 70
     0
  9
$USERI2
 70
     0
  9
$USERI3
 70
     0
  9
$USERI4
 70
     0
  9
$USERI5
 70
     0
  9
$USERR1
 40
0.0
  9
$USERR2
 40
0.0
  9
$USERR3
 40
0.0
  9
$USERR4
 40
0.0
  9
$USERR5
 40
0.0
  9
$WORLDVIEW
 70
     1
  9
$SHADEDGE
 70
     3
  9
$SHADEDIF
 70
    70
  9
$TILEMODE
 70
     1
  9
$MAXACTVP
 70
    64
  9
$PINSBASE
 10
0.0
 20
0.0
 30
0.0
  9
$PLIMCHECK
 70
     0
  9
$PEXTMIN
 10
1.000000000000000E+20
 20
1.000000000000000E+20
 30
1.000000000000000E+20
  9
$PEXTMAX
 10
-1.000000000000000E+20
 20
-1.000000000000000E+20
 30
-1.000000000000000E+20
  9
$PLIMMIN
 10
0.0
 20
0.0
  9
$PLIMMAX
 10
420.0
 20
297.0
  9
$UNITMODE
 70
     0
  9
$VISRETAIN
 70
     1
  9
$PLINEGEN
 70
     0
  9
$PSLTSCALE
 70
     1
  9
$TREEDEPTH
 70
  3020
  9
$CMLSTYLE
  2
Standard
  9
$CMLJUST
 70
     0
  9
$CMLSCALE
 40
20.0
  9
$PROXYGRAPHICS
 70
     1
  9
$MEASUREMENT
 70
     1
  9
$CELWEIGHT
370
    -1
  9
$ENDCAPS
280
     0
  9
$JOINSTYLE
280
     0
  9
$LWDISPLAY
290
     0
  9
$INSUNITS
 70
     4
  9
$HYPERLINKBASE
  1

  9
$STYLESHEET
  1
MONOCHROME-DUENN.CTB
  9
$XEDIT
290
     1
  9
$CEPSNTYPE
380
     0
  9
$PSTYLEMODE
290
     1
  9
$FINGERPRINTGUID
  2
{25498D04-FA32-4B5E-A6A2-1FE9AAA976F4}
  9
$VERSIONGUID
  2
{F6E4C288-50E8-469C-8603-74FE62F0F296}
  9
$EXTNAMES
290
     1
  9
$PSVPSCALE
 40
0.0
  9
$OLESTARTUP
290
     0
  0
ENDSEC
  0
SECTION
  2
CLASSES
  0
CLASS
  1
ACDBDICTIONARYWDFLT
  2
AcDbDictionaryWithDefault
  3
ObjectDBX Classes
 90
        0
280
     0
281
     0
  0
CLASS
  1
ACDBPLACEHOLDER
  2
AcDbPlaceHolder
  3
ObjectDBX Classes
 90
        0
280
     0
281
     0
  0
CLASS
  1
LAYOUT
  2
AcDbLayout
  3
ObjectDBX Classes
 90
        0
280
     0
281
     0
  0
CLASS
  1
ACME_DOCUMENT
  2
AcMeDbDoc
  3
AcMeServices
 90
     1024
280
     0
281
     0
  0
CLASS
  1
AMGSETTINGSOBJ
  2
AmgSettingsObj
  3
"AcadM|Product Description: AutoCAD Mechanical|Company: Autodesk, Inc."
 90
     1024
280
     0
281
     0
  0
CLASS
  1
ACMESCOPE
  2
AcMeScope
  3
AcMeServices
 90
     1024
280
     0
281
     0
  0
CLASS
  1
ACMECOMMANDHISTORY
  2
AcMeCommandHistory
  3
AcMeServices
 90
     1024
280
     0
281
     0
  0
CLASS
  1
ACIMSYSVARMAN
  2
AcImSysVarManager
  3
AcMeServices
 90
     1024
280
     0
281
     0
  0
CLASS
  1
ACIMREALSYSVAR
  2
AcImRealSysVar
  3
AcMeServices
 90
     1024
280
     0
281
     0
  0
CLASS
  1
ACIMINTSYSVAR
  2
AcImIntSysVar
  3
AcMeServices
 90
     1024
280
     0
281
     0
  0
CLASS
  1
ACMEDRAWINGMAN
  2
AcMeDrawingMan
  3
AcMeServices
 90
     1024
280
     0
281
     0
  0
CLASS
  1
ACMEVIEW
  2
AcMeView
  3
AcMeServices
 90
     1024
280
     0
281
     0
  0
CLASS
  1
ACDBENTITYCACHE
  2
AcMeEntityCache
  3
AcMeServices
 90
     1024
280
     0
281
     0
  0
CLASS
  1
GSMANAGER
  2
AcMeGSManager
  3
AcMeServices
 90
     1024
280
     0
281
     0
  0
CLASS
  1
AMDTINTERNALREACTOR
  2
AmdtInternalReactor
  3
AcMeServices
 90
     1024
280
     0
281
     0
  0
CLASS
  1
ACMESTATEMGR
  2
AcMeStateMgr
  3
AcMeServices
 90
     1024
280
     0
281
     0
  0
CLASS
  1
ACGREFMASTER
  2
AcGrefMaster
  3
AcAttribServices
 90
     1024
280
     0
281
     0
  0
CLASS
  1
ACME_DATABASE
  2
AcMeDbDatabase
  3
AcMeServices
 90
     1024
280
     0
281
     0
  0
CLASS
  1
ACRFINSADJUSTERMGR
  2
AcRfInsAdjusterMgr
  3
AcMeServices
 90
     1024
280
     0
281
     0
  0
CLASS
  1
ACGREFACADMASTER
  2
AcGrefacadMaster
  3
AcGrefServices
 90
     1024
280
     0
281
     0
  0
CLASS
  1
AMIMASTER
  2
AmiMaster
  3
AmiServices
 90
     1024
280
     0
281
     0
  0
CLASS
  1
ACMDATADICTIONARY
  2
AcmDataDictionary
  3
"AcmSymBB|Product Description: AutoCAD Mechanical|Company: Autodesk, Inc."
 90
     1024
280
     0
281
     0
  0
CLASS
  1
ACMDATAENTRYBLOCK
  2
AcmDataEntryBlock
  3
AcmSymBB|Product Description: AutoCAD Mechanical|Company: Autodesk, Inc.
 90
    33792
280
     0
281
     0
  0
CLASS
  1
ACIMSTRSYSVAR
  2
AcImStrSysVar
  3
AcMeServices
 90
     1024
280
     0
281
     0
  0
CLASS
  1
ACMSTANDARDISO
  2
AcmStandardISO
  3
"Amdt_StdImp|Product Description: AutoCAD Mechanical|Company: Autodesk, Inc."
 90
    33792
280
     0
281
     0
  0
CLASS
  1
AMGOBJPROPCFG
  2
AmgObjPropCfg
  3
"AmgLay|Product Description: AutoCAD Mechanical|Company: Autodesk, Inc."
 90
     1025
280
     0
281
     0
  0
CLASS
  1
AMDTEDGESTANDARDISO
  2
AmdtEdgeStdISO
  3
"Amdt_StdImp|Product Description: AutoCAD Mechanical|Company: Autodesk, Inc."
 90
    33792
280
     0
281
     0
  0
CLASS
  1
ACMSURFSTANDARDISO
  2
AcmSurfTextStdISO
  3
"Amdt_StdImp|Product Description: AutoCAD Mechanical|Company: Autodesk, Inc."
 90
    33792
280
     0
281
     0
  0
CLASS
  1
ACMFCFSTANDARDISO
  2
AcmFCFStdISO
  3
"Amdt_StdImp|Product Description: AutoCAD Mechanical|Company: Autodesk, Inc."
 90
    33792
280
     0
281
     0
  0
CLASS
  1
ACMWELDSTANDARDISO
  2
AcmWeldingStdISO
  3
"Amdt_StdImp|Product Description: AutoCAD Mechanical|Company: Autodesk, Inc."
 90
    33792
280
     0
281
     0
  0
CLASS
  1
ACMIDSTANDARDISO
  2
AcmIdStdISO
  3
"Amdt_StdImp|Product Description: AutoCAD Mechanical|Company: Autodesk, Inc."
 90
    33792
280
     0
281
     0
  0
CLASS
  1
ACMDATUMSTANDARDISO
  2
AcmDatumStdISO
  3
"Amdt_StdImp|Product Description: AutoCAD Mechanical|Company: Autodesk, Inc."
 90
    33792
280
     0
281
     0
  0
CLASS
  1
ACMBOMSTANDARDISO
  2
AcmBOMStdISO
  3
"Amdt_StdImp|Product Description: AutoCAD Mechanical|Company: Autodesk, Inc."
 90
    33792
280
     0
281
     0
  0
CLASS
  1
ACMDETAILSTANDARDISO
  2
AmdtDetailSymStdISO
  3
"Amdt_StdImp|Product Description: AutoCAD Mechanical|Company: Autodesk, Inc."
 90
    33792
280
     0
281
     0
  0
CLASS
  1
ACMSECTIONSTANDARDISO
  2
AmdtSectionSymStdISO
  3
"Amdt_StdImp|Product Description: AutoCAD Mechanical|Company: Autodesk, Inc."
 90
    33792
280
     0
281
     0
  0
CLASS
  1
ACMCENTERLINESTANDARDISO
  2
AmdtCenterLineStdISO
  3
"Amdt_StdImp|Product Description: AutoCAD Mechanical|Company: Autodesk, Inc."
 90
    33792
280
     0
281
     0
  0
CLASS
  1
ACMNOTESTANDARDISO
  2
AmdtNoteStdISO
  3
"Amdt_StdImp|Product Description: AutoCAD Mechanical|Company: Autodesk, Inc."
 90
    33792
280
     0
281
     0
  0
CLASS
  1
ACAMGLAYSTD
  2
AcAmgLayStd
  3
"AmgLay|Product Description: AutoCAD Mechanical|Company: Autodesk, Inc."
 90
     1024
280
     0
281
     0
  0
CLASS
  1
ACAMGDIMSTD
  2
AcAmgDimStd
  3
"AmgDim|Product Description: AutoCAD Mechanical|Company: Autodesk, Inc."
 90
     1024
280
     0
281
     0
  0
CLASS
  1
ACAMGHOLECHARTSTDISO
  2
AcAmgHoleChartStdISO
  3
AmgDim|Product Description: AutoCAD Mechanical|Company: Autodesk, Inc.
 90
    33792
280
     0
281
     0
  0
CLASS
  1
ACAMGTITLESTD
  2
AcAmgTitleStd
  3
"AmgTitle|Product Description: AutoCAD Mechanical|Company: Autodesk, Inc."
 90
     4095
280
     0
281
     0
  0
CLASS
  1
LAYER_INDEX
  2
AcDbLayerIndex
  3
ObjectDBX Classes
 90
    32768
280
     0
281
     0
  0
CLASS
  1
IDBUFFER
  2
AcDbIdBuffer
  3
ObjectDBX Classes
 90
    32768
280
     0
281
     0
  0
CLASS
  1
DICTIONARYVAR
  2
AcDbDictionaryVar
  3
ObjectDBX Classes
 90
        0
280
     0
281
     0
  0
CLASS
  1
AM_DRAWING_MGR
  2
AcDmDwgMgr
  3
AcMechDwgViewMgmt
 90
     1024
280
     0
281
     0
  0
CLASS
  1
AM_DWG_DOCUMENT
  2
AcDmDwgDocument
  3
AcMechDwgViewMgmt
 90
     1024
280
     0
281
     0
  0
CLASS
  1
AM_DWG_SHEET
  2
AcDmSheet
  3
AcMechDwgViewMgmt
 90
     1024
280
     0
281
     0
  0
CLASS
  1
AM_VIEWDIMPARMAP
  2
AcDmViewDimParMap
  3
AcMechDwgViewMgmt
 90
     1024
280
     0
281
     0
  0
CLASS
  1
AM_DWGMGR_NAME
  2
AcDmDwgMgrName
  3
AcMechDwgViewMgmt
 90
     1024
280
     0
281
     0
  0
CLASS
  1
AMDTMENUSTATEMGR
  2
AmdtMenuStateMgr
  3
McadcomServices
 90
     1024
280
     0
281
     0
  0
CLASS
  1
AMDTMCOMMENUSTATE
  2
AmdtMcomMenuState
  3
McadcomServices
 90
     1024
280
     0
281
     0
  0
CLASS
  1
MAPIAMMOUDLE
  2
MApiAmModule
  3
MApiAmServices
 90
     1024
280
     0
281
     0
  0
CLASS
  1
AMDTADMENUSTATE
  2
AmdtAdMenuState
  3
DesignerServices
 90
     1024
280
     0
281
     0
  0
CLASS
  1
ADAPPL
  2
AcAdAppl
  3
DesignerServices
 90
     1024
280
     0
281
     0
  0
CLASS
  1
DEPMGR
  2
AcAdDepMgr
  3
DesignerServices
 90
     1024
280
     0
281
     0
  0
CLASS
  1
PARAMMGR
  2
AcAdParamMgr
  3
DesignerServices
 90
     1024
280
     0
281
     0
  0
CLASS
  1
PARAMSCOPE
  2
AcAdParamScope
  3
DesignerServices
 90
     1024
280
     0
281
     0
  0
CLASS
  1
NAMEDAPPL
  2
AcAdNamedAppl
  3
DesignerServices
 90
     1024
280
     0
281
     0
  0
CLASS
  1
AMDTDMMENUSTATE
  2
AmdtDmMenuState
  3
AcMechDwgViewMgmt
 90
     1024
280
     0
281
     0
  0
CLASS
  1
AMDTAMMENUSTATE
  2
AmdtAmMenuState
  3
DesignerAssemblies
 90
     1024
280
     0
281
     0
  0
CLASS
  1
ACAMPROJECT
  2
AcAmProject
  3
DesignerAssemblies
 90
     1024
280
     0
281
     0
  0
CLASS
  1
ACAMGRCOMPDEF
  2
AcAmGrCompDef
  3
DesignerAssemblies
 90
     1024
280
     0
281
     0
  0
CLASS
  1
ACCMCONTEXT
  2
AcCmContext
  3
DesignerAssemblies
 90
     1024
280
     0
281
     0
  0
CLASS
  1
ACAMCOMPDEF
  2
AcAmCompDef
  3
DesignerAssemblies
 90
     1024
280
     0
281
     0
  0
CLASS
  1
ACAMCOMPDEFMGR
  2
AcAmCompDefMgr
  3
DesignerAssemblies
 90
     1024
280
     0
281
     0
  0
CLASS
  1
AMCONTEXTMGR
  2
AcAmContextMgr
  3
DesignerAssemblies
 90
     1024
280
     0
281
     0
  0
CLASS
  1
ACAMCONTEXTMODELER
  2
AcAmContextModeler
  3
DesignerAssemblies
 90
     1024
280
     0
281
     0
  0
CLASS
  1
ACMTHREADLINESTANDARDISO
  2
AmdtThreadLineStdISO
  3
"Amdt_StdImp|Product Description: AutoCAD Mechanical|Company: Autodesk, Inc."
 90
    33792
280
     0
281
     0
  0
CLASS
  1
CATALOGSTATE
  2
AcAmCatalogState
  3
DesignerAssemblies
 90
     1024
280
     0
281
     0
  0
CLASS
  1
ACAMGRCOMPDEFSET
  2
AcAmGrCompDefSet
  3
DesignerAssemblies
 90
     1024
280
     0
281
     0
  0
CLASS
  1
AMDTBROWSERDBTAB
  2
AmdtBrowserDbTab
  3
McadcomServices
 90
     1024
280
     0
281
     0
  0
CLASS
  1
CBROWSERAPPOBJECT
  2
CBrowserAppObject
  3
McadcomServices
 90
     1024
280
     0
281
     0
  0
CLASS
  1
DM_PLACEHOLDER
  2
AcDmSelsetPlaceholder
  3
AcMechDwgViewMgmt
 90
     1024
280
     0
281
     0
  0
CLASS
  1
TABLESTYLE
  2
AcDbTableStyle
  3
ObjectDBX Classes
 90
     4095
280
     0
281
     0
  0
CLASS
  1
VAACXREFPANELOBJECT
  2
VaAcXREFPanelObject
  3
VAAC_ADDIN
 90
    32768
280
     0
281
     0
  0
CLASS
  1
VAACIMAGEINVENTORY
  2
VaAcImageInventory
  3
VAAC_ADDIN
 90
    32768
280
     0
281
     0
  0
CLASS
  1
AMDTNOTETEMPLATEDB
  2
AmdtNoteTemplateDB
  3
AcmSymBB|Product Description: AutoCAD Mechanical|Company: Autodesk, Inc.
 90
     1024
280
     0
281
     0
  0
CLASS
  1
ACAMGFILTERDAT
  2
AcAmgFilterDat
  3
"AcadM|Product Description: AutoCAD Mechanical|Company: Autodesk, Inc."
 90
    33792
280
     0
281
     0
  0
CLASS
  1
ACMBOM
  2
AcmBom
  3
"AcmSymBB|Product Description: AutoCAD Mechanical|Company: Autodesk, Inc."
 90
    33792
280
     0
281
     0
  0
CLASS
  1
AMDTFORMULAUPDATEDISPATCHER
  2
AmdtFormulaUpdateDispatcher
  3
AcMeServices
 90
    33792
280
     0
281
     0
  0
CLASS
  1
ACMSTANDARDDIN
  2
AcmStandardDIN
  3
"Amdt_StdImp|Product Description: AutoCAD Mechanical|Company: Autodesk, Inc."
 90
     1024
280
     0
281
     0
  0
CLASS
  1
AMDTEDGESTANDARDDIN13715
  2
AmdtEdgeStdDIN13715
  3
"Amdt_StdImp|Product Description: AutoCAD Mechanical|Company: Autodesk, Inc."
 90
     1024
280
     0
281
     0
  0
CLASS
  1
ACMSURFSTANDARDDIN
  2
AcmSurfTextStdDIN
  3
"Amdt_StdImp|Product Description: AutoCAD Mechanical|Company: Autodesk, Inc."
 90
    33792
280
     0
281
     0
  0
CLASS
  1
ACMFCFSTANDARDDIN
  2
AcmFCFStdDIN
  3
"Amdt_StdImp|Product Description: AutoCAD Mechanical|Company: Autodesk, Inc."
 90
     1024
280
     0
281
     0
  0
CLASS
  1
ACMWELDSTANDARDDIN
  2
AcmWeldingStdDIN
  3
"Amdt_StdImp|Product Description: AutoCAD Mechanical|Company: Autodesk, Inc."
 90
     1024
280
     0
281
     0
  0
CLASS
  1
ACMIDSTANDARDDIN
  2
AcmIdStdDIN
  3
"Amdt_StdImp|Product Description: AutoCAD Mechanical|Company: Autodesk, Inc."
 90
     1024
280
     0
281
     0
  0
CLASS
  1
ACMDATUMSTANDARDDIN
  2
AcmDatumStdDIN
  3
"Amdt_StdImp|Product Description: AutoCAD Mechanical|Company: Autodesk, Inc."
 90
     1024
280
     0
281
     0
  0
CLASS
  1
ACMBOMSTANDARDDIN
  2
AcmBOMStdDIN
  3
"Amdt_StdImp|Product Description: AutoCAD Mechanical|Company: Autodesk, Inc."
 90
     1024
280
     0
281
     0
  0
CLASS
  1
ACMDETAILSTANDARDDIN
  2
AmdtDetailSymStdDIN
  3
"Amdt_StdImp|Product Description: AutoCAD Mechanical|Company: Autodesk, Inc."
 90
     1024
280
     0
281
     0
  0
CLASS
  1
ACMSECTIONSTANDARDDIN
  2
AmdtSectionSymStdDIN
  3
"Amdt_StdImp|Product Description: AutoCAD Mechanical|Company: Autodesk, Inc."
 90
     1024
280
     0
281
     0
  0
CLASS
  1
ACMCENTERLINESTANDARDDIN
  2
AmdtCenterLineStdDIN
  3
"Amdt_StdImp|Product Description: AutoCAD Mechanical|Company: Autodesk, Inc."
 90
     1024
280
     0
281
     0
  0
CLASS
  1
ACMTHREADLINESTANDARDDIN
  2
AmdtThreadLineStdDIN
  3
"Amdt_StdImp|Product Description: AutoCAD Mechanical|Company: Autodesk, Inc."
 90
     1024
280
     0
281
     0
  0
CLASS
  1
ACMNOTESTANDARDDIN
  2
AmdtNoteStdDIN
  3
"Amdt_StdImp|Product Description: AutoCAD Mechanical|Company: Autodesk, Inc."
 90
     1024
280
     0
281
     0
  0
CLASS
  1
ACAMGHOLECHARTSTDDIN
  2
AcAmgHoleChartStdDIN
  3
AmgDim|Product Description: AutoCAD Mechanical|Company: Autodesk, Inc.
 90
     1024
280
     0
281
     0
  0
CLASS
  1
MATERIAL
  2
AcDbMaterial
  3
ObjectDBX Classes
 90
     1153
280
     0
281
     0
  0
CLASS
  1
VISUALSTYLE
  2
AcDbVisualStyle
  3
ObjectDBX Classes
 90
     4095
280
     0
281
     0
  0
CLASS
  1
SCALE
  2
AcDbScale
  3
ObjectDBX Classes
 90
     1153
280
     0
281
     0
  0
CLASS
  1
MLEADERSTYLE
  2
AcDbMLeaderStyle
  3
ACDB_MLEADERSTYLE_CLASS
 90
     4095
280
     0
281
     0
  0
CLASS
  1
ACRFATTGENMGR
  2
AcRfAttGeneralMgr
  3
AcAttribServices
 90
    33792
280
     0
281
     0
  0
CLASS
  1
ACRFOBJATTMGR
  2
AcRfObjAttGroupMgr
  3
AcAttribServices
 90
    33792
280
     0
281
     0
  0
CLASS
  1
ACRFMCADAPIATTHOLDER
  2
AcRfMCADAPIAttHolder
  3
AcAttribServices
 90
    33792
280
     0
281
     0
  0
CLASS
  1
AMDTSYSATTR
  2
AmdtSystemAttribute
  3
AcAttribServices
 90
    33792
280
     0
281
     0
  0
CLASS
  1
ACMTAPERSTANDARDISO
  2
AcmTaperStdISO
  3
"Amdt_StdImp|Product Description: AutoCAD Mechanical|Company: Autodesk, Inc."
 90
    33792
280
     0
281
     0
  0
CLASS
  1
ACMANOOTATIONVIEWSTANDARDISO
  2
AmdtAnViewStdISO
  3
"Amdt_StdImp|Product Description: AutoCAD Mechanical|Company: Autodesk, Inc."
 90
    33792
280
     0
281
     0
  0
CLASS
  1
ACMTAPERSTANDARDDIN
  2
AcmTaperStdDIN
  3
"Amdt_StdImp|Product Description: AutoCAD Mechanical|Company: Autodesk, Inc."
 90
     1024
280
     0
281
     0
  0
CLASS
  1
ACMANOOTATIONVIEWSTANDARDDIN
  2
AmdtAnViewStdDIN
  3
"Amdt_StdImp|Product Description: AutoCAD Mechanical|Company: Autodesk, Inc."
 90
     1024
280
     0
281
     0
  0
CLASS
  1
EXACXREFPANELOBJECT
  2
ExAcXREFPanelObject
  3
EXAC_ESW
 90
     1025
280
     0
281
     0
  0
CLASS
  1
NPOCOLLECTION
  2
AcDbImpNonPersistentObjectsCollection
  3
ObjectDBX Classes
 90
     1153
280
     0
281
     0
  0
CLASS
  1
CAMSSTRUCTBTNSTATE
  2
StructBtnState
  3
DesignerAssemblies
 90
    33792
280
     0
281
     0
  0
CLASS
  1
CELLSTYLEMAP
  2
AcDbCellStyleMap
  3
ObjectDBX Classes
 90
     1152
280
     0
281
     0
  0
CLASS
  1
AEC_REFEDIT_STATUS_TRACKER
  2
AecDbRefEditStatusTracker
  3
AecArchBase50|Product Desc: Autodesk Architectural Desktop 2007 |Company: Autodesk,Inc. |WEB Address: www.autodesk.com
 90
      129
280
     0
281
     0
  0
CLASS
  1
IMAGE
  2
AcDbRasterImage
  3
ISM
 90
    34943
280
     0
281
     1
  0
CLASS
  1
IMAGEDEF_REACTOR
  2
AcDbRasterImageDefReactor
  3
ISM
 90
    32769
280
     0
281
     0
  0
CLASS
  1
IMAGEDEF
  2
AcDbRasterImageDef
  3
ISM
 90
    32768
280
     0
281
     0
  0
CLASS
  1
RASTERVARIABLES
  2
AcDbRasterVariables
  3
ISM
 90
    32768
280
     0
281
     0
  0
CLASS
  1
DIMASSOC
  2
AcDbDimAssoc
  3
"AcDbDimAssoc|Product Desc:     AcDim ARX App For Dimension|Company:          Autodesk, Inc.|WEB Address:      www.autodesk.com"
 90
        0
280
     0
281
     0
  0
CLASS
  1
SORTENTSTABLE
  2
AcDbSortentsTable
  3
ObjectDBX Classes
 90
        0
280
     0
281
     0
  0
CLASS
  1
ACMSURFSTANDARDDIN2002
  2
AcmSurfTextStdDIN2002
  3
"Amdt_StdImp|Product Description: AutoCAD Mechanical|Company: Autodesk, Inc."
 90
     1024
280
     0
281
     0
  0
ENDSEC
  0
SECTION
  2
TABLES
  0
TABLE
  2
VPORT
  5
8
330
0
100
AcDbSymbolTable
 70
     1
  0
VPORT
  5
3B2
330
8
100
AcDbSymbolTableRecord
100
AcDbViewportTableRecord
  2
*Active
 70
     0
 10
0.0
 20
0.0
 11
1.0
 21
1.0
 12
480.639048332208
 22
363.9502181628499
 13
0.0
 23
0.0
 14
2.5
 24
2.5
 15
10.0
 25
10.0
 16
0.0
 26
0.0
 36
1.0
 17
0.0
 27
0.0
 37
0.0
 40
733.1048058331561
 41
1.803695150115473
 42
50.0
 43
0.0
 44
0.0
 50
0.0
 51
0.0
 71
     0
 72
   100
 73
     1
 74
     3
 75
     0
 76
     0
 77
     0
 78
     0
281
     0
 65
     0
110
0.0
120
0.0
130
0.0
111
1.0
121
0.0
131
0.0
112
0.0
122
1.0
132
0.0
 79
     0
146
0.0
  0
ENDTAB
  0
TABLE
  2
LTYPE
  5
5
330
0
100
AcDbSymbolTable
 70
    24
  0
LTYPE
  5
14
330
5
100
AcDbSymbolTableRecord
100
AcDbLinetypeTableRecord
  2
ByBlock
 70
     0
  3

 72
    65
 73
     0
 40
0.0
  0
LTYPE
  5
15
330
5
100
AcDbSymbolTableRecord
100
AcDbLinetypeTableRecord
  2
ByLayer
 70
     0
  3

 72
    65
 73
     0
 40
0.0
  0
LTYPE
  5
16
330
5
100
AcDbSymbolTableRecord
100
AcDbLinetypeTableRecord
  2
Continuous
 70
     0
  3
Solid line
 72
    65
 73
     0
 40
0.0
  0
LTYPE
  5
64
330
5
100
AcDbSymbolTableRecord
100
AcDbLinetypeTableRecord
  2
AM_ISO02W050
 70
     0
  3
__ __ __ __ __ __ __ __ __ __ __ __ __ __ __
 72
    65
 73
     2
 40
7.5
 49
6.0
 74
     0
 49
-1.5
 74
     0
  0
LTYPE
  5
65
330
5
100
AcDbSymbolTableRecord
100
AcDbLinetypeTableRecord
  2
AM_ISO08W050
 70
     0
  3
____ . ____ . ____ . ____ . ____ . ____ . ____
 72
    65
 73
     4
 40
18.0
 49
12.0
 74
     0
 49
-1.5
 74
     0
 49
3.0
 74
     0
 49
-1.5
 74
     0
  0
LTYPE
  5
66
330
5
100
AcDbSymbolTableRecord
100
AcDbLinetypeTableRecord
  2
AM_ISO09W050
 70
     0
  3
_____ . . _____ . . _____ . . ____ .. ____
 72
    65
 73
     6
 40
22.5
 49
12.0
 74
     0
 49
-1.5
 74
     0
 49
3.0
 74
     0
 49
-1.5
 74
     0
 49
3.0
 74
     0
 49
-1.5
 74
     0
  0
LTYPE
  5
67
330
5
100
AcDbSymbolTableRecord
100
AcDbLinetypeTableRecord
  2
Amconstr
 70
     0
  3
_______________________
 72
    65
 73
     2
 40
9999.0
 49
9999.0
 74
     0
 49
0.0
 74
     0
  0
LTYPE
  5
68
330
5
100
AcDbSymbolTableRecord
100
AcDbLinetypeTableRecord
  2
AM_ISO08W050x2
 70
     0
  3
__ . __ . __ . __ . __ . __
 72
    65
 73
     4
 40
9.0
 49
6.0
 74
     0
 49
-0.75
 74
     0
 49
1.5
 74
     0
 49
-0.75
 74
     0
  0
LTYPE
  5
69
330
5
100
AcDbSymbolTableRecord
100
AcDbLinetypeTableRecord
  2
AM_ISO02W050x2
 70
     0
  3
 _ _ _ _ _ _ _ _ _ _ _ _
 72
    65
 73
     2
 40
3.75
 49
3.0
 74
     0
 49
-0.75
 74
     0
  0
LTYPE
  5
6C
330
5
100
AcDbSymbolTableRecord
100
AcDbLinetypeTableRecord
  2
Amzigzag
 70
     0
  3
/\/-/\/-/\/-/\/-/\/-/\/
 72
    65
 73
     2
 40
11.0001
 49
0.0001
 74
     4
 75
   136
340
22C
 46
0.04
 50
0.0
 44
0.0
 45
0.0
 49
-11.0
 74
     0
  0
LTYPE
  5
7A
330
5
100
AcDbSymbolTableRecord
100
AcDbLinetypeTableRecord
  2
ACISOWELD
 70
     0
  3
_ _ _ _ _
 72
    65
 73
     2
 40
2.0
 49
2.0
 74
     0
 49
-1.0
 74
     0
  0
LTYPE
  5
7B
330
5
100
AcDbSymbolTableRecord
100
AcDbLinetypeTableRecord
  2
ACISOTGB
 70
     0
  3
__ . . __ . .
 72
    65
 73
     6
 40
9.0
 49
4.0
 74
     0
 49
-1.0
 74
     0
 49
1.0
 74
     0
 49
-1.0
 74
     0
 49
1.0
 74
     0
 49
-1.0
 74
     0
  0
LTYPE
  5
7C
330
5
100
AcDbSymbolTableRecord
100
AcDbLinetypeTableRecord
  2
ACISOTGL
 70
     0
  3
_ _ _ _ _
 72
    65
 73
     2
 40
3.0
 49
2.0
 74
     0
 49
-1.0
 74
     0
  0
LTYPE
  5
7E
330
5
100
AcDbSymbolTableRecord
100
AcDbLinetypeTableRecord
  2
CENTER
 70
     0
  3
__ . __
 72
    65
 73
     4
 40
7.0
 49
4.0
 74
     0
 49
-1.0
 74
     0
 49
1.0
 74
     0
 49
-1.0
 74
     0
  0
LTYPE
  5
D8
330
5
100
AcDbSymbolTableRecord
100
AcDbLinetypeTableRecord
  2
HIDDEN
 70
     0
  3
Hidden __ __ __ __ __ __ __ __ __ __ __ __ __ _
 72
    65
 73
     2
 40
9.524999999999996
 49
6.349999999999997
 74
     0
 49
-3.174999999999998
 74
     0
  0
LTYPE
  5
D9
330
5
100
AcDbSymbolTableRecord
100
AcDbLinetypeTableRecord
  2
PHANTOM2
 70
     0
  3
Phantom (.5x) ___ _ _ ___ _ _ ___ _ _ ___ _ _
 72
    65
 73
     6
 40
31.75
 49
15.875
 74
     0
 49
-3.174999999999998
 74
     0
 49
3.174999999999998
 74
     0
 49
-3.174999999999998
 74
     0
 49
3.174999999999998
 74
     0
 49
-3.174999999999998
 74
     0
  0
LTYPE
  5
2E5
330
5
100
AcDbSymbolTableRecord
100
AcDbLinetypeTableRecord
  2
ACDINWELD
 70
     0
  3
_ _ _ _ _
 72
    65
 73
     2
 40
2.0
 49
2.0
 74
     0
 49
-1.0
 74
     0
  0
LTYPE
  5
2E6
330
5
100
AcDbSymbolTableRecord
100
AcDbLinetypeTableRecord
  2
ACDINTGB
 70
     0
  3
__ . . __ . .
 72
    65
 73
     6
 40
9.0
 49
4.0
 74
     0
 49
-1.0
 74
     0
 49
1.0
 74
     0
 49
-1.0
 74
     0
 49
1.0
 74
     0
 49
-1.0
 74
     0
  0
LTYPE
  5
2E7
330
5
100
AcDbSymbolTableRecord
100
AcDbLinetypeTableRecord
  2
ACDINTGL
 70
     0
  3
_ _ _ _ _
 72
    65
 73
     2
 40
3.0
 49
2.0
 74
     0
 49
-1.0
 74
     0
  0
LTYPE
  5
321
330
5
100
AcDbSymbolTableRecord
100
AcDbLinetypeTableRecord
  2
AM_DIN_F_W050
 70
     0
  3
__ __ __ __ __ __ __ __ __ __ __ __ __ __ __
 72
    65
 73
     2
 40
6.25
 49
4.75
 74
     0
 49
-1.5
 74
     0
  0
LTYPE
  5
322
330
5
100
AcDbSymbolTableRecord
100
AcDbLinetypeTableRecord
  2
AM_DIN_G_W050
 70
     0
  3
____ . ____ . ____ . ____ . ____ . ____ . ____
 72
    65
 73
     4
 40
13.75
 49
9.75
 74
     0
 49
-1.5
 74
     0
 49
1.0
 74
     0
 49
-1.5
 74
     0
  0
LTYPE
  5
323
330
5
100
AcDbSymbolTableRecord
100
AcDbLinetypeTableRecord
  2
AM_DIN_K_W050
 70
     0
  3
_____ . . _____ . . _____ . . ____ .. ____
 72
    65
 73
     6
 40
16.25
 49
9.75
 74
     0
 49
-1.5
 74
     0
 49
1.0
 74
     0
 49
-1.5
 74
     0
 49
1.0
 74
     0
 49
-1.5
 74
     0
  0
LTYPE
  5
324
330
5
100
AcDbSymbolTableRecord
100
AcDbLinetypeTableRecord
  2
AM_DIN_G_W050x2
 70
     0
  3
__ . __ . __ . __ . __ . __
 72
    65
 73
     4
 40
6.875
 49
4.75
 74
     0
 49
-0.875
 74
     0
 49
0.375
 74
     0
 49
-0.875
 74
     0
  0
LTYPE
  5
325
330
5
100
AcDbSymbolTableRecord
100
AcDbLinetypeTableRecord
  2
AM_DIN_F_W050x2
 70
     0
  3
 _ _ _ _ _ _ _ _ _ _ _ _
 72
    65
 73
     2
 40
3.125
 49
2.25
 74
     0
 49
-0.875
 74
     0
  0
LTYPE
  5
675
330
5
100
AcDbSymbolTableRecord
100
AcDbLinetypeTableRecord
  2
GEN7A
 70
     0
  3
__ . __ . __
 72
    65
 73
     4
 40
6.875
 49
5.0
 74
     0
 49
-0.625
 74
     0
 49
0.625
 74
     0
 49
-0.625
 74
     0
  0
ENDTAB
  0
TABLE
  2
LAYER
  5
2
102
{ACAD_XDICTIONARY
360
691
102
}
330
0
100
AcDbSymbolTable
 70
    10
  0
LAYER
  5
10
102
{ACAD_XDICTIONARY
360
976
102
}
330
2
100
AcDbSymbolTableRecord
100
AcDbLayerTableRecord
  2
0
 70
     0
 62
     7
  6
Continuous
370
    -3
390
F
  0
LAYER
  5
676
102
{ACAD_XDICTIONARY
360
677
102
}
330
2
100
AcDbSymbolTableRecord
100
AcDbLayerTableRecord
  2
7A
 70
     0
 62
     4
  6
GEN7A
370
    -3
390
F
  0
LAYER
  5
678
102
{ACAD_XDICTIONARY
360
679
102
}
330
2
100
AcDbSymbolTableRecord
100
AcDbLayerTableRecord
  2
5
 70
     0
 62
     3
  6
Continuous
370
    -3
390
F
  0
LAYER
  5
67A
330
2
100
AcDbSymbolTableRecord
100
AcDbLayerTableRecord
  2
DEFPOINTS
 70
     0
 62
     7
  6
Continuous
290
     0
370
    -3
390
F
  0
LAYER
  5
67B
102
{ACAD_XDICTIONARY
360
67C
102
}
330
2
100
AcDbSymbolTableRecord
100
AcDbLayerTableRecord
  2
KLIN
 70
     0
 62
     1
  6
Continuous
370
    -3
390
F
  0
LAYER
  5
67D
102
{ACAD_XDICTIONARY
360
67E
102
}
330
2
100
AcDbSymbolTableRecord
100
AcDbLayerTableRecord
  2
RUNDUNGEN
 70
     0
 62
     7
  6
Continuous
370
    -3
390
F
  0
LAYER
  5
67F
102
{ACAD_XDICTIONARY
360
680
102
}
330
2
100
AcDbSymbolTableRecord
100
AcDbLayerTableRecord
  2
AM_5
 70
     0
 62
     3
  6
Continuous
370
    25
390
F
1001
AcAecLayerStandard
1000

1000

  0
LAYER
  5
681
102
{ACAD_XDICTIONARY
360
682
102
}
330
2
100
AcDbSymbolTableRecord
100
AcDbLayerTableRecord
  2
AM_7
 70
     0
 62
     4
  6
AM_ISO08W050
370
    25
390
F
1001
AcAecLayerStandard
1000

1000

  0
LAYER
  5
7F1
102
{ACAD_XDICTIONARY
360
97E
102
}
330
2
100
AcDbSymbolTableRecord
100
AcDbLayerTableRecord
  2
AM_CL
 70
     0
 62
     1
  6
Amconstr
370
    25
390
F
1001
AcAecLayerStandard
1000

1000

  0
LAYER
  5
A5C
102
{ACAD_XDICTIONARY
360
A5D
102
}
330
2
100
AcDbSymbolTableRecord
100
AcDbLayerTableRecord
  2
BEZUGSACHSEN
 70
     0
 62
     7
  6
Continuous
370
    -3
390
F
  0
ENDTAB
  0
TABLE
  2
STYLE
  5
3
330
0
100
AcDbSymbolTable
 70
    10
  0
STYLE
  5
11
330
3
100
AcDbSymbolTableRecord
100
AcDbTextStyleTableRecord
  2
STANDARD
 70
     0
 40
0.0
 41
1.0
 50
0.0
 71
     0
 42
2.5
  3
ISOCP.SHX
  4

  0
STYLE
  5
6B
330
3
100
AcDbSymbolTableRecord
100
AcDbTextStyleTableRecord
  2

 70
     1
 40
0.0
 41
1.0
 50
0.0
 71
     0
 42
2.5
  3
ltypeshp.shx
  4

  0
STYLE
  5
6D
330
3
100
AcDbSymbolTableRecord
100
AcDbTextStyleTableRecord
  2
ACISOTS
 70
     0
 40
1.0
 41
1.0
 50
0.0
 71
     0
 42
2.5
  3
isocp.shx
  4
bigfont.shx
  0
STYLE
  5
79
330
3
100
AcDbSymbolTableRecord
100
AcDbTextStyleTableRecord
  2
ACISOGDT
 70
     0
 40
0.0
 41
1.0
 50
0.0
 71
     0
 42
2.5
  3
AMGDT
  4
bigfont.shx
  0
STYLE
  5
1ED
330
3
100
AcDbSymbolTableRecord
100
AcDbTextStyleTableRecord
  2
USER1
 70
     0
 40
0.0
 41
1.0
 50
0.0
 71
     0
 42
2.5
  3
TXT.SHX
  4
bigfont.shx
  0
STYLE
  5
1EE
330
3
100
AcDbSymbolTableRecord
100
AcDbTextStyleTableRecord
  2
USER2
 70
     0
 40
0.0
 41
1.0
 50
0.0
 71
     0
 42
2.5
  3
SIMPLEX.SHX
  4
bigfont.shx
  0
STYLE
  5
1EF
330
3
100
AcDbSymbolTableRecord
100
AcDbTextStyleTableRecord
  2
USER3
 70
     0
 40
0.0
 41
1.0
 50
0.0
 71
     0
 42
2.5
  3
ITALIC.SHX
  4
bigfont.shx
  0
STYLE
  5
22C
330
3
100
AcDbSymbolTableRecord
100
AcDbTextStyleTableRecord
  2

 70
     1
 40
0.0
 41
1.0
 50
0.0
 71
     0
 42
2.5
  3
genltshp.shx
  4

  0
STYLE
  5
2D7
330
3
100
AcDbSymbolTableRecord
100
AcDbTextStyleTableRecord
  2
ACDINTS
 70
     0
 40
1.0
 41
1.0
 50
0.0
 71
     0
 42
2.5
  3
isocp.shx
  4

  0
STYLE
  5
2E4
330
3
100
AcDbSymbolTableRecord
100
AcDbTextStyleTableRecord
  2
ACDINGDT
 70
     0
 40
0.0
 41
1.0
 50
0.0
 71
     0
 42
2.5
  3
amgdt.shx
  4

  0
ENDTAB
  0
TABLE
  2
VIEW
  5
6
330
0
100
AcDbSymbolTable
 70
     0
  0
ENDTAB
  0
TABLE
  2
UCS
  5
7
330
0
100
AcDbSymbolTable
 70
     0
  0
ENDTAB
  0
TABLE
  2
APPID
  5
9
330
0
100
AcDbSymbolTable
 70
    28
  0
APPID
  5
12
330
9
100
AcDbSymbolTableRecord
100
AcDbRegAppTableRecord
  2
ACAD
 70
     0
  0
APPID
  5
46
330
9
100
AcDbSymbolTableRecord
100
AcDbRegAppTableRecord
  2
MCAD_NO_VIS
 70
     0
  0
APPID
  5
47
330
9
100
AcDbSymbolTableRecord
100
AcDbRegAppTableRecord
  2
ACAD_TEMP_GRAPHIC
 70
     0
  0
APPID
  5
58
330
9
100
AcDbSymbolTableRecord
100
AcDbRegAppTableRecord
  2
ACATTRIBSERVICES
 70
     0
  0
APPID
  5
EE
330
9
100
AcDbSymbolTableRecord
100
AcDbRegAppTableRecord
  2
AD_DRAW
 70
     0
  0
APPID
  5
10C
330
9
100
AcDbSymbolTableRecord
100
AcDbRegAppTableRecord
  2
DESIGNERASSEMBLIES
 70
     0
  0
APPID
  5
111
330
9
100
AcDbSymbolTableRecord
100
AcDbRegAppTableRecord
  2
ACADM_DIM_EDIT
 70
     0
  0
APPID
  5
112
330
9
100
AcDbSymbolTableRecord
100
AcDbRegAppTableRecord
  2
AMDT_DM_ADJ
 70
     0
  0
APPID
  5
1A3
330
9
100
AcDbSymbolTableRecord
100
AcDbRegAppTableRecord
  2
ACAD_DSTYLE_DIMARC_LENGTH_SYMBOL
 70
     0
  0
APPID
  5
1A4
330
9
100
AcDbSymbolTableRecord
100
AcDbRegAppTableRecord
  2
ACAD_DSTYLE_DIMJOGGED_JOGANGLE_SYMBOL
 70
     0
  0
APPID
  5
3F1
330
9
100
AcDbSymbolTableRecord
100
AcDbRegAppTableRecord
  2
ACAD_MLEADERVER
 70
     0
  0
APPID
  5
687
330
9
100
AcDbSymbolTableRecord
100
AcDbRegAppTableRecord
  2
GENIUS_GENOENT_13
 70
     0
  0
APPID
  5
688
330
9
100
AcDbSymbolTableRecord
100
AcDbRegAppTableRecord
  2
GENIUS_GENODEF_13
 70
     0
  0
APPID
  5
689
330
9
100
AcDbSymbolTableRecord
100
AcDbRegAppTableRecord
  2
GENIUS_GENOLIS_13
 70
     0
  0
APPID
  5
68A
330
9
100
AcDbSymbolTableRecord
100
AcDbRegAppTableRecord
  2
GENIUS_GENOREF_13
 70
     0
  0
APPID
  5
68B
330
9
100
AcDbSymbolTableRecord
100
AcDbRegAppTableRecord
  2
GENIUS_GENOBJ-N-CRS_13
 70
     0
  0
APPID
  5
68C
330
9
100
AcDbSymbolTableRecord
100
AcDbRegAppTableRecord
  2
GENIUS_GENOBJ-N-CEN_13
 70
     0
  0
APPID
  5
68D
330
9
100
AcDbSymbolTableRecord
100
AcDbRegAppTableRecord
  2
ACAD_PSEXT
 70
     0
  0
APPID
  5
68E
330
9
100
AcDbSymbolTableRecord
100
AcDbRegAppTableRecord
  2
AcAecLayerStandard
 70
     0
  0
APPID
  5
68F
330
9
100
AcDbSymbolTableRecord
100
AcDbRegAppTableRecord
  2
ACAD_DSTYLE_DIMINSPECT
 70
     0
  0
APPID
  5
690
330
9
100
AcDbSymbolTableRecord
100
AcDbRegAppTableRecord
  2
GENIUS_GENCEN_19
 70
     0
  0
APPID
  5
9EB
330
9
100
AcDbSymbolTableRecord
100
AcDbRegAppTableRecord
  2
ACAD_DSTYLE_DIM_LINETYPE
 70
     0
  0
APPID
  5
9EC
330
9
100
AcDbSymbolTableRecord
100
AcDbRegAppTableRecord
  2
ACAD_DSTYLE_DIM_EXT1_LINETYPE
 70
     0
  0
APPID
  5
9ED
330
9
100
AcDbSymbolTableRecord
100
AcDbRegAppTableRecord
  2
ACAD_DSTYLE_DIM_EXT2_LINETYPE
 70
     0
  0
APPID
  5
A59
330
9
100
AcDbSymbolTableRecord
100
AcDbRegAppTableRecord
  2
GENIUS_GENREC_14
 70
     0
  0
APPID
  5
A5A
330
9
100
AcDbSymbolTableRecord
100
AcDbRegAppTableRecord
  2
GENIUS_GENOBJ-N-REC_13
 70
     0
  0
APPID
  5
B44
330
9
100
AcDbSymbolTableRecord
100
AcDbRegAppTableRecord
  2
ACAD_EXEMPT_FROM_CAD_STANDARDS
 70
     0
  0
APPID
  5
EFA
330
9
100
AcDbSymbolTableRecord
100
AcDbRegAppTableRecord
  2
DCO15
 70
     0
  0
ENDTAB
  0
TABLE
  2
DIMSTYLE
  5
A
330
0
100
AcDbSymbolTable
 70
    20
100
AcDbDimStyleTable
 71
     2
340
2F0
340
81
  0
DIMSTYLE
105
27
330
A
100
AcDbSymbolTableRecord
100
AcDbDimStyleTableRecord
  2
ISO-25
 70
     0
 41
2.5
 42
0.625
 43
3.75
 44
1.25
 73
     0
 74
     0
 77
     1
 78
     8
140
2.5
141
2.5
143
0.03937007874016
147
0.625
171
     3
172
     1
271
     2
272
     2
274
     3
278
    44
283
     0
284
     8
340
11
  0
DIMSTYLE
105
81
330
A
100
AcDbSymbolTableRecord
100
AcDbDimStyleTableRecord
  2
AM_ISO
 70
     0
  4
"
 41
2.5
 42
1.0
 43
10.0
 44
1.0
 47
0.1
 48
0.1
 73
     0
 74
     0
 77
     1
 78
     8
 79
     2
140
3.5
141
0.0
143
0.0393701
146
0.71
147
1.5
172
     1
176
   256
177
   256
178
     2
271
     2
272
     3
274
     4
283
     0
284
     8
340
11
371
    -1
372
    -1
1001
ACAD_DSTYLE_DIMJOGGED_JOGANGLE_SYMBOL
1070
   384
1040
0.7853981633974483
1001
ACAD_DSTYLE_DIMARC_LENGTH_SYMBOL
1070
   379
1070
     1
  0
DIMSTYLE
105
82
330
A
100
AcDbSymbolTableRecord
100
AcDbDimStyleTableRecord
  2
AM_ISO$3
 70
     0
  4
"
 41
2.5
 42
1.0
 43
10.0
 44
1.0
 47
0.1
 48
0.1
 73
     0
 77
     1
 78
     8
 79
     2
140
3.5
141
0.0
143
0.0393701
146
0.71
147
1.5
176
   256
177
   256
178
     2
271
     2
272
     3
274
     4
283
     0
284
     8
288
     1
289
     0
340
11
371
    -1
372
    -1
1001
ACAD_DSTYLE_DIMJOGGED_JOGANGLE_SYMBOL
1070
   384
1040
0.7853981633974483
1001
ACAD_DSTYLE_DIMARC_LENGTH_SYMBOL
1070
   379
1070
     1
  0
DIMSTYLE
105
83
330
A
100
AcDbSymbolTableRecord
100
AcDbDimStyleTableRecord
  2
AM_ISO$4
 70
     0
  4
"
 41
2.5
 42
1.0
 43
10.0
 44
1.0
 47
0.1
 48
0.1
 73
     0
 77
     1
 78
     8
 79
     2
140
3.5
141
0.0
143
0.0393701
146
0.71
147
1.5
176
   256
177
   256
178
     2
271
     2
272
     3
274
     4
283
     0
284
     8
288
     1
289
     0
340
11
371
    -1
372
    -1
1001
ACAD_DSTYLE_DIMJOGGED_JOGANGLE_SYMBOL
1070
   384
1040
0.7853981633974483
1001
ACAD_DSTYLE_DIMARC_LENGTH_SYMBOL
1070
   379
1070
     1
  0
DIMSTYLE
105
84
330
A
100
AcDbSymbolTableRecord
100
AcDbDimStyleTableRecord
  2
AM_ISO$6
 70
     0
  4
"
 41
2.5
 42
1.0
 43
10.0
 44
1.0
 47
0.1
 48
0.1
 73
     0
 74
     0
 78
     8
 79
     2
140
3.5
141
0.0
143
0.0393701
146
0.71
147
1.5
172
     1
176
   256
177
   256
178
     2
271
     2
272
     3
274
     4
283
     0
284
     8
340
11
371
    -1
372
    -1
1001
ACAD_DSTYLE_DIMJOGGED_JOGANGLE_SYMBOL
1070
   384
1040
0.7853981633974483
1001
ACAD_DSTYLE_DIMARC_LENGTH_SYMBOL
1070
   379
1070
     1
  0
DIMSTYLE
105
85
330
A
100
AcDbSymbolTableRecord
100
AcDbDimStyleTableRecord
  2
AM_ISO$7
 70
     0
  4
"
 41
2.5
 42
1.0
 43
10.0
 44
1.0
 47
0.1
 48
0.1
 73
     0
 74
     0
 77
     1
 78
     8
 79
     2
140
5.0
141
0.0
143
0.0393701
146
0.71
147
1.5
172
     1
176
   256
177
   256
178
     2
271
     2
272
     3
274
     4
283
     0
284
     8
340
11
371
    -1
372
    -1
1001
ACAD_DSTYLE_DIMJOGGED_JOGANGLE_SYMBOL
1070
   384
1040
0.7853981633974483
1001
ACAD_DSTYLE_DIMARC_LENGTH_SYMBOL
1070
   379
1070
     1
  0
DIMSTYLE
105
86
330
A
100
AcDbSymbolTableRecord
100
AcDbDimStyleTableRecord
  2
AM_ISO$SF
 70
     0
  4
"
 41
2.5
 42
1.0
 43
10.0
 44
1.0
 47
0.1
 48
0.1
 73
     0
 74
     0
 75
     1
 76
     1
 77
     1
 78
     8
 79
     2
140
3.5
141
0.0
143
0.0393701
146
0.71
147
1.5
172
     1
176
   256
177
   256
178
     2
271
     2
272
     3
274
     4
283
     0
284
     8
340
11
371
    -1
372
    -1
1001
ACAD_DSTYLE_DIMJOGGED_JOGANGLE_SYMBOL
1070
   384
1040
0.7853981633974483
1001
ACAD_DSTYLE_DIMARC_LENGTH_SYMBOL
1070
   379
1070
     1
  0
DIMSTYLE
105
8B
330
A
100
AcDbSymbolTableRecord
100
AcDbDimStyleTableRecord
  2
AM_ISO$SH
 70
     0
  4
"
 41
2.5
 42
1.0
 43
10.0
 44
1.0
 47
0.1
 48
0.1
 73
     0
 74
     0
 75
     1
 76
     1
 77
     1
 78
     8
 79
     2
140
3.5
141
0.0
143
0.0393701
144
2.0
146
0.71
147
1.5
172
     1
173
     1
176
   256
177
   256
178
     2
271
     2
272
     3
274
     4
283
     0
284
     8
340
11
343
87
371
    -1
372
    -1
1001
ACAD_DSTYLE_DIMJOGGED_JOGANGLE_SYMBOL
1070
   384
1040
0.7853981633974483
1001
ACAD_DSTYLE_DIMARC_LENGTH_SYMBOL
1070
   379
1070
     1
  0
DIMSTYLE
105
2F0
102
{ACAD_REACTORS
330
E47
102
}
330
A
100
AcDbSymbolTableRecord
100
AcDbDimStyleTableRecord
  2
AM_DIN
 70
     0
  4
"
 41
3.5
 42
1.0
 43
10.0
 44
1.0
 47
0.1
 48
0.1
 73
     0
 74
     0
 77
     1
 78
     8
 79
     2
140
3.5
141
0.0
143
0.0393701
146
0.71
147
1.5
172
     1
176
   256
177
   256
178
     2
271
     2
272
     3
274
     4
283
     0
284
     8
340
11
371
    -1
372
    -1
1001
ACAD_DSTYLE_DIMJOGGED_JOGANGLE_SYMBOL
1070
   384
1040
1.570796326794896
1001
ACAD_DSTYLE_DIM_LINETYPE
1070
   380
1005
14
1001
ACAD_DSTYLE_DIM_EXT1_LINETYPE
1070
   381
1005
14
1001
ACAD_DSTYLE_DIM_EXT2_LINETYPE
1070
   382
1005
14
  0
DIMSTYLE
105
301
330
A
100
AcDbSymbolTableRecord
100
AcDbDimStyleTableRecord
  2
AM_DIN$3
 70
     0
  4
"
 41
3.5
 42
1.0
 43
10.0
 44
1.0
 47
0.1
 48
0.1
 73
     0
 77
     1
 78
     8
 79
     2
140
3.5
141
0.0
143
0.0393701
146
0.71
147
1.5
176
   256
177
   256
178
     2
271
     2
272
     3
274
     4
283
     0
284
     8
288
     1
289
     0
340
11
371
    -1
372
    -1
1001
ACAD_DSTYLE_DIMJOGGED_JOGANGLE_SYMBOL
1070
   384
1040
1.570796326794896
1001
ACAD_DSTYLE_DIM_LINETYPE
1070
   380
1005
14
1001
ACAD_DSTYLE_DIM_EXT1_LINETYPE
1070
   381
1005
14
1001
ACAD_DSTYLE_DIM_EXT2_LINETYPE
1070
   382
1005
14
  0
DIMSTYLE
105
306
330
A
100
AcDbSymbolTableRecord
100
AcDbDimStyleTableRecord
  2
AM_DIN$4
 70
     0
  4
"
 41
3.5
 42
1.0
 43
10.0
 44
1.0
 47
0.1
 48
0.1
 73
     0
 74
     0
 77
     1
 78
     8
 79
     2
140
3.5
141
0.0
143
0.0393701
146
0.71
147
1.5
172
     1
176
   256
177
   256
178
     2
271
     2
272
     3
274
     4
283
     0
284
     8
340
11
371
    -1
372
    -1
1001
ACAD_DSTYLE_DIMJOGGED_JOGANGLE_SYMBOL
1070
   384
1040
1.570796326794896
1001
ACAD_DSTYLE_DIM_LINETYPE
1070
   380
1005
14
1001
ACAD_DSTYLE_DIM_EXT1_LINETYPE
1070
   381
1005
14
1001
ACAD_DSTYLE_DIM_EXT2_LINETYPE
1070
   382
1005
14
  0
DIMSTYLE
105
30B
330
A
100
AcDbSymbolTableRecord
100
AcDbDimStyleTableRecord
  2
AM_DIN$6
 70
     0
  4
"
 41
3.5
 42
1.0
 43
10.0
 44
1.0
 47
0.1
 48
0.1
 73
     0
 74
     0
 78
     8
 79
     2
140
3.5
141
0.0
143
0.0393701
146
0.71
147
1.5
172
     1
176
   256
177
   256
178
     2
271
     2
272
     3
274
     4
283
     0
284
     8
340
11
371
    -1
372
    -1
1001
ACAD_DSTYLE_DIMJOGGED_JOGANGLE_SYMBOL
1070
   384
1040
1.570796326794896
1001
ACAD_DSTYLE_DIM_LINETYPE
1070
   380
1005
14
1001
ACAD_DSTYLE_DIM_EXT1_LINETYPE
1070
   381
1005
14
1001
ACAD_DSTYLE_DIM_EXT2_LINETYPE
1070
   382
1005
14
  0
DIMSTYLE
105
310
330
A
100
AcDbSymbolTableRecord
100
AcDbDimStyleTableRecord
  2
AM_DIN$7
 70
     0
  4
"
 41
3.5
 42
1.0
 43
10.0
 44
1.0
 47
0.1
 48
0.1
 73
     0
 74
     0
 77
     1
 78
     8
 79
     2
140
3.5
141
0.0
143
0.0393701
146
0.71
147
1.5
172
     1
176
   256
177
   256
178
     2
271
     2
272
     3
274
     4
283
     0
284
     8
340
11
371
    -1
372
    -1
1001
ACAD_DSTYLE_DIMJOGGED_JOGANGLE_SYMBOL
1070
   384
1040
1.570796326794896
1001
ACAD_DSTYLE_DIM_LINETYPE
1070
   380
1005
14
1001
ACAD_DSTYLE_DIM_EXT1_LINETYPE
1070
   381
1005
14
1001
ACAD_DSTYLE_DIM_EXT2_LINETYPE
1070
   382
1005
14
  0
DIMSTYLE
105
315
330
A
100
AcDbSymbolTableRecord
100
AcDbDimStyleTableRecord
  2
AM_DIN$SF
 70
     0
  4
"
 41
3.5
 42
1.0
 43
10.0
 44
1.0
 47
0.1
 48
0.1
 73
     0
 74
     0
 75
     1
 76
     1
 77
     1
 78
     8
 79
     2
140
3.5
141
0.0
143
0.0393701
146
0.71
147
1.5
172
     1
176
   256
177
   256
178
     2
271
     2
272
     3
274
     4
283
     0
284
     8
340
11
371
    -1
372
    -1
1001
ACAD_DSTYLE_DIMJOGGED_JOGANGLE_SYMBOL
1070
   384
1040
1.570796326794896
1001
ACAD_DSTYLE_DIM_LINETYPE
1070
   380
1005
14
1001
ACAD_DSTYLE_DIM_EXT1_LINETYPE
1070
   381
1005
14
1001
ACAD_DSTYLE_DIM_EXT2_LINETYPE
1070
   382
1005
14
  0
DIMSTYLE
105
31A
330
A
100
AcDbSymbolTableRecord
100
AcDbDimStyleTableRecord
  2
AM_DIN$SH
 70
     0
  4
"
 41
3.5
 42
1.0
 43
10.0
 44
1.0
 47
0.1
 48
0.1
 73
     0
 74
     0
 75
     1
 76
     1
 77
     1
 78
     8
 79
     2
140
3.5
141
0.0
143
0.0393701
144
2.0
146
0.71
147
1.5
172
     1
173
     1
176
   256
177
   256
178
     2
271
     2
272
     3
274
     4
283
     0
284
     8
340
11
343
87
371
    -1
372
    -1
1001
ACAD_DSTYLE_DIMJOGGED_JOGANGLE_SYMBOL
1070
   384
1040
1.570796326794896
1001
ACAD_DSTYLE_DIM_LINETYPE
1070
   380
1005
14
1001
ACAD_DSTYLE_DIM_EXT1_LINETYPE
1070
   381
1005
14
1001
ACAD_DSTYLE_DIM_EXT2_LINETYPE
1070
   382
1005
14
  0
DIMSTYLE
105
683
330
A
100
AcDbSymbolTableRecord
100
AcDbDimStyleTableRecord
  2
GEN-ISO
 70
     0
  3
<>
  4
"
 40
20.0
 41
2.5
 42
1.0
 43
7.0
 44
1.0
 47
0.1
 48
0.1
 73
     0
 74
     0
 77
     1
 78
     8
140
3.5
141
0.0
143
0.0393701
146
0.71
147
0.6
172
     1
176
   256
177
   256
178
     2
271
     2
272
     3
274
     4
283
     0
340
11
  0
DIMSTYLE
105
684
330
A
100
AcDbSymbolTableRecord
100
AcDbDimStyleTableRecord
  2
GEN-ISO$0
 70
     0
  3
<>
  4
"
 40
20.0
 41
2.5
 42
1.0
 43
7.0
 44
1.0
 47
0.1
 48
0.1
 73
     0
 74
     0
 77
     1
 78
     8
140
3.5
141
0.0
143
0.0393701
146
0.71
147
0.6
172
     1
176
   256
177
   256
178
     2
271
     2
272
     3
274
     4
283
     0
340
11
  0
DIMSTYLE
105
685
330
A
100
AcDbSymbolTableRecord
100
AcDbDimStyleTableRecord
  2
GEN-ISO$2
 70
     0
  3
<>
  4
"
 40
20.0
 41
2.5
 42
1.0
 43
7.0
 44
1.0
 47
0.1
 48
0.1
 73
     0
 74
     0
 77
     1
 78
     8
140
3.5
141
0.0
143
0.0393701
146
0.71
147
0.6
172
     1
176
   256
177
   256
178
     2
271
     2
272
     3
274
     4
283
     0
340
11
  0
DIMSTYLE
105
686
102
{ACAD_REACTORS
330
914
330
915
330
916
330
91C
330
91D
330
91E
330
997
330
B10
102
}
330
A
100
AcDbSymbolTableRecord
100
AcDbDimStyleTableRecord
  2
AM_DIN$0
 70
     0
  4
"
 41
3.5
 42
1.0
 43
10.0
 44
1.0
 47
0.1
 48
0.1
 73
     0
 74
     0
 77
     1
 78
     8
 79
     2
140
3.5
141
0.0
143
0.0393701
146
0.71
147
1.5
172
     1
176
   256
177
   256
178
     2
271
     2
272
     3
274
     4
283
     0
284
     8
340
11
371
    -1
372
    -1
1001
ACAD_DSTYLE_DIMJOGGED_JOGANGLE_SYMBOL
1070
   384
1040
1.570796326794896
1001
ACAD_DSTYLE_DIM_LINETYPE
1070
   380
1005
14
1001
ACAD_DSTYLE_DIM_EXT1_LINETYPE
1070
   381
1005
14
1001
ACAD_DSTYLE_DIM_EXT2_LINETYPE
1070
   382
1005
14
  0
ENDTAB
  0
TABLE
  2
BLOCK_RECORD
  5
1
330
0
100
AcDbSymbolTable
 70
    37
  0
BLOCK_RECORD
  5
1F
102
{ACAD_XDICTIONARY
360
8F
102
}
330
1
100
AcDbSymbolTableRecord
100
AcDbBlockTableRecord
  2
*Model_Space
340
22
  0
BLOCK_RECORD
  5
1B
330
1
100
AcDbSymbolTableRecord
100
AcDbBlockTableRecord
  2
*Paper_Space
340
1E
  0
BLOCK_RECORD
  5
23
330
1
100
AcDbSymbolTableRecord
100
AcDbBlockTableRecord
  2
*Paper_Space0
340
26
  0
BLOCK_RECORD
  5
87
330
1
100
AcDbSymbolTableRecord
100
AcDbBlockTableRecord
  2
GENAXEH
340
0
  0
BLOCK_RECORD
  5
5C1
330
1
100
AcDbSymbolTableRecord
100
AcDbBlockTableRecord
  2
stutzen
340
0
310
2800000020000000200000000100080000000000000400000000000000000000000000000000000000000000000080000080000000808000800000008000800080800000C0C0C000C0DCC000F0CAA6000020400000206000002080000020A0000020C0000020E00000400000004020000040400000406000004080000040A0
310
000040C0000040E00000600000006020000060400000606000006080000060A0000060C0000060E00000800000008020000080400000806000008080000080A0000080C0000080E00000A0000000A0200000A0400000A0600000A0800000A0A00000A0C00000A0E00000C0000000C0200000C0400000C0600000C0800000C0
310
A00000C0C00000C0E00000E0000000E0200000E0400000E0600000E0800000E0A00000E0C00000E0E00040000000400020004000400040006000400080004000A0004000C0004000E00040200000402020004020400040206000402080004020A0004020C0004020E000404000004040200040404000404060004040800040
310
40A0004040C0004040E00040600000406020004060400040606000406080004060A0004060C0004060E00040800000408020004080400040806000408080004080A0004080C0004080E00040A0000040A0200040A0400040A0600040A0800040A0A00040A0C00040A0E00040C0000040C0200040C0400040C0600040C08000
310
40C0A00040C0C00040C0E00040E0000040E0200040E0400040E0600040E0800040E0A00040E0C00040E0E00080000000800020008000400080006000800080008000A0008000C0008000E00080200000802020008020400080206000802080008020A0008020C0008020E00080400000804020008040400080406000804080
310
008040A0008040C0008040E00080600000806020008060400080606000806080008060A0008060C0008060E00080800000808020008080400080806000808080008080A0008080C0008080E00080A0000080A0200080A0400080A0600080A0800080A0A00080A0C00080A0E00080C0000080C0200080C0400080C0600080C0
310
800080C0A00080C0C00080C0E00080E0000080E0200080E0400080E0600080E0800080E0A00080E0C00080E0E000C0000000C0002000C0004000C0006000C0008000C000A000C000C000C000E000C0200000C0202000C0204000C0206000C0208000C020A000C020C000C020E000C0400000C0402000C0404000C0406000C0
310
408000C040A000C040C000C040E000C0600000C0602000C0604000C0606000C0608000C060A000C060C000C060E000C0800000C0802000C0804000C0806000C0808000C080A000C080C000C080E000C0A00000C0A02000C0A04000C0A06000C0A08000C0A0A000C0A0C000C0A0E000C0C00000C0C02000C0C04000C0C06000
310
C0C08000C0C0A000F0FBFF00A4A0A000808080000000FF0000FF000000FFFF00FF000000FF00FF00FFFF0000FFFFFF00000000000000000000000000000000000000000000000000000000000000000000000000000000000000000000000000FE0000000000000000000000000000000000000000000000FFFFFFFFFFFFFF
310
FFFFFFFFFFFFFFFFFF00000000000000000000000000000000FFFF000000000000FE0000000000FFFF0000000000000000000000000000F9FFFFFF070707070707070707070707FFFFFFF90000000000000000000000F9FFF9FFFFFFFFFFFFFFFFFFFFFFFFFFFFFFFFF9FFF900000000000000000000F9FF07070707070707
310
0707070707070707070707FFFF00000000000000000000F900000000000000000000FE000000000000000000F900000000000000000000F900000000000000000000FE000000000000000000F900000000000000000000FF00000000000000000000FE000000000000000000F900000000000000000000F900000000000000
310
000000FE000000000000000000F900000000000000000000F900000000000000000000FE000000000000000000FF00000000000000000000F900000000000000000000FE000000000000000000F900000000000000000000F900000000000000000000FE000000000000000000FF00000000000000000000FF000000000000
310
00000000FE000000000000000000F900000000000000000000F900000000000000000000FE000000000000000000F900000000000000000000FF00000000000000000000FE000000000000000000F900000000000000000000F900000000000000000000FE000000000000000000F900000000000000000000F90000000000
310
0000000000FE000000000000000000FF00000000000000000000F900000000000000000000FE000000000000000000F900000000000000000000F900000000000000000000FE000000000000000000F900000000000000000000FF00000000000000000000FE000000000000000000F900000000000000000000F900000000
310
000000000000FE000000000000000000F900000000000000000000FF00000000000000000000FE000000000000000000F900000000000000000000F900000000000000000000FE000000000000000000F900000000000000000000F900000000000000000000FE000000000000000000FF00000000000000000000F9000000
310
00000000000000FE000000000000000000F900000000000000000000F900000000000000000000FE000000000000000000F900000000000000000000FF00000000000000000000FE000000000000000000F900000000000000000000FBFFFFFFFFFFFFFFFFFFFFFFFFFFFFFFFFFFFFFFFFFF00000000000000000000000000
310
0000000000000000FE0000000000000000000000000000000000000000000000000000000000000000000000000000000000000000000000
102
{BLKREFS
331
904
102
}
  0
BLOCK_RECORD
  5
5FF
330
1
100
AcDbSymbolTableRecord
100
AcDbBlockTableRecord
  2
fklö
340
0
310
2800000020000000200000000100080000000000000400000000000000000000000000000000000000000000000080000080000000808000800000008000800080800000C0C0C000C0DCC000F0CAA6000020400000206000002080000020A0000020C0000020E00000400000004020000040400000406000004080000040A0
310
000040C0000040E00000600000006020000060400000606000006080000060A0000060C0000060E00000800000008020000080400000806000008080000080A0000080C0000080E00000A0000000A0200000A0400000A0600000A0800000A0A00000A0C00000A0E00000C0000000C0200000C0400000C0600000C0800000C0
310
A00000C0C00000C0E00000E0000000E0200000E0400000E0600000E0800000E0A00000E0C00000E0E00040000000400020004000400040006000400080004000A0004000C0004000E00040200000402020004020400040206000402080004020A0004020C0004020E000404000004040200040404000404060004040800040
310
40A0004040C0004040E00040600000406020004060400040606000406080004060A0004060C0004060E00040800000408020004080400040806000408080004080A0004080C0004080E00040A0000040A0200040A0400040A0600040A0800040A0A00040A0C00040A0E00040C0000040C0200040C0400040C0600040C08000
310
40C0A00040C0C00040C0E00040E0000040E0200040E0400040E0600040E0800040E0A00040E0C00040E0E00080000000800020008000400080006000800080008000A0008000C0008000E00080200000802020008020400080206000802080008020A0008020C0008020E00080400000804020008040400080406000804080
310
008040A0008040C0008040E00080600000806020008060400080606000806080008060A0008060C0008060E00080800000808020008080400080806000808080008080A0008080C0008080E00080A0000080A0200080A0400080A0600080A0800080A0A00080A0C00080A0E00080C0000080C0200080C0400080C0600080C0
310
800080C0A00080C0C00080C0E00080E0000080E0200080E0400080E0600080E0800080E0A00080E0C00080E0E000C0000000C0002000C0004000C0006000C0008000C000A000C000C000C000E000C0200000C0202000C0204000C0206000C0208000C020A000C020C000C020E000C0400000C0402000C0404000C0406000C0
310
408000C040A000C040C000C040E000C0600000C0602000C0604000C0606000C0608000C060A000C060C000C060E000C0800000C0802000C0804000C0806000C0808000C080A000C080C000C080E000C0A00000C0A02000C0A04000C0A06000C0A08000C0A0A000C0A0C000C0A0E000C0C00000C0C02000C0C04000C0C06000
310
C0C08000C0C0A000F0FBFF00A4A0A000808080000000FF0000FF000000FFFF00FF000000FF00FF00FFFF0000FFFFFF00000000000000000000000000000000000000000000000000000000000000000000000000000000000000000000000000FE000000000000000000000000000000000000000000000000000000000000
310
00FE000000000000000000000000000000000000FBFFFFFFFFFFFFFFFFFFFFFFFFFFFFFFFFFFFFFFFFFFFFFFFFFF000000000000FF000000000000000000000000FE0000000000000000000000FF000000000000FF000000000000000000000000FE0000000000000000000000FF000000000000FF00000000000000000000
310
0000FE0000000000000000000000FB000000000000FF000000000000000000000000FE0000000000000000000000FB000000000000FF000000000000000000000000FE0000000000000000000000FF000000000000FB000000000000000000000000FE0000000000000000000000FF000000000000FB000000000000000000
310
000000FE0000000000000000000000FF000000000000FF000000000000000000000000FE0000000000000000000000FF000000000000FF000000000000000000000000FE0000000000000000000000FB000000000000FF000000000000000000000000FE0000000000000000000000FB000000000000FF0000000000000000
310
00000000FE0000000000000000000000FF000000000000FF000000000000000000000000FE0000000000000000000000FF000000000000FB000000000000000000000000FE0000000000000000000000FF000000000000FB000000000000000000000000FE0000000000000000000000FF000000000000FF00000000000000
310
0000000000FE0000000000000000000000FF000000000000FF000000000000000000000000FE0000000000000000000000FB000000000000FF000000000000000000000000FE0000000000000000000000FB000000000000FF000000000000000000000000FE0000000000000000000000FF000000000000FB000000000000
310
000000000000FE0000000000000000000000FF000000000000FB000000000000000000000000FE0000000000000000000000FF000000000000FF000000000000000000000000FE0000000000000000000000FF000000000000FF000000000000000000000000FE0000000000000000000000FF000000000000FF0000000000
310
00000000000000FE0000000000000000000000FB000000000000FF000000000000000000000000FE0000000000000000000000FB000000000000FFFFFFFFFFFFFFFFFFFFFFFFFFFFFFFFFFFFFFFFFFFFFFFFFFFF00000000000000000000000000000000000000FE0000000000000000000000000000000000000000000000
310
0000000000000000FE0000000000000000000000000000000000000000000000000000000000000000000000000000000000000000000000
  0
BLOCK_RECORD
  5
611
330
1
100
AcDbSymbolTableRecord
100
AcDbBlockTableRecord
  2
*D4
340
0
  0
BLOCK_RECORD
  5
61D
330
1
100
AcDbSymbolTableRecord
100
AcDbBlockTableRecord
  2
*D5
340
0
  0
BLOCK_RECORD
  5
629
330
1
100
AcDbSymbolTableRecord
100
AcDbBlockTableRecord
  2
*D6
340
0
  0
BLOCK_RECORD
  5
635
330
1
100
AcDbSymbolTableRecord
100
AcDbBlockTableRecord
  2
*D7
340
0
  0
BLOCK_RECORD
  5
641
330
1
100
AcDbSymbolTableRecord
100
AcDbBlockTableRecord
  2
*D8
340
0
  0
BLOCK_RECORD
  5
64D
330
1
100
AcDbSymbolTableRecord
100
AcDbBlockTableRecord
  2
*D9
340
0
  0
BLOCK_RECORD
  5
659
330
1
100
AcDbSymbolTableRecord
100
AcDbBlockTableRecord
  2
*D10
340
0
  0
BLOCK_RECORD
  5
667
330
1
100
AcDbSymbolTableRecord
100
AcDbBlockTableRecord
  2
*D11
340
0
  0
BLOCK_RECORD
  5
78C
330
1
100
AcDbSymbolTableRecord
100
AcDbBlockTableRecord
  2
*D12
340
0
  0
BLOCK_RECORD
  5
798
330
1
100
AcDbSymbolTableRecord
100
AcDbBlockTableRecord
  2
*D13
340
0
  0
BLOCK_RECORD
  5
7A4
330
1
100
AcDbSymbolTableRecord
100
AcDbBlockTableRecord
  2
*D14
340
0
  0
BLOCK_RECORD
  5
7B0
330
1
100
AcDbSymbolTableRecord
100
AcDbBlockTableRecord
  2
*D15
340
0
  0
BLOCK_RECORD
  5
7BC
330
1
100
AcDbSymbolTableRecord
100
AcDbBlockTableRecord
  2
*D16
340
0
  0
BLOCK_RECORD
  5
7C8
330
1
100
AcDbSymbolTableRecord
100
AcDbBlockTableRecord
  2
*D17
340
0
  0
BLOCK_RECORD
  5
7D4
330
1
100
AcDbSymbolTableRecord
100
AcDbBlockTableRecord
  2
*D18
340
0
  0
BLOCK_RECORD
  5
7E2
330
1
100
AcDbSymbolTableRecord
100
AcDbBlockTableRecord
  2
*D19
340
0
  0
BLOCK_RECORD
  5
7F4
330
1
100
AcDbSymbolTableRecord
100
AcDbBlockTableRecord
  2
*D20
340
0
  0
BLOCK_RECORD
  5
800
330
1
100
AcDbSymbolTableRecord
100
AcDbBlockTableRecord
  2
*D21
340
0
  0
BLOCK_RECORD
  5
80C
330
1
100
AcDbSymbolTableRecord
100
AcDbBlockTableRecord
  2
*D22
340
0
  0
BLOCK_RECORD
  5
818
330
1
100
AcDbSymbolTableRecord
100
AcDbBlockTableRecord
  2
*D23
340
0
  0
BLOCK_RECORD
  5
824
330
1
100
AcDbSymbolTableRecord
100
AcDbBlockTableRecord
  2
*D24
340
0
  0
BLOCK_RECORD
  5
830
330
1
100
AcDbSymbolTableRecord
100
AcDbBlockTableRecord
  2
*D25
340
0
  0
BLOCK_RECORD
  5
920
330
1
100
AcDbSymbolTableRecord
100
AcDbBlockTableRecord
  2
*D26
340
0
  0
BLOCK_RECORD
  5
92C
330
1
100
AcDbSymbolTableRecord
100
AcDbBlockTableRecord
  2
*D27
340
0
  0
BLOCK_RECORD
  5
938
330
1
100
AcDbSymbolTableRecord
100
AcDbBlockTableRecord
  2
*D28
340
0
  0
BLOCK_RECORD
  5
944
330
1
100
AcDbSymbolTableRecord
100
AcDbBlockTableRecord
  2
*D29
340
0
  0
BLOCK_RECORD
  5
950
330
1
100
AcDbSymbolTableRecord
100
AcDbBlockTableRecord
  2
*D30
340
0
  0
BLOCK_RECORD
  5
95C
330
1
100
AcDbSymbolTableRecord
100
AcDbBlockTableRecord
  2
*D31
340
0
  0
BLOCK_RECORD
  5
998
330
1
100
AcDbSymbolTableRecord
100
AcDbBlockTableRecord
  2
*D32
340
0
  0
BLOCK_RECORD
  5
B13
330
1
100
AcDbSymbolTableRecord
100
AcDbBlockTableRecord
  2
*D33
340
0
  0
ENDTAB
  0
ENDSEC
  0
SECTION
  2
BLOCKS
  0
BLOCK
  5
20
330
1F
100
AcDbEntity
  8
0
100
AcDbBlockBegin
  2
*Model_Space
 70
     0
 10
0.0
 20
0.0
 30
0.0
  3
*Model_Space
  1

  0
ENDBLK
  5
21
330
1F
100
AcDbEntity
  8
0
100
AcDbBlockEnd
  0
BLOCK
  5
1C
330
1B
100
AcDbEntity
 67
     1
  8
0
100
AcDbBlockBegin
  2
*Paper_Space
 70
     0
 10
0.0
 20
0.0
 30
0.0
  3
*Paper_Space
  1

  0
ENDBLK
  5
1D
330
1B
100
AcDbEntity
 67
     1
  8
0
100
AcDbBlockEnd
  0
BLOCK
  5
24
330
23
100
AcDbEntity
 67
     1
  8
0
100
AcDbBlockBegin
  2
*Paper_Space0
 70
     0
 10
0.0
 20
0.0
 30
0.0
  3
*Paper_Space0
  1

  0
ENDBLK
  5
25
330
23
100
AcDbEntity
 67
     1
  8
0
100
AcDbBlockEnd
  0
BLOCK
  5
89
330
87
100
AcDbEntity
  8
0
100
AcDbBlockBegin
  2
GENAXEH
 70
     0
 10
0.0
 20
0.0
 30
0.0
  3
GENAXEH
  1

  0
LINE
  5
88
330
87
100
AcDbEntity
  8
0
100
AcDbLine
 10
-1.0
 20
0.0
 30
0.0
 11
1.0
 21
0.0
 31
0.0
  0
ENDBLK
  5
8A
330
87
100
AcDbEntity
  8
0
100
AcDbBlockEnd
  0
BLOCK
  5
5C2
330
5C1
100
AcDbEntity
  8
0
100
AcDbBlockBegin
  2
stutzen
 70
     0
 10
0.0
 20
0.0
 30
0.0
  3
stutzen
  1

  0
LINE
  5
5C3
330
5C1
100
AcDbEntity
  8
0
  6
Continuous
 62
     2
100
AcDbLine
 10
5583.692362419846
 20
3572.388833737998
 30
0.0
 11
5585.24221523384
 21
3573.938686551999
 31
0.0
  0
LINE
  5
5C4
330
5C1
100
AcDbEntity
  8
KLIN
  6
ByBlock
100
AcDbLine
 10
5583.692362419846
 20
3512.779110133001
 30
0.0
 11
5593.692362419846
 21
3522.779110133001
 31
0.0
  0
LINE
  5
5C5
330
5C1
100
AcDbEntity
  8
KLIN
  6
ByBlock
100
AcDbLine
 10
5583.692362419846
 20
3453.169386528003
 30
0.0
 11
5593.692362419846
 21
3463.169386528003
 31
0.0
  0
LINE
  5
5C6
330
5C1
100
AcDbEntity
  8
KLIN
  6
ByBlock
100
AcDbLine
 10
5583.692362419846
 20
3393.559662922001
 30
0.0
 11
5593.692362419846
 21
3403.559662922002
 31
0.0
  0
LINE
  5
5C7
330
5C1
100
AcDbEntity
  8
0
  6
Continuous
 62
     7
100
AcDbLine
 10
6203.692362419847
 20
2658.938686551999
 30
0.0
 11
5703.692362419847
 21
2658.938686551999
 31
0.0
  0
LINE
  5
5C8
330
5C1
100
AcDbEntity
  8
KLIN
  6
ByBlock
100
AcDbLine
 10
5583.692362419846
 20
3333.949939317005
 30
0.0
 11
5593.692362419846
 21
3343.949939317005
 31
0.0
  0
LINE
  5
5C9
330
5C1
100
AcDbEntity
  8
0
  6
Continuous
 62
     9
100
AcDbLine
 10
6193.692362419846
 20
2708.938686551999
 30
0.0
 11
5713.692362419846
 21
2708.938686551999
 31
0.0
  0
LINE
  5
5CA
330
5C1
100
AcDbEntity
  8
0
  6
Continuous
 62
     7
100
AcDbLine
 10
6263.692362419846
 20
2728.938686551999
 30
0.0
 11
6223.692362419846
 21
2728.938686551999
 31
0.0
  0
LINE
  5
5CB
330
5C1
100
AcDbEntity
  8
0
  6
Continuous
 62
     7
100
AcDbLine
 10
5683.692362419846
 20
2728.938686551999
 30
0.0
 11
5643.692362419846
 21
2728.938686551999
 31
0.0
  0
LINE
  5
5CC
330
5C1
100
AcDbEntity
  8
0
  6
Continuous
 62
     7
100
AcDbLine
 10
5583.692362419846
 20
3573.938686551999
 30
0.0
 11
5583.692362419846
 21
2788.938686551999
 31
0.0
  0
LINE
  5
5CD
330
5C1
100
AcDbEntity
  8
0
  6
Continuous
 62
     7
100
AcDbLine
 10
5593.692362419846
 20
3573.938686551999
 30
0.0
 11
5593.692362419846
 21
2788.938686551999
 31
0.0
  0
LINE
  5
5CE
330
5C1
100
AcDbEntity
  8
KLIN
  6
ByBlock
100
AcDbLine
 10
5583.692362419846
 20
3274.340215711
 30
0.0
 11
5593.692362419846
 21
3284.340215710999
 31
0.0
  0
LINE
  5
5CF
330
5C1
100
AcDbEntity
  8
0
  6
Continuous
 62
     7
100
AcDbLine
 10
6263.692362419846
 20
2738.938686551999
 30
0.0
 11
5643.692362419846
 21
2738.938686551999
 31
0.0
  0
LINE
  5
5D0
330
5C1
100
AcDbEntity
  8
KLIN
  6
ByBlock
100
AcDbLine
 10
5583.692362419846
 20
3214.730492105998
 30
0.0
 11
5593.692362419846
 21
3224.730492106
 31
0.0
  0
LINE
  5
5D1
330
5C1
100
AcDbEntity
  8
0
  6
Continuous
 62
     9
100
AcDbLine
 10
5593.692362419846
 20
2788.938686551999
 30
0.0
 11
6313.692362419846
 21
2788.938686551999
 31
0.0
  0
LINE
  5
5D2
330
5C1
100
AcDbEntity
  8
KLIN
  6
ByBlock
100
AcDbLine
 10
5583.692362419846
 20
3155.120768500002
 30
0.0
 11
5593.692362419846
 21
3165.120768500001
 31
0.0
  0
LINE
  5
5D3
330
5C1
100
AcDbEntity
  8
0
  6
Continuous
 62
     7
100
AcDbLine
 10
5703.692362419847
 20
2708.938686551999
 30
0.0
 11
5703.692362419847
 21
2658.938686551999
 31
0.0
  0
LINE
  5
5D4
330
5C1
100
AcDbEntity
  8
0
  6
Continuous
 62
     7
100
AcDbLine
 10
5713.692362419846
 20
2708.938686551999
 30
0.0
 11
5713.692362419846
 21
2658.938686551999
 31
0.0
  0
LINE
  5
5D5
330
5C1
100
AcDbEntity
  8
KLIN
  6
ByBlock
100
AcDbLine
 10
5583.692362419846
 20
3095.511044895
 30
0.0
 11
5593.692362419846
 21
3105.511044895
 31
0.0
  0
LINE
  5
5D6
330
5C1
100
AcDbEntity
  8
KLIN
  6
ByBlock
100
AcDbLine
 10
5583.692362419846
 20
3035.901321289002
 30
0.0
 11
5593.692362419846
 21
3045.901321289003
 31
0.0
  0
LINE
  5
5D7
330
5C1
100
AcDbEntity
  8
KLIN
  6
ByBlock
100
AcDbLine
 10
5583.692362419846
 20
2976.291597684001
 30
0.0
 11
5593.692362419846
 21
2986.291597684001
 31
0.0
  0
LINE
  5
5D8
330
5C1
100
AcDbEntity
  8
KLIN
  6
ByBlock
100
AcDbLine
 10
5583.692362419846
 20
2916.681874078004
 30
0.0
 11
5593.692362419846
 21
2926.681874078004
 31
0.0
  0
LINE
  5
5D9
330
5C1
100
AcDbEntity
  8
KLIN
  6
ByBlock
100
AcDbLine
 10
5583.692362419846
 20
2857.072150472999
 30
0.0
 11
5593.692362419846
 21
2867.072150472999
 31
0.0
  0
LINE
  5
5DA
330
5C1
100
AcDbEntity
  8
KLIN
  6
ByBlock
100
AcDbLine
 10
5583.692362419846
 20
2797.462426867002
 30
0.0
 11
5593.692362419846
 21
2807.462426867001
 31
0.0
  0
LINE
  5
5DB
330
5C1
100
AcDbEntity
  8
KLIN
  6
ByBlock
100
AcDbLine
 10
6313.692362419846
 20
3527.462426867002
 30
0.0
 11
6323.692362419846
 21
3537.462426867001
 31
0.0
  0
LINE
  5
5DC
330
5C1
100
AcDbEntity
  8
7A
100
AcDbLine
 10
5953.692362419847
 20
2628.938686551999
 30
0.0
 11
5953.692362419847
 21
3603.938686552
 31
0.0
  0
LINE
  5
5DD
330
5C1
100
AcDbEntity
  8
KLIN
  6
ByBlock
100
AcDbLine
 10
5597.058898933843
 20
2751.219239776001
 30
0.0
 11
5604.198228947839
 21
2758.358569790002
 31
0.0
  0
LINE
  5
5DE
330
5C1
100
AcDbEntity
  8
KLIN
  6
ByBlock
100
AcDbLine
 10
6313.692362419846
 20
3467.852703262
 30
0.0
 11
6323.692362419846
 21
3477.852703262001
 31
0.0
  0
LINE
  5
5DF
330
5C1
100
AcDbEntity
  8
KLIN
  6
ByBlock
100
AcDbLine
 10
5635.082190905843
 20
2729.632808142
 30
0.0
 11
5644.388069315843
 21
2738.938686551999
 31
0.0
  0
LINE
  5
5E0
330
5C1
100
AcDbEntity
  8
KLIN
  6
ByBlock
100
AcDbLine
 10
6313.692362419846
 20
3408.242979656003
 30
0.0
 11
6323.692362419846
 21
3418.242979656003
 31
0.0
  0
LINE
  5
5E1
330
5C1
100
AcDbEntity
  8
KLIN
  6
ByBlock
100
AcDbLine
 10
5692.120413673838
 20
2727.061307305001
 30
0.0
 11
5699.488629873842
 21
2734.429523505002
 31
0.0
  0
LINE
  5
5E2
330
5C1
100
AcDbEntity
  8
KLIN
  6
ByBlock
100
AcDbLine
 10
6313.692362419846
 20
3348.633256051002
 30
0.0
 11
6323.692362419846
 21
3358.633256051002
 31
0.0
  0
LINE
  5
5E3
330
5C1
100
AcDbEntity
  8
KLIN
  6
ByBlock
100
AcDbLine
 10
5703.692362419847
 20
2679.023532445004
 30
0.0
 11
5713.692362419846
 21
2689.023532445004
 31
0.0
  0
LINE
  5
5E4
330
5C1
100
AcDbEntity
  8
KLIN
  6
ByBlock
100
AcDbLine
 10
6313.692362419846
 20
3289.023532445004
 30
0.0
 11
6323.692362419846
 21
3299.023532445004
 31
0.0
  0
LINE
  5
5E5
330
5C1
100
AcDbEntity
  8
KLIN
  6
ByBlock
100
AcDbLine
 10
6313.692362419846
 20
3229.41380884
 30
0.0
 11
6323.692362419846
 21
3239.41380884
 31
0.0
  0
LINE
  5
5E6
330
5C1
100
AcDbEntity
  8
0
  6
Continuous
 62
     7
100
AcDbLine
 10
6193.692362419846
 20
2708.938686551999
 30
0.0
 11
6193.692362419846
 21
2658.938686551999
 31
0.0
  0
LINE
  5
5E7
330
5C1
100
AcDbEntity
  8
KLIN
  6
ByBlock
100
AcDbLine
 10
6313.692362419846
 20
3169.804085233999
 30
0.0
 11
6323.692362419846
 21
3179.804085233998
 31
0.0
  0
LINE
  5
5E8
330
5C1
100
AcDbEntity
  8
0
  6
Continuous
 62
     7
100
AcDbLine
 10
6203.692362419847
 20
2708.938686551999
 30
0.0
 11
6203.692362419847
 21
2658.938686551999
 31
0.0
  0
LINE
  5
5E9
330
5C1
100
AcDbEntity
  8
KLIN
  6
ByBlock
100
AcDbLine
 10
6313.692362419846
 20
3110.194361629001
 30
0.0
 11
6323.692362419846
 21
3120.194361629001
 31
0.0
  0
LINE
  5
5EA
330
5C1
100
AcDbEntity
  8
KLIN
  6
ByBlock
100
AcDbLine
 10
6313.692362419846
 20
3050.584638023
 30
0.0
 11
6323.692362419846
 21
3060.584638023
 31
0.0
  0
LINE
  5
5EB
330
5C1
100
AcDbEntity
  8
KLIN
  6
ByBlock
100
AcDbLine
 10
6313.692362419846
 20
2990.974914418002
 30
0.0
 11
6323.692362419846
 21
3000.974914418002
 31
0.0
  0
LINE
  5
5EC
330
5C1
100
AcDbEntity
  8
0
  6
Continuous
 62
     7
100
AcDbLine
 10
6313.692362419846
 20
3573.938686551999
 30
0.0
 11
6313.692362419846
 21
2788.938686551999
 31
0.0
  0
LINE
  5
5ED
330
5C1
100
AcDbEntity
  8
0
  6
Continuous
 62
     7
100
AcDbLine
 10
6323.692362419846
 20
3573.938686551999
 30
0.0
 11
6323.692362419846
 21
2788.938686551999
 31
0.0
  0
LINE
  5
5EE
330
5C1
100
AcDbEntity
  8
KLIN
  6
ByBlock
100
AcDbLine
 10
6313.692362419846
 20
2931.365190813002
 30
0.0
 11
6323.692362419846
 21
2941.365190813002
 31
0.0
  0
LINE
  5
5EF
330
5C1
100
AcDbEntity
  8
KLIN
  6
ByBlock
100
AcDbLine
 10
6313.692362419846
 20
2871.755467207004
 30
0.0
 11
6323.692362419846
 21
2881.755467207004
 31
0.0
  0
LINE
  5
5F0
330
5C1
100
AcDbEntity
  8
KLIN
  6
ByBlock
100
AcDbLine
 10
6313.692362419846
 20
2812.145743601999
 30
0.0
 11
6323.692362419846
 21
2822.145743601999
 31
0.0
  0
LINE
  5
5F1
330
5C1
100
AcDbEntity
  8
0
  6
Continuous
 62
     7
100
AcDbLine
 10
6323.692362419846
 20
3573.938686551999
 30
0.0
 11
5583.692362419846
 21
3573.938686551999
 31
0.0
  0
ARC
  5
5F2
330
5C1
100
AcDbEntity
  8
0
  6
Continuous
 62
     7
100
AcDbCircle
 10
6263.692362419846
 20
2788.938686551999
 30
0.0
 40
60.0
100
AcDbArc
 50
270.0
 51
0.0
  0
ARC
  5
5F3
330
5C1
100
AcDbEntity
  8
0
  6
Continuous
 62
     7
100
AcDbCircle
 10
5643.692362419846
 20
2788.938686551999
 30
0.0
 40
60.0
100
AcDbArc
 50
180.0
 51
270.0
  0
ARC
  5
5F4
330
5C1
100
AcDbEntity
  8
0
  6
Continuous
 62
     7
100
AcDbCircle
 10
5643.692362419846
 20
2788.938686551999
 30
0.0
 40
50.0
100
AcDbArc
 50
180.0
 51
270.0
  0
ARC
  5
5F5
330
5C1
100
AcDbEntity
  8
0
  6
Continuous
 62
     7
100
AcDbCircle
 10
6263.692362419846
 20
2788.938686551999
 30
0.0
 40
50.0
100
AcDbArc
 50
270.0
 51
0.0
  0
ARC
  5
5F6
330
5C1
100
AcDbEntity
  8
0
  6
Continuous
 62
     7
100
AcDbCircle
 10
6223.692362419846
 20
2708.938686551999
 30
0.0
 40
30.0
100
AcDbArc
 50
90.0
 51
180.0
  0
ARC
  5
5F7
330
5C1
100
AcDbEntity
  8
0
  6
Continuous
 62
     7
100
AcDbCircle
 10
5683.692362419846
 20
2708.938686551999
 30
0.0
 40
30.0
100
AcDbArc
 50
0.0
 51
90.0
  0
ARC
  5
5F8
330
5C1
100
AcDbEntity
  8
0
  6
Continuous
 62
     7
100
AcDbCircle
 10
6223.692362419846
 20
2708.938686551999
 30
0.0
 40
20.0
100
AcDbArc
 50
90.0
 51
180.0
  0
ARC
  5
5F9
330
5C1
100
AcDbEntity
  8
0
  6
Continuous
 62
     7
100
AcDbCircle
 10
5683.692362419846
 20
2708.938686551999
 30
0.0
 40
20.0
100
AcDbArc
 50
0.0
 51
90.0
  0
LINE
  5
5FA
330
5C1
100
AcDbEntity
  8
KLIN
  6
ByBlock
100
AcDbLine
 10
6310.325825905849
 20
2751.219239776001
 30
0.0
 11
6303.186495891853
 21
2758.358569790002
 31
0.0
  0
LINE
  5
5FB
330
5C1
100
AcDbEntity
  8
KLIN
  6
ByBlock
100
AcDbLine
 10
6272.302533933849
 20
2729.632808142
 30
0.0
 11
6262.996655523849
 21
2738.938686551999
 31
0.0
  0
LINE
  5
5FC
330
5C1
100
AcDbEntity
  8
KLIN
  6
ByBlock
100
AcDbLine
 10
6215.264311165855
 20
2727.061307305001
 30
0.0
 11
6207.89609496585
 21
2734.429523505002
 31
0.0
  0
LINE
  5
5FD
330
5C1
100
AcDbEntity
  8
KLIN
  6
ByBlock
100
AcDbLine
 10
6203.692362419847
 20
2679.023532445004
 30
0.0
 11
6193.692362419846
 21
2689.023532445004
 31
0.0
  0
ENDBLK
  5
5FE
330
5C1
100
AcDbEntity
  8
0
100
AcDbBlockEnd
  0
BLOCK
  5
600
330
5FF
100
AcDbEntity
  8
0
100
AcDbBlockBegin
  2
fklö
 70
     0
 10
0.0
 20
0.0
 30
0.0
  3
fklö
  1

  0
LINE
  5
601
330
5FF
100
AcDbEntity
  8
0
  6
Continuous
 62
     2
100
AcDbLine
 10
9574.808407686447
 20
1094.245064227623
 30
0.0
 11
9584.808407686447
 21
1115.690133432625
 31
0.0
  0
LINE
  5
602
330
5FF
100
AcDbEntity
  8
0
  6
Continuous
 62
     2
100
AcDbLine
 10
9574.808407686447
 20
1223.478428617625
 30
0.0
 11
9584.808407686447
 21
1244.923497822627
 31
0.0
  0
LINE
  5
603
330
5FF
100
AcDbEntity
  8
0
  6
Continuous
 62
     2
100
AcDbLine
 10
9574.808407686447
 20
1352.711793007627
 30
0.0
 11
9584.808407686447
 21
1374.156862212629
 31
0.0
  0
LINE
  5
604
330
5FF
100
AcDbEntity
  8
0
  6
Continuous
 62
     2
100
AcDbLine
 10
9574.808407686447
 20
1481.94515739863
 30
0.0
 11
9584.808407686447
 21
1503.390226603631
 31
0.0
  0
LINE
  5
605
330
5FF
100
AcDbEntity
  8
0
  6
Continuous
 62
     7
100
AcDbLine
 10
9584.808407686447
 20
1528.116201654636
 30
0.0
 11
9584.808407686447
 21
1043.116201654637
 31
0.0
  0
LINE
  5
606
330
5FF
100
AcDbEntity
  8
0
  6
Continuous
 62
     7
100
AcDbLine
 10
9574.808407686447
 20
1528.116201654636
 30
0.0
 11
9574.808407686447
 21
1043.116201654637
 31
0.0
  0
LINE
  5
607
330
5FF
100
AcDbEntity
  8
0
  6
Continuous
 62
     2
100
AcDbLine
 10
9090.866567481048
 20
1043.116201654637
 30
0.0
 11
9094.808407686448
 21
1051.569505254636
 31
0.0
  0
LINE
  5
608
330
5FF
100
AcDbEntity
  8
0
  6
Continuous
 62
     2
100
AcDbLine
 10
9084.808407686447
 20
1159.357800439637
 30
0.0
 11
9094.808407686448
 21
1180.80286964462
 31
0.0
  0
LINE
  5
609
330
5FF
100
AcDbEntity
  8
0
  6
Continuous
 62
     2
100
AcDbLine
 10
9084.808407686447
 20
1288.591164830621
 30
0.0
 11
9094.808407686448
 21
1310.036234035622
 31
0.0
  0
LINE
  5
60A
330
5FF
100
AcDbEntity
  8
0
  6
Continuous
 62
     2
100
AcDbLine
 10
9084.808407686447
 20
1417.824529220641
 30
0.0
 11
9094.808407686448
 21
1439.269598425642
 31
0.0
  0
LINE
  5
60B
330
5FF
100
AcDbEntity
  8
0
  6
Continuous
 62
     7
100
AcDbLine
 10
9094.808407686448
 20
1528.116201654636
 30
0.0
 11
9094.808407686448
 21
1043.116201654637
 31
0.0
  0
LINE
  5
60C
330
5FF
100
AcDbEntity
  8
0
  6
Continuous
 62
     7
100
AcDbLine
 10
9084.808407686447
 20
1528.116201654636
 30
0.0
 11
9084.808407686447
 21
1043.116201654637
 31
0.0
  0
LINE
  5
60D
330
5FF
100
AcDbEntity
  8
0
  6
Continuous
 62
     7
100
AcDbLine
 10
9584.808407686447
 20
1528.116201654636
 30
0.0
 11
9084.808407686447
 21
1528.116201654636
 31
0.0
  0
LINE
  5
60E
330
5FF
100
AcDbEntity
  8
0
100
AcDbLine
 10
9084.808407686447
 20
1043.116201654637
 30
0.0
 11
9584.808407686447
 21
1043.116201654637
 31
0.0
  0
LINE
  5
60F
330
5FF
100
AcDbEntity
  8
AM_7
100
AcDbLine
 10
9334.808407686447
 20
1558.116201654637
 30
0.0
 11
9334.808407686447
 21
1013.116201654637
 31
0.0
1001
GENIUS_GENODEF_13
1002
{
1000
HIER
1070
     0
1002
}
1002
{
1000
MANEDIT
1070
     0
1002
}
1002
{
1000
NOSEL
1070
     0
1002
}
1002
{
1000
BEHIND
1070
     0
1002
}
1002
{
1000
OTHER
1070
     0
1002
}
1002
{
1000
REACTOR
1002
}
1001
GENIUS_GENOBJ-N-CEN_13
1002
{
1000
OWNER
1000
GEN
1002
}
1001
GENIUS_GENCEN_19
1002
{
1040
3.0
1002
}
  0
ENDBLK
  5
610
330
5FF
100
AcDbEntity
  8
0
100
AcDbBlockEnd
  0
BLOCK
  5
612
330
611
100
AcDbEntity
  8
0
 62
     0
100
AcDbBlockBegin
  2
*D4
 70
     1
 10
0.0
 20
0.0
 30
0.0
  3
*D4
  1

  0
LINE
  5
613
330
611
100
AcDbEntity
  8
AM_5
  6
ByBlock
100
AcDbLine
 10
154.0362041760418
 20
163.0977628730251
 30
0.0
 11
154.0362041760418
 21
58.96688621784779
 31
0.0
  0
LINE
  5
614
330
611
100
AcDbEntity
  8
AM_5
  6
ByBlock
100
AcDbLine
 10
854.0362041760417
 20
163.0977628730251
 30
0.0
 11
854.0362041760417
 21
58.96688621784779
 31
0.0
  0
LINE
  5
615
330
611
100
AcDbEntity
  8
AM_5
  6
ByBlock
100
AcDbLine
 10
171.5362041760418
 20
63.96688621784779
 30
0.0
 11
836.5362041760416
 21
63.96688621784779
 31
0.0
  0
SOLID
  5
616
330
611
100
AcDbEntity
  8
AM_5
100
AcDbTrace
 10
171.5362041760418
 20
66.88355288451447
 30
0.0
 11
171.5362041760418
 21
61.05021955118111
 31
0.0
 12
154.0362041760418
 22
63.96688621784779
 32
0.0
 13
154.0362041760418
 23
63.96688621784779
 33
0.0
  0
SOLID
  5
617
330
611
100
AcDbEntity
  8
AM_5
100
AcDbTrace
 10
836.5362041760416
 20
66.88355288451447
 30
0.0
 11
836.5362041760416
 21
61.05021955118111
 31
0.0
 12
854.0362041760417
 22
63.96688621784779
 32
0.0
 13
854.0362041760417
 23
63.96688621784779
 33
0.0
  0
MTEXT
  5
618
330
611
100
AcDbEntity
  8
AM_5
 62
     2
100
AcDbMText
 10
504.0362041760418
 20
80.21688621784781
 30
0.0
 40
17.5
 41
0.0
 71
     5
 72
     1
  1
700
 73
     1
 44
1.0
1001
ACAD
1000
MTEXTBEGIN
1070
    73
1070
     1
1070
    44
1040
1.0
1070
    74
1070
     0
1000
MTEXTEND
  0
POINT
  5
619
330
611
100
AcDbEntity
  8
DEFPOINTS
 62
     0
100
AcDbPoint
 10
154.0362041760418
 20
168.0977628730252
 30
0.0
  0
POINT
  5
61A
330
611
100
AcDbEntity
  8
DEFPOINTS
 62
     0
100
AcDbPoint
 10
854.0362041760417
 20
168.0977628730252
 30
0.0
  0
POINT
  5
61B
330
611
100
AcDbEntity
  8
DEFPOINTS
 62
     0
100
AcDbPoint
 10
854.0362041760417
 20
63.96688621784779
 30
0.0
  0
ENDBLK
  5
61C
330
611
100
AcDbEntity
  8
0
 62
     0
100
AcDbBlockEnd
  0
BLOCK
  5
61E
330
61D
100
AcDbEntity
  8
0
 62
     0
100
AcDbBlockBegin
  2
*D5
 70
     1
 10
0.0
 20
0.0
 30
0.0
  3
*D5
  1

  0
LINE
  5
61F
330
61D
100
AcDbEntity
  8
AM_5
  6
ByBlock
100
AcDbLine
 10
124.0362041760418
 20
131.4877628730528
 30
0.0
 11
124.0362041760417
 21
0.0000000678464858
 31
0.0
  0
LINE
  5
620
330
61D
100
AcDbEntity
  8
AM_5
  6
ByBlock
100
AcDbLine
 10
873.0362041759892
 20
131.4877628730528
 30
0.0
 11
873.0362041759892
 21
0.0000000678464858
 31
0.0
  0
LINE
  5
621
330
61D
100
AcDbEntity
  8
AM_5
  6
ByBlock
100
AcDbLine
 10
141.5362041760418
 20
5.000000067846485
 30
0.0
 11
855.5362041759892
 21
5.000000067846485
 31
0.0
  0
SOLID
  5
622
330
61D
100
AcDbEntity
  8
AM_5
100
AcDbTrace
 10
141.5362041760418
 20
7.916666734513151
 30
0.0
 11
141.5362041760418
 21
2.083333401179819
 31
0.0
 12
124.0362041760417
 22
5.000000067846485
 32
0.0
 13
124.0362041760417
 23
5.000000067846485
 33
0.0
  0
SOLID
  5
623
330
61D
100
AcDbEntity
  8
AM_5
100
AcDbTrace
 10
855.5362041759892
 20
7.916666734513151
 30
0.0
 11
855.5362041759892
 21
2.083333401179819
 31
0.0
 12
873.0362041759892
 22
5.000000067846485
 32
0.0
 13
873.0362041759892
 23
5.000000067846485
 33
0.0
  0
MTEXT
  5
624
330
61D
100
AcDbEntity
  8
AM_5
 62
     2
100
AcDbMText
 10
504.0362041760418
 20
21.25000006784649
 30
0.0
 40
17.5
 41
0.0
 71
     5
 72
     1
  1
749
 73
     1
 44
1.0
1001
ACAD
1000
MTEXTBEGIN
1070
    73
1070
     1
1070
    44
1040
1.0
1070
    74
1070
     0
1000
MTEXTEND
  0
POINT
  5
625
330
61D
100
AcDbEntity
  8
DEFPOINTS
 62
     0
100
AcDbPoint
 10
124.0362041760418
 20
136.4877628730528
 30
0.0
  0
POINT
  5
626
330
61D
100
AcDbEntity
  8
DEFPOINTS
 62
     0
100
AcDbPoint
 10
873.0362041759892
 20
136.4877628730528
 30
0.0
  0
POINT
  5
627
330
61D
100
AcDbEntity
  8
DEFPOINTS
 62
     0
100
AcDbPoint
 10
873.0362041759892
 20
5.000000067846485
 30
0.0
  0
ENDBLK
  5
628
330
61D
100
AcDbEntity
  8
0
 62
     0
100
AcDbBlockEnd
  0
BLOCK
  5
62A
330
629
100
AcDbEntity
  8
0
 62
     0
100
AcDbBlockBegin
  2
*D6
 70
     1
 10
0.0
 20
0.0
 30
0.0
  3
*D6
  1

  0
LINE
  5
62B
330
629
100
AcDbEntity
  8
AM_5
  6
ByBlock
100
AcDbLine
 10
150.0362041760418
 20
578.8997631827522
 30
0.0
 11
90.03620417604178
 21
578.8997631827522
 31
0.0
  0
LINE
  5
62C
330
629
100
AcDbEntity
  8
AM_5
  6
ByBlock
100
AcDbLine
 10
150.0362041760418
 20
652.8997631827543
 30
0.0
 11
90.0362041760418
 21
652.8997631827543
 31
0.0
  0
LINE
  5
62D
330
629
100
AcDbEntity
  8
AM_5
  6
ByBlock
100
AcDbLine
 10
95.03620417604178
 20
596.3997631827522
 30
0.0
 11
95.0362041760418
 21
635.3997631827541
 31
0.0
  0
SOLID
  5
62E
330
629
100
AcDbEntity
  8
AM_5
100
AcDbTrace
 10
92.11953750937508
 20
596.3997631827522
 30
0.0
 11
97.95287084270846
 21
596.3997631827522
 31
0.0
 12
95.03620417604178
 22
578.8997631827522
 32
0.0
 13
95.03620417604178
 23
578.8997631827522
 33
0.0
  0
SOLID
  5
62F
330
629
100
AcDbEntity
  8
AM_5
100
AcDbTrace
 10
92.11953750937514
 20
635.3997631827541
 30
0.0
 11
97.95287084270846
 21
635.3997631827541
 31
0.0
 12
95.0362041760418
 22
652.8997631827543
 32
0.0
 13
95.0362041760418
 23
652.8997631827543
 33
0.0
  0
MTEXT
  5
630
330
629
100
AcDbEntity
  8
AM_5
 62
     2
100
AcDbMText
 10
78.78620417604169
 20
615.8997631827531
 30
0.0
 40
17.5
 41
0.0
 71
     5
 72
     1
  1
74
 11
0.0000000000000001
 21
1.0
 31
0.0
 73
     1
 44
1.0
1001
ACAD
1000
MTEXTBEGIN
1070
    73
1070
     1
1070
    44
1040
1.0
1070
    74
1070
     0
1000
MTEXTEND
  0
POINT
  5
631
330
629
100
AcDbEntity
  8
DEFPOINTS
 62
     0
100
AcDbPoint
 10
155.0362041760418
 20
578.8997631827522
 30
0.0
  0
POINT
  5
632
330
629
100
AcDbEntity
  8
DEFPOINTS
 62
     0
100
AcDbPoint
 10
155.0362041760418
 20
652.8997631827543
 30
0.0
  0
POINT
  5
633
330
629
100
AcDbEntity
  8
DEFPOINTS
 62
     0
100
AcDbPoint
 10
95.0362041760418
 20
652.8997631827543
 30
0.0
  0
ENDBLK
  5
634
330
629
100
AcDbEntity
  8
0
 62
     0
100
AcDbBlockEnd
  0
BLOCK
  5
636
330
635
100
AcDbEntity
  8
0
 62
     0
100
AcDbBlockBegin
  2
*D7
 70
     1
 10
0.0
 20
0.0
 30
0.0
  3
*D7
  1

  0
LINE
  5
637
330
635
100
AcDbEntity
  8
AM_5
  6
ByBlock
100
AcDbLine
 10
119.0362041760418
 20
280.4877628730173
 30
0.0
 11
19.12499847989243
 21
280.4877628730173
 31
0.0
  0
LINE
  5
638
330
635
100
AcDbEntity
  8
AM_5
  6
ByBlock
100
AcDbLine
 10
119.0362041760418
 20
136.487762873744
 30
0.0
 11
19.1249984798924
 21
136.487762873744
 31
0.0
  0
LINE
  5
639
330
635
100
AcDbEntity
  8
AM_5
  6
ByBlock
100
AcDbLine
 10
24.12499847989243
 20
262.9877628730174
 30
0.0
 11
24.1249984798924
 21
153.987762873744
 31
0.0
  0
SOLID
  5
63A
330
635
100
AcDbEntity
  8
AM_5
100
AcDbTrace
 10
21.20833181322576
 20
262.9877628730174
 30
0.0
 11
27.0416651465591
 21
262.9877628730174
 31
0.0
 12
24.12499847989244
 22
280.4877628730173
 32
0.0
 13
24.12499847989244
 23
280.4877628730173
 33
0.0
  0
SOLID
  5
63B
330
635
100
AcDbEntity
  8
AM_5
100
AcDbTrace
 10
21.20833181322574
 20
153.987762873744
 30
0.0
 11
27.04166514655907
 21
153.987762873744
 31
0.0
 12
24.1249984798924
 22
136.487762873744
 32
0.0
 13
24.1249984798924
 23
136.487762873744
 33
0.0
  0
MTEXT
  5
63C
330
635
100
AcDbEntity
  8
AM_5
 62
     2
100
AcDbMText
 10
7.874998479892381
 20
207.7537229431928
 30
0.0
 40
17.5
 41
0.0
 71
     5
 72
     1
  1
144
 11
0.0000000000000001
 21
1.0
 31
0.0
 73
     1
 44
1.0
1001
ACAD
1000
MTEXTBEGIN
1070
    73
1070
     1
1070
    44
1040
1.0
1070
    74
1070
     0
1000
MTEXTEND
  0
POINT
  5
63D
330
635
100
AcDbEntity
  8
DEFPOINTS
 62
     0
100
AcDbPoint
 10
124.0362041760418
 20
280.4877628730173
 30
0.0
  0
POINT
  5
63E
330
635
100
AcDbEntity
  8
DEFPOINTS
 62
     0
100
AcDbPoint
 10
124.0362041760418
 20
136.487762873744
 30
0.0
  0
POINT
  5
63F
330
635
100
AcDbEntity
  8
DEFPOINTS
 62
     0
100
AcDbPoint
 10
24.1249984798924
 20
136.487762873744
 30
0.0
  0
ENDBLK
  5
640
330
635
100
AcDbEntity
  8
0
 62
     0
100
AcDbBlockEnd
  0
BLOCK
  5
642
330
641
100
AcDbEntity
  8
0
 62
     0
100
AcDbBlockBegin
  2
*D8
 70
     1
 10
0.0
 20
0.0
 30
0.0
  3
*D8
  1

  0
LINE
  5
643
330
641
100
AcDbEntity
  8
AM_5
  6
ByBlock
100
AcDbLine
 10
151.0362041760563
 20
250.4877628730228
 30
0.0
 11
90.58165861992168
 21
250.4877628730228
 31
0.0
  0
LINE
  5
644
330
641
100
AcDbEntity
  8
AM_5
  6
ByBlock
100
AcDbLine
 10
151.0362041760563
 20
166.4877628730246
 30
0.0
 11
90.58165861992163
 21
166.4877628730246
 31
0.0
  0
LINE
  5
645
330
641
100
AcDbEntity
  8
AM_5
  6
ByBlock
100
AcDbLine
 10
95.58165861992168
 20
232.9877628730228
 30
0.0
 11
95.58165861992163
 21
183.9877628730246
 31
0.0
  0
SOLID
  5
646
330
641
100
AcDbEntity
  8
AM_5
100
AcDbTrace
 10
92.66499195325501
 20
232.9877628730228
 30
0.0
 11
98.49832528658836
 21
232.9877628730228
 31
0.0
 12
95.58165861992168
 22
250.4877628730228
 32
0.0
 13
95.58165861992168
 23
250.4877628730228
 33
0.0
  0
SOLID
  5
647
330
641
100
AcDbEntity
  8
AM_5
100
AcDbTrace
 10
92.66499195325501
 20
183.9877628730246
 30
0.0
 11
98.49832528658831
 21
183.9877628730246
 31
0.0
 12
95.58165861992163
 22
166.4877628730246
 32
0.0
 13
95.58165861992163
 23
166.4877628730246
 33
0.0
  0
MTEXT
  5
648
330
641
100
AcDbEntity
  8
AM_5
 62
     2
100
AcDbMText
 10
79.33165861992162
 20
208.4877628730237
 30
0.0
 40
17.5
 41
0.0
 71
     5
 72
     1
  1
84
 11
0.0000000000000001
 21
1.0
 31
0.0
 73
     1
 44
1.0
1001
ACAD
1000
MTEXTBEGIN
1070
    73
1070
     1
1070
    44
1040
1.0
1070
    74
1070
     0
1000
MTEXTEND
  0
POINT
  5
649
330
641
100
AcDbEntity
  8
DEFPOINTS
 62
     0
100
AcDbPoint
 10
156.0362041760563
 20
250.4877628730228
 30
0.0
  0
POINT
  5
64A
330
641
100
AcDbEntity
  8
DEFPOINTS
 62
     0
100
AcDbPoint
 10
156.0362041760563
 20
166.4877628730246
 30
0.0
  0
POINT
  5
64B
330
641
100
AcDbEntity
  8
DEFPOINTS
 62
     0
100
AcDbPoint
 10
95.58165861992163
 20
166.4877628730246
 30
0.0
  0
ENDBLK
  5
64C
330
641
100
AcDbEntity
  8
0
 62
     0
100
AcDbBlockEnd
  0
BLOCK
  5
64E
330
64D
100
AcDbEntity
  8
0
 62
     0
100
AcDbBlockBegin
  2
*D9
 70
     1
 10
0.0
 20
0.0
 30
0.0
  3
*D9
  1

  0
LINE
  5
64F
330
64D
100
AcDbEntity
  8
AM_5
  6
ByBlock
100
AcDbLine
 10
529.0362041947918
 20
480.2214194771567
 30
0.0
 11
529.0362041947918
 21
419.9857809915718
 31
0.0
  0
LINE
  5
650
330
64D
100
AcDbEntity
  8
AM_5
  6
ByBlock
100
AcDbLine
 10
479.0362041937004
 20
480.2214194771567
 30
0.0
 11
479.0362041937004
 21
419.9857809915718
 31
0.0
  0
LINE
  5
651
330
64D
100
AcDbEntity
  8
AM_5
  6
ByBlock
100
AcDbLine
 10
511.5362041947919
 20
424.985780991572
 30
0.0
 11
496.5362041937004
 21
424.985780991572
 31
0.0
  0
SOLID
  5
652
330
64D
100
AcDbEntity
  8
AM_5
100
AcDbTrace
 10
511.5362041947919
 20
427.9024476582385
 30
0.0
 11
511.5362041947919
 21
422.0691143249053
 31
0.0
 12
529.0362041947918
 22
424.985780991572
 32
0.0
 13
529.0362041947918
 23
424.985780991572
 33
0.0
  0
SOLID
  5
653
330
64D
100
AcDbEntity
  8
AM_5
100
AcDbTrace
 10
496.5362041937004
 20
427.9024476582385
 30
0.0
 11
496.5362041937004
 21
422.0691143249053
 31
0.0
 12
479.0362041937004
 22
424.985780991572
 32
0.0
 13
479.0362041937004
 23
424.985780991572
 33
0.0
  0
MTEXT
  5
654
330
64D
100
AcDbEntity
  8
AM_5
 62
     2
100
AcDbMText
 10
504.1313851454543
 20
441.235780991572
 30
0.0
 40
17.5
 41
0.0
 71
     5
 72
     1
  1
%%c50
 73
     1
 44
1.0
1001
ACAD
1000
MTEXTBEGIN
1070
    73
1070
     1
1070
    44
1040
1.0
1070
    74
1070
     0
1000
MTEXTEND
  0
POINT
  5
655
330
64D
100
AcDbEntity
  8
DEFPOINTS
 62
     0
100
AcDbPoint
 10
529.0362041947918
 20
485.2214194771568
 30
0.0
  0
POINT
  5
656
330
64D
100
AcDbEntity
  8
DEFPOINTS
 62
     0
100
AcDbPoint
 10
479.0362041937004
 20
485.2214194771568
 30
0.0
  0
POINT
  5
657
330
64D
100
AcDbEntity
  8
DEFPOINTS
 62
     0
100
AcDbPoint
 10
479.0362041937004
 20
424.985780991572
 30
0.0
  0
ENDBLK
  5
658
330
64D
100
AcDbEntity
  8
0
 62
     0
100
AcDbBlockEnd
  0
BLOCK
  5
65A
330
659
100
AcDbEntity
  8
0
 62
     0
100
AcDbBlockBegin
  2
*D10
 70
     1
 10
0.0
 20
0.0
 30
0.0
  3
*D10
  1

  0
LINE
  5
65B
330
659
100
AcDbEntity
  8
AM_5
  6
ByBlock
100
AcDbLine
 10
876.0362041759892
 20
652.8997631827543
 30
0.0
 11
926.4703808504902
 21
652.8997631827543
 31
0.0
  0
LINE
  5
65C
330
659
100
AcDbEntity
  8
AM_5
  6
ByBlock
100
AcDbLine
 10
878.0362041759893
 20
692.8997631827403
 30
0.0
 11
926.4703808504902
 21
692.8997631827403
 31
0.0
  0
LINE
  5
65D
330
659
100
AcDbEntity
  8
AM_5
  6
ByBlock
100
AcDbLine
 10
921.4703808504904
 20
635.3997631827543
 30
0.0
 11
921.4703808504904
 21
617.8997631827543
 31
0.0
  0
LINE
  5
65E
330
659
100
AcDbEntity
  8
AM_5
  6
ByBlock
100
AcDbLine
 10
921.4703808504904
 20
710.3997631827403
 30
0.0
 11
921.4703808504904
 21
727.8997631827405
 31
0.0
  0
LINE
  5
65F
330
659
100
AcDbEntity
  8
AM_5
  6
ByBlock
100
AcDbLine
 10
921.4703808504904
 20
652.8997631827543
 30
0.0
 11
921.4703808504904
 21
692.8997631827403
 31
0.0
  0
SOLID
  5
660
330
659
100
AcDbEntity
  8
AM_5
100
AcDbTrace
 10
918.5537141838237
 20
635.3997631827543
 30
0.0
 11
924.3870475171567
 21
635.3997631827543
 31
0.0
 12
921.4703808504904
 22
652.8997631827543
 32
0.0
 13
921.4703808504904
 23
652.8997631827543
 33
0.0
  0
SOLID
  5
661
330
659
100
AcDbEntity
  8
AM_5
100
AcDbTrace
 10
918.5537141838237
 20
710.3997631827403
 30
0.0
 11
924.3870475171567
 21
710.3997631827403
 31
0.0
 12
921.4703808504904
 22
692.8997631827403
 32
0.0
 13
921.4703808504904
 23
692.8997631827403
 33
0.0
  0
MTEXT
  5
662
330
659
100
AcDbEntity
  8
AM_5
 62
     2
100
AcDbMText
 10
905.22038085049
 20
672.8997631827476
 30
0.0
 40
17.5
 41
0.0
 71
     5
 72
     1
  1
40
 11
0.0000000000000001
 21
1.0
 31
0.0
 73
     1
 44
1.0
1001
ACAD
1000
MTEXTBEGIN
1070
    73
1070
     1
1070
    44
1040
1.0
1070
    74
1070
     0
1000
MTEXTEND
  0
POINT
  5
663
330
659
100
AcDbEntity
  8
DEFPOINTS
 62
     0
100
AcDbPoint
 10
871.0362041759893
 20
652.8997631827543
 30
0.0
  0
POINT
  5
664
330
659
100
AcDbEntity
  8
DEFPOINTS
 62
     0
100
AcDbPoint
 10
873.0362041759892
 20
692.8997631827403
 30
0.0
  0
POINT
  5
665
330
659
100
AcDbEntity
  8
DEFPOINTS
 62
     0
100
AcDbPoint
 10
921.4703808504904
 20
692.8997631827403
 30
0.0
  0
ENDBLK
  5
666
330
659
100
AcDbEntity
  8
0
 62
     0
100
AcDbBlockEnd
  0
BLOCK
  5
668
330
667
100
AcDbEntity
  8
0
 62
     0
100
AcDbBlockBegin
  2
*D11
 70
     1
 10
0.0
 20
0.0
 30
0.0
  3
*D11
  1

  0
LINE
  5
669
330
667
100
AcDbEntity
  8
AM_5
  6
ByBlock
100
AcDbLine
 10
852.0362041760417
 20
657.8997631827543
 30
0.0
 11
852.0362041760417
 21
738.3046330050127
 31
0.0
  0
LINE
  5
66A
330
667
100
AcDbEntity
  8
AM_5
  6
ByBlock
100
AcDbLine
 10
872.0362041759893
 20
697.8997631827403
 30
0.0
 11
872.0362041759893
 21
738.3046330050127
 31
0.0
  0
LINE
  5
66B
330
667
100
AcDbEntity
  8
AM_5
  6
ByBlock
100
AcDbLine
 10
889.5362041759893
 20
733.3046330050128
 30
0.0
 11
907.0362041759892
 21
733.3046330050128
 31
0.0
  0
LINE
  5
66C
330
667
100
AcDbEntity
  8
AM_5
  6
ByBlock
100
AcDbLine
 10
834.5362041760417
 20
733.3046330050128
 30
0.0
 11
782.3280348847032
 21
733.3046330050128
 31
0.0
  0
LINE
  5
66D
330
667
100
AcDbEntity
  8
AM_5
  6
ByBlock
100
AcDbLine
 10
872.0362041759893
 20
733.3046330050128
 30
0.0
 11
852.0362041760417
 21
733.3046330050128
 31
0.0
  0
SOLID
  5
66E
330
667
100
AcDbEntity
  8
AM_5
100
AcDbTrace
 10
889.5362041759893
 20
736.2212996716793
 30
0.0
 11
889.5362041759893
 21
730.3879663383462
 31
0.0
 12
872.0362041759893
 22
733.3046330050128
 32
0.0
 13
872.0362041759893
 23
733.3046330050128
 33
0.0
  0
SOLID
  5
66F
330
667
100
AcDbEntity
  8
AM_5
100
AcDbTrace
 10
834.5362041760417
 20
736.2212996716793
 30
0.0
 11
834.5362041760417
 21
730.3879663383462
 31
0.0
 12
852.0362041760417
 22
733.3046330050128
 32
0.0
 13
852.0362041760417
 23
733.3046330050128
 33
0.0
  0
MTEXT
  5
670
330
667
100
AcDbEntity
  8
AM_5
 62
     2
100
AcDbMText
 10
799.6821195303724
 20
749.5563554459578
 30
0.0
 40
17.5
 41
0.0
 71
     5
 72
     1
  1
20
 73
     1
 44
1.0
1001
ACAD
1000
MTEXTBEGIN
1070
    73
1070
     1
1070
    44
1040
1.0
1070
    74
1070
     0
1000
MTEXTEND
  0
POINT
  5
671
330
667
100
AcDbEntity
  8
DEFPOINTS
 62
     0
100
AcDbPoint
 10
852.0362041760417
 20
652.8997631827543
 30
0.0
  0
POINT
  5
672
330
667
100
AcDbEntity
  8
DEFPOINTS
 62
     0
100
AcDbPoint
 10
872.0362041759893
 20
692.8997631827403
 30
0.0
  0
POINT
  5
673
330
667
100
AcDbEntity
  8
DEFPOINTS
 62
     0
100
AcDbPoint
 10
872.0362041759893
 20
733.3046330050128
 30
0.0
  0
ENDBLK
  5
674
330
667
100
AcDbEntity
  8
0
 62
     0
100
AcDbBlockEnd
  0
BLOCK
  5
78D
330
78C
100
AcDbEntity
  8
0
100
AcDbBlockBegin
  2
*D12
 70
     1
 10
0.0
 20
0.0
 30
0.0
  3
*D12
  1

  0
LINE
  5
78F
330
78C
100
AcDbEntity
  8
AM_5
  6
ByBlock
100
AcDbLine
 10
154.0362048541125
 20
163.0977628235408
 30
0.0
 11
154.0362048541125
 21
58.96688616836343
 31
0.0
  0
LINE
  5
790
330
78C
100
AcDbEntity
  8
AM_5
  6
ByBlock
100
AcDbLine
 10
854.0362048541124
 20
163.0977628235408
 30
0.0
 11
854.0362048541124
 21
58.96688616836343
 31
0.0
  0
LINE
  5
791
330
78C
100
AcDbEntity
  8
AM_5
  6
ByBlock
100
AcDbLine
 10
171.5362048541126
 20
63.96688616836343
 30
0.0
 11
836.5362048541125
 21
63.96688616836343
 31
0.0
  0
SOLID
  5
792
330
78C
100
AcDbEntity
  8
AM_5
100
AcDbTrace
 10
171.5362048541126
 20
66.8835528350301
 30
0.0
 11
171.5362048541126
 21
61.05021950169676
 31
0.0
 12
154.0362048541125
 22
63.96688616836343
 32
0.0
 13
154.0362048541125
 23
63.96688616836343
 33
0.0
  0
SOLID
  5
793
330
78C
100
AcDbEntity
  8
AM_5
100
AcDbTrace
 10
836.5362048541125
 20
66.8835528350301
 30
0.0
 11
836.5362048541125
 21
61.05021950169676
 31
0.0
 12
854.0362048541124
 22
63.96688616836343
 32
0.0
 13
854.0362048541124
 23
63.96688616836343
 33
0.0
  0
MTEXT
  5
794
330
78C
100
AcDbEntity
  8
AM_5
 62
     2
100
AcDbMText
 10
504.0362048541124
 20
80.21688616836344
 30
0.0
 40
17.5
 41
0.0
 71
     5
 72
     1
  1
700
 73
     1
 44
1.0
1001
ACAD
1000
MTEXTBEGIN
1070
    73
1070
     1
1070
    44
1040
1.0
1070
    74
1070
     0
1000
MTEXTEND
  0
POINT
  5
795
330
78C
100
AcDbEntity
  8
DEFPOINTS
 62
     0
100
AcDbPoint
 10
154.0362048541125
 20
168.0977628235408
 30
0.0
  0
POINT
  5
796
330
78C
100
AcDbEntity
  8
DEFPOINTS
 62
     0
100
AcDbPoint
 10
854.0362048541124
 20
168.0977628235408
 30
0.0
  0
POINT
  5
797
330
78C
100
AcDbEntity
  8
DEFPOINTS
 62
     0
100
AcDbPoint
 10
854.0362048541124
 20
63.96688616836343
 30
0.0
  0
ENDBLK
  5
78E
330
78C
100
AcDbEntity
  8
0
100
AcDbBlockEnd
  0
BLOCK
  5
799
330
798
100
AcDbEntity
  8
0
100
AcDbBlockBegin
  2
*D13
 70
     1
 10
0.0
 20
0.0
 30
0.0
  3
*D13
  1

  0
LINE
  5
79B
330
798
100
AcDbEntity
  8
AM_5
  6
ByBlock
100
AcDbLine
 10
124.0362048541125
 20
131.4877628235684
 30
0.0
 11
124.0362048541125
 21
0.0000000183621296
 31
0.0
  0
LINE
  5
79C
330
798
100
AcDbEntity
  8
AM_5
  6
ByBlock
100
AcDbLine
 10
873.0362048540596
 20
131.4877628235684
 30
0.0
 11
873.0362048540596
 21
0.0000000183621296
 31
0.0
  0
LINE
  5
79D
330
798
100
AcDbEntity
  8
AM_5
  6
ByBlock
100
AcDbLine
 10
141.5362048541125
 20
5.000000018362126
 30
0.0
 11
855.5362048540601
 21
5.000000018362126
 31
0.0
  0
SOLID
  5
79E
330
798
100
AcDbEntity
  8
AM_5
100
AcDbTrace
 10
141.5362048541125
 20
7.916666685028793
 30
0.0
 11
141.5362048541125
 21
2.083333351695463
 31
0.0
 12
124.0362048541125
 22
5.000000018362126
 32
0.0
 13
124.0362048541125
 23
5.000000018362126
 33
0.0
  0
SOLID
  5
79F
330
798
100
AcDbEntity
  8
AM_5
100
AcDbTrace
 10
855.5362048540601
 20
7.916666685028793
 30
0.0
 11
855.5362048540601
 21
2.083333351695463
 31
0.0
 12
873.0362048540596
 22
5.000000018362126
 32
0.0
 13
873.0362048540596
 23
5.000000018362126
 33
0.0
  0
MTEXT
  5
7A0
330
798
100
AcDbEntity
  8
AM_5
 62
     2
100
AcDbMText
 10
504.0362048541124
 20
21.25000001836213
 30
0.0
 40
17.5
 41
0.0
 71
     5
 72
     1
  1
749
 73
     1
 44
1.0
1001
ACAD
1000
MTEXTBEGIN
1070
    73
1070
     1
1070
    44
1040
1.0
1070
    74
1070
     0
1000
MTEXTEND
  0
POINT
  5
7A1
330
798
100
AcDbEntity
  8
DEFPOINTS
 62
     0
100
AcDbPoint
 10
124.0362048541125
 20
136.4877628235684
 30
0.0
  0
POINT
  5
7A2
330
798
100
AcDbEntity
  8
DEFPOINTS
 62
     0
100
AcDbPoint
 10
873.0362048540596
 20
136.4877628235684
 30
0.0
  0
POINT
  5
7A3
330
798
100
AcDbEntity
  8
DEFPOINTS
 62
     0
100
AcDbPoint
 10
873.0362048540596
 20
5.000000018362126
 30
0.0
  0
ENDBLK
  5
79A
330
798
100
AcDbEntity
  8
0
100
AcDbBlockEnd
  0
BLOCK
  5
7A5
330
7A4
100
AcDbEntity
  8
0
100
AcDbBlockBegin
  2
*D14
 70
     1
 10
0.0
 20
0.0
 30
0.0
  3
*D14
  1

  0
LINE
  5
7A7
330
7A4
100
AcDbEntity
  8
AM_5
  6
ByBlock
100
AcDbLine
 10
150.0362048541125
 20
578.8997631332679
 30
0.0
 11
90.03620485411266
 21
578.8997631332679
 31
0.0
  0
LINE
  5
7A8
330
7A4
100
AcDbEntity
  8
AM_5
  6
ByBlock
100
AcDbLine
 10
150.0362048541125
 20
652.8997631332697
 30
0.0
 11
90.03620485411266
 21
652.8997631332697
 31
0.0
  0
LINE
  5
7A9
330
7A4
100
AcDbEntity
  8
AM_5
  6
ByBlock
100
AcDbLine
 10
95.03620485411266
 20
596.3997631332679
 30
0.0
 11
95.03620485411266
 21
635.3997631332697
 31
0.0
  0
SOLID
  5
7AA
330
7A4
100
AcDbEntity
  8
AM_5
100
AcDbTrace
 10
92.11953818744598
 20
596.3997631332679
 30
0.0
 11
97.95287152077932
 21
596.3997631332679
 31
0.0
 12
95.03620485411266
 22
578.8997631332679
 32
0.0
 13
95.03620485411266
 23
578.8997631332679
 33
0.0
  0
SOLID
  5
7AB
330
7A4
100
AcDbEntity
  8
AM_5
100
AcDbTrace
 10
92.119538187446
 20
635.3997631332697
 30
0.0
 11
97.95287152077934
 21
635.3997631332697
 31
0.0
 12
95.03620485411266
 22
652.8997631332697
 32
0.0
 13
95.03620485411266
 23
652.8997631332697
 33
0.0
  0
MTEXT
  5
7AC
330
7A4
100
AcDbEntity
  8
AM_5
 62
     2
100
AcDbMText
 10
78.78620485411255
 20
615.8997631332687
 30
0.0
 40
17.5
 41
0.0
 71
     5
 72
     1
  1
74
 11
0.0000000000000001
 21
1.0
 31
0.0
 73
     1
 44
1.0
1001
ACAD
1000
MTEXTBEGIN
1070
    73
1070
     1
1070
    44
1040
1.0
1070
    74
1070
     0
1000
MTEXTEND
  0
POINT
  5
7AD
330
7A4
100
AcDbEntity
  8
DEFPOINTS
 62
     0
100
AcDbPoint
 10
155.0362048541126
 20
578.8997631332679
 30
0.0
  0
POINT
  5
7AE
330
7A4
100
AcDbEntity
  8
DEFPOINTS
 62
     0
100
AcDbPoint
 10
155.0362048541126
 20
652.8997631332697
 30
0.0
  0
POINT
  5
7AF
330
7A4
100
AcDbEntity
  8
DEFPOINTS
 62
     0
100
AcDbPoint
 10
95.03620485411266
 20
652.8997631332697
 30
0.0
  0
ENDBLK
  5
7A6
330
7A4
100
AcDbEntity
  8
0
100
AcDbBlockEnd
  0
BLOCK
  5
7B1
330
7B0
100
AcDbEntity
  8
0
100
AcDbBlockBegin
  2
*D15
 70
     1
 10
0.0
 20
0.0
 30
0.0
  3
*D15
  1

  0
LINE
  5
7B3
330
7B0
100
AcDbEntity
  8
AM_5
  6
ByBlock
100
AcDbLine
 10
119.0362048541127
 20
280.487762823533
 30
0.0
 11
19.12499915796331
 21
280.487762823533
 31
0.0
  0
LINE
  5
7B4
330
7B0
100
AcDbEntity
  8
AM_5
  6
ByBlock
100
AcDbLine
 10
119.0362048541127
 20
136.4877628242596
 30
0.0
 11
19.12499915796328
 21
136.4877628242597
 31
0.0
  0
LINE
  5
7B5
330
7B0
100
AcDbEntity
  8
AM_5
  6
ByBlock
100
AcDbLine
 10
24.1249991579633
 20
262.987762823533
 30
0.0
 11
24.12499915796328
 21
153.9877628242597
 31
0.0
  0
SOLID
  5
7B6
330
7B0
100
AcDbEntity
  8
AM_5
100
AcDbTrace
 10
21.20833249129663
 20
262.987762823533
 30
0.0
 11
27.04166582462997
 21
262.987762823533
 31
0.0
 12
24.12499915796331
 22
280.487762823533
 32
0.0
 13
24.12499915796331
 23
280.487762823533
 33
0.0
  0
SOLID
  5
7B7
330
7B0
100
AcDbEntity
  8
AM_5
100
AcDbTrace
 10
21.20833249129661
 20
153.9877628242597
 30
0.0
 11
27.04166582462995
 21
153.9877628242597
 31
0.0
 12
24.12499915796328
 22
136.4877628242597
 32
0.0
 13
24.12499915796328
 23
136.4877628242597
 33
0.0
  0
MTEXT
  5
7B8
330
7B0
100
AcDbEntity
  8
AM_5
 62
     2
100
AcDbMText
 10
7.874999157963258
 20
207.7537228937084
 30
0.0
 40
17.5
 41
0.0
 71
     5
 72
     1
  1
144
 11
0.0000000000000001
 21
1.0
 31
0.0
 73
     1
 44
1.0
1001
ACAD
1000
MTEXTBEGIN
1070
    73
1070
     1
1070
    44
1040
1.0
1070
    74
1070
     0
1000
MTEXTEND
  0
POINT
  5
7B9
330
7B0
100
AcDbEntity
  8
DEFPOINTS
 62
     0
100
AcDbPoint
 10
124.0362048541125
 20
280.487762823533
 30
0.0
  0
POINT
  5
7BA
330
7B0
100
AcDbEntity
  8
DEFPOINTS
 62
     0
100
AcDbPoint
 10
124.0362048541125
 20
136.4877628242596
 30
0.0
  0
POINT
  5
7BB
330
7B0
100
AcDbEntity
  8
DEFPOINTS
 62
     0
100
AcDbPoint
 10
24.12499915796328
 20
136.4877628242597
 30
0.0
  0
ENDBLK
  5
7B2
330
7B0
100
AcDbEntity
  8
0
100
AcDbBlockEnd
  0
BLOCK
  5
7BD
330
7BC
100
AcDbEntity
  8
0
100
AcDbBlockBegin
  2
*D16
 70
     1
 10
0.0
 20
0.0
 30
0.0
  3
*D16
  1

  0
LINE
  5
7BF
330
7BC
100
AcDbEntity
  8
AM_5
  6
ByBlock
100
AcDbLine
 10
151.0362048541272
 20
250.4877628235385
 30
0.0
 11
90.58165929799256
 21
250.4877628235385
 31
0.0
  0
LINE
  5
7C0
330
7BC
100
AcDbEntity
  8
AM_5
  6
ByBlock
100
AcDbLine
 10
151.0362048541272
 20
166.4877628235402
 30
0.0
 11
90.58165929799251
 21
166.4877628235402
 31
0.0
  0
LINE
  5
7C1
330
7BC
100
AcDbEntity
  8
AM_5
  6
ByBlock
100
AcDbLine
 10
95.58165929799256
 20
232.9877628235384
 30
0.0
 11
95.58165929799251
 21
183.9877628235402
 31
0.0
  0
SOLID
  5
7C2
330
7BC
100
AcDbEntity
  8
AM_5
100
AcDbTrace
 10
92.66499263132587
 20
232.9877628235384
 30
0.0
 11
98.49832596465923
 21
232.9877628235384
 31
0.0
 12
95.58165929799256
 22
250.4877628235385
 32
0.0
 13
95.58165929799256
 23
250.4877628235385
 33
0.0
  0
SOLID
  5
7C3
330
7BC
100
AcDbEntity
  8
AM_5
100
AcDbTrace
 10
92.66499263132583
 20
183.9877628235402
 30
0.0
 11
98.49832596465921
 21
183.9877628235402
 31
0.0
 12
95.58165929799251
 22
166.4877628235402
 32
0.0
 13
95.58165929799251
 23
166.4877628235402
 33
0.0
  0
MTEXT
  5
7C4
330
7BC
100
AcDbEntity
  8
AM_5
 62
     2
100
AcDbMText
 10
79.3316592979925
 20
208.4877628235394
 30
0.0
 40
17.5
 41
0.0
 71
     5
 72
     1
  1
84
 11
0.0000000000000001
 21
1.0
 31
0.0
 73
     1
 44
1.0
1001
ACAD
1000
MTEXTBEGIN
1070
    73
1070
     1
1070
    44
1040
1.0
1070
    74
1070
     0
1000
MTEXTEND
  0
POINT
  5
7C5
330
7BC
100
AcDbEntity
  8
DEFPOINTS
 62
     0
100
AcDbPoint
 10
156.0362048541272
 20
250.4877628235385
 30
0.0
  0
POINT
  5
7C6
330
7BC
100
AcDbEntity
  8
DEFPOINTS
 62
     0
100
AcDbPoint
 10
156.0362048541272
 20
166.4877628235402
 30
0.0
  0
POINT
  5
7C7
330
7BC
100
AcDbEntity
  8
DEFPOINTS
 62
     0
100
AcDbPoint
 10
95.58165929799251
 20
166.4877628235402
 30
0.0
  0
ENDBLK
  5
7BE
330
7BC
100
AcDbEntity
  8
0
100
AcDbBlockEnd
  0
BLOCK
  5
7C9
330
7C8
100
AcDbEntity
  8
0
100
AcDbBlockBegin
  2
*D17
 70
     1
 10
0.0
 20
0.0
 30
0.0
  3
*D17
  1

  0
LINE
  5
7CB
330
7C8
100
AcDbEntity
  8
AM_5
  6
ByBlock
100
AcDbLine
 10
529.0362048728627
 20
480.2214194276723
 30
0.0
 11
529.0362048728627
 21
419.9857809420874
 31
0.0
  0
LINE
  5
7CC
330
7C8
100
AcDbEntity
  8
AM_5
  6
ByBlock
100
AcDbLine
 10
479.0362048717714
 20
480.2214194276723
 30
0.0
 11
479.0362048717714
 21
419.9857809420874
 31
0.0
  0
LINE
  5
7CD
330
7C8
100
AcDbEntity
  8
AM_5
  6
ByBlock
100
AcDbLine
 10
511.5362048728626
 20
424.9857809420876
 30
0.0
 11
496.5362048717714
 21
424.9857809420876
 31
0.0
  0
SOLID
  5
7CE
330
7C8
100
AcDbEntity
  8
AM_5
100
AcDbTrace
 10
511.5362048728626
 20
427.9024476087543
 30
0.0
 11
511.5362048728626
 21
422.0691142754207
 31
0.0
 12
529.0362048728627
 22
424.9857809420876
 32
0.0
 13
529.0362048728627
 23
424.9857809420876
 33
0.0
  0
SOLID
  5
7CF
330
7C8
100
AcDbEntity
  8
AM_5
100
AcDbTrace
 10
496.5362048717714
 20
427.9024476087543
 30
0.0
 11
496.5362048717714
 21
422.0691142754207
 31
0.0
 12
479.0362048717714
 22
424.9857809420876
 32
0.0
 13
479.0362048717714
 23
424.9857809420876
 33
0.0
  0
MTEXT
  5
7D0
330
7C8
100
AcDbEntity
  8
AM_5
 62
     2
100
AcDbMText
 10
504.1313858235251
 20
441.2357809420877
 30
0.0
 40
17.5
 41
0.0
 71
     5
 72
     1
  1
%%c50
 73
     1
 44
1.0
1001
ACAD
1000
MTEXTBEGIN
1070
    73
1070
     1
1070
    44
1040
1.0
1070
    74
1070
     0
1000
MTEXTEND
  0
POINT
  5
7D1
330
7C8
100
AcDbEntity
  8
DEFPOINTS
 62
     0
100
AcDbPoint
 10
529.0362048728627
 20
485.2214194276723
 30
0.0
  0
POINT
  5
7D2
330
7C8
100
AcDbEntity
  8
DEFPOINTS
 62
     0
100
AcDbPoint
 10
479.0362048717714
 20
485.2214194276723
 30
0.0
  0
POINT
  5
7D3
330
7C8
100
AcDbEntity
  8
DEFPOINTS
 62
     0
100
AcDbPoint
 10
479.0362048717714
 20
424.9857809420876
 30
0.0
  0
ENDBLK
  5
7CA
330
7C8
100
AcDbEntity
  8
0
100
AcDbBlockEnd
  0
BLOCK
  5
7D5
330
7D4
100
AcDbEntity
  8
0
100
AcDbBlockBegin
  2
*D18
 70
     1
 10
0.0
 20
0.0
 30
0.0
  3
*D18
  1

  0
LINE
  5
7D7
330
7D4
100
AcDbEntity
  8
AM_5
  6
ByBlock
100
AcDbLine
 10
876.0362048540601
 20
652.8997631332701
 30
0.0
 11
926.4703815285608
 21
652.8997631332701
 31
0.0
  0
LINE
  5
7D8
330
7D4
100
AcDbEntity
  8
AM_5
  6
ByBlock
100
AcDbLine
 10
878.0362048540601
 20
692.8997631332561
 30
0.0
 11
926.4703815285608
 21
692.8997631332561
 31
0.0
  0
LINE
  5
7D9
330
7D4
100
AcDbEntity
  8
AM_5
  6
ByBlock
100
AcDbLine
 10
921.4703815285608
 20
635.3997631332697
 30
0.0
 11
921.4703815285608
 21
617.8997631332697
 31
0.0
  0
LINE
  5
7DA
330
7D4
100
AcDbEntity
  8
AM_5
  6
ByBlock
100
AcDbLine
 10
921.4703815285608
 20
710.3997631332561
 30
0.0
 11
921.4703815285608
 21
727.899763133256
 31
0.0
  0
LINE
  5
7DB
330
7D4
100
AcDbEntity
  8
AM_5
  6
ByBlock
100
AcDbLine
 10
921.4703815285608
 20
652.8997631332701
 30
0.0
 11
921.4703815285608
 21
692.8997631332561
 31
0.0
  0
SOLID
  5
7DC
330
7D4
100
AcDbEntity
  8
AM_5
100
AcDbTrace
 10
918.5537148618944
 20
635.3997631332697
 30
0.0
 11
924.3870481952276
 21
635.3997631332697
 31
0.0
 12
921.4703815285608
 22
652.8997631332701
 32
0.0
 13
921.4703815285608
 23
652.8997631332701
 33
0.0
  0
SOLID
  5
7DD
330
7D4
100
AcDbEntity
  8
AM_5
100
AcDbTrace
 10
918.5537148618944
 20
710.3997631332561
 30
0.0
 11
924.3870481952276
 21
710.3997631332561
 31
0.0
 12
921.4703815285608
 22
692.8997631332561
 32
0.0
 13
921.4703815285608
 23
692.8997631332561
 33
0.0
  0
MTEXT
  5
7DE
330
7D4
100
AcDbEntity
  8
AM_5
 62
     2
100
AcDbMText
 10
905.2203815285608
 20
672.8997631332632
 30
0.0
 40
17.5
 41
0.0
 71
     5
 72
     1
  1
40
 11
0.0000000000000001
 21
1.0
 31
0.0
 73
     1
 44
1.0
1001
ACAD
1000
MTEXTBEGIN
1070
    73
1070
     1
1070
    44
1040
1.0
1070
    74
1070
     0
1000
MTEXTEND
  0
POINT
  5
7DF
330
7D4
100
AcDbEntity
  8
DEFPOINTS
 62
     0
100
AcDbPoint
 10
871.0362048540599
 20
652.8997631332701
 30
0.0
  0
POINT
  5
7E0
330
7D4
100
AcDbEntity
  8
DEFPOINTS
 62
     0
100
AcDbPoint
 10
873.0362048540596
 20
692.8997631332561
 30
0.0
  0
POINT
  5
7E1
330
7D4
100
AcDbEntity
  8
DEFPOINTS
 62
     0
100
AcDbPoint
 10
921.4703815285608
 20
692.8997631332561
 30
0.0
  0
ENDBLK
  5
7D6
330
7D4
100
AcDbEntity
  8
0
100
AcDbBlockEnd
  0
BLOCK
  5
7E3
330
7E2
100
AcDbEntity
  8
0
100
AcDbBlockBegin
  2
*D19
 70
     1
 10
0.0
 20
0.0
 30
0.0
  3
*D19
  1

  0
LINE
  5
7E5
330
7E2
100
AcDbEntity
  8
AM_5
  6
ByBlock
100
AcDbLine
 10
852.0362048541127
 20
657.8997631332697
 30
0.0
 11
852.0362048541127
 21
738.3046329555285
 31
0.0
  0
LINE
  5
7E6
330
7E2
100
AcDbEntity
  8
AM_5
  6
ByBlock
100
AcDbLine
 10
872.0362048540597
 20
697.8997631332561
 30
0.0
 11
872.0362048540597
 21
738.3046329555285
 31
0.0
  0
LINE
  5
7E7
330
7E2
100
AcDbEntity
  8
AM_5
  6
ByBlock
100
AcDbLine
 10
889.5362048540601
 20
733.3046329555285
 30
0.0
 11
907.0362048540598
 21
733.3046329555285
 31
0.0
  0
LINE
  5
7E8
330
7E2
100
AcDbEntity
  8
AM_5
  6
ByBlock
100
AcDbLine
 10
834.5362048541124
 20
733.3046329555285
 30
0.0
 11
782.3280355627741
 21
733.3046329555285
 31
0.0
  0
LINE
  5
7E9
330
7E2
100
AcDbEntity
  8
AM_5
  6
ByBlock
100
AcDbLine
 10
872.0362048540597
 20
733.3046329555285
 30
0.0
 11
852.0362048541127
 21
733.3046329555285
 31
0.0
  0
SOLID
  5
7EA
330
7E2
100
AcDbEntity
  8
AM_5
100
AcDbTrace
 10
889.5362048540601
 20
736.2212996221951
 30
0.0
 11
889.5362048540601
 21
730.3879662888617
 31
0.0
 12
872.0362048540597
 22
733.3046329555285
 32
0.0
 13
872.0362048540597
 23
733.3046329555285
 33
0.0
  0
SOLID
  5
7EB
330
7E2
100
AcDbEntity
  8
AM_5
100
AcDbTrace
 10
834.5362048541124
 20
736.2212996221951
 30
0.0
 11
834.5362048541124
 21
730.3879662888617
 31
0.0
 12
852.0362048541127
 22
733.3046329555285
 32
0.0
 13
852.0362048541127
 23
733.3046329555285
 33
0.0
  0
MTEXT
  5
7EC
330
7E2
100
AcDbEntity
  8
AM_5
 62
     2
100
AcDbMText
 10
799.6821202084433
 20
749.5563553964732
 30
0.0
 40
17.5
 41
0.0
 71
     5
 72
     1
  1
20
 73
     1
 44
1.0
1001
ACAD
1000
MTEXTBEGIN
1070
    73
1070
     1
1070
    44
1040
1.0
1070
    74
1070
     0
1000
MTEXTEND
  0
POINT
  5
7ED
330
7E2
100
AcDbEntity
  8
DEFPOINTS
 62
     0
100
AcDbPoint
 10
852.0362048541127
 20
652.8997631332697
 30
0.0
  0
POINT
  5
7EE
330
7E2
100
AcDbEntity
  8
DEFPOINTS
 62
     0
100
AcDbPoint
 10
872.0362048540597
 20
692.8997631332561
 30
0.0
  0
POINT
  5
7EF
330
7E2
100
AcDbEntity
  8
DEFPOINTS
 62
     0
100
AcDbPoint
 10
872.0362048540597
 20
733.3046329555285
 30
0.0
  0
ENDBLK
  5
7E4
330
7E2
100
AcDbEntity
  8
0
100
AcDbBlockEnd
  0
BLOCK
  5
7F5
330
7F4
100
AcDbEntity
  8
0
 62
     0
100
AcDbBlockBegin
  2
*D20
 70
     1
 10
0.0
 20
0.0
 30
0.0
  3
*D20
  1

  0
LINE
  5
7F6
330
7F4
100
AcDbEntity
  8
AM_5
  6
ByBlock
100
AcDbLine
 10
29018.78851395034
 20
5416.438965762516
 30
0.0
 11
29018.78851395034
 21
5312.308089107339
 31
0.0
  0
LINE
  5
7F7
330
7F4
100
AcDbEntity
  8
AM_5
  6
ByBlock
100
AcDbLine
 10
29718.78851395034
 20
5416.438965762516
 30
0.0
 11
29718.78851395034
 21
5312.308089107339
 31
0.0
  0
LINE
  5
7F8
330
7F4
100
AcDbEntity
  8
AM_5
  6
ByBlock
100
AcDbLine
 10
29036.28851395034
 20
5317.308089107338
 30
0.0
 11
29701.28851395034
 21
5317.308089107338
 31
0.0
  0
SOLID
  5
7F9
330
7F4
100
AcDbEntity
  8
AM_5
100
AcDbTrace
 10
29036.28851395034
 20
5320.224755774006
 30
0.0
 11
29036.28851395034
 21
5314.391422440672
 31
0.0
 12
29018.78851395034
 22
5317.308089107338
 32
0.0
 13
29018.78851395034
 23
5317.308089107338
 33
0.0
  0
SOLID
  5
7FA
330
7F4
100
AcDbEntity
  8
AM_5
100
AcDbTrace
 10
29701.28851395034
 20
5320.224755774006
 30
0.0
 11
29701.28851395034
 21
5314.391422440672
 31
0.0
 12
29718.78851395034
 22
5317.308089107338
 32
0.0
 13
29718.78851395034
 23
5317.308089107338
 33
0.0
  0
MTEXT
  5
7FB
330
7F4
100
AcDbEntity
  8
AM_5
 62
     2
100
AcDbMText
 10
29368.78851395034
 20
5333.558089107339
 30
0.0
 40
17.5
 41
0.0
 71
     5
 72
     1
  1
700
 73
     1
 44
1.0
1001
ACAD
1000
MTEXTBEGIN
1070
    73
1070
     1
1070
    44
1040
1.0
1070
    74
1070
     0
1000
MTEXTEND
  0
POINT
  5
7FC
330
7F4
100
AcDbEntity
  8
DEFPOINTS
 62
     0
100
AcDbPoint
 10
29018.78851395034
 20
5421.438965762516
 30
0.0
  0
POINT
  5
7FD
330
7F4
100
AcDbEntity
  8
DEFPOINTS
 62
     0
100
AcDbPoint
 10
29718.78851395034
 20
5421.438965762516
 30
0.0
  0
POINT
  5
7FE
330
7F4
100
AcDbEntity
  8
DEFPOINTS
 62
     0
100
AcDbPoint
 10
29718.78851395034
 20
5317.308089107338
 30
0.0
  0
ENDBLK
  5
7FF
330
7F4
100
AcDbEntity
  8
0
 62
     0
100
AcDbBlockEnd
  0
BLOCK
  5
801
330
800
100
AcDbEntity
  8
0
 62
     0
100
AcDbBlockBegin
  2
*D21
 70
     1
 10
0.0
 20
0.0
 30
0.0
  3
*D21
  1

  0
LINE
  5
802
330
800
100
AcDbEntity
  8
AM_5
  6
ByBlock
100
AcDbLine
 10
28988.78851395034
 20
5384.828965762544
 30
0.0
 11
28988.78851395034
 21
5253.341202957337
 31
0.0
  0
LINE
  5
803
330
800
100
AcDbEntity
  8
AM_5
  6
ByBlock
100
AcDbLine
 10
29748.78851395034
 20
5384.828965762544
 30
0.0
 11
29748.78851395034
 21
5253.341202957337
 31
0.0
  0
LINE
  5
804
330
800
100
AcDbEntity
  8
AM_5
  6
ByBlock
100
AcDbLine
 10
29006.28851395034
 20
5258.341202957337
 30
0.0
 11
29731.28851395034
 21
5258.341202957337
 31
0.0
  0
SOLID
  5
805
330
800
100
AcDbEntity
  8
AM_5
100
AcDbTrace
 10
29006.28851395034
 20
5261.257869624004
 30
0.0
 11
29006.28851395034
 21
5255.424536290671
 31
0.0
 12
28988.78851395034
 22
5258.341202957337
 32
0.0
 13
28988.78851395034
 23
5258.341202957337
 33
0.0
  0
SOLID
  5
806
330
800
100
AcDbEntity
  8
AM_5
100
AcDbTrace
 10
29731.28851395034
 20
5261.257869624004
 30
0.0
 11
29731.28851395034
 21
5255.424536290671
 31
0.0
 12
29748.78851395034
 22
5258.341202957337
 32
0.0
 13
29748.78851395034
 23
5258.341202957337
 33
0.0
  0
MTEXT
  5
807
330
800
100
AcDbEntity
  8
AM_5
 62
     2
100
AcDbMText
 10
29368.78851395034
 20
5274.591202957338
 30
0.0
 40
17.5
 41
0.0
 71
     5
 72
     1
  1
760
 73
     1
 44
1.0
1001
ACAD
1000
MTEXTBEGIN
1070
    73
1070
     1
1070
    44
1040
1.0
1070
    74
1070
     0
1000
MTEXTEND
  0
POINT
  5
808
330
800
100
AcDbEntity
  8
DEFPOINTS
 62
     0
100
AcDbPoint
 10
28988.78851395034
 20
5389.828965762544
 30
0.0
  0
POINT
  5
809
330
800
100
AcDbEntity
  8
DEFPOINTS
 62
     0
100
AcDbPoint
 10
29748.78851395034
 20
5389.828965762544
 30
0.0
  0
POINT
  5
80A
330
800
100
AcDbEntity
  8
DEFPOINTS
 62
     0
100
AcDbPoint
 10
29748.78851395034
 20
5258.341202957337
 30
0.0
  0
ENDBLK
  5
80B
330
800
100
AcDbEntity
  8
0
 62
     0
100
AcDbBlockEnd
  0
BLOCK
  5
80D
330
80C
100
AcDbEntity
  8
0
 62
     0
100
AcDbBlockBegin
  2
*D22
 70
     1
 10
0.0
 20
0.0
 30
0.0
  3
*D22
  1

  0
LINE
  5
80E
330
80C
100
AcDbEntity
  8
AM_5
  6
ByBlock
100
AcDbLine
 10
29014.78851395035
 20
5832.240966072244
 30
0.0
 11
28954.78851395034
 21
5832.240966072244
 31
0.0
  0
LINE
  5
80F
330
80C
100
AcDbEntity
  8
AM_5
  6
ByBlock
100
AcDbLine
 10
29014.78851395035
 20
5906.240966072245
 30
0.0
 11
28954.78851395034
 21
5906.240966072245
 31
0.0
  0
LINE
  5
810
330
80C
100
AcDbEntity
  8
AM_5
  6
ByBlock
100
AcDbLine
 10
28959.78851395034
 20
5849.740966072245
 30
0.0
 11
28959.78851395034
 21
5888.740966072245
 31
0.0
  0
SOLID
  5
811
330
80C
100
AcDbEntity
  8
AM_5
100
AcDbTrace
 10
28956.87184728367
 20
5849.740966072245
 30
0.0
 11
28962.70518061701
 21
5849.740966072245
 31
0.0
 12
28959.78851395034
 22
5832.240966072244
 32
0.0
 13
28959.78851395034
 23
5832.240966072244
 33
0.0
  0
SOLID
  5
812
330
80C
100
AcDbEntity
  8
AM_5
100
AcDbTrace
 10
28956.87184728367
 20
5888.740966072245
 30
0.0
 11
28962.70518061701
 21
5888.740966072245
 31
0.0
 12
28959.78851395034
 22
5906.240966072245
 32
0.0
 13
28959.78851395034
 23
5906.240966072245
 33
0.0
  0
MTEXT
  5
813
330
80C
100
AcDbEntity
  8
AM_5
 62
     2
100
AcDbMText
 10
28943.53851395034
 20
5869.24096607225
 30
0.0
 40
17.5
 41
0.0
 71
     5
 72
     1
  1
74
 11
0.0000000000000001
 21
1.0
 31
0.0
 73
     1
 44
1.0
1001
ACAD
1000
MTEXTBEGIN
1070
    73
1070
     1
1070
    44
1040
1.0
1070
    74
1070
     0
1000
MTEXTEND
  0
POINT
  5
814
330
80C
100
AcDbEntity
  8
DEFPOINTS
 62
     0
100
AcDbPoint
 10
29019.78851395034
 20
5832.240966072244
 30
0.0
  0
POINT
  5
815
330
80C
100
AcDbEntity
  8
DEFPOINTS
 62
     0
100
AcDbPoint
 10
29019.78851395034
 20
5906.240966072245
 30
0.0
  0
POINT
  5
816
330
80C
100
AcDbEntity
  8
DEFPOINTS
 62
     0
100
AcDbPoint
 10
28959.78851395034
 20
5906.240966072245
 30
0.0
  0
ENDBLK
  5
817
330
80C
100
AcDbEntity
  8
0
 62
     0
100
AcDbBlockEnd
  0
BLOCK
  5
819
330
818
100
AcDbEntity
  8
0
 62
     0
100
AcDbBlockBegin
  2
*D23
 70
     1
 10
0.0
 20
0.0
 30
0.0
  3
*D23
  1

  0
LINE
  5
81A
330
818
100
AcDbEntity
  8
AM_5
  6
ByBlock
100
AcDbLine
 10
28983.78851395034
 20
5533.828965762508
 30
0.0
 11
28883.87730825419
 21
5533.828965762508
 31
0.0
  0
LINE
  5
81B
330
818
100
AcDbEntity
  8
AM_5
  6
ByBlock
100
AcDbLine
 10
28983.78851395034
 20
5389.828965763235
 30
0.0
 11
28883.87730825419
 21
5389.828965763235
 31
0.0
  0
LINE
  5
81C
330
818
100
AcDbEntity
  8
AM_5
  6
ByBlock
100
AcDbLine
 10
28888.87730825419
 20
5516.328965762508
 30
0.0
 11
28888.87730825419
 21
5407.328965763235
 31
0.0
  0
SOLID
  5
81D
330
818
100
AcDbEntity
  8
AM_5
100
AcDbTrace
 10
28885.96064158752
 20
5516.328965762508
 30
0.0
 11
28891.79397492086
 21
5516.328965762508
 31
0.0
 12
28888.87730825419
 22
5533.828965762508
 32
0.0
 13
28888.87730825419
 23
5533.828965762508
 33
0.0
  0
SOLID
  5
81E
330
818
100
AcDbEntity
  8
AM_5
100
AcDbTrace
 10
28885.96064158752
 20
5407.328965763235
 30
0.0
 11
28891.79397492086
 21
5407.328965763235
 31
0.0
 12
28888.87730825419
 22
5389.828965763235
 32
0.0
 13
28888.87730825419
 23
5389.828965763235
 33
0.0
  0
MTEXT
  5
81F
330
818
100
AcDbEntity
  8
AM_5
 62
     2
100
AcDbMText
 10
28872.62730825419
 20
5461.094925832684
 30
0.0
 40
17.5
 41
0.0
 71
     5
 72
     1
  1
144
 11
0.0000000000000001
 21
1.0
 31
0.0
 73
     1
 44
1.0
1001
ACAD
1000
MTEXTBEGIN
1070
    73
1070
     1
1070
    44
1040
1.0
1070
    74
1070
     0
1000
MTEXTEND
  0
POINT
  5
820
330
818
100
AcDbEntity
  8
DEFPOINTS
 62
     0
100
AcDbPoint
 10
28988.78851395034
 20
5533.828965762508
 30
0.0
  0
POINT
  5
821
330
818
100
AcDbEntity
  8
DEFPOINTS
 62
     0
100
AcDbPoint
 10
28988.78851395034
 20
5389.828965763235
 30
0.0
  0
POINT
  5
822
330
818
100
AcDbEntity
  8
DEFPOINTS
 62
     0
100
AcDbPoint
 10
28888.87730825419
 20
5389.828965763235
 30
0.0
  0
ENDBLK
  5
823
330
818
100
AcDbEntity
  8
0
 62
     0
100
AcDbBlockEnd
  0
BLOCK
  5
825
330
824
100
AcDbEntity
  8
0
 62
     0
100
AcDbBlockBegin
  2
*D24
 70
     1
 10
0.0
 20
0.0
 30
0.0
  3
*D24
  1

  0
LINE
  5
826
330
824
100
AcDbEntity
  8
AM_5
  6
ByBlock
100
AcDbLine
 10
29015.78851395036
 20
5503.828965762513
 30
0.0
 11
28955.33396839422
 21
5503.828965762513
 31
0.0
  0
LINE
  5
827
330
824
100
AcDbEntity
  8
AM_5
  6
ByBlock
100
AcDbLine
 10
29015.78851395036
 20
5419.828965762516
 30
0.0
 11
28955.33396839422
 21
5419.828965762516
 31
0.0
  0
LINE
  5
828
330
824
100
AcDbEntity
  8
AM_5
  6
ByBlock
100
AcDbLine
 10
28960.33396839422
 20
5486.328965762513
 30
0.0
 11
28960.33396839422
 21
5437.328965762517
 31
0.0
  0
SOLID
  5
829
330
824
100
AcDbEntity
  8
AM_5
100
AcDbTrace
 10
28957.41730172755
 20
5486.328965762513
 30
0.0
 11
28963.25063506089
 21
5486.328965762513
 31
0.0
 12
28960.33396839422
 22
5503.828965762513
 32
0.0
 13
28960.33396839422
 23
5503.828965762513
 33
0.0
  0
SOLID
  5
82A
330
824
100
AcDbEntity
  8
AM_5
100
AcDbTrace
 10
28957.41730172755
 20
5437.328965762517
 30
0.0
 11
28963.25063506089
 21
5437.328965762517
 31
0.0
 12
28960.33396839422
 22
5419.828965762516
 32
0.0
 13
28960.33396839422
 23
5419.828965762516
 33
0.0
  0
MTEXT
  5
82B
330
824
100
AcDbEntity
  8
AM_5
 62
     2
100
AcDbMText
 10
28944.08396839422
 20
5461.828965762519
 30
0.0
 40
17.5
 41
0.0
 71
     5
 72
     1
  1
84
 11
0.0000000000000001
 21
1.0
 31
0.0
 73
     1
 44
1.0
1001
ACAD
1000
MTEXTBEGIN
1070
    73
1070
     1
1070
    44
1040
1.0
1070
    74
1070
     0
1000
MTEXTEND
  0
POINT
  5
82C
330
824
100
AcDbEntity
  8
DEFPOINTS
 62
     0
100
AcDbPoint
 10
29020.78851395035
 20
5503.828965762513
 30
0.0
  0
POINT
  5
82D
330
824
100
AcDbEntity
  8
DEFPOINTS
 62
     0
100
AcDbPoint
 10
29020.78851395035
 20
5419.828965762516
 30
0.0
  0
POINT
  5
82E
330
824
100
AcDbEntity
  8
DEFPOINTS
 62
     0
100
AcDbPoint
 10
28960.33396839422
 20
5419.828965762516
 30
0.0
  0
ENDBLK
  5
82F
330
824
100
AcDbEntity
  8
0
 62
     0
100
AcDbBlockEnd
  0
BLOCK
  5
831
330
830
100
AcDbEntity
  8
0
 62
     0
100
AcDbBlockBegin
  2
*D25
 70
     1
 10
0.0
 20
0.0
 30
0.0
  3
*D25
  1

  0
LINE
  5
832
330
830
100
AcDbEntity
  8
AM_5
  6
ByBlock
100
AcDbLine
 10
29393.78851396909
 20
5733.562622366648
 30
0.0
 11
29393.78851396909
 21
5673.326983881063
 31
0.0
  0
LINE
  5
833
330
830
100
AcDbEntity
  8
AM_5
  6
ByBlock
100
AcDbLine
 10
29343.788513968
 20
5733.562622366648
 30
0.0
 11
29343.788513968
 21
5673.326983881063
 31
0.0
  0
LINE
  5
834
330
830
100
AcDbEntity
  8
AM_5
  6
ByBlock
100
AcDbLine
 10
29376.28851396909
 20
5678.326983881063
 30
0.0
 11
29361.288513968
 21
5678.326983881063
 31
0.0
  0
SOLID
  5
835
330
830
100
AcDbEntity
  8
AM_5
100
AcDbTrace
 10
29376.28851396909
 20
5681.24365054773
 30
0.0
 11
29376.28851396909
 21
5675.410317214396
 31
0.0
 12
29393.78851396909
 22
5678.326983881063
 32
0.0
 13
29393.78851396909
 23
5678.326983881063
 33
0.0
  0
SOLID
  5
836
330
830
100
AcDbEntity
  8
AM_5
100
AcDbTrace
 10
29361.288513968
 20
5681.24365054773
 30
0.0
 11
29361.288513968
 21
5675.410317214396
 31
0.0
 12
29343.788513968
 22
5678.326983881063
 32
0.0
 13
29343.788513968
 23
5678.326983881063
 33
0.0
  0
MTEXT
  5
837
330
830
100
AcDbEntity
  8
AM_5
 62
     2
100
AcDbMText
 10
29368.88369491975
 20
5694.576983881063
 30
0.0
 40
17.5
 41
0.0
 71
     5
 72
     1
  1
%%c50
 73
     1
 44
1.0
1001
ACAD
1000
MTEXTBEGIN
1070
    73
1070
     1
1070
    44
1040
1.0
1070
    74
1070
     0
1000
MTEXTEND
  0
POINT
  5
838
330
830
100
AcDbEntity
  8
DEFPOINTS
 62
     0
100
AcDbPoint
 10
29393.78851396909
 20
5738.562622366647
 30
0.0
  0
POINT
  5
839
330
830
100
AcDbEntity
  8
DEFPOINTS
 62
     0
100
AcDbPoint
 10
29343.788513968
 20
5738.562622366647
 30
0.0
  0
POINT
  5
83A
330
830
100
AcDbEntity
  8
DEFPOINTS
 62
     0
100
AcDbPoint
 10
29343.788513968
 20
5678.326983881063
 30
0.0
  0
ENDBLK
  5
83B
330
830
100
AcDbEntity
  8
0
 62
     0
100
AcDbBlockEnd
  0
BLOCK
  5
921
330
920
100
AcDbEntity
  8
0
100
AcDbBlockBegin
  2
*D26
 70
     1
 10
0.0
 20
0.0
 30
0.0
  3
*D26
  1

  0
LINE
  5
EA7
330
920
100
AcDbEntity
  8
AM_5
  6
ByBlock
100
AcDbLine
 10
154.0362041760418
 20
163.0977628730251
 30
0.0
 11
154.0362041760418
 21
58.96688621784779
 31
0.0
  0
LINE
  5
EA8
330
920
100
AcDbEntity
  8
AM_5
  6
ByBlock
100
AcDbLine
 10
854.0362041760417
 20
163.4977628730266
 30
0.0
 11
854.0362041760417
 21
58.96688621784779
 31
0.0
  0
LINE
  5
EA9
330
920
100
AcDbEntity
  8
AM_5
  6
ByBlock
100
AcDbLine
 10
171.5362041760418
 20
63.96688621784779
 30
0.0
 11
836.5362041760416
 21
63.96688621784779
 31
0.0
  0
SOLID
  5
EAA
330
920
100
AcDbEntity
  8
AM_5
100
AcDbTrace
 10
171.5362041760418
 20
66.88355288451446
 30
0.0
 11
171.5362041760418
 21
61.05021955118112
 31
0.0
 12
154.0362041760418
 22
63.96688621784779
 32
0.0
 13
154.0362041760418
 23
63.96688621784779
 33
0.0
  0
SOLID
  5
EAB
330
920
100
AcDbEntity
  8
AM_5
100
AcDbTrace
 10
836.5362041760416
 20
66.88355288451446
 30
0.0
 11
836.5362041760416
 21
61.05021955118112
 31
0.0
 12
854.0362041760417
 22
63.96688621784779
 32
0.0
 13
854.0362041760417
 23
63.96688621784779
 33
0.0
  0
MTEXT
  5
EAC
330
920
100
AcDbEntity
  8
AM_5
 62
     2
100
AcDbMText
 10
504.0362041760418
 20
80.21688621784779
 30
0.0
 40
17.5
 41
0.0
 71
     5
 72
     1
  1
700
 73
     1
 44
1.0
1001
ACAD
1000
MTEXTBEGIN
1070
    73
1070
     1
1070
    44
1040
1.0
1070
    74
1070
     0
1000
MTEXTEND
  0
POINT
  5
EAD
330
920
100
AcDbEntity
  8
DEFPOINTS
 62
     0
100
AcDbPoint
 10
154.0362041760418
 20
168.0977628730252
 30
0.0
  0
POINT
  5
EAE
330
920
100
AcDbEntity
  8
DEFPOINTS
 62
     0
100
AcDbPoint
 10
854.0362041760417
 20
168.4977628730266
 30
0.0
  0
POINT
  5
EAF
330
920
100
AcDbEntity
  8
DEFPOINTS
 62
     0
100
AcDbPoint
 10
854.0362041760417
 20
63.96688621784779
 30
0.0
  0
ENDBLK
  5
922
330
920
100
AcDbEntity
  8
0
100
AcDbBlockEnd
  0
BLOCK
  5
92D
330
92C
100
AcDbEntity
  8
0
100
AcDbBlockBegin
  2
*D27
 70
     1
 10
0.0
 20
0.0
 30
0.0
  3
*D27
  1

  0
LINE
  5
EB0
330
92C
100
AcDbEntity
  8
AM_5
  6
ByBlock
100
AcDbLine
 10
124.0362041760418
 20
131.4877628730528
 30
0.0
 11
124.0362041760417
 21
0.0000000678464858
 31
0.0
  0
LINE
  5
EB1
330
92C
100
AcDbEntity
  8
AM_5
  6
ByBlock
100
AcDbLine
 10
884.0362041760416
 20
131.4877628730528
 30
0.0
 11
884.0362041760416
 21
0.0000000678464858
 31
0.0
  0
LINE
  5
EB2
330
92C
100
AcDbEntity
  8
AM_5
  6
ByBlock
100
AcDbLine
 10
141.5362041760418
 20
5.000000067846485
 30
0.0
 11
866.5362041760415
 21
5.000000067846485
 31
0.0
  0
SOLID
  5
EB3
330
92C
100
AcDbEntity
  8
AM_5
100
AcDbTrace
 10
141.5362041760418
 20
7.916666734513151
 30
0.0
 11
141.5362041760418
 21
2.083333401179819
 31
0.0
 12
124.0362041760417
 22
5.000000067846485
 32
0.0
 13
124.0362041760417
 23
5.000000067846485
 33
0.0
  0
SOLID
  5
EB4
330
92C
100
AcDbEntity
  8
AM_5
100
AcDbTrace
 10
866.5362041760415
 20
7.916666734513151
 30
0.0
 11
866.5362041760415
 21
2.083333401179819
 31
0.0
 12
884.0362041760416
 22
5.000000067846485
 32
0.0
 13
884.0362041760416
 23
5.000000067846485
 33
0.0
  0
MTEXT
  5
EB5
330
92C
100
AcDbEntity
  8
AM_5
 62
     2
100
AcDbMText
 10
504.0362041760418
 20
21.25000006784649
 30
0.0
 40
17.5
 41
0.0
 71
     5
 72
     1
  1
760
 73
     1
 44
1.0
1001
ACAD
1000
MTEXTBEGIN
1070
    73
1070
     1
1070
    44
1040
1.0
1070
    74
1070
     0
1000
MTEXTEND
  0
POINT
  5
EB6
330
92C
100
AcDbEntity
  8
DEFPOINTS
 62
     0
100
AcDbPoint
 10
124.0362041760418
 20
136.4877628730528
 30
0.0
  0
POINT
  5
EB7
330
92C
100
AcDbEntity
  8
DEFPOINTS
 62
     0
100
AcDbPoint
 10
884.0362041760416
 20
136.4877628730528
 30
0.0
  0
POINT
  5
EB8
330
92C
100
AcDbEntity
  8
DEFPOINTS
 62
     0
100
AcDbPoint
 10
884.0362041760416
 20
5.000000067846485
 30
0.0
  0
ENDBLK
  5
92E
330
92C
100
AcDbEntity
  8
0
100
AcDbBlockEnd
  0
BLOCK
  5
939
330
938
100
AcDbEntity
  8
0
100
AcDbBlockBegin
  2
*D28
 70
     1
 10
0.0
 20
0.0
 30
0.0
  3
*D28
  1

  0
LINE
  5
EB9
330
938
100
AcDbEntity
  8
AM_5
  6
ByBlock
100
AcDbLine
 10
150.0362041760418
 20
578.8997631827522
 30
0.0
 11
90.03620417604178
 21
578.8997631827522
 31
0.0
  0
LINE
  5
EBA
330
938
100
AcDbEntity
  8
AM_5
  6
ByBlock
100
AcDbLine
 10
150.0362041760418
 20
652.8997631827543
 30
0.0
 11
90.0362041760418
 21
652.8997631827543
 31
0.0
  0
LINE
  5
EBB
330
938
100
AcDbEntity
  8
AM_5
  6
ByBlock
100
AcDbLine
 10
95.03620417604178
 20
596.3997631827522
 30
0.0
 11
95.0362041760418
 21
635.3997631827543
 31
0.0
  0
SOLID
  5
EBC
330
938
100
AcDbEntity
  8
AM_5
100
AcDbTrace
 10
92.1195375093751
 20
596.3997631827522
 30
0.0
 11
97.95287084270846
 21
596.3997631827522
 31
0.0
 12
95.03620417604178
 22
578.8997631827522
 32
0.0
 13
95.03620417604178
 23
578.8997631827522
 33
0.0
  0
SOLID
  5
EBD
330
938
100
AcDbEntity
  8
AM_5
100
AcDbTrace
 10
92.11953750937512
 20
635.3997631827543
 30
0.0
 11
97.95287084270846
 21
635.3997631827543
 31
0.0
 12
95.0362041760418
 22
652.8997631827543
 32
0.0
 13
95.0362041760418
 23
652.8997631827543
 33
0.0
  0
MTEXT
  5
EBE
330
938
100
AcDbEntity
  8
AM_5
 62
     2
100
AcDbMText
 10
78.78620417604169
 20
615.8997631827532
 30
0.0
 40
17.5
 41
0.0
 71
     5
 72
     1
  1
74
 11
0.0000000000000001
 21
1.0
 31
0.0
 73
     1
 44
1.0
1001
ACAD
1000
MTEXTBEGIN
1070
    73
1070
     1
1070
    44
1040
1.0
1070
    74
1070
     0
1000
MTEXTEND
  0
POINT
  5
EBF
330
938
100
AcDbEntity
  8
DEFPOINTS
 62
     0
100
AcDbPoint
 10
155.0362041760418
 20
578.8997631827522
 30
0.0
  0
POINT
  5
EC0
330
938
100
AcDbEntity
  8
DEFPOINTS
 62
     0
100
AcDbPoint
 10
155.0362041760418
 20
652.8997631827543
 30
0.0
  0
POINT
  5
EC1
330
938
100
AcDbEntity
  8
DEFPOINTS
 62
     0
100
AcDbPoint
 10
95.0362041760418
 20
652.8997631827543
 30
0.0
  0
ENDBLK
  5
93A
330
938
100
AcDbEntity
  8
0
100
AcDbBlockEnd
  0
BLOCK
  5
945
330
944
100
AcDbEntity
  8
0
100
AcDbBlockBegin
  2
*D29
 70
     1
 10
0.0
 20
0.0
 30
0.0
  3
*D29
  1

  0
LINE
  5
EC2
330
944
100
AcDbEntity
  8
AM_5
  6
ByBlock
100
AcDbLine
 10
119.0362041760418
 20
269.4777628730225
 30
0.0
 11
19.12499847989241
 21
269.4777628730225
 31
0.0
  0
LINE
  5
EC3
330
944
100
AcDbEntity
  8
AM_5
  6
ByBlock
100
AcDbLine
 10
119.0362041760418
 20
136.487762873744
 30
0.0
 11
19.12499847989239
 21
136.487762873744
 31
0.0
  0
LINE
  5
EC4
330
944
100
AcDbEntity
  8
AM_5
  6
ByBlock
100
AcDbLine
 10
24.12499847989242
 20
251.9777628730225
 30
0.0
 11
24.1249984798924
 21
153.987762873744
 31
0.0
  0
SOLID
  5
EC5
330
944
100
AcDbEntity
  8
AM_5
100
AcDbTrace
 10
21.20833181322575
 20
251.9777628730225
 30
0.0
 11
27.04166514655909
 21
251.9777628730225
 31
0.0
 12
24.12499847989242
 22
269.4777628730225
 32
0.0
 13
24.12499847989242
 23
269.4777628730225
 33
0.0
  0
SOLID
  5
EC6
330
944
100
AcDbEntity
  8
AM_5
100
AcDbTrace
 10
21.20833181322573
 20
153.987762873744
 30
0.0
 11
27.04166514655907
 21
153.987762873744
 31
0.0
 12
24.1249984798924
 22
136.487762873744
 32
0.0
 13
24.1249984798924
 23
136.487762873744
 33
0.0
  0
MTEXT
  5
EC7
330
944
100
AcDbEntity
  8
AM_5
 62
     2
100
AcDbMText
 10
7.874998479892374
 20
207.7537229431928
 30
0.0
 40
17.5
 41
0.0
 71
     5
 72
     1
  1
133
 11
0.0000000000000001
 21
1.0
 31
0.0
 73
     1
 44
1.0
1001
ACAD
1000
MTEXTBEGIN
1070
    73
1070
     1
1070
    44
1040
1.0
1070
    74
1070
     0
1000
MTEXTEND
  0
POINT
  5
EC8
330
944
100
AcDbEntity
  8
DEFPOINTS
 62
     0
100
AcDbPoint
 10
124.0362041760418
 20
269.4777628730225
 30
0.0
  0
POINT
  5
EC9
330
944
100
AcDbEntity
  8
DEFPOINTS
 62
     0
100
AcDbPoint
 10
124.0362041760418
 20
136.487762873744
 30
0.0
  0
POINT
  5
ECA
330
944
100
AcDbEntity
  8
DEFPOINTS
 62
     0
100
AcDbPoint
 10
24.1249984798924
 20
136.487762873744
 30
0.0
  0
ENDBLK
  5
946
330
944
100
AcDbEntity
  8
0
100
AcDbBlockEnd
  0
BLOCK
  5
951
330
950
100
AcDbEntity
  8
0
100
AcDbBlockBegin
  2
*D30
 70
     1
 10
0.0
 20
0.0
 30
0.0
  3
*D30
  1

  0
LINE
  5
ECB
330
950
100
AcDbEntity
  8
AM_5
  6
ByBlock
100
AcDbLine
 10
151.0362041760449
 20
248.4777628730226
 30
0.0
 11
90.58165861992165
 21
248.4777628730226
 31
0.0
  0
LINE
  5
ECC
330
950
100
AcDbEntity
  8
AM_5
  6
ByBlock
100
AcDbLine
 10
151.0362041760563
 20
166.4877628730246
 30
0.0
 11
90.58165861992163
 21
166.4877628730246
 31
0.0
  0
LINE
  5
ECD
330
950
100
AcDbEntity
  8
AM_5
  6
ByBlock
100
AcDbLine
 10
95.58165861992165
 20
230.9777628730226
 30
0.0
 11
95.58165861992163
 21
183.9877628730246
 31
0.0
  0
SOLID
  5
ECE
330
950
100
AcDbEntity
  8
AM_5
100
AcDbTrace
 10
92.66499195325499
 20
230.9777628730226
 30
0.0
 11
98.49832528658833
 21
230.9777628730226
 31
0.0
 12
95.58165861992165
 22
248.4777628730226
 32
0.0
 13
95.58165861992165
 23
248.4777628730226
 33
0.0
  0
SOLID
  5
ECF
330
950
100
AcDbEntity
  8
AM_5
100
AcDbTrace
 10
92.66499195325497
 20
183.9877628730246
 30
0.0
 11
98.49832528658831
 21
183.9877628730246
 31
0.0
 12
95.58165861992163
 22
166.4877628730246
 32
0.0
 13
95.58165861992163
 23
166.4877628730246
 33
0.0
  0
MTEXT
  5
ED0
330
950
100
AcDbEntity
  8
AM_5
 62
     2
100
AcDbMText
 10
79.32993617897672
 20
207.4827628730236
 30
0.0
 40
17.5
 41
0.0
 71
     5
 72
     1
  1
82
 11
0.0000000000000001
 21
1.0
 31
0.0
 73
     1
 44
1.0
1001
ACAD
1000
MTEXTBEGIN
1070
    73
1070
     1
1070
    44
1040
1.0
1070
    74
1070
     0
1000
MTEXTEND
  0
POINT
  5
ED1
330
950
100
AcDbEntity
  8
DEFPOINTS
 62
     0
100
AcDbPoint
 10
156.0362041760449
 20
248.4777628730226
 30
0.0
  0
POINT
  5
ED2
330
950
100
AcDbEntity
  8
DEFPOINTS
 62
     0
100
AcDbPoint
 10
156.0362041760563
 20
166.4877628730246
 30
0.0
  0
POINT
  5
ED3
330
950
100
AcDbEntity
  8
DEFPOINTS
 62
     0
100
AcDbPoint
 10
95.58165861992163
 20
166.4877628730246
 30
0.0
  0
ENDBLK
  5
952
330
950
100
AcDbEntity
  8
0
100
AcDbBlockEnd
  0
BLOCK
  5
95D
330
95C
100
AcDbEntity
  8
0
100
AcDbBlockBegin
  2
*D31
 70
     1
 10
0.0
 20
0.0
 30
0.0
  3
*D31
  1

  0
LINE
  5
F2C
330
95C
100
AcDbEntity
  8
AM_5
  6
ByBlock
100
AcDbLine
 10
529.0362041861633
 20
485.1174490297804
 30
0.0
 11
529.0362041861633
 21
419.9857809915719
 31
0.0
  0
LINE
  5
F2D
330
95C
100
AcDbEntity
  8
AM_5
  6
ByBlock
100
AcDbLine
 10
479.0362041855265
 20
485.1174490297804
 30
0.0
 11
479.0362041855265
 21
419.9857809915719
 31
0.0
  0
LINE
  5
F2E
330
95C
100
AcDbEntity
  8
AM_5
  6
ByBlock
100
AcDbLine
 10
511.5362041861633
 20
424.985780991572
 30
0.0
 11
496.5362041855265
 21
424.985780991572
 31
0.0
  0
SOLID
  5
F2F
330
95C
100
AcDbEntity
  8
AM_5
100
AcDbTrace
 10
511.5362041861633
 20
427.9024476582387
 30
0.0
 11
511.5362041861633
 21
422.0691143249053
 31
0.0
 12
529.0362041861633
 22
424.985780991572
 32
0.0
 13
529.0362041861633
 23
424.985780991572
 33
0.0
  0
SOLID
  5
F30
330
95C
100
AcDbEntity
  8
AM_5
100
AcDbTrace
 10
496.5362041855265
 20
427.9024476582387
 30
0.0
 11
496.5362041855265
 21
422.0691143249053
 31
0.0
 12
479.0362041855265
 22
424.985780991572
 32
0.0
 13
479.0362041855265
 23
424.985780991572
 33
0.0
  0
MTEXT
  5
F31
330
95C
100
AcDbEntity
  8
AM_5
 62
     2
100
AcDbMText
 10
504.1313851454543
 20
441.235780991572
 30
0.0
 40
17.5
 41
0.0
 71
     5
 72
     1
  1
%%c50
 73
     1
 44
1.0
1001
ACAD
1000
MTEXTBEGIN
1070
    73
1070
     1
1070
    44
1040
1.0
1070
    74
1070
     0
1000
MTEXTEND
  0
POINT
  5
F32
330
95C
100
AcDbEntity
  8
DEFPOINTS
 62
     0
100
AcDbPoint
 10
529.0362041861633
 20
490.1174490297804
 30
0.0
  0
POINT
  5
F33
330
95C
100
AcDbEntity
  8
DEFPOINTS
 62
     0
100
AcDbPoint
 10
479.0362041855265
 20
490.1174490297804
 30
0.0
  0
POINT
  5
F34
330
95C
100
AcDbEntity
  8
DEFPOINTS
 62
     0
100
AcDbPoint
 10
479.0362041855265
 20
424.985780991572
 30
0.0
  0
ENDBLK
  5
95E
330
95C
100
AcDbEntity
  8
0
100
AcDbBlockEnd
  0
BLOCK
  5
999
330
998
100
AcDbEntity
  8
0
100
AcDbBlockBegin
  2
*D32
 70
     1
 10
0.0
 20
0.0
 30
0.0
  3
*D32
  1

  0
LINE
  5
EDD
330
998
100
AcDbEntity
  8
AM_5
  6
ByBlock
100
AcDbLine
 10
889.0362041760415
 20
692.8997631827536
 30
0.0
 11
961.2802545362519
 21
692.8997631827536
 31
0.0
  0
LINE
  5
EDE
330
998
100
AcDbEntity
  8
AM_5
  6
ByBlock
100
AcDbLine
 10
857.0362041760416
 20
652.8997631827543
 30
0.0
 11
961.2802545362519
 21
652.8997631827543
 31
0.0
  0
LINE
  5
EDF
330
998
100
AcDbEntity
  8
AM_5
  6
ByBlock
100
AcDbLine
 10
956.2802545362519
 20
710.3997631827536
 30
0.0
 11
956.2802545362519
 21
727.8997631827536
 31
0.0
  0
LINE
  5
EE0
330
998
100
AcDbEntity
  8
AM_5
  6
ByBlock
100
AcDbLine
 10
956.2802545362519
 20
635.3997631827543
 30
0.0
 11
956.2802545362519
 21
617.8997631827543
 31
0.0
  0
LINE
  5
EE1
330
998
100
AcDbEntity
  8
AM_5
  6
ByBlock
100
AcDbLine
 10
956.2802545362519
 20
692.8997631827536
 30
0.0
 11
956.2802545362519
 21
652.8997631827543
 31
0.0
  0
SOLID
  5
EE2
330
998
100
AcDbEntity
  8
AM_5
100
AcDbTrace
 10
953.3635878695854
 20
710.3997631827536
 30
0.0
 11
959.1969212029185
 21
710.3997631827536
 31
0.0
 12
956.2802545362519
 22
692.8997631827536
 32
0.0
 13
956.2802545362519
 23
692.8997631827536
 33
0.0
  0
SOLID
  5
EE3
330
998
100
AcDbEntity
  8
AM_5
100
AcDbTrace
 10
953.3635878695854
 20
635.3997631827543
 30
0.0
 11
959.1969212029185
 21
635.3997631827543
 31
0.0
 12
956.2802545362519
 22
652.8997631827543
 32
0.0
 13
956.2802545362519
 23
652.8997631827543
 33
0.0
  0
MTEXT
  5
EE4
330
998
100
AcDbEntity
  8
AM_5
 62
     2
100
AcDbMText
 10
940.0302545362519
 20
672.8997631827541
 30
0.0
 40
17.5
 41
0.0
 71
     5
 72
     1
  1
40
 11
0.0000000000000001
 21
1.0
 31
0.0
 73
     1
 44
1.0
1001
ACAD
1000
MTEXTBEGIN
1070
    73
1070
     1
1070
    44
1040
1.0
1070
    74
1070
     0
1000
MTEXTEND
  0
POINT
  5
EE5
330
998
100
AcDbEntity
  8
DEFPOINTS
 62
     0
100
AcDbPoint
 10
884.0362041760416
 20
692.8997631827536
 30
0.0
  0
POINT
  5
EE6
330
998
100
AcDbEntity
  8
DEFPOINTS
 62
     0
100
AcDbPoint
 10
852.0362041760417
 20
652.8997631827543
 30
0.0
  0
POINT
  5
EE7
330
998
100
AcDbEntity
  8
DEFPOINTS
 62
     0
100
AcDbPoint
 10
956.2802545362519
 20
652.8997631827543
 30
0.0
  0
ENDBLK
  5
99A
330
998
100
AcDbEntity
  8
0
100
AcDbBlockEnd
  0
BLOCK
  5
B14
330
B13
100
AcDbEntity
  8
0
100
AcDbBlockBegin
  2
*D33
 70
     1
 10
0.0
 20
0.0
 30
0.0
  3
*D33
  1

  0
LINE
  5
EE8
330
B13
100
AcDbEntity
  8
AM_5
  6
ByBlock
100
AcDbLine
 10
889.0362041760415
 20
268.4777628730225
 30
0.0
 11
947.6095382438973
 21
268.4777628730225
 31
0.0
  0
LINE
  5
EE9
330
B13
100
AcDbEntity
  8
AM_5
  6
ByBlock
100
AcDbLine
 10
857.0362041760416
 20
248.4777628730226
 30
0.0
 11
947.6095382438971
 21
248.4777628730226
 31
0.0
  0
LINE
  5
EEA
330
B13
100
AcDbEntity
  8
AM_5
  6
ByBlock
100
AcDbLine
 10
942.6095382438973
 20
285.9777628730224
 30
0.0
 11
942.6095382438973
 21
303.4777628730225
 31
0.0
  0
LINE
  5
EEB
330
B13
100
AcDbEntity
  8
AM_5
  6
ByBlock
100
AcDbLine
 10
942.6095382438971
 20
230.9777628730226
 30
0.0
 11
942.6095382438971
 21
178.769593581684
 31
0.0
  0
LINE
  5
EEC
330
B13
100
AcDbEntity
  8
AM_5
  6
ByBlock
100
AcDbLine
 10
942.6095382438973
 20
268.4777628730225
 30
0.0
 11
942.6095382438971
 21
248.4777628730226
 31
0.0
  0
SOLID
  5
EED
330
B13
100
AcDbEntity
  8
AM_5
100
AcDbTrace
 10
939.6928715772306
 20
285.9777628730224
 30
0.0
 11
945.5262049105639
 21
285.9777628730224
 31
0.0
 12
942.6095382438973
 22
268.4777628730225
 32
0.0
 13
942.6095382438973
 23
268.4777628730225
 33
0.0
  0
SOLID
  5
EEE
330
B13
100
AcDbEntity
  8
AM_5
100
AcDbTrace
 10
939.6928715772306
 20
230.9777628730226
 30
0.0
 11
945.5262049105638
 21
230.9777628730226
 31
0.0
 12
942.6095382438971
 22
248.4777628730226
 32
0.0
 13
942.6095382438971
 23
248.4777628730226
 33
0.0
  0
MTEXT
  5
EEF
330
B13
100
AcDbEntity
  8
AM_5
 62
     2
100
AcDbMText
 10
926.3578158029524
 20
196.1236782273534
 30
0.0
 40
17.5
 41
0.0
 71
     5
 72
     1
  1
20
 11
0.0000000000000001
 21
1.0
 31
0.0
 73
     1
 44
1.0
1001
ACAD
1000
MTEXTBEGIN
1070
    73
1070
     1
1070
    44
1040
1.0
1070
    74
1070
     0
1000
MTEXTEND
  0
POINT
  5
EF0
330
B13
100
AcDbEntity
  8
DEFPOINTS
 62
     0
100
AcDbPoint
 10
884.0362041760416
 20
268.4777628730225
 30
0.0
  0
POINT
  5
EF1
330
B13
100
AcDbEntity
  8
DEFPOINTS
 62
     0
100
AcDbPoint
 10
852.0362041760417
 20
248.4777628730226
 30
0.0
  0
POINT
  5
EF2
330
B13
100
AcDbEntity
  8
DEFPOINTS
 62
     0
100
AcDbPoint
 10
942.6095382438971
 20
248.4777628730226
 30
0.0
  0
ENDBLK
  5
B15
330
B13
100
AcDbEntity
  8
0
100
AcDbBlockEnd
  0
ENDSEC
  0
SECTION
  2
ENTITIES
  0
LINE
  5
8B1
330
1F
100
AcDbEntity
  8
RUNDUNGEN
  6
Continuous
 62
     7
100
AcDbLine
 10
156.0362041760418
 20
633.221419477155
 30
0.0
 11
156.0362041760418
 21
638.8997631827542
 31
0.0
  0
LINE
  5
8B2
330
1F
100
AcDbEntity
  8
0
  6
Continuous
 62
     7
100
AcDbLine
 10
156.0362041760418
 20
638.8997631827542
 30
0.0
 11
156.0362041760418
 21
639.8997631827524
 31
0.0
  0
LINE
  5
8B3
330
1F
100
AcDbEntity
  8
RUNDUNGEN
  6
Continuous
 62
     7
100
AcDbLine
 10
156.0362041760418
 20
639.8997631827524
 30
0.0
 11
156.0362041760418
 21
652.8997631827543
 31
0.0
  0
LINE
  5
8B4
330
1F
100
AcDbEntity
  8
RUNDUNGEN
  6
Continuous
 62
     7
100
AcDbLine
 10
156.0362041760418
 20
652.8997631827524
 30
0.0
 11
852.0362041760417
 21
652.8997631827543
 31
0.0
  0
LINE
  5
8B5
330
1F
100
AcDbEntity
  8
0
  6
Continuous
 62
     7
100
AcDbLine
 10
853.0362041760417
 20
639.8997631827524
 30
0.0
 11
155.0362041760418
 21
639.8997631827551
 31
0.0
  0
LINE
  5
8B6
330
1F
100
AcDbEntity
  8
0
  6
Continuous
 62
     7
100
AcDbLine
 10
853.0362041760417
 20
638.8997631827542
 30
0.0
 11
155.0362041760418
 21
638.8997631827524
 31
0.0
  0
LINE
  5
8B7
330
1F
100
AcDbEntity
  8
RUNDUNGEN
  6
Continuous
 62
     9
100
AcDbLine
 10
156.0362041760563
 20
636.8237049605567
 30
0.0
 11
852.0362041760417
 21
636.8237049605538
 31
0.0
  0
LINE
  5
8B8
330
1F
100
AcDbEntity
  8
RUNDUNGEN
  6
Continuous
 62
     7
100
AcDbLine
 10
852.0362041760561
 20
633.221419477155
 30
0.0
 11
542.5077551008398
 21
633.221419477155
 31
0.0
  0
LINE
  5
8B9
330
1F
100
AcDbEntity
  8
RUNDUNGEN
  6
Continuous
 62
     7
100
AcDbLine
 10
465.5646532512546
 20
633.221419477155
 30
0.0
 11
156.0362041760563
 21
633.221419477155
 31
0.0
  0
LINE
  5
8BA
330
1F
100
AcDbEntity
  8
RUNDUNGEN
  6
Continuous
 62
     7
100
AcDbLine
 10
852.0362041760417
 20
652.8997631827543
 30
0.0
 11
852.0362041760417
 21
639.8997631827524
 31
0.0
  0
LINE
  5
8BB
330
1F
100
AcDbEntity
  8
RUNDUNGEN
  6
Continuous
 62
     7
100
AcDbLine
 10
852.0362041760417
 20
638.8997631827542
 30
0.0
 11
852.0362041760417
 21
633.221419477155
 31
0.0
  0
LINE
  5
8BC
330
1F
100
AcDbEntity
  8
RUNDUNGEN
  6
Continuous
 62
     7
100
AcDbLine
 10
156.0362041760563
 20
136.4877628730528
 30
0.0
 11
156.0362041760429
 21
268.4777628730223
 31
0.0
  0
LINE
  5
8BD
330
1F
100
AcDbEntity
  8
0
  6
Continuous
 62
     7
100
AcDbLine
 10
852.0362041760428
 20
269.4777628730244
 30
0.0
 11
156.0362041760429
 21
269.4777628730225
 31
0.0
  0
LINE
  5
8BF
330
1F
100
AcDbEntity
  8
RUNDUNGEN
  6
Continuous
 62
     7
100
AcDbLine
 10
156.0362041760563
 20
248.4777628730226
 30
0.0
 11
852.0362041760417
 21
248.4777628730226
 31
0.0
  0
LINE
  5
8C0
330
1F
100
AcDbEntity
  8
RUNDUNGEN
  6
Continuous
 62
     7
100
AcDbLine
 10
156.0362041760563
 20
208.4877628723825
 30
0.0
 11
466.0364290619543
 21
208.4877628726817
 31
0.0
  0
LINE
  5
8C1
330
1F
100
AcDbEntity
  8
RUNDUNGEN
  6
Continuous
 62
     7
100
AcDbLine
 10
541.5362041760418
 20
208.4877628718814
 30
0.0
 11
852.0362041760417
 21
208.4877628723825
 31
0.0
  0
LINE
  5
8C2
330
1F
100
AcDbEntity
  8
RUNDUNGEN
  6
Continuous
 62
     7
100
AcDbLine
 10
156.0362041760563
 20
168.4977628730257
 30
0.0
 11
852.0362041760417
 21
168.4977628730266
 31
0.0
  0
LINE
  5
8C3
330
1F
100
AcDbEntity
  8
RUNDUNGEN
  6
Continuous
 62
     7
100
AcDbLine
 10
156.0362041760563
 20
166.4877628730246
 30
0.0
 11
852.0362041760417
 21
166.4877628730246
 31
0.0
  0
LINE
  5
8C4
330
1F
100
AcDbEntity
  8
0
  6
Continuous
 62
     7
100
AcDbLine
 10
852.0362041760417
 20
136.4877628730528
 30
0.0
 11
156.0362041760563
 21
136.4877628730528
 31
0.0
  0
LINE
  5
8C5
330
1F
100
AcDbEntity
  8
RUNDUNGEN
  6
Continuous
 62
     7
100
AcDbLine
 10
852.0362041760561
 20
268.4777628730224
 30
0.0
 11
852.0362041760417
 21
136.4877628730528
 31
0.0
  0
LINE
  5
8C6
330
1F
100
AcDbEntity
  8
RUNDUNGEN
  6
Continuous
 62
     7
100
AcDbLine
 10
466.5504636744408
 20
208.4877628660824
 30
0.0
 11
466.5362041760418
 21
208.4877628662834
 31
0.0
  0
LINE
  5
8C7
330
1F
100
AcDbEntity
  8
RUNDUNGEN
  6
Continuous
 62
     7
100
AcDbLine
 10
466.5362041760418
 20
208.4877628662834
 30
0.0
 11
466.0364290619543
 21
208.4877628720815
 31
0.0
  0
LINE
  5
8C8
330
1F
100
AcDbEntity
  8
RUNDUNGEN
  6
Continuous
 62
     7
100
AcDbLine
 10
541.5219446777553
 20
208.4877628785825
 30
0.0
 11
541.5362041760418
 21
208.4877628783833
 31
0.0
  0
LINE
  5
8C9
330
1F
100
AcDbEntity
  8
AM_7
100
AcDbLine
 10
504.0362041760418
 20
595.0881957839292
 30
0.0
 11
504.0362041760418
 21
664.899763182754
 31
0.0
1001
GENIUS_GENOBJ-N-CEN_13
1002
{
1000
OWNER
1000
GEN
1002
}
1001
GENIUS_GENODEF_13
1002
{
1000
HIER
1070
     0
1002
}
1002
{
1000
MANEDIT
1070
     0
1002
}
1002
{
1000
NOSEL
1070
     0
1002
}
1002
{
1000
BEHIND
1070
     0
1002
}
1002
{
1000
OTHER
1070
     0
1002
}
1002
{
1000
REACTOR
1002
}
1001
GENIUS_GENCEN_19
1002
{
1040
12.0
1002
}
  0
LINE
  5
8CA
330
1F
100
AcDbEntity
  8
0
100
AcDbLine
 10
852.0362041760417
 20
268.4777628730225
 30
0.0
 11
852.0362041760417
 21
136.4877628730528
 31
0.0
  0
LINE
  5
8CB
330
1F
100
AcDbEntity
  8
0
100
AcDbLine
 10
156.0362041760563
 20
136.4877628730528
 30
0.0
 11
156.0362041760429
 21
268.4777628730225
 31
0.0
  0
LINE
  5
8CC
330
1F
100
AcDbEntity
  8
0
100
AcDbLine
 10
466.5642368999906
 20
632.2502730588138
 30
0.0
 11
467.0362041760418
 21
615.8997631827543
 31
0.0
  0
ARC
  5
8CD
330
1F
100
AcDbEntity
  8
0
100
AcDbCircle
 10
465.5646532512546
 20
632.2214194771557
 30
0.0
 40
1.0
100
AcDbArc
 50
1.653417926860603
 51
90.0
  0
LINE
  5
8CE
330
1F
100
AcDbEntity
  8
0
100
AcDbLine
 10
467.0362041760418
 20
615.8997631827543
 30
0.0
 11
541.0362041760418
 21
615.8997631827543
 31
0.0
  0
LINE
  5
8CF
330
1F
100
AcDbEntity
  8
0
100
AcDbLine
 10
541.0362041760418
 20
615.8997631827543
 30
0.0
 11
541.5081714521038
 21
632.2502730588138
 31
0.0
  0
ARC
  5
8D0
330
1F
100
AcDbEntity
  8
0
100
AcDbCircle
 10
542.5077551008398
 20
632.2214194771557
 30
0.0
 40
1.0
100
AcDbArc
 50
90.0
 51
178.3465820731394
  0
ARC
  5
8D1
330
1F
100
AcDbEntity
  8
0
100
AcDbCircle
 10
503.7827167944051
 20
432.2962469578551
 30
0.0
 40
204.5276150863223
100
AcDbArc
 50
89.92898875367947
 51
100.7696033285292
  0
ARC
  5
8D2
330
1F
100
AcDbEntity
  8
0
100
AcDbCircle
 10
504.2896915576854
 20
432.2962469578551
 30
0.0
 40
204.5276150863223
100
AcDbArc
 50
79.23039667147077
 51
90.07101124611207
  0
LINE
  5
8D3
330
1F
100
AcDbEntity
  8
RUNDUNGEN
  6
Continuous
 62
     7
100
AcDbLine
 10
852.0362041760417
 20
555.8997631827542
 30
0.0
 11
852.0362041760561
 21
638.899763182755
 31
0.0
  0
LINE
  5
8D4
330
1F
100
AcDbEntity
  8
RUNDUNGEN
  6
Continuous
 62
     7
100
AcDbLine
 10
852.0362041760561
 20
639.8997631827524
 30
0.0
 11
852.0362041760417
 21
651.8997631827541
 31
0.0
  0
LINE
  5
8D5
330
1F
100
AcDbEntity
  8
0
  6
Continuous
 62
     9
100
AcDbLine
 10
853.0362041760417
 20
651.8997631827541
 30
0.0
 11
853.0362041760417
 21
640.9089668559545
 31
0.0
  0
LINE
  5
8D6
330
1F
100
AcDbEntity
  8
RUNDUNGEN
  6
Continuous
 62
     7
100
AcDbLine
 10
853.0362041760417
 20
578.8997631827522
 30
0.0
 11
853.0362041760417
 21
638.8997631827542
 31
0.0
  0
LINE
  5
8D7
330
1F
100
AcDbEntity
  8
RUNDUNGEN
  6
Continuous
 62
     7
100
AcDbLine
 10
853.0362041760417
 20
639.8997631827524
 30
0.0
 11
853.0362041760417
 21
640.9089668559545
 31
0.0
  0
LINE
  5
8D8
330
1F
100
AcDbEntity
  8
RUNDUNGEN
  6
Continuous
 62
     7
100
AcDbLine
 10
854.0362041760417
 20
640.8997631827551
 30
0.0
 11
854.0362041760417
 21
651.8997631827541
 31
0.0
  0
LINE
  5
8D9
330
1F
100
AcDbEntity
  8
0
  6
Continuous
 62
     7
100
AcDbLine
 10
884.0362041760416
 20
692.8997631827536
 30
0.0
 11
884.0362041760416
 21
638.8997631827542
 31
0.0
  0
LINE
  5
8DA
330
1F
100
AcDbEntity
  8
RUNDUNGEN
  6
Continuous
 62
     7
100
AcDbLine
 10
852.0362041760417
 20
622.8997631827541
 30
0.0
 11
853.0362041760417
 21
622.8997631827541
 31
0.0
  0
LINE
  5
8DB
330
1F
100
AcDbEntity
  8
0
  6
Continuous
 62
     7
100
AcDbLine
 10
884.0362041760416
 20
638.8997631827542
 30
0.0
 11
853.0362041760417
 21
638.8997631827542
 31
0.0
  0
LINE
  5
8DC
330
1F
100
AcDbEntity
  8
RUNDUNGEN
  6
Continuous
 62
     7
100
AcDbLine
 10
853.0362041760417
 20
639.8997631827524
 30
0.0
 11
884.0362041760416
 21
639.8997631827524
 31
0.0
  0
LINE
  5
8DD
330
1F
100
AcDbEntity
  8
RUNDUNGEN
  6
Continuous
 62
     7
100
AcDbLine
 10
854.0362041760417
 20
640.8997631827551
 30
0.0
 11
853.0362041760417
 21
640.8997631827551
 31
0.0
  0
LINE
  5
8DE
330
1F
100
AcDbEntity
  8
RUNDUNGEN
  6
Continuous
 62
     7
100
AcDbLine
 10
854.0362041760417
 20
641.9089668559545
 30
0.0
 11
853.0362041760417
 21
641.9089668559545
 31
0.0
  0
LINE
  5
8DF
330
1F
100
AcDbEntity
  8
RUNDUNGEN
  6
Continuous
 62
     7
100
AcDbLine
 10
854.0362041760417
 20
642.9089668559545
 30
0.0
 11
853.0362041760417
 21
642.9089668559545
 31
0.0
  0
LINE
  5
8E0
330
1F
100
AcDbEntity
  8
RUNDUNGEN
  6
Continuous
 62
     7
100
AcDbLine
 10
854.0362041760417
 20
651.8997631827541
 30
0.0
 11
852.0362041760417
 21
651.8997631827541
 31
0.0
  0
ARC
  5
8E1
330
1F
100
AcDbEntity
  8
0
  6
Continuous
 62
     7
100
AcDbCircle
 10
855.0362041760417
 20
640.8997631827551
 30
0.0
 40
2.0
100
AcDbArc
 50
180.0
 51
210.0383073755382
  0
ARC
  5
8E2
330
1F
100
AcDbEntity
  8
RUNDUNGEN
  6
Continuous
 62
     7
100
AcDbCircle
 10
855.0362041760417
 20
640.8997631827551
 30
0.0
 40
1.0
100
AcDbArc
 50
180.0
 51
270.0
  0
ARC
  5
8E3
330
1F
100
AcDbEntity
  8
RUNDUNGEN
  6
Continuous
 62
     7
100
AcDbCircle
 10
853.0362041760417
 20
651.8997631827541
 30
0.0
 40
1.0
100
AcDbArc
 50
0.0
 51
180.0
  0
LINE
  5
8E4
330
1F
100
AcDbEntity
  8
0
100
AcDbLine
 10
852.0362041760417
 20
136.4877628730528
 30
0.0
 11
884.0362041760416
 21
136.4877628730528
 31
0.0
  0
LINE
  5
8E5
330
1F
100
AcDbEntity
  8
0
100
AcDbLine
 10
854.0362041760417
 20
248.8777628730222
 30
0.0
 11
854.0362041760417
 21
168.0977628730252
 31
0.0
  0
LINE
  5
8E6
330
1F
100
AcDbEntity
  8
0
100
AcDbLine
 10
884.0362041760416
 20
136.4877628730528
 30
0.0
 11
884.0362041760416
 21
269.4777628730225
 31
0.0
  0
LINE
  5
8E7
330
1F
100
AcDbEntity
  8
0
100
AcDbLine
 10
854.0362041760417
 20
248.8777628730222
 30
0.0
 11
852.0362041760417
 21
248.8777628730222
 31
0.0
  0
LINE
  5
8E8
330
1F
100
AcDbEntity
  8
0
100
AcDbLine
 10
852.0362041760428
 20
269.4777628730225
 30
0.0
 11
884.0362041760428
 21
269.4777628730225
 31
0.0
  0
LINE
  5
8E9
330
1F
100
AcDbEntity
  8
0
100
AcDbLine
 10
854.0362041760417
 20
168.0977628730252
 30
0.0
 11
852.0362041760417
 21
168.0977628730252
 31
0.0
  0
LINE
  5
8EA
330
1F
100
AcDbEntity
  8
0
100
AcDbLine
 10
156.0362041760418
 20
136.4877628730528
 30
0.0
 11
124.0362041760418
 21
136.4877628730528
 31
0.0
  0
LINE
  5
8EB
330
1F
100
AcDbEntity
  8
0
100
AcDbLine
 10
154.0362041760418
 20
248.8777628730222
 30
0.0
 11
154.0362041760418
 21
168.0977628730252
 31
0.0
  0
LINE
  5
8EC
330
1F
100
AcDbEntity
  8
0
100
AcDbLine
 10
124.0362041760418
 20
136.4877628730528
 30
0.0
 11
124.0362041760418
 21
269.4777628730225
 31
0.0
  0
LINE
  5
8ED
330
1F
100
AcDbEntity
  8
0
100
AcDbLine
 10
154.0362041760418
 20
248.8777628730222
 30
0.0
 11
156.0362041760418
 21
248.8777628730222
 31
0.0
  0
LINE
  5
8EE
330
1F
100
AcDbEntity
  8
0
100
AcDbLine
 10
156.0362041760429
 20
269.4777628730225
 30
0.0
 11
124.0362041760429
 21
269.4777628730225
 31
0.0
  0
LINE
  5
8EF
330
1F
100
AcDbEntity
  8
0
100
AcDbLine
 10
154.0362041760418
 20
168.0977628730252
 30
0.0
 11
156.0362041760418
 21
168.0977628730252
 31
0.0
  0
LINE
  5
8F0
330
1F
100
AcDbEntity
  8
RUNDUNGEN
  6
Continuous
 62
     7
100
AcDbLine
 10
156.0362041760418
 20
555.8997631827542
 30
0.0
 11
156.0362041760418
 21
633.221419477155
 31
0.0
  0
LINE
  5
8F1
330
1F
100
AcDbEntity
  8
0
  6
Continuous
 62
     9
100
AcDbLine
 10
155.0362041760418
 20
651.8997631827541
 30
0.0
 11
155.0362041760418
 21
640.9089668559545
 31
0.0
  0
LINE
  5
8F2
330
1F
100
AcDbEntity
  8
RUNDUNGEN
  6
Continuous
 62
     7
100
AcDbLine
 10
155.0362041760418
 20
578.8997631827551
 30
0.0
 11
155.0362041760418
 21
638.8997631827542
 31
0.0
  0
LINE
  5
8F3
330
1F
100
AcDbEntity
  8
RUNDUNGEN
  6
Continuous
 62
     7
100
AcDbLine
 10
154.0362041760418
 20
640.8997631827551
 30
0.0
 11
154.0362041760418
 21
651.8997631827541
 31
0.0
  0
LINE
  5
8F4
330
1F
100
AcDbEntity
  8
0
  6
Continuous
 62
     7
100
AcDbLine
 10
124.0362041760418
 20
692.8997631827536
 30
0.0
 11
124.0362041760418
 21
638.8997631827542
 31
0.0
  0
LINE
  5
8F5
330
1F
100
AcDbEntity
  8
RUNDUNGEN
  6
Continuous
 62
     7
100
AcDbLine
 10
156.0362041760418
 20
622.8997631827541
 30
0.0
 11
155.0362041760418
 21
622.8997631827541
 31
0.0
  0
LINE
  5
8F6
330
1F
100
AcDbEntity
  8
0
  6
Continuous
 62
     7
100
AcDbLine
 10
124.0362041760418
 20
638.8997631827542
 30
0.0
 11
155.0362041760418
 21
638.8997631827542
 31
0.0
  0
LINE
  5
8F7
330
1F
100
AcDbEntity
  8
RUNDUNGEN
  6
Continuous
 62
     7
100
AcDbLine
 10
155.0362041760418
 20
639.8997631827524
 30
0.0
 11
124.0362041760418
 21
639.8997631827524
 31
0.0
  0
LINE
  5
8F8
330
1F
100
AcDbEntity
  8
RUNDUNGEN
  6
Continuous
 62
     7
100
AcDbLine
 10
154.0362041760418
 20
640.8997631827551
 30
0.0
 11
155.0362041760418
 21
640.8997631827551
 31
0.0
  0
LINE
  5
8F9
330
1F
100
AcDbEntity
  8
RUNDUNGEN
  6
Continuous
 62
     7
100
AcDbLine
 10
154.0362041760418
 20
641.9089668559545
 30
0.0
 11
155.0362041760418
 21
641.9089668559545
 31
0.0
  0
LINE
  5
8FA
330
1F
100
AcDbEntity
  8
RUNDUNGEN
  6
Continuous
 62
     7
100
AcDbLine
 10
154.0362041760418
 20
642.9089668559545
 30
0.0
 11
155.0362041760418
 21
642.9089668559545
 31
0.0
  0
LINE
  5
8FB
330
1F
100
AcDbEntity
  8
RUNDUNGEN
  6
Continuous
 62
     7
100
AcDbLine
 10
154.0362041760418
 20
651.8997631827541
 30
0.0
 11
156.0362041760418
 21
651.8997631827541
 31
0.0
  0
ARC
  5
8FC
330
1F
100
AcDbEntity
  8
0
  6
Continuous
 62
     7
100
AcDbCircle
 10
153.0362041760418
 20
640.8997631827551
 30
0.0
 40
2.0
100
AcDbArc
 50
329.9616926244618
 51
0.0
  0
ARC
  5
8FD
330
1F
100
AcDbEntity
  8
RUNDUNGEN
  6
Continuous
 62
     7
100
AcDbCircle
 10
153.0362041760418
 20
640.8997631827551
 30
0.0
 40
1.0
100
AcDbArc
 50
270.0
 51
0.0
  0
ARC
  5
8FE
102
{ACAD_REACTORS
330
918
102
}
330
1F
100
AcDbEntity
  8
RUNDUNGEN
  6
Continuous
 62
     7
100
AcDbCircle
 10
155.0362041760418
 20
651.8997631827541
 30
0.0
 40
1.0
100
AcDbArc
 50
0.0
 51
180.0
  0
INSERT
  5
904
330
1F
100
AcDbEntity
  8
5
  6
ByBlock
100
AcDbBlockReference
  2
stutzen
 10
-91.33303206810888
 20
267.8275508215784
 30
0.0
 41
0.1000000000021828
 42
0.1000000000003638
 43
0.1
  0
LINE
  5
906
330
1F
100
AcDbEntity
  8
0
100
AcDbLine
 10
789.0362041760417
 20
533.404365019355
 30
0.0
 11
849.0362041760416
 21
533.404365019355
 31
0.0
  0
LINE
  5
907
330
1F
100
AcDbEntity
  8
0
100
AcDbLine
 10
849.0362041760416
 20
533.404365019355
 30
0.0
 11
849.0362041760416
 21
598.4043650193552
 31
0.0
  0
LINE
  5
908
330
1F
100
AcDbEntity
  8
0
100
AcDbLine
 10
849.0362041760416
 20
598.4043650193552
 30
0.0
 11
852.0362041760417
 21
598.4043650193552
 31
0.0
  0
LINE
  5
909
330
1F
100
AcDbEntity
  8
0
100
AcDbLine
 10
852.0362041760417
 20
598.4043650193552
 30
0.0
 11
852.0362041760417
 21
530.4043650193553
 31
0.0
  0
LINE
  5
90A
330
1F
100
AcDbEntity
  8
0
100
AcDbLine
 10
852.0362041760417
 20
530.4043650193553
 30
0.0
 11
789.0362041760417
 21
530.4043650193553
 31
0.0
  0
LINE
  5
90B
330
1F
100
AcDbEntity
  8
0
100
AcDbLine
 10
789.0362041760417
 20
530.4043650193553
 30
0.0
 11
789.0362041760417
 21
533.404365019355
 31
0.0
  0
LINE
  5
90C
330
1F
100
AcDbEntity
  8
0
100
AcDbLine
 10
219.0362041760418
 20
529.5605913299531
 30
0.0
 11
159.0362041760418
 21
529.5605913299531
 31
0.0
  0
LINE
  5
90D
330
1F
100
AcDbEntity
  8
0
100
AcDbLine
 10
156.0362041760418
 20
526.560591329953
 30
0.0
 11
219.0362041760418
 21
526.560591329953
 31
0.0
  0
LINE
  5
90E
330
1F
100
AcDbEntity
  8
0
100
AcDbLine
 10
159.0362041760418
 20
529.5605913299531
 30
0.0
 11
159.0362041760418
 21
594.5605913299552
 31
0.0
  0
LINE
  5
90F
330
1F
100
AcDbEntity
  8
0
100
AcDbLine
 10
159.0362041760418
 20
594.5605913299552
 30
0.0
 11
156.0362041760418
 21
594.5605913299552
 31
0.0
  0
LINE
  5
910
330
1F
100
AcDbEntity
  8
0
100
AcDbLine
 10
156.0362041760418
 20
594.5605913299552
 30
0.0
 11
156.0362041760418
 21
526.560591329953
 31
0.0
  0
LINE
  5
911
330
1F
100
AcDbEntity
  8
0
100
AcDbLine
 10
219.0362041760418
 20
526.560591329953
 30
0.0
 11
219.0362041760418
 21
529.5605913299531
 31
0.0
  0
LINE
  5
912
102
{ACAD_REACTORS
330
918
102
}
330
1F
100
AcDbEntity
  8
0
100
AcDbLine
 10
155.0362041760418
 20
578.8997631827522
 30
0.0
 11
156.0362041760418
 21
578.8997631827522
 31
0.0
  0
LINE
  5
913
330
1F
100
AcDbEntity
  8
0
100
AcDbLine
 10
852.0362041760561
 20
578.8997631827551
 30
0.0
 11
853.0362041760417
 21
578.8997631827522
 31
0.0
  0
DIMENSION
  5
914
330
1F
100
AcDbEntity
  8
AM_5
100
AcDbDimension
  2
*D26
 10
854.0362041760417
 20
63.96688621784779
 30
0.0
 11
504.0362041760418
 21
63.96688621784779
 31
0.0
 70
   160
  1
<>
 71
     5
 42
699.9999999999999
  3
AM_DIN$0
100
AcDbAlignedDimension
 13
154.0362041760418
 23
168.0977628730252
 33
0.0
 14
854.0362041760417
 24
168.4977628730266
 34
0.0
100
AcDbRotatedDimension
1001
ACAD
1000
DSTYLE
1002
{
1070
   286
1070
     0
1070
   284
1070
     8
1070
   274
1070
     4
1070
   272
1070
     3
1070
    40
1040
5.0
1070
    47
1040
1.0
1070
    48
1040
1.0
1002
}
1001
ACAD_DSTYLE_DIMINSPECT
1070
   396
1000

1070
   395
1000

1070
   394
1070
     1
1070
   393
1070
     0
  0
DIMENSION
  5
915
330
1F
100
AcDbEntity
  8
AM_5
100
AcDbDimension
  2
*D27
 10
884.0362041760416
 20
5.000000067846485
 30
0.0
 11
504.0362041760418
 21
5.000000067846485
 31
0.0
 70
   160
  1
<>
 71
     5
 42
759.9999999999997
  3
AM_DIN$0
100
AcDbAlignedDimension
 13
124.0362041760418
 23
136.4877628730528
 33
0.0
 14
884.0362041760416
 24
136.4877628730528
 34
0.0
100
AcDbRotatedDimension
1001
ACAD
1000
DSTYLE
1002
{
1070
   286
1070
     0
1070
   284
1070
     8
1070
   274
1070
     4
1070
   272
1070
     3
1070
    40
1040
5.0
1070
    47
1040
1.0
1070
    48
1040
1.0
1002
}
1001
ACAD_DSTYLE_DIMINSPECT
1070
   396
1000
100%
1070
   395
1000

1070
   394
1070
    33
1070
   393
1070
     0
  0
DIMENSION
  5
916
102
{ACAD_XDICTIONARY
360
917
102
}
102
{ACAD_REACTORS
330
918
102
}
330
1F
100
AcDbEntity
  8
AM_5
100
AcDbDimension
  2
*D28
 10
95.0362041760418
 20
652.8997631827543
 30
0.0
 11
78.78620417604169
 21
615.8997631827532
 31
0.0
 70
    32
  1
<>
 71
     5
 42
74.00000000000204
  3
AM_DIN$0
100
AcDbAlignedDimension
 13
155.0362041760418
 23
578.8997631827522
 33
0.0
 14
155.0362041760418
 24
652.8997631827543
 34
0.0
 50
90.0
100
AcDbRotatedDimension
1001
ACAD
1000
DSTYLE
1002
{
1070
   286
1070
     0
1070
   284
1070
     8
1070
   274
1070
     4
1070
   272
1070
     3
1070
    40
1040
5.0
1070
    47
1040
1.0
1070
    48
1040
1.0
1002
}
1001
ACAD_DSTYLE_DIMINSPECT
1070
   396
1000
100%
1070
   395
1000

1070
   394
1070
    33
1070
   393
1070
     0
  0
LINE
  5
919
330
1F
100
AcDbEntity
  8
AM_7
100
AcDbLine
 10
504.0362041760418
 20
208.4877628769163
 30
0.0
 11
544.0362041760416
 21
208.4877628769163
 31
0.0
1001
GENIUS_GENOREF_13
1005
91F
  0
LINE
  5
91A
330
1F
100
AcDbEntity
  8
AM_7
100
AcDbLine
 10
504.0362041760418
 20
208.4877628769163
 30
0.0
 11
464.0362041760417
 21
208.4877628769163
 31
0.0
1001
GENIUS_GENOREF_13
1005
91F
  0
LINE
  5
91B
330
1F
100
AcDbEntity
  8
AM_7
100
AcDbLine
 10
504.0362041760418
 20
272.4777628730234
 30
0.0
 11
504.0362041760418
 21
131.4877628730528
 31
0.0
1001
GENIUS_GENOBJ-N-CEN_13
1002
{
1000
OWNER
1000
GEN
1002
}
1001
GENIUS_GENODEF_13
1002
{
1000
HIER
1070
     0
1002
}
1002
{
1000
MANEDIT
1070
     0
1002
}
1002
{
1000
NOSEL
1070
     0
1002
}
1002
{
1000
BEHIND
1070
     0
1002
}
1002
{
1000
OTHER
1070
     0
1002
}
1002
{
1000
REACTOR
1002
}
1001
GENIUS_GENCEN_19
1002
{
1040
3.0
1002
}
  0
DIMENSION
  5
91C
330
1F
100
AcDbEntity
  8
AM_5
100
AcDbDimension
  2
*D29
 10
24.1249984798924
 20
136.487762873744
 30
0.0
 11
24.12499847989238
 21
207.7537229431928
 31
0.0
 70
   160
 71
     5
 42
132.9899999992785
  3
AM_DIN$0
100
AcDbAlignedDimension
 13
124.0362041760418
 23
269.4777628730225
 33
0.0
 14
124.0362041760418
 24
136.487762873744
 34
0.0
 50
90.0
100
AcDbRotatedDimension
1001
ACAD_DSTYLE_DIMINSPECT
1070
   396
1000
100%
1070
   395
1000

1070
   394
1070
    33
1070
   393
1070
     0
1001
ACAD
1000
DSTYLE
1002
{
1070
    40
1040
5.0
1070
    47
1040
1.0
1070
    48
1040
1.0
1070
   271
1070
     0
1002
}
  0
DIMENSION
  5
91D
330
1F
100
AcDbEntity
  8
AM_5
100
AcDbDimension
  2
*D30
 10
95.58165861992163
 20
166.4877628730246
 30
0.0
 11
79.32993617897672
 21
207.4827628730236
 31
0.0
 70
    32
 71
     5
 42
81.98999999999799
  3
AM_DIN$0
100
AcDbAlignedDimension
 13
156.0362041760449
 23
248.4777628730226
 33
0.0
 14
156.0362041760563
 24
166.4877628730246
 34
0.0
 50
90.0
100
AcDbRotatedDimension
1001
ACAD_DSTYLE_DIMINSPECT
1070
   396
1000
100%
1070
   395
1000

1070
   394
1070
    33
1070
   393
1070
     0
1001
ACAD
1000
DSTYLE
1002
{
1070
    40
1040
5.0
1070
    47
1040
1.0
1070
    48
1040
1.0
1070
   271
1070
     1
1002
}
  0
DIMENSION
  5
91E
330
1F
100
AcDbEntity
  8
AM_5
100
AcDbDimension
  2
*D31
 10
479.0362041855265
 20
424.985780991572
 30
0.0
 11
504.1313851454543
 21
424.985780991572
 31
0.0
 70
   160
  1
%%c<>
 71
     5
 42
50.00000000063676
  3
AM_DIN$0
100
AcDbAlignedDimension
 13
529.0362041861633
 23
490.1174490297804
 33
0.0
 14
479.0362041855265
 24
490.1174490297804
 34
0.0
100
AcDbRotatedDimension
1001
ACAD_DSTYLE_DIMINSPECT
1070
   396
1000
100%
1070
   395
1000

1070
   394
1070
    33
1070
   393
1070
     0
1001
ACAD
1000
DSTYLE
1002
{
1070
    40
1040
5.0
1070
    47
1040
1.0
1070
    48
1040
1.0
1002
}
  0
POINT
  5
91F
330
1F
100
AcDbEntity
  8
0
  6
ByBlock
 62
     0
 60
     1
100
AcDbPoint
 10
-28864.75230977429
 20
-5253.34120288949
 30
0.0
1001
GENIUS_GENOLIS_13
1002
{
1000
ENT
1005
0
1005
91A
1005
0
1005
919
1002
}
1001
GENIUS_GENOENT_13
1002
{
1000
MYREF
1005
91F
1002
}
1002
{
1000
GRP
1005
0
1002
}
1001
GENIUS_GENOBJ-N-CRS_13
1002
{
1000
OWNER
1000
GEN
1002
}
1001
GENIUS_GENODEF_13
1002
{
1000
HIER
1070
    10
1002
}
1002
{
1000
MANEDIT
1070
     1
1002
}
1002
{
1000
NOSEL
1070
     0
1002
}
1002
{
1000
BEHIND
1070
     0
1002
}
1002
{
1000
OTHER
1070
     0
1002
}
1002
{
1000
REACTOR
1002
}
  0
LINE
  5
96A
102
{ACAD_REACTORS
330
9A5
102
}
330
1F
100
AcDbEntity
  8
0
100
AcDbLine
 10
124.0362041760418
 20
692.8997631827536
 30
0.0
 11
884.0362041760416
 21
692.8997631827536
 31
0.0
  0
LINE
  5
96B
330
1F
100
AcDbEntity
  8
0
  6
Continuous
 62
     7
100
AcDbLine
 10
852.0362041760428
 20
268.4777628730243
 30
0.0
 11
156.0362041760429
 21
268.4777628730225
 31
0.0
  0
LINE
  5
96D
330
1F
100
AcDbEntity
  8
0
100
AcDbLine
 10
852.0362041760428
 20
268.4777628730225
 30
0.0
 11
884.0362041760428
 21
268.4777628730225
 31
0.0
  0
LINE
  5
96E
330
1F
100
AcDbEntity
  8
0
100
AcDbLine
 10
156.0362041760429
 20
268.4777628730225
 30
0.0
 11
124.0362041760429
 21
268.4777628730225
 31
0.0
  0
DIMENSION
  5
997
102
{ACAD_XDICTIONARY
360
9A4
102
}
102
{ACAD_REACTORS
330
9A5
102
}
330
1F
100
AcDbEntity
  8
AM_5
100
AcDbDimension
  2
*D32
 10
956.2802545362519
 20
652.8997631827543
 30
0.0
 11
940.0302545362519
 21
672.8997631827541
 31
0.0
 70
    32
 71
     5
 42
39.99999999999932
  3
AM_DIN$0
100
AcDbAlignedDimension
 13
884.0362041760416
 23
692.8997631827536
 33
0.0
 14
852.0362041760417
 24
652.8997631827543
 34
0.0
 50
90.00000000000005
100
AcDbRotatedDimension
1001
ACAD_DSTYLE_DIMINSPECT
1070
   396
1000
100%
1070
   395
1000

1070
   394
1070
    33
1070
   393
1070
     0
1001
ACAD
1000
DSTYLE
1002
{
1070
    40
1040
5.0
1070
    47
1040
1.0
1070
    48
1040
1.0
1002
}
  0
LINE
  5
AA5
330
1F
100
AcDbEntity
  8
RUNDUNGEN
  6
Continuous
 62
     7
100
AcDbLine
 10
466.5504636744408
 20
208.4877628699628
 30
0.0
 11
466.5362041760418
 21
208.4877628701638
 31
0.0
  0
LINE
  5
AA6
330
1F
100
AcDbEntity
  8
RUNDUNGEN
  6
Continuous
 62
     7
100
AcDbLine
 10
466.5362041760418
 20
208.4877628701638
 30
0.0
 11
466.0364290619543
 21
208.4877628759618
 31
0.0
  0
LINE
  5
AA7
330
1F
100
AcDbEntity
  8
RUNDUNGEN
  6
Continuous
 62
     7
100
AcDbLine
 10
541.5219446777553
 20
208.4877628824629
 30
0.0
 11
541.5362041760418
 21
208.4877628822637
 31
0.0
  0
CIRCLE
  5
AA8
330
1F
100
AcDbEntity
  8
0
  6
Continuous
 62
     7
100
AcDbCircle
 10
504.0362041760418
 20
208.4877628807967
 30
0.0
 40
37.0
  0
LINE
  5
AA9
330
1F
100
AcDbEntity
  8
RUNDUNGEN
  6
Continuous
 62
     7
100
AcDbLine
 10
466.5504636744408
 20
208.4877628660833
 30
0.0
 11
466.5362041760418
 21
208.4877628662825
 31
0.0
  0
LINE
  5
AAA
330
1F
100
AcDbEntity
  8
RUNDUNGEN
  6
Continuous
 62
     7
100
AcDbLine
 10
466.5362041760418
 20
208.4877628662825
 30
0.0
 11
466.0364290619435
 21
208.4877628720815
 31
0.0
  0
LINE
  5
AAB
330
1F
100
AcDbEntity
  8
RUNDUNGEN
  6
Continuous
 62
     7
100
AcDbLine
 10
541.5219446777446
 20
208.4877628785825
 30
0.0
 11
541.5362041760418
 21
208.4877628783824
 31
0.0
  0
LINE
  5
AAC
330
1F
100
AcDbEntity
  8
0
  6
Continuous
 62
     7
100
AcDbLine
 10
534.0203271588434
 20
210.7377628769163
 30
0.0
 11
534.0203271588434
 21
206.2377628769163
 31
0.0
  0
LINE
  5
AAD
330
1F
100
AcDbEntity
  8
0
  6
Continuous
 62
     7
100
AcDbLine
 10
526.829171122743
 20
188.8767764455151
 30
0.0
 11
523.6471906074438
 21
185.6947959301151
 31
0.0
  0
LINE
  5
AAE
330
1F
100
AcDbEntity
  8
0
  6
Continuous
 62
     7
100
AcDbLine
 10
501.7862041760418
 20
238.4718858598153
 30
0.0
 11
506.2862041760418
 21
238.4718858598153
 31
0.0
  0
LINE
  5
AAF
330
1F
100
AcDbEntity
  8
0
  6
Continuous
 62
     7
100
AcDbLine
 10
523.6471906074438
 20
231.2807298237157
 30
0.0
 11
526.829171122743
 21
228.0987493083148
 31
0.0
  0
LINE
  5
AB0
330
1F
100
AcDbEntity
  8
0
  6
Continuous
 62
     7
100
AcDbLine
 10
527.005947818041
 20
186.9322327972149
 30
0.0
 11
526.829171122743
 21
188.8767764455151
 31
0.0
  0
LINE
  5
AB1
330
1F
100
AcDbEntity
  8
0
  6
Continuous
 62
     7
100
AcDbLine
 10
526.829171122743
 20
228.0987493083148
 30
0.0
 11
527.005947818041
 21
230.0432929566168
 31
0.0
  0
LINE
  5
AB2
330
1F
100
AcDbEntity
  8
0
  6
Continuous
 62
     7
100
AcDbLine
 10
505.0362041760418
 20
177.0036398940164
 30
0.0
 11
506.2862041760418
 21
178.5036398940164
 31
0.0
  0
LINE
  5
AB3
330
1F
100
AcDbEntity
  8
0
  6
Continuous
 62
     7
100
AcDbLine
 10
534.0203271588434
 20
206.2377628769163
 30
0.0
 11
535.5203271588434
 21
207.4877628769154
 31
0.0
  0
LINE
  5
AB4
330
1F
100
AcDbEntity
  8
0
  6
Continuous
 62
     7
100
AcDbLine
 10
525.5917342557403
 20
231.4575065190155
 30
0.0
 11
523.6471906074438
 21
231.2807298237157
 31
0.0
  0
LINE
  5
AB5
330
1F
100
AcDbEntity
  8
0
  6
Continuous
 62
     7
100
AcDbLine
 10
484.4252177445413
 20
231.2807298237157
 30
0.0
 11
482.4806740963431
 21
231.4575065190155
 31
0.0
  0
LINE
  5
AB6
330
1F
100
AcDbEntity
  8
0
  6
Continuous
 62
     7
100
AcDbLine
 10
535.5203271588434
 20
209.4877628769154
 30
0.0
 11
534.0203271588434
 21
210.7377628769163
 31
0.0
  0
LINE
  5
AB7
330
1F
100
AcDbEntity
  8
0
  6
Continuous
 62
     7
100
AcDbLine
 10
506.2862041760418
 20
238.4718858598153
 30
0.0
 11
505.0362041760418
 21
239.9718858598153
 31
0.0
  0
LINE
  5
AB8
330
1F
100
AcDbEntity
  8
RUNDUNGEN
  6
Continuous
 62
     9
100
AcDbLine
 10
513.5362041760417
 20
209.9877628769163
 30
0.0
 11
513.5362041760417
 21
206.9877628769172
 31
0.0
  0
LINE
  5
AB9
330
1F
100
AcDbEntity
  8
0
  6
Continuous
 62
     7
100
AcDbLine
 10
512.0362041760418
 20
209.7877628769156
 30
0.0
 11
512.0362041760418
 21
207.1877628769171
 31
0.0
  0
LINE
  5
ABA
330
1F
100
AcDbEntity
  8
RUNDUNGEN
  6
Continuous
 62
     7
100
AcDbLine
 10
484.2591972213413
 20
209.9877628769163
 30
0.0
 11
495.8362025508431
 21
209.9877628769163
 31
0.0
  0
LINE
  5
ABB
330
1F
100
AcDbEntity
  8
RUNDUNGEN
  6
Continuous
 62
     7
100
AcDbLine
 10
512.2363101084411
 20
209.9877628769163
 30
0.0
 11
523.813211130644
 21
209.9877628769163
 31
0.0
  0
LINE
  5
ABC
330
1F
100
AcDbEntity
  8
RUNDUNGEN
  6
Continuous
 62
     9
100
AcDbLine
 10
483.0764808954409
 20
209.7877628769156
 30
0.0
 11
496.0362041760418
 21
209.7877628769156
 31
0.0
  0
LINE
  5
ABD
330
1F
100
AcDbEntity
  8
RUNDUNGEN
  6
Continuous
 62
     9
100
AcDbLine
 10
512.0362041760418
 20
209.7877628769156
 30
0.0
 11
524.9959274566426
 21
209.7877628769156
 31
0.0
  0
LINE
  5
ABE
330
1F
100
AcDbEntity
  8
RUNDUNGEN
  6
Continuous
 62
     9
100
AcDbLine
 10
524.9959274566426
 20
207.1877628769171
 30
0.0
 11
512.0362041760418
 21
207.1877628769171
 31
0.0
  0
LINE
  5
ABF
330
1F
100
AcDbEntity
  8
RUNDUNGEN
  6
Continuous
 62
     9
100
AcDbLine
 10
496.0362041760418
 20
207.1877628769171
 30
0.0
 11
483.0764808954409
 21
207.1877628769171
 31
0.0
  0
LINE
  5
AC0
330
1F
100
AcDbEntity
  8
RUNDUNGEN
  6
Continuous
 62
     7
100
AcDbLine
 10
523.813211130644
 20
206.9877628769172
 30
0.0
 11
512.2362058011422
 21
206.9877628769172
 31
0.0
  0
LINE
  5
AC1
330
1F
100
AcDbEntity
  8
RUNDUNGEN
  6
Continuous
 62
     7
100
AcDbLine
 10
495.8362025558415
 20
206.9877628769172
 30
0.0
 11
484.2591972213413
 21
206.9877628769172
 31
0.0
  0
LINE
  5
AC2
330
1F
100
AcDbEntity
  8
0
  6
Continuous
 62
     7
100
AcDbLine
 10
496.0362041760418
 20
207.1877628769171
 30
0.0
 11
496.0362041760418
 21
209.7877628769156
 31
0.0
  0
LINE
  5
AC3
330
1F
100
AcDbEntity
  8
RUNDUNGEN
  6
Continuous
 62
     9
100
AcDbLine
 10
494.5362041760417
 20
209.9877628769163
 30
0.0
 11
494.5362041760417
 21
206.9877628769172
 31
0.0
  0
LINE
  5
AC4
330
1F
100
AcDbEntity
  8
0
  6
Continuous
 62
     7
100
AcDbLine
 10
481.0664605339406
 20
230.0432929566168
 30
0.0
 11
481.2432372292422
 21
228.0987493083148
 31
0.0
  0
LINE
  5
AC5
330
1F
100
AcDbEntity
  8
0
  6
Continuous
 62
     7
100
AcDbLine
 10
481.2432372292422
 20
188.8767764455151
 30
0.0
 11
481.0664605339406
 21
186.9322327972149
 31
0.0
  0
LINE
  5
AC6
330
1F
100
AcDbEntity
  8
0
  6
Continuous
 62
     7
100
AcDbLine
 10
503.0362041760418
 20
239.9718858598153
 30
0.0
 11
501.7862041760418
 21
238.4718858598153
 31
0.0
  0
LINE
  5
AC7
330
1F
100
AcDbEntity
  8
0
  6
Continuous
 62
     7
100
AcDbLine
 10
474.0520811931419
 20
210.7377628769163
 30
0.0
 11
472.5520811931416
 21
209.4877628769154
 31
0.0
  0
LINE
  5
AC8
330
1F
100
AcDbEntity
  8
0
  6
Continuous
 62
     7
100
AcDbLine
 10
482.4806740963431
 20
185.5180192348161
 30
0.0
 11
484.4252177445413
 21
185.6947959301151
 31
0.0
  0
LINE
  5
AC9
330
1F
100
AcDbEntity
  8
0
  6
Continuous
 62
     7
100
AcDbLine
 10
523.6471906074438
 20
185.6947959301151
 30
0.0
 11
525.5917342557403
 21
185.5180192348161
 31
0.0
  0
LINE
  5
ACA
330
1F
100
AcDbEntity
  8
0
  6
Continuous
 62
     7
100
AcDbLine
 10
472.5520811931416
 20
207.4877628769154
 30
0.0
 11
474.0520811931419
 21
206.2377628769163
 31
0.0
  0
LINE
  5
ACB
330
1F
100
AcDbEntity
  8
0
  6
Continuous
 62
     7
100
AcDbLine
 10
501.7862041760418
 20
178.5036398940164
 30
0.0
 11
503.0362041760418
 21
177.0036398940164
 31
0.0
  0
LINE
  5
ACC
330
1F
100
AcDbEntity
  8
0
  6
Continuous
 62
     7
100
AcDbLine
 10
474.0520811931419
 20
206.2377628769163
 30
0.0
 11
474.0520811931419
 21
210.7377628769163
 31
0.0
  0
LINE
  5
ACD
330
1F
100
AcDbEntity
  8
0
  6
Continuous
 62
     7
100
AcDbLine
 10
481.2432372292422
 20
228.0987493083148
 30
0.0
 11
484.4252177445413
 21
231.2807298237157
 31
0.0
  0
LINE
  5
ACE
330
1F
100
AcDbEntity
  8
0
  6
Continuous
 62
     7
100
AcDbLine
 10
506.2862041760418
 20
178.5036398940164
 30
0.0
 11
501.7862041760418
 21
178.5036398940164
 31
0.0
  0
LINE
  5
ACF
330
1F
100
AcDbEntity
  8
0
  6
Continuous
 62
     7
100
AcDbLine
 10
484.4252177445413
 20
185.6947959301151
 30
0.0
 11
481.2432372292422
 21
188.8767764455151
 31
0.0
  0
ARC
  5
AD0
330
1F
100
AcDbEntity
  8
RUNDUNGEN
  6
Continuous
 62
     7
100
AcDbCircle
 10
512.2362041760425
 20
209.7877628769156
 30
0.0
 40
0.2
100
AcDbArc
 50
89.99953587230413
 51
180.0
  0
ARC
  5
AD1
330
1F
100
AcDbEntity
  8
RUNDUNGEN
  6
Continuous
 62
     7
100
AcDbCircle
 10
495.836204176041
 20
209.7877628769156
 30
0.0
 40
0.2
100
AcDbArc
 50
0.0
 51
90.00046556135194
  0
CIRCLE
  5
AD2
330
1F
100
AcDbEntity
  8
BEZUGSACHSEN
  6
Continuous
 62
     7
100
AcDbCircle
 10
504.0362041760418
 20
208.4877628769163
 30
0.0
 40
37.75
  0
CIRCLE
  5
AD3
330
1F
100
AcDbEntity
  8
BEZUGSACHSEN
  6
Continuous
 62
     9
100
AcDbCircle
 10
504.0362041760418
 20
208.4877628769163
 30
0.0
 40
34.8249358981
  0
ARC
  5
AD4
330
1F
100
AcDbEntity
  8
0
  6
Continuous
 62
     7
100
AcDbCircle
 10
504.0362041760418
 20
208.4877628769163
 30
0.0
 40
31.5
100
AcDbArc
 50
226.8192192939952
 51
268.1807807059966
  0
ARC
  5
AD5
330
1F
100
AcDbEntity
  8
0
  6
Continuous
 62
     7
100
AcDbCircle
 10
504.0362041760418
 20
208.4877628769163
 30
0.0
 40
31.5
100
AcDbArc
 50
181.8192192940034
 51
223.1807807060762
  0
ARC
  5
AD6
330
1F
100
AcDbEntity
  8
0
  6
Continuous
 62
     7
100
AcDbCircle
 10
504.0362041760418
 20
208.4877628769163
 30
0.0
 40
31.5
100
AcDbArc
 50
136.8192192939237
 51
178.1807807059965
  0
ARC
  5
AD7
330
1F
100
AcDbEntity
  8
0
  6
Continuous
 62
     7
100
AcDbCircle
 10
504.0362041760418
 20
208.4877628769163
 30
0.0
 40
31.5
100
AcDbArc
 50
91.81921929400344
 51
133.1807807060048
  0
ARC
  5
AD8
330
1F
100
AcDbEntity
  8
0
  6
Continuous
 62
     7
100
AcDbCircle
 10
504.0362041760418
 20
208.4877628769163
 30
0.0
 40
31.5
100
AcDbArc
 50
46.81921929399513
 51
88.18078070599652
  0
ARC
  5
AD9
330
1F
100
AcDbEntity
  8
0
  6
Continuous
 62
     7
100
AcDbCircle
 10
504.0362041760418
 20
208.4877628769163
 30
0.0
 40
31.5
100
AcDbArc
 50
1.819219294003455
 51
43.18078070607625
  0
ARC
  5
ADA
330
1F
100
AcDbEntity
  8
0
  6
Continuous
 62
     7
100
AcDbCircle
 10
504.0362041760418
 20
208.4877628769163
 30
0.0
 40
31.5
100
AcDbArc
 50
316.8192192939238
 51
358.1807807059965
  0
ARC
  5
ADB
330
1F
100
AcDbEntity
  8
0
  6
Continuous
 62
     7
100
AcDbCircle
 10
504.0362041760418
 20
208.4877628769163
 30
0.0
 40
31.5
100
AcDbArc
 50
271.8192192940035
 51
313.1807807060048
  0
ARC
  5
ADC
330
1F
100
AcDbEntity
  8
RUNDUNGEN
  6
Continuous
 62
     9
100
AcDbCircle
 10
504.0362041760418
 20
208.4877628769163
 30
0.0
 40
21.0
100
AcDbArc
 50
3.549150897490096
 51
176.4508491025099
  0
ARC
  5
ADD
330
1F
100
AcDbEntity
  8
RUNDUNGEN
  6
Continuous
 62
     9
100
AcDbCircle
 10
504.0362041760418
 20
208.4877628769163
 30
0.0
 40
21.0
100
AcDbArc
 50
183.5491508974901
 51
356.4508491025098
  0
ARC
  5
ADE
330
1F
100
AcDbEntity
  8
0
  6
Continuous
 62
     7
100
AcDbCircle
 10
504.0362041760418
 20
208.4877628769163
 30
0.0
 40
17.5
100
AcDbArc
 50
184.9171003355094
 51
355.0828996644906
  0
ARC
  5
ADF
330
1F
100
AcDbEntity
  8
0
  6
Continuous
 62
     7
100
AcDbCircle
 10
504.0362041760418
 20
208.4877628769163
 30
0.0
 40
17.5
100
AcDbArc
 50
4.917100335509385
 51
175.0828996644905
  0
ARC
  5
AE0
330
1F
100
AcDbEntity
  8
RUNDUNGEN
  6
Continuous
 62
     7
100
AcDbCircle
 10
512.2362041760425
 20
207.1877628769171
 30
0.0
 40
0.2
100
AcDbArc
 50
180.0
 51
270.0004655613519
  0
ARC
  5
AE1
330
1F
100
AcDbEntity
  8
RUNDUNGEN
  6
Continuous
 62
     7
100
AcDbCircle
 10
495.836204176041
 20
207.1877628769171
 30
0.0
 40
0.2
100
AcDbArc
 50
269.9995358720957
 51
0.0
  0
SPLINE
  5
AE2
330
1F
100
AcDbEntity
  8
RUNDUNGEN
  6
Continuous
 62
     7
100
AcDbSpline
210
0.0
220
0.0
230
1.0
 70
     8
 71
     3
 72
    15
 73
    11
 74
     9
 42
0.0000000001
 43
0.0000000001
 44
0.0000000001
 12
-0.9734575250016488
 22
-0.228867750060301
 32
0.0
 13
-1.0
 23
0.0000000000000001
 33
0.0
 40
0.0
 40
0.0
 40
0.0
 40
0.0
 40
0.1510810008469982
 40
0.3012692817882542
 40
0.4508995578784429
 40
0.6001317707654483
 40
0.7491566218493424
 40
0.8985674046151922
 40
1.049070534296833
 40
1.201862823993005
 40
1.201862823993005
 40
1.201862823993005
 40
1.201862823993005
 10
524.9959274566426
 20
207.1877628769171
 30
0.0
 10
524.9469038109228
 20
207.1762370206702
 30
0.0
 10
524.8491446022492
 20
207.1532599338715
 30
0.0
 10
524.7026678043461
 20
207.1195708984367
 30
0.0
 10
524.5564727229818
 20
207.0874269264253
 30
0.0
 10
524.4101843028339
 20
207.0575706319044
 30
0.0
 10
524.2633485553518
 20
207.0309040952639
 30
0.0
 10
524.1153365180809
 20
207.0086173104301
 30
0.0
 10
523.9652531968406
 20
206.9924645301306
 30
0.0
 10
523.8641418938761
 20
206.9877628769154
 30
0.0
 10
523.813211130644
 20
206.9877628769154
 30
0.0
 11
524.9959274566426
 21
207.1877628769171
 31
0.0
 11
524.8488273838411
 21
207.1533094678152
 31
0.0
 11
524.7024331103419
 21
207.1197649240157
 31
0.0
 11
524.5562641612414
 21
207.0877671453163
 31
0.0
 11
524.4100133265419
 21
207.0580863988152
 31
0.0
 11
524.2633492589411
 21
207.031665620716
 31
0.0
 11
524.1155603239421
 21
207.0097108331165
 31
0.0
 11
523.9658738811413
 21
206.9940532188148
 31
0.0
 11
523.813211130644
 21
206.9877628769154
 31
0.0
  0
SPLINE
  5
AE3
330
1F
100
AcDbEntity
  8
RUNDUNGEN
  6
Continuous
 62
     7
100
AcDbSpline
210
0.0
220
0.0
230
1.0
 70
     8
 71
     3
 72
    15
 73
    11
 74
     9
 42
0.0000000001
 43
0.0000000001
 44
0.0000000001
 12
0.9734575250016488
 22
0.228867750060301
 32
0.0
 13
1.0
 23
-0.0000000000000001
 33
0.0
 40
0.0
 40
0.0
 40
0.0
 40
0.0
 40
0.1510810007473432
 40
0.3012692817879695
 40
0.4508995577789289
 40
0.6001317706658091
 40
0.7491566218500582
 40
0.898567404518705
 40
1.049070534298003
 40
1.201862823896067
 40
1.201862823896067
 40
1.201862823896067
 40
1.201862823896067
 10
483.0764808954409
 20
209.7877628769156
 30
0.0
 10
483.1255045411283
 20
209.7992887331549
 30
0.0
 10
483.2232637497925
 20
209.8222658199925
 30
0.0
 10
483.3697405476767
 20
209.8559548553633
 30
0.0
 10
483.5159356290298
 20
209.8880988274219
 30
0.0
 10
483.6622240491801
 20
209.9179551219375
 30
0.0
 10
483.8090597966684
 20
209.9446216585454
 30
0.0
 10
483.9570718339674
 20
209.9669084434214
 30
0.0
 10
484.1071551551787
 20
209.9830612236863
 30
0.0
 10
484.2082664581419
 20
209.9877628769163
 30
0.0
 10
484.2591972213413
 20
209.9877628769163
 30
0.0
 11
483.0764808954409
 21
209.7877628769156
 31
0.0
 11
483.2235809681406
 21
209.8222162860147
 31
0.0
 11
483.3699752417414
 21
209.855760829816
 31
0.0
 11
483.5161441907403
 21
209.8877586085154
 31
0.0
 11
483.6623950254398
 21
209.9174393550156
 31
0.0
 11
483.8090590931424
 21
209.9438601331157
 31
0.0
 11
483.9568480280432
 21
209.9658149207153
 31
0.0
 11
484.1065344709423
 21
209.9814725350161
 31
0.0
 11
484.2591972213413
 21
209.9877628769163
 31
0.0
  0
SPLINE
  5
AE4
330
1F
100
AcDbEntity
  8
RUNDUNGEN
  6
Continuous
 62
     7
100
AcDbSpline
210
0.0
220
0.0
230
1.0
 70
     8
 71
     3
 72
    14
 73
    10
 74
     8
 42
0.0000000001
 43
0.0000000001
 44
0.0000000001
 12
1.0
 22
-0.0000000000000001
 32
0.0
 13
0.9734575249949113
 23
-0.2288677500889577
 33
0.0
 40
0.0
 40
0.0
 40
0.0
 40
0.0
 40
0.1775159166274327
 40
0.3522169696261954
 40
0.5240382291773889
 40
0.6932544782933392
 40
0.8615176794677354
 40
1.030378979886353
 40
1.201839310652316
 40
1.201839310652316
 40
1.201839310652316
 40
1.201839310652316
 10
523.813211130644
 20
209.9877628769163
 30
0.0
 10
523.8723831028531
 20
209.9877628769163
 30
0.0
 10
523.9898000713477
 20
209.9814564423485
 30
0.0
 10
524.1632882417546
 20
209.9606040254994
 30
0.0
 10
524.3329563205718
 20
209.9326603235845
 30
0.0
 10
524.499596391545
 20
209.900152454353
 30
0.0
 10
524.6645916433918
 20
209.8645751323006
 30
0.0
 10
524.8298593829352
 20
209.8267981443744
 30
0.0
 10
524.9402910069018
 20
209.8008434569595
 30
0.0
 10
524.9959274566426
 20
209.7877628769156
 30
0.0
 11
523.813211130644
 21
209.9877628769163
 31
0.0
 11
523.990532199943
 21
209.9794478881158
 31
0.0
 11
524.1640584845407
 21
209.9592220019158
 31
0.0
 11
524.3336586311412
 21
209.9316841097152
 31
0.0
 11
524.4997948895397
 21
209.8995456186148
 31
0.0
 11
524.6643209923422
 21
209.8642799644158
 31
0.0
 11
524.8289759222425
 21
209.8268247533151
 31
0.0
 11
524.9959274566426
 21
209.7877628769156
 31
0.0
  0
SPLINE
  5
AE5
330
1F
100
AcDbEntity
  8
RUNDUNGEN
  6
Continuous
 62
     7
100
AcDbSpline
210
0.0
220
0.0
230
1.0
 70
     8
 71
     3
 72
    14
 73
    10
 74
     8
 42
0.0000000001
 43
0.0000000001
 44
0.0000000001
 12
-1.0
 22
0.0000000000000001
 32
0.0
 13
-0.9734575249949113
 23
0.2288677500889577
 33
0.0
 40
0.0
 40
0.0
 40
0.0
 40
0.0
 40
0.1775159165294982
 40
0.3522169696179123
 40
0.5240382291850258
 40
0.6932544783010158
 40
0.861517679375656
 40
1.030378979889978
 40
1.201839310560843
 40
1.201839310560843
 40
1.201839310560843
 40
1.201839310560843
 10
484.2591972213413
 20
206.9877628769154
 30
0.0
 10
484.2000252491648
 20
206.9877628769154
 30
0.0
 10
484.0826082806802
 20
206.9940693115441
 30
0.0
 10
483.9091201102404
 20
207.0149217281515
 30
0.0
 10
483.7394520314222
 20
207.0428654302921
 30
0.0
 10
483.5728119604647
 20
207.075373299449
 30
0.0
 10
483.407816708633
 20
207.1109506215659
 30
0.0
 10
483.2425489691068
 20
207.1487276094197
 30
0.0
 10
483.1321173451508
 20
207.1746822968803
 30
0.0
 10
483.0764808954409
 20
207.1877628769171
 30
0.0
 11
484.2591972213413
 21
206.9877628769154
 31
0.0
 11
484.0818761521403
 21
206.996077865715
 31
0.0
 11
483.9083498674408
 21
207.0163037518159
 31
0.0
 11
483.7387497208401
 21
207.0438416441148
 31
0.0
 11
483.5726134624417
 21
207.075980135216
 31
0.0
 11
483.4080873597413
 21
207.111245789415
 31
0.0
 11
483.2434324297428
 21
207.1487010005157
 31
0.0
 11
483.0764808954409
 21
207.1877628769171
 31
0.0
  0
DIMENSION
  5
B10
330
1F
100
AcDbEntity
  8
AM_5
100
AcDbDimension
  2
*D33
 10
942.6095382438971
 20
248.4777628730226
 30
0.0
 11
926.3578158029524
 21
196.1236782273534
 31
0.0
 70
    32
 71
     5
 42
19.99999999999991
  3
AM_DIN$0
100
AcDbAlignedDimension
 13
884.0362041760416
 23
268.4777628730225
 33
0.0
 14
852.0362041760417
 24
248.4777628730226
 34
0.0
 50
90.0
100
AcDbRotatedDimension
1001
ACAD_DSTYLE_DIMINSPECT
1070
   396
1000
100%
1070
   395
1000

1070
   394
1070
    33
1070
   393
1070
     0
1001
ACAD
1000
DSTYLE
1002
{
1070
    40
1040
5.0
1070
    47
1040
1.0
1070
    48
1040
1.0
1002
}
  0
LINE
  5
F08
330
1F
100
AcDbEntity
  8
0
100
AcDbLine
 10
480.0154100957676
 20
485.2214194785799
 30
0.0
 11
528.0569982757322
 21
485.2214194776312
 31
0.0
  0
LINE
  5
F09
330
1F
100
AcDbEntity
  8
0
  6
ByBlock
 62
     0
100
AcDbLine
 10
480.0362041855393
 20
490.4714195189894
 30
0.0
 11
481.086204193811
 21
485.2214194776312
 31
0.0
  0
LINE
  5
F0A
330
1F
100
AcDbEntity
  8
0
100
AcDbLine
 10
479.0362041855265
 20
490.1174490297804
 30
0.0
 11
480.0154100959574
 21
485.2214194776312
 31
0.0
  0
LINE
  5
F0B
330
1F
100
AcDbEntity
  8
0
  6
ByBlock
 62
     0
100
AcDbLine
 10
528.0362041861503
 20
490.4714195189894
 30
0.0
 11
526.9862041778788
 21
485.2214194776312
 31
0.0
  0
LINE
  5
F0C
330
1F
100
AcDbEntity
  8
0
100
AcDbLine
 10
529.0362041861633
 20
490.1174490297804
 30
0.0
 11
528.0569982757322
 21
485.2214194776312
 31
0.0
  0
LINE
  5
F0D
330
1F
100
AcDbEntity
  8
0
  6
Continuous
 62
     2
100
AcDbLine
 10
479.6814536039659
 20
486.8912019375876
 30
0.0
 11
480.4308363883688
 21
488.4982585048424
 31
0.0
  0
LINE
  5
F0E
330
1F
100
AcDbEntity
  8
0
  6
Continuous
 62
     2
100
AcDbLine
 10
528.0362041860555
 20
490.3343057354693
 30
0.0
 11
529.0362041860682
 21
492.4788126559967
 31
0.0
  0
LINE
  5
F0F
330
1F
100
AcDbEntity
  8
0
  6
Continuous
 62
     2
100
AcDbLine
 10
528.0362041860555
 20
503.257642174634
 30
0.0
 11
529.0362041860682
 21
505.4021490951615
 31
0.0
  0
LINE
  5
F10
330
1F
100
AcDbEntity
  8
0
  6
Continuous
 62
     2
100
AcDbLine
 10
528.0362041860555
 20
516.1809786137987
 30
0.0
 11
529.0362041860682
 21
518.3254855343262
 31
0.0
  0
LINE
  5
F11
330
1F
100
AcDbEntity
  8
0
  6
Continuous
 62
     2
100
AcDbLine
 10
528.0362041860555
 20
529.1043150530636
 30
0.0
 11
529.0362041860682
 21
531.248821973591
 31
0.0
  0
LINE
  5
F12
330
1F
100
AcDbEntity
  8
0
  6
Continuous
 62
     7
100
AcDbLine
 10
529.0362041860682
 20
533.7214194787229
 30
0.0
 11
529.0362041861633
 21
490.1174490297804
 31
0.0
  0
LINE
  5
F13
330
1F
100
AcDbEntity
  8
0
  6
Continuous
 62
     7
100
AcDbLine
 10
528.0362041860555
 20
533.7214194787229
 30
0.0
 11
528.0362041861503
 21
490.4714195189894
 31
0.0
  0
LINE
  5
F15
330
1F
100
AcDbEntity
  8
0
  6
Continuous
 62
     2
100
AcDbLine
 10
479.0362041854317
 20
496.8455793567535
 30
0.0
 11
480.0362041854444
 21
498.9900862772792
 31
0.0
  0
LINE
  5
F16
330
1F
100
AcDbEntity
  8
0
  6
Continuous
 62
     2
100
AcDbLine
 10
479.0362041854317
 20
509.7689157960165
 30
0.0
 11
480.0362041854444
 21
511.9134227165439
 31
0.0
  0
LINE
  5
F17
330
1F
100
AcDbEntity
  8
0
  6
Continuous
 62
     2
100
AcDbLine
 10
479.0362041854317
 20
522.6922522351831
 30
0.0
 11
480.0362041854444
 21
524.8367591557105
 31
0.0
  0
LINE
  5
F18
330
1F
100
AcDbEntity
  8
0
  6
Continuous
 62
     7
100
AcDbLine
 10
480.0362041854444
 20
533.7214194787229
 30
0.0
 11
480.0362041855393
 21
490.4714195189894
 31
0.0
  0
LINE
  5
F19
330
1F
100
AcDbEntity
  8
0
  6
Continuous
 62
     7
100
AcDbLine
 10
479.0362041854317
 20
533.7214194787229
 30
0.0
 11
479.0362041855265
 21
490.1174490297804
 31
0.0
  0
LINE
  5
F1A
330
1F
100
AcDbEntity
  8
0
  6
Continuous
 62
     7
100
AcDbLine
 10
529.0362041860682
 20
533.7214194787229
 30
0.0
 11
479.0362041854317
 21
533.7214194787229
 31
0.0
  0
LINE
  5
F1B
330
1F
100
AcDbEntity
  8
0
100
AcDbLine
 10
480.0154100957676
 20
485.2214194785799
 30
0.0
 11
528.0569982757322
 21
485.2214194776312
 31
0.0
  0
LINE
  5
F1C
330
1F
100
AcDbEntity
  8
AM_7
100
AcDbLine
 10
504.03620418575
 20
536.7214194787614
 30
0.0
 11
504.03620418575
 21
482.2214194780674
 31
0.0
1001
GENIUS_GENODEF_13
1002
{
1000
HIER
1070
     0
1002
}
1002
{
1000
MANEDIT
1070
     0
1002
}
1002
{
1000
NOSEL
1070
     0
1002
}
1002
{
1000
BEHIND
1070
     0
1002
}
1002
{
1000
OTHER
1070
     0
1002
}
1002
{
1000
REACTOR
1002
}
1001
GENIUS_GENOBJ-N-CEN_13
1002
{
1000
OWNER
1000
GEN
1002
}
1001
GENIUS_GENCEN_19
1002
{
1040
3.0
1002
}
  0
ENDSEC
  0
SECTION
  2
OBJECTS
  0
DICTIONARY
  5
C
330
0
100
AcDbDictionary
281
     1
  3
ACAD_2007HEADERVARS_RT
350
F5E
  3
ACAD_COLOR
350
BE
  3
ACAD_GROUP
350
D
  3
ACAD_LAYOUT
350
1A
  3
ACAD_MATERIAL
350
BD
  3
ACAD_MLEADERSTYLE
350
3EF
  3
ACAD_MLINESTYLE
350
17
  3
ACAD_PLOTSETTINGS
350
19
  3
ACAD_PLOTSTYLENAME
350
E
  3
ACAD_SCALELIST
350
3DD
  3
ACAD_TABLESTYLE
350
11A
  3
ACAD_VISUALSTYLE
350
3CC
  3
ACDB_RECOMPOSE_DATA
350
41D
  3
AcDbVariableDictionary
350
94
  3
AcmDictionary
350
5B
  3
AcmSystemVariableManager
350
F6A
  3
AEC_PROPERTY_SET_DEFS
350
711
  3
AMG
350
41
  3
AMGSNAPSETTINGS
350
26B
  3
DWGPROPS
350
F5D
  0
DICTIONARY
  5
691
330
2
100
AcDbDictionary
280
     1
281
     1
  3
ACAD_LAYERSTATES
360
692
  0
DICTIONARY
  5
976
330
10
100
AcDbDictionary
280
     1
281
     1
  3
ADSK_XREC_LAYER_RECONCILED
360
977
  0
DICTIONARY
  5
677
330
676
100
AcDbDictionary
280
     1
281
     1
  3
ADSK_XREC_LAYER_RECONCILED
360
978
  0
DICTIONARY
  5
679
330
678
100
AcDbDictionary
280
     1
281
     1
  3
ADSK_XREC_LAYER_RECONCILED
360
979
  0
DICTIONARY
  5
67C
330
67B
100
AcDbDictionary
280
     1
281
     1
  3
ADSK_XREC_LAYER_RECONCILED
360
97A
  0
DICTIONARY
  5
67E
330
67D
100
AcDbDictionary
280
     1
281
     1
  3
ADSK_XREC_LAYER_RECONCILED
360
97B
  0
DICTIONARY
  5
680
330
67F
100
AcDbDictionary
280
     1
281
     1
  3
ADSK_XREC_LAYER_RECONCILED
360
97C
  0
DICTIONARY
  5
682
330
681
100
AcDbDictionary
280
     1
281
     1
  3
ADSK_XREC_LAYER_RECONCILED
360
97D
  0
DICTIONARY
  5
97E
330
7F1
100
AcDbDictionary
280
     1
281
     1
  3
ADSK_XREC_LAYER_RECONCILED
360
97F
  0
DICTIONARY
  5
A5D
330
A5C
100
AcDbDictionary
280
     1
281
     1
  0
DICTIONARY
  5
8F
330
1F
100
AcDbDictionary
280
     1
281
     1
  3
ACAD_SORTENTS
360
96C
  0
DICTIONARY
  5
917
330
916
100
AcDbDictionary
280
     1
281
     1
  3
ACAD_DIMASSOC
360
918
  0
DICTIONARY
  5
9A4
330
997
100
AcDbDictionary
280
     1
281
     1
  3
ACAD_DIMASSOC
360
9A5
  0
DICTIONARY
  5
F5E
102
{ACAD_REACTORS
330
C
102
}
330
C
100
AcDbDictionary
281
     1
  3
DIMJOGANG
350
F5F
  3
DIMLTEX1
350
F61
  3
DIMLTEX2
350
F62
  3
DIMLTYPE
350
F60
  0
DICTIONARY
  5
BE
102
{ACAD_REACTORS
330
C
102
}
330
C
100
AcDbDictionary
281
     1
  0
DICTIONARY
  5
D
102
{ACAD_REACTORS
330
C
102
}
330
C
100
AcDbDictionary
281
     1
  0
DICTIONARY
  5
1A
102
{ACAD_REACTORS
330
C
102
}
330
C
100
AcDbDictionary
281
     1
  3
Layout1
350
1E
  3
Layout2
350
26
  3
Model
350
22
  0
DICTIONARY
  5
BD
102
{ACAD_REACTORS
330
C
102
}
330
C
100
AcDbDictionary
281
     1
  3
ByBlock
350
3BC
  3
ByLayer
350
3B4
  3
Global
350
3C4
  0
DICTIONARY
  5
3EF
102
{ACAD_REACTORS
330
C
102
}
330
C
100
AcDbDictionary
281
     1
  3
Standard
350
3F0
  0
DICTIONARY
  5
17
102
{ACAD_REACTORS
330
C
102
}
330
C
100
AcDbDictionary
281
     1
  3
Standard
350
18
  0
DICTIONARY
  5
19
102
{ACAD_REACTORS
330
C
102
}
330
C
100
AcDbDictionary
281
     1
  0
ACDBDICTIONARYWDFLT
  5
E
102
{ACAD_REACTORS
330
C
102
}
330
C
100
AcDbDictionary
281
     1
  3
Normal
350
F
100
AcDbDictionaryWithDefault
340
F
  0
DICTIONARY
  5
3DD
102
{ACAD_REACTORS
330
C
102
}
330
C
100
AcDbDictionary
281
     1
  3
A0
350
3DE
  3
A1
350
3DF
  3
A2
350
3E0
  3
A3
350
3E1
  3
A4
350
3E2
  3
A5
350
3E3
  3
A6
350
3E4
  3
A7
350
3E5
  3
A8
350
3E6
  3
A9
350
3E7
  3
B0
350
3E8
  3
B1
350
3E9
  3
B2
350
3EA
  3
B3
350
3EB
  3
B4
350
3EC
  3
B5
350
3ED
  3
B6
350
3EE
  0
DICTIONARY
  5
11A
102
{ACAD_REACTORS
330
C
102
}
330
C
100
AcDbDictionary
281
     1
  3
Standard
350
11B
  0
DICTIONARY
  5
3CC
102
{ACAD_REACTORS
330
C
102
}
330
C
100
AcDbDictionary
281
     1
  3
2dWireframe
350
3D2
  3
3D Hidden
350
3D4
  3
3dWireframe
350
3D3
  3
Basic
350
3D1
  3
Brighten
350
3D8
  3
ColorChange
350
3DC
  3
Conceptual
350
3D5
  3
Dim
350
3D7
  3
Facepattern
350
3DB
  3
Flat
350
3CD
  3
FlatWithEdges
350
3CE
  3
Gouraud
350
3CF
  3
GouraudWithEdges
350
3D0
  3
Linepattern
350
3DA
  3
Realistic
350
3D6
  3
Thicken
350
3D9
  0
XRECORD
  5
41D
102
{ACAD_REACTORS
330
C
102
}
330
C
100
AcDbXrecord
280
     1
 90
        1
330
11B
  0
DICTIONARY
  5
94
102
{ACAD_REACTORS
330
C
102
}
330
C
100
AcDbDictionary
281
     1
  3
CANNOSCALE
350
420
  3
CMLEADERSTYLE
350
41E
  3
CTABLESTYLE
350
138
  3
DIMASSOC
350
96
  3
INDEXCTL
350
95
  3
LAYEREVAL
350
422
  3
LAYERNOTIFY
350
423
  3
LIGHTINGUNITS
350
421
  3
MSLTSCALE
350
41F
  3
SORTENTS
350
9DC
  0
DICTIONARY
  5
5B
102
{ACAD_REACTORS
330
C
102
}
330
C
100
AcDbDictionary
281
     1
  3
AcmBOM
350
272
  3
AcmStdDictionary
350
61
  3
AMDTSECTSYM_ARROWCOLOR
350
123
  0
DICTIONARY
  5
711
102
{ACAD_REACTORS
330
C
102
}
330
C
100
AcDbDictionary
281
     1
  0
DICTIONARY
  5
41
102
{ACAD_REACTORS
330
C
102
}
330
C
100
AcDbDictionary
281
     1
  0
DICTIONARY
  5
26B
102
{ACAD_REACTORS
330
C
102
}
330
C
100
AcDbDictionary
281
     1
  0
XRECORD
  5
F5D
102
{ACAD_REACTORS
330
C
102
}
330
C
100
AcDbXrecord
280
     1
  1
DWGPROPS COOKIE
  2

  3

  4

  6

  7

  8
nlazaar
  9

300
AmdtFileType=84
301
=
302
=
303
=
304
=
305
=
306
=
307
=
308
=
309
=
 40
0.2572647569444444
 41
2455659.553479873
 42
2455665.438834005
  1

 90
        1
  0
DICTIONARY
  5
692
102
{ACAD_REACTORS
330
691
102
}
330
691
100
AcDbDictionary
281
     1
  0
XRECORD
  5
977
102
{ACAD_REACTORS
330
976
102
}
330
976
100
AcDbXrecord
280
     1
290
     1
  0
XRECORD
  5
978
102
{ACAD_REACTORS
330
677
102
}
330
677
100
AcDbXrecord
280
     1
290
     1
  0
XRECORD
  5
979
102
{ACAD_REACTORS
330
679
102
}
330
679
100
AcDbXrecord
280
     1
290
     1
  0
XRECORD
  5
97A
102
{ACAD_REACTORS
330
67C
102
}
330
67C
100
AcDbXrecord
280
     1
290
     1
  0
XRECORD
  5
97B
102
{ACAD_REACTORS
330
67E
102
}
330
67E
100
AcDbXrecord
280
     1
290
     1
  0
XRECORD
  5
97C
102
{ACAD_REACTORS
330
680
102
}
330
680
100
AcDbXrecord
280
     1
290
     1
  0
XRECORD
  5
97D
102
{ACAD_REACTORS
330
682
102
}
330
682
100
AcDbXrecord
280
     1
290
     1
  0
XRECORD
  5
97F
102
{ACAD_REACTORS
330
97E
102
}
330
97E
100
AcDbXrecord
280
     1
290
     1
  0
SORTENTSTABLE
  5
96C
102
{ACAD_REACTORS
330
8F
102
}
330
8F
100
AcDbSortentsTable
330
1F
331
AD6
  5
AE5
331
8D3
  5
8D4
331
909
  5
91D
331
904
  5
907
331
AD5
  5
AE4
331
916
  5
AAB
331
908
  5
91C
331
8D2
  5
8D3
331
AD4
  5
AE3
331
915
  5
AAA
331
8D1
  5
8D2
331
AD3
  5
AE2
331
914
  5
AA9
331
8FE
  5
901
331
8D0
  5
8D1
331
AD2
  5
AE1
331
913
  5
AA8
331
8FD
  5
900
331
AD1
  5
AE0
331
912
  5
AA7
331
8FC
  5
8FF
331
AD0
  5
ADF
331
911
  5
AA6
331
8FB
  5
8FE
331
910
  5
AA5
331
8FA
  5
8FD
331
AAF
  5
ABE
331
8F9
  5
8FC
331
AAE
  5
ABD
331
8F8
  5
8FB
331
AAD
  5
ABC
331
8F7
  5
8FA
331
AAC
  5
ABB
331
F1C
  5
919
331
8CF
  5
8D0
331
8F6
  5
8F9
331
AAB
  5
ABA
331
F1B
  5
916
331
8F5
  5
8F8
331
8CE
  5
8CF
331
AAA
  5
AB9
331
F1A
  5
915
331
8CD
  5
8CE
331
8F4
  5
8F7
331
AA9
  5
AB8
331
F19
  5
914
331
8F3
  5
8F6
331
ACF
  5
ADE
331
8CC
  5
8CD
331
AA8
  5
AB7
331
F18
  5
913
331
ACE
  5
ADD
331
8CB
  5
8CC
331
8F2
  5
8F5
331
AA7
  5
AB6
331
F17
  5
912
331
8F1
  5
8F4
331
ACD
  5
ADC
331
8CA
  5
8CB
331
AA6
  5
AB5
331
F16
  5
911
331
8F0
  5
8F3
331
ACC
  5
ADB
331
8C9
  5
8CA
331
AA5
  5
AB4
331
F15
  5
910
331
ACB
  5
ADA
331
8C8
  5
8C9
331
ACA
  5
AD9
331
8C7
  5
8C8
331
F13
  5
90E
331
AC9
  5
AD8
331
8C6
  5
8C7
331
F12
  5
90D
331
AC8
  5
AD7
331
8C5
  5
8C6
331
F11
  5
90C
331
AC7
  5
AD6
331
8C4
  5
8C5
331
F10
  5
90B
331
AC6
  5
AD5
331
8C3
  5
8C4
331
F0F
  5
90A
331
AC5
  5
AD4
331
8C2
  5
8C3
331
F0E
  5
909
331
AC4
  5
AD3
331
8EF
  5
8F2
331
8C1
  5
8C2
331
96E
  5
8F1
331
F0D
  5
F1C
331
AC3
  5
AD2
331
8C0
  5
8C1
331
96D
  5
8EA
331
8EE
  5
8F0
331
F0C
  5
F1B
331
AC2
  5
AD1
331
8ED
  5
8EF
331
8BF
  5
8C0
331
F0B
  5
F1A
331
AC1
  5
AD0
331
96B
  5
8BE
331
8EC
  5
8EE
331
F0A
  5
F19
331
B10
  5
F16
331
96A
  5
AB2
331
AC0
  5
ACF
331
8BD
  5
8BD
331
8EB
  5
8ED
331
F09
  5
F18
331
997
  5
AB3
331
ABF
  5
ACE
331
8BC
  5
8BC
331
8EA
  5
8EC
331
F08
  5
F17
331
ABE
  5
ACD
331
8BB
  5
8BB
331
8E9
  5
8EB
331
ABD
  5
ACC
331
8BA
  5
8BA
331
8E8
  5
8E9
331
ABC
  5
ACB
331
8B9
  5
8B9
331
8E7
  5
8E8
331
ABB
  5
ACA
331
8E6
  5
8E7
331
8B8
  5
8B8
331
ABA
  5
AC9
331
8B7
  5
8B7
331
8E5
  5
8E6
331
AB9
  5
AC8
331
8E4
  5
8E5
331
8B6
  5
8B6
331
AB8
  5
AC7
331
8B5
  5
8B5
331
8E3
  5
8E4
331
AB7
  5
AC6
331
AE5
  5
F15
331
8E2
  5
8E3
331
8B4
  5
8B4
331
AB6
  5
AC5
331
8B3
  5
8B3
331
AE4
  5
F14
331
8E1
  5
8E2
331
AB5
  5
AC4
331
AE3
  5
F13
331
8E0
  5
8E1
331
8B2
  5
8B2
331
AB4
  5
AC3
331
8B1
  5
8B1
331
AE2
  5
F12
331
8DF
  5
8E0
331
AB3
  5
AC2
331
AE1
  5
F11
331
8DE
  5
8DF
331
AB2
  5
AC1
331
AE0
  5
F10
331
8DD
  5
8DE
331
AB1
  5
AC0
331
ADF
  5
F0F
331
8DC
  5
8DD
331
AB0
  5
ABF
331
ADE
  5
F0E
331
8DB
  5
8DC
331
ADD
  5
F0D
331
91E
  5
AB1
331
8DA
  5
8DB
331
ADC
  5
F0C
331
91D
  5
AB0
331
90F
  5
997
331
8D9
  5
8DA
331
ADB
  5
F0B
331
91C
  5
AAF
331
90E
  5
96E
331
8D8
  5
8D9
331
ADA
  5
F0A
331
91B
  5
AAE
331
90D
  5
96D
331
8D7
  5
8D8
331
AD9
  5
F09
331
91A
  5
AAD
331
90C
  5
96B
331
907
  5
91B
331
8D6
  5
8D7
331
AD8
  5
F08
331
919
  5
AAC
331
90B
  5
96A
331
906
  5
91A
331
8D5
  5
8D6
331
AD7
  5
B10
331
8D4
  5
8D5
331
90A
  5
91E
  0
DIMASSOC
  5
918
102
{ACAD_REACTORS
330
917
102
}
330
917
100
AcDbDimAssoc
330
916
 90
        3
 70
     0
 71
     0
  1
AcDbOsnapPointRef
 72
    13
331
912
 73
     0
 91
        0
 40
0.0
 10
0.0
 20
0.0
 30
2.000000000000000E+50
 75
     0
  1
AcDbOsnapPointRef
 72
     2
331
8FE
 73
     0
 91
        0
 40
0.0
 10
0.0
 20
0.0
 30
0.0
 75
     0
  0
DIMASSOC
  5
9A5
102
{ACAD_REACTORS
330
9A4
102
}
330
9A4
100
AcDbDimAssoc
330
997
 90
        1
 70
     0
 71
     0
  1
AcDbOsnapPointRef
 72
     1
331
96A
 73
     0
 91
        0
 40
0.0
 10
0.0
 20
0.0
 30
2.000000000000000E+50
 75
     0
  0
XRECORD
  5
F5F
102
{ACAD_REACTORS
330
F5E
102
}
330
F5E
100
AcDbXrecord
280
     1
 40
1.570796326794896
  0
XRECORD
  5
F61
102
{ACAD_REACTORS
330
F5E
102
}
330
F5E
100
AcDbXrecord
280
     1
340
14
  0
XRECORD
  5
F62
102
{ACAD_REACTORS
330
F5E
102
}
330
F5E
100
AcDbXrecord
280
     1
340
14
  0
XRECORD
  5
F60
102
{ACAD_REACTORS
330
F5E
102
}
330
F5E
100
AcDbXrecord
280
     1
340
14
  0
LAYOUT
  5
1E
102
{ACAD_XDICTIONARY
360
F63
102
}
102
{ACAD_REACTORS
330
1A
102
}
330
1A
100
AcDbPlotSettings
  1

  2

  4

  6

 40
0.0
 41
0.0
 42
0.0
 43
0.0
 44
0.0
 45
0.0
 46
0.0
 47
0.0
 48
0.0
 49
0.0
140
0.0
141
0.0
142
1.0
143
1.0
 70
   688
 72
     0
 73
     0
 74
     5
  7

 75
    16
147
1.0
148
0.0
149
0.0
100
AcDbLayout
  1
Layout1
 70
     1
 71
     1
 10
0.0
 20
0.0
 11
420.0
 21
297.0
 12
0.0
 22
0.0
 32
0.0
 14
1.000000000000000E+20
 24
1.000000000000000E+20
 34
1.000000000000000E+20
 15
-1.000000000000000E+20
 25
-1.000000000000000E+20
 35
-1.000000000000000E+20
146
0.0
 13
0.0
 23
0.0
 33
0.0
 16
1.0
 26
0.0
 36
0.0
 17
0.0
 27
1.0
 37
0.0
 76
     0
330
1B
  0
LAYOUT
  5
26
102
{ACAD_XDICTIONARY
360
F67
102
}
102
{ACAD_REACTORS
330
1A
102
}
330
1A
100
AcDbPlotSettings
  1

  2

  4

  6

 40
0.0
 41
0.0
 42
0.0
 43
0.0
 44
0.0
 45
0.0
 46
0.0
 47
0.0
 48
0.0
 49
0.0
140
0.0
141
0.0
142
1.0
143
1.0
 70
   688
 72
     0
 73
     0
 74
     5
  7

 75
    16
147
1.0
148
0.0
149
0.0
100
AcDbLayout
  1
Layout2
 70
     1
 71
     2
 10
0.0
 20
0.0
 11
12.0
 21
9.0
 12
0.0
 22
0.0
 32
0.0
 14
0.0
 24
0.0
 34
0.0
 15
0.0
 25
0.0
 35
0.0
146
0.0
 13
0.0
 23
0.0
 33
0.0
 16
1.0
 26
0.0
 36
0.0
 17
0.0
 27
1.0
 37
0.0
 76
     0
330
23
  0
LAYOUT
  5
22
102
{ACAD_XDICTIONARY
360
F65
102
}
102
{ACAD_REACTORS
330
1A
102
}
330
1A
100
AcDbPlotSettings
  1

  2
\\rd-sr-230\ST-PR-055
  4
A4
  6

 40
6.805083274841307
 41
5.619739055633544
 42
7.016738891601562
 43
7.14373779296875
 44
209.9733276367186
 45
296.9683227539062
 46
0.0
 47
0.0
 48
0.0
 49
0.0
140
0.0
141
0.0
142
1.0
143
6.863867891014682
 70
 11952
 72
     1
 73
     1
 74
     0
  7

 75
     0
147
0.1456904497403096
148
603.9328622654011
149
-180.557636229888
100
AcDbLayout
  1
Model
 70
     1
 71
     0
 10
0.0
 20
0.0
 11
12.0
 21
9.0
 12
0.0
 22
0.0
 32
0.0
 14
0.0
 24
0.0
 34
0.0
 15
0.0
 25
0.0
 35
0.0
146
0.0
 13
0.0
 23
0.0
 33
0.0
 16
1.0
 26
0.0
 36
0.0
 17
0.0
 27
1.0
 37
0.0
 76
     0
330
1F
331
3B2
1001
ACAD_PSEXT
1000
\\rd-sr-230\ST-PR-055
1000
Xerox Document Centre 440
1000
ST
1000
*** 
1070
     0
  0
MATERIAL
  5
3BC
102
{ACAD_XDICTIONARY
360
3BD
102
}
102
{ACAD_REACTORS
330
BD
102
}
330
BD
100
AcDbMaterial
  1
ByBlock
 72
     0
 43
0.0008202099737533
 43
0.0
 43
0.0
 43
0.0
 43
0.0
 43
0.0008202099737533
 43
0.0
 43
0.0
 43
0.0
 43
0.0
 43
1.0
 43
0.0
 43
0.0
 43
0.0
 43
0.0
 43
1.0
 77
     0
 47
0.0008202099737533
 47
0.0
 47
0.0
 47
0.0
 47
0.0
 47
0.0008202099737533
 47
0.0
 47
0.0
 47
0.0
 47
0.0
 47
1.0
 47
0.0
 47
0.0
 47
0.0
 47
0.0
 47
1.0
171
     0
 49
0.0008202099737533
 49
0.0
 49
0.0
 49
0.0
 49
0.0
 49
0.0008202099737533
 49
0.0
 49
0.0
 49
0.0
 49
0.0
 49
1.0
 49
0.0
 49
0.0
 49
0.0
 49
0.0
 49
1.0
175
     0
142
0.0008202099737533
142
0.0
142
0.0
142
0.0
142
0.0
142
0.0008202099737533
142
0.0
142
0.0
142
0.0
142
0.0
142
1.0
142
0.0
142
0.0
142
0.0
142
0.0
142
1.0
179
     0
144
0.0008202099737533
144
0.0
144
0.0
144
0.0
144
0.0
144
0.0008202099737533
144
0.0
144
0.0
144
0.0
144
0.0
144
1.0
144
0.0
144
0.0
144
0.0
144
0.0
144
1.0
147
0.0008202099737533
147
0.0
147
0.0
147
0.0
147
0.0
147
0.0008202099737533
147
0.0
147
0.0
147
0.0
147
0.0
147
1.0
147
0.0
147
0.0
147
0.0
147
0.0
147
1.0
  0
MATERIAL
  5
3B4
102
{ACAD_XDICTIONARY
360
3B5
102
}
102
{ACAD_REACTORS
330
BD
102
}
330
BD
100
AcDbMaterial
  1
ByLayer
 72
     0
 43
0.0008202099737533
 43
0.0
 43
0.0
 43
0.0
 43
0.0
 43
0.0008202099737533
 43
0.0
 43
0.0
 43
0.0
 43
0.0
 43
1.0
 43
0.0
 43
0.0
 43
0.0
 43
0.0
 43
1.0
 77
     0
 47
0.0008202099737533
 47
0.0
 47
0.0
 47
0.0
 47
0.0
 47
0.0008202099737533
 47
0.0
 47
0.0
 47
0.0
 47
0.0
 47
1.0
 47
0.0
 47
0.0
 47
0.0
 47
0.0
 47
1.0
171
     0
 49
0.0008202099737533
 49
0.0
 49
0.0
 49
0.0
 49
0.0
 49
0.0008202099737533
 49
0.0
 49
0.0
 49
0.0
 49
0.0
 49
1.0
 49
0.0
 49
0.0
 49
0.0
 49
0.0
 49
1.0
175
     0
142
0.0008202099737533
142
0.0
142
0.0
142
0.0
142
0.0
142
0.0008202099737533
142
0.0
142
0.0
142
0.0
142
0.0
142
1.0
142
0.0
142
0.0
142
0.0
142
0.0
142
1.0
179
     0
144
0.0008202099737533
144
0.0
144
0.0
144
0.0
144
0.0
144
0.0008202099737533
144
0.0
144
0.0
144
0.0
144
0.0
144
1.0
144
0.0
144
0.0
144
0.0
144
0.0
144
1.0
147
0.0008202099737533
147
0.0
147
0.0
147
0.0
147
0.0
147
0.0008202099737533
147
0.0
147
0.0
147
0.0
147
0.0
147
1.0
147
0.0
147
0.0
147
0.0
147
0.0
147
1.0
  0
MATERIAL
  5
3C4
102
{ACAD_XDICTIONARY
360
3C5
102
}
102
{ACAD_REACTORS
330
BD
102
}
330
BD
100
AcDbMaterial
  1
Global
 72
     0
 43
0.0008202099737533
 43
0.0
 43
0.0
 43
0.0
 43
0.0
 43
0.0008202099737533
 43
0.0
 43
0.0
 43
0.0
 43
0.0
 43
1.0
 43
0.0
 43
0.0
 43
0.0
 43
0.0
 43
1.0
 77
     0
 47
0.0008202099737533
 47
0.0
 47
0.0
 47
0.0
 47
0.0
 47
0.0008202099737533
 47
0.0
 47
0.0
 47
0.0
 47
0.0
 47
1.0
 47
0.0
 47
0.0
 47
0.0
 47
0.0
 47
1.0
171
     0
 49
0.0008202099737533
 49
0.0
 49
0.0
 49
0.0
 49
0.0
 49
0.0008202099737533
 49
0.0
 49
0.0
 49
0.0
 49
0.0
 49
1.0
 49
0.0
 49
0.0
 49
0.0
 49
0.0
 49
1.0
175
     0
142
0.0008202099737533
142
0.0
142
0.0
142
0.0
142
0.0
142
0.0008202099737533
142
0.0
142
0.0
142
0.0
142
0.0
142
1.0
142
0.0
142
0.0
142
0.0
142
0.0
142
1.0
179
     0
144
0.0008202099737533
144
0.0
144
0.0
144
0.0
144
0.0
144
0.0008202099737533
144
0.0
144
0.0
144
0.0
144
0.0
144
1.0
144
0.0
144
0.0
144
0.0
144
0.0
144
1.0
147
0.0008202099737533
147
0.0
147
0.0
147
0.0
147
0.0
147
0.0008202099737533
147
0.0
147
0.0
147
0.0
147
0.0
147
1.0
147
0.0
147
0.0
147
0.0
147
0.0
147
1.0
  0
MLEADERSTYLE
  5
3F0
102
{ACAD_REACTORS
330
3EF
102
}
330
3EF
100
AcDbMLeaderStyle
170
     2
171
     1
172
     0
 90
        2
 40
0.0
 41
0.0
173
     1
 91
-1056964608
340
14
 92
       -2
290
     1
 42
2.0
291
     1
 43
0.36
  3
Standard
 44
4.0
300

342
11
174
     1
178
     6
175
     1
176
     0
 93
-1056964608
 45
4.0
292
     0
297
     0
 46
4.0
 94
-1056964608
 47
1.0
 49
1.0
140
1.0
293
     1
141
0.0
294
     1
177
     0
142
1.0
295
     0
296
     0
143
0.125
1001
ACAD_MLEADERVER
1070
     2
  0
MLINESTYLE
  5
18
102
{ACAD_REACTORS
330
17
102
}
330
17
100
AcDbMlineStyle
  2
STANDARD
 70
     0
  3

 62
   256
 51
90.0
 52
90.0
 71
     2
 49
0.5
 62
   256
  6
BYLAYER
 49
-0.5
 62
   256
  6
BYLAYER
  0
ACDBPLACEHOLDER
  5
F
102
{ACAD_REACTORS
330
E
102
}
330
E
  0
SCALE
  5
3DE
102
{ACAD_REACTORS
330
3DD
102
}
330
3DD
100
AcDbScale
 70
     0
300
1:1
140
1.0
141
1.0
290
     1
  0
SCALE
  5
3DF
102
{ACAD_REACTORS
330
3DD
102
}
330
3DD
100
AcDbScale
 70
     0
300
1:2
140
1.0
141
2.0
290
     0
  0
SCALE
  5
3E0
102
{ACAD_REACTORS
330
3DD
102
}
330
3DD
100
AcDbScale
 70
     0
300
1:4
140
1.0
141
4.0
290
     0
  0
SCALE
  5
3E1
102
{ACAD_REACTORS
330
3DD
102
}
330
3DD
100
AcDbScale
 70
     0
300
1:5
140
1.0
141
5.0
290
     0
  0
SCALE
  5
3E2
102
{ACAD_REACTORS
330
3DD
102
}
330
3DD
100
AcDbScale
 70
     0
300
1:8
140
1.0
141
8.0
290
     0
  0
SCALE
  5
3E3
102
{ACAD_REACTORS
330
3DD
102
}
330
3DD
100
AcDbScale
 70
     0
300
1:10
140
1.0
141
10.0
290
     0
  0
SCALE
  5
3E4
102
{ACAD_REACTORS
330
3DD
102
}
330
3DD
100
AcDbScale
 70
     0
300
1:16
140
1.0
141
16.0
290
     0
  0
SCALE
  5
3E5
102
{ACAD_REACTORS
330
3DD
102
}
330
3DD
100
AcDbScale
 70
     0
300
1:20
140
1.0
141
20.0
290
     0
  0
SCALE
  5
3E6
102
{ACAD_REACTORS
330
3DD
102
}
330
3DD
100
AcDbScale
 70
     0
300
1:30
140
1.0
141
30.0
290
     0
  0
SCALE
  5
3E7
102
{ACAD_REACTORS
330
3DD
102
}
330
3DD
100
AcDbScale
 70
     0
300
1:40
140
1.0
141
40.0
290
     0
  0
SCALE
  5
3E8
102
{ACAD_REACTORS
330
3DD
102
}
330
3DD
100
AcDbScale
 70
     0
300
1:50
140
1.0
141
50.0
290
     0
  0
SCALE
  5
3E9
102
{ACAD_REACTORS
330
3DD
102
}
330
3DD
100
AcDbScale
 70
     0
300
1:100
140
1.0
141
100.0
290
     0
  0
SCALE
  5
3EA
102
{ACAD_REACTORS
330
3DD
102
}
330
3DD
100
AcDbScale
 70
     0
300
2:1
140
2.0
141
1.0
290
     0
  0
SCALE
  5
3EB
102
{ACAD_REACTORS
330
3DD
102
}
330
3DD
100
AcDbScale
 70
     0
300
4:1
140
4.0
141
1.0
290
     0
  0
SCALE
  5
3EC
102
{ACAD_REACTORS
330
3DD
102
}
330
3DD
100
AcDbScale
 70
     0
300
8:1
140
8.0
141
1.0
290
     0
  0
SCALE
  5
3ED
102
{ACAD_REACTORS
330
3DD
102
}
330
3DD
100
AcDbScale
 70
     0
300
10:1
140
10.0
141
1.0
290
     0
  0
SCALE
  5
3EE
102
{ACAD_REACTORS
330
3DD
102
}
330
3DD
100
AcDbScale
 70
     0
300
100:1
140
100.0
141
1.0
290
     0
  0
TABLESTYLE
  5
11B
102
{ACAD_XDICTIONARY
360
41B
102
}
102
{ACAD_REACTORS
330
11A
102
}
330
11A
100
AcDbTableStyle
  3
Standard
 70
     0
 71
     0
 40
1.5
 41
1.5
280
     0
281
     0
  7
STANDARD
140
4.5
170
     2
 62
     0
 63
     7
283
     0
274
    -2
284
     1
 64
     0
275
    -2
285
     1
 65
     0
276
    -2
286
     1
 66
     0
277
    -2
287
     1
 67
     0
278
    -2
288
     1
 68
     0
279
    -2
289
     1
 69
     0
  7
STANDARD
140
6.0
170
     5
 62
     0
 63
     7
283
     0
274
    -2
284
     1
 64
     0
275
    -2
285
     1
 65
     0
276
    -2
286
     1
 66
     0
277
    -2
287
     1
 67
     0
278
    -2
288
     1
 68
     0
279
    -2
289
     1
 69
     0
  7
STANDARD
140
4.5
170
     5
 62
     0
 63
     7
283
     0
274
    -2
284
     1
 64
     0
275
    -2
285
     1
 65
     0
276
    -2
286
     1
 66
     0
277
    -2
287
     1
 67
     0
278
    -2
288
     1
 68
     0
279
    -2
289
     1
 69
     0
  0
VISUALSTYLE
  5
3D2
102
{ACAD_REACTORS
330
3CC
102
}
330
3CC
100
AcDbVisualStyle
  2
2dWireframe
 70
     4
 71
     0
 72
     2
 73
     0
 90
        0
 40
-0.6
 41
-30.0
 62
     5
 63
     7
 74
     1
 91
        4
 64
     7
 65
   257
 75
     1
175
     1
 42
1.0
 92
        0
 66
   257
 43
1.0
 76
     1
 77
     6
 78
     2
 67
     7
 79
     5
170
     0
171
     0
290
     0
174
     0
 93
        1
 44
0.0
173
     0
291
     0
 45
0.0
1001
ACAD
1000
AcDbSavedByObjectVersion
1070
     0
1000
AcDbSavedByObjectVersion
1070
     0
1000
AcDbSavedByObjectVersion
1070
     0
1000
AcDbSavedByObjectVersion
1070
     0
1000
AcDbSavedByObjectVersion
1070
     0
  0
VISUALSTYLE
  5
3D4
102
{ACAD_REACTORS
330
3CC
102
}
330
3CC
100
AcDbVisualStyle
  2
3D Hidden
 70
     6
 71
     1
 72
     2
 73
     2
 90
        0
 40
-0.6
 41
-30.0
 62
     5
 63
     7
 74
     2
 91
        2
 64
     7
 65
   257
 75
     2
175
     1
 42
40.0
 92
        0
 66
   257
 43
1.0
 76
     1
 77
     6
 78
     2
 67
     7
 79
     3
170
     0
171
     0
290
     0
174
     0
 93
        1
 44
0.0
173
     0
291
     0
 45
0.0
1001
ACAD
1000
AcDbSavedByObjectVersion
1070
     0
1000
AcDbSavedByObjectVersion
1070
     0
1000
AcDbSavedByObjectVersion
1070
     0
1000
AcDbSavedByObjectVersion
1070
     0
1000
AcDbSavedByObjectVersion
1070
     0
  0
VISUALSTYLE
  5
3D3
102
{ACAD_REACTORS
330
3CC
102
}
330
3CC
100
AcDbVisualStyle
  2
3dWireframe
 70
     5
 71
     0
 72
     2
 73
     0
 90
        0
 40
-0.6
 41
-30.0
 62
     5
 63
     7
 74
     1
 91
        4
 64
     7
 65
   257
 75
     1
175
     1
 42
1.0
 92
        0
 66
   257
 43
1.0
 76
     1
 77
     6
 78
     2
 67
     7
 79
     5
170
     0
171
     0
290
     0
174
     0
 93
        1
 44
0.0
173
     0
291
     0
 45
0.0
1001
ACAD
1000
AcDbSavedByObjectVersion
1070
     0
1000
AcDbSavedByObjectVersion
1070
     0
1000
AcDbSavedByObjectVersion
1070
     0
1000
AcDbSavedByObjectVersion
1070
     0
1000
AcDbSavedByObjectVersion
1070
     0
  0
VISUALSTYLE
  5
3D1
102
{ACAD_REACTORS
330
3CC
102
}
330
3CC
100
AcDbVisualStyle
  2
Basic
 70
     7
 71
     1
 72
     0
 73
     1
 90
        0
 40
-0.6
 41
-30.0
 62
     5
 63
     7
 74
     0
 91
        4
 64
     7
 65
   257
 75
     1
175
     1
 42
1.0
 92
        8
 66
     7
 43
1.0
 76
     1
 77
     6
 78
     2
 67
     7
 79
     5
170
     0
171
     0
290
     0
174
     0
 93
        1
 44
0.0
173
     0
291
     1
 45
0.0
1001
ACAD
1000
AcDbSavedByObjectVersion
1070
     0
1000
AcDbSavedByObjectVersion
1070
     0
1000
AcDbSavedByObjectVersion
1070
     0
1000
AcDbSavedByObjectVersion
1070
     0
1000
AcDbSavedByObjectVersion
1070
     0
  0
VISUALSTYLE
  5
3D8
102
{ACAD_REACTORS
330
3CC
102
}
330
3CC
100
AcDbVisualStyle
  2
Brighten
 70
    12
 71
     2
 72
     2
 73
     0
 90
        0
 40
-0.6
 41
-30.0
 62
     5
 63
     7
 74
     1
 91
        4
 64
     7
 65
   257
 75
     1
175
     1
 42
1.0
 92
        8
 66
     7
 43
1.0
 76
     1
 77
     6
 78
     2
 67
     7
 79
     5
170
     0
171
     0
290
     0
174
     0
 93
        1
 44
50.0
173
     0
291
     1
 45
0.0
1001
ACAD
1000
AcDbSavedByObjectVersion
1070
     0
1000
AcDbSavedByObjectVersion
1070
     0
1000
AcDbSavedByObjectVersion
1070
     0
1000
AcDbSavedByObjectVersion
1070
     0
1000
AcDbSavedByObjectVersion
1070
     0
  0
VISUALSTYLE
  5
3DC
102
{ACAD_REACTORS
330
3CC
102
}
330
3CC
100
AcDbVisualStyle
  2
ColorChange
 70
    16
 71
     2
 72
     2
 73
     3
 90
        0
 40
-0.6
 41
-30.0
 62
     5
 63
     8
 74
     1
 91
        4
 64
     7
 65
   257
 75
     1
175
     1
 42
1.0
 92
        8
 66
     8
 43
1.0
 76
     1
 77
     6
 78
     2
 67
     7
 79
     5
170
     0
171
     0
290
     0
174
     0
 93
        1
 44
0.0
173
     0
291
     1
 45
0.0
1001
ACAD
1000
AcDbSavedByObjectVersion
1070
     0
1000
AcDbSavedByObjectVersion
1070
     0
1000
AcDbSavedByObjectVersion
1070
     0
1000
AcDbSavedByObjectVersion
1070
     0
1000
AcDbSavedByObjectVersion
1070
     0
  0
VISUALSTYLE
  5
3D5
102
{ACAD_REACTORS
330
3CC
102
}
330
3CC
100
AcDbVisualStyle
  2
Conceptual
 70
     9
 71
     3
 72
     2
 73
     0
 90
        0
 40
-0.6
 41
-30.0
 62
     5
 63
     7
 74
     2
 91
        2
 64
     7
 65
   257
 75
     1
175
     1
 42
40.0
 92
        8
 66
     7
 43
1.0
 76
     1
 77
     6
 78
     2
 67
     7
 79
     3
170
     0
171
     0
290
     0
174
     0
 93
        1
 44
0.0
173
     0
291
     0
 45
0.0
1001
ACAD
1000
AcDbSavedByObjectVersion
1070
     0
1000
AcDbSavedByObjectVersion
1070
     0
1000
AcDbSavedByObjectVersion
1070
     0
1000
AcDbSavedByObjectVersion
1070
     0
1000
AcDbSavedByObjectVersion
1070
     0
  0
VISUALSTYLE
  5
3D7
102
{ACAD_REACTORS
330
3CC
102
}
330
3CC
100
AcDbVisualStyle
  2
Dim
 70
    11
 71
     2
 72
     2
 73
     0
 90
        0
 40
-0.6
 41
-30.0
 62
     5
 63
     7
 74
     1
 91
        4
 64
     7
 65
   257
 75
     1
175
     1
 42
1.0
 92
        8
 66
     7
 43
1.0
 76
     1
 77
     6
 78
     2
 67
     7
 79
     5
170
     0
171
     0
290
     0
174
     0
 93
        1
 44
-50.0
173
     0
291
     1
 45
0.0
1001
ACAD
1000
AcDbSavedByObjectVersion
1070
     0
1000
AcDbSavedByObjectVersion
1070
     0
1000
AcDbSavedByObjectVersion
1070
     0
1000
AcDbSavedByObjectVersion
1070
     0
1000
AcDbSavedByObjectVersion
1070
     0
  0
VISUALSTYLE
  5
3DB
102
{ACAD_REACTORS
330
3CC
102
}
330
3CC
100
AcDbVisualStyle
  2
Facepattern
 70
    15
 71
     2
 72
     2
 73
     0
 90
        0
 40
-0.6
 41
-30.0
 62
     5
 63
     7
 74
     1
 91
        4
 64
     7
 65
   257
 75
     1
175
     1
 42
1.0
 92
        8
 66
     7
 43
1.0
 76
     1
 77
     6
 78
     2
 67
     7
 79
     5
170
     0
171
     0
290
     0
174
     0
 93
        1
 44
0.0
173
     0
291
     1
 45
0.0
1001
ACAD
1000
AcDbSavedByObjectVersion
1070
     0
1000
AcDbSavedByObjectVersion
1070
     0
1000
AcDbSavedByObjectVersion
1070
     0
1000
AcDbSavedByObjectVersion
1070
     0
1000
AcDbSavedByObjectVersion
1070
     0
  0
VISUALSTYLE
  5
3CD
102
{ACAD_REACTORS
330
3CC
102
}
330
3CC
100
AcDbVisualStyle
  2
Flat
 70
     0
 71
     2
 72
     1
 73
     1
 90
        2
 40
-0.6
 41
30.0
 62
     5
 63
     7
 74
     0
 91
        4
 64
     7
 65
   257
 75
     1
175
     1
 42
1.0
 92
        8
 66
     7
 43
1.0
 76
     1
 77
     6
 78
     2
 67
     7
 79
     5
170
     0
171
     0
290
     0
174
     0
 93
       13
 44
0.0
173
     0
291
     1
 45
0.0
1001
ACAD
1000
AcDbSavedByObjectVersion
1070
     0
1000
AcDbSavedByObjectVersion
1070
     0
1000
AcDbSavedByObjectVersion
1070
     0
1000
AcDbSavedByObjectVersion
1070
     0
1000
AcDbSavedByObjectVersion
1070
     0
  0
VISUALSTYLE
  5
3CE
102
{ACAD_REACTORS
330
3CC
102
}
330
3CC
100
AcDbVisualStyle
  2
FlatWithEdges
 70
     1
 71
     2
 72
     1
 73
     1
 90
        2
 40
-0.6
 41
30.0
 62
     5
 63
     7
 74
     1
 91
        4
 64
     7
 65
   257
 75
     1
175
     1
 42
1.0
 92
        0
 66
   257
 43
1.0
 76
     1
 77
     6
 78
     2
 67
     7
 79
     5
170
     0
171
     0
290
     0
174
     0
 93
       13
 44
0.0
173
     0
291
     1
 45
0.0
1001
ACAD
1000
AcDbSavedByObjectVersion
1070
     0
1000
AcDbSavedByObjectVersion
1070
     0
1000
AcDbSavedByObjectVersion
1070
     0
1000
AcDbSavedByObjectVersion
1070
     0
1000
AcDbSavedByObjectVersion
1070
     0
  0
VISUALSTYLE
  5
3CF
102
{ACAD_REACTORS
330
3CC
102
}
330
3CC
100
AcDbVisualStyle
  2
Gouraud
 70
     2
 71
     2
 72
     2
 73
     1
 90
        2
 40
-0.6
 41
30.0
 62
     5
 63
     7
 74
     0
 91
        4
 64
     7
 65
   257
 75
     1
175
     1
 42
1.0
 92
        0
 66
     7
 43
1.0
 76
     1
 77
     6
 78
     2
 67
     7
 79
     5
170
     0
171
     0
290
     0
174
     0
 93
       13
 44
0.0
173
     0
291
     1
 45
0.0
1001
ACAD
1000
AcDbSavedByObjectVersion
1070
     0
1000
AcDbSavedByObjectVersion
1070
     0
1000
AcDbSavedByObjectVersion
1070
     0
1000
AcDbSavedByObjectVersion
1070
     0
1000
AcDbSavedByObjectVersion
1070
     0
  0
VISUALSTYLE
  5
3D0
102
{ACAD_REACTORS
330
3CC
102
}
330
3CC
100
AcDbVisualStyle
  2
GouraudWithEdges
 70
     3
 71
     2
 72
     2
 73
     1
 90
        2
 40
-0.6
 41
30.0
 62
     5
 63
     7
 74
     1
 91
        4
 64
     7
 65
   257
 75
     1
175
     1
 42
1.0
 92
        0
 66
   257
 43
1.0
 76
     1
 77
     6
 78
     2
 67
     7
 79
     5
170
     0
171
     0
290
     0
174
     0
 93
       13
 44
0.0
173
     0
291
     1
 45
0.0
1001
ACAD
1000
AcDbSavedByObjectVersion
1070
     0
1000
AcDbSavedByObjectVersion
1070
     0
1000
AcDbSavedByObjectVersion
1070
     0
1000
AcDbSavedByObjectVersion
1070
     0
1000
AcDbSavedByObjectVersion
1070
     0
  0
VISUALSTYLE
  5
3DA
102
{ACAD_REACTORS
330
3CC
102
}
330
3CC
100
AcDbVisualStyle
  2
Linepattern
 70
    14
 71
     2
 72
     2
 73
     0
 90
        0
 40
-0.6
 41
-30.0
 62
     5
 63
     7
 74
     1
 91
        4
 64
     7
 65
   257
 75
     7
175
     7
 42
1.0
 92
        8
 66
     7
 43
1.0
 76
     1
 77
     6
 78
     2
 67
     7
 79
     5
170
     0
171
     0
290
     0
174
     0
 93
        1
 44
0.0
173
     0
291
     1
 45
0.0
1001
ACAD
1000
AcDbSavedByObjectVersion
1070
     0
1000
AcDbSavedByObjectVersion
1070
     0
1000
AcDbSavedByObjectVersion
1070
     0
1000
AcDbSavedByObjectVersion
1070
     0
1000
AcDbSavedByObjectVersion
1070
     0
  0
VISUALSTYLE
  5
3D6
102
{ACAD_REACTORS
330
3CC
102
}
330
3CC
100
AcDbVisualStyle
  2
Realistic
 70
     8
 71
     2
 72
     2
 73
     0
 90
        0
 40
-0.6
 41
-30.0
 62
     5
 63
     7
 74
     1
 91
        0
 64
     7
 65
   257
 75
     1
175
     1
 42
1.0
 92
        8
 66
     8
 43
1.0
 76
     1
 77
     6
 78
     2
 67
     7
 79
     5
170
     0
171
     0
290
     0
174
     0
 93
       13
 44
0.0
173
     0
291
     0
 45
0.0
1001
ACAD
1000
AcDbSavedByObjectVersion
1070
     0
1000
AcDbSavedByObjectVersion
1070
     0
1000
AcDbSavedByObjectVersion
1070
     0
1000
AcDbSavedByObjectVersion
1070
     0
1000
AcDbSavedByObjectVersion
1070
     0
  0
VISUALSTYLE
  5
3D9
102
{ACAD_REACTORS
330
3CC
102
}
330
3CC
100
AcDbVisualStyle
  2
Thicken
 70
    13
 71
     2
 72
     2
 73
     0
 90
        0
 40
-0.6
 41
-30.0
 62
     5
 63
     7
 74
     1
 91
        4
 64
     7
 65
   257
 75
     1
175
     1
 42
1.0
 92
       12
 66
     7
 43
1.0
 76
     1
 77
     6
 78
     2
 67
     7
 79
     5
170
     0
171
     0
290
     0
174
     0
 93
        1
 44
0.0
173
     0
291
     1
 45
0.0
1001
ACAD
1000
AcDbSavedByObjectVersion
1070
     0
1000
AcDbSavedByObjectVersion
1070
     0
1000
AcDbSavedByObjectVersion
1070
     0
1000
AcDbSavedByObjectVersion
1070
     0
1000
AcDbSavedByObjectVersion
1070
     0
  0
DICTIONARYVAR
  5
420
102
{ACAD_REACTORS
330
94
102
}
330
94
100
DictionaryVariables
280
     0
  1
1:1
  0
DICTIONARYVAR
  5
41E
102
{ACAD_REACTORS
330
94
102
}
330
94
100
DictionaryVariables
280
     0
  1
STANDARD
  0
DICTIONARYVAR
  5
138
102
{ACAD_REACTORS
330
94
102
}
330
94
100
DictionaryVariables
280
     0
  1
STANDARD
  0
DICTIONARYVAR
  5
96
102
{ACAD_REACTORS
330
94
102
}
330
94
100
DictionaryVariables
280
     0
  1
2
  0
DICTIONARYVAR
  5
95
102
{ACAD_REACTORS
330
94
102
}
330
94
100
DictionaryVariables
280
     0
  1
0
  0
DICTIONARYVAR
  5
422
102
{ACAD_REACTORS
330
94
102
}
330
94
100
DictionaryVariables
280
     0
  1
1
  0
DICTIONARYVAR
  5
423
102
{ACAD_REACTORS
330
94
102
}
330
94
100
DictionaryVariables
280
     0
  1
15
  0
DICTIONARYVAR
  5
421
102
{ACAD_REACTORS
330
94
102
}
330
94
100
DictionaryVariables
280
     0
  1
0
  0
DICTIONARYVAR
  5
41F
102
{ACAD_REACTORS
330
94
102
}
330
94
100
DictionaryVariables
280
     0
  1
0
  0
DICTIONARYVAR
  5
9DC
102
{ACAD_REACTORS
330
94
102
}
330
94
100
DictionaryVariables
280
     0
  1
127
  0
DICTIONARY
  5
272
102
{ACAD_REACTORS
330
5B
102
}
330
5B
100
AcDbDictionary
281
     1
  0
DICTIONARY
  5
61
102
{ACAD_REACTORS
330
5B
102
}
330
5B
100
AcDbDictionary
281
     1
  0
XRECORD
  5
123
102
{ACAD_REACTORS
330
5B
102
}
330
5B
100
AcDbXrecord
280
     1
 90
-1023410169
  0
DICTIONARY
  5
F63
330
1E
100
AcDbDictionary
280
     1
281
     1
  3
ACAD_XREC_ROUNDTRIP
360
F64
  0
DICTIONARY
  5
F67
330
26
100
AcDbDictionary
280
     1
281
     1
  3
ACAD_XREC_ROUNDTRIP
360
F68
  0
DICTIONARY
  5
F65
330
22
100
AcDbDictionary
280
     1
281
     1
  3
ACAD_XREC_ROUNDTRIP
360
F66
  0
DICTIONARY
  5
3BD
330
3BC
100
AcDbDictionary
280
     1
281
     1
  3
ACAD_XREC_ROUNDTRIP
360
9E9
  3
BUMPTILE
360
3BF
  3
DIFFUSETILE
360
3BE
  3
OPACITYTILE
360
3C2
  3
REFLECTIONTILE
360
3C1
  3
REFRACTIONTILE
360
3C3
  3
SPECULARTILE
360
3C0
  0
DICTIONARY
  5
3B5
330
3B4
100
AcDbDictionary
280
     1
281
     1
  3
ACAD_XREC_ROUNDTRIP
360
9E8
  3
BUMPTILE
360
3B7
  3
DIFFUSETILE
360
3B6
  3
OPACITYTILE
360
3BA
  3
REFLECTIONTILE
360
3B9
  3
REFRACTIONTILE
360
3BB
  3
SPECULARTILE
360
3B8
  0
DICTIONARY
  5
3C5
330
3C4
100
AcDbDictionary
280
     1
281
     1
  3
ACAD_XREC_ROUNDTRIP
360
9EA
  3
BUMPTILE
360
3C7
  3
DIFFUSETILE
360
3C6
  3
OPACITYTILE
360
3CA
  3
REFLECTIONTILE
360
3C9
  3
REFRACTIONTILE
360
3CB
  3
SPECULARTILE
360
3C8
  0
DICTIONARY
  5
41B
330
11B
100
AcDbDictionary
280
     1
281
     1
  3
ACAD_ROUNDTRIP_2008_TABLESTYLE_CELLSTYLEMAP
360
F5C
  3
ACAD_XREC_ROUNDTRIP
360
F69
  0
XRECORD
  5
F64
102
{ACAD_REACTORS
330
F63
102
}
330
F63
100
AcDbXrecord
280
     1
102
SHADEPLOT
 70
     0
102
SHADEPLOTRESLEVEL
 70
     2
102
SHADEPLOTCUSTOMDPI
 70
   300
  0
XRECORD
  5
F68
102
{ACAD_REACTORS
330
F67
102
}
330
F67
100
AcDbXrecord
280
     1
102
SHADEPLOT
 70
     0
102
SHADEPLOTRESLEVEL
 70
     2
102
SHADEPLOTCUSTOMDPI
 70
   300
  0
XRECORD
  5
F66
102
{ACAD_REACTORS
330
F65
102
}
330
F65
100
AcDbXrecord
280
     1
102
SHADEPLOT
 70
     0
102
SHADEPLOTRESLEVEL
 70
     2
102
SHADEPLOTCUSTOMDPI
 70
   300
  0
XRECORD
  5
9E9
102
{ACAD_REACTORS
330
3BD
102
}
330
3BD
100
AcDbXrecord
280
     1
102
MATERIAL
148
0.0
149
0.0
149
0.0
 93
        0
 94
      127
282
     0
 72
     0
 77
     0
171
     0
175
     0
179
     0
273
     0
  0
XRECORD
  5
3BF
102
{ACAD_REACTORS
330
3BD
102
}
330
3BD
100
AcDbXrecord
280
     1
270
     1
271
     1
  0
XRECORD
  5
3BE
102
{ACAD_REACTORS
330
3BD
102
}
330
3BD
100
AcDbXrecord
280
     1
270
     1
271
     1
  0
XRECORD
  5
3C2
102
{ACAD_REACTORS
330
3BD
102
}
330
3BD
100
AcDbXrecord
280
     1
270
     1
271
     1
  0
XRECORD
  5
3C1
102
{ACAD_REACTORS
330
3BD
102
}
330
3BD
100
AcDbXrecord
280
     1
270
     1
271
     1
  0
XRECORD
  5
3C3
102
{ACAD_REACTORS
330
3BD
102
}
330
3BD
100
AcDbXrecord
280
     1
270
     1
271
     1
  0
XRECORD
  5
3C0
102
{ACAD_REACTORS
330
3BD
102
}
330
3BD
100
AcDbXrecord
280
     1
270
     1
271
     1
  0
XRECORD
  5
9E8
102
{ACAD_REACTORS
330
3B5
102
}
330
3B5
100
AcDbXrecord
280
     1
102
MATERIAL
148
0.0
149
0.0
149
0.0
 93
        0
 94
      127
282
     0
 72
     0
 77
     0
171
     0
175
     0
179
     0
273
     0
  0
XRECORD
  5
3B7
102
{ACAD_REACTORS
330
3B5
102
}
330
3B5
100
AcDbXrecord
280
     1
270
     1
271
     1
  0
XRECORD
  5
3B6
102
{ACAD_REACTORS
330
3B5
102
}
330
3B5
100
AcDbXrecord
280
     1
270
     1
271
     1
  0
XRECORD
  5
3BA
102
{ACAD_REACTORS
330
3B5
102
}
330
3B5
100
AcDbXrecord
280
     1
270
     1
271
     1
  0
XRECORD
  5
3B9
102
{ACAD_REACTORS
330
3B5
102
}
330
3B5
100
AcDbXrecord
280
     1
270
     1
271
     1
  0
XRECORD
  5
3BB
102
{ACAD_REACTORS
330
3B5
102
}
330
3B5
100
AcDbXrecord
280
     1
270
     1
271
     1
  0
XRECORD
  5
3B8
102
{ACAD_REACTORS
330
3B5
102
}
330
3B5
100
AcDbXrecord
280
     1
270
     1
271
     1
  0
XRECORD
  5
9EA
102
{ACAD_REACTORS
330
3C5
102
}
330
3C5
100
AcDbXrecord
280
     1
102
MATERIAL
148
0.0
149
0.0
149
0.0
 93
        0
 94
      127
282
     0
 72
     0
 77
     0
171
     0
175
     0
179
     0
273
     0
  0
XRECORD
  5
3C7
102
{ACAD_REACTORS
330
3C5
102
}
330
3C5
100
AcDbXrecord
280
     1
270
     1
271
     1
  0
XRECORD
  5
3C6
102
{ACAD_REACTORS
330
3C5
102
}
330
3C5
100
AcDbXrecord
280
     1
270
     1
271
     1
  0
XRECORD
  5
3CA
102
{ACAD_REACTORS
330
3C5
102
}
330
3C5
100
AcDbXrecord
280
     1
270
     1
271
     1
  0
XRECORD
  5
3C9
102
{ACAD_REACTORS
330
3C5
102
}
330
3C5
100
AcDbXrecord
280
     1
270
     1
271
     1
  0
XRECORD
  5
3CB
102
{ACAD_REACTORS
330
3C5
102
}
330
3C5
100
AcDbXrecord
280
     1
270
     1
271
     1
  0
XRECORD
  5
3C8
102
{ACAD_REACTORS
330
3C5
102
}
330
3C5
100
AcDbXrecord
280
     1
270
     1
271
     1
  0
CELLSTYLEMAP
  5
F5C
102
{ACAD_REACTORS
330
41B
102
}
330
41B
100
AcDbCellStyleMap
 90
        3
300
CELLSTYLE
  1
TABLEFORMAT_BEGIN
 90
        5
170
     1
 91
        0
 92
    32768
 62
   257
 93
        1
300
CONTENTFORMAT
  1
CONTENTFORMAT_BEGIN
 90
        0
 91
        0
 92
        4
 93
        0
300

 40
0.0
140
1.0
 94
        5
 62
     0
340
11
144
6.0
309
CONTENTFORMAT_END
171
     1
301
MARGIN
  1
CELLMARGIN_BEGIN
 40
1.5
 40
1.5
 40
1.5
 40
1.5
 40
0.18
 40
0.18
309
CELLMARGIN_END
 94
        6
 95
        1
302
GRIDFORMAT
  1
GRIDFORMAT_BEGIN
 90
        0
 91
        1
 62
     0
 92
       -2
340
0
 93
        0
 40
0.045
309
GRIDFORMAT_END
 95
        2
302
GRIDFORMAT
  1
GRIDFORMAT_BEGIN
 90
        0
 91
        1
 62
     0
 92
       -2
340
0
 93
        0
 40
0.045
309
GRIDFORMAT_END
 95
        4
302
GRIDFORMAT
  1
GRIDFORMAT_BEGIN
 90
        0
 91
        1
 62
     0
 92
       -2
340
0
 93
        0
 40
0.045
309
GRIDFORMAT_END
 95
        8
302
GRIDFORMAT
  1
GRIDFORMAT_BEGIN
 90
        0
 91
        1
 62
     0
 92
       -2
340
0
 93
        0
 40
0.045
309
GRIDFORMAT_END
 95
       16
302
GRIDFORMAT
  1
GRIDFORMAT_BEGIN
 90
        0
 91
        1
 62
     0
 92
       -2
340
0
 93
        0
 40
0.045
309
GRIDFORMAT_END
 95
       32
302
GRIDFORMAT
  1
GRIDFORMAT_BEGIN
 90
        0
 91
        1
 62
     0
 92
       -2
340
0
 93
        0
 40
0.045
309
GRIDFORMAT_END
309
TABLEFORMAT_END
  1
CELLSTYLE_BEGIN
 90
        1
 91
        1
300
_TITLE
309
CELLSTYLE_END
300
CELLSTYLE
  1
TABLEFORMAT_BEGIN
 90
        5
170
     1
 91
        0
 92
        0
 62
   257
 93
        1
300
CONTENTFORMAT
  1
CONTENTFORMAT_BEGIN
 90
        0
 91
        0
 92
        4
 93
        0
300

 40
0.0
140
1.0
 94
        5
 62
     0
340
11
144
4.5
309
CONTENTFORMAT_END
171
     1
301
MARGIN
  1
CELLMARGIN_BEGIN
 40
1.5
 40
1.5
 40
1.5
 40
1.5
 40
0.18
 40
0.18
309
CELLMARGIN_END
 94
        6
 95
        1
302
GRIDFORMAT
  1
GRIDFORMAT_BEGIN
 90
        0
 91
        1
 62
     0
 92
       -2
340
0
 93
        0
 40
0.045
309
GRIDFORMAT_END
 95
        2
302
GRIDFORMAT
  1
GRIDFORMAT_BEGIN
 90
        0
 91
        1
 62
     0
 92
       -2
340
0
 93
        0
 40
0.045
309
GRIDFORMAT_END
 95
        4
302
GRIDFORMAT
  1
GRIDFORMAT_BEGIN
 90
        0
 91
        1
 62
     0
 92
       -2
340
0
 93
        0
 40
0.045
309
GRIDFORMAT_END
 95
        8
302
GRIDFORMAT
  1
GRIDFORMAT_BEGIN
 90
        0
 91
        1
 62
     0
 92
       -2
340
0
 93
        0
 40
0.045
309
GRIDFORMAT_END
 95
       16
302
GRIDFORMAT
  1
GRIDFORMAT_BEGIN
 90
        0
 91
        1
 62
     0
 92
       -2
340
0
 93
        0
 40
0.045
309
GRIDFORMAT_END
 95
       32
302
GRIDFORMAT
  1
GRIDFORMAT_BEGIN
 90
        0
 91
        1
 62
     0
 92
       -2
340
0
 93
        0
 40
0.045
309
GRIDFORMAT_END
309
TABLEFORMAT_END
  1
CELLSTYLE_BEGIN
 90
        2
 91
        1
300
_HEADER
309
CELLSTYLE_END
300
CELLSTYLE
  1
TABLEFORMAT_BEGIN
 90
        5
170
     1
 91
        0
 92
        0
 62
   257
 93
        1
300
CONTENTFORMAT
  1
CONTENTFORMAT_BEGIN
 90
        0
 91
        0
 92
        4
 93
        0
300

 40
0.0
140
1.0
 94
        2
 62
     0
340
11
144
4.5
309
CONTENTFORMAT_END
171
     1
301
MARGIN
  1
CELLMARGIN_BEGIN
 40
1.5
 40
1.5
 40
1.5
 40
1.5
 40
0.18
 40
0.18
309
CELLMARGIN_END
 94
        6
 95
        1
302
GRIDFORMAT
  1
GRIDFORMAT_BEGIN
 90
        0
 91
        1
 62
     0
 92
       -2
340
0
 93
        0
 40
0.045
309
GRIDFORMAT_END
 95
        2
302
GRIDFORMAT
  1
GRIDFORMAT_BEGIN
 90
        0
 91
        1
 62
     0
 92
       -2
340
0
 93
        0
 40
0.045
309
GRIDFORMAT_END
 95
        4
302
GRIDFORMAT
  1
GRIDFORMAT_BEGIN
 90
        0
 91
        1
 62
     0
 92
       -2
340
0
 93
        0
 40
0.045
309
GRIDFORMAT_END
 95
        8
302
GRIDFORMAT
  1
GRIDFORMAT_BEGIN
 90
        0
 91
        1
 62
     0
 92
       -2
340
0
 93
        0
 40
0.045
309
GRIDFORMAT_END
 95
       16
302
GRIDFORMAT
  1
GRIDFORMAT_BEGIN
 90
        0
 91
        1
 62
     0
 92
       -2
340
0
 93
        0
 40
0.045
309
GRIDFORMAT_END
 95
       32
302
GRIDFORMAT
  1
GRIDFORMAT_BEGIN
 90
        0
 91
        1
 62
     0
 92
       -2
340
0
 93
        0
 40
0.045
309
GRIDFORMAT_END
309
TABLEFORMAT_END
  1
CELLSTYLE_BEGIN
 90
        3
 91
        2
300
_DATA
309
CELLSTYLE_END
  0
XRECORD
  5
F69
102
{ACAD_REACTORS
330
41B
102
}
330
41B
100
AcDbXrecord
280
     1
102
ACAD_ROUNDTRIP_PRE2007_TABLESTYLE
 90
        4
 91
        0
  1

 92
        4
 93
        0
  2

 94
        4
 95
        0
  3

  0
ENDSEC
  0
EOF
