  0
SECTION
  2
HEADER
  9
$ACADVER
  1
AC1015
  9
$ACADMAINTVER
 70
    20
  9
$DWGCODEPAGE
  3
ANSI_1252
  9
$INSBASE
 10
0.0
 20
0.0
 30
0.0
  9
$EXTMIN
 10
-654.2901141827
 20
-159.7396659108559
 30
0.0
  9
$EXTMAX
 10
362.0902978529493
 20
510.3699809657423
 30
0.0
  9
$LIMMIN
 10
0.0
 20
0.0
  9
$LIMMAX
 10
420.0
 20
297.0
  9
$ORTHOMODE
 70
     1
  9
$REGENMODE
 70
     1
  9
$FILLMODE
 70
     1
  9
$QTEXTMODE
 70
     0
  9
$MIRRTEXT
 70
     0
  9
$LTSCALE
 40
23.1
  9
$ATTMODE
 70
     1
  9
$TEXTSIZE
 40
0.2
  9
$TRACEWID
 40
0.05
  9
$TEXTSTYLE
  7
STANDARD
  9
$CLAYER
  8
0
  9
$CELTYPE
  6
BYLAYER
  9
$CECOLOR
 62
   256
  9
$CELTSCALE
 40
1.0
  9
$DISPSILH
 70
     0
  9
$DIMSCALE
 40
1.0
  9
$DIMASZ
 40
3.5
  9
$DIMEXO
 40
1.5
  9
$DIMDLI
 40
15.96
  9
$DIMRND
 40
0.0
  9
$DIMDLE
 40
0.0
  9
$DIMEXE
 40
1.5
  9
$DIMTP
 40
0.005
  9
$DIMTM
 40
0.005
  9
$DIMTXT
 40
3.5
  9
$DIMCEN
 40
3.779999999999998
  9
$DIMTSZ
 40
0.0
  9
$DIMTOL
 70
     1
  9
$DIMLIM
 70
     0
  9
$DIMTIH
 70
     1
  9
$DIMTOH
 70
     1
  9
$DIMSE1
 70
     0
  9
$DIMSE2
 70
     0
  9
$DIMTAD
 70
     0
  9
$DIMZIN
 70
     0
  9
$DIMBLK
  1
_FILLED
  9
$DIMASO
 70
     1
  9
$DIMSHO
 70
     1
  9
$DIMPOST
  1

  9
$DIMAPOST
  1

  9
$DIMALT
 70
     0
  9
$DIMALTD
 70
     2
  9
$DIMALTF
 40
25.4
  9
$DIMLFAC
 40
1.0
  9
$DIMTOFL
 70
     0
  9
$DIMTVP
 40
0.0
  9
$DIMTIX
 70
     0
  9
$DIMSOXD
 70
     0
  9
$DIMSAH
 70
     0
  9
$DIMBLK1
  1

  9
$DIMBLK2
  1

  9
$DIMSTYLE
  2
STANDARD
  9
$DIMCLRD
 70
     0
  9
$DIMCLRE
 70
     0
  9
$DIMCLRT
 70
     0
  9
$DIMTFAC
 40
1.0
  9
$DIMGAP
 40
0.625
  9
$DIMJUST
 70
     0
  9
$DIMSD1
 70
     0
  9
$DIMSD2
 70
     0
  9
$DIMTOLJ
 70
     1
  9
$DIMTZIN
 70
     0
  9
$DIMALTZ
 70
     0
  9
$DIMALTTZ
 70
     0
  9
$DIMUPT
 70
     0
  9
$DIMDEC
 70
     0
  9
$DIMTDEC
 70
     4
  9
$DIMALTU
 70
     2
  9
$DIMALTTD
 70
     2
  9
$DIMTXSTY
  7
STANDARD
  9
$DIMAUNIT
 70
     0
  9
$DIMADEC
 70
     0
  9
$DIMALTRND
 40
0.0
  9
$DIMAZIN
 70
     0
  9
$DIMDSEP
 70
    46
  9
$DIMATFIT
 70
     3
  9
$DIMFRAC
 70
     0
  9
$DIMLDRBLK
  1

  9
$DIMLUNIT
 70
     2
  9
$DIMLWD
 70
    -2
  9
$DIMLWE
 70
    -2
  9
$DIMTMOVE
 70
     0
  9
$LUNITS
 70
     2
  9
$LUPREC
 70
     2
  9
$SKETCHINC
 40
0.1
  9
$FILLETRAD
 40
0.0
  9
$AUNITS
 70
     0
  9
$AUPREC
 70
     0
  9
$MENU
  1
.
  9
$ELEVATION
 40
0.0
  9
$PELEVATION
 40
0.0
  9
$THICKNESS
 40
0.0
  9
$LIMCHECK
 70
     0
  9
$CHAMFERA
 40
0.0
  9
$CHAMFERB
 40
0.0
  9
$CHAMFERC
 40
0.0
  9
$CHAMFERD
 40
0.0
  9
$SKPOLY
 70
     0
  9
$TDCREATE
 40
2457416.458281586
  9
$TDUCREATE
 40
2457416.416614919
  9
$TDUPDATE
 40
2457799.483130220
  9
$TDUUPDATE
 40
2457799.441463553
  9
$TDINDWG
 40
0.0802232986
  9
$TDUSRTIMER
 40
0.0802229630
  9
$USRTIMER
 70
     1
  9
$ANGBASE
 50
0.0
  9
$ANGDIR
 70
     0
  9
$PDMODE
 70
     3
  9
$PDSIZE
 40
0.3125
  9
$PLINEWID
 40
0.0
  9
$SPLFRAME
 70
     0
  9
$SPLINETYPE
 70
     6
  9
$SPLINESEGS
 70
     8
  9
$HANDSEED
  5
1AA9
  9
$SURFTAB1
 70
     6
  9
$SURFTAB2
 70
     6
  9
$SURFTYPE
 70
     6
  9
$SURFU
 70
     6
  9
$SURFV
 70
     6
  9
$UCSBASE
  2

  9
$UCSNAME
  2

  9
$UCSORG
 10
0.0
 20
0.0
 30
0.0
  9
$UCSXDIR
 10
1.0
 20
0.0
 30
0.0
  9
$UCSYDIR
 10
0.0
 20
1.0
 30
0.0
  9
$UCSORTHOREF
  2

  9
$UCSORTHOVIEW
 70
     0
  9
$UCSORGTOP
 10
0.0
 20
0.0
 30
0.0
  9
$UCSORGBOTTOM
 10
0.0
 20
0.0
 30
0.0
  9
$UCSORGLEFT
 10
0.0
 20
0.0
 30
0.0
  9
$UCSORGRIGHT
 10
0.0
 20
0.0
 30
0.0
  9
$UCSORGFRONT
 10
0.0
 20
0.0
 30
0.0
  9
$UCSORGBACK
 10
0.0
 20
0.0
 30
0.0
  9
$PUCSBASE
  2

  9
$PUCSNAME
  2

  9
$PUCSORG
 10
0.0
 20
0.0
 30
0.0
  9
$PUCSXDIR
 10
1.0
 20
0.0
 30
0.0
  9
$PUCSYDIR
 10
0.0
 20
1.0
 30
0.0
  9
$PUCSORTHOREF
  2

  9
$PUCSORTHOVIEW
 70
     0
  9
$PUCSORGTOP
 10
0.0
 20
0.0
 30
0.0
  9
$PUCSORGBOTTOM
 10
0.0
 20
0.0
 30
0.0
  9
$PUCSORGLEFT
 10
0.0
 20
0.0
 30
0.0
  9
$PUCSORGRIGHT
 10
0.0
 20
0.0
 30
0.0
  9
$PUCSORGFRONT
 10
0.0
 20
0.0
 30
0.0
  9
$PUCSORGBACK
 10
0.0
 20
0.0
 30
0.0
  9
$USERI1
 70
     0
  9
$USERI2
 70
     0
  9
$USERI3
 70
     0
  9
$USERI4
 70
     0
  9
$USERI5
 70
     0
  9
$USERR1
 40
0.0
  9
$USERR2
 40
0.0
  9
$USERR3
 40
0.0
  9
$USERR4
 40
0.0
  9
$USERR5
 40
0.0
  9
$WORLDVIEW
 70
     1
  9
$SHADEDGE
 70
     3
  9
$SHADEDIF
 70
    70
  9
$TILEMODE
 70
     1
  9
$MAXACTVP
 70
    64
  9
$PINSBASE
 10
0.0
 20
0.0
 30
0.0
  9
$PLIMCHECK
 70
     0
  9
$PEXTMIN
 10
1.000000000000000E+20
 20
1.000000000000000E+20
 30
1.000000000000000E+20
  9
$PEXTMAX
 10
-1.000000000000000E+20
 20
-1.000000000000000E+20
 30
-1.000000000000000E+20
  9
$PLIMMIN
 10
0.0
 20
0.0
  9
$PLIMMAX
 10
12.0
 20
9.0
  9
$UNITMODE
 70
     0
  9
$VISRETAIN
 70
     1
  9
$PLINEGEN
 70
     0
  9
$PSLTSCALE
 70
     1
  9
$TREEDEPTH
 70
  3020
  9
$CMLSTYLE
  2
Standard
  9
$CMLJUST
 70
     0
  9
$CMLSCALE
 40
1.0
  9
$PROXYGRAPHICS
 70
     1
  9
$MEASUREMENT
 70
     1
  9
$CELWEIGHT
370
    -1
  9
$ENDCAPS
280
     0
  9
$JOINSTYLE
280
     0
  9
$LWDISPLAY
290
     0
  9
$INSUNITS
 70
     4
  9
$HYPERLINKBASE
  1

  9
$STYLESHEET
  1

  9
$XEDIT
290
     1
  9
$CEPSNTYPE
380
     0
  9
$PSTYLEMODE
290
     1
  9
$FINGERPRINTGUID
  2
{766915AB-09F7-464E-9DA9-2BB7D140AE75}
  9
$VERSIONGUID
  2
{0FCFF318-5AB4-425D-9F24-03042282AF08}
  9
$EXTNAMES
290
     1
  9
$PSVPSCALE
 40
0.0
  9
$OLESTARTUP
290
     0
  0
ENDSEC
  0
SECTION
  2
CLASSES
  0
CLASS
  1
ACDBDICTIONARYWDFLT
  2
AcDbDictionaryWithDefault
  3
ObjectDBX Classes
 90
        0
280
     0
281
     0
  0
CLASS
  1
ACDBPLACEHOLDER
  2
AcDbPlaceHolder
  3
ObjectDBX Classes
 90
        0
280
     0
281
     0
  0
CLASS
  1
LAYOUT
  2
AcDbLayout
  3
ObjectDBX Classes
 90
        0
280
     0
281
     0
  0
CLASS
  1
MATERIAL
  2
AcDbMaterial
  3
ObjectDBX Classes
 90
     1153
280
     0
281
     0
  0
CLASS
  1
VISUALSTYLE
  2
AcDbVisualStyle
  3
ObjectDBX Classes
 90
     4095
280
     0
281
     0
  0
CLASS
  1
TABLESTYLE
  2
AcDbTableStyle
  3
ObjectDBX Classes
 90
     4095
280
     0
281
     0
  0
CLASS
  1
SCALE
  2
AcDbScale
  3
ObjectDBX Classes
 90
     1153
280
     0
281
     0
  0
CLASS
  1
MLEADERSTYLE
  2
AcDbMLeaderStyle
  3
ACDB_MLEADERSTYLE_CLASS
 90
     4095
280
     0
281
     0
  0
CLASS
  1
ACDBSECTIONVIEWSTYLE
  2
AcDbSectionViewStyle
  3
ObjectDBX Classes
 90
     1025
280
     0
281
     0
  0
CLASS
  1
ACDBDETAILVIEWSTYLE
  2
AcDbDetailViewStyle
  3
ObjectDBX Classes
 90
     1025
280
     0
281
     0
  0
CLASS
  1
AMGSETTINGSOBJ
  2
AmgSettingsObj
  3
"AcadM|Product Description: AutoCAD Mechanical|Company: Autodesk, Inc."
 90
     1024
280
     0
281
     0
  0
CLASS
  1
ACME_DOCUMENT
  2
AcMeDbDoc
  3
AcMeServices
 90
     1024
280
     0
281
     0
  0
CLASS
  1
ACMESCOPE
  2
AcMeScope
  3
AcMeServices
 90
     1024
280
     0
281
     0
  0
CLASS
  1
ACMECOMMANDHISTORY
  2
AcMeCommandHistory
  3
AcMeServices
 90
     1024
280
     0
281
     0
  0
CLASS
  1
ACIMSYSVARMAN
  2
AcImSysVarManager
  3
AcMeServices
 90
     1024
280
     0
281
     0
  0
CLASS
  1
ACIMINTSYSVAR
  2
AcImIntSysVar
  3
AcMeServices
 90
     1024
280
     0
281
     0
  0
CLASS
  1
ACMESTATEMGR
  2
AcMeStateMgr
  3
AcMeServices
 90
     1024
280
     0
281
     0
  0
CLASS
  1
ACDBENTITYCACHE
  2
AcMeEntityCache
  3
AcMeServices
 90
     1024
280
     0
281
     0
  0
CLASS
  1
ACGREFMASTER
  2
AcGrefMaster
  3
AcAttribServices
 90
     1024
280
     0
281
     0
  0
CLASS
  1
ACME_DATABASE
  2
AcMeDbDatabase
  3
AcMeServices
 90
     1024
280
     0
281
     0
  0
CLASS
  1
ACRFINSADJUSTERMGR
  2
AcRfInsAdjusterMgr
  3
AcMeServices
 90
     1024
280
     0
281
     0
  0
CLASS
  1
ACGREFACADMASTER
  2
AcGrefacadMaster
  3
AcGrefServices
 90
     1024
280
     0
281
     0
  0
CLASS
  1
AMDTMENUSTATEMGR
  2
AmdtMenuStateMgr
  3
McadcomServices
 90
     1024
280
     0
281
     0
  0
CLASS
  1
AMDTMCOMMENUSTATE
  2
AmdtMcomMenuState
  3
McadcomServices
 90
     1024
280
     0
281
     0
  0
CLASS
  1
AMIMASTER
  2
AmiMaster
  3
AmiServices
 90
     1024
280
     0
281
     0
  0
CLASS
  1
MAPIAMMOUDLE
  2
MApiAmModule
  3
MApiAmServices
 90
     1024
280
     0
281
     0
  0
CLASS
  1
ACIMSTRSYSVAR
  2
AcImStrSysVar
  3
AcMeServices
 90
     1024
280
     0
281
     0
  0
CLASS
  1
AMDTAMMENUSTATE
  2
AmdtAmMenuState
  3
DesignerAssemblies
 90
     1024
280
     0
281
     0
  0
CLASS
  1
ACAMPROJECT
  2
AcAmProject
  3
DesignerAssemblies
 90
     1024
280
     0
281
     0
  0
CLASS
  1
ACAMGRCOMPDEF
  2
AcAmGrCompDef
  3
DesignerAssemblies
 90
     1024
280
     0
281
     0
  0
CLASS
  1
ACAMCOMPDEF
  2
AcAmCompDef
  3
DesignerAssemblies
 90
     1024
280
     0
281
     0
  0
CLASS
  1
ACAMCOMPDEFMGR
  2
AcAmCompDefMgr
  3
DesignerAssemblies
 90
     1024
280
     0
281
     0
  0
CLASS
  1
AMCONTEXTMGR
  2
AcAmContextMgr
  3
DesignerAssemblies
 90
     1024
280
     0
281
     0
  0
CLASS
  1
ACAMCONTEXTMODELER
  2
AcAmContextModeler
  3
DesignerAssemblies
 90
     1024
280
     0
281
     0
  0
CLASS
  1
ACMDATADICTIONARY
  2
AcmDataDictionary
  3
"AcmSymBB|Product Description: AutoCAD Mechanical|Company: Autodesk, Inc."
 90
     1024
280
     0
281
     0
  0
CLASS
  1
ACAMGRCOMPDEFSET
  2
AcAmGrCompDefSet
  3
DesignerAssemblies
 90
     1024
280
     0
281
     0
  0
CLASS
  1
AMDTBROWSERDBTAB
  2
AmdtBrowserDbTab
  3
McadcomServices
 90
     1024
280
     0
281
     0
  0
CLASS
  1
CBROWSERAPPOBJECT
  2
CBrowserAppObject
  3
McadcomServices
 90
     1024
280
     0
281
     0
  0
CLASS
  1
DM_PLACEHOLDER
  2
AcDmSelsetPlaceholder
  3
McadcomServices
 90
     1024
280
     0
281
     0
  0
CLASS
  1
ACMSTANDARDISO
  2
AcmStandardISO
  3
"Amdt_StdImp|Product Description: AutoCAD Mechanical|Company: Autodesk, Inc."
 90
     1024
280
     0
281
     0
  0
CLASS
  1
AMDTEDGESTANDARDISO13715
  2
AmdtEdgeStdISO13715
  3
"Amdt_StdImp|Product Description: AutoCAD Mechanical|Company: Autodesk, Inc."
 90
     1024
280
     0
281
     0
  0
CLASS
  1
ACMSURFSTANDARDISO2002
  2
AcmSurfTextStdISO2002
  3
"Amdt_StdImp|Product Description: AutoCAD Mechanical|Company: Autodesk, Inc."
 90
     1024
280
     0
281
     0
  0
CLASS
  1
ACMFCFSTANDARDISO2004
  2
AcmFCFStdISO2004
  3
"Amdt_StdImp|Product Description: AutoCAD Mechanical|Company: Autodesk, Inc."
 90
     1024
280
     0
281
     0
  0
CLASS
  1
ACMWELDSTANDARDISO
  2
AcmWeldingStdISO
  3
"Amdt_StdImp|Product Description: AutoCAD Mechanical|Company: Autodesk, Inc."
 90
     1024
280
     0
281
     0
  0
CLASS
  1
ACMIDSTANDARDISO2004
  2
AcmIdStdISO2004
  3
"Amdt_StdImp|Product Description: AutoCAD Mechanical|Company: Autodesk, Inc."
 90
     1024
280
     0
281
     0
  0
CLASS
  1
ACMDATUMSTANDARDISO
  2
AcmDatumStdISO
  3
"Amdt_StdImp|Product Description: AutoCAD Mechanical|Company: Autodesk, Inc."
 90
     1024
280
     0
281
     0
  0
CLASS
  1
ACMBOMSTANDARDISO
  2
AcmBOMStdISO
  3
"Amdt_StdImp|Product Description: AutoCAD Mechanical|Company: Autodesk, Inc."
 90
     1024
280
     0
281
     0
  0
CLASS
  1
ACMDETAILSTANDARDISO
  2
AmdtDetailSymStdISO
  3
"Amdt_StdImp|Product Description: AutoCAD Mechanical|Company: Autodesk, Inc."
 90
     1024
280
     0
281
     0
  0
CLASS
  1
ACMSECTIONSTANDARDISO2001
  2
AmdtSectionSymStdISO2001
  3
"Amdt_StdImp|Product Description: AutoCAD Mechanical|Company: Autodesk, Inc."
 90
     1024
280
     0
281
     0
  0
CLASS
  1
ACMCENTERLINESTANDARDISO
  2
AmdtCenterLineStdISO
  3
"Amdt_StdImp|Product Description: AutoCAD Mechanical|Company: Autodesk, Inc."
 90
     1024
280
     0
281
     0
  0
CLASS
  1
ACMTHREADLINESTANDARDISO
  2
AmdtThreadLineStdISO
  3
"Amdt_StdImp|Product Description: AutoCAD Mechanical|Company: Autodesk, Inc."
 90
     1024
280
     0
281
     0
  0
CLASS
  1
ACMNOTESTANDARDISO
  2
AmdtNoteStdISO
  3
"Amdt_StdImp|Product Description: AutoCAD Mechanical|Company: Autodesk, Inc."
 90
     1024
280
     0
281
     0
  0
CLASS
  1
ACMTAPERSTANDARDISO
  2
AcmTaperStdISO
  3
"Amdt_StdImp|Product Description: AutoCAD Mechanical|Company: Autodesk, Inc."
 90
     1024
280
     0
281
     0
  0
CLASS
  1
ACMANOOTATIONVIEWSTANDARDISO
  2
AmdtAnViewStdISO
  3
"Amdt_StdImp|Product Description: AutoCAD Mechanical|Company: Autodesk, Inc."
 90
     1024
280
     0
281
     0
  0
CLASS
  1
ACAMGLAYSTD
  2
AcAmgLayStd
  3
"AmgLay|Product Description: AutoCAD Mechanical|Company: Autodesk, Inc."
 90
     1024
280
     0
281
     0
  0
CLASS
  1
ACAMGDIMSTD
  2
AcAmgDimStd
  3
"AmgDim|Product Description: AutoCAD Mechanical|Company: Autodesk, Inc."
 90
     1024
280
     0
281
     0
  0
CLASS
  1
AMGOBJPROPCFG
  2
AmgObjPropCfg
  3
"AmgLay|Product Description: AutoCAD Mechanical|Company: Autodesk, Inc."
 90
     1024
280
     0
281
     0
  0
CLASS
  1
ACAMGHOLECHARTSTDISO
  2
AcAmgHoleChartStdISO
  3
AmgDim|Product Description: AutoCAD Mechanical|Company: Autodesk, Inc.
 90
     1024
280
     0
281
     0
  0
CLASS
  1
ACAMGTITLESTD
  2
AcAmgTitleStd
  3
"AmgTitle|Product Description: AutoCAD Mechanical|Company: Autodesk, Inc."
 90
     1024
280
     0
281
     0
  0
CLASS
  1
ACMSECTIONSTANDARDCUSTOM
  2
AmdtSectionSymStdCustom
  3
"Amdt_StdImp|Product Description: AutoCAD Mechanical|Company: Autodesk, Inc."
 90
     1024
280
     0
281
     0
  0
CLASS
  1
ACMDETAILTANDARDCUSTOM
  2
AmdtDetailSymStdCustom
  3
"Amdt_StdImp|Product Description: AutoCAD Mechanical|Company: Autodesk, Inc."
 90
     1024
280
     0
281
     0
  0
CLASS
  1
FIELD
  2
AcDbField
  3
ObjectDBX Classes
 90
     1152
280
     0
281
     0
  0
CLASS
  1
FIELDLIST
  2
AcDbFieldList
  3
ObjectDBX Classes
 90
     1152
280
     0
281
     0
  0
CLASS
  1
AMDTNOTETEMPLATEDB
  2
AmdtNoteTemplateDB
  3
AcmSymBB|Product Description: AutoCAD Mechanical|Company: Autodesk, Inc.
 90
     1024
280
     0
281
     0
  0
CLASS
  1
ACAMGFILTERDAT
  2
AcAmgFilterDat
  3
"AcadM|Product Description: AutoCAD Mechanical|Company: Autodesk, Inc."
 90
    33792
280
     0
281
     0
  0
CLASS
  1
CAMSSTRUCTBTNSTATE
  2
StructBtnState
  3
DesignerAssemblies
 90
    33792
280
     0
281
     0
  0
CLASS
  1
DICTIONARYVAR
  2
AcDbDictionaryVar
  3
ObjectDBX Classes
 90
        0
280
     0
281
     0
  0
CLASS
  1
CELLSTYLEMAP
  2
AcDbCellStyleMap
  3
ObjectDBX Classes
 90
     1152
280
     0
281
     0
  0
CLASS
  1
SORTENTSTABLE
  2
AcDbSortentsTable
  3
ObjectDBX Classes
 90
        0
280
     0
281
     0
  0
ENDSEC
  0
SECTION
  2
TABLES
  0
TABLE
  2
VPORT
  5
8
330
0
100
AcDbSymbolTable
 70
     1
  0
VPORT
  5
1F4
330
8
100
AcDbSymbolTableRecord
100
AcDbViewportTableRecord
  2
*ACTIVE
 70
     0
 10
0.0
 20
0.0
 11
1.0
 21
1.0
 12
-90.61743475431285
 22
24.80697718260899
 13
0.0
 23
0.0
 14
1.0
 24
1.0
 15
0.0
 25
0.0
 16
0.0
 26
0.0
 36
1.0
 17
0.0
 27
0.0
 37
0.0
 40
427.4567103424906
 41
2.556074766355139
 42
50.0
 43
0.0
 44
0.0
 50
0.0
 51
0.0
 71
     0
 72
   100
 73
     1
 74
     1
 75
     0
 76
     0
 77
     0
 78
     0
281
     0
 65
     0
110
0.0
120
0.0
130
0.0
111
1.0
121
0.0
131
0.0
112
0.0
122
1.0
132
0.0
 79
     0
146
0.0
1001
ACAD_NAV_VCDISPLAY
1070
     3
  0
ENDTAB
  0
TABLE
  2
LTYPE
  5
5
330
0
100
AcDbSymbolTable
 70
     8
  0
LTYPE
  5
14
330
5
100
AcDbSymbolTableRecord
100
AcDbLinetypeTableRecord
  2
BYBLOCK
 70
     0
  3

 72
    65
 73
     0
 40
0.0
  0
LTYPE
  5
15
330
5
100
AcDbSymbolTableRecord
100
AcDbLinetypeTableRecord
  2
BYLAYER
 70
     0
  3

 72
    65
 73
     0
 40
0.0
  0
LTYPE
  5
16
330
5
100
AcDbSymbolTableRecord
100
AcDbLinetypeTableRecord
  2
CONTINUOUS
 70
     0
  3
Solid line
 72
    65
 73
     0
 40
0.0
  0
LTYPE
  5
1F5
330
5
100
AcDbSymbolTableRecord
100
AcDbLinetypeTableRecord
  2
CENTER
 70
     0
  3
____ _ ____ _ ____ _ ____ _ ____ _ ____ _ ____
 72
    65
 73
     4
 40
0.6
 49
0.375
 74
     0
 49
-0.075
 74
     0
 49
0.075
 74
     0
 49
-0.075
 74
     0
  0
LTYPE
  5
A84
330
5
100
AcDbSymbolTableRecord
100
AcDbLinetypeTableRecord
  2
ACISOWELD
 70
     0
  3
_ _ _ _ _
 72
    65
 73
     2
 40
2.0
 49
2.0
 74
     0
 49
-1.0
 74
     0
  0
LTYPE
  5
A85
330
5
100
AcDbSymbolTableRecord
100
AcDbLinetypeTableRecord
  2
ACISOTGL
 70
     0
  3
_ _ _ _ _
 72
    65
 73
     2
 40
3.0
 49
2.0
 74
     0
 49
-1.0
 74
     0
  0
LTYPE
  5
A86
330
5
100
AcDbSymbolTableRecord
100
AcDbLinetypeTableRecord
  2
ACISOTGB
 70
     0
  3
__ . . __ . .
 72
    65
 73
     6
 40
9.0
 49
4.0
 74
     0
 49
-1.0
 74
     0
 49
1.0
 74
     0
 49
-1.0
 74
     0
 49
1.0
 74
     0
 49
-1.0
 74
     0
  0
LTYPE
  5
1946
330
5
100
AcDbSymbolTableRecord
100
AcDbLinetypeTableRecord
  2
HIDDEN
 70
     0
  3
Hidden __ __ __ __ __ __ __ __ __ __ __ __ __ _
 72
    65
 73
     2
 40
9.524999999999998
 49
6.349999999999999
 74
     0
 49
-3.174999999999999
 74
     0
  0
LTYPE
  5
1947
330
5
100
AcDbSymbolTableRecord
100
AcDbLinetypeTableRecord
  2
PHANTOM2
 70
     0
  3
Phantom (.5x) ___ _ _ ___ _ _ ___ _ _ ___ _ _
 72
    65
 73
     6
 40
31.75
 49
15.875
 74
     0
 49
-3.174999999999999
 74
     0
 49
3.174999999999999
 74
     0
 49
-3.174999999999999
 74
     0
 49
3.174999999999999
 74
     0
 49
-3.174999999999999
 74
     0
  0
ENDTAB
  0
TABLE
  2
LAYER
  5
2
102
{ACAD_XDICTIONARY
360
19A2
102
}
330
0
100
AcDbSymbolTable
 70
     9
  0
LAYER
  5
10
102
{ACAD_XDICTIONARY
360
11CC
102
}
330
2
100
AcDbSymbolTableRecord
100
AcDbLayerTableRecord
  2
0
 70
     0
 62
     7
  6
CONTINUOUS
370
    -3
390
F
  0
LAYER
  5
1FD
102
{ACAD_XDICTIONARY
360
11CE
102
}
330
2
100
AcDbSymbolTableRecord
100
AcDbLayerTableRecord
  2
BEZUGSACHSEN
 70
     0
 62
     7
  6
CONTINUOUS
370
    -3
390
F
  0
LAYER
  5
1FF
102
{ACAD_XDICTIONARY
360
11D0
102
}
330
2
100
AcDbSymbolTableRecord
100
AcDbLayerTableRecord
  2
BG_STARTBEZUEGE
 70
     0
 62
     7
  6
CONTINUOUS
370
    -3
390
F
  0
LAYER
  5
201
102
{ACAD_XDICTIONARY
360
11D2
102
}
330
2
100
AcDbSymbolTableRecord
100
AcDbLayerTableRecord
  2
FASEN
 70
     0
 62
     7
  6
CONTINUOUS
370
    -3
390
F
  0
LAYER
  5
209
102
{ACAD_XDICTIONARY
360
11D4
102
}
330
2
100
AcDbSymbolTableRecord
100
AcDbLayerTableRecord
  2
RUNDUNGEN
 70
     0
 62
     7
  6
CONTINUOUS
370
    -3
390
F
  0
LAYER
  5
A9E
102
{ACAD_XDICTIONARY
360
11D6
102
}
330
2
100
AcDbSymbolTableRecord
100
AcDbLayerTableRecord
  2
AM_5
 70
     0
 62
     3
  6
CONTINUOUS
370
    25
390
F
1001
AcAecLayerStandard
1000

1000

  0
LAYER
  5
AA6
330
2
100
AcDbSymbolTableRecord
100
AcDbLayerTableRecord
  2
Defpoints
 70
     0
 62
     7
  6
CONTINUOUS
290
     0
370
    -3
390
F
  0
LAYER
  5
199D
102
{ACAD_XDICTIONARY
360
199E
102
}
330
2
100
AcDbSymbolTableRecord
100
AcDbLayerTableRecord
  2
TEIL_STARTBEZUEGE
 70
     0
 62
     7
  6
CONTINUOUS
370
    -3
390
F
  0
LAYER
  5
199F
102
{ACAD_XDICTIONARY
360
19A0
102
}
330
2
100
AcDbSymbolTableRecord
100
AcDbLayerTableRecord
  2
5
 70
     0
 62
     3
  6
CONTINUOUS
370
    -3
390
F
  0
ENDTAB
  0
TABLE
  2
STYLE
  5
3
330
0
100
AcDbSymbolTable
 70
     3
  0
STYLE
  5
11
330
3
100
AcDbSymbolTableRecord
100
AcDbTextStyleTableRecord
  2
STANDARD
 70
     0
 40
0.0
 41
0.7
 50
0.0
 71
     0
 42
0.2
  3
txt
  4

  0
STYLE
  5
A83
330
3
100
AcDbSymbolTableRecord
100
AcDbTextStyleTableRecord
  2
ACISOGDT
 70
     0
 40
0.0
 41
1.0
 50
0.0
 71
     0
 42
0.2
  3
amgdt.shx
  4

  0
STYLE
  5
197F
330
3
100
AcDbSymbolTableRecord
100
AcDbTextStyleTableRecord
  2
ACISOTS
 70
     0
 40
0.0
 41
1.0
 50
0.0
 71
     0
 42
0.2
  3
isocp.shx
  4

  0
ENDTAB
  0
TABLE
  2
VIEW
  5
6
330
0
100
AcDbSymbolTable
 70
     0
  0
ENDTAB
  0
TABLE
  2
UCS
  5
7
330
0
100
AcDbSymbolTable
 70
     0
  0
ENDTAB
  0
TABLE
  2
APPID
  5
9
330
0
100
AcDbSymbolTable
 70
    20
  0
APPID
  5
218
330
9
100
AcDbSymbolTableRecord
100
AcDbRegAppTableRecord
  2
ACAD
 70
     0
  0
APPID
  5
A32
330
9
100
AcDbSymbolTableRecord
100
AcDbRegAppTableRecord
  2
MCAD_NO_VIS
 70
     0
  0
APPID
  5
A33
330
9
100
AcDbSymbolTableRecord
100
AcDbRegAppTableRecord
  2
ACAD_TEMP_GRAPHIC
 70
     0
  0
APPID
  5
A3E
330
9
100
AcDbSymbolTableRecord
100
AcDbRegAppTableRecord
  2
ACATTRIBSERVICES
 70
     0
  0
APPID
  5
A56
330
9
100
AcDbSymbolTableRecord
100
AcDbRegAppTableRecord
  2
DESIGNERASSEMBLIES
 70
     0
  0
APPID
  5
A71
330
9
100
AcDbSymbolTableRecord
100
AcDbRegAppTableRecord
  2
ACAD_DSTYLE_DIMJAG
 70
     0
  0
APPID
  5
A72
330
9
100
AcDbSymbolTableRecord
100
AcDbRegAppTableRecord
  2
ACAD_DSTYLE_DIMBREAK
 70
     0
  0
APPID
  5
A96
330
9
100
AcDbSymbolTableRecord
100
AcDbRegAppTableRecord
  2
ACAD_NAV_VCDISPLAY
 70
     0
  0
APPID
  5
A9F
330
9
100
AcDbSymbolTableRecord
100
AcDbRegAppTableRecord
  2
AcAecLayerStandard
 70
     0
  0
APPID
  5
ABE
330
9
100
AcDbSymbolTableRecord
100
AcDbRegAppTableRecord
  2
GENIUS_GENDTOL_13
 70
     0
  0
APPID
  5
ABF
330
9
100
AcDbSymbolTableRecord
100
AcDbRegAppTableRecord
  2
ACAD_DSTYLE_DIMINSPECT
 70
     0
  0
APPID
  5
121E
330
9
100
AcDbSymbolTableRecord
100
AcDbRegAppTableRecord
  2
ACAD_MLEADERVER
 70
     0
  0
APPID
  5
1223
330
9
100
AcDbSymbolTableRecord
100
AcDbRegAppTableRecord
  2
ACAD_DSTYLE_DIMARC_LENGTH_SYMBOL
 70
     0
  0
APPID
  5
1224
330
9
100
AcDbSymbolTableRecord
100
AcDbRegAppTableRecord
  2
ACAD_DSTYLE_DIM_LINETYPE
 70
     0
  0
APPID
  5
1225
330
9
100
AcDbSymbolTableRecord
100
AcDbRegAppTableRecord
  2
ACAD_DSTYLE_DIM_EXT1_LINETYPE
 70
     0
  0
APPID
  5
1226
330
9
100
AcDbSymbolTableRecord
100
AcDbRegAppTableRecord
  2
ACAD_DSTYLE_DIM_EXT2_LINETYPE
 70
     0
  0
APPID
  5
18F3
330
9
100
AcDbSymbolTableRecord
100
AcDbRegAppTableRecord
  2
GENIUS_GENOBJ-N-CEN_13
 70
     0
  0
APPID
  5
18F4
330
9
100
AcDbSymbolTableRecord
100
AcDbRegAppTableRecord
  2
GENIUS_GENODEF_13
 70
     0
  0
APPID
  5
18F5
330
9
100
AcDbSymbolTableRecord
100
AcDbRegAppTableRecord
  2
GENIUS_GENCEN_19
 70
     0
  0
APPID
  5
19F9
330
9
100
AcDbSymbolTableRecord
100
AcDbRegAppTableRecord
  2
ACAD_EXEMPT_FROM_CAD_STANDARDS
 70
     0
  0
ENDTAB
  0
TABLE
  2
DIMSTYLE
  5
A
330
0
100
AcDbSymbolTable
 70
    11
100
AcDbDimStyleTable
 71
     1
340
235
  0
DIMSTYLE
105
235
330
A
100
AcDbSymbolTableRecord
100
AcDbDimStyleTableRecord
  2
STANDARD
 70
     0
 41
3.5
 42
1.5
 44
1.5
 47
0.005
 48
0.005
 71
     1
 73
     0
 74
     0
 77
     1
 78
     8
140
3.5
147
0.625
178
     5
271
     3
272
     3
284
     8
340
11
341
21B
342
21B
343
21B
344
21B
  0
DIMSTYLE
105
A70
102
{ACAD_REACTORS
330
1969
102
}
330
A
100
AcDbSymbolTableRecord
100
AcDbDimStyleTableRecord
  2
AM_ISO
 70
     0
  4
"
 41
3.5
 42
1.0
 43
10.0
 44
1.0
 47
0.1
 48
0.1
 73
     0
 74
     0
 77
     1
 78
     8
 79
     2
140
3.5
141
0.0
143
0.0393701
146
0.71
147
1.5
172
     1
176
   256
177
   256
178
     2
271
     2
272
     3
274
     4
283
     0
284
     8
340
11
371
    -1
372
    -1
1001
ACAD_DSTYLE_DIMJAG
1070
   388
1040
1.5
1001
ACAD_DSTYLE_DIMBREAK
1070
   391
1040
3.75
1001
ACAD_DSTYLE_DIMARC_LENGTH_SYMBOL
1070
   379
1070
     1
1001
ACAD_DSTYLE_DIM_LINETYPE
1070
   380
1005
14
1001
ACAD_DSTYLE_DIM_EXT1_LINETYPE
1070
   381
1005
14
1001
ACAD_DSTYLE_DIM_EXT2_LINETYPE
1070
   382
1005
14
  0
DIMSTYLE
105
A74
330
A
100
AcDbSymbolTableRecord
100
AcDbDimStyleTableRecord
  2
AM_ISO$3
 70
     0
  4
"
 41
3.5
 42
1.0
 43
10.0
 44
1.0
 47
0.1
 48
0.1
 73
     0
 77
     1
 78
     8
 79
     2
140
3.5
141
0.0
143
0.0393701
146
0.71
147
1.5
176
   256
177
   256
178
     2
271
     2
272
     3
274
     4
283
     0
284
     8
288
     1
289
     0
340
11
371
    -1
372
    -1
1001
ACAD_DSTYLE_DIMBREAK
1070
   391
1040
3.75
1001
ACAD_DSTYLE_DIMJAG
1070
   388
1040
1.5
1001
ACAD_DSTYLE_DIMARC_LENGTH_SYMBOL
1070
   379
1070
     1
1001
ACAD_DSTYLE_DIM_LINETYPE
1070
   380
1005
14
1001
ACAD_DSTYLE_DIM_EXT1_LINETYPE
1070
   381
1005
14
1001
ACAD_DSTYLE_DIM_EXT2_LINETYPE
1070
   382
1005
14
  0
DIMSTYLE
105
A75
330
A
100
AcDbSymbolTableRecord
100
AcDbDimStyleTableRecord
  2
AM_ISO$4
 70
     0
  4
"
 41
3.5
 42
1.0
 43
10.0
 44
1.0
 47
0.1
 48
0.1
 73
     0
 77
     1
 78
     8
 79
     2
140
3.5
141
0.0
143
0.0393701
146
0.71
147
1.5
176
   256
177
   256
178
     2
271
     2
272
     3
274
     4
283
     0
284
     8
288
     1
289
     0
340
11
371
    -1
372
    -1
1001
ACAD_DSTYLE_DIMBREAK
1070
   391
1040
3.75
1001
ACAD_DSTYLE_DIMJAG
1070
   388
1040
1.5
1001
ACAD_DSTYLE_DIMARC_LENGTH_SYMBOL
1070
   379
1070
     1
1001
ACAD_DSTYLE_DIM_LINETYPE
1070
   380
1005
14
1001
ACAD_DSTYLE_DIM_EXT1_LINETYPE
1070
   381
1005
14
1001
ACAD_DSTYLE_DIM_EXT2_LINETYPE
1070
   382
1005
14
  0
DIMSTYLE
105
A76
330
A
100
AcDbSymbolTableRecord
100
AcDbDimStyleTableRecord
  2
AM_ISO$6
 70
     0
  4
"
 41
3.5
 42
1.0
 43
10.0
 44
1.0
 47
0.1
 48
0.1
 73
     0
 74
     0
 78
     8
 79
     2
140
3.5
141
0.0
143
0.0393701
146
0.71
147
1.5
172
     1
176
   256
177
   256
178
     2
271
     2
272
     3
274
     4
283
     0
284
     8
340
11
371
    -1
372
    -1
1001
ACAD_DSTYLE_DIMBREAK
1070
   391
1040
3.75
1001
ACAD_DSTYLE_DIMJAG
1070
   388
1040
1.5
1001
ACAD_DSTYLE_DIMARC_LENGTH_SYMBOL
1070
   379
1070
     1
1001
ACAD_DSTYLE_DIM_LINETYPE
1070
   380
1005
14
1001
ACAD_DSTYLE_DIM_EXT1_LINETYPE
1070
   381
1005
14
1001
ACAD_DSTYLE_DIM_EXT2_LINETYPE
1070
   382
1005
14
  0
DIMSTYLE
105
A77
330
A
100
AcDbSymbolTableRecord
100
AcDbDimStyleTableRecord
  2
AM_ISO$7
 70
     0
  4
"
 41
3.5
 42
1.0
 43
10.0
 44
1.0
 47
0.1
 48
0.1
 73
     0
 74
     0
 77
     1
 78
     8
 79
     2
140
3.5
141
0.0
143
0.0393701
146
0.71
147
1.5
172
     1
176
   256
177
   256
178
     2
271
     2
272
     3
274
     4
283
     0
284
     8
340
11
371
    -1
372
    -1
1001
ACAD_DSTYLE_DIMBREAK
1070
   391
1040
3.75
1001
ACAD_DSTYLE_DIMJAG
1070
   388
1040
1.5
1001
ACAD_DSTYLE_DIMARC_LENGTH_SYMBOL
1070
   379
1070
     1
1001
ACAD_DSTYLE_DIM_LINETYPE
1070
   380
1005
14
1001
ACAD_DSTYLE_DIM_EXT1_LINETYPE
1070
   381
1005
14
1001
ACAD_DSTYLE_DIM_EXT2_LINETYPE
1070
   382
1005
14
  0
DIMSTYLE
105
A78
330
A
100
AcDbSymbolTableRecord
100
AcDbDimStyleTableRecord
  2
AM_ISO$SF
 70
     0
  4
"
 41
3.5
 42
1.0
 43
10.0
 44
1.0
 47
0.1
 48
0.1
 73
     0
 74
     0
 75
     1
 76
     1
 77
     1
 78
     8
 79
     2
140
3.5
141
0.0
143
0.0393701
146
0.71
147
1.5
172
     1
176
   256
177
   256
178
     2
271
     2
272
     3
274
     4
283
     0
284
     8
340
11
371
    -1
372
    -1
1001
ACAD_DSTYLE_DIMBREAK
1070
   391
1040
3.75
1001
ACAD_DSTYLE_DIMJAG
1070
   388
1040
1.5
1001
ACAD_DSTYLE_DIMARC_LENGTH_SYMBOL
1070
   379
1070
     1
1001
ACAD_DSTYLE_DIM_LINETYPE
1070
   380
1005
14
1001
ACAD_DSTYLE_DIM_EXT1_LINETYPE
1070
   381
1005
14
1001
ACAD_DSTYLE_DIM_EXT2_LINETYPE
1070
   382
1005
14
  0
DIMSTYLE
105
A7D
330
A
100
AcDbSymbolTableRecord
100
AcDbDimStyleTableRecord
  2
AM_ISO$SH
 70
     0
  4
"
 41
3.5
 42
1.0
 43
10.0
 44
1.0
 47
0.1
 48
0.1
 73
     0
 74
     0
 75
     1
 76
     1
 77
     1
 78
     8
 79
     2
140
3.5
141
0.0
143
0.0393701
144
2.0
146
0.71
147
1.5
172
     1
173
     1
176
   256
177
   256
178
     2
271
     2
272
     3
274
     4
283
     0
284
     8
340
11
343
A79
371
    -1
372
    -1
1001
ACAD_DSTYLE_DIMBREAK
1070
   391
1040
3.75
1001
ACAD_DSTYLE_DIMJAG
1070
   388
1040
1.5
1001
ACAD_DSTYLE_DIMARC_LENGTH_SYMBOL
1070
   379
1070
     1
1001
ACAD_DSTYLE_DIM_LINETYPE
1070
   380
1005
14
1001
ACAD_DSTYLE_DIM_EXT1_LINETYPE
1070
   381
1005
14
1001
ACAD_DSTYLE_DIM_EXT2_LINETYPE
1070
   382
1005
14
  0
DIMSTYLE
105
AA3
102
{ACAD_REACTORS
330
C54
330
CBE
330
10AE
330
1160
330
1375
330
1783
330
19DE
102
}
330
A
100
AcDbSymbolTableRecord
100
AcDbDimStyleTableRecord
  2
STANDARD$0
 70
     0
 41
3.5
 42
1.5
 44
1.5
 47
0.005
 48
0.005
 71
     1
 73
     0
 74
     0
 77
     1
 78
     8
140
3.5
147
0.625
178
     5
271
     3
272
     3
284
     8
340
11
341
21B
342
21B
343
21B
344
21B
1001
ACAD_DSTYLE_DIMBREAK
1070
   391
1040
3.75
1001
ACAD_DSTYLE_DIMJAG
1070
   388
1040
1.5
  0
DIMSTYLE
105
19A1
102
{ACAD_REACTORS
330
19BE
102
}
330
A
100
AcDbSymbolTableRecord
100
AcDbDimStyleTableRecord
  2
GEN-ISO
 70
     0
  3
<>
  4
"
 40
20.0
 41
2.5
 42
1.0
 43
7.0
 44
1.0
 47
0.1
 48
0.1
 73
     0
 74
     0
 77
     1
 78
     8
140
3.5
141
0.0
143
0.0393701
146
0.71
147
0.6
172
     1
176
   256
177
   256
178
     2
271
     2
272
     3
274
     4
283
     0
340
11
  0
ENDTAB
  0
TABLE
  2
BLOCK_RECORD
  5
1
330
0
100
AcDbSymbolTable
 70
    15
  0
BLOCK_RECORD
  5
219
102
{ACAD_XDICTIONARY
360
154E
102
}
330
1
100
AcDbSymbolTableRecord
100
AcDbBlockTableRecord
  2
*Model_Space
340
9D7
  0
BLOCK_RECORD
  5
21A
330
1
100
AcDbSymbolTableRecord
100
AcDbBlockTableRecord
  2
*Paper_Space
340
9D8
  0
BLOCK_RECORD
  5
21B
330
1
100
AcDbSymbolTableRecord
100
AcDbBlockTableRecord
  2
_FILLED
340
0
102
{BLKREFS
331
17B2
331
17B3
331
17BB
331
17BC
331
1577
331
1578
331
15A5
331
15A6
331
15DB
331
15DC
331
155D
331
155E
331
115B
331
115C
331
1A61
331
1A62
102
}
  0
BLOCK_RECORD
  5
22F
330
1
100
AcDbSymbolTableRecord
100
AcDbBlockTableRecord
  2
SYMBOL_10_BL5
340
0
102
{BLKREFS
331
404
102
}
  0
BLOCK_RECORD
  5
A79
330
1
100
AcDbSymbolTableRecord
100
AcDbBlockTableRecord
  2
GENAXEH
340
0
  0
BLOCK_RECORD
  5
C55
330
1
100
AcDbSymbolTableRecord
100
AcDbBlockTableRecord
  2
*D3
340
0
  0
BLOCK_RECORD
  5
CBF
330
1
100
AcDbSymbolTableRecord
100
AcDbBlockTableRecord
  2
*D4
340
0
  0
BLOCK_RECORD
  5
1015
330
1
100
AcDbSymbolTableRecord
100
AcDbBlockTableRecord
  2
*D5
340
0
  0
BLOCK_RECORD
  5
10AF
330
1
100
AcDbSymbolTableRecord
100
AcDbBlockTableRecord
  2
*D6
340
0
  0
BLOCK_RECORD
  5
1161
330
1
100
AcDbSymbolTableRecord
100
AcDbBlockTableRecord
  2
*D7
340
0
  0
BLOCK_RECORD
  5
1376
330
1
100
AcDbSymbolTableRecord
100
AcDbBlockTableRecord
  2
*D8
340
0
  0
BLOCK_RECORD
  5
1784
330
1
100
AcDbSymbolTableRecord
100
AcDbBlockTableRecord
  2
*D9
340
0
  0
BLOCK_RECORD
  5
198F
330
1
100
AcDbSymbolTableRecord
100
AcDbBlockTableRecord
  2
*D11
340
0
  0
BLOCK_RECORD
  5
19DF
330
1
100
AcDbSymbolTableRecord
100
AcDbBlockTableRecord
  2
*D13
340
0
  0
ENDTAB
  0
ENDSEC
  0
SECTION
  2
BLOCKS
  0
BLOCK
  5
20
330
219
100
AcDbEntity
  8
0
100
AcDbBlockBegin
  2
*Model_Space
 70
     0
 10
0.0
 20
0.0
 30
0.0
  3
*Model_Space
  1

  0
ENDBLK
  5
21
330
219
100
AcDbEntity
  8
0
100
AcDbBlockEnd
  0
BLOCK
  5
1C
330
21A
100
AcDbEntity
 67
     1
  8
0
100
AcDbBlockBegin
  2
*Paper_Space
 70
     0
 10
0.0
 20
0.0
 30
0.0
  3
*Paper_Space
  1

  0
ENDBLK
  5
1D
330
21A
100
AcDbEntity
 67
     1
  8
0
100
AcDbBlockEnd
  0
BLOCK
  5
2B5
330
21B
100
AcDbEntity
  8
0
100
AcDbBlockBegin
  2
_FILLED
 70
     0
 10
0.0
 20
0.0
 30
0.0
  3
_FILLED
  1

  0
SOLID
  5
2B6
330
21B
100
AcDbEntity
  8
0
  6
ByBlock
 62
     0
100
AcDbTrace
 10
0.0
 20
0.0
 30
0.0
 11
-1.0
 21
0.125
 31
0.0
 12
-1.0
 22
-0.125
 32
0.0
 13
-1.0
 23
-0.125
 33
0.0
  0
ENDBLK
  5
2B7
330
21B
100
AcDbEntity
  8
0
  6
ByBlock
 62
     0
100
AcDbBlockEnd
  0
BLOCK
  5
24B
330
22F
100
AcDbEntity
  8
0
  6
Continuous
 62
     2
100
AcDbBlockBegin
  2
SYMBOL_10_BL5
 70
     0
 10
0.0
 20
0.0
 30
0.0
  3
SYMBOL_10_BL5
  1

  0
ENDBLK
  5
24C
330
22F
100
AcDbEntity
  8
0
  6
Continuous
 62
     2
100
AcDbBlockEnd
  0
BLOCK
  5
A7B
330
A79
100
AcDbEntity
  8
0
100
AcDbBlockBegin
  2
GENAXEH
 70
     0
 10
0.0
 20
0.0
 30
0.0
  3
GENAXEH
  1

  0
LINE
  5
A7A
330
A79
100
AcDbEntity
  8
0
100
AcDbLine
 10
-1.0
 20
0.0
 30
0.0
 11
1.0
 21
0.0
 31
0.0
  0
ENDBLK
  5
A7C
330
A79
100
AcDbEntity
  8
0
100
AcDbBlockEnd
  0
BLOCK
  5
C56
330
C55
100
AcDbEntity
  8
0
100
AcDbBlockBegin
  2
*D3
 70
     1
 10
0.0
 20
0.0
 30
0.0
  3
*D3
  1

  0
LINE
  5
17B8
330
C55
100
AcDbEntity
  8
AM_5
 62
     0
370
    -2
100
AcDbLine
 10
-654.2901141826997
 20
426.8311826715
 30
0.0
 11
-654.2901141826997
 21
504.2449809657423
 31
0.0
  0
LINE
  5
17B9
330
C55
100
AcDbEntity
  8
AM_5
 62
     0
370
    -2
100
AcDbLine
 10
290.7098858173
 20
426.8311826715001
 30
0.0
 11
290.7098858173
 21
504.2449809657423
 31
0.0
  0
LINE
  5
17BA
330
C55
100
AcDbEntity
  8
AM_5
 62
     0
370
    -2
100
AcDbLine
 10
-647.2901141826997
 20
502.7449809657423
 30
0.0
 11
283.7098858173
 21
502.7449809657423
 31
0.0
  0
INSERT
  5
17BB
330
C55
100
AcDbEntity
  8
AM_5
 62
     0
370
    -2
100
AcDbBlockReference
  2
_FILLED
 10
-654.2901141826997
 20
502.7449809657423
 30
0.0
 41
7.0
 42
7.0
 43
7.0
 50
180.0
  0
INSERT
  5
17BC
330
C55
100
AcDbEntity
  8
AM_5
 62
     0
370
    -2
100
AcDbBlockReference
  2
_FILLED
 10
290.7098858173
 20
502.7449809657423
 30
0.0
 41
7.0
 42
7.0
 43
7.0
  0
MTEXT
  5
17BD
330
C55
100
AcDbEntity
  8
AM_5
 62
     2
100
AcDbMText
 10
-181.7901141826999
 20
506.8699809657423
 30
0.0
 40
7.0
 41
0.0
 71
     5
 72
     1
  1
\A1;945
  7
ACISOGDT
 73
     1
 44
1.0
1001
ACAD
1000
MTEXTBEGIN
1070
    73
1070
     1
1070
    44
1040
1.0
1070
    74
1070
     0
1000
MTEXTEND
  0
POINT
  5
17BE
330
C55
100
AcDbEntity
  8
Defpoints
 62
     0
100
AcDbPoint
 10
-654.2901141826997
 20
425.3311826715
 30
0.0
  0
POINT
  5
17BF
330
C55
100
AcDbEntity
  8
Defpoints
 62
     0
100
AcDbPoint
 10
290.7098858173
 20
425.3311826715
 30
0.0
  0
POINT
  5
17C0
330
C55
100
AcDbEntity
  8
Defpoints
 62
     0
100
AcDbPoint
 10
290.7098858173
 20
502.7449809657423
 30
0.0
  0
ENDBLK
  5
C57
330
C55
100
AcDbEntity
  8
0
100
AcDbBlockEnd
  0
BLOCK
  5
CC0
330
CBF
100
AcDbEntity
  8
0
100
AcDbBlockBegin
  2
*D4
 70
     1
 10
0.0
 20
0.0
 30
0.0
  3
*D4
  1

  0
LINE
  5
1559
330
CBF
100
AcDbEntity
  8
AM_5
 62
     0
370
    -2
100
AcDbLine
 10
292.2098858173
 20
128.684515834
 30
0.0
 11
323.2312354805415
 21
128.684515834
 31
0.0
  0
LINE
  5
155A
330
CBF
100
AcDbEntity
  8
AM_5
 62
     0
370
    -2
100
AcDbLine
 10
259.7098858173
 20
20.18451583399997
 30
0.0
 11
323.2312354805414
 21
20.18451583399995
 31
0.0
  0
LINE
  5
155B
330
CBF
100
AcDbEntity
  8
AM_5
 62
     0
370
    -2
100
AcDbLine
 10
321.7312354805414
 20
121.6845158339999
 30
0.0
 11
321.7312354805414
 21
27.18451583399995
 31
0.0
  0
MTEXT
  5
155C
330
CBF
100
AcDbEntity
  8
AM_5
 62
     2
100
AcDbMText
 10
313.7076313129355
 20
75.44189042468588
 30
0.0
 40
7.0
 41
0.0
 71
     5
 72
     1
  1
\A1;108.5
 11
0.0000000000000001
 21
1.0
 31
0.0
 73
     1
 44
1.0
1001
ACAD
1000
MTEXTBEGIN
1070
    73
1070
     1
1070
    44
1040
1.0
1070
    74
1070
     0
1000
MTEXTEND
  0
INSERT
  5
155D
330
CBF
100
AcDbEntity
  8
AM_5
 62
     0
370
    -2
100
AcDbBlockReference
  2
_FILLED
 10
321.7312354805414
 20
128.684515834
 30
0.0
 41
7.0
 42
7.0
 43
7.0
 50
90.0
  0
INSERT
  5
155E
330
CBF
100
AcDbEntity
  8
AM_5
 62
     0
370
    -2
100
AcDbBlockReference
  2
_FILLED
 10
321.7312354805414
 20
20.18451583399995
 30
0.0
 41
7.0
 42
7.0
 43
7.0
 50
270.0
  0
POINT
  5
155F
330
CBF
100
AcDbEntity
  8
Defpoints
 62
     0
100
AcDbPoint
 10
290.7098858173
 20
128.684515834
 30
0.0
  0
POINT
  5
1560
330
CBF
100
AcDbEntity
  8
Defpoints
 62
     0
100
AcDbPoint
 10
258.2098858173
 20
20.18451583399997
 30
0.0
  0
POINT
  5
1561
330
CBF
100
AcDbEntity
  8
Defpoints
 62
     0
100
AcDbPoint
 10
321.7312354805414
 20
20.18451583399995
 30
0.0
  0
ENDBLK
  5
CC1
330
CBF
100
AcDbEntity
  8
0
100
AcDbBlockEnd
  0
BLOCK
  5
1016
330
1015
100
AcDbEntity
  8
0
100
AcDbBlockBegin
  2
*D5
 70
     1
 10
0.0
 20
0.0
 30
0.0
  3
*D5
  1

  0
LINE
  5
1157
330
1015
100
AcDbEntity
  8
AM_5
 62
     0
370
    -2
100
AcDbLine
 10
-156.7901141827
 20
-30.63879887550001
 30
0.0
 11
-156.7901141827
 21
-68.18055536597239
 31
0.0
  0
LINE
  5
1158
330
1015
100
AcDbEntity
  8
AM_5
 62
     0
370
    -2
100
AcDbLine
 10
-206.7901141827001
 20
-30.63879887550001
 30
0.0
 11
-206.7901141827001
 21
-68.18055536597239
 31
0.0
  0
LINE
  5
1159
330
1015
100
AcDbEntity
  8
AM_5
 62
     0
370
    -2
100
AcDbLine
 10
-163.7901141827
 20
-66.6805553659724
 30
0.0
 11
-199.7901141827
 21
-66.6805553659724
 31
0.0
  0
MTEXT
  5
115A
330
1015
100
AcDbEntity
  8
AM_5
 62
     2
100
AcDbMText
 10
-181.4848376598565
 20
-61.13418487000672
 30
0.0
 40
7.0
 41
0.0
 71
     5
 72
     1
  1
\A1;%%c50
  7
ACISOGDT
 73
     1
 44
1.0
1001
ACAD
1000
MTEXTBEGIN
1070
    73
1070
     1
1070
    44
1040
1.0
1070
    74
1070
     0
1000
MTEXTEND
  0
INSERT
  5
115B
330
1015
100
AcDbEntity
  8
AM_5
 62
     0
370
    -2
100
AcDbBlockReference
  2
_FILLED
 10
-156.7901141827
 20
-66.6805553659724
 30
0.0
 41
7.0
 42
7.0
 43
7.0
  0
INSERT
  5
115C
330
1015
100
AcDbEntity
  8
AM_5
 62
     0
370
    -2
100
AcDbBlockReference
  2
_FILLED
 10
-206.7901141827001
 20
-66.6805553659724
 30
0.0
 41
7.0
 42
7.0
 43
7.0
 50
180.0
  0
POINT
  5
115D
330
1015
100
AcDbEntity
  8
Defpoints
 62
     0
100
AcDbPoint
 10
-156.7901141827
 20
-29.13879887550002
 30
0.0
  0
POINT
  5
115E
330
1015
100
AcDbEntity
  8
Defpoints
 62
     0
100
AcDbPoint
 10
-206.7901141827001
 20
-29.13879887550002
 30
0.0
  0
POINT
  5
115F
330
1015
100
AcDbEntity
  8
Defpoints
 62
     0
100
AcDbPoint
 10
-206.7901141827001
 20
-66.6805553659724
 30
0.0
  0
ENDBLK
  5
1017
330
1015
100
AcDbEntity
  8
0
100
AcDbBlockEnd
  0
BLOCK
  5
10B0
330
10AF
100
AcDbEntity
  8
0
100
AcDbBlockBegin
  2
*D6
 70
     1
 10
0.0
 20
0.0
 30
0.0
  3
*D6
  1

  0
LINE
  5
15A1
330
10AF
100
AcDbEntity
  8
AM_5
 62
     0
370
    -2
100
AcDbLine
 10
259.7098858173
 20
395.3311826715002
 30
0.0
 11
328.5907187121657
 21
395.3311826715002
 31
0.0
  0
LINE
  5
15A2
330
10AF
100
AcDbEntity
  8
AM_5
 62
     0
370
    -2
100
AcDbLine
 10
9.809879019800078
 20
329.1661699625001
 30
0.0
 11
328.5907187121657
 21
329.1661699625001
 31
0.0
  0
LINE
  5
15A3
330
10AF
100
AcDbEntity
  8
AM_5
 62
     0
370
    -2
100
AcDbLine
 10
327.0907187121657
 20
388.3311826715002
 30
0.0
 11
327.0907187121657
 21
336.1661699625001
 31
0.0
  0
MTEXT
  5
15A4
330
10AF
100
AcDbEntity
  8
AM_5
 62
     2
100
AcDbMText
 10
318.9306967211241
 20
360.8270713517975
 30
0.0
 40
7.0
 41
0.0
 71
     5
 72
     1
  1
\A1;66
 11
0.0000000000000001
 21
1.0
 31
0.0
 73
     1
 44
1.0
1001
ACAD
1000
MTEXTBEGIN
1070
    73
1070
     1
1070
    44
1040
1.0
1070
    74
1070
     0
1000
MTEXTEND
  0
INSERT
  5
15A5
330
10AF
100
AcDbEntity
  8
AM_5
 62
     0
370
    -2
100
AcDbBlockReference
  2
_FILLED
 10
327.0907187121657
 20
395.3311826715002
 30
0.0
 41
7.0
 42
7.0
 43
7.0
 50
90.0
  0
INSERT
  5
15A6
330
10AF
100
AcDbEntity
  8
AM_5
 62
     0
370
    -2
100
AcDbBlockReference
  2
_FILLED
 10
327.0907187121657
 20
329.1661699625001
 30
0.0
 41
7.0
 42
7.0
 43
7.0
 50
270.0
  0
POINT
  5
15A7
330
10AF
100
AcDbEntity
  8
Defpoints
 62
     0
100
AcDbPoint
 10
258.2098858173
 20
395.3311826715002
 30
0.0
  0
POINT
  5
15A8
330
10AF
100
AcDbEntity
  8
Defpoints
 62
     0
100
AcDbPoint
 10
8.309879019800078
 20
329.1661699625001
 30
0.0
  0
POINT
  5
15A9
330
10AF
100
AcDbEntity
  8
Defpoints
 62
     0
100
AcDbPoint
 10
327.0907187121657
 20
329.1661699625001
 30
0.0
  0
ENDBLK
  5
10B1
330
10AF
100
AcDbEntity
  8
0
100
AcDbBlockEnd
  0
BLOCK
  5
1162
330
1161
100
AcDbEntity
  8
0
100
AcDbBlockBegin
  2
*D7
 70
     1
 10
0.0
 20
0.0
 30
0.0
  3
*D7
  1

  0
LINE
  5
15D7
330
1161
100
AcDbEntity
  8
AM_5
 62
     0
370
    -2
100
AcDbLine
 10
282.2098858173
 20
435.3311826715001
 30
0.0
 11
362.0902978529493
 21
435.3311826715001
 31
0.0
  0
LINE
  5
15D8
330
1161
100
AcDbEntity
  8
AM_5
 62
     0
370
    -2
100
AcDbLine
 10
-107.2901141827
 20
329.1661699625
 30
0.0
 11
362.0902978529493
 21
329.1661699624999
 31
0.0
  0
LINE
  5
15D9
330
1161
100
AcDbEntity
  8
AM_5
 62
     0
370
    -2
100
AcDbLine
 10
360.5902978529493
 20
428.3311826714998
 30
0.0
 11
360.5902978529493
 21
336.1661699624999
 31
0.0
  0
MTEXT
  5
15DA
330
1161
100
AcDbEntity
  8
AM_5
 62
     2
100
AcDbMText
 10
352.7060825671033
 20
382.2486763170001
 30
0.0
 40
7.0
 41
0.0
 71
     5
 72
     1
  1
\A1;106
 11
0.0000000000000001
 21
1.0
 31
0.0
 73
     1
 44
1.0
1001
ACAD
1000
MTEXTBEGIN
1070
    73
1070
     1
1070
    44
1040
1.0
1070
    74
1070
     0
1000
MTEXTEND
  0
INSERT
  5
15DB
330
1161
100
AcDbEntity
  8
AM_5
 62
     0
370
    -2
100
AcDbBlockReference
  2
_FILLED
 10
360.5902978529493
 20
435.3311826715001
 30
0.0
 41
7.0
 42
7.0
 43
7.0
 50
90.0
  0
INSERT
  5
15DC
330
1161
100
AcDbEntity
  8
AM_5
 62
     0
370
    -2
100
AcDbBlockReference
  2
_FILLED
 10
360.5902978529493
 20
329.1661699624999
 30
0.0
 41
7.0
 42
7.0
 43
7.0
 50
270.0
  0
POINT
  5
15DD
330
1161
100
AcDbEntity
  8
Defpoints
 62
     0
100
AcDbPoint
 10
280.7098858173
 20
435.3311826715001
 30
0.0
  0
POINT
  5
15DE
330
1161
100
AcDbEntity
  8
Defpoints
 62
     0
100
AcDbPoint
 10
-108.7901141827
 20
329.1661699625
 30
0.0
  0
POINT
  5
15DF
330
1161
100
AcDbEntity
  8
Defpoints
 62
     0
100
AcDbPoint
 10
360.5902978529493
 20
329.1661699624999
 30
0.0
  0
ENDBLK
  5
1163
330
1161
100
AcDbEntity
  8
0
100
AcDbBlockEnd
  0
BLOCK
  5
1377
330
1376
100
AcDbEntity
  8
0
100
AcDbBlockBegin
  2
*D8
 70
     1
 10
0.0
 20
0.0
 30
0.0
  3
*D8
  1

  0
LINE
  5
1574
330
1376
100
AcDbEntity
  8
AM_5
 62
     0
370
    -2
100
AcDbLine
 10
-621.7901141827
 20
129.1850222240001
 30
0.0
 11
-621.7901141827
 21
188.095497640219
 31
0.0
  0
LINE
  5
1575
330
1376
100
AcDbEntity
  8
AM_5
 62
     0
370
    -2
100
AcDbLine
 10
258.2098858173
 20
129.184515834
 30
0.0
 11
258.2098858173
 21
188.095497640219
 31
0.0
  0
LINE
  5
1576
330
1376
100
AcDbEntity
  8
AM_5
 62
     0
370
    -2
100
AcDbLine
 10
-614.7901141826999
 20
186.595497640219
 30
0.0
 11
251.2098858173
 21
186.595497640219
 31
0.0
  0
INSERT
  5
1577
330
1376
100
AcDbEntity
  8
AM_5
 62
     0
370
    -2
100
AcDbBlockReference
  2
_FILLED
 10
-621.7901141827
 20
186.595497640219
 30
0.0
 41
7.0
 42
7.0
 43
7.0
 50
180.0
  0
INSERT
  5
1578
330
1376
100
AcDbEntity
  8
AM_5
 62
     0
370
    -2
100
AcDbBlockReference
  2
_FILLED
 10
258.2098858173
 20
186.595497640219
 30
0.0
 41
7.0
 42
7.0
 43
7.0
  0
MTEXT
  5
1579
330
1376
100
AcDbEntity
  8
AM_5
 62
     2
100
AcDbMText
 10
-181.7901141827
 20
190.720497640219
 30
0.0
 40
7.0
 41
0.0
 71
     5
 72
     1
  1
\A1;880
  7
ACISOGDT
 73
     1
 44
1.0
1001
ACAD
1000
MTEXTBEGIN
1070
    73
1070
     1
1070
    44
1040
1.0
1070
    74
1070
     0
1000
MTEXTEND
  0
POINT
  5
157A
330
1376
100
AcDbEntity
  8
Defpoints
 62
     0
100
AcDbPoint
 10
-621.7901141827
 20
127.6850222240001
 30
0.0
  0
POINT
  5
157B
330
1376
100
AcDbEntity
  8
Defpoints
 62
     0
100
AcDbPoint
 10
258.2098858173
 20
127.684515834
 30
0.0
  0
POINT
  5
157C
330
1376
100
AcDbEntity
  8
Defpoints
 62
     0
100
AcDbPoint
 10
258.2098858173
 20
186.595497640219
 30
0.0
  0
ENDBLK
  5
1378
330
1376
100
AcDbEntity
  8
0
100
AcDbBlockEnd
  0
BLOCK
  5
1785
330
1784
100
AcDbEntity
  8
0
100
AcDbBlockBegin
  2
*D9
 70
     1
 10
0.0
 20
0.0
 30
0.0
  3
*D9
  1

  0
LINE
  5
17AF
330
1784
100
AcDbEntity
  8
AM_5
 62
     0
370
    -2
100
AcDbLine
 10
-623.7901141827001
 20
129.1845158339999
 30
0.0
 11
-623.7901141827001
 21
228.7438630154347
 31
0.0
  0
LINE
  5
17B0
330
1784
100
AcDbEntity
  8
AM_5
 62
     0
370
    -2
100
AcDbLine
 10
260.2098858172999
 20
129.1850222240001
 30
0.0
 11
260.2098858172999
 21
228.7438630154347
 31
0.0
  0
LINE
  5
17B1
330
1784
100
AcDbEntity
  8
AM_5
 62
     0
370
    -2
100
AcDbLine
 10
-616.7901141827001
 20
227.2438630154347
 30
0.0
 11
253.2098858172999
 21
227.2438630154347
 31
0.0
  0
INSERT
  5
17B2
330
1784
100
AcDbEntity
  8
AM_5
 62
     0
370
    -2
100
AcDbBlockReference
  2
_FILLED
 10
-623.7901141827001
 20
227.2438630154347
 30
0.0
 41
7.0
 42
7.0
 43
7.0
 50
180.0
  0
INSERT
  5
17B3
330
1784
100
AcDbEntity
  8
AM_5
 62
     0
370
    -2
100
AcDbBlockReference
  2
_FILLED
 10
260.2098858172999
 20
227.2438630154347
 30
0.0
 41
7.0
 42
7.0
 43
7.0
  0
MTEXT
  5
17B4
330
1784
100
AcDbEntity
  8
AM_5
 62
     2
100
AcDbMText
 10
-181.7901141827
 20
231.3688630154347
 30
0.0
 40
7.0
 41
0.0
 71
     5
 72
     1
  1
\A1;884
  7
ACISOGDT
 73
     1
 44
1.0
1001
ACAD
1000
MTEXTBEGIN
1070
    73
1070
     1
1070
    44
1040
1.0
1070
    74
1070
     0
1000
MTEXTEND
  0
POINT
  5
17B5
330
1784
100
AcDbEntity
  8
Defpoints
 62
     0
100
AcDbPoint
 10
-623.7901141827001
 20
127.6845158339999
 30
0.0
  0
POINT
  5
17B6
330
1784
100
AcDbEntity
  8
Defpoints
 62
     0
100
AcDbPoint
 10
260.2098858172999
 20
127.6850222240001
 30
0.0
  0
POINT
  5
17B7
330
1784
100
AcDbEntity
  8
Defpoints
 62
     0
100
AcDbPoint
 10
260.2098858172999
 20
227.2438630154347
 30
0.0
  0
ENDBLK
  5
1786
330
1784
100
AcDbEntity
  8
0
100
AcDbBlockEnd
  0
BLOCK
  5
1990
330
198F
100
AcDbEntity
  8
0
100
AcDbBlockBegin
  2
*D11
 70
     1
 10
0.0
 20
0.0
 30
0.0
  3
*D11
  1

  0
LINE
  5
1991
330
198F
100
AcDbEntity
  8
5
370
    -2
100
AcDbLine
 10
-469.8388234829662
 20
-109.5629252878802
 30
0.0
 11
-469.8388234829662
 21
-198.4826580903533
 31
0.0
  0
LINE
  5
1992
330
198F
100
AcDbEntity
  8
5
370
    -2
100
AcDbLine
 10
-419.8383721845662
 20
-110.5499983228476
 30
0.0
 11
-419.8383721845662
 21
-198.4826580903533
 31
0.0
  0
LINE
  5
1993
330
198F
100
AcDbEntity
  8
5
370
    -2
100
AcDbLine
 10
-489.8388234829663
 20
-178.4826580903533
 30
0.0
 11
-509.8388234829663
 21
-178.4826580903533
 31
0.0
  0
LINE
  5
1994
330
198F
100
AcDbEntity
  8
5
370
    -2
100
AcDbLine
 10
-399.8383721845663
 20
-178.4826580903533
 30
0.0
 11
-311.7383721845663
 21
-178.4826580903533
 31
0.0
  0
LINE
  5
1995
330
198F
100
AcDbEntity
  8
5
370
    -2
100
AcDbLine
 10
-469.8388234829662
 20
-178.4826580903533
 30
0.0
 11
-419.8383721845662
 21
-178.4826580903533
 31
0.0
  0
SOLID
  5
1996
330
198F
100
AcDbEntity
  8
5
100
AcDbTrace
 10
-489.8388234829663
 20
-175.1493247570199
 30
0.0
 11
-489.8388234829663
 21
-181.8159914236866
 31
0.0
 12
-469.8388234829662
 22
-178.4826580903533
 32
0.0
 13
-469.8388234829662
 23
-178.4826580903533
 33
0.0
  0
SOLID
  5
1997
330
198F
100
AcDbEntity
  8
5
100
AcDbTrace
 10
-399.8383721845663
 20
-175.1493247570199
 30
0.0
 11
-399.8383721845663
 21
-181.8159914236866
 31
0.0
 12
-419.8383721845662
 22
-178.4826580903533
 32
0.0
 13
-419.8383721845662
 23
-178.4826580903533
 33
0.0
  0
MTEXT
  5
1998
330
198F
100
AcDbEntity
  8
5
 62
     2
100
AcDbMText
 10
-343.3383721845663
 20
-158.4826580903533
 30
0.0
 40
16.0
 41
0.0
 71
     5
 72
     1
  1
DN50
 73
     1
 44
1.0
1001
ACAD
1000
MTEXTBEGIN
1070
    73
1070
     1
1070
    44
1040
1.0
1070
    74
1070
     0
1000
MTEXTEND
  0
POINT
  5
1999
330
198F
100
AcDbEntity
  8
Defpoints
 62
     0
100
AcDbPoint
 10
-469.8388234829662
 20
-89.56292528788026
 30
0.0
  0
POINT
  5
199A
330
198F
100
AcDbEntity
  8
Defpoints
 62
     0
100
AcDbPoint
 10
-419.8383721845662
 20
-90.54999832284762
 30
0.0
  0
POINT
  5
199B
330
198F
100
AcDbEntity
  8
Defpoints
 62
     0
100
AcDbPoint
 10
-419.8383721845662
 20
-178.4826580903533
 30
0.0
  0
ENDBLK
  5
199C
330
198F
100
AcDbEntity
  8
0
100
AcDbBlockEnd
  0
BLOCK
  5
19E0
330
19DF
100
AcDbEntity
  8
0
100
AcDbBlockBegin
  2
*D13
 70
     1
 10
0.0
 20
0.0
 30
0.0
  3
*D13
  1

  0
LINE
  5
1A5E
330
19DF
100
AcDbEntity
  8
AM_5
 62
     0
370
    -2
100
AcDbLine
 10
-206.7903398318999
 20
5.648666650603949
 30
0.0
 11
-206.7903398318999
 21
-83.27106615186909
 31
0.0
  0
LINE
  5
1A5F
330
19DF
100
AcDbEntity
  8
AM_5
 62
     0
370
    -2
100
AcDbLine
 10
-156.7898885334999
 20
4.661593615636597
 30
0.0
 11
-156.7898885334999
 21
-83.27106615186909
 31
0.0
  0
LINE
  5
1A60
330
19DF
100
AcDbEntity
  8
AM_5
 62
     0
370
    -2
100
AcDbLine
 10
-199.7903398318999
 20
-81.77106615186909
 30
0.0
 11
-163.7898885334999
 21
-81.77106615186909
 31
0.0
  0
INSERT
  5
1A61
330
19DF
100
AcDbEntity
  8
AM_5
 62
     0
370
    -2
100
AcDbBlockReference
  2
_FILLED
 10
-206.7903398318999
 20
-81.77106615186909
 30
0.0
 41
7.0
 42
7.0
 43
7.0
 50
180.0
  0
INSERT
  5
1A62
330
19DF
100
AcDbEntity
  8
AM_5
 62
     0
370
    -2
100
AcDbBlockReference
  2
_FILLED
 10
-156.7898885334999
 20
-81.77106615186909
 30
0.0
 41
7.0
 42
7.0
 43
7.0
  0
MTEXT
  5
1A63
330
19DF
100
AcDbEntity
  8
AM_5
 62
     2
100
AcDbMText
 10
-181.7901141826999
 20
-85.89606615186909
 30
0.0
 40
7.0
 41
0.0
 71
     5
 72
     1
  1
\A1;DN50
  7
ACISOGDT
 73
     1
 44
1.0
1001
ACAD
1000
MTEXTBEGIN
1070
    73
1070
     1
1070
    44
1040
1.0
1070
    74
1070
     0
1000
MTEXTEND
  0
POINT
  5
1A64
330
19DF
100
AcDbEntity
  8
Defpoints
 62
     0
100
AcDbPoint
 10
-206.7903398318999
 20
7.148666650603949
 30
0.0
  0
POINT
  5
1A65
330
19DF
100
AcDbEntity
  8
Defpoints
 62
     0
100
AcDbPoint
 10
-156.7898885334999
 20
6.161593615636597
 30
0.0
  0
POINT
  5
1A66
330
19DF
100
AcDbEntity
  8
Defpoints
 62
     0
100
AcDbPoint
 10
-156.7898885334999
 20
-81.77106615186909
 30
0.0
  0
ENDBLK
  5
19E1
330
19DF
100
AcDbEntity
  8
0
100
AcDbBlockEnd
  0
ENDSEC
  0
SECTION
  2
ENTITIES
  0
INSERT
  5
404
330
219
100
AcDbEntity
  8
0
  6
Continuous
 62
     2
100
AcDbBlockReference
  2
SYMBOL_10_BL5
 10
0.0
 20
0.0
 30
0.0
  0
LINE
  5
45C
330
219
100
AcDbEntity
  8
RUNDUNGEN
  6
Continuous
 62
     7
100
AcDbLine
 10
-654.2901141827
 20
29.68451583400008
 30
0.0
 11
-654.2901141827
 21
128.684515834
 31
0.0
  0
LINE
  5
45D
330
219
100
AcDbEntity
  8
RUNDUNGEN
  6
Continuous
 62
     9
100
AcDbLine
 10
-644.2901141826999
 20
127.684515834
 30
0.0
 11
-644.2901141826999
 21
128.684515834
 31
0.0
  0
LINE
  5
45E
330
219
100
AcDbEntity
  8
RUNDUNGEN
  6
Continuous
 62
     7
100
AcDbLine
 10
-623.7901141827001
 20
127.6850222240001
 30
0.0
 11
-623.7901141827001
 21
50.68451583399997
 31
0.0
  0
LINE
  5
45F
330
219
100
AcDbEntity
  8
0
  6
Continuous
 62
     7
100
AcDbLine
 10
-621.7901141827
 20
53.59679224700006
 30
0.0
 11
-621.7901141827
 21
50.77223942149998
 31
0.0
  0
LINE
  5
460
330
219
100
AcDbEntity
  8
0
  6
Continuous
 62
     7
100
AcDbLine
 10
-621.7901141827
 20
50.68451583399997
 30
0.0
 11
-621.7901141827
 21
19.68451583400008
 31
0.0
  0
LINE
  5
461
330
219
100
AcDbEntity
  8
RUNDUNGEN
  6
Continuous
 62
     7
100
AcDbLine
 10
-621.7901141827
 20
50.68451583399997
 30
0.0
 11
-621.7901141827
 21
50.77223942149998
 31
0.0
  0
LINE
  5
462
330
219
100
AcDbEntity
  8
RUNDUNGEN
  6
Continuous
 62
     7
100
AcDbLine
 10
-621.7901141827
 20
53.59679224700006
 30
0.0
 11
-621.7901141827
 21
127.6850222240001
 31
0.0
  0
LINE
  5
463
330
219
100
AcDbEntity
  8
RUNDUNGEN
  6
Continuous
 62
     9
100
AcDbLine
 10
-254.7901141827001
 20
115.537352809
 30
0.0
 11
-254.7901141827001
 21
112.6845158339999
 31
0.0
  0
LINE
  5
464
330
219
100
AcDbEntity
  8
0
  6
Continuous
 62
     9
100
AcDbLine
 10
-254.7901141827001
 20
68.58451583400006
 30
0.0
 11
-254.7901141827001
 21
58.68451899500008
 31
0.0
  0
LINE
  5
465
330
219
100
AcDbEntity
  8
RUNDUNGEN
  6
Continuous
 62
     9
100
AcDbLine
 10
-254.7901141827001
 20
55.87749958300003
 30
0.0
 11
-254.7901141827001
 21
58.68451583399997
 31
0.0
  0
LINE
  5
466
330
219
100
AcDbEntity
  8
0
  6
Continuous
 62
     9
100
AcDbLine
 10
-254.7901141827001
 20
102.784515834
 30
0.0
 11
-254.7901141827001
 21
112.6845158339999
 31
0.0
  0
LINE
  5
46A
330
219
100
AcDbEntity
  8
0
  6
Continuous
 62
     9
100
AcDbLine
 10
-206.3402965452001
 20
89.13430814299999
 30
0.0
 11
-206.8024139567
 21
88.74287324799999
 31
0.0
  0
LINE
  5
46B
330
219
100
AcDbEntity
  8
0
  6
Continuous
 62
     9
100
AcDbLine
 10
-206.5624340582001
 20
89.55150787400009
 30
0.0
 11
-207.1371139317
 21
89.08269073849998
 31
0.0
  0
LINE
  5
46F
330
219
100
AcDbEntity
  8
0
  6
Continuous
 62
     9
100
AcDbLine
 10
-162.5624340582001
 20
89.55150787400009
 30
0.0
 11
-163.1371139317
 21
89.08269073849998
 31
0.0
  0
LINE
  5
471
330
219
100
AcDbEntity
  8
RUNDUNGEN
  6
Continuous
 62
     7
100
AcDbLine
 10
-621.7901141827
 20
19.68451583400008
 30
0.0
 11
-644.2901141826999
 21
19.68451583400008
 31
0.0
  0
LINE
  5
472
330
219
100
AcDbEntity
  8
RUNDUNGEN
  6
Continuous
 62
     7
100
AcDbLine
 10
258.2098858173
 20
19.68451583400008
 30
0.0
 11
280.7098858173
 21
19.68451583400008
 31
0.0
  0
LINE
  5
473
330
219
100
AcDbEntity
  8
0
  6
Continuous
 62
     7
100
AcDbLine
 10
258.2098858173
 20
20.18451583399997
 30
0.0
 11
-621.7901141827
 21
20.18451583399997
 31
0.0
  0
LINE
  5
479
330
219
100
AcDbEntity
  8
BG_STARTBEZUEGE
  6
CENTER
 62
     4
100
AcDbLine
 10
-181.7901141827
 20
-53.91548416599992
 30
0.0
 11
-181.7901141827
 21
143.784515834
 31
0.0
  0
LINE
  5
47A
330
219
100
AcDbEntity
  8
0
  6
Continuous
 62
     9
100
AcDbLine
 10
-162.3402965452001
 20
89.13430814299999
 30
0.0
 11
-162.8024139567
 21
88.74287324799999
 31
0.0
  0
LINE
  5
47F
330
219
100
AcDbEntity
  8
0
  6
Continuous
 62
     9
100
AcDbLine
 10
258.2098858173
 20
49.6845158340001
 30
0.0
 11
-621.7901141827
 21
49.6845158340001
 31
0.0
  0
LINE
  5
480
330
219
100
AcDbEntity
  8
RUNDUNGEN
  6
Continuous
 62
     7
100
AcDbLine
 10
260.2098858172999
 20
50.68451583399997
 30
0.0
 11
258.2098858173
 21
50.68451583399997
 31
0.0
  0
LINE
  5
481
330
219
100
AcDbEntity
  8
0
  6
Continuous
 62
     7
100
AcDbLine
 10
258.2098858173
 20
50.68451583399998
 30
0.0
 11
-621.7901141827
 21
50.68451583399997
 31
0.0
  0
LINE
  5
482
330
219
100
AcDbEntity
  8
RUNDUNGEN
  6
Continuous
 62
     7
100
AcDbLine
 10
-621.7901141827
 20
50.68451583399997
 30
0.0
 11
-623.7901141827001
 21
50.68451583399997
 31
0.0
  0
LINE
  5
483
330
219
100
AcDbEntity
  8
0
  6
Continuous
 62
     7
100
AcDbLine
 10
258.2098858173
 20
53.68451583399997
 30
0.0
 11
-621.7901141827
 21
53.68451583399996
 31
0.0
  0
LINE
  5
484
330
219
100
AcDbEntity
  8
0
  6
Continuous
 62
     9
100
AcDbLine
 10
258.2098858173
 20
54.62018791800005
 30
0.0
 11
-621.7901141827
 21
54.62018791800005
 31
0.0
  0
LINE
  5
485
330
219
100
AcDbEntity
  8
RUNDUNGEN
  6
Continuous
 62
     9
100
AcDbLine
 10
-108.7901141827
 20
55.87749958300003
 30
0.0
 11
-254.7901141827001
 21
55.87749958300003
 31
0.0
  0
LINE
  5
486
330
219
100
AcDbEntity
  8
RUNDUNGEN
  6
Continuous
 62
     7
100
AcDbLine
 10
-108.7902469462001
 20
58.68451583399997
 30
0.0
 11
-254.7899676337
 21
58.68451583399997
 31
0.0
  0
LINE
  5
487
330
219
100
AcDbEntity
  8
0
  6
Continuous
 62
     9
100
AcDbLine
 10
-108.7901141827
 20
68.58451583400006
 30
0.0
 11
-254.7901141827001
 21
68.58451583400006
 31
0.0
  0
LINE
  5
48C
330
219
100
AcDbEntity
  8
RUNDUNGEN
  6
Continuous
 62
     7
100
AcDbLine
 10
258.2098858173
 20
85.68451583399996
 30
0.0
 11
-78.79047512506454
 21
85.68451557520694
 31
0.0
  0
LINE
  5
48D
330
219
100
AcDbEntity
  8
RUNDUNGEN
  6
Continuous
 62
     7
100
AcDbLine
 10
-284.7897532275502
 20
85.68451593993451
 30
0.0
 11
-621.7901141827
 21
85.68451583399996
 31
0.0
  0
LINE
  5
48E
330
219
100
AcDbEntity
  8
RUNDUNGEN
  6
Continuous
 62
     9
100
AcDbLine
 10
-108.7901141827
 20
115.537352809
 30
0.0
 11
-108.7901141827
 21
112.6845158339999
 31
0.0
  0
LINE
  5
48F
330
219
100
AcDbEntity
  8
0
  6
Continuous
 62
     9
100
AcDbLine
 10
-108.7901141827
 20
68.58451583400006
 30
0.0
 11
-108.7901141827
 21
58.68451869700002
 31
0.0
  0
LINE
  5
490
330
219
100
AcDbEntity
  8
RUNDUNGEN
  6
Continuous
 62
     9
100
AcDbLine
 10
-108.7901141827
 20
55.87749958300003
 30
0.0
 11
-108.7901141827
 21
58.68451583399997
 31
0.0
  0
LINE
  5
491
330
219
100
AcDbEntity
  8
0
  6
Continuous
 62
     9
100
AcDbLine
 10
-108.7901141827
 20
102.784515834
 30
0.0
 11
-108.7901141827
 21
112.6845126765
 31
0.0
  0
LINE
  5
492
330
219
100
AcDbEntity
  8
0
  6
Continuous
 62
     9
100
AcDbLine
 10
-254.7901141827001
 20
102.784515834
 30
0.0
 11
-108.7901141827
 21
102.784515834
 31
0.0
  0
LINE
  5
493
330
219
100
AcDbEntity
  8
RUNDUNGEN
  6
Continuous
 62
     7
100
AcDbLine
 10
-254.7899817437
 20
112.6845158339999
 30
0.0
 11
-108.7902603532
 21
112.6845158339999
 31
0.0
  0
LINE
  5
494
330
219
100
AcDbEntity
  8
RUNDUNGEN
  6
Continuous
 62
     9
100
AcDbLine
 10
-254.7901141827001
 20
115.537352809
 30
0.0
 11
-108.7901141827
 21
115.537352809
 31
0.0
  0
LINE
  5
495
330
219
100
AcDbEntity
  8
RUNDUNGEN
  6
Continuous
 62
     7
100
AcDbLine
 10
258.2098858173
 20
126.733570176
 30
0.0
 11
-621.7901141827
 21
126.733570176
 31
0.0
  0
LINE
  5
496
330
219
100
AcDbEntity
  8
RUNDUNGEN
  6
Continuous
 62
     7
100
AcDbLine
 10
290.7098858173
 20
127.684515834
 30
0.0
 11
-654.2901141827
 21
127.6845158339999
 31
0.0
  0
LINE
  5
497
330
219
100
AcDbEntity
  8
RUNDUNGEN
  6
Continuous
 62
     7
100
AcDbLine
 10
-654.2901141827
 20
128.684515834
 30
0.0
 11
290.7098858173
 21
128.684515834
 31
0.0
  0
LINE
  5
49A
330
219
100
AcDbEntity
  8
RUNDUNGEN
  6
Continuous
 62
     7
100
AcDbLine
 10
258.2098858173
 20
127.6850222240001
 30
0.0
 11
258.2098858173
 21
53.59679224700006
 31
0.0
  0
LINE
  5
49B
330
219
100
AcDbEntity
  8
0
  6
Continuous
 62
     7
100
AcDbLine
 10
258.2098858173
 20
53.59679224700006
 30
0.0
 11
258.2098858173
 21
50.77223942149998
 31
0.0
  0
LINE
  5
49C
330
219
100
AcDbEntity
  8
RUNDUNGEN
  6
Continuous
 62
     7
100
AcDbLine
 10
258.2098858173
 20
50.77223942149998
 30
0.0
 11
258.2098858173
 21
50.68451583399997
 31
0.0
  0
LINE
  5
49D
330
219
100
AcDbEntity
  8
0
  6
Continuous
 62
     7
100
AcDbLine
 10
258.2098858173
 20
50.68451583399997
 30
0.0
 11
258.2098858173
 21
19.68451583400008
 31
0.0
  0
LINE
  5
49E
330
219
100
AcDbEntity
  8
RUNDUNGEN
  6
Continuous
 62
     7
100
AcDbLine
 10
260.2098858172999
 20
50.68451583399997
 30
0.0
 11
260.2098858172999
 21
127.6850222240001
 31
0.0
  0
LINE
  5
49F
330
219
100
AcDbEntity
  8
RUNDUNGEN
  6
Continuous
 62
     9
100
AcDbLine
 10
280.7098858173
 20
127.684515834
 30
0.0
 11
280.7098858173
 21
128.684515834
 31
0.0
  0
LINE
  5
4A0
330
219
100
AcDbEntity
  8
RUNDUNGEN
  6
Continuous
 62
     7
100
AcDbLine
 10
290.7098858173
 20
29.68451583400008
 30
0.0
 11
290.7098858173
 21
128.684515834
 31
0.0
  0
LINE
  5
4A3
330
219
100
AcDbEntity
  8
RUNDUNGEN
  6
Continuous
 62
     7
100
AcDbLine
 10
-654.2901141827
 20
379.1832745424999
 30
0.0
 11
-654.2901141827
 21
425.3311826715
 31
0.0
  0
LINE
  5
4A4
330
219
100
AcDbEntity
  8
RUNDUNGEN
  6
Continuous
 62
     9
100
AcDbLine
 10
-644.2901141826999
 20
382.3311826715001
 30
0.0
 11
-644.2901141826999
 21
383.3311826715
 31
0.0
  0
LINE
  5
4A5
330
219
100
AcDbEntity
  8
RUNDUNGEN
  6
Continuous
 62
     7
100
AcDbLine
 10
-623.7901141827001
 20
374.3311826715002
 30
0.0
 11
-623.7901141827001
 21
382.3311826715001
 31
0.0
  0
LINE
  5
4A6
330
219
100
AcDbEntity
  8
RUNDUNGEN
  6
Continuous
 62
     7
100
AcDbLine
 10
-623.7901141827001
 20
383.3311826715
 30
0.0
 11
-623.7901141827001
 21
394.3311826715002
 31
0.0
  0
LINE
  5
4A7
330
219
100
AcDbEntity
  8
0
  6
Continuous
 62
     7
100
AcDbLine
 10
-621.7901141827
 20
395.3311826715001
 30
0.0
 11
-621.7901141827
 21
394.40520782
 31
0.0
  0
LINE
  5
4A8
330
219
100
AcDbEntity
  8
0
  6
Continuous
 62
     7
100
AcDbLine
 10
-621.7901141827
 20
393.8311826715002
 30
0.0
 11
-621.7901141827
 21
382.3311826715001
 31
0.0
  0
LINE
  5
4A9
330
219
100
AcDbEntity
  8
RUNDUNGEN
  6
Continuous
 62
     7
100
AcDbLine
 10
-621.7901141827
 20
374.3311826715002
 30
0.0
 11
-621.7901141827
 21
382.3311826715001
 31
0.0
  0
LINE
  5
4AA
330
219
100
AcDbEntity
  8
0
  6
Continuous
 62
     3
100
AcDbLine
 10
-621.7901141827
 20
381.0687967279999
 30
0.0
 11
-621.7901141827
 21
382.3311826715001
 31
0.0
  0
LINE
  5
4AB
330
219
100
AcDbEntity
  8
RUNDUNGEN
  6
Continuous
 62
     7
100
AcDbLine
 10
-621.7901141827
 20
384.3311826715002
 30
0.0
 11
-621.7901141827
 21
394.3311826715002
 31
0.0
  0
LINE
  5
4AC
330
219
100
AcDbEntity
  8
RUNDUNGEN
  6
Continuous
 62
     7
100
AcDbLine
 10
-601.7901141827
 20
376.880406539
 30
0.0
 11
-601.7901141827
 21
376.1691185840001
 31
0.0
  0
LINE
  5
4AD
330
219
100
AcDbEntity
  8
RUNDUNGEN
  6
Continuous
 62
     7
100
AcDbLine
 10
-601.7901141827
 20
375.1703224724999
 30
0.0
 11
-601.7901141827
 21
376.1691185840001
 31
0.0
  0
LINE
  5
4AE
330
219
100
AcDbEntity
  8
RUNDUNGEN
  6
Continuous
 62
     7
100
AcDbLine
 10
-599.2901141826997
 20
375.0476866185
 30
0.0
 11
-599.2901141826997
 21
376.0464827295001
 31
0.0
  0
LINE
  5
4AF
330
219
100
AcDbEntity
  8
RUNDUNGEN
  6
Continuous
 62
     7
100
AcDbLine
 10
-595.0221649901997
 20
376.6473984154999
 30
0.0
 11
-595.0221649901997
 21
376.402126707
 31
0.0
  0
LINE
  5
4B0
330
219
100
AcDbEntity
  8
RUNDUNGEN
  6
Continuous
 62
     7
100
AcDbLine
 10
-588.5580633751999
 20
376.402126707
 30
0.0
 11
-588.5580633751999
 21
376.6473984154999
 31
0.0
  0
LINE
  5
4B1
330
219
100
AcDbEntity
  8
RUNDUNGEN
  6
Continuous
 62
     7
100
AcDbLine
 10
-575.0221649901996
 20
376.6473984154999
 30
0.0
 11
-575.0221649901996
 21
376.402126707
 31
0.0
  0
LINE
  5
4B2
330
219
100
AcDbEntity
  8
RUNDUNGEN
  6
Continuous
 62
     7
100
AcDbLine
 10
-568.5580633751999
 20
376.402126707
 30
0.0
 11
-568.5580633751999
 21
376.6473984154999
 31
0.0
  0
LINE
  5
4B3
330
219
100
AcDbEntity
  8
RUNDUNGEN
  6
Continuous
 62
     7
100
AcDbLine
 10
-556.7901141826999
 20
376.4327856705
 30
0.0
 11
-556.7901141826999
 21
376.616739452
 31
0.0
  0
LINE
  5
4B4
330
219
100
AcDbEntity
  8
RUNDUNGEN
  6
Continuous
 62
     7
100
AcDbLine
 10
-555.5401141826997
 20
376.616739452
 30
0.0
 11
-555.5401141826997
 21
376.4327856705
 31
0.0
  0
LINE
  5
4B5
330
219
100
AcDbEntity
  8
RUNDUNGEN
  6
Continuous
 62
     7
100
AcDbLine
 10
-595.0221649901997
 20
376.6473984154999
 30
0.0
 11
-595.0206657942
 21
376.651893806
 31
0.0
  0
LINE
  5
4B6
330
219
100
AcDbEntity
  8
RUNDUNGEN
  6
Continuous
 62
     7
100
AcDbLine
 10
-575.0221649901996
 20
376.6473984154999
 30
0.0
 11
-575.0206657941999
 21
376.651893806
 31
0.0
  0
LINE
  5
4B7
330
219
100
AcDbEntity
  8
RUNDUNGEN
  6
Continuous
 62
     7
100
AcDbLine
 10
-588.5595625711999
 20
376.651893806
 30
0.0
 11
-588.5580633751999
 21
376.6473984154999
 31
0.0
  0
LINE
  5
4B8
330
219
100
AcDbEntity
  8
RUNDUNGEN
  6
Continuous
 62
     7
100
AcDbLine
 10
-568.5595625711997
 20
376.651893806
 30
0.0
 11
-568.5580633751999
 21
376.6473984154999
 31
0.0
  0
LINE
  5
4B9
330
219
100
AcDbEntity
  8
RUNDUNGEN
  6
Continuous
 62
     7
100
AcDbLine
 10
-497.1780873836998
 20
377.0030423930001
 30
0.0
 11
-497.1780873836998
 21
375.0476866185
 31
0.0
  0
LINE
  5
4BA
330
219
100
AcDbEntity
  8
RUNDUNGEN
  6
Continuous
 62
     7
100
AcDbLine
 10
-496.9313314952001
 20
377.0339274955
 30
0.0
 11
-496.9313314952001
 21
376.077367832
 31
0.0
  0
LINE
  5
4BB
330
219
100
AcDbEntity
  8
RUNDUNGEN
  6
Continuous
 62
     7
100
AcDbLine
 10
-495.5199895957
 20
377.0668353609999
 30
0.0
 11
-495.5199895957
 21
376.4363046560001
 31
0.0
  0
LINE
  5
4BC
330
219
100
AcDbEntity
  8
RUNDUNGEN
  6
Continuous
 62
     7
100
AcDbLine
 10
-494.5329660422
 20
377.0668353609999
 30
0.0
 11
-494.5329660422
 21
376.4363046560001
 31
0.0
  0
LINE
  5
4BD
330
219
100
AcDbEntity
  8
RUNDUNGEN
  6
Continuous
 62
     7
100
AcDbLine
 10
-491.3459609802001
 20
376.582335364
 30
0.0
 11
-491.3459609802001
 21
375.6257757005
 31
0.0
  0
LINE
  5
4BE
330
219
100
AcDbEntity
  8
RUNDUNGEN
  6
Continuous
 62
     7
100
AcDbLine
 10
-490.8524492032001
 20
376.582335364
 30
0.0
 11
-490.8524492032001
 21
375.6257757005
 31
0.0
  0
LINE
  5
4BF
330
219
100
AcDbEntity
  8
RUNDUNGEN
  6
Continuous
 62
     7
100
AcDbLine
 10
-487.6654441412
 20
377.0668353609999
 30
0.0
 11
-487.6654441412
 21
376.4363046560001
 31
0.0
  0
LINE
  5
4C0
330
219
100
AcDbEntity
  8
RUNDUNGEN
  6
Continuous
 62
     7
100
AcDbLine
 10
-486.6784205876999
 20
377.0668353609999
 30
0.0
 11
-486.6784205876999
 21
376.4363046560001
 31
0.0
  0
LINE
  5
4C1
330
219
100
AcDbEntity
  8
RUNDUNGEN
  6
Continuous
 62
     7
100
AcDbLine
 10
-483.4914155257
 20
376.582335364
 30
0.0
 11
-483.4914155257
 21
375.6257757005
 31
0.0
  0
LINE
  5
4C2
330
219
100
AcDbEntity
  8
RUNDUNGEN
  6
Continuous
 62
     7
100
AcDbLine
 10
-482.9979037486999
 20
376.582335364
 30
0.0
 11
-482.9979037486999
 21
375.6257757005
 31
0.0
  0
LINE
  5
4C3
330
219
100
AcDbEntity
  8
RUNDUNGEN
  6
Continuous
 62
     7
100
AcDbLine
 10
-479.8108986867001
 20
377.0668353609999
 30
0.0
 11
-479.8108986867001
 21
376.4363046560001
 31
0.0
  0
LINE
  5
4C4
330
219
100
AcDbEntity
  8
RUNDUNGEN
  6
Continuous
 62
     7
100
AcDbLine
 10
-494.5329660422
 20
376.4363046560001
 30
0.0
 11
-494.7797219307
 21
375.4683936475
 31
0.0
  0
LINE
  5
4C5
330
219
100
AcDbEntity
  8
RUNDUNGEN
  6
Continuous
 62
     7
100
AcDbLine
 10
-491.3459609802001
 20
375.6257757005
 30
0.0
 11
-491.5927168681998
 21
374.6578646920001
 31
0.0
  0
LINE
  5
4C6
330
219
100
AcDbEntity
  8
RUNDUNGEN
  6
Continuous
 62
     7
100
AcDbLine
 10
-496.9313314952001
 20
376.077367832
 30
0.0
 11
-496.6845756067
 21
375.1094568230001
 31
0.0
  0
LINE
  5
4C7
330
219
100
AcDbEntity
  8
RUNDUNGEN
  6
Continuous
 62
     7
100
AcDbLine
 10
-495.5199895957
 20
376.4363046560001
 30
0.0
 11
-495.2732337071998
 21
375.4683936475
 31
0.0
  0
LINE
  5
4C8
330
219
100
AcDbEntity
  8
RUNDUNGEN
  6
Continuous
 62
     7
100
AcDbLine
 10
-490.8524492032001
 20
375.6257757005
 30
0.0
 11
-490.6056933152001
 21
374.6578646920001
 31
0.0
  0
LINE
  5
4C9
330
219
100
AcDbEntity
  8
RUNDUNGEN
  6
Continuous
 62
     7
100
AcDbLine
 10
-487.6654441412
 20
376.4363046560001
 30
0.0
 11
-487.4186882526998
 21
375.4683936475
 31
0.0
  0
LINE
  5
4CA
330
219
100
AcDbEntity
  8
RUNDUNGEN
  6
Continuous
 62
     7
100
AcDbLine
 10
-478.8238751331999
 20
377.0668353609999
 30
0.0
 11
-478.8238751331999
 21
376.4363046560001
 31
0.0
  0
LINE
  5
4CB
330
219
100
AcDbEntity
  8
RUNDUNGEN
  6
Continuous
 62
     7
100
AcDbLine
 10
-475.2667362387001
 20
376.3655659320001
 30
0.0
 11
-475.2667362387001
 21
375.6542779769999
 31
0.0
  0
LINE
  5
4CC
330
219
100
AcDbEntity
  8
RUNDUNGEN
  6
Continuous
 62
     7
100
AcDbLine
 10
-486.6784205876999
 20
376.4363046560001
 30
0.0
 11
-486.9251764762
 21
375.4683936475
 31
0.0
  0
LINE
  5
4CD
330
219
100
AcDbEntity
  8
RUNDUNGEN
  6
Continuous
 62
     7
100
AcDbLine
 10
-483.4914155257
 20
375.6257757005
 30
0.0
 11
-483.7381714136999
 21
374.6578646920001
 31
0.0
  0
LINE
  5
4CE
330
219
100
AcDbEntity
  8
RUNDUNGEN
  6
Continuous
 62
     7
100
AcDbLine
 10
-478.8238751331999
 20
376.4363046560001
 30
0.0
 11
-479.0706310216998
 21
375.4683936475
 31
0.0
  0
LINE
  5
4CF
330
219
100
AcDbEntity
  8
RUNDUNGEN
  6
Continuous
 62
     7
100
AcDbLine
 10
-477.9361863032
 20
375.1798781680002
 30
0.0
 11
-477.6894304146996
 21
376.1477891769999
 31
0.0
  0
LINE
  5
4D0
330
219
100
AcDbEntity
  8
RUNDUNGEN
  6
Continuous
 62
     7
100
AcDbLine
 10
-475.5134921266999
 20
374.6863669685
 30
0.0
 11
-475.2667362387001
 21
375.6542779769999
 31
0.0
  0
LINE
  5
4D1
330
219
100
AcDbEntity
  8
RUNDUNGEN
  6
Continuous
 62
     7
100
AcDbLine
 10
-482.9979037486999
 20
375.6257757005
 30
0.0
 11
-482.7511478606998
 21
374.6578646920001
 31
0.0
  0
LINE
  5
4D2
330
219
100
AcDbEntity
  8
RUNDUNGEN
  6
Continuous
 62
     7
100
AcDbLine
 10
-479.8108986867001
 20
376.4363046560001
 30
0.0
 11
-479.5641427981998
 21
375.4683936475
 31
0.0
  0
LINE
  5
4D3
330
219
100
AcDbEntity
  8
RUNDUNGEN
  6
Continuous
 62
     3
100
AcDbLine
 10
-282.7901059652
 20
375.0636721229999
 30
0.0
 11
-282.7901141827
 21
375.064801849
 31
0.0
  0
LINE
  5
4D4
330
219
100
AcDbEntity
  8
RUNDUNGEN
  6
Continuous
 62
     7
100
AcDbLine
 10
-282.7901059577
 20
375.0636721229999
 30
0.0
 11
-282.7903137337001
 21
375.092537463
 31
0.0
  0
LINE
  5
4D5
330
219
100
AcDbEntity
  8
0
  6
Continuous
 62
     7
100
AcDbLine
 10
-283.8901141827001
 20
341.1661699624999
 30
0.0
 11
-283.8901141827001
 21
374.6661699625
 31
0.0
  0
LINE
  5
4D6
330
219
100
AcDbEntity
  8
0
  6
Continuous
 62
     3
100
AcDbLine
 10
-282.7901141827
 20
374.6661699625
 30
0.0
 11
-282.7901141827
 21
375.0647995590001
 31
0.0
  0
LINE
  5
4D9
330
219
100
AcDbEntity
  8
RUNDUNGEN
  6
Continuous
 62
     9
100
AcDbLine
 10
-254.7900225427
 20
374.6661699599998
 30
0.0
 11
-254.7901141827001
 21
378.9918909930001
 31
0.0
  0
LINE
  5
4DA
330
219
100
AcDbEntity
  8
RUNDUNGEN
  6
Continuous
 62
     7
100
AcDbLine
 10
128.0124885033001
 20
374.629888591
 30
0.0
 11
131.1994935652999
 21
375.4397137305002
 31
0.0
  0
LINE
  5
4DB
330
219
100
AcDbEntity
  8
RUNDUNGEN
  6
Continuous
 62
     7
100
AcDbLine
 10
128.0124885033001
 20
375.8842829599998
 30
0.0
 11
131.1994935652999
 21
376.6941080995001
 31
0.0
  0
LINE
  5
4DC
330
219
100
AcDbEntity
  8
RUNDUNGEN
  6
Continuous
 62
     7
100
AcDbLine
 10
120.1579430488
 20
374.629888591
 30
0.0
 11
123.3449481108
 21
375.4397137305002
 31
0.0
  0
LINE
  5
4DD
330
219
100
AcDbEntity
  8
RUNDUNGEN
  6
Continuous
 62
     7
100
AcDbLine
 10
127.7657326148
 20
376.851353491
 30
0.0
 11
130.9527376767998
 21
377.6611786305001
 31
0.0
  0
LINE
  5
4DE
330
219
100
AcDbEntity
  8
RUNDUNGEN
  6
Continuous
 62
     7
100
AcDbLine
 10
120.1579430488
 20
375.8842829599998
 30
0.0
 11
123.3449481108
 21
376.6941080995001
 31
0.0
  0
LINE
  5
4DF
330
219
100
AcDbEntity
  8
RUNDUNGEN
  6
Continuous
 62
     7
100
AcDbLine
 10
114.3559579377998
 20
375.1514487815
 30
0.0
 11
115.4904026562999
 21
375.4397137305002
 31
0.0
  0
LINE
  5
4E0
330
219
100
AcDbEntity
  8
RUNDUNGEN
  6
Continuous
 62
     7
100
AcDbLine
 10
119.9111871602999
 20
376.851353491
 30
0.0
 11
123.0981922223
 21
377.6611786305001
 31
0.0
  0
LINE
  5
4E1
330
219
100
AcDbEntity
  8
RUNDUNGEN
  6
Continuous
 62
     7
100
AcDbLine
 10
114.3559579377998
 20
376.4058431500002
 30
0.0
 11
115.4904026562999
 21
376.6941080995001
 31
0.0
  0
LINE
  5
4E2
330
219
100
AcDbEntity
  8
RUNDUNGEN
  6
Continuous
 62
     7
100
AcDbLine
 10
114.1092020497999
 20
377.3729136815
 30
0.0
 11
115.2436467677999
 21
377.6611786305001
 31
0.0
  0
LINE
  5
4E3
330
219
100
AcDbEntity
  8
RUNDUNGEN
  6
Continuous
 62
     7
100
AcDbLine
 10
-91.69012098019992
 20
329.1661699625
 30
0.0
 11
-172.2212167941814
 21
329.1661699625
 31
0.0
  0
LINE
  5
4E4
330
219
100
AcDbEntity
  8
RUNDUNGEN
  6
Continuous
 62
     7
100
AcDbLine
 10
-491.5927168681998
 20
374.6578646920001
 30
0.0
 11
-494.7797219307
 21
375.4683936475
 31
0.0
  0
LINE
  5
4E5
330
219
100
AcDbEntity
  8
RUNDUNGEN
  6
Continuous
 62
     7
100
AcDbLine
 10
-491.3459609802001
 20
375.6257757005
 30
0.0
 11
-494.5329660422
 21
376.4363046560001
 31
0.0
  0
LINE
  5
4E6
330
219
100
AcDbEntity
  8
RUNDUNGEN
  6
Continuous
 62
     7
100
AcDbLine
 10
-491.3459609802001
 20
376.582335364
 30
0.0
 11
-493.2510180816999
 21
377.0668353609999
 31
0.0
  0
LINE
  5
4E7
330
219
100
AcDbEntity
  8
RUNDUNGEN
  6
Continuous
 62
     7
100
AcDbLine
 10
-483.7381714136999
 20
374.6578646920001
 30
0.0
 11
-486.9251764762
 21
375.4683936475
 31
0.0
  0
LINE
  5
4E8
330
219
100
AcDbEntity
  8
RUNDUNGEN
  6
Continuous
 62
     7
100
AcDbLine
 10
-483.4914155257
 20
375.6257757005
 30
0.0
 11
-486.6784205876999
 21
376.4363046560001
 31
0.0
  0
LINE
  5
4E9
330
219
100
AcDbEntity
  8
RUNDUNGEN
  6
Continuous
 62
     7
100
AcDbLine
 10
-483.4914155257
 20
376.582335364
 30
0.0
 11
-485.3964726272
 21
377.0668353609999
 31
0.0
  0
LINE
  5
4EA
330
219
100
AcDbEntity
  8
RUNDUNGEN
  6
Continuous
 62
     7
100
AcDbLine
 10
-477.9361863032
 20
375.1798781680002
 30
0.0
 11
-479.0706310216998
 21
375.4683936475
 31
0.0
  0
LINE
  5
4EB
330
219
100
AcDbEntity
  8
RUNDUNGEN
  6
Continuous
 62
     7
100
AcDbLine
 10
-477.6894304146996
 20
376.1477891769999
 30
0.0
 11
-478.8238751331999
 21
376.4363046560001
 31
0.0
  0
LINE
  5
4EC
330
219
100
AcDbEntity
  8
RUNDUNGEN
  6
Continuous
 62
     7
100
AcDbLine
 10
-475.2667362387001
 20
376.3655659320001
 30
0.0
 11
-477.5664122901998
 21
377.0668353609999
 31
0.0
  0
LINE
  5
4EE
330
219
100
AcDbEntity
  8
RUNDUNGEN
  6
Continuous
 62
     7
100
AcDbLine
 10
111.9332637612999
 20
374.6966565445001
 30
0.0
 11
114.3559579377998
 21
375.1514487815
 31
0.0
  0
LINE
  5
4F0
330
219
100
AcDbEntity
  8
RUNDUNGEN
  6
Continuous
 62
     7
100
AcDbLine
 10
235.7098858173
 20
375.0193720190001
 30
0.0
 11
238.2098858173
 21
375.1801918099998
 31
0.0
  0
LINE
  5
4F8
330
219
100
AcDbEntity
  8
BG_STARTBEZUEGE
  6
CENTER
 62
     4
100
AcDbLine
 10
-181.7901141827
 20
352.1957419395
 30
0.0
 11
-226.399867734799
 21
352.1957419395
 31
0.0
  0
LINE
  5
4F9
330
219
100
AcDbEntity
  8
BG_STARTBEZUEGE
  6
CENTER
 62
     4
100
AcDbLine
 10
-181.7901141827
 20
352.1957419395
 30
0.0
 11
-128.1649797568066
 21
352.1957419395
 31
0.0
  0
LINE
  5
4FD
330
219
100
AcDbEntity
  8
RUNDUNGEN
  6
Continuous
 62
     7
100
AcDbLine
 10
-599.2901141826997
 20
375.0476866185
 30
0.0
 11
-601.7901141827
 21
375.1703224724999
 31
0.0
  0
LINE
  5
4FE
330
219
100
AcDbEntity
  8
RUNDUNGEN
  6
Continuous
 62
     7
100
AcDbLine
 10
-601.7901141827
 20
376.1691185840001
 30
0.0
 11
-599.2901141826997
 21
376.0464827295001
 31
0.0
  0
LINE
  5
500
330
219
100
AcDbEntity
  8
RUNDUNGEN
  6
Continuous
 62
     7
100
AcDbLine
 10
-475.5134921266999
 20
374.6863669685
 30
0.0
 11
-477.9361863032
 21
375.1798781680002
 31
0.0
  0
LINE
  5
501
330
219
100
AcDbEntity
  8
RUNDUNGEN
  6
Continuous
 62
     7
100
AcDbLine
 10
-477.6894304146996
 20
376.1477891769999
 30
0.0
 11
-475.2667362387001
 21
375.6542779769999
 31
0.0
  0
LINE
  5
509
330
219
100
AcDbEntity
  8
BG_STARTBEZUEGE
  6
CENTER
 62
     4
100
AcDbLine
 10
-181.7901141827
 20
354.1957419395
 30
0.0
 11
-181.7901141827
 21
311.6315270643231
 31
0.0
  0
LINE
  5
50A
330
219
100
AcDbEntity
  8
BG_STARTBEZUEGE
  6
CENTER
 62
     4
100
AcDbLine
 10
-181.7901141827
 20
354.1957419395
 30
0.0
 11
-181.7901141827
 21
437.990937789
 31
0.0
  0
LINE
  5
511
330
219
100
AcDbEntity
  8
RUNDUNGEN
  6
Continuous
 62
     7
100
AcDbLine
 10
260.2098858172999
 20
374.3311826715003
 30
0.0
 11
258.2098858173
 21
374.3311826715003
 31
0.0
  0
LINE
  5
512
330
219
100
AcDbEntity
  8
0
  6
Continuous
 62
     7
100
AcDbLine
 10
-621.7901141827
 20
374.3311826715002
 30
0.0
 11
-623.7901141827001
 21
374.3311826715002
 31
0.0
  0
LINE
  5
513
330
219
100
AcDbEntity
  8
0
  6
Continuous
 62
     7
100
AcDbLine
 10
-283.8901141827001
 20
374.6661699625
 30
0.0
 11
-196.1287974087
 21
374.6661699625
 31
0.0
  0
LINE
  5
514
330
219
100
AcDbEntity
  8
0
  6
Continuous
 62
     7
100
AcDbLine
 10
-167.4629960046999
 20
374.6661699625
 30
0.0
 11
-79.69011418270008
 21
374.6661699625
 31
0.0
  0
LINE
  5
515
330
219
100
AcDbEntity
  8
RUNDUNGEN
  6
Continuous
 62
     7
100
AcDbLine
 10
133.5978590183
 20
375.0193720190001
 30
0.0
 11
235.7098858173
 21
375.0193720190001
 31
0.0
  0
LINE
  5
516
330
219
100
AcDbEntity
  8
RUNDUNGEN
  6
Continuous
 62
     7
100
AcDbLine
 10
-497.1780873836998
 20
375.0476866185
 30
0.0
 11
-599.2901141826997
 21
375.0476866185
 31
0.0
  0
LINE
  5
517
330
219
100
AcDbEntity
  8
RUNDUNGEN
  6
Continuous
 62
     7
100
AcDbLine
 10
-497.1780873836998
 20
376.0464827295001
 30
0.0
 11
-599.2901141826997
 21
376.0464827295001
 31
0.0
  0
LINE
  5
518
330
219
100
AcDbEntity
  8
RUNDUNGEN
  6
Continuous
 62
     9
100
AcDbLine
 10
-623.7901141827001
 20
376.098046266
 30
0.0
 11
-621.7901141827
 21
376.098046266
 31
0.0
  0
LINE
  5
519
330
219
100
AcDbEntity
  8
RUNDUNGEN
  6
Continuous
 62
     7
100
AcDbLine
 10
258.2098858173
 20
376.0980462660001
 30
0.0
 11
260.2098858172999
 21
376.0980462660001
 31
0.0
  0
LINE
  5
51A
330
219
100
AcDbEntity
  8
RUNDUNGEN
  6
Continuous
 62
     7
100
AcDbLine
 10
133.5978590183
 20
376.273766388
 30
0.0
 11
235.7098858173
 21
376.273766388
 31
0.0
  0
LINE
  5
51B
330
219
100
AcDbEntity
  8
RUNDUNGEN
  6
Continuous
 62
     9
100
AcDbLine
 10
-108.7902506406999
 20
376.9960333635002
 30
0.0
 11
-171.5394466547
 21
376.9960333635002
 31
0.0
  0
LINE
  5
51C
330
219
100
AcDbEntity
  8
RUNDUNGEN
  6
Continuous
 62
     9
100
AcDbLine
 10
-192.0404526832001
 20
376.9960333635002
 30
0.0
 11
-254.7899631977001
 21
376.9960333635002
 31
0.0
  0
LINE
  5
51D
330
219
100
AcDbEntity
  8
RUNDUNGEN
  6
Continuous
 62
     7
100
AcDbLine
 10
-497.1780873836998
 20
377.0030423930001
 30
0.0
 11
-568.8172771457
 21
377.0030423930001
 31
0.0
  0
LINE
  5
51E
330
219
100
AcDbEntity
  8
RUNDUNGEN
  6
Continuous
 62
     7
100
AcDbLine
 10
-574.7629513657
 20
377.0030423930001
 30
0.0
 11
-588.8172771457
 21
377.0030423930001
 31
0.0
  0
LINE
  5
51F
330
219
100
AcDbEntity
  8
RUNDUNGEN
  6
Continuous
 62
     7
100
AcDbLine
 10
-594.7629513657
 20
377.0030423930001
 30
0.0
 11
-599.2901141826997
 21
377.0030423930001
 31
0.0
  0
LINE
  5
520
330
219
100
AcDbEntity
  8
RUNDUNGEN
  6
Continuous
 62
     7
100
AcDbLine
 10
258.2098858173
 20
377.06683536
 30
0.0
 11
238.2098858173
 21
377.06683536
 31
0.0
  0
LINE
  5
521
330
219
100
AcDbEntity
  8
RUNDUNGEN
  6
Continuous
 62
     7
100
AcDbLine
 10
128.6137450648
 20
377.0668353580002
 30
0.0
 11
126.4242083883
 21
377.0668353580002
 31
0.0
  0
LINE
  5
522
330
219
100
AcDbEntity
  8
RUNDUNGEN
  6
Continuous
 62
     7
100
AcDbLine
 10
120.7591996097999
 20
377.0668353575002
 30
0.0
 11
118.5696629343
 21
377.0668353575002
 31
0.0
  0
LINE
  5
523
330
219
100
AcDbEntity
  8
RUNDUNGEN
  6
Continuous
 62
     7
100
AcDbLine
 10
113.1541482322999
 20
377.0668353575002
 30
0.0
 11
-78.80864046365704
 21
377.0668353543684
 31
0.0
  0
LINE
  5
524
330
219
100
AcDbEntity
  8
RUNDUNGEN
  6
Continuous
 62
     7
100
AcDbLine
 10
-284.7898044758584
 20
377.0668353628439
 30
0.0
 11
-621.7901141827
 21
377.0668353599999
 31
0.0
  0
LINE
  5
525
330
219
100
AcDbEntity
  8
RUNDUNGEN
  6
Continuous
 62
     7
100
AcDbLine
 10
133.5978590183
 20
377.2716952025003
 30
0.0
 11
235.7098858173
 21
377.2716952025003
 31
0.0
  0
LINE
  5
526
330
219
100
AcDbEntity
  8
RUNDUNGEN
  6
Continuous
 62
     9
100
AcDbLine
 10
-623.7901141827001
 20
378.0948291814998
 30
0.0
 11
-621.7901141827
 21
378.0948291814998
 31
0.0
  0
LINE
  5
527
330
219
100
AcDbEntity
  8
RUNDUNGEN
  6
Continuous
 62
     7
100
AcDbLine
 10
258.2098858173
 20
378.0948291814998
 30
0.0
 11
260.2098858172999
 21
378.0948291814998
 31
0.0
  0
LINE
  5
528
330
219
100
AcDbEntity
  8
RUNDUNGEN
  6
Continuous
 62
     9
100
AcDbLine
 10
-108.7901141827
 20
378.9918909930001
 30
0.0
 11
-178.6745916282
 21
378.9918909930001
 31
0.0
  0
LINE
  5
529
330
219
100
AcDbEntity
  8
RUNDUNGEN
  6
Continuous
 62
     9
100
AcDbLine
 10
-178.6745916282
 20
378.9918909930001
 30
0.0
 11
-254.7901141827001
 21
378.9918909930001
 31
0.0
  0
LINE
  5
52A
330
219
100
AcDbEntity
  8
RUNDUNGEN
  6
Continuous
 62
     7
100
AcDbLine
 10
258.2098858173
 20
379.0729390985
 30
0.0
 11
-179.3152280212291
 21
379.0729390985
 31
0.0
  0
LINE
  5
52B
330
219
100
AcDbEntity
  8
RUNDUNGEN
  6
Continuous
 62
     7
100
AcDbLine
 10
-179.3152280212291
 20
379.0729390985
 30
0.0
 11
-621.7901141827
 21
379.0729390984999
 31
0.0
  0
LINE
  5
52C
330
219
100
AcDbEntity
  8
0
  6
Continuous
 62
     7
100
AcDbLine
 10
290.7098858173
 20
379.1832745425
 30
0.0
 11
260.2098858172999
 21
379.1832745425
 31
0.0
  0
LINE
  5
52D
330
219
100
AcDbEntity
  8
0
  6
Continuous
 62
     7
100
AcDbLine
 10
-623.7901141827001
 20
379.1832745424999
 30
0.0
 11
-654.2901141827
 21
379.1832745424999
 31
0.0
  0
LINE
  5
52E
330
219
100
AcDbEntity
  8
RUNDUNGEN
  6
Continuous
 62
     7
100
AcDbLine
 10
258.2098858173
 20
381.0687967279999
 30
0.0
 11
-621.7901141827
 21
381.0687967280001
 31
0.0
  0
LINE
  5
52F
330
219
100
AcDbEntity
  8
RUNDUNGEN
  6
Continuous
 62
     7
100
AcDbLine
 10
258.2098858173
 20
382.3311826715002
 30
0.0
 11
-621.7901141827
 21
382.3311826715001
 31
0.0
  0
LINE
  5
530
330
219
100
AcDbEntity
  8
RUNDUNGEN
  6
Continuous
 62
     7
100
AcDbLine
 10
-621.7901141827
 20
382.3311826715001
 30
0.0
 11
-654.2901141827
 21
382.3311826715001
 31
0.0
  0
LINE
  5
531
330
219
100
AcDbEntity
  8
RUNDUNGEN
  6
Continuous
 62
     7
100
AcDbLine
 10
258.2098858173
 20
382.3311826715002
 30
0.0
 11
290.7098858173
 21
382.3311826715002
 31
0.0
  0
LINE
  5
532
330
219
100
AcDbEntity
  8
RUNDUNGEN
  6
Continuous
 62
     7
100
AcDbLine
 10
258.2098858173
 20
383.3311826715002
 30
0.0
 11
-621.7901141827
 21
383.3311826715002
 31
0.0
  0
LINE
  5
533
330
219
100
AcDbEntity
  8
RUNDUNGEN
  6
Continuous
 62
     7
100
AcDbLine
 10
-654.2901141827
 20
383.3311826715
 30
0.0
 11
-621.7901141827
 21
383.3311826715
 31
0.0
  0
LINE
  5
534
330
219
100
AcDbEntity
  8
RUNDUNGEN
  6
Continuous
 62
     7
100
AcDbLine
 10
258.2098858173
 20
383.3311826715002
 30
0.0
 11
290.7098858173
 21
383.3311826715002
 31
0.0
  0
LINE
  5
535
330
219
100
AcDbEntity
  8
RUNDUNGEN
  6
Continuous
 62
     7
100
AcDbLine
 10
258.2098858173
 20
384.3311826715003
 30
0.0
 11
-621.7901141827
 21
384.3311826715003
 31
0.0
  0
LINE
  5
53C
330
219
100
AcDbEntity
  8
RUNDUNGEN
  6
Continuous
 62
     7
100
AcDbLine
 10
-599.2901141826997
 20
377.0030423930001
 30
0.0
 11
-601.7901141827
 21
376.880406539
 31
0.0
  0
LINE
  5
53D
330
219
100
AcDbEntity
  8
RUNDUNGEN
  6
Continuous
 62
     7
100
AcDbLine
 10
258.2098858173
 20
393.8311826715003
 30
0.0
 11
-621.7901141827
 21
393.8311826715003
 31
0.0
  0
LINE
  5
53E
330
219
100
AcDbEntity
  8
RUNDUNGEN
  6
Continuous
 62
     7
100
AcDbLine
 10
258.2098858173
 20
395.3311826715001
 30
0.0
 11
-621.7901141827
 21
395.3311826715002
 31
0.0
  0
LINE
  5
53F
330
219
100
AcDbEntity
  8
RUNDUNGEN
  6
Continuous
 62
     7
100
AcDbLine
 10
238.2098858173
 20
376.1129465970001
 30
0.0
 11
235.7098858173
 21
376.273766388
 31
0.0
  0
LINE
  5
540
330
219
100
AcDbEntity
  8
RUNDUNGEN
  6
Continuous
 62
     7
100
AcDbLine
 10
235.7098858173
 20
377.2716952025003
 30
0.0
 11
238.2098858173
 21
377.1108754115
 31
0.0
  0
LINE
  5
545
330
219
100
AcDbEntity
  8
RUNDUNGEN
  6
Continuous
 62
     7
100
AcDbLine
 10
-479.5641427981998
 20
375.4683936475
 30
0.0
 11
-482.7511478606998
 21
374.6578646920001
 31
0.0
  0
LINE
  5
546
330
219
100
AcDbEntity
  8
RUNDUNGEN
  6
Continuous
 62
     7
100
AcDbLine
 10
-479.8108986867001
 20
376.4363046560001
 30
0.0
 11
-482.9979037486999
 21
375.6257757005
 31
0.0
  0
LINE
  5
547
330
219
100
AcDbEntity
  8
RUNDUNGEN
  6
Continuous
 62
     7
100
AcDbLine
 10
-481.0928466467002
 20
377.0668353609999
 30
0.0
 11
-482.9979037486999
 21
376.582335364
 31
0.0
  0
LINE
  5
548
330
219
100
AcDbEntity
  8
RUNDUNGEN
  6
Continuous
 62
     7
100
AcDbLine
 10
-487.4186882526998
 20
375.4683936475
 30
0.0
 11
-490.6056933152001
 21
374.6578646920001
 31
0.0
  0
LINE
  5
549
330
219
100
AcDbEntity
  8
RUNDUNGEN
  6
Continuous
 62
     7
100
AcDbLine
 10
-487.6654441412
 20
376.4363046560001
 30
0.0
 11
-490.8524492032001
 21
375.6257757005
 31
0.0
  0
LINE
  5
54A
330
219
100
AcDbEntity
  8
RUNDUNGEN
  6
Continuous
 62
     7
100
AcDbLine
 10
-488.9473921016999
 20
377.0668353609999
 30
0.0
 11
-490.8524492032001
 21
376.582335364
 31
0.0
  0
LINE
  5
54B
330
219
100
AcDbEntity
  8
RUNDUNGEN
  6
Continuous
 62
     7
100
AcDbLine
 10
-495.2732337071998
 20
375.4683936475
 30
0.0
 11
-496.6845756067
 21
375.1094568230001
 31
0.0
  0
LINE
  5
54C
330
219
100
AcDbEntity
  8
RUNDUNGEN
  6
Continuous
 62
     7
100
AcDbLine
 10
-495.5199895957
 20
376.4363046560001
 30
0.0
 11
-496.9313314952001
 21
376.077367832
 31
0.0
  0
LINE
  5
54D
330
219
100
AcDbEntity
  8
RUNDUNGEN
  6
Continuous
 62
     7
100
AcDbLine
 10
-496.8019375566998
 20
377.0668353609999
 30
0.0
 11
-496.9313314952001
 21
377.0339274955
 31
0.0
  0
LINE
  5
54E
330
219
100
AcDbEntity
  8
RUNDUNGEN
  6
Continuous
 62
     7
100
AcDbLine
 10
280.7098858173
 20
435.3311826715001
 30
0.0
 11
-644.2901141826999
 21
435.3311826715001
 31
0.0
  0
LINE
  5
54F
330
219
100
AcDbEntity
  8
RUNDUNGEN
  6
Continuous
 62
     7
100
AcDbLine
 10
115.9839144328
 20
375.4397137305002
 30
0.0
 11
119.1709194953
 21
374.629888591
 31
0.0
  0
LINE
  5
550
330
219
100
AcDbEntity
  8
RUNDUNGEN
  6
Continuous
 62
     7
100
AcDbLine
 10
115.9839144328
 20
376.6941080995001
 30
0.0
 11
119.1709194953
 21
375.8842829599998
 31
0.0
  0
LINE
  5
551
330
219
100
AcDbEntity
  8
RUNDUNGEN
  6
Continuous
 62
     7
100
AcDbLine
 10
123.8384598872999
 20
375.4397137305002
 30
0.0
 11
127.0254649497999
 21
374.629888591
 31
0.0
  0
LINE
  5
552
330
219
100
AcDbEntity
  8
RUNDUNGEN
  6
Continuous
 62
     7
100
AcDbLine
 10
116.2306703212998
 20
377.6611786305001
 30
0.0
 11
119.4176753832998
 21
376.851353491
 31
0.0
  0
LINE
  5
553
330
219
100
AcDbEntity
  8
RUNDUNGEN
  6
Continuous
 62
     7
100
AcDbLine
 10
123.8384598872999
 20
376.6941080995001
 30
0.0
 11
127.0254649497999
 21
375.8842829599998
 31
0.0
  0
LINE
  5
554
330
219
100
AcDbEntity
  8
RUNDUNGEN
  6
Continuous
 62
     7
100
AcDbLine
 10
131.6930053417999
 20
375.4397137305002
 30
0.0
 11
133.1043472413
 21
375.0810885865002
 31
0.0
  0
LINE
  5
555
330
219
100
AcDbEntity
  8
RUNDUNGEN
  6
Continuous
 62
     7
100
AcDbLine
 10
124.0852157757999
 20
377.6611786305001
 30
0.0
 11
127.2722208382999
 21
376.851353491
 31
0.0
  0
LINE
  5
556
330
219
100
AcDbEntity
  8
RUNDUNGEN
  6
Continuous
 62
     7
100
AcDbLine
 10
131.6930053417999
 20
376.6941080995001
 30
0.0
 11
133.1043472413
 21
376.3354829550002
 31
0.0
  0
LINE
  5
557
330
219
100
AcDbEntity
  8
RUNDUNGEN
  6
Continuous
 62
     7
100
AcDbLine
 10
131.9397612302999
 20
377.6611786305001
 30
0.0
 11
133.3511031298
 21
377.302553486
 31
0.0
  0
LINE
  5
558
330
219
100
AcDbEntity
  8
RUNDUNGEN
  6
Continuous
 62
     9
100
AcDbLine
 10
-108.7901141827
 20
378.9918909930001
 30
0.0
 11
-108.7901970057
 21
374.6661699605001
 31
0.0
  0
LINE
  5
55B
330
219
100
AcDbEntity
  8
RUNDUNGEN
  6
Continuous
 62
     7
100
AcDbLine
 10
111.6865078733
 20
376.5964818625001
 30
0.0
 11
114.1092020497999
 21
377.3729136815
 31
0.0
  0
LINE
  5
55C
330
219
100
AcDbEntity
  8
RUNDUNGEN
  6
Continuous
 62
     7
100
AcDbLine
 10
114.3559579377998
 20
376.4058431500002
 30
0.0
 11
111.9332637612999
 21
375.6294113315
 31
0.0
  0
LINE
  5
55D
330
219
100
AcDbEntity
  8
0
  6
Continuous
 62
     3
100
AcDbLine
 10
-80.79011418270011
 20
374.6661699625
 30
0.0
 11
-80.79011418270011
 21
375.0647995595001
 31
0.0
  0
LINE
  5
55E
330
219
100
AcDbEntity
  8
0
  6
Continuous
 62
     7
100
AcDbLine
 10
-79.69011418270008
 20
341.1661699624999
 30
0.0
 11
-79.69011418270008
 21
374.6661699625
 31
0.0
  0
LINE
  5
55F
330
219
100
AcDbEntity
  8
RUNDUNGEN
  6
Continuous
 62
     7
100
AcDbLine
 10
-80.79011420670008
 20
375.0648031824999
 30
0.0
 11
-80.78991358770009
 21
375.0926126405001
 31
0.0
  0
LINE
  5
560
330
219
100
AcDbEntity
  8
RUNDUNGEN
  6
Continuous
 62
     3
100
AcDbLine
 10
-80.79011418270011
 20
375.0648038005
 30
0.0
 11
-80.79012240020006
 21
375.0636721229999
 31
0.0
  0
LINE
  5
565
330
219
100
AcDbEntity
  8
RUNDUNGEN
  6
Continuous
 62
     7
100
AcDbLine
 10
111.6865078733
 20
376.5964818625001
 30
0.0
 11
111.6865078733
 21
375.6637270755001
 31
0.0
  0
LINE
  5
566
330
219
100
AcDbEntity
  8
RUNDUNGEN
  6
Continuous
 62
     7
100
AcDbLine
 10
111.9332637612999
 20
375.6294113315
 30
0.0
 11
111.9332637612999
 21
374.6966565445001
 31
0.0
  0
LINE
  5
567
330
219
100
AcDbEntity
  8
RUNDUNGEN
  6
Continuous
 62
     7
100
AcDbLine
 10
115.4904026562999
 20
376.6941080995001
 30
0.0
 11
115.4904026562999
 21
375.4397137305002
 31
0.0
  0
LINE
  5
568
330
219
100
AcDbEntity
  8
RUNDUNGEN
  6
Continuous
 62
     7
100
AcDbLine
 10
115.9839144328
 20
376.6941080995001
 30
0.0
 11
115.9839144328
 21
375.4397137305002
 31
0.0
  0
LINE
  5
569
330
219
100
AcDbEntity
  8
RUNDUNGEN
  6
Continuous
 62
     7
100
AcDbLine
 10
119.1709194953
 20
375.8842829599998
 30
0.0
 11
119.1709194953
 21
374.629888591
 31
0.0
  0
LINE
  5
56A
330
219
100
AcDbEntity
  8
RUNDUNGEN
  6
Continuous
 62
     7
100
AcDbLine
 10
120.1579430488
 20
375.8842829599998
 30
0.0
 11
120.1579430488
 21
374.629888591
 31
0.0
  0
LINE
  5
56B
330
219
100
AcDbEntity
  8
RUNDUNGEN
  6
Continuous
 62
     7
100
AcDbLine
 10
116.2306703212998
 20
377.6611786305001
 30
0.0
 11
115.9839144328
 21
376.6941080995001
 31
0.0
  0
LINE
  5
56C
330
219
100
AcDbEntity
  8
RUNDUNGEN
  6
Continuous
 62
     7
100
AcDbLine
 10
119.4176753832998
 20
376.851353491
 30
0.0
 11
119.1709194953
 21
375.8842829599998
 31
0.0
  0
LINE
  5
56D
330
219
100
AcDbEntity
  8
RUNDUNGEN
  6
Continuous
 62
     7
100
AcDbLine
 10
124.0852157757999
 20
377.6611786305001
 30
0.0
 11
123.8384598872999
 21
376.6941080995001
 31
0.0
  0
LINE
  5
56E
330
219
100
AcDbEntity
  8
RUNDUNGEN
  6
Continuous
 62
     7
100
AcDbLine
 10
127.2722208382999
 20
376.851353491
 30
0.0
 11
127.0254649497999
 21
375.8842829599998
 31
0.0
  0
LINE
  5
56F
330
219
100
AcDbEntity
  8
RUNDUNGEN
  6
Continuous
 62
     7
100
AcDbLine
 10
111.9332637612999
 20
374.6966565445001
 30
0.0
 11
111.6865078733
 21
375.6637270755001
 31
0.0
  0
LINE
  5
570
330
219
100
AcDbEntity
  8
RUNDUNGEN
  6
Continuous
 62
     7
100
AcDbLine
 10
111.9332637612999
 20
375.6294113315
 30
0.0
 11
111.6865078733
 21
376.5964818625001
 31
0.0
  0
LINE
  5
571
330
219
100
AcDbEntity
  8
RUNDUNGEN
  6
Continuous
 62
     7
100
AcDbLine
 10
114.3559579377998
 20
376.4058431500002
 30
0.0
 11
114.1092020497999
 21
377.3729136815
 31
0.0
  0
LINE
  5
572
330
219
100
AcDbEntity
  8
RUNDUNGEN
  6
Continuous
 62
     7
100
AcDbLine
 10
115.2436467677999
 20
377.6611786305001
 30
0.0
 11
115.4904026562999
 21
376.6941080995001
 31
0.0
  0
LINE
  5
573
330
219
100
AcDbEntity
  8
RUNDUNGEN
  6
Continuous
 62
     7
100
AcDbLine
 10
119.9111871602999
 20
376.851353491
 30
0.0
 11
120.1579430488
 21
375.8842829599998
 31
0.0
  0
LINE
  5
574
330
219
100
AcDbEntity
  8
RUNDUNGEN
  6
Continuous
 62
     7
100
AcDbLine
 10
123.0981922223
 20
377.6611786305001
 30
0.0
 11
123.3449481108
 21
376.6941080995001
 31
0.0
  0
LINE
  5
575
330
219
100
AcDbEntity
  8
RUNDUNGEN
  6
Continuous
 62
     7
100
AcDbLine
 10
127.7657326148
 20
376.851353491
 30
0.0
 11
128.0124885033001
 21
375.8842829599998
 31
0.0
  0
LINE
  5
576
330
219
100
AcDbEntity
  8
RUNDUNGEN
  6
Continuous
 62
     7
100
AcDbLine
 10
123.3449481108
 20
376.6941080995001
 30
0.0
 11
123.3449481108
 21
375.4397137305002
 31
0.0
  0
LINE
  5
577
330
219
100
AcDbEntity
  8
RUNDUNGEN
  6
Continuous
 62
     7
100
AcDbLine
 10
123.8384598872999
 20
376.6941080995001
 30
0.0
 11
123.8384598872999
 21
375.4397137305002
 31
0.0
  0
LINE
  5
578
330
219
100
AcDbEntity
  8
RUNDUNGEN
  6
Continuous
 62
     7
100
AcDbLine
 10
127.0254649497999
 20
375.8842829599998
 30
0.0
 11
127.0254649497999
 21
374.629888591
 31
0.0
  0
LINE
  5
579
330
219
100
AcDbEntity
  8
RUNDUNGEN
  6
Continuous
 62
     7
100
AcDbLine
 10
128.0124885033001
 20
375.8842829599998
 30
0.0
 11
128.0124885033001
 21
374.629888591
 31
0.0
  0
LINE
  5
57A
330
219
100
AcDbEntity
  8
RUNDUNGEN
  6
Continuous
 62
     7
100
AcDbLine
 10
131.1994935652999
 20
376.6941080995001
 30
0.0
 11
131.1994935652999
 21
375.4397137305002
 31
0.0
  0
LINE
  5
57B
330
219
100
AcDbEntity
  8
RUNDUNGEN
  6
Continuous
 62
     7
100
AcDbLine
 10
131.6930053417999
 20
376.6941080995001
 30
0.0
 11
131.6930053417999
 21
375.4397137305002
 31
0.0
  0
LINE
  5
57C
330
219
100
AcDbEntity
  8
RUNDUNGEN
  6
Continuous
 62
     7
100
AcDbLine
 10
133.1043472413
 20
376.3354829550002
 30
0.0
 11
133.1043472413
 21
375.0810885865002
 31
0.0
  0
LINE
  5
57D
330
219
100
AcDbEntity
  8
RUNDUNGEN
  6
Continuous
 62
     7
100
AcDbLine
 10
133.5978590183
 20
377.2716952025003
 30
0.0
 11
133.5978590183
 21
375.0193720190001
 31
0.0
  0
LINE
  5
57E
330
219
100
AcDbEntity
  8
RUNDUNGEN
  6
Continuous
 62
     7
100
AcDbLine
 10
131.9397612302999
 20
377.6611786305001
 30
0.0
 11
131.6930053417999
 21
376.6941080995001
 31
0.0
  0
LINE
  5
57F
330
219
100
AcDbEntity
  8
RUNDUNGEN
  6
Continuous
 62
     7
100
AcDbLine
 10
133.3511031298
 20
377.302553486
 30
0.0
 11
133.1043472413
 21
376.3354829550002
 31
0.0
  0
LINE
  5
580
330
219
100
AcDbEntity
  8
RUNDUNGEN
  6
Continuous
 62
     7
100
AcDbLine
 10
130.9527376767998
 20
377.6611786305001
 30
0.0
 11
131.1994935652999
 21
376.6941080995001
 31
0.0
  0
LINE
  5
581
330
219
100
AcDbEntity
  8
RUNDUNGEN
  6
Continuous
 62
     7
100
AcDbLine
 10
191.9598858173
 20
375.7671840465002
 30
0.0
 11
191.9598858173
 21
375.5259543605001
 31
0.0
  0
LINE
  5
582
330
219
100
AcDbEntity
  8
RUNDUNGEN
  6
Continuous
 62
     7
100
AcDbLine
 10
193.2098858173
 20
375.5259543605001
 30
0.0
 11
193.2098858173
 21
375.7671840465002
 31
0.0
  0
LINE
  5
583
330
219
100
AcDbEntity
  8
BEZUGSACHSEN
  6
Continuous
 62
     7
100
AcDbLine
 10
205.7098858173
 20
375.4857494125001
 30
0.0
 11
205.7098858173
 21
375.8073889944999
 31
0.0
  0
LINE
  5
584
330
219
100
AcDbEntity
  8
BEZUGSACHSEN
  6
Continuous
 62
     7
100
AcDbLine
 10
210.7098858173
 20
375.8073889944999
 30
0.0
 11
210.7098858173
 21
375.4857494125001
 31
0.0
  0
LINE
  5
585
330
219
100
AcDbEntity
  8
RUNDUNGEN
  6
Continuous
 62
     7
100
AcDbLine
 10
225.7098858173
 20
375.4857494125001
 30
0.0
 11
225.7098858173
 21
375.8073889944999
 31
0.0
  0
LINE
  5
586
330
219
100
AcDbEntity
  8
RUNDUNGEN
  6
Continuous
 62
     7
100
AcDbLine
 10
230.7098858173
 20
375.8073889944999
 30
0.0
 11
230.7098858173
 21
375.4857494125001
 31
0.0
  0
LINE
  5
587
330
219
100
AcDbEntity
  8
RUNDUNGEN
  6
Continuous
 62
     7
100
AcDbLine
 10
235.7098858173
 20
376.273766388
 30
0.0
 11
235.7098858173
 21
377.2716952025003
 31
0.0
  0
LINE
  5
588
330
219
100
AcDbEntity
  8
RUNDUNGEN
  6
Continuous
 62
     7
100
AcDbLine
 10
238.2098858173
 20
375.1801918099998
 30
0.0
 11
238.2098858173
 21
377.1108754115
 31
0.0
  0
LINE
  5
589
330
219
100
AcDbEntity
  8
0
  6
Continuous
 62
     7
100
AcDbLine
 10
258.2098858173
 20
395.3311826715002
 30
0.0
 11
258.2098858173
 21
394.4052078200002
 31
0.0
  0
LINE
  5
58A
330
219
100
AcDbEntity
  8
RUNDUNGEN
  6
Continuous
 62
     7
100
AcDbLine
 10
258.2098858173
 20
374.3311826715003
 30
0.0
 11
258.2098858173
 21
382.3311826715002
 31
0.0
  0
LINE
  5
58B
330
219
100
AcDbEntity
  8
RUNDUNGEN
  6
Continuous
 62
     7
100
AcDbLine
 10
258.2098858173
 20
381.0687967280001
 30
0.0
 11
258.2098858173
 21
382.3311826715002
 31
0.0
  0
LINE
  5
58C
330
219
100
AcDbEntity
  8
RUNDUNGEN
  6
Continuous
 62
     7
100
AcDbLine
 10
258.2098858173
 20
382.3311826715002
 30
0.0
 11
258.2098858173
 21
393.8311826715003
 31
0.0
  0
LINE
  5
58D
330
219
100
AcDbEntity
  8
RUNDUNGEN
  6
Continuous
 62
     7
100
AcDbLine
 10
258.2098858173
 20
384.3311826715003
 30
0.0
 11
258.2098858173
 21
394.3311826715003
 31
0.0
  0
LINE
  5
58E
330
219
100
AcDbEntity
  8
RUNDUNGEN
  6
Continuous
 62
     7
100
AcDbLine
 10
260.2098858172999
 20
374.3311826715003
 30
0.0
 11
260.2098858172999
 21
382.3311826715002
 31
0.0
  0
LINE
  5
58F
330
219
100
AcDbEntity
  8
RUNDUNGEN
  6
Continuous
 62
     7
100
AcDbLine
 10
260.2098858172999
 20
383.3311826715002
 30
0.0
 11
260.2098858172999
 21
394.3311826715003
 31
0.0
  0
LINE
  5
590
330
219
100
AcDbEntity
  8
RUNDUNGEN
  6
Continuous
 62
     9
100
AcDbLine
 10
280.7098858173
 20
383.3311826715002
 30
0.0
 11
280.7098858173
 21
382.3311826715002
 31
0.0
  0
LINE
  5
591
330
219
100
AcDbEntity
  8
RUNDUNGEN
  6
Continuous
 62
     7
100
AcDbLine
 10
290.7098858173
 20
379.1832745425
 30
0.0
 11
290.7098858173
 21
425.3311826715
 31
0.0
  0
ARC
  5
6F3
330
219
100
AcDbEntity
  8
RUNDUNGEN
  6
Continuous
 62
     7
100
AcDbCircle
 10
-284.4104363267
 20
-202.650899147
 30
0.0
 40
288.33566414
100
AcDbArc
 50
89.68801015810013
 51
90.07532325389963
  0
ARC
  5
6FB
330
219
100
AcDbEntity
  8
RUNDUNGEN
  6
Continuous
 62
     7
100
AcDbCircle
 10
-644.2901141826999
 20
29.68451583400008
 30
0.0
 40
10.0
100
AcDbArc
 50
180.0
 51
270.0
  0
ARC
  5
701
330
219
100
AcDbEntity
  8
RUNDUNGEN
  6
Continuous
 62
     9
100
AcDbCircle
 10
-254.7901138472
 20
85.87749992400006
 30
0.0
 40
30.00000034100001
100
AcDbArc
 50
180.3685748610999
 51
269.9999993594001
  0
ARC
  5
702
330
219
100
AcDbEntity
  8
RUNDUNGEN
  6
Continuous
 62
     9
100
AcDbCircle
 10
-254.7901141402
 20
85.53735276950012
 30
0.0
 40
30.0000000395
100
AcDbArc
 50
90.00000008100009
 51
179.7189379813997
  0
ARC
  5
703
330
219
100
AcDbEntity
  8
RUNDUNGEN
  6
Continuous
 62
     7
100
AcDbCircle
 10
-254.7901141827001
 20
85.68451583399996
 30
0.0
 40
27.0
100
AcDbArc
 50
89.99971895580051
 51
270.0003109868005
  0
ARC
  5
705
330
219
100
AcDbEntity
  8
0
  6
Continuous
 62
     9
100
AcDbCircle
 10
-254.7901141827001
 20
85.68451583399996
 30
0.0
 40
17.1
100
AcDbArc
 50
90.0
 51
270.0
  0
ARC
  5
70F
330
219
100
AcDbEntity
  8
0
  6
Continuous
 62
     9
100
AcDbCircle
 10
-203.7901141827
 20
85.68451583399996
 30
0.0
 40
4.769696007
100
AcDbArc
 50
134.5653093812
 51
125.6374560330999
  0
ARC
  5
710
330
219
100
AcDbEntity
  8
0
  6
Continuous
 62
     9
100
AcDbCircle
 10
-159.7901141827
 20
85.68451583399996
 30
0.0
 40
4.769696007
100
AcDbArc
 50
134.5653093812
 51
125.6374560330999
  0
ARC
  5
712
330
219
100
AcDbEntity
  8
0
  6
Continuous
 62
     9
100
AcDbCircle
 10
-159.7901141827
 20
85.68451583399996
 30
0.0
 40
4.292726406499998
100
AcDbArc
 50
134.5653093812
 51
126.4728417342004
  0
ARC
  5
713
330
219
100
AcDbEntity
  8
0
  6
Continuous
 62
     9
100
AcDbCircle
 10
-203.7901141827
 20
85.68451583399996
 30
0.0
 40
4.292726406499998
100
AcDbArc
 50
134.5653093812
 51
126.4728417342004
  0
ARC
  5
71E
330
219
100
AcDbEntity
  8
RUNDUNGEN
  6
Continuous
 62
     7
100
AcDbCircle
 10
-79.16992157770003
 20
-202.758011893
 30
0.0
 40
288.442777309
100
AcDbArc
 50
89.92462738620053
 51
90.31184611920048
  0
ARC
  5
71F
330
219
100
AcDbEntity
  8
RUNDUNGEN
  6
Continuous
 62
     9
100
AcDbCircle
 10
-108.7901146217
 20
85.53735235999999
 30
0.0
 40
30.000000449
100
AcDbArc
 50
0.2810623073998086
 51
89.99999916139953
  0
ARC
  5
720
330
219
100
AcDbEntity
  8
RUNDUNGEN
  6
Continuous
 62
     9
100
AcDbCircle
 10
-108.7901142272001
 20
85.87749962000009
 30
0.0
 40
30.000000037
100
AcDbArc
 50
270.0000000854998
 51
359.6314252254002
  0
ARC
  5
721
330
219
100
AcDbEntity
  8
RUNDUNGEN
  6
Continuous
 62
     7
100
AcDbCircle
 10
-108.7901141827
 20
85.68451583399996
 30
0.0
 40
27.0
100
AcDbArc
 50
269.9997182664997
 51
90.00031018309956
  0
ARC
  5
725
330
219
100
AcDbEntity
  8
0
  6
Continuous
 62
     9
100
AcDbCircle
 10
-108.7901141827
 20
85.68451583399996
 30
0.0
 40
17.1
100
AcDbArc
 50
270.0
 51
90.0
  0
ARC
  5
726
330
219
100
AcDbEntity
  8
RUNDUNGEN
  6
Continuous
 62
     7
100
AcDbCircle
 10
280.7098858173
 20
29.68451583400008
 30
0.0
 40
10.0
100
AcDbArc
 50
270.0
 51
0.0
  0
ARC
  5
745
330
219
100
AcDbEntity
  8
RUNDUNGEN
  6
Continuous
 62
     7
100
AcDbCircle
 10
-271.8901141827
 20
341.1661699624999
 30
0.0
 40
12.0
100
AcDbArc
 50
180.0
 51
270.0000017476995
  0
CIRCLE
  5
746
330
219
100
AcDbEntity
  8
FASEN
  6
Continuous
 62
     7
100
AcDbCircle
 10
-241.7901141827001
 20
354.1661699625
 30
0.0
 40
4.0
  0
ARC
  5
747
330
219
100
AcDbEntity
  8
FASEN
  6
Continuous
 62
     7
100
AcDbCircle
 10
-241.7901141827001
 20
354.1661699625
 30
0.0
 40
3.375
100
AcDbArc
 50
270.0
 51
269.7803640028003
  0
ARC
  5
748
330
219
100
AcDbEntity
  8
0
  6
Continuous
 62
     2
100
AcDbCircle
 10
-241.7901141827001
 20
354.1661699625
 30
0.0
 40
3.234999999999998
100
AcDbArc
 50
255.0000000000002
 51
194.9999999999998
  0
ARC
  5
753
330
219
100
AcDbEntity
  8
RUNDUNGEN
  6
Continuous
 62
     7
100
AcDbCircle
 10
-644.2901141826999
 20
425.3311826715
 30
0.0
 40
10.0
100
AcDbArc
 50
90.0
 51
180.0
  0
ARC
  5
754
330
219
100
AcDbEntity
  8
RUNDUNGEN
  6
Continuous
 62
     7
100
AcDbCircle
 10
-590.3040584432
 20
375.6415708910001
 30
0.0
 40
2.016113885499998
100
AcDbArc
 50
30.07439614189947
 51
45.03683363370018
  0
ARC
  5
755
330
219
100
AcDbEntity
  8
RUNDUNGEN
  6
Continuous
 62
     7
100
AcDbCircle
 10
-570.3040584432
 20
375.6415708910001
 30
0.0
 40
2.016113885499998
100
AcDbArc
 50
30.07439614200003
 51
45.03683363920017
  0
ARC
  5
756
330
219
100
AcDbEntity
  8
RUNDUNGEN
  6
Continuous
 62
     7
100
AcDbCircle
 10
-593.2763663941996
 20
375.6417012965002
 30
0.0
 40
2.015878514
100
AcDbArc
 50
134.9518481342
 51
149.9260129259
  0
ARC
  5
757
330
219
100
AcDbEntity
  8
RUNDUNGEN
  6
Continuous
 62
     7
100
AcDbCircle
 10
-573.2763663941997
 20
375.6417012965002
 30
0.0
 40
2.015878514
100
AcDbArc
 50
134.9518481285999
 51
149.9260129257996
  0
ARC
  5
758
330
219
100
AcDbEntity
  8
RUNDUNGEN
  6
Continuous
 62
     7
100
AcDbCircle
 10
-497.1790446401999
 20
377.05767078
 30
0.0
 40
2.0099843895
100
AcDbArc
 50
270.0272871556999
 51
284.2413169075001
  0
ARC
  5
759
330
219
100
AcDbEntity
  8
RUNDUNGEN
  6
Continuous
 62
     7
100
AcDbCircle
 10
-284.7982516402002
 20
375.0635267345
 30
0.0
 40
2.008146895499999
100
AcDbArc
 50
0.8277554450999064
 51
4.080106994700011
  0
ARC
  5
75A
330
219
100
AcDbEntity
  8
RUNDUNGEN
  6
Continuous
 62
     7
100
AcDbCircle
 10
-593.2846869717001
 20
375.6415045154999
 30
0.0
 40
2.007648475999999
100
AcDbArc
 50
134.7532895523997
 51
149.9317734807001
  0
ARC
  5
75B
330
219
100
AcDbEntity
  8
RUNDUNGEN
  6
Continuous
 62
     7
100
AcDbCircle
 10
-573.2846869717
 20
375.6415045154999
 30
0.0
 40
2.007648475999999
100
AcDbArc
 50
134.7532895464002
 51
149.9317734806003
  0
ARC
  5
75C
330
219
100
AcDbEntity
  8
RUNDUNGEN
  6
Continuous
 62
     7
100
AcDbCircle
 10
-570.2955413616997
 20
375.64150454
 30
0.0
 40
2.007648435999997
100
AcDbArc
 50
30.06822636279994
 51
45.24671199479995
  0
ARC
  5
75D
330
219
100
AcDbEntity
  8
RUNDUNGEN
  6
Continuous
 62
     7
100
AcDbCircle
 10
-590.2955413616997
 20
375.6415045405
 30
0.0
 40
2.007648435999997
100
AcDbArc
 50
30.06822636270009
 51
45.24671198879999
  0
ARC
  5
75E
330
219
100
AcDbEntity
  8
RUNDUNGEN
  6
Continuous
 62
     7
100
AcDbCircle
 10
-284.7914496372
 20
375.0658401495
 30
0.0
 40
2.001093576999998
100
AcDbArc
 50
4.027896510199671
 51
89.95785700780016
  0
ARC
  5
75F
330
219
100
AcDbEntity
  8
RUNDUNGEN
  6
Continuous
 62
     7
100
AcDbCircle
 10
-497.1785660116998
 20
378.008034474
 30
0.0
 40
1.004992194999996
100
AcDbArc
 50
270.0272871558001
 51
284.2413169075001
  0
ARC
  5
760
330
219
100
AcDbEntity
  8
RUNDUNGEN
  6
Continuous
 62
     7
100
AcDbCircle
 10
-497.1785660116998
 20
377.0514748105
 30
0.0
 40
1.004992194999996
100
AcDbArc
 50
270.0272871558001
 51
284.2413169075001
  0
ARC
  5
761
330
219
100
AcDbEntity
  8
RUNDUNGEN
  6
Continuous
 62
     7
100
AcDbCircle
 10
-622.7901141827
 20
394.3311826715002
 30
0.0
 40
1.0
100
AcDbArc
 50
0.0
 51
180.0
  0
ARC
  5
763
330
219
100
AcDbEntity
  8
RUNDUNGEN
  6
Continuous
 62
     9
100
AcDbCircle
 10
-282.6533829847
 20
375.0619882325
 30
0.0
 40
0.1367333495
100
AcDbArc
 50
168.3210726672999
 51
179.2943765319003
  0
ARC
  5
772
330
219
100
AcDbEntity
  8
RUNDUNGEN
  6
Continuous
 62
     7
100
AcDbCircle
 10
-91.69011418270008
 20
341.1661699624999
 30
0.0
 40
12.0
100
AcDbArc
 50
269.9999982523005
 51
0.0
  0
ARC
  5
791
330
219
100
AcDbEntity
  8
RUNDUNGEN
  6
Continuous
 62
     7
100
AcDbCircle
 10
-78.78197508319998
 20
375.063526572
 30
0.0
 40
2.0081485835
100
AcDbArc
 50
175.9194694380996
 51
179.1700974595
  0
ARC
  5
792
330
219
100
AcDbEntity
  8
RUNDUNGEN
  6
Continuous
 62
     7
100
AcDbCircle
 10
-78.78877842769998
 20
375.0658400130001
 30
0.0
 40
2.001093914999998
100
AcDbArc
 50
90.04711558219971
 51
175.9716764518996
  0
ARC
  5
798
330
219
100
AcDbEntity
  8
RUNDUNGEN
  6
Continuous
 62
     7
100
AcDbCircle
 10
280.7098858173
 20
425.3311826715
 30
0.0
 40
10.0
100
AcDbArc
 50
0.0
 51
90.0
  0
ARC
  5
799
330
219
100
AcDbEntity
  8
RUNDUNGEN
  6
Continuous
 62
     7
100
AcDbCircle
 10
133.5988080153
 20
377.0309833455002
 30
0.0
 40
2.011611550499996
100
AcDbArc
 50
255.7706882947003
 51
269.9729701607996
  0
ARC
  5
79A
330
219
100
AcDbEntity
  8
RUNDUNGEN
  6
Continuous
 62
     7
100
AcDbCircle
 10
133.5988080153
 20
378.2853777145001
 30
0.0
 40
2.011611550499996
100
AcDbArc
 50
255.7706882947003
 51
269.9729701607996
  0
ARC
  5
79B
330
219
100
AcDbEntity
  8
RUNDUNGEN
  6
Continuous
 62
     7
100
AcDbCircle
 10
133.5983335167999
 20
378.2775008654998
 30
0.0
 40
1.005805775
100
AcDbArc
 50
255.7706882945999
 51
269.9729701607996
  0
ARC
  5
79C
330
219
100
AcDbEntity
  8
RUNDUNGEN
  6
Continuous
 62
     7
100
AcDbCircle
 10
259.2098858172999
 20
394.3311826715003
 30
0.0
 40
1.0
100
AcDbArc
 50
0.0
 51
180.0
  0
SPLINE
  5
873
330
219
100
AcDbEntity
  8
RUNDUNGEN
  6
Continuous
 62
     7
100
AcDbSpline
210
0.0
220
0.0
230
1.0
 70
     8
 71
     3
 72
    15
 73
    11
 74
     0
 42
0.0000001
 43
0.0000000001
 40
0.0
 40
0.0
 40
0.0
 40
0.0
 40
0.0166246765
 40
0.0371497442
 40
0.065798115
 40
0.147164124
 40
0.2599762192
 40
0.4031562932
 40
0.5753607878000003
 40
1.0
 40
1.0
 40
1.0
 40
1.0
 10
-81.79012215670002
 20
85.66383002300005
 30
0.0
 10
-81.79011843019997
 20
85.66869395849996
 30
0.0
 10
-81.77188038119993
 20
85.66428846150007
 30
0.0
 10
-81.75645432219994
 20
85.66815623550008
 30
0.0
 10
-81.71614893469996
 20
85.66818225550003
 30
0.0
 10
-81.65256231470005
 20
85.67111926100006
 30
0.0
 10
-81.55312513219994
 20
85.67253827400007
 30
0.0
 10
-81.42814739020002
 20
85.67462878449999
 30
0.0
 10
-81.2115158122001
 20
85.67708420300006
 30
0.0
 10
-81.03696057770003
 20
85.67854283550003
 30
0.0
 10
-80.91272542269996
 20
85.67940023150004
 30
0.0
  0
LINE
  5
874
330
219
100
AcDbEntity
  8
RUNDUNGEN
  6
Continuous
 62
     7
100
AcDbLine
 10
-80.91272542269996
 20
85.67940023150004
 30
0.0
 11
-80.73983331270005
 21
85.6804930935
 31
0.0
  0
SPLINE
  5
875
330
219
100
AcDbEntity
  8
RUNDUNGEN
  6
Continuous
 62
     7
100
AcDbSpline
210
0.0
220
0.0
230
1.0
 70
     8
 71
     3
 72
    15
 73
    11
 74
     0
 42
0.0000001
 43
0.0000000001
 40
0.0
 40
0.0
 40
0.0
 40
0.0
 40
0.0166241614
 40
0.0371491053
 40
0.0657974551
 40
0.1471635609
 40
0.2599757548
 40
0.4031559278000004
 40
0.5753605374000001
 40
1.0
 40
1.0
 40
1.0
 40
1.0
 10
-281.7901062512
 20
85.66383002250006
 30
0.0
 10
-281.7901099772
 20
85.66869380449999
 30
0.0
 10
-281.8083483577002
 20
85.66428429749997
 30
0.0
 10
-281.8237740602
 20
85.66815102700003
 30
0.0
 10
-281.8640796077001
 20
85.66817554800001
 30
0.0
 10
-281.9276660517
 20
85.67111465250002
 30
0.0
 10
-282.0271033182
 20
85.67253370449998
 30
0.0
 10
-282.1520810387
 20
85.67462431600006
 30
0.0
 10
-282.3687126077001
 20
85.67708042900006
 30
0.0
 10
-282.5432678212001
 20
85.67853946749997
 30
0.0
 10
-282.6675029622001
 20
85.6793971385
 30
0.0
  0
LINE
  5
876
330
219
100
AcDbEntity
  8
RUNDUNGEN
  6
Continuous
 62
     7
100
AcDbLine
 10
-282.6675029622001
 20
85.6793971385
 30
0.0
 11
-282.8403843177
 21
85.68049031999997
 31
0.0
  0
SPLINE
  5
8A5
330
219
100
AcDbEntity
  8
RUNDUNGEN
  6
Continuous
 62
     7
100
AcDbSpline
210
0.0
220
0.0
230
1.0
 70
     8
 71
     3
 72
     8
 73
     4
 74
     0
 42
0.0000001
 43
0.0000000001
 40
0.0
 40
0.0
 40
0.0
 40
0.0
 40
1.0
 40
1.0
 40
1.0
 40
1.0
 10
-495.2732337071998
 20
375.4683936475
 30
0.0
 10
-495.1138049462
 20
375.5089400615001
 30
0.0
 10
-494.9391506917
 20
375.5089400615001
 30
0.0
 10
-494.7797219307
 20
375.4683936475
 30
0.0
  0
SPLINE
  5
8A6
330
219
100
AcDbEntity
  8
RUNDUNGEN
  6
Continuous
 62
     7
100
AcDbSpline
210
0.0
220
0.0
230
1.0
 70
     8
 71
     3
 72
     8
 73
     4
 74
     0
 42
0.0000001
 43
0.0000000001
 40
0.0
 40
0.0
 40
0.0
 40
0.0
 40
1.0
 40
1.0
 40
1.0
 40
1.0
 10
-491.5927168681998
 20
374.6578646920001
 30
0.0
 10
-491.2738593467
 20
374.5767718635002
 30
0.0
 10
-490.9245508372001
 20
374.5767718635002
 30
0.0
 10
-490.6056933152001
 20
374.6578646920001
 30
0.0
  0
SPLINE
  5
8A7
330
219
100
AcDbEntity
  8
RUNDUNGEN
  6
Continuous
 62
     7
100
AcDbSpline
210
0.0
220
0.0
230
1.0
 70
     8
 71
     3
 72
     8
 73
     4
 74
     0
 42
0.0000001
 43
0.0000000001
 40
0.0
 40
0.0
 40
0.0
 40
0.0
 40
1.0
 40
1.0
 40
1.0
 40
1.0
 10
-487.4186882526998
 20
375.4683936475
 30
0.0
 10
-487.2592594917001
 20
375.5089400615001
 30
0.0
 10
-487.0846052372
 20
375.5089400615001
 30
0.0
 10
-486.9251764762
 20
375.4683936475
 30
0.0
  0
SPLINE
  5
8A8
330
219
100
AcDbEntity
  8
RUNDUNGEN
  6
Continuous
 62
     7
100
AcDbSpline
210
0.0
220
0.0
230
1.0
 70
     8
 71
     3
 72
     8
 73
     4
 74
     0
 42
0.0000001
 43
0.0000000001
 40
0.0
 40
0.0
 40
0.0
 40
0.0
 40
1.0
 40
1.0
 40
1.0
 40
1.0
 10
-483.7381714136999
 20
374.6578646920001
 30
0.0
 10
-483.4193138916999
 20
374.5767718635002
 30
0.0
 10
-483.0700053826999
 20
374.5767718635002
 30
0.0
 10
-482.7511478606998
 20
374.6578646920001
 30
0.0
  0
SPLINE
  5
8A9
330
219
100
AcDbEntity
  8
RUNDUNGEN
  6
Continuous
 62
     7
100
AcDbSpline
210
0.0
220
0.0
230
1.0
 70
     8
 71
     3
 72
     8
 73
     4
 74
     0
 42
0.0000001
 43
0.0000000001
 40
0.0
 40
0.0
 40
0.0
 40
0.0
 40
1.0
 40
1.0
 40
1.0
 40
1.0
 10
-479.5641427981998
 20
375.4683936475
 30
0.0
 10
-479.4047140372001
 20
375.5089400615001
 30
0.0
 10
-479.2300597827
 20
375.5089400615001
 30
0.0
 10
-479.0706310216998
 20
375.4683936475
 30
0.0
  0
SPLINE
  5
8AA
330
219
100
AcDbEntity
  8
RUNDUNGEN
  6
Continuous
 62
     7
100
AcDbSpline
210
0.0
220
0.0
230
1.0
 70
     8
 71
     3
 72
    19
 73
    15
 74
     0
 42
0.0000001
 43
0.0000000001
 40
0.0
 40
0.0
 40
0.0
 40
0.0
 40
0.0114137575
 40
0.0403015286
 40
0.0865556277
 40
0.1485260246
 40
0.3098589477
 40
0.5
 40
0.6901410523
 40
0.8514739754
 40
0.9134443723
 40
0.9596984713999999
 40
0.9885862425
 40
1.0
 40
1.0
 40
1.0
 40
1.0
 10
191.9598858173
 20
375.7671840465002
 30
0.0
 10
191.9598858173
 20
375.7719700670002
 30
0.0
 10
191.9823127322999
 20
375.7777440474998
 30
0.0
 10
192.0125398397999
 20
375.7841660640001
 30
0.0
 10
192.0726399837999
 20
375.7905597155001
 30
0.0
 10
192.1837426997999
 20
375.7989751610002
 30
0.0
 10
192.3580776512999
 20
375.8055983760002
 30
0.0
 10
192.5848858172999
 20
375.8083550410002
 30
0.0
 10
192.8116939837999
 20
375.8055983760002
 30
0.0
 10
192.9860289352999
 20
375.7989751610002
 30
0.0
 10
193.0971316507999
 20
375.7905597155001
 30
0.0
 10
193.1572317947999
 20
375.7841660640001
 30
0.0
 10
193.1874589023
 20
375.7777440474998
 30
0.0
 10
193.2098858173
 20
375.7719700670002
 30
0.0
 10
193.2098858173
 20
375.7671840465002
 30
0.0
  0
SPLINE
  5
8AB
330
219
100
AcDbEntity
  8
RUNDUNGEN
  6
Continuous
 62
     7
100
AcDbSpline
210
0.0
220
0.0
230
1.0
 70
     8
 71
     3
 72
    23
 73
    19
 74
     0
 42
0.0000001
 43
0.0000000001
 40
0.0
 40
0.0
 40
0.0
 40
0.0
 40
0.0039389224
 40
0.0117298686
 40
0.0406126497
 40
0.0868250296
 40
0.1487592694
 40
0.2240996853
 40
0.3099861337
 40
0.5
 40
0.6900138663
 40
0.7759003147
 40
0.8512407306
 40
0.9131749704
 40
0.9593873502999999
 40
0.9882701314
 40
0.9960610775999999
 40
1.0
 40
1.0
 40
1.0
 40
1.0
 10
159.9098858173
 20
375.6465692035003
 30
0.0
 10
159.9098858173
 20
375.6545027285001
 30
0.0
 10
159.8883405182998
 20
375.6726819330002
 30
0.0
 10
159.8138919068
 20
375.6974801135003
 30
0.0
 10
159.6460018783
 20
375.7287373985001
 30
0.0
 10
159.3734944087999
 20
375.7584624675002
 30
0.0
 10
159.0041313198
 20
375.7864816315001
 30
0.0
 10
158.5554925598001
 20
375.8093321995003
 30
0.0
 10
157.8483016507998
 20
375.8330853290001
 30
0.0
 10
156.9098858172999
 20
375.8440072355002
 30
0.0
 10
155.9714699837999
 20
375.8330853290001
 30
0.0
 10
155.2642790747999
 20
375.8093321995003
 30
0.0
 10
154.8156403148
 20
375.7864816315001
 30
0.0
 10
154.4462772257999
 20
375.7584624675002
 30
0.0
 10
154.1737697562999
 20
375.7287373985001
 30
0.0
 10
154.0058797278
 20
375.6974801135003
 30
0.0
 10
153.9314311162998
 20
375.6726819330002
 30
0.0
 10
153.9098858172999
 20
375.6545027285001
 30
0.0
 10
153.9098858172999
 20
375.6465692035003
 30
0.0
  0
SPLINE
  5
8AC
330
219
100
AcDbEntity
  8
RUNDUNGEN
  6
Continuous
 62
     7
100
AcDbSpline
210
0.0
220
0.0
230
1.0
 70
     8
 71
     3
 72
     8
 73
     4
 74
     0
 42
0.0000001
 43
0.0000000001
 40
0.0
 40
0.0
 40
0.0
 40
0.0
 40
1.0
 40
1.0
 40
1.0
 40
1.0
 10
131.6930053417999
 20
375.4397137305002
 30
0.0
 10
131.5335681737999
 20
375.4802270730002
 30
0.0
 10
131.3589307338
 20
375.4802270730002
 30
0.0
 10
131.1994935652999
 20
375.4397137305002
 30
0.0
  0
SPLINE
  5
8AD
330
219
100
AcDbEntity
  8
RUNDUNGEN
  6
Continuous
 62
     7
100
AcDbSpline
210
0.0
220
0.0
230
1.0
 70
     8
 71
     3
 72
     8
 73
     4
 74
     0
 42
0.0000001
 43
0.0000000001
 40
0.0
 40
0.0
 40
0.0
 40
0.0
 40
1.0
 40
1.0
 40
1.0
 40
1.0
 10
128.0124885033001
 20
374.629888591
 30
0.0
 10
127.6936141668
 20
374.5488619065
 30
0.0
 10
127.3443392863
 20
374.5488619065
 30
0.0
 10
127.0254649497999
 20
374.629888591
 30
0.0
  0
SPLINE
  5
8AE
330
219
100
AcDbEntity
  8
RUNDUNGEN
  6
Continuous
 62
     7
100
AcDbSpline
210
0.0
220
0.0
230
1.0
 70
     8
 71
     3
 72
     8
 73
     4
 74
     0
 42
0.0000001
 43
0.0000000001
 40
0.0
 40
0.0
 40
0.0
 40
0.0
 40
1.0
 40
1.0
 40
1.0
 40
1.0
 10
123.8384598872999
 20
375.4397137305002
 30
0.0
 10
123.6790227193
 20
375.4802270730002
 30
0.0
 10
123.5043852792998
 20
375.4802270730002
 30
0.0
 10
123.3449481108
 20
375.4397137305002
 30
0.0
  0
SPLINE
  5
8AF
330
219
100
AcDbEntity
  8
RUNDUNGEN
  6
Continuous
 62
     7
100
AcDbSpline
210
0.0
220
0.0
230
1.0
 70
     8
 71
     3
 72
     8
 73
     4
 74
     0
 42
0.0000001
 43
0.0000000001
 40
0.0
 40
0.0
 40
0.0
 40
0.0
 40
1.0
 40
1.0
 40
1.0
 40
1.0
 10
120.1579430488
 20
374.629888591
 30
0.0
 10
119.8390687123
 20
374.5488619065
 30
0.0
 10
119.4897938317999
 20
374.5488619065
 30
0.0
 10
119.1709194953
 20
374.629888591
 30
0.0
  0
SPLINE
  5
8B0
330
219
100
AcDbEntity
  8
RUNDUNGEN
  6
Continuous
 62
     7
100
AcDbSpline
210
0.0
220
0.0
230
1.0
 70
     8
 71
     3
 72
     8
 73
     4
 74
     0
 42
0.0000001
 43
0.0000000001
 40
0.0
 40
0.0
 40
0.0
 40
0.0
 40
1.0
 40
1.0
 40
1.0
 40
1.0
 10
115.9839144328
 20
375.4397137305002
 30
0.0
 10
115.8244772647999
 20
375.4802270730002
 30
0.0
 10
115.6498398243
 20
375.4802270730002
 30
0.0
 10
115.4904026562999
 20
375.4397137305002
 30
0.0
  0
SPLINE
  5
8B1
330
219
100
AcDbEntity
  8
RUNDUNGEN
  6
Continuous
 62
     7
100
AcDbSpline
210
0.0
220
0.0
230
1.0
 70
     8
 71
     3
 72
    23
 73
    19
 74
     0
 42
0.0000001
 43
0.0000000001
 40
0.0
 40
0.0
 40
0.0
 40
0.0
 40
0.0039388996
 40
0.0117299339
 40
0.0406144017
 40
0.0868251598
 40
0.1487579067
 40
0.2240988114
 40
0.3099847759
 40
0.5
 40
0.6900152240999999
 40
0.7759011886
 40
0.8512420932999999
 40
0.9131748401999999
 40
0.9593855983
 40
0.9882700660999999
 40
0.9960611004
 40
1.0
 40
1.0
 40
1.0
 40
1.0
 10
230.7098858173
 20
375.8073889944999
 30
0.0
 10
230.7098858173
 20
375.8140002175003
 30
0.0
 10
230.6919230218
 20
375.8291432195001
 30
0.0
 10
230.6298896477999
 20
375.8498169960001
 30
0.0
 10
230.4899729168
 20
375.8758621735001
 30
0.0
 10
230.2628903908001
 20
375.9006323420002
 30
0.0
 10
229.9550909953
 20
375.9239831860002
 30
0.0
 10
229.5812290687998
 20
375.9430260984999
 30
0.0
 10
228.9919015427999
 20
375.9628190310002
 30
0.0
 10
228.2098858173
 20
375.9719186189999
 30
0.0
 10
227.4278700918
 20
375.9628190310002
 30
0.0
 10
226.8385425658
 20
375.9430260984999
 30
0.0
 10
226.4646806393
 20
375.9239831860002
 30
0.0
 10
226.1568812443
 20
375.9006323420002
 30
0.0
 10
225.9297987178001
 20
375.8758621735001
 30
0.0
 10
225.7898819867998
 20
375.8498169960001
 30
0.0
 10
225.7278486127999
 20
375.8291432195001
 30
0.0
 10
225.7098858173
 20
375.8140002175003
 30
0.0
 10
225.7098858173
 20
375.8073889944999
 30
0.0
  0
SPLINE
  5
8B2
330
219
100
AcDbEntity
  8
BEZUGSACHSEN
  6
Continuous
 62
     7
100
AcDbSpline
210
0.0
220
0.0
230
1.0
 70
     8
 71
     3
 72
    23
 73
    19
 74
     0
 42
0.0000001
 43
0.0000000001
 40
0.0
 40
0.0
 40
0.0
 40
0.0
 40
0.0039388996
 40
0.0117299339
 40
0.0406144017
 40
0.0868251598
 40
0.1487579067
 40
0.2240988114
 40
0.3099847759
 40
0.5
 40
0.6900152240999999
 40
0.7759011886
 40
0.8512420932999999
 40
0.9131748401999999
 40
0.9593855983
 40
0.9882700660999999
 40
0.9960611004
 40
1.0
 40
1.0
 40
1.0
 40
1.0
 10
210.7098858173
 20
375.8073889944999
 30
0.0
 10
210.7098858173
 20
375.8140002175003
 30
0.0
 10
210.6919230218
 20
375.8291432195001
 30
0.0
 10
210.6298896477999
 20
375.8498169960001
 30
0.0
 10
210.4899729168
 20
375.8758621735001
 30
0.0
 10
210.2628903908
 20
375.9006323420002
 30
0.0
 10
209.9550909953
 20
375.9239831860002
 30
0.0
 10
209.5812290687999
 20
375.9430260984999
 30
0.0
 10
208.9919015427999
 20
375.9628190310002
 30
0.0
 10
208.2098858173
 20
375.9719186189999
 30
0.0
 10
207.4278700918
 20
375.9628190310002
 30
0.0
 10
206.8385425658
 20
375.9430260984999
 30
0.0
 10
206.4646806393
 20
375.9239831860002
 30
0.0
 10
206.1568812443
 20
375.9006323420002
 30
0.0
 10
205.9297987178001
 20
375.8758621735001
 30
0.0
 10
205.7898819867998
 20
375.8498169960001
 30
0.0
 10
205.7278486127999
 20
375.8291432195001
 30
0.0
 10
205.7098858173
 20
375.8140002175003
 30
0.0
 10
205.7098858173
 20
375.8073889944999
 30
0.0
  0
SPLINE
  5
8B3
330
219
100
AcDbEntity
  8
RUNDUNGEN
  6
Continuous
 62
     7
100
AcDbSpline
210
0.0
220
0.0
230
1.0
 70
     8
 71
     3
 72
    23
 73
    19
 74
     0
 42
0.0000001
 43
0.0000000001
 40
0.0
 40
0.0
 40
0.0
 40
0.0
 40
0.0039389224
 40
0.0117298686
 40
0.0406126497
 40
0.0868250296
 40
0.1487592694
 40
0.2240996853
 40
0.3099861337
 40
0.5
 40
0.6900138663
 40
0.7759003147
 40
0.8512407306
 40
0.9131749704
 40
0.9593873502999999
 40
0.9882701314
 40
0.9960610775999999
 40
1.0
 40
1.0
 40
1.0
 40
1.0
 10
153.9098858172999
 20
375.6465692035003
 30
0.0
 10
153.9098858172999
 20
375.6386356785002
 30
0.0
 10
153.9314311162998
 20
375.6204564740002
 30
0.0
 10
154.0058797278
 20
375.5956582935001
 30
0.0
 10
154.1737697562999
 20
375.5644010085001
 30
0.0
 10
154.4462772257999
 20
375.5346759395
 30
0.0
 10
154.8156403148
 20
375.5066567755002
 30
0.0
 10
155.2642790747999
 20
375.4838062075003
 30
0.0
 10
155.9714699837999
 20
375.4600530775002
 30
0.0
 10
156.9098858172999
 20
375.4491311715002
 30
0.0
 10
157.8483016507998
 20
375.4600530775002
 30
0.0
 10
158.5554925598001
 20
375.4838062075003
 30
0.0
 10
159.0041313198
 20
375.5066567755002
 30
0.0
 10
159.3734944087999
 20
375.5346759395
 30
0.0
 10
159.6460018783
 20
375.5644010085001
 30
0.0
 10
159.8138919068
 20
375.5956582935001
 30
0.0
 10
159.8883405182998
 20
375.6204564740002
 30
0.0
 10
159.9098858173
 20
375.6386356785002
 30
0.0
 10
159.9098858173
 20
375.6465692035003
 30
0.0
  0
SPLINE
  5
8B4
330
219
100
AcDbEntity
  8
RUNDUNGEN
  6
Continuous
 62
     7
100
AcDbSpline
210
0.0
220
0.0
230
1.0
 70
     8
 71
     3
 72
     8
 73
     4
 74
     0
 42
0.0000001
 43
0.0000000001
 40
0.0
 40
0.0
 40
0.0
 40
0.0
 40
1.0
 40
1.0
 40
1.0
 40
1.0
 10
131.6930053417999
 20
376.6941080995001
 30
0.0
 10
131.5335681737999
 20
376.7346214415002
 30
0.0
 10
131.3589307338
 20
376.7346214415002
 30
0.0
 10
131.1994935652999
 20
376.6941080995001
 30
0.0
  0
SPLINE
  5
8B5
330
219
100
AcDbEntity
  8
RUNDUNGEN
  6
Continuous
 62
     7
100
AcDbSpline
210
0.0
220
0.0
230
1.0
 70
     8
 71
     3
 72
     8
 73
     4
 74
     0
 42
0.0000001
 43
0.0000000001
 40
0.0
 40
0.0
 40
0.0
 40
0.0
 40
1.0
 40
1.0
 40
1.0
 40
1.0
 10
128.0124885033001
 20
375.8842829599998
 30
0.0
 10
127.6936141668
 20
375.8032562750003
 30
0.0
 10
127.3443392863
 20
375.8032562750003
 30
0.0
 10
127.0254649497999
 20
375.8842829599998
 30
0.0
  0
SPLINE
  5
8B6
330
219
100
AcDbEntity
  8
RUNDUNGEN
  6
Continuous
 62
     7
100
AcDbSpline
210
0.0
220
0.0
230
1.0
 70
     8
 71
     3
 72
    23
 73
    19
 74
     0
 42
0.0000001
 43
0.0000000001
 40
0.0
 40
0.0
 40
0.0
 40
0.0
 40
0.0039388996
 40
0.0117299339
 40
0.0406144017
 40
0.0868251598
 40
0.1487579067
 40
0.2240988114
 40
0.3099847759
 40
0.5
 40
0.6900152240999999
 40
0.7759011886
 40
0.8512420932999999
 40
0.9131748401999999
 40
0.9593855983
 40
0.9882700660999999
 40
0.9960611004
 40
1.0
 40
1.0
 40
1.0
 40
1.0
 10
225.7098858173
 20
375.4857494125001
 30
0.0
 10
225.7098858173
 20
375.4791381895001
 30
0.0
 10
225.7278486127999
 20
375.4639951875001
 30
0.0
 10
225.7898819867998
 20
375.4433214110001
 30
0.0
 10
225.9297987178001
 20
375.4172762335002
 30
0.0
 10
226.1568812443
 20
375.3925060645
 30
0.0
 10
226.4646806393
 20
375.369155221
 30
0.0
 10
226.8385425658
 20
375.3501123085
 30
0.0
 10
227.4278700918
 20
375.3303193760002
 30
0.0
 10
228.2098858173
 20
375.3212197875001
 30
0.0
 10
228.9919015427999
 20
375.3303193760002
 30
0.0
 10
229.5812290687998
 20
375.3501123085
 30
0.0
 10
229.9550909953
 20
375.369155221
 30
0.0
 10
230.2628903908001
 20
375.3925060645
 30
0.0
 10
230.4899729168
 20
375.4172762335002
 30
0.0
 10
230.6298896477999
 20
375.4433214110001
 30
0.0
 10
230.6919230218
 20
375.4639951875001
 30
0.0
 10
230.7098858173
 20
375.4791381895001
 30
0.0
 10
230.7098858173
 20
375.4857494125001
 30
0.0
  0
SPLINE
  5
8B7
330
219
100
AcDbEntity
  8
RUNDUNGEN
  6
Continuous
 62
     7
100
AcDbSpline
210
0.0
220
0.0
230
1.0
 70
     8
 71
     3
 72
    19
 73
    15
 74
     0
 42
0.0000001
 43
0.0000000001
 40
0.0
 40
0.0
 40
0.0
 40
0.0
 40
0.0114137575
 40
0.0403015286
 40
0.0865556277
 40
0.1485260246
 40
0.3098589477
 40
0.5
 40
0.6901410523
 40
0.8514739754
 40
0.9134443723
 40
0.9596984713999999
 40
0.9885862425
 40
1.0
 40
1.0
 40
1.0
 40
1.0
 10
193.2098858173
 20
375.5259543605001
 30
0.0
 10
193.2098858173
 20
375.5211683395
 30
0.0
 10
193.1874589023
 20
375.5153943595001
 30
0.0
 10
193.1572317947999
 20
375.5089723425003
 30
0.0
 10
193.0971316507999
 20
375.5025786915
 30
0.0
 10
192.9860289352999
 20
375.4941632460001
 30
0.0
 10
192.8116939837999
 20
375.4875400310003
 30
0.0
 10
192.5848858172999
 20
375.4847833655002
 30
0.0
 10
192.3580776512999
 20
375.4875400310003
 30
0.0
 10
192.1837426997999
 20
375.4941632460001
 30
0.0
 10
192.0726399837999
 20
375.5025786915
 30
0.0
 10
192.0125398397999
 20
375.5089723425003
 30
0.0
 10
191.9823127322999
 20
375.5153943595001
 30
0.0
 10
191.9598858173
 20
375.5211683395
 30
0.0
 10
191.9598858173
 20
375.5259543605001
 30
0.0
  0
SPLINE
  5
8B8
330
219
100
AcDbEntity
  8
RUNDUNGEN
  6
Continuous
 62
     7
100
AcDbSpline
210
0.0
220
0.0
230
1.0
 70
     8
 71
     3
 72
     8
 73
     4
 74
     0
 42
0.0000001
 43
0.0000000001
 40
0.0
 40
0.0
 40
0.0
 40
0.0
 40
1.0
 40
1.0
 40
1.0
 40
1.0
 10
123.8384598872999
 20
376.6941080995001
 30
0.0
 10
123.6790227193
 20
376.7346214415002
 30
0.0
 10
123.5043852792998
 20
376.7346214415002
 30
0.0
 10
123.3449481108
 20
376.6941080995001
 30
0.0
  0
SPLINE
  5
8B9
330
219
100
AcDbEntity
  8
BEZUGSACHSEN
  6
Continuous
 62
     7
100
AcDbSpline
210
0.0
220
0.0
230
1.0
 70
     8
 71
     3
 72
    23
 73
    19
 74
     0
 42
0.0000001
 43
0.0000000001
 40
0.0
 40
0.0
 40
0.0
 40
0.0
 40
0.0039388996
 40
0.0117299339
 40
0.0406144017
 40
0.0868251598
 40
0.1487579067
 40
0.2240988114
 40
0.3099847759
 40
0.5
 40
0.6900152240999999
 40
0.7759011886
 40
0.8512420932999999
 40
0.9131748401999999
 40
0.9593855983
 40
0.9882700660999999
 40
0.9960611004
 40
1.0
 40
1.0
 40
1.0
 40
1.0
 10
205.7098858173
 20
375.4857494125001
 30
0.0
 10
205.7098858173
 20
375.4791381895001
 30
0.0
 10
205.7278486127999
 20
375.4639951875001
 30
0.0
 10
205.7898819867998
 20
375.4433214110001
 30
0.0
 10
205.9297987178001
 20
375.4172762335002
 30
0.0
 10
206.1568812443
 20
375.3925060645
 30
0.0
 10
206.4646806393
 20
375.369155221
 30
0.0
 10
206.8385425658
 20
375.3501123085
 30
0.0
 10
207.4278700918
 20
375.3303193760002
 30
0.0
 10
208.2098858173
 20
375.3212197875001
 30
0.0
 10
208.9919015427999
 20
375.3303193760002
 30
0.0
 10
209.5812290687999
 20
375.3501123085
 30
0.0
 10
209.9550909953
 20
375.369155221
 30
0.0
 10
210.2628903908
 20
375.3925060645
 30
0.0
 10
210.4899729168
 20
375.4172762335002
 30
0.0
 10
210.6298896477999
 20
375.4433214110001
 30
0.0
 10
210.6919230218
 20
375.4639951875001
 30
0.0
 10
210.7098858173
 20
375.4791381895001
 30
0.0
 10
210.7098858173
 20
375.4857494125001
 30
0.0
  0
SPLINE
  5
8BA
330
219
100
AcDbEntity
  8
RUNDUNGEN
  6
Continuous
 62
     7
100
AcDbSpline
210
0.0
220
0.0
230
1.0
 70
     8
 71
     3
 72
     8
 73
     4
 74
     0
 42
0.0000001
 43
0.0000000001
 40
0.0
 40
0.0
 40
0.0
 40
0.0
 40
1.0
 40
1.0
 40
1.0
 40
1.0
 10
120.1579430488
 20
375.8842829599998
 30
0.0
 10
119.8390687123
 20
375.8032562750003
 30
0.0
 10
119.4897938317999
 20
375.8032562750003
 30
0.0
 10
119.1709194953
 20
375.8842829599998
 30
0.0
  0
SPLINE
  5
8BB
330
219
100
AcDbEntity
  8
RUNDUNGEN
  6
Continuous
 62
     7
100
AcDbSpline
210
0.0
220
0.0
230
1.0
 70
     8
 71
     3
 72
     8
 73
     4
 74
     0
 42
0.0000001
 43
0.0000000001
 40
0.0
 40
0.0
 40
0.0
 40
0.0
 40
1.0
 40
1.0
 40
1.0
 40
1.0
 10
115.9839144328
 20
376.6941080995001
 30
0.0
 10
115.8244772647999
 20
376.7346214415002
 30
0.0
 10
115.6498398243
 20
376.7346214415002
 30
0.0
 10
115.4904026562999
 20
376.6941080995001
 30
0.0
  0
SPLINE
  5
8BC
330
219
100
AcDbEntity
  8
RUNDUNGEN
  6
Continuous
 62
     7
100
AcDbSpline
210
0.0
220
0.0
230
1.0
 70
     8
 71
     3
 72
     8
 73
     4
 74
     0
 42
0.0000001
 43
0.0000000001
 40
0.0
 40
0.0
 40
0.0
 40
0.0
 40
1.0
 40
1.0
 40
1.0
 40
1.0
 10
225.7773046467999
 20
375.8459845305002
 30
0.0
 10
225.7331263047999
 20
375.7320893030001
 30
0.0
 10
225.7098858173
 20
375.6079126180002
 30
0.0
 10
225.7098858173
 20
375.4857494125001
 30
0.0
  0
SPLINE
  5
8BD
330
219
100
AcDbEntity
  8
RUNDUNGEN
  6
Continuous
 62
     7
100
AcDbSpline
210
0.0
220
0.0
230
1.0
 70
     8
 71
     3
 72
     8
 73
     4
 74
     0
 42
0.0000001
 43
0.0000000001
 40
0.0
 40
0.0
 40
0.0
 40
0.0
 40
1.0
 40
1.0
 40
1.0
 40
1.0
 10
230.6424669828
 20
375.8459845430002
 30
0.0
 10
230.6866453287998
 20
375.7320893125001
 30
0.0
 10
230.7098858173
 20
375.6079126224999
 30
0.0
 10
230.7098858173
 20
375.4857494125001
 30
0.0
  0
SPLINE
  5
8BE
330
219
100
AcDbEntity
  8
BEZUGSACHSEN
  6
Continuous
 62
     9
100
AcDbSpline
210
0.0
220
0.0
230
1.0
 70
     8
 71
     3
 72
     8
 73
     4
 74
     0
 42
0.0000001
 43
0.0000000001
 40
0.0
 40
0.0
 40
0.0
 40
0.0
 40
1.0
 40
1.0
 40
1.0
 40
1.0
 10
205.7773046467999
 20
375.8459845305002
 30
0.0
 10
205.7331263047999
 20
375.7320893030001
 30
0.0
 10
205.7098858173
 20
375.6079126180002
 30
0.0
 10
205.7098858173
 20
375.4857494125001
 30
0.0
  0
SPLINE
  5
8BF
330
219
100
AcDbEntity
  8
BEZUGSACHSEN
  6
Continuous
 62
     9
100
AcDbSpline
210
0.0
220
0.0
230
1.0
 70
     8
 71
     3
 72
     8
 73
     4
 74
     0
 42
0.0000001
 43
0.0000000001
 40
0.0
 40
0.0
 40
0.0
 40
0.0
 40
1.0
 40
1.0
 40
1.0
 40
1.0
 10
210.6424669828
 20
375.8459845430002
 30
0.0
 10
210.6866453287998
 20
375.7320893125001
 30
0.0
 10
210.7098858173
 20
375.6079126224999
 30
0.0
 10
210.7098858173
 20
375.4857494125001
 30
0.0
  0
SPLINE
  5
8C0
330
219
100
AcDbEntity
  8
RUNDUNGEN
  6
Continuous
 62
     7
100
AcDbSpline
210
0.0
220
0.0
230
1.0
 70
     8
 71
     3
 72
     8
 73
     4
 74
     0
 42
0.0000001
 43
0.0000000001
 40
0.0
 40
0.0
 40
0.0
 40
0.0
 40
1.0
 40
1.0
 40
1.0
 40
1.0
 10
-491.3459609802001
 20
376.582335364
 30
0.0
 10
-491.1865322191999
 20
376.5417889500001
 30
0.0
 10
-491.0118779641999
 20
376.5417889500001
 30
0.0
 10
-490.8524492032001
 20
376.582335364
 30
0.0
  0
SPLINE
  5
8C1
330
219
100
AcDbEntity
  8
RUNDUNGEN
  6
Continuous
 62
     7
100
AcDbSpline
210
0.0
220
0.0
230
1.0
 70
     8
 71
     3
 72
     8
 73
     4
 74
     0
 42
0.0000001
 43
0.0000000001
 40
0.0
 40
0.0
 40
0.0
 40
0.0
 40
1.0
 40
1.0
 40
1.0
 40
1.0
 10
-483.4914155257
 20
376.582335364
 30
0.0
 10
-483.3319867646999
 20
376.5417889500001
 30
0.0
 10
-483.1573325096996
 20
376.5417889500001
 30
0.0
 10
-482.9979037486999
 20
376.582335364
 30
0.0
  0
SPLINE
  5
8C2
330
219
100
AcDbEntity
  8
RUNDUNGEN
  6
Continuous
 62
     7
100
AcDbSpline
210
0.0
220
0.0
230
1.0
 70
     8
 71
     3
 72
    27
 73
    23
 74
     0
 42
0.0000001
 43
0.0000000001
 40
0.0
 40
0.0
 40
0.0
 40
0.0
 40
0.0033886333
 40
0.0109371772
 40
0.02303551
 40
0.039648089
 40
0.085847799
 40
0.147871415
 40
0.2233732036
 40
0.3094724278
 40
0.4028743007
 40
0.5
 40
0.5971256993000002
 40
0.6905275721999999
 40
0.7766267964
 40
0.8521285849999998
 40
0.9141522009999999
 40
0.9603519109999998
 40
0.9769644899999999
 40
0.9890628228
 40
0.9966113667
 40
1.0
 40
1.0
 40
1.0
 40
1.0
 10
-517.4901141826999
 20
376.5247625615
 30
0.0
 10
-517.4901141826999
 20
376.5179559430002
 30
0.0
 10
-517.5141741501999
 20
376.5043519780001
 30
0.0
 10
-517.5551123006998
 20
376.493767967
 30
0.0
 10
-517.6287505771997
 20
376.479567635
 30
0.0
 10
-517.7768325437
 20
376.4605903269999
 30
0.0
 10
-518.0276205196999
 20
376.4391536484999
 30
0.0
 10
-518.3956822626996
 20
376.4181621675001
 30
0.0
 10
-518.8446908676999
 20
376.4006141010002
 30
0.0
 10
-519.3567018576999
 20
376.3875152655
 30
0.0
 10
-519.9123167317
 20
376.3794131095
 30
0.0
 10
-520.4901141826999
 20
376.3766750264999
 30
0.0
 10
-521.0679116337001
 20
376.3794131095
 30
0.0
 10
-521.6235265076996
 20
376.3875152655
 30
0.0
 10
-522.1355374976998
 20
376.4006141010002
 30
0.0
 10
-522.5845461027001
 20
376.4181621675001
 30
0.0
 10
-522.9526078456998
 20
376.4391536484999
 30
0.0
 10
-523.2033958212
 20
376.4605903269999
 30
0.0
 10
-523.3514777882
 20
376.479567635
 30
0.0
 10
-523.4251160647
 20
376.493767967
 30
0.0
 10
-523.4660542147
 20
376.5043519780001
 30
0.0
 10
-523.4901141826999
 20
376.5179559430002
 30
0.0
 10
-523.4901141826999
 20
376.5247625615
 30
0.0
  0
SPLINE
  5
8C3
330
219
100
AcDbEntity
  8
RUNDUNGEN
  6
Continuous
 62
     7
100
AcDbSpline
210
0.0
220
0.0
230
1.0
 70
     8
 71
     3
 72
    21
 73
    17
 74
     0
 42
0.0000001
 43
0.0000000001
 40
0.0
 40
0.0
 40
0.0
 40
0.0
 40
0.0107066721
 40
0.0394054692
 40
0.0856395333
 40
0.147689505
 40
0.2232319459
 40
0.309377771
 40
0.5
 40
0.6906222290000003
 40
0.7767680540999999
 40
0.852310495
 40
0.9143604666999999
 40
0.9605945308
 40
0.9892933279000001
 40
1.0
 40
1.0
 40
1.0
 40
1.0
 10
-556.7901141826999
 20
376.4327856705
 30
0.0
 10
-556.7901141826999
 20
376.4283076309999
 30
0.0
 10
-556.7665671517
 20
376.4255787789999
 30
0.0
 10
-556.7378440251998
 20
376.419282171
 30
0.0
 10
-556.6770699356998
 20
376.4151964895
 30
0.0
 10
-556.6018380432
 20
376.4104876609999
 30
0.0
 10
-556.5077776647
 20
376.406950436
 30
0.0
 10
-556.3606930511999
 20
376.403138853
 30
0.0
 10
-556.1651141827
 20
376.4014318085
 30
0.0
 10
-555.9695353141997
 20
376.403138853
 30
0.0
 10
-555.8224507006998
 20
376.406950436
 30
0.0
 10
-555.7283903222001
 20
376.4104876609999
 30
0.0
 10
-555.6531584296998
 20
376.4151964895
 30
0.0
 10
-555.5923843401997
 20
376.419282171
 30
0.0
 10
-555.5636612137
 20
376.4255787789999
 30
0.0
 10
-555.5401141826997
 20
376.4283076309999
 30
0.0
 10
-555.5401141826997
 20
376.4327856705
 30
0.0
  0
SPLINE
  5
8C4
330
219
100
AcDbEntity
  8
RUNDUNGEN
  6
Continuous
 62
     7
100
AcDbSpline
210
0.0
220
0.0
230
1.0
 70
     8
 71
     3
 72
     8
 73
     4
 74
     0
 42
0.0000001
 43
0.0000000001
 40
0.0
 40
0.0
 40
0.0
 40
0.0
 40
1.0
 40
1.0
 40
1.0
 40
1.0
 10
-495.5199895957
 20
376.4363046560001
 30
0.0
 10
-495.2011320737
 20
376.5173974845001
 30
0.0
 10
-494.8518235642
 20
376.5173974845001
 30
0.0
 10
-494.5329660422
 20
376.4363046560001
 30
0.0
  0
SPLINE
  5
8C5
330
219
100
AcDbEntity
  8
RUNDUNGEN
  6
Continuous
 62
     7
100
AcDbSpline
210
0.0
220
0.0
230
1.0
 70
     8
 71
     3
 72
    27
 73
    23
 74
     0
 42
0.0000001
 43
0.0000000001
 40
0.0
 40
0.0
 40
0.0
 40
0.0
 40
0.0033886333
 40
0.0109371772
 40
0.02303551
 40
0.039648089
 40
0.085847799
 40
0.147871415
 40
0.2233732036
 40
0.3094724278
 40
0.4028743007
 40
0.5
 40
0.5971256993000002
 40
0.6905275721999999
 40
0.7766267964
 40
0.8521285849999998
 40
0.9141522009999999
 40
0.9603519109999998
 40
0.9769644899999999
 40
0.9890628228
 40
0.9966113667
 40
1.0
 40
1.0
 40
1.0
 40
1.0
 10
-523.4901141826999
 20
376.5247625615
 30
0.0
 10
-523.4901141826999
 20
376.53156918
 30
0.0
 10
-523.4660542147
 20
376.5451731445002
 30
0.0
 10
-523.4251160647
 20
376.5557571555
 30
0.0
 10
-523.3514777882
 20
376.5699574880001
 30
0.0
 10
-523.2033958212
 20
376.5889347955001
 30
0.0
 10
-522.9526078456998
 20
376.610371474
 30
0.0
 10
-522.5845461027001
 20
376.631362955
 30
0.0
 10
-522.1355374976998
 20
376.6489110215001
 30
0.0
 10
-521.6235265076996
 20
376.6620098575
 30
0.0
 10
-521.0679116337001
 20
376.670112013
 30
0.0
 10
-520.4901141826999
 20
376.6728500959999
 30
0.0
 10
-519.9123167317
 20
376.670112013
 30
0.0
 10
-519.3567018576999
 20
376.6620098575
 30
0.0
 10
-518.8446908676999
 20
376.6489110215001
 30
0.0
 10
-518.3956822626996
 20
376.631362955
 30
0.0
 10
-518.0276205196999
 20
376.610371474
 30
0.0
 10
-517.7768325437
 20
376.5889347955001
 30
0.0
 10
-517.6287505771997
 20
376.5699574880001
 30
0.0
 10
-517.5551123006998
 20
376.5557571555
 30
0.0
 10
-517.5141741501999
 20
376.5451731445002
 30
0.0
 10
-517.4901141826999
 20
376.53156918
 30
0.0
 10
-517.4901141826999
 20
376.5247625615
 30
0.0
  0
SPLINE
  5
8C6
330
219
100
AcDbEntity
  8
RUNDUNGEN
  6
Continuous
 62
     7
100
AcDbSpline
210
0.0
220
0.0
230
1.0
 70
     8
 71
     3
 72
     8
 73
     4
 74
     0
 42
0.0000001
 43
0.0000000001
 40
0.0
 40
0.0
 40
0.0
 40
0.0
 40
1.0
 40
1.0
 40
1.0
 40
1.0
 10
-491.3459609802001
 20
375.6257757005
 30
0.0
 10
-491.1865322191999
 20
375.5852292865001
 30
0.0
 10
-491.0118779641999
 20
375.5852292865001
 30
0.0
 10
-490.8524492032001
 20
375.6257757005
 30
0.0
  0
SPLINE
  5
8C7
330
219
100
AcDbEntity
  8
RUNDUNGEN
  6
Continuous
 62
     7
100
AcDbSpline
210
0.0
220
0.0
230
1.0
 70
     8
 71
     3
 72
     8
 73
     4
 74
     0
 42
0.0000001
 43
0.0000000001
 40
0.0
 40
0.0
 40
0.0
 40
0.0
 40
1.0
 40
1.0
 40
1.0
 40
1.0
 10
-487.6654441412
 20
376.4363046560001
 30
0.0
 10
-487.3465866191999
 20
376.5173974845001
 30
0.0
 10
-486.9972781097
 20
376.5173974845001
 30
0.0
 10
-486.6784205876999
 20
376.4363046560001
 30
0.0
  0
SPLINE
  5
8C8
330
219
100
AcDbEntity
  8
RUNDUNGEN
  6
Continuous
 62
     7
100
AcDbSpline
210
0.0
220
0.0
230
1.0
 70
     8
 71
     3
 72
     8
 73
     4
 74
     0
 42
0.0000001
 43
0.0000000001
 40
0.0
 40
0.0
 40
0.0
 40
0.0
 40
1.0
 40
1.0
 40
1.0
 40
1.0
 10
-483.4914155257
 20
375.6257757005
 30
0.0
 10
-483.3319867646999
 20
375.5852292865001
 30
0.0
 10
-483.1573325096996
 20
375.5852292865001
 30
0.0
 10
-482.9979037486999
 20
375.6257757005
 30
0.0
  0
SPLINE
  5
8C9
330
219
100
AcDbEntity
  8
RUNDUNGEN
  6
Continuous
 62
     7
100
AcDbSpline
210
0.0
220
0.0
230
1.0
 70
     8
 71
     3
 72
    27
 73
    23
 74
     0
 42
0.0000001
 43
0.0000000001
 40
0.0
 40
0.0
 40
0.0
 40
0.0
 40
0.0033886363
 40
0.0109371294
 40
0.023035242
 40
0.0396475494
 40
0.0858473592
 40
0.1478703379
 40
0.2233720921
 40
0.309471822
 40
0.4028734569
 40
0.5
 40
0.5971265431
 40
0.6905281780000001
 40
0.7766279079000002
 40
0.8521296620999997
 40
0.9141526408
 40
0.9603524505999999
 40
0.9769647579999999
 40
0.9890628705999999
 40
0.9966113636999999
 40
1.0
 40
1.0
 40
1.0
 40
1.0
 10
-588.5580633751999
 20
376.402126707
 30
0.0
 10
-588.5580633751999
 20
376.394793588
 30
0.0
 10
-588.5839843211997
 20
376.380137454
 30
0.0
 10
-588.6280884801997
 20
376.3687347995
 30
0.0
 10
-588.7074214862
 20
376.3534361655
 30
0.0
 10
-588.8669567832002
 20
376.3329909265
 30
0.0
 10
-589.1371415462
 20
376.3098964029999
 30
0.0
 10
-589.5336716986999
 20
376.2872808155
 30
0.0
 10
-590.0174108956997
 20
376.268375694
 30
0.0
 10
-590.5690265661997
 20
376.2542633035
 30
0.0
 10
-591.1676208076999
 20
376.2455345139999
 30
0.0
 10
-591.7901141827
 20
376.2425845165
 30
0.0
 10
-592.4126075572001
 20
376.2455345139999
 30
0.0
 10
-593.0112017992
 20
376.2542633035
 30
0.0
 10
-593.5628174697
 20
376.268375694
 30
0.0
 10
-594.0465566661997
 20
376.2872808155
 30
0.0
 10
-594.4430868191997
 20
376.3098964029999
 30
0.0
 10
-594.7132715822
 20
376.3329909265
 30
0.0
 10
-594.8728068787
 20
376.3534361655
 30
0.0
 10
-594.9521398851999
 20
376.3687347995
 30
0.0
 10
-594.9962440441999
 20
376.380137454
 30
0.0
 10
-595.0221649901997
 20
376.394793588
 30
0.0
 10
-595.0221649901997
 20
376.402126707
 30
0.0
  0
SPLINE
  5
8CA
330
219
100
AcDbEntity
  8
RUNDUNGEN
  6
Continuous
 62
     7
100
AcDbSpline
210
0.0
220
0.0
230
1.0
 70
     8
 71
     3
 72
    27
 73
    23
 74
     0
 42
0.0000001
 43
0.0000000001
 40
0.0
 40
0.0
 40
0.0
 40
0.0
 40
0.0033886363
 40
0.0109371294
 40
0.023035242
 40
0.0396475494
 40
0.0858473592
 40
0.1478703379
 40
0.2233720921
 40
0.309471822
 40
0.4028734569
 40
0.5
 40
0.5971265431
 40
0.6905281780000001
 40
0.7766279079000002
 40
0.8521296620999997
 40
0.9141526408
 40
0.9603524505999999
 40
0.9769647579999999
 40
0.9890628705999999
 40
0.9966113636999999
 40
1.0
 40
1.0
 40
1.0
 40
1.0
 10
-568.5580633751999
 20
376.402126707
 30
0.0
 10
-568.5580633751999
 20
376.394793588
 30
0.0
 10
-568.5839843212
 20
376.380137454
 30
0.0
 10
-568.6280884801997
 20
376.3687347995
 30
0.0
 10
-568.7074214862
 20
376.3534361655
 30
0.0
 10
-568.8669567832
 20
376.3329909265
 30
0.0
 10
-569.1371415462
 20
376.3098964029999
 30
0.0
 10
-569.5336716986997
 20
376.2872808155
 30
0.0
 10
-570.0174108956997
 20
376.268375694
 30
0.0
 10
-570.5690265661996
 20
376.2542633035
 30
0.0
 10
-571.1676208076998
 20
376.2455345139999
 30
0.0
 10
-571.7901141827
 20
376.2425845165
 30
0.0
 10
-572.4126075572001
 20
376.2455345139999
 30
0.0
 10
-573.0112017991997
 20
376.2542633035
 30
0.0
 10
-573.5628174697
 20
376.268375694
 30
0.0
 10
-574.0465566662001
 20
376.2872808155
 30
0.0
 10
-574.4430868191999
 20
376.3098964029999
 30
0.0
 10
-574.7132715822
 20
376.3329909265
 30
0.0
 10
-574.8728068786999
 20
376.3534361655
 30
0.0
 10
-574.9521398851997
 20
376.3687347995
 30
0.0
 10
-574.9962440441999
 20
376.380137454
 30
0.0
 10
-575.0221649901996
 20
376.394793588
 30
0.0
 10
-575.0221649901996
 20
376.402126707
 30
0.0
  0
SPLINE
  5
8CB
330
219
100
AcDbEntity
  8
RUNDUNGEN
  6
Continuous
 62
     7
100
AcDbSpline
210
0.0
220
0.0
230
1.0
 70
     8
 71
     3
 72
    21
 73
    17
 74
     0
 42
0.0000001
 43
0.0000000001
 40
0.0
 40
0.0
 40
0.0
 40
0.0
 40
0.0107066721
 40
0.0394054692
 40
0.0856395333
 40
0.147689505
 40
0.2232319459
 40
0.309377771
 40
0.5
 40
0.6906222290000003
 40
0.7767680540999999
 40
0.852310495
 40
0.9143604666999999
 40
0.9605945308
 40
0.9892933279000001
 40
1.0
 40
1.0
 40
1.0
 40
1.0
 10
-555.5401141826997
 20
376.616739452
 30
0.0
 10
-555.5401141826997
 20
376.6212174914999
 30
0.0
 10
-555.5636612137
 20
376.6239463435002
 30
0.0
 10
-555.5923843401997
 20
376.6302429515
 30
0.0
 10
-555.6531584296998
 20
376.6343286330001
 30
0.0
 10
-555.7283903222001
 20
376.6390374615
 30
0.0
 10
-555.8224507006998
 20
376.6425746865001
 30
0.0
 10
-555.9695353141997
 20
376.6463862694999
 30
0.0
 10
-556.1651141827
 20
376.648093314
 30
0.0
 10
-556.3606930511999
 20
376.6463862694999
 30
0.0
 10
-556.5077776647
 20
376.6425746865001
 30
0.0
 10
-556.6018380432
 20
376.6390374615
 30
0.0
 10
-556.6770699356998
 20
376.6343286330001
 30
0.0
 10
-556.7378440251998
 20
376.6302429515
 30
0.0
 10
-556.7665671517
 20
376.6239463435002
 30
0.0
 10
-556.7901141826999
 20
376.6212174914999
 30
0.0
 10
-556.7901141826999
 20
376.616739452
 30
0.0
  0
SPLINE
  5
8CC
330
219
100
AcDbEntity
  8
RUNDUNGEN
  6
Continuous
 62
     7
100
AcDbSpline
210
0.0
220
0.0
230
1.0
 70
     8
 71
     3
 72
     8
 73
     4
 74
     0
 42
0.0000001
 43
0.0000000001
 40
0.0
 40
0.0
 40
0.0
 40
0.0
 40
1.0
 40
1.0
 40
1.0
 40
1.0
 10
-479.8108986867001
 20
376.4363046560001
 30
0.0
 10
-479.4920411647
 20
376.5173974845001
 30
0.0
 10
-479.1427326551999
 20
376.5173974845001
 30
0.0
 10
-478.8238751331999
 20
376.4363046560001
 30
0.0
  0
SPLINE
  5
8CD
330
219
100
AcDbEntity
  8
RUNDUNGEN
  6
Continuous
 62
     7
100
AcDbSpline
210
0.0
220
0.0
230
1.0
 70
     8
 71
     3
 72
     8
 73
     4
 74
     0
 42
0.0000001
 43
0.0000000001
 40
0.0
 40
0.0
 40
0.0
 40
0.0
 40
1.0
 40
1.0
 40
1.0
 40
1.0
 10
-574.3920384836997
 20
377.070372955
 30
0.0
 10
-574.6476192537
 20
376.9018108355001
 30
0.0
 10
-574.8689460361998
 20
376.6671902280001
 30
0.0
 10
-575.0221649901996
 20
376.402126707
 30
0.0
  0
SPLINE
  5
8CE
330
219
100
AcDbEntity
  8
RUNDUNGEN
  6
Continuous
 62
     7
100
AcDbSpline
210
0.0
220
0.0
230
1.0
 70
     8
 71
     3
 72
     8
 73
     4
 74
     0
 42
0.0000001
 43
0.0000000001
 40
0.0
 40
0.0
 40
0.0
 40
0.0
 40
1.0
 40
1.0
 40
1.0
 40
1.0
 10
-569.1881898556998
 20
377.0703729380001
 30
0.0
 10
-568.9326090962
 20
376.901810821
 30
0.0
 10
-568.7112823237
 20
376.6671902195001
 30
0.0
 10
-568.5580633751999
 20
376.402126707
 30
0.0
  0
SPLINE
  5
8CF
330
219
100
AcDbEntity
  8
RUNDUNGEN
  6
Continuous
 62
     7
100
AcDbSpline
210
0.0
220
0.0
230
1.0
 70
     8
 71
     3
 72
     8
 73
     4
 74
     0
 42
0.0000001
 43
0.0000000001
 40
0.0
 40
0.0
 40
0.0
 40
0.0
 40
1.0
 40
1.0
 40
1.0
 40
1.0
 10
-594.3920384841999
 20
377.070372955
 30
0.0
 10
-594.6476192537
 20
376.9018108355001
 30
0.0
 10
-594.8689460361999
 20
376.6671902280001
 30
0.0
 10
-595.0221649901997
 20
376.402126707
 30
0.0
  0
SPLINE
  5
8D0
330
219
100
AcDbEntity
  8
RUNDUNGEN
  6
Continuous
 62
     7
100
AcDbSpline
210
0.0
220
0.0
230
1.0
 70
     8
 71
     3
 72
     8
 73
     4
 74
     0
 42
0.0000001
 43
0.0000000001
 40
0.0
 40
0.0
 40
0.0
 40
0.0
 40
1.0
 40
1.0
 40
1.0
 40
1.0
 10
-589.1881898551997
 20
377.0703729380001
 30
0.0
 10
-588.9326090962
 20
376.901810821
 30
0.0
 10
-588.7112823237
 20
376.6671902195001
 30
0.0
 10
-588.5580633751999
 20
376.402126707
 30
0.0
  0
SPLINE
  5
8D1
330
219
100
AcDbEntity
  8
RUNDUNGEN
  6
Continuous
 62
     7
100
AcDbSpline
210
0.0
220
0.0
230
1.0
 70
     8
 71
     3
 72
     8
 73
     4
 74
     0
 42
0.0000001
 43
0.0000000001
 40
0.0
 40
0.0
 40
0.0
 40
0.0
 40
1.0
 40
1.0
 40
1.0
 40
1.0
 10
131.9397612302999
 20
377.6611786305001
 30
0.0
 10
131.6208868937999
 20
377.7422053150001
 30
0.0
 10
131.2716120132999
 20
377.7422053150001
 30
0.0
 10
130.9527376767998
 20
377.6611786305001
 30
0.0
  0
SPLINE
  5
8D2
330
219
100
AcDbEntity
  8
RUNDUNGEN
  6
Continuous
 62
     7
100
AcDbSpline
210
0.0
220
0.0
230
1.0
 70
     8
 71
     3
 72
     8
 73
     4
 74
     0
 42
0.0000001
 43
0.0000000001
 40
0.0
 40
0.0
 40
0.0
 40
0.0
 40
1.0
 40
1.0
 40
1.0
 40
1.0
 10
127.7657326148
 20
376.851353491
 30
0.0
 10
127.6062954463
 20
376.8108401485
 30
0.0
 10
127.4316580063
 20
376.8108401485
 30
0.0
 10
127.2722208382999
 20
376.851353491
 30
0.0
  0
SPLINE
  5
8D3
330
219
100
AcDbEntity
  8
RUNDUNGEN
  6
Continuous
 62
     7
100
AcDbSpline
210
0.0
220
0.0
230
1.0
 70
     8
 71
     3
 72
     8
 73
     4
 74
     0
 42
0.0000001
 43
0.0000000001
 40
0.0
 40
0.0
 40
0.0
 40
0.0
 40
1.0
 40
1.0
 40
1.0
 40
1.0
 10
124.0852157757999
 20
377.6611786305001
 30
0.0
 10
123.7663414393
 20
377.7422053150001
 30
0.0
 10
123.4170665588
 20
377.7422053150001
 30
0.0
 10
123.0981922223
 20
377.6611786305001
 30
0.0
  0
SPLINE
  5
8D4
330
219
100
AcDbEntity
  8
RUNDUNGEN
  6
Continuous
 62
     7
100
AcDbSpline
210
0.0
220
0.0
230
1.0
 70
     8
 71
     3
 72
     8
 73
     4
 74
     0
 42
0.0000001
 43
0.0000000001
 40
0.0
 40
0.0
 40
0.0
 40
0.0
 40
1.0
 40
1.0
 40
1.0
 40
1.0
 10
119.9111871602999
 20
376.851353491
 30
0.0
 10
119.7517499917999
 20
376.8108401485
 30
0.0
 10
119.5771125517999
 20
376.8108401485
 30
0.0
 10
119.4176753832998
 20
376.851353491
 30
0.0
  0
SPLINE
  5
8D5
330
219
100
AcDbEntity
  8
RUNDUNGEN
  6
Continuous
 62
     7
100
AcDbSpline
210
0.0
220
0.0
230
1.0
 70
     8
 71
     3
 72
     8
 73
     4
 74
     0
 42
0.0000001
 43
0.0000000001
 40
0.0
 40
0.0
 40
0.0
 40
0.0
 40
1.0
 40
1.0
 40
1.0
 40
1.0
 10
116.2306703212998
 20
377.6611786305001
 30
0.0
 10
115.9117959847999
 20
377.7422053150001
 30
0.0
 10
115.5625211042999
 20
377.7422053150001
 30
0.0
 10
115.2436467677999
 20
377.6611786305001
 30
0.0
  0
SPLINE
  5
8D6
330
219
100
AcDbEntity
  8
RUNDUNGEN
  6
Continuous
 62
     7
100
AcDbSpline
210
0.0
220
0.0
230
1.0
 70
     8
 71
     3
 72
    15
 73
    11
 74
     0
 42
0.0000001
 43
0.0000000001
 40
0.0
 40
0.0
 40
0.0
 40
0.0
 40
0.1386202587
 40
0.2507847134
 40
0.3627513183
 40
0.5001272617
 40
0.6374184818000001
 40
0.7493228425
 40
0.8614447968
 40
1.0
 40
1.0
 40
1.0
 40
1.0
 10
231.0745251992998
 20
377.2728178385003
 30
0.0
 10
230.8721002023
 20
377.4626514655
 30
0.0
 10
230.4270129373
 20
377.7337178075003
 30
0.0
 10
229.7057439292999
 20
377.8602442290001
 30
0.0
 10
228.9830560123
 20
377.8951305935003
 30
0.0
 10
228.2089256727999
 20
377.9087142260003
 30
0.0
 10
227.4349215537998
 20
377.8950769570001
 30
0.0
 10
226.7126147777999
 20
377.8600938215002
 30
0.0
 10
225.9917274142999
 20
377.7332941315001
 30
0.0
 10
225.5469768828001
 20
377.462127902
 30
0.0
 10
225.3447128423
 20
377.2723130575001
 30
0.0
  0
SPLINE
  5
8D7
330
219
100
AcDbEntity
  8
BEZUGSACHSEN
  6
Continuous
 62
     3
100
AcDbSpline
210
0.0
220
0.0
230
1.0
 70
     8
 71
     3
 72
    15
 73
    11
 74
     0
 42
0.0000001
 43
0.0000000001
 40
0.0
 40
0.0
 40
0.0
 40
0.0
 40
0.1386202587
 40
0.2507847134
 40
0.3627513183
 40
0.5001272617
 40
0.6374184818000001
 40
0.7493228425
 40
0.8614447968
 40
1.0
 40
1.0
 40
1.0
 40
1.0
 10
211.0745251992998
 20
377.2728178385003
 30
0.0
 10
210.8721002023
 20
377.4626514655
 30
0.0
 10
210.4270129373
 20
377.7337178075003
 30
0.0
 10
209.7057439292999
 20
377.8602442290001
 30
0.0
 10
208.9830560123
 20
377.8951305935003
 30
0.0
 10
208.2089256728
 20
377.9087142260003
 30
0.0
 10
207.4349215537999
 20
377.8950769570001
 30
0.0
 10
206.7126147777999
 20
377.8600938215002
 30
0.0
 10
205.9917274142999
 20
377.7332941315001
 30
0.0
 10
205.5469768828001
 20
377.462127902
 30
0.0
 10
205.3447128423
 20
377.2723130575001
 30
0.0
  0
SPLINE
  5
8D8
330
219
100
AcDbEntity
  8
RUNDUNGEN
  6
Continuous
 62
     9
100
AcDbSpline
210
0.0
220
0.0
230
1.0
 70
     8
 71
     3
 72
    18
 73
    14
 74
     0
 42
0.0000001
 43
0.0000000001
 40
0.0
 40
0.0
 40
0.0
 40
0.0
 40
0.1921852783
 40
0.3771068822
 40
0.5477924330000003
 40
0.6978468109999999
 40
0.821706067
 40
0.8723638477999998
 40
0.9148886522999999
 40
0.9489374579999999
 40
0.9742995409
 40
0.9910100216
 40
1.0
 40
1.0
 40
1.0
 40
1.0
 10
-254.7899631977001
 20
376.9960338140001
 30
0.0
 10
-256.5966332427
 20
376.9960324455001
 30
0.0
 10
-260.1417442462
 20
376.972563746
 30
0.0
 10
-265.2904383277
 20
376.867713713
 30
0.0
 10
-270.0412629011999
 20
376.698132652
 30
0.0
 10
-274.2147034357
 20
376.4708994959999
 30
0.0
 10
-277.2573240157001
 20
376.229999772
 30
0.0
 10
-279.2849153392
 20
376.0054116609999
 30
0.0
 10
-280.4708308377
 20
375.839544717
 30
0.0
 10
-281.4114042747
 20
375.6721572810001
 30
0.0
 10
-282.1137804922
 20
375.494070998
 30
0.0
 10
-282.5506950472
 20
375.337078817
 30
0.0
 10
-282.7702431452
 20
375.1724423744999
 30
0.0
 10
-282.7872855882
 20
375.089666773
 30
0.0
  0
SPLINE
  5
8D9
330
219
100
AcDbEntity
  8
RUNDUNGEN
  6
Continuous
 62
     9
100
AcDbSpline
210
0.0
220
0.0
230
1.0
 70
     8
 71
     3
 72
     8
 73
     4
 74
     0
 42
0.0000001
 43
0.0000000001
 40
0.0
 40
0.0
 40
0.0
 40
0.0
 40
1.0
 40
1.0
 40
1.0
 40
1.0
 10
-80.79012240020006
 20
375.0636721229999
 30
0.0
 10
-80.7904513167
 20
375.0932956135001
 30
0.0
 10
-80.80174542170004
 20
375.1232266775001
 30
0.0
 10
-80.81778780469994
 20
375.1481325265
 30
0.0
  0
SPLINE
  5
8DA
330
219
100
AcDbEntity
  8
RUNDUNGEN
  6
Continuous
 62
     9
100
AcDbSpline
210
0.0
220
0.0
230
1.0
 70
     8
 71
     3
 72
    20
 73
    16
 74
     0
 42
0.0000001
 43
0.0000000001
 40
0.0
 40
0.0
 40
0.0
 40
0.0
 40
0.00459559
 40
0.0109688926
 40
0.0297569682
 40
0.0569287601
 40
0.0924341881
 40
0.1360385533
 40
0.1873950854
 40
0.2460692814
 40
0.3115508016
 40
0.4605601205
 40
0.6291088110000001
 40
0.8111221155
 40
1.0
 40
1.0
 40
1.0
 40
1.0
 10
-80.81778780469994
 20
375.1481325265
 30
0.0
 10
-80.84113410870008
 20
375.1843777344999
 30
0.0
 10
-80.9193944187
 20
375.255174506
 30
0.0
 10
-81.16376432419997
 20
375.3907742455001
 30
0.0
 10
-81.63407586769997
 20
375.5433871255001
 30
0.0
 10
-82.37866561520002
 20
375.7129499555001
 30
0.0
 10
-83.36272434470016
 20
375.878521066
 30
0.0
 10
-84.57611207019999
 20
376.0389742355
 30
0.0
 10
-86.00951900919994
 20
376.19152244
 30
0.0
 10
-87.64990399220005
 20
376.3346669715001
 30
0.0
 10
-90.20605550169987
 20
376.5187888765
 30
0.0
 10
-93.79481459869998
 20
376.7086970755
 30
0.0
 10
-98.4788485667001
 20
376.872476635
 30
0.0
 10
-103.5387491061999
 20
376.97341716
 30
0.0
 10
-107.0182981412001
 20
376.9960325574999
 30
0.0
 10
-108.7902506406999
 20
376.9960337705001
 30
0.0
  0
SPLINE
  5
8DB
330
219
100
AcDbEntity
  8
RUNDUNGEN
  6
Continuous
 62
     9
100
AcDbSpline
210
0.0
220
0.0
230
1.0
 70
     8
 71
     3
 72
    19
 73
    15
 74
     0
 42
0.0000001
 43
0.0000000001
 40
0.0
 40
0.0
 40
0.0
 40
0.0
 40
0.1933907576
 40
0.3793829225
 40
0.5508757714
 40
0.7013587379999999
 40
0.8251712493999999
 40
0.8756031961999999
 40
0.9177574766999999
 40
0.9512852698999999
 40
0.9759711793999999
 40
0.9849999220999999
 40
0.9918798498999999
 40
1.0
 40
1.0
 40
1.0
 40
1.0
 10
-254.7901141827001
 20
378.9918909930001
 30
0.0
 10
-256.7374145407
 20
378.991888443
 30
0.0
 10
-260.5575650057
 20
378.9681512845001
 30
0.0
 10
-266.1036128277
 20
378.8620671635001
 30
0.0
 10
-271.2158264677
 20
378.6906549985
 30
0.0
 10
-275.6989455172
 20
378.4608287385001
 30
0.0
 10
-278.9601789992
 20
378.217902146
 30
0.0
 10
-281.1275797902
 20
377.9901533984999
 30
0.0
 10
-282.3863838887
 20
377.8243982400002
 30
0.0
 10
-283.3837017012
 20
377.651745061
 30
0.0
 10
-284.0412175197
 20
377.4983815435001
 30
0.0
 10
-284.4314935947
 20
377.3604581919999
 30
0.0
 10
-284.6416593847
 20
377.2611571420001
 30
0.0
 10
-284.7840530437
 20
377.1483966650002
 30
0.0
 10
-284.7898044762
 20
377.066835358
 30
0.0
  0
SPLINE
  5
8DC
330
219
100
AcDbEntity
  8
RUNDUNGEN
  6
Continuous
 62
     9
100
AcDbSpline
210
0.0
220
0.0
230
1.0
 70
     8
 71
     3
 72
    19
 73
    15
 74
     0
 42
0.0000001
 43
0.0000000001
 40
0.0
 40
0.0
 40
0.0
 40
0.0
 40
0.0081201531
 40
0.0150000804
 40
0.0240288267
 40
0.0487147343
 40
0.0822425277
 40
0.1243968083
 40
0.1748287554
 40
0.2986412683
 40
0.4491242370000001
 40
0.6206170896000001
 40
0.8066092578000001
 40
1.0
 40
1.0
 40
1.0
 40
1.0
 10
-78.7904238947001
 20
377.0668353655
 30
0.0
 10
-78.79617721570004
 20
377.1483965695001
 30
0.0
 10
-78.93856838869997
 20
377.2611571615001
 30
0.0
 10
-79.14873514620002
 20
377.3604582335
 30
0.0
 10
-79.5390108432
 20
377.4983814880001
 30
0.0
 10
-80.19652694870012
 20
377.6517451174998
 30
0.0
 10
-81.19384462020001
 20
377.824398243
 30
0.0
 10
-82.45264876819987
 20
377.9901534260001
 30
0.0
 10
-84.62004955270003
 20
378.2179021680001
 30
0.0
 10
-87.88128308220008
 20
378.4608287715002
 30
0.0
 10
-92.36440219219991
 20
378.6906550255001
 30
0.0
 10
-97.4766159172
 20
378.862067223
 30
0.0
 10
-103.0226636452
 20
378.968151223
 30
0.0
 10
-106.8428139832
 20
378.9918887539999
 30
0.0
 10
-108.7901141827
 20
378.9918909930001
 30
0.0
  0
DIMENSION
  5
C54
330
219
100
AcDbEntity
  8
AM_5
100
AcDbDimension
  2
*D3
 10
290.7098858173
 20
502.7449809657423
 30
0.0
 11
-181.7901141826999
 21
502.7449809657423
 31
0.0
 70
   160
 71
     5
 42
944.9999999999997
  3
STANDARD$0
100
AcDbAlignedDimension
 13
-654.2901141826997
 23
425.3311826715
 33
0.0
 14
290.7098858173
 24
425.3311826715
 34
0.0
100
AcDbRotatedDimension
1001
ACAD_DSTYLE_DIMINSPECT
1070
   396
1000
100%
1070
   395
1000

1070
   394
1070
    33
1070
   393
1070
     0
1001
ACAD
1000
DSTYLE
1002
{
1070
    41
1040
7.0
1070
    43
1040
15.96
1070
    71
1070
     0
1070
    73
1070
     1
1070
    74
1070
     1
1070
    77
1070
     2
1070
    78
1070
     0
1070
   140
1040
7.0
1070
   141
1040
3.779999999999998
1070
   178
1070
     2
1070
   271
1070
     0
1070
   272
1070
     4
1070
   284
1070
     0
1070
   340
1005
A83
1070
   341
1005
0
1070
   343
1005
0
1070
   344
1005
0
1002
}
  0
DIMENSION
  5
CBE
330
219
100
AcDbEntity
  8
AM_5
100
AcDbDimension
  2
*D4
 10
321.7312354805414
 20
20.18451583399995
 30
0.0
 11
313.7076313129355
 21
75.44189042468588
 31
0.0
 70
   160
 71
     5
 42
108.5
  3
STANDARD$0
100
AcDbAlignedDimension
 13
290.7098858173
 23
128.684515834
 33
0.0
 14
258.2098858173
 24
20.18451583399997
 34
0.0
 50
90.0
100
AcDbRotatedDimension
1001
ACAD_DSTYLE_DIMINSPECT
1070
   396
1000
100%
1070
   395
1000

1070
   394
1070
    33
1070
   393
1070
     0
1001
ACAD
1000
DSTYLE
1002
{
1070
    41
1040
7.0
1070
    43
1040
15.96
1070
    71
1070
     0
1070
    73
1070
     1
1070
    78
1070
     0
1070
   140
1040
7.0
1070
   141
1040
3.779999999999998
1070
   178
1070
     2
1070
   271
1070
     1
1070
   272
1070
     4
1070
   279
1070
     2
1070
   284
1070
     0
1070
   341
1005
0
1070
   343
1005
0
1070
   344
1005
0
1002
}
  0
DIMENSION
  5
10AE
330
219
100
AcDbEntity
  8
AM_5
100
AcDbDimension
  2
*D6
 10
327.0907187121657
 20
329.1661699625001
 30
0.0
 11
318.9306967211241
 21
360.8270713517975
 31
0.0
 70
   160
 71
     5
 42
66.16501270900011
  3
STANDARD$0
100
AcDbAlignedDimension
 13
258.2098858173
 23
395.3311826715002
 33
0.0
 14
8.309879019800078
 24
329.1661699625001
 34
0.0
 50
90.0
100
AcDbRotatedDimension
1001
ACAD_DSTYLE_DIMINSPECT
1070
   396
1000
100%
1070
   395
1000

1070
   394
1070
    33
1070
   393
1070
     0
1001
ACAD
1000
DSTYLE
1002
{
1070
    41
1040
7.0
1070
    43
1040
15.96
1070
    71
1070
     0
1070
    73
1070
     1
1070
    78
1070
     0
1070
   140
1040
7.0
1070
   141
1040
3.779999999999998
1070
   178
1070
     2
1070
   271
1070
     0
1070
   272
1070
     4
1070
   279
1070
     2
1070
   284
1070
     0
1070
   341
1005
0
1070
   343
1005
0
1070
   344
1005
0
1002
}
  0
DIMENSION
  5
1160
330
219
100
AcDbEntity
  8
AM_5
100
AcDbDimension
  2
*D7
 10
360.5902978529493
 20
329.1661699624999
 30
0.0
 11
352.7060825671033
 21
382.2486763170001
 31
0.0
 70
   160
 71
     5
 42
106.1650127090002
  3
STANDARD$0
100
AcDbAlignedDimension
 13
280.7098858173
 23
435.3311826715001
 33
0.0
 14
-108.7901141827
 24
329.1661699625
 34
0.0
 50
90.0
100
AcDbRotatedDimension
1001
ACAD_DSTYLE_DIMINSPECT
1070
   396
1000
100%
1070
   395
1000

1070
   394
1070
    33
1070
   393
1070
     0
1001
ACAD
1000
DSTYLE
1002
{
1070
    41
1040
7.0
1070
    43
1040
15.96
1070
    71
1070
     0
1070
    73
1070
     1
1070
    78
1070
     0
1070
   140
1040
7.0
1070
   141
1040
3.779999999999998
1070
   178
1070
     2
1070
   271
1070
     0
1070
   272
1070
     4
1070
   279
1070
     2
1070
   284
1070
     0
1070
   341
1005
0
1070
   343
1005
0
1070
   344
1005
0
1002
}
  0
DIMENSION
  5
1375
330
219
100
AcDbEntity
  8
AM_5
100
AcDbDimension
  2
*D8
 10
258.2098858173
 20
186.595497640219
 30
0.0
 11
-181.7901141827
 21
190.720497640219
 31
0.0
 70
    32
 71
     5
 42
880.0
  3
STANDARD$0
100
AcDbAlignedDimension
 13
-621.7901141827
 23
127.6850222240001
 33
0.0
 14
258.2098858173
 24
127.684515834
 34
0.0
 50
0.0000000000000114
100
AcDbRotatedDimension
1001
ACAD
1000
DSTYLE
1002
{
1070
    41
1040
7.0
1070
    43
1040
15.96
1070
    71
1070
     0
1070
    73
1070
     1
1070
    74
1070
     1
1070
    77
1070
     2
1070
    78
1070
     0
1070
   140
1040
7.0
1070
   141
1040
3.779999999999998
1070
   178
1070
     2
1070
   271
1070
     0
1070
   272
1070
     4
1070
   284
1070
     0
1070
   340
1005
A83
1070
   341
1005
0
1070
   343
1005
0
1070
   344
1005
0
1002
}
1001
ACAD_DSTYLE_DIMINSPECT
1070
   396
1000
100%
1070
   395
1000

1070
   394
1070
    33
1070
   393
1070
     0
  0
DIMENSION
  5
1783
330
219
100
AcDbEntity
  8
AM_5
100
AcDbDimension
  2
*D9
 10
260.2098858172999
 20
227.2438630154347
 30
0.0
 11
-181.7901141827
 21
231.3688630154347
 31
0.0
 70
    32
 71
     5
 42
884.0
  3
STANDARD$0
100
AcDbAlignedDimension
 13
-623.7901141827001
 23
127.6845158339999
 33
0.0
 14
260.2098858172999
 24
127.6850222240001
 34
0.0
 50
0.0000000000000114
100
AcDbRotatedDimension
1001
ACAD
1000
DSTYLE
1002
{
1070
    41
1040
7.0
1070
    43
1040
15.96
1070
    71
1070
     0
1070
    73
1070
     1
1070
    74
1070
     1
1070
    77
1070
     2
1070
    78
1070
     0
1070
   140
1040
7.0
1070
   141
1040
3.779999999999998
1070
   178
1070
     2
1070
   271
1070
     0
1070
   272
1070
     4
1070
   284
1070
     0
1070
   340
1005
A83
1070
   341
1005
0
1070
   343
1005
0
1070
   344
1005
0
1002
}
1001
ACAD_DSTYLE_DIMINSPECT
1070
   396
1000
100%
1070
   395
1000

1070
   394
1070
    33
1070
   393
1070
     0
  0
LINE
  5
18F2
330
219
100
AcDbEntity
  8
BG_STARTBEZUEGE
  6
CENTER
 62
     4
100
AcDbLine
 10
-284.8640795943297
 20
85.66789231153714
 30
0.0
 11
-78.79011431640485
 21
85.68734819862859
 31
0.0
1001
GENIUS_GENOBJ-N-CEN_13
1002
{
1000
OWNER
1000
GEN
1002
}
1001
GENIUS_GENODEF_13
1002
{
1000
HIER
1070
     0
1002
}
1002
{
1000
MANEDIT
1070
     0
1002
}
1002
{
1000
NOSEL
1070
     0
1002
}
1002
{
1000
BEHIND
1070
     0
1002
}
1002
{
1000
OTHER
1070
     0
1002
}
1002
{
1000
REACTOR
1002
}
1001
GENIUS_GENCEN_19
1002
{
1040
3.0
1002
}
  0
CIRCLE
  5
19C9
330
219
100
AcDbEntity
  8
RUNDUNGEN
  6
Continuous
 62
     7
100
AcDbCircle
 10
-181.7901141827
 20
352.1957419395
 30
0.0
 40
25.0002256492
  0
CIRCLE
  5
19CA
330
219
100
AcDbEntity
  8
RUNDUNGEN
  6
Continuous
 62
     9
100
AcDbCircle
 10
-181.7901141827
 20
352.1957419395
 30
0.0
 40
24.938423821
  0
CIRCLE
  5
19CB
330
219
100
AcDbEntity
  8
0
  6
Continuous
 62
     7
100
AcDbCircle
 10
-181.7901141827
 20
352.1957419395
 30
0.0
 40
23.9693247351
  0
CIRCLE
  5
19CC
330
219
100
AcDbEntity
  8
0
  6
Continuous
 62
     7
100
AcDbCircle
 10
-181.7901141827
 20
352.1957419395
 30
0.0
 40
22.5002256492
  0
CIRCLE
  5
19CD
330
219
100
AcDbEntity
  8
RUNDUNGEN
  6
Continuous
 62
     9
100
AcDbCircle
 10
-181.7901141827
 20
352.1957419395
 30
0.0
 40
18.7307877184
  0
CIRCLE
  5
19CE
330
219
100
AcDbEntity
  8
RUNDUNGEN
  6
Continuous
 62
     7
100
AcDbCircle
 10
-181.7901141827
 20
352.1957419395
 30
0.0
 40
18.5
  0
LINE
  5
19CF
330
219
100
AcDbEntity
  8
0
  6
Continuous
 62
     7
100
AcDbLine
 10
-157.8207894475999
 20
-28.41548416600004
 30
0.0
 11
-205.7594389178
 21
-28.41548416600004
 31
0.0
  0
LINE
  5
19D0
330
219
100
AcDbEntity
  8
RUNDUNGEN
  6
Continuous
 62
     9
100
AcDbLine
 10
-206.7285380037
 20
-23.71523086000003
 30
0.0
 11
-156.8516903617
 21
-23.71523086000003
 31
0.0
  0
LINE
  5
19D1
330
219
100
AcDbEntity
  8
RUNDUNGEN
  6
Continuous
 62
     9
100
AcDbLine
 10
-206.7903398318999
 20
-23.10943262370004
 30
0.0
 11
-156.7898885334999
 21
-23.10943262370004
 31
0.0
  0
LINE
  5
19D2
330
219
100
AcDbEntity
  8
RUNDUNGEN
  6
Continuous
 62
     7
100
AcDbLine
 10
-206.7903398318999
 20
-23.10943262370004
 30
0.0
 11
-206.7285380037
 21
-23.71523086000003
 31
0.0
  0
LINE
  5
19D3
330
219
100
AcDbEntity
  8
0
  6
Continuous
 62
     7
100
AcDbLine
 10
-206.7903398318999
 20
20.18451583399996
 30
0.0
 11
-206.7903398318999
 21
-23.10943262370004
 31
0.0
  0
LINE
  5
19D4
330
219
100
AcDbEntity
  8
0
  6
Continuous
 62
     7
100
AcDbLine
 10
-206.7285380037
 20
-23.71523086000003
 30
0.0
 11
-205.7594389178
 21
-28.41548416600004
 31
0.0
  0
LINE
  5
19D5
330
219
100
AcDbEntity
  8
RUNDUNGEN
  6
Continuous
 62
     7
100
AcDbLine
 10
-205.7594389178
 20
-28.41548416600004
 30
0.0
 11
-206.7285380037
 21
-23.71523086000003
 31
0.0
  0
LINE
  5
19D7
330
219
100
AcDbEntity
  8
RUNDUNGEN
  6
Continuous
 62
     7
100
AcDbLine
 10
-156.7898885334999
 20
-23.10943262370004
 30
0.0
 11
-156.7898885334999
 21
20.18451583399996
 31
0.0
  0
LINE
  5
19D8
330
219
100
AcDbEntity
  8
0
  6
Continuous
 62
     7
100
AcDbLine
 10
-156.7898885334999
 20
20.18451583399996
 30
0.0
 11
-156.7898885334999
 21
-23.10943262370004
 31
0.0
  0
LINE
  5
19D9
330
219
100
AcDbEntity
  8
RUNDUNGEN
  6
Continuous
 62
     7
100
AcDbLine
 10
-156.7898885334999
 20
-23.10943262370004
 30
0.0
 11
-156.8516903617
 21
-23.71523086000003
 31
0.0
  0
LINE
  5
19DA
330
219
100
AcDbEntity
  8
RUNDUNGEN
  6
Continuous
 62
     7
100
AcDbLine
 10
-157.8207894475999
 20
-28.41548416600004
 30
0.0
 11
-156.8516903617
 21
-23.71523086000003
 31
0.0
  0
LINE
  5
19DB
330
219
100
AcDbEntity
  8
0
  6
Continuous
 62
     7
100
AcDbLine
 10
-156.8516903617
 20
-23.71523086000003
 30
0.0
 11
-157.8207894475999
 21
-28.41548416600004
 31
0.0
  0
ARC
  5
19DC
330
219
100
AcDbEntity
  8
RUNDUNGEN
  6
Continuous
 62
     7
100
AcDbCircle
 10
-203.7903398318999
 20
-23.10943262370004
 30
0.0
 40
3.0
100
AcDbArc
 50
180.0
 51
191.6500035255996
  0
ARC
  5
19DD
330
219
100
AcDbEntity
  8
RUNDUNGEN
  6
Continuous
 62
     7
100
AcDbCircle
 10
-159.7898885334999
 20
-23.10943262370004
 30
0.0
 40
3.0
100
AcDbArc
 50
348.3499964744003
 51
0.0
  0
DIMENSION
  5
19DE
330
219
100
AcDbEntity
  8
AM_5
100
AcDbDimension
  2
*D13
 10
-156.7898885334999
 20
-81.77106615186909
 30
0.0
 11
-181.7901141826999
 21
-81.77106615186909
 31
0.0
 70
   160
  1
DN<>
 71
     5
 42
50.00045129839998
  3
STANDARD$0
100
AcDbAlignedDimension
 13
-206.7903398318999
 23
7.148666650603949
 33
0.0
 14
-156.7898885334999
 24
6.161593615636597
 34
0.0
100
AcDbRotatedDimension
1001
ACAD_DSTYLE_DIMINSPECT
1070
   396
1000
100%
1070
   395
1000

1070
   394
1070
    33
1070
   393
1070
     0
1001
ACAD
1000
DSTYLE
1002
{
1070
    41
1040
7.0
1070
    43
1040
15.96
1070
    71
1070
     0
1070
    73
1070
     1
1070
    74
1070
     1
1070
    77
1070
     2
1070
    78
1070
     0
1070
   140
1040
7.0
1070
   141
1040
3.779999999999998
1070
   178
1070
     2
1070
   271
1070
     0
1070
   272
1070
     4
1070
   284
1070
     0
1070
   340
1005
A83
1070
   341
1005
0
1070
   343
1005
0
1070
   344
1005
0
1002
}
  0
LINE
  5
19F8
330
219
100
AcDbEntity
  8
RUNDUNGEN
  6
Continuous
 62
     7
100
AcDbLine
 10
-191.3590115712187
 20
329.1661699625
 30
0.0
 11
-271.8901073852001
 21
329.1661699625
 31
0.0
  0
LINE
  5
1A00
330
219
100
AcDbEntity
  8
0
100
AcDbLine
 10
-196.1287974087
 20
374.6661699625
 30
0.0
 11
-192.6069920658504
 21
374.6661699625001
 31
0.0
  0
LINE
  5
1A01
330
219
100
AcDbEntity
  8
0
100
AcDbLine
 10
-192.0404526832001
 20
376.9960333635002
 30
0.0
 11
-184.4112833799249
 21
376.9960333635002
 31
0.0
  0
LINE
  5
1A02
330
219
100
AcDbEntity
  8
0
100
AcDbLine
 10
-170.9732362995493
 20
374.6661699625
 30
0.0
 11
-167.4629960046999
 21
374.6661699625
 31
0.0
  0
LINE
  5
1A04
330
219
100
AcDbEntity
  8
0
100
AcDbLine
 10
-179.1689449854751
 20
376.9960333635002
 30
0.0
 11
-171.5394466547
 21
376.9960333635002
 31
0.0
  0
ENDSEC
  0
SECTION
  2
OBJECTS
  0
DICTIONARY
  5
C
330
0
100
AcDbDictionary
281
     1
  3
ACAD_2007HEADERVARS_RT
350
1A6B
  3
ACAD_CIP_PREVIOUS_PRODUCT_INFO
350
A2B
  3
ACAD_COLOR
350
A0F
  3
ACAD_DETAILVIEWSTYLE
350
A28
  3
ACAD_FIELDLIST
350
A8D
  3
ACAD_GROUP
350
D
  3
ACAD_LAYOUT
350
1A
  3
ACAD_MATERIAL
350
9DD
  3
ACAD_MLEADERSTYLE
350
A24
  3
ACAD_MLINESTYLE
350
17
  3
ACAD_PLOTSETTINGS
350
19
  3
ACAD_PLOTSTYLENAME
350
E
  3
ACAD_SCALELIST
350
A12
  3
ACAD_SECTIONVIEWSTYLE
350
A26
  3
ACAD_TABLESTYLE
350
A10
  3
ACAD_VISUALSTYLE
350
9F6
  3
ACDB_RECOMPOSE_DATA
350
1A69
  3
AcDbVariableDictionary
350
11D8
  3
AcmDictionary
350
A57
  3
AMG
350
A2D
  3
AMGSNAPSETTINGS
350
A97
  3
DWGPROPS
350
1A6A
  0
DICTIONARY
  5
19A2
330
2
100
AcDbDictionary
280
     1
281
     1
  3
ACAD_LAYERSTATES
360
19A3
  0
DICTIONARY
  5
11CC
330
10
100
AcDbDictionary
280
     1
281
     1
  3
ADSK_XREC_LAYER_RECONCILED
360
11CD
  0
DICTIONARY
  5
11CE
330
1FD
100
AcDbDictionary
280
     1
281
     1
  3
ADSK_XREC_LAYER_RECONCILED
360
11CF
  0
DICTIONARY
  5
11D0
330
1FF
100
AcDbDictionary
280
     1
281
     1
  3
ADSK_XREC_LAYER_RECONCILED
360
11D1
  0
DICTIONARY
  5
11D2
330
201
100
AcDbDictionary
280
     1
281
     1
  3
ADSK_XREC_LAYER_RECONCILED
360
11D3
  0
DICTIONARY
  5
11D4
330
209
100
AcDbDictionary
280
     1
281
     1
  3
ADSK_XREC_LAYER_RECONCILED
360
11D5
  0
DICTIONARY
  5
11D6
330
A9E
100
AcDbDictionary
280
     1
281
     1
  3
ADSK_XREC_LAYER_RECONCILED
360
11D7
  0
DICTIONARY
  5
199E
330
199D
100
AcDbDictionary
280
     1
281
     1
  0
DICTIONARY
  5
19A0
330
199F
100
AcDbDictionary
280
     1
281
     1
  0
DICTIONARY
  5
154E
330
219
100
AcDbDictionary
280
     1
281
     1
  3
ACAD_SORTENTS
360
154F
  0
DICTIONARY
  5
1A6B
102
{ACAD_REACTORS
330
C
102
}
330
C
100
AcDbDictionary
281
     1
  3
DIMARCSYM
350
1A6C
  3
DIMLTEX1
350
1A6E
  3
DIMLTEX2
350
1A6F
  3
DIMLTYPE
350
1A6D
  0
XRECORD
  5
A2B
102
{ACAD_REACTORS
330
C
102
}
330
C
100
AcDbXrecord
280
     1
300
AMECH_PP
300
2014
300
86138AMECH_PP_2014_0F
  0
DICTIONARY
  5
A0F
102
{ACAD_REACTORS
330
C
102
}
330
C
100
AcDbDictionary
281
     1
  0
DICTIONARY
  5
A28
102
{ACAD_REACTORS
330
C
102
}
330
C
100
AcDbDictionary
281
     1
  3
Metric50
350
A29
  0
FIELDLIST
  5
A8D
102
{ACAD_REACTORS
330
C
102
}
330
C
100
AcDbIdSet
 90
        3
330
1984
330
1985
330
1986
100
AcDbFieldList
  0
DICTIONARY
  5
D
102
{ACAD_REACTORS
330
C
102
}
330
C
100
AcDbDictionary
281
     1
  0
DICTIONARY
  5
1A
102
{ACAD_REACTORS
330
C
102
}
330
C
100
AcDbDictionary
281
     1
  3
Layout1
350
9D8
  3
Model
350
9D7
  0
DICTIONARY
  5
9DD
102
{ACAD_REACTORS
330
C
102
}
330
C
100
AcDbDictionary
281
     1
  3
ByBlock
350
9E6
  3
ByLayer
350
9DE
  3
Global
350
9EE
  0
DICTIONARY
  5
A24
102
{ACAD_REACTORS
330
C
102
}
330
C
100
AcDbDictionary
281
     1
  3
Standard
350
A25
  0
DICTIONARY
  5
17
102
{ACAD_REACTORS
330
C
102
}
330
C
100
AcDbDictionary
281
     1
  3
Standard
350
18
  0
DICTIONARY
  5
19
102
{ACAD_REACTORS
330
C
102
}
330
C
100
AcDbDictionary
281
     1
  0
ACDBDICTIONARYWDFLT
  5
E
102
{ACAD_REACTORS
330
C
102
}
330
C
100
AcDbDictionary
281
     1
  3
Normal
350
F
100
AcDbDictionaryWithDefault
340
F
  0
DICTIONARY
  5
A12
102
{ACAD_REACTORS
330
C
102
}
330
C
100
AcDbDictionary
281
     1
  3
A0
350
A13
  3
A1
350
A14
  3
A2
350
A15
  3
A3
350
A16
  3
A4
350
A17
  3
A5
350
A18
  3
A6
350
A19
  3
A7
350
A1A
  3
A8
350
A1B
  3
A9
350
A1C
  3
B0
350
A1D
  3
B1
350
A1E
  3
B2
350
A1F
  3
B3
350
A20
  3
B4
350
A21
  3
B5
350
A22
  3
B6
350
A23
  0
DICTIONARY
  5
A26
102
{ACAD_REACTORS
330
C
102
}
330
C
100
AcDbDictionary
281
     1
  3
Metric50
350
A27
  0
DICTIONARY
  5
A10
102
{ACAD_REACTORS
330
C
102
}
330
C
100
AcDbDictionary
281
     1
  3
Standard
350
A11
  0
DICTIONARY
  5
9F6
102
{ACAD_REACTORS
330
C
102
}
330
C
100
AcDbDictionary
281
     1
  3
2dWireframe
350
9FC
  3
Basic
350
9FB
  3
Brighten
350
A02
  3
ColorChange
350
A06
  3
Conceptual
350
9FF
  3
Dim
350
A01
  3
EdgeColorOff
350
A0E
  3
Facepattern
350
A05
  3
Flat
350
9F7
  3
FlatWithEdges
350
9F8
  3
Gouraud
350
9F9
  3
GouraudWithEdges
350
9FA
  3
Hidden
350
9FE
  3
JitterOff
350
A0C
  3
Linepattern
350
A04
  3
OverhangOff
350
A0D
  3
Realistic
350
A00
  3
Shaded
350
A0B
  3
Shaded with edges
350
A0A
  3
Shades of Gray
350
A07
  3
Sketchy
350
A08
  3
Thicken
350
A03
  3
Wireframe
350
9FD
  3
X-Ray
350
A09
  0
XRECORD
  5
1A69
102
{ACAD_REACTORS
330
C
102
}
330
C
100
AcDbXrecord
280
     1
 90
        1
330
A11
  0
DICTIONARY
  5
11D8
102
{ACAD_REACTORS
330
C
102
}
330
C
100
AcDbDictionary
281
     1
  3
CANNOSCALE
350
11DD
  3
CMLEADERSTYLE
350
11DA
  3
CTABLESTYLE
350
11D9
  3
CVIEWDETAILSTYLE
350
11DB
  3
CVIEWSECTIONSTYLE
350
11DC
  3
DIMASSOC
350
11E0
  3
INDEXCTL
350
11DF
  3
SORTENTS
350
11DE
  3
XCLIPFRAME
350
1A67
  0
DICTIONARY
  5
A57
102
{ACAD_REACTORS
330
C
102
}
330
C
100
AcDbDictionary
281
     1
  3
AcmStdDictionary
350
A5E
  0
DICTIONARY
  5
A2D
102
{ACAD_REACTORS
330
C
102
}
330
C
100
AcDbDictionary
281
     1
  0
DICTIONARY
  5
A97
102
{ACAD_REACTORS
330
C
102
}
330
C
100
AcDbDictionary
281
     1
  0
XRECORD
  5
1A6A
102
{ACAD_REACTORS
330
C
102
}
330
C
100
AcDbXrecord
280
     1
  1
DWGPROPS COOKIE
  2

  3

  4

  6

  7

  8
sbittorf
  9

300
=
301
=
302
=
303
=
304
=
305
=
306
=
307
=
308
=
309
=
 40
0.0802226157407408
 41
2457416.458281586
 42
2457799.48313022
  1

 90
        0
  0
DICTIONARY
  5
19A3
102
{ACAD_REACTORS
330
19A2
102
}
330
19A2
100
AcDbDictionary
281
     1
  0
XRECORD
  5
11CD
102
{ACAD_REACTORS
330
11CC
102
}
330
11CC
100
AcDbXrecord
280
     1
290
     1
  0
XRECORD
  5
11CF
102
{ACAD_REACTORS
330
11CE
102
}
330
11CE
100
AcDbXrecord
280
     1
290
     1
  0
XRECORD
  5
11D1
102
{ACAD_REACTORS
330
11D0
102
}
330
11D0
100
AcDbXrecord
280
     1
290
     1
  0
XRECORD
  5
11D3
102
{ACAD_REACTORS
330
11D2
102
}
330
11D2
100
AcDbXrecord
280
     1
290
     1
  0
XRECORD
  5
11D5
102
{ACAD_REACTORS
330
11D4
102
}
330
11D4
100
AcDbXrecord
280
     1
290
     1
  0
XRECORD
  5
11D7
102
{ACAD_REACTORS
330
11D6
102
}
330
11D6
100
AcDbXrecord
280
     1
290
     1
  0
SORTENTSTABLE
  5
154F
102
{ACAD_REACTORS
330
154E
102
}
330
154E
100
AcDbSortentsTable
330
219
331
586
  5
588
331
582
  5
584
331
514
  5
516
331
57E
  5
580
331
54F
  5
551
331
756
  5
758
331
4A6
  5
4A7
331
57A
  5
57C
331
54B
  5
54D
331
4DD
  5
4DE
331
8D7
  5
8D9
331
46F
  5
470
331
49E
  5
49F
331
49A
  5
49B
331
8D3
  5
8D5
331
46B
  5
46C
331
4D9
  5
4DA
331
19DB
  5
19DC
331
19D7
  5
19D8
331
10AE
  5
1375
331
19D3
  5
19D4
331
576
  5
578
331
547
  5
549
331
572
  5
574
331
705
  5
710
331
56E
  5
570
331
53F
  5
541
331
4D5
  5
4D6
331
8CF
  5
8D1
331
746
  5
748
331
496
  5
497
331
500
  5
502
331
701
  5
703
331
56A
  5
56C
331
492
  5
493
331
8CB
  5
8CD
331
463
  5
464
331
4D1
  5
4D2
331
4F8
  5
4FA
331
4CD
  5
4CE
331
48E
  5
48F
331
8C7
  5
8C9
331
45F
  5
460
331
8C3
  5
8C5
331
4C9
  5
4CA
331
19CF
  5
19D0
331
19CB
  5
19CC
331
CBE
  5
1160
331
1A02
  5
1A02
331
566
  5
568
331
533
  5
535
331
55E
  5
560
331
52F
  5
531
331
4C5
  5
4C6
331
8BF
  5
8C1
331
486
  5
487
331
4F0
  5
4F9
331
52B
  5
52D
331
4EC
  5
4EF
331
4C1
  5
4C2
331
8BB
  5
8BD
331
482
  5
483
331
4E8
  5
4EA
331
8B7
  5
8B9
331
4BD
  5
4BE
331
8B3
  5
8B5
331
47A
  5
47B
331
874
  5
876
331
4B9
  5
4BA
331
1783
  5
18F2
331
556
  5
558
331
527
  5
529
331
591
  5
6F4
331
552
  5
554
331
4E4
  5
4E6
331
523
  5
525
331
58D
  5
58F
331
51F
  5
521
331
4E0
  5
4E1
331
8AF
  5
8B1
331
726
  5
746
331
4B5
  5
4B6
331
589
  5
58B
331
51B
  5
51D
331
761
  5
764
331
8AB
  5
8AD
331
79C
  5
874
331
472
  5
473
331
4B1
  5
4B2
331
75D
  5
75F
331
4AD
  5
4AE
331
8A7
  5
8A9
331
798
  5
79A
331
71E
  5
720
331
759
  5
75B
331
4A9
  5
4AA
331
8DA
  5
8DC
331
585
  5
587
331
517
  5
519
331
581
  5
583
331
513
  5
515
331
57D
  5
57F
331
54E
  5
550
331
755
  5
757
331
4A5
  5
4A6
331
710
  5
713
331
579
  5
57B
331
54A
  5
54C
331
4DC
  5
4DD
331
8D6
  5
8D8
331
49D
  5
49E
331
8D2
  5
8D4
331
46A
  5
46B
331
19DE
  5
19F8
331
19DA
  5
19DB
331
19D2
  5
19D3
331
575
  5
577
331
546
  5
548
331
571
  5
573
331
56D
  5
56F
331
53E
  5
540
331
745
  5
747
331
8CE
  5
8D0
331
466
  5
467
331
495
  5
496
331
4D4
  5
4D5
331
569
  5
56B
331
491
  5
492
331
8CA
  5
8CC
331
462
  5
463
331
4D0
  5
4D1
331
4CC
  5
4CD
331
8C6
  5
8C8
331
45E
  5
45F
331
48D
  5
48E
331
8C2
  5
8C4
331
4C8
  5
4C9
331
19CE
  5
19CF
331
19CA
  5
19CB
331
1A01
  5
1A03
331
565
  5
567
331
532
  5
534
331
55D
  5
55F
331
52E
  5
530
331
8BE
  5
8C0
331
485
  5
486
331
4C4
  5
4C5
331
52A
  5
52C
331
4EB
  5
4ED
331
8BA
  5
8BC
331
481
  5
482
331
4C0
  5
4C1
331
8B6
  5
8B8
331
4BC
  5
4BD
331
8B2
  5
8B4
331
479
  5
47A
331
873
  5
875
331
4B8
  5
4B9
331
555
  5
557
331
526
  5
528
331
4E7
  5
4E9
331
590
  5
6F3
331
551
  5
553
331
4E3
  5
4E4
331
522
  5
524
331
58C
  5
58E
331
51E
  5
520
331
8AE
  5
8B0
331
725
  5
727
331
4B4
  5
4B5
331
588
  5
58A
331
51A
  5
51C
331
760
  5
762
331
4B0
  5
4B1
331
8AA
  5
8AC
331
721
  5
726
331
79B
  5
873
331
471
  5
472
331
8A6
  5
8A8
331
75C
  5
75E
331
4AC
  5
4AD
331
758
  5
75A
331
4A8
  5
4A9
331
8D9
  5
8DB
331
1160
  5
154D
331
584
  5
586
331
516
  5
518
331
580
  5
582
331
512
  5
514
331
713
  5
71F
331
57C
  5
57E
331
54D
  5
54F
331
754
  5
756
331
4A4
  5
4A5
331
578
  5
57A
331
549
  5
54B
331
50A
  5
512
331
4A0
  5
4A3
331
4DF
  5
4E0
331
8D5
  5
8D7
331
49C
  5
49D
331
4DB
  5
4DC
331
8D1
  5
8D3
331
748
  5
754
331
19DD
  5
19DE
331
19D9
  5
19DA
331
19D5
  5
19D6
331
19D1
  5
19D2
331
18F2
  5
19C9
331
70F
  5
711
331
574
  5
576
331
545
  5
547
331
570
  5
572
331
703
  5
706
331
56C
  5
56E
331
53D
  5
53F
331
4D3
  5
4D4
331
8CD
  5
8CF
331
465
  5
466
331
494
  5
495
331
4FE
  5
501
331
568
  5
56A
331
490
  5
491
331
8C9
  5
8CB
331
461
  5
462
331
4CF
  5
4D0
331
4CB
  5
4CC
331
8C5
  5
8C7
331
45D
  5
45E
331
48C
  5
48D
331
8C1
  5
8C3
331
19CD
  5
19CE
331
19C9
  5
19CA
331
1A04
  5
1A04
331
1A00
  5
1A00
331
C54
  5
1014
331
6FB
  5
702
331
535
  5
53D
331
560
  5
566
331
531
  5
533
331
4C7
  5
4C8
331
6F3
  5
6FC
331
55C
  5
55E
331
52D
  5
52F
331
4C3
  5
4C4
331
8BD
  5
8BF
331
484
  5
485
331
4EE
  5
4F1
331
558
  5
55C
331
529
  5
52B
331
4EA
  5
4EC
331
8B9
  5
8BB
331
480
  5
481
331
4BF
  5
4C0
331
8B5
  5
8B7
331
4BB
  5
4BC
331
876
  5
8A6
331
8B1
  5
8B3
331
19F8
  5
4E5
331
1375
  5
1783
331
554
  5
556
331
525
  5
527
331
4E6
  5
4E8
331
58F
  5
591
331
550
  5
552
331
4E2
  5
4E3
331
4B7
  5
4B8
331
521
  5
523
331
58B
  5
58D
331
51D
  5
51F
331
404
  5
45C
331
8AD
  5
8AF
331
763
  5
773
331
4B3
  5
4B4
331
519
  5
51B
331
75F
  5
761
331
4AF
  5
4B0
331
8A9
  5
8AB
331
79A
  5
79C
331
720
  5
725
331
8A5
  5
8A7
331
75B
  5
75D
331
4AB
  5
4AC
331
792
  5
799
331
8DC
  5
CBE
331
8D8
  5
8DA
331
587
  5
589
331
583
  5
585
331
515
  5
517
331
57F
  5
581
331
511
  5
513
331
757
  5
759
331
4A7
  5
4A8
331
712
  5
714
331
57B
  5
57D
331
54C
  5
54E
331
753
  5
755
331
4A3
  5
4A4
331
548
  5
54A
331
509
  5
50B
331
49F
  5
4A0
331
4DE
  5
4DF
331
8D4
  5
8D6
331
49B
  5
49C
331
4DA
  5
4DB
331
8D0
  5
8D2
331
19DC
  5
19DD
331
19D8
  5
19D9
331
19D4
  5
19D5
331
19D0
  5
19D1
331
577
  5
579
331
573
  5
575
331
56F
  5
571
331
540
  5
546
331
4D6
  5
4D7
331
747
  5
749
331
497
  5
49A
331
501
  5
50A
331
702
  5
704
331
56B
  5
56D
331
53C
  5
53E
331
4FD
  5
4FF
331
4D2
  5
4D3
331
8CC
  5
8CE
331
464
  5
465
331
493
  5
494
331
4F9
  5
4FE
331
4CE
  5
4CF
331
48F
  5
490
331
8C8
  5
8CA
331
460
  5
461
331
8C4
  5
8C6
331
45C
  5
45D
331
4CA
  5
4CB
331
8C0
  5
8C2
331
19CC
  5
19CD
331
567
  5
569
331
534
  5
536
331
55F
  5
565
331
530
  5
532
331
487
  5
488
331
4C6
  5
4C7
331
55B
  5
55D
331
52C
  5
52E
331
772
  5
792
331
8BC
  5
8BE
331
483
  5
484
331
4C2
  5
4C3
331
528
  5
52A
331
4E9
  5
4EB
331
8B8
  5
8BA
331
47F
  5
480
331
4BE
  5
4BF
331
8B4
  5
8B6
331
4BA
  5
4BB
331
875
  5
877
331
8B0
  5
8B2
331
557
  5
559
331
553
  5
555
331
524
  5
526
331
4E5
  5
4E7
331
58E
  5
590
331
520
  5
522
331
4E1
  5
4E2
331
4B6
  5
4B7
331
58A
  5
58C
331
51C
  5
51E
331
8AC
  5
8AE
331
473
  5
474
331
4B2
  5
4B3
331
518
  5
51A
331
75E
  5
760
331
4AE
  5
4AF
331
8A8
  5
8AA
331
799
  5
79B
331
71F
  5
721
331
75A
  5
75C
331
4AA
  5
4AB
331
791
  5
793
331
8DB
  5
8DD
  0
XRECORD
  5
1A6C
102
{ACAD_REACTORS
330
1A6B
102
}
330
1A6B
100
AcDbXrecord
280
     1
 70
     1
  0
XRECORD
  5
1A6E
102
{ACAD_REACTORS
330
1A6B
102
}
330
1A6B
100
AcDbXrecord
280
     1
340
14
  0
XRECORD
  5
1A6F
102
{ACAD_REACTORS
330
1A6B
102
}
330
1A6B
100
AcDbXrecord
280
     1
340
14
  0
XRECORD
  5
1A6D
102
{ACAD_REACTORS
330
1A6B
102
}
330
1A6B
100
AcDbXrecord
280
     1
340
14
  0
ACDBDETAILVIEWSTYLE
  5
A29
102
{ACAD_XDICTIONARY
360
1AA7
102
}
102
{ACAD_REACTORS
330
A28
330
197E
102
}
330
A28
100
AcDbModelDocViewStyle
 70
     0
  3
Metric50
290
     0
100
AcDbDetailViewStyle
 70
     0
 71
     0
 90
        3
 71
     1
340
11
 40
5.0
340
0
 40
5.0
300

 40
0.0
280
     1
 71
     2
340
16
 90
       25
 71
     3
340
11
 40
5.0
 90
        0
 40
15.0
 90
        1
300
%<\AcVar ViewDetailId>% (%<\AcVar ViewScale \f "%sn">%)
 71
     4
340
16
 90
       25
340
16
 90
       25
280
     0
  0
LAYOUT
  5
9D8
102
{ACAD_XDICTIONARY
360
1A72
102
}
102
{ACAD_REACTORS
330
1A
102
}
330
1A
100
AcDbPlotSettings
  1

  2
none_device
  4
ISO_A3_(420.00_x_297.00_MM)
  6

 40
0.0
 41
0.0
 42
0.0
 43
0.0
 44
420.0
 45
297.0
 46
0.0
 47
0.0
 48
0.0
 49
0.0
140
0.0
141
0.0
142
1.0
143
1.0
 70
     0
 72
     1
 73
     0
 74
     0
  7

 75
     0
147
1.0
148
0.0
149
0.0
100
AcDbLayout
  1
Layout1
 70
     1
 71
     1
 10
0.0
 20
0.0
 11
12.0
 21
9.0
 12
0.0
 22
0.0
 32
0.0
 14
1.000000000000000E+20
 24
1.000000000000000E+20
 34
1.000000000000000E+20
 15
-1.000000000000000E+20
 25
-1.000000000000000E+20
 35
-1.000000000000000E+20
146
0.0
 13
0.0
 23
0.0
 33
0.0
 16
1.0
 26
0.0
 36
0.0
 17
0.0
 27
1.0
 37
0.0
 76
     0
330
21A
  0
LAYOUT
  5
9D7
102
{ACAD_XDICTIONARY
360
1A70
102
}
102
{ACAD_REACTORS
330
1A
102
}
330
1A
100
AcDbPlotSettings
  1

  2
none_device
  4
ISO_A3_(420.00_x_297.00_MM)
  6

 40
0.0
 41
0.0
 42
0.0
 43
0.0
 44
420.0
 45
297.0
 46
0.0
 47
0.0
 48
0.0
 49
0.0
140
0.0
141
0.0
142
1.0
143
1.0
 70
  1024
 72
     1
 73
     0
 74
     0
  7

 75
     0
147
1.0
148
0.0
149
0.0
100
AcDbLayout
  1
Model
 70
     0
 71
     0
 10
0.0
 20
0.0
 11
420.0
 21
297.0
 12
0.0
 22
0.0
 32
0.0
 14
0.0
 24
0.0
 34
0.0
 15
0.0
 25
0.0
 35
0.0
146
0.0
 13
0.0
 23
0.0
 33
0.0
 16
1.0
 26
0.0
 36
0.0
 17
0.0
 27
1.0
 37
0.0
 76
     0
330
219
331
1F4
  0
MATERIAL
  5
9E6
102
{ACAD_XDICTIONARY
360
9E7
102
}
102
{ACAD_REACTORS
330
9DD
102
}
330
9DD
100
AcDbMaterial
  1
ByBlock
 72
     0
 43
0.0008202099737533
 43
0.0
 43
0.0
 43
0.0
 43
0.0
 43
0.0008202099737533
 43
0.0
 43
0.0
 43
0.0
 43
0.0
 43
1.0
 43
0.0
 43
0.0
 43
0.0
 43
0.0
 43
1.0
 77
     0
 47
0.0008202099737533
 47
0.0
 47
0.0
 47
0.0
 47
0.0
 47
0.0008202099737533
 47
0.0
 47
0.0
 47
0.0
 47
0.0
 47
1.0
 47
0.0
 47
0.0
 47
0.0
 47
0.0
 47
1.0
171
     0
 49
0.0008202099737533
 49
0.0
 49
0.0
 49
0.0
 49
0.0
 49
0.0008202099737533
 49
0.0
 49
0.0
 49
0.0
 49
0.0
 49
1.0
 49
0.0
 49
0.0
 49
0.0
 49
0.0
 49
1.0
175
     0
142
0.0008202099737533
142
0.0
142
0.0
142
0.0
142
0.0
142
0.0008202099737533
142
0.0
142
0.0
142
0.0
142
0.0
142
1.0
142
0.0
142
0.0
142
0.0
142
0.0
142
1.0
179
     0
144
0.0008202099737533
144
0.0
144
0.0
144
0.0
144
0.0
144
0.0008202099737533
144
0.0
144
0.0
144
0.0
144
0.0
144
1.0
144
0.0
144
0.0
144
0.0
144
0.0
144
1.0
147
0.0008202099737533
147
0.0
147
0.0
147
0.0
147
0.0
147
0.0008202099737533
147
0.0
147
0.0
147
0.0
147
0.0
147
1.0
147
0.0
147
0.0
147
0.0
147
0.0
147
1.0
  0
MATERIAL
  5
9DE
102
{ACAD_XDICTIONARY
360
9DF
102
}
102
{ACAD_REACTORS
330
9DD
102
}
330
9DD
100
AcDbMaterial
  1
ByLayer
 72
     0
 43
0.0008202099737533
 43
0.0
 43
0.0
 43
0.0
 43
0.0
 43
0.0008202099737533
 43
0.0
 43
0.0
 43
0.0
 43
0.0
 43
1.0
 43
0.0
 43
0.0
 43
0.0
 43
0.0
 43
1.0
 77
     0
 47
0.0008202099737533
 47
0.0
 47
0.0
 47
0.0
 47
0.0
 47
0.0008202099737533
 47
0.0
 47
0.0
 47
0.0
 47
0.0
 47
1.0
 47
0.0
 47
0.0
 47
0.0
 47
0.0
 47
1.0
171
     0
 49
0.0008202099737533
 49
0.0
 49
0.0
 49
0.0
 49
0.0
 49
0.0008202099737533
 49
0.0
 49
0.0
 49
0.0
 49
0.0
 49
1.0
 49
0.0
 49
0.0
 49
0.0
 49
0.0
 49
1.0
175
     0
142
0.0008202099737533
142
0.0
142
0.0
142
0.0
142
0.0
142
0.0008202099737533
142
0.0
142
0.0
142
0.0
142
0.0
142
1.0
142
0.0
142
0.0
142
0.0
142
0.0
142
1.0
179
     0
144
0.0008202099737533
144
0.0
144
0.0
144
0.0
144
0.0
144
0.0008202099737533
144
0.0
144
0.0
144
0.0
144
0.0
144
1.0
144
0.0
144
0.0
144
0.0
144
0.0
144
1.0
147
0.0008202099737533
147
0.0
147
0.0
147
0.0
147
0.0
147
0.0008202099737533
147
0.0
147
0.0
147
0.0
147
0.0
147
1.0
147
0.0
147
0.0
147
0.0
147
0.0
147
1.0
  0
MATERIAL
  5
9EE
102
{ACAD_XDICTIONARY
360
9EF
102
}
102
{ACAD_REACTORS
330
9DD
102
}
330
9DD
100
AcDbMaterial
  1
Global
 72
     0
 43
0.0008202099737533
 43
0.0
 43
0.0
 43
0.0
 43
0.0
 43
0.0008202099737533
 43
0.0
 43
0.0
 43
0.0
 43
0.0
 43
1.0
 43
0.0
 43
0.0
 43
0.0
 43
0.0
 43
1.0
 77
     0
 47
0.0008202099737533
 47
0.0
 47
0.0
 47
0.0
 47
0.0
 47
0.0008202099737533
 47
0.0
 47
0.0
 47
0.0
 47
0.0
 47
1.0
 47
0.0
 47
0.0
 47
0.0
 47
0.0
 47
1.0
171
     0
 49
0.0008202099737533
 49
0.0
 49
0.0
 49
0.0
 49
0.0
 49
0.0008202099737533
 49
0.0
 49
0.0
 49
0.0
 49
0.0
 49
1.0
 49
0.0
 49
0.0
 49
0.0
 49
0.0
 49
1.0
175
     0
142
0.0008202099737533
142
0.0
142
0.0
142
0.0
142
0.0
142
0.0008202099737533
142
0.0
142
0.0
142
0.0
142
0.0
142
1.0
142
0.0
142
0.0
142
0.0
142
0.0
142
1.0
179
     0
144
0.0008202099737533
144
0.0
144
0.0
144
0.0
144
0.0
144
0.0008202099737533
144
0.0
144
0.0
144
0.0
144
0.0
144
1.0
144
0.0
144
0.0
144
0.0
144
0.0
144
1.0
147
0.0008202099737533
147
0.0
147
0.0
147
0.0
147
0.0
147
0.0008202099737533
147
0.0
147
0.0
147
0.0
147
0.0
147
1.0
147
0.0
147
0.0
147
0.0
147
0.0
147
1.0
  0
MLEADERSTYLE
  5
A25
102
{ACAD_REACTORS
330
A24
102
}
330
A24
100
AcDbMLeaderStyle
170
     2
171
     1
172
     0
 90
        2
 40
0.0
 41
0.0
173
     1
 91
-1056964608
340
14
 92
       -2
290
     1
 42
2.0
291
     1
 43
0.36
  3
Standard
 44
4.0
300

342
11
174
     1
178
     6
175
     1
176
     0
 93
-1056964608
 45
4.0
292
     0
297
     0
 46
4.0
 94
-1056964608
 47
1.0
 49
1.0
140
1.0
293
     1
141
0.0
294
     1
177
     0
142
1.0
295
     0
296
     0
143
0.125
1001
ACAD_MLEADERVER
1070
     2
  0
MLINESTYLE
  5
18
102
{ACAD_REACTORS
330
17
102
}
330
17
100
AcDbMlineStyle
  2
STANDARD
 70
     0
  3

 62
   256
 51
90.0
 52
90.0
 71
     2
 49
0.5
 62
   256
  6
BYLAYER
 49
-0.5
 62
   256
  6
BYLAYER
  0
ACDBPLACEHOLDER
  5
F
102
{ACAD_REACTORS
330
E
102
}
330
E
  0
SCALE
  5
A13
102
{ACAD_REACTORS
330
A12
102
}
330
A12
100
AcDbScale
 70
     0
300
1:1
140
1.0
141
1.0
290
     1
  0
SCALE
  5
A14
102
{ACAD_REACTORS
330
A12
102
}
330
A12
100
AcDbScale
 70
     0
300
1:2
140
1.0
141
2.0
290
     0
  0
SCALE
  5
A15
102
{ACAD_REACTORS
330
A12
102
}
330
A12
100
AcDbScale
 70
     0
300
1:4
140
1.0
141
4.0
290
     0
  0
SCALE
  5
A16
102
{ACAD_REACTORS
330
A12
102
}
330
A12
100
AcDbScale
 70
     0
300
1:5
140
1.0
141
5.0
290
     0
  0
SCALE
  5
A17
102
{ACAD_REACTORS
330
A12
102
}
330
A12
100
AcDbScale
 70
     0
300
1:8
140
1.0
141
8.0
290
     0
  0
SCALE
  5
A18
102
{ACAD_REACTORS
330
A12
102
}
330
A12
100
AcDbScale
 70
     0
300
1:10
140
1.0
141
10.0
290
     0
  0
SCALE
  5
A19
102
{ACAD_REACTORS
330
A12
102
}
330
A12
100
AcDbScale
 70
     0
300
1:16
140
1.0
141
16.0
290
     0
  0
SCALE
  5
A1A
102
{ACAD_REACTORS
330
A12
102
}
330
A12
100
AcDbScale
 70
     0
300
1:20
140
1.0
141
20.0
290
     0
  0
SCALE
  5
A1B
102
{ACAD_REACTORS
330
A12
102
}
330
A12
100
AcDbScale
 70
     0
300
1:30
140
1.0
141
30.0
290
     0
  0
SCALE
  5
A1C
102
{ACAD_REACTORS
330
A12
102
}
330
A12
100
AcDbScale
 70
     0
300
1:40
140
1.0
141
40.0
290
     0
  0
SCALE
  5
A1D
102
{ACAD_REACTORS
330
A12
102
}
330
A12
100
AcDbScale
 70
     0
300
1:50
140
1.0
141
50.0
290
     0
  0
SCALE
  5
A1E
102
{ACAD_REACTORS
330
A12
102
}
330
A12
100
AcDbScale
 70
     0
300
1:100
140
1.0
141
100.0
290
     0
  0
SCALE
  5
A1F
102
{ACAD_REACTORS
330
A12
102
}
330
A12
100
AcDbScale
 70
     0
300
2:1
140
2.0
141
1.0
290
     0
  0
SCALE
  5
A20
102
{ACAD_REACTORS
330
A12
102
}
330
A12
100
AcDbScale
 70
     0
300
4:1
140
4.0
141
1.0
290
     0
  0
SCALE
  5
A21
102
{ACAD_REACTORS
330
A12
102
}
330
A12
100
AcDbScale
 70
     0
300
8:1
140
8.0
141
1.0
290
     0
  0
SCALE
  5
A22
102
{ACAD_REACTORS
330
A12
102
}
330
A12
100
AcDbScale
 70
     0
300
10:1
140
10.0
141
1.0
290
     0
  0
SCALE
  5
A23
102
{ACAD_REACTORS
330
A12
102
}
330
A12
100
AcDbScale
 70
     0
300
100:1
140
100.0
141
1.0
290
     0
  0
ACDBSECTIONVIEWSTYLE
  5
A27
102
{ACAD_XDICTIONARY
360
1AA5
102
}
102
{ACAD_REACTORS
330
A26
330
197D
102
}
330
A26
100
AcDbModelDocViewStyle
 70
     0
  3
Metric50
290
     0
100
AcDbSectionViewStyle
 70
     0
 71
     0
 90
      102
 71
     1
340
11
 40
5.0
340
0
340
0
 40
5.0
300
I, O, Q, S, X, Z
 40
10.0
 90
        0
 40
2.5
 90
        0
 71
     2
340
16
 90
       25
340
16
 90
       50
 40
5.0
 40
2.5
 40
5.0
 71
     3
340
11
 40
5.0
 90
        0
 40
15.0
 90
        1
300
%<\AcVar ViewSectionStartId>%-%<\AcVar ViewSectionEndId>% (%<\AcVar ViewScale \f "%sn">%)
 71
     4
300
ANSI31
 40
1.0
 90
        0
290
     0
290
     0
 90
        6
 40
0.0
 40
1.570796326794896
 40
0.2617993877991494
 40
1.308996938995747
 40
-0.2617993877991494
 40
1.832595714594044
  0
TABLESTYLE
  5
A11
102
{ACAD_XDICTIONARY
360
11E2
102
}
102
{ACAD_REACTORS
330
A10
102
}
330
A10
100
AcDbTableStyle
  3
Standard
 70
     0
 71
     0
 40
1.5
 41
1.5
280
     0
281
     0
  7
STANDARD
140
4.5
170
     2
 62
     0
 63
     7
283
     0
274
    -2
284
     1
 64
     0
275
    -2
285
     1
 65
     0
276
    -2
286
     1
 66
     0
277
    -2
287
     1
 67
     0
278
    -2
288
     1
 68
     0
279
    -2
289
     1
 69
     0
  7
STANDARD
140
6.0
170
     5
 62
     0
 63
     7
283
     0
274
    -2
284
     1
 64
     0
275
    -2
285
     1
 65
     0
276
    -2
286
     1
 66
     0
277
    -2
287
     1
 67
     0
278
    -2
288
     1
 68
     0
279
    -2
289
     1
 69
     0
  7
STANDARD
140
4.5
170
     5
 62
     0
 63
     7
283
     0
274
    -2
284
     1
 64
     0
275
    -2
285
     1
 65
     0
276
    -2
286
     1
 66
     0
277
    -2
287
     1
 67
     0
278
    -2
288
     1
 68
     0
279
    -2
289
     1
 69
     0
  0
VISUALSTYLE
  5
9FC
102
{ACAD_XDICTIONARY
360
1A7E
102
}
102
{ACAD_REACTORS
330
9F6
102
}
330
9F6
100
AcDbVisualStyle
  2

 70
     4
 71
     0
 72
     2
 73
     0
 90
        0
 40
-0.6
 41
-30.0
 62
     5
 63
     7
 74
     1
 91
        4
 64
     7
 65
   257
 75
     1
175
     1
 42
1.0
 92
        0
 66
   257
 43
1.0
 76
     1
 77
     6
 78
     2
 67
     7
 79
     5
170
     0
171
     0
290
     0
174
     0
 93
        1
 44
0.0
173
     0
291
     0
 45
0.0
1001
ACAD
1000
AcDbSavedByObjectVersion
1070
     0
  0
VISUALSTYLE
  5
9FB
102
{ACAD_XDICTIONARY
360
1A7C
102
}
102
{ACAD_REACTORS
330
9F6
102
}
330
9F6
100
AcDbVisualStyle
  2

 70
     7
 71
     1
 72
     0
 73
     1
 90
        0
 40
-0.6
 41
-30.0
 62
     5
 63
     7
 74
     0
 91
        4
 64
     7
 65
   257
 75
     1
175
     1
 42
1.0
 92
        8
 66
     7
 43
1.0
 76
     1
 77
     6
 78
     2
 67
     7
 79
     5
170
     0
171
     0
290
     0
174
     0
 93
        1
 44
0.0
173
     0
291
     1
 45
0.0
1001
ACAD
1000
AcDbSavedByObjectVersion
1070
     0
  0
VISUALSTYLE
  5
A02
102
{ACAD_XDICTIONARY
360
1A8A
102
}
102
{ACAD_REACTORS
330
9F6
102
}
330
9F6
100
AcDbVisualStyle
  2

 70
    12
 71
     2
 72
     2
 73
     0
 90
        0
 40
-0.6
 41
-30.0
 62
     5
 63
     7
 74
     1
 91
        4
 64
     7
 65
   257
 75
     1
175
     1
 42
1.0
 92
        8
 66
     7
 43
1.0
 76
     1
 77
     6
 78
     2
 67
     7
 79
     5
170
     0
171
     0
290
     0
174
     0
 93
        1
 44
50.0
173
     0
291
     1
 45
0.0
1001
ACAD
1000
AcDbSavedByObjectVersion
1070
     0
  0
VISUALSTYLE
  5
A06
102
{ACAD_XDICTIONARY
360
1A92
102
}
102
{ACAD_REACTORS
330
9F6
102
}
330
9F6
100
AcDbVisualStyle
  2

 70
    16
 71
     2
 72
     2
 73
     3
 90
        0
 40
-0.6
 41
-30.0
 62
     5
 63
     8
 74
     1
 91
        4
 64
     7
 65
   257
 75
     1
175
     1
 42
1.0
 92
        8
 66
     8
 43
1.0
 76
     1
 77
     6
 78
     2
 67
     7
 79
     5
170
     0
171
     0
290
     0
174
     0
 93
        1
 44
0.0
173
     0
291
     1
 45
0.0
1001
ACAD
1000
AcDbSavedByObjectVersion
1070
     0
  0
VISUALSTYLE
  5
9FF
102
{ACAD_XDICTIONARY
360
1A84
102
}
102
{ACAD_REACTORS
330
9F6
102
}
330
9F6
100
AcDbVisualStyle
  2

 70
     9
 71
     3
 72
     2
 73
     0
 90
        0
 40
-0.6
 41
-30.0
 62
     5
 63
     7
 74
     2
 91
        2
 64
     7
 65
   257
 75
     1
175
     1
 42
179.0
 92
        8
 66
     7
 43
1.0
 76
     1
 77
     6
 78
     2
 67
     7
 79
     3
170
     0
171
     0
290
     0
174
     0
 93
        1
 44
0.0
173
     0
291
     0
 45
0.0
1001
ACAD
1000
AcDbSavedByObjectVersion
1070
     0
  0
VISUALSTYLE
  5
A01
102
{ACAD_XDICTIONARY
360
1A88
102
}
102
{ACAD_REACTORS
330
9F6
102
}
330
9F6
100
AcDbVisualStyle
  2

 70
    11
 71
     2
 72
     2
 73
     0
 90
        0
 40
-0.6
 41
-30.0
 62
     5
 63
     7
 74
     1
 91
        4
 64
     7
 65
   257
 75
     1
175
     1
 42
1.0
 92
        8
 66
     7
 43
1.0
 76
     1
 77
     6
 78
     2
 67
     7
 79
     5
170
     0
171
     0
290
     0
174
     0
 93
        1
 44
-50.0
173
     0
291
     1
 45
0.0
1001
ACAD
1000
AcDbSavedByObjectVersion
1070
     0
  0
VISUALSTYLE
  5
A0E
102
{ACAD_XDICTIONARY
360
1AA2
102
}
102
{ACAD_REACTORS
330
9F6
102
}
330
9F6
100
AcDbVisualStyle
  2

 70
    22
 71
     2
 72
     2
 73
     0
 90
        0
 40
-0.6
 41
-30.0
 62
     5
 63
     7
 74
     1
 91
        4
 64
     7
 65
   257
 75
     1
175
     1
 42
1.0
 92
        8
 66
     7
 43
1.0
 76
     1
 77
     6
 78
     2
 67
     7
 79
     5
170
     0
171
     0
290
     0
174
     0
 93
        1
 44
0.0
173
     0
291
     1
 45
0.0
1001
ACAD
1000
AcDbSavedByObjectVersion
1070
     0
  0
VISUALSTYLE
  5
A05
102
{ACAD_XDICTIONARY
360
1A90
102
}
102
{ACAD_REACTORS
330
9F6
102
}
330
9F6
100
AcDbVisualStyle
  2

 70
    15
 71
     2
 72
     2
 73
     0
 90
        0
 40
-0.6
 41
-30.0
 62
     5
 63
     7
 74
     1
 91
        4
 64
     7
 65
   257
 75
     1
175
     1
 42
1.0
 92
        8
 66
     7
 43
1.0
 76
     1
 77
     6
 78
     2
 67
     7
 79
     5
170
     0
171
     0
290
     0
174
     0
 93
        1
 44
0.0
173
     0
291
     1
 45
0.0
1001
ACAD
1000
AcDbSavedByObjectVersion
1070
     0
  0
VISUALSTYLE
  5
9F7
102
{ACAD_XDICTIONARY
360
1A74
102
}
102
{ACAD_REACTORS
330
9F6
102
}
330
9F6
100
AcDbVisualStyle
  2

 70
     0
 71
     2
 72
     1
 73
     1
 90
        2
 40
-0.6
 41
30.0
 62
     5
 63
     7
 74
     0
 91
        0
 64
     7
 65
   257
 75
     1
175
     1
 42
1.0
 92
        8
 66
     7
 43
1.0
 76
     1
 77
     6
 78
     2
 67
     7
 79
     5
170
     0
171
     0
290
     0
174
     0
 93
       13
 44
0.0
173
     0
291
     1
 45
0.0
1001
ACAD
1000
AcDbSavedByObjectVersion
1070
     0
  0
VISUALSTYLE
  5
9F8
102
{ACAD_XDICTIONARY
360
1A76
102
}
102
{ACAD_REACTORS
330
9F6
102
}
330
9F6
100
AcDbVisualStyle
  2

 70
     1
 71
     2
 72
     1
 73
     1
 90
        2
 40
-0.6
 41
30.0
 62
     5
 63
     7
 74
     1
 91
        0
 64
     7
 65
   257
 75
     1
175
     1
 42
1.0
 92
        0
 66
   257
 43
1.0
 76
     1
 77
     6
 78
     2
 67
     7
 79
     5
170
     0
171
     0
290
     0
174
     0
 93
       13
 44
0.0
173
     0
291
     1
 45
0.0
1001
ACAD
1000
AcDbSavedByObjectVersion
1070
     0
  0
VISUALSTYLE
  5
9F9
102
{ACAD_XDICTIONARY
360
1A78
102
}
102
{ACAD_REACTORS
330
9F6
102
}
330
9F6
100
AcDbVisualStyle
  2

 70
     2
 71
     2
 72
     2
 73
     1
 90
        2
 40
-0.6
 41
30.0
 62
     5
 63
     7
 74
     0
 91
        0
 64
     7
 65
   257
 75
     1
175
     1
 42
1.0
 92
        0
 66
     7
 43
1.0
 76
     1
 77
     6
 78
     2
 67
     7
 79
     5
170
     0
171
     0
290
     0
174
     0
 93
       13
 44
0.0
173
     0
291
     1
 45
0.0
1001
ACAD
1000
AcDbSavedByObjectVersion
1070
     0
  0
VISUALSTYLE
  5
9FA
102
{ACAD_XDICTIONARY
360
1A7A
102
}
102
{ACAD_REACTORS
330
9F6
102
}
330
9F6
100
AcDbVisualStyle
  2

 70
     3
 71
     2
 72
     2
 73
     1
 90
        2
 40
-0.6
 41
30.0
 62
     5
 63
     7
 74
     1
 91
        0
 64
     7
 65
   257
 75
     1
175
     1
 42
1.0
 92
        0
 66
   257
 43
1.0
 76
     1
 77
     6
 78
     2
 67
     7
 79
     5
170
     0
171
     0
290
     0
174
     0
 93
       13
 44
0.0
173
     0
291
     1
 45
0.0
1001
ACAD
1000
AcDbSavedByObjectVersion
1070
     0
  0
VISUALSTYLE
  5
9FE
102
{ACAD_XDICTIONARY
360
1A82
102
}
102
{ACAD_REACTORS
330
9F6
102
}
330
9F6
100
AcDbVisualStyle
  2

 70
     6
 71
     1
 72
     2
 73
     2
 90
        0
 40
-0.6
 41
-30.0
 62
     5
 63
     7
 74
     2
 91
        2
 64
     7
 65
   257
 75
     2
175
     1
 42
40.0
 92
        0
 66
   257
 43
1.0
 76
     1
 77
     6
 78
     2
 67
     7
 79
     3
170
     0
171
     0
290
     0
174
     0
 93
        1
 44
0.0
173
     0
291
     0
 45
0.0
1001
ACAD
1000
AcDbSavedByObjectVersion
1070
     0
  0
VISUALSTYLE
  5
A0C
102
{ACAD_XDICTIONARY
360
1A9E
102
}
102
{ACAD_REACTORS
330
9F6
102
}
330
9F6
100
AcDbVisualStyle
  2

 70
    20
 71
     2
 72
     2
 73
     0
 90
        0
 40
-0.6
 41
-30.0
 62
     5
 63
     7
 74
     1
 91
        4
 64
     7
 65
   257
 75
     1
175
     1
 42
1.0
 92
       10
 66
     7
 43
1.0
 76
     1
 77
     6
 78
     2
 67
     7
 79
     5
170
     0
171
     0
290
     0
174
     0
 93
        1
 44
0.0
173
     0
291
     1
 45
0.0
1001
ACAD
1000
AcDbSavedByObjectVersion
1070
     0
  0
VISUALSTYLE
  5
A04
102
{ACAD_XDICTIONARY
360
1A8E
102
}
102
{ACAD_REACTORS
330
9F6
102
}
330
9F6
100
AcDbVisualStyle
  2

 70
    14
 71
     2
 72
     2
 73
     0
 90
        0
 40
-0.6
 41
-30.0
 62
     5
 63
     7
 74
     1
 91
        4
 64
     7
 65
   257
 75
     7
175
     7
 42
1.0
 92
        8
 66
     7
 43
1.0
 76
     1
 77
     6
 78
     2
 67
     7
 79
     5
170
     0
171
     0
290
     0
174
     0
 93
        1
 44
0.0
173
     0
291
     1
 45
0.0
1001
ACAD
1000
AcDbSavedByObjectVersion
1070
     0
  0
VISUALSTYLE
  5
A0D
102
{ACAD_XDICTIONARY
360
1AA0
102
}
102
{ACAD_REACTORS
330
9F6
102
}
330
9F6
100
AcDbVisualStyle
  2

 70
    21
 71
     2
 72
     2
 73
     0
 90
        0
 40
-0.6
 41
-30.0
 62
     5
 63
     7
 74
     1
 91
        4
 64
     7
 65
   257
 75
     1
175
     1
 42
1.0
 92
        9
 66
     7
 43
1.0
 76
     1
 77
     6
 78
     2
 67
     7
 79
     5
170
     0
171
     0
290
     0
174
     0
 93
        1
 44
0.0
173
     0
291
     1
 45
0.0
1001
ACAD
1000
AcDbSavedByObjectVersion
1070
     0
  0
VISUALSTYLE
  5
A00
102
{ACAD_XDICTIONARY
360
1A86
102
}
102
{ACAD_REACTORS
330
9F6
102
}
330
9F6
100
AcDbVisualStyle
  2

 70
     8
 71
     2
 72
     3
 73
     0
 90
        2
 40
-0.6
 41
30.0
 62
     5
 63
     7
 74
     0
 91
        0
 64
     7
 65
   257
 75
     1
175
     1
 42
1.0
 92
        8
 66
   257
 43
1.0
 76
     1
 77
     6
 78
     2
 67
     7
 79
     3
170
     0
171
     0
290
     0
174
     0
 93
       13
 44
0.0
173
     0
291
     0
 45
0.0
1001
ACAD
1000
AcDbSavedByObjectVersion
1070
     0
  0
VISUALSTYLE
  5
A0B
102
{ACAD_XDICTIONARY
360
1A9C
102
}
102
{ACAD_REACTORS
330
9F6
102
}
330
9F6
100
AcDbVisualStyle
  2

 70
    27
 71
     2
 72
     2
 73
     1
 90
        2
 40
-0.6
 41
30.0
 62
     5
 63
     7
 74
     0
 91
        4
 64
     7
 65
   257
 75
     1
175
     1
 42
1.0
 92
        8
 66
   257
 43
1.0
 76
     1
 77
     6
 78
     2
 67
     8
 79
     3
170
     0
171
     0
290
     0
174
     0
 93
        5
 44
0.0
173
     0
291
     0
 45
0.0
1001
ACAD
1000
AcDbSavedByObjectVersion
1070
     0
  0
VISUALSTYLE
  5
A0A
102
{ACAD_XDICTIONARY
360
1A9A
102
}
102
{ACAD_REACTORS
330
9F6
102
}
330
9F6
100
AcDbVisualStyle
  2

 70
    26
 71
     2
 72
     2
 73
     1
 90
        2
 40
-0.6
 41
30.0
 62
     5
 63
     7
 74
     1
 91
       10
 64
     7
 65
   257
 75
     2
175
     1
 42
1.0
 92
        8
 66
   257
 43
1.0
 76
     1
 77
     6
 78
     2
 67
     7
 79
     3
170
     0
171
     0
290
     0
174
     0
 93
        5
 44
0.0
173
     0
291
     0
 45
0.0
1001
ACAD
1000
AcDbSavedByObjectVersion
1070
     0
  0
VISUALSTYLE
  5
A07
102
{ACAD_XDICTIONARY
360
1A94
102
}
102
{ACAD_REACTORS
330
9F6
102
}
330
9F6
100
AcDbVisualStyle
  2

 70
    23
 71
     2
 72
     2
 73
     3
 90
        0
 40
-0.6
 41
-30.0
 62
     5
 63
     7
 74
     2
 91
        2
 64
     7
 65
     7
 75
     1
175
     1
 42
40.0
 92
        8
 66
     7
 43
1.0
 76
     1
 77
     6
 78
     2
 67
     7
 79
     3
170
     0
171
     0
290
     0
174
     0
 93
        1
 44
0.0
173
     0
291
     0
 45
0.0
1001
ACAD
1000
AcDbSavedByObjectVersion
1070
     0
  0
VISUALSTYLE
  5
A08
102
{ACAD_XDICTIONARY
360
1A96
102
}
102
{ACAD_REACTORS
330
9F6
102
}
330
9F6
100
AcDbVisualStyle
  2

 70
    24
 71
     1
 72
     2
 73
     2
 90
        0
 40
-0.6
 41
-30.0
 62
     5
 63
     7
 74
     2
 91
        2
 64
     7
 65
     7
 75
     1
175
     1
 42
40.0
 92
       11
 66
     7
 43
1.0
 76
     1
 77
     6
 78
     2
 67
     7
 79
     6
170
     0
171
     0
290
     0
174
     0
 93
        1
 44
0.0
173
     0
291
     0
 45
0.0
1001
ACAD
1000
AcDbSavedByObjectVersion
1070
     0
  0
VISUALSTYLE
  5
A03
102
{ACAD_XDICTIONARY
360
1A8C
102
}
102
{ACAD_REACTORS
330
9F6
102
}
330
9F6
100
AcDbVisualStyle
  2

 70
    13
 71
     2
 72
     2
 73
     0
 90
        0
 40
-0.6
 41
-30.0
 62
     5
 63
     7
 74
     1
 91
        4
 64
     7
 65
   257
 75
     1
175
     1
 42
1.0
 92
       12
 66
     7
 43
1.0
 76
     1
 77
     6
 78
     2
 67
     7
 79
     5
170
     0
171
     0
290
     0
174
     0
 93
        1
 44
0.0
173
     0
291
     1
 45
0.0
1001
ACAD
1000
AcDbSavedByObjectVersion
1070
     0
  0
VISUALSTYLE
  5
9FD
102
{ACAD_XDICTIONARY
360
1A80
102
}
102
{ACAD_REACTORS
330
9F6
102
}
330
9F6
100
AcDbVisualStyle
  2

 70
     5
 71
     0
 72
     2
 73
     0
 90
        0
 40
-0.6
 41
-30.0
 62
     5
 63
     7
 74
     1
 91
        4
 64
     7
 65
   257
 75
     1
175
     1
 42
1.0
 92
        0
 66
   257
 43
1.0
 76
     1
 77
     6
 78
     2
 67
     7
 79
     3
170
     0
171
     0
290
     0
174
     0
 93
        1
 44
0.0
173
     0
291
     0
 45
0.0
1001
ACAD
1000
AcDbSavedByObjectVersion
1070
     0
  0
VISUALSTYLE
  5
A09
102
{ACAD_XDICTIONARY
360
1A98
102
}
102
{ACAD_REACTORS
330
9F6
102
}
330
9F6
100
AcDbVisualStyle
  2

 70
    25
 71
     2
 72
     2
 73
     1
 90
        1
 40
0.5
 41
-30.0
 62
     5
 63
     7
 74
     1
 91
        0
 64
     7
 65
   257
 75
     1
175
     1
 42
1.0
 92
        8
 66
     7
 43
1.0
 76
     1
 77
     6
 78
     2
 67
     7
 79
     3
170
     0
171
     0
290
     0
174
     0
 93
       13
 44
0.0
173
     0
291
     0
 45
0.0
1001
ACAD
1000
AcDbSavedByObjectVersion
1070
     0
  0
DICTIONARYVAR
  5
11DD
102
{ACAD_REACTORS
330
11D8
102
}
330
11D8
100
DictionaryVariables
280
     0
  1
1:1
  0
DICTIONARYVAR
  5
11DA
102
{ACAD_REACTORS
330
11D8
102
}
330
11D8
100
DictionaryVariables
280
     0
  1
STANDARD
  0
DICTIONARYVAR
  5
11D9
102
{ACAD_REACTORS
330
11D8
102
}
330
11D8
100
DictionaryVariables
280
     0
  1
STANDARD
  0
DICTIONARYVAR
  5
11DB
102
{ACAD_REACTORS
330
11D8
102
}
330
11D8
100
DictionaryVariables
280
     0
  1
Metric50
  0
DICTIONARYVAR
  5
11DC
102
{ACAD_REACTORS
330
11D8
102
}
330
11D8
100
DictionaryVariables
280
     0
  1
Metric50
  0
DICTIONARYVAR
  5
11E0
102
{ACAD_REACTORS
330
11D8
102
}
330
11D8
100
DictionaryVariables
280
     0
  1
1
  0
DICTIONARYVAR
  5
11DF
102
{ACAD_REACTORS
330
11D8
102
}
330
11D8
100
DictionaryVariables
280
     0
  1
0
  0
DICTIONARYVAR
  5
11DE
102
{ACAD_REACTORS
330
11D8
102
}
330
11D8
100
DictionaryVariables
280
     0
  1
127
  0
DICTIONARYVAR
  5
1A67
102
{ACAD_REACTORS
330
11D8
102
}
330
11D8
100
DictionaryVariables
280
     0
  1
2
  0
DICTIONARY
  5
A5E
102
{ACAD_REACTORS
330
A57
102
}
330
A57
100
AcDbDictionary
281
     1
  0
DICTIONARY
  5
1AA7
330
A29
100
AcDbDictionary
280
     1
281
     1
  3
ACAD_XREC_ROUNDTRIP
360
1AA8
  0
DICTIONARY
  5
1A72
330
9D8
100
AcDbDictionary
280
     1
281
     1
  3
ACAD_XREC_ROUNDTRIP
360
1A73
  0
DICTIONARY
  5
1A70
330
9D7
100
AcDbDictionary
280
     1
281
     1
  3
ACAD_XREC_ROUNDTRIP
360
1A71
  0
DICTIONARY
  5
9E7
330
9E6
100
AcDbDictionary
280
     1
281
     1
  3
ACAD_XREC_ROUNDTRIP
360
11EB
  3
BUMPTILE
360
9E9
  3
DIFFUSETILE
360
9E8
  3
OPACITYTILE
360
9EC
  3
REFLECTIONTILE
360
9EB
  3
REFRACTIONTILE
360
9ED
  3
SPECULARTILE
360
9EA
  0
DICTIONARY
  5
9DF
330
9DE
100
AcDbDictionary
280
     1
281
     1
  3
ACAD_XREC_ROUNDTRIP
360
11EA
  3
BUMPTILE
360
9E1
  3
DIFFUSETILE
360
9E0
  3
OPACITYTILE
360
9E4
  3
REFLECTIONTILE
360
9E3
  3
REFRACTIONTILE
360
9E5
  3
SPECULARTILE
360
9E2
  0
DICTIONARY
  5
9EF
330
9EE
100
AcDbDictionary
280
     1
281
     1
  3
ACAD_XREC_ROUNDTRIP
360
11EC
  3
BUMPTILE
360
9F1
  3
DIFFUSETILE
360
9F0
  3
OPACITYTILE
360
9F4
  3
REFLECTIONTILE
360
9F3
  3
REFRACTIONTILE
360
9F5
  3
SPECULARTILE
360
9F2
  0
DICTIONARY
  5
1AA5
330
A27
100
AcDbDictionary
280
     1
281
     1
  3
ACAD_XREC_ROUNDTRIP
360
1AA6
  0
DICTIONARY
  5
11E2
330
A11
100
AcDbDictionary
280
     1
281
     1
  3
ACAD_ROUNDTRIP_2008_TABLESTYLE_CELLSTYLEMAP
360
1A68
  3
ACAD_XREC_ROUNDTRIP
360
1AA4
  0
DICTIONARY
  5
1A7E
330
9FC
100
AcDbDictionary
280
     1
281
     1
  3
ACAD_XREC_ROUNDTRIP
360
1A7F
  0
DICTIONARY
  5
1A7C
330
9FB
100
AcDbDictionary
280
     1
281
     1
  3
ACAD_XREC_ROUNDTRIP
360
1A7D
  0
DICTIONARY
  5
1A8A
330
A02
100
AcDbDictionary
280
     1
281
     1
  3
ACAD_XREC_ROUNDTRIP
360
1A8B
  0
DICTIONARY
  5
1A92
330
A06
100
AcDbDictionary
280
     1
281
     1
  3
ACAD_XREC_ROUNDTRIP
360
1A93
  0
DICTIONARY
  5
1A84
330
9FF
100
AcDbDictionary
280
     1
281
     1
  3
ACAD_XREC_ROUNDTRIP
360
1A85
  0
DICTIONARY
  5
1A88
330
A01
100
AcDbDictionary
280
     1
281
     1
  3
ACAD_XREC_ROUNDTRIP
360
1A89
  0
DICTIONARY
  5
1AA2
330
A0E
100
AcDbDictionary
280
     1
281
     1
  3
ACAD_XREC_ROUNDTRIP
360
1AA3
  0
DICTIONARY
  5
1A90
330
A05
100
AcDbDictionary
280
     1
281
     1
  3
ACAD_XREC_ROUNDTRIP
360
1A91
  0
DICTIONARY
  5
1A74
330
9F7
100
AcDbDictionary
280
     1
281
     1
  3
ACAD_XREC_ROUNDTRIP
360
1A75
  0
DICTIONARY
  5
1A76
330
9F8
100
AcDbDictionary
280
     1
281
     1
  3
ACAD_XREC_ROUNDTRIP
360
1A77
  0
DICTIONARY
  5
1A78
330
9F9
100
AcDbDictionary
280
     1
281
     1
  3
ACAD_XREC_ROUNDTRIP
360
1A79
  0
DICTIONARY
  5
1A7A
330
9FA
100
AcDbDictionary
280
     1
281
     1
  3
ACAD_XREC_ROUNDTRIP
360
1A7B
  0
DICTIONARY
  5
1A82
330
9FE
100
AcDbDictionary
280
     1
281
     1
  3
ACAD_XREC_ROUNDTRIP
360
1A83
  0
DICTIONARY
  5
1A9E
330
A0C
100
AcDbDictionary
280
     1
281
     1
  3
ACAD_XREC_ROUNDTRIP
360
1A9F
  0
DICTIONARY
  5
1A8E
330
A04
100
AcDbDictionary
280
     1
281
     1
  3
ACAD_XREC_ROUNDTRIP
360
1A8F
  0
DICTIONARY
  5
1AA0
330
A0D
100
AcDbDictionary
280
     1
281
     1
  3
ACAD_XREC_ROUNDTRIP
360
1AA1
  0
DICTIONARY
  5
1A86
330
A00
100
AcDbDictionary
280
     1
281
     1
  3
ACAD_XREC_ROUNDTRIP
360
1A87
  0
DICTIONARY
  5
1A9C
330
A0B
100
AcDbDictionary
280
     1
281
     1
  3
ACAD_XREC_ROUNDTRIP
360
1A9D
  0
DICTIONARY
  5
1A9A
330
A0A
100
AcDbDictionary
280
     1
281
     1
  3
ACAD_XREC_ROUNDTRIP
360
1A9B
  0
DICTIONARY
  5
1A94
330
A07
100
AcDbDictionary
280
     1
281
     1
  3
ACAD_XREC_ROUNDTRIP
360
1A95
  0
DICTIONARY
  5
1A96
330
A08
100
AcDbDictionary
280
     1
281
     1
  3
ACAD_XREC_ROUNDTRIP
360
1A97
  0
DICTIONARY
  5
1A8C
330
A03
100
AcDbDictionary
280
     1
281
     1
  3
ACAD_XREC_ROUNDTRIP
360
1A8D
  0
DICTIONARY
  5
1A80
330
9FD
100
AcDbDictionary
280
     1
281
     1
  3
ACAD_XREC_ROUNDTRIP
360
1A81
  0
DICTIONARY
  5
1A98
330
A09
100
AcDbDictionary
280
     1
281
     1
  3
ACAD_XREC_ROUNDTRIP
360
1A99
  0
XRECORD
  5
1AA8
102
{ACAD_REACTORS
330
1AA7
102
}
330
1AA7
100
AcDbXrecord
280
     1
102
DISPLAYNAME
  1
Metric50
102
FLAGS
 90
        0
  0
XRECORD
  5
1A73
102
{ACAD_REACTORS
330
1A72
102
}
330
1A72
100
AcDbXrecord
280
     1
102
SHADEPLOT
 70
     0
102
SHADEPLOTRESLEVEL
 70
     2
102
SHADEPLOTCUSTOMDPI
 70
   300
  0
XRECORD
  5
1A71
102
{ACAD_REACTORS
330
1A70
102
}
330
1A70
100
AcDbXrecord
280
     1
102
SHADEPLOT
 70
     0
102
SHADEPLOTRESLEVEL
 70
     2
102
SHADEPLOTCUSTOMDPI
 70
   300
  0
XRECORD
  5
11EB
102
{ACAD_REACTORS
330
9E7
102
}
330
9E7
100
AcDbXrecord
280
     1
102
MATERIAL
148
0.0
149
0.0
149
0.0
 93
        0
 94
      127
282
     0
 72
     0
 77
     0
171
     0
175
     0
179
     0
273
     0
  0
XRECORD
  5
9E9
102
{ACAD_REACTORS
330
9E7
102
}
330
9E7
100
AcDbXrecord
280
     1
270
     1
271
     1
  0
XRECORD
  5
9E8
102
{ACAD_REACTORS
330
9E7
102
}
330
9E7
100
AcDbXrecord
280
     1
270
     1
271
     1
  0
XRECORD
  5
9EC
102
{ACAD_REACTORS
330
9E7
102
}
330
9E7
100
AcDbXrecord
280
     1
270
     1
271
     1
  0
XRECORD
  5
9EB
102
{ACAD_REACTORS
330
9E7
102
}
330
9E7
100
AcDbXrecord
280
     1
270
     1
271
     1
  0
XRECORD
  5
9ED
102
{ACAD_REACTORS
330
9E7
102
}
330
9E7
100
AcDbXrecord
280
     1
270
     1
271
     1
  0
XRECORD
  5
9EA
102
{ACAD_REACTORS
330
9E7
102
}
330
9E7
100
AcDbXrecord
280
     1
270
     1
271
     1
  0
XRECORD
  5
11EA
102
{ACAD_REACTORS
330
9DF
102
}
330
9DF
100
AcDbXrecord
280
     1
102
MATERIAL
148
0.0
149
0.0
149
0.0
 93
        0
 94
      127
282
     0
 72
     0
 77
     0
171
     0
175
     0
179
     0
273
     0
  0
XRECORD
  5
9E1
102
{ACAD_REACTORS
330
9DF
102
}
330
9DF
100
AcDbXrecord
280
     1
270
     1
271
     1
  0
XRECORD
  5
9E0
102
{ACAD_REACTORS
330
9DF
102
}
330
9DF
100
AcDbXrecord
280
     1
270
     1
271
     1
  0
XRECORD
  5
9E4
102
{ACAD_REACTORS
330
9DF
102
}
330
9DF
100
AcDbXrecord
280
     1
270
     1
271
     1
  0
XRECORD
  5
9E3
102
{ACAD_REACTORS
330
9DF
102
}
330
9DF
100
AcDbXrecord
280
     1
270
     1
271
     1
  0
XRECORD
  5
9E5
102
{ACAD_REACTORS
330
9DF
102
}
330
9DF
100
AcDbXrecord
280
     1
270
     1
271
     1
  0
XRECORD
  5
9E2
102
{ACAD_REACTORS
330
9DF
102
}
330
9DF
100
AcDbXrecord
280
     1
270
     1
271
     1
  0
XRECORD
  5
11EC
102
{ACAD_REACTORS
330
9EF
102
}
330
9EF
100
AcDbXrecord
280
     1
102
MATERIAL
148
0.0
149
0.0
149
0.0
 93
        0
 94
      127
282
     0
 72
     0
 77
     0
171
     0
175
     0
179
     0
273
     0
  0
XRECORD
  5
9F1
102
{ACAD_REACTORS
330
9EF
102
}
330
9EF
100
AcDbXrecord
280
     1
270
     1
271
     1
  0
XRECORD
  5
9F0
102
{ACAD_REACTORS
330
9EF
102
}
330
9EF
100
AcDbXrecord
280
     1
270
     1
271
     1
  0
XRECORD
  5
9F4
102
{ACAD_REACTORS
330
9EF
102
}
330
9EF
100
AcDbXrecord
280
     1
270
     1
271
     1
  0
XRECORD
  5
9F3
102
{ACAD_REACTORS
330
9EF
102
}
330
9EF
100
AcDbXrecord
280
     1
270
     1
271
     1
  0
XRECORD
  5
9F5
102
{ACAD_REACTORS
330
9EF
102
}
330
9EF
100
AcDbXrecord
280
     1
270
     1
271
     1
  0
XRECORD
  5
9F2
102
{ACAD_REACTORS
330
9EF
102
}
330
9EF
100
AcDbXrecord
280
     1
270
     1
271
     1
  0
XRECORD
  5
1AA6
102
{ACAD_REACTORS
330
1AA5
102
}
330
1AA5
100
AcDbXrecord
280
     1
102
DISPLAYNAME
  1
Metric50
102
FLAGS
 90
        0
  0
CELLSTYLEMAP
  5
1A68
102
{ACAD_REACTORS
330
11E2
102
}
330
11E2
100
AcDbCellStyleMap
 90
        3
300
CELLSTYLE
  1
TABLEFORMAT_BEGIN
 90
        5
170
     1
 91
        0
 92
    32768
 62
   257
 93
        1
300
CONTENTFORMAT
  1
CONTENTFORMAT_BEGIN
 90
        0
 91
        0
 92
      512
 93
        0
300

 40
0.0
140
1.0
 94
        5
 62
     0
340
11
144
6.0
309
CONTENTFORMAT_END
171
     1
301
MARGIN
  1
CELLMARGIN_BEGIN
 40
1.5
 40
1.5
 40
1.5
 40
1.5
 40
0.18
 40
0.18
309
CELLMARGIN_END
 94
        6
 95
        1
302
GRIDFORMAT
  1
GRIDFORMAT_BEGIN
 90
        0
 91
        1
 62
     0
 92
       -2
340
0
 93
        0
 40
1.125
309
GRIDFORMAT_END
 95
        2
302
GRIDFORMAT
  1
GRIDFORMAT_BEGIN
 90
        0
 91
        1
 62
     0
 92
       -2
340
0
 93
        0
 40
1.125
309
GRIDFORMAT_END
 95
        4
302
GRIDFORMAT
  1
GRIDFORMAT_BEGIN
 90
        0
 91
        1
 62
     0
 92
       -2
340
0
 93
        0
 40
1.125
309
GRIDFORMAT_END
 95
        8
302
GRIDFORMAT
  1
GRIDFORMAT_BEGIN
 90
        0
 91
        1
 62
     0
 92
       -2
340
0
 93
        0
 40
1.125
309
GRIDFORMAT_END
 95
       16
302
GRIDFORMAT
  1
GRIDFORMAT_BEGIN
 90
        0
 91
        1
 62
     0
 92
       -2
340
0
 93
        0
 40
1.125
309
GRIDFORMAT_END
 95
       32
302
GRIDFORMAT
  1
GRIDFORMAT_BEGIN
 90
        0
 91
        1
 62
     0
 92
       -2
340
0
 93
        0
 40
1.125
309
GRIDFORMAT_END
309
TABLEFORMAT_END
  1
CELLSTYLE_BEGIN
 90
        1
 91
        1
300
_TITLE
309
CELLSTYLE_END
300
CELLSTYLE
  1
TABLEFORMAT_BEGIN
 90
        5
170
     1
 91
        0
 92
        0
 62
   257
 93
        1
300
CONTENTFORMAT
  1
CONTENTFORMAT_BEGIN
 90
        0
 91
        0
 92
      512
 93
        0
300

 40
0.0
140
1.0
 94
        5
 62
     0
340
11
144
4.5
309
CONTENTFORMAT_END
171
     1
301
MARGIN
  1
CELLMARGIN_BEGIN
 40
1.5
 40
1.5
 40
1.5
 40
1.5
 40
0.18
 40
0.18
309
CELLMARGIN_END
 94
        6
 95
        1
302
GRIDFORMAT
  1
GRIDFORMAT_BEGIN
 90
        0
 91
        1
 62
     0
 92
       -2
340
0
 93
        0
 40
1.125
309
GRIDFORMAT_END
 95
        2
302
GRIDFORMAT
  1
GRIDFORMAT_BEGIN
 90
        0
 91
        1
 62
     0
 92
       -2
340
0
 93
        0
 40
1.125
309
GRIDFORMAT_END
 95
        4
302
GRIDFORMAT
  1
GRIDFORMAT_BEGIN
 90
        0
 91
        1
 62
     0
 92
       -2
340
0
 93
        0
 40
1.125
309
GRIDFORMAT_END
 95
        8
302
GRIDFORMAT
  1
GRIDFORMAT_BEGIN
 90
        0
 91
        1
 62
     0
 92
       -2
340
0
 93
        0
 40
1.125
309
GRIDFORMAT_END
 95
       16
302
GRIDFORMAT
  1
GRIDFORMAT_BEGIN
 90
        0
 91
        1
 62
     0
 92
       -2
340
0
 93
        0
 40
1.125
309
GRIDFORMAT_END
 95
       32
302
GRIDFORMAT
  1
GRIDFORMAT_BEGIN
 90
        0
 91
        1
 62
     0
 92
       -2
340
0
 93
        0
 40
1.125
309
GRIDFORMAT_END
309
TABLEFORMAT_END
  1
CELLSTYLE_BEGIN
 90
        2
 91
        1
300
_HEADER
309
CELLSTYLE_END
300
CELLSTYLE
  1
TABLEFORMAT_BEGIN
 90
        5
170
     1
 91
        0
 92
        0
 62
   257
 93
        1
300
CONTENTFORMAT
  1
CONTENTFORMAT_BEGIN
 90
        0
 91
        0
 92
      512
 93
        0
300

 40
0.0
140
1.0
 94
        2
 62
     0
340
11
144
4.5
309
CONTENTFORMAT_END
171
     1
301
MARGIN
  1
CELLMARGIN_BEGIN
 40
1.5
 40
1.5
 40
1.5
 40
1.5
 40
0.18
 40
0.18
309
CELLMARGIN_END
 94
        6
 95
        1
302
GRIDFORMAT
  1
GRIDFORMAT_BEGIN
 90
        0
 91
        1
 62
     0
 92
       -2
340
0
 93
        0
 40
1.125
309
GRIDFORMAT_END
 95
        2
302
GRIDFORMAT
  1
GRIDFORMAT_BEGIN
 90
        0
 91
        1
 62
     0
 92
       -2
340
0
 93
        0
 40
1.125
309
GRIDFORMAT_END
 95
        4
302
GRIDFORMAT
  1
GRIDFORMAT_BEGIN
 90
        0
 91
        1
 62
     0
 92
       -2
340
0
 93
        0
 40
1.125
309
GRIDFORMAT_END
 95
        8
302
GRIDFORMAT
  1
GRIDFORMAT_BEGIN
 90
        0
 91
        1
 62
     0
 92
       -2
340
0
 93
        0
 40
1.125
309
GRIDFORMAT_END
 95
       16
302
GRIDFORMAT
  1
GRIDFORMAT_BEGIN
 90
        0
 91
        1
 62
     0
 92
       -2
340
0
 93
        0
 40
1.125
309
GRIDFORMAT_END
 95
       32
302
GRIDFORMAT
  1
GRIDFORMAT_BEGIN
 90
        0
 91
        1
 62
     0
 92
       -2
340
0
 93
        0
 40
1.125
309
GRIDFORMAT_END
309
TABLEFORMAT_END
  1
CELLSTYLE_BEGIN
 90
        3
 91
        2
300
_DATA
309
CELLSTYLE_END
  0
XRECORD
  5
1AA4
102
{ACAD_REACTORS
330
11E2
102
}
330
11E2
100
AcDbXrecord
280
     1
102
ACAD_ROUNDTRIP_PRE2007_TABLESTYLE
 90
      512
 91
        0
  1

 92
      512
 93
        0
  2

 94
      512
 95
        0
  3

  0
XRECORD
  5
1A7F
102
{ACAD_REACTORS
330
1A7E
102
}
330
1A7E
100
AcDbXrecord
280
     1
102
RTVSPost2010Prop28
280
     1
102
RTVSPost2010PropOp28
 70
     1
102
RTVSPost2010Prop29
280
     1
102
RTVSPost2010PropOp29
 70
     1
102
RTVSPost2010Prop30
280
     0
102
RTVSPost2010PropOp30
 70
     1
102
RTVSPost2010Prop31
280
     0
102
RTVSPost2010PropOp31
 70
     1
102
RTVSPost2010Prop32
280
     0
102
RTVSPost2010PropOp32
 70
     1
102
RTVSPost2010Prop33
280
     0
102
RTVSPost2010PropOp33
 70
     1
102
RTVSPost2010Prop34
280
     0
102
RTVSPost2010PropOp34
 70
     1
102
RTVSPost2010Prop35
280
     0
102
RTVSPost2010PropOp35
 70
     1
102
RTVSPost2010Prop36
280
     0
102
RTVSPost2010PropOp36
 70
     1
102
RTVSPost2010Prop37
 90
       50
102
RTVSPost2010PropOp37
 70
     1
102
RTVSPost2010Prop38
140
0.0
102
RTVSPost2010PropOp38
 70
     1
102
RTVSPost2010Prop39
140
1.0
102
RTVSPost2010PropOp39
 70
     1
102
RTVSPost2010Prop40
 90
        0
102
RTVSPost2010PropOp40
 70
     1
102
RTVSPost2010Prop41ColorIndex
 90
       18
102
RTVSPost2010Prop41ColorRGB
 90
        0
102
RTVSPost2010PropOp41
 70
     1
102
RTVSPost2010Prop42
 90
       50
102
RTVSPost2010PropOp42
 70
     1
102
RTVSPost2010Prop43
 90
        3
102
RTVSPost2010PropOp43
 70
     1
102
RTVSPost2010Prop44ColorIndex
 90
        5
102
RTVSPost2010Prop44ColorRGB
 90
      255
102
RTVSPost2010PropOp44
 70
     1
102
RTVSPost2010Prop45
280
     0
102
RTVSPost2010PropOp45
 70
     1
102
RTVSPost2010Prop46
 90
       50
102
RTVSPost2010PropOp46
 70
     1
102
RTVSPost2010Prop47
 90
       50
102
RTVSPost2010PropOp47
 70
     1
102
RTVSPost2010Prop48
 90
       50
102
RTVSPost2010PropOp48
 70
     1
102
RTVSPost2010Prop49
280
     0
102
RTVSPost2010PropOp49
 70
     1
102
RTVSPost2010Prop50
 90
       50
102
RTVSPost2010PropOp50
 70
     1
102
RTVSPost2010Prop51ColorIndex
 90
      256
102
RTVSPost2010Prop51ColorRGB
 90
-16777216
102
RTVSPost2010PropOp51
 70
     0
102
RTVSPost2010Prop52
140
1.0
102
RTVSPost2010PropOp52
 70
     0
102
RTVSPost2010Prop53
 90
        2
102
RTVSPost2010PropOp53
 70
     1
102
RTVSPost2010Prop54
  1
strokes_ogs.tif
102
RTVSPost2010PropOp54
 70
     1
102
RTVSPost2010Prop55
280
     0
102
RTVSPost2010PropOp55
 70
     1
102
RTVSPost2010Prop56
140
1.0
102
RTVSPost2010PropOp56
 70
     1
102
RTVSPost2010Prop57
140
1.0
102
RTVSPost2010PropOp57
 70
     1
102
RTVSPropertyOp0
 70
     1
102
RTVSPropertyOp1
 70
     1
102
RTVSPropertyOp2
 70
     1
102
RTVSPropertyOp3
 70
     1
102
RTVSPropertyOp4
 70
     1
102
RTVSPropertyOp5
 70
     1
102
RTVSPropertyOp6
 70
     1
102
RTVSPropertyOp7
 70
     1
102
RTVSPropertyOp8
 70
     1
102
RTVSPropertyOp9
 70
     1
102
RTVSPropertyOp10
 70
     1
102
RTVSPropertyOp11
 70
     1
102
RTVSPropertyOp12
 70
     1
102
RTVSPropertyOp13
 70
     1
102
RTVSPropertyOp14
 70
     1
102
RTVSPropertyOp15
 70
     1
102
RTVSPropertyOp16
 70
     1
102
RTVSPropertyOp17
 70
     1
102
RTVSPropertyOp18
 70
     1
102
RTVSPropertyOp19
 70
     1
102
RTVSPropertyOp20
 70
     1
102
RTVSPropertyOp21
 70
     1
102
RTVSPropertyOp22
 70
     1
102
RTVSPropertyOp23
 70
     1
102
RTVSPropertyOp24
 70
     1
102
RTVSPropertyOp25
 70
     1
102
RTVSPropertyOp26
 70
     1
102
RTVSPropertyOp27
 70
     1
102
RTVSPropertyOp28
 70
     1
102
RTVSPropertyOp29
 70
     1
102
RTVSPropertyOp30
 70
     1
102
RTVSPropertyOp31
 70
     1
102
RTVSPropertyOp32
 70
     1
102
RTVSPropertyOp33
 70
     1
102
RTVSPropertyOp34
 70
     1
102
RTVSPropertyOp35
 70
     1
102
RTVSPropertyOp36
 70
     1
102
RTVSPropertyOp37
 70
     1
102
RTVSPropertyOp38
 70
     1
102
RTVSPropertyOp39
 70
     1
102
RTVSPropertyOp40
 70
     1
102
RTVSPropertyOp41
 70
     1
102
RTVSPropertyOp42
 70
     1
102
RTVSPropertyOp43
 70
     1
102
RTVSPropertyOp44
 70
     1
102
RTVSPropertyOp45
 70
     1
102
RTVSPropertyOp46
 70
     1
102
RTVSPropertyOp47
 70
     1
102
RTVSPropertyOp48
 70
     1
102
RTVSPropertyOp49
 70
     1
102
RTVSPropertyOp50
 70
     1
102
RTVSPropertyOp51
 70
     0
102
RTVSPropertyOp52
 70
     0
102
RTVSPropertyOp53
 70
     1
102
RTVSPropertyOp54
 70
     1
102
RTVSPropertyOp55
 70
     1
102
RTVSPropertyOp56
 70
     1
102
RTVSPropertyOp57
 70
     1
102
RTVSPropertyOp58
 70
     1
102
RTVSPropertyOp59
 70
     1
102
RTVSPropertyOp60
 70
     1
102
RTVSPropertyOp61
 70
     1
102
RTVSPropertyOp62
 70
     1
  0
XRECORD
  5
1A7D
102
{ACAD_REACTORS
330
1A7C
102
}
330
1A7C
100
AcDbXrecord
280
     1
102
RTVSPost2010Prop28
280
     0
102
RTVSPost2010PropOp28
 70
     1
102
RTVSPost2010Prop29
280
     1
102
RTVSPost2010PropOp29
 70
     1
102
RTVSPost2010Prop30
280
     1
102
RTVSPost2010PropOp30
 70
     1
102
RTVSPost2010Prop31
280
     0
102
RTVSPost2010PropOp31
 70
     1
102
RTVSPost2010Prop32
280
     0
102
RTVSPost2010PropOp32
 70
     1
102
RTVSPost2010Prop33
280
     0
102
RTVSPost2010PropOp33
 70
     1
102
RTVSPost2010Prop34
280
     0
102
RTVSPost2010PropOp34
 70
     1
102
RTVSPost2010Prop35
280
     0
102
RTVSPost2010PropOp35
 70
     1
102
RTVSPost2010Prop36
280
     0
102
RTVSPost2010PropOp36
 70
     1
102
RTVSPost2010Prop37
 90
       50
102
RTVSPost2010PropOp37
 70
     1
102
RTVSPost2010Prop38
140
0.0
102
RTVSPost2010PropOp38
 70
     1
102
RTVSPost2010Prop39
140
1.0
102
RTVSPost2010PropOp39
 70
     1
102
RTVSPost2010Prop40
 90
        0
102
RTVSPost2010PropOp40
 70
     1
102
RTVSPost2010Prop41ColorIndex
 90
       18
102
RTVSPost2010Prop41ColorRGB
 90
        0
102
RTVSPost2010PropOp41
 70
     1
102
RTVSPost2010Prop42
 90
       50
102
RTVSPost2010PropOp42
 70
     1
102
RTVSPost2010Prop43
 90
        3
102
RTVSPost2010PropOp43
 70
     1
102
RTVSPost2010Prop44ColorIndex
 90
        5
102
RTVSPost2010Prop44ColorRGB
 90
      255
102
RTVSPost2010PropOp44
 70
     1
102
RTVSPost2010Prop45
280
     0
102
RTVSPost2010PropOp45
 70
     1
102
RTVSPost2010Prop46
 90
       50
102
RTVSPost2010PropOp46
 70
     1
102
RTVSPost2010Prop47
 90
       50
102
RTVSPost2010PropOp47
 70
     1
102
RTVSPost2010Prop48
 90
       50
102
RTVSPost2010PropOp48
 70
     1
102
RTVSPost2010Prop49
280
     0
102
RTVSPost2010PropOp49
 70
     1
102
RTVSPost2010Prop50
 90
       50
102
RTVSPost2010PropOp50
 70
     1
102
RTVSPost2010Prop51ColorIndex
 90
      256
102
RTVSPost2010Prop51ColorRGB
 90
-16777216
102
RTVSPost2010PropOp51
 70
     0
102
RTVSPost2010Prop52
140
1.0
102
RTVSPost2010PropOp52
 70
     0
102
RTVSPost2010Prop53
 90
        2
102
RTVSPost2010PropOp53
 70
     1
102
RTVSPost2010Prop54
  1
strokes_ogs.tif
102
RTVSPost2010PropOp54
 70
     1
102
RTVSPost2010Prop55
280
     0
102
RTVSPost2010PropOp55
 70
     1
102
RTVSPost2010Prop56
140
1.0
102
RTVSPost2010PropOp56
 70
     1
102
RTVSPost2010Prop57
140
1.0
102
RTVSPost2010PropOp57
 70
     1
102
RTVSPropertyOp0
 70
     1
102
RTVSPropertyOp1
 70
     1
102
RTVSPropertyOp2
 70
     1
102
RTVSPropertyOp3
 70
     1
102
RTVSPropertyOp4
 70
     1
102
RTVSPropertyOp5
 70
     1
102
RTVSPropertyOp6
 70
     1
102
RTVSPropertyOp7
 70
     1
102
RTVSPropertyOp8
 70
     1
102
RTVSPropertyOp9
 70
     1
102
RTVSPropertyOp10
 70
     1
102
RTVSPropertyOp11
 70
     1
102
RTVSPropertyOp12
 70
     1
102
RTVSPropertyOp13
 70
     1
102
RTVSPropertyOp14
 70
     1
102
RTVSPropertyOp15
 70
     1
102
RTVSPropertyOp16
 70
     1
102
RTVSPropertyOp17
 70
     1
102
RTVSPropertyOp18
 70
     1
102
RTVSPropertyOp19
 70
     1
102
RTVSPropertyOp20
 70
     1
102
RTVSPropertyOp21
 70
     1
102
RTVSPropertyOp22
 70
     1
102
RTVSPropertyOp23
 70
     1
102
RTVSPropertyOp24
 70
     1
102
RTVSPropertyOp25
 70
     1
102
RTVSPropertyOp26
 70
     1
102
RTVSPropertyOp27
 70
     1
102
RTVSPropertyOp28
 70
     1
102
RTVSPropertyOp29
 70
     1
102
RTVSPropertyOp30
 70
     1
102
RTVSPropertyOp31
 70
     1
102
RTVSPropertyOp32
 70
     1
102
RTVSPropertyOp33
 70
     1
102
RTVSPropertyOp34
 70
     1
102
RTVSPropertyOp35
 70
     1
102
RTVSPropertyOp36
 70
     1
102
RTVSPropertyOp37
 70
     1
102
RTVSPropertyOp38
 70
     1
102
RTVSPropertyOp39
 70
     1
102
RTVSPropertyOp40
 70
     1
102
RTVSPropertyOp41
 70
     1
102
RTVSPropertyOp42
 70
     1
102
RTVSPropertyOp43
 70
     1
102
RTVSPropertyOp44
 70
     1
102
RTVSPropertyOp45
 70
     1
102
RTVSPropertyOp46
 70
     1
102
RTVSPropertyOp47
 70
     1
102
RTVSPropertyOp48
 70
     1
102
RTVSPropertyOp49
 70
     1
102
RTVSPropertyOp50
 70
     1
102
RTVSPropertyOp51
 70
     0
102
RTVSPropertyOp52
 70
     0
102
RTVSPropertyOp53
 70
     1
102
RTVSPropertyOp54
 70
     1
102
RTVSPropertyOp55
 70
     1
102
RTVSPropertyOp56
 70
     1
102
RTVSPropertyOp57
 70
     1
102
RTVSPropertyOp58
 70
     1
102
RTVSPropertyOp59
 70
     1
102
RTVSPropertyOp60
 70
     1
102
RTVSPropertyOp61
 70
     1
102
RTVSPropertyOp62
 70
     1
  0
XRECORD
  5
1A8B
102
{ACAD_REACTORS
330
1A8A
102
}
330
1A8A
100
AcDbXrecord
280
     1
102
RTVSPost2010Prop28
280
     0
102
RTVSPost2010PropOp28
 70
     1
102
RTVSPost2010Prop29
280
     1
102
RTVSPost2010PropOp29
 70
     1
102
RTVSPost2010Prop30
280
     1
102
RTVSPost2010PropOp30
 70
     1
102
RTVSPost2010Prop31
280
     0
102
RTVSPost2010PropOp31
 70
     1
102
RTVSPost2010Prop32
280
     0
102
RTVSPost2010PropOp32
 70
     1
102
RTVSPost2010Prop33
280
     0
102
RTVSPost2010PropOp33
 70
     1
102
RTVSPost2010Prop34
280
     0
102
RTVSPost2010PropOp34
 70
     1
102
RTVSPost2010Prop35
280
     0
102
RTVSPost2010PropOp35
 70
     1
102
RTVSPost2010Prop36
280
     0
102
RTVSPost2010PropOp36
 70
     1
102
RTVSPost2010Prop37
 90
       50
102
RTVSPost2010PropOp37
 70
     1
102
RTVSPost2010Prop38
140
0.0
102
RTVSPost2010PropOp38
 70
     1
102
RTVSPost2010Prop39
140
1.0
102
RTVSPost2010PropOp39
 70
     1
102
RTVSPost2010Prop40
 90
        0
102
RTVSPost2010PropOp40
 70
     1
102
RTVSPost2010Prop41ColorIndex
 90
       18
102
RTVSPost2010Prop41ColorRGB
 90
        0
102
RTVSPost2010PropOp41
 70
     1
102
RTVSPost2010Prop42
 90
       50
102
RTVSPost2010PropOp42
 70
     1
102
RTVSPost2010Prop43
 90
        3
102
RTVSPost2010PropOp43
 70
     1
102
RTVSPost2010Prop44ColorIndex
 90
        5
102
RTVSPost2010Prop44ColorRGB
 90
      255
102
RTVSPost2010PropOp44
 70
     1
102
RTVSPost2010Prop45
280
     0
102
RTVSPost2010PropOp45
 70
     1
102
RTVSPost2010Prop46
 90
       50
102
RTVSPost2010PropOp46
 70
     1
102
RTVSPost2010Prop47
 90
       50
102
RTVSPost2010PropOp47
 70
     1
102
RTVSPost2010Prop48
 90
       50
102
RTVSPost2010PropOp48
 70
     1
102
RTVSPost2010Prop49
280
     0
102
RTVSPost2010PropOp49
 70
     1
102
RTVSPost2010Prop50
 90
       50
102
RTVSPost2010PropOp50
 70
     1
102
RTVSPost2010Prop51ColorIndex
 90
      256
102
RTVSPost2010Prop51ColorRGB
 90
-16777216
102
RTVSPost2010PropOp51
 70
     0
102
RTVSPost2010Prop52
140
1.0
102
RTVSPost2010PropOp52
 70
     0
102
RTVSPost2010Prop53
 90
        2
102
RTVSPost2010PropOp53
 70
     1
102
RTVSPost2010Prop54
  1
strokes_ogs.tif
102
RTVSPost2010PropOp54
 70
     1
102
RTVSPost2010Prop55
280
     0
102
RTVSPost2010PropOp55
 70
     1
102
RTVSPost2010Prop56
140
1.0
102
RTVSPost2010PropOp56
 70
     1
102
RTVSPost2010Prop57
140
1.0
102
RTVSPost2010PropOp57
 70
     1
102
RTVSPropertyOp0
 70
     1
102
RTVSPropertyOp1
 70
     1
102
RTVSPropertyOp2
 70
     1
102
RTVSPropertyOp3
 70
     1
102
RTVSPropertyOp4
 70
     1
102
RTVSPropertyOp5
 70
     1
102
RTVSPropertyOp6
 70
     1
102
RTVSPropertyOp7
 70
     1
102
RTVSPropertyOp8
 70
     1
102
RTVSPropertyOp9
 70
     1
102
RTVSPropertyOp10
 70
     1
102
RTVSPropertyOp11
 70
     1
102
RTVSPropertyOp12
 70
     1
102
RTVSPropertyOp13
 70
     1
102
RTVSPropertyOp14
 70
     1
102
RTVSPropertyOp15
 70
     1
102
RTVSPropertyOp16
 70
     1
102
RTVSPropertyOp17
 70
     1
102
RTVSPropertyOp18
 70
     1
102
RTVSPropertyOp19
 70
     1
102
RTVSPropertyOp20
 70
     1
102
RTVSPropertyOp21
 70
     1
102
RTVSPropertyOp22
 70
     1
102
RTVSPropertyOp23
 70
     1
102
RTVSPropertyOp24
 70
     1
102
RTVSPropertyOp25
 70
     1
102
RTVSPropertyOp26
 70
     1
102
RTVSPropertyOp27
 70
     1
102
RTVSPropertyOp28
 70
     1
102
RTVSPropertyOp29
 70
     1
102
RTVSPropertyOp30
 70
     1
102
RTVSPropertyOp31
 70
     1
102
RTVSPropertyOp32
 70
     1
102
RTVSPropertyOp33
 70
     1
102
RTVSPropertyOp34
 70
     1
102
RTVSPropertyOp35
 70
     1
102
RTVSPropertyOp36
 70
     1
102
RTVSPropertyOp37
 70
     1
102
RTVSPropertyOp38
 70
     1
102
RTVSPropertyOp39
 70
     1
102
RTVSPropertyOp40
 70
     1
102
RTVSPropertyOp41
 70
     1
102
RTVSPropertyOp42
 70
     1
102
RTVSPropertyOp43
 70
     1
102
RTVSPropertyOp44
 70
     1
102
RTVSPropertyOp45
 70
     1
102
RTVSPropertyOp46
 70
     1
102
RTVSPropertyOp47
 70
     1
102
RTVSPropertyOp48
 70
     1
102
RTVSPropertyOp49
 70
     1
102
RTVSPropertyOp50
 70
     1
102
RTVSPropertyOp51
 70
     0
102
RTVSPropertyOp52
 70
     0
102
RTVSPropertyOp53
 70
     1
102
RTVSPropertyOp54
 70
     1
102
RTVSPropertyOp55
 70
     1
102
RTVSPropertyOp56
 70
     1
102
RTVSPropertyOp57
 70
     1
102
RTVSPropertyOp58
 70
     1
102
RTVSPropertyOp59
 70
     1
102
RTVSPropertyOp60
 70
     1
102
RTVSPropertyOp61
 70
     1
102
RTVSPropertyOp62
 70
     1
  0
XRECORD
  5
1A93
102
{ACAD_REACTORS
330
1A92
102
}
330
1A92
100
AcDbXrecord
280
     1
102
RTVSPost2010Prop28
280
     0
102
RTVSPost2010PropOp28
 70
     1
102
RTVSPost2010Prop29
280
     1
102
RTVSPost2010PropOp29
 70
     1
102
RTVSPost2010Prop30
280
     1
102
RTVSPost2010PropOp30
 70
     1
102
RTVSPost2010Prop31
280
     0
102
RTVSPost2010PropOp31
 70
     1
102
RTVSPost2010Prop32
280
     0
102
RTVSPost2010PropOp32
 70
     1
102
RTVSPost2010Prop33
280
     0
102
RTVSPost2010PropOp33
 70
     1
102
RTVSPost2010Prop34
280
     0
102
RTVSPost2010PropOp34
 70
     1
102
RTVSPost2010Prop35
280
     0
102
RTVSPost2010PropOp35
 70
     1
102
RTVSPost2010Prop36
280
     0
102
RTVSPost2010PropOp36
 70
     1
102
RTVSPost2010Prop37
 90
       50
102
RTVSPost2010PropOp37
 70
     1
102
RTVSPost2010Prop38
140
0.0
102
RTVSPost2010PropOp38
 70
     1
102
RTVSPost2010Prop39
140
1.0
102
RTVSPost2010PropOp39
 70
     1
102
RTVSPost2010Prop40
 90
        0
102
RTVSPost2010PropOp40
 70
     1
102
RTVSPost2010Prop41ColorIndex
 90
       18
102
RTVSPost2010Prop41ColorRGB
 90
        0
102
RTVSPost2010PropOp41
 70
     1
102
RTVSPost2010Prop42
 90
       50
102
RTVSPost2010PropOp42
 70
     1
102
RTVSPost2010Prop43
 90
        3
102
RTVSPost2010PropOp43
 70
     1
102
RTVSPost2010Prop44ColorIndex
 90
        5
102
RTVSPost2010Prop44ColorRGB
 90
      255
102
RTVSPost2010PropOp44
 70
     1
102
RTVSPost2010Prop45
280
     0
102
RTVSPost2010PropOp45
 70
     1
102
RTVSPost2010Prop46
 90
       50
102
RTVSPost2010PropOp46
 70
     1
102
RTVSPost2010Prop47
 90
       50
102
RTVSPost2010PropOp47
 70
     1
102
RTVSPost2010Prop48
 90
       50
102
RTVSPost2010PropOp48
 70
     1
102
RTVSPost2010Prop49
280
     0
102
RTVSPost2010PropOp49
 70
     1
102
RTVSPost2010Prop50
 90
       50
102
RTVSPost2010PropOp50
 70
     1
102
RTVSPost2010Prop51ColorIndex
 90
      256
102
RTVSPost2010Prop51ColorRGB
 90
-16777216
102
RTVSPost2010PropOp51
 70
     0
102
RTVSPost2010Prop52
140
1.0
102
RTVSPost2010PropOp52
 70
     0
102
RTVSPost2010Prop53
 90
        2
102
RTVSPost2010PropOp53
 70
     1
102
RTVSPost2010Prop54
  1
strokes_ogs.tif
102
RTVSPost2010PropOp54
 70
     1
102
RTVSPost2010Prop55
280
     0
102
RTVSPost2010PropOp55
 70
     1
102
RTVSPost2010Prop56
140
1.0
102
RTVSPost2010PropOp56
 70
     1
102
RTVSPost2010Prop57
140
1.0
102
RTVSPost2010PropOp57
 70
     1
102
RTVSPropertyOp0
 70
     1
102
RTVSPropertyOp1
 70
     1
102
RTVSPropertyOp2
 70
     1
102
RTVSPropertyOp3
 70
     1
102
RTVSPropertyOp4
 70
     1
102
RTVSPropertyOp5
 70
     1
102
RTVSPropertyOp6
 70
     1
102
RTVSPropertyOp7
 70
     1
102
RTVSPropertyOp8
 70
     1
102
RTVSPropertyOp9
 70
     1
102
RTVSPropertyOp10
 70
     1
102
RTVSPropertyOp11
 70
     1
102
RTVSPropertyOp12
 70
     1
102
RTVSPropertyOp13
 70
     1
102
RTVSPropertyOp14
 70
     1
102
RTVSPropertyOp15
 70
     1
102
RTVSPropertyOp16
 70
     1
102
RTVSPropertyOp17
 70
     1
102
RTVSPropertyOp18
 70
     1
102
RTVSPropertyOp19
 70
     1
102
RTVSPropertyOp20
 70
     1
102
RTVSPropertyOp21
 70
     1
102
RTVSPropertyOp22
 70
     1
102
RTVSPropertyOp23
 70
     1
102
RTVSPropertyOp24
 70
     1
102
RTVSPropertyOp25
 70
     1
102
RTVSPropertyOp26
 70
     1
102
RTVSPropertyOp27
 70
     1
102
RTVSPropertyOp28
 70
     1
102
RTVSPropertyOp29
 70
     1
102
RTVSPropertyOp30
 70
     1
102
RTVSPropertyOp31
 70
     1
102
RTVSPropertyOp32
 70
     1
102
RTVSPropertyOp33
 70
     1
102
RTVSPropertyOp34
 70
     1
102
RTVSPropertyOp35
 70
     1
102
RTVSPropertyOp36
 70
     1
102
RTVSPropertyOp37
 70
     1
102
RTVSPropertyOp38
 70
     1
102
RTVSPropertyOp39
 70
     1
102
RTVSPropertyOp40
 70
     1
102
RTVSPropertyOp41
 70
     1
102
RTVSPropertyOp42
 70
     1
102
RTVSPropertyOp43
 70
     1
102
RTVSPropertyOp44
 70
     1
102
RTVSPropertyOp45
 70
     1
102
RTVSPropertyOp46
 70
     1
102
RTVSPropertyOp47
 70
     1
102
RTVSPropertyOp48
 70
     1
102
RTVSPropertyOp49
 70
     1
102
RTVSPropertyOp50
 70
     1
102
RTVSPropertyOp51
 70
     0
102
RTVSPropertyOp52
 70
     0
102
RTVSPropertyOp53
 70
     1
102
RTVSPropertyOp54
 70
     1
102
RTVSPropertyOp55
 70
     1
102
RTVSPropertyOp56
 70
     1
102
RTVSPropertyOp57
 70
     1
102
RTVSPropertyOp58
 70
     1
102
RTVSPropertyOp59
 70
     1
102
RTVSPropertyOp60
 70
     1
102
RTVSPropertyOp61
 70
     1
102
RTVSPropertyOp62
 70
     1
  0
XRECORD
  5
1A85
102
{ACAD_REACTORS
330
1A84
102
}
330
1A84
100
AcDbXrecord
280
     1
102
RTVSPost2010Prop28
280
     0
102
RTVSPost2010PropOp28
 70
     1
102
RTVSPost2010Prop29
280
     1
102
RTVSPost2010PropOp29
 70
     1
102
RTVSPost2010Prop30
280
     1
102
RTVSPost2010PropOp30
 70
     1
102
RTVSPost2010Prop31
280
     0
102
RTVSPost2010PropOp31
 70
     1
102
RTVSPost2010Prop32
280
     0
102
RTVSPost2010PropOp32
 70
     1
102
RTVSPost2010Prop33
280
     0
102
RTVSPost2010PropOp33
 70
     1
102
RTVSPost2010Prop34
280
     0
102
RTVSPost2010PropOp34
 70
     1
102
RTVSPost2010Prop35
280
     0
102
RTVSPost2010PropOp35
 70
     1
102
RTVSPost2010Prop36
280
     0
102
RTVSPost2010PropOp36
 70
     1
102
RTVSPost2010Prop37
 90
       50
102
RTVSPost2010PropOp37
 70
     1
102
RTVSPost2010Prop38
140
0.0
102
RTVSPost2010PropOp38
 70
     1
102
RTVSPost2010Prop39
140
1.0
102
RTVSPost2010PropOp39
 70
     1
102
RTVSPost2010Prop40
 90
        0
102
RTVSPost2010PropOp40
 70
     1
102
RTVSPost2010Prop41ColorIndex
 90
       18
102
RTVSPost2010Prop41ColorRGB
 90
        0
102
RTVSPost2010PropOp41
 70
     1
102
RTVSPost2010Prop42
 90
       50
102
RTVSPost2010PropOp42
 70
     1
102
RTVSPost2010Prop43
 90
        3
102
RTVSPost2010PropOp43
 70
     1
102
RTVSPost2010Prop44ColorIndex
 90
        5
102
RTVSPost2010Prop44ColorRGB
 90
      255
102
RTVSPost2010PropOp44
 70
     1
102
RTVSPost2010Prop45
280
     0
102
RTVSPost2010PropOp45
 70
     1
102
RTVSPost2010Prop46
 90
       50
102
RTVSPost2010PropOp46
 70
     1
102
RTVSPost2010Prop47
 90
       50
102
RTVSPost2010PropOp47
 70
     1
102
RTVSPost2010Prop48
 90
       50
102
RTVSPost2010PropOp48
 70
     1
102
RTVSPost2010Prop49
280
     0
102
RTVSPost2010PropOp49
 70
     1
102
RTVSPost2010Prop50
 90
       50
102
RTVSPost2010PropOp50
 70
     1
102
RTVSPost2010Prop51ColorIndex
 90
      256
102
RTVSPost2010Prop51ColorRGB
 90
-16777216
102
RTVSPost2010PropOp51
 70
     0
102
RTVSPost2010Prop52
140
1.0
102
RTVSPost2010PropOp52
 70
     0
102
RTVSPost2010Prop53
 90
        2
102
RTVSPost2010PropOp53
 70
     1
102
RTVSPost2010Prop54
  1
strokes_ogs.tif
102
RTVSPost2010PropOp54
 70
     1
102
RTVSPost2010Prop55
280
     0
102
RTVSPost2010PropOp55
 70
     1
102
RTVSPost2010Prop56
140
1.0
102
RTVSPost2010PropOp56
 70
     1
102
RTVSPost2010Prop57
140
1.0
102
RTVSPost2010PropOp57
 70
     1
102
RTVSPropertyOp0
 70
     1
102
RTVSPropertyOp1
 70
     1
102
RTVSPropertyOp2
 70
     1
102
RTVSPropertyOp3
 70
     1
102
RTVSPropertyOp4
 70
     1
102
RTVSPropertyOp5
 70
     1
102
RTVSPropertyOp6
 70
     1
102
RTVSPropertyOp7
 70
     1
102
RTVSPropertyOp8
 70
     1
102
RTVSPropertyOp9
 70
     1
102
RTVSPropertyOp10
 70
     1
102
RTVSPropertyOp11
 70
     1
102
RTVSPropertyOp12
 70
     1
102
RTVSPropertyOp13
 70
     1
102
RTVSPropertyOp14
 70
     1
102
RTVSPropertyOp15
 70
     1
102
RTVSPropertyOp16
 70
     1
102
RTVSPropertyOp17
 70
     1
102
RTVSPropertyOp18
 70
     1
102
RTVSPropertyOp19
 70
     1
102
RTVSPropertyOp20
 70
     1
102
RTVSPropertyOp21
 70
     1
102
RTVSPropertyOp22
 70
     1
102
RTVSPropertyOp23
 70
     1
102
RTVSPropertyOp24
 70
     1
102
RTVSPropertyOp25
 70
     1
102
RTVSPropertyOp26
 70
     1
102
RTVSPropertyOp27
 70
     1
102
RTVSPropertyOp28
 70
     1
102
RTVSPropertyOp29
 70
     1
102
RTVSPropertyOp30
 70
     1
102
RTVSPropertyOp31
 70
     1
102
RTVSPropertyOp32
 70
     1
102
RTVSPropertyOp33
 70
     1
102
RTVSPropertyOp34
 70
     1
102
RTVSPropertyOp35
 70
     1
102
RTVSPropertyOp36
 70
     1
102
RTVSPropertyOp37
 70
     1
102
RTVSPropertyOp38
 70
     1
102
RTVSPropertyOp39
 70
     1
102
RTVSPropertyOp40
 70
     1
102
RTVSPropertyOp41
 70
     1
102
RTVSPropertyOp42
 70
     1
102
RTVSPropertyOp43
 70
     1
102
RTVSPropertyOp44
 70
     1
102
RTVSPropertyOp45
 70
     1
102
RTVSPropertyOp46
 70
     1
102
RTVSPropertyOp47
 70
     1
102
RTVSPropertyOp48
 70
     1
102
RTVSPropertyOp49
 70
     1
102
RTVSPropertyOp50
 70
     1
102
RTVSPropertyOp51
 70
     0
102
RTVSPropertyOp52
 70
     0
102
RTVSPropertyOp53
 70
     1
102
RTVSPropertyOp54
 70
     1
102
RTVSPropertyOp55
 70
     1
102
RTVSPropertyOp56
 70
     1
102
RTVSPropertyOp57
 70
     1
102
RTVSPropertyOp58
 70
     1
102
RTVSPropertyOp59
 70
     1
102
RTVSPropertyOp60
 70
     1
102
RTVSPropertyOp61
 70
     1
102
RTVSPropertyOp62
 70
     1
  0
XRECORD
  5
1A89
102
{ACAD_REACTORS
330
1A88
102
}
330
1A88
100
AcDbXrecord
280
     1
102
RTVSPost2010Prop28
280
     0
102
RTVSPost2010PropOp28
 70
     1
102
RTVSPost2010Prop29
280
     1
102
RTVSPost2010PropOp29
 70
     1
102
RTVSPost2010Prop30
280
     1
102
RTVSPost2010PropOp30
 70
     1
102
RTVSPost2010Prop31
280
     0
102
RTVSPost2010PropOp31
 70
     1
102
RTVSPost2010Prop32
280
     0
102
RTVSPost2010PropOp32
 70
     1
102
RTVSPost2010Prop33
280
     0
102
RTVSPost2010PropOp33
 70
     1
102
RTVSPost2010Prop34
280
     0
102
RTVSPost2010PropOp34
 70
     1
102
RTVSPost2010Prop35
280
     0
102
RTVSPost2010PropOp35
 70
     1
102
RTVSPost2010Prop36
280
     0
102
RTVSPost2010PropOp36
 70
     1
102
RTVSPost2010Prop37
 90
       50
102
RTVSPost2010PropOp37
 70
     1
102
RTVSPost2010Prop38
140
0.0
102
RTVSPost2010PropOp38
 70
     1
102
RTVSPost2010Prop39
140
1.0
102
RTVSPost2010PropOp39
 70
     1
102
RTVSPost2010Prop40
 90
        0
102
RTVSPost2010PropOp40
 70
     1
102
RTVSPost2010Prop41ColorIndex
 90
       18
102
RTVSPost2010Prop41ColorRGB
 90
        0
102
RTVSPost2010PropOp41
 70
     1
102
RTVSPost2010Prop42
 90
       50
102
RTVSPost2010PropOp42
 70
     1
102
RTVSPost2010Prop43
 90
        3
102
RTVSPost2010PropOp43
 70
     1
102
RTVSPost2010Prop44ColorIndex
 90
        5
102
RTVSPost2010Prop44ColorRGB
 90
      255
102
RTVSPost2010PropOp44
 70
     1
102
RTVSPost2010Prop45
280
     0
102
RTVSPost2010PropOp45
 70
     1
102
RTVSPost2010Prop46
 90
       50
102
RTVSPost2010PropOp46
 70
     1
102
RTVSPost2010Prop47
 90
       50
102
RTVSPost2010PropOp47
 70
     1
102
RTVSPost2010Prop48
 90
       50
102
RTVSPost2010PropOp48
 70
     1
102
RTVSPost2010Prop49
280
     0
102
RTVSPost2010PropOp49
 70
     1
102
RTVSPost2010Prop50
 90
       50
102
RTVSPost2010PropOp50
 70
     1
102
RTVSPost2010Prop51ColorIndex
 90
      256
102
RTVSPost2010Prop51ColorRGB
 90
-16777216
102
RTVSPost2010PropOp51
 70
     0
102
RTVSPost2010Prop52
140
1.0
102
RTVSPost2010PropOp52
 70
     0
102
RTVSPost2010Prop53
 90
        2
102
RTVSPost2010PropOp53
 70
     1
102
RTVSPost2010Prop54
  1
strokes_ogs.tif
102
RTVSPost2010PropOp54
 70
     1
102
RTVSPost2010Prop55
280
     0
102
RTVSPost2010PropOp55
 70
     1
102
RTVSPost2010Prop56
140
1.0
102
RTVSPost2010PropOp56
 70
     1
102
RTVSPost2010Prop57
140
1.0
102
RTVSPost2010PropOp57
 70
     1
102
RTVSPropertyOp0
 70
     1
102
RTVSPropertyOp1
 70
     1
102
RTVSPropertyOp2
 70
     1
102
RTVSPropertyOp3
 70
     1
102
RTVSPropertyOp4
 70
     1
102
RTVSPropertyOp5
 70
     1
102
RTVSPropertyOp6
 70
     1
102
RTVSPropertyOp7
 70
     1
102
RTVSPropertyOp8
 70
     1
102
RTVSPropertyOp9
 70
     1
102
RTVSPropertyOp10
 70
     1
102
RTVSPropertyOp11
 70
     1
102
RTVSPropertyOp12
 70
     1
102
RTVSPropertyOp13
 70
     1
102
RTVSPropertyOp14
 70
     1
102
RTVSPropertyOp15
 70
     1
102
RTVSPropertyOp16
 70
     1
102
RTVSPropertyOp17
 70
     1
102
RTVSPropertyOp18
 70
     1
102
RTVSPropertyOp19
 70
     1
102
RTVSPropertyOp20
 70
     1
102
RTVSPropertyOp21
 70
     1
102
RTVSPropertyOp22
 70
     1
102
RTVSPropertyOp23
 70
     1
102
RTVSPropertyOp24
 70
     1
102
RTVSPropertyOp25
 70
     1
102
RTVSPropertyOp26
 70
     1
102
RTVSPropertyOp27
 70
     1
102
RTVSPropertyOp28
 70
     1
102
RTVSPropertyOp29
 70
     1
102
RTVSPropertyOp30
 70
     1
102
RTVSPropertyOp31
 70
     1
102
RTVSPropertyOp32
 70
     1
102
RTVSPropertyOp33
 70
     1
102
RTVSPropertyOp34
 70
     1
102
RTVSPropertyOp35
 70
     1
102
RTVSPropertyOp36
 70
     1
102
RTVSPropertyOp37
 70
     1
102
RTVSPropertyOp38
 70
     1
102
RTVSPropertyOp39
 70
     1
102
RTVSPropertyOp40
 70
     1
102
RTVSPropertyOp41
 70
     1
102
RTVSPropertyOp42
 70
     1
102
RTVSPropertyOp43
 70
     1
102
RTVSPropertyOp44
 70
     1
102
RTVSPropertyOp45
 70
     1
102
RTVSPropertyOp46
 70
     1
102
RTVSPropertyOp47
 70
     1
102
RTVSPropertyOp48
 70
     1
102
RTVSPropertyOp49
 70
     1
102
RTVSPropertyOp50
 70
     1
102
RTVSPropertyOp51
 70
     0
102
RTVSPropertyOp52
 70
     0
102
RTVSPropertyOp53
 70
     1
102
RTVSPropertyOp54
 70
     1
102
RTVSPropertyOp55
 70
     1
102
RTVSPropertyOp56
 70
     1
102
RTVSPropertyOp57
 70
     1
102
RTVSPropertyOp58
 70
     1
102
RTVSPropertyOp59
 70
     1
102
RTVSPropertyOp60
 70
     1
102
RTVSPropertyOp61
 70
     1
102
RTVSPropertyOp62
 70
     1
  0
XRECORD
  5
1AA3
102
{ACAD_REACTORS
330
1AA2
102
}
330
1AA2
100
AcDbXrecord
280
     1
102
RTVSPost2010Prop28
280
     0
102
RTVSPost2010PropOp28
 70
     1
102
RTVSPost2010Prop29
280
     1
102
RTVSPost2010PropOp29
 70
     1
102
RTVSPost2010Prop30
280
     1
102
RTVSPost2010PropOp30
 70
     1
102
RTVSPost2010Prop31
280
     0
102
RTVSPost2010PropOp31
 70
     1
102
RTVSPost2010Prop32
280
     0
102
RTVSPost2010PropOp32
 70
     1
102
RTVSPost2010Prop33
280
     0
102
RTVSPost2010PropOp33
 70
     1
102
RTVSPost2010Prop34
280
     0
102
RTVSPost2010PropOp34
 70
     1
102
RTVSPost2010Prop35
280
     0
102
RTVSPost2010PropOp35
 70
     1
102
RTVSPost2010Prop36
280
     0
102
RTVSPost2010PropOp36
 70
     1
102
RTVSPost2010Prop37
 90
       50
102
RTVSPost2010PropOp37
 70
     0
102
RTVSPost2010Prop38
140
0.0
102
RTVSPost2010PropOp38
 70
     0
102
RTVSPost2010Prop39
140
1.0
102
RTVSPost2010PropOp39
 70
     0
102
RTVSPost2010Prop40
 90
        0
102
RTVSPost2010PropOp40
 70
     0
102
RTVSPost2010Prop41ColorIndex
 90
       18
102
RTVSPost2010Prop41ColorRGB
 90
        0
102
RTVSPost2010PropOp41
 70
     0
102
RTVSPost2010Prop42
 90
       50
102
RTVSPost2010PropOp42
 70
     0
102
RTVSPost2010Prop43
 90
        3
102
RTVSPost2010PropOp43
 70
     0
102
RTVSPost2010Prop44ColorIndex
 90
        5
102
RTVSPost2010Prop44ColorRGB
 90
      255
102
RTVSPost2010PropOp44
 70
     0
102
RTVSPost2010Prop45
280
     0
102
RTVSPost2010PropOp45
 70
     1
102
RTVSPost2010Prop46
 90
       50
102
RTVSPost2010PropOp46
 70
     0
102
RTVSPost2010Prop47
 90
       50
102
RTVSPost2010PropOp47
 70
     0
102
RTVSPost2010Prop48
 90
       50
102
RTVSPost2010PropOp48
 70
     0
102
RTVSPost2010Prop49
280
     0
102
RTVSPost2010PropOp49
 70
     1
102
RTVSPost2010Prop50
 90
       50
102
RTVSPost2010PropOp50
 70
     0
102
RTVSPost2010Prop51ColorIndex
 90
      256
102
RTVSPost2010Prop51ColorRGB
 90
-16777216
102
RTVSPost2010PropOp51
 70
     0
102
RTVSPost2010Prop52
140
1.0
102
RTVSPost2010PropOp52
 70
     0
102
RTVSPost2010Prop53
 90
        2
102
RTVSPost2010PropOp53
 70
     0
102
RTVSPost2010Prop54
  1
strokes_ogs.tif
102
RTVSPost2010PropOp54
 70
     0
102
RTVSPost2010Prop55
280
     0
102
RTVSPost2010PropOp55
 70
     1
102
RTVSPost2010Prop56
140
1.0
102
RTVSPost2010PropOp56
 70
     0
102
RTVSPost2010Prop57
140
1.0
102
RTVSPost2010PropOp57
 70
     0
102
RTVSPropertyOp0
 70
     0
102
RTVSPropertyOp1
 70
     0
102
RTVSPropertyOp2
 70
     0
102
RTVSPropertyOp3
 70
     0
102
RTVSPropertyOp4
 70
     0
102
RTVSPropertyOp5
 70
     0
102
RTVSPropertyOp6
 70
     0
102
RTVSPropertyOp7
 70
     0
102
RTVSPropertyOp8
 70
     0
102
RTVSPropertyOp9
 70
     0
102
RTVSPropertyOp10
 70
     0
102
RTVSPropertyOp11
 70
     0
102
RTVSPropertyOp12
 70
     0
102
RTVSPropertyOp13
 70
     0
102
RTVSPropertyOp14
 70
     2
102
RTVSPropertyOp15
 70
     0
102
RTVSPropertyOp16
 70
     0
102
RTVSPropertyOp17
 70
     0
102
RTVSPropertyOp18
 70
     0
102
RTVSPropertyOp19
 70
     0
102
RTVSPropertyOp20
 70
     0
102
RTVSPropertyOp21
 70
     0
102
RTVSPropertyOp22
 70
     0
102
RTVSPropertyOp23
 70
     0
102
RTVSPropertyOp24
 70
     0
102
RTVSPropertyOp25
 70
     0
102
RTVSPropertyOp26
 70
     0
102
RTVSPropertyOp27
 70
     0
102
RTVSPropertyOp28
 70
     1
102
RTVSPropertyOp29
 70
     1
102
RTVSPropertyOp30
 70
     1
102
RTVSPropertyOp31
 70
     1
102
RTVSPropertyOp32
 70
     1
102
RTVSPropertyOp33
 70
     1
102
RTVSPropertyOp34
 70
     1
102
RTVSPropertyOp35
 70
     1
102
RTVSPropertyOp36
 70
     1
102
RTVSPropertyOp37
 70
     0
102
RTVSPropertyOp38
 70
     0
102
RTVSPropertyOp39
 70
     0
102
RTVSPropertyOp40
 70
     0
102
RTVSPropertyOp41
 70
     0
102
RTVSPropertyOp42
 70
     0
102
RTVSPropertyOp43
 70
     0
102
RTVSPropertyOp44
 70
     0
102
RTVSPropertyOp45
 70
     1
102
RTVSPropertyOp46
 70
     0
102
RTVSPropertyOp47
 70
     0
102
RTVSPropertyOp48
 70
     0
102
RTVSPropertyOp49
 70
     1
102
RTVSPropertyOp50
 70
     0
102
RTVSPropertyOp51
 70
     0
102
RTVSPropertyOp52
 70
     0
102
RTVSPropertyOp53
 70
     0
102
RTVSPropertyOp54
 70
     0
102
RTVSPropertyOp55
 70
     1
102
RTVSPropertyOp56
 70
     0
102
RTVSPropertyOp57
 70
     0
102
RTVSPropertyOp58
 70
     0
102
RTVSPropertyOp59
 70
     0
102
RTVSPropertyOp60
 70
     0
102
RTVSPropertyOp61
 70
     0
102
RTVSPropertyOp62
 70
     0
  0
XRECORD
  5
1A91
102
{ACAD_REACTORS
330
1A90
102
}
330
1A90
100
AcDbXrecord
280
     1
102
RTVSPost2010Prop28
280
     0
102
RTVSPost2010PropOp28
 70
     1
102
RTVSPost2010Prop29
280
     1
102
RTVSPost2010PropOp29
 70
     1
102
RTVSPost2010Prop30
280
     1
102
RTVSPost2010PropOp30
 70
     1
102
RTVSPost2010Prop31
280
     0
102
RTVSPost2010PropOp31
 70
     1
102
RTVSPost2010Prop32
280
     0
102
RTVSPost2010PropOp32
 70
     1
102
RTVSPost2010Prop33
280
     0
102
RTVSPost2010PropOp33
 70
     1
102
RTVSPost2010Prop34
280
     0
102
RTVSPost2010PropOp34
 70
     1
102
RTVSPost2010Prop35
280
     0
102
RTVSPost2010PropOp35
 70
     1
102
RTVSPost2010Prop36
280
     0
102
RTVSPost2010PropOp36
 70
     1
102
RTVSPost2010Prop37
 90
       50
102
RTVSPost2010PropOp37
 70
     1
102
RTVSPost2010Prop38
140
0.0
102
RTVSPost2010PropOp38
 70
     1
102
RTVSPost2010Prop39
140
1.0
102
RTVSPost2010PropOp39
 70
     1
102
RTVSPost2010Prop40
 90
        0
102
RTVSPost2010PropOp40
 70
     1
102
RTVSPost2010Prop41ColorIndex
 90
       18
102
RTVSPost2010Prop41ColorRGB
 90
        0
102
RTVSPost2010PropOp41
 70
     1
102
RTVSPost2010Prop42
 90
       50
102
RTVSPost2010PropOp42
 70
     1
102
RTVSPost2010Prop43
 90
        3
102
RTVSPost2010PropOp43
 70
     1
102
RTVSPost2010Prop44ColorIndex
 90
        5
102
RTVSPost2010Prop44ColorRGB
 90
      255
102
RTVSPost2010PropOp44
 70
     1
102
RTVSPost2010Prop45
280
     0
102
RTVSPost2010PropOp45
 70
     1
102
RTVSPost2010Prop46
 90
       50
102
RTVSPost2010PropOp46
 70
     1
102
RTVSPost2010Prop47
 90
       50
102
RTVSPost2010PropOp47
 70
     1
102
RTVSPost2010Prop48
 90
       50
102
RTVSPost2010PropOp48
 70
     1
102
RTVSPost2010Prop49
280
     0
102
RTVSPost2010PropOp49
 70
     1
102
RTVSPost2010Prop50
 90
       50
102
RTVSPost2010PropOp50
 70
     1
102
RTVSPost2010Prop51ColorIndex
 90
      256
102
RTVSPost2010Prop51ColorRGB
 90
-16777216
102
RTVSPost2010PropOp51
 70
     0
102
RTVSPost2010Prop52
140
1.0
102
RTVSPost2010PropOp52
 70
     0
102
RTVSPost2010Prop53
 90
        2
102
RTVSPost2010PropOp53
 70
     1
102
RTVSPost2010Prop54
  1
strokes_ogs.tif
102
RTVSPost2010PropOp54
 70
     1
102
RTVSPost2010Prop55
280
     0
102
RTVSPost2010PropOp55
 70
     1
102
RTVSPost2010Prop56
140
1.0
102
RTVSPost2010PropOp56
 70
     1
102
RTVSPost2010Prop57
140
1.0
102
RTVSPost2010PropOp57
 70
     1
102
RTVSPropertyOp0
 70
     1
102
RTVSPropertyOp1
 70
     1
102
RTVSPropertyOp2
 70
     1
102
RTVSPropertyOp3
 70
     1
102
RTVSPropertyOp4
 70
     1
102
RTVSPropertyOp5
 70
     1
102
RTVSPropertyOp6
 70
     1
102
RTVSPropertyOp7
 70
     1
102
RTVSPropertyOp8
 70
     1
102
RTVSPropertyOp9
 70
     1
102
RTVSPropertyOp10
 70
     1
102
RTVSPropertyOp11
 70
     1
102
RTVSPropertyOp12
 70
     1
102
RTVSPropertyOp13
 70
     1
102
RTVSPropertyOp14
 70
     1
102
RTVSPropertyOp15
 70
     1
102
RTVSPropertyOp16
 70
     1
102
RTVSPropertyOp17
 70
     1
102
RTVSPropertyOp18
 70
     1
102
RTVSPropertyOp19
 70
     1
102
RTVSPropertyOp20
 70
     1
102
RTVSPropertyOp21
 70
     1
102
RTVSPropertyOp22
 70
     1
102
RTVSPropertyOp23
 70
     1
102
RTVSPropertyOp24
 70
     1
102
RTVSPropertyOp25
 70
     1
102
RTVSPropertyOp26
 70
     1
102
RTVSPropertyOp27
 70
     1
102
RTVSPropertyOp28
 70
     1
102
RTVSPropertyOp29
 70
     1
102
RTVSPropertyOp30
 70
     1
102
RTVSPropertyOp31
 70
     1
102
RTVSPropertyOp32
 70
     1
102
RTVSPropertyOp33
 70
     1
102
RTVSPropertyOp34
 70
     1
102
RTVSPropertyOp35
 70
     1
102
RTVSPropertyOp36
 70
     1
102
RTVSPropertyOp37
 70
     1
102
RTVSPropertyOp38
 70
     1
102
RTVSPropertyOp39
 70
     1
102
RTVSPropertyOp40
 70
     1
102
RTVSPropertyOp41
 70
     1
102
RTVSPropertyOp42
 70
     1
102
RTVSPropertyOp43
 70
     1
102
RTVSPropertyOp44
 70
     1
102
RTVSPropertyOp45
 70
     1
102
RTVSPropertyOp46
 70
     1
102
RTVSPropertyOp47
 70
     1
102
RTVSPropertyOp48
 70
     1
102
RTVSPropertyOp49
 70
     1
102
RTVSPropertyOp50
 70
     1
102
RTVSPropertyOp51
 70
     0
102
RTVSPropertyOp52
 70
     0
102
RTVSPropertyOp53
 70
     1
102
RTVSPropertyOp54
 70
     1
102
RTVSPropertyOp55
 70
     1
102
RTVSPropertyOp56
 70
     1
102
RTVSPropertyOp57
 70
     1
102
RTVSPropertyOp58
 70
     1
102
RTVSPropertyOp59
 70
     1
102
RTVSPropertyOp60
 70
     1
102
RTVSPropertyOp61
 70
     1
102
RTVSPropertyOp62
 70
     1
  0
XRECORD
  5
1A75
102
{ACAD_REACTORS
330
1A74
102
}
330
1A74
100
AcDbXrecord
280
     1
102
RTVSPost2010Prop28
280
     0
102
RTVSPost2010PropOp28
 70
     1
102
RTVSPost2010Prop29
280
     1
102
RTVSPost2010PropOp29
 70
     1
102
RTVSPost2010Prop30
280
     1
102
RTVSPost2010PropOp30
 70
     1
102
RTVSPost2010Prop31
280
     0
102
RTVSPost2010PropOp31
 70
     1
102
RTVSPost2010Prop32
280
     0
102
RTVSPost2010PropOp32
 70
     1
102
RTVSPost2010Prop33
280
     0
102
RTVSPost2010PropOp33
 70
     1
102
RTVSPost2010Prop34
280
     0
102
RTVSPost2010PropOp34
 70
     1
102
RTVSPost2010Prop35
280
     0
102
RTVSPost2010PropOp35
 70
     1
102
RTVSPost2010Prop36
280
     0
102
RTVSPost2010PropOp36
 70
     1
102
RTVSPost2010Prop37
 90
       50
102
RTVSPost2010PropOp37
 70
     1
102
RTVSPost2010Prop38
140
0.0
102
RTVSPost2010PropOp38
 70
     1
102
RTVSPost2010Prop39
140
1.0
102
RTVSPost2010PropOp39
 70
     1
102
RTVSPost2010Prop40
 90
        0
102
RTVSPost2010PropOp40
 70
     1
102
RTVSPost2010Prop41ColorIndex
 90
       18
102
RTVSPost2010Prop41ColorRGB
 90
        0
102
RTVSPost2010PropOp41
 70
     1
102
RTVSPost2010Prop42
 90
       50
102
RTVSPost2010PropOp42
 70
     1
102
RTVSPost2010Prop43
 90
        3
102
RTVSPost2010PropOp43
 70
     1
102
RTVSPost2010Prop44ColorIndex
 90
        5
102
RTVSPost2010Prop44ColorRGB
 90
      255
102
RTVSPost2010PropOp44
 70
     1
102
RTVSPost2010Prop45
280
     0
102
RTVSPost2010PropOp45
 70
     1
102
RTVSPost2010Prop46
 90
       50
102
RTVSPost2010PropOp46
 70
     1
102
RTVSPost2010Prop47
 90
       50
102
RTVSPost2010PropOp47
 70
     1
102
RTVSPost2010Prop48
 90
       50
102
RTVSPost2010PropOp48
 70
     1
102
RTVSPost2010Prop49
280
     0
102
RTVSPost2010PropOp49
 70
     1
102
RTVSPost2010Prop50
 90
       50
102
RTVSPost2010PropOp50
 70
     1
102
RTVSPost2010Prop51ColorIndex
 90
      256
102
RTVSPost2010Prop51ColorRGB
 90
-16777216
102
RTVSPost2010PropOp51
 70
     0
102
RTVSPost2010Prop52
140
1.0
102
RTVSPost2010PropOp52
 70
     0
102
RTVSPost2010Prop53
 90
        2
102
RTVSPost2010PropOp53
 70
     1
102
RTVSPost2010Prop54
  1
strokes_ogs.tif
102
RTVSPost2010PropOp54
 70
     1
102
RTVSPost2010Prop55
280
     0
102
RTVSPost2010PropOp55
 70
     1
102
RTVSPost2010Prop56
140
1.0
102
RTVSPost2010PropOp56
 70
     1
102
RTVSPost2010Prop57
140
1.0
102
RTVSPost2010PropOp57
 70
     1
102
RTVSPropertyOp0
 70
     1
102
RTVSPropertyOp1
 70
     1
102
RTVSPropertyOp2
 70
     1
102
RTVSPropertyOp3
 70
     1
102
RTVSPropertyOp4
 70
     1
102
RTVSPropertyOp5
 70
     1
102
RTVSPropertyOp6
 70
     1
102
RTVSPropertyOp7
 70
     1
102
RTVSPropertyOp8
 70
     1
102
RTVSPropertyOp9
 70
     1
102
RTVSPropertyOp10
 70
     1
102
RTVSPropertyOp11
 70
     1
102
RTVSPropertyOp12
 70
     1
102
RTVSPropertyOp13
 70
     1
102
RTVSPropertyOp14
 70
     1
102
RTVSPropertyOp15
 70
     1
102
RTVSPropertyOp16
 70
     1
102
RTVSPropertyOp17
 70
     1
102
RTVSPropertyOp18
 70
     1
102
RTVSPropertyOp19
 70
     1
102
RTVSPropertyOp20
 70
     1
102
RTVSPropertyOp21
 70
     1
102
RTVSPropertyOp22
 70
     1
102
RTVSPropertyOp23
 70
     1
102
RTVSPropertyOp24
 70
     1
102
RTVSPropertyOp25
 70
     1
102
RTVSPropertyOp26
 70
     1
102
RTVSPropertyOp27
 70
     1
102
RTVSPropertyOp28
 70
     1
102
RTVSPropertyOp29
 70
     1
102
RTVSPropertyOp30
 70
     1
102
RTVSPropertyOp31
 70
     1
102
RTVSPropertyOp32
 70
     1
102
RTVSPropertyOp33
 70
     1
102
RTVSPropertyOp34
 70
     1
102
RTVSPropertyOp35
 70
     1
102
RTVSPropertyOp36
 70
     1
102
RTVSPropertyOp37
 70
     1
102
RTVSPropertyOp38
 70
     1
102
RTVSPropertyOp39
 70
     1
102
RTVSPropertyOp40
 70
     1
102
RTVSPropertyOp41
 70
     1
102
RTVSPropertyOp42
 70
     1
102
RTVSPropertyOp43
 70
     1
102
RTVSPropertyOp44
 70
     1
102
RTVSPropertyOp45
 70
     1
102
RTVSPropertyOp46
 70
     1
102
RTVSPropertyOp47
 70
     1
102
RTVSPropertyOp48
 70
     1
102
RTVSPropertyOp49
 70
     1
102
RTVSPropertyOp50
 70
     1
102
RTVSPropertyOp51
 70
     0
102
RTVSPropertyOp52
 70
     0
102
RTVSPropertyOp53
 70
     1
102
RTVSPropertyOp54
 70
     1
102
RTVSPropertyOp55
 70
     1
102
RTVSPropertyOp56
 70
     1
102
RTVSPropertyOp57
 70
     1
102
RTVSPropertyOp58
 70
     1
102
RTVSPropertyOp59
 70
     1
102
RTVSPropertyOp60
 70
     1
102
RTVSPropertyOp61
 70
     1
102
RTVSPropertyOp62
 70
     1
  0
XRECORD
  5
1A77
102
{ACAD_REACTORS
330
1A76
102
}
330
1A76
100
AcDbXrecord
280
     1
102
RTVSPost2010Prop28
280
     0
102
RTVSPost2010PropOp28
 70
     1
102
RTVSPost2010Prop29
280
     1
102
RTVSPost2010PropOp29
 70
     1
102
RTVSPost2010Prop30
280
     1
102
RTVSPost2010PropOp30
 70
     1
102
RTVSPost2010Prop31
280
     0
102
RTVSPost2010PropOp31
 70
     1
102
RTVSPost2010Prop32
280
     0
102
RTVSPost2010PropOp32
 70
     1
102
RTVSPost2010Prop33
280
     0
102
RTVSPost2010PropOp33
 70
     1
102
RTVSPost2010Prop34
280
     0
102
RTVSPost2010PropOp34
 70
     1
102
RTVSPost2010Prop35
280
     0
102
RTVSPost2010PropOp35
 70
     1
102
RTVSPost2010Prop36
280
     0
102
RTVSPost2010PropOp36
 70
     1
102
RTVSPost2010Prop37
 90
       50
102
RTVSPost2010PropOp37
 70
     1
102
RTVSPost2010Prop38
140
0.0
102
RTVSPost2010PropOp38
 70
     1
102
RTVSPost2010Prop39
140
1.0
102
RTVSPost2010PropOp39
 70
     1
102
RTVSPost2010Prop40
 90
        0
102
RTVSPost2010PropOp40
 70
     1
102
RTVSPost2010Prop41ColorIndex
 90
       18
102
RTVSPost2010Prop41ColorRGB
 90
        0
102
RTVSPost2010PropOp41
 70
     1
102
RTVSPost2010Prop42
 90
       50
102
RTVSPost2010PropOp42
 70
     1
102
RTVSPost2010Prop43
 90
        3
102
RTVSPost2010PropOp43
 70
     1
102
RTVSPost2010Prop44ColorIndex
 90
        5
102
RTVSPost2010Prop44ColorRGB
 90
      255
102
RTVSPost2010PropOp44
 70
     1
102
RTVSPost2010Prop45
280
     0
102
RTVSPost2010PropOp45
 70
     1
102
RTVSPost2010Prop46
 90
       50
102
RTVSPost2010PropOp46
 70
     1
102
RTVSPost2010Prop47
 90
       50
102
RTVSPost2010PropOp47
 70
     1
102
RTVSPost2010Prop48
 90
       50
102
RTVSPost2010PropOp48
 70
     1
102
RTVSPost2010Prop49
280
     0
102
RTVSPost2010PropOp49
 70
     1
102
RTVSPost2010Prop50
 90
       50
102
RTVSPost2010PropOp50
 70
     1
102
RTVSPost2010Prop51ColorIndex
 90
      256
102
RTVSPost2010Prop51ColorRGB
 90
-16777216
102
RTVSPost2010PropOp51
 70
     0
102
RTVSPost2010Prop52
140
1.0
102
RTVSPost2010PropOp52
 70
     0
102
RTVSPost2010Prop53
 90
        2
102
RTVSPost2010PropOp53
 70
     1
102
RTVSPost2010Prop54
  1
strokes_ogs.tif
102
RTVSPost2010PropOp54
 70
     1
102
RTVSPost2010Prop55
280
     0
102
RTVSPost2010PropOp55
 70
     1
102
RTVSPost2010Prop56
140
1.0
102
RTVSPost2010PropOp56
 70
     1
102
RTVSPost2010Prop57
140
1.0
102
RTVSPost2010PropOp57
 70
     1
102
RTVSPropertyOp0
 70
     1
102
RTVSPropertyOp1
 70
     1
102
RTVSPropertyOp2
 70
     1
102
RTVSPropertyOp3
 70
     1
102
RTVSPropertyOp4
 70
     1
102
RTVSPropertyOp5
 70
     1
102
RTVSPropertyOp6
 70
     1
102
RTVSPropertyOp7
 70
     1
102
RTVSPropertyOp8
 70
     1
102
RTVSPropertyOp9
 70
     1
102
RTVSPropertyOp10
 70
     1
102
RTVSPropertyOp11
 70
     1
102
RTVSPropertyOp12
 70
     1
102
RTVSPropertyOp13
 70
     1
102
RTVSPropertyOp14
 70
     1
102
RTVSPropertyOp15
 70
     1
102
RTVSPropertyOp16
 70
     1
102
RTVSPropertyOp17
 70
     1
102
RTVSPropertyOp18
 70
     1
102
RTVSPropertyOp19
 70
     1
102
RTVSPropertyOp20
 70
     1
102
RTVSPropertyOp21
 70
     1
102
RTVSPropertyOp22
 70
     1
102
RTVSPropertyOp23
 70
     1
102
RTVSPropertyOp24
 70
     1
102
RTVSPropertyOp25
 70
     1
102
RTVSPropertyOp26
 70
     1
102
RTVSPropertyOp27
 70
     1
102
RTVSPropertyOp28
 70
     1
102
RTVSPropertyOp29
 70
     1
102
RTVSPropertyOp30
 70
     1
102
RTVSPropertyOp31
 70
     1
102
RTVSPropertyOp32
 70
     1
102
RTVSPropertyOp33
 70
     1
102
RTVSPropertyOp34
 70
     1
102
RTVSPropertyOp35
 70
     1
102
RTVSPropertyOp36
 70
     1
102
RTVSPropertyOp37
 70
     1
102
RTVSPropertyOp38
 70
     1
102
RTVSPropertyOp39
 70
     1
102
RTVSPropertyOp40
 70
     1
102
RTVSPropertyOp41
 70
     1
102
RTVSPropertyOp42
 70
     1
102
RTVSPropertyOp43
 70
     1
102
RTVSPropertyOp44
 70
     1
102
RTVSPropertyOp45
 70
     1
102
RTVSPropertyOp46
 70
     1
102
RTVSPropertyOp47
 70
     1
102
RTVSPropertyOp48
 70
     1
102
RTVSPropertyOp49
 70
     1
102
RTVSPropertyOp50
 70
     1
102
RTVSPropertyOp51
 70
     0
102
RTVSPropertyOp52
 70
     0
102
RTVSPropertyOp53
 70
     1
102
RTVSPropertyOp54
 70
     1
102
RTVSPropertyOp55
 70
     1
102
RTVSPropertyOp56
 70
     1
102
RTVSPropertyOp57
 70
     1
102
RTVSPropertyOp58
 70
     1
102
RTVSPropertyOp59
 70
     1
102
RTVSPropertyOp60
 70
     1
102
RTVSPropertyOp61
 70
     1
102
RTVSPropertyOp62
 70
     1
  0
XRECORD
  5
1A79
102
{ACAD_REACTORS
330
1A78
102
}
330
1A78
100
AcDbXrecord
280
     1
102
RTVSPost2010Prop28
280
     0
102
RTVSPost2010PropOp28
 70
     1
102
RTVSPost2010Prop29
280
     1
102
RTVSPost2010PropOp29
 70
     1
102
RTVSPost2010Prop30
280
     1
102
RTVSPost2010PropOp30
 70
     1
102
RTVSPost2010Prop31
280
     0
102
RTVSPost2010PropOp31
 70
     1
102
RTVSPost2010Prop32
280
     0
102
RTVSPost2010PropOp32
 70
     1
102
RTVSPost2010Prop33
280
     0
102
RTVSPost2010PropOp33
 70
     1
102
RTVSPost2010Prop34
280
     0
102
RTVSPost2010PropOp34
 70
     1
102
RTVSPost2010Prop35
280
     0
102
RTVSPost2010PropOp35
 70
     1
102
RTVSPost2010Prop36
280
     0
102
RTVSPost2010PropOp36
 70
     1
102
RTVSPost2010Prop37
 90
       50
102
RTVSPost2010PropOp37
 70
     1
102
RTVSPost2010Prop38
140
0.0
102
RTVSPost2010PropOp38
 70
     1
102
RTVSPost2010Prop39
140
1.0
102
RTVSPost2010PropOp39
 70
     1
102
RTVSPost2010Prop40
 90
        0
102
RTVSPost2010PropOp40
 70
     1
102
RTVSPost2010Prop41ColorIndex
 90
       18
102
RTVSPost2010Prop41ColorRGB
 90
        0
102
RTVSPost2010PropOp41
 70
     1
102
RTVSPost2010Prop42
 90
       50
102
RTVSPost2010PropOp42
 70
     1
102
RTVSPost2010Prop43
 90
        3
102
RTVSPost2010PropOp43
 70
     1
102
RTVSPost2010Prop44ColorIndex
 90
        5
102
RTVSPost2010Prop44ColorRGB
 90
      255
102
RTVSPost2010PropOp44
 70
     1
102
RTVSPost2010Prop45
280
     0
102
RTVSPost2010PropOp45
 70
     1
102
RTVSPost2010Prop46
 90
       50
102
RTVSPost2010PropOp46
 70
     1
102
RTVSPost2010Prop47
 90
       50
102
RTVSPost2010PropOp47
 70
     1
102
RTVSPost2010Prop48
 90
       50
102
RTVSPost2010PropOp48
 70
     1
102
RTVSPost2010Prop49
280
     0
102
RTVSPost2010PropOp49
 70
     1
102
RTVSPost2010Prop50
 90
       50
102
RTVSPost2010PropOp50
 70
     1
102
RTVSPost2010Prop51ColorIndex
 90
      256
102
RTVSPost2010Prop51ColorRGB
 90
-16777216
102
RTVSPost2010PropOp51
 70
     0
102
RTVSPost2010Prop52
140
1.0
102
RTVSPost2010PropOp52
 70
     0
102
RTVSPost2010Prop53
 90
        2
102
RTVSPost2010PropOp53
 70
     1
102
RTVSPost2010Prop54
  1
strokes_ogs.tif
102
RTVSPost2010PropOp54
 70
     1
102
RTVSPost2010Prop55
280
     0
102
RTVSPost2010PropOp55
 70
     1
102
RTVSPost2010Prop56
140
1.0
102
RTVSPost2010PropOp56
 70
     1
102
RTVSPost2010Prop57
140
1.0
102
RTVSPost2010PropOp57
 70
     1
102
RTVSPropertyOp0
 70
     1
102
RTVSPropertyOp1
 70
     1
102
RTVSPropertyOp2
 70
     1
102
RTVSPropertyOp3
 70
     1
102
RTVSPropertyOp4
 70
     1
102
RTVSPropertyOp5
 70
     1
102
RTVSPropertyOp6
 70
     1
102
RTVSPropertyOp7
 70
     1
102
RTVSPropertyOp8
 70
     1
102
RTVSPropertyOp9
 70
     1
102
RTVSPropertyOp10
 70
     1
102
RTVSPropertyOp11
 70
     1
102
RTVSPropertyOp12
 70
     1
102
RTVSPropertyOp13
 70
     1
102
RTVSPropertyOp14
 70
     1
102
RTVSPropertyOp15
 70
     1
102
RTVSPropertyOp16
 70
     1
102
RTVSPropertyOp17
 70
     1
102
RTVSPropertyOp18
 70
     1
102
RTVSPropertyOp19
 70
     1
102
RTVSPropertyOp20
 70
     1
102
RTVSPropertyOp21
 70
     1
102
RTVSPropertyOp22
 70
     1
102
RTVSPropertyOp23
 70
     1
102
RTVSPropertyOp24
 70
     1
102
RTVSPropertyOp25
 70
     1
102
RTVSPropertyOp26
 70
     1
102
RTVSPropertyOp27
 70
     1
102
RTVSPropertyOp28
 70
     1
102
RTVSPropertyOp29
 70
     1
102
RTVSPropertyOp30
 70
     1
102
RTVSPropertyOp31
 70
     1
102
RTVSPropertyOp32
 70
     1
102
RTVSPropertyOp33
 70
     1
102
RTVSPropertyOp34
 70
     1
102
RTVSPropertyOp35
 70
     1
102
RTVSPropertyOp36
 70
     1
102
RTVSPropertyOp37
 70
     1
102
RTVSPropertyOp38
 70
     1
102
RTVSPropertyOp39
 70
     1
102
RTVSPropertyOp40
 70
     1
102
RTVSPropertyOp41
 70
     1
102
RTVSPropertyOp42
 70
     1
102
RTVSPropertyOp43
 70
     1
102
RTVSPropertyOp44
 70
     1
102
RTVSPropertyOp45
 70
     1
102
RTVSPropertyOp46
 70
     1
102
RTVSPropertyOp47
 70
     1
102
RTVSPropertyOp48
 70
     1
102
RTVSPropertyOp49
 70
     1
102
RTVSPropertyOp50
 70
     1
102
RTVSPropertyOp51
 70
     0
102
RTVSPropertyOp52
 70
     0
102
RTVSPropertyOp53
 70
     1
102
RTVSPropertyOp54
 70
     1
102
RTVSPropertyOp55
 70
     1
102
RTVSPropertyOp56
 70
     1
102
RTVSPropertyOp57
 70
     1
102
RTVSPropertyOp58
 70
     1
102
RTVSPropertyOp59
 70
     1
102
RTVSPropertyOp60
 70
     1
102
RTVSPropertyOp61
 70
     1
102
RTVSPropertyOp62
 70
     1
  0
XRECORD
  5
1A7B
102
{ACAD_REACTORS
330
1A7A
102
}
330
1A7A
100
AcDbXrecord
280
     1
102
RTVSPost2010Prop28
280
     0
102
RTVSPost2010PropOp28
 70
     1
102
RTVSPost2010Prop29
280
     1
102
RTVSPost2010PropOp29
 70
     1
102
RTVSPost2010Prop30
280
     1
102
RTVSPost2010PropOp30
 70
     1
102
RTVSPost2010Prop31
280
     0
102
RTVSPost2010PropOp31
 70
     1
102
RTVSPost2010Prop32
280
     0
102
RTVSPost2010PropOp32
 70
     1
102
RTVSPost2010Prop33
280
     0
102
RTVSPost2010PropOp33
 70
     1
102
RTVSPost2010Prop34
280
     0
102
RTVSPost2010PropOp34
 70
     1
102
RTVSPost2010Prop35
280
     0
102
RTVSPost2010PropOp35
 70
     1
102
RTVSPost2010Prop36
280
     0
102
RTVSPost2010PropOp36
 70
     1
102
RTVSPost2010Prop37
 90
       50
102
RTVSPost2010PropOp37
 70
     1
102
RTVSPost2010Prop38
140
0.0
102
RTVSPost2010PropOp38
 70
     1
102
RTVSPost2010Prop39
140
1.0
102
RTVSPost2010PropOp39
 70
     1
102
RTVSPost2010Prop40
 90
        0
102
RTVSPost2010PropOp40
 70
     1
102
RTVSPost2010Prop41ColorIndex
 90
       18
102
RTVSPost2010Prop41ColorRGB
 90
        0
102
RTVSPost2010PropOp41
 70
     1
102
RTVSPost2010Prop42
 90
       50
102
RTVSPost2010PropOp42
 70
     1
102
RTVSPost2010Prop43
 90
        3
102
RTVSPost2010PropOp43
 70
     1
102
RTVSPost2010Prop44ColorIndex
 90
        5
102
RTVSPost2010Prop44ColorRGB
 90
      255
102
RTVSPost2010PropOp44
 70
     1
102
RTVSPost2010Prop45
280
     0
102
RTVSPost2010PropOp45
 70
     1
102
RTVSPost2010Prop46
 90
       50
102
RTVSPost2010PropOp46
 70
     1
102
RTVSPost2010Prop47
 90
       50
102
RTVSPost2010PropOp47
 70
     1
102
RTVSPost2010Prop48
 90
       50
102
RTVSPost2010PropOp48
 70
     1
102
RTVSPost2010Prop49
280
     0
102
RTVSPost2010PropOp49
 70
     1
102
RTVSPost2010Prop50
 90
       50
102
RTVSPost2010PropOp50
 70
     1
102
RTVSPost2010Prop51ColorIndex
 90
      256
102
RTVSPost2010Prop51ColorRGB
 90
-16777216
102
RTVSPost2010PropOp51
 70
     0
102
RTVSPost2010Prop52
140
1.0
102
RTVSPost2010PropOp52
 70
     0
102
RTVSPost2010Prop53
 90
        2
102
RTVSPost2010PropOp53
 70
     1
102
RTVSPost2010Prop54
  1
strokes_ogs.tif
102
RTVSPost2010PropOp54
 70
     1
102
RTVSPost2010Prop55
280
     0
102
RTVSPost2010PropOp55
 70
     1
102
RTVSPost2010Prop56
140
1.0
102
RTVSPost2010PropOp56
 70
     1
102
RTVSPost2010Prop57
140
1.0
102
RTVSPost2010PropOp57
 70
     1
102
RTVSPropertyOp0
 70
     1
102
RTVSPropertyOp1
 70
     1
102
RTVSPropertyOp2
 70
     1
102
RTVSPropertyOp3
 70
     1
102
RTVSPropertyOp4
 70
     1
102
RTVSPropertyOp5
 70
     1
102
RTVSPropertyOp6
 70
     1
102
RTVSPropertyOp7
 70
     1
102
RTVSPropertyOp8
 70
     1
102
RTVSPropertyOp9
 70
     1
102
RTVSPropertyOp10
 70
     1
102
RTVSPropertyOp11
 70
     1
102
RTVSPropertyOp12
 70
     1
102
RTVSPropertyOp13
 70
     1
102
RTVSPropertyOp14
 70
     1
102
RTVSPropertyOp15
 70
     1
102
RTVSPropertyOp16
 70
     1
102
RTVSPropertyOp17
 70
     1
102
RTVSPropertyOp18
 70
     1
102
RTVSPropertyOp19
 70
     1
102
RTVSPropertyOp20
 70
     1
102
RTVSPropertyOp21
 70
     1
102
RTVSPropertyOp22
 70
     1
102
RTVSPropertyOp23
 70
     1
102
RTVSPropertyOp24
 70
     1
102
RTVSPropertyOp25
 70
     1
102
RTVSPropertyOp26
 70
     1
102
RTVSPropertyOp27
 70
     1
102
RTVSPropertyOp28
 70
     1
102
RTVSPropertyOp29
 70
     1
102
RTVSPropertyOp30
 70
     1
102
RTVSPropertyOp31
 70
     1
102
RTVSPropertyOp32
 70
     1
102
RTVSPropertyOp33
 70
     1
102
RTVSPropertyOp34
 70
     1
102
RTVSPropertyOp35
 70
     1
102
RTVSPropertyOp36
 70
     1
102
RTVSPropertyOp37
 70
     1
102
RTVSPropertyOp38
 70
     1
102
RTVSPropertyOp39
 70
     1
102
RTVSPropertyOp40
 70
     1
102
RTVSPropertyOp41
 70
     1
102
RTVSPropertyOp42
 70
     1
102
RTVSPropertyOp43
 70
     1
102
RTVSPropertyOp44
 70
     1
102
RTVSPropertyOp45
 70
     1
102
RTVSPropertyOp46
 70
     1
102
RTVSPropertyOp47
 70
     1
102
RTVSPropertyOp48
 70
     1
102
RTVSPropertyOp49
 70
     1
102
RTVSPropertyOp50
 70
     1
102
RTVSPropertyOp51
 70
     0
102
RTVSPropertyOp52
 70
     0
102
RTVSPropertyOp53
 70
     1
102
RTVSPropertyOp54
 70
     1
102
RTVSPropertyOp55
 70
     1
102
RTVSPropertyOp56
 70
     1
102
RTVSPropertyOp57
 70
     1
102
RTVSPropertyOp58
 70
     1
102
RTVSPropertyOp59
 70
     1
102
RTVSPropertyOp60
 70
     1
102
RTVSPropertyOp61
 70
     1
102
RTVSPropertyOp62
 70
     1
  0
XRECORD
  5
1A83
102
{ACAD_REACTORS
330
1A82
102
}
330
1A82
100
AcDbXrecord
280
     1
102
RTVSPost2010Prop28
280
     0
102
RTVSPost2010PropOp28
 70
     1
102
RTVSPost2010Prop29
280
     1
102
RTVSPost2010PropOp29
 70
     1
102
RTVSPost2010Prop30
280
     1
102
RTVSPost2010PropOp30
 70
     1
102
RTVSPost2010Prop31
280
     0
102
RTVSPost2010PropOp31
 70
     1
102
RTVSPost2010Prop32
280
     0
102
RTVSPost2010PropOp32
 70
     1
102
RTVSPost2010Prop33
280
     0
102
RTVSPost2010PropOp33
 70
     1
102
RTVSPost2010Prop34
280
     0
102
RTVSPost2010PropOp34
 70
     1
102
RTVSPost2010Prop35
280
     0
102
RTVSPost2010PropOp35
 70
     1
102
RTVSPost2010Prop36
280
     0
102
RTVSPost2010PropOp36
 70
     1
102
RTVSPost2010Prop37
 90
       50
102
RTVSPost2010PropOp37
 70
     1
102
RTVSPost2010Prop38
140
0.0
102
RTVSPost2010PropOp38
 70
     1
102
RTVSPost2010Prop39
140
1.0
102
RTVSPost2010PropOp39
 70
     1
102
RTVSPost2010Prop40
 90
        0
102
RTVSPost2010PropOp40
 70
     1
102
RTVSPost2010Prop41ColorIndex
 90
       18
102
RTVSPost2010Prop41ColorRGB
 90
        0
102
RTVSPost2010PropOp41
 70
     1
102
RTVSPost2010Prop42
 90
       50
102
RTVSPost2010PropOp42
 70
     1
102
RTVSPost2010Prop43
 90
        3
102
RTVSPost2010PropOp43
 70
     1
102
RTVSPost2010Prop44ColorIndex
 90
        5
102
RTVSPost2010Prop44ColorRGB
 90
      255
102
RTVSPost2010PropOp44
 70
     1
102
RTVSPost2010Prop45
280
     0
102
RTVSPost2010PropOp45
 70
     1
102
RTVSPost2010Prop46
 90
       50
102
RTVSPost2010PropOp46
 70
     1
102
RTVSPost2010Prop47
 90
       50
102
RTVSPost2010PropOp47
 70
     1
102
RTVSPost2010Prop48
 90
       50
102
RTVSPost2010PropOp48
 70
     1
102
RTVSPost2010Prop49
280
     0
102
RTVSPost2010PropOp49
 70
     1
102
RTVSPost2010Prop50
 90
       50
102
RTVSPost2010PropOp50
 70
     1
102
RTVSPost2010Prop51ColorIndex
 90
      256
102
RTVSPost2010Prop51ColorRGB
 90
-16777216
102
RTVSPost2010PropOp51
 70
     0
102
RTVSPost2010Prop52
140
1.0
102
RTVSPost2010PropOp52
 70
     0
102
RTVSPost2010Prop53
 90
        2
102
RTVSPost2010PropOp53
 70
     1
102
RTVSPost2010Prop54
  1
strokes_ogs.tif
102
RTVSPost2010PropOp54
 70
     1
102
RTVSPost2010Prop55
280
     0
102
RTVSPost2010PropOp55
 70
     1
102
RTVSPost2010Prop56
140
1.0
102
RTVSPost2010PropOp56
 70
     1
102
RTVSPost2010Prop57
140
1.0
102
RTVSPost2010PropOp57
 70
     1
102
RTVSPropertyOp0
 70
     1
102
RTVSPropertyOp1
 70
     1
102
RTVSPropertyOp2
 70
     1
102
RTVSPropertyOp3
 70
     1
102
RTVSPropertyOp4
 70
     1
102
RTVSPropertyOp5
 70
     1
102
RTVSPropertyOp6
 70
     1
102
RTVSPropertyOp7
 70
     1
102
RTVSPropertyOp8
 70
     1
102
RTVSPropertyOp9
 70
     1
102
RTVSPropertyOp10
 70
     1
102
RTVSPropertyOp11
 70
     1
102
RTVSPropertyOp12
 70
     1
102
RTVSPropertyOp13
 70
     1
102
RTVSPropertyOp14
 70
     1
102
RTVSPropertyOp15
 70
     1
102
RTVSPropertyOp16
 70
     1
102
RTVSPropertyOp17
 70
     1
102
RTVSPropertyOp18
 70
     1
102
RTVSPropertyOp19
 70
     1
102
RTVSPropertyOp20
 70
     1
102
RTVSPropertyOp21
 70
     1
102
RTVSPropertyOp22
 70
     1
102
RTVSPropertyOp23
 70
     1
102
RTVSPropertyOp24
 70
     1
102
RTVSPropertyOp25
 70
     1
102
RTVSPropertyOp26
 70
     1
102
RTVSPropertyOp27
 70
     1
102
RTVSPropertyOp28
 70
     1
102
RTVSPropertyOp29
 70
     1
102
RTVSPropertyOp30
 70
     1
102
RTVSPropertyOp31
 70
     1
102
RTVSPropertyOp32
 70
     1
102
RTVSPropertyOp33
 70
     1
102
RTVSPropertyOp34
 70
     1
102
RTVSPropertyOp35
 70
     1
102
RTVSPropertyOp36
 70
     1
102
RTVSPropertyOp37
 70
     1
102
RTVSPropertyOp38
 70
     1
102
RTVSPropertyOp39
 70
     1
102
RTVSPropertyOp40
 70
     1
102
RTVSPropertyOp41
 70
     1
102
RTVSPropertyOp42
 70
     1
102
RTVSPropertyOp43
 70
     1
102
RTVSPropertyOp44
 70
     1
102
RTVSPropertyOp45
 70
     1
102
RTVSPropertyOp46
 70
     1
102
RTVSPropertyOp47
 70
     1
102
RTVSPropertyOp48
 70
     1
102
RTVSPropertyOp49
 70
     1
102
RTVSPropertyOp50
 70
     1
102
RTVSPropertyOp51
 70
     0
102
RTVSPropertyOp52
 70
     0
102
RTVSPropertyOp53
 70
     1
102
RTVSPropertyOp54
 70
     1
102
RTVSPropertyOp55
 70
     1
102
RTVSPropertyOp56
 70
     1
102
RTVSPropertyOp57
 70
     1
102
RTVSPropertyOp58
 70
     1
102
RTVSPropertyOp59
 70
     1
102
RTVSPropertyOp60
 70
     1
102
RTVSPropertyOp61
 70
     1
102
RTVSPropertyOp62
 70
     1
  0
XRECORD
  5
1A9F
102
{ACAD_REACTORS
330
1A9E
102
}
330
1A9E
100
AcDbXrecord
280
     1
102
RTVSPost2010Prop28
280
     0
102
RTVSPost2010PropOp28
 70
     1
102
RTVSPost2010Prop29
280
     1
102
RTVSPost2010PropOp29
 70
     1
102
RTVSPost2010Prop30
280
     1
102
RTVSPost2010PropOp30
 70
     1
102
RTVSPost2010Prop31
280
     0
102
RTVSPost2010PropOp31
 70
     1
102
RTVSPost2010Prop32
280
     0
102
RTVSPost2010PropOp32
 70
     1
102
RTVSPost2010Prop33
280
     0
102
RTVSPost2010PropOp33
 70
     1
102
RTVSPost2010Prop34
280
     0
102
RTVSPost2010PropOp34
 70
     1
102
RTVSPost2010Prop35
280
     0
102
RTVSPost2010PropOp35
 70
     1
102
RTVSPost2010Prop36
280
     0
102
RTVSPost2010PropOp36
 70
     1
102
RTVSPost2010Prop37
 90
       50
102
RTVSPost2010PropOp37
 70
     0
102
RTVSPost2010Prop38
140
0.0
102
RTVSPost2010PropOp38
 70
     0
102
RTVSPost2010Prop39
140
1.0
102
RTVSPost2010PropOp39
 70
     0
102
RTVSPost2010Prop40
 90
        0
102
RTVSPost2010PropOp40
 70
     0
102
RTVSPost2010Prop41ColorIndex
 90
       18
102
RTVSPost2010Prop41ColorRGB
 90
        0
102
RTVSPost2010PropOp41
 70
     0
102
RTVSPost2010Prop42
 90
       50
102
RTVSPost2010PropOp42
 70
     0
102
RTVSPost2010Prop43
 90
        3
102
RTVSPost2010PropOp43
 70
     0
102
RTVSPost2010Prop44ColorIndex
 90
        5
102
RTVSPost2010Prop44ColorRGB
 90
      255
102
RTVSPost2010PropOp44
 70
     0
102
RTVSPost2010Prop45
280
     0
102
RTVSPost2010PropOp45
 70
     1
102
RTVSPost2010Prop46
 90
       50
102
RTVSPost2010PropOp46
 70
     0
102
RTVSPost2010Prop47
 90
       50
102
RTVSPost2010PropOp47
 70
     0
102
RTVSPost2010Prop48
 90
       50
102
RTVSPost2010PropOp48
 70
     0
102
RTVSPost2010Prop49
280
     0
102
RTVSPost2010PropOp49
 70
     1
102
RTVSPost2010Prop50
 90
       50
102
RTVSPost2010PropOp50
 70
     0
102
RTVSPost2010Prop51ColorIndex
 90
      256
102
RTVSPost2010Prop51ColorRGB
 90
-16777216
102
RTVSPost2010PropOp51
 70
     0
102
RTVSPost2010Prop52
140
1.0
102
RTVSPost2010PropOp52
 70
     0
102
RTVSPost2010Prop53
 90
        2
102
RTVSPost2010PropOp53
 70
     0
102
RTVSPost2010Prop54
  1
strokes_ogs.tif
102
RTVSPost2010PropOp54
 70
     0
102
RTVSPost2010Prop55
280
     0
102
RTVSPost2010PropOp55
 70
     1
102
RTVSPost2010Prop56
140
1.0
102
RTVSPost2010PropOp56
 70
     0
102
RTVSPost2010Prop57
140
1.0
102
RTVSPost2010PropOp57
 70
     0
102
RTVSPropertyOp0
 70
     0
102
RTVSPropertyOp1
 70
     0
102
RTVSPropertyOp2
 70
     0
102
RTVSPropertyOp3
 70
     0
102
RTVSPropertyOp4
 70
     0
102
RTVSPropertyOp5
 70
     0
102
RTVSPropertyOp6
 70
     0
102
RTVSPropertyOp7
 70
     0
102
RTVSPropertyOp8
 70
     0
102
RTVSPropertyOp9
 70
     0
102
RTVSPropertyOp10
 70
     0
102
RTVSPropertyOp11
 70
     0
102
RTVSPropertyOp12
 70
     0
102
RTVSPropertyOp13
 70
     0
102
RTVSPropertyOp14
 70
     2
102
RTVSPropertyOp15
 70
     0
102
RTVSPropertyOp16
 70
     0
102
RTVSPropertyOp17
 70
     0
102
RTVSPropertyOp18
 70
     0
102
RTVSPropertyOp19
 70
     0
102
RTVSPropertyOp20
 70
     0
102
RTVSPropertyOp21
 70
     0
102
RTVSPropertyOp22
 70
     0
102
RTVSPropertyOp23
 70
     0
102
RTVSPropertyOp24
 70
     0
102
RTVSPropertyOp25
 70
     0
102
RTVSPropertyOp26
 70
     0
102
RTVSPropertyOp27
 70
     0
102
RTVSPropertyOp28
 70
     1
102
RTVSPropertyOp29
 70
     1
102
RTVSPropertyOp30
 70
     1
102
RTVSPropertyOp31
 70
     1
102
RTVSPropertyOp32
 70
     1
102
RTVSPropertyOp33
 70
     1
102
RTVSPropertyOp34
 70
     1
102
RTVSPropertyOp35
 70
     1
102
RTVSPropertyOp36
 70
     1
102
RTVSPropertyOp37
 70
     0
102
RTVSPropertyOp38
 70
     0
102
RTVSPropertyOp39
 70
     0
102
RTVSPropertyOp40
 70
     0
102
RTVSPropertyOp41
 70
     0
102
RTVSPropertyOp42
 70
     0
102
RTVSPropertyOp43
 70
     0
102
RTVSPropertyOp44
 70
     0
102
RTVSPropertyOp45
 70
     1
102
RTVSPropertyOp46
 70
     0
102
RTVSPropertyOp47
 70
     0
102
RTVSPropertyOp48
 70
     0
102
RTVSPropertyOp49
 70
     1
102
RTVSPropertyOp50
 70
     0
102
RTVSPropertyOp51
 70
     0
102
RTVSPropertyOp52
 70
     0
102
RTVSPropertyOp53
 70
     0
102
RTVSPropertyOp54
 70
     0
102
RTVSPropertyOp55
 70
     1
102
RTVSPropertyOp56
 70
     0
102
RTVSPropertyOp57
 70
     0
102
RTVSPropertyOp58
 70
     0
102
RTVSPropertyOp59
 70
     0
102
RTVSPropertyOp60
 70
     0
102
RTVSPropertyOp61
 70
     0
102
RTVSPropertyOp62
 70
     0
  0
XRECORD
  5
1A8F
102
{ACAD_REACTORS
330
1A8E
102
}
330
1A8E
100
AcDbXrecord
280
     1
102
RTVSPost2010Prop28
280
     0
102
RTVSPost2010PropOp28
 70
     1
102
RTVSPost2010Prop29
280
     1
102
RTVSPost2010PropOp29
 70
     1
102
RTVSPost2010Prop30
280
     1
102
RTVSPost2010PropOp30
 70
     1
102
RTVSPost2010Prop31
280
     0
102
RTVSPost2010PropOp31
 70
     1
102
RTVSPost2010Prop32
280
     0
102
RTVSPost2010PropOp32
 70
     1
102
RTVSPost2010Prop33
280
     0
102
RTVSPost2010PropOp33
 70
     1
102
RTVSPost2010Prop34
280
     0
102
RTVSPost2010PropOp34
 70
     1
102
RTVSPost2010Prop35
280
     0
102
RTVSPost2010PropOp35
 70
     1
102
RTVSPost2010Prop36
280
     0
102
RTVSPost2010PropOp36
 70
     1
102
RTVSPost2010Prop37
 90
       50
102
RTVSPost2010PropOp37
 70
     1
102
RTVSPost2010Prop38
140
0.0
102
RTVSPost2010PropOp38
 70
     1
102
RTVSPost2010Prop39
140
1.0
102
RTVSPost2010PropOp39
 70
     1
102
RTVSPost2010Prop40
 90
        0
102
RTVSPost2010PropOp40
 70
     1
102
RTVSPost2010Prop41ColorIndex
 90
       18
102
RTVSPost2010Prop41ColorRGB
 90
        0
102
RTVSPost2010PropOp41
 70
     1
102
RTVSPost2010Prop42
 90
       50
102
RTVSPost2010PropOp42
 70
     1
102
RTVSPost2010Prop43
 90
        3
102
RTVSPost2010PropOp43
 70
     1
102
RTVSPost2010Prop44ColorIndex
 90
        5
102
RTVSPost2010Prop44ColorRGB
 90
      255
102
RTVSPost2010PropOp44
 70
     1
102
RTVSPost2010Prop45
280
     0
102
RTVSPost2010PropOp45
 70
     1
102
RTVSPost2010Prop46
 90
       50
102
RTVSPost2010PropOp46
 70
     1
102
RTVSPost2010Prop47
 90
       50
102
RTVSPost2010PropOp47
 70
     1
102
RTVSPost2010Prop48
 90
       50
102
RTVSPost2010PropOp48
 70
     1
102
RTVSPost2010Prop49
280
     0
102
RTVSPost2010PropOp49
 70
     1
102
RTVSPost2010Prop50
 90
       50
102
RTVSPost2010PropOp50
 70
     1
102
RTVSPost2010Prop51ColorIndex
 90
      256
102
RTVSPost2010Prop51ColorRGB
 90
-16777216
102
RTVSPost2010PropOp51
 70
     0
102
RTVSPost2010Prop52
140
1.0
102
RTVSPost2010PropOp52
 70
     0
102
RTVSPost2010Prop53
 90
        2
102
RTVSPost2010PropOp53
 70
     1
102
RTVSPost2010Prop54
  1
strokes_ogs.tif
102
RTVSPost2010PropOp54
 70
     1
102
RTVSPost2010Prop55
280
     0
102
RTVSPost2010PropOp55
 70
     1
102
RTVSPost2010Prop56
140
1.0
102
RTVSPost2010PropOp56
 70
     1
102
RTVSPost2010Prop57
140
1.0
102
RTVSPost2010PropOp57
 70
     1
102
RTVSPropertyOp0
 70
     1
102
RTVSPropertyOp1
 70
     1
102
RTVSPropertyOp2
 70
     1
102
RTVSPropertyOp3
 70
     1
102
RTVSPropertyOp4
 70
     1
102
RTVSPropertyOp5
 70
     1
102
RTVSPropertyOp6
 70
     1
102
RTVSPropertyOp7
 70
     1
102
RTVSPropertyOp8
 70
     1
102
RTVSPropertyOp9
 70
     1
102
RTVSPropertyOp10
 70
     1
102
RTVSPropertyOp11
 70
     1
102
RTVSPropertyOp12
 70
     1
102
RTVSPropertyOp13
 70
     1
102
RTVSPropertyOp14
 70
     1
102
RTVSPropertyOp15
 70
     1
102
RTVSPropertyOp16
 70
     1
102
RTVSPropertyOp17
 70
     1
102
RTVSPropertyOp18
 70
     1
102
RTVSPropertyOp19
 70
     1
102
RTVSPropertyOp20
 70
     1
102
RTVSPropertyOp21
 70
     1
102
RTVSPropertyOp22
 70
     1
102
RTVSPropertyOp23
 70
     1
102
RTVSPropertyOp24
 70
     1
102
RTVSPropertyOp25
 70
     1
102
RTVSPropertyOp26
 70
     1
102
RTVSPropertyOp27
 70
     1
102
RTVSPropertyOp28
 70
     1
102
RTVSPropertyOp29
 70
     1
102
RTVSPropertyOp30
 70
     1
102
RTVSPropertyOp31
 70
     1
102
RTVSPropertyOp32
 70
     1
102
RTVSPropertyOp33
 70
     1
102
RTVSPropertyOp34
 70
     1
102
RTVSPropertyOp35
 70
     1
102
RTVSPropertyOp36
 70
     1
102
RTVSPropertyOp37
 70
     1
102
RTVSPropertyOp38
 70
     1
102
RTVSPropertyOp39
 70
     1
102
RTVSPropertyOp40
 70
     1
102
RTVSPropertyOp41
 70
     1
102
RTVSPropertyOp42
 70
     1
102
RTVSPropertyOp43
 70
     1
102
RTVSPropertyOp44
 70
     1
102
RTVSPropertyOp45
 70
     1
102
RTVSPropertyOp46
 70
     1
102
RTVSPropertyOp47
 70
     1
102
RTVSPropertyOp48
 70
     1
102
RTVSPropertyOp49
 70
     1
102
RTVSPropertyOp50
 70
     1
102
RTVSPropertyOp51
 70
     0
102
RTVSPropertyOp52
 70
     0
102
RTVSPropertyOp53
 70
     1
102
RTVSPropertyOp54
 70
     1
102
RTVSPropertyOp55
 70
     1
102
RTVSPropertyOp56
 70
     1
102
RTVSPropertyOp57
 70
     1
102
RTVSPropertyOp58
 70
     1
102
RTVSPropertyOp59
 70
     1
102
RTVSPropertyOp60
 70
     1
102
RTVSPropertyOp61
 70
     1
102
RTVSPropertyOp62
 70
     1
  0
XRECORD
  5
1AA1
102
{ACAD_REACTORS
330
1AA0
102
}
330
1AA0
100
AcDbXrecord
280
     1
102
RTVSPost2010Prop28
280
     0
102
RTVSPost2010PropOp28
 70
     1
102
RTVSPost2010Prop29
280
     1
102
RTVSPost2010PropOp29
 70
     1
102
RTVSPost2010Prop30
280
     1
102
RTVSPost2010PropOp30
 70
     1
102
RTVSPost2010Prop31
280
     0
102
RTVSPost2010PropOp31
 70
     1
102
RTVSPost2010Prop32
280
     0
102
RTVSPost2010PropOp32
 70
     1
102
RTVSPost2010Prop33
280
     0
102
RTVSPost2010PropOp33
 70
     1
102
RTVSPost2010Prop34
280
     0
102
RTVSPost2010PropOp34
 70
     1
102
RTVSPost2010Prop35
280
     0
102
RTVSPost2010PropOp35
 70
     1
102
RTVSPost2010Prop36
280
     0
102
RTVSPost2010PropOp36
 70
     1
102
RTVSPost2010Prop37
 90
       50
102
RTVSPost2010PropOp37
 70
     0
102
RTVSPost2010Prop38
140
0.0
102
RTVSPost2010PropOp38
 70
     0
102
RTVSPost2010Prop39
140
1.0
102
RTVSPost2010PropOp39
 70
     0
102
RTVSPost2010Prop40
 90
        0
102
RTVSPost2010PropOp40
 70
     0
102
RTVSPost2010Prop41ColorIndex
 90
       18
102
RTVSPost2010Prop41ColorRGB
 90
        0
102
RTVSPost2010PropOp41
 70
     0
102
RTVSPost2010Prop42
 90
       50
102
RTVSPost2010PropOp42
 70
     0
102
RTVSPost2010Prop43
 90
        3
102
RTVSPost2010PropOp43
 70
     0
102
RTVSPost2010Prop44ColorIndex
 90
        5
102
RTVSPost2010Prop44ColorRGB
 90
      255
102
RTVSPost2010PropOp44
 70
     0
102
RTVSPost2010Prop45
280
     0
102
RTVSPost2010PropOp45
 70
     1
102
RTVSPost2010Prop46
 90
       50
102
RTVSPost2010PropOp46
 70
     0
102
RTVSPost2010Prop47
 90
       50
102
RTVSPost2010PropOp47
 70
     0
102
RTVSPost2010Prop48
 90
       50
102
RTVSPost2010PropOp48
 70
     0
102
RTVSPost2010Prop49
280
     0
102
RTVSPost2010PropOp49
 70
     1
102
RTVSPost2010Prop50
 90
       50
102
RTVSPost2010PropOp50
 70
     0
102
RTVSPost2010Prop51ColorIndex
 90
      256
102
RTVSPost2010Prop51ColorRGB
 90
-16777216
102
RTVSPost2010PropOp51
 70
     0
102
RTVSPost2010Prop52
140
1.0
102
RTVSPost2010PropOp52
 70
     0
102
RTVSPost2010Prop53
 90
        2
102
RTVSPost2010PropOp53
 70
     0
102
RTVSPost2010Prop54
  1
strokes_ogs.tif
102
RTVSPost2010PropOp54
 70
     0
102
RTVSPost2010Prop55
280
     0
102
RTVSPost2010PropOp55
 70
     1
102
RTVSPost2010Prop56
140
1.0
102
RTVSPost2010PropOp56
 70
     0
102
RTVSPost2010Prop57
140
1.0
102
RTVSPost2010PropOp57
 70
     0
102
RTVSPropertyOp0
 70
     0
102
RTVSPropertyOp1
 70
     0
102
RTVSPropertyOp2
 70
     0
102
RTVSPropertyOp3
 70
     0
102
RTVSPropertyOp4
 70
     0
102
RTVSPropertyOp5
 70
     0
102
RTVSPropertyOp6
 70
     0
102
RTVSPropertyOp7
 70
     0
102
RTVSPropertyOp8
 70
     0
102
RTVSPropertyOp9
 70
     0
102
RTVSPropertyOp10
 70
     0
102
RTVSPropertyOp11
 70
     0
102
RTVSPropertyOp12
 70
     0
102
RTVSPropertyOp13
 70
     0
102
RTVSPropertyOp14
 70
     2
102
RTVSPropertyOp15
 70
     0
102
RTVSPropertyOp16
 70
     0
102
RTVSPropertyOp17
 70
     0
102
RTVSPropertyOp18
 70
     0
102
RTVSPropertyOp19
 70
     0
102
RTVSPropertyOp20
 70
     0
102
RTVSPropertyOp21
 70
     0
102
RTVSPropertyOp22
 70
     0
102
RTVSPropertyOp23
 70
     0
102
RTVSPropertyOp24
 70
     0
102
RTVSPropertyOp25
 70
     0
102
RTVSPropertyOp26
 70
     0
102
RTVSPropertyOp27
 70
     0
102
RTVSPropertyOp28
 70
     1
102
RTVSPropertyOp29
 70
     1
102
RTVSPropertyOp30
 70
     1
102
RTVSPropertyOp31
 70
     1
102
RTVSPropertyOp32
 70
     1
102
RTVSPropertyOp33
 70
     1
102
RTVSPropertyOp34
 70
     1
102
RTVSPropertyOp35
 70
     1
102
RTVSPropertyOp36
 70
     1
102
RTVSPropertyOp37
 70
     0
102
RTVSPropertyOp38
 70
     0
102
RTVSPropertyOp39
 70
     0
102
RTVSPropertyOp40
 70
     0
102
RTVSPropertyOp41
 70
     0
102
RTVSPropertyOp42
 70
     0
102
RTVSPropertyOp43
 70
     0
102
RTVSPropertyOp44
 70
     0
102
RTVSPropertyOp45
 70
     1
102
RTVSPropertyOp46
 70
     0
102
RTVSPropertyOp47
 70
     0
102
RTVSPropertyOp48
 70
     0
102
RTVSPropertyOp49
 70
     1
102
RTVSPropertyOp50
 70
     0
102
RTVSPropertyOp51
 70
     0
102
RTVSPropertyOp52
 70
     0
102
RTVSPropertyOp53
 70
     0
102
RTVSPropertyOp54
 70
     0
102
RTVSPropertyOp55
 70
     1
102
RTVSPropertyOp56
 70
     0
102
RTVSPropertyOp57
 70
     0
102
RTVSPropertyOp58
 70
     0
102
RTVSPropertyOp59
 70
     0
102
RTVSPropertyOp60
 70
     0
102
RTVSPropertyOp61
 70
     0
102
RTVSPropertyOp62
 70
     0
  0
XRECORD
  5
1A87
102
{ACAD_REACTORS
330
1A86
102
}
330
1A86
100
AcDbXrecord
280
     1
102
RTVSPost2010Prop28
280
     0
102
RTVSPost2010PropOp28
 70
     1
102
RTVSPost2010Prop29
280
     1
102
RTVSPost2010PropOp29
 70
     1
102
RTVSPost2010Prop30
280
     1
102
RTVSPost2010PropOp30
 70
     1
102
RTVSPost2010Prop31
280
     0
102
RTVSPost2010PropOp31
 70
     1
102
RTVSPost2010Prop32
280
     0
102
RTVSPost2010PropOp32
 70
     1
102
RTVSPost2010Prop33
280
     0
102
RTVSPost2010PropOp33
 70
     1
102
RTVSPost2010Prop34
280
     0
102
RTVSPost2010PropOp34
 70
     1
102
RTVSPost2010Prop35
280
     0
102
RTVSPost2010PropOp35
 70
     1
102
RTVSPost2010Prop36
280
     0
102
RTVSPost2010PropOp36
 70
     1
102
RTVSPost2010Prop37
 90
       50
102
RTVSPost2010PropOp37
 70
     1
102
RTVSPost2010Prop38
140
0.0
102
RTVSPost2010PropOp38
 70
     1
102
RTVSPost2010Prop39
140
1.0
102
RTVSPost2010PropOp39
 70
     1
102
RTVSPost2010Prop40
 90
        0
102
RTVSPost2010PropOp40
 70
     1
102
RTVSPost2010Prop41ColorIndex
 90
       18
102
RTVSPost2010Prop41ColorRGB
 90
        0
102
RTVSPost2010PropOp41
 70
     1
102
RTVSPost2010Prop42
 90
       50
102
RTVSPost2010PropOp42
 70
     1
102
RTVSPost2010Prop43
 90
        3
102
RTVSPost2010PropOp43
 70
     1
102
RTVSPost2010Prop44ColorIndex
 90
        5
102
RTVSPost2010Prop44ColorRGB
 90
      255
102
RTVSPost2010PropOp44
 70
     1
102
RTVSPost2010Prop45
280
     0
102
RTVSPost2010PropOp45
 70
     1
102
RTVSPost2010Prop46
 90
       50
102
RTVSPost2010PropOp46
 70
     1
102
RTVSPost2010Prop47
 90
       50
102
RTVSPost2010PropOp47
 70
     1
102
RTVSPost2010Prop48
 90
       50
102
RTVSPost2010PropOp48
 70
     1
102
RTVSPost2010Prop49
280
     0
102
RTVSPost2010PropOp49
 70
     1
102
RTVSPost2010Prop50
 90
       50
102
RTVSPost2010PropOp50
 70
     1
102
RTVSPost2010Prop51ColorIndex
 90
      256
102
RTVSPost2010Prop51ColorRGB
 90
-16777216
102
RTVSPost2010PropOp51
 70
     0
102
RTVSPost2010Prop52
140
1.0
102
RTVSPost2010PropOp52
 70
     0
102
RTVSPost2010Prop53
 90
        2
102
RTVSPost2010PropOp53
 70
     1
102
RTVSPost2010Prop54
  1
strokes_ogs.tif
102
RTVSPost2010PropOp54
 70
     1
102
RTVSPost2010Prop55
280
     0
102
RTVSPost2010PropOp55
 70
     1
102
RTVSPost2010Prop56
140
1.0
102
RTVSPost2010PropOp56
 70
     1
102
RTVSPost2010Prop57
140
1.0
102
RTVSPost2010PropOp57
 70
     1
102
RTVSPropertyOp0
 70
     1
102
RTVSPropertyOp1
 70
     1
102
RTVSPropertyOp2
 70
     1
102
RTVSPropertyOp3
 70
     1
102
RTVSPropertyOp4
 70
     1
102
RTVSPropertyOp5
 70
     1
102
RTVSPropertyOp6
 70
     1
102
RTVSPropertyOp7
 70
     1
102
RTVSPropertyOp8
 70
     1
102
RTVSPropertyOp9
 70
     1
102
RTVSPropertyOp10
 70
     1
102
RTVSPropertyOp11
 70
     1
102
RTVSPropertyOp12
 70
     1
102
RTVSPropertyOp13
 70
     1
102
RTVSPropertyOp14
 70
     1
102
RTVSPropertyOp15
 70
     1
102
RTVSPropertyOp16
 70
     1
102
RTVSPropertyOp17
 70
     1
102
RTVSPropertyOp18
 70
     1
102
RTVSPropertyOp19
 70
     1
102
RTVSPropertyOp20
 70
     1
102
RTVSPropertyOp21
 70
     1
102
RTVSPropertyOp22
 70
     1
102
RTVSPropertyOp23
 70
     1
102
RTVSPropertyOp24
 70
     1
102
RTVSPropertyOp25
 70
     1
102
RTVSPropertyOp26
 70
     1
102
RTVSPropertyOp27
 70
     1
102
RTVSPropertyOp28
 70
     1
102
RTVSPropertyOp29
 70
     1
102
RTVSPropertyOp30
 70
     1
102
RTVSPropertyOp31
 70
     1
102
RTVSPropertyOp32
 70
     1
102
RTVSPropertyOp33
 70
     1
102
RTVSPropertyOp34
 70
     1
102
RTVSPropertyOp35
 70
     1
102
RTVSPropertyOp36
 70
     1
102
RTVSPropertyOp37
 70
     1
102
RTVSPropertyOp38
 70
     1
102
RTVSPropertyOp39
 70
     1
102
RTVSPropertyOp40
 70
     1
102
RTVSPropertyOp41
 70
     1
102
RTVSPropertyOp42
 70
     1
102
RTVSPropertyOp43
 70
     1
102
RTVSPropertyOp44
 70
     1
102
RTVSPropertyOp45
 70
     1
102
RTVSPropertyOp46
 70
     1
102
RTVSPropertyOp47
 70
     1
102
RTVSPropertyOp48
 70
     1
102
RTVSPropertyOp49
 70
     1
102
RTVSPropertyOp50
 70
     1
102
RTVSPropertyOp51
 70
     0
102
RTVSPropertyOp52
 70
     0
102
RTVSPropertyOp53
 70
     1
102
RTVSPropertyOp54
 70
     1
102
RTVSPropertyOp55
 70
     1
102
RTVSPropertyOp56
 70
     1
102
RTVSPropertyOp57
 70
     1
102
RTVSPropertyOp58
 70
     1
102
RTVSPropertyOp59
 70
     1
102
RTVSPropertyOp60
 70
     1
102
RTVSPropertyOp61
 70
     1
102
RTVSPropertyOp62
 70
     1
  0
XRECORD
  5
1A9D
102
{ACAD_REACTORS
330
1A9C
102
}
330
1A9C
100
AcDbXrecord
280
     1
102
RTVSPost2010Prop28
280
     0
102
RTVSPost2010PropOp28
 70
     1
102
RTVSPost2010Prop29
280
     1
102
RTVSPost2010PropOp29
 70
     1
102
RTVSPost2010Prop30
280
     1
102
RTVSPost2010PropOp30
 70
     1
102
RTVSPost2010Prop31
280
     0
102
RTVSPost2010PropOp31
 70
     1
102
RTVSPost2010Prop32
280
     0
102
RTVSPost2010PropOp32
 70
     1
102
RTVSPost2010Prop33
280
     0
102
RTVSPost2010PropOp33
 70
     1
102
RTVSPost2010Prop34
280
     0
102
RTVSPost2010PropOp34
 70
     1
102
RTVSPost2010Prop35
280
     0
102
RTVSPost2010PropOp35
 70
     1
102
RTVSPost2010Prop36
280
     0
102
RTVSPost2010PropOp36
 70
     1
102
RTVSPost2010Prop37
 90
       50
102
RTVSPost2010PropOp37
 70
     1
102
RTVSPost2010Prop38
140
0.0
102
RTVSPost2010PropOp38
 70
     1
102
RTVSPost2010Prop39
140
1.0
102
RTVSPost2010PropOp39
 70
     1
102
RTVSPost2010Prop40
 90
        0
102
RTVSPost2010PropOp40
 70
     1
102
RTVSPost2010Prop41ColorIndex
 90
       18
102
RTVSPost2010Prop41ColorRGB
 90
        0
102
RTVSPost2010PropOp41
 70
     1
102
RTVSPost2010Prop42
 90
       50
102
RTVSPost2010PropOp42
 70
     1
102
RTVSPost2010Prop43
 90
        3
102
RTVSPost2010PropOp43
 70
     1
102
RTVSPost2010Prop44ColorIndex
 90
        5
102
RTVSPost2010Prop44ColorRGB
 90
      255
102
RTVSPost2010PropOp44
 70
     1
102
RTVSPost2010Prop45
280
     0
102
RTVSPost2010PropOp45
 70
     1
102
RTVSPost2010Prop46
 90
       50
102
RTVSPost2010PropOp46
 70
     1
102
RTVSPost2010Prop47
 90
       50
102
RTVSPost2010PropOp47
 70
     1
102
RTVSPost2010Prop48
 90
       50
102
RTVSPost2010PropOp48
 70
     1
102
RTVSPost2010Prop49
280
     0
102
RTVSPost2010PropOp49
 70
     1
102
RTVSPost2010Prop50
 90
       50
102
RTVSPost2010PropOp50
 70
     1
102
RTVSPost2010Prop51ColorIndex
 90
      256
102
RTVSPost2010Prop51ColorRGB
 90
-16777216
102
RTVSPost2010PropOp51
 70
     0
102
RTVSPost2010Prop52
140
1.0
102
RTVSPost2010PropOp52
 70
     0
102
RTVSPost2010Prop53
 90
        2
102
RTVSPost2010PropOp53
 70
     1
102
RTVSPost2010Prop54
  1
strokes_ogs.tif
102
RTVSPost2010PropOp54
 70
     1
102
RTVSPost2010Prop55
280
     0
102
RTVSPost2010PropOp55
 70
     1
102
RTVSPost2010Prop56
140
1.0
102
RTVSPost2010PropOp56
 70
     1
102
RTVSPost2010Prop57
140
1.0
102
RTVSPost2010PropOp57
 70
     1
102
RTVSPropertyOp0
 70
     1
102
RTVSPropertyOp1
 70
     1
102
RTVSPropertyOp2
 70
     1
102
RTVSPropertyOp3
 70
     1
102
RTVSPropertyOp4
 70
     1
102
RTVSPropertyOp5
 70
     1
102
RTVSPropertyOp6
 70
     1
102
RTVSPropertyOp7
 70
     1
102
RTVSPropertyOp8
 70
     1
102
RTVSPropertyOp9
 70
     1
102
RTVSPropertyOp10
 70
     1
102
RTVSPropertyOp11
 70
     1
102
RTVSPropertyOp12
 70
     1
102
RTVSPropertyOp13
 70
     1
102
RTVSPropertyOp14
 70
     1
102
RTVSPropertyOp15
 70
     1
102
RTVSPropertyOp16
 70
     1
102
RTVSPropertyOp17
 70
     1
102
RTVSPropertyOp18
 70
     1
102
RTVSPropertyOp19
 70
     1
102
RTVSPropertyOp20
 70
     1
102
RTVSPropertyOp21
 70
     1
102
RTVSPropertyOp22
 70
     1
102
RTVSPropertyOp23
 70
     1
102
RTVSPropertyOp24
 70
     1
102
RTVSPropertyOp25
 70
     1
102
RTVSPropertyOp26
 70
     1
102
RTVSPropertyOp27
 70
     1
102
RTVSPropertyOp28
 70
     1
102
RTVSPropertyOp29
 70
     1
102
RTVSPropertyOp30
 70
     1
102
RTVSPropertyOp31
 70
     1
102
RTVSPropertyOp32
 70
     1
102
RTVSPropertyOp33
 70
     1
102
RTVSPropertyOp34
 70
     1
102
RTVSPropertyOp35
 70
     1
102
RTVSPropertyOp36
 70
     1
102
RTVSPropertyOp37
 70
     1
102
RTVSPropertyOp38
 70
     1
102
RTVSPropertyOp39
 70
     1
102
RTVSPropertyOp40
 70
     1
102
RTVSPropertyOp41
 70
     1
102
RTVSPropertyOp42
 70
     1
102
RTVSPropertyOp43
 70
     1
102
RTVSPropertyOp44
 70
     1
102
RTVSPropertyOp45
 70
     1
102
RTVSPropertyOp46
 70
     1
102
RTVSPropertyOp47
 70
     1
102
RTVSPropertyOp48
 70
     1
102
RTVSPropertyOp49
 70
     1
102
RTVSPropertyOp50
 70
     1
102
RTVSPropertyOp51
 70
     0
102
RTVSPropertyOp52
 70
     0
102
RTVSPropertyOp53
 70
     1
102
RTVSPropertyOp54
 70
     1
102
RTVSPropertyOp55
 70
     1
102
RTVSPropertyOp56
 70
     1
102
RTVSPropertyOp57
 70
     1
102
RTVSPropertyOp58
 70
     1
102
RTVSPropertyOp59
 70
     1
102
RTVSPropertyOp60
 70
     1
102
RTVSPropertyOp61
 70
     1
102
RTVSPropertyOp62
 70
     1
  0
XRECORD
  5
1A9B
102
{ACAD_REACTORS
330
1A9A
102
}
330
1A9A
100
AcDbXrecord
280
     1
102
RTVSPost2010Prop28
280
     0
102
RTVSPost2010PropOp28
 70
     1
102
RTVSPost2010Prop29
280
     1
102
RTVSPost2010PropOp29
 70
     1
102
RTVSPost2010Prop30
280
     1
102
RTVSPost2010PropOp30
 70
     1
102
RTVSPost2010Prop31
280
     0
102
RTVSPost2010PropOp31
 70
     1
102
RTVSPost2010Prop32
280
     0
102
RTVSPost2010PropOp32
 70
     1
102
RTVSPost2010Prop33
280
     0
102
RTVSPost2010PropOp33
 70
     1
102
RTVSPost2010Prop34
280
     0
102
RTVSPost2010PropOp34
 70
     1
102
RTVSPost2010Prop35
280
     0
102
RTVSPost2010PropOp35
 70
     1
102
RTVSPost2010Prop36
280
     0
102
RTVSPost2010PropOp36
 70
     1
102
RTVSPost2010Prop37
 90
       50
102
RTVSPost2010PropOp37
 70
     1
102
RTVSPost2010Prop38
140
0.0
102
RTVSPost2010PropOp38
 70
     1
102
RTVSPost2010Prop39
140
1.0
102
RTVSPost2010PropOp39
 70
     1
102
RTVSPost2010Prop40
 90
        0
102
RTVSPost2010PropOp40
 70
     1
102
RTVSPost2010Prop41ColorIndex
 90
       18
102
RTVSPost2010Prop41ColorRGB
 90
        0
102
RTVSPost2010PropOp41
 70
     1
102
RTVSPost2010Prop42
 90
       50
102
RTVSPost2010PropOp42
 70
     1
102
RTVSPost2010Prop43
 90
        3
102
RTVSPost2010PropOp43
 70
     1
102
RTVSPost2010Prop44ColorIndex
 90
        5
102
RTVSPost2010Prop44ColorRGB
 90
      255
102
RTVSPost2010PropOp44
 70
     1
102
RTVSPost2010Prop45
280
     0
102
RTVSPost2010PropOp45
 70
     1
102
RTVSPost2010Prop46
 90
       50
102
RTVSPost2010PropOp46
 70
     1
102
RTVSPost2010Prop47
 90
       50
102
RTVSPost2010PropOp47
 70
     1
102
RTVSPost2010Prop48
 90
       50
102
RTVSPost2010PropOp48
 70
     1
102
RTVSPost2010Prop49
280
     0
102
RTVSPost2010PropOp49
 70
     1
102
RTVSPost2010Prop50
 90
       50
102
RTVSPost2010PropOp50
 70
     1
102
RTVSPost2010Prop51ColorIndex
 90
      256
102
RTVSPost2010Prop51ColorRGB
 90
-16777216
102
RTVSPost2010PropOp51
 70
     0
102
RTVSPost2010Prop52
140
1.0
102
RTVSPost2010PropOp52
 70
     0
102
RTVSPost2010Prop53
 90
        2
102
RTVSPost2010PropOp53
 70
     1
102
RTVSPost2010Prop54
  1
strokes_ogs.tif
102
RTVSPost2010PropOp54
 70
     1
102
RTVSPost2010Prop55
280
     0
102
RTVSPost2010PropOp55
 70
     1
102
RTVSPost2010Prop56
140
1.0
102
RTVSPost2010PropOp56
 70
     1
102
RTVSPost2010Prop57
140
1.0
102
RTVSPost2010PropOp57
 70
     1
102
RTVSPropertyOp0
 70
     1
102
RTVSPropertyOp1
 70
     1
102
RTVSPropertyOp2
 70
     1
102
RTVSPropertyOp3
 70
     1
102
RTVSPropertyOp4
 70
     1
102
RTVSPropertyOp5
 70
     1
102
RTVSPropertyOp6
 70
     1
102
RTVSPropertyOp7
 70
     1
102
RTVSPropertyOp8
 70
     1
102
RTVSPropertyOp9
 70
     1
102
RTVSPropertyOp10
 70
     1
102
RTVSPropertyOp11
 70
     1
102
RTVSPropertyOp12
 70
     1
102
RTVSPropertyOp13
 70
     1
102
RTVSPropertyOp14
 70
     1
102
RTVSPropertyOp15
 70
     1
102
RTVSPropertyOp16
 70
     1
102
RTVSPropertyOp17
 70
     1
102
RTVSPropertyOp18
 70
     1
102
RTVSPropertyOp19
 70
     1
102
RTVSPropertyOp20
 70
     1
102
RTVSPropertyOp21
 70
     1
102
RTVSPropertyOp22
 70
     1
102
RTVSPropertyOp23
 70
     1
102
RTVSPropertyOp24
 70
     1
102
RTVSPropertyOp25
 70
     1
102
RTVSPropertyOp26
 70
     1
102
RTVSPropertyOp27
 70
     1
102
RTVSPropertyOp28
 70
     1
102
RTVSPropertyOp29
 70
     1
102
RTVSPropertyOp30
 70
     1
102
RTVSPropertyOp31
 70
     1
102
RTVSPropertyOp32
 70
     1
102
RTVSPropertyOp33
 70
     1
102
RTVSPropertyOp34
 70
     1
102
RTVSPropertyOp35
 70
     1
102
RTVSPropertyOp36
 70
     1
102
RTVSPropertyOp37
 70
     1
102
RTVSPropertyOp38
 70
     1
102
RTVSPropertyOp39
 70
     1
102
RTVSPropertyOp40
 70
     1
102
RTVSPropertyOp41
 70
     1
102
RTVSPropertyOp42
 70
     1
102
RTVSPropertyOp43
 70
     1
102
RTVSPropertyOp44
 70
     1
102
RTVSPropertyOp45
 70
     1
102
RTVSPropertyOp46
 70
     1
102
RTVSPropertyOp47
 70
     1
102
RTVSPropertyOp48
 70
     1
102
RTVSPropertyOp49
 70
     1
102
RTVSPropertyOp50
 70
     1
102
RTVSPropertyOp51
 70
     0
102
RTVSPropertyOp52
 70
     0
102
RTVSPropertyOp53
 70
     1
102
RTVSPropertyOp54
 70
     1
102
RTVSPropertyOp55
 70
     1
102
RTVSPropertyOp56
 70
     1
102
RTVSPropertyOp57
 70
     1
102
RTVSPropertyOp58
 70
     1
102
RTVSPropertyOp59
 70
     1
102
RTVSPropertyOp60
 70
     1
102
RTVSPropertyOp61
 70
     1
102
RTVSPropertyOp62
 70
     1
  0
XRECORD
  5
1A95
102
{ACAD_REACTORS
330
1A94
102
}
330
1A94
100
AcDbXrecord
280
     1
102
RTVSPost2010Prop28
280
     0
102
RTVSPost2010PropOp28
 70
     1
102
RTVSPost2010Prop29
280
     1
102
RTVSPost2010PropOp29
 70
     1
102
RTVSPost2010Prop30
280
     1
102
RTVSPost2010PropOp30
 70
     1
102
RTVSPost2010Prop31
280
     0
102
RTVSPost2010PropOp31
 70
     1
102
RTVSPost2010Prop32
280
     0
102
RTVSPost2010PropOp32
 70
     1
102
RTVSPost2010Prop33
280
     0
102
RTVSPost2010PropOp33
 70
     1
102
RTVSPost2010Prop34
280
     0
102
RTVSPost2010PropOp34
 70
     1
102
RTVSPost2010Prop35
280
     0
102
RTVSPost2010PropOp35
 70
     1
102
RTVSPost2010Prop36
280
     0
102
RTVSPost2010PropOp36
 70
     1
102
RTVSPost2010Prop37
 90
       50
102
RTVSPost2010PropOp37
 70
     1
102
RTVSPost2010Prop38
140
0.0
102
RTVSPost2010PropOp38
 70
     1
102
RTVSPost2010Prop39
140
1.0
102
RTVSPost2010PropOp39
 70
     1
102
RTVSPost2010Prop40
 90
        0
102
RTVSPost2010PropOp40
 70
     1
102
RTVSPost2010Prop41ColorIndex
 90
       18
102
RTVSPost2010Prop41ColorRGB
 90
        0
102
RTVSPost2010PropOp41
 70
     1
102
RTVSPost2010Prop42
 90
       50
102
RTVSPost2010PropOp42
 70
     1
102
RTVSPost2010Prop43
 90
        3
102
RTVSPost2010PropOp43
 70
     1
102
RTVSPost2010Prop44ColorIndex
 90
        5
102
RTVSPost2010Prop44ColorRGB
 90
      255
102
RTVSPost2010PropOp44
 70
     1
102
RTVSPost2010Prop45
280
     0
102
RTVSPost2010PropOp45
 70
     1
102
RTVSPost2010Prop46
 90
       50
102
RTVSPost2010PropOp46
 70
     1
102
RTVSPost2010Prop47
 90
       50
102
RTVSPost2010PropOp47
 70
     1
102
RTVSPost2010Prop48
 90
       50
102
RTVSPost2010PropOp48
 70
     1
102
RTVSPost2010Prop49
280
     0
102
RTVSPost2010PropOp49
 70
     1
102
RTVSPost2010Prop50
 90
       50
102
RTVSPost2010PropOp50
 70
     1
102
RTVSPost2010Prop51ColorIndex
 90
      256
102
RTVSPost2010Prop51ColorRGB
 90
-16777216
102
RTVSPost2010PropOp51
 70
     0
102
RTVSPost2010Prop52
140
1.0
102
RTVSPost2010PropOp52
 70
     0
102
RTVSPost2010Prop53
 90
        2
102
RTVSPost2010PropOp53
 70
     1
102
RTVSPost2010Prop54
  1
strokes_ogs.tif
102
RTVSPost2010PropOp54
 70
     1
102
RTVSPost2010Prop55
280
     0
102
RTVSPost2010PropOp55
 70
     1
102
RTVSPost2010Prop56
140
1.0
102
RTVSPost2010PropOp56
 70
     1
102
RTVSPost2010Prop57
140
1.0
102
RTVSPost2010PropOp57
 70
     1
102
RTVSPropertyOp0
 70
     1
102
RTVSPropertyOp1
 70
     1
102
RTVSPropertyOp2
 70
     1
102
RTVSPropertyOp3
 70
     1
102
RTVSPropertyOp4
 70
     1
102
RTVSPropertyOp5
 70
     1
102
RTVSPropertyOp6
 70
     1
102
RTVSPropertyOp7
 70
     1
102
RTVSPropertyOp8
 70
     1
102
RTVSPropertyOp9
 70
     1
102
RTVSPropertyOp10
 70
     1
102
RTVSPropertyOp11
 70
     1
102
RTVSPropertyOp12
 70
     1
102
RTVSPropertyOp13
 70
     1
102
RTVSPropertyOp14
 70
     1
102
RTVSPropertyOp15
 70
     1
102
RTVSPropertyOp16
 70
     1
102
RTVSPropertyOp17
 70
     1
102
RTVSPropertyOp18
 70
     1
102
RTVSPropertyOp19
 70
     1
102
RTVSPropertyOp20
 70
     1
102
RTVSPropertyOp21
 70
     1
102
RTVSPropertyOp22
 70
     1
102
RTVSPropertyOp23
 70
     1
102
RTVSPropertyOp24
 70
     1
102
RTVSPropertyOp25
 70
     1
102
RTVSPropertyOp26
 70
     1
102
RTVSPropertyOp27
 70
     1
102
RTVSPropertyOp28
 70
     1
102
RTVSPropertyOp29
 70
     1
102
RTVSPropertyOp30
 70
     1
102
RTVSPropertyOp31
 70
     1
102
RTVSPropertyOp32
 70
     1
102
RTVSPropertyOp33
 70
     1
102
RTVSPropertyOp34
 70
     1
102
RTVSPropertyOp35
 70
     1
102
RTVSPropertyOp36
 70
     1
102
RTVSPropertyOp37
 70
     1
102
RTVSPropertyOp38
 70
     1
102
RTVSPropertyOp39
 70
     1
102
RTVSPropertyOp40
 70
     1
102
RTVSPropertyOp41
 70
     1
102
RTVSPropertyOp42
 70
     1
102
RTVSPropertyOp43
 70
     1
102
RTVSPropertyOp44
 70
     1
102
RTVSPropertyOp45
 70
     1
102
RTVSPropertyOp46
 70
     1
102
RTVSPropertyOp47
 70
     1
102
RTVSPropertyOp48
 70
     1
102
RTVSPropertyOp49
 70
     1
102
RTVSPropertyOp50
 70
     1
102
RTVSPropertyOp51
 70
     0
102
RTVSPropertyOp52
 70
     0
102
RTVSPropertyOp53
 70
     1
102
RTVSPropertyOp54
 70
     1
102
RTVSPropertyOp55
 70
     1
102
RTVSPropertyOp56
 70
     1
102
RTVSPropertyOp57
 70
     1
102
RTVSPropertyOp58
 70
     1
102
RTVSPropertyOp59
 70
     1
102
RTVSPropertyOp60
 70
     1
102
RTVSPropertyOp61
 70
     1
102
RTVSPropertyOp62
 70
     1
  0
XRECORD
  5
1A97
102
{ACAD_REACTORS
330
1A96
102
}
330
1A96
100
AcDbXrecord
280
     1
102
RTVSPost2010Prop28
280
     0
102
RTVSPost2010PropOp28
 70
     1
102
RTVSPost2010Prop29
280
     1
102
RTVSPost2010PropOp29
 70
     1
102
RTVSPost2010Prop30
280
     1
102
RTVSPost2010PropOp30
 70
     1
102
RTVSPost2010Prop31
280
     0
102
RTVSPost2010PropOp31
 70
     1
102
RTVSPost2010Prop32
280
     0
102
RTVSPost2010PropOp32
 70
     1
102
RTVSPost2010Prop33
280
     0
102
RTVSPost2010PropOp33
 70
     1
102
RTVSPost2010Prop34
280
     0
102
RTVSPost2010PropOp34
 70
     1
102
RTVSPost2010Prop35
280
     0
102
RTVSPost2010PropOp35
 70
     1
102
RTVSPost2010Prop36
280
     0
102
RTVSPost2010PropOp36
 70
     1
102
RTVSPost2010Prop37
 90
       50
102
RTVSPost2010PropOp37
 70
     1
102
RTVSPost2010Prop38
140
0.0
102
RTVSPost2010PropOp38
 70
     1
102
RTVSPost2010Prop39
140
1.0
102
RTVSPost2010PropOp39
 70
     1
102
RTVSPost2010Prop40
 90
        0
102
RTVSPost2010PropOp40
 70
     1
102
RTVSPost2010Prop41ColorIndex
 90
       18
102
RTVSPost2010Prop41ColorRGB
 90
        0
102
RTVSPost2010PropOp41
 70
     1
102
RTVSPost2010Prop42
 90
       50
102
RTVSPost2010PropOp42
 70
     1
102
RTVSPost2010Prop43
 90
        3
102
RTVSPost2010PropOp43
 70
     1
102
RTVSPost2010Prop44ColorIndex
 90
        5
102
RTVSPost2010Prop44ColorRGB
 90
      255
102
RTVSPost2010PropOp44
 70
     1
102
RTVSPost2010Prop45
280
     0
102
RTVSPost2010PropOp45
 70
     1
102
RTVSPost2010Prop46
 90
       50
102
RTVSPost2010PropOp46
 70
     1
102
RTVSPost2010Prop47
 90
       50
102
RTVSPost2010PropOp47
 70
     1
102
RTVSPost2010Prop48
 90
       50
102
RTVSPost2010PropOp48
 70
     1
102
RTVSPost2010Prop49
280
     0
102
RTVSPost2010PropOp49
 70
     1
102
RTVSPost2010Prop50
 90
       50
102
RTVSPost2010PropOp50
 70
     1
102
RTVSPost2010Prop51ColorIndex
 90
      256
102
RTVSPost2010Prop51ColorRGB
 90
-16777216
102
RTVSPost2010PropOp51
 70
     0
102
RTVSPost2010Prop52
140
1.0
102
RTVSPost2010PropOp52
 70
     0
102
RTVSPost2010Prop53
 90
        2
102
RTVSPost2010PropOp53
 70
     1
102
RTVSPost2010Prop54
  1
strokes_ogs.tif
102
RTVSPost2010PropOp54
 70
     1
102
RTVSPost2010Prop55
280
     0
102
RTVSPost2010PropOp55
 70
     1
102
RTVSPost2010Prop56
140
1.0
102
RTVSPost2010PropOp56
 70
     1
102
RTVSPost2010Prop57
140
1.0
102
RTVSPost2010PropOp57
 70
     1
102
RTVSPropertyOp0
 70
     1
102
RTVSPropertyOp1
 70
     1
102
RTVSPropertyOp2
 70
     1
102
RTVSPropertyOp3
 70
     1
102
RTVSPropertyOp4
 70
     1
102
RTVSPropertyOp5
 70
     1
102
RTVSPropertyOp6
 70
     1
102
RTVSPropertyOp7
 70
     1
102
RTVSPropertyOp8
 70
     1
102
RTVSPropertyOp9
 70
     1
102
RTVSPropertyOp10
 70
     1
102
RTVSPropertyOp11
 70
     1
102
RTVSPropertyOp12
 70
     1
102
RTVSPropertyOp13
 70
     1
102
RTVSPropertyOp14
 70
     1
102
RTVSPropertyOp15
 70
     1
102
RTVSPropertyOp16
 70
     1
102
RTVSPropertyOp17
 70
     1
102
RTVSPropertyOp18
 70
     1
102
RTVSPropertyOp19
 70
     1
102
RTVSPropertyOp20
 70
     1
102
RTVSPropertyOp21
 70
     1
102
RTVSPropertyOp22
 70
     1
102
RTVSPropertyOp23
 70
     1
102
RTVSPropertyOp24
 70
     1
102
RTVSPropertyOp25
 70
     1
102
RTVSPropertyOp26
 70
     1
102
RTVSPropertyOp27
 70
     1
102
RTVSPropertyOp28
 70
     1
102
RTVSPropertyOp29
 70
     1
102
RTVSPropertyOp30
 70
     1
102
RTVSPropertyOp31
 70
     1
102
RTVSPropertyOp32
 70
     1
102
RTVSPropertyOp33
 70
     1
102
RTVSPropertyOp34
 70
     1
102
RTVSPropertyOp35
 70
     1
102
RTVSPropertyOp36
 70
     1
102
RTVSPropertyOp37
 70
     1
102
RTVSPropertyOp38
 70
     1
102
RTVSPropertyOp39
 70
     1
102
RTVSPropertyOp40
 70
     1
102
RTVSPropertyOp41
 70
     1
102
RTVSPropertyOp42
 70
     1
102
RTVSPropertyOp43
 70
     1
102
RTVSPropertyOp44
 70
     1
102
RTVSPropertyOp45
 70
     1
102
RTVSPropertyOp46
 70
     1
102
RTVSPropertyOp47
 70
     1
102
RTVSPropertyOp48
 70
     1
102
RTVSPropertyOp49
 70
     1
102
RTVSPropertyOp50
 70
     1
102
RTVSPropertyOp51
 70
     0
102
RTVSPropertyOp52
 70
     0
102
RTVSPropertyOp53
 70
     1
102
RTVSPropertyOp54
 70
     1
102
RTVSPropertyOp55
 70
     1
102
RTVSPropertyOp56
 70
     1
102
RTVSPropertyOp57
 70
     1
102
RTVSPropertyOp58
 70
     1
102
RTVSPropertyOp59
 70
     1
102
RTVSPropertyOp60
 70
     1
102
RTVSPropertyOp61
 70
     1
102
RTVSPropertyOp62
 70
     1
  0
XRECORD
  5
1A8D
102
{ACAD_REACTORS
330
1A8C
102
}
330
1A8C
100
AcDbXrecord
280
     1
102
RTVSPost2010Prop28
280
     0
102
RTVSPost2010PropOp28
 70
     1
102
RTVSPost2010Prop29
280
     1
102
RTVSPost2010PropOp29
 70
     1
102
RTVSPost2010Prop30
280
     1
102
RTVSPost2010PropOp30
 70
     1
102
RTVSPost2010Prop31
280
     0
102
RTVSPost2010PropOp31
 70
     1
102
RTVSPost2010Prop32
280
     0
102
RTVSPost2010PropOp32
 70
     1
102
RTVSPost2010Prop33
280
     0
102
RTVSPost2010PropOp33
 70
     1
102
RTVSPost2010Prop34
280
     0
102
RTVSPost2010PropOp34
 70
     1
102
RTVSPost2010Prop35
280
     0
102
RTVSPost2010PropOp35
 70
     1
102
RTVSPost2010Prop36
280
     0
102
RTVSPost2010PropOp36
 70
     1
102
RTVSPost2010Prop37
 90
       50
102
RTVSPost2010PropOp37
 70
     1
102
RTVSPost2010Prop38
140
0.0
102
RTVSPost2010PropOp38
 70
     1
102
RTVSPost2010Prop39
140
1.0
102
RTVSPost2010PropOp39
 70
     1
102
RTVSPost2010Prop40
 90
        0
102
RTVSPost2010PropOp40
 70
     1
102
RTVSPost2010Prop41ColorIndex
 90
       18
102
RTVSPost2010Prop41ColorRGB
 90
        0
102
RTVSPost2010PropOp41
 70
     1
102
RTVSPost2010Prop42
 90
       50
102
RTVSPost2010PropOp42
 70
     1
102
RTVSPost2010Prop43
 90
        3
102
RTVSPost2010PropOp43
 70
     1
102
RTVSPost2010Prop44ColorIndex
 90
        5
102
RTVSPost2010Prop44ColorRGB
 90
      255
102
RTVSPost2010PropOp44
 70
     1
102
RTVSPost2010Prop45
280
     0
102
RTVSPost2010PropOp45
 70
     1
102
RTVSPost2010Prop46
 90
       50
102
RTVSPost2010PropOp46
 70
     1
102
RTVSPost2010Prop47
 90
       50
102
RTVSPost2010PropOp47
 70
     1
102
RTVSPost2010Prop48
 90
       50
102
RTVSPost2010PropOp48
 70
     1
102
RTVSPost2010Prop49
280
     0
102
RTVSPost2010PropOp49
 70
     1
102
RTVSPost2010Prop50
 90
       50
102
RTVSPost2010PropOp50
 70
     1
102
RTVSPost2010Prop51ColorIndex
 90
      256
102
RTVSPost2010Prop51ColorRGB
 90
-16777216
102
RTVSPost2010PropOp51
 70
     0
102
RTVSPost2010Prop52
140
1.0
102
RTVSPost2010PropOp52
 70
     0
102
RTVSPost2010Prop53
 90
        2
102
RTVSPost2010PropOp53
 70
     1
102
RTVSPost2010Prop54
  1
strokes_ogs.tif
102
RTVSPost2010PropOp54
 70
     1
102
RTVSPost2010Prop55
280
     0
102
RTVSPost2010PropOp55
 70
     1
102
RTVSPost2010Prop56
140
1.0
102
RTVSPost2010PropOp56
 70
     1
102
RTVSPost2010Prop57
140
1.0
102
RTVSPost2010PropOp57
 70
     1
102
RTVSPropertyOp0
 70
     1
102
RTVSPropertyOp1
 70
     1
102
RTVSPropertyOp2
 70
     1
102
RTVSPropertyOp3
 70
     1
102
RTVSPropertyOp4
 70
     1
102
RTVSPropertyOp5
 70
     1
102
RTVSPropertyOp6
 70
     1
102
RTVSPropertyOp7
 70
     1
102
RTVSPropertyOp8
 70
     1
102
RTVSPropertyOp9
 70
     1
102
RTVSPropertyOp10
 70
     1
102
RTVSPropertyOp11
 70
     1
102
RTVSPropertyOp12
 70
     1
102
RTVSPropertyOp13
 70
     1
102
RTVSPropertyOp14
 70
     1
102
RTVSPropertyOp15
 70
     1
102
RTVSPropertyOp16
 70
     1
102
RTVSPropertyOp17
 70
     1
102
RTVSPropertyOp18
 70
     1
102
RTVSPropertyOp19
 70
     1
102
RTVSPropertyOp20
 70
     1
102
RTVSPropertyOp21
 70
     1
102
RTVSPropertyOp22
 70
     1
102
RTVSPropertyOp23
 70
     1
102
RTVSPropertyOp24
 70
     1
102
RTVSPropertyOp25
 70
     1
102
RTVSPropertyOp26
 70
     1
102
RTVSPropertyOp27
 70
     1
102
RTVSPropertyOp28
 70
     1
102
RTVSPropertyOp29
 70
     1
102
RTVSPropertyOp30
 70
     1
102
RTVSPropertyOp31
 70
     1
102
RTVSPropertyOp32
 70
     1
102
RTVSPropertyOp33
 70
     1
102
RTVSPropertyOp34
 70
     1
102
RTVSPropertyOp35
 70
     1
102
RTVSPropertyOp36
 70
     1
102
RTVSPropertyOp37
 70
     1
102
RTVSPropertyOp38
 70
     1
102
RTVSPropertyOp39
 70
     1
102
RTVSPropertyOp40
 70
     1
102
RTVSPropertyOp41
 70
     1
102
RTVSPropertyOp42
 70
     1
102
RTVSPropertyOp43
 70
     1
102
RTVSPropertyOp44
 70
     1
102
RTVSPropertyOp45
 70
     1
102
RTVSPropertyOp46
 70
     1
102
RTVSPropertyOp47
 70
     1
102
RTVSPropertyOp48
 70
     1
102
RTVSPropertyOp49
 70
     1
102
RTVSPropertyOp50
 70
     1
102
RTVSPropertyOp51
 70
     0
102
RTVSPropertyOp52
 70
     0
102
RTVSPropertyOp53
 70
     1
102
RTVSPropertyOp54
 70
     1
102
RTVSPropertyOp55
 70
     1
102
RTVSPropertyOp56
 70
     1
102
RTVSPropertyOp57
 70
     1
102
RTVSPropertyOp58
 70
     1
102
RTVSPropertyOp59
 70
     1
102
RTVSPropertyOp60
 70
     1
102
RTVSPropertyOp61
 70
     1
102
RTVSPropertyOp62
 70
     1
  0
XRECORD
  5
1A81
102
{ACAD_REACTORS
330
1A80
102
}
330
1A80
100
AcDbXrecord
280
     1
102
RTVSPost2010Prop28
280
     0
102
RTVSPost2010PropOp28
 70
     1
102
RTVSPost2010Prop29
280
     1
102
RTVSPost2010PropOp29
 70
     1
102
RTVSPost2010Prop30
280
     1
102
RTVSPost2010PropOp30
 70
     1
102
RTVSPost2010Prop31
280
     0
102
RTVSPost2010PropOp31
 70
     1
102
RTVSPost2010Prop32
280
     0
102
RTVSPost2010PropOp32
 70
     1
102
RTVSPost2010Prop33
280
     0
102
RTVSPost2010PropOp33
 70
     1
102
RTVSPost2010Prop34
280
     0
102
RTVSPost2010PropOp34
 70
     1
102
RTVSPost2010Prop35
280
     0
102
RTVSPost2010PropOp35
 70
     1
102
RTVSPost2010Prop36
280
     0
102
RTVSPost2010PropOp36
 70
     1
102
RTVSPost2010Prop37
 90
       50
102
RTVSPost2010PropOp37
 70
     1
102
RTVSPost2010Prop38
140
0.0
102
RTVSPost2010PropOp38
 70
     1
102
RTVSPost2010Prop39
140
1.0
102
RTVSPost2010PropOp39
 70
     1
102
RTVSPost2010Prop40
 90
        0
102
RTVSPost2010PropOp40
 70
     1
102
RTVSPost2010Prop41ColorIndex
 90
       18
102
RTVSPost2010Prop41ColorRGB
 90
        0
102
RTVSPost2010PropOp41
 70
     1
102
RTVSPost2010Prop42
 90
       50
102
RTVSPost2010PropOp42
 70
     1
102
RTVSPost2010Prop43
 90
        3
102
RTVSPost2010PropOp43
 70
     1
102
RTVSPost2010Prop44ColorIndex
 90
        5
102
RTVSPost2010Prop44ColorRGB
 90
      255
102
RTVSPost2010PropOp44
 70
     1
102
RTVSPost2010Prop45
280
     0
102
RTVSPost2010PropOp45
 70
     1
102
RTVSPost2010Prop46
 90
       50
102
RTVSPost2010PropOp46
 70
     1
102
RTVSPost2010Prop47
 90
       50
102
RTVSPost2010PropOp47
 70
     1
102
RTVSPost2010Prop48
 90
       50
102
RTVSPost2010PropOp48
 70
     1
102
RTVSPost2010Prop49
280
     0
102
RTVSPost2010PropOp49
 70
     1
102
RTVSPost2010Prop50
 90
       50
102
RTVSPost2010PropOp50
 70
     1
102
RTVSPost2010Prop51ColorIndex
 90
      256
102
RTVSPost2010Prop51ColorRGB
 90
-16777216
102
RTVSPost2010PropOp51
 70
     0
102
RTVSPost2010Prop52
140
1.0
102
RTVSPost2010PropOp52
 70
     0
102
RTVSPost2010Prop53
 90
        2
102
RTVSPost2010PropOp53
 70
     1
102
RTVSPost2010Prop54
  1
strokes_ogs.tif
102
RTVSPost2010PropOp54
 70
     1
102
RTVSPost2010Prop55
280
     0
102
RTVSPost2010PropOp55
 70
     1
102
RTVSPost2010Prop56
140
1.0
102
RTVSPost2010PropOp56
 70
     1
102
RTVSPost2010Prop57
140
1.0
102
RTVSPost2010PropOp57
 70
     1
102
RTVSPropertyOp0
 70
     1
102
RTVSPropertyOp1
 70
     1
102
RTVSPropertyOp2
 70
     1
102
RTVSPropertyOp3
 70
     1
102
RTVSPropertyOp4
 70
     1
102
RTVSPropertyOp5
 70
     1
102
RTVSPropertyOp6
 70
     1
102
RTVSPropertyOp7
 70
     1
102
RTVSPropertyOp8
 70
     1
102
RTVSPropertyOp9
 70
     1
102
RTVSPropertyOp10
 70
     1
102
RTVSPropertyOp11
 70
     1
102
RTVSPropertyOp12
 70
     1
102
RTVSPropertyOp13
 70
     1
102
RTVSPropertyOp14
 70
     1
102
RTVSPropertyOp15
 70
     1
102
RTVSPropertyOp16
 70
     1
102
RTVSPropertyOp17
 70
     1
102
RTVSPropertyOp18
 70
     1
102
RTVSPropertyOp19
 70
     1
102
RTVSPropertyOp20
 70
     1
102
RTVSPropertyOp21
 70
     1
102
RTVSPropertyOp22
 70
     1
102
RTVSPropertyOp23
 70
     1
102
RTVSPropertyOp24
 70
     1
102
RTVSPropertyOp25
 70
     1
102
RTVSPropertyOp26
 70
     1
102
RTVSPropertyOp27
 70
     1
102
RTVSPropertyOp28
 70
     1
102
RTVSPropertyOp29
 70
     1
102
RTVSPropertyOp30
 70
     1
102
RTVSPropertyOp31
 70
     1
102
RTVSPropertyOp32
 70
     1
102
RTVSPropertyOp33
 70
     1
102
RTVSPropertyOp34
 70
     1
102
RTVSPropertyOp35
 70
     1
102
RTVSPropertyOp36
 70
     1
102
RTVSPropertyOp37
 70
     1
102
RTVSPropertyOp38
 70
     1
102
RTVSPropertyOp39
 70
     1
102
RTVSPropertyOp40
 70
     1
102
RTVSPropertyOp41
 70
     1
102
RTVSPropertyOp42
 70
     1
102
RTVSPropertyOp43
 70
     1
102
RTVSPropertyOp44
 70
     1
102
RTVSPropertyOp45
 70
     1
102
RTVSPropertyOp46
 70
     1
102
RTVSPropertyOp47
 70
     1
102
RTVSPropertyOp48
 70
     1
102
RTVSPropertyOp49
 70
     1
102
RTVSPropertyOp50
 70
     1
102
RTVSPropertyOp51
 70
     0
102
RTVSPropertyOp52
 70
     0
102
RTVSPropertyOp53
 70
     1
102
RTVSPropertyOp54
 70
     1
102
RTVSPropertyOp55
 70
     1
102
RTVSPropertyOp56
 70
     1
102
RTVSPropertyOp57
 70
     1
102
RTVSPropertyOp58
 70
     1
102
RTVSPropertyOp59
 70
     1
102
RTVSPropertyOp60
 70
     1
102
RTVSPropertyOp61
 70
     1
102
RTVSPropertyOp62
 70
     1
  0
XRECORD
  5
1A99
102
{ACAD_REACTORS
330
1A98
102
}
330
1A98
100
AcDbXrecord
280
     1
102
RTVSPost2010Prop28
280
     0
102
RTVSPost2010PropOp28
 70
     1
102
RTVSPost2010Prop29
280
     1
102
RTVSPost2010PropOp29
 70
     1
102
RTVSPost2010Prop30
280
     1
102
RTVSPost2010PropOp30
 70
     1
102
RTVSPost2010Prop31
280
     0
102
RTVSPost2010PropOp31
 70
     1
102
RTVSPost2010Prop32
280
     0
102
RTVSPost2010PropOp32
 70
     1
102
RTVSPost2010Prop33
280
     0
102
RTVSPost2010PropOp33
 70
     1
102
RTVSPost2010Prop34
280
     0
102
RTVSPost2010PropOp34
 70
     1
102
RTVSPost2010Prop35
280
     0
102
RTVSPost2010PropOp35
 70
     1
102
RTVSPost2010Prop36
280
     0
102
RTVSPost2010PropOp36
 70
     1
102
RTVSPost2010Prop37
 90
       50
102
RTVSPost2010PropOp37
 70
     1
102
RTVSPost2010Prop38
140
0.0
102
RTVSPost2010PropOp38
 70
     1
102
RTVSPost2010Prop39
140
1.0
102
RTVSPost2010PropOp39
 70
     1
102
RTVSPost2010Prop40
 90
        0
102
RTVSPost2010PropOp40
 70
     1
102
RTVSPost2010Prop41ColorIndex
 90
       18
102
RTVSPost2010Prop41ColorRGB
 90
        0
102
RTVSPost2010PropOp41
 70
     1
102
RTVSPost2010Prop42
 90
       50
102
RTVSPost2010PropOp42
 70
     1
102
RTVSPost2010Prop43
 90
        3
102
RTVSPost2010PropOp43
 70
     1
102
RTVSPost2010Prop44ColorIndex
 90
        5
102
RTVSPost2010Prop44ColorRGB
 90
      255
102
RTVSPost2010PropOp44
 70
     1
102
RTVSPost2010Prop45
280
     0
102
RTVSPost2010PropOp45
 70
     1
102
RTVSPost2010Prop46
 90
       50
102
RTVSPost2010PropOp46
 70
     1
102
RTVSPost2010Prop47
 90
       50
102
RTVSPost2010PropOp47
 70
     1
102
RTVSPost2010Prop48
 90
       50
102
RTVSPost2010PropOp48
 70
     1
102
RTVSPost2010Prop49
280
     0
102
RTVSPost2010PropOp49
 70
     1
102
RTVSPost2010Prop50
 90
       50
102
RTVSPost2010PropOp50
 70
     1
102
RTVSPost2010Prop51ColorIndex
 90
      256
102
RTVSPost2010Prop51ColorRGB
 90
-16777216
102
RTVSPost2010PropOp51
 70
     0
102
RTVSPost2010Prop52
140
1.0
102
RTVSPost2010PropOp52
 70
     0
102
RTVSPost2010Prop53
 90
        2
102
RTVSPost2010PropOp53
 70
     1
102
RTVSPost2010Prop54
  1
strokes_ogs.tif
102
RTVSPost2010PropOp54
 70
     1
102
RTVSPost2010Prop55
280
     0
102
RTVSPost2010PropOp55
 70
     1
102
RTVSPost2010Prop56
140
1.0
102
RTVSPost2010PropOp56
 70
     1
102
RTVSPost2010Prop57
140
1.0
102
RTVSPost2010PropOp57
 70
     1
102
RTVSPropertyOp0
 70
     1
102
RTVSPropertyOp1
 70
     1
102
RTVSPropertyOp2
 70
     1
102
RTVSPropertyOp3
 70
     1
102
RTVSPropertyOp4
 70
     1
102
RTVSPropertyOp5
 70
     1
102
RTVSPropertyOp6
 70
     1
102
RTVSPropertyOp7
 70
     1
102
RTVSPropertyOp8
 70
     1
102
RTVSPropertyOp9
 70
     1
102
RTVSPropertyOp10
 70
     1
102
RTVSPropertyOp11
 70
     1
102
RTVSPropertyOp12
 70
     1
102
RTVSPropertyOp13
 70
     1
102
RTVSPropertyOp14
 70
     1
102
RTVSPropertyOp15
 70
     1
102
RTVSPropertyOp16
 70
     1
102
RTVSPropertyOp17
 70
     1
102
RTVSPropertyOp18
 70
     1
102
RTVSPropertyOp19
 70
     1
102
RTVSPropertyOp20
 70
     1
102
RTVSPropertyOp21
 70
     1
102
RTVSPropertyOp22
 70
     1
102
RTVSPropertyOp23
 70
     1
102
RTVSPropertyOp24
 70
     1
102
RTVSPropertyOp25
 70
     1
102
RTVSPropertyOp26
 70
     1
102
RTVSPropertyOp27
 70
     1
102
RTVSPropertyOp28
 70
     1
102
RTVSPropertyOp29
 70
     1
102
RTVSPropertyOp30
 70
     1
102
RTVSPropertyOp31
 70
     1
102
RTVSPropertyOp32
 70
     1
102
RTVSPropertyOp33
 70
     1
102
RTVSPropertyOp34
 70
     1
102
RTVSPropertyOp35
 70
     1
102
RTVSPropertyOp36
 70
     1
102
RTVSPropertyOp37
 70
     1
102
RTVSPropertyOp38
 70
     1
102
RTVSPropertyOp39
 70
     1
102
RTVSPropertyOp40
 70
     1
102
RTVSPropertyOp41
 70
     1
102
RTVSPropertyOp42
 70
     1
102
RTVSPropertyOp43
 70
     1
102
RTVSPropertyOp44
 70
     1
102
RTVSPropertyOp45
 70
     1
102
RTVSPropertyOp46
 70
     1
102
RTVSPropertyOp47
 70
     1
102
RTVSPropertyOp48
 70
     1
102
RTVSPropertyOp49
 70
     1
102
RTVSPropertyOp50
 70
     1
102
RTVSPropertyOp51
 70
     0
102
RTVSPropertyOp52
 70
     0
102
RTVSPropertyOp53
 70
     1
102
RTVSPropertyOp54
 70
     1
102
RTVSPropertyOp55
 70
     1
102
RTVSPropertyOp56
 70
     1
102
RTVSPropertyOp57
 70
     1
102
RTVSPropertyOp58
 70
     1
102
RTVSPropertyOp59
 70
     1
102
RTVSPropertyOp60
 70
     1
102
RTVSPropertyOp61
 70
     1
102
RTVSPropertyOp62
 70
     1
  0
ENDSEC
  0
EOF
