  0
SECTION
  2
HEADER
  9
$ACADVER
  1
AC1015
  9
$ACADMAINTVER
 70
     6
  9
$DWGCODEPAGE
  3
ANSI_1252
  9
$INSBASE
 10
0.0
 20
0.0
 30
0.0
  9
$EXTMIN
 10
0.0
 20
0.0
 30
0.0
  9
$EXTMAX
 10
420.0
 20
297.0
 30
0.0
  9
$LIMMIN
 10
0.0
 20
0.0
  9
$LIMMAX
 10
420.0
 20
297.0
  9
$ORTHOMODE
 70
     0
  9
$REGENMODE
 70
     1
  9
$FILLMODE
 70
     1
  9
$QTEXTMODE
 70
     0
  9
$MIRRTEXT
 70
     1
  9
$LTSCALE
 40
1.0
  9
$ATTMODE
 70
     1
  9
$TEXTSIZE
 40
2.5
  9
$TRACEWID
 40
1.0
  9
$TEXTSTYLE
  7
Standard
  9
$CLAYER
  8
0
  9
$CELTYPE
  6
ByLayer
  9
$CECOLOR
 62
   256
  9
$CELTSCALE
 40
1.0
  9
$DISPSILH
 70
     0
  9
$DIMSCALE
 40
1.0
  9
$DIMASZ
 40
2.5
  9
$DIMEXO
 40
0.0
  9
$DIMDLI
 40
3.75
  9
$DIMRND
 40
0.0
  9
$DIMDLE
 40
0.0
  9
$DIMEXE
 40
1.0
  9
$DIMTP
 40
0.0
  9
$DIMTM
 40
0.0
  9
$DIMTXT
 40
2.5
  9
$DIMCEN
 40
2.5
  9
$DIMTSZ
 40
0.0
  9
$DIMTOL
 70
     0
  9
$DIMLIM
 70
     0
  9
$DIMTIH
 70
     1
  9
$DIMTOH
 70
     1
  9
$DIMSE1
 70
     0
  9
$DIMSE2
 70
     0
  9
$DIMTAD
 70
     1
  9
$DIMZIN
 70
     0
  9
$DIMBLK
  1

  9
$DIMASO
 70
     1
  9
$DIMSHO
 70
     1
  9
$DIMPOST
  1

  9
$DIMAPOST
  1

  9
$DIMALT
 70
     0
  9
$DIMALTD
 70
     3
  9
$DIMALTF
 40
0.0393700787
  9
$DIMLFAC
 40
1.0
  9
$DIMTOFL
 70
     1
  9
$DIMTVP
 40
0.0
  9
$DIMTIX
 70
     0
  9
$DIMSOXD
 70
     0
  9
$DIMSAH
 70
     0
  9
$DIMBLK1
  1

  9
$DIMBLK2
  1

  9
$DIMSTYLE
  2
ISO-25
  9
$DIMCLRD
 70
     0
  9
$DIMCLRE
 70
     0
  9
$DIMCLRT
 70
     0
  9
$DIMTFAC
 40
1.0
  9
$DIMGAP
 40
1.524
  9
$DIMJUST
 70
     0
  9
$DIMSD1
 70
     0
  9
$DIMSD2
 70
     0
  9
$DIMTOLJ
 70
     0
  9
$DIMTZIN
 70
     0
  9
$DIMALTZ
 70
     0
  9
$DIMALTTZ
 70
     0
  9
$DIMUPT
 70
     0
  9
$DIMDEC
 70
     2
  9
$DIMTDEC
 70
     2
  9
$DIMALTU
 70
     2
  9
$DIMALTTD
 70
     3
  9
$DIMTXSTY
  7
Standard
  9
$DIMAUNIT
 70
     0
  9
$DIMADEC
 70
     2
  9
$DIMALTRND
 40
0.0
  9
$DIMAZIN
 70
     0
  9
$DIMDSEP
 70
    44
  9
$DIMATFIT
 70
     3
  9
$DIMFRAC
 70
     0
  9
$DIMLDRBLK
  1

  9
$DIMLUNIT
 70
     2
  9
$DIMLWD
 70
    -2
  9
$DIMLWE
 70
    -2
  9
$DIMTMOVE
 70
     0
  9
$LUNITS
 70
     2
  9
$LUPREC
 70
     1
  9
$SKETCHINC
 40
1.0
  9
$FILLETRAD
 40
10.0
  9
$AUNITS
 70
     0
  9
$AUPREC
 70
     2
  9
$MENU
  1
.
  9
$ELEVATION
 40
0.0
  9
$PELEVATION
 40
0.0
  9
$THICKNESS
 40
0.0
  9
$LIMCHECK
 70
     0
  9
$CHAMFERA
 40
0.0
  9
$CHAMFERB
 40
0.0
  9
$CHAMFERC
 40
0.0
  9
$CHAMFERD
 40
0.0
  9
$SKPOLY
 70
     0
  9
$TDCREATE
 40
2459116.49808934
  9
$TDUCREATE
 40
2459116.414756007
  9
$TDUPDATE
 40
2459116.498091331
  9
$TDUUPDATE
 40
2459116.414757998
  9
$TDINDWG
 40
0.0000000116
  9
$TDUSRTIMER
 40
0.0000000116
  9
$USRTIMER
 70
     1
  9
$ANGBASE
 50
0.0
  9
$ANGDIR
 70
     0
  9
$PDMODE
 70
     0
  9
$PDSIZE
 40
-1.0
  9
$PLINEWID
 40
0.0
  9
$SPLFRAME
 70
     0
  9
$SPLINETYPE
 70
     6
  9
$SPLINESEGS
 70
     8
  9
$HANDSEED
  5
224
  9
$SURFTAB1
 70
     6
  9
$SURFTAB2
 70
     6
  9
$SURFTYPE
 70
     6
  9
$SURFU
 70
     6
  9
$SURFV
 70
     6
  9
$UCSBASE
  2

  9
$UCSNAME
  2

  9
$UCSORG
 10
0.0
 20
0.0
 30
0.0
  9
$UCSXDIR
 10
1.0
 20
0.0
 30
0.0
  9
$UCSYDIR
 10
0.0
 20
1.0
 30
0.0
  9
$UCSORTHOREF
  2

  9
$UCSORTHOVIEW
 70
     0
  9
$UCSORGTOP
 10
0.0
 20
0.0
 30
0.0
  9
$UCSORGBOTTOM
 10
0.0
 20
0.0
 30
0.0
  9
$UCSORGLEFT
 10
0.0
 20
0.0
 30
0.0
  9
$UCSORGRIGHT
 10
0.0
 20
0.0
 30
0.0
  9
$UCSORGFRONT
 10
0.0
 20
0.0
 30
0.0
  9
$UCSORGBACK
 10
0.0
 20
0.0
 30
0.0
  9
$PUCSBASE
  2

  9
$PUCSNAME
  2

  9
$PUCSORG
 10
0.0
 20
0.0
 30
0.0
  9
$PUCSXDIR
 10
1.0
 20
0.0
 30
0.0
  9
$PUCSYDIR
 10
0.0
 20
1.0
 30
0.0
  9
$PUCSORTHOREF
  2

  9
$PUCSORTHOVIEW
 70
     0
  9
$PUCSORGTOP
 10
0.0
 20
0.0
 30
0.0
  9
$PUCSORGBOTTOM
 10
0.0
 20
0.0
 30
0.0
  9
$PUCSORGLEFT
 10
0.0
 20
0.0
 30
0.0
  9
$PUCSORGRIGHT
 10
0.0
 20
0.0
 30
0.0
  9
$PUCSORGFRONT
 10
0.0
 20
0.0
 30
0.0
  9
$PUCSORGBACK
 10
0.0
 20
0.0
 30
0.0
  9
$USERI1
 70
     0
  9
$USERI2
 70
     0
  9
$USERI3
 70
     0
  9
$USERI4
 70
     0
  9
$USERI5
 70
     0
  9
$USERR1
 40
0.0
  9
$USERR2
 40
0.0
  9
$USERR3
 40
0.0
  9
$USERR4
 40
0.0
  9
$USERR5
 40
0.0
  9
$WORLDVIEW
 70
     1
  9
$SHADEDGE
 70
     3
  9
$SHADEDIF
 70
    70
  9
$TILEMODE
 70
     1
  9
$MAXACTVP
 70
    64
  9
$PINSBASE
 10
0.0
 20
0.0
 30
0.0
  9
$PLIMCHECK
 70
     0
  9
$PEXTMIN
 10
1.0000000000E+20
 20
1.0000000000E+20
 30
1.0000000000E+20
  9
$PEXTMAX
 10
-1.0000000000E+20
 20
-1.0000000000E+20
 30
-1.0000000000E+20
  9
$PLIMMIN
 10
0.0
 20
0.0
  9
$PLIMMAX
 10
420.0
 20
297.0
  9
$UNITMODE
 70
     0
  9
$VISRETAIN
 70
     1
  9
$PLINEGEN
 70
     0
  9
$PSLTSCALE
 70
     1
  9
$TREEDEPTH
 70
  3020
  9
$CMLSTYLE
  2
Standard
  9
$CMLJUST
 70
     0
  9
$CMLSCALE
 40
20.0
  9
$PROXYGRAPHICS
 70
     1
  9
$MEASUREMENT
 70
     1
  9
$CELWEIGHT
370
    -1
  9
$ENDCAPS
280
     0
  9
$JOINSTYLE
280
     0
  9
$LWDISPLAY
290
     1
  9
$INSUNITS
 70
     4
  9
$HYPERLINKBASE
  1

  9
$STYLESHEET
  1

  9
$XEDIT
290
     1
  9
$CEPSNTYPE
380
     0
  9
$PSTYLEMODE
290
     1
  9
$FINGERPRINTGUID
  2
{e0b76dcd-4e84-4219-9854-0d06e889ee6e}
  9
$VERSIONGUID
  2
{FAEB1C32-E019-11D5-929B-00C0DF256EC4}
  9
$EXTNAMES
290
     1
  9
$PSVPSCALE
 40
0.0
  9
$OLESTARTUP
290
     0
  0
ENDSEC
  0
SECTION
  2
CLASSES
  0
CLASS
  1
ACDBDICTIONARYWDFLT
  2
AcDbDictionaryWithDefault
  3
ObjectDBX Classes
 90
        0
280
     0
281
     0
  0
CLASS
  1
VISUALSTYLE
  2
AcDbVisualStyle
  3
ObjectDBX Classes
 90
     4095
280
     0
281
     0
  0
CLASS
  1
MATERIAL
  2
AcDbMaterial
  3
ObjectDBX Classes
 90
     1153
280
     0
281
     0
  0
CLASS
  1
SCALE
  2
AcDbScale
  3
ObjectDBX Classes
 90
     1153
280
     0
281
     0
  0
CLASS
  1
TABLESTYLE
  2
AcDbTableStyle
  3
ObjectDBX Classes
 90
     4095
280
     0
281
     0
  0
CLASS
  1
MLEADERSTYLE
  2
AcDbMLeaderStyle
  3
ACDB_MLEADERSTYLE_CLASS
 90
     4095
280
     0
281
     0
  0
CLASS
  1
SUN
  2
AcDbSun
  3
SCENEOE
 90
     1153
280
     0
281
     0
  0
CLASS
  1
ACDBPLACEHOLDER
  2
AcDbPlaceHolder
  3
ObjectDBX Classes
 90
        0
280
     0
281
     0
  0
CLASS
  1
LAYOUT
  2
AcDbLayout
  3
ObjectDBX Classes
 90
        0
280
     0
281
     0
  0
ENDSEC
  0
SECTION
  2
TABLES
  0
TABLE
  2
VPORT
  5
8
330
0
100
AcDbSymbolTable
 70
     1
  0
VPORT
  5
29
330
8
100
AcDbSymbolTableRecord
100
AcDbViewportTableRecord
  2
*Active
 70
     0
 10
0.0
 20
0.0
 11
1.0
 21
1.0
 12
210.0
 22
148.5
 13
0.0
 23
0.0
 14
10.0
 24
10.0
 15
10.0
 25
10.0
 16
0.0
 26
0.0
 36
1.0
 17
0.0
 27
0.0
 37
0.0
 40
297.0
 41
1.4141414141
 42
50.0
 43
0.0
 44
0.0
 50
0.0
 51
0.0
 71
     0
 72
  2000
 73
     1
 74
     3
 75
     0
 76
     0
 77
     0
 78
     0
281
     0
 65
     1
110
0.0
120
0.0
130
0.0
111
1.0
121
0.0
131
0.0
112
0.0
122
1.0
132
0.0
 79
     0
146
0.0
  0
ENDTAB
  0
TABLE
  2
LTYPE
  5
5
330
0
100
AcDbSymbolTable
 70
     6
  0
LTYPE
  5
14
330
5
100
AcDbSymbolTableRecord
100
AcDbLinetypeTableRecord
  2
ByBlock
 70
     0
  3

 72
    65
 73
     0
 40
0.0
  0
LTYPE
  5
15
330
5
100
AcDbSymbolTableRecord
100
AcDbLinetypeTableRecord
  2
ByLayer
 70
     0
  3

 72
    65
 73
     0
 40
0.0
  0
LTYPE
  5
16
330
5
100
AcDbSymbolTableRecord
100
AcDbLinetypeTableRecord
  2
Continuous
 70
     0
  3
Solid line
 72
    65
 73
     0
 40
0.0
  0
LTYPE
  5
6E
330
5
100
AcDbSymbolTableRecord
100
AcDbLinetypeTableRecord
  2
HIDDEN
 70
     0
  3
Hidden __ __ __ __ __ __ __ __ __ __ __ __ __ __
 72
    65
 73
     2
 40
1.905
 49
1.27
 74
     0
 49
-0.635
 74
     0
  0
LTYPE
  5
6F
330
5
100
AcDbSymbolTableRecord
100
AcDbLinetypeTableRecord
  2
PHANTOM
 70
     0
  3
Phantom ______  __  __  ______  __  __  ______
 72
    65
 73
     6
 40
12.7
 49
6.35
 74
     0
 49
-1.27
 74
     0
 49
1.27
 74
     0
 49
-1.27
 74
     0
 49
1.27
 74
     0
 49
-1.27
 74
     0
  0
LTYPE
  5
70
330
5
100
AcDbSymbolTableRecord
100
AcDbLinetypeTableRecord
  2
CENTER
 70
     0
  3
Center ____ _ ____ _ ____ _ ____ _ ____ _ ____
 72
    65
 73
     4
 40
10.16
 49
6.35
 74
     0
 49
-1.27
 74
     0
 49
1.27
 74
     0
 49
-1.27
 74
     0
  0
LTYPE
  5
71
330
5
100
AcDbSymbolTableRecord
100
AcDbLinetypeTableRecord
  2
CENTERX2
 70
     0
  3
Center (2x) ________  __  ________  __  _____
 72
    65
 73
     4
 40
20.32
 49
12.7
 74
     0
 49
-2.54
 74
     0
 49
2.54
 74
     0
 49
-2.54
 74
     0
  0
LTYPE
  5
72
330
5
100
AcDbSymbolTableRecord
100
AcDbLinetypeTableRecord
  2
DOT2
 70
     0
  3
Dot (.5x) ........................................
 72
    65
 73
     2
 40
0.635
 49
0.0
 74
     0
 49
-0.635
 74
     0
  0
ENDTAB
  0
TABLE
  2
LAYER
  5
2
330
0
100
AcDbSymbolTable
 70
    10
  0
LAYER
  5
10
330
2
100
AcDbSymbolTableRecord
100
AcDbLayerTableRecord
  2
0
 70
     0
 62
     7
  6
Continuous
370
    -3
390
F
  0
LAYER
  5
73
330
2
100
AcDbSymbolTableRecord
100
AcDbLayerTableRecord
  2
DIMENSION
 70
     0
 62
     7
  6
Continuous
370
    -3
390
F
  0
LAYER
  5
74
330
2
100
AcDbSymbolTableRecord
100
AcDbLayerTableRecord
  2
NOTES
 70
     0
 62
     7
  6
Continuous
370
    -3
390
F
  0
LAYER
  5
75
330
2
100
AcDbSymbolTableRecord
100
AcDbLayerTableRecord
  2
TABLES
 70
     0
 62
     7
  6
Continuous
370
    -3
390
F
  0
LAYER
  5
76
330
2
100
AcDbSymbolTableRecord
100
AcDbLayerTableRecord
  2
INVISIBLE
 70
     0
 62
    -7
  6
Continuous
290
     0
370
    -3
390
F
  0
LAYER
  5
77
330
2
100
AcDbSymbolTableRecord
100
AcDbLayerTableRecord
  2
WEP
 70
     0
 62
  -150
  6
Continuous
290
     0
370
    -3
390
F
  0
LAYER
  5
78
330
2
100
AcDbSymbolTableRecord
100
AcDbLayerTableRecord
  2
EMP
 70
     0
 62
     1
  6
Continuous
370
    -3
390
F
  0
LAYER
  5
79
330
2
100
AcDbSymbolTableRecord
100
AcDbLayerTableRecord
  2
MARKETING_DRW
 70
     0
 62
    -7
  6
Continuous
290
     0
370
    -3
390
F
  0
LAYER
  5
7A
330
2
100
AcDbSymbolTableRecord
100
AcDbLayerTableRecord
  2
SINGLE_ARTICLE_DRW
 70
     0
 62
     7
  6
Continuous
370
    -3
390
F
  0
LAYER
  5
7B
330
2
100
AcDbSymbolTableRecord
100
AcDbLayerTableRecord
  2
TABLE_DRW
 70
     0
 62
    -7
  6
Continuous
290
     0
370
    -3
390
F
  0
ENDTAB
  0
TABLE
  2
STYLE
  5
3
330
0
100
AcDbSymbolTable
 70
     2
  0
STYLE
  5
11
330
3
100
AcDbSymbolTableRecord
100
AcDbTextStyleTableRecord
  2
Standard
 70
     0
 40
0.0
 41
1.0
 50
0.0
 71
     0
 42
2.5
  3
txt
  4

  0
STYLE
  5
F5
330
3
100
AcDbSymbolTableRecord
100
AcDbTextStyleTableRecord
  2
SLDTEXTSTYLE0
 70
     0
 40
0.0
 41
0.605
 50
0.0
 71
     0
 42
2.5
  3
TXT
  4

  0
ENDTAB
  0
TABLE
  2
VIEW
  5
6
330
0
100
AcDbSymbolTable
 70
     0
  0
ENDTAB
  0
TABLE
  2
UCS
  5
7
330
0
100
AcDbSymbolTable
 70
     0
  0
ENDTAB
  0
TABLE
  2
APPID
  5
9
330
0
100
AcDbSymbolTable
 70
     1
  0
APPID
  5
12
330
9
100
AcDbSymbolTableRecord
100
AcDbRegAppTableRecord
  2
ACAD
 70
     0
  0
ENDTAB
  0
TABLE
  2
DIMSTYLE
  5
A
330
0
100
AcDbSymbolTable
 70
     3
100
AcDbDimStyleTable
  0
DIMSTYLE
105
27
330
A
100
AcDbSymbolTableRecord
100
AcDbDimStyleTableRecord
  2
ISO-25
 70
     0
 41
2.5
 42
0.625
 43
3.75
 44
1.25
 73
     0
 74
     0
 77
     1
 78
     8
140
2.5
141
2.5
143
0.0393700787
147
0.625
171
     3
172
     1
178
     0
271
     2
272
     2
274
     3
278
    44
283
     0
284
     8
340
11
  0
DIMSTYLE
105
F6
102
{ACAD_REACTORS
330
F4
330
15F
102
}
330
A
100
AcDbSymbolTableRecord
100
AcDbDimStyleTableRecord
  2
SLDDIMSTYLE0
 70
     0
 41
2.5
 44
0.0
 45
0.000000001
 73
     0
 74
     0
 77
     1
 78
    12
 79
     3
140
2.5
147
0.625
172
     1
173
     1
178
     0
271
     0
272
     0
276
     2
284
    12
289
     0
340
F5
  0
DIMSTYLE
105
210
102
{ACAD_REACTORS
330
20F
330
21A
102
}
330
A
100
AcDbSymbolTableRecord
100
AcDbDimStyleTableRecord
  2
SLDDIMSTYLE1
 70
     0
 41
2.5
 44
0.0
 45
0.000000001
 73
     0
 74
     0
 77
     1
 78
    12
 79
     3
140
2.5
147
0.625
173
     1
178
     0
271
     2
272
     2
276
     2
284
    12
340
F5
  0
ENDTAB
  0
TABLE
  2
BLOCK_RECORD
  5
1
330
0
100
AcDbSymbolTable
 70
     5
  0
BLOCK_RECORD
  5
1F
330
1
100
AcDbSymbolTableRecord
100
AcDbBlockTableRecord
  2
*Model_Space
340
22
  0
BLOCK_RECORD
  5
1B
330
1
100
AcDbSymbolTableRecord
100
AcDbBlockTableRecord
  2
*Paper_Space
340
1E
  0
BLOCK_RECORD
  5
23
330
1
100
AcDbSymbolTableRecord
100
AcDbBlockTableRecord
  2
*Paper_Space0
340
26
  0
BLOCK_RECORD
  5
F7
330
1
100
AcDbSymbolTableRecord
100
AcDbBlockTableRecord
  2
_D
340
0
  0
BLOCK_RECORD
  5
160
330
1
100
AcDbSymbolTableRecord
100
AcDbBlockTableRecord
  2
_D_1
340
0
  0
BLOCK_RECORD
  5
211
330
1
100
AcDbSymbolTableRecord
100
AcDbBlockTableRecord
  2
_D_2
340
0
  0
BLOCK_RECORD
  5
21B
330
1
100
AcDbSymbolTableRecord
100
AcDbBlockTableRecord
  2
_D_3
340
0
  0
ENDTAB
  0
ENDSEC
  0
SECTION
  2
BLOCKS
  0
BLOCK
  5
20
330
1F
100
AcDbEntity
  8
0
100
AcDbBlockBegin
  2
*Model_Space
 70
     0
 10
0.0
 20
0.0
 30
0.0
  3
*Model_Space
  1

  0
ENDBLK
  5
21
330
1F
100
AcDbEntity
  8
0
100
AcDbBlockEnd
  0
BLOCK
  5
1C
330
1B
100
AcDbEntity
 67
     1
  8
0
100
AcDbBlockBegin
  2
*Paper_Space
 70
     0
 10
0.0
 20
0.0
 30
0.0
  3
*Paper_Space
  1

  0
ENDBLK
  5
1D
330
1B
100
AcDbEntity
 67
     1
  8
0
100
AcDbBlockEnd
  0
BLOCK
  5
24
330
23
100
AcDbEntity
  8
0
100
AcDbBlockBegin
  2
*Paper_Space0
 70
     0
 10
0.0
 20
0.0
 30
0.0
  3
*Paper_Space0
  1

  0
ENDBLK
  5
25
330
23
100
AcDbEntity
  8
0
100
AcDbBlockEnd
  0
BLOCK
  5
F8
330
F7
100
AcDbEntity
  8
0
100
AcDbBlockBegin
  2
_D
 70
     0
 10
0.0
 20
0.0
 30
0.0
  3
_D
  1

  0
SOLID
  5
FA
330
F7
100
AcDbEntity
  8
DIMENSION
100
AcDbTrace
 10
15.1466993482
 20
262.1861051164
 30
0.0
 11
14.7620839636
 21
259.6861051164
 31
0.0
 12
15.5313147328
 22
259.6861051164
 32
0.0
 13
15.5313147328
 23
259.6861051164
 33
0.0
  0
SOLID
  5
FB
330
F7
100
AcDbEntity
  8
DIMENSION
100
AcDbTrace
 10
15.1466993482
 20
270.1139750755
 30
0.0
 11
15.5313147328
 21
272.6139750755
 31
0.0
 12
14.7620839636
 22
272.6139750755
 32
0.0
 13
14.7620839636
 23
272.6139750755
 33
0.0
  0
LINE
  5
FC
330
F7
100
AcDbEntity
  8
DIMENSION
100
AcDbLine
 10
121.9381362569
 20
262.1861051164
 30
0.0
 11
14.1466993482
 21
262.1861051164
 31
0.0
  0
LINE
  5
FD
330
F7
100
AcDbEntity
  8
DIMENSION
100
AcDbLine
 10
28.6881362569
 20
270.1139750755
 30
0.0
 11
14.1466993482
 21
270.1139750755
 31
0.0
  0
LINE
  5
FE
330
F7
100
AcDbEntity
  8
DIMENSION
100
AcDbLine
 10
15.1466993482
 20
262.1861051164
 30
0.0
 11
15.1466993482
 21
257.3784128087
 31
0.0
  0
LINE
  5
FF
330
F7
100
AcDbEntity
  8
DIMENSION
100
AcDbLine
 10
15.1466993482
 20
262.1861051164
 30
0.0
 11
15.1466993482
 21
270.1139750755
 31
0.0
  0
LINE
  5
100
330
F7
100
AcDbEntity
  8
DIMENSION
100
AcDbLine
 10
15.1466993482
 20
270.1139750755
 30
0.0
 11
15.1466993482
 21
274.9216673832
 31
0.0
  0
MTEXT
  5
101
330
F7
100
AcDbEntity
  8
DIMENSION
100
AcDbMText
 10
11.9240301734
 20
264.7594501157
 30
0.0
 40
2.5
 41
0.0
 71
     1
 72
     1
  1
8
  7
SLDTEXTSTYLE0
 11
6.123233995736766E-17
 21
1.0
 31
0.0
 73
     1
 44
1.0
  0
ENDBLK
  5
F9
330
F7
100
AcDbEntity
  8
0
100
AcDbBlockEnd
  0
BLOCK
  5
161
330
160
100
AcDbEntity
  8
0
100
AcDbBlockBegin
  2
_D_1
 70
     0
 10
0.0
 20
0.0
 30
0.0
  3
_D_1
  1

  0
SOLID
  5
163
330
160
100
AcDbEntity
  8
DIMENSION
100
AcDbTrace
 10
235.1674995616
 20
270.1139750755
 30
0.0
 11
235.5521149462
 21
272.6139750755
 31
0.0
 12
234.782884177
 22
272.6139750755
 32
0.0
 13
234.782884177
 23
272.6139750755
 33
0.0
  0
SOLID
  5
164
330
160
100
AcDbEntity
  8
DIMENSION
100
AcDbTrace
 10
235.1674995616
 20
266.0108767937
 30
0.0
 11
234.782884177
 21
263.5108767937
 31
0.0
 12
235.5521149462
 22
263.5108767937
 32
0.0
 13
235.5521149462
 23
263.5108767937
 33
0.0
  0
LINE
  5
165
330
160
100
AcDbEntity
  8
DIMENSION
100
AcDbLine
 10
241.024275646
 20
270.1139750755
 30
0.0
 11
234.1674995616
 21
270.1139750755
 31
0.0
  0
LINE
  5
166
330
160
100
AcDbEntity
  8
DIMENSION
100
AcDbLine
 10
241.024275646
 20
266.0108767937
 30
0.0
 11
234.1674995616
 21
266.0108767937
 31
0.0
  0
LINE
  5
167
330
160
100
AcDbEntity
  8
DIMENSION
100
AcDbLine
 10
235.1674995616
 20
270.1139750755
 30
0.0
 11
235.1674995616
 21
275.8870483572
 31
0.0
  0
LINE
  5
168
330
160
100
AcDbEntity
  8
DIMENSION
100
AcDbLine
 10
235.1674995616
 20
270.1139750755
 30
0.0
 11
235.1674995616
 21
266.0108767937
 31
0.0
  0
LINE
  5
169
330
160
100
AcDbEntity
  8
DIMENSION
100
AcDbLine
 10
235.1674995616
 20
266.0108767937
 30
0.0
 11
235.1674995616
 21
261.203184486
 31
0.0
  0
MTEXT
  5
16A
330
160
100
AcDbEntity
  8
DIMENSION
100
AcDbMText
 10
231.9448303868
 20
273.9773261324
 30
0.0
 40
2.5
 41
0.0
 71
     1
 72
     1
  1
4
  7
SLDTEXTSTYLE0
 11
-7.044195017643634E-15
 21
1.0
 31
0.0
 73
     1
 44
1.0
  0
ENDBLK
  5
162
330
160
100
AcDbEntity
  8
0
100
AcDbBlockEnd
  0
BLOCK
  5
212
330
211
100
AcDbEntity
  8
0
100
AcDbBlockBegin
  2
_D_2
 70
     0
 10
0.0
 20
0.0
 30
0.0
  3
_D_2
  1

  0
SOLID
  5
214
330
211
100
AcDbEntity
  8
DIMENSION
100
AcDbTrace
 10
15.7699804545
 20
232.8787000783
 30
0.0
 11
15.3853650698
 21
230.3787000783
 31
0.0
 12
16.1545958391
 22
230.3787000783
 32
0.0
 13
16.1545958391
 23
230.3787000783
 33
0.0
  0
SOLID
  5
215
330
211
100
AcDbEntity
  8
DIMENSION
100
AcDbTrace
 10
15.7699804545
 20
193.2787000783
 30
0.0
 11
16.1545958391
 21
195.7787000783
 31
0.0
 12
15.3853650698
 22
195.7787000783
 32
0.0
 13
15.3853650698
 23
195.7787000783
 33
0.0
  0
LINE
  5
216
330
211
100
AcDbEntity
  8
DIMENSION
100
AcDbLine
 10
28.6881362569
 20
232.8787000783
 30
0.0
 11
14.7699804545
 21
232.8787000783
 31
0.0
  0
LINE
  5
217
330
211
100
AcDbEntity
  8
DIMENSION
100
AcDbLine
 10
28.6881362569
 20
193.2787000783
 30
0.0
 11
14.7699804545
 21
193.2787000783
 31
0.0
  0
LINE
  5
218
330
211
100
AcDbEntity
  8
DIMENSION
100
AcDbLine
 10
15.7699804545
 20
232.8787000783
 30
0.0
 11
15.7699804545
 21
193.2787000783
 31
0.0
  0
MTEXT
  5
219
330
211
100
AcDbEntity
  8
DIMENSION
100
AcDbMText
 10
12.5473112797
 20
211.7625198466
 30
0.0
 40
2.5
 41
0.0
 71
     1
 72
     1
  1
39.6
  7
SLDTEXTSTYLE0
 11
-7.044195017643634E-15
 21
1.0
 31
0.0
 73
     1
 44
1.0
  0
ENDBLK
  5
213
330
211
100
AcDbEntity
  8
0
100
AcDbBlockEnd
  0
BLOCK
  5
21C
330
21B
100
AcDbEntity
  8
0
100
AcDbBlockBegin
  2
_D_3
 70
     0
 10
0.0
 20
0.0
 30
0.0
  3
_D_3
  1

  0
SOLID
  5
21E
330
21B
100
AcDbEntity
  8
DIMENSION
100
AcDbTrace
 10
216.6881362569
 20
179.684036073
 30
0.0
 11
214.1881362569
 21
180.0686514576
 31
0.0
 12
214.1881362569
 22
179.2994206884
 32
0.0
 13
214.1881362569
 23
179.2994206884
 33
0.0
  0
SOLID
  5
21F
330
21B
100
AcDbEntity
  8
DIMENSION
100
AcDbTrace
 10
27.1881362569
 20
179.684036073
 30
0.0
 11
29.6881362569
 21
179.2994206884
 31
0.0
 12
29.6881362569
 22
180.0686514576
 32
0.0
 13
29.6881362569
 23
180.0686514576
 33
0.0
  0
LINE
  5
220
330
21B
100
AcDbEntity
  8
DIMENSION
100
AcDbLine
 10
216.6881362569
 20
194.7787000783
 30
0.0
 11
216.6881362569
 21
178.684036073
 31
0.0
  0
LINE
  5
221
330
21B
100
AcDbEntity
  8
DIMENSION
100
AcDbLine
 10
27.1881362569
 20
194.7787000783
 30
0.0
 11
27.1881362569
 21
178.684036073
 31
0.0
  0
LINE
  5
222
330
21B
100
AcDbEntity
  8
DIMENSION
100
AcDbLine
 10
216.6881362569
 20
179.684036073
 30
0.0
 11
27.1881362569
 21
179.684036073
 31
0.0
  0
MTEXT
  5
223
330
21B
100
AcDbEntity
  8
DIMENSION
100
AcDbMText
 10
117.2037555866
 20
182.9067052478
 30
0.0
 40
2.5
 41
0.0
 71
     1
 72
     1
  1
189.5
  7
SLDTEXTSTYLE0
 73
     1
 44
1.0
  0
ENDBLK
  5
21D
330
21B
100
AcDbEntity
  8
0
100
AcDbBlockEnd
  0
ENDSEC
  0
SECTION
  2
ENTITIES
  0
LINE
  5
7C
330
1F
100
AcDbEntity
  8
0
  6
Continuous
 62
     7
370
    35
100
AcDbLine
 10
126.1801487974
 20
261.6011217328
 30
0.0
 11
135.0459611435
 21
261.7342483051
 31
0.0
  0
LINE
  5
7D
330
1F
100
AcDbEntity
  8
0
  6
Continuous
 62
     7
370
    35
100
AcDbLine
 10
108.180982554
 20
261.7455875776
 30
0.0
 11
116.9854688332
 21
261.6152122146
 31
0.0
  0
SPLINE
  5
7E
330
1F
100
AcDbEntity
  8
0
  6
Continuous
 62
     7
370
    35
100
AcDbSpline
210
0.0
220
0.0
230
1.0
 70
     8
 71
     3
 72
     9
 73
     5
 74
     0
 42
0.000000001
 43
0.00000001
 40
0.0
 40
0.0
 40
0.0
 40
0.0
 40
0.9775869731110565
 40
1.0
 40
1.0
 40
1.0
 40
1.0
 10
144.1807142124336
 20
261.8515678174197
 30
0.0
 10
147.2810726240891
 20
261.8969236985717
 30
0.0
 10
150.4525126053205
 20
261.9433194489239
 30
0.0
 10
153.623916951286
 20
261.992072145954
 30
0.0
 10
153.6949977221678
 20
261.9931648414634
 30
0.0
  0
LINE
  5
7F
330
1F
100
AcDbEntity
  8
0
  6
Continuous
 62
     7
370
    35
100
AcDbLine
 10
90.1806022993
 20
262.0015723326
 30
0.0
 11
99.5692208998
 21
261.8596338995
 31
0.0
  0
LINE
  5
80
330
1F
100
AcDbEntity
  8
0
  6
Continuous
 62
     7
370
    35
100
AcDbLine
 10
162.1805702076
 20
262.1235629378
 30
0.0
 11
171.5452121992
 21
262.2674697266
 31
0.0
  0
LINE
  5
81
330
1F
100
AcDbEntity
  8
0
  6
Continuous
 62
     7
370
    35
100
AcDbLine
 10
72.1805725303
 20
262.2736992696
 30
0.0
 11
81.5300810951
 21
262.1323521074
 31
0.0
  0
LINE
  5
82
330
1F
100
AcDbEntity
  8
0
  6
Continuous
 62
     7
370
    35
100
AcDbLine
 10
180.1800584757
 20
262.4001617186
 30
0.0
 11
189.6957286859
 21
262.5463893636
 31
0.0
  0
LINE
  5
83
330
1F
100
AcDbEntity
  8
0
  6
Continuous
 62
     7
370
    35
100
AcDbLine
 10
54.1805761245
 20
262.5458257021
 30
0.0
 11
63.6963817253
 21
262.4019644384
 31
0.0
  0
LINE
  5
84
330
1F
100
AcDbEntity
  8
0
  6
Continuous
 62
     7
370
    35
100
AcDbLine
 10
198.179861158
 20
262.6767653311
 30
0.0
 11
216.6881479092
 21
262.9611828365
 31
0.0
  0
LINE
  5
85
330
1F
100
AcDbEntity
  8
0
  6
Continuous
 62
     7
370
    35
100
AcDbLine
 10
27.1881373258
 20
262.9539011212
 30
0.0
 11
45.5654362507
 21
262.676070577
 31
0.0
  0
LINE
  5
86
330
1F
100
AcDbEntity
  8
0
  6
Continuous
 62
     7
370
    35
100
AcDbLine
 10
215.1881362569
 20
266.0108767937
 30
0.0
 11
121.9381362569
 21
265.5551250485
 31
0.0
  0
LINE
  5
87
330
1F
100
AcDbEntity
  8
0
  6
Continuous
 62
     7
370
    35
100
AcDbLine
 10
121.9381362569
 20
265.5551250485
 30
0.0
 11
28.6881362569
 21
266.0108767937
 31
0.0
  0
LINE
  5
88
330
1F
100
AcDbEntity
  8
0
  6
Continuous
 62
     7
370
    35
100
AcDbLine
 10
28.6881362569
 20
270.1139750755
 30
0.0
 11
121.9381362569
 21
269.6582233302
 31
0.0
  0
LINE
  5
89
330
1F
100
AcDbEntity
  8
0
  6
Continuous
 62
     7
370
    35
100
AcDbLine
 10
121.9381362569
 20
269.6582233302
 30
0.0
 11
215.1881362569
 21
270.1139750755
 31
0.0
  0
LINE
  5
8A
330
1F
100
AcDbEntity
  8
0
  6
Continuous
 62
     7
370
    35
100
AcDbLine
 10
121.9381362569
 20
265.5551250485
 30
0.0
 11
121.9381362569
 21
262.1861051164
 31
0.0
  0
SPLINE
  5
8B
330
1F
100
AcDbEntity
  8
0
  6
Continuous
 62
     7
370
    35
100
AcDbSpline
210
0.0
220
0.0
230
1.0
 70
     8
 71
     3
 72
     8
 73
     4
 74
     0
 42
0.000000001
 43
0.00000001
 40
0.0
 40
0.0
 40
0.0
 40
0.0
 40
1.0
 40
1.0
 40
1.0
 40
1.0
 10
121.9381362568661
 20
262.1861051164326
 30
0.0
 10
119.488017388933
 20
262.8882226520721
 30
0.0
 10
117.0363683882118
 20
263.577155757487
 30
0.0
 10
114.5831835031961
 20
264.2528548746692
 30
0.0
  0
SPLINE
  5
8C
330
1F
100
AcDbEntity
  8
0
  6
Continuous
 62
     7
370
    35
100
AcDbSpline
210
0.0
220
0.0
230
1.0
 70
     8
 71
     3
 72
     8
 73
     4
 74
     0
 42
0.000000001
 43
0.00000001
 40
0.0
 40
0.0
 40
0.0
 40
0.0
 40
1.0
 40
1.0
 40
1.0
 40
1.0
 10
114.2001612816365
 20
264.2961151204788
 30
0.0
 10
114.3476984318044
 20
264.2948508967614
 30
0.0
 10
114.489830002882
 20
264.2785679296184
 30
0.0
 10
114.5831835031969
 20
264.2528548746694
 30
0.0
  0
LINE
  5
8D
330
1F
100
AcDbEntity
  8
0
  6
Continuous
 62
     7
370
    35
100
AcDbLine
 10
114.2001612816
 20
264.2961151205
 30
0.0
 11
107.0204211903
 21
264.3576372368
 31
0.0
  0
SPLINE
  5
8E
330
1F
100
AcDbEntity
  8
0
  6
Continuous
 62
     7
370
    35
100
AcDbSpline
210
0.0
220
0.0
230
1.0
 70
     8
 71
     3
 72
    14
 73
    10
 74
     0
 42
0.000000001
 43
0.00000001
 40
0.0
 40
0.0
 40
0.0
 40
0.0
 40
0.25
 40
0.25
 40
0.5
 40
0.5
 40
0.75
 40
0.75
 40
1.0
 40
1.0
 40
1.0
 40
1.0
 10
106.6373989687495
 20
264.1812058588602
 30
0.0
 10
106.5761152430863
 20
264.1977423516752
 30
0.0
 10
106.5374766344395
 20
264.2175030777713
 30
0.0
 10
106.5124191879472
 20
264.2581786078138
 30
0.0
 10
106.5266044323023
 20
264.2792500430361
 30
0.0
 10
106.6045430770978
 20
264.3159141593042
 30
0.0
 10
106.6679930142888
 20
264.3316355882628
 30
0.0
 10
106.8287003865216
 20
264.3530624608191
 30
0.0
 10
106.9236179230729
 20
264.3584667294419
 30
0.0
 10
107.0204211903089
 20
264.3576372367601
 30
0.0
  0
SPLINE
  5
8F
330
1F
100
AcDbEntity
  8
0
  6
Continuous
 62
     7
370
    35
100
AcDbSpline
210
0.0
220
0.0
230
1.0
 70
     8
 71
     3
 72
     8
 73
     4
 74
     0
 42
0.000000001
 43
0.00000001
 40
0.0
 40
0.0
 40
0.0
 40
0.0
 40
1.0
 40
1.0
 40
1.0
 40
1.0
 10
106.6373989687495
 20
264.1812058588602
 30
0.0
 10
109.1655257322959
 20
263.4990288272168
 30
0.0
 10
111.6920493321889
 20
262.802780200499
 30
0.0
 10
114.2169758488594
 20
262.0925133490277
 30
0.0
  0
SPLINE
  5
90
330
1F
100
AcDbEntity
  8
0
  6
Continuous
 62
     7
370
    35
100
AcDbSpline
210
0.0
220
0.0
230
1.0
 70
     8
 71
     3
 72
     8
 73
     4
 74
     0
 42
0.000000001
 43
0.00000001
 40
0.0
 40
0.0
 40
0.0
 40
0.0
 40
1.0
 40
1.0
 40
1.0
 40
1.0
 10
104.7909411598249
 20
262.2092074758106
 30
0.0
 10
102.0568510229571
 20
262.9590014363519
 30
0.0
 10
99.32093425299831
 20
263.6923326073906
 30
0.0
 10
96.58318350319611
 20
264.4091347752784
 30
0.0
  0
SPLINE
  5
91
330
1F
100
AcDbEntity
  8
0
  6
Continuous
 62
     7
370
    35
100
AcDbSpline
210
0.0
220
0.0
230
1.0
 70
     8
 71
     3
 72
     8
 73
     4
 74
     0
 42
0.000000001
 43
0.00000001
 40
0.0
 40
0.0
 40
0.0
 40
0.0
 40
1.0
 40
1.0
 40
1.0
 40
1.0
 10
96.20016128163653
 20
264.4503544214808
 30
0.0
 10
96.34761296676228
 20
264.4490909301006
 30
0.0
 10
96.48974397812977
 20
264.4335992573499
 30
0.0
 10
96.58318350319689
 20
264.4091347752785
 30
0.0
  0
LINE
  5
92
330
1F
100
AcDbEntity
  8
0
  6
Continuous
 62
     7
370
    35
100
AcDbLine
 10
96.2001612816
 20
264.4503544215
 30
0.0
 11
89.0204211903
 21
264.5118765378
 31
0.0
  0
SPLINE
  5
93
330
1F
100
AcDbEntity
  8
0
  6
Continuous
 62
     7
370
    35
100
AcDbSpline
210
0.0
220
0.0
230
1.0
 70
     8
 71
     3
 72
    14
 73
    10
 74
     0
 42
0.000000001
 43
0.00000001
 40
0.0
 40
0.0
 40
0.0
 40
0.0
 40
0.25
 40
0.25
 40
0.5
 40
0.5
 40
0.75
 40
0.75
 40
1.0
 40
1.0
 40
1.0
 40
1.0
 10
88.63739896874947
 20
264.3448296936627
 30
0.0
 10
88.57611516860365
 20
264.3605317697981
 30
0.0
 10
88.53744135589056
 20
264.3792905935999
 30
0.0
 10
88.51241525978479
 20
264.417889134175
 30
0.0
 10
88.52668205982597
 20
264.4378740679805
 30
0.0
 10
88.60477282631412
 20
264.4725860388114
 30
0.0
 10
88.6682729179717
 20
264.4874424959897
 30
0.0
 10
88.82903008357313
 20
264.507650426508
 30
0.0
 10
88.92376133189516
 20
264.5127048015953
 30
0.0
 10
89.02042119030895
 20
264.5118765377621
 30
0.0
  0
SPLINE
  5
94
330
1F
100
AcDbEntity
  8
0
  6
Continuous
 62
     7
370
    35
100
AcDbSpline
210
0.0
220
0.0
230
1.0
 70
     8
 71
     3
 72
     8
 73
     4
 74
     0
 42
0.000000001
 43
0.00000001
 40
0.0
 40
0.0
 40
0.0
 40
0.0
 40
1.0
 40
1.0
 40
1.0
 40
1.0
 10
88.63739896874947
 20
264.3448296936627
 30
0.0
 10
91.22162005936926
 20
263.6827030595588
 30
0.0
 10
93.8042441334465
 20
263.0058306441095
 30
0.0
 10
96.38527709437187
 20
262.3142669552715
 30
0.0
  0
SPLINE
  5
95
330
1F
100
AcDbEntity
  8
0
  6
Continuous
 62
     7
370
    35
100
AcDbSpline
210
0.0
220
0.0
230
1.0
 70
     8
 71
     3
 72
     8
 73
     4
 74
     0
 42
0.000000001
 43
0.00000001
 40
0.0
 40
0.0
 40
0.0
 40
0.0
 40
1.0
 40
1.0
 40
1.0
 40
1.0
 10
86.95985791473085
 20
262.4331985703151
 30
0.0
 10
84.16944684902168
 20
263.1611569350249
 30
0.0
 10
81.37722440453213
 20
263.8719180366451
 30
0.0
 10
78.5831835031961
 20
264.5654146758875
 30
0.0
  0
SPLINE
  5
96
330
1F
100
AcDbEntity
  8
0
  6
Continuous
 62
     7
370
    35
100
AcDbSpline
210
0.0
220
0.0
230
1.0
 70
     8
 71
     3
 72
     8
 73
     4
 74
     0
 42
0.000000001
 43
0.00000001
 40
0.0
 40
0.0
 40
0.0
 40
0.0
 40
1.0
 40
1.0
 40
1.0
 40
1.0
 10
78.20016128163654
 20
264.6045937224829
 30
0.0
 10
78.34753169561677
 20
264.6033309275029
 30
0.0
 10
78.48966197338491
 20
264.5886272446766
 30
0.0
 10
78.58318350319689
 20
264.5654146758876
 30
0.0
  0
LINE
  5
97
330
1F
100
AcDbEntity
  8
0
  6
Continuous
 62
     7
370
    35
100
AcDbLine
 10
78.2001612816
 20
264.6045937225
 30
0.0
 11
71.0204211903
 21
264.6661158388
 31
0.0
  0
SPLINE
  5
98
330
1F
100
AcDbEntity
  8
0
  6
Continuous
 62
     7
370
    35
100
AcDbSpline
210
0.0
220
0.0
230
1.0
 70
     8
 71
     3
 72
    14
 73
    10
 74
     0
 42
0.000000001
 43
0.00000001
 40
0.0
 40
0.0
 40
0.0
 40
0.0
 40
0.25
 40
0.25
 40
0.5
 40
0.5
 40
0.75
 40
0.75
 40
1.0
 40
1.0
 40
1.0
 40
1.0
 10
70.63739896874947
 20
264.5084535284652
 30
0.0
 10
70.57611489982818
 20
264.5233212330288
 30
0.0
 10
70.53740751256477
 20
264.5410763488426
 30
0.0
 10
70.51241159392661
 20
264.5775924465682
 30
0.0
 10
70.52675628688922
 20
264.5964873790437
 30
0.0
 10
70.60499245454652
 20
264.6292473427945
 30
0.0
 10
70.6685395238338
 20
264.643240982045
 30
0.0
 10
70.82934532728407
 20
264.6622343859869
 30
0.0
 10
70.92389714086507
 20
264.6669429388706
 30
0.0
 10
71.02042119030897
 20
264.6661158387642
 30
0.0
  0
SPLINE
  5
99
330
1F
100
AcDbEntity
  8
0
  6
Continuous
 62
     7
370
    35
100
AcDbSpline
210
0.0
220
0.0
230
1.0
 70
     8
 71
     3
 72
     8
 73
     4
 74
     0
 42
0.000000001
 43
0.00000001
 40
0.0
 40
0.0
 40
0.0
 40
0.0
 40
1.0
 40
1.0
 40
1.0
 40
1.0
 10
70.63739896874948
 20
264.5084535284652
 30
0.0
 10
73.27809318907012
 20
263.8678129476206
 30
0.0
 10
75.91720207247829
 20
263.2117324032709
 30
0.0
 10
78.55473131242417
 20
262.5402673452464
 30
0.0
  0
SPLINE
  5
9A
330
1F
100
AcDbEntity
  8
0
  6
Continuous
 62
     7
370
    35
100
AcDbSpline
210
0.0
220
0.0
230
1.0
 70
     8
 71
     3
 72
     8
 73
     4
 74
     0
 42
0.000000001
 43
0.00000001
 40
0.0
 40
0.0
 40
0.0
 40
0.0
 40
1.0
 40
1.0
 40
1.0
 40
1.0
 10
69.12990174538226
 20
262.6614674473525
 30
0.0
 10
66.28278782289642
 20
263.3661846655974
 30
0.0
 10
63.43388399979018
 20
264.0529496852955
 30
0.0
 10
60.5831835031961
 20
264.7216945764967
 30
0.0
  0
SPLINE
  5
9B
330
1F
100
AcDbEntity
  8
0
  6
Continuous
 62
     7
370
    35
100
AcDbSpline
210
0.0
220
0.0
230
1.0
 70
     8
 71
     3
 72
     8
 73
     4
 74
     0
 42
0.000000001
 43
0.00000001
 40
0.0
 40
0.0
 40
0.0
 40
0.0
 40
1.0
 40
1.0
 40
1.0
 40
1.0
 10
60.20016128163653
 20
264.758833023485
 30
0.0
 10
60.3474546225999
 20
264.7575708889321
 30
0.0
 10
60.48958404962424
 20
264.7436520415025
 30
0.0
 10
60.58318350319652
 20
264.7216945764969
 30
0.0
  0
LINE
  5
9C
330
1F
100
AcDbEntity
  8
0
  6
Continuous
 62
     7
370
    35
100
AcDbLine
 10
60.2001612816
 20
264.7588330235
 30
0.0
 11
53.0204211903
 21
264.8203551398
 31
0.0
  0
SPLINE
  5
9D
330
1F
100
AcDbEntity
  8
0
  6
Continuous
 62
     7
370
    35
100
AcDbSpline
210
0.0
220
0.0
230
1.0
 70
     8
 71
     3
 72
    14
 73
    10
 74
     0
 42
0.000000001
 43
0.00000001
 40
0.0
 40
0.0
 40
0.0
 40
0.0
 40
0.25
 40
0.25
 40
0.5
 40
0.5
 40
0.75
 40
0.75
 40
1.0
 40
1.0
 40
1.0
 40
1.0
 10
52.63739896874947
 20
264.6720773632678
 30
0.0
 10
52.57611443327385
 20
264.6861107342289
 30
0.0
 10
52.53737514012899
 20
264.7028604136558
 30
0.0
 10
52.51240818679638
 20
264.7372888259766
 30
0.0
 10
52.52682703620312
 20
264.7550904633799
 30
0.0
 10
52.60520168539683
 20
264.7858985328727
 30
0.0
 10
52.66879261885124
 20
264.7990314522365
 30
0.0
 10
52.82964565072512
 20
264.8168145100212
 30
0.0
 10
52.92402532571322
 20
264.821181141476
 30
0.0
 10
53.02042119030896
 20
264.8203551397663
 30
0.0
  0
SPLINE
  5
9E
330
1F
100
AcDbEntity
  8
0
  6
Continuous
 62
     7
370
    35
100
AcDbSpline
210
0.0
220
0.0
230
1.0
 70
     8
 71
     3
 72
     8
 73
     4
 74
     0
 42
0.000000001
 43
0.00000001
 40
0.0
 40
0.0
 40
0.0
 40
0.0
 40
1.0
 40
1.0
 40
1.0
 40
1.0
 10
52.63739896874947
 20
264.6720773632678
 30
0.0
 10
55.33492830210982
 20
264.0543778160689
 30
0.0
 10
58.03088985419934
 20
263.4205241892918
 30
0.0
 10
60.7252890762753
 20
262.7705726515144
 30
0.0
  0
SPLINE
  5
9F
330
1F
100
AcDbEntity
  8
0
  6
Continuous
 62
     7
370
    35
100
AcDbSpline
210
0.0
220
0.0
230
1.0
 70
     8
 71
     3
 72
     8
 73
     4
 74
     0
 42
0.000000001
 43
0.00000001
 40
0.0
 40
0.0
 40
0.0
 40
0.0
 40
1.0
 40
1.0
 40
1.0
 40
1.0
 10
51.30102225524143
 20
262.8940710766763
 30
0.0
 10
48.3968399937076
 20
263.5741225093227
 30
0.0
 10
45.49089588720864
 20
264.2354464343621
 30
0.0
 10
42.58318350319608
 20
264.8779744771058
 30
0.0
  0
SPLINE
  5
A0
330
1F
100
AcDbEntity
  8
0
  6
Continuous
 62
     7
370
    35
100
AcDbSpline
210
0.0
220
0.0
230
1.0
 70
     8
 71
     3
 72
     8
 73
     4
 74
     0
 42
0.000000001
 43
0.00000001
 40
0.0
 40
0.0
 40
0.0
 40
0.0
 40
1.0
 40
1.0
 40
1.0
 40
1.0
 10
42.20016128163653
 20
264.9130723244871
 30
0.0
 10
42.34738175164512
 20
264.9118108143545
 30
0.0
 10
42.48951026541749
 20
264.8986738015847
 30
0.0
 10
42.58318350319657
 20
264.877974477106
 30
0.0
  0
LINE
  5
A1
330
1F
100
AcDbEntity
  8
0
  6
Continuous
 62
     7
370
    35
100
AcDbLine
 10
42.2001612816
 20
264.9130723245
 30
0.0
 11
35.0204211903
 21
264.9745944408
 31
0.0
  0
SPLINE
  5
A2
330
1F
100
AcDbEntity
  8
0
  6
Continuous
 62
     7
370
    35
100
AcDbSpline
210
0.0
220
0.0
230
1.0
 70
     8
 71
     3
 72
    14
 73
    10
 74
     0
 42
0.000000001
 43
0.00000001
 40
0.0
 40
0.0
 40
0.0
 40
0.0
 40
0.25
 40
0.25
 40
0.5
 40
0.5
 40
0.75
 40
0.75
 40
1.0
 40
1.0
 40
1.0
 40
1.0
 10
34.63739896874947
 20
264.8357011980704
 30
0.0
 10
34.57611376576049
 20
264.8489002660048
 30
0.0
 10
34.5373442731319
 20
264.8646428601185
 30
0.0
 10
34.51240503471309
 20
264.896978567562
 30
0.0
 10
34.52689423287339
 20
264.9136838210891
 30
0.0
 10
34.60540025121822
 20
264.9425400885445
 30
0.0
 10
34.66903199485707
 20
264.9548143211932
 30
0.0
 10
34.82993060163067
 20
264.9713909785579
 30
0.0
 10
34.92414586331346
 20
264.9754194096095
 30
0.0
 10
35.02042119030897
 20
264.9745944407683
 30
0.0
  0
SPLINE
  5
A3
330
1F
100
AcDbEntity
  8
0
  6
Continuous
 62
     7
370
    35
100
AcDbSpline
210
0.0
220
0.0
230
1.0
 70
     8
 71
     3
 72
     8
 73
     4
 74
     0
 42
0.000000001
 43
0.00000001
 40
0.0
 40
0.0
 40
0.0
 40
0.0
 40
1.0
 40
1.0
 40
1.0
 40
1.0
 10
34.63739896874947
 20
264.8357011980704
 30
0.0
 10
37.39210796954539
 20
264.2424162048305
 30
0.0
 10
40.14527296660009
 20
263.6322431853343
 30
0.0
 10
42.89689913786099
 20
263.005238775009
 30
0.0
  0
LINE
  5
A4
330
1F
100
AcDbEntity
  8
0
  6
Continuous
 62
     7
370
    35
100
AcDbLine
 10
27.1881362569
 20
265.765664868
 30
0.0
 11
27.1881362569
 21
263.2156731376
 31
0.0
  0
SPLINE
  5
A5
330
1F
100
AcDbEntity
  8
0
  6
Continuous
 62
     7
370
    35
100
AcDbSpline
210
0.0
220
0.0
230
1.0
 70
     8
 71
     3
 72
    18
 73
    14
 74
     0
 42
0.000000001
 43
0.00000001
 40
0.0
 40
0.0
 40
0.0
 40
0.0
 40
0.125
 40
0.125
 40
0.25
 40
0.25
 40
0.375
 40
0.375
 40
0.5
 40
0.5
 40
0.75
 40
0.75
 40
1.0
 40
1.0
 40
1.0
 40
1.0
 10
28.68813625686613
 20
266.0108767937343
 30
0.0
 10
28.58841642545365
 20
266.0113641662513
 30
0.0
 10
28.49039345617349
 20
266.0101763999529
 30
0.0
 10
28.29759866512169
 20
266.0046016389784
 30
0.0
 10
28.20179938464035
 20
266.0001363237091
 30
0.0
 10
28.01963763321876
 20
265.9882038345216
 30
0.0
 10
27.93330807810553
 20
265.9807899219094
 30
0.0
 10
27.77005102888622
 20
265.9631031847982
 30
0.0
 10
27.69307039302592
 20
265.952764032119
 30
0.0
 10
27.4863341491824
 20
265.9187496365874
 30
0.0
 10
27.37547383919783
 20
265.8911690406239
 30
0.0
 10
27.2273032712196
 20
265.8314518538645
 30
0.0
 10
27.18813625686617
 20
265.7987645895913
 30
0.0
 10
27.18813625686616
 20
265.7656648679745
 30
0.0
  0
SPLINE
  5
A6
330
1F
100
AcDbEntity
  8
0
  6
Continuous
 62
     7
370
    35
100
AcDbSpline
210
0.0
220
0.0
230
1.0
 70
     8
 71
     3
 72
     8
 73
     4
 74
     0
 42
0.000000001
 43
0.00000001
 40
0.0
 40
0.0
 40
0.0
 40
0.0
 40
1.0
 40
1.0
 40
1.0
 40
1.0
 10
195.327531999997
 20
262.9303695757619
 30
0.0
 10
192.411120311743
 20
263.5180478235667
 30
0.0
 10
189.4963392979372
 20
264.1246990861895
 30
0.0
 10
186.583183503196
 20
264.7502598898471
 30
0.0
  0
SPLINE
  5
A7
330
1F
100
AcDbEntity
  8
0
  6
Continuous
 62
     7
370
    35
100
AcDbSpline
210
0.0
220
0.0
230
1.0
 70
     8
 71
     3
 72
     8
 73
     4
 74
     0
 42
0.000000001
 43
0.00000001
 40
0.0
 40
0.0
 40
0.0
 40
0.0
 40
1.0
 40
1.0
 40
1.0
 40
1.0
 10
186.2001612816365
 20
264.7804612298925
 30
0.0
 10
186.3472809976247
 20
264.7817218766791
 30
0.0
 10
186.4895209717857
 20
264.770372651591
 30
0.0
 10
186.5831835031969
 20
264.7502598898473
 30
0.0
  0
LINE
  5
A8
330
1F
100
AcDbEntity
  8
0
  6
Continuous
 62
     7
370
    35
100
AcDbLine
 10
186.2001612816
 20
264.7804612299
 30
0.0
 11
179.0204211903
 21
264.7189391136
 31
0.0
  0
SPLINE
  5
A9
330
1F
100
AcDbEntity
  8
0
  6
Continuous
 62
     7
370
    35
100
AcDbSpline
210
0.0
220
0.0
230
1.0
 70
     8
 71
     3
 72
    14
 73
    10
 74
     0
 42
0.000000001
 43
0.00000001
 40
0.0
 40
0.0
 40
0.0
 40
0.0
 40
0.25
 40
0.25
 40
0.5
 40
0.5
 40
0.75
 40
0.75
 40
1.0
 40
1.0
 40
1.0
 40
1.0
 10
178.6373989687495
 20
264.5575272746914
 30
0.0
 10
178.5759828379677
 20
264.5710596433743
 30
0.0
 10
178.5372657404311
 20
264.5878646166046
 30
0.0
 10
178.5124216204201
 20
264.6233772919703
 30
0.0
 10
178.5269289900091
 20
264.642215380578
 30
0.0
 10
178.6052785617678
 20
264.6757287851485
 30
0.0
 10
178.6687826957246
 20
264.6905400100447
 30
0.0
 10
178.82950981511
 20
264.7119028433806
 30
0.0
 10
178.9238975598888
 20
264.7181120170953
 30
0.0
 10
179.020421190309
 20
264.7189391136113
 30
0.0
  0
SPLINE
  5
AA
330
1F
100
AcDbEntity
  8
0
  6
Continuous
 62
     7
370
    35
100
AcDbSpline
210
0.0
220
0.0
230
1.0
 70
     8
 71
     3
 72
     8
 73
     4
 74
     0
 42
0.000000001
 43
0.00000001
 40
0.0
 40
0.0
 40
0.0
 40
0.0
 40
1.0
 40
1.0
 40
1.0
 40
1.0
 10
178.6373989687491
 20
264.557527274694
 30
0.0
 10
181.3434681883188
 20
263.9612746958601
 30
0.0
 10
184.0509815371012
 20
263.3813217249356
 30
0.0
 10
186.7599436515465
 20
262.8177206926379
 30
0.0
  0
SPLINE
  5
AB
330
1F
100
AcDbEntity
  8
0
  6
Continuous
 62
     7
370
    35
100
AcDbSpline
210
0.0
220
0.0
230
1.0
 70
     8
 71
     3
 72
     8
 73
     4
 74
     0
 42
0.000000001
 43
0.00000001
 40
0.0
 40
0.0
 40
0.0
 40
0.0
 40
1.0
 40
1.0
 40
1.0
 40
1.0
 10
177.1529375139539
 20
262.692609508721
 30
0.0
 10
174.2946899105046
 20
263.3082399877611
 30
0.0
 10
171.4381071741214
 20
263.9420512663119
 30
0.0
 10
168.583183503196
 20
264.5939799892379
 30
0.0
  0
SPLINE
  5
AC
330
1F
100
AcDbEntity
  8
0
  6
Continuous
 62
     7
370
    35
100
AcDbSpline
210
0.0
220
0.0
230
1.0
 70
     8
 71
     3
 72
     8
 73
     4
 74
     0
 42
0.000000001
 43
0.00000001
 40
0.0
 40
0.0
 40
0.0
 40
0.0
 40
1.0
 40
1.0
 40
1.0
 40
1.0
 10
168.2001612816365
 20
264.6262219288907
 30
0.0
 10
168.3473476891735
 20
264.6274831471471
 30
0.0
 10
168.4895954578567
 20
264.6153510456699
 30
0.0
 10
168.5831835031969
 20
264.5939799892381
 30
0.0
  0
LINE
  5
AD
330
1F
100
AcDbEntity
  8
0
  6
Continuous
 62
     7
370
    35
100
AcDbLine
 10
168.2001612816
 20
264.6262219289
 30
0.0
 11
161.0204211903
 21
264.5646998126
 31
0.0
  0
SPLINE
  5
AE
330
1F
100
AcDbEntity
  8
0
  6
Continuous
 62
     7
370
    35
100
AcDbSpline
210
0.0
220
0.0
230
1.0
 70
     8
 71
     3
 72
    14
 73
    10
 74
     0
 42
0.000000001
 43
0.00000001
 40
0.0
 40
0.0
 40
0.0
 40
0.0
 40
0.25
 40
0.25
 40
0.5
 40
0.5
 40
0.75
 40
0.75
 40
1.0
 40
1.0
 40
1.0
 40
1.0
 10
160.6373989687495
 20
264.3939034398883
 30
0.0
 10
160.5759756745096
 20
264.4082737230818
 30
0.0
 10
160.5372918063565
 20
264.4260877583537
 30
0.0
 10
160.5124256294446
 20
264.4636886780971
 30
0.0
 10
160.5268643441586
 20
264.4836163331678
 30
0.0
 10
160.6050745086855
 20
264.5190734219732
 30
0.0
 10
160.6685302102812
 20
264.534742871087
 30
0.0
 10
160.8292025642583
 20
264.5573150475702
 30
0.0
 10
160.9237617635471
 20
264.5638715524748
 30
0.0
 10
161.020421190309
 20
264.5646998126091
 30
0.0
  0
SPLINE
  5
AF
330
1F
100
AcDbEntity
  8
0
  6
Continuous
 62
     7
370
    35
100
AcDbSpline
210
0.0
220
0.0
230
1.0
 70
     8
 71
     3
 72
     8
 73
     4
 74
     0
 42
0.000000001
 43
0.00000001
 40
0.0
 40
0.0
 40
0.0
 40
0.0
 40
1.0
 40
1.0
 40
1.0
 40
1.0
 10
160.637398968749
 20
264.3939034398915
 30
0.0
 10
163.2854227895943
 20
263.7743851825342
 30
0.0
 10
165.9349136271627
 20
263.1704362529392
 30
0.0
 10
168.5858763714106
 20
262.5821085478096
 30
0.0
  0
SPLINE
  5
B0
330
1F
100
AcDbEntity
  8
0
  6
Continuous
 62
     7
370
    35
100
AcDbSpline
210
0.0
220
0.0
230
1.0
 70
     8
 71
     3
 72
     8
 73
     4
 74
     0
 42
0.000000001
 43
0.00000001
 40
0.0
 40
0.0
 40
0.0
 40
0.0
 40
1.0
 40
1.0
 40
1.0
 40
1.0
 10
158.9794760202436
 20
262.4593903393355
 30
0.0
 10
156.1790217283604
 20
263.101438610785
 30
0.0
 10
153.3802595948098
 20
263.7608961694792
 30
0.0
 10
150.583183503196
 20
264.4377000886288
 30
0.0
  0
SPLINE
  5
B1
330
1F
100
AcDbEntity
  8
0
  6
Continuous
 62
     7
370
    35
100
AcDbSpline
210
0.0
220
0.0
230
1.0
 70
     8
 71
     3
 72
     8
 73
     4
 74
     0
 42
0.000000001
 43
0.00000001
 40
0.0
 40
0.0
 40
0.0
 40
0.0
 40
1.0
 40
1.0
 40
1.0
 40
1.0
 10
150.2001612816365
 20
264.4719826278884
 30
0.0
 10
150.3474186035634
 20
264.4732444537996
 30
0.0
 10
150.4896740896027
 20
264.4603264082302
 30
0.0
 10
150.5831835031969
 20
264.437700088629
 30
0.0
  0
LINE
  5
B2
330
1F
100
AcDbEntity
  8
0
  6
Continuous
 62
     7
370
    35
100
AcDbLine
 10
150.2001612816
 20
264.4719826279
 30
0.0
 11
143.0204211903
 21
264.4104605116
 31
0.0
  0
SPLINE
  5
B3
330
1F
100
AcDbEntity
  8
0
  6
Continuous
 62
     7
370
    35
100
AcDbSpline
210
0.0
220
0.0
230
1.0
 70
     8
 71
     3
 72
    14
 73
    10
 74
     0
 42
0.000000001
 43
0.00000001
 40
0.0
 40
0.0
 40
0.0
 40
0.0
 40
0.25
 40
0.25
 40
0.5
 40
0.5
 40
0.75
 40
0.75
 40
1.0
 40
1.0
 40
1.0
 40
1.0
 10
142.6373989687495
 20
264.2302796050853
 30
0.0
 10
142.5759683721017
 20
264.2454880322637
 30
0.0
 10
142.5373193976866
 20
264.2643095835692
 30
0.0
 10
142.5124298627956
 20
264.3039935456174
 30
0.0
 10
142.5267962074684
 20
264.3250073535641
 30
0.0
 10
142.6048601415749
 20
264.3624077918049
 30
0.0
 10
142.6682644186804
 20
264.3789374105866
 30
0.0
 10
142.8288806070078
 20
264.4027230441413
 30
0.0
 10
142.9236183638733
 20
264.4096310227025
 30
0.0
 10
143.020421190309
 20
264.4104605116071
 30
0.0
  0
SPLINE
  5
B4
330
1F
100
AcDbEntity
  8
0
  6
Continuous
 62
     7
370
    35
100
AcDbSpline
210
0.0
220
0.0
230
1.0
 70
     8
 71
     3
 72
     8
 73
     4
 74
     0
 42
0.000000001
 43
0.00000001
 40
0.0
 40
0.0
 40
0.0
 40
0.0
 40
1.0
 40
1.0
 40
1.0
 40
1.0
 10
142.637398968749
 20
264.2302796050889
 30
0.0
 10
145.2277698068194
 20
263.5889792042162
 30
0.0
 10
147.81962440943
 20
262.9625386530157
 30
0.0
 10
150.4129678906397
 20
262.3510091686101
 30
0.0
  0
SPLINE
  5
B5
330
1F
100
AcDbEntity
  8
0
  6
Continuous
 62
     7
370
    35
100
AcDbSpline
210
0.0
220
0.0
230
1.0
 70
     8
 71
     3
 72
     8
 73
     4
 74
     0
 42
0.000000001
 43
0.00000001
 40
0.0
 40
0.0
 40
0.0
 40
0.0
 40
1.0
 40
1.0
 40
1.0
 40
1.0
 10
140.8072017195342
 20
262.2306517168635
 30
0.0
 10
138.0641515349677
 20
262.8976033327023
 30
0.0
 10
135.322814262141
 20
263.5812135634937
 30
0.0
 10
132.583183503196
 20
264.2814201880196
 30
0.0
  0
SPLINE
  5
B6
330
1F
100
AcDbEntity
  8
0
  6
Continuous
 62
     7
370
    35
100
AcDbSpline
210
0.0
220
0.0
230
1.0
 70
     8
 71
     3
 72
     8
 73
     4
 74
     0
 42
0.000000001
 43
0.00000001
 40
0.0
 40
0.0
 40
0.0
 40
0.0
 40
1.0
 40
1.0
 40
1.0
 40
1.0
 10
132.2001612816365
 20
264.3177433268863
 30
0.0
 10
132.3474937379102
 20
264.3190057966124
 30
0.0
 10
132.489756808851
 20
264.3052985847982
 30
0.0
 10
132.5831835031969
 20
264.2814201880198
 30
0.0
  0
LINE
  5
B7
330
1F
100
AcDbEntity
  8
0
  6
Continuous
 62
     7
370
    35
100
AcDbLine
 10
132.2001612816
 20
264.3177433269
 30
0.0
 11
125.0204211903
 21
264.2562212106
 31
0.0
  0
SPLINE
  5
B8
330
1F
100
AcDbEntity
  8
0
  6
Continuous
 62
     7
370
    35
100
AcDbSpline
210
0.0
220
0.0
230
1.0
 70
     8
 71
     3
 72
    14
 73
    10
 74
     0
 42
0.000000001
 43
0.00000001
 40
0.0
 40
0.0
 40
0.0
 40
0.0
 40
0.25
 40
0.25
 40
0.5
 40
0.5
 40
0.75
 40
0.75
 40
1.0
 40
1.0
 40
1.0
 40
1.0
 10
124.6373989687495
 20
264.0666557702821
 30
0.0
 10
124.5759609370044
 20
264.0827025749607
 30
0.0
 10
124.5373484811587
 20
264.1025300142088
 30
0.0
 10
124.5124343228925
 20
264.1442916066821
 30
0.0
 10
124.5267246565634
 20
264.1663879637129
 30
0.0
 10
124.6046357394814
 20
264.2057314472536
 30
0.0
 10
124.6679855433146
 20
264.2231232364023
 30
0.0
 10
124.8285444182183
 20
264.2481266745768
 30
0.0
 10
124.923467385664
 20
264.2553904279907
 30
0.0
 10
125.020421190309
 20
264.256221210605
 30
0.0
  0
SPLINE
  5
B9
330
1F
100
AcDbEntity
  8
0
  6
Continuous
 62
     7
370
    35
100
AcDbSpline
210
0.0
220
0.0
230
1.0
 70
     8
 71
     3
 72
     8
 73
     4
 74
     0
 42
0.000000001
 43
0.00000001
 40
0.0
 40
0.0
 40
0.0
 40
0.0
 40
1.0
 40
1.0
 40
1.0
 40
1.0
 10
124.6373989687489
 20
264.0666557702864
 30
0.0
 10
127.1705266244311
 20
263.4050361909798
 30
0.0
 10
129.705149009086
 20
262.7575878348583
 30
0.0
 10
132.2412714303752
 20
262.1243610227869
 30
0.0
  0
SPLINE
  5
BA
330
1F
100
AcDbEntity
  8
0
  6
Continuous
 62
     7
370
    35
100
AcDbSpline
210
0.0
220
0.0
230
1.0
 70
     8
 71
     3
 72
     8
 73
     4
 74
     0
 42
0.000000001
 43
0.00000001
 40
0.0015478849145251
 40
0.0015478849145251
 40
0.0015478849145251
 40
0.0015478849145251
 40
0.0026486073639886
 40
0.0026486073639886
 40
0.0026486073639886
 40
0.0026486073639886
 10
122.6361667187366
 20
262.0063308264229
 30
0.0
 10
122.4034771853743
 20
262.066135999348
 30
0.0
 10
122.1708003407502
 20
262.1260607823036
 30
0.0
 10
121.9381362568661
 20
262.1861051164326
 30
0.0
  0
SPLINE
  5
BB
330
1F
100
AcDbEntity
  8
0
  6
Continuous
 62
     7
370
    35
100
AcDbSpline
210
0.0
220
0.0
230
1.0
 70
     8
 71
     3
 72
    16
 73
    12
 74
     0
 42
0.000000001
 43
0.00000001
 40
0.0
 40
0.0
 40
0.0
 40
0.0
 40
0.2499999999999953
 40
0.2499999999999953
 40
0.374999999999991
 40
0.374999999999991
 40
0.4999999999999867
 40
0.4999999999999867
 40
0.7499999999999933
 40
0.7499999999999933
 40
1.0
 40
1.0
 40
1.0
 40
1.0
 10
216.6881362568661
 20
265.7656648679745
 30
0.0
 10
216.6881362568661
 20
265.7987722305236
 30
0.0
 10
216.6498323207342
 20
265.8310268087466
 30
0.0
 10
216.5381731547458
 20
265.8761442084519
 30
0.0
 10
216.4925785956615
 20
265.890373757762
 30
0.0
 10
216.3847594090747
 20
265.9172309969189
 30
0.0
 10
216.3218129793344
 20
265.9299415095924
 30
0.0
 10
216.1149914068316
 20
265.9640201386235
 30
0.0
 10
215.9478380384739
 20
265.9821979371867
 30
0.0
 10
215.5857091244543
 20
266.0059822321463
 30
0.0
 10
215.3876262042646
 20
266.0118517845299
 30
0.0
 10
215.1881362568661
 20
266.0108767937343
 30
0.0
  0
LINE
  5
BC
330
1F
100
AcDbEntity
  8
0
  6
Continuous
 62
     7
370
    35
100
AcDbLine
 10
216.6881362569
 20
263.2156731376
 30
0.0
 11
216.6881362569
 21
265.765664868
 31
0.0
  0
LINE
  5
BD
330
1F
100
AcDbEntity
  8
0
  6
Continuous
 62
     7
370
    35
100
AcDbLine
 10
27.1881362569
 20
265.765664868
 30
0.0
 11
27.1881362569
 21
269.8687631497
 31
0.0
  0
SPLINE
  5
BE
330
1F
100
AcDbEntity
  8
0
  6
Continuous
 62
     7
370
    35
100
AcDbSpline
210
0.0
220
0.0
230
1.0
 70
     8
 71
     3
 72
    16
 73
    12
 74
     0
 42
0.000000001
 43
0.00000001
 40
0.0
 40
0.0
 40
0.0
 40
0.0
 40
0.2499999999999987
 40
0.2499999999999987
 40
0.3749999999999999
 40
0.3749999999999999
 40
0.5000000000000012
 40
0.5000000000000012
 40
0.7500000000000006
 40
0.7500000000000006
 40
1.0
 40
1.0
 40
1.0
 40
1.0
 10
27.18813625686613
 20
269.8687631497167
 30
0.0
 10
27.18813625686611
 20
269.9018705122657
 30
0.0
 10
27.22644019299801
 20
269.9341250904888
 30
0.0
 10
27.33809935898645
 20
269.9792424901941
 30
0.0
 10
27.38369391807081
 20
269.9934720395042
 30
0.0
 10
27.49151310465756
 20
270.0203292786611
 30
0.0
 10
27.55445953439787
 20
270.0330397913346
 30
0.0
 10
27.76128110690063
 20
270.0671184203656
 30
0.0
 10
27.92843447525828
 20
270.0852962189289
 30
0.0
 10
28.29056338927796
 20
270.1090805138885
 30
0.0
 10
28.4886463094676
 20
270.1149500662721
 30
0.0
 10
28.68813625686613
 20
270.1139750754764
 30
0.0
  0
LINE
  5
BF
330
1F
100
AcDbEntity
  8
0
  6
Continuous
 62
     7
370
    35
100
AcDbLine
 10
216.6881362569
 20
269.8687631497
 30
0.0
 11
216.6881362569
 21
265.765664868
 31
0.0
  0
SPLINE
  5
C0
330
1F
100
AcDbEntity
  8
0
  6
Continuous
 62
     7
370
    35
100
AcDbSpline
210
0.0
220
0.0
230
1.0
 70
     8
 71
     3
 72
    18
 73
    14
 74
     0
 42
0.000000001
 43
0.00000001
 40
0.0
 40
0.0
 40
0.0
 40
0.0
 40
0.125
 40
0.125
 40
0.2499999999999999
 40
0.2499999999999999
 40
0.3749999999999999
 40
0.3749999999999999
 40
0.4999999999999999
 40
0.4999999999999999
 40
0.7499999999999999
 40
0.7499999999999999
 40
1.0
 40
1.0
 40
1.0
 40
1.0
 10
215.1881362568661
 20
270.1139750754764
 30
0.0
 10
215.2878560882786
 20
270.1144624479934
 30
0.0
 10
215.3858790575587
 20
270.113274681695
 30
0.0
 10
215.5786738486106
 20
270.1076999207206
 30
0.0
 10
215.6744731290919
 20
270.1032346054513
 30
0.0
 10
215.8566348805134
 20
270.0913021162638
 30
0.0
 10
215.9429644356267
 20
270.0838882036516
 30
0.0
 10
216.106221484846
 20
270.0662014665403
 30
0.0
 10
216.1832021207063
 20
270.0558623138612
 30
0.0
 10
216.3899383645498
 20
270.0218479183296
 30
0.0
 10
216.5007986745344
 20
269.9942673223661
 30
0.0
 10
216.6489692425127
 20
269.9345501356067
 30
0.0
 10
216.6881362568662
 20
269.9018628713335
 30
0.0
 10
216.6881362568662
 20
269.8687631497167
 30
0.0
  0
SPLINE
  5
C1
330
1F
100
AcDbEntity
  8
0
  6
Continuous
 62
     7
370
    35
100
AcDbSpline
210
0.0
220
0.0
230
1.0
 70
     8
 71
     3
 72
    10
 73
     6
 74
     0
 42
0.000000001
 43
0.00000001
 40
0.0
 40
0.0
 40
0.0
 40
0.0
 40
0.5
 40
0.5
 40
1.0
 40
1.0
 40
1.0
 40
1.0
 10
132.2412714303623
 20
262.1243610227844
 30
0.0
 10
133.3834813144572
 20
261.8391705613341
 30
0.0
 10
134.5248947101217
 20
261.7094780245065
 30
0.0
 10
136.806245364085
 20
261.7382782909637
 30
0.0
 10
137.9461824308427
 20
261.8968084911709
 30
0.0
 10
139.0853313539074
 20
262.2092074758107
 30
0.0
  0
LINE
  5
C2
330
1F
100
AcDbEntity
  8
0
  6
Continuous
 62
     7
370
    35
100
AcDbLine
 10
139.0853313539
 20
262.2092074758
 30
0.0
 11
139.9566517192
 21
262.4427476872
 31
0.0
  0
SPLINE
  5
C3
330
1F
100
AcDbEntity
  8
0
  6
Continuous
 62
     7
370
    35
100
AcDbSpline
210
0.0
220
0.0
230
1.0
 70
     8
 71
     3
 72
    10
 73
     6
 74
     0
 42
0.000000001
 43
0.00000001
 40
0.0
 40
0.0
 40
0.0
 40
0.0
 40
0.5000000000000003
 40
0.5000000000000003
 40
1.0
 40
1.0
 40
1.0
 40
1.0
 10
150.4129678906231
 20
262.351009168607
 30
0.0
 10
151.4982835539946
 20
262.0950837453656
 30
0.0
 10
152.5828704400685
 20
261.9787268887788
 30
0.0
 10
154.7506836839574
 20
262.0065687263499
 30
0.0
 10
155.8339098908725
 20
262.150796322559
 30
0.0
 10
156.9164145990014
 20
262.4331985703151
 30
0.0
  0
LINE
  5
C4
330
1F
100
AcDbEntity
  8
0
  6
Continuous
 62
     7
370
    35
100
AcDbLine
 10
156.916414599
 20
262.4331985703
 30
0.0
 11
157.9615531993
 21
262.6992303207
 31
0.0
  0
SPLINE
  5
C5
330
1F
100
AcDbEntity
  8
0
  6
Continuous
 62
     7
370
    35
100
AcDbSpline
210
0.0
220
0.0
230
1.0
 70
     8
 71
     3
 72
    10
 73
     6
 74
     0
 42
0.000000001
 43
0.00000001
 40
0.0
 40
0.0
 40
0.0
 40
0.0
 40
0.5
 40
0.5
 40
1.0
 40
1.0
 40
1.0
 40
1.0
 10
168.5858763713947
 20
262.5821085478069
 30
0.0
 10
169.6139101693471
 20
262.3539571841343
 30
0.0
 10
170.6412811926226
 20
262.2503291869816
 30
0.0
 10
172.6947773063108
 20
262.2771614166012
 30
0.0
 10
173.7209022796715
 20
262.4076436382552
 30
0.0
 10
174.74637076835
 20
262.6614674473525
 30
0.0
  0
LINE
  5
C6
330
1F
100
AcDbEntity
  8
0
  6
Continuous
 62
     7
370
    35
100
AcDbLine
 10
174.7463707684
 20
262.6614674474
 30
0.0
 11
175.967059216
 21
262.9557202102
 31
0.0
  0
SPLINE
  5
C7
330
1F
100
AcDbEntity
  8
0
  6
Continuous
 62
     7
370
    35
100
AcDbSpline
210
0.0
220
0.0
230
1.0
 70
     8
 71
     3
 72
    10
 73
     6
 74
     0
 42
0.000000001
 43
0.00000001
 40
0.0
 40
0.0
 40
0.0
 40
0.0
 40
0.5
 40
0.5
 40
1.0
 40
1.0
 40
1.0
 40
1.0
 10
186.7599436515465
 20
262.8177206926379
 30
0.0
 10
187.7303256278497
 20
262.6158321979074
 30
0.0
 10
188.7001089499073
 20
262.5243013585571
 30
0.0
 10
190.6385427517993
 20
262.5500710921672
 30
0.0
 10
191.6071931423845
 20
262.6673881176169
 30
0.0
 10
192.5752502584908
 20
262.8940710766763
 30
0.0
  0
LINE
  5
C8
330
1F
100
AcDbEntity
  8
0
  6
Continuous
 62
     7
370
    35
100
AcDbLine
 10
192.5752502585
 20
262.8940710767
 30
0.0
 11
193.9732818018
 21
263.2122186832
 31
0.0
  0
SPLINE
  5
C9
330
1F
100
AcDbEntity
  8
0
  6
Continuous
 62
     7
370
    35
100
AcDbSpline
210
0.0
220
0.0
230
1.0
 70
     8
 71
     3
 72
    10
 73
     6
 74
     0
 42
0.000000001
 43
0.00000001
 40
0.0
 40
0.0
 40
0.0
 40
0.0
 40
0.5
 40
0.5
 40
1.0
 40
1.0
 40
1.0
 40
1.0
 10
96.38527709436214
 20
262.3142669552699
 30
0.0
 10
97.49777398460974
 20
262.0161837982984
 30
0.0
 10
98.61102740979747
 20
261.8644637400931
 30
0.0
 10
100.8389561465726
 20
261.8361090082963
 30
0.0
 10
101.953631286667
 20
261.9594411549481
 30
0.0
 10
103.069070794198
 20
262.2306517168635
 30
0.0
  0
LINE
  5
CA
330
1F
100
AcDbEntity
  8
0
  6
Continuous
 62
     7
370
    35
100
AcDbLine
 10
103.0690707942
 20
262.2306517169
 30
0.0
 11
103.9196207945
 21
262.4427476872
 31
0.0
  0
SPLINE
  5
CB
330
1F
100
AcDbEntity
  8
0
  6
Continuous
 62
     7
370
    35
100
AcDbSpline
210
0.0
220
0.0
230
1.0
 70
     8
 71
     3
 72
     8
 73
     4
 74
     0
 42
0.000000001
 43
0.00000001
 40
0.0015478849145251
 40
0.0015478849145251
 40
0.0015478849145251
 40
0.0015478849145251
 40
0.0026486073639886
 40
0.0026486073639886
 40
0.0026486073639886
 40
0.0026486073639886
 10
121.2401057949957
 20
262.0063308264229
 30
0.0
 10
121.472795328358
 20
262.066135999348
 30
0.0
 10
121.705472172982
 20
262.1260607823036
 30
0.0
 10
121.9381362568661
 20
262.1861051164326
 30
0.0
  0
SPLINE
  5
CC
330
1F
100
AcDbEntity
  8
0
  6
Continuous
 62
     7
370
    35
100
AcDbSpline
210
0.0
220
0.0
230
1.0
 70
     8
 71
     3
 72
    12
 73
     8
 74
     0
 42
0.000000001
 43
0.00000001
 40
0.0
 40
0.0
 40
0.0
 40
0.0
 40
0.5000000000000001
 40
0.5000000000000001
 40
0.75
 40
0.75
 40
1.0
 40
1.0
 40
1.0
 40
1.0
 10
114.2169758488594
 20
262.0925133490277
 30
0.0
 10
115.3822286306609
 20
261.7647254237023
 30
0.0
 10
116.5504516387826
 20
261.5978613570283
 30
0.0
 10
118.3069889704112
 20
261.575269764874
 30
0.0
 10
118.8932086598182
 20
261.6060570818726
 30
0.0
 10
120.0671001418702
 20
261.746305201004
 30
0.0
 10
120.6559642450631
 20
261.8561964997877
 30
0.0
 10
121.2401057949957
 20
262.0063308264229
 30
0.0
  0
LINE
  5
CD
330
1F
100
AcDbEntity
  8
0
  6
Continuous
 62
     7
370
    35
100
AcDbLine
 10
48.5487405137
 20
262.9303695758
 30
0.0
 11
49.9134946827
 21
263.2144047894
 31
0.0
  0
SPLINE
  5
CE
330
1F
100
AcDbEntity
  8
0
  6
Continuous
 62
     7
370
    35
100
AcDbSpline
210
0.0
220
0.0
230
1.0
 70
     8
 71
     3
 72
    10
 73
     6
 74
     0
 42
0.000000001
 43
0.00000001
 40
0.0
 40
0.0
 40
0.0
 40
0.0
 40
0.5
 40
0.5
 40
1.0
 40
1.0
 40
1.0
 40
1.0
 10
42.89689913786099
 20
263.005238775009
 30
0.0
 10
43.83776756433392
 20
262.7908460427782
 30
0.0
 10
44.77920014540962
 20
262.6795274976845
 30
0.0
 10
46.66314566341747
 20
262.6542774378639
 30
0.0
 10
47.60565852233304
 20
262.7403316690854
 30
0.0
 10
48.54874051374198
 20
262.9303695757633
 30
0.0
  0
SPLINE
  5
CF
330
1F
100
AcDbEntity
  8
0
  6
Continuous
 62
     7
370
    35
100
AcDbSpline
210
0.0
220
0.0
230
1.0
 70
     8
 71
     3
 72
    10
 73
     6
 74
     0
 42
0.000000001
 43
0.00000001
 40
0.0
 40
0.0
 40
0.0
 40
0.0
 40
0.5
 40
0.5
 40
1.0
 40
1.0
 40
1.0
 40
1.0
 10
78.55473131242418
 20
262.5402673452464
 30
0.0
 10
79.61039713863643
 20
262.2715147928513
 30
0.0
 10
80.66675360262086
 20
262.1338375733873
 30
0.0
 10
82.78077315147404
 20
262.1064651799442
 30
0.0
 10
83.8384361021898
 20
262.2167445436963
 30
0.0
 10
84.89679649348822
 20
262.4593903393354
 30
0.0
  0
LINE
  5
D0
330
1F
100
AcDbEntity
  8
0
  6
Continuous
 62
     7
370
    35
100
AcDbLine
 10
84.8967964935
 20
262.4593903393
 30
0.0
 11
85.9147193145
 21
262.6992303207
 31
0.0
  0
SPLINE
  5
D1
330
1F
100
AcDbEntity
  8
0
  6
Continuous
 62
     7
370
    35
100
AcDbSpline
210
0.0
220
0.0
230
1.0
 70
     8
 71
     3
 72
    10
 73
     6
 74
     0
 42
0.000000001
 43
0.00000001
 40
0.0
 40
0.0
 40
0.0
 40
0.0
 40
0.5
 40
0.5
 40
1.0
 40
1.0
 40
1.0
 40
1.0
 10
60.72528907627525
 20
262.7705726515144
 30
0.0
 10
61.72373969899868
 20
262.5297232212159
 30
0.0
 10
62.72281677364064
 20
262.40552069022
 30
0.0
 10
64.72216353325402
 20
262.3791826263573
 30
0.0
 10
65.72243311498619
 20
262.4770278683956
 30
0.0
 10
66.72333499977972
 20
262.6926095087214
 30
0.0
  0
LINE
  5
D2
330
1F
100
AcDbEntity
  8
0
  6
Continuous
 62
     7
370
    35
100
AcDbLine
 10
66.7233349998
 20
262.6926095087
 30
0.0
 11
67.9092132978
 21
262.9557202102
 31
0.0
  0
SPLINE
  5
D3
330
1F
100
AcDbEntity
  8
0
  6
Continuous
 62
     7
370
    35
100
AcDbSpline
210
0.0
220
0.0
230
1.0
 70
     8
 71
     3
 72
    11
 73
     7
 74
     0
 42
0.000000001
 43
0.00000001
 40
0.0
 40
0.0
 40
0.0
 40
0.0
 40
0.2073221297724721
 40
0.4275029591340903
 40
0.7588009989545225
 40
1.0
 40
1.0
 40
1.0
 40
1.0
 10
126.180400558894
 20
261.5843552055297
 30
0.0
 10
125.9344288255635
 20
261.5841150435279
 30
0.0
 10
125.4272295025702
 20
261.5836198240037
 30
0.0
 10
124.5278831313629
 20
261.6504985876854
 30
0.0
 10
123.5905457590948
 20
261.7800136429779
 30
0.0
 10
122.9190675309519
 20
261.9392449912281
 30
0.0
 10
122.6361667187366
 20
262.0063308264229
 30
0.0
  0
SPLINE
  5
D4
330
1F
100
AcDbEntity
  8
0
  6
Continuous
 62
     7
370
    35
100
AcDbSpline
210
0.0
220
0.0
230
1.0
 70
     8
 71
     3
 72
    10
 73
     6
 74
     0
 42
0.000000001
 43
0.00000001
 40
0.0
 40
0.0
 40
0.0
 40
0.0
 40
0.104401060579459
 40
0.6148935020543923
 40
1.0
 40
1.0
 40
1.0
 40
1.0
 10
108.1807665315093
 20
261.7309991848978
 30
0.0
 10
108.0621959408996
 20
261.7313640825592
 30
0.0
 10
107.3638478082659
 20
261.7335132293177
 30
0.0
 10
106.2283410603338
 20
261.8618549800742
 30
0.0
 10
105.2231654837653
 20
262.1047590216361
 30
0.0
 10
104.7909411598248
 20
262.2092074758107
 30
0.0
  0
SPLINE
  5
D5
330
1F
100
AcDbEntity
  8
0
  6
Continuous
 62
     7
370
    35
100
AcDbSpline
210
0.0
220
0.0
230
1.0
 70
     8
 71
     3
 72
     9
 73
     5
 74
     0
 42
0.000000001
 43
0.00000001
 40
0.0
 40
0.0
 40
0.0
 40
0.0
 40
0.4960688604923481
 40
1.0
 40
1.0
 40
1.0
 40
1.0
 10
144.1807131325495
 20
261.8516404319192
 30
0.0
 10
143.6203901997366
 20
261.8603931438082
 30
0.0
 10
142.4908636814691
 20
261.8780372907929
 30
0.0
 10
141.3713563332231
 20
262.1124991067681
 30
0.0
 10
140.8072017195342
 20
262.2306517168635
 30
0.0
  0
SPLINE
  5
D6
330
1F
100
AcDbEntity
  8
0
  6
Continuous
 62
     7
370
    35
100
AcDbSpline
210
0.0
220
0.0
230
1.0
 70
     8
 71
     3
 72
     9
 73
     5
 74
     0
 42
0.000000001
 43
0.00000001
 40
0.0
 40
0.0
 40
0.0
 40
0.0
 40
0.4875434137494996
 40
1.0
 40
1.0
 40
1.0
 40
1.0
 10
90.18053596865457
 20
261.9971848423264
 30
0.0
 10
89.65440917418167
 20
262.0188491801081
 30
0.0
 10
88.57527082540024
 20
262.063284890182
 30
0.0
 10
87.50719857436516
 20
262.3078629385677
 30
0.0
 10
86.95985791473085
 20
262.4331985703151
 30
0.0
  0
SPLINE
  5
D7
330
1F
100
AcDbEntity
  8
0
  6
Continuous
 62
     7
370
    35
100
AcDbSpline
210
0.0
220
0.0
230
1.0
 70
     8
 71
     3
 72
     9
 73
     5
 74
     0
 42
0.000000001
 43
0.00000001
 40
0.0
 40
0.0
 40
0.0
 40
0.0
 40
0.4969494595963831
 40
0.9999999999999999
 40
0.9999999999999999
 40
0.9999999999999999
 40
0.9999999999999999
 10
162.1806076041221
 20
262.1211293812217
 30
0.0
 10
161.6482318885167
 20
262.1286896728463
 30
0.0
 10
160.5769444460517
 20
262.1439030742874
 30
0.0
 10
159.5141269406659
 20
262.3538010494819
 30
0.0
 10
158.9794760202312
 20
262.4593903393333
 30
0.0
  0
SPLINE
  5
D8
330
1F
100
AcDbEntity
  8
0
  6
Continuous
 62
     7
370
    35
100
AcDbSpline
210
0.0
220
0.0
230
1.0
 70
     8
 71
     3
 72
     9
 73
     5
 74
     0
 42
0.000000001
 43
0.00000001
 40
0.0
 40
0.0
 40
0.0
 40
0.0
 40
0.4883318423855082
 40
1.0
 40
1.0
 40
1.0
 40
1.0
 10
72.18048089514708
 20
262.2676379991815
 30
0.0
 10
71.68158982442819
 20
262.2876654678545
 30
0.0
 10
70.65996676523581
 20
262.3286774743114
 30
0.0
 10
69.64779685734537
 20
262.5488249791488
 30
0.0
 10
69.12990174538226
 20
262.6614674473525
 30
0.0
  0
LINE
  5
D9
330
1F
100
AcDbEntity
  8
0
  6
Continuous
 62
     7
370
    35
100
AcDbLine
 10
180.18016299
 20
262.3933605167
 30
0.0
 11
177.1529375139
 21
262.6926095087
 31
0.0
  0
LINE
  5
DA
330
1F
100
AcDbEntity
  8
0
  6
Continuous
 62
     7
370
    35
100
AcDbLine
 10
54.1805423687
 20
262.5435928984
 30
0.0
 11
51.3010222552
 21
262.8940710767
 31
0.0
  0
LINE
  5
DB
330
1F
100
AcDbEntity
  8
0
  6
Continuous
 62
     7
370
    35
100
AcDbLine
 10
198.1800043577
 20
262.6674467003
 30
0.0
 11
195.327532
 21
262.9303695758
 31
0.0
  0
SPLINE
  5
DC
330
1F
100
AcDbEntity
  8
0
  6
Continuous
 62
     7
370
    35
100
AcDbSpline
210
0.0
220
0.0
230
1.0
 70
    24
 71
     3
 72
    10
 73
     6
 74
     0
 42
0.000000001
 43
0.00000001
 40
0.0
 40
0.0
 40
0.0
 40
0.0
 40
0.0580553800547409
 40
0.7736514592973942
 40
1.0
 40
1.0
 40
1.0
 40
1.0
 10
216.6881362568661
 20
262.9619411070249
 30
0.0
 10
216.6881362568661
 20
262.9586794619939
 30
0.0
 10
216.6881362568662
 20
262.9152144732958
 30
0.0
 10
216.6881362568661
 20
263.0296749501031
 30
0.0
 10
216.6881362568661
 20
263.1796373036354
 30
0.0
 10
216.6881362568661
 20
263.2156731375513
 30
0.0
  0
SPLINE
  5
DD
330
1F
100
AcDbEntity
  8
0
  6
Continuous
 62
     7
370
    35
100
AcDbSpline
210
0.0
220
0.0
230
1.0
 70
    24
 71
     3
 72
    10
 73
     6
 74
     0
 42
0.000000001
 43
0.00000001
 40
0.0
 40
0.0
 40
0.0
 40
0.0
 40
0.4913205307991689
 40
0.9859783347787074
 40
1.0
 40
1.0
 40
1.0
 40
1.0
 10
27.18813625686607
 20
263.2156731375513
 30
0.0
 10
27.1881362568662
 20
263.1444734558614
 30
0.0
 10
27.18813625686639
 20
263.0015904717632
 30
0.0
 10
27.18813625686549
 20
262.9313260647118
 30
0.0
 10
27.18813625686613
 20
262.95322672821
 30
0.0
 10
27.18813625686613
 20
262.9538304163679
 30
0.0
  0
LINE
  5
DE
330
1F
100
AcDbEntity
  8
0
  6
Continuous
 62
     8
370
    18
100
AcDbLine
 10
215.1881362569
 20
266.0108767937
 30
0.0
 11
215.1881362569
 21
270.1139750755
 31
0.0
  0
LINE
  5
DF
330
1F
100
AcDbEntity
  8
0
  6
Continuous
 62
     8
370
    18
100
AcDbLine
 10
28.6881362569
 20
270.1139750755
 30
0.0
 11
28.6881362569
 21
266.0108767937
 31
0.0
  0
LINE
  5
E0
330
1F
100
AcDbEntity
  8
0
  6
Continuous
 62
     8
370
    18
100
AcDbLine
 10
104.7909411598
 20
262.2092074758
 30
0.0
 11
114.2169758489
 21
262.092513349
 31
0.0
  0
LINE
  5
E1
330
1F
100
AcDbEntity
  8
0
  6
Continuous
 62
     8
370
    18
100
AcDbLine
 10
86.9598579147
 20
262.4331985703
 30
0.0
 11
96.3852770944
 21
262.3142669553
 31
0.0
  0
LINE
  5
E2
330
1F
100
AcDbEntity
  8
0
  6
Continuous
 62
     8
370
    18
100
AcDbLine
 10
69.1299017454
 20
262.6614674474
 30
0.0
 11
78.5547313124
 21
262.5402673452
 31
0.0
  0
LINE
  5
E3
330
1F
100
AcDbEntity
  8
0
  6
Continuous
 62
     8
370
    18
100
AcDbLine
 10
51.3010222552
 20
262.8940710767
 30
0.0
 11
60.7252890763
 21
262.7705726515
 31
0.0
  0
LINE
  5
E4
330
1F
100
AcDbEntity
  8
0
  6
Continuous
 62
     8
370
    18
100
AcDbLine
 10
27.1881362568
 20
263.2156731376
 30
0.0
 11
42.8968991379
 21
263.005238775
 31
0.0
  0
SPLINE
  5
E5
330
1F
100
AcDbEntity
  8
0
  6
Continuous
 62
     8
370
    18
100
AcDbSpline
210
0.0
220
0.0
230
1.0
 70
     8
 71
     3
 72
     8
 73
     4
 74
     0
 42
0.000000001
 43
0.00000001
 40
0.0
 40
0.0
 40
0.0
 40
0.0
 40
1.0
 40
1.0
 40
1.0
 40
1.0
 10
195.3275319999903
 20
262.9303695757633
 30
0.0
 10
202.4477507454577
 20
263.0244105667447
 30
0.0
 10
209.5679521580674
 20
263.1195068265199
 30
0.0
 10
216.6881362568661
 20
263.2156731375513
 30
0.0
  0
LINE
  5
E6
330
1F
100
AcDbEntity
  8
0
  6
Continuous
 62
     8
370
    18
100
AcDbLine
 10
177.152937514
 20
262.6926095087
 30
0.0
 11
186.7599436515
 21
262.8177206926
 31
0.0
  0
LINE
  5
E7
330
1F
100
AcDbEntity
  8
0
  6
Continuous
 62
     8
370
    18
100
AcDbLine
 10
158.9794760203
 20
262.4593903393
 30
0.0
 11
168.5858763714
 21
262.5821085478
 31
0.0
  0
LWPOLYLINE
  5
E8
330
1F
100
AcDbEntity
  8
0
  6
Continuous
 62
     8
370
    18
100
AcDbPolyline
 90
        3
 70
   128
 43
0.0
 10
140.8072017195
 20
262.2306517169
 10
150.1429879279
 20
262.3476095124
 10
150.4129678907
 20
262.3510091686
  0
LINE
  5
E9
330
1F
100
AcDbEntity
  8
0
  6
Continuous
 62
     8
370
    18
100
AcDbLine
 10
122.6361667187
 20
262.0063308264
 30
0.0
 11
132.2412714304
 21
262.1243610228
 31
0.0
  0
LINE
  5
EA
330
1F
100
AcDbEntity
  8
0
  6
Continuous
 62
     8
370
    18
100
AcDbLine
 10
160.6373989687
 20
264.5244239217
 30
0.0
 11
160.6373989687
 21
264.3939034399
 31
0.0
  0
LINE
  5
EB
330
1F
100
AcDbEntity
  8
0
  6
Continuous
 62
     8
370
    18
100
AcDbLine
 10
178.6373989687
 20
264.680693002
 30
0.0
 11
178.6373989687
 21
264.5575272747
 31
0.0
  0
LINE
  5
EC
330
1F
100
AcDbEntity
  8
0
  6
Continuous
 62
     8
370
    18
100
AcDbLine
 10
34.6373989687
 20
264.9467014498
 30
0.0
 11
34.6373989687
 21
264.8357011981
 31
0.0
  0
LINE
  5
ED
330
1F
100
AcDbEntity
  8
0
  6
Continuous
 62
     8
370
    18
100
AcDbLine
 10
88.6373989687
 20
264.4776209637
 30
0.0
 11
88.6373989687
 21
264.3448296937
 31
0.0
  0
LINE
  5
EE
330
1F
100
AcDbEntity
  8
0
  6
Continuous
 62
     8
370
    18
100
AcDbLine
 10
52.6373989687
 20
264.7901485662
 30
0.0
 11
52.6373989687
 21
264.6720773633
 31
0.0
  0
LINE
  5
EF
330
1F
100
AcDbEntity
  8
0
  6
Continuous
 62
     8
370
    18
100
AcDbLine
 10
124.6373989687
 20
264.2119123315
 30
0.0
 11
124.6373989687
 21
264.0666557703
 31
0.0
  0
LINE
  5
F0
330
1F
100
AcDbEntity
  8
0
  6
Continuous
 62
     8
370
    18
100
AcDbLine
 10
142.6373989687
 20
264.3681634698
 30
0.0
 11
142.6373989687
 21
264.2302796051
 31
0.0
  0
LINE
  5
F1
330
1F
100
AcDbEntity
  8
0
  6
Continuous
 62
     8
370
    18
100
AcDbLine
 10
70.6373989687
 20
264.633880429
 30
0.0
 11
70.6373989687
 21
264.5084535285
 31
0.0
  0
LINE
  5
F2
330
1F
100
AcDbEntity
  8
0
  6
Continuous
 62
     8
370
    18
100
AcDbLine
 10
106.6373989687
 20
264.3213708531
 30
0.0
 11
106.6373989687
 21
264.1812058589
 31
0.0
  0
POINT
  5
F3
330
1F
100
AcDbEntity
  8
0
  6
Continuous
 62
     7
370
     0
100
AcDbPoint
 10
121.9381362569
 20
262.1861051164
 30
0.0
  0
DIMENSION
  5
F4
330
1F
100
AcDbEntity
  8
DIMENSION
100
AcDbDimension
  2
_D
 10
15.1466993482
 20
270.1139750755
 30
0.0
 11
15.1466993482
 21
265.7143112281
 31
0.0
 70
   160
  1
<>
 71
     2
 42
-1.0
  3
SLDDIMSTYLE0
100
AcDbAlignedDimension
 13
121.9381362569
 23
262.1861051164
 33
0.0
 14
28.6881362569
 24
270.1139750755
 34
0.0
 50
90.0
100
AcDbRotatedDimension
  0
SPLINE
  5
102
330
1F
100
AcDbEntity
  8
0
  6
Continuous
 62
     7
370
    35
100
AcDbSpline
210
0.0
220
0.0
230
1.0
 70
     8
 71
     3
 72
     9
 73
     5
 74
     0
 42
0.000000001
 43
0.00000001
 40
0.0
 40
0.0
 40
0.0
 40
0.0
 40
0.5
 40
1.0
 40
1.0
 40
1.0
 40
1.0
 10
263.9783924006002
 20
263.2156731375513
 30
0.0
 10
262.9270201490819
 20
263.0386619653719
 30
0.0
 10
260.8242756460454
 20
262.8653606508191
 30
0.0
 10
258.7215311430087
 20
263.0386619653719
 30
0.0
 10
257.6701588914904
 20
263.2156731375513
 30
0.0
  0
SPLINE
  5
103
330
1F
100
AcDbEntity
  8
0
  6
Continuous
 62
     7
370
    35
100
AcDbSpline
210
0.0
220
0.0
230
1.0
 70
     8
 71
     3
 72
    10
 73
     6
 74
     0
 42
0.000000001
 43
0.00000001
 40
0.0
 40
0.0
 40
0.0
 40
0.0
 40
0.5
 40
0.5
 40
1.0
 40
1.0
 40
1.0
 40
1.0
 10
264.159592841631
 20
263.005238775009
 30
0.0
 10
263.0383095142234
 20
262.7908460427782
 30
0.0
 10
261.9163538535412
 20
262.6795274976845
 30
0.0
 10
259.6711550142037
 20
262.6542774378639
 30
0.0
 10
258.5479119285249
 20
262.7403316690854
 30
0.0
 10
257.4239905771523
 20
262.9303695757633
 30
0.0
  0
LINE
  5
104
330
1F
100
AcDbEntity
  8
0
  6
Continuous
 62
     7
370
    35
100
AcDbLine
 10
280.624275646
 20
265.5551250485
 30
0.0
 11
265.8803780833
 21
262.1861051164
 31
0.0
  0
SPLINE
  5
105
330
1F
100
AcDbEntity
  8
0
  6
Continuous
 62
     7
370
    35
100
AcDbSpline
210
0.0
220
0.0
230
1.0
 70
     8
 71
     3
 72
     8
 73
     4
 74
     0
 42
0.000000001
 43
0.00000001
 40
0.0
 40
0.0
 40
0.0
 40
0.0
 40
1.0
 40
1.0
 40
1.0
 40
1.0
 10
265.8803780833416
 20
262.1861051164326
 30
0.0
 10
268.8003160464838
 20
262.8882226520721
 30
0.0
 10
271.7220775508733
 20
263.577155757487
 30
0.0
 10
274.6456694508885
 20
264.2528548746692
 30
0.0
  0
SPLINE
  5
106
330
1F
100
AcDbEntity
  8
0
  6
Continuous
 62
     7
370
    35
100
AcDbSpline
210
0.0
220
0.0
230
1.0
 70
     8
 71
     3
 72
     8
 73
     4
 74
     0
 42
0.000000001
 43
0.00000001
 40
0.0
 40
0.0
 40
0.0
 40
0.0
 40
1.0
 40
1.0
 40
1.0
 40
1.0
 10
274.8242756460454
 20
264.2961151204788
 30
0.0
 10
274.8242756460454
 20
264.2948508967614
 30
0.0
 10
274.756923820271
 20
264.2785679296184
 30
0.0
 10
274.6456694508896
 20
264.2528548746694
 30
0.0
  0
LINE
  5
107
330
1F
100
AcDbEntity
  8
0
  6
Continuous
 62
     7
370
    35
100
AcDbLine
 10
274.824275646
 20
264.2961151205
 30
0.0
 11
274.824275646
 21
264.3576372368
 31
0.0
  0
SPLINE
  5
108
330
1F
100
AcDbEntity
  8
0
  6
Continuous
 62
     7
370
    35
100
AcDbSpline
210
0.0
220
0.0
230
1.0
 70
     8
 71
     3
 72
    14
 73
    10
 74
     0
 42
0.000000001
 43
0.00000001
 40
0.0
 40
0.0
 40
0.0
 40
0.0
 40
0.25
 40
0.25
 40
0.5
 40
0.5
 40
0.75
 40
0.75
 40
1.0
 40
1.0
 40
1.0
 40
1.0
 10
274.0028818412021
 20
264.1812058588602
 30
0.0
 10
274.0759169414287
 20
264.1977423516752
 30
0.0
 10
274.1646730301258
 20
264.2175030777713
 30
0.0
 10
274.3496213488103
 20
264.2581786078138
 30
0.0
 10
274.4465491898369
 20
264.2792500430361
 30
0.0
 10
274.617279408737
 20
264.3159141593042
 30
0.0
 10
274.6916543730927
 20
264.3316355882628
 30
0.0
 10
274.7958855290365
 20
264.3530624608191
 30
0.0
 10
274.8242756460454
 20
264.3584667294419
 30
0.0
 10
274.8242756460454
 20
264.3576372367601
 30
0.0
  0
SPLINE
  5
109
330
1F
100
AcDbEntity
  8
0
  6
Continuous
 62
     7
370
    35
100
AcDbSpline
210
0.0
220
0.0
230
1.0
 70
     8
 71
     3
 72
     8
 73
     4
 74
     0
 42
0.000000001
 43
0.00000001
 40
0.0
 40
0.0
 40
0.0
 40
0.0
 40
1.0
 40
1.0
 40
1.0
 40
1.0
 10
274.0028818412021
 20
264.1812058588602
 30
0.0
 10
270.9899776882121
 20
263.4990288272168
 30
0.0
 10
267.9789841112654
 20
262.802780200499
 30
0.0
 10
264.9698938639872
 20
262.0925133490277
 30
0.0
  0
SPLINE
  5
10A
330
1F
100
AcDbEntity
  8
0
  6
Continuous
 62
     7
370
    35
100
AcDbSpline
210
0.0
220
0.0
230
1.0
 70
     8
 71
     3
 72
     8
 73
     4
 74
     0
 42
0.000000001
 43
0.00000001
 40
0.0
 40
0.0
 40
0.0
 40
0.0
 40
1.0
 40
1.0
 40
1.0
 40
1.0
 10
264.8640447764586
 20
262.2092074758106
 30
0.0
 10
268.1224065195472
 20
262.9590014363519
 30
0.0
 10
271.3829451591842
 20
263.6923326073906
 30
0.0
 10
274.6456694508885
 20
264.4091347752784
 30
0.0
  0
SPLINE
  5
10B
330
1F
100
AcDbEntity
  8
0
  6
Continuous
 62
     7
370
    35
100
AcDbSpline
210
0.0
220
0.0
230
1.0
 70
     8
 71
     3
 72
     8
 73
     4
 74
     0
 42
0.000000001
 43
0.00000001
 40
0.0
 40
0.0
 40
0.0
 40
0.0
 40
1.0
 40
1.0
 40
1.0
 40
1.0
 10
274.8242756460454
 20
264.4503544214808
 30
0.0
 10
274.8242756460454
 20
264.4490909301006
 30
0.0
 10
274.7570263405785
 20
264.4335992573499
 30
0.0
 10
274.6456694508895
 20
264.4091347752785
 30
0.0
  0
LINE
  5
10C
330
1F
100
AcDbEntity
  8
0
  6
Continuous
 62
     7
370
    35
100
AcDbLine
 10
274.824275646
 20
264.4503544215
 30
0.0
 11
274.824275646
 21
264.5118765378
 31
0.0
  0
SPLINE
  5
10D
330
1F
100
AcDbEntity
  8
0
  6
Continuous
 62
     7
370
    35
100
AcDbSpline
210
0.0
220
0.0
230
1.0
 70
     8
 71
     3
 72
    14
 73
    10
 74
     0
 42
0.000000001
 43
0.00000001
 40
0.0
 40
0.0
 40
0.0
 40
0.0
 40
0.25
 40
0.25
 40
0.5
 40
0.5
 40
0.75
 40
0.75
 40
1.0
 40
1.0
 40
1.0
 40
1.0
 10
274.0028818412021
 20
264.3448296936627
 30
0.0
 10
274.0759170301936
 20
264.3605317697981
 30
0.0
 10
274.1647301935205
 20
264.3792905935999
 30
0.0
 10
274.349853887353
 20
264.417889134175
 30
0.0
 10
274.4468860843199
 20
264.4378740679805
 30
0.0
 10
274.6176151865993
 20
264.4725860388114
 30
0.0
 10
274.6919186657917
 20
264.4874424959897
 30
0.0
 10
274.7960162950685
 20
264.507650426508
 30
0.0
 10
274.8242756460454
 20
264.5127048015953
 30
0.0
 10
274.8242756460454
 20
264.5118765377621
 30
0.0
  0
SPLINE
  5
10E
330
1F
100
AcDbEntity
  8
0
  6
Continuous
 62
     7
370
    35
100
AcDbSpline
210
0.0
220
0.0
230
1.0
 70
     8
 71
     3
 72
     8
 73
     4
 74
     0
 42
0.000000001
 43
0.00000001
 40
0.0
 40
0.0
 40
0.0
 40
0.0
 40
1.0
 40
1.0
 40
1.0
 40
1.0
 10
274.0028818412021
 20
264.3448296936627
 30
0.0
 10
270.9231270723982
 20
263.6827030595588
 30
0.0
 10
267.8452755537964
 20
263.0058306441095
 30
0.0
 10
264.7693202500096
 20
262.3142669552715
 30
0.0
  0
SPLINE
  5
10F
330
1F
100
AcDbEntity
  8
0
  6
Continuous
 62
     7
370
    35
100
AcDbSpline
210
0.0
220
0.0
230
1.0
 70
     8
 71
     3
 72
     8
 73
     4
 74
     0
 42
0.000000001
 43
0.00000001
 40
0.0
 40
0.0
 40
0.0
 40
0.0
 40
1.0
 40
1.0
 40
1.0
 40
1.0
 10
264.6627376269501
 20
262.4331985703151
 30
0.0
 10
267.9882200393236
 20
263.1611569350249
 30
0.0
 10
271.3158611688661
 20
263.8719180366451
 30
0.0
 10
274.6456694508885
 20
264.5654146758875
 30
0.0
  0
SPLINE
  5
110
330
1F
100
AcDbEntity
  8
0
  6
Continuous
 62
     7
370
    35
100
AcDbSpline
210
0.0
220
0.0
230
1.0
 70
     8
 71
     3
 72
     8
 73
     4
 74
     0
 42
0.000000001
 43
0.00000001
 40
0.0
 40
0.0
 40
0.0
 40
0.0
 40
1.0
 40
1.0
 40
1.0
 40
1.0
 10
274.8242756460454
 20
264.6045937224829
 30
0.0
 10
274.8242756460454
 20
264.6033309275029
 30
0.0
 10
274.7571240700277
 20
264.5886272446766
 30
0.0
 10
274.6456694508895
 20
264.5654146758876
 30
0.0
  0
LINE
  5
111
330
1F
100
AcDbEntity
  8
0
  6
Continuous
 62
     7
370
    35
100
AcDbLine
 10
274.824275646
 20
264.6045937225
 30
0.0
 11
274.824275646
 21
264.6661158388
 31
0.0
  0
SPLINE
  5
112
330
1F
100
AcDbEntity
  8
0
  6
Continuous
 62
     7
370
    35
100
AcDbSpline
210
0.0
220
0.0
230
1.0
 70
     8
 71
     3
 72
    14
 73
    10
 74
     0
 42
0.000000001
 43
0.00000001
 40
0.0
 40
0.0
 40
0.0
 40
0.0
 40
0.25
 40
0.25
 40
0.5
 40
0.5
 40
0.75
 40
0.75
 40
1.0
 40
1.0
 40
1.0
 40
1.0
 10
274.0028818412021
 20
264.5084535284652
 30
0.0
 10
274.0759173505078
 20
264.5233212330288
 30
0.0
 10
274.1647851030071
 20
264.5410763488426
 30
0.0
 10
274.3500767349759
 20
264.5775924465682
 30
0.0
 10
274.4472074281283
 20
264.5964873790437
 30
0.0
 10
274.6179356968137
 20
264.6292473427945
 30
0.0
 10
274.692170213496
 20
264.643240982045
 30
0.0
 10
274.7961412355201
 20
264.6622343859869
 30
0.0
 10
274.8242756460454
 20
264.6669429388706
 30
0.0
 10
274.8242756460454
 20
264.6661158387642
 30
0.0
  0
SPLINE
  5
113
330
1F
100
AcDbEntity
  8
0
  6
Continuous
 62
     7
370
    35
100
AcDbSpline
210
0.0
220
0.0
230
1.0
 70
     8
 71
     3
 72
     8
 73
     4
 74
     0
 42
0.000000001
 43
0.00000001
 40
0.0
 40
0.0
 40
0.0
 40
0.0
 40
1.0
 40
1.0
 40
1.0
 40
1.0
 10
274.0028818412021
 20
264.5084535284652
 30
0.0
 10
270.8558250171922
 20
263.8678129476206
 30
0.0
 10
267.7106575241432
 20
263.2117324032709
 30
0.0
 10
264.5673725768655
 20
262.5402673452464
 30
0.0
  0
SPLINE
  5
114
330
1F
100
AcDbEntity
  8
0
  6
Continuous
 62
     7
370
    35
100
AcDbSpline
210
0.0
220
0.0
230
1.0
 70
     8
 71
     3
 72
     8
 73
     4
 74
     0
 42
0.000000001
 43
0.00000001
 40
0.0
 40
0.0
 40
0.0
 40
0.0
 40
1.0
 40
1.0
 40
1.0
 40
1.0
 10
264.4600872808728
 20
262.6614674473525
 30
0.0
 10
267.8531455265202
 20
263.3661846655974
 30
0.0
 10
271.2483368926625
 20
264.0529496852955
 30
0.0
 10
274.6456694508885
 20
264.7216945764967
 30
0.0
  0
SPLINE
  5
115
330
1F
100
AcDbEntity
  8
0
  6
Continuous
 62
     7
370
    35
100
AcDbSpline
210
0.0
220
0.0
230
1.0
 70
     8
 71
     3
 72
     8
 73
     4
 74
     0
 42
0.000000001
 43
0.00000001
 40
0.0
 40
0.0
 40
0.0
 40
0.0
 40
1.0
 40
1.0
 40
1.0
 40
1.0
 10
274.8242756460454
 20
264.758833023485
 30
0.0
 10
274.8242756460454
 20
264.7575708889321
 30
0.0
 10
274.7572169359493
 20
264.7436520415025
 30
0.0
 10
274.6456694508898
 20
264.7216945764969
 30
0.0
  0
LINE
  5
116
330
1F
100
AcDbEntity
  8
0
  6
Continuous
 62
     7
370
    35
100
AcDbLine
 10
274.824275646
 20
264.7588330235
 30
0.0
 11
274.824275646
 21
264.8203551398
 31
0.0
  0
SPLINE
  5
117
330
1F
100
AcDbEntity
  8
0
  6
Continuous
 62
     7
370
    35
100
AcDbSpline
210
0.0
220
0.0
230
1.0
 70
     8
 71
     3
 72
    14
 73
    10
 74
     0
 42
0.000000001
 43
0.00000001
 40
0.0
 40
0.0
 40
0.0
 40
0.0
 40
0.25
 40
0.25
 40
0.5
 40
0.5
 40
0.75
 40
0.75
 40
1.0
 40
1.0
 40
1.0
 40
1.0
 10
274.0028818412021
 20
264.6720773632678
 30
0.0
 10
274.0759179065256
 20
264.6861107342289
 30
0.0
 10
274.1648377218447
 20
264.7028604136558
 30
0.0
 10
274.3502896140235
 20
264.7372888259766
 30
0.0
 10
274.4475129689673
 20
264.7550904633799
 30
0.0
 10
274.618240592032
 20
264.7858985328727
 30
0.0
 10
274.6924088381033
 20
264.7990314522365
 30
0.0
 10
274.7962601721229
 20
264.8168145100212
 30
0.0
 10
274.8242756460454
 20
264.821181141476
 30
0.0
 10
274.8242756460454
 20
264.8203551397663
 30
0.0
  0
SPLINE
  5
118
330
1F
100
AcDbEntity
  8
0
  6
Continuous
 62
     7
370
    35
100
AcDbSpline
210
0.0
220
0.0
230
1.0
 70
     8
 71
     3
 72
     8
 73
     4
 74
     0
 42
0.000000001
 43
0.00000001
 40
0.0
 40
0.0
 40
0.0
 40
0.0
 40
1.0
 40
1.0
 40
1.0
 40
1.0
 10
274.0028818412021
 20
264.6720773632678
 30
0.0
 10
270.7880915670416
 20
264.0543778160689
 30
0.0
 10
267.5751697018432
 20
263.4205241892918
 30
0.0
 10
264.3641097490511
 20
262.7705726515144
 30
0.0
  0
SPLINE
  5
119
330
1F
100
AcDbEntity
  8
0
  6
Continuous
 62
     7
370
    35
100
AcDbSpline
210
0.0
220
0.0
230
1.0
 70
     8
 71
     3
 72
     8
 73
     4
 74
     0
 42
0.000000001
 43
0.00000001
 40
0.0
 40
0.0
 40
0.0
 40
0.0
 40
1.0
 40
1.0
 40
1.0
 40
1.0
 10
264.2561537984815
 20
262.8940710766763
 30
0.0
 10
267.7172234422128
 20
263.5741225093227
 30
0.0
 10
271.1803927710109
 20
264.2354464343621
 30
0.0
 10
274.6456694508885
 20
264.8779744771058
 30
0.0
  0
SPLINE
  5
11A
330
1F
100
AcDbEntity
  8
0
  6
Continuous
 62
     7
370
    35
100
AcDbSpline
210
0.0
220
0.0
230
1.0
 70
     8
 71
     3
 72
     8
 73
     4
 74
     0
 42
0.000000001
 43
0.00000001
 40
0.0
 40
0.0
 40
0.0
 40
0.0
 40
1.0
 40
1.0
 40
1.0
 40
1.0
 10
274.8242756460454
 20
264.9130723244871
 30
0.0
 10
274.8242756460454
 20
264.9118108143545
 30
0.0
 10
274.7573048685427
 20
264.8986738015847
 30
0.0
 10
274.6456694508897
 20
264.877974477106
 30
0.0
  0
LINE
  5
11B
330
1F
100
AcDbEntity
  8
0
  6
Continuous
 62
     7
370
    35
100
AcDbLine
 10
274.824275646
 20
264.9130723245
 30
0.0
 11
274.824275646
 21
264.9745944408
 31
0.0
  0
SPLINE
  5
11C
330
1F
100
AcDbEntity
  8
0
  6
Continuous
 62
     7
370
    35
100
AcDbSpline
210
0.0
220
0.0
230
1.0
 70
     8
 71
     3
 72
    14
 73
    10
 74
     0
 42
0.000000001
 43
0.00000001
 40
0.0
 40
0.0
 40
0.0
 40
0.0
 40
0.25
 40
0.25
 40
0.5
 40
0.5
 40
0.75
 40
0.75
 40
1.0
 40
1.0
 40
1.0
 40
1.0
 10
274.0028818412021
 20
264.8357011980704
 30
0.0
 10
274.0759187020371
 20
264.8489002660048
 30
0.0
 10
274.1648880146375
 20
264.8646428601185
 30
0.0
 10
274.3504922554494
 20
264.896978567562
 30
0.0
 10
274.4478024628492
 20
264.9136838210891
 30
0.0
 10
274.6185295369313
 20
264.9425400885445
 30
0.0
 10
274.6926343656898
 20
264.9548143211932
 30
0.0
 10
274.7963729333108
 20
264.9713909785579
 30
0.0
 10
274.8242756460454
 20
264.9754194096095
 30
0.0
 10
274.8242756460454
 20
264.9745944407683
 30
0.0
  0
SPLINE
  5
11D
330
1F
100
AcDbEntity
  8
0
  6
Continuous
 62
     7
370
    35
100
AcDbSpline
210
0.0
220
0.0
230
1.0
 70
     8
 71
     3
 72
     8
 73
     4
 74
     0
 42
0.000000001
 43
0.00000001
 40
0.0
 40
0.0
 40
0.0
 40
0.0
 40
1.0
 40
1.0
 40
1.0
 40
1.0
 10
274.0028818412021
 20
264.8357011980704
 30
0.0
 10
270.719947492952
 20
264.2424162048305
 30
0.0
 10
267.4388532167074
 20
263.6322431853343
 30
0.0
 10
264.159592841631
 20
263.005238775009
 30
0.0
  0
LINE
  5
11E
330
1F
100
AcDbEntity
  8
0
  6
Continuous
 62
     7
370
    35
100
AcDbLine
 10
279.124275646
 20
265.765664868
 30
0.0
 11
263.9783924006
 21
263.2156731376
 31
0.0
  0
SPLINE
  5
11F
330
1F
100
AcDbEntity
  8
0
  6
Continuous
 62
     7
370
    35
100
AcDbSpline
210
0.0
220
0.0
230
1.0
 70
     8
 71
     3
 72
    18
 73
    14
 74
     0
 42
0.000000001
 43
0.00000001
 40
0.0
 40
0.0
 40
0.0
 40
0.0
 40
0.125
 40
0.125
 40
0.25
 40
0.25
 40
0.375
 40
0.375
 40
0.5
 40
0.5
 40
0.75
 40
0.75
 40
1.0
 40
1.0
 40
1.0
 40
1.0
 10
280.6242756460453
 20
266.0108767937343
 30
0.0
 10
280.6242756460453
 20
266.0113641662513
 30
0.0
 10
280.6144306217391
 20
266.0101763999529
 30
0.0
 10
280.5758762992021
 20
266.0046016389784
 30
0.0
 10
280.5466733764678
 20
266.0001363237091
 30
0.0
 10
280.4706962515691
 20
265.9882038345216
 30
0.0
 10
280.4242389949696
 20
265.9807899219094
 30
0.0
 10
280.3145654436
 20
265.9631031847982
 30
0.0
 10
280.2509528682854
 20
265.952764032119
 30
0.0
 10
280.0429171647813
 20
265.9187496365874
 30
0.0
 10
279.8757350045885
 20
265.8911690406239
 30
0.0
 10
279.5163735653819
 20
265.8314518538645
 30
0.0
 10
279.320874134222
 20
265.7987645895913
 30
0.0
 10
279.1242756460453
 20
265.7656648679745
 30
0.0
  0
LINE
  5
120
330
1F
100
AcDbEntity
  8
0
  6
Continuous
 62
     7
370
    35
100
AcDbLine
 10
280.624275646
 20
265.5551250485
 30
0.0
 11
280.624275646
 21
266.0108767937
 31
0.0
  0
SPLINE
  5
121
330
1F
100
AcDbEntity
  8
0
  6
Continuous
 62
     7
370
    35
100
AcDbSpline
210
0.0
220
0.0
230
1.0
 70
     8
 71
     3
 72
     8
 73
     4
 74
     0
 42
0.000000001
 43
0.00000001
 40
0.0
 40
0.0
 40
0.0
 40
0.0
 40
1.0
 40
1.0
 40
1.0
 40
1.0
 10
257.4239905771523
 20
262.9303695757633
 30
0.0
 10
253.9483464701945
 20
263.5180478235677
 30
0.0
 10
250.4746457253688
 20
264.12469908619
 30
0.0
 10
247.0028818412021
 20
264.7502598898471
 30
0.0
  0
SPLINE
  5
122
330
1F
100
AcDbEntity
  8
0
  6
Continuous
 62
     7
370
    35
100
AcDbSpline
210
0.0
220
0.0
230
1.0
 70
     8
 71
     3
 72
     8
 73
     4
 74
     0
 42
0.000000001
 43
0.00000001
 40
0.0
 40
0.0
 40
0.0
 40
0.0
 40
1.0
 40
1.0
 40
1.0
 40
1.0
 10
246.8242756460454
 20
264.7804612298925
 30
0.0
 10
246.8242756460454
 20
264.7817218766791
 30
0.0
 10
246.8912591829005
 20
264.770372651591
 30
0.0
 10
247.0028818412011
 20
264.7502598898473
 30
0.0
  0
LINE
  5
123
330
1F
100
AcDbEntity
  8
0
  6
Continuous
 62
     7
370
    35
100
AcDbLine
 10
246.824275646
 20
264.7804612299
 30
0.0
 11
246.824275646
 21
264.7189391136
 31
0.0
  0
SPLINE
  5
124
330
1F
100
AcDbEntity
  8
0
  6
Continuous
 62
     7
370
    35
100
AcDbSpline
210
0.0
220
0.0
230
1.0
 70
     8
 71
     3
 72
    14
 73
    10
 74
     0
 42
0.000000001
 43
0.00000001
 40
0.0
 40
0.0
 40
0.0
 40
0.0
 40
0.25
 40
0.25
 40
0.5
 40
0.5
 40
0.75
 40
0.75
 40
1.0
 40
1.0
 40
1.0
 40
1.0
 10
247.6456694508886
 20
264.5575272746913
 30
0.0
 10
247.5724765563861
 20
264.5710596433742
 30
0.0
 10
247.483405936241
 20
264.5878646166046
 30
0.0
 10
247.2978545371119
 20
264.6233772919703
 30
0.0
 10
247.2007200033091
 20
264.642215380578
 30
0.0
 10
247.0302396846788
 20
264.6757287851485
 30
0.0
 10
246.9561686277536
 20
264.6905400100447
 30
0.0
 10
246.8523590701457
 20
264.7119028433806
 30
0.0
 10
246.8242756460454
 20
264.7181120170953
 30
0.0
 10
246.8242756460454
 20
264.7189391136113
 30
0.0
  0
SPLINE
  5
125
330
1F
100
AcDbEntity
  8
0
  6
Continuous
 62
     7
370
    35
100
AcDbSpline
210
0.0
220
0.0
230
1.0
 70
     8
 71
     3
 72
     8
 73
     4
 74
     0
 42
0.000000001
 43
0.00000001
 40
0.0
 40
0.0
 40
0.0
 40
0.0
 40
1.0
 40
1.0
 40
1.0
 40
1.0
 10
247.6456694508881
 20
264.557527274694
 30
0.0
 10
250.8706371651189
 20
263.9612746958601
 30
0.0
 10
254.0973259255271
 20
263.3813217249356
 30
0.0
 10
257.3257412576189
 20
262.8177206926379
 30
0.0
  0
SPLINE
  5
126
330
1F
100
AcDbEntity
  8
0
  6
Continuous
 62
     7
370
    35
100
AcDbSpline
210
0.0
220
0.0
230
1.0
 70
     8
 71
     3
 72
     8
 73
     4
 74
     0
 42
0.000000001
 43
0.00000001
 40
0.0
 40
0.0
 40
0.0
 40
0.0
 40
1.0
 40
1.0
 40
1.0
 40
1.0
 10
257.2159169711805
 20
262.6926095087194
 30
0.0
 10
253.8095901212429
 20
263.30823998776
 30
0.0
 10
250.4052473826127
 20
263.9420512663113
 30
0.0
 10
247.0028818412021
 20
264.5939799892379
 30
0.0
  0
SPLINE
  5
127
330
1F
100
AcDbEntity
  8
0
  6
Continuous
 62
     7
370
    35
100
AcDbSpline
210
0.0
220
0.0
230
1.0
 70
     8
 71
     3
 72
     8
 73
     4
 74
     0
 42
0.000000001
 43
0.00000001
 40
0.0
 40
0.0
 40
0.0
 40
0.0
 40
1.0
 40
1.0
 40
1.0
 40
1.0
 10
246.8242756460454
 20
264.6262219288905
 30
0.0
 10
246.8242756460454
 20
264.6274831471468
 30
0.0
 10
246.8913479519431
 20
264.6153510456699
 30
0.0
 10
247.0028818412011
 20
264.5939799892381
 30
0.0
  0
LINE
  5
128
330
1F
100
AcDbEntity
  8
0
  6
Continuous
 62
     7
370
    35
100
AcDbLine
 10
246.824275646
 20
264.6262219289
 30
0.0
 11
246.824275646
 21
264.5646998126
 31
0.0
  0
SPLINE
  5
129
330
1F
100
AcDbEntity
  8
0
  6
Continuous
 62
     7
370
    35
100
AcDbSpline
210
0.0
220
0.0
230
1.0
 70
     8
 71
     3
 72
    14
 73
    10
 74
     0
 42
0.000000001
 43
0.00000001
 40
0.0
 40
0.0
 40
0.0
 40
0.0
 40
0.25
 40
0.25
 40
0.5
 40
0.5
 40
0.75
 40
0.75
 40
1.0
 40
1.0
 40
1.0
 40
1.0
 10
247.6456694508886
 20
264.3939034398883
 30
0.0
 10
247.5724680193093
 20
264.4082737230818
 30
0.0
 10
247.4834409356432
 20
264.4260877583537
 30
0.0
 10
247.2980439630409
 20
264.4636886780971
 30
0.0
 10
247.2010055103111
 20
264.4836163331678
 30
0.0
 10
247.0305393343469
 20
264.5190734219732
 30
0.0
 10
246.956407744181
 20
264.534742871087
 30
0.0
 10
246.8524817375447
 20
264.5573150475702
 30
0.0
 10
246.8242756460454
 20
264.5638715524748
 30
0.0
 10
246.8242756460454
 20
264.5646998126091
 30
0.0
  0
SPLINE
  5
12A
330
1F
100
AcDbEntity
  8
0
  6
Continuous
 62
     7
370
    35
100
AcDbSpline
210
0.0
220
0.0
230
1.0
 70
     8
 71
     3
 72
     8
 73
     4
 74
     0
 42
0.000000001
 43
0.00000001
 40
0.0
 40
0.0
 40
0.0
 40
0.0
 40
1.0
 40
1.0
 40
1.0
 40
1.0
 10
247.6456694508881
 20
264.3939034398915
 30
0.0
 10
250.8014613526598
 20
263.7743851825333
 30
0.0
 10
253.9590015768818
 20
263.1704362529376
 30
0.0
 10
257.1182959511769
 20
262.5821085478072
 30
0.0
  0
SPLINE
  5
12B
330
1F
100
AcDbEntity
  8
0
  6
Continuous
 62
     7
370
    35
100
AcDbSpline
210
0.0
220
0.0
230
1.0
 70
     8
 71
     3
 72
     8
 73
     4
 74
     0
 42
0.000000001
 43
0.00000001
 40
0.0
 40
0.0
 40
0.0
 40
0.0
 40
1.0
 40
1.0
 40
1.0
 40
1.0
 10
257.0091936128754
 20
262.4593903393335
 30
0.0
 10
253.6717421496245
 20
263.1014386107836
 30
0.0
 10
250.3363073221455
 20
263.7608961694785
 30
0.0
 10
247.0028818412021
 20
264.4377000886288
 30
0.0
  0
SPLINE
  5
12C
330
1F
100
AcDbEntity
  8
0
  6
Continuous
 62
     7
370
    35
100
AcDbSpline
210
0.0
220
0.0
230
1.0
 70
     8
 71
     3
 72
     8
 73
     4
 74
     0
 42
0.000000001
 43
0.00000001
 40
0.0
 40
0.0
 40
0.0
 40
0.0
 40
1.0
 40
1.0
 40
1.0
 40
1.0
 10
246.8242756460454
 20
264.4719826278884
 30
0.0
 10
246.8242756460454
 20
264.4732444537996
 30
0.0
 10
246.8914416616088
 20
264.4603264082302
 30
0.0
 10
247.0028818412011
 20
264.437700088629
 30
0.0
  0
LINE
  5
12D
330
1F
100
AcDbEntity
  8
0
  6
Continuous
 62
     7
370
    35
100
AcDbLine
 10
246.824275646
 20
264.4719826279
 30
0.0
 11
246.824275646
 21
264.4104605116
 31
0.0
  0
SPLINE
  5
12E
330
1F
100
AcDbEntity
  8
0
  6
Continuous
 62
     7
370
    35
100
AcDbSpline
210
0.0
220
0.0
230
1.0
 70
     8
 71
     3
 72
    14
 73
    10
 74
     0
 42
0.000000001
 43
0.00000001
 40
0.0
 40
0.0
 40
0.0
 40
0.0
 40
0.25
 40
0.25
 40
0.5
 40
0.5
 40
0.75
 40
0.75
 40
1.0
 40
1.0
 40
1.0
 40
1.0
 10
247.6456694508886
 20
264.2302796050852
 30
0.0
 10
247.5724593166385
 20
264.2454880322637
 30
0.0
 10
247.4834783975492
 20
264.2643095835692
 30
0.0
 10
247.298243564059
 20
264.3039935456175
 30
0.0
 10
247.2013066941471
 20
264.3250073535641
 30
0.0
 10
247.030854444374
 20
264.3624077918049
 30
0.0
 10
246.956659596488
 20
264.3789374105866
 30
0.0
 10
246.8526103445394
 20
264.4027230441413
 30
0.0
 10
246.8242756460454
 20
264.4096310227025
 30
0.0
 10
246.8242756460454
 20
264.4104605116071
 30
0.0
  0
SPLINE
  5
12F
330
1F
100
AcDbEntity
  8
0
  6
Continuous
 62
     7
370
    35
100
AcDbSpline
210
0.0
220
0.0
230
1.0
 70
     8
 71
     3
 72
     8
 73
     4
 74
     0
 42
0.000000001
 43
0.00000001
 40
0.0
 40
0.0
 40
0.0
 40
0.0
 40
1.0
 40
1.0
 40
1.0
 40
1.0
 10
247.645669450888
 20
264.2302796050889
 30
0.0
 10
250.7327532033143
 20
263.5889792042153
 30
0.0
 10
253.8216052374618
 20
262.9625386530138
 30
0.0
 10
256.9122316480289
 20
262.3510091686074
 30
0.0
  0
SPLINE
  5
130
330
1F
100
AcDbEntity
  8
0
  6
Continuous
 62
     7
370
    35
100
AcDbSpline
210
0.0
220
0.0
230
1.0
 70
     8
 71
     3
 72
     8
 73
     4
 74
     0
 42
0.000000001
 43
0.00000001
 40
0.0
 40
0.0
 40
0.0
 40
0.0
 40
1.0
 40
1.0
 40
1.0
 40
1.0
 10
256.8038850960833
 20
262.2306517168635
 30
0.0
 10
253.53484518396
 20
262.8976033327023
 30
0.0
 10
250.2678466405563
 20
263.5812135634937
 30
0.0
 10
247.0028818412021
 20
264.2814201880196
 30
0.0
  0
SPLINE
  5
131
330
1F
100
AcDbEntity
  8
0
  6
Continuous
 62
     7
370
    35
100
AcDbSpline
210
0.0
220
0.0
230
1.0
 70
     8
 71
     3
 72
     8
 73
     4
 74
     0
 42
0.000000001
 43
0.00000001
 40
0.0
 40
0.0
 40
0.0
 40
0.0
 40
1.0
 40
1.0
 40
1.0
 40
1.0
 10
246.8242756460454
 20
264.3177433268863
 30
0.0
 10
246.8242756460454
 20
264.3190057966124
 30
0.0
 10
246.8915402425701
 20
264.3052985847982
 30
0.0
 10
247.0028818412011
 20
264.2814201880198
 30
0.0
  0
LINE
  5
132
330
1F
100
AcDbEntity
  8
0
  6
Continuous
 62
     7
370
    35
100
AcDbLine
 10
246.824275646
 20
264.3177433269
 30
0.0
 11
246.824275646
 21
264.2562212106
 31
0.0
  0
SPLINE
  5
133
330
1F
100
AcDbEntity
  8
0
  6
Continuous
 62
     7
370
    35
100
AcDbSpline
210
0.0
220
0.0
230
1.0
 70
     8
 71
     3
 72
    14
 73
    10
 74
     0
 42
0.000000001
 43
0.00000001
 40
0.0
 40
0.0
 40
0.0
 40
0.0
 40
0.2499999999999999
 40
0.2499999999999999
 40
0.4999999999999999
 40
0.4999999999999999
 40
0.7499999999999999
 40
0.7499999999999999
 40
1.0
 40
1.0
 40
1.0
 40
1.0
 10
247.6456694508886
 20
264.0666557702821
 30
0.0
 10
247.5724504558345
 20
264.0827025749607
 30
0.0
 10
247.4835182926026
 20
264.1025300142088
 30
0.0
 10
247.2984530717991
 20
264.1442916066821
 30
0.0
 10
247.2016232965155
 20
264.1663879637129
 30
0.0
 10
247.0311846616093
 20
264.2057314472536
 30
0.0
 10
246.9569239973891
 20
264.2231232364023
 30
0.0
 10
246.8527447102894
 20
264.2481266745768
 30
0.0
 10
246.8242756460453
 20
264.2553904279907
 30
0.0
 10
246.8242756460453
 20
264.256221210605
 30
0.0
  0
SPLINE
  5
134
330
1F
100
AcDbEntity
  8
0
  6
Continuous
 62
     7
370
    35
100
AcDbSpline
210
0.0
220
0.0
230
1.0
 70
     8
 71
     3
 72
     8
 73
     4
 74
     0
 42
0.000000001
 43
0.00000001
 40
0.0
 40
0.0
 40
0.0
 40
0.0
 40
1.0
 40
1.0
 40
1.0
 40
1.0
 10
247.645669450888
 20
264.0666557702864
 30
0.0
 10
250.6645334350504
 20
263.405036190979
 30
0.0
 10
253.6851787678361
 20
262.7575878348567
 30
0.0
 10
256.7076117746697
 20
262.1243610227847
 30
0.0
  0
SPLINE
  5
135
330
1F
100
AcDbEntity
  8
0
  6
Continuous
 62
     7
370
    35
100
AcDbSpline
210
0.0
220
0.0
230
1.0
 70
     8
 71
     3
 72
     8
 73
     4
 74
     0
 42
0.000000001
 43
0.00000001
 40
0.0015478849145251
 40
0.0015478849145251
 40
0.0015478849145251
 40
0.0015478849145251
 40
0.0026486073639886
 40
0.0026486073639886
 40
0.0026486073639886
 40
0.0026486073639886
 10
256.6000535194233
 20
262.0063308264229
 30
0.0
 10
256.3227449320797
 20
262.066135999348
 30
0.0
 10
256.0454514665855
 20
262.1260607823036
 30
0.0
 10
255.768173208749
 20
262.1861051164326
 30
0.0
  0
LINE
  5
136
330
1F
100
AcDbEntity
  8
0
  6
Continuous
 62
     7
370
    35
100
AcDbLine
 10
255.7681732087
 20
262.1861051164
 30
0.0
 11
241.024275646
 21
265.5551250485
 31
0.0
  0
LINE
  5
137
330
1F
100
AcDbEntity
  8
0
  6
Continuous
 62
     7
370
    35
100
AcDbLine
 10
241.024275646
 20
266.0108767937
 30
0.0
 11
241.024275646
 21
265.5551250485
 31
0.0
  0
SPLINE
  5
138
330
1F
100
AcDbEntity
  8
0
  6
Continuous
 62
     7
370
    35
100
AcDbSpline
210
0.0
220
0.0
230
1.0
 70
     8
 71
     3
 72
    16
 73
    12
 74
     0
 42
0.000000001
 43
0.00000001
 40
0.0
 40
0.0
 40
0.0
 40
0.0
 40
0.2500000000000016
 40
0.2500000000000016
 40
0.3750000000000023
 40
0.3750000000000023
 40
0.5000000000000031
 40
0.5000000000000031
 40
0.7500000000000016
 40
0.7500000000000016
 40
1.0
 40
1.0
 40
1.0
 40
1.0
 10
242.5242756460453
 20
265.7656648679745
 30
0.0
 10
242.3276317739304
 20
265.7987722305236
 30
0.0
 10
242.1347299982484
 20
265.8310268087466
 30
0.0
 10
241.8632342910041
 20
265.8761442084519
 30
0.0
 10
241.7773084478408
 20
265.890373757762
 30
0.0
 10
241.6145378585298
 20
265.9172309969189
 30
0.0
 10
241.5371806924257
 20
265.9299415095924
 30
0.0
 10
241.3287602906055
 20
265.9640201386235
 30
0.0
 10
241.2160825935368
 20
265.9821979371867
 30
0.0
 10
241.0646689611581
 20
266.0059822321463
 30
0.0
 10
241.0242756460453
 20
266.0118517845299
 30
0.0
 10
241.0242756460453
 20
266.0108767937343
 30
0.0
  0
LINE
  5
139
330
1F
100
AcDbEntity
  8
0
  6
Continuous
 62
     7
370
    35
100
AcDbLine
 10
257.6701588915
 20
263.2156731376
 30
0.0
 11
242.524275646
 21
265.765664868
 31
0.0
  0
LINE
  5
13A
330
1F
100
AcDbEntity
  8
0
  6
Continuous
 62
     7
370
    35
100
AcDbLine
 10
241.024275646
 20
266.0108767937
 30
0.0
 11
241.024275646
 21
270.1139750755
 31
0.0
  0
SPLINE
  5
13B
330
1F
100
AcDbEntity
  8
0
  6
Continuous
 62
     7
370
    35
100
AcDbSpline
210
0.0
220
0.0
230
1.0
 70
     8
 71
     3
 72
    18
 73
    14
 74
     0
 42
0.000000001
 43
0.00000001
 40
0.0
 40
0.0
 40
0.0
 40
0.0
 40
0.1249999999999993
 40
0.1249999999999993
 40
0.2499999999999986
 40
0.2499999999999986
 40
0.3749999999999978
 40
0.3749999999999978
 40
0.4999999999999971
 40
0.4999999999999971
 40
0.7499999999999986
 40
0.7499999999999986
 40
1.0
 40
1.0
 40
1.0
 40
1.0
 10
241.0242756460453
 20
270.1139750754765
 30
0.0
 10
241.0242756460453
 20
270.1144624479934
 30
0.0
 10
241.0341206703515
 20
270.113274681695
 30
0.0
 10
241.0726749928885
 20
270.1076999207206
 30
0.0
 10
241.1018779156229
 20
270.1032346054513
 30
0.0
 10
241.1778550405216
 20
270.0913021162638
 30
0.0
 10
241.224312297121
 20
270.0838882036516
 30
0.0
 10
241.3339858484907
 20
270.0662014665403
 30
0.0
 10
241.3975984238052
 20
270.0558623138612
 30
0.0
 10
241.6056341273094
 20
270.0218479183296
 30
0.0
 10
241.7728162875021
 20
269.9942673223661
 30
0.0
 10
242.1321777267088
 20
269.9345501356067
 30
0.0
 10
242.3276771578686
 20
269.9018628713335
 30
0.0
 10
242.5242756460453
 20
269.8687631497168
 30
0.0
  0
LINE
  5
13C
330
1F
100
AcDbEntity
  8
0
  6
Continuous
 62
     7
370
    35
100
AcDbLine
 10
263.3143518379
 20
267.2069721986
 30
0.0
 11
279.124275646
 21
269.8687631497
 31
0.0
  0
SPLINE
  5
13D
330
1F
100
AcDbEntity
  8
0
  6
Continuous
 62
     7
370
    35
100
AcDbSpline
210
0.0
220
0.0
230
1.0
 70
     8
 71
     3
 72
     9
 73
     5
 74
     0
 42
0.000000001
 43
0.00000001
 40
0.0
 40
0.0
 40
0.0
 40
0.0
 40
0.5
 40
1.0
 40
1.0
 40
1.0
 40
1.0
 10
263.3143518379384
 20
267.2069721986067
 30
0.0
 10
262.4843264406408
 20
267.0672274333229
 30
0.0
 10
260.8242756460454
 20
266.9304114460494
 30
0.0
 10
259.1642248514499
 20
267.0672274333229
 30
0.0
 10
258.3341994541523
 20
267.2069721986067
 30
0.0
  0
LINE
  5
13E
330
1F
100
AcDbEntity
  8
0
  6
Continuous
 62
     7
370
    35
100
AcDbLine
 10
242.524275646
 20
269.8687631497
 30
0.0
 11
258.3341994542
 21
267.2069721986
 31
0.0
  0
LINE
  5
13F
330
1F
100
AcDbEntity
  8
0
  6
Continuous
 62
     7
370
    35
100
AcDbLine
 10
280.624275646
 20
270.1139750755
 30
0.0
 11
280.624275646
 21
266.0108767937
 31
0.0
  0
SPLINE
  5
140
330
1F
100
AcDbEntity
  8
0
  6
Continuous
 62
     7
370
    35
100
AcDbSpline
210
0.0
220
0.0
230
1.0
 70
     8
 71
     3
 72
    16
 73
    12
 74
     0
 42
0.000000001
 43
0.00000001
 40
0.0
 40
0.0
 40
0.0
 40
0.0
 40
0.2499999999999987
 40
0.2499999999999987
 40
0.3749999999999999
 40
0.3749999999999999
 40
0.5000000000000012
 40
0.5000000000000012
 40
0.7500000000000006
 40
0.7500000000000006
 40
1.0
 40
1.0
 40
1.0
 40
1.0
 10
279.1242756460453
 20
269.8687631497167
 30
0.0
 10
279.3209195181603
 20
269.9018705122657
 30
0.0
 10
279.5138212938423
 20
269.9341250904888
 30
0.0
 10
279.7853170010865
 20
269.9792424901941
 30
0.0
 10
279.8712428442499
 20
269.9934720395042
 30
0.0
 10
280.0340134335609
 20
270.0203292786611
 30
0.0
 10
280.1113705996649
 20
270.0330397913346
 30
0.0
 10
280.3197910014852
 20
270.0671184203656
 30
0.0
 10
280.4324686985539
 20
270.0852962189289
 30
0.0
 10
280.5838823309326
 20
270.1090805138885
 30
0.0
 10
280.6242756460453
 20
270.1149500662721
 30
0.0
 10
280.6242756460453
 20
270.1139750754764
 30
0.0
  0
SPLINE
  5
141
330
1F
100
AcDbEntity
  8
0
  6
Continuous
 62
     7
370
    35
100
AcDbSpline
210
0.0
220
0.0
230
1.0
 70
     8
 71
     3
 72
    10
 73
     6
 74
     0
 42
0.000000001
 43
0.00000001
 40
0.0
 40
0.0
 40
0.0
 40
0.0
 40
0.5
 40
0.5
 40
1.0
 40
1.0
 40
1.0
 40
1.0
 10
257.3257412576189
 20
262.8177206926379
 30
0.0
 10
258.4821974640669
 20
262.6158321979074
 30
0.0
 10
259.6379402221669
 20
262.5243013585571
 30
0.0
 10
261.9480756695779
 20
262.5500710921672
 30
0.0
 10
263.1024682525256
 20
262.6673881176171
 30
0.0
 10
264.2561537984815
 20
262.8940710766763
 30
0.0
  0
SPLINE
  5
142
330
1F
100
AcDbEntity
  8
0
  6
Continuous
 62
     7
370
    35
100
AcDbSpline
210
0.0
220
0.0
230
1.0
 70
     8
 71
     3
 72
    10
 73
     6
 74
     0
 42
0.000000001
 43
0.00000001
 40
0.0
 40
0.0
 40
0.0
 40
0.0
 40
0.5
 40
0.5
 40
1.0
 40
1.0
 40
1.0
 40
1.0
 10
264.3641097490511
 20
262.7705726515144
 30
0.0
 10
263.1742026323925
 20
262.5297232212159
 30
0.0
 10
261.9835489394095
 20
262.40552069022
 30
0.0
 10
259.6008202557987
 20
262.3791826263573
 30
0.0
 10
258.4087453882067
 20
262.4770278683956
 30
0.0
 10
257.2159169711697
 20
262.6926095087214
 30
0.0
  0
SPLINE
  5
143
330
1F
100
AcDbEntity
  8
0
  6
Continuous
 62
     7
370
    35
100
AcDbSpline
210
0.0
220
0.0
230
1.0
 70
     8
 71
     3
 72
    10
 73
     6
 74
     0
 42
0.000000001
 43
0.00000001
 40
0.0
 40
0.0
 40
0.0
 40
0.0
 40
0.5
 40
0.5
 40
1.0
 40
1.0
 40
1.0
 40
1.0
 10
257.1182959511769
 20
262.5821085478072
 30
0.0
 10
258.3434589231927
 20
262.3539571841352
 30
0.0
 10
259.5678320310877
 20
262.2503291869812
 30
0.0
 10
262.0150934019493
 20
262.2771614166018
 30
0.0
 10
263.2379815254003
 20
262.4076436382556
 30
0.0
 10
264.4600872808728
 20
262.6614674473525
 30
0.0
  0
SPLINE
  5
144
330
1F
100
AcDbEntity
  8
0
  6
Continuous
 62
     7
370
    35
100
AcDbSpline
210
0.0
220
0.0
230
1.0
 70
     8
 71
     3
 72
    10
 73
     6
 74
     0
 42
0.000000001
 43
0.00000001
 40
0.0
 40
0.0
 40
0.0
 40
0.0
 40
0.5
 40
0.5
 40
1.0
 40
1.0
 40
1.0
 40
1.0
 10
264.5673725768655
 20
262.5402673452464
 30
0.0
 10
263.309279035898
 20
262.2715147928513
 30
0.0
 10
262.0503624248846
 20
262.1338375733873
 30
0.0
 10
259.5309720327244
 20
262.1064651799442
 30
0.0
 10
258.2704984114551
 20
262.2167445436963
 30
0.0
 10
257.0091936128658
 20
262.4593903393354
 30
0.0
  0
SPLINE
  5
145
330
1F
100
AcDbEntity
  8
0
  6
Continuous
 62
     7
370
    35
100
AcDbSpline
210
0.0
220
0.0
230
1.0
 70
     8
 71
     3
 72
    10
 73
     6
 74
     0
 42
0.000000001
 43
0.00000001
 40
0.0
 40
0.0
 40
0.0
 40
0.0
 40
0.5
 40
0.5
 40
1.0
 40
1.0
 40
1.0
 40
1.0
 10
256.9122316480286
 20
262.3510091686072
 30
0.0
 10
258.2056604889481
 20
262.0950837453662
 30
0.0
 10
259.4982208068856
 20
261.9787268887784
 30
0.0
 10
262.0817200283587
 20
262.0065687263504
 30
0.0
 10
263.3726587520396
 20
262.1507963225594
 30
0.0
 10
264.6627376269501
 20
262.4331985703151
 30
0.0
  0
SPLINE
  5
146
330
1F
100
AcDbEntity
  8
0
  6
Continuous
 62
     7
370
    35
100
AcDbSpline
210
0.0
220
0.0
230
1.0
 70
     8
 71
     3
 72
    10
 73
     6
 74
     0
 42
0.000000001
 43
0.00000001
 40
0.0
 40
0.0
 40
0.0
 40
0.0
 40
0.5
 40
0.5
 40
1.0
 40
1.0
 40
1.0
 40
1.0
 10
264.7693202500017
 20
262.3142669552699
 30
0.0
 10
263.4434980842992
 20
262.0161837982984
 30
0.0
 10
262.1167743153834
 20
261.8644637400931
 30
0.0
 10
259.4616322392878
 20
261.8361090082963
 30
0.0
 10
258.1332141365049
 20
261.9594411549481
 30
0.0
 10
256.8038850960833
 20
262.2306517168635
 30
0.0
  0
SPLINE
  5
147
330
1F
100
AcDbEntity
  8
0
  6
Continuous
 62
     7
370
    35
100
AcDbSpline
210
0.0
220
0.0
230
1.0
 70
     8
 71
     3
 72
    10
 73
     6
 74
     0
 42
0.000000001
 43
0.00000001
 40
0.0
 40
0.0
 40
0.0
 40
0.0
 40
0.5
 40
0.5
 40
1.0
 40
1.0
 40
1.0
 40
1.0
 10
256.7076117746701
 20
262.124361022785
 30
0.0
 10
258.0688445075325
 20
261.8391705613374
 30
0.0
 10
259.4291280224462
 20
261.7094780245058
 30
0.0
 10
262.1479358602654
 20
261.7382782909647
 30
0.0
 10
263.5064599549007
 20
261.8968084911718
 30
0.0
 10
264.8640447764586
 20
262.2092074758106
 30
0.0
  0
SPLINE
  5
148
330
1F
100
AcDbEntity
  8
0
  6
Continuous
 62
     7
370
    35
100
AcDbSpline
210
0.0
220
0.0
230
1.0
 70
     8
 71
     3
 72
    12
 73
     8
 74
     0
 42
0.000000001
 43
0.00000001
 40
0.0
 40
0.0
 40
0.0
 40
0.0
 40
0.5000000000000001
 40
0.5000000000000001
 40
0.75
 40
0.75
 40
1.0
 40
1.0
 40
1.0
 40
1.0
 10
264.9698938639872
 20
262.0925133490277
 30
0.0
 10
263.5811996749948
 20
261.7647254237023
 30
0.0
 10
262.1889657081145
 20
261.5978613570283
 30
0.0
 10
260.0956060326203
 20
261.575269764874
 30
0.0
 10
259.3969766117201
 20
261.6060570818726
 30
0.0
 10
257.9979872206688
 20
261.746305201004
 30
0.0
 10
257.296206310139
 20
261.8561964997877
 30
0.0
 10
256.6000535194233
 20
262.0063308264229
 30
0.0
  0
SPLINE
  5
149
330
1F
100
AcDbEntity
  8
0
  6
Continuous
 62
     7
370
    35
100
AcDbSpline
210
0.0
220
0.0
230
1.0
 70
     8
 71
     3
 72
     8
 73
     4
 74
     0
 42
0.000000001
 43
0.00000001
 40
0.0015478849145251
 40
0.0015478849145251
 40
0.0015478849145251
 40
0.0015478849145251
 40
0.0026486073639886
 40
0.0026486073639886
 40
0.0026486073639886
 40
0.0026486073639886
 10
265.0484977726673
 20
262.0063308264229
 30
0.0
 10
265.3258063600109
 20
262.066135999348
 30
0.0
 10
265.6030998255052
 20
262.1260607823036
 30
0.0
 10
265.8803780833416
 20
262.1861051164326
 30
0.0
  0
SPLINE
  5
14A
330
1F
100
AcDbEntity
  8
0
  6
Continuous
 62
     8
370
    18
100
AcDbSpline
210
0.0
220
0.0
230
1.0
 70
     8
 71
     3
 72
     8
 73
     4
 74
     0
 42
0.000000001
 43
0.00000001
 40
0.0
 40
0.0
 40
0.0
 40
0.0
 40
1.0
 40
1.0
 40
1.0
 40
1.0
 10
257.4239905771523
 20
262.9303695757633
 30
0.0
 10
257.5057604440941
 20
263.0244105667447
 30
0.0
 10
257.5878227808267
 20
263.1195068265199
 30
0.0
 10
257.6701588914904
 20
263.2156731375513
 30
0.0
  0
LINE
  5
14B
330
1F
100
AcDbEntity
  8
0
  6
Continuous
 62
     8
370
    18
100
AcDbLine
 10
263.9783924006
 20
263.2156731376
 30
0.0
 11
264.1595928416
 21
263.005238775
 31
0.0
  0
LINE
  5
14C
330
1F
100
AcDbEntity
  8
0
  6
Continuous
 62
     8
370
    18
100
AcDbLine
 10
264.8640447765
 20
262.2092074758
 30
0.0
 11
264.969893864
 21
262.092513349
 31
0.0
  0
LINE
  5
14D
330
1F
100
AcDbEntity
  8
0
  6
Continuous
 62
     8
370
    18
100
AcDbLine
 10
264.662737627
 20
262.4331985703
 30
0.0
 11
264.76932025
 21
262.3142669553
 31
0.0
  0
LINE
  5
14E
330
1F
100
AcDbEntity
  8
0
  6
Continuous
 62
     8
370
    18
100
AcDbLine
 10
264.4600872809
 20
262.6614674474
 30
0.0
 11
264.5673725769
 21
262.5402673452
 31
0.0
  0
LINE
  5
14F
330
1F
100
AcDbEntity
  8
0
  6
Continuous
 62
     8
370
    18
100
AcDbLine
 10
264.2561537985
 20
262.8940710767
 30
0.0
 11
264.3641097491
 21
262.7705726515
 31
0.0
  0
LINE
  5
150
330
1F
100
AcDbEntity
  8
0
  6
Continuous
 62
     8
370
    18
100
AcDbLine
 10
257.2159169712
 20
262.6926095087
 30
0.0
 11
257.3257412576
 21
262.8177206926
 31
0.0
  0
LINE
  5
151
330
1F
100
AcDbEntity
  8
0
  6
Continuous
 62
     8
370
    18
100
AcDbLine
 10
257.0091936129
 20
262.4593903393
 30
0.0
 11
257.1182959512
 21
262.5821085478
 31
0.0
  0
LWPOLYLINE
  5
152
330
1F
100
AcDbEntity
  8
0
  6
Continuous
 62
     8
370
    18
100
AcDbPolyline
 90
        3
 70
   128
 43
0.0
 10
256.8038850961
 20
262.2306517169
 10
256.9091809531
 20
262.3476095124
 10
256.912231648
 20
262.3510091686
  0
LINE
  5
153
330
1F
100
AcDbEntity
  8
0
  6
Continuous
 62
     8
370
    18
100
AcDbLine
 10
256.6000535194
 20
262.0063308264
 30
0.0
 11
256.7076117747
 21
262.1243610228
 31
0.0
  0
LINE
  5
154
330
1F
100
AcDbEntity
  8
0
  6
Continuous
 62
     8
370
    18
100
AcDbLine
 10
242.524275646
 20
269.8687631497
 30
0.0
 11
242.524275646
 21
265.765664868
 31
0.0
  0
LINE
  5
155
330
1F
100
AcDbEntity
  8
0
  6
Continuous
 62
     8
370
    18
100
AcDbLine
 10
279.124275646
 20
265.765664868
 30
0.0
 11
279.124275646
 21
269.8687631497
 31
0.0
  0
LINE
  5
156
330
1F
100
AcDbEntity
  8
0
  6
Continuous
 62
     8
370
    18
100
AcDbLine
 10
274.6456694509
 20
264.8779744771
 30
0.0
 11
274.6456694509
 21
264.9469323126
 31
0.0
  0
LINE
  5
157
330
1F
100
AcDbEntity
  8
0
  6
Continuous
 62
     8
370
    18
100
AcDbLine
 10
247.6456694509
 20
264.6380066762
 30
0.0
 11
247.6456694509
 21
264.5575272747
 31
0.0
  0
LINE
  5
158
330
1F
100
AcDbEntity
  8
0
  6
Continuous
 62
     8
370
    18
100
AcDbLine
 10
274.6456694509
 20
264.7216945765
 30
0.0
 11
274.6456694509
 21
264.7906542746
 31
0.0
  0
LINE
  5
159
330
1F
100
AcDbEntity
  8
0
  6
Continuous
 62
     8
370
    18
100
AcDbLine
 10
247.6456694509
 20
264.4743116075
 30
0.0
 11
247.6456694509
 21
264.3939034399
 31
0.0
  0
LINE
  5
15A
330
1F
100
AcDbEntity
  8
0
  6
Continuous
 62
     8
370
    18
100
AcDbLine
 10
274.6456694509
 20
264.5654146759
 30
0.0
 11
274.6456694509
 21
264.6343764014
 31
0.0
  0
LINE
  5
15B
330
1F
100
AcDbEntity
  8
0
  6
Continuous
 62
     8
370
    18
100
AcDbLine
 10
247.6456694509
 20
264.3106170011
 30
0.0
 11
247.6456694509
 21
264.2302796051
 31
0.0
  0
LINE
  5
15C
330
1F
100
AcDbEntity
  8
0
  6
Continuous
 62
     8
370
    18
100
AcDbLine
 10
274.6456694509
 20
264.4091347753
 30
0.0
 11
274.6456694509
 21
264.4780987025
 31
0.0
  0
LINE
  5
15D
330
1F
100
AcDbEntity
  8
0
  6
Continuous
 62
     8
370
    18
100
AcDbLine
 10
247.6456694509
 20
264.146922879
 30
0.0
 11
247.6456694509
 21
264.0666557703
 31
0.0
  0
LINE
  5
15E
330
1F
100
AcDbEntity
  8
0
  6
Continuous
 62
     8
370
    18
100
AcDbLine
 10
274.6456694509
 20
264.2528548747
 30
0.0
 11
274.6456694509
 21
264.3218211877
 31
0.0
  0
DIMENSION
  5
15F
330
1F
100
AcDbEntity
  8
DIMENSION
100
AcDbDimension
  2
_D_1
 10
235.1674995616
 20
266.0108767937
 30
0.0
 11
235.1674995616
 21
274.9321872448
 31
0.0
 70
   160
  1
<>
 71
     2
 42
-1.0
  3
SLDDIMSTYLE0
100
AcDbAlignedDimension
 13
241.024275646
 23
270.1139750755
 33
0.0
 14
241.024275646
 24
266.0108767937
 34
0.0
 50
90.0
100
AcDbRotatedDimension
  0
SPLINE
  5
16B
330
1F
100
AcDbEntity
  8
0
  6
Continuous
 62
     7
370
    35
100
AcDbSpline
210
0.0
220
0.0
230
1.0
 70
    24
 71
     3
 72
     8
 73
     4
 74
     0
 42
0.000000001
 43
0.00000001
 40
0.0
 40
0.0
 40
0.0
 40
0.0
 40
1.0
 40
1.0
 40
1.0
 40
1.0
 10
200.3946226829628
 20
215.7171385348486
 30
0.0
 10
203.3409367210891
 20
219.2284188746964
 30
0.0
 10
206.2890182148304
 20
222.741805586123
 30
0.0
 10
209.2388735449815
 20
226.2573062734637
 30
0.0
  0
SPLINE
  5
16C
330
1F
100
AcDbEntity
  8
0
  6
Continuous
 62
     7
370
    35
100
AcDbSpline
210
0.0
220
0.0
230
1.0
 70
     8
 71
     3
 72
    14
 73
    10
 74
     0
 42
0.000000001
 43
0.00000001
 40
0.0
 40
0.0
 40
0.0
 40
0.0
 40
0.2499999999999999
 40
0.2499999999999999
 40
0.4999999999999998
 40
0.4999999999999998
 40
0.7499999999999999
 40
0.7499999999999999
 40
1.0
 40
1.0
 40
1.0
 40
1.0
 10
208.8558513234233
 20
227.0787000783085
 30
0.0
 10
208.9521093900682
 20
227.0787000783085
 30
0.0
 10
209.0463864813621
 20
227.0505933581457
 30
0.0
 10
209.2058946297357
 20
226.9481004000087
 30
0.0
 10
209.2707499820682
 20
226.8730880202798
 30
0.0
 10
209.3492554966804
 20
226.7026253749025
 30
0.0
 10
209.3639407595042
 20
226.6061489487805
 30
0.0
 10
209.3389832322885
 20
226.4190383290276
 30
0.0
 10
209.3001459521171
 20
226.3303278847946
 30
0.0
 10
209.2388735449832
 20
226.2573062734657
 30
0.0
  0
LINE
  5
16D
330
1F
100
AcDbEntity
  8
0
  6
Continuous
 62
     7
370
    35
100
AcDbLine
 10
208.8558513234
 20
227.0787000783
 30
0.0
 11
201.6761112321
 21
227.0787000783
 31
0.0
  0
SPLINE
  5
16E
330
1F
100
AcDbEntity
  8
0
  6
Continuous
 62
     7
370
    35
100
AcDbSpline
210
0.0
220
0.0
230
1.0
 70
     8
 71
     3
 72
     8
 73
     4
 74
     0
 42
0.000000001
 43
0.00000001
 40
0.0
 40
0.0
 40
0.0
 40
0.0
 40
1.0
 40
1.0
 40
1.0
 40
1.0
 10
201.2930890105362
 20
226.9000938831518
 30
0.0
 10
201.386768596963
 20
227.0117368668286
 30
0.0
 10
201.5288741860928
 20
227.0787000783099
 30
0.0
 10
201.6761112320956
 20
227.0787000783099
 30
0.0
  0
SPLINE
  5
16F
330
1F
100
AcDbEntity
  8
0
  6
Continuous
 62
     7
370
    35
100
AcDbSpline
210
0.0
220
0.0
230
1.0
 70
    24
 71
     3
 72
     8
 73
     4
 74
     0
 42
0.000000001
 43
0.00000001
 40
0.0
 40
0.0
 40
0.0
 40
0.0
 40
1.0
 40
1.0
 40
1.0
 40
1.0
 10
201.2930890105362
 20
226.9000938831518
 30
0.0
 10
198.1845564193619
 20
223.1954889999236
 30
0.0
 10
195.0780484774046
 20
219.4932969996736
 30
0.0
 10
191.9735572981614
 20
215.7935084836335
 30
0.0
  0
SPLINE
  5
170
330
1F
100
AcDbEntity
  8
0
  6
Continuous
 62
     7
370
    35
100
AcDbSpline
210
0.0
220
0.0
230
1.0
 70
    24
 71
     3
 72
     8
 73
     4
 74
     0
 42
0.000000001
 43
0.00000001
 40
0.0
 40
0.0
 40
0.0
 40
0.0
 40
1.0
 40
1.0
 40
1.0
 40
1.0
 10
182.5303475839423
 20
215.8788891731954
 30
0.0
 10
185.4313731228236
 20
219.3361967813647
 30
0.0
 10
188.3342128337098
 20
222.7956664355384
 30
0.0
 10
191.2388735449813
 20
226.2573062734635
 30
0.0
  0
SPLINE
  5
171
330
1F
100
AcDbEntity
  8
0
  6
Continuous
 62
     7
370
    35
100
AcDbSpline
210
0.0
220
0.0
230
1.0
 70
     8
 71
     3
 72
    14
 73
    10
 74
     0
 42
0.000000001
 43
0.00000001
 40
0.0
 40
0.0
 40
0.0
 40
0.0
 40
0.25
 40
0.25
 40
0.5
 40
0.5
 40
0.75
 40
0.75
 40
1.0
 40
1.0
 40
1.0
 40
1.0
 10
190.8558513234233
 20
227.0787000783085
 30
0.0
 10
190.952227374165
 20
227.0787000783085
 30
0.0
 10
191.0466019480517
 20
227.0505214019859
 30
0.0
 10
191.2061758900338
 20
226.9478529738707
 30
0.0
 10
191.2709595859017
 20
226.8727789755779
 30
0.0
 10
191.3493187037726
 20
226.7023415435548
 30
0.0
 10
191.3639355513275
 20
226.6059041046763
 30
0.0
 10
191.3389502154002
 20
226.418996909065
 30
0.0
 10
191.3001435944008
 20
226.3303250749777
 30
0.0
 10
191.238873544983
 20
226.2573062734655
 30
0.0
  0
LINE
  5
172
330
1F
100
AcDbEntity
  8
0
  6
Continuous
 62
     7
370
    35
100
AcDbLine
 10
190.8558513234
 20
227.0787000783
 30
0.0
 11
183.6761112321
 21
227.0787000783
 31
0.0
  0
SPLINE
  5
173
330
1F
100
AcDbEntity
  8
0
  6
Continuous
 62
     7
370
    35
100
AcDbSpline
210
0.0
220
0.0
230
1.0
 70
     8
 71
     3
 72
     8
 73
     4
 74
     0
 42
0.000000001
 43
0.00000001
 40
0.0
 40
0.0
 40
0.0
 40
0.0
 40
1.0
 40
1.0
 40
1.0
 40
1.0
 10
183.2930890105362
 20
226.9000938831518
 30
0.0
 10
183.3866955011995
 20
227.0116497546899
 30
0.0
 10
183.5287992562471
 20
227.0787000783099
 30
0.0
 10
183.6761112320956
 20
227.07870007831
 30
0.0
  0
SPLINE
  5
174
330
1F
100
AcDbEntity
  8
0
  6
Continuous
 62
     7
370
    35
100
AcDbSpline
210
0.0
220
0.0
230
1.0
 70
    24
 71
     3
 72
     8
 73
     4
 74
     0
 42
0.000000001
 43
0.00000001
 40
0.0
 40
0.0
 40
0.0
 40
0.0
 40
1.0
 40
1.0
 40
1.0
 40
1.0
 10
183.2930890105362
 20
226.9000938831518
 30
0.0
 10
180.2296145950085
 20
223.2491872426262
 30
0.0
 10
177.1682186284183
 20
219.6007576010889
 30
0.0
 10
174.108892678464
 20
215.9547949093142
 30
0.0
  0
SPLINE
  5
175
330
1F
100
AcDbEntity
  8
0
  6
Continuous
 62
     7
370
    35
100
AcDbSpline
210
0.0
220
0.0
230
1.0
 70
    24
 71
     3
 72
     8
 73
     4
 74
     0
 42
0.000000001
 43
0.00000001
 40
0.0
 40
0.0
 40
0.0
 40
0.0
 40
1.0
 40
1.0
 40
1.0
 40
1.0
 10
164.6652352258759
 20
216.0396420050663
 30
0.0
 10
167.5212571546184
 20
219.443316399173
 30
0.0
 10
170.3791341765568
 20
222.8492016072605
 30
0.0
 10
173.2388735449811
 20
226.2573062734632
 30
0.0
  0
SPLINE
  5
176
330
1F
100
AcDbEntity
  8
0
  6
Continuous
 62
     7
370
    35
100
AcDbSpline
210
0.0
220
0.0
230
1.0
 70
     8
 71
     3
 72
    14
 73
    10
 74
     0
 42
0.000000001
 43
0.00000001
 40
0.0
 40
0.0
 40
0.0
 40
0.0
 40
0.25
 40
0.25
 40
0.5
 40
0.5
 40
0.75
 40
0.75
 40
1.0
 40
1.0
 40
1.0
 40
1.0
 10
172.8558513234233
 20
227.0787000783085
 30
0.0
 10
172.9523527677038
 20
227.0787000783085
 30
0.0
 10
173.0468305357219
 20
227.0504449088085
 30
0.0
 10
173.2064737452446
 20
226.9475905253925
 30
0.0
 10
173.2711804236433
 20
226.8724529046663
 30
0.0
 10
173.3493853103345
 20
226.7020418321726
 30
0.0
 10
173.3639299805007
 20
226.605647262353
 30
0.0
 10
173.338915599463
 20
226.418953473588
 30
0.0
 10
173.3001413357555
 20
226.3303223832291
 30
0.0
 10
173.2388735449831
 20
226.2573062734656
 30
0.0
  0
LINE
  5
177
330
1F
100
AcDbEntity
  8
0
  6
Continuous
 62
     7
370
    35
100
AcDbLine
 10
172.8558513234
 20
227.0787000783
 30
0.0
 11
165.6761112321
 21
227.0787000783
 31
0.0
  0
SPLINE
  5
178
330
1F
100
AcDbEntity
  8
0
  6
Continuous
 62
     7
370
    35
100
AcDbSpline
210
0.0
220
0.0
230
1.0
 70
     8
 71
     3
 72
     8
 73
     4
 74
     0
 42
0.000000001
 43
0.00000001
 40
0.0
 40
0.0
 40
0.0
 40
0.0
 40
1.0
 40
1.0
 40
1.0
 40
1.0
 10
165.2930890105362
 20
226.9000938831518
 30
0.0
 10
165.3866182838612
 20
227.0115577306496
 30
0.0
 10
165.5287200224683
 20
227.07870007831
 30
0.0
 10
165.6761112320956
 20
227.07870007831
 30
0.0
  0
SPLINE
  5
179
330
1F
100
AcDbEntity
  8
0
  6
Continuous
 62
     7
370
    35
100
AcDbSpline
210
0.0
220
0.0
230
1.0
 70
    24
 71
     3
 72
     8
 73
     4
 74
     0
 42
0.000000001
 43
0.00000001
 40
0.0
 40
0.0
 40
0.0
 40
0.0
 40
1.0
 40
1.0
 40
1.0
 40
1.0
 10
165.2930890105362
 20
226.9000938831518
 30
0.0
 10
162.2743933920773
 20
223.3025525349049
 30
0.0
 10
159.2578238522601
 20
219.7075449485176
 30
0.0
 10
156.2433714381552
 20
216.1150604543038
 30
0.0
  0
SPLINE
  5
17A
330
1F
100
AcDbEntity
  8
0
  6
Continuous
 62
     7
370
    35
100
AcDbSpline
210
0.0
220
0.0
230
1.0
 70
    24
 71
     3
 72
     8
 73
     4
 74
     0
 42
0.000000001
 43
0.00000001
 40
0.0
 40
0.0
 40
0.0
 40
0.0
 40
1.0
 40
1.0
 40
1.0
 40
1.0
 10
146.7992449155239
 20
216.1993485341468
 30
0.0
 10
149.6105614474506
 20
219.5497451109899
 30
0.0
 10
152.4237684395518
 20
222.9023946505376
 30
0.0
 10
155.2388735449808
 20
226.2573062734629
 30
0.0
  0
SPLINE
  5
17B
330
1F
100
AcDbEntity
  8
0
  6
Continuous
 62
     7
370
    35
100
AcDbSpline
210
0.0
220
0.0
230
1.0
 70
     8
 71
     3
 72
    14
 73
    10
 74
     0
 42
0.000000001
 43
0.00000001
 40
0.0
 40
0.0
 40
0.0
 40
0.0
 40
0.25
 40
0.25
 40
0.5
 40
0.5
 40
0.75
 40
0.75
 40
1.0
 40
1.0
 40
1.0
 40
1.0
 10
154.8558513234233
 20
227.0787000783085
 30
0.0
 10
154.9524855327743
 20
227.0787000783085
 30
0.0
 10
155.0470721344838
 20
227.0503638940354
 30
0.0
 10
155.2067880053237
 20
226.9473131531518
 30
0.0
 10
155.2714122086497
 20
226.8721101685227
 30
0.0
 10
155.3494552511931
 20
226.7017264692167
 30
0.0
 10
155.3639240465581
 20
226.6053788128934
 30
0.0
 10
155.3388794249306
 20
226.418908025856
 30
0.0
 10
155.3001391736935
 20
226.3303198065839
 30
0.0
 10
155.2388735449831
 20
226.2573062734656
 30
0.0
  0
LINE
  5
17C
330
1F
100
AcDbEntity
  8
0
  6
Continuous
 62
     7
370
    35
100
AcDbLine
 10
154.8558513234
 20
227.0787000783
 30
0.0
 11
147.6761112321
 21
227.0787000783
 31
0.0
  0
SPLINE
  5
17D
330
1F
100
AcDbEntity
  8
0
  6
Continuous
 62
     7
370
    35
100
AcDbSpline
210
0.0
220
0.0
230
1.0
 70
     8
 71
     3
 72
     8
 73
     4
 74
     0
 42
0.000000001
 43
0.00000001
 40
0.0
 40
0.0
 40
0.0
 40
0.0
 40
1.0
 40
1.0
 40
1.0
 40
1.0
 10
147.2930890105362
 20
226.9000938831518
 30
0.0
 10
147.3865370005041
 20
227.0114608609167
 30
0.0
 10
147.5286364924466
 20
227.0787000783101
 30
0.0
 10
147.6761112320955
 20
227.0787000783101
 30
0.0
  0
SPLINE
  5
17E
330
1F
100
AcDbEntity
  8
0
  6
Continuous
 62
     7
370
    35
100
AcDbSpline
210
0.0
220
0.0
230
1.0
 70
    24
 71
     3
 72
     8
 73
     4
 74
     0
 42
0.000000001
 43
0.00000001
 40
0.0
 40
0.0
 40
0.0
 40
0.0
 40
1.0
 40
1.0
 40
1.0
 40
1.0
 10
147.2930890105362
 20
226.9000938831518
 30
0.0
 10
144.3188792290396
 20
223.3555686909244
 30
0.0
 10
141.346837229478
 20
219.8136269606059
 30
0.0
 10
138.3769535661894
 20
216.274257435295
 30
0.0
  0
SPLINE
  5
17F
330
1F
100
AcDbEntity
  8
0
  6
Continuous
 62
     7
370
    35
100
AcDbSpline
210
0.0
220
0.0
230
1.0
 70
    24
 71
     3
 72
     8
 73
     4
 74
     0
 42
0.000000001
 43
0.00000001
 40
0.0
 40
0.0
 40
0.0
 40
0.0
 40
1.0
 40
1.0
 40
1.0
 40
1.0
 10
128.9323374186934
 20
216.3579620029464
 30
0.0
 10
131.699259604456
 20
219.6554514582575
 30
0.0
 10
134.4681023045434
 20
222.9552296934149
 30
0.0
 10
137.2388735449806
 20
226.2573062734627
 30
0.0
  0
SPLINE
  5
180
330
1F
100
AcDbEntity
  8
0
  6
Continuous
 62
     7
370
    35
100
AcDbSpline
210
0.0
220
0.0
230
1.0
 70
     8
 71
     3
 72
    14
 73
    10
 74
     0
 42
0.000000001
 43
0.00000001
 40
0.0
 40
0.0
 40
0.0
 40
0.0
 40
0.25
 40
0.25
 40
0.5
 40
0.5
 40
0.75
 40
0.75
 40
1.0
 40
1.0
 40
1.0
 40
1.0
 10
136.8558513234233
 20
227.0787000783085
 30
0.0
 10
136.9526256295735
 20
227.0787000783085
 30
0.0
 10
137.047326629
 20
227.0502783738631
 30
0.0
 10
137.2071184706591
 20
226.9470209611766
 30
0.0
 10
137.271654645928
 20
226.8717511389969
 30
0.0
 10
137.3495284581759
 20
226.7013956927328
 30
0.0
 10
137.3639177494224
 20
226.6050991581251
 30
0.0
 10
137.3388417332542
 20
226.4188605692565
 30
0.0
 10
137.3001371054982
 20
226.3303173418049
 30
0.0
 10
137.2388735449832
 20
226.2573062734658
 30
0.0
  0
LINE
  5
181
330
1F
100
AcDbEntity
  8
0
  6
Continuous
 62
     7
370
    35
100
AcDbLine
 10
136.8558513234
 20
227.0787000783
 30
0.0
 11
129.6761112321
 21
227.0787000783
 31
0.0
  0
SPLINE
  5
182
330
1F
100
AcDbEntity
  8
0
  6
Continuous
 62
     7
370
    35
100
AcDbSpline
210
0.0
220
0.0
230
1.0
 70
     8
 71
     3
 72
     8
 73
     4
 74
     0
 42
0.000000001
 43
0.00000001
 40
0.0
 40
0.0
 40
0.0
 40
0.0
 40
1.0
 40
1.0
 40
1.0
 40
1.0
 10
129.2930890105362
 20
226.9000938831518
 30
0.0
 10
129.386451709125
 20
227.0113592146092
 30
0.0
 10
129.5285486742434
 20
227.0787000783101
 30
0.0
 10
129.6761112320955
 20
227.0787000783102
 30
0.0
  0
SPLINE
  5
183
330
1F
100
AcDbEntity
  8
0
  6
Continuous
 62
     7
370
    35
100
AcDbSpline
210
0.0
220
0.0
230
1.0
 70
    24
 71
     3
 72
     8
 73
     4
 74
     0
 42
0.000000001
 43
0.00000001
 40
0.0
 40
0.0
 40
0.0
 40
0.0
 40
1.0
 40
1.0
 40
1.0
 40
1.0
 10
129.2930890105362
 20
226.9000938831518
 30
0.0
 10
126.8399041255205
 20
223.9765019831365
 30
0.0
 10
124.3882551247992
 20
221.054740478747
 30
0.0
 10
121.9381362568661
 20
218.1348025156048
 30
0.0
  0
LINE
  5
184
330
1F
100
AcDbEntity
  8
0
  6
Continuous
 62
     7
370
    35
100
AcDbLine
 10
121.9381362569
 20
232.8787000783
 30
0.0
 11
121.9381362569
 21
218.1348025156
 31
0.0
  0
LINE
  5
185
330
1F
100
AcDbEntity
  8
0
  6
Continuous
 62
     7
370
    35
100
AcDbLine
 10
215.1881362569
 20
232.8787000783
 30
0.0
 11
121.9381362569
 21
232.8787000783
 31
0.0
  0
LINE
  5
186
330
1F
100
AcDbEntity
  8
0
  6
Continuous
 62
     7
370
    35
100
AcDbLine
 10
216.6881362569
 20
215.5687762702
 30
0.0
 11
216.6881362569
 21
231.3787000783
 31
0.0
  0
SPLINE
  5
187
330
1F
100
AcDbEntity
  8
0
  6
Continuous
 62
     7
370
    35
100
AcDbSpline
210
0.0
220
0.0
230
1.0
 70
     8
 71
     3
 72
    16
 73
    12
 74
     0
 42
0.000000001
 43
0.00000001
 40
0.0
 40
0.0
 40
0.0
 40
0.0
 40
0.2500000000000081
 40
0.2500000000000081
 40
0.3750000000000068
 40
0.3750000000000068
 40
0.5000000000000056
 40
0.5000000000000056
 40
0.7500000000000028
 40
0.7500000000000028
 40
1.0
 40
1.0
 40
1.0
 40
1.0
 10
216.6881362568661
 20
231.3787000783085
 30
0.0
 10
216.6881362568661
 20
231.5753439504235
 30
0.0
 10
216.6498323207344
 20
231.7682457261048
 30
0.0
 10
216.5381731547461
 20
232.0397414333492
 30
0.0
 10
216.4925785956617
 20
232.1256672765126
 30
0.0
 10
216.384759409075
 20
232.2884378658237
 30
0.0
 10
216.3218129793347
 20
232.3657950319277
 30
0.0
 10
216.1149914068318
 20
232.5742154337482
 30
0.0
 10
215.9478380384742
 20
232.6868931308169
 30
0.0
 10
215.5857091244544
 20
232.8383067631957
 30
0.0
 10
215.3876262042647
 20
232.8787000783085
 30
0.0
 10
215.1881362568661
 20
232.8787000783085
 30
0.0
  0
SPLINE
  5
188
330
1F
100
AcDbEntity
  8
0
  6
Continuous
 62
     7
370
    35
100
AcDbSpline
210
0.0
220
0.0
230
1.0
 70
    24
 71
     3
 72
     8
 73
     4
 74
     0
 42
0.000000001
 43
0.00000001
 40
0.0
 40
0.0
 40
0.0
 40
0.0
 40
1.0
 40
1.0
 40
1.0
 40
1.0
 10
43.48164983076937
 20
210.4402616217683
 30
0.0
 10
40.53533579264308
 20
206.9289812819206
 30
0.0
 10
37.58725429890186
 20
203.4155945704941
 30
0.0
 10
34.63739896875074
 20
199.9000938831533
 30
0.0
  0
SPLINE
  5
189
330
1F
100
AcDbEntity
  8
0
  6
Continuous
 62
     7
370
    35
100
AcDbSpline
210
0.0
220
0.0
230
1.0
 70
     8
 71
     3
 72
    14
 73
    10
 74
     0
 42
0.000000001
 43
0.00000001
 40
0.0
 40
0.0
 40
0.0
 40
0.0
 40
0.25
 40
0.25
 40
0.5
 40
0.5
 40
0.75
 40
0.75
 40
1.0
 40
1.0
 40
1.0
 40
1.0
 10
35.02042119030894
 20
199.0787000783085
 30
0.0
 10
34.924163123664
 20
199.0787000783085
 30
0.0
 10
34.82988603237008
 20
199.1068067984713
 30
0.0
 10
34.67037788399656
 20
199.2092997566083
 30
0.0
 10
34.60552253166406
 20
199.2843121363372
 30
0.0
 10
34.52701701705187
 20
199.4547747817145
 30
0.0
 10
34.51233175422798
 20
199.5512512078366
 30
0.0
 10
34.53728928144366
 20
199.7383618275894
 30
0.0
 10
34.57612656161515
 20
199.8270722718224
 30
0.0
 10
34.63739896874905
 20
199.9000938831513
 30
0.0
  0
LINE
  5
18A
330
1F
100
AcDbEntity
  8
0
  6
Continuous
 62
     7
370
    35
100
AcDbLine
 10
35.0204211903
 20
199.0787000783
 30
0.0
 11
42.2001612816
 21
199.0787000783
 31
0.0
  0
SPLINE
  5
18B
330
1F
100
AcDbEntity
  8
0
  6
Continuous
 62
     7
370
    35
100
AcDbSpline
210
0.0
220
0.0
230
1.0
 70
     8
 71
     3
 72
     8
 73
     4
 74
     0
 42
0.000000001
 43
0.00000001
 40
0.0
 40
0.0
 40
0.0
 40
0.0
 40
1.0
 40
1.0
 40
1.0
 40
1.0
 10
42.58318350319601
 20
199.2573062734652
 30
0.0
 10
42.48950391676926
 20
199.1456632897884
 30
0.0
 10
42.34739832763947
 20
199.0787000783071
 30
0.0
 10
42.20016128163666
 20
199.0787000783071
 30
0.0
  0
SPLINE
  5
18C
330
1F
100
AcDbEntity
  8
0
  6
Continuous
 62
     7
370
    35
100
AcDbSpline
210
0.0
220
0.0
230
1.0
 70
    24
 71
     3
 72
     8
 73
     4
 74
     0
 42
0.000000001
 43
0.00000001
 40
0.0
 40
0.0
 40
0.0
 40
0.0
 40
1.0
 40
1.0
 40
1.0
 40
1.0
 10
42.583183503196
 20
199.2573062734652
 30
0.0
 10
45.69171609437039
 20
202.9619111566934
 30
0.0
 10
48.79822403632768
 20
206.6641031569435
 30
0.0
 10
51.90271521557092
 20
210.3638916729836
 30
0.0
  0
SPLINE
  5
18D
330
1F
100
AcDbEntity
  8
0
  6
Continuous
 62
     7
370
    35
100
AcDbSpline
210
0.0
220
0.0
230
1.0
 70
    24
 71
     3
 72
     8
 73
     4
 74
     0
 42
0.000000001
 43
0.00000001
 40
0.0
 40
0.0
 40
0.0
 40
0.0
 40
1.0
 40
1.0
 40
1.0
 40
1.0
 10
61.34592492978994
 20
210.2785109834216
 30
0.0
 10
58.4448993909086
 20
206.8212033752523
 30
0.0
 10
55.54205968002243
 20
203.3617337210786
 30
0.0
 10
52.63739896875093
 20
199.9000938831535
 30
0.0
  0
SPLINE
  5
18E
330
1F
100
AcDbEntity
  8
0
  6
Continuous
 62
     7
370
    35
100
AcDbSpline
210
0.0
220
0.0
230
1.0
 70
     8
 71
     3
 72
    14
 73
    10
 74
     0
 42
0.000000001
 43
0.00000001
 40
0.0
 40
0.0
 40
0.0
 40
0.0
 40
0.25
 40
0.25
 40
0.5
 40
0.5
 40
0.75
 40
0.75
 40
1.0
 40
1.0
 40
1.0
 40
1.0
 10
53.02042119030894
 20
199.0787000783085
 30
0.0
 10
52.92404513956726
 20
199.0787000783085
 30
0.0
 10
52.82967056568052
 20
199.1068787546311
 30
0.0
 10
52.67009662369834
 20
199.2095471827463
 30
0.0
 10
52.6053129278305
 20
199.2846211810391
 30
0.0
 10
52.52695380995963
 20
199.4550586130622
 30
0.0
 10
52.5123369624047
 20
199.5514960519407
 30
0.0
 10
52.53732229833209
 20
199.738403247552
 30
0.0
 10
52.57612891933142
 20
199.8270750816393
 30
0.0
 10
52.63739896874924
 20
199.9000938831515
 30
0.0
  0
LINE
  5
18F
330
1F
100
AcDbEntity
  8
0
  6
Continuous
 62
     7
370
    35
100
AcDbLine
 10
53.0204211903
 20
199.0787000783
 30
0.0
 11
60.2001612816
 21
199.0787000783
 31
0.0
  0
SPLINE
  5
190
330
1F
100
AcDbEntity
  8
0
  6
Continuous
 62
     7
370
    35
100
AcDbSpline
210
0.0
220
0.0
230
1.0
 70
     8
 71
     3
 72
     8
 73
     4
 74
     0
 42
0.000000001
 43
0.00000001
 40
0.0
 40
0.0
 40
0.0
 40
0.0
 40
1.0
 40
1.0
 40
1.0
 40
1.0
 10
60.58318350319601
 20
199.2573062734652
 30
0.0
 10
60.48957701253268
 20
199.145750401927
 30
0.0
 10
60.34747325748517
 20
199.0787000783071
 30
0.0
 10
60.20016128163668
 20
199.078700078307
 30
0.0
  0
SPLINE
  5
191
330
1F
100
AcDbEntity
  8
0
  6
Continuous
 62
     7
370
    35
100
AcDbSpline
210
0.0
220
0.0
230
1.0
 70
    24
 71
     3
 72
     8
 73
     4
 74
     0
 42
0.000000001
 43
0.00000001
 40
0.0
 40
0.0
 40
0.0
 40
0.0
 40
1.0
 40
1.0
 40
1.0
 40
1.0
 10
60.58318350319601
 20
199.2573062734652
 30
0.0
 10
63.64665791872101
 20
202.9082129139876
 30
0.0
 10
66.70805388530844
 20
206.5566425555215
 30
0.0
 10
69.76737983526
 20
210.202605247293
 30
0.0
  0
SPLINE
  5
192
330
1F
100
AcDbEntity
  8
0
  6
Continuous
 62
     7
370
    35
100
AcDbSpline
210
0.0
220
0.0
230
1.0
 70
    24
 71
     3
 72
     8
 73
     4
 74
     0
 42
0.000000001
 43
0.00000001
 40
0.0
 40
0.0
 40
0.0
 40
0.0
 40
1.0
 40
1.0
 40
1.0
 40
1.0
 10
79.2110372878563
 20
210.1177581515506
 30
0.0
 10
76.35501535911385
 20
206.714083757444
 30
0.0
 10
73.49713833717541
 20
203.3081985493565
 30
0.0
 10
70.63739896875116
 20
199.9000938831538
 30
0.0
  0
SPLINE
  5
193
330
1F
100
AcDbEntity
  8
0
  6
Continuous
 62
     7
370
    35
100
AcDbSpline
210
0.0
220
0.0
230
1.0
 70
     8
 71
     3
 72
    14
 73
    10
 74
     0
 42
0.000000001
 43
0.00000001
 40
0.0
 40
0.0
 40
0.0
 40
0.0
 40
0.25
 40
0.25
 40
0.5
 40
0.5
 40
0.75
 40
0.75
 40
1.0
 40
1.0
 40
1.0
 40
1.0
 10
71.02042119030894
 20
199.0787000783085
 30
0.0
 10
70.9239197460284
 20
199.0787000783085
 30
0.0
 10
70.8294419780103
 20
199.1069552478085
 30
0.0
 10
70.66979876848758
 20
199.2098096312246
 30
0.0
 10
70.60509209008897
 20
199.2849472519507
 30
0.0
 10
70.52688720339775
 20
199.4553583244444
 30
0.0
 10
70.51234253323152
 20
199.551752894264
 30
0.0
 10
70.53735691426921
 20
199.7384466830289
 30
0.0
 10
70.57613117797666
 20
199.8270777733879
 30
0.0
 10
70.63739896874915
 20
199.9000938831514
 30
0.0
  0
LINE
  5
194
330
1F
100
AcDbEntity
  8
0
  6
Continuous
 62
     7
370
    35
100
AcDbLine
 10
71.0204211903
 20
199.0787000783
 30
0.0
 11
78.2001612816
 21
199.0787000783
 31
0.0
  0
SPLINE
  5
195
330
1F
100
AcDbEntity
  8
0
  6
Continuous
 62
     7
370
    35
100
AcDbSpline
210
0.0
220
0.0
230
1.0
 70
     8
 71
     3
 72
     8
 73
     4
 74
     0
 42
0.000000001
 43
0.00000001
 40
0.0
 40
0.0
 40
0.0
 40
0.0
 40
1.0
 40
1.0
 40
1.0
 40
1.0
 10
78.583183503196
 20
199.2573062734652
 30
0.0
 10
78.489654229871
 20
199.1458424259674
 30
0.0
 10
78.34755249126394
 20
199.078700078307
 30
0.0
 10
78.20016128163668
 20
199.078700078307
 30
0.0
  0
SPLINE
  5
196
330
1F
100
AcDbEntity
  8
0
  6
Continuous
 62
     7
370
    35
100
AcDbSpline
210
0.0
220
0.0
230
1.0
 70
    24
 71
     3
 72
     8
 73
     4
 74
     0
 42
0.000000001
 43
0.00000001
 40
0.0
 40
0.0
 40
0.0
 40
0.0
 40
1.0
 40
1.0
 40
1.0
 40
1.0
 10
78.58318350319601
 20
199.2573062734652
 30
0.0
 10
81.60187912165156
 20
202.854847621708
 30
0.0
 10
84.61844866146534
 20
206.4498552080913
 30
0.0
 10
87.63290107556689
 20
210.0423397023011
 30
0.0
  0
SPLINE
  5
197
330
1F
100
AcDbEntity
  8
0
  6
Continuous
 62
     7
370
    35
100
AcDbSpline
210
0.0
220
0.0
230
1.0
 70
    24
 71
     3
 72
     8
 73
     4
 74
     0
 42
0.000000001
 43
0.00000001
 40
0.0
 40
0.0
 40
0.0
 40
0.0
 40
1.0
 40
1.0
 40
1.0
 40
1.0
 10
97.07702759820833
 20
209.9580516224702
 30
0.0
 10
94.26571106628161
 20
206.6076550456271
 30
0.0
 10
91.4525040741804
 20
203.2550055060794
 30
0.0
 10
88.63739896875137
 20
199.9000938831541
 30
0.0
  0
SPLINE
  5
198
330
1F
100
AcDbEntity
  8
0
  6
Continuous
 62
     7
370
    35
100
AcDbSpline
210
0.0
220
0.0
230
1.0
 70
     8
 71
     3
 72
    14
 73
    10
 74
     0
 42
0.000000001
 43
0.00000001
 40
0.0
 40
0.0
 40
0.0
 40
0.0
 40
0.25
 40
0.25
 40
0.5
 40
0.5
 40
0.75
 40
0.75
 40
1.0
 40
1.0
 40
1.0
 40
1.0
 10
89.02042119030894
 20
199.0787000783085
 30
0.0
 10
88.92378698095794
 20
199.0787000783085
 30
0.0
 10
88.82920037924838
 20
199.1070362625816
 30
0.0
 10
88.6694845084085
 20
199.2100870034652
 30
0.0
 10
88.6048603050825
 20
199.2852899880943
 30
0.0
 10
88.52681726253914
 20
199.4556736874003
 30
0.0
 10
88.51234846717409
 20
199.5520213437236
 30
0.0
 10
88.53739308880168
 20
199.738492130761
 30
0.0
 10
88.57613334003874
 20
199.827080350033
 30
0.0
 10
88.63739896874908
 20
199.9000938831513
 30
0.0
  0
LINE
  5
199
330
1F
100
AcDbEntity
  8
0
  6
Continuous
 62
     7
370
    35
100
AcDbLine
 10
89.0204211903
 20
199.0787000783
 30
0.0
 11
96.2001612816
 21
199.0787000783
 31
0.0
  0
SPLINE
  5
19A
330
1F
100
AcDbEntity
  8
0
  6
Continuous
 62
     7
370
    35
100
AcDbSpline
210
0.0
220
0.0
230
1.0
 70
     8
 71
     3
 72
     8
 73
     4
 74
     0
 42
0.000000001
 43
0.00000001
 40
0.0
 40
0.0
 40
0.0
 40
0.0
 40
1.0
 40
1.0
 40
1.0
 40
1.0
 10
96.583183503196
 20
199.2573062734652
 30
0.0
 10
96.48973551322813
 20
199.1459392957003
 30
0.0
 10
96.34763602128562
 20
199.078700078307
 30
0.0
 10
96.2001612816367
 20
199.0787000783069
 30
0.0
  0
SPLINE
  5
19B
330
1F
100
AcDbEntity
  8
0
  6
Continuous
 62
     7
370
    35
100
AcDbSpline
210
0.0
220
0.0
230
1.0
 70
    24
 71
     3
 72
     8
 73
     4
 74
     0
 42
0.000000001
 43
0.00000001
 40
0.0
 40
0.0
 40
0.0
 40
0.0
 40
1.0
 40
1.0
 40
1.0
 40
1.0
 10
96.58318350319598
 20
199.2573062734652
 30
0.0
 10
99.55739328468965
 20
202.8018314656891
 30
0.0
 10
102.5294352842484
 20
206.3437731960042
 30
0.0
 10
105.4993189475341
 20
209.8831427213116
 30
0.0
  0
SPLINE
  5
19C
330
1F
100
AcDbEntity
  8
0
  6
Continuous
 62
     7
370
    35
100
AcDbSpline
210
0.0
220
0.0
230
1.0
 70
    24
 71
     3
 72
     8
 73
     4
 74
     0
 42
0.000000001
 43
0.00000001
 40
0.0
 40
0.0
 40
0.0
 40
0.0
 40
1.0
 40
1.0
 40
1.0
 40
1.0
 10
114.9439350950389
 20
209.7994381536707
 30
0.0
 10
112.1770129092763
 20
206.5019486983595
 30
0.0
 10
109.4081702091888
 20
203.2021704632021
 30
0.0
 10
106.6373989687516
 20
199.9000938831544
 30
0.0
  0
SPLINE
  5
19D
330
1F
100
AcDbEntity
  8
0
  6
Continuous
 62
     7
370
    35
100
AcDbSpline
210
0.0
220
0.0
230
1.0
 70
     8
 71
     3
 72
    14
 73
    10
 74
     0
 42
0.000000001
 43
0.00000001
 40
0.0
 40
0.0
 40
0.0
 40
0.0
 40
0.25
 40
0.25
 40
0.5
 40
0.5
 40
0.75
 40
0.75
 40
1.0
 40
1.0
 40
1.0
 40
1.0
 10
107.0204211903089
 20
199.0787000783085
 30
0.0
 10
106.9236468841587
 20
199.0787000783085
 30
0.0
 10
106.8289458847322
 20
199.1071217827539
 30
0.0
 10
106.6691540430732
 20
199.2103791954404
 30
0.0
 10
106.6046178678043
 20
199.2856490176201
 30
0.0
 10
106.5267440555563
 20
199.4560044638842
 30
0.0
 10
106.5123547643098
 20
199.5523009984919
 30
0.0
 10
106.537430780478
 20
199.7385395873606
 30
0.0
 10
106.576135408234
 20
199.8270828148121
 30
0.0
 10
106.637398968749
 20
199.9000938831512
 30
0.0
  0
LINE
  5
19E
330
1F
100
AcDbEntity
  8
0
  6
Continuous
 62
     7
370
    35
100
AcDbLine
 10
107.0204211903
 20
199.0787000783
 30
0.0
 11
114.2001612816
 21
199.0787000783
 31
0.0
  0
SPLINE
  5
19F
330
1F
100
AcDbEntity
  8
0
  6
Continuous
 62
     7
370
    35
100
AcDbSpline
210
0.0
220
0.0
230
1.0
 70
     8
 71
     3
 72
     8
 73
     4
 74
     0
 42
0.000000001
 43
0.00000001
 40
0.0
 40
0.0
 40
0.0
 40
0.0
 40
1.0
 40
1.0
 40
1.0
 40
1.0
 10
114.583183503196
 20
199.2573062734652
 30
0.0
 10
114.4898208046072
 20
199.1460409420078
 30
0.0
 10
114.3477238394888
 20
199.0787000783069
 30
0.0
 10
114.2001612816367
 20
199.0787000783068
 30
0.0
  0
SPLINE
  5
1A0
330
1F
100
AcDbEntity
  8
0
  6
Continuous
 62
     7
370
    35
100
AcDbSpline
210
0.0
220
0.0
230
1.0
 70
    24
 71
     3
 72
     8
 73
     4
 74
     0
 42
0.000000001
 43
0.00000001
 40
0.0
 40
0.0
 40
0.0
 40
0.0
 40
1.0
 40
1.0
 40
1.0
 40
1.0
 10
114.583183503196
 20
199.2573062734652
 30
0.0
 10
117.0363683882117
 20
202.1808981734805
 30
0.0
 10
119.488017388933
 20
205.1026596778701
 30
0.0
 10
121.9381362568661
 20
208.0225976410122
 30
0.0
  0
LINE
  5
1A1
330
1F
100
AcDbEntity
  8
0
  6
Continuous
 62
     7
370
    35
100
AcDbLine
 10
121.9381362569
 20
208.022597641
 30
0.0
 11
121.9381362569
 21
193.2787000783
 31
0.0
  0
LINE
  5
1A2
330
1F
100
AcDbEntity
  8
0
  6
Continuous
 62
     7
370
    35
100
AcDbLine
 10
28.6881362569
 20
193.2787000783
 30
0.0
 11
121.9381362569
 21
193.2787000783
 31
0.0
  0
SPLINE
  5
1A3
330
1F
100
AcDbEntity
  8
0
  6
Continuous
 62
     7
370
    35
100
AcDbSpline
210
0.0
220
0.0
230
1.0
 70
     8
 71
     3
 72
    16
 73
    12
 74
     0
 42
0.000000001
 43
0.00000001
 40
0.0
 40
0.0
 40
0.0
 40
0.0
 40
0.2499999999999987
 40
0.2499999999999987
 40
0.3749999999999999
 40
0.3749999999999999
 40
0.5000000000000012
 40
0.5000000000000012
 40
0.7500000000000006
 40
0.7500000000000006
 40
1.0
 40
1.0
 40
1.0
 40
1.0
 10
27.18813625686611
 20
194.7787000783085
 30
0.0
 10
27.1881362568661
 20
194.5820562061935
 30
0.0
 10
27.226440192998
 20
194.3891544305116
 30
0.0
 10
27.33809935898644
 20
194.1176587232673
 30
0.0
 10
27.3836939180708
 20
194.031732880104
 30
0.0
 10
27.49151310465754
 20
193.868962290793
 30
0.0
 10
27.55445953439786
 20
193.7916051246889
 30
0.0
 10
27.76128110690061
 20
193.5831847228686
 30
0.0
 10
27.92843447525826
 20
193.4705070257999
 30
0.0
 10
28.29056338927795
 20
193.3190933934213
 30
0.0
 10
28.48864630946758
 20
193.2787000783085
 30
0.0
 10
28.68813625686612
 20
193.2787000783085
 30
0.0
  0
LINE
  5
1A4
330
1F
100
AcDbEntity
  8
0
  6
Continuous
 62
     7
370
    35
100
AcDbLine
 10
27.1881362569
 20
210.5886238864
 30
0.0
 11
27.1881362569
 21
194.7787000783
 31
0.0
  0
SPLINE
  5
1A5
330
1F
100
AcDbEntity
  8
0
  6
Continuous
 62
     7
370
    35
100
AcDbSpline
210
0.0
220
0.0
230
1.0
 70
    24
 71
     3
 72
     8
 73
     4
 74
     0
 42
0.000000001
 43
0.00000001
 40
0.0
 40
0.0
 40
0.0
 40
0.0
 40
0.0022861137951574
 40
0.0022861137951574
 40
0.0022861137951574
 40
0.0022861137951574
 10
121.9381362568661
 20
218.1348025156048
 30
0.0
 10
121.4549113059459
 20
217.5589174443145
 30
0.0
 10
120.971631251168
 20
216.9829667028039
 30
0.0
 10
120.4882967380275
 20
216.4069510603439
 30
0.0
  0
SPLINE
  5
1A6
330
1F
100
AcDbEntity
  8
0
  6
Continuous
 62
     7
370
    35
100
AcDbSpline
210
0.0
220
0.0
230
1.0
 70
    24
 71
     3
 72
     8
 73
     4
 74
     0
 42
0.000000001
 43
0.00000001
 40
0.0
 40
0.0
 40
0.0
 40
0.0
 40
1.0
 40
1.0
 40
1.0
 40
1.0
 10
110.9023138090383
 20
216.3221812582772
 30
0.0
 10
113.6829652600811
 20
219.6360326148098
 30
0.0
 10
116.4618161811535
 20
222.9477381832815
 30
0.0
 10
119.2388735449828
 20
226.2573062734652
 30
0.0
  0
SPLINE
  5
1A7
330
1F
100
AcDbEntity
  8
0
  6
Continuous
 62
     7
370
    35
100
AcDbSpline
210
0.0
220
0.0
230
1.0
 70
     8
 71
     3
 72
    14
 73
    10
 74
     0
 42
0.000000001
 43
0.00000001
 40
0.0
 40
0.0
 40
0.0
 40
0.0
 40
0.25
 40
0.25
 40
0.5
 40
0.5
 40
0.75
 40
0.75
 40
1.0
 40
1.0
 40
1.0
 40
1.0
 10
118.8558513234233
 20
227.0787000783085
 30
0.0
 10
118.9527779995442
 20
227.0787000783085
 30
0.0
 10
119.0474859812478
 20
227.0502011864563
 30
0.0
 10
119.2071505661758
 20
226.946974404193
 30
0.0
 10
119.2715730133095
 20
226.8718276322471
 30
0.0
 10
119.3494215753096
 20
226.7017313457682
 30
0.0
 10
119.3639057294903
 20
226.6056148236036
 30
0.0
 10
119.3389676725072
 20
226.4191937264405
 30
0.0
 10
119.3002913359698
 20
226.3305011465233
 30
0.0
 10
119.2388735449828
 20
226.2573062734652
 30
0.0
  0
LINE
  5
1A8
330
1F
100
AcDbEntity
  8
0
  6
Continuous
 62
     7
370
    35
100
AcDbLine
 10
118.8558513234
 20
227.0787000783
 30
0.0
 11
111.6761112321
 21
227.0787000783
 31
0.0
  0
SPLINE
  5
1A9
330
1F
100
AcDbEntity
  8
0
  6
Continuous
 62
     7
370
    35
100
AcDbSpline
210
0.0
220
0.0
230
1.0
 70
     8
 71
     3
 72
     8
 73
     4
 74
     0
 42
0.000000001
 43
0.00000001
 40
0.0
 40
0.0
 40
0.0
 40
0.0
 40
1.0
 40
1.0
 40
1.0
 40
1.0
 10
111.2930890105362
 20
226.9000938831518
 30
0.0
 10
111.3865225586936
 20
227.0114436498371
 30
0.0
 10
111.5287558673661
 20
227.0787000783102
 30
0.0
 10
111.6761112320955
 20
227.0787000783103
 30
0.0
  0
SPLINE
  5
1AA
330
1F
100
AcDbEntity
  8
0
  6
Continuous
 62
     7
370
    35
100
AcDbSpline
210
0.0
220
0.0
230
1.0
 70
    24
 71
     3
 72
     8
 73
     4
 74
     0
 42
0.000000001
 43
0.00000001
 40
0.0
 40
0.0
 40
0.0
 40
0.0
 40
1.0
 40
1.0
 40
1.0
 40
1.0
 10
111.2930890105363
 20
226.9000938831518
 30
0.0
 10
108.3152417187403
 20
223.3512336749571
 30
0.0
 10
105.3353815889703
 20
219.7999746598755
 30
0.0
 10
102.3535004302074
 20
216.2463070762309
 30
0.0
  0
SPLINE
  5
1AB
330
1F
100
AcDbEntity
  8
0
  6
Continuous
 62
     7
370
    35
100
AcDbSpline
210
0.0
220
0.0
230
1.0
 70
    24
 71
     3
 72
     8
 73
     4
 74
     0
 42
0.000000001
 43
0.00000001
 40
0.0
 40
0.0
 40
0.0
 40
0.0
 40
1.0
 40
1.0
 40
1.0
 40
1.0
 10
92.76699924105623
 20
216.1609196357543
 30
0.0
 10
95.59271995078367
 20
219.5284824432398
 30
0.0
 10
98.41667585452807
 20
222.8939420368548
 30
0.0
 10
101.2388735449828
 20
226.2573062734652
 30
0.0
  0
SPLINE
  5
1AC
330
1F
100
AcDbEntity
  8
0
  6
Continuous
 62
     7
370
    35
100
AcDbSpline
210
0.0
220
0.0
230
1.0
 70
     8
 71
     3
 72
    14
 73
    10
 74
     0
 42
0.000000001
 43
0.00000001
 40
0.0
 40
0.0
 40
0.0
 40
0.0
 40
0.25
 40
0.25
 40
0.5
 40
0.5
 40
0.75
 40
0.75
 40
1.0
 40
1.0
 40
1.0
 40
1.0
 10
100.8558513234233
 20
227.0787000783085
 30
0.0
 10
100.9526303327215
 20
227.0787000783085
 30
0.0
 10
101.0472242202506
 20
227.0502905205806
 30
0.0
 10
101.2068200323134
 20
226.9472677061089
 30
0.0
 10
101.2713354233835
 20
226.8721814792844
 30
0.0
 10
101.3493536588916
 20
226.7020443725662
 30
0.0
 10
101.3639124382391
 20
226.6058708078075
 30
0.0
 10
101.3389993275229
 20
226.4192248417858
 30
0.0
 10
101.3002859299348
 20
226.3304947038616
 30
0.0
 10
101.2388735449828
 20
226.2573062734652
 30
0.0
  0
LINE
  5
1AD
330
1F
100
AcDbEntity
  8
0
  6
Continuous
 62
     7
370
    35
100
AcDbLine
 10
100.8558513234
 20
227.0787000783
 30
0.0
 11
93.6761112321
 21
227.0787000783
 31
0.0
  0
SPLINE
  5
1AE
330
1F
100
AcDbEntity
  8
0
  6
Continuous
 62
     7
370
    35
100
AcDbSpline
210
0.0
220
0.0
230
1.0
 70
     8
 71
     3
 72
     8
 73
     4
 74
     0
 42
0.000000001
 43
0.00000001
 40
0.0
 40
0.0
 40
0.0
 40
0.0
 40
1.0
 40
1.0
 40
1.0
 40
1.0
 10
93.29308901053624
 20
226.9000938831518
 30
0.0
 10
93.38660465700244
 20
227.0115414907916
 30
0.0
 10
93.52883318818431
 20
227.0787000783102
 30
0.0
 10
93.67611123209555
 20
227.0787000783102
 30
0.0
  0
SPLINE
  5
1AF
330
1F
100
AcDbEntity
  8
0
  6
Continuous
 62
     7
370
    35
100
AcDbSpline
210
0.0
220
0.0
230
1.0
 70
    24
 71
     3
 72
     8
 73
     4
 74
     0
 42
0.000000001
 43
0.00000001
 40
0.0
 40
0.0
 40
0.0
 40
0.0
 40
1.0
 40
1.0
 40
1.0
 40
1.0
 10
93.29308901053628
 20
226.9000938831518
 30
0.0
 10
90.26993908813364
 20
223.2972441021776
 30
0.0
 10
87.24482302975507
 20
219.6920511715905
 30
0.0
 10
84.21773313817324
 20
216.0845059181923
 30
0.0
  0
SPLINE
  5
1B0
330
1F
100
AcDbEntity
  8
0
  6
Continuous
 62
     7
370
    35
100
AcDbSpline
210
0.0
220
0.0
230
1.0
 70
    24
 71
     3
 72
     8
 73
     4
 74
     0
 42
0.000000001
 43
0.00000001
 40
0.0
 40
0.0
 40
0.0
 40
0.0
 40
1.0
 40
1.0
 40
1.0
 40
1.0
 10
74.63073510529863
 20
215.9985263624234
 30
0.0
 10
77.50183604903161
 20
219.4201712268178
 30
0.0
 10
80.3712134658418
 20
222.83976207181
 30
0.0
 10
83.23887354498277
 20
226.2573062734652
 30
0.0
  0
SPLINE
  5
1B1
330
1F
100
AcDbEntity
  8
0
  6
Continuous
 62
     7
370
    35
100
AcDbSpline
210
0.0
220
0.0
230
1.0
 70
     8
 71
     3
 72
    14
 73
    10
 74
     0
 42
0.000000001
 43
0.00000001
 40
0.0
 40
0.0
 40
0.0
 40
0.0
 40
0.25
 40
0.25
 40
0.5
 40
0.5
 40
0.75
 40
0.75
 40
1.0
 40
1.0
 40
1.0
 40
1.0
 10
82.8558513234233
 20
227.0787000783085
 30
0.0
 10
82.95248996037347
 20
227.0787000783085
 30
0.0
 10
83.04697521595034
 20
227.0503753720909
 30
0.0
 10
83.20650546367084
 20
226.9475463863918
 30
0.0
 10
83.27110839380114
 20
226.8725192132376
 30
0.0
 10
83.3492890370838
 20
226.702342066673
 30
0.0
 10
83.36391881207891
 20
226.6061151822844
 30
0.0
 10
83.33902940453692
 20
226.4192538400769
 30
0.0
 10
83.30028055092735
 20
226.3304882934102
 30
0.0
 10
83.23887354498277
 20
226.2573062734652
 30
0.0
  0
LINE
  5
1B2
330
1F
100
AcDbEntity
  8
0
  6
Continuous
 62
     7
370
    35
100
AcDbLine
 10
82.8558513234
 20
227.0787000783
 30
0.0
 11
75.6761112321
 21
227.0787000783
 31
0.0
  0
SPLINE
  5
1B3
330
1F
100
AcDbEntity
  8
0
  6
Continuous
 62
     7
370
    35
100
AcDbSpline
210
0.0
220
0.0
230
1.0
 70
     8
 71
     3
 72
     8
 73
     4
 74
     0
 42
0.000000001
 43
0.00000001
 40
0.0
 40
0.0
 40
0.0
 40
0.0
 40
1.0
 40
1.0
 40
1.0
 40
1.0
 10
75.29308901053624
 20
226.9000938831518
 30
0.0
 10
75.38668268089408
 20
227.0116344760448
 30
0.0
 10
75.52890620116342
 20
227.0787000783101
 30
0.0
 10
75.67611123209555
 20
227.0787000783101
 30
0.0
  0
SPLINE
  5
1B4
330
1F
100
AcDbEntity
  8
0
  6
Continuous
 62
     7
370
    35
100
AcDbSpline
210
0.0
220
0.0
230
1.0
 70
    24
 71
     3
 72
     8
 73
     4
 74
     0
 42
0.000000001
 43
0.00000001
 40
0.0
 40
0.0
 40
0.0
 40
0.0
 40
1.0
 40
1.0
 40
1.0
 40
1.0
 10
75.29308901053628
 20
226.9000938831518
 30
0.0
 10
72.22432031111839
 20
223.2428777607799
 30
0.0
 10
69.15363828968091
 20
219.5833814300174
 30
0.0
 10
66.0810357662933
 20
215.9215963341562
 30
0.0
  0
SPLINE
  5
1B5
330
1F
100
AcDbEntity
  8
0
  6
Continuous
 62
     7
370
    35
100
AcDbSpline
210
0.0
220
0.0
230
1.0
 70
    24
 71
     3
 72
     8
 73
     4
 74
     0
 42
0.000000001
 43
0.00000001
 40
0.0
 40
0.0
 40
0.0
 40
0.0
 40
1.0
 40
1.0
 40
1.0
 40
1.0
 10
56.49356317293844
 20
215.8350512192301
 30
0.0
 10
59.41034115787915
 20
219.3111318615828
 30
0.0
 10
62.32544269363171
 20
222.7852145895928
 30
0.0
 10
65.23887354498278
 20
226.2573062734652
 30
0.0
  0
SPLINE
  5
1B6
330
1F
100
AcDbEntity
  8
0
  6
Continuous
 62
     7
370
    35
100
AcDbSpline
210
0.0
220
0.0
230
1.0
 70
     8
 71
     3
 72
    14
 73
    10
 74
     0
 42
0.000000001
 43
0.00000001
 40
0.0
 40
0.0
 40
0.0
 40
0.0
 40
0.25
 40
0.25
 40
0.5
 40
0.5
 40
0.75
 40
0.75
 40
1.0
 40
1.0
 40
1.0
 40
1.0
 10
64.85585132342328
 20
227.0787000783085
 30
0.0
 10
64.9523569239921
 20
227.0787000783085
 30
0.0
 10
65.04673909018291
 20
227.0504557235573
 30
0.0
 10
65.2062070704579
 20
226.9478103312716
 30
0.0
 10
65.27089222147109
 20
226.8728404571028
 30
0.0
 10
65.34922777690599
 20
226.702624186691
 30
0.0
 10
65.36392485056217
 20
226.6063475584527
 30
0.0
 10
65.33905786392077
 20
226.4192807213968
 30
0.0
 10
65.3002752047865
 20
226.3304819221276
 30
0.0
 10
65.23887354498275
 20
226.2573062734652
 30
0.0
  0
LINE
  5
1B7
330
1F
100
AcDbEntity
  8
0
  6
Continuous
 62
     7
370
    35
100
AcDbLine
 10
64.8558513234
 20
227.0787000783
 30
0.0
 11
57.6761112321
 21
227.0787000783
 31
0.0
  0
SPLINE
  5
1B8
330
1F
100
AcDbEntity
  8
0
  6
Continuous
 62
     7
370
    35
100
AcDbSpline
210
0.0
220
0.0
230
1.0
 70
     8
 71
     3
 72
     8
 73
     4
 74
     0
 42
0.000000001
 43
0.00000001
 40
0.0
 40
0.0
 40
0.0
 40
0.0
 40
1.0
 40
1.0
 40
1.0
 40
1.0
 10
57.29308901053623
 20
226.9000938831518
 30
0.0
 10
57.3867565751472
 20
227.0117225397865
 30
0.0
 10
57.52897489915946
 20
227.07870007831
 30
0.0
 10
57.67611123209556
 20
227.07870007831
 30
0.0
  0
SPLINE
  5
1B9
330
1F
100
AcDbEntity
  8
0
  6
Continuous
 62
     7
370
    35
100
AcDbSpline
210
0.0
220
0.0
230
1.0
 70
    24
 71
     3
 72
     8
 73
     4
 74
     0
 42
0.000000001
 43
0.00000001
 40
0.0
 40
0.0
 40
0.0
 40
0.0
 40
1.0
 40
1.0
 40
1.0
 40
1.0
 10
57.29308901053627
 20
226.9000938831518
 30
0.0
 10
54.17839931601763
 20
223.1881512498931
 30
0.0
 10
51.06185547585669
 20
219.473998931904
 30
0.0
 10
47.94345084773536
 20
215.757629013178
 30
0.0
  0
LINE
  5
1BA
330
1F
100
AcDbEntity
  8
0
  6
Continuous
 62
     7
370
    35
100
AcDbLine
 10
27.1881362569
 20
231.3787000783
 30
0.0
 11
27.1881362569
 21
215.5687762702
 31
0.0
  0
LINE
  5
1BB
330
1F
100
AcDbEntity
  8
0
  6
Continuous
 62
     7
370
    35
100
AcDbLine
 10
121.9381362569
 20
232.8787000783
 30
0.0
 11
28.6881362569
 21
232.8787000783
 31
0.0
  0
SPLINE
  5
1BC
330
1F
100
AcDbEntity
  8
0
  6
Continuous
 62
     7
370
    35
100
AcDbSpline
210
0.0
220
0.0
230
1.0
 70
     8
 71
     3
 72
    18
 73
    14
 74
     0
 42
0.000000001
 43
0.00000001
 40
0.0
 40
0.0
 40
0.0
 40
0.0
 40
0.1249999999999993
 40
0.1249999999999993
 40
0.2499999999999986
 40
0.2499999999999986
 40
0.3749999999999978
 40
0.3749999999999978
 40
0.4999999999999971
 40
0.4999999999999971
 40
0.7499999999999986
 40
0.7499999999999986
 40
1.0
 40
1.0
 40
1.0
 40
1.0
 10
28.68813625686612
 20
232.8787000783085
 30
0.0
 10
28.58841642545366
 20
232.8787000783085
 30
0.0
 10
28.49039345617352
 20
232.8688550540023
 30
0.0
 10
28.29759866512166
 20
232.8303007314653
 30
0.0
 10
28.20179938464035
 20
232.801097808731
 30
0.0
 10
28.01963763321874
 20
232.7251206838322
 30
0.0
 10
27.93330807810553
 20
232.6786634272328
 30
0.0
 10
27.77005102888622
 20
232.5689898758631
 30
0.0
 10
27.6930703930259
 20
232.5053773005486
 30
0.0
 10
27.48633414918238
 20
232.2973415970444
 30
0.0
 10
27.37547383919779
 20
232.1301594368517
 30
0.0
 10
27.22730327121955
 20
231.770797997645
 30
0.0
 10
27.18813625686613
 20
231.5752985664852
 30
0.0
 10
27.18813625686611
 20
231.3787000783085
 30
0.0
  0
SPLINE
  5
1BD
330
1F
100
AcDbEntity
  8
0
  6
Continuous
 62
     7
370
    35
100
AcDbSpline
210
0.0
220
0.0
230
1.0
 70
    24
 71
     3
 72
     8
 73
     4
 74
     0
 42
0.000000001
 43
0.00000001
 40
0.0
 40
0.0
 40
0.0
 40
0.0
 40
0.0022861137951766
 40
0.0022861137951766
 40
0.0022861137951766
 40
0.0022861137951766
 10
121.9381362568661
 20
208.0225976410122
 30
0.0
 10
122.4213612077904
 20
208.5984827123073
 30
0.0
 10
122.9046412625723
 20
209.1744334538228
 30
0.0
 10
123.3879757757169
 20
209.7504490962876
 30
0.0
  0
SPLINE
  5
1BE
330
1F
100
AcDbEntity
  8
0
  6
Continuous
 62
     7
370
    35
100
AcDbSpline
210
0.0
220
0.0
230
1.0
 70
    24
 71
     3
 72
     8
 73
     4
 74
     0
 42
0.000000001
 43
0.00000001
 40
0.0
 40
0.0
 40
0.0
 40
0.0
 40
1.0
 40
1.0
 40
1.0
 40
1.0
 10
132.973958704694
 20
209.8352188983398
 30
0.0
 10
130.1933072536511
 20
206.5213675418072
 30
0.0
 10
127.4144563325788
 20
203.2096619733355
 30
0.0
 10
124.6373989687495
 20
199.9000938831518
 30
0.0
  0
SPLINE
  5
1BF
330
1F
100
AcDbEntity
  8
0
  6
Continuous
 62
     7
370
    35
100
AcDbSpline
210
0.0
220
0.0
230
1.0
 70
     8
 71
     3
 72
    14
 73
    10
 74
     0
 42
0.000000001
 43
0.00000001
 40
0.0
 40
0.0
 40
0.0
 40
0.0
 40
0.25
 40
0.25
 40
0.5
 40
0.5
 40
0.75
 40
0.75
 40
1.0
 40
1.0
 40
1.0
 40
1.0
 10
125.0204211903089
 20
199.0787000783085
 30
0.0
 10
124.923494514188
 20
199.0787000783085
 30
0.0
 10
124.8287865324844
 20
199.1071989701606
 30
0.0
 10
124.6691219475564
 20
199.210425752424
 30
0.0
 10
124.6046995004227
 20
199.2855725243699
 30
0.0
 10
124.5268509384226
 20
199.4556688108488
 30
0.0
 10
124.5123667842419
 20
199.5517853330134
 30
0.0
 10
124.537304841225
 20
199.7382064301765
 30
0.0
 10
124.5759811777624
 20
199.8268990100938
 30
0.0
 10
124.6373989687495
 20
199.9000938831518
 30
0.0
  0
LINE
  5
1C0
330
1F
100
AcDbEntity
  8
0
  6
Continuous
 62
     7
370
    35
100
AcDbLine
 10
125.0204211903
 20
199.0787000783
 30
0.0
 11
132.2001612816
 21
199.0787000783
 31
0.0
  0
SPLINE
  5
1C1
330
1F
100
AcDbEntity
  8
0
  6
Continuous
 62
     7
370
    35
100
AcDbSpline
210
0.0
220
0.0
230
1.0
 70
     8
 71
     3
 72
     8
 73
     4
 74
     0
 42
0.000000001
 43
0.00000001
 40
0.0
 40
0.0
 40
0.0
 40
0.0
 40
1.0
 40
1.0
 40
1.0
 40
1.0
 10
132.583183503196
 20
199.2573062734652
 30
0.0
 10
132.4897499550387
 20
199.1459565067799
 30
0.0
 10
132.3475166463661
 20
199.0787000783068
 30
0.0
 10
132.2001612816367
 20
199.0787000783067
 30
0.0
  0
SPLINE
  5
1C2
330
1F
100
AcDbEntity
  8
0
  6
Continuous
 62
     7
370
    35
100
AcDbSpline
210
0.0
220
0.0
230
1.0
 70
    24
 71
     3
 72
     8
 73
     4
 74
     0
 42
0.000000001
 43
0.00000001
 40
0.0
 40
0.0
 40
0.0
 40
0.0
 40
1.0
 40
1.0
 40
1.0
 40
1.0
 10
132.583183503196
 20
199.2573062734652
 30
0.0
 10
135.5610307949902
 20
202.8061664816578
 30
0.0
 10
138.5408909247584
 20
206.3574254967373
 30
0.0
 10
141.5227720835195
 20
209.9110930803798
 30
0.0
  0
SPLINE
  5
1C3
330
1F
100
AcDbEntity
  8
0
  6
Continuous
 62
     7
370
    35
100
AcDbSpline
210
0.0
220
0.0
230
1.0
 70
    24
 71
     3
 72
     8
 73
     4
 74
     0
 42
0.000000001
 43
0.00000001
 40
0.0
 40
0.0
 40
0.0
 40
0.0
 40
1.0
 40
1.0
 40
1.0
 40
1.0
 10
151.1092732726685
 20
209.9964805208538
 30
0.0
 10
148.2835525629436
 20
206.6289177133712
 30
0.0
 10
145.4595966592017
 20
203.2634581197592
 30
0.0
 10
142.6373989687494
 20
199.9000938831518
 30
0.0
  0
SPLINE
  5
1C4
330
1F
100
AcDbEntity
  8
0
  6
Continuous
 62
     7
370
    35
100
AcDbSpline
210
0.0
220
0.0
230
1.0
 70
     8
 71
     3
 72
    14
 73
    10
 74
     0
 42
0.000000001
 43
0.00000001
 40
0.0
 40
0.0
 40
0.0
 40
0.0
 40
0.25
 40
0.25
 40
0.5
 40
0.5
 40
0.75
 40
0.75
 40
1.0
 40
1.0
 40
1.0
 40
1.0
 10
143.020421190309
 20
199.0787000783085
 30
0.0
 10
142.9236421810107
 20
199.0787000783085
 30
0.0
 10
142.8290482934816
 20
199.1071096360365
 30
0.0
 10
142.6694524814188
 20
199.2101324505081
 30
0.0
 10
142.6049370903487
 20
199.2852186773326
 30
0.0
 10
142.5269188548407
 20
199.4553557840508
 30
0.0
 10
142.5123600754931
 20
199.5515293488095
 30
0.0
 10
142.5372731862093
 20
199.7381753148312
 30
0.0
 10
142.5759865837974
 20
199.8269054527554
 30
0.0
 10
142.6373989687494
 20
199.9000938831518
 30
0.0
  0
LINE
  5
1C5
330
1F
100
AcDbEntity
  8
0
  6
Continuous
 62
     7
370
    35
100
AcDbLine
 10
143.0204211903
 20
199.0787000783
 30
0.0
 11
150.2001612816
 21
199.0787000783
 31
0.0
  0
SPLINE
  5
1C6
330
1F
100
AcDbEntity
  8
0
  6
Continuous
 62
     7
370
    35
100
AcDbSpline
210
0.0
220
0.0
230
1.0
 70
     8
 71
     3
 72
     8
 73
     4
 74
     0
 42
0.000000001
 43
0.00000001
 40
0.0
 40
0.0
 40
0.0
 40
0.0
 40
1.0
 40
1.0
 40
1.0
 40
1.0
 10
150.583183503196
 20
199.2573062734652
 30
0.0
 10
150.4896678567298
 20
199.1458586658254
 30
0.0
 10
150.3474393255479
 20
199.0787000783069
 30
0.0
 10
150.2001612816367
 20
199.0787000783068
 30
0.0
  0
SPLINE
  5
1C7
330
1F
100
AcDbEntity
  8
0
  6
Continuous
 62
     7
370
    35
100
AcDbSpline
210
0.0
220
0.0
230
1.0
 70
    24
 71
     3
 72
     8
 73
     4
 74
     0
 42
0.000000001
 43
0.00000001
 40
0.0
 40
0.0
 40
0.0
 40
0.0
 40
1.0
 40
1.0
 40
1.0
 40
1.0
 10
150.5831835031959
 20
199.2573062734652
 30
0.0
 10
153.6063334255995
 20
202.8601560544405
 30
0.0
 10
156.631449483979
 20
206.4653489850287
 30
0.0
 10
159.6585393755618
 20
210.072894238428
 30
0.0
  0
SPLINE
  5
1C8
330
1F
100
AcDbEntity
  8
0
  6
Continuous
 62
     7
370
    35
100
AcDbSpline
210
0.0
220
0.0
230
1.0
 70
    24
 71
     3
 72
     8
 73
     4
 74
     0
 42
0.000000001
 43
0.00000001
 40
0.0
 40
0.0
 40
0.0
 40
0.0
 40
1.0
 40
1.0
 40
1.0
 40
1.0
 10
169.2455374084405
 20
210.1588737942018
 30
0.0
 10
166.3744364647052
 20
206.7372289298046
 30
0.0
 10
163.5050590478927
 20
203.3176380848097
 30
0.0
 10
160.6373989687495
 20
199.9000938831518
 30
0.0
  0
SPLINE
  5
1C9
330
1F
100
AcDbEntity
  8
0
  6
Continuous
 62
     7
370
    35
100
AcDbSpline
210
0.0
220
0.0
230
1.0
 70
     8
 71
     3
 72
    14
 73
    10
 74
     0
 42
0.000000001
 43
0.00000001
 40
0.0
 40
0.0
 40
0.0
 40
0.0
 40
0.25
 40
0.25
 40
0.5
 40
0.5
 40
0.75
 40
0.75
 40
1.0
 40
1.0
 40
1.0
 40
1.0
 10
161.0204211903089
 20
199.0787000783085
 30
0.0
 10
160.9237825533588
 20
199.0787000783085
 30
0.0
 10
160.8292972977819
 20
199.1070247845261
 30
0.0
 10
160.6697670500614
 20
199.2098537702252
 30
0.0
 10
160.6051641199311
 20
199.2848809433794
 30
0.0
 10
160.5269834766484
 20
199.4550580899439
 30
0.0
 10
160.5123537016533
 20
199.5512849743326
 30
0.0
 10
160.5372431091953
 20
199.7381463165401
 30
0.0
 10
160.5759919628049
 20
199.8269118632069
 30
0.0
 10
160.6373989687495
 20
199.9000938831518
 30
0.0
  0
LINE
  5
1CA
330
1F
100
AcDbEntity
  8
0
  6
Continuous
 62
     7
370
    35
100
AcDbLine
 10
161.0204211903
 20
199.0787000783
 30
0.0
 11
168.2001612816
 21
199.0787000783
 31
0.0
  0
SPLINE
  5
1CB
330
1F
100
AcDbEntity
  8
0
  6
Continuous
 62
     7
370
    35
100
AcDbSpline
210
0.0
220
0.0
230
1.0
 70
     8
 71
     3
 72
     8
 73
     4
 74
     0
 42
0.000000001
 43
0.00000001
 40
0.0
 40
0.0
 40
0.0
 40
0.0
 40
1.0
 40
1.0
 40
1.0
 40
1.0
 10
168.583183503196
 20
199.2573062734652
 30
0.0
 10
168.4895898328381
 20
199.1457656805722
 30
0.0
 10
168.3473663125688
 20
199.078700078307
 30
0.0
 10
168.2001612816367
 20
199.0787000783069
 30
0.0
  0
SPLINE
  5
1CC
330
1F
100
AcDbEntity
  8
0
  6
Continuous
 62
     7
370
    35
100
AcDbSpline
210
0.0
220
0.0
230
1.0
 70
    24
 71
     3
 72
     8
 73
     4
 74
     0
 42
0.000000001
 43
0.00000001
 40
0.0
 40
0.0
 40
0.0
 40
0.0
 40
1.0
 40
1.0
 40
1.0
 40
1.0
 10
168.583183503196
 20
199.2573062734652
 30
0.0
 10
171.6519522026126
 20
202.9145223958356
 30
0.0
 10
174.7226342240488
 20
206.5740187265966
 30
0.0
 10
177.7952367474352
 20
210.2358038224563
 30
0.0
  0
SPLINE
  5
1CD
330
1F
100
AcDbEntity
  8
0
  6
Continuous
 62
     7
370
    35
100
AcDbSpline
210
0.0
220
0.0
230
1.0
 70
    24
 71
     3
 72
     8
 73
     4
 74
     0
 42
0.000000001
 43
0.00000001
 40
0.0
 40
0.0
 40
0.0
 40
0.0
 40
1.0
 40
1.0
 40
1.0
 40
1.0
 10
187.3827093407938
 20
210.3223489373869
 30
0.0
 10
184.4659313558531
 20
206.8462682950342
 30
0.0
 10
181.5508298201005
 20
203.3721855670242
 30
0.0
 10
178.6373989687494
 20
199.9000938831518
 30
0.0
  0
SPLINE
  5
1CE
330
1F
100
AcDbEntity
  8
0
  6
Continuous
 62
     7
370
    35
100
AcDbSpline
210
0.0
220
0.0
230
1.0
 70
     8
 71
     3
 72
    14
 73
    10
 74
     0
 42
0.000000001
 43
0.00000001
 40
0.0
 40
0.0
 40
0.0
 40
0.0
 40
0.25
 40
0.25
 40
0.5
 40
0.5
 40
0.75
 40
0.75
 40
1.0
 40
1.0
 40
1.0
 40
1.0
 10
179.0204211903089
 20
199.0787000783085
 30
0.0
 10
178.9239155897401
 20
199.0787000783085
 30
0.0
 10
178.8295334235493
 20
199.1069444330597
 30
0.0
 10
178.6700654432744
 20
199.2095898253454
 30
0.0
 10
178.6053802922611
 20
199.2845596995143
 30
0.0
 10
178.5270447368262
 20
199.454775969926
 30
0.0
 10
178.51234766317
 20
199.5510525981643
 30
0.0
 10
178.5372146498115
 20
199.7381194352202
 30
0.0
 10
178.5759973089457
 20
199.8269182344894
 30
0.0
 10
178.6373989687494
 20
199.9000938831518
 30
0.0
  0
LINE
  5
1CF
330
1F
100
AcDbEntity
  8
0
  6
Continuous
 62
     7
370
    35
100
AcDbLine
 10
179.0204211903
 20
199.0787000783
 30
0.0
 11
186.2001612816
 21
199.0787000783
 31
0.0
  0
SPLINE
  5
1D0
330
1F
100
AcDbEntity
  8
0
  6
Continuous
 62
     7
370
    35
100
AcDbSpline
210
0.0
220
0.0
230
1.0
 70
     8
 71
     3
 72
     8
 73
     4
 74
     0
 42
0.000000001
 43
0.00000001
 40
0.0
 40
0.0
 40
0.0
 40
0.0
 40
1.0
 40
1.0
 40
1.0
 40
1.0
 10
186.583183503196
 20
199.2573062734652
 30
0.0
 10
186.489515938585
 20
199.1456776168305
 30
0.0
 10
186.3472976145727
 20
199.078700078307
 30
0.0
 10
186.2001612816367
 20
199.078700078307
 30
0.0
  0
SPLINE
  5
1D1
330
1F
100
AcDbEntity
  8
0
  6
Continuous
 62
     7
370
    35
100
AcDbSpline
210
0.0
220
0.0
230
1.0
 70
    24
 71
     3
 72
     8
 73
     4
 74
     0
 42
0.000000001
 43
0.00000001
 40
0.0
 40
0.0
 40
0.0
 40
0.0
 40
1.0
 40
1.0
 40
1.0
 40
1.0
 10
186.583183503196
 20
199.2573062734652
 30
0.0
 10
189.6978731977129
 20
202.9692489067218
 30
0.0
 10
192.8144170378721
 20
206.6834012247089
 30
0.0
 10
195.9328216659916
 20
210.3997711434327
 30
0.0
  0
LINE
  5
1D2
330
1F
100
AcDbEntity
  8
0
  6
Continuous
 62
     7
370
    35
100
AcDbLine
 10
216.6881362569
 20
194.7787000783
 30
0.0
 11
216.6881362569
 21
210.5886238864
 31
0.0
  0
SPLINE
  5
1D3
330
1F
100
AcDbEntity
  8
0
  6
Continuous
 62
     7
370
    35
100
AcDbSpline
210
0.0
220
0.0
230
1.0
 70
     8
 71
     3
 72
    18
 73
    14
 74
     0
 42
0.000000001
 43
0.00000001
 40
0.0
 40
0.0
 40
0.0
 40
0.0
 40
0.125
 40
0.125
 40
0.2499999999999999
 40
0.2499999999999999
 40
0.3749999999999999
 40
0.3749999999999999
 40
0.4999999999999999
 40
0.4999999999999999
 40
0.7499999999999999
 40
0.7499999999999999
 40
1.0
 40
1.0
 40
1.0
 40
1.0
 10
215.1881362568661
 20
193.2787000783085
 30
0.0
 10
215.2878560882786
 20
193.2787000783085
 30
0.0
 10
215.3858790575587
 20
193.2885451026147
 30
0.0
 10
215.5786738486106
 20
193.3270994251517
 30
0.0
 10
215.6744731290918
 20
193.356302347886
 30
0.0
 10
215.8566348805134
 20
193.4322794727848
 30
0.0
 10
215.9429644356267
 20
193.4787367293842
 30
0.0
 10
216.106221484846
 20
193.5884102807539
 30
0.0
 10
216.1832021207063
 20
193.6520228560684
 30
0.0
 10
216.3899383645498
 20
193.8600585595726
 30
0.0
 10
216.5007986745344
 20
194.0272407197653
 30
0.0
 10
216.6489692425126
 20
194.386602158972
 30
0.0
 10
216.6881362568662
 20
194.5821015901318
 30
0.0
 10
216.6881362568661
 20
194.7787000783085
 30
0.0
  0
LINE
  5
1D4
330
1F
100
AcDbEntity
  8
0
  6
Continuous
 62
     7
370
    35
100
AcDbLine
 10
121.9381362569
 20
193.2787000783
 30
0.0
 11
215.1881362569
 21
193.2787000783
 31
0.0
  0
SPLINE
  5
1D5
330
1F
100
AcDbEntity
  8
0
  6
Continuous
 62
     7
370
    35
100
AcDbSpline
210
0.0
220
0.0
230
1.0
 70
     8
 71
     3
 72
    46
 73
    42
 74
     0
 42
0.000000001
 43
0.00000001
 40
0.0
 40
0.0
 40
0.0
 40
0.0
 40
0.0625000000000003
 40
0.0625000000000003
 40
0.1250000000000006
 40
0.1250000000000006
 40
0.2500000000000011
 40
0.2500000000000011
 40
0.2812500000000013
 40
0.2812500000000013
 40
0.3125000000000015
 40
0.3125000000000015
 40
0.3750000000000016
 40
0.3750000000000016
 40
0.4375000000000017
 40
0.4375000000000017
 40
0.5000000000000018
 40
0.5000000000000018
 40
0.5312500000000019
 40
0.5312500000000019
 40
0.5625000000000019
 40
0.5625000000000019
 40
0.593750000000002
 40
0.593750000000002
 40
0.625000000000002
 40
0.625000000000002
 40
0.6875000000000021
 40
0.6875000000000021
 40
0.7500000000000023
 40
0.7500000000000023
 40
0.8125000000000024
 40
0.8125000000000024
 40
0.8437500000000026
 40
0.8437500000000026
 40
0.8750000000000026
 40
0.8750000000000026
 40
0.9062500000000026
 40
0.9062500000000026
 40
0.9375000000000026
 40
0.9375000000000026
 40
1.0
 40
1.0
 40
1.0
 40
1.0
 10
206.4093901954647
 20
200.8131005705975
 30
0.0
 10
206.2447625919072
 20
201.0163987301178
 30
0.0
 10
206.0528253433235
 20
201.1895235183879
 30
0.0
 10
205.6162740112583
 20
201.4775737594654
 30
0.0
 10
205.3783002321268
 20
201.5872545706846
 30
0.0
 10
204.6232999699687
 20
201.8003825208556
 30
0.0
 10
204.0730544543182
 20
201.78088961432
 30
0.0
 10
203.4597344058924
 20
201.5614313349618
 30
0.0
 10
203.338993730581
 20
201.5072962426737
 30
0.0
 10
203.1091337817411
 20
201.3819528504773
 30
0.0
 10
203.0002105435601
 20
201.3111023131556
 30
0.0
 10
202.6909012137939
 20
201.0747778848907
 30
0.0
 10
202.5070578637703
 20
200.8833252509788
 30
0.0
 10
202.2110105399922
 20
200.4606897808064
 30
0.0
 10
202.0950159374178
 20
200.2232434519266
 30
0.0
 10
201.9405831690322
 20
199.7326243353461
 30
0.0
 10
201.8998597209841
 20
199.4726048524227
 30
0.0
 10
201.8998936436461
 20
199.087620418972
 30
0.0
 10
201.9099901126323
 20
198.9598511682443
 30
0.0
 10
201.9495915453514
 20
198.70538576684
 30
0.0
 10
201.9794529978876
 20
198.5779590724835
 30
0.0
 10
202.056831105168
 20
198.3320418111994
 30
0.0
 10
202.1043732280335
 20
198.2126748395855
 30
0.0
 10
202.2174258314209
 20
197.9812288514415
 30
0.0
 10
202.2836349372876
 20
197.8682025615795
 30
0.0
 10
202.5067391232295
 20
197.5491927097871
 30
0.0
 10
202.6860609408489
 20
197.3632745554829
 30
0.0
 10
203.1022804406259
 20
197.0441161728598
 30
0.0
 10
203.3291095877842
 20
196.9184936933481
 30
0.0
 10
203.8229895561745
 20
196.7402239294593
 30
0.0
 10
204.0810741886786
 20
196.6913472768149
 30
0.0
 10
204.4740893591003
 20
196.676732280264
 30
0.0
 10
204.606725762023
 20
196.6819298444236
 30
0.0
 10
204.8659599807964
 20
196.7121169810337
 30
0.0
 10
204.9937284374762
 20
196.7370053960098
 30
0.0
 10
205.2454057212195
 20
196.8072338294324
 30
0.0
 10
205.3701469810779
 20
196.8528375971922
 30
0.0
 10
205.6077013857368
 20
196.9611686466181
 30
0.0
 10
205.7214124631387
 20
197.0240147258932
 30
0.0
 10
206.0475725118126
 20
197.2382106543229
 30
0.0
 10
206.2445099205851
 20
197.415689403402
 30
0.0
 10
206.4093901954647
 20
197.6192995860195
 30
0.0
  0
SPLINE
  5
1D6
330
1F
100
AcDbEntity
  8
0
  6
Continuous
 62
     7
370
    35
100
AcDbSpline
210
0.0
220
0.0
230
1.0
 70
    24
 71
     3
 72
     8
 73
     4
 74
     0
 42
0.000000001
 43
0.00000001
 40
0.0
 40
0.0
 40
0.0
 40
0.0
 40
0.0009123561676826
 40
0.0009123561676826
 40
0.0009123561676826
 40
0.0009123561676826
 10
206.4093901954647
 20
197.6192995860195
 30
0.0
 10
206.1746197844596
 20
197.8094129163181
 30
0.0
 10
205.9398569243374
 20
197.9995201320322
 30
0.0
 10
205.7051016678942
 20
198.1896211904085
 30
0.0
  0
SPLINE
  5
1D7
330
1F
100
AcDbEntity
  8
0
  6
Continuous
 62
     7
370
    35
100
AcDbSpline
210
0.0
220
0.0
230
1.0
 70
     8
 71
     3
 72
    50
 73
    46
 74
     0
 42
0.000000001
 43
0.00000001
 40
0.0
 40
0.0
 40
0.0
 40
0.0
 40
0.0683750879207133
 40
0.0683750879207133
 40
0.0683750879207133
 40
0.1367995471464239
 40
0.1367995471464239
 40
0.1367995471464239
 40
0.2045211055367213
 40
0.2045211055367213
 40
0.2045211055367213
 40
0.2716725817807917
 40
0.2716725817807917
 40
0.2716725817807917
 40
0.3389111364013747
 40
0.3389111364013747
 40
0.3389111364013747
 40
0.4068557595325603
 40
0.4068557595325603
 40
0.4068557595325603
 40
0.4758331408698622
 40
0.4758331408698622
 40
0.4758331408698622
 40
0.5457295526913573
 40
0.5457295526913573
 40
0.5457295526913573
 40
0.6160116320941956
 40
0.6160116320941956
 40
0.6160116320941956
 40
0.6859491956930839
 40
0.6859491956930839
 40
0.6859491956930839
 40
0.7549656376671661
 40
0.7549656376671661
 40
0.7549656376671661
 40
0.8229215883189812
 40
0.8229215883189812
 40
0.8229215883189812
 40
0.8901601156744884
 40
0.8901601156744884
 40
0.8901601156744884
 40
0.957316749512761
 40
0.957316749512761
 40
0.957316749512761
 40
1.0
 40
1.0
 40
1.0
 40
1.0
 10
205.7051016678943
 20
200.2427789662086
 30
0.0
 10
205.5909412325079
 20
200.3837553632559
 30
0.0
 10
205.4507334710469
 20
200.5074521365671
 30
0.0
 10
205.2957037349473
 20
200.6033773950813
 30
0.0
 10
205.1406069312265
 20
200.6993441519497
 30
0.0
 10
204.9663455642283
 20
200.7701307036412
 30
0.0
 10
204.7875121072112
 20
200.8094312898388
 30
0.0
 10
204.6104905151297
 20
200.8483336991222
 30
0.0
 10
204.4240609437449
 20
200.8574551270971
 30
0.0
 10
204.2439056111752
 20
200.8359356512687
 30
0.0
 10
204.0652179141968
 20
200.814591483871
 30
0.0
 10
203.8877862803725
 20
200.7625373960641
 30
0.0
 10
203.7261983191005
 20
200.6842579388265
 30
0.0
 10
203.564374216517
 20
200.6058640856058
 30
0.0
 10
203.414027479704
 20
200.4990713226869
 30
0.0
 10
203.28711289833
 20
200.3728576871351
 30
0.0
 10
203.1588667870098
 20
200.2453198756412
 30
0.0
 10
203.0510564361382
 20
200.0945321504033
 30
0.0
 10
202.9719889760363
 20
199.9328582360408
 30
0.0
 10
202.8917337910076
 20
199.7687557102385
 30
0.0
 10
202.8388968462386
 20
199.5889993755979
 30
0.0
 10
202.8174674464562
 20
199.4081697909825
 30
0.0
 10
202.7957584512421
 20
199.2249808717025
 30
0.0
 10
202.8056906071603
 20
199.035669442414
 30
0.0
 10
202.8464541394095
 20
198.8557502312905
 30
0.0
 10
202.8874320976277
 20
198.6748846019087
 30
0.0
 10
202.9607350707559
 20
198.498487467417
 30
0.0
 10
203.0605158490241
 20
198.3414342305681
 30
0.0
 10
203.1597958148686
 20
198.1851692639007
 30
0.0
 10
203.288116374531
 20
198.0436842630795
 30
0.0
 10
203.4349195356938
 20
197.92932598499
 30
0.0
 10
203.5798017540976
 20
197.8164641031939
 30
0.0
 10
203.7467902224685
 20
197.7268723386121
 30
0.0
 10
203.9218274914629
 20
197.6685632400747
 30
0.0
 10
204.0942183946605
 20
197.611135709245
 30
0.0
 10
204.2792407033046
 20
197.5824575176181
 30
0.0
 10
204.4612842309816
 20
197.5851251992583
 30
0.0
 10
204.6414579597329
 20
197.587765480703
 30
0.0
 10
204.8236863082813
 20
197.6211682788902
 30
0.0
 10
204.9928775956342
 20
197.6824460043698
 30
0.0
 10
205.1618960133133
 20
197.7436611198855
 30
0.0
 10
205.3225208653419
 20
197.83433070673
 30
0.0
 10
205.4618511733245
 20
197.9467749613684
 30
0.0
 10
205.5511511754107
 20
198.0188430728883
 30
0.0
 10
205.6331120226457
 20
198.100721382191
 30
0.0
 10
205.7051016678943
 20
198.1896211904084
 30
0.0
  0
SPLINE
  5
1D8
330
1F
100
AcDbEntity
  8
0
  6
Continuous
 62
     7
370
    35
100
AcDbSpline
210
0.0
220
0.0
230
1.0
 70
    24
 71
     3
 72
     8
 73
     4
 74
     0
 42
0.000000001
 43
0.00000001
 40
0.0
 40
0.0
 40
0.0
 40
0.0
 40
0.0009110283802023
 40
0.0009110283802023
 40
0.0009110283802023
 40
0.0009110283802023
 10
205.7051016678943
 20
200.2427789662086
 30
0.0
 10
205.9398577814125
 20
200.4328807186305
 30
0.0
 10
206.1746206417448
 20
200.6229879345148
 30
0.0
 10
206.4093901954647
 20
200.8131005705974
 30
0.0
  0
LINE
  5
1D9
330
1F
100
AcDbEntity
  8
0
  6
Continuous
 62
     7
370
    35
100
AcDbLine
 10
200.1018862569
 20
196.8237000783
 30
0.0
 11
199.2681362569
 21
196.8237000783
 31
0.0
  0
SPLINE
  5
1DA
330
1F
100
AcDbEntity
  8
0
  6
Continuous
 62
     7
370
    35
100
AcDbSpline
210
0.0
220
0.0
230
1.0
 70
     8
 71
     3
 72
    14
 73
    10
 74
     0
 42
0.000000001
 43
0.00000001
 40
0.0
 40
0.0
 40
0.0
 40
0.0
 40
0.25
 40
0.25
 40
0.5
 40
0.5
 40
0.75
 40
0.75
 40
1.0
 40
1.0
 40
1.0
 40
1.0
 10
200.1018862568662
 20
196.8237000783085
 30
0.0
 10
200.1110790364746
 20
197.298217953397
 30
0.0
 10
200.0638009878263
 20
197.7669879279173
 30
0.0
 10
199.8602776398009
 20
198.6933857862066
 30
0.0
 10
199.7066999604033
 20
199.1379266496062
 30
0.0
 10
199.3025698320333
 20
199.9852066129311
 30
0.0
 10
199.0476961023907
 20
200.3927519526753
 30
0.0
 10
198.4588604217292
 20
201.1280631863804
 30
0.0
 10
198.1240910455534
 20
201.4601400056691
 30
0.0
 10
197.7456362568661
 20
201.7537000783085
 30
0.0
  0
SPLINE
  5
1DB
330
1F
100
AcDbEntity
  8
0
  6
Continuous
 62
     7
370
    35
100
AcDbSpline
210
0.0
220
0.0
230
1.0
 70
     8
 71
     3
 72
    14
 73
    10
 74
     0
 42
0.000000001
 43
0.00000001
 40
0.0
 40
0.0
 40
0.0
 40
0.0
 40
0.25
 40
0.25
 40
0.5
 40
0.5
 40
0.75
 40
0.75
 40
1.0
 40
1.0
 40
1.0
 40
1.0
 10
197.7456362568661
 20
201.7537000783085
 30
0.0
 10
197.3668898745931
 20
201.4599138221545
 30
0.0
 10
197.0296690413903
 20
201.1257908588176
 30
0.0
 10
196.4346624809537
 20
200.3803866763259
 30
0.0
 10
196.1856460580599
 20
199.9797821424145
 30
0.0
 10
195.782274105199
 20
199.1317949057183
 30
0.0
 10
195.6270191658128
 20
198.6783522892651
 30
0.0
 10
195.4274239908241
 20
197.7631026159083
 30
0.0
 10
195.3802049476916
 20
197.2976258663245
 30
0.0
 10
195.3893862568661
 20
196.8237000783085
 30
0.0
  0
LINE
  5
1DC
330
1F
100
AcDbEntity
  8
0
  6
Continuous
 62
     7
370
    35
100
AcDbLine
 10
196.2231362569
 20
196.8237000783
 30
0.0
 11
195.3893862569
 21
196.8237000783
 31
0.0
  0
SPLINE
  5
1DD
330
1F
100
AcDbEntity
  8
0
  6
Continuous
 62
     7
370
    35
100
AcDbSpline
210
0.0
220
0.0
230
1.0
 70
     8
 71
     3
 72
     8
 73
     4
 74
     0
 42
0.000000001
 43
0.00000001
 40
0.0
 40
0.0
 40
0.0
 40
0.0
 40
1.0
 40
1.0
 40
1.0
 40
1.0
 10
196.2231362568661
 20
196.8237000783085
 30
0.0
 10
196.2296456991669
 20
197.0426817305309
 30
0.0
 10
196.2538849921665
 20
197.2609614632588
 30
0.0
 10
196.2956362568661
 20
197.4762000783085
 30
0.0
  0
LINE
  5
1DE
330
1F
100
AcDbEntity
  8
0
  6
Continuous
 62
     7
370
    35
100
AcDbLine
 10
199.1956362569
 20
197.4762000783
 30
0.0
 11
196.2956362569
 21
197.4762000783
 31
0.0
  0
SPLINE
  5
1DF
330
1F
100
AcDbEntity
  8
0
  6
Continuous
 62
     7
370
    35
100
AcDbSpline
210
0.0
220
0.0
230
1.0
 70
     8
 71
     3
 72
     8
 73
     4
 74
     0
 42
0.000000001
 43
0.00000001
 40
0.0
 40
0.0
 40
0.0
 40
0.0
 40
1.0
 40
1.0
 40
1.0
 40
1.0
 10
199.1956362568661
 20
197.4762000783085
 30
0.0
 10
199.2373778079469
 20
197.261011539487
 30
0.0
 10
199.2616253690348
 20
197.0427303590704
 30
0.0
 10
199.2681362568661
 20
196.8237000783085
 30
0.0
  0
SPLINE
  5
1E0
330
1F
100
AcDbEntity
  8
0
  6
Continuous
 62
     7
370
    35
100
AcDbSpline
210
0.0
220
0.0
230
1.0
 70
    11
 71
     3
 72
    62
 73
    58
 74
     0
 42
0.000000001
 43
0.00000001
 40
0.0
 40
0.0
 40
0.0
 40
0.0
 40
0.0312499999999998
 40
0.0312499999999998
 40
0.0624999999999996
 40
0.0624999999999996
 40
0.0937499999999994
 40
0.0937499999999994
 40
0.1249999999999992
 40
0.1249999999999992
 40
0.187499999999999
 40
0.187499999999999
 40
0.2187499999999991
 40
0.2187499999999991
 40
0.2499999999999992
 40
0.2499999999999992
 40
0.2812499999999992
 40
0.2812499999999992
 40
0.3124999999999993
 40
0.3124999999999993
 40
0.3437499999999994
 40
0.3437499999999994
 40
0.3749999999999994
 40
0.3749999999999994
 40
0.4062499999999996
 40
0.4062499999999996
 40
0.4374999999999996
 40
0.4374999999999996
 40
0.4687499999999997
 40
0.4687499999999997
 40
0.4999999999999998
 40
0.4999999999999998
 40
0.5312499999999998
 40
0.5312499999999998
 40
0.5624999999999998
 40
0.5624999999999998
 40
0.5937499999999999
 40
0.5937499999999999
 40
0.6249999999999999
 40
0.6249999999999999
 40
0.6562499999999999
 40
0.6562499999999999
 40
0.6874999999999999
 40
0.6874999999999999
 40
0.7187499999999999
 40
0.7187499999999999
 40
0.7499999999999999
 40
0.7499999999999999
 40
0.78125
 40
0.78125
 40
0.8125
 40
0.8125
 40
0.84375
 40
0.84375
 40
0.875
 40
0.875
 40
1.0
 40
1.0
 40
1.0
 40
1.0
 10
210.6506362568661
 20
201.7537000783085
 30
0.0
 10
210.4816901111012
 20
201.7537000783085
 30
0.0
 10
210.3157734954145
 20
201.7363572202744
 30
0.0
 10
209.9894947982593
 20
201.6698773796602
 30
0.0
 10
209.8274445098695
 20
201.6199266564897
 30
0.0
 10
209.518934401691
 20
201.4909741976549
 30
0.0
 10
209.3725295966905
 20
201.4124910887229
 30
0.0
 10
209.0955228165868
 20
201.2273309645174
 30
0.0
 10
208.9647913436571
 20
201.1199298953882
 30
0.0
 10
208.6154402752812
 20
200.7674475522714
 30
0.0
 10
208.429573211412
 20
200.4833763469406
 30
0.0
 10
208.2421163962983
 20
200.0265572109139
 30
0.0
 10
208.1937622761271
 20
199.8668410114975
 30
0.0
 10
208.129253973498
 20
199.5424151558547
 30
0.0
 10
208.1130653763732
 20
199.3792209811962
 30
0.0
 10
208.1132077359668
 20
199.050841325234
 30
0.0
 10
208.130085247638
 20
198.884061383064
 30
0.0
 10
208.1949773241001
 20
198.561274008492
 30
0.0
 10
208.2426750182059
 20
198.4041407921998
 30
0.0
 10
208.3685150849995
 20
198.0983746399611
 30
0.0
 10
208.4468419003716
 20
197.9503769906048
 30
0.0
 10
208.6282545146366
 20
197.6756475728054
 30
0.0
 10
208.7319365479531
 20
197.547241150025
 30
0.0
 10
208.9675085461879
 20
197.3099019119664
 30
0.0
 10
209.0965027512493
 20
197.2046945141233
 30
0.0
 10
209.3720057238039
 20
197.0210545721054
 30
0.0
 10
209.5204779991938
 20
196.9415929288883
 30
0.0
 10
209.8293244687981
 20
196.8127481128077
 30
0.0
 10
209.98816764095
 20
196.7636280908149
 30
0.0
 10
210.3148260962114
 20
196.6964556424388
 30
0.0
 10
210.4842044425938
 20
196.67868760609
 30
0.0
 10
210.8174885680163
 20
196.6787125706551
 30
0.0
 10
210.9829316325558
 20
196.6956748271844
 30
0.0
 10
211.3114928238969
 20
196.7624682700145
 30
0.0
 10
211.4729037280941
 20
196.8123056308897
 30
0.0
 10
211.7799091415589
 20
196.9403220540285
 30
0.0
 10
211.9281880436612
 20
197.0195295963634
 30
0.0
 10
212.206415714104
 20
197.2054893921568
 30
0.0
 10
212.3343425757254
 20
197.3105841121295
 30
0.0
 10
212.5675287826316
 20
197.5453216913714
 30
0.0
 10
212.6737047461741
 20
197.6764331294553
 30
0.0
 10
212.8558694473694
 20
197.9528553920636
 30
0.0
 10
212.9327962929346
 20
198.0986102561019
 30
0.0
 10
213.0587445746528
 20
198.404988695044
 30
0.0
 10
213.1070945319786
 20
198.5649688553863
 30
0.0
 10
213.1714586232977
 20
198.8869874063735
 30
0.0
 10
213.1881783334315
 20
199.0505612227792
 30
0.0
 10
213.1880939303592
 20
199.3832638097068
 30
0.0
 10
213.1709973839279
 20
199.5469180175985
 30
0.0
 10
213.1060457213868
 20
199.8685855994971
 30
0.0
 10
213.0575108237912
 20
200.0282160925019
 30
0.0
 10
212.9315243707019
 20
200.3342295618873
 30
0.0
 10
212.8548190653716
 20
200.4797346377747
 30
0.0
 10
212.6735941008013
 20
200.7555252943808
 30
0.0
 10
212.5677682136923
 20
200.8867747059759
 30
0.0
 10
211.9855345490372
 20
201.4731953955804
 30
0.0
 10
211.3264208399255
 20
201.7537000783085
 30
0.0
 10
210.6506362568661
 20
201.7537000783085
 30
0.0
  0
SPLINE
  5
1E1
330
1F
100
AcDbEntity
  8
0
  6
Continuous
 62
     7
370
    35
100
AcDbSpline
210
0.0
220
0.0
230
1.0
 70
     8
 71
     3
 72
    50
 73
    46
 74
     0
 42
0.000000001
 43
0.00000001
 40
0.0
 40
0.0
 40
0.0
 40
0.0
 40
0.042683250487239
 40
0.042683250487239
 40
0.042683250487239
 40
0.1098398843255116
 40
0.1098398843255116
 40
0.1098398843255116
 40
0.1770784116810188
 40
0.1770784116810188
 40
0.1770784116810188
 40
0.2450343623328339
 40
0.2450343623328339
 40
0.2450343623328339
 40
0.3140508043069161
 40
0.3140508043069161
 40
0.3140508043069161
 40
0.3839883679058044
 40
0.3839883679058044
 40
0.3839883679058044
 40
0.4542704473086427
 40
0.4542704473086427
 40
0.4542704473086427
 40
0.5241668591301378
 40
0.5241668591301378
 40
0.5241668591301378
 40
0.5931442404674397
 40
0.5931442404674397
 40
0.5931442404674397
 40
0.6610888635986254
 40
0.6610888635986254
 40
0.6610888635986254
 40
0.7283274182192083
 40
0.7283274182192083
 40
0.7283274182192083
 40
0.7954788944632787
 40
0.7954788944632787
 40
0.7954788944632787
 40
0.863200452853576
 40
0.863200452853576
 40
0.863200452853576
 40
0.9316249120792868
 40
0.9316249120792868
 40
0.9316249120792868
 40
1.0
 40
1.0
 40
1.0
 40
1.0
 10
205.7051016678943
 20
198.1896211904084
 30
0.0
 10
205.6331120226457
 20
198.100721382191
 30
0.0
 10
205.5511511754107
 20
198.0188430728883
 30
0.0
 10
205.4618511733245
 20
197.9467749613684
 30
0.0
 10
205.3225208653419
 20
197.83433070673
 30
0.0
 10
205.1618960133133
 20
197.7436611198855
 30
0.0
 10
204.9928775956342
 20
197.6824460043698
 30
0.0
 10
204.8236863082813
 20
197.6211682788902
 30
0.0
 10
204.6414579597329
 20
197.587765480703
 30
0.0
 10
204.4612842309816
 20
197.5851251992583
 30
0.0
 10
204.2792407033046
 20
197.5824575176181
 30
0.0
 10
204.0942183946605
 20
197.611135709245
 30
0.0
 10
203.9218274914629
 20
197.6685632400747
 30
0.0
 10
203.7467902224685
 20
197.7268723386121
 30
0.0
 10
203.5798017540976
 20
197.8164641031939
 30
0.0
 10
203.4349195356938
 20
197.92932598499
 30
0.0
 10
203.288116374531
 20
198.0436842630795
 30
0.0
 10
203.1597958148686
 20
198.1851692639007
 30
0.0
 10
203.0605158490241
 20
198.3414342305681
 30
0.0
 10
202.9607350707559
 20
198.498487467417
 30
0.0
 10
202.8874320976277
 20
198.6748846019087
 30
0.0
 10
202.8464541394095
 20
198.8557502312905
 30
0.0
 10
202.8056906071603
 20
199.035669442414
 30
0.0
 10
202.7957584512421
 20
199.2249808717025
 30
0.0
 10
202.8174674464562
 20
199.4081697909825
 30
0.0
 10
202.8388968462386
 20
199.5889993755979
 30
0.0
 10
202.8917337910076
 20
199.7687557102385
 30
0.0
 10
202.9719889760363
 20
199.9328582360408
 30
0.0
 10
203.0510564361382
 20
200.0945321504033
 30
0.0
 10
203.1588667870098
 20
200.2453198756412
 30
0.0
 10
203.28711289833
 20
200.3728576871351
 30
0.0
 10
203.414027479704
 20
200.4990713226869
 30
0.0
 10
203.564374216517
 20
200.6058640856058
 30
0.0
 10
203.7261983191005
 20
200.6842579388265
 30
0.0
 10
203.8877862803725
 20
200.7625373960641
 30
0.0
 10
204.0652179141968
 20
200.814591483871
 30
0.0
 10
204.2439056111752
 20
200.8359356512687
 30
0.0
 10
204.4240609437449
 20
200.8574551270971
 30
0.0
 10
204.6104905151297
 20
200.8483336991222
 30
0.0
 10
204.7875121072112
 20
200.8094312898388
 30
0.0
 10
204.9663455642283
 20
200.7701307036412
 30
0.0
 10
205.1406069312265
 20
200.6993441519497
 30
0.0
 10
205.2957037349473
 20
200.6033773950813
 30
0.0
 10
205.4507334710469
 20
200.5074521365671
 30
0.0
 10
205.5909412325079
 20
200.3837553632559
 30
0.0
 10
205.7051016678943
 20
200.2427789662086
 30
0.0
  0
SPLINE
  5
1E2
330
1F
100
AcDbEntity
  8
0
  6
Continuous
 62
     7
370
    35
100
AcDbSpline
210
0.0
220
0.0
230
1.0
 70
     8
 71
     3
 72
    22
 73
    18
 74
     0
 42
0.000000001
 43
0.00000001
 40
0.0
 40
0.0
 40
0.0
 40
0.0
 40
0.1250000000000002
 40
0.1250000000000002
 40
0.2500000000000003
 40
0.2500000000000003
 40
0.3750000000000004
 40
0.3750000000000004
 40
0.5000000000000006
 40
0.5000000000000006
 40
0.6250000000000007
 40
0.6250000000000007
 40
0.7500000000000004
 40
0.7500000000000004
 40
0.8750000000000002
 40
0.8750000000000002
 40
1.0
 40
1.0
 40
1.0
 40
1.0
 10
206.4093901954647
 20
200.8131005705975
 30
0.0
 10
206.0800935421153
 20
201.2197480714751
 30
0.0
 10
205.6249128206282
 20
201.5187863019704
 30
0.0
 10
204.6182101631209
 20
201.8006600416199
 30
0.0
 10
204.0728211384281
 20
201.7818751285812
 30
0.0
 10
203.082984618613
 20
201.4255439149731
 30
0.0
 10
202.6555892382677
 20
201.0962152263987
 30
0.0
 10
202.0597822192306
 20
200.2439458182869
 30
0.0
 10
201.8996346908356
 20
199.7285478160237
 30
0.0
 10
201.9001305370381
 20
198.7014024253162
 30
0.0
 10
202.0632472044975
 20
198.1827052764308
 30
0.0
 10
202.6546930763845
 20
197.338262882655
 30
0.0
 10
203.0898549696181
 20
197.0038318038414
 30
0.0
 10
204.0707157517821
 20
196.6518368110921
 30
0.0
 10
204.6199791325866
 20
196.631623828787
 30
0.0
 10
205.6286518053575
 20
196.9152756998643
 30
0.0
 10
206.0796249321982
 20
197.2120734000877
 30
0.0
 10
206.4093901954647
 20
197.6192995860195
 30
0.0
  0
SPLINE
  5
1E3
330
1F
100
AcDbEntity
  8
0
  6
Continuous
 62
     7
370
    35
100
AcDbSpline
210
0.0
220
0.0
230
1.0
 70
    11
 71
     3
 72
    62
 73
    58
 74
     0
 42
0.000000001
 43
0.00000001
 40
0.0
 40
0.0
 40
0.0
 40
0.0
 40
0.0323774890405425
 40
0.0323774890405425
 40
0.0323774890405425
 40
0.0858255208520334
 40
0.0858255208520334
 40
0.0858255208520334
 40
0.1400753243143215
 40
0.1400753243143215
 40
0.1400753243143215
 40
0.1948862322001444
 40
0.1948862322001444
 40
0.1948862322001444
 40
0.2497530815481676
 40
0.2497530815481676
 40
0.2497530815481676
 40
0.3041564553190694
 40
0.3041564553190694
 40
0.3041564553190694
 40
0.3578020229818368
 40
0.3578020229818368
 40
0.3578020229818368
 40
0.4107315623023073
 40
0.4107315623023073
 40
0.4107315623023073
 40
0.4632863720756555
 40
0.4632863720756555
 40
0.4632863720756555
 40
0.5159623173237695
 40
0.5159623173237695
 40
0.5159623173237695
 40
0.569207624391193
 40
0.569207624391193
 40
0.569207624391193
 40
0.6232279513117243
 40
0.6232279513117243
 40
0.6232279513117243
 40
0.6778858165095417
 40
0.6778858165095417
 40
0.6778858165095417
 40
0.7327599105254472
 40
0.7327599105254472
 40
0.7327599105254472
 40
0.7873408262414319
 40
0.7873408262414319
 40
0.7873408262414319
 40
0.8412566335797689
 40
0.8412566335797689
 40
0.8412566335797689
 40
0.894420579716591
 40
0.894420579716591
 40
0.894420579716591
 40
0.9471978209042259
 40
0.9471978209042259
 40
0.9471978209042259
 40
1.0
 40
1.0
 40
1.0
 40
1.0
 10
210.6506362568661
 20
200.8474500783085
 30
0.0
 10
210.5387478389771
 20
200.8474500783085
 30
0.0
 10
210.4262358445337
 20
200.8358089408698
 30
0.0
 10
210.3167476428555
 20
200.8129138773138
 30
0.0
 10
210.1376672302375
 20
200.7754663956157
 30
0.0
 10
209.9627030570984
 20
200.706501882707
 30
0.0
 10
209.8066046788443
 20
200.612118148183
 30
0.0
 10
209.64819534115
 20
200.5163371090568
 30
0.0
 10
209.5046948221768
 20
200.3916711517898
 30
0.0
 10
209.388048624336
 20
200.2490839210914
 30
0.0
 10
209.2701970693514
 20
200.1050232729966
 30
0.0
 10
209.1763732564094
 20
199.9385956969857
 30
0.0
 10
209.1141433810752
 20
199.764074338649
 30
0.0
 10
209.0518392045504
 20
199.5893446054019
 30
0.0
 10
209.0194208591126
 20
199.401615376573
 30
0.0
 10
209.0193862853187
 20
199.2165047528817
 30
0.0
 10
209.0193519944934
 20
199.0329091634665
 30
0.0
 10
209.0511530464838
 20
198.8468533413351
 30
0.0
 10
209.1123042757719
 20
198.6735111449012
 30
0.0
 10
209.1726180195503
 20
198.5025429249096
 30
0.0
 10
209.2631125236698
 20
198.3393428153261
 30
0.0
 10
209.3768014408101
 20
198.1972194975791
 30
0.0
 10
209.4889857085659
 20
198.0569771526477
 30
0.0
 10
209.6267717025759
 20
197.9335286415807
 30
0.0
 10
209.7793384415679
 20
197.8371363816083
 30
0.0
 10
209.9308167976025
 20
197.7414317662278
 30
0.0
 10
210.1009563969292
 20
197.669857367311
 30
0.0
 10
210.2760022355618
 20
197.6285521599773
 30
0.0
 10
210.4514155878835
 20
197.5871602311926
 30
0.0
 10
210.6365598739897
 20
197.5750631921957
 30
0.0
 10
210.8160512080036
 20
197.5933586022425
 30
0.0
 10
210.9974332710885
 20
197.6118467328115
 30
0.0
 10
211.1781072205718
 20
197.6618990400891
 30
0.0
 10
211.3428504619224
 20
197.7391029058726
 30
0.0
 10
211.5099554175
 20
197.8174135452433
 30
0.0
 10
211.6654171713698
 20
197.9258683398279
 30
0.0
 10
211.7962215648651
 20
198.054903017003
 30
0.0
 10
211.9285615651423
 20
198.1854525249882
 30
0.0
 10
212.0394543194947
 20
198.3407596540034
 30
0.0
 10
212.1198501889745
 20
198.5074074540533
 30
0.0
 10
212.200573463955
 20
198.6747339134269
 30
0.0
 10
212.2528598458835
 20
198.8581904566841
 30
0.0
 10
212.272598809236
 20
199.0423782119916
 30
0.0
 10
212.2922368839791
 20
199.2256245578571
 30
0.0
 10
212.2802267857128
 20
199.4146536056171
 30
0.0
 10
212.2375433945711
 20
199.5939596563485
 30
0.0
 10
212.1953696759557
 20
199.771124654895
 30
0.0
 10
212.1221114727381
 20
199.9435952117071
 30
0.0
 10
212.0234450366663
 20
200.0973201703524
 30
0.0
 10
211.9261384611843
 20
200.2489264296583
 30
0.0
 10
211.8014993529288
 20
200.3863469405859
 30
0.0
 10
211.6592634343907
 20
200.4982483532415
 30
0.0
 10
211.5180702974118
 20
200.6093293772726
 30
0.0
 10
211.35571760866
 20
200.6982216377024
 30
0.0
 10
211.1852634729741
 20
200.7573523427836
 30
0.0
 10
211.0147637480011
 20
200.8164988628326
 30
0.0
 10
210.831480960555
 20
200.8474500783085
 30
0.0
 10
210.6506362568661
 20
200.8474500783085
 30
0.0
  0
SPLINE
  5
1E4
330
1F
100
AcDbEntity
  8
0
  6
Continuous
 62
     7
370
    35
100
AcDbSpline
210
0.0
220
0.0
230
1.0
 70
     8
 71
     3
 72
    10
 73
     6
 74
     0
 42
0.000000001
 43
0.00000001
 40
0.0
 40
0.0
 40
0.0
 40
0.0
 40
0.5
 40
0.5
 40
1.0
 40
1.0
 40
1.0
 40
1.0
 10
198.9781362568661
 20
198.3462000783085
 30
0.0
 10
198.8927728297072
 20
198.7617772060254
 30
0.0
 10
198.7428034982788
 20
199.1619271794105
 30
0.0
 10
198.32350460748
 20
199.9015393578295
 30
0.0
 10
198.0605915119475
 20
200.2322925470818
 30
0.0
 10
197.7456362568661
 20
200.5212000783085
 30
0.0
  0
LINE
  5
1E5
330
1F
100
AcDbEntity
  8
0
  6
Continuous
 62
     7
370
    35
100
AcDbLine
 10
198.9781362569
 20
198.3462000783
 30
0.0
 11
196.5131362569
 21
198.3462000783
 31
0.0
  0
SPLINE
  5
1E6
330
1F
100
AcDbEntity
  8
0
  6
Continuous
 62
     7
370
    35
100
AcDbSpline
210
0.0
220
0.0
230
1.0
 70
     8
 71
     3
 72
    10
 73
     6
 74
     0
 42
0.000000001
 43
0.00000001
 40
0.0
 40
0.0
 40
0.0
 40
0.0
 40
0.5
 40
0.5
 40
1.0
 40
1.0
 40
1.0
 40
1.0
 10
197.7456362568661
 20
200.5212000783085
 30
0.0
 10
197.4305276765771
 20
200.2321519023188
 30
0.0
 10
197.1637865016994
 20
199.8959108115314
 30
0.0
 10
196.7457384962596
 20
199.1555809385317
 30
0.0
 10
196.5984205395321
 20
198.761391904707
 30
0.0
 10
196.5131362568661
 20
198.3462000783085
 30
0.0
  0
SPLINE
  5
1E7
330
1F
100
AcDbEntity
  8
0
  6
Continuous
 62
     7
370
    35
100
AcDbSpline
210
0.0
220
0.0
230
1.0
 70
    24
 71
     3
 72
    10
 73
     6
 74
     0
 42
0.000000001
 43
0.00000001
 40
0.0
 40
0.0
 40
0.0
 40
0.0
 40
0.5
 40
0.5
 40
1.0
 40
1.0
 40
1.0
 40
1.0
 10
43.48164983076936
 20
210.4402616217683
 30
0.0
 10
44.22435262401741
 20
211.3253803438515
 30
0.0
 10
44.96753051749617
 20
212.2110652683414
 30
0.0
 10
46.45479615793198
 20
213.9835194384726
 30
0.0
 10
47.19888383863
 20
214.8702886051496
 30
0.0
 10
47.94345084773536
 20
215.757629013178
 30
0.0
  0
SPLINE
  5
1E8
330
1F
100
AcDbEntity
  8
0
  6
Continuous
 62
     7
370
    35
100
AcDbSpline
210
0.0
220
0.0
230
1.0
 70
    24
 71
     3
 72
     9
 73
     5
 74
     0
 42
0.000000001
 43
0.00000001
 40
0.0
 40
0.0
 40
0.0
 40
0.0
 40
0.5
 40
1.0
 40
1.0
 40
1.0
 40
1.0
 10
27.18813625686611
 20
210.5886238864154
 30
0.0
 10
27.18813625686614
 20
211.4186492837131
 30
0.0
 10
27.18813625686611
 20
213.0787000783085
 30
0.0
 10
27.1881362568661
 20
214.7387508729039
 30
0.0
 10
27.18813625686611
 20
215.5687762702016
 30
0.0
  0
SPLINE
  5
1E9
330
1F
100
AcDbEntity
  8
0
  6
Continuous
 62
     7
370
    35
100
AcDbSpline
210
0.0
220
0.0
230
1.0
 70
    24
 71
     3
 72
    10
 73
     6
 74
     0
 42
0.000000001
 43
0.00000001
 40
0.0
 40
0.0
 40
0.0
 40
0.0
 40
0.5
 40
0.5
 40
1.0
 40
1.0
 40
1.0
 40
1.0
 10
200.3946226829628
 20
215.7171385348486
 30
0.0
 10
199.6519198897139
 20
214.8320198127644
 30
0.0
 10
198.9087419962342
 20
213.9463348882734
 30
0.0
 10
197.4214763557966
 20
212.17388071814
 30
0.0
 10
196.677388675092
 20
211.2871115514553
 30
0.0
 10
195.9328216659859
 20
210.3997711434259
 30
0.0
  0
SPLINE
  5
1EA
330
1F
100
AcDbEntity
  8
0
  6
Continuous
 62
     7
370
    35
100
AcDbSpline
210
0.0
220
0.0
230
1.0
 70
    24
 71
     3
 72
    10
 73
     6
 74
     0
 42
0.000000001
 43
0.00000001
 40
0.0
 40
0.0
 40
0.0
 40
0.0
 40
0.5
 40
0.5
 40
1.0
 40
1.0
 40
1.0
 40
1.0
 10
216.6881362568661
 20
215.5687762702016
 30
0.0
 10
216.6881362568661
 20
214.7438862370004
 30
0.0
 10
216.6881362568661
 20
213.9092020357029
 30
0.0
 10
216.6881362568661
 20
212.2472454195552
 30
0.0
 10
216.6881362568661
 20
211.4135139168154
 30
0.0
 10
216.6881362568661
 20
210.5886238864154
 30
0.0
  0
SPLINE
  5
1EB
330
1F
100
AcDbEntity
  8
0
  6
Continuous
 62
     7
370
    35
100
AcDbSpline
210
0.0
220
0.0
230
1.0
 70
    24
 71
     3
 72
    10
 73
     6
 74
     0
 42
0.000000001
 43
0.00000001
 40
0.0
 40
0.0
 40
0.0
 40
0.0
 40
0.5
 40
0.5
 40
1.0
 40
1.0
 40
1.0
 40
1.0
 10
182.5303475839423
 20
215.8788891731954
 30
0.0
 10
181.7421981309135
 20
214.9396092310472
 30
0.0
 10
180.9535184909626
 20
213.9996974367297
 30
0.0
 10
179.3751498192644
 20
212.1186709017954
 30
0.0
 10
178.5854608757008
 20
211.1775562662715
 30
0.0
 10
177.7952367474389
 20
210.2358038224608
 30
0.0
  0
SPLINE
  5
1EC
330
1F
100
AcDbEntity
  8
0
  6
Continuous
 62
     7
370
    35
100
AcDbSpline
210
0.0
220
0.0
230
1.0
 70
    24
 71
     3
 72
    10
 73
     6
 74
     0
 42
0.000000001
 43
0.00000001
 40
0.0
 40
0.0
 40
0.0
 40
0.0
 40
0.5
 40
0.5
 40
1.0
 40
1.0
 40
1.0
 40
1.0
 10
187.3827093407938
 20
210.3223489373869
 30
0.0
 10
188.1488334363393
 20
211.2353800806263
 30
0.0
 10
188.914452163726
 20
212.1478089495467
 30
0.0
 10
190.4447333396751
 20
213.9715270386634
 30
0.0
 10
191.2093957122397
 20
214.8828161682889
 30
0.0
 10
191.9735572981614
 20
215.7935084836335
 30
0.0
  0
SPLINE
  5
1ED
330
1F
100
AcDbEntity
  8
0
  6
Continuous
 62
     7
370
    35
100
AcDbSpline
210
0.0
220
0.0
230
1.0
 70
    24
 71
     3
 72
    10
 73
     6
 74
     0
 42
0.000000001
 43
0.00000001
 40
0.0
 40
0.0
 40
0.0
 40
0.0
 40
0.5
 40
0.5
 40
1.0
 40
1.0
 40
1.0
 40
1.0
 10
61.34592492978995
 20
210.2785109834216
 30
0.0
 10
62.13407438281807
 20
211.217790925569
 30
0.0
 10
62.92275402276841
 20
212.1577027198857
 30
0.0
 10
64.50112269446525
 20
214.0387292548186
 30
0.0
 10
65.29081163803207
 20
214.9798438903463
 30
0.0
 10
66.08103576629328
 20
215.9215963341562
 30
0.0
  0
SPLINE
  5
1EE
330
1F
100
AcDbEntity
  8
0
  6
Continuous
 62
     7
370
    35
100
AcDbSpline
210
0.0
220
0.0
230
1.0
 70
    24
 71
     3
 72
    10
 73
     6
 74
     0
 42
0.000000001
 43
0.00000001
 40
0.0
 40
0.0
 40
0.0
 40
0.0
 40
0.5
 40
0.5
 40
1.0
 40
1.0
 40
1.0
 40
1.0
 10
56.49356317293844
 20
215.8350512192301
 30
0.0
 10
55.72743907739292
 20
214.9220200759907
 30
0.0
 10
54.96182035000623
 20
214.0095912070703
 30
0.0
 10
53.43153917405711
 20
212.1858731179536
 30
0.0
 10
52.66687680149247
 20
211.2745839883281
 30
0.0
 10
51.90271521557086
 20
210.3638916729835
 30
0.0
  0
SPLINE
  5
1EF
330
1F
100
AcDbEntity
  8
0
  6
Continuous
 62
     7
370
    35
100
AcDbSpline
210
0.0
220
0.0
230
1.0
 70
    24
 71
     3
 72
    10
 73
     6
 74
     0
 42
0.000000001
 43
0.00000001
 40
0.0
 40
0.0
 40
0.0
 40
0.0
 40
0.5
 40
0.5
 40
1.0
 40
1.0
 40
1.0
 40
1.0
 10
79.21103728785627
 20
210.1177581515506
 30
0.0
 10
80.04434243262237
 20
211.1108525515529
 30
0.0
 10
80.87823505282765
 20
212.1046470775203
 30
0.0
 10
82.54713179846381
 20
214.0935607698009
 30
0.0
 10
83.3821358086585
 20
215.088679798781
 30
0.0
 10
84.2177331381736
 20
216.0845059181927
 30
0.0
  0
SPLINE
  5
1F0
330
1F
100
AcDbEntity
  8
0
  6
Continuous
 62
     7
370
    35
100
AcDbSpline
210
0.0
220
0.0
230
1.0
 70
    24
 71
     3
 72
    10
 73
     6
 74
     0
 42
0.000000001
 43
0.00000001
 40
0.0
 40
0.0
 40
0.0
 40
0.0
 40
0.5
 40
0.5
 40
1.0
 40
1.0
 40
1.0
 40
1.0
 10
74.63073510530863
 20
215.9985263624154
 30
0.0
 10
73.81908593156527
 20
215.0312405436806
 30
0.0
 10
73.00799906967976
 20
214.0646248621426
 30
0.0
 10
71.38688237517135
 20
212.1326532174477
 30
0.0
 10
70.57685264279684
 20
211.1672973737823
 30
0.0
 10
69.7673798352682
 20
210.2026052473028
 30
0.0
  0
SPLINE
  5
1F1
330
1F
100
AcDbEntity
  8
0
  6
Continuous
 62
     7
370
    35
100
AcDbSpline
210
0.0
220
0.0
230
1.0
 70
    24
 71
     3
 72
    10
 73
     6
 74
     0
 42
0.000000001
 43
0.00000001
 40
0.0
 40
0.0
 40
0.0
 40
0.0
 40
0.5
 40
0.5
 40
1.0
 40
1.0
 40
1.0
 40
1.0
 10
164.6652352258759
 20
216.0396420050663
 30
0.0
 10
163.8319300811121
 20
215.0465476050669
 30
0.0
 10
162.9980374609092
 20
214.0527530791023
 30
0.0
 10
161.3291407152776
 20
212.0638393868271
 30
0.0
 10
160.4941367050854
 20
211.0687203578499
 30
0.0
 10
159.6585393755726
 20
210.0728942384408
 30
0.0
  0
SPLINE
  5
1F2
330
1F
100
AcDbEntity
  8
0
  6
Continuous
 62
     7
370
    35
100
AcDbSpline
210
0.0
220
0.0
230
1.0
 70
    24
 71
     3
 72
    10
 73
     6
 74
     0
 42
0.000000001
 43
0.00000001
 40
0.0
 40
0.0
 40
0.0
 40
0.0
 40
0.5
 40
0.5
 40
1.0
 40
1.0
 40
1.0
 40
1.0
 10
169.2455374084404
 20
210.1588737942018
 30
0.0
 10
170.0571865821812
 20
211.1261596129335
 30
0.0
 10
170.8682734440544
 20
212.0927752944767
 30
0.0
 10
172.4893901385576
 20
214.0247469391654
 30
0.0
 10
173.299419870938
 20
214.9901027828377
 30
0.0
 10
174.108892678464
 20
215.9547949093142
 30
0.0
  0
SPLINE
  5
1F3
330
1F
100
AcDbEntity
  8
0
  6
Continuous
 62
     7
370
    35
100
AcDbSpline
210
0.0
220
0.0
230
1.0
 70
    24
 71
     3
 72
    10
 73
     6
 74
     0
 42
0.000000001
 43
0.00000001
 40
0.0
 40
0.0
 40
0.0
 40
0.0
 40
0.5
 40
0.5
 40
1.0
 40
1.0
 40
1.0
 40
1.0
 10
97.07702759820836
 20
209.9580516224702
 30
0.0
 10
97.95518388601435
 20
211.0045975333222
 30
0.0
 10
98.83398703339805
 20
212.0519143413999
 30
0.0
 10
100.5928091536139
 20
214.1479969219013
 30
0.0
 10
101.4728279782757
 20
215.1967625177424
 30
0.0
 10
102.3535004302074
 20
216.2463070762309
 30
0.0
  0
SPLINE
  5
1F4
330
1F
100
AcDbEntity
  8
0
  6
Continuous
 62
     7
370
    35
100
AcDbSpline
210
0.0
220
0.0
230
1.0
 70
    24
 71
     3
 72
    10
 73
     6
 74
     0
 42
0.000000001
 43
0.00000001
 40
0.0
 40
0.0
 40
0.0
 40
0.0
 40
0.5
 40
0.5
 40
1.0
 40
1.0
 40
1.0
 40
1.0
 10
92.76699924104527
 20
216.1609196357631
 30
0.0
 10
91.91011564703581
 20
215.1397255341672
 30
0.0
 10
91.05385353678955
 20
214.1192720880572
 30
0.0
 10
89.34248948484847
 20
212.0797478309198
 30
0.0
 10
88.4873876731467
 20
211.0606771747904
 30
0.0
 10
87.63290107557702
 20
210.0423397023132
 30
0.0
  0
SPLINE
  5
1F5
330
1F
100
AcDbEntity
  8
0
  6
Continuous
 62
     7
370
    35
100
AcDbSpline
210
0.0
220
0.0
230
1.0
 70
    24
 71
     3
 72
    10
 73
     6
 74
     0
 42
0.000000001
 43
0.00000001
 40
0.0
 40
0.0
 40
0.0
 40
0.0
 40
0.5
 40
0.5
 40
1.0
 40
1.0
 40
1.0
 40
1.0
 10
146.7992449155239
 20
216.1993485341468
 30
0.0
 10
145.921088627717
 20
215.1528026232938
 30
0.0
 10
145.0422854803324
 20
214.105485815215
 30
0.0
 10
143.2834633601147
 20
212.0094032347115
 30
0.0
 10
142.4034445354575
 20
210.9606376388756
 30
0.0
 10
141.5227720835247
 20
209.9110930803861
 30
0.0
  0
SPLINE
  5
1F6
330
1F
100
AcDbEntity
  8
0
  6
Continuous
 62
     7
370
    35
100
AcDbSpline
210
0.0
220
0.0
230
1.0
 70
    24
 71
     3
 72
    10
 73
     6
 74
     0
 42
0.000000001
 43
0.00000001
 40
0.0
 40
0.0
 40
0.0
 40
0.0
 40
0.5000000000000004
 40
0.5000000000000004
 40
1.0
 40
1.0
 40
1.0
 40
1.0
 10
151.1092732726685
 20
209.9964805208538
 30
0.0
 10
151.9661568666793
 20
211.0176746224511
 30
0.0
 10
152.8224189769375
 20
212.0381280685537
 30
0.0
 10
154.5337830288812
 20
214.0776523256941
 30
0.0
 10
155.3888848405842
 20
215.096722981825
 30
0.0
 10
156.2433714381552
 20
216.1150604543038
 30
0.0
  0
SPLINE
  5
1F7
330
1F
100
AcDbEntity
  8
0
  6
Continuous
 62
     7
370
    35
100
AcDbSpline
210
0.0
220
0.0
230
1.0
 70
    24
 71
     3
 72
    12
 73
     8
 74
     0
 42
0.000000001
 43
0.00000001
 40
0.0
 40
0.0
 40
0.0
 40
0.0
 40
0.5
 40
0.5
 40
0.75
 40
0.75
 40
1.0
 40
1.0
 40
1.0
 40
1.0
 10
128.9323374186934
 20
216.3579620029464
 30
0.0
 10
128.0125470072764
 20
215.2617984757065
 30
0.0
 10
127.0903553025779
 20
214.1627731985715
 30
0.0
 10
125.7036697506512
 20
212.5101857102643
 30
0.0
 10
125.2408694238326
 20
211.9586417581245
 30
0.0
 10
124.314094709784
 20
210.8541546631317
 30
0.0
 10
123.8491786373683
 20
210.3000892635755
 30
0.0
 10
123.3879757757169
 20
209.7504490962876
 30
0.0
  0
SPLINE
  5
1F8
330
1F
100
AcDbEntity
  8
0
  6
Continuous
 62
     7
370
    35
100
AcDbSpline
210
0.0
220
0.0
230
1.0
 70
    24
 71
     3
 72
    10
 73
     6
 74
     0
 42
0.000000001
 43
0.00000001
 40
0.0
 40
0.0
 40
0.0
 40
0.0
 40
0.5
 40
0.5
 40
1.0
 40
1.0
 40
1.0
 40
1.0
 10
132.973958704694
 20
209.8352188983398
 30
0.0
 10
133.8757721464231
 20
210.9099583073703
 30
0.0
 10
134.7769028068556
 20
211.9838840093375
 30
0.0
 10
136.5778987945269
 20
214.1302274478924
 30
0.0
 10
137.4777639558106
 20
215.2026449867027
 30
0.0
 10
138.3769535661894
 20
216.274257435295
 30
0.0
  0
SPLINE
  5
1F9
330
1F
100
AcDbEntity
  8
0
  6
Continuous
 62
     7
370
    35
100
AcDbSpline
210
0.0
220
0.0
230
1.0
 70
    24
 71
     3
 72
    12
 73
     8
 74
     0
 42
0.000000001
 43
0.00000001
 40
0.0
 40
0.0
 40
0.0
 40
0.0
 40
0.5
 40
0.5
 40
0.75
 40
0.75
 40
1.0
 40
1.0
 40
1.0
 40
1.0
 10
114.9439350950389
 20
209.7994381536707
 30
0.0
 10
115.8637255064578
 20
210.8956016809129
 30
0.0
 10
116.7859172111584
 20
211.9946269580504
 30
0.0
 10
118.1726027630882
 20
213.6472144463612
 30
0.0
 10
118.6354030899079
 20
214.1987583985023
 30
0.0
 10
119.5621778039584
 20
215.3032454934975
 30
0.0
 10
120.0270938763552
 20
215.8573108930312
 30
0.0
 10
120.4882967380077
 20
216.4069510603203
 30
0.0
  0
SPLINE
  5
1FA
330
1F
100
AcDbEntity
  8
0
  6
Continuous
 62
     7
370
    35
100
AcDbSpline
210
0.0
220
0.0
230
1.0
 70
    24
 71
     3
 72
    10
 73
     6
 74
     0
 42
0.000000001
 43
0.00000001
 40
0.0
 40
0.0
 40
0.0
 40
0.0
 40
0.5
 40
0.5
 40
1.0
 40
1.0
 40
1.0
 40
1.0
 10
110.9023138090383
 20
216.3221812582772
 30
0.0
 10
110.0005003673091
 20
215.2474418492468
 30
0.0
 10
109.0993697068766
 20
214.1735161472795
 30
0.0
 10
107.2983737192053
 20
212.0271727087246
 30
0.0
 10
106.3985085579216
 20
210.9547551699143
 30
0.0
 10
105.4993189475428
 20
209.883142721322
 30
0.0
  0
LINE
  5
1FB
330
1F
100
AcDbEntity
  8
0
  6
Continuous
 62
     8
370
    18
100
AcDbLine
 10
200.394622683
 20
215.7171385348
 30
0.0
 11
216.6881362569
 21
215.5687762702
 31
0.0
  0
LINE
  5
1FC
330
1F
100
AcDbEntity
  8
0
  6
Continuous
 62
     8
370
    18
100
AcDbLine
 10
182.530347584
 20
215.8788891732
 30
0.0
 11
191.9735572982
 21
215.7935084836
 31
0.0
  0
LINE
  5
1FD
330
1F
100
AcDbEntity
  8
0
  6
Continuous
 62
     8
370
    18
100
AcDbLine
 10
164.6652352259
 20
216.0396420051
 30
0.0
 11
174.1088926785
 21
215.9547949093
 31
0.0
  0
LINE
  5
1FE
330
1F
100
AcDbEntity
  8
0
  6
Continuous
 62
     8
370
    18
100
AcDbLine
 10
146.7992449155
 20
216.1993485341
 30
0.0
 11
156.2433714382
 21
216.1150604543
 31
0.0
  0
LINE
  5
1FF
330
1F
100
AcDbEntity
  8
0
  6
Continuous
 62
     8
370
    18
100
AcDbLine
 10
128.9323374187
 20
216.3579620029
 30
0.0
 11
138.3769535662
 21
216.2742574353
 31
0.0
  0
LINE
  5
200
330
1F
100
AcDbEntity
  8
0
  6
Continuous
 62
     8
370
    18
100
AcDbLine
 10
43.4816498308
 20
210.4402616218
 30
0.0
 11
27.1881362569
 21
210.5886238864
 31
0.0
  0
LINE
  5
201
330
1F
100
AcDbEntity
  8
0
  6
Continuous
 62
     8
370
    18
100
AcDbLine
 10
61.3459249298
 20
210.2785109834
 30
0.0
 11
51.9027152156
 21
210.363891673
 31
0.0
  0
LINE
  5
202
330
1F
100
AcDbEntity
  8
0
  6
Continuous
 62
     8
370
    18
100
AcDbLine
 10
79.2110372878
 20
210.1177581516
 30
0.0
 11
69.7673798352
 21
210.2026052473
 31
0.0
  0
LINE
  5
203
330
1F
100
AcDbEntity
  8
0
  6
Continuous
 62
     8
370
    18
100
AcDbLine
 10
97.0770275982
 20
209.9580516225
 30
0.0
 11
87.6329010756
 21
210.0423397023
 31
0.0
  0
LINE
  5
204
330
1F
100
AcDbEntity
  8
0
  6
Continuous
 62
     8
370
    18
100
AcDbLine
 10
114.943935095
 20
209.7994381537
 30
0.0
 11
105.4993189475
 21
209.8831427213
 31
0.0
  0
LINE
  5
205
330
1F
100
AcDbEntity
  8
0
  6
Continuous
 62
     8
370
    18
100
AcDbLine
 10
110.9023138091
 20
216.3221812583
 30
0.0
 11
120.488296738
 21
216.4069510603
 31
0.0
  0
LINE
  5
206
330
1F
100
AcDbEntity
  8
0
  6
Continuous
 62
     8
370
    18
100
AcDbLine
 10
92.7669992411
 20
216.1609196358
 30
0.0
 11
102.3535004302
 21
216.2463070762
 31
0.0
  0
LINE
  5
207
330
1F
100
AcDbEntity
  8
0
  6
Continuous
 62
     8
370
    18
100
AcDbLine
 10
74.6307351053
 20
215.9985263624
 30
0.0
 11
84.2177331382
 21
216.0845059182
 31
0.0
  0
LINE
  5
208
330
1F
100
AcDbEntity
  8
0
  6
Continuous
 62
     8
370
    18
100
AcDbLine
 10
56.493563173
 20
215.8350512192
 30
0.0
 11
66.0810357663
 21
215.9215963342
 31
0.0
  0
LINE
  5
209
330
1F
100
AcDbEntity
  8
0
  6
Continuous
 62
     8
370
    18
100
AcDbLine
 10
27.1881362568
 20
215.5687762702
 30
0.0
 11
47.9434508477
 21
215.7576290132
 31
0.0
  0
LINE
  5
20A
330
1F
100
AcDbEntity
  8
0
  6
Continuous
 62
     8
370
    18
100
AcDbLine
 10
132.9739587047
 20
209.8352188983
 30
0.0
 11
123.3879757757
 21
209.7504490963
 31
0.0
  0
LINE
  5
20B
330
1F
100
AcDbEntity
  8
0
  6
Continuous
 62
     8
370
    18
100
AcDbLine
 10
151.1092732726
 20
209.9964805209
 30
0.0
 11
141.5227720835
 21
209.9110930804
 31
0.0
  0
LINE
  5
20C
330
1F
100
AcDbEntity
  8
0
  6
Continuous
 62
     8
370
    18
100
AcDbLine
 10
169.2455374085
 20
210.1588737942
 30
0.0
 11
159.6585393756
 21
210.0728942384
 31
0.0
  0
LINE
  5
20D
330
1F
100
AcDbEntity
  8
0
  6
Continuous
 62
     8
370
    18
100
AcDbLine
 10
187.3827093408
 20
210.3223489374
 30
0.0
 11
177.7952367474
 21
210.2358038225
 31
0.0
  0
LINE
  5
20E
330
1F
100
AcDbEntity
  8
0
  6
Continuous
 62
     8
370
    18
100
AcDbLine
 10
216.6881362569
 20
210.5886238864
 30
0.0
 11
195.932821666
 21
210.3997711434
 31
0.0
  0
DIMENSION
  5
20F
330
1F
100
AcDbEntity
  8
DIMENSION
100
AcDbDimension
  2
_D_2
 10
15.7699804545
 20
193.2787000783
 30
0.0
 11
15.7699804545
 21
215.1045336527
 31
0.0
 70
   160
  1
<>
 71
     2
 42
-1.0
  3
SLDDIMSTYLE1
100
AcDbAlignedDimension
 13
28.6881362569
 23
232.8787000783
 33
0.0
 14
28.6881362569
 24
193.2787000783
 34
0.0
 50
90.0
100
AcDbRotatedDimension
  0
DIMENSION
  5
21A
330
1F
100
AcDbEntity
  8
DIMENSION
100
AcDbDimension
  2
_D_3
 10
27.1881362569
 20
179.684036073
 30
0.0
 11
121.5006306797
 21
179.684036073
 31
0.0
 70
   160
  1
<>
 71
     2
 42
-1.0
  3
SLDDIMSTYLE1
100
AcDbAlignedDimension
 13
216.6881362569
 23
194.7787000783
 33
0.0
 14
27.1881362569
 24
194.7787000783
 34
0.0
100
AcDbRotatedDimension
  0
ENDSEC
  0
SECTION
  2
OBJECTS
  0
DICTIONARY
  5
C
330
0
100
AcDbDictionary
281
     1
  3
ACAD_GROUP
350
D
  3
ACAD_LAYOUT
350
1A
  3
ACAD_MLINESTYLE
350
17
  3
ACAD_PLOTSETTINGS
350
19
  3
ACAD_PLOTSTYLENAME
350
E
  3
ACAD_SCALELIST
350
47
  0
DICTIONARY
  5
D
102
{ACAD_REACTORS
330
C
102
}
330
C
100
AcDbDictionary
281
     1
  0
DICTIONARY
  5
1A
102
{ACAD_REACTORS
330
C
102
}
330
C
100
AcDbDictionary
281
     1
  3
Layout1
350
1E
  3
Layout2
350
26
  3
Model
350
22
  0
DICTIONARY
  5
17
102
{ACAD_REACTORS
330
C
102
}
330
C
100
AcDbDictionary
281
     1
  3
Standard
350
18
  0
DICTIONARY
  5
19
102
{ACAD_REACTORS
330
C
102
}
330
C
100
AcDbDictionary
281
     1
  0
ACDBDICTIONARYWDFLT
  5
E
102
{ACAD_REACTORS
330
C
102
}
330
C
100
AcDbDictionary
281
     1
  3
Normal
350
F
100
AcDbDictionaryWithDefault
340
F
  0
DICTIONARY
  5
47
102
{ACAD_REACTORS
330
C
102
}
330
C
100
AcDbDictionary
281
     1
  3
A0
350
48
  3
A1
350
49
  3
A2
350
4A
  3
A3
350
4B
  3
A4
350
4C
  3
A5
350
4D
  3
A6
350
4E
  3
A7
350
4F
  3
A8
350
50
  3
A9
350
51
  3
B0
350
52
  3
B1
350
53
  3
B2
350
54
  3
B3
350
55
  3
B4
350
56
  3
B5
350
57
  3
B6
350
58
  3
B7
350
59
  3
B8
350
5A
  3
B9
350
5B
  3
C0
350
5C
  3
C1
350
5D
  3
C2
350
5E
  3
C3
350
5F
  3
C4
350
60
  3
C5
350
61
  3
C6
350
62
  3
C7
350
63
  3
C8
350
64
  3
C9
350
65
  3
D0
350
66
  3
D1
350
67
  3
D2
350
68
  0
LAYOUT
  5
1E
102
{ACAD_REACTORS
330
1A
102
}
330
1A
100
AcDbPlotSettings
  1

  2
none_device
  4

  6

 40
0.0
 41
0.0
 42
0.0
 43
0.0
 44
0.0
 45
0.0
 46
0.0
 47
0.0
 48
0.0
 49
0.0
140
0.0
141
0.0
142
1.0
143
1.0
 70
   688
 72
     1
 73
     0
 74
     5
  7

 75
    16
147
1.0
148
0.0
149
0.0
100
AcDbLayout
  1
Layout1
 70
     1
 71
     1
 10
0.0
 20
0.0
 11
420.0
 21
297.0
 12
0.0
 22
0.0
 32
0.0
 14
1.0000000000E+20
 24
1.0000000000E+20
 34
1.0000000000E+20
 15
-1.0000000000E+20
 25
-1.0000000000E+20
 35
-1.0000000000E+20
146
0.0
 13
0.0
 23
0.0
 33
0.0
 16
1.0
 26
0.0
 36
0.0
 17
0.0
 27
1.0
 37
0.0
 76
     0
330
1B
  0
LAYOUT
  5
26
102
{ACAD_REACTORS
330
1A
102
}
330
1A
100
AcDbPlotSettings
  1

  2
none_device
  4

  6

 40
0.0
 41
0.0
 42
0.0
 43
0.0
 44
0.0
 45
0.0
 46
0.0
 47
0.0
 48
0.0
 49
0.0
140
0.0
141
0.0
142
1.0
143
1.0
 70
   688
 72
     1
 73
     0
 74
     5
  7

 75
    16
147
1.0
148
0.0
149
0.0
100
AcDbLayout
  1
Layout2
 70
     1
 71
     2
 10
0.0
 20
0.0
 11
0.0
 21
0.0
 12
0.0
 22
0.0
 32
0.0
 14
0.0
 24
0.0
 34
0.0
 15
0.0
 25
0.0
 35
0.0
146
0.0
 13
0.0
 23
0.0
 33
0.0
 16
1.0
 26
0.0
 36
0.0
 17
0.0
 27
1.0
 37
0.0
 76
     0
330
23
  0
LAYOUT
  5
22
102
{ACAD_REACTORS
330
1A
102
}
330
1A
100
AcDbPlotSettings
  1

  2
none_device
  4
Letter_(8.50_x_11.00_Inches)
  6

 40
6.35
 41
6.35
 42
6.35000508
 43
6.35000508
 44
215.9
 45
279.4
 46
0.0
 47
0.0
 48
0.0
 49
0.0
140
0.0
141
0.0
142
1.0
143
1.0
 70
  1712
 72
     1
 73
     0
 74
     0
  7

 75
     0
147
1.0
148
0.0
149
0.0
100
AcDbLayout
  1
Model
 70
     1
 71
     0
 10
0.0
 20
0.0
 11
420.0
 21
297.0
 12
0.0
 22
0.0
 32
0.0
 14
0.0
 24
0.0
 34
0.0
 15
420.0
 25
297.0
 35
0.0
146
0.0
 13
0.0
 23
0.0
 33
0.0
 16
1.0
 26
0.0
 36
0.0
 17
0.0
 27
1.0
 37
0.0
 76
     0
330
1F
331
29
  0
MLINESTYLE
  5
18
102
{ACAD_REACTORS
330
17
102
}
330
17
100
AcDbMlineStyle
  2
Standard
 70
     0
  3

 62
   256
 51
90.0
 52
90.0
 71
     2
 49
0.5
 62
   256
  6
BYLAYER
 49
-0.5
 62
   256
  6
BYLAYER
  0
ACDBPLACEHOLDER
  5
F
102
{ACAD_REACTORS
330
E
102
}
330
E
  0
SCALE
  5
48
102
{ACAD_REACTORS
330
47
102
}
330
47
100
AcDbScale
 70
     0
300
1:1
140
1.0
141
1.0
290
     1
  0
SCALE
  5
49
102
{ACAD_REACTORS
330
47
102
}
330
47
100
AcDbScale
 70
     0
300
1:2
140
1.0
141
2.0
290
     0
  0
SCALE
  5
4A
102
{ACAD_REACTORS
330
47
102
}
330
47
100
AcDbScale
 70
     0
300
1:4
140
1.0
141
4.0
290
     0
  0
SCALE
  5
4B
102
{ACAD_REACTORS
330
47
102
}
330
47
100
AcDbScale
 70
     0
300
1:5
140
1.0
141
5.0
290
     0
  0
SCALE
  5
4C
102
{ACAD_REACTORS
330
47
102
}
330
47
100
AcDbScale
 70
     0
300
1:8
140
1.0
141
8.0
290
     0
  0
SCALE
  5
4D
102
{ACAD_REACTORS
330
47
102
}
330
47
100
AcDbScale
 70
     0
300
1:10
140
1.0
141
10.0
290
     0
  0
SCALE
  5
4E
102
{ACAD_REACTORS
330
47
102
}
330
47
100
AcDbScale
 70
     0
300
1:16
140
1.0
141
16.0
290
     0
  0
SCALE
  5
4F
102
{ACAD_REACTORS
330
47
102
}
330
47
100
AcDbScale
 70
     0
300
1:20
140
1.0
141
20.0
290
     0
  0
SCALE
  5
50
102
{ACAD_REACTORS
330
47
102
}
330
47
100
AcDbScale
 70
     0
300
1:30
140
1.0
141
30.0
290
     0
  0
SCALE
  5
51
102
{ACAD_REACTORS
330
47
102
}
330
47
100
AcDbScale
 70
     0
300
1:40
140
1.0
141
40.0
290
     0
  0
SCALE
  5
52
102
{ACAD_REACTORS
330
47
102
}
330
47
100
AcDbScale
 70
     0
300
1:50
140
1.0
141
50.0
290
     0
  0
SCALE
  5
53
102
{ACAD_REACTORS
330
47
102
}
330
47
100
AcDbScale
 70
     0
300
1:100
140
1.0
141
100.0
290
     0
  0
SCALE
  5
54
102
{ACAD_REACTORS
330
47
102
}
330
47
100
AcDbScale
 70
     0
300
2:1
140
2.0
141
1.0
290
     0
  0
SCALE
  5
55
102
{ACAD_REACTORS
330
47
102
}
330
47
100
AcDbScale
 70
     0
300
4:1
140
4.0
141
1.0
290
     0
  0
SCALE
  5
56
102
{ACAD_REACTORS
330
47
102
}
330
47
100
AcDbScale
 70
     0
300
8:1
140
8.0
141
1.0
290
     0
  0
SCALE
  5
57
102
{ACAD_REACTORS
330
47
102
}
330
47
100
AcDbScale
 70
     0
300
10:1
140
10.0
141
1.0
290
     0
  0
SCALE
  5
58
102
{ACAD_REACTORS
330
47
102
}
330
47
100
AcDbScale
 70
     0
300
100:1
140
100.0
141
1.0
290
     0
  0
SCALE
  5
59
102
{ACAD_REACTORS
330
47
102
}
330
47
100
AcDbScale
 70
     0
300
1/128" = 1'-0"
140
0.0078125
141
12.0
290
     0
  0
SCALE
  5
5A
102
{ACAD_REACTORS
330
47
102
}
330
47
100
AcDbScale
 70
     0
300
1/64" = 1'-0"
140
0.015625
141
12.0
290
     0
  0
SCALE
  5
5B
102
{ACAD_REACTORS
330
47
102
}
330
47
100
AcDbScale
 70
     0
300
1/32" = 1'-0"
140
0.03125
141
12.0
290
     0
  0
SCALE
  5
5C
102
{ACAD_REACTORS
330
47
102
}
330
47
100
AcDbScale
 70
     0
300
1/16" = 1'-0"
140
0.0625
141
12.0
290
     0
  0
SCALE
  5
5D
102
{ACAD_REACTORS
330
47
102
}
330
47
100
AcDbScale
 70
     0
300
3/32" = 1'-0"
140
0.09375
141
12.0
290
     0
  0
SCALE
  5
5E
102
{ACAD_REACTORS
330
47
102
}
330
47
100
AcDbScale
 70
     0
300
1/8" = 1'-0"
140
0.125
141
12.0
290
     0
  0
SCALE
  5
5F
102
{ACAD_REACTORS
330
47
102
}
330
47
100
AcDbScale
 70
     0
300
3/16" = 1'-0"
140
0.1875
141
12.0
290
     0
  0
SCALE
  5
60
102
{ACAD_REACTORS
330
47
102
}
330
47
100
AcDbScale
 70
     0
300
1/4" = 1'-0"
140
0.25
141
12.0
290
     0
  0
SCALE
  5
61
102
{ACAD_REACTORS
330
47
102
}
330
47
100
AcDbScale
 70
     0
300
3/8" = 1'-0"
140
0.375
141
12.0
290
     0
  0
SCALE
  5
62
102
{ACAD_REACTORS
330
47
102
}
330
47
100
AcDbScale
 70
     0
300
1/2" = 1'-0"
140
0.5
141
12.0
290
     0
  0
SCALE
  5
63
102
{ACAD_REACTORS
330
47
102
}
330
47
100
AcDbScale
 70
     0
300
3/4" = 1'-0"
140
0.75
141
12.0
290
     0
  0
SCALE
  5
64
102
{ACAD_REACTORS
330
47
102
}
330
47
100
AcDbScale
 70
     0
300
1" = 1'-0"
140
1.0
141
12.0
290
     0
  0
SCALE
  5
65
102
{ACAD_REACTORS
330
47
102
}
330
47
100
AcDbScale
 70
     0
300
1-1/2" = 1'-0"
140
1.5
141
12.0
290
     0
  0
SCALE
  5
66
102
{ACAD_REACTORS
330
47
102
}
330
47
100
AcDbScale
 70
     0
300
3" = 1'-0"
140
3.0
141
12.0
290
     0
  0
SCALE
  5
67
102
{ACAD_REACTORS
330
47
102
}
330
47
100
AcDbScale
 70
     0
300
6" = 1'-0"
140
6.0
141
12.0
290
     0
  0
SCALE
  5
68
102
{ACAD_REACTORS
330
47
102
}
330
47
100
AcDbScale
 70
     0
300
1'-0" = 1'-0"
140
12.0
141
12.0
290
     0
  0
ENDSEC
  0
EOF
