  0
SECTION
  2
HEADER
  9
$ACADVER
  1
AC1015
  9
$ACADMAINTVER
 70
    20
  9
$DWGCODEPAGE
  3
ANSI_1252
  9
$INSBASE
 10
0.0
 20
0.0
 30
0.0
  9
$EXTMIN
 10
-450.1007095601212
 20
187.6950004157959
 30
0.0
  9
$EXTMAX
 10
584.5822590445941
 20
337.3212820385606
 30
0.0
  9
$LIMMIN
 10
0.0
 20
0.0
  9
$LIMMAX
 10
420.0
 20
297.0
  9
$ORTHOMODE
 70
     1
  9
$REGENMODE
 70
     1
  9
$FILLMODE
 70
     1
  9
$QTEXTMODE
 70
     0
  9
$MIRRTEXT
 70
     0
  9
$LTSCALE
 40
23.1
  9
$ATTMODE
 70
     1
  9
$TEXTSIZE
 40
0.2
  9
$TRACEWID
 40
0.05
  9
$TEXTSTYLE
  7
STANDARD
  9
$CLAYER
  8
0
  9
$CELTYPE
  6
BYLAYER
  9
$CECOLOR
 62
   256
  9
$CELTSCALE
 40
1.0
  9
$DISPSILH
 70
     0
  9
$DIMSCALE
 40
1.0
  9
$DIMASZ
 40
3.5
  9
$DIMEXO
 40
1.5
  9
$DIMDLI
 40
15.96
  9
$DIMRND
 40
0.0
  9
$DIMDLE
 40
0.0
  9
$DIMEXE
 40
1.5
  9
$DIMTP
 40
0.005
  9
$DIMTM
 40
0.005
  9
$DIMTXT
 40
3.5
  9
$DIMCEN
 40
3.779999999999998
  9
$DIMTSZ
 40
0.0
  9
$DIMTOL
 70
     1
  9
$DIMLIM
 70
     0
  9
$DIMTIH
 70
     1
  9
$DIMTOH
 70
     1
  9
$DIMSE1
 70
     0
  9
$DIMSE2
 70
     0
  9
$DIMTAD
 70
     0
  9
$DIMZIN
 70
     0
  9
$DIMBLK
  1
_FILLED
  9
$DIMASO
 70
     1
  9
$DIMSHO
 70
     1
  9
$DIMPOST
  1

  9
$DIMAPOST
  1

  9
$DIMALT
 70
     0
  9
$DIMALTD
 70
     2
  9
$DIMALTF
 40
25.4
  9
$DIMLFAC
 40
1.0
  9
$DIMTOFL
 70
     0
  9
$DIMTVP
 40
0.0
  9
$DIMTIX
 70
     0
  9
$DIMSOXD
 70
     0
  9
$DIMSAH
 70
     0
  9
$DIMBLK1
  1

  9
$DIMBLK2
  1

  9
$DIMSTYLE
  2
STANDARD
  9
$DIMCLRD
 70
     0
  9
$DIMCLRE
 70
     0
  9
$DIMCLRT
 70
     0
  9
$DIMTFAC
 40
1.0
  9
$DIMGAP
 40
0.625
  9
$DIMJUST
 70
     0
  9
$DIMSD1
 70
     0
  9
$DIMSD2
 70
     0
  9
$DIMTOLJ
 70
     1
  9
$DIMTZIN
 70
     0
  9
$DIMALTZ
 70
     0
  9
$DIMALTTZ
 70
     0
  9
$DIMUPT
 70
     0
  9
$DIMDEC
 70
     0
  9
$DIMTDEC
 70
     4
  9
$DIMALTU
 70
     2
  9
$DIMALTTD
 70
     2
  9
$DIMTXSTY
  7
STANDARD
  9
$DIMAUNIT
 70
     0
  9
$DIMADEC
 70
     0
  9
$DIMALTRND
 40
0.0
  9
$DIMAZIN
 70
     0
  9
$DIMDSEP
 70
    46
  9
$DIMATFIT
 70
     3
  9
$DIMFRAC
 70
     0
  9
$DIMLDRBLK
  1

  9
$DIMLUNIT
 70
     2
  9
$DIMLWD
 70
    -2
  9
$DIMLWE
 70
    -2
  9
$DIMTMOVE
 70
     0
  9
$LUNITS
 70
     2
  9
$LUPREC
 70
     2
  9
$SKETCHINC
 40
0.1
  9
$FILLETRAD
 40
0.0
  9
$AUNITS
 70
     0
  9
$AUPREC
 70
     0
  9
$MENU
  1
.
  9
$ELEVATION
 40
0.0
  9
$PELEVATION
 40
0.0
  9
$THICKNESS
 40
0.0
  9
$LIMCHECK
 70
     0
  9
$CHAMFERA
 40
0.0
  9
$CHAMFERB
 40
0.0
  9
$CHAMFERC
 40
0.0
  9
$CHAMFERD
 40
0.0
  9
$SKPOLY
 70
     0
  9
$TDCREATE
 40
2456716.517536076
  9
$TDUCREATE
 40
2456716.434202743
  9
$TDUPDATE
 40
2457193.461341447
  9
$TDUUPDATE
 40
2457193.378008113
  9
$TDINDWG
 40
0.1740854630
  9
$TDUSRTIMER
 40
0.1740851620
  9
$USRTIMER
 70
     1
  9
$ANGBASE
 50
0.0
  9
$ANGDIR
 70
     0
  9
$PDMODE
 70
     3
  9
$PDSIZE
 40
0.3125
  9
$PLINEWID
 40
0.0
  9
$SPLFRAME
 70
     0
  9
$SPLINETYPE
 70
     6
  9
$SPLINESEGS
 70
     8
  9
$HANDSEED
  5
99F2
  9
$SURFTAB1
 70
     6
  9
$SURFTAB2
 70
     6
  9
$SURFTYPE
 70
     6
  9
$SURFU
 70
     6
  9
$SURFV
 70
     6
  9
$UCSBASE
  2

  9
$UCSNAME
  2

  9
$UCSORG
 10
0.0
 20
0.0
 30
0.0
  9
$UCSXDIR
 10
1.0
 20
0.0
 30
0.0
  9
$UCSYDIR
 10
0.0
 20
1.0
 30
0.0
  9
$UCSORTHOREF
  2

  9
$UCSORTHOVIEW
 70
     0
  9
$UCSORGTOP
 10
0.0
 20
0.0
 30
0.0
  9
$UCSORGBOTTOM
 10
0.0
 20
0.0
 30
0.0
  9
$UCSORGLEFT
 10
0.0
 20
0.0
 30
0.0
  9
$UCSORGRIGHT
 10
0.0
 20
0.0
 30
0.0
  9
$UCSORGFRONT
 10
0.0
 20
0.0
 30
0.0
  9
$UCSORGBACK
 10
0.0
 20
0.0
 30
0.0
  9
$PUCSBASE
  2

  9
$PUCSNAME
  2

  9
$PUCSORG
 10
0.0
 20
0.0
 30
0.0
  9
$PUCSXDIR
 10
1.0
 20
0.0
 30
0.0
  9
$PUCSYDIR
 10
0.0
 20
1.0
 30
0.0
  9
$PUCSORTHOREF
  2

  9
$PUCSORTHOVIEW
 70
     0
  9
$PUCSORGTOP
 10
0.0
 20
0.0
 30
0.0
  9
$PUCSORGBOTTOM
 10
0.0
 20
0.0
 30
0.0
  9
$PUCSORGLEFT
 10
0.0
 20
0.0
 30
0.0
  9
$PUCSORGRIGHT
 10
0.0
 20
0.0
 30
0.0
  9
$PUCSORGFRONT
 10
0.0
 20
0.0
 30
0.0
  9
$PUCSORGBACK
 10
0.0
 20
0.0
 30
0.0
  9
$USERI1
 70
     0
  9
$USERI2
 70
     0
  9
$USERI3
 70
     0
  9
$USERI4
 70
     0
  9
$USERI5
 70
     0
  9
$USERR1
 40
0.0
  9
$USERR2
 40
0.0
  9
$USERR3
 40
0.0
  9
$USERR4
 40
0.0
  9
$USERR5
 40
0.0
  9
$WORLDVIEW
 70
     1
  9
$SHADEDGE
 70
     3
  9
$SHADEDIF
 70
    70
  9
$TILEMODE
 70
     1
  9
$MAXACTVP
 70
    64
  9
$PINSBASE
 10
0.0
 20
0.0
 30
0.0
  9
$PLIMCHECK
 70
     0
  9
$PEXTMIN
 10
1.000000000000000E+20
 20
1.000000000000000E+20
 30
1.000000000000000E+20
  9
$PEXTMAX
 10
-1.000000000000000E+20
 20
-1.000000000000000E+20
 30
-1.000000000000000E+20
  9
$PLIMMIN
 10
0.0
 20
0.0
  9
$PLIMMAX
 10
12.0
 20
9.0
  9
$UNITMODE
 70
     0
  9
$VISRETAIN
 70
     1
  9
$PLINEGEN
 70
     0
  9
$PSLTSCALE
 70
     1
  9
$TREEDEPTH
 70
  3020
  9
$CMLSTYLE
  2
Standard
  9
$CMLJUST
 70
     0
  9
$CMLSCALE
 40
1.0
  9
$PROXYGRAPHICS
 70
     1
  9
$MEASUREMENT
 70
     1
  9
$CELWEIGHT
370
    -1
  9
$ENDCAPS
280
     0
  9
$JOINSTYLE
280
     0
  9
$LWDISPLAY
290
     0
  9
$INSUNITS
 70
     4
  9
$HYPERLINKBASE
  1

  9
$STYLESHEET
  1

  9
$XEDIT
290
     1
  9
$CEPSNTYPE
380
     0
  9
$PSTYLEMODE
290
     1
  9
$FINGERPRINTGUID
  2
{E9C8B7B2-7647-49F8-B3CB-86F1FADE909C}
  9
$VERSIONGUID
  2
{0948BFA3-231D-4625-BCA5-8F34791F21FA}
  9
$EXTNAMES
290
     1
  9
$PSVPSCALE
 40
0.0
  9
$OLESTARTUP
290
     0
  0
ENDSEC
  0
SECTION
  2
CLASSES
  0
CLASS
  1
ACDBDICTIONARYWDFLT
  2
AcDbDictionaryWithDefault
  3
ObjectDBX Classes
 90
        0
280
     0
281
     0
  0
CLASS
  1
ACDBPLACEHOLDER
  2
AcDbPlaceHolder
  3
ObjectDBX Classes
 90
        0
280
     0
281
     0
  0
CLASS
  1
LAYOUT
  2
AcDbLayout
  3
ObjectDBX Classes
 90
        0
280
     0
281
     0
  0
CLASS
  1
TABLESTYLE
  2
AcDbTableStyle
  3
ObjectDBX Classes
 90
     4095
280
     0
281
     0
  0
CLASS
  1
ACAD_TABLE
  2
AcDbTable
  3
ObjectDBX Classes
 90
    33793
280
     0
281
     1
  0
CLASS
  1
MATERIAL
  2
AcDbMaterial
  3
ObjectDBX Classes
 90
     1153
280
     0
281
     0
  0
CLASS
  1
VISUALSTYLE
  2
AcDbVisualStyle
  3
ObjectDBX Classes
 90
     4095
280
     0
281
     0
  0
CLASS
  1
SCALE
  2
AcDbScale
  3
ObjectDBX Classes
 90
     1153
280
     0
281
     0
  0
CLASS
  1
MLEADERSTYLE
  2
AcDbMLeaderStyle
  3
ACDB_MLEADERSTYLE_CLASS
 90
     4095
280
     0
281
     0
  0
CLASS
  1
ACME_DOCUMENT
  2
AcMeDbDoc
  3
AcMeServices
 90
     1024
280
     0
281
     0
  0
CLASS
  1
ACMESCOPE
  2
AcMeScope
  3
AcMeServices
 90
     1024
280
     0
281
     0
  0
CLASS
  1
ACMECOMMANDHISTORY
  2
AcMeCommandHistory
  3
AcMeServices
 90
     1024
280
     0
281
     0
  0
CLASS
  1
ACIMSYSVARMAN
  2
AcImSysVarManager
  3
AcMeServices
 90
     1024
280
     0
281
     0
  0
CLASS
  1
ACIMINTSYSVAR
  2
AcImIntSysVar
  3
AcMeServices
 90
     1024
280
     0
281
     0
  0
CLASS
  1
ACMEDRAWINGMAN
  2
AcMeDrawingMan
  3
AcMeServices
 90
     1024
280
     0
281
     0
  0
CLASS
  1
ACMEVIEW
  2
AcMeView
  3
AcMeServices
 90
     1024
280
     0
281
     0
  0
CLASS
  1
ACDBENTITYCACHE
  2
AcMeEntityCache
  3
AcMeServices
 90
     1024
280
     0
281
     0
  0
CLASS
  1
ACMESTATEMGR
  2
AcMeStateMgr
  3
AcMeServices
 90
     1024
280
     0
281
     0
  0
CLASS
  1
ACGREFMASTER
  2
AcGrefMaster
  3
AcAttribServices
 90
     1024
280
     0
281
     0
  0
CLASS
  1
AM_DRAWING_MGR
  2
AcDmDwgMgr
  3
AcMechDwgViewMgmt
 90
     1024
280
     0
281
     0
  0
CLASS
  1
AM_DWG_DOCUMENT
  2
AcDmDwgDocument
  3
AcMechDwgViewMgmt
 90
     1024
280
     0
281
     0
  0
CLASS
  1
AM_DWG_SHEET
  2
AcDmSheet
  3
AcMechDwgViewMgmt
 90
     1024
280
     0
281
     0
  0
CLASS
  1
AM_VIEWDIMPARMAP
  2
AcDmViewDimParMap
  3
AcMechDwgViewMgmt
 90
     1024
280
     0
281
     0
  0
CLASS
  1
AMDTINTERNALREACTOR
  2
AmdtInternalReactor
  3
AcMeServices
 90
     1024
280
     0
281
     0
  0
CLASS
  1
ACIMREALSYSVAR
  2
AcImRealSysVar
  3
AcMeServices
 90
     1024
280
     0
281
     0
  0
CLASS
  1
AM_DWGMGR_NAME
  2
AcDmDwgMgrName
  3
AcMechDwgViewMgmt
 90
     1024
280
     0
281
     0
  0
CLASS
  1
ACME_DATABASE
  2
AcMeDbDatabase
  3
AcMeServices
 90
     1024
280
     0
281
     0
  0
CLASS
  1
ACRFINSADJUSTERMGR
  2
AcRfInsAdjusterMgr
  3
AcMeServices
 90
     1024
280
     0
281
     0
  0
CLASS
  1
ACGREFACADMASTER
  2
AcGrefacadMaster
  3
AcGrefServices
 90
     1024
280
     0
281
     0
  0
CLASS
  1
AMDTMENUSTATEMGR
  2
AmdtMenuStateMgr
  3
McadcomServices
 90
     1024
280
     0
281
     0
  0
CLASS
  1
AMDTMCOMMENUSTATE
  2
AmdtMcomMenuState
  3
McadcomServices
 90
     1024
280
     0
281
     0
  0
CLASS
  1
AMIMASTER
  2
AmiMaster
  3
AmiServices
 90
     1024
280
     0
281
     0
  0
CLASS
  1
AMGSETTINGSOBJ
  2
AmgSettingsObj
  3
"AcadM|Product Description: AutoCAD Mechanical|Company: Autodesk, Inc."
 90
     1024
280
     0
281
     0
  0
CLASS
  1
MAPIAMMOUDLE
  2
MApiAmModule
  3
MApiAmServices
 90
     1024
280
     0
281
     0
  0
CLASS
  1
ACIMSTRSYSVAR
  2
AcImStrSysVar
  3
AcMeServices
 90
     1024
280
     0
281
     0
  0
CLASS
  1
AMDTADMENUSTATE
  2
AmdtAdMenuState
  3
DesignerServices
 90
     1024
280
     0
281
     0
  0
CLASS
  1
ADAPPL
  2
AcAdAppl
  3
DesignerServices
 90
     1024
280
     0
281
     0
  0
CLASS
  1
DEPMGR
  2
AcAdDepMgr
  3
DesignerServices
 90
     1024
280
     0
281
     0
  0
CLASS
  1
PARAMMGR
  2
AcAdParamMgr
  3
DesignerServices
 90
     1024
280
     0
281
     0
  0
CLASS
  1
PARAMSCOPE
  2
AcAdParamScope
  3
DesignerServices
 90
     1024
280
     0
281
     0
  0
CLASS
  1
NAMEDAPPL
  2
AcAdNamedAppl
  3
DesignerServices
 90
     1024
280
     0
281
     0
  0
CLASS
  1
AMDTDMMENUSTATE
  2
AmdtDmMenuState
  3
AcMechDwgViewMgmt
 90
     1024
280
     0
281
     0
  0
CLASS
  1
AMDTAMMENUSTATE
  2
AmdtAmMenuState
  3
DesignerAssemblies
 90
     1024
280
     0
281
     0
  0
CLASS
  1
ACAMPROJECT
  2
AcAmProject
  3
DesignerAssemblies
 90
     1024
280
     0
281
     0
  0
CLASS
  1
ACAMGRCOMPDEF
  2
AcAmGrCompDef
  3
DesignerAssemblies
 90
     1024
280
     0
281
     0
  0
CLASS
  1
ACAMCOMPDEF
  2
AcAmCompDef
  3
DesignerAssemblies
 90
     1024
280
     0
281
     0
  0
CLASS
  1
ACAMCOMPDEFMGR
  2
AcAmCompDefMgr
  3
DesignerAssemblies
 90
     1024
280
     0
281
     0
  0
CLASS
  1
AMCONTEXTMGR
  2
AcAmContextMgr
  3
DesignerAssemblies
 90
     1024
280
     0
281
     0
  0
CLASS
  1
ACAMCONTEXTMODELER
  2
AcAmContextModeler
  3
DesignerAssemblies
 90
     1024
280
     0
281
     0
  0
CLASS
  1
ACMDATADICTIONARY
  2
AcmDataDictionary
  3
"AcmSymBB|Product Description: AutoCAD Mechanical|Company: Autodesk, Inc."
 90
     1024
280
     0
281
     0
  0
CLASS
  1
CATALOGSTATE
  2
AcAmCatalogState
  3
DesignerAssemblies
 90
     1024
280
     0
281
     0
  0
CLASS
  1
ACAMGRCOMPDEFSET
  2
AcAmGrCompDefSet
  3
DesignerAssemblies
 90
     1024
280
     0
281
     0
  0
CLASS
  1
AMDTBROWSERDBTAB
  2
AmdtBrowserDbTab
  3
McadcomServices
 90
     1024
280
     0
281
     0
  0
CLASS
  1
CBROWSERAPPOBJECT
  2
CBrowserAppObject
  3
McadcomServices
 90
     1024
280
     0
281
     0
  0
CLASS
  1
DM_PLACEHOLDER
  2
AcDmSelsetPlaceholder
  3
AcMechDwgViewMgmt
 90
     1024
280
     0
281
     0
  0
CLASS
  1
ACMSTANDARDDIN
  2
AcmStandardDIN
  3
"Amdt_StdImp|Product Description: AutoCAD Mechanical|Company: Autodesk, Inc."
 90
     1024
280
     0
281
     0
  0
CLASS
  1
AMDTEDGESTANDARDDIN13715
  2
AmdtEdgeStdDIN13715
  3
"Amdt_StdImp|Product Description: AutoCAD Mechanical|Company: Autodesk, Inc."
 90
     1024
280
     0
281
     0
  0
CLASS
  1
ACMSURFSTANDARDDIN2002
  2
AcmSurfTextStdDIN2002
  3
"Amdt_StdImp|Product Description: AutoCAD Mechanical|Company: Autodesk, Inc."
 90
     1024
280
     0
281
     0
  0
CLASS
  1
ACMFCFSTANDARDDIN
  2
AcmFCFStdDIN
  3
"Amdt_StdImp|Product Description: AutoCAD Mechanical|Company: Autodesk, Inc."
 90
     1024
280
     0
281
     0
  0
CLASS
  1
ACMWELDSTANDARDDIN
  2
AcmWeldingStdDIN
  3
"Amdt_StdImp|Product Description: AutoCAD Mechanical|Company: Autodesk, Inc."
 90
     1024
280
     0
281
     0
  0
CLASS
  1
ACMIDSTANDARDDIN
  2
AcmIdStdDIN
  3
"Amdt_StdImp|Product Description: AutoCAD Mechanical|Company: Autodesk, Inc."
 90
     1024
280
     0
281
     0
  0
CLASS
  1
ACMDATUMSTANDARDDIN
  2
AcmDatumStdDIN
  3
"Amdt_StdImp|Product Description: AutoCAD Mechanical|Company: Autodesk, Inc."
 90
     1024
280
     0
281
     0
  0
CLASS
  1
ACMBOMSTANDARDDIN
  2
AcmBOMStdDIN
  3
"Amdt_StdImp|Product Description: AutoCAD Mechanical|Company: Autodesk, Inc."
 90
     1024
280
     0
281
     0
  0
CLASS
  1
ACMDETAILSTANDARDDIN
  2
AmdtDetailSymStdDIN
  3
"Amdt_StdImp|Product Description: AutoCAD Mechanical|Company: Autodesk, Inc."
 90
     1024
280
     0
281
     0
  0
CLASS
  1
ACMSECTIONSTANDARDDIN
  2
AmdtSectionSymStdDIN
  3
"Amdt_StdImp|Product Description: AutoCAD Mechanical|Company: Autodesk, Inc."
 90
     1024
280
     0
281
     0
  0
CLASS
  1
ACMCENTERLINESTANDARDDIN
  2
AmdtCenterLineStdDIN
  3
"Amdt_StdImp|Product Description: AutoCAD Mechanical|Company: Autodesk, Inc."
 90
     1024
280
     0
281
     0
  0
CLASS
  1
ACMTHREADLINESTANDARDDIN
  2
AmdtThreadLineStdDIN
  3
"Amdt_StdImp|Product Description: AutoCAD Mechanical|Company: Autodesk, Inc."
 90
     1024
280
     0
281
     0
  0
CLASS
  1
ACMNOTESTANDARDDIN
  2
AmdtNoteStdDIN
  3
"Amdt_StdImp|Product Description: AutoCAD Mechanical|Company: Autodesk, Inc."
 90
     1024
280
     0
281
     0
  0
CLASS
  1
ACMTAPERSTANDARDDIN
  2
AcmTaperStdDIN
  3
"Amdt_StdImp|Product Description: AutoCAD Mechanical|Company: Autodesk, Inc."
 90
     1024
280
     0
281
     0
  0
CLASS
  1
ACMANOOTATIONVIEWSTANDARDDIN
  2
AmdtAnViewStdDIN
  3
"Amdt_StdImp|Product Description: AutoCAD Mechanical|Company: Autodesk, Inc."
 90
     1024
280
     0
281
     0
  0
CLASS
  1
ACAMGLAYSTD
  2
AcAmgLayStd
  3
"AmgLay|Product Description: AutoCAD Mechanical|Company: Autodesk, Inc."
 90
     1024
280
     0
281
     0
  0
CLASS
  1
ACAMGDIMSTD
  2
AcAmgDimStd
  3
"AmgDim|Product Description: AutoCAD Mechanical|Company: Autodesk, Inc."
 90
     1024
280
     0
281
     0
  0
CLASS
  1
AMGOBJPROPCFG
  2
AmgObjPropCfg
  3
"AmgLay|Product Description: AutoCAD Mechanical|Company: Autodesk, Inc."
 90
     1025
280
     0
281
     0
  0
CLASS
  1
ACAMGHOLECHARTSTDDIN
  2
AcAmgHoleChartStdDIN
  3
AmgDim|Product Description: AutoCAD Mechanical|Company: Autodesk, Inc.
 90
     1024
280
     0
281
     0
  0
CLASS
  1
ACAMGTITLESTD
  2
AcAmgTitleStd
  3
"AmgTitle|Product Description: AutoCAD Mechanical|Company: Autodesk, Inc."
 90
     4095
280
     0
281
     0
  0
CLASS
  1
AMDTNOTETEMPLATEDB
  2
AmdtNoteTemplateDB
  3
AcmSymBB|Product Description: AutoCAD Mechanical|Company: Autodesk, Inc.
 90
     1024
280
     0
281
     0
  0
CLASS
  1
EXACXREFPANELOBJECT
  2
ExAcXREFPanelObject
  3
EXAC_ESW
 90
    33793
280
     0
281
     0
  0
CLASS
  1
NPOCOLLECTION
  2
AcDbImpNonPersistentObjectsCollection
  3
ObjectDBX Classes
 90
     1153
280
     0
281
     0
  0
CLASS
  1
ACAMGFILTERDAT
  2
AcAmgFilterDat
  3
"AcadM|Product Description: AutoCAD Mechanical|Company: Autodesk, Inc."
 90
    33792
280
     0
281
     0
  0
CLASS
  1
DIMASSOC
  2
AcDbDimAssoc
  3
"AcDbDimAssoc|Product Desc:     AcDim ARX App For Dimension|Company:          Autodesk, Inc.|WEB Address:      www.autodesk.com"
 90
        0
280
     0
281
     0
  0
CLASS
  1
CAMSSTRUCTBTNSTATE
  2
StructBtnState
  3
DesignerAssemblies
 90
    33792
280
     0
281
     0
  0
CLASS
  1
DICTIONARYVAR
  2
AcDbDictionaryVar
  3
ObjectDBX Classes
 90
        0
280
     0
281
     0
  0
CLASS
  1
SORTENTSTABLE
  2
AcDbSortentsTable
  3
ObjectDBX Classes
 90
        0
280
     0
281
     0
  0
CLASS
  1
ACMSTANDARDANSI
  2
AcmStandardANSI
  3
"Amdt_StdImp|Product Description: AutoCAD Mechanical|Company: Autodesk, Inc."
 90
    33792
280
     0
281
     0
  0
CLASS
  1
ACMSURFSTANDARDANSI
  2
AcmSurfTextStdANSI
  3
"Amdt_StdImp|Product Description: AutoCAD Mechanical|Company: Autodesk, Inc."
 90
    33792
280
     0
281
     0
  0
CLASS
  1
ACMFCFSTANDARDANSI
  2
AcmFCFStdANSI
  3
"Amdt_StdImp|Product Description: AutoCAD Mechanical|Company: Autodesk, Inc."
 90
    33792
280
     0
281
     0
  0
CLASS
  1
ACMWELDSTANDARDANSI
  2
AcmWeldingStdANSI
  3
"Amdt_StdImp|Product Description: AutoCAD Mechanical|Company: Autodesk, Inc."
 90
    33792
280
     0
281
     0
  0
CLASS
  1
ACMIDSTANDARDANSI
  2
AcmIdStdANSI
  3
"Amdt_StdImp|Product Description: AutoCAD Mechanical|Company: Autodesk, Inc."
 90
    33792
280
     0
281
     0
  0
CLASS
  1
ACMDATUMSTANDARDANSI
  2
AcmDatumStdANSI
  3
"Amdt_StdImp|Product Description: AutoCAD Mechanical|Company: Autodesk, Inc."
 90
    33792
280
     0
281
     0
  0
CLASS
  1
ACMBOMSTANDARDANSI
  2
AcmBOMStdANSI
  3
"Amdt_StdImp|Product Description: AutoCAD Mechanical|Company: Autodesk, Inc."
 90
    33792
280
     0
281
     0
  0
CLASS
  1
ACMDETAILSTANDARDANSI
  2
AmdtDetailSymStdANSI
  3
"Amdt_StdImp|Product Description: AutoCAD Mechanical|Company: Autodesk, Inc."
 90
    33792
280
     0
281
     0
  0
CLASS
  1
ACMSECTIONSTANDARDANSI
  2
AmdtSectionSymStdANSI
  3
"Amdt_StdImp|Product Description: AutoCAD Mechanical|Company: Autodesk, Inc."
 90
    33792
280
     0
281
     0
  0
CLASS
  1
ACMCENTERLINESTANDARDANSI
  2
AmdtCenterLineStdANSI
  3
"Amdt_StdImp|Product Description: AutoCAD Mechanical|Company: Autodesk, Inc."
 90
    33792
280
     0
281
     0
  0
CLASS
  1
ACMTHREADLINESTANDARDANSI
  2
AmdtThreadLineStdANSI
  3
"Amdt_StdImp|Product Description: AutoCAD Mechanical|Company: Autodesk, Inc."
 90
    33792
280
     0
281
     0
  0
CLASS
  1
ACMNOTESTANDARDANSI
  2
AmdtNoteStdANSI
  3
"Amdt_StdImp|Product Description: AutoCAD Mechanical|Company: Autodesk, Inc."
 90
    33792
280
     0
281
     0
  0
CLASS
  1
ACMTAPERSTANDARDANSI
  2
AcmTaperStdANSI
  3
"Amdt_StdImp|Product Description: AutoCAD Mechanical|Company: Autodesk, Inc."
 90
    33792
280
     0
281
     0
  0
CLASS
  1
ACMANOOTATIONVIEWSTANDARDANSI
  2
AmdtAnViewStdANSI
  3
"Amdt_StdImp|Product Description: AutoCAD Mechanical|Company: Autodesk, Inc."
 90
    33792
280
     0
281
     0
  0
CLASS
  1
ACAMGHOLECHARTSTDANSI
  2
AcAmgHoleChartStdANSI
  3
AmgDim|Product Description: AutoCAD Mechanical|Company: Autodesk, Inc.
 90
    33792
280
     0
281
     0
  0
CLASS
  1
CELLSTYLEMAP
  2
AcDbCellStyleMap
  3
ObjectDBX Classes
 90
     1152
280
     0
281
     0
  0
CLASS
  1
AEC_REFEDIT_STATUS_TRACKER
  2
AecDbRefEditStatusTracker
  3
AecArchBase60|Product Desc: Autodesk Architectural Desktop 2007 |Company: Autodesk,Inc. |WEB Address: www.autodesk.com
 90
      129
280
     0
281
     0
  0
ENDSEC
  0
SECTION
  2
TABLES
  0
TABLE
  2
VPORT
  5
8
330
0
100
AcDbSymbolTable
 70
     1
  0
VPORT
  5
1F4
330
8
100
AcDbSymbolTableRecord
100
AcDbViewportTableRecord
  2
*ACTIVE
 70
     0
 10
0.0
 20
0.0
 11
1.0
 21
1.0
 12
88.53233834828643
 22
204.4639188548962
 13
0.0
 23
0.0
 14
1.0
 24
1.0
 15
0.0
 25
0.0
 16
0.0
 26
0.0
 36
1.0
 17
0.0
 27
0.0
 37
0.0
 40
586.7268066038569
 41
2.072033898305084
 42
50.0
 43
0.0
 44
0.0
 50
0.0
 51
0.0
 71
     0
 72
   100
 73
     1
 74
     1
 75
     0
 76
     0
 77
     0
 78
     0
281
     0
 65
     0
110
0.0
120
0.0
130
0.0
111
1.0
121
0.0
131
0.0
112
0.0
122
1.0
132
0.0
 79
     0
146
0.0
  0
ENDTAB
  0
TABLE
  2
LTYPE
  5
5
330
0
100
AcDbSymbolTable
 70
    27
  0
LTYPE
  5
14
330
5
100
AcDbSymbolTableRecord
100
AcDbLinetypeTableRecord
  2
BYBLOCK
 70
     0
  3

 72
    65
 73
     0
 40
0.0
  0
LTYPE
  5
15
330
5
100
AcDbSymbolTableRecord
100
AcDbLinetypeTableRecord
  2
BYLAYER
 70
     0
  3

 72
    65
 73
     0
 40
0.0
  0
LTYPE
  5
16
330
5
100
AcDbSymbolTableRecord
100
AcDbLinetypeTableRecord
  2
CONTINUOUS
 70
     0
  3
Solid line
 72
    65
 73
     0
 40
0.0
  0
LTYPE
  5
1F5
330
5
100
AcDbSymbolTableRecord
100
AcDbLinetypeTableRecord
  2
CENTER
 70
     0
  3
____ _ ____ _ ____ _ ____ _ ____ _ ____ _ ____
 72
    65
 73
     4
 40
0.6
 49
0.375
 74
     0
 49
-0.075
 74
     0
 49
0.075
 74
     0
 49
-0.075
 74
     0
  0
LTYPE
  5
1F6
330
5
100
AcDbSymbolTableRecord
100
AcDbLinetypeTableRecord
  2
HIDDEN
 70
     0
  3
- - - - - - - - - - - - - - - - - - - -
 72
    65
 73
     2
 40
0.2
 49
0.1
 74
     0
 49
-0.1
 74
     0
  0
LTYPE
  5
475
330
5
100
AcDbSymbolTableRecord
100
AcDbLinetypeTableRecord
  2
PHANTOM2
 70
     0
  3
Phantom (.5x) ___ _ _ ___ _ _ ___ _ _ ___ _ _
 72
    65
 73
     6
 40
31.75
 49
15.875
 74
     0
 49
-3.174999999999998
 74
     0
 49
3.174999999999998
 74
     0
 49
-3.174999999999998
 74
     0
 49
3.174999999999998
 74
     0
 49
-3.174999999999998
 74
     0
  0
LTYPE
  5
4C2
330
5
100
AcDbSymbolTableRecord
100
AcDbLinetypeTableRecord
  2
Amconstr
 70
     0
  3
_______________________
 72
    65
 73
     2
 40
9999.0
 49
9999.0
 74
     0
 49
0.0
 74
     0
  0
LTYPE
  5
4C7
330
5
100
AcDbSymbolTableRecord
100
AcDbLinetypeTableRecord
  2
Amzigzag
 70
     0
  3
/\/-/\/-/\/-/\/-/\/-/\/
 72
    65
 73
     2
 40
11.0001
 49
0.0001
 74
     4
 75
   136
340
4C6
 46
0.04
 50
0.0
 44
0.0
 45
0.0
 49
-11.0
 74
     0
  0
LTYPE
  5
4C8
330
5
100
AcDbSymbolTableRecord
100
AcDbLinetypeTableRecord
  2
AM_DIN_F_W050
 70
     0
  3
__ __ __ __ __ __ __ __ __ __ __ __ __ __ __
 72
    65
 73
     2
 40
6.25
 49
4.75
 74
     0
 49
-1.5
 74
     0
  0
LTYPE
  5
4C9
330
5
100
AcDbSymbolTableRecord
100
AcDbLinetypeTableRecord
  2
AM_DIN_G_W050
 70
     0
  3
____ . ____ . ____ . ____ . ____ . ____ . ____
 72
    65
 73
     4
 40
13.75
 49
9.75
 74
     0
 49
-1.5
 74
     0
 49
1.0
 74
     0
 49
-1.5
 74
     0
  0
LTYPE
  5
4CA
330
5
100
AcDbSymbolTableRecord
100
AcDbLinetypeTableRecord
  2
AM_DIN_K_W050
 70
     0
  3
_____ . . _____ . . _____ . . ____ .. ____
 72
    65
 73
     6
 40
16.25
 49
9.75
 74
     0
 49
-1.5
 74
     0
 49
1.0
 74
     0
 49
-1.5
 74
     0
 49
1.0
 74
     0
 49
-1.5
 74
     0
  0
LTYPE
  5
4CB
330
5
100
AcDbSymbolTableRecord
100
AcDbLinetypeTableRecord
  2
AM_DIN_G_W050x2
 70
     0
  3
__ . __ . __ . __ . __ . __
 72
    65
 73
     4
 40
6.875
 49
4.75
 74
     0
 49
-0.875
 74
     0
 49
0.375
 74
     0
 49
-0.875
 74
     0
  0
LTYPE
  5
4CC
330
5
100
AcDbSymbolTableRecord
100
AcDbLinetypeTableRecord
  2
AM_DIN_F_W050x2
 70
     0
  3
 _ _ _ _ _ _ _ _ _ _ _ _
 72
    65
 73
     2
 40
3.125
 49
2.25
 74
     0
 49
-0.875
 74
     0
  0
LTYPE
  5
4DB
330
5
100
AcDbSymbolTableRecord
100
AcDbLinetypeTableRecord
  2
ACDINWELD
 70
     0
  3
_ _ _ _ _
 72
    65
 73
     2
 40
2.0
 49
2.0
 74
     0
 49
-1.0
 74
     0
  0
LTYPE
  5
4DC
330
5
100
AcDbSymbolTableRecord
100
AcDbLinetypeTableRecord
  2
ACDINTGB
 70
     0
  3
__ . . __ . .
 72
    65
 73
     6
 40
9.0
 49
4.0
 74
     0
 49
-1.0
 74
     0
 49
1.0
 74
     0
 49
-1.0
 74
     0
 49
1.0
 74
     0
 49
-1.0
 74
     0
  0
LTYPE
  5
4DD
330
5
100
AcDbSymbolTableRecord
100
AcDbLinetypeTableRecord
  2
ACDINTGL
 70
     0
  3
_ _ _ _ _
 72
    65
 73
     2
 40
3.0
 49
2.0
 74
     0
 49
-1.0
 74
     0
  0
ENDTAB
  0
TABLE
  2
LAYER
  5
2
102
{ACAD_XDICTIONARY
360
89A
102
}
330
0
100
AcDbSymbolTable
 70
    17
  0
LAYER
  5
10
330
2
100
AcDbSymbolTableRecord
100
AcDbLayerTableRecord
  2
0
 70
     0
 62
     7
  6
CONTINUOUS
370
    -3
390
F
  0
LAYER
  5
1FE
330
2
100
AcDbSymbolTableRecord
100
AcDbLayerTableRecord
  2
KURVEN
 70
     0
 62
     7
  6
CONTINUOUS
370
    -3
390
F
  0
LAYER
  5
200
330
2
100
AcDbSymbolTableRecord
100
AcDbLayerTableRecord
  2
TEIL_STARTBEZUEGE
 70
     0
 62
     7
  6
CONTINUOUS
370
    -3
390
F
  0
LAYER
  5
4F8
330
2
100
AcDbSymbolTableRecord
100
AcDbLayerTableRecord
  2
Defpoints
 70
     0
 62
     7
  6
CONTINUOUS
290
     0
370
    -3
390
F
  0
LAYER
  5
187E
102
{ACAD_XDICTIONARY
360
187F
102
}
330
2
100
AcDbSymbolTableRecord
100
AcDbLayerTableRecord
  2
RUNDUNGEN
 70
     0
 62
     7
  6
CONTINUOUS
370
    -3
390
F
  0
LAYER
  5
1880
330
2
100
AcDbSymbolTableRecord
100
AcDbLayerTableRecord
  2
P-0000
 70
     0
 62
     7
  6
CONTINUOUS
370
    -3
390
F
  0
LAYER
  5
8CB2
330
2
100
AcDbSymbolTableRecord
100
AcDbLayerTableRecord
  2
AUSFORMSCHRAEGEN
 70
     0
 62
     7
  6
CONTINUOUS
370
    -3
390
F
  0
ENDTAB
  0
TABLE
  2
STYLE
  5
3
330
0
100
AcDbSymbolTable
 70
    19
  0
STYLE
  5
11
330
3
100
AcDbSymbolTableRecord
100
AcDbTextStyleTableRecord
  2
STANDARD
 70
     0
 40
0.0
 41
0.7
 50
0.0
 71
     0
 42
0.2
  3
txt
  4

  0
STYLE
  5
4C6
330
3
100
AcDbSymbolTableRecord
100
AcDbTextStyleTableRecord
  2

 70
     1
 40
0.0
 41
1.0
 50
0.0
 71
     0
 42
0.2
  3
genltshp.shx
  4

  0
STYLE
  5
4DA
330
3
100
AcDbSymbolTableRecord
100
AcDbTextStyleTableRecord
  2
ACDINGDT
 70
     0
 40
0.0
 41
1.0
 50
0.0
 71
     0
 42
0.2
  3
amgdt.shx
  4

  0
ENDTAB
  0
TABLE
  2
VIEW
  5
6
330
0
100
AcDbSymbolTable
 70
     0
  0
ENDTAB
  0
TABLE
  2
UCS
  5
7
330
0
100
AcDbSymbolTable
 70
     0
  0
ENDTAB
  0
TABLE
  2
APPID
  5
9
330
0
100
AcDbSymbolTable
 70
    25
  0
APPID
  5
20F
330
9
100
AcDbSymbolTableRecord
100
AcDbRegAppTableRecord
  2
ACAD
 70
     0
  0
APPID
  5
44A
330
9
100
AcDbSymbolTableRecord
100
AcDbRegAppTableRecord
  2
MCAD_NO_VIS
 70
     0
  0
APPID
  5
44B
330
9
100
AcDbSymbolTableRecord
100
AcDbRegAppTableRecord
  2
ACAD_TEMP_GRAPHIC
 70
     0
  0
APPID
  5
477
330
9
100
AcDbSymbolTableRecord
100
AcDbRegAppTableRecord
  2
AD_DRAW
 70
     0
  0
APPID
  5
47A
330
9
100
AcDbSymbolTableRecord
100
AcDbRegAppTableRecord
  2
ACATTRIBSERVICES
 70
     0
  0
APPID
  5
49E
330
9
100
AcDbSymbolTableRecord
100
AcDbRegAppTableRecord
  2
DESIGNERASSEMBLIES
 70
     0
  0
APPID
  5
4A4
330
9
100
AcDbSymbolTableRecord
100
AcDbRegAppTableRecord
  2
ACADM_DIM_EDIT
 70
     0
  0
APPID
  5
4A5
330
9
100
AcDbSymbolTableRecord
100
AcDbRegAppTableRecord
  2
AMDT_DM_ADJ
 70
     0
  0
APPID
  5
4BC
330
9
100
AcDbSymbolTableRecord
100
AcDbRegAppTableRecord
  2
ACAD_DSTYLE_DIMJAG
 70
     0
  0
APPID
  5
4BD
330
9
100
AcDbSymbolTableRecord
100
AcDbRegAppTableRecord
  2
ACAD_DSTYLE_DIMBREAK
 70
     0
  0
APPID
  5
4F5
330
9
100
AcDbSymbolTableRecord
100
AcDbRegAppTableRecord
  2
AcAecLayerStandard
 70
     0
  0
APPID
  5
4F7
330
9
100
AcDbSymbolTableRecord
100
AcDbRegAppTableRecord
  2
ACAD_DSTYLE_DIMINSPECT
 70
     0
  0
APPID
  5
51F
330
9
100
AcDbSymbolTableRecord
100
AcDbRegAppTableRecord
  2
GENIUS_GENDTOL_13
 70
     0
  0
APPID
  5
897
330
9
100
AcDbSymbolTableRecord
100
AcDbRegAppTableRecord
  2
ACAD_DSTYLE_DIMJOGGED_JOGANGLE_SYMBOL
 70
     0
  0
APPID
  5
898
330
9
100
AcDbSymbolTableRecord
100
AcDbRegAppTableRecord
  2
ACAD_PSEXT
 70
     0
  0
APPID
  5
1889
330
9
100
AcDbSymbolTableRecord
100
AcDbRegAppTableRecord
  2
GENIUS_GENOBJ-N-CEN_13
 70
     0
  0
APPID
  5
188A
330
9
100
AcDbSymbolTableRecord
100
AcDbRegAppTableRecord
  2
GENIUS_GENODEF_13
 70
     0
  0
APPID
  5
188B
330
9
100
AcDbSymbolTableRecord
100
AcDbRegAppTableRecord
  2
GENIUS_GENCEN_19
 70
     0
  0
APPID
  5
897A
330
9
100
AcDbSymbolTableRecord
100
AcDbRegAppTableRecord
  2
ACAD_MLEADERVER
 70
     0
  0
APPID
  5
897B
330
9
100
AcDbSymbolTableRecord
100
AcDbRegAppTableRecord
  2
ACAD_DSTYLE_DIM_LINETYPE
 70
     0
  0
APPID
  5
897C
330
9
100
AcDbSymbolTableRecord
100
AcDbRegAppTableRecord
  2
ACAD_DSTYLE_DIM_EXT1_LINETYPE
 70
     0
  0
APPID
  5
897D
330
9
100
AcDbSymbolTableRecord
100
AcDbRegAppTableRecord
  2
ACAD_DSTYLE_DIM_EXT2_LINETYPE
 70
     0
  0
APPID
  5
897E
330
9
100
AcDbSymbolTableRecord
100
AcDbRegAppTableRecord
  2
ACAD_DSTYLE_DIMARC_LENGTH_SYMBOL
 70
     0
  0
APPID
  5
9317
330
9
100
AcDbSymbolTableRecord
100
AcDbRegAppTableRecord
  2
ACAD_EXEMPT_FROM_CAD_STANDARDS
 70
     0
  0
APPID
  5
95F3
330
9
100
AcDbSymbolTableRecord
100
AcDbRegAppTableRecord
  2
GENIUS_GENOBJ-N-FIL_13
 70
     0
  0
ENDTAB
  0
TABLE
  2
DIMSTYLE
  5
A
330
0
100
AcDbSymbolTable
 70
    28
100
AcDbDimStyleTable
 71
     3
340
21E
340
1888
340
4BB
  0
DIMSTYLE
105
21E
330
A
100
AcDbSymbolTableRecord
100
AcDbDimStyleTableRecord
  2
STANDARD
 70
     0
 41
3.5
 42
1.5
 44
1.5
 47
0.005
 48
0.005
 71
     1
 73
     0
 74
     0
 77
     1
 78
     8
140
3.5
147
0.625
178
     5
271
     3
272
     3
284
     8
340
11
341
212
342
212
343
212
344
212
  0
DIMSTYLE
105
4BB
102
{ACAD_REACTORS
330
992E
102
}
330
A
100
AcDbSymbolTableRecord
100
AcDbDimStyleTableRecord
  2
AM_DIN
 70
     0
  4
"
 41
3.5
 42
1.0
 43
10.0
 44
1.0
 47
0.1
 48
0.1
 73
     0
 74
     0
 77
     1
 78
     8
 79
     2
140
3.5
141
0.0
143
0.0393701
146
0.71
147
1.5
172
     1
176
   256
177
   256
178
     2
271
     2
272
     3
274
     4
283
     0
284
     8
340
11
371
    -1
372
    -1
1001
ACAD_DSTYLE_DIMJAG
1070
   388
1040
1.5
1001
ACAD_DSTYLE_DIMBREAK
1070
   391
1040
3.75
1001
ACAD_DSTYLE_DIMJOGGED_JOGANGLE_SYMBOL
1070
   384
1040
1.570796326794896
1001
ACAD_DSTYLE_DIM_LINETYPE
1070
   380
1005
14
1001
ACAD_DSTYLE_DIM_EXT1_LINETYPE
1070
   381
1005
14
1001
ACAD_DSTYLE_DIM_EXT2_LINETYPE
1070
   382
1005
14
  0
DIMSTYLE
105
4CD
330
A
100
AcDbSymbolTableRecord
100
AcDbDimStyleTableRecord
  2
AM_DIN$3
 70
     0
  4
"
 41
3.5
 42
1.0
 43
10.0
 44
1.0
 47
0.1
 48
0.1
 73
     0
 77
     1
 78
     8
 79
     2
140
3.5
141
0.0
143
0.0393701
146
0.71
147
1.5
176
   256
177
   256
178
     2
271
     2
272
     3
274
     4
283
     0
284
     8
288
     1
289
     0
340
11
371
    -1
372
    -1
1001
ACAD_DSTYLE_DIMBREAK
1070
   391
1040
3.75
1001
ACAD_DSTYLE_DIMJAG
1070
   388
1040
1.5
1001
ACAD_DSTYLE_DIMJOGGED_JOGANGLE_SYMBOL
1070
   384
1040
1.570796326794896
1001
ACAD_DSTYLE_DIM_LINETYPE
1070
   380
1005
14
1001
ACAD_DSTYLE_DIM_EXT1_LINETYPE
1070
   381
1005
14
1001
ACAD_DSTYLE_DIM_EXT2_LINETYPE
1070
   382
1005
14
  0
DIMSTYLE
105
4CE
330
A
100
AcDbSymbolTableRecord
100
AcDbDimStyleTableRecord
  2
AM_DIN$4
 70
     0
  4
"
 41
3.5
 42
1.0
 43
10.0
 44
1.0
 47
0.1
 48
0.1
 73
     0
 77
     1
 78
     8
 79
     2
140
3.5
141
0.0
143
0.0393701
146
0.71
147
1.5
176
   256
177
   256
178
     2
271
     2
272
     3
274
     4
283
     0
284
     8
288
     1
289
     0
340
11
371
    -1
372
    -1
1001
ACAD_DSTYLE_DIMBREAK
1070
   391
1040
3.75
1001
ACAD_DSTYLE_DIMJAG
1070
   388
1040
1.5
1001
ACAD_DSTYLE_DIMJOGGED_JOGANGLE_SYMBOL
1070
   384
1040
1.570796326794896
1001
ACAD_DSTYLE_DIM_LINETYPE
1070
   380
1005
14
1001
ACAD_DSTYLE_DIM_EXT1_LINETYPE
1070
   381
1005
14
1001
ACAD_DSTYLE_DIM_EXT2_LINETYPE
1070
   382
1005
14
  0
DIMSTYLE
105
4CF
330
A
100
AcDbSymbolTableRecord
100
AcDbDimStyleTableRecord
  2
AM_DIN$6
 70
     0
  4
"
 41
3.5
 42
1.0
 43
10.0
 44
1.0
 47
0.1
 48
0.1
 73
     0
 74
     0
 78
     8
 79
     2
140
3.5
141
0.0
143
0.0393701
146
0.71
147
1.5
172
     1
176
   256
177
   256
178
     2
271
     2
272
     3
274
     4
283
     0
284
     8
340
11
371
    -1
372
    -1
1001
ACAD_DSTYLE_DIMBREAK
1070
   391
1040
3.75
1001
ACAD_DSTYLE_DIMJAG
1070
   388
1040
1.5
1001
ACAD_DSTYLE_DIMJOGGED_JOGANGLE_SYMBOL
1070
   384
1040
1.570796326794896
1001
ACAD_DSTYLE_DIM_LINETYPE
1070
   380
1005
14
1001
ACAD_DSTYLE_DIM_EXT1_LINETYPE
1070
   381
1005
14
1001
ACAD_DSTYLE_DIM_EXT2_LINETYPE
1070
   382
1005
14
  0
DIMSTYLE
105
4D0
330
A
100
AcDbSymbolTableRecord
100
AcDbDimStyleTableRecord
  2
AM_DIN$7
 70
     0
  4
"
 41
3.5
 42
1.0
 43
10.0
 44
1.0
 47
0.1
 48
0.1
 73
     0
 74
     0
 77
     1
 78
     8
 79
     2
140
3.5
141
0.0
143
0.0393701
146
0.71
147
1.5
172
     1
176
   256
177
   256
178
     2
271
     2
272
     3
274
     4
283
     0
284
     8
340
11
371
    -1
372
    -1
1001
ACAD_DSTYLE_DIMBREAK
1070
   391
1040
3.75
1001
ACAD_DSTYLE_DIMJAG
1070
   388
1040
1.5
1001
ACAD_DSTYLE_DIMJOGGED_JOGANGLE_SYMBOL
1070
   384
1040
1.570796326794896
1001
ACAD_DSTYLE_DIM_LINETYPE
1070
   380
1005
14
1001
ACAD_DSTYLE_DIM_EXT1_LINETYPE
1070
   381
1005
14
1001
ACAD_DSTYLE_DIM_EXT2_LINETYPE
1070
   382
1005
14
  0
DIMSTYLE
105
4D1
330
A
100
AcDbSymbolTableRecord
100
AcDbDimStyleTableRecord
  2
AM_DIN$SF
 70
     0
  4
"
 41
3.5
 42
1.0
 43
10.0
 44
1.0
 47
0.1
 48
0.1
 73
     0
 74
     0
 75
     1
 76
     1
 77
     1
 78
     8
 79
     2
140
3.5
141
0.0
143
0.0393701
146
0.71
147
1.5
172
     1
176
   256
177
   256
178
     2
271
     2
272
     3
274
     4
283
     0
284
     8
340
11
371
    -1
372
    -1
1001
ACAD_DSTYLE_DIMBREAK
1070
   391
1040
3.75
1001
ACAD_DSTYLE_DIMJAG
1070
   388
1040
1.5
1001
ACAD_DSTYLE_DIMJOGGED_JOGANGLE_SYMBOL
1070
   384
1040
1.570796326794896
1001
ACAD_DSTYLE_DIM_LINETYPE
1070
   380
1005
14
1001
ACAD_DSTYLE_DIM_EXT1_LINETYPE
1070
   381
1005
14
1001
ACAD_DSTYLE_DIM_EXT2_LINETYPE
1070
   382
1005
14
  0
DIMSTYLE
105
4D6
330
A
100
AcDbSymbolTableRecord
100
AcDbDimStyleTableRecord
  2
AM_DIN$SH
 70
     0
  4
"
 41
3.5
 42
1.0
 43
10.0
 44
1.0
 47
0.1
 48
0.1
 73
     0
 74
     0
 75
     1
 76
     1
 77
     1
 78
     8
 79
     2
140
3.5
141
0.0
143
0.0393701
144
2.0
146
0.71
147
1.5
172
     1
173
     1
176
   256
177
   256
178
     2
271
     2
272
     3
274
     4
283
     0
284
     8
340
11
343
4D2
371
    -1
372
    -1
1001
ACAD_DSTYLE_DIMBREAK
1070
   391
1040
3.75
1001
ACAD_DSTYLE_DIMJAG
1070
   388
1040
1.5
1001
ACAD_DSTYLE_DIMJOGGED_JOGANGLE_SYMBOL
1070
   384
1040
1.570796326794896
1001
ACAD_DSTYLE_DIM_LINETYPE
1070
   380
1005
14
1001
ACAD_DSTYLE_DIM_EXT1_LINETYPE
1070
   381
1005
14
1001
ACAD_DSTYLE_DIM_EXT2_LINETYPE
1070
   382
1005
14
  0
DIMSTYLE
105
896
330
A
100
AcDbSymbolTableRecord
100
AcDbDimStyleTableRecord
  2
AM_DIN$0
 70
     0
  4
"
 40
5.0
 41
2.5
 42
1.0
 43
10.0
 44
1.0
 47
0.1
 48
0.1
 73
     0
 74
     0
 77
     1
 78
     8
 79
     2
140
3.5
141
0.0
143
0.0393701
146
0.71
147
1.5
172
     1
176
   256
177
   256
178
     2
271
     2
272
     2
283
     0
284
     8
340
11
371
    -1
372
    -1
1001
ACAD_DSTYLE_DIMJOGGED_JOGANGLE_SYMBOL
1070
   384
1040
1.570796326794896
  0
DIMSTYLE
105
1888
102
{ACAD_REACTORS
330
534
330
7FE
330
82C
330
505
330
770
330
95F8
102
}
330
A
100
AcDbSymbolTableRecord
100
AcDbDimStyleTableRecord
  2
883N99122_001_00149479900
 70
     0
 40
2.0
 41
3.149999999999999
 42
0.0
 43
3.75
 44
2.0
 73
     0
 74
     0
 77
     1
 78
     8
 79
     2
140
3.5
141
0.0
143
0.03937007874016
145
2.0
147
2.0
171
     3
172
     1
173
     1
176
     3
177
     3
178
     2
179
     2
271
     2
272
     2
274
     3
283
     0
284
     8
340
11
341
1874
  0
ENDTAB
  0
TABLE
  2
BLOCK_RECORD
  5
1
330
0
100
AcDbSymbolTable
 70
    94
  0
BLOCK_RECORD
  5
210
102
{ACAD_XDICTIONARY
360
9354
102
}
330
1
100
AcDbSymbolTableRecord
100
AcDbBlockTableRecord
  2
*Model_Space
340
3FD
  0
BLOCK_RECORD
  5
211
330
1
100
AcDbSymbolTableRecord
100
AcDbBlockTableRecord
  2
*Paper_Space
340
3FE
  0
BLOCK_RECORD
  5
212
330
1
100
AcDbSymbolTableRecord
100
AcDbBlockTableRecord
  2
_FILLED
340
0
  0
BLOCK_RECORD
  5
4D2
330
1
100
AcDbSymbolTableRecord
100
AcDbBlockTableRecord
  2
GENAXEH
340
0
  0
BLOCK_RECORD
  5
506
330
1
100
AcDbSymbolTableRecord
100
AcDbBlockTableRecord
  2
*D10
340
0
  0
BLOCK_RECORD
  5
535
330
1
100
AcDbSymbolTableRecord
100
AcDbBlockTableRecord
  2
*D11
340
0
  0
BLOCK_RECORD
  5
771
330
1
100
AcDbSymbolTableRecord
100
AcDbBlockTableRecord
  2
*D12
340
0
  0
BLOCK_RECORD
  5
7FF
330
1
100
AcDbSymbolTableRecord
100
AcDbBlockTableRecord
  2
*D14
340
0
  0
BLOCK_RECORD
  5
82D
330
1
100
AcDbSymbolTableRecord
100
AcDbBlockTableRecord
  2
*D15
340
0
  0
BLOCK_RECORD
  5
1874
330
1
100
AcDbSymbolTableRecord
100
AcDbBlockTableRecord
  2
_None
340
0
  0
BLOCK_RECORD
  5
95F9
330
1
100
AcDbSymbolTableRecord
100
AcDbBlockTableRecord
  2
*D87
340
0
  0
ENDTAB
  0
ENDSEC
  0
SECTION
  2
BLOCKS
  0
BLOCK
  5
20
330
210
100
AcDbEntity
  8
0
100
AcDbBlockBegin
  2
*Model_Space
 70
     0
 10
0.0
 20
0.0
 30
0.0
  3
*Model_Space
  1

  0
ENDBLK
  5
21
330
210
100
AcDbEntity
  8
0
100
AcDbBlockEnd
  0
BLOCK
  5
1C
330
211
100
AcDbEntity
 67
     1
  8
0
100
AcDbBlockBegin
  2
*Paper_Space
 70
     0
 10
0.0
 20
0.0
 30
0.0
  3
*Paper_Space
  1

  0
ENDBLK
  5
1D
330
211
100
AcDbEntity
 67
     1
  8
0
100
AcDbBlockEnd
  0
BLOCK
  5
229
330
212
100
AcDbEntity
  8
0
100
AcDbBlockBegin
  2
_FILLED
 70
     0
 10
0.0
 20
0.0
 30
0.0
  3
_FILLED
  1

  0
SOLID
  5
22A
330
212
100
AcDbEntity
  8
0
  6
ByBlock
 62
     0
100
AcDbTrace
 10
0.0
 20
0.0
 30
0.0
 11
-1.0
 21
0.125
 31
0.0
 12
-1.0
 22
-0.125
 32
0.0
 13
-1.0
 23
-0.125
 33
0.0
  0
ENDBLK
  5
22B
330
212
100
AcDbEntity
  8
0
  6
ByBlock
 62
     0
100
AcDbBlockEnd
  0
BLOCK
  5
4D4
330
4D2
100
AcDbEntity
  8
0
100
AcDbBlockBegin
  2
GENAXEH
 70
     0
 10
0.0
 20
0.0
 30
0.0
  3
GENAXEH
  1

  0
LINE
  5
4D3
330
4D2
100
AcDbEntity
  8
0
100
AcDbLine
 10
-1.0
 20
0.0
 30
0.0
 11
1.0
 21
0.0
 31
0.0
  0
ENDBLK
  5
4D5
330
4D2
100
AcDbEntity
  8
0
100
AcDbBlockEnd
  0
BLOCK
  5
507
330
506
100
AcDbEntity
  8
0
100
AcDbBlockBegin
  2
*D10
 70
     1
 10
0.0
 20
0.0
 30
0.0
  3
*D10
  1

  0
LINE
  5
9982
330
506
100
AcDbEntity
  8
P-0000
  6
Continuous
 62
     3
370
    -2
100
AcDbLine
 10
-353.3538133146012
 20
209.986907806488
 30
0.0
 11
-353.3538133146012
 21
187.6950004157959
 31
0.0
  0
LINE
  5
9983
330
506
100
AcDbEntity
  8
P-0000
  6
Continuous
 62
     3
370
    -2
100
AcDbLine
 10
546.4573745847688
 20
209.986907806488
 30
0.0
 11
546.4573745847688
 21
187.6950004157959
 31
0.0
  0
LINE
  5
9984
330
506
100
AcDbEntity
  8
P-0000
  6
Continuous
 62
     3
370
    -2
100
AcDbLine
 10
-347.0538133146012
 20
191.6950004157959
 30
0.0
 11
540.1573745847688
 21
191.6950004157959
 31
0.0
  0
SOLID
  5
9985
330
506
100
AcDbEntity
  8
P-0000
  6
Continuous
 62
     3
100
AcDbTrace
 10
-347.0538133146012
 20
192.7450004157959
 30
0.0
 11
-347.0538133146012
 21
190.6450004157959
 31
0.0
 12
-353.3538133146012
 22
191.6950004157959
 32
0.0
 13
-353.3538133146012
 23
191.6950004157959
 33
0.0
  0
SOLID
  5
9986
330
506
100
AcDbEntity
  8
P-0000
  6
Continuous
 62
     3
100
AcDbTrace
 10
540.1573745847688
 20
192.7450004157959
 30
0.0
 11
540.1573745847688
 21
190.6450004157959
 31
0.0
 12
546.4573745847688
 22
191.6950004157959
 32
0.0
 13
546.4573745847688
 23
191.6950004157959
 33
0.0
  0
MTEXT
  5
9987
330
506
100
AcDbEntity
  8
P-0000
  6
Continuous
 62
     2
100
AcDbMText
 10
80.85550170181523
 20
199.1950004157959
 30
0.0
 40
7.0
 41
0.0
 71
     5
 72
     1
  1
900
 73
     1
 44
1.0
1001
ACAD
1000
MTEXTBEGIN
1070
    73
1070
     1
1070
    44
1040
1.0
1070
    74
1070
     0
1000
MTEXTEND
  0
POINT
  5
9988
330
506
100
AcDbEntity
  8
Defpoints
  6
Continuous
 62
     0
100
AcDbPoint
 10
-353.3538133146012
 20
209.986907806488
 30
0.0
  0
POINT
  5
9989
330
506
100
AcDbEntity
  8
Defpoints
  6
Continuous
 62
     0
100
AcDbPoint
 10
546.4573745847688
 20
209.986907806488
 30
0.0
  0
POINT
  5
998A
330
506
100
AcDbEntity
  8
Defpoints
  6
Continuous
 62
     0
100
AcDbPoint
 10
546.4573745847688
 20
191.6950004157959
 30
0.0
  0
ENDBLK
  5
508
330
506
100
AcDbEntity
  8
0
100
AcDbBlockEnd
  0
BLOCK
  5
536
330
535
100
AcDbEntity
  8
0
100
AcDbBlockBegin
  2
*D11
 70
     1
 10
0.0
 20
0.0
 30
0.0
  3
*D11
  1

  0
LINE
  5
9951
330
535
100
AcDbEntity
  8
P-0000
  6
Continuous
 62
     3
370
    -2
100
AcDbLine
 10
546.4481866853986
 20
236.746874156488
 30
0.0
 11
584.5822590445941
 21
236.746874156488
 31
0.0
  0
LINE
  5
9952
330
535
100
AcDbEntity
  8
P-0000
  6
Continuous
 62
     3
370
    -2
100
AcDbLine
 10
546.4481866853986
 20
216.486907806488
 30
0.0
 11
584.5822590445941
 21
216.486907806488
 31
0.0
  0
LINE
  5
9953
330
535
100
AcDbEntity
  8
P-0000
  6
Continuous
 62
     3
370
    -2
100
AcDbLine
 10
580.5822590445941
 20
243.046874156488
 30
0.0
 11
580.5822590445941
 21
249.346874156488
 31
0.0
  0
LINE
  5
9954
330
535
100
AcDbEntity
  8
P-0000
  6
Continuous
 62
     3
370
    -2
100
AcDbLine
 10
580.5822590445941
 20
210.186907806488
 30
0.0
 11
580.5822590445941
 21
203.886907806488
 31
0.0
  0
LINE
  5
9955
330
535
100
AcDbEntity
  8
P-0000
  6
Continuous
 62
     3
370
    -2
100
AcDbLine
 10
580.5822590445941
 20
236.746874156488
 30
0.0
 11
580.5822590445941
 21
216.486907806488
 31
0.0
  0
SOLID
  5
9956
330
535
100
AcDbEntity
  8
P-0000
  6
Continuous
 62
     3
100
AcDbTrace
 10
579.5322590445941
 20
243.046874156488
 30
0.0
 11
581.6322590445941
 21
243.046874156488
 31
0.0
 12
580.5822590445941
 22
236.746874156488
 32
0.0
 13
580.5822590445941
 23
236.746874156488
 33
0.0
  0
SOLID
  5
9957
330
535
100
AcDbEntity
  8
P-0000
  6
Continuous
 62
     3
100
AcDbTrace
 10
579.5322590445941
 20
210.186907806488
 30
0.0
 11
581.6322590445941
 21
210.186907806488
 31
0.0
 12
580.5822590445941
 22
216.486907806488
 32
0.0
 13
580.5822590445941
 23
216.486907806488
 33
0.0
  0
MTEXT
  5
9958
330
535
100
AcDbEntity
  8
P-0000
  6
Continuous
 62
     2
100
AcDbMText
 10
573.0822590445941
 20
226.6168909814881
 30
0.0
 40
7.0
 41
0.0
 71
     5
 72
     1
  1
20
 11
0.0000000000000001
 21
1.0
 31
0.0
 73
     1
 44
1.0
1001
ACAD
1000
MTEXTBEGIN
1070
    73
1070
     1
1070
    44
1040
1.0
1070
    74
1070
     0
1000
MTEXTEND
  0
POINT
  5
9959
330
535
100
AcDbEntity
  8
Defpoints
  6
Continuous
 62
     0
100
AcDbPoint
 10
546.4481866853986
 20
236.746874156488
 30
0.0
  0
POINT
  5
995A
330
535
100
AcDbEntity
  8
Defpoints
  6
Continuous
 62
     0
100
AcDbPoint
 10
546.4481866853986
 20
216.486907806488
 30
0.0
  0
POINT
  5
995B
330
535
100
AcDbEntity
  8
Defpoints
  6
Continuous
 62
     0
100
AcDbPoint
 10
580.5822590445941
 20
216.486907806488
 30
0.0
  0
ENDBLK
  5
537
330
535
100
AcDbEntity
  8
0
100
AcDbBlockEnd
  0
BLOCK
  5
772
330
771
100
AcDbEntity
  8
0
100
AcDbBlockBegin
  2
*D12
 70
     1
 10
0.0
 20
0.0
 30
0.0
  3
*D12
  1

  0
LINE
  5
995C
330
771
100
AcDbEntity
  8
P-0000
  6
Continuous
 62
     3
370
    -2
100
AcDbLine
 10
546.4207989937007
 20
297.2235694199759
 30
0.0
 11
583.8387445457783
 21
297.2235694199759
 31
0.0
  0
LINE
  5
995D
330
771
100
AcDbEntity
  8
P-0000
  6
Continuous
 62
     3
370
    -2
100
AcDbLine
 10
546.4207989937007
 20
286.7287669199761
 30
0.0
 11
583.8387445457783
 21
286.7287669199761
 31
0.0
  0
LINE
  5
995E
330
771
100
AcDbEntity
  8
P-0000
  6
Continuous
 62
     3
370
    -2
100
AcDbLine
 10
579.8387445457783
 20
303.5235694199759
 30
0.0
 11
579.8387445457783
 21
309.8235694199759
 31
0.0
  0
LINE
  5
995F
330
771
100
AcDbEntity
  8
P-0000
  6
Continuous
 62
     3
370
    -2
100
AcDbLine
 10
579.8387445457783
 20
280.4287669199761
 30
0.0
 11
579.8387445457783
 21
274.1287669199761
 31
0.0
  0
LINE
  5
9960
330
771
100
AcDbEntity
  8
P-0000
  6
Continuous
 62
     3
370
    -2
100
AcDbLine
 10
579.8387445457783
 20
297.2235694199759
 30
0.0
 11
579.8387445457783
 21
286.7287669199761
 31
0.0
  0
SOLID
  5
9961
330
771
100
AcDbEntity
  8
P-0000
  6
Continuous
 62
     3
100
AcDbTrace
 10
578.7887445457783
 20
303.5235694199759
 30
0.0
 11
580.8887445457783
 21
303.5235694199759
 31
0.0
 12
579.8387445457783
 22
297.2235694199759
 32
0.0
 13
579.8387445457783
 23
297.2235694199759
 33
0.0
  0
SOLID
  5
9962
330
771
100
AcDbEntity
  8
P-0000
  6
Continuous
 62
     3
100
AcDbTrace
 10
578.7887445457783
 20
280.4287669199761
 30
0.0
 11
580.8887445457783
 21
280.4287669199761
 31
0.0
 12
579.8387445457783
 22
286.7287669199761
 32
0.0
 13
579.8387445457783
 23
286.7287669199761
 33
0.0
  0
MTEXT
  5
9963
330
771
100
AcDbEntity
  8
P-0000
  6
Continuous
 62
     2
100
AcDbMText
 10
572.3387445457782
 20
291.976168169976
 30
0.0
 40
7.0
 41
0.0
 71
     5
 72
     1
  1
10
 11
0.0000000000000001
 21
1.0
 31
0.0
 73
     1
 44
1.0
1001
ACAD
1000
MTEXTBEGIN
1070
    73
1070
     1
1070
    44
1040
1.0
1070
    74
1070
     0
1000
MTEXTEND
  0
POINT
  5
9964
330
771
100
AcDbEntity
  8
Defpoints
  6
Continuous
 62
     0
100
AcDbPoint
 10
546.4207989937007
 20
297.2235694199759
 30
0.0
  0
POINT
  5
9965
330
771
100
AcDbEntity
  8
Defpoints
  6
Continuous
 62
     0
100
AcDbPoint
 10
546.4207989937007
 20
286.7287669199761
 30
0.0
  0
POINT
  5
9966
330
771
100
AcDbEntity
  8
Defpoints
  6
Continuous
 62
     0
100
AcDbPoint
 10
579.8387445457783
 20
286.7287669199761
 30
0.0
  0
ENDBLK
  5
773
330
771
100
AcDbEntity
  8
0
100
AcDbBlockEnd
  0
BLOCK
  5
800
330
7FF
100
AcDbEntity
  8
0
100
AcDbBlockBegin
  2
*D14
 70
     1
 10
0.0
 20
0.0
 30
0.0
  3
*D14
  1

  0
LINE
  5
9853
330
7FF
100
AcDbEntity
  8
P-0000
  6
Continuous
 62
     3
370
    -2
100
AcDbLine
 10
-416.7447293459656
 20
297.210437204477
 30
0.0
 11
-416.7447293459656
 21
317.3877047105077
 31
0.0
  0
LINE
  5
9854
330
7FF
100
AcDbEntity
  8
P-0000
  6
Continuous
 62
     3
370
    -2
100
AcDbLine
 10
-396.4747293459657
 20
297.210437204477
 30
0.0
 11
-396.4747293459657
 21
317.3877047105077
 31
0.0
  0
LINE
  5
9855
330
7FF
100
AcDbEntity
  8
P-0000
  6
Continuous
 62
     3
370
    -2
100
AcDbLine
 10
-423.0447293459656
 20
313.3877047105077
 30
0.0
 11
-429.3447293459657
 21
313.3877047105077
 31
0.0
  0
LINE
  5
9856
330
7FF
100
AcDbEntity
  8
P-0000
  6
Continuous
 62
     3
370
    -2
100
AcDbLine
 10
-390.1747293459657
 20
313.3877047105077
 30
0.0
 11
-383.8747293459657
 21
313.3877047105077
 31
0.0
  0
LINE
  5
9857
330
7FF
100
AcDbEntity
  8
P-0000
  6
Continuous
 62
     3
370
    -2
100
AcDbLine
 10
-416.7447293459656
 20
313.3877047105077
 30
0.0
 11
-396.4747293459657
 21
313.3877047105077
 31
0.0
  0
SOLID
  5
9858
330
7FF
100
AcDbEntity
  8
P-0000
  6
Continuous
 62
     3
100
AcDbTrace
 10
-423.0447293459656
 20
314.4377047105077
 30
0.0
 11
-423.0447293459656
 21
312.3377047105077
 31
0.0
 12
-416.7447293459656
 22
313.3877047105077
 32
0.0
 13
-416.7447293459656
 23
313.3877047105077
 33
0.0
  0
SOLID
  5
9859
330
7FF
100
AcDbEntity
  8
P-0000
  6
Continuous
 62
     3
100
AcDbTrace
 10
-390.1747293459657
 20
314.4377047105077
 30
0.0
 11
-390.1747293459657
 21
312.3377047105077
 31
0.0
 12
-396.4747293459657
 22
313.3877047105077
 32
0.0
 13
-396.4747293459657
 23
313.3877047105077
 33
0.0
  0
MTEXT
  5
985A
330
7FF
100
AcDbEntity
  8
P-0000
  6
Continuous
 62
     2
100
AcDbMText
 10
-406.6097293459656
 20
320.8877047105077
 30
0.0
 40
7.0
 41
0.0
 71
     5
 72
     1
  1
20
 73
     1
 44
1.0
1001
ACAD
1000
MTEXTBEGIN
1070
    73
1070
     1
1070
    44
1040
1.0
1070
    74
1070
     0
1000
MTEXTEND
  0
POINT
  5
985B
330
7FF
100
AcDbEntity
  8
Defpoints
  6
Continuous
 62
     0
100
AcDbPoint
 10
-416.7447293459656
 20
297.210437204477
 30
0.0
  0
POINT
  5
985C
330
7FF
100
AcDbEntity
  8
Defpoints
  6
Continuous
 62
     0
100
AcDbPoint
 10
-396.4747293459657
 20
297.210437204477
 30
0.0
  0
POINT
  5
985D
330
7FF
100
AcDbEntity
  8
Defpoints
  6
Continuous
 62
     0
100
AcDbPoint
 10
-396.4747293459657
 20
313.3877047105077
 30
0.0
  0
ENDBLK
  5
801
330
7FF
100
AcDbEntity
  8
0
100
AcDbBlockEnd
  0
BLOCK
  5
82E
330
82D
100
AcDbEntity
  8
0
100
AcDbBlockBegin
  2
*D15
 70
     1
 10
0.0
 20
0.0
 30
0.0
  3
*D15
  1

  0
LINE
  5
985E
330
82D
100
AcDbEntity
  8
P-0000
  6
Continuous
 62
     3
370
    -2
100
AcDbLine
 10
-416.7447293459656
 20
297.210437204477
 30
0.0
 11
-443.1007095601211
 21
297.210437204477
 31
0.0
  0
LINE
  5
985F
330
82D
100
AcDbEntity
  8
P-0000
  6
Continuous
 62
     3
370
    -2
100
AcDbLine
 10
-416.3220796151553
 20
286.8939406235493
 30
0.0
 11
-443.1007095601211
 21
286.8939406235493
 31
0.0
  0
LINE
  5
9860
330
82D
100
AcDbEntity
  8
P-0000
  6
Continuous
 62
     3
370
    -2
100
AcDbLine
 10
-439.1007095601211
 20
303.5104372044771
 30
0.0
 11
-439.1007095601211
 21
309.8104372044771
 31
0.0
  0
LINE
  5
9861
330
82D
100
AcDbEntity
  8
P-0000
  6
Continuous
 62
     3
370
    -2
100
AcDbLine
 10
-439.1007095601211
 20
280.5939406235493
 30
0.0
 11
-439.1007095601211
 21
274.2939406235493
 31
0.0
  0
LINE
  5
9862
330
82D
100
AcDbEntity
  8
P-0000
  6
Continuous
 62
     3
370
    -2
100
AcDbLine
 10
-439.1007095601211
 20
297.210437204477
 30
0.0
 11
-439.1007095601211
 21
286.8939406235493
 31
0.0
  0
SOLID
  5
9863
330
82D
100
AcDbEntity
  8
P-0000
  6
Continuous
 62
     3
100
AcDbTrace
 10
-440.1507095601211
 20
303.5104372044771
 30
0.0
 11
-438.0507095601211
 21
303.5104372044771
 31
0.0
 12
-439.1007095601211
 22
297.210437204477
 32
0.0
 13
-439.1007095601211
 23
297.210437204477
 33
0.0
  0
SOLID
  5
9864
330
82D
100
AcDbEntity
  8
P-0000
  6
Continuous
 62
     3
100
AcDbTrace
 10
-440.1507095601211
 20
280.5939406235493
 30
0.0
 11
-438.0507095601211
 21
280.5939406235493
 31
0.0
 12
-439.1007095601211
 22
286.8939406235493
 32
0.0
 13
-439.1007095601211
 23
286.8939406235493
 33
0.0
  0
MTEXT
  5
9865
330
82D
100
AcDbEntity
  8
P-0000
  6
Continuous
 62
     2
100
AcDbMText
 10
-446.6007095601211
 20
292.0521889140131
 30
0.0
 40
7.0
 41
0.0
 71
     5
 72
     1
  1
10
 11
0.0000000000000001
 21
1.0
 31
0.0
 73
     1
 44
1.0
1001
ACAD
1000
MTEXTBEGIN
1070
    73
1070
     1
1070
    44
1040
1.0
1070
    74
1070
     0
1000
MTEXTEND
  0
POINT
  5
9866
330
82D
100
AcDbEntity
  8
Defpoints
  6
Continuous
 62
     0
100
AcDbPoint
 10
-416.7447293459656
 20
297.210437204477
 30
0.0
  0
POINT
  5
9867
330
82D
100
AcDbEntity
  8
Defpoints
  6
Continuous
 62
     0
100
AcDbPoint
 10
-416.3220796151553
 20
286.8939406235493
 30
0.0
  0
POINT
  5
9868
330
82D
100
AcDbEntity
  8
Defpoints
  6
Continuous
 62
     0
100
AcDbPoint
 10
-439.1007095601211
 20
286.8939406235493
 30
0.0
  0
ENDBLK
  5
82F
330
82D
100
AcDbEntity
  8
0
100
AcDbBlockEnd
  0
BLOCK
  5
1875
330
1874
100
AcDbEntity
  8
0
100
AcDbBlockBegin
  2
_None
 70
     0
 10
0.0
 20
0.0
 30
0.0
  3
_None
  1

  0
ENDBLK
  5
1876
330
1874
100
AcDbEntity
  8
0
100
AcDbBlockEnd
  0
BLOCK
  5
95FA
330
95F9
100
AcDbEntity
  8
0
100
AcDbBlockBegin
  2
*D87
 70
     1
 10
0.0
 20
0.0
 30
0.0
  3
*D87
  1

  0
LINE
  5
9970
330
95F9
100
AcDbEntity
  8
P-0000
  6
Continuous
 62
     3
370
    -2
100
AcDbLine
 10
-353.3538133146012
 20
297.2235694199759
 30
0.0
 11
-353.3538133146012
 21
330.3212820385605
 31
0.0
  0
LINE
  5
9971
330
95F9
100
AcDbEntity
  8
P-0000
  6
Continuous
 62
     3
370
    -2
100
AcDbLine
 10
546.4207989937007
 20
297.2235694199759
 30
0.0
 11
546.4207989937007
 21
330.3212820385605
 31
0.0
  0
LINE
  5
9972
330
95F9
100
AcDbEntity
  8
P-0000
  6
Continuous
 62
     3
370
    -2
100
AcDbLine
 10
-347.0538133146012
 20
326.3212820385605
 30
0.0
 11
540.1207989937009
 21
326.3212820385605
 31
0.0
  0
SOLID
  5
9973
330
95F9
100
AcDbEntity
  8
P-0000
  6
Continuous
 62
     3
100
AcDbTrace
 10
-347.0538133146012
 20
327.3712820385605
 30
0.0
 11
-347.0538133146012
 21
325.2712820385605
 31
0.0
 12
-353.3538133146012
 22
326.3212820385605
 32
0.0
 13
-353.3538133146012
 23
326.3212820385605
 33
0.0
  0
SOLID
  5
9974
330
95F9
100
AcDbEntity
  8
P-0000
  6
Continuous
 62
     3
100
AcDbTrace
 10
540.1207989937009
 20
327.3712820385605
 30
0.0
 11
540.1207989937009
 21
325.2712820385605
 31
0.0
 12
546.4207989937007
 22
326.3212820385605
 32
0.0
 13
546.4207989937007
 23
326.3212820385605
 33
0.0
  0
MTEXT
  5
9975
330
95F9
100
AcDbEntity
  8
P-0000
  6
Continuous
 62
     2
100
AcDbMText
 10
96.53349283954984
 20
333.8212820385605
 30
0.0
 40
7.0
 41
0.0
 71
     5
 72
     1
  1
900
 73
     1
 44
1.0
1001
ACAD
1000
MTEXTBEGIN
1070
    73
1070
     1
1070
    44
1040
1.0
1070
    74
1070
     0
1000
MTEXTEND
  0
POINT
  5
9976
330
95F9
100
AcDbEntity
  8
Defpoints
  6
Continuous
 62
     0
100
AcDbPoint
 10
-353.3538133146012
 20
297.2235694199759
 30
0.0
  0
POINT
  5
9977
330
95F9
100
AcDbEntity
  8
Defpoints
  6
Continuous
 62
     0
100
AcDbPoint
 10
546.4207989937007
 20
297.2235694199759
 30
0.0
  0
POINT
  5
9978
330
95F9
100
AcDbEntity
  8
Defpoints
  6
Continuous
 62
     0
100
AcDbPoint
 10
546.4207989937007
 20
326.3212820385605
 30
0.0
  0
ENDBLK
  5
95FB
330
95F9
100
AcDbEntity
  8
0
100
AcDbBlockEnd
  0
ENDSEC
  0
SECTION
  2
ENTITIES
  0
LINE
  5
2FB
330
210
100
AcDbEntity
  8
TEIL_STARTBEZUEGE
  6
Continuous
 62
     7
100
AcDbLine
 10
-91.51951983246874
 20
297.2243814873242
 30
0.0
 11
-150.2904138324687
 21
297.2243814873242
 31
0.0
  0
HATCH
  5
30B
330
210
100
AcDbEntity
  8
0
  6
Continuous
 62
     2
100
AcDbHatch
 10
0.0
 20
0.0
 30
0.0
210
0.0
220
0.0
230
1.0
  2
A
 70
     0
 71
     0
 91
        1
 92
       33
 93
       16
 72
     1
 10
-402.8871772289155
 20
293.9604372044771
 11
-406.6097293459656
 21
293.9604372044771
 72
     1
 10
-406.6097293459656
 20
293.9604372044771
 11
-410.3322814630156
 21
293.9604372044771
 72
     4
 94
        3
 73
     1
 74
     0
 95
        8
 96
        4
 40
0.0
 40
0.0
 40
0.0
 40
0.0
 40
1.0
 40
1.0
 40
1.0
 40
1.0
 10
-412.7797293459656
 20
291.9703380382271
 42
1.0
 10
-412.5275959597156
 20
293.1805406531772
 42
0.850582539
 10
-411.5684698037656
 20
293.9604372044771
 42
0.850582539
 10
-410.3322814630156
 20
293.9604372044771
 42
1.0
 72
     1
 10
-412.7797293459656
 20
291.9703380382271
 11
-413.7097293459656
 21
287.5064768709271
 72
     4
 94
        3
 73
     1
 74
     0
 95
        8
 96
        4
 40
0.0
 40
0.0
 40
0.0
 40
0.0
 40
1.0
 40
1.0
 40
1.0
 40
1.0
 10
-413.7097293459656
 20
287.5064768709271
 42
1.0
 10
-413.8105827004656
 20
287.0223958249771
 42
0.850582539
 10
-414.1942331628656
 20
286.7104372044772
 42
0.850582539
 10
-414.6887084991656
 20
286.710437204477
 42
1.0
 72
     1
 10
-414.6887084991656
 20
286.710437204477
 11
-415.7447293459656
 21
286.710437204477
 72
     4
 94
        3
 73
     1
 74
     0
 95
        8
 96
        4
 40
0.0
 40
0.0
 40
0.0
 40
0.0
 40
1.0
 40
1.0
 40
1.0
 40
1.0
 10
-416.7447293459656
 20
287.7104372044771
 42
1.0
 10
-416.7447293459656
 20
287.1246507668271
 42
0.8047378541
 10
-416.3305157836155
 20
286.710437204477
 42
0.8047378541
 10
-415.7447293459656
 20
286.710437204477
 42
1.0
 72
     1
 10
-416.7447293459656
 20
287.7104372044771
 11
-416.7447293459656
 21
297.210437204477
 72
     1
 10
-416.7447293459656
 20
297.210437204477
 11
-396.4747293459657
 21
297.210437204477
 72
     1
 10
-396.4747293459657
 20
297.210437204477
 11
-396.4747293459657
 21
287.7104372044771
 72
     4
 94
        3
 73
     1
 74
     0
 95
        8
 96
        4
 40
0.0
 40
0.0
 40
0.0
 40
0.0
 40
1.0
 40
1.0
 40
1.0
 40
1.0
 10
-397.4747293459657
 20
286.710437204477
 42
1.0
 10
-396.8889429083657
 20
286.710437204477
 42
0.8047378541
 10
-396.4747293459657
 20
287.1246507668271
 42
0.8047378541
 10
-396.4747293459657
 20
287.7104372044771
 42
1.0
 72
     1
 10
-397.4747293459657
 20
286.710437204477
 11
-398.0027397693907
 21
286.7439611532617
 72
     1
 10
-398.0027397693907
 20
286.7439611532617
 11
-398.5307501928157
 21
286.7439611532617
 72
     4
 94
        3
 73
     1
 74
     0
 95
        8
 96
        4
 40
0.0
 40
0.0
 40
0.0
 40
0.0
 40
1.0
 40
1.0
 40
1.0
 40
1.0
 10
-398.5307501928157
 20
286.7439611532617
 42
1.0
 10
-399.0252255290658
 20
286.7104372044772
 42
0.850582539
 10
-399.4088759914657
 20
287.0223958249771
 42
0.850582539
 10
-399.3416924710905
 20
287.5064768709271
 42
1.0
 72
     1
 10
-399.3416924710905
 20
287.5064768709271
 11
-400.4397293459656
 21
291.9703380382271
 72
     4
 94
        3
 73
     1
 74
     0
 95
        8
 96
        4
 40
0.0
 40
0.0
 40
0.0
 40
0.0
 40
1.0
 40
1.0
 40
1.0
 40
1.0
 10
-402.8871772289155
 20
293.9604372044771
 42
1.0
 10
-401.6509888882157
 20
293.9604372044771
 42
0.850582539
 10
-400.6918627322154
 20
293.1805406531772
 42
0.850582539
 10
-400.4397293459656
 20
291.9703380382271
 42
1.0
 97
        0
 75
     0
 76
     0
 52
45.0
 41
1.63178487965
 77
     0
 78
     1
 53
45.0
 43
-475.4978908564154
 44
226.055001578727
 45
-1.15384615385
 46
1.15384615385
 79
     0
 98
        1
 10
-475.4978908564154
 20
226.055001578727
  0
LINE
  5
30C
330
210
100
AcDbEntity
  8
TEIL_STARTBEZUEGE
  6
Continuous
 62
     7
100
AcDbLine
 10
-399.2597293459656
 20
297.210437204477
 30
0.0
 11
-413.9597293459656
 21
297.210437204477
 31
0.0
  0
LINE
  5
382
330
210
100
AcDbEntity
  8
0
  6
Continuous
 62
     7
100
AcDbLine
 10
-353.3538133146012
 20
297.2235694199759
 30
0.0
 11
-353.3538133146012
 21
286.7287669199761
 31
0.0
  0
LINE
  5
388
330
210
100
AcDbEntity
  8
0
  6
Continuous
 62
     7
100
AcDbLine
 10
531.4573745847687
 20
286.7287669199761
 30
0.0
 11
-338.3297606756117
 21
286.7287669199761
 31
0.0
  0
LINE
  5
38B
102
{ACAD_REACTORS
330
9607
102
}
330
210
100
AcDbEntity
  8
0
  6
Continuous
 62
     7
100
AcDbLine
 10
546.4207989937007
 20
297.2235694199759
 30
0.0
 11
-353.3538133146012
 21
297.2235694199759
 31
0.0
  0
LINE
  5
391
102
{ACAD_REACTORS
330
780
330
9607
102
}
330
210
100
AcDbEntity
  8
0
  6
Continuous
 62
     7
100
AcDbLine
 10
546.4207989937007
 20
297.2235694199759
 30
0.0
 11
546.4207989937007
 21
286.7287669199761
 31
0.0
  0
LINE
  5
393
330
210
100
AcDbEntity
  8
0
  6
Continuous
 62
     7
100
AcDbLine
 10
-353.3538133146012
 20
216.486907806488
 30
0.0
 11
-353.3538133146012
 21
236.746874156488
 31
0.0
  0
LINE
  5
396
330
210
100
AcDbEntity
  8
0
  6
Continuous
 62
     7
100
AcDbLine
 10
531.4573745847687
 20
216.486907806488
 30
0.0
 11
-338.3538133146012
 21
216.486907806488
 31
0.0
  0
LINE
  5
397
330
210
100
AcDbEntity
  8
KURVEN
  6
Continuous
 62
     4
100
AcDbLine
 10
523.6976088853567
 20
220.8042006063301
 30
0.0
 11
522.9956090403724
 21
220.8042006063301
 31
0.0
  0
LINE
  5
398
330
210
100
AcDbEntity
  8
KURVEN
  6
Continuous
 62
     4
100
AcDbLine
 10
519.8371163805322
 20
220.8042006063301
 30
0.0
 11
519.1350940816684
 21
220.8042006063301
 31
0.0
  0
LINE
  5
399
330
210
100
AcDbEntity
  8
KURVEN
  6
Continuous
 62
     4
100
AcDbLine
 10
519.1350940816684
 20
220.8042006063301
 30
0.0
 11
519.8371163805322
 21
220.8042006063301
 31
0.0
  0
LINE
  5
39A
330
210
100
AcDbEntity
  8
KURVEN
  6
Continuous
 62
     4
100
AcDbLine
 10
522.9956090403724
 20
220.8042006063301
 30
0.0
 11
523.6976088853567
 21
220.8042006063301
 31
0.0
  0
LINE
  5
39B
330
210
100
AcDbEntity
  8
0
  6
Continuous
 62
     7
100
AcDbLine
 10
519.8811590969905
 20
221.5061715782134
 30
0.0
 11
522.9515663083222
 21
221.5061715782134
 31
0.0
  0
LINE
  5
39C
330
210
100
AcDbEntity
  8
KURVEN
  6
Continuous
 62
     4
100
AcDbLine
 10
519.8811599339762
 20
221.5061715782134
 30
0.0
 11
522.9515674887375
 21
221.5061715782134
 31
0.0
  0
LINE
  5
39D
330
210
100
AcDbEntity
  8
0
  6
Continuous
 62
     7
100
AcDbLine
 10
522.8038922633759
 20
222.2081467102364
 30
0.0
 11
520.0288175248711
 21
222.2081467102364
 31
0.0
  0
LINE
  5
39E
330
210
100
AcDbEntity
  8
KURVEN
  6
Continuous
 62
     4
100
AcDbLine
 10
522.8038931283476
 20
222.2081467102364
 30
0.0
 11
520.0288322535766
 21
222.2081467102364
 31
0.0
  0
LINE
  5
3A1
330
210
100
AcDbEntity
  8
0
  6
Continuous
 62
     7
100
AcDbLine
 10
546.4573745847688
 20
236.746874156488
 30
0.0
 11
-338.3538133146012
 21
236.746874156488
 31
0.0
  0
LINE
  5
3A4
330
210
100
AcDbEntity
  8
0
  6
Continuous
 62
     7
100
AcDbLine
 10
530.5647580372482
 20
221.6256244162286
 30
0.0
 11
529.9568299534811
 21
221.9766123521569
 31
0.0
  0
LINE
  5
3A5
330
210
100
AcDbEntity
  8
KURVEN
  6
Continuous
 62
     4
100
AcDbLine
 10
530.5647373235066
 20
221.6256363755058
 30
0.0
 11
529.9568098802224
 21
221.9766239414174
 31
0.0
  0
LINE
  5
3A6
330
210
100
AcDbEntity
  8
0
  6
Continuous
 62
     7
100
AcDbLine
 10
529.9420047451936
 20
223.5811237946527
 30
0.0
 11
530.5500037696277
 21
223.9321543058959
 31
0.0
  0
LINE
  5
3A7
330
210
100
AcDbEntity
  8
KURVEN
  6
Continuous
 62
     4
100
AcDbLine
 10
529.9420267305053
 20
223.5811364879665
 30
0.0
 11
530.5500255998165
 21
223.932166909454
 31
0.0
  0
LINE
  5
3AB
330
210
100
AcDbEntity
  8
0
  6
Continuous
 62
     7
100
AcDbLine
 10
546.4481866853986
 20
236.746874156488
 30
0.0
 11
546.4481866853986
 21
216.486907806488
 31
0.0
  0
LINE
  5
3AC
330
210
100
AcDbEntity
  8
0
  6
Continuous
 62
     7
100
AcDbLine
 10
-416.7447293459656
 20
287.7104372044771
 30
0.0
 11
-416.7447293459656
 21
297.210437204477
 31
0.0
  0
LINE
  5
3AD
330
210
100
AcDbEntity
  8
0
  6
Continuous
 62
     7
100
AcDbLine
 10
-412.7797293459656
 20
291.9703380382271
 30
0.0
 11
-413.7097293459656
 21
287.5064768709271
 31
0.0
  0
LINE
  5
3AE
330
210
100
AcDbEntity
  8
0
  6
Continuous
 62
     7
100
AcDbLine
 10
-397.4747293459657
 20
286.710437204477
 30
0.0
 11
-398.5307501928157
 21
286.710437204477
 31
0.0
  0
LINE
  5
3AF
330
210
100
AcDbEntity
  8
0
  6
Continuous
 62
     7
100
AcDbLine
 10
-414.6887084991656
 20
286.710437204477
 30
0.0
 11
-415.7447293459656
 21
286.710437204477
 31
0.0
  0
LINE
  5
3B2
330
210
100
AcDbEntity
  8
0
  6
Continuous
 62
     7
100
AcDbLine
 10
-402.8871772289155
 20
293.9604372044771
 30
0.0
 11
-410.3322814630156
 21
293.9604372044771
 31
0.0
  0
LINE
  5
3B4
102
{ACAD_REACTORS
330
80D
330
83B
102
}
330
210
100
AcDbEntity
  8
0
  6
Continuous
 62
     7
100
AcDbLine
 10
-416.7447293459656
 20
297.210437204477
 30
0.0
 11
-396.4747293459657
 21
297.210437204477
 31
0.0
  0
LINE
  5
3B6
330
210
100
AcDbEntity
  8
0
  6
Continuous
 62
     7
100
AcDbLine
 10
-399.5097293459656
 20
287.5064768709271
 30
0.0
 11
-400.4397293459656
 21
291.9703380382271
 31
0.0
  0
LINE
  5
3B7
102
{ACAD_REACTORS
330
80D
102
}
330
210
100
AcDbEntity
  8
0
  6
Continuous
 62
     7
100
AcDbLine
 10
-396.4747293459657
 20
297.210437204477
 30
0.0
 11
-396.4747293459657
 21
287.7104372044771
 31
0.0
  0
ARC
  5
3D7
330
210
100
AcDbEntity
  8
0
  6
Continuous
 62
     7
100
AcDbCircle
 10
518.081970610556
 20
220.8482785583383
 30
0.0
 40
5.615811259131111
100
AcDbArc
 50
359.5502864253002
 51
53.57637413390126
  0
ARC
  5
3D8
330
210
100
AcDbEntity
  8
KURVEN
  6
Continuous
 62
     4
100
AcDbCircle
 10
518.081970610556
 20
220.8482785583383
 30
0.0
 40
5.615811259131111
100
AcDbArc
 50
359.5502864253002
 51
53.57637099749794
  0
ARC
  5
3D9
330
210
100
AcDbEntity
  8
0
  6
Continuous
 62
     7
100
AcDbCircle
 10
524.750691508299
 20
220.8482826397171
 30
0.0
 40
5.615770444344436
100
AcDbArc
 50
126.4231316641005
 51
180.4497584855996
  0
ARC
  5
3DA
330
210
100
AcDbEntity
  8
KURVEN
  6
Continuous
 62
     4
100
AcDbCircle
 10
524.750691508299
 20
220.8482826397171
 30
0.0
 40
5.615770444344436
100
AcDbArc
 50
126.423145000901
 51
180.4497584855996
  0
ARC
  5
3DB
330
210
100
AcDbEntity
  8
0
  6
Continuous
 62
     7
100
AcDbCircle
 10
518.081970610556
 20
220.8482785583383
 30
0.0
 40
4.913836127308004
100
AcDbArc
 50
16.06589314189934
 51
47.26782607049825
  0
ARC
  5
3DC
330
210
100
AcDbEntity
  8
0
  6
Continuous
 62
     7
100
AcDbCircle
 10
518.081970610556
 20
220.8482785583383
 30
0.0
 40
4.913836127308004
100
AcDbArc
 50
359.4860401468003
 51
7.694197680899633
  0
ARC
  5
3DD
330
210
100
AcDbEntity
  8
KURVEN
  6
Continuous
 62
     4
100
AcDbCircle
 10
518.081970610556
 20
220.8482785583383
 30
0.0
 40
4.913836127308004
100
AcDbArc
 50
16.06589199819906
 51
47.26783699750058
  0
ARC
  5
3DE
330
210
100
AcDbEntity
  8
KURVEN
  6
Continuous
 62
     4
100
AcDbCircle
 10
518.081970610556
 20
220.8482785583383
 30
0.0
 40
4.913836127308004
100
AcDbArc
 50
359.4860401468003
 51
7.694196998300465
  0
ARC
  5
3DF
330
210
100
AcDbEntity
  8
0
  6
Continuous
 62
     7
100
AcDbCircle
 10
524.750691508299
 20
220.8482826397171
 30
0.0
 40
4.913789190153401
100
AcDbArc
 50
132.7316516278984
 51
163.9339987661009
  0
ARC
  5
3E0
330
210
100
AcDbEntity
  8
KURVEN
  6
Continuous
 62
     4
100
AcDbCircle
 10
524.750691508299
 20
220.8482826397171
 30
0.0
 40
4.913789190153401
100
AcDbArc
 50
132.7316660008998
 51
163.9339570006009
  0
ARC
  5
3E1
330
210
100
AcDbEntity
  8
0
  6
Continuous
 62
     7
100
AcDbCircle
 10
524.750691508299
 20
220.8482826397171
 30
0.0
 40
4.913772864238731
100
AcDbArc
 50
172.3057506816005
 51
180.5140140623999
  0
ARC
  5
3E2
330
210
100
AcDbEntity
  8
KURVEN
  6
Continuous
 62
     4
100
AcDbCircle
 10
524.750691508299
 20
220.8482826397171
 30
0.0
 40
4.913772864238731
100
AcDbArc
 50
172.3057540006003
 51
180.5140140623999
  0
ARC
  5
3E3
330
210
100
AcDbEntity
  8
0
  6
Continuous
 62
     7
100
AcDbCircle
 10
528.5889726227851
 20
222.766297968988
 30
0.0
 40
2.281417138035593
100
AcDbArc
 50
30.73198674350016
 51
330.0010154458001
  0
ARC
  5
3E4
330
210
100
AcDbEntity
  8
KURVEN
  6
Continuous
 62
     4
100
AcDbCircle
 10
528.5889726227851
 20
222.766297968988
 30
0.0
 40
2.281417138035593
100
AcDbArc
 50
30.73232348689994
 51
330.0013342477001
  0
CIRCLE
  5
3E5
330
210
100
AcDbEntity
  8
0
  6
Continuous
 62
     7
100
AcDbCircle
 10
535.1034000200352
 20
222.766297968988
 30
0.0
 40
2.2813701625
  0
CIRCLE
  5
3E6
330
210
100
AcDbEntity
  8
KURVEN
  6
Continuous
 62
     4
100
AcDbCircle
 10
535.1034000200352
 20
222.766297968988
 30
0.0
 40
2.2813701625
  0
ARC
  5
3E7
330
210
100
AcDbEntity
  8
0
  6
Continuous
 62
     7
100
AcDbCircle
 10
528.5889726227851
 20
222.766297968988
 30
0.0
 40
1.579442006012583
100
AcDbArc
 50
31.05727953509948
 51
330.0014822424002
  0
ARC
  5
3E8
330
210
100
AcDbEntity
  8
KURVEN
  6
Continuous
 62
     4
100
AcDbCircle
 10
528.5889726227851
 20
222.766297968988
 30
0.0
 40
1.579442006012583
100
AcDbArc
 50
31.05777222490034
 51
330.0019426858999
  0
CIRCLE
  5
3E9
330
210
100
AcDbEntity
  8
KURVEN
  6
Continuous
 62
     4
100
AcDbCircle
 10
535.1034000200352
 20
222.766297968988
 30
0.0
 40
1.579217899999999
  0
ARC
  5
3EA
330
210
100
AcDbEntity
  8
KURVEN
  6
Continuous
 62
     4
100
AcDbCircle
 10
535.1034000200352
 20
222.766297968988
 30
0.0
 40
1.579217899999999
100
AcDbArc
 50
93.0921362406865
 51
266.9078637593135
  0
ARC
  5
3EB
330
210
100
AcDbEntity
  8
0
  6
Continuous
 62
     7
100
AcDbCircle
 10
-402.8871772289155
 20
291.4604372044772
 30
0.0
 40
2.5
100
AcDbArc
 50
11.76864473530058
 51
90.0
  0
ARC
  5
3EC
330
210
100
AcDbEntity
  8
0
  6
Continuous
 62
     7
100
AcDbCircle
 10
-410.3322814630156
 20
291.4604372044772
 30
0.0
 40
2.5
100
AcDbArc
 50
90.0
 51
168.2313552646993
  0
ARC
  5
3ED
330
210
100
AcDbEntity
  8
0
  6
Continuous
 62
     7
100
AcDbCircle
 10
-397.4747293459657
 20
287.7104372044771
 30
0.0
 40
1.0
100
AcDbArc
 50
270.0
 51
0.0
  0
ARC
  5
3EE
330
210
100
AcDbEntity
  8
0
  6
Continuous
 62
     7
100
AcDbCircle
 10
-398.5307501928157
 20
287.7104372044771
 30
0.0
 40
1.0
100
AcDbArc
 50
191.7686447353005
 51
270.0
  0
ARC
  5
3EF
330
210
100
AcDbEntity
  8
0
  6
Continuous
 62
     7
100
AcDbCircle
 10
-414.6887084991656
 20
287.7104372044771
 30
0.0
 40
1.0
100
AcDbArc
 50
270.0
 51
348.2313552646994
  0
ARC
  5
3F0
330
210
100
AcDbEntity
  8
0
  6
Continuous
 62
     7
100
AcDbCircle
 10
-415.7447293459656
 20
287.7104372044771
 30
0.0
 40
1.0
100
AcDbArc
 50
180.0
 51
270.0
  0
DIMENSION
  5
505
330
210
100
AcDbEntity
  8
P-0000
  6
Continuous
100
AcDbDimension
  2
*D10
 10
546.4573745847688
 20
191.6950004157959
 30
0.0
 11
80.85550170181523
 21
191.6950004157959
 31
0.0
 70
   160
 71
     5
 42
899.81118789937
  3
883N99122_001_00149479900
100
AcDbAlignedDimension
 13
-353.3538133146012
 23
209.986907806488
 33
0.0
 14
546.4573745847688
 24
209.986907806488
 34
0.0
100
AcDbRotatedDimension
1001
ACAD_DSTYLE_DIMINSPECT
1070
   396
1000
100%
1070
   395
1000

1070
   394
1070
    33
1070
   393
1070
     0
1001
ACAD
1000
DSTYLE
1002
{
1070
   271
1070
     0
1070
   288
1070
     1
1002
}
  0
DIMENSION
  5
534
330
210
100
AcDbEntity
  8
P-0000
  6
Continuous
100
AcDbDimension
  2
*D11
 10
580.5822590445941
 20
216.486907806488
 30
0.0
 11
580.5822590445941
 21
226.6168909814881
 31
0.0
 70
   160
 71
     5
 42
20.25996634999998
  3
883N99122_001_00149479900
100
AcDbAlignedDimension
 13
546.4481866853986
 23
236.746874156488
 33
0.0
 14
546.4481866853986
 24
216.486907806488
 34
0.0
 50
90.0
100
AcDbRotatedDimension
1001
ACAD
1000
DSTYLE
1002
{
1070
   271
1070
     0
1070
   288
1070
     1
1002
}
1001
ACAD_DSTYLE_DIMINSPECT
1070
   396
1000
100%
1070
   395
1000

1070
   394
1070
    33
1070
   393
1070
     0
  0
DIMENSION
  5
770
102
{ACAD_XDICTIONARY
360
77F
102
}
102
{ACAD_REACTORS
330
780
102
}
330
210
100
AcDbEntity
  8
P-0000
  6
Continuous
100
AcDbDimension
  2
*D12
 10
579.8387445457783
 20
286.7287669199761
 30
0.0
 11
579.8387445457782
 21
291.976168169976
 31
0.0
 70
   160
 71
     5
 42
10.49480249999976
  3
883N99122_001_00149479900
100
AcDbAlignedDimension
 13
546.4207989937007
 23
297.2235694199759
 33
0.0
 14
546.4207989937007
 24
286.7287669199761
 34
0.0
 50
90.0
100
AcDbRotatedDimension
1001
ACAD
1000
DSTYLE
1002
{
1070
   271
1070
     0
1070
   288
1070
     1
1002
}
1001
ACAD_DSTYLE_DIMINSPECT
1070
   396
1000
100%
1070
   395
1000

1070
   394
1070
    33
1070
   393
1070
     0
  0
DIMENSION
  5
7FE
102
{ACAD_XDICTIONARY
360
80C
102
}
102
{ACAD_REACTORS
330
80D
102
}
330
210
100
AcDbEntity
  8
P-0000
  6
Continuous
100
AcDbDimension
  2
*D14
 10
-396.4747293459657
 20
313.3877047105077
 30
0.0
 11
-406.6097293459656
 21
313.3877047105077
 31
0.0
 70
   160
 71
     5
 42
20.27000000000004
  3
883N99122_001_00149479900
100
AcDbAlignedDimension
 13
-416.7447293459656
 23
297.210437204477
 33
0.0
 14
-396.4747293459657
 24
297.210437204477
 34
0.0
100
AcDbRotatedDimension
1001
ACAD_DSTYLE_DIMINSPECT
1070
   396
1000
100%
1070
   395
1000

1070
   394
1070
    33
1070
   393
1070
     0
1001
ACAD
1000
DSTYLE
1002
{
1070
   271
1070
     0
1070
   288
1070
     1
1002
}
  0
DIMENSION
  5
82C
102
{ACAD_XDICTIONARY
360
83A
102
}
102
{ACAD_REACTORS
330
83B
102
}
330
210
100
AcDbEntity
  8
P-0000
  6
Continuous
100
AcDbDimension
  2
*D15
 10
-439.1007095601211
 20
286.8939406235493
 30
0.0
 11
-439.1007095601211
 21
292.0521889140131
 31
0.0
 70
   160
 71
     5
 42
10.31649658092772
  3
883N99122_001_00149479900
100
AcDbAlignedDimension
 13
-416.7447293459656
 23
297.210437204477
 33
0.0
 14
-416.3220796151553
 24
286.8939406235493
 34
0.0
 50
90.0
100
AcDbRotatedDimension
1001
ACAD_DSTYLE_DIMINSPECT
1070
   396
1000
100%
1070
   395
1000

1070
   394
1070
    33
1070
   393
1070
     0
1001
ACAD
1000
DSTYLE
1002
{
1070
   271
1070
     0
1070
   288
1070
     1
1002
}
  0
LINE
  5
90EB
330
210
100
AcDbEntity
  8
AUSFORMSCHRAEGEN
  6
Continuous
 62
     7
100
AcDbLine
 10
-423.2020513647156
 20
291.9691637399771
 30
0.0
 11
-423.2502128393655
 21
286.4504053703772
 31
0.0
  0
LINE
  5
90ED
330
210
100
AcDbEntity
  8
RUNDUNGEN
  6
Continuous
 62
     7
100
AcDbLine
 10
-421.2172662654157
 20
290.2169821060771
 30
0.0
 11
-421.2507604217155
 21
286.3789319493772
 31
0.0
  0
LINE
  5
90EF
330
210
100
AcDbEntity
  8
0
  6
Continuous
 62
     7
100
AcDbLine
 10
-419.6009047885156
 20
278.9251166854271
 30
0.0
 11
-422.1011903437656
 21
283.2544194525772
 31
0.0
  0
LINE
  5
90F0
330
210
100
AcDbEntity
  8
0
  6
Continuous
 62
     7
100
AcDbLine
 10
-422.0901621170656
 20
283.2716802343771
 30
0.0
 11
-422.1011903437656
 21
283.2907758661771
 31
0.0
  0
LINE
  5
90F1
330
210
100
AcDbEntity
  8
AUSFORMSCHRAEGEN
  6
Continuous
 62
     7
100
AcDbLine
 10
-422.7144667622657
 20
284.4154992283772
 30
0.0
 11
-418.8144298843656
 21
277.6604372044772
 31
0.0
  0
LINE
  5
90F3
330
210
100
AcDbEntity
  8
RUNDUNGEN
  6
Continuous
 62
     7
100
AcDbLine
 10
-418.9133614977658
 20
286.4900288518771
 30
0.0
 11
-418.6316010379156
 21
290.1529148302771
 31
0.0
  0
LINE
  5
90F4
330
210
100
AcDbEntity
  8
AUSFORMSCHRAEGEN
  6
Continuous
 62
     7
100
AcDbLine
 10
-419.2129114955656
 20
282.3506276009771
 30
0.0
 11
-416.9380415094657
 21
278.4104372044772
 31
0.0
  0
LINE
  5
90F5
330
210
100
AcDbEntity
  8
AUSFORMSCHRAEGEN
  6
Continuous
 62
     7
100
AcDbLine
 10
-416.9014470652156
 20
286.5681068543271
 30
0.0
 11
-416.8772107391204
 21
291.9559389052247
 31
0.0
  0
LINE
  5
90F7
330
210
100
AcDbEntity
  8
AUSFORMSCHRAEGEN
  6
Continuous
 62
     7
100
AcDbLine
 10
-415.3503282692157
 20
275.6604372044772
 30
0.0
 11
-397.8691304227157
 21
275.6604372044772
 31
0.0
  0
LINE
  5
90F8
330
210
100
AcDbEntity
  8
AUSFORMSCHRAEGEN
  6
Continuous
 62
     7
100
AcDbLine
 10
-413.2097293459656
 20
289.2104372044772
 30
0.0
 11
-413.2097293459656
 21
286.5604372044771
 31
0.0
  0
LINE
  5
90F9
330
210
100
AcDbEntity
  8
AUSFORMSCHRAEGEN
  6
Continuous
 62
     7
100
AcDbLine
 10
-413.2097293459656
 20
282.9604372044772
 30
0.0
 11
-413.2097293459656
 21
279.1604372044771
 31
0.0
  0
LINE
  5
90FA
330
210
100
AcDbEntity
  8
RUNDUNGEN
  6
Continuous
 62
     7
100
AcDbLine
 10
-419.4104159832656
 20
285.7006999469771
 30
0.0
 11
-419.7507984986656
 21
285.5041800100772
 31
0.0
  0
LINE
  5
90FB
330
210
100
AcDbEntity
  8
0
  6
Continuous
 62
     7
100
AcDbLine
 10
-422.0741281557157
 20
283.3064002277771
 30
0.0
 11
-422.1011903437656
 21
283.2907758661771
 31
0.0
  0
LINE
  5
90FC
330
210
100
AcDbEntity
  8
0
  6
Continuous
 62
     7
100
AcDbLine
 10
-422.0583853668157
 20
283.2791329175772
 30
0.0
 11
-422.1011903437656
 21
283.2544194525772
 31
0.0
  0
LINE
  5
90FD
330
210
100
AcDbEntity
  8
AUSFORMSCHRAEGEN
  6
Continuous
 62
     7
100
AcDbLine
 10
-415.6390034038158
 20
277.6604372044772
 30
0.0
 11
-414.7097293459656
 21
277.6604372044772
 31
0.0
  0
LINE
  5
90FE
330
210
100
AcDbEntity
  8
AUSFORMSCHRAEGEN
  6
Continuous
 62
     7
100
AcDbLine
 10
-408.4597293459656
 20
277.6604372044772
 30
0.0
 11
-404.7597293459656
 21
277.6604372044772
 31
0.0
  0
LINE
  5
90FF
330
210
100
AcDbEntity
  8
AUSFORMSCHRAEGEN
  6
Continuous
 62
     7
100
AcDbLine
 10
-398.5097293459657
 20
277.6604372044772
 30
0.0
 11
-397.5804552881157
 21
277.6604372044772
 31
0.0
  0
LINE
  5
9100
330
210
100
AcDbEntity
  8
AUSFORMSCHRAEGEN
  6
Continuous
 62
     7
100
AcDbLine
 10
-418.8468860917656
 20
283.7166530047772
 30
0.0
 11
-417.7906648756156
 21
284.3264626082271
 31
0.0
  0
LINE
  5
9101
330
210
100
AcDbEntity
  8
AUSFORMSCHRAEGEN
  6
Continuous
 62
     7
100
AcDbLine
 10
-411.2097293459656
 20
280.4104372044772
 30
0.0
 11
-411.2097293459656
 21
289.2104372044772
 31
0.0
  0
LINE
  5
9102
330
210
100
AcDbEntity
  8
0
  6
Continuous
 62
     7
100
AcDbLine
 10
-419.5586708894657
 20
278.9495004383771
 30
0.0
 11
-419.6009047885156
 21
278.9251166854271
 31
0.0
  0
LINE
  5
9104
330
210
100
AcDbEntity
  8
AUSFORMSCHRAEGEN
  6
Continuous
 62
     7
100
AcDbLine
 10
-417.2906648756156
 20
284.4604372044772
 30
0.0
 11
-414.7097293459656
 21
284.4604372044772
 31
0.0
  0
LINE
  5
9105
330
210
100
AcDbEntity
  8
AUSFORMSCHRAEGEN
  6
Continuous
 62
     7
100
AcDbLine
 10
-398.5097293459657
 20
284.4604372044772
 30
0.0
 11
-395.9287938163657
 21
284.4604372044772
 31
0.0
  0
LINE
  5
9106
330
210
100
AcDbEntity
  8
0
  6
Continuous
 62
     7
100
AcDbLine
 10
-393.6560649628657
 20
278.9576806365271
 30
0.0
 11
-393.6185539034656
 21
278.9360236162772
 31
0.0
  0
LINE
  5
9107
330
210
100
AcDbEntity
  8
AUSFORMSCHRAEGEN
  6
Continuous
 62
     7
100
AcDbLine
 10
-396.4177170752657
 20
286.4604372044772
 30
0.0
 11
-399.9097293459657
 21
286.4604372044772
 31
0.0
  0
LINE
  5
9108
330
210
100
AcDbEntity
  8
AUSFORMSCHRAEGEN
  6
Continuous
 62
     7
100
AcDbLine
 10
-413.3097293459656
 20
286.4604372044772
 30
0.0
 11
-416.8017416166656
 21
286.4604372044772
 31
0.0
  0
LINE
  5
9109
330
210
100
AcDbEntity
  8
AUSFORMSCHRAEGEN
  6
Continuous
 62
     7
100
AcDbLine
 10
-402.0097293459656
 20
289.2104372044772
 30
0.0
 11
-402.0097293459656
 21
280.4104372044772
 31
0.0
  0
LINE
  5
910A
330
210
100
AcDbEntity
  8
0
  6
Continuous
 62
     7
100
AcDbLine
 10
-391.9588545920657
 20
281.8973352299271
 30
0.0
 11
-391.9162318771656
 21
281.8727269940272
 31
0.0
  0
LINE
  5
910B
330
210
100
AcDbEntity
  8
AUSFORMSCHRAEGEN
  6
Continuous
 62
     7
100
AcDbLine
 10
-394.3725726001657
 20
283.7166530047772
 30
0.0
 11
-395.4287938163657
 21
284.3264626082271
 31
0.0
  0
LINE
  5
910C
330
210
100
AcDbEntity
  8
RUNDUNGEN
  6
Continuous
 62
     7
100
AcDbLine
 10
-392.7521638688157
 20
290.9604372044772
 30
0.0
 11
-393.8400667899157
 21
290.9604372044772
 31
0.0
  0
LINE
  5
910D
330
210
100
AcDbEntity
  8
RUNDUNGEN
  6
Continuous
 62
     7
100
AcDbLine
 10
-419.3793919020157
 20
290.9604372044772
 30
0.0
 11
-420.4672948231157
 21
290.9604372044772
 31
0.0
  0
LINE
  5
910E
330
210
100
AcDbEntity
  8
0
  6
Continuous
 62
     7
100
AcDbLine
 10
-391.5333711784656
 20
282.6342941200272
 30
0.0
 11
-391.4906512588158
 21
282.6096297628772
 31
0.0
  0
LINE
  5
910F
330
210
100
AcDbEntity
  8
0
  6
Continuous
 62
     7
100
AcDbLine
 10
-391.1563504855657
 20
283.2873131156771
 30
0.0
 11
-391.1182683481658
 21
283.2653263834271
 31
0.0
  0
LINE
  5
9110
330
210
100
AcDbEntity
  8
0
  6
Continuous
 62
     7
100
AcDbLine
 10
-391.1516276491158
 20
283.2954933083771
 30
0.0
 11
-391.1182683481658
 21
283.2762333069771
 31
0.0
  0
LINE
  5
9111
330
210
100
AcDbEntity
  8
0
  6
Continuous
 62
     7
100
AcDbLine
 10
-391.1406076966656
 20
283.3145804258771
 30
0.0
 11
-391.1182683481658
 21
283.3016827970271
 31
0.0
  0
LINE
  5
9112
330
210
100
AcDbEntity
  8
0
  6
Continuous
 62
     7
100
AcDbLine
 10
-391.1358848602157
 20
283.3227606185772
 30
0.0
 11
-391.1182683481658
 21
283.3125897205771
 31
0.0
  0
LINE
  5
9113
330
210
100
AcDbEntity
  8
AUSFORMSCHRAEGEN
  6
Continuous
 62
     7
100
AcDbLine
 10
-400.0097293459656
 20
279.1604372044771
 30
0.0
 11
-400.0097293459656
 21
282.9604372044772
 31
0.0
  0
LINE
  5
9114
330
210
100
AcDbEntity
  8
AUSFORMSCHRAEGEN
  6
Continuous
 62
     7
100
AcDbLine
 10
-400.0097293459656
 20
286.5604372044771
 30
0.0
 11
-400.0097293459656
 21
289.2104372044772
 31
0.0
  0
LINE
  5
9115
330
210
100
AcDbEntity
  8
AUSFORMSCHRAEGEN
  6
Continuous
 62
     7
100
AcDbLine
 10
-408.4597293459656
 20
291.9604372044771
 30
0.0
 11
-404.7597293459656
 21
291.9604372044771
 31
0.0
  0
LINE
  5
9116
330
210
100
AcDbEntity
  8
RUNDUNGEN
  6
Continuous
 62
     7
100
AcDbLine
 10
-393.8090427086657
 20
285.7006999469771
 30
0.0
 11
-393.4686601933157
 21
285.5041800100772
 31
0.0
  0
LINE
  5
9117
330
210
100
AcDbEntity
  8
AUSFORMSCHRAEGEN
  6
Continuous
 62
     7
100
AcDbLine
 10
-391.0173692502656
 20
292.9604372044772
 30
0.0
 11
-395.3217771034354
 21
292.9604372044772
 31
0.0
  0
LINE
  5
9118
330
210
100
AcDbEntity
  8
AUSFORMSCHRAEGEN
  6
Continuous
 62
     7
100
AcDbLine
 10
-417.8772006217212
 20
292.9604372044772
 30
0.0
 11
-422.2020894416656
 21
292.9604372044772
 31
0.0
  0
LINE
  5
9119
330
210
100
AcDbEntity
  8
AUSFORMSCHRAEGEN
  6
Continuous
 62
     7
100
AcDbLine
 10
-404.7597293459656
 20
293.9604372044771
 30
0.0
 11
-408.4597293459656
 21
293.9604372044771
 31
0.0
  0
LINE
  5
911A
330
210
100
AcDbEntity
  8
AUSFORMSCHRAEGEN
  6
Continuous
 62
     7
100
AcDbLine
 10
-396.3217768595908
 20
291.9597388571205
 30
0.0
 11
-396.3180116267157
 21
286.5681068543271
 31
0.0
  0
LINE
  5
911B
330
210
100
AcDbEntity
  8
RUNDUNGEN
  6
Continuous
 62
     7
100
AcDbLine
 10
-394.5878576540657
 20
290.1529148302771
 30
0.0
 11
-394.3060971941658
 21
286.4900288518771
 31
0.0
  0
LINE
  5
911C
330
210
100
AcDbEntity
  8
AUSFORMSCHRAEGEN
  6
Continuous
 62
     7
100
AcDbLine
 10
-396.2814171824657
 20
278.4104372044772
 30
0.0
 11
-394.0065471963657
 21
282.3506276009771
 31
0.0
  0
LINE
  5
911D
330
210
100
AcDbEntity
  8
RUNDUNGEN
  6
Continuous
 62
     7
100
AcDbLine
 10
-391.9686982702157
 20
286.3789319493772
 30
0.0
 11
-392.0021924265157
 21
290.2169821060771
 31
0.0
  0
LINE
  5
911E
330
210
100
AcDbEntity
  8
0
  6
Continuous
 62
     7
100
AcDbLine
 10
-391.1182683481658
 20
283.3016827970271
 30
0.0
 11
-391.1288461175657
 21
283.2830573245271
 31
0.0
  0
LINE
  5
911F
330
210
100
AcDbEntity
  8
0
  6
Continuous
 62
     7
100
AcDbLine
 10
-391.1182683481658
 20
283.2653263834271
 30
0.0
 11
-391.4906512588158
 21
282.6096297628772
 31
0.0
  0
LINE
  5
9120
330
210
100
AcDbEntity
  8
AUSFORMSCHRAEGEN
  6
Continuous
 62
     7
100
AcDbLine
 10
-394.4050288076157
 20
277.6604372044772
 30
0.0
 11
-390.5049919296656
 21
284.4154992283772
 31
0.0
  0
LINE
  5
9121
330
210
100
AcDbEntity
  8
0
  6
Continuous
 62
     7
100
AcDbLine
 10
-391.9209620290157
 20
281.8754435493271
 30
0.0
 11
-393.6185539034656
 21
278.9360236162772
 31
0.0
  0
LINE
  5
9122
330
210
100
AcDbEntity
  8
0
  6
Continuous
 62
     7
100
AcDbLine
 10
-391.4906512588158
 20
282.6096297628772
 30
0.0
 11
-391.9162318771656
 21
281.8727269940272
 31
0.0
  0
LINE
  5
9123
330
210
100
AcDbEntity
  8
AUSFORMSCHRAEGEN
  6
Continuous
 62
     7
100
AcDbLine
 10
-389.9692458525657
 20
286.4504053703772
 30
0.0
 11
-390.0174073272157
 21
291.9691637399771
 31
0.0
  0
ARC
  5
916C
330
210
100
AcDbEntity
  8
AUSFORMSCHRAEGEN
  6
Continuous
 62
     7
100
AcDbCircle
 10
-415.3503282692157
 20
279.6604372044772
 30
0.0
 40
4.0
100
AcDbArc
 50
210.0000000000005
 51
270.0
  0
ARC
  5
916D
330
210
100
AcDbEntity
  8
AUSFORMSCHRAEGEN
  6
Continuous
 62
     7
100
AcDbCircle
 10
-419.2503651471157
 20
286.4154992283772
 30
0.0
 40
4.0
100
AcDbArc
 50
179.4999999999985
 51
210.0000000000005
  0
ARC
  5
9170
330
210
100
AcDbEntity
  8
AUSFORMSCHRAEGEN
  6
Continuous
 62
     7
100
AcDbCircle
 10
-415.6390034038158
 20
279.1604372044771
 30
0.0
 40
1.5
100
AcDbArc
 50
210.0000000000005
 51
270.0
  0
ARC
  5
9171
330
210
100
AcDbEntity
  8
AUSFORMSCHRAEGEN
  6
Continuous
 62
     7
100
AcDbCircle
 10
-414.7097293459656
 20
279.1604372044771
 30
0.0
 40
1.5
100
AcDbArc
 50
270.0
 51
0.0
  0
ARC
  5
9172
330
210
100
AcDbEntity
  8
AUSFORMSCHRAEGEN
  6
Continuous
 62
     7
100
AcDbCircle
 10
-414.7097293459656
 20
282.9604372044772
 30
0.0
 40
1.5
100
AcDbArc
 50
0.0
 51
90.0
  0
ARC
  5
9173
330
210
100
AcDbEntity
  8
AUSFORMSCHRAEGEN
  6
Continuous
 62
     7
100
AcDbCircle
 10
-417.2906648756156
 20
283.4604372044772
 30
0.0
 40
1.0
100
AcDbArc
 50
90.0
 51
120.0000000000004
  0
ARC
  5
9174
330
210
100
AcDbEntity
  8
AUSFORMSCHRAEGEN
  6
Continuous
 62
     7
100
AcDbCircle
 10
-418.3468860917655
 20
282.8506276009771
 30
0.0
 40
1.0
100
AcDbArc
 50
120.0000000000004
 51
210.0000000000005
  0
ARC
  5
9175
330
210
100
AcDbEntity
  8
RUNDUNGEN
  6
Continuous
 62
     7
100
AcDbCircle
 10
-419.9104159832656
 20
286.5667253507272
 30
0.0
 40
1.0
100
AcDbArc
 50
300.0000000000004
 51
355.6012946450002
  0
ARC
  5
9176
330
210
100
AcDbEntity
  8
RUNDUNGEN
  6
Continuous
 62
     7
100
AcDbCircle
 10
-420.2507984986656
 20
286.3702054138772
 30
0.0
 40
1.0
100
AcDbArc
 50
179.4999999999985
 51
300.0000000000004
  0
ARC
  5
9177
330
210
100
AcDbEntity
  8
RUNDUNGEN
  6
Continuous
 62
     7
100
AcDbCircle
 10
-419.3793919020157
 20
290.2104372044771
 30
0.0
 40
0.75
100
AcDbArc
 50
355.6012946450002
 51
90.0
  0
ARC
  5
9178
330
210
100
AcDbEntity
  8
RUNDUNGEN
  6
Continuous
 62
     7
100
AcDbCircle
 10
-420.4672948231157
 20
290.2104372044771
 30
0.0
 40
0.75
100
AcDbArc
 50
90.0
 51
179.4999999999985
  0
ARC
  5
9179
330
210
100
AcDbEntity
  8
AUSFORMSCHRAEGEN
  6
Continuous
 62
     7
100
AcDbCircle
 10
-416.8017416166656
 20
286.5604372044771
 30
0.0
 40
0.1
100
AcDbArc
 50
175.6012946450002
 51
270.0
  0
ARC
  5
917C
330
210
100
AcDbEntity
  8
AUSFORMSCHRAEGEN
  6
Continuous
 62
     7
100
AcDbCircle
 10
-422.2020894416656
 20
291.9604372044771
 30
0.0
 40
1.0
100
AcDbArc
 50
90.0
 51
179.4999999999985
  0
ARC
  5
917E
330
210
100
AcDbEntity
  8
AUSFORMSCHRAEGEN
  6
Continuous
 62
     7
100
AcDbCircle
 10
-408.4597293459656
 20
289.2104372044772
 30
0.0
 40
4.75
100
AcDbArc
 50
90.0
 51
180.0
  0
ARC
  5
917F
330
210
100
AcDbEntity
  8
AUSFORMSCHRAEGEN
  6
Continuous
 62
     7
100
AcDbCircle
 10
-404.7597293459656
 20
289.2104372044772
 30
0.0
 40
4.75
100
AcDbArc
 50
0.0
 51
90.0
  0
ARC
  5
9180
330
210
100
AcDbEntity
  8
AUSFORMSCHRAEGEN
  6
Continuous
 62
     7
100
AcDbCircle
 10
-393.9690935448157
 20
286.4154992283772
 30
0.0
 40
4.0
100
AcDbArc
 50
329.9999999999995
 51
0.5000000000013462
  0
ARC
  5
9181
330
210
100
AcDbEntity
  8
AUSFORMSCHRAEGEN
  6
Continuous
 62
     7
100
AcDbCircle
 10
-397.8691304227157
 20
279.6604372044772
 30
0.0
 40
4.0
100
AcDbArc
 50
270.0
 51
329.9999999999995
  0
ARC
  5
9182
330
210
100
AcDbEntity
  8
AUSFORMSCHRAEGEN
  6
Continuous
 62
     7
100
AcDbCircle
 10
-404.7597293459656
 20
280.4104372044772
 30
0.0
 40
2.75
100
AcDbArc
 50
270.0
 51
0.0
  0
ARC
  5
9183
330
210
100
AcDbEntity
  8
AUSFORMSCHRAEGEN
  6
Continuous
 62
     7
100
AcDbCircle
 10
-408.4597293459656
 20
280.4104372044772
 30
0.0
 40
2.75
100
AcDbArc
 50
180.0
 51
270.0
  0
ARC
  5
9184
330
210
100
AcDbEntity
  8
AUSFORMSCHRAEGEN
  6
Continuous
 62
     7
100
AcDbCircle
 10
-404.7597293459656
 20
289.2104372044772
 30
0.0
 40
2.75
100
AcDbArc
 50
0.0
 51
90.0
  0
ARC
  5
9185
330
210
100
AcDbEntity
  8
AUSFORMSCHRAEGEN
  6
Continuous
 62
     7
100
AcDbCircle
 10
-408.4597293459656
 20
289.2104372044772
 30
0.0
 40
2.75
100
AcDbArc
 50
90.0
 51
180.0
  0
ARC
  5
9188
330
210
100
AcDbEntity
  8
AUSFORMSCHRAEGEN
  6
Continuous
 62
     7
100
AcDbCircle
 10
-397.5804552881157
 20
279.1604372044771
 30
0.0
 40
1.5
100
AcDbArc
 50
270.0
 51
329.9999999999995
  0
ARC
  5
9189
330
210
100
AcDbEntity
  8
AUSFORMSCHRAEGEN
  6
Continuous
 62
     7
100
AcDbCircle
 10
-398.5097293459657
 20
282.9604372044772
 30
0.0
 40
1.5
100
AcDbArc
 50
90.0
 51
180.0
  0
ARC
  5
918A
330
210
100
AcDbEntity
  8
AUSFORMSCHRAEGEN
  6
Continuous
 62
     7
100
AcDbCircle
 10
-398.5097293459657
 20
279.1604372044771
 30
0.0
 40
1.5
100
AcDbArc
 50
180.0
 51
270.0
  0
ARC
  5
918B
330
210
100
AcDbEntity
  8
AUSFORMSCHRAEGEN
  6
Continuous
 62
     7
100
AcDbCircle
 10
-395.9287938163657
 20
283.4604372044772
 30
0.0
 40
1.0
100
AcDbArc
 50
59.9999999999995
 51
90.0
  0
ARC
  5
918C
330
210
100
AcDbEntity
  8
AUSFORMSCHRAEGEN
  6
Continuous
 62
     7
100
AcDbCircle
 10
-394.8725726001656
 20
282.8506276009771
 30
0.0
 40
1.0
100
AcDbArc
 50
329.9999999999995
 51
59.9999999999995
  0
ARC
  5
918D
330
210
100
AcDbEntity
  8
RUNDUNGEN
  6
Continuous
 62
     7
100
AcDbCircle
 10
-393.3090427086657
 20
286.5667253507272
 30
0.0
 40
1.0
100
AcDbArc
 50
184.3987053549997
 51
239.9999999999995
  0
ARC
  5
918E
330
210
100
AcDbEntity
  8
RUNDUNGEN
  6
Continuous
 62
     7
100
AcDbCircle
 10
-392.9686601933156
 20
286.3702054138772
 30
0.0
 40
1.0
100
AcDbArc
 50
239.9999999999995
 51
0.5000000000013462
  0
ARC
  5
918F
330
210
100
AcDbEntity
  8
RUNDUNGEN
  6
Continuous
 62
     7
100
AcDbCircle
 10
-392.7521638688157
 20
290.2104372044771
 30
0.0
 40
0.75
100
AcDbArc
 50
0.5000000000013462
 51
90.0
  0
ARC
  5
9190
330
210
100
AcDbEntity
  8
RUNDUNGEN
  6
Continuous
 62
     7
100
AcDbCircle
 10
-393.8400667899157
 20
290.2104372044771
 30
0.0
 40
0.75
100
AcDbArc
 50
90.0
 51
184.3987053549997
  0
ARC
  5
9191
330
210
100
AcDbEntity
  8
AUSFORMSCHRAEGEN
  6
Continuous
 62
     7
100
AcDbCircle
 10
-396.4177170752657
 20
286.5604372044771
 30
0.0
 40
0.1
100
AcDbArc
 50
270.0
 51
4.398705354999762
  0
ARC
  5
9192
330
210
100
AcDbEntity
  8
AUSFORMSCHRAEGEN
  6
Continuous
 62
     7
100
AcDbCircle
 10
-399.9097293459657
 20
286.5604372044771
 30
0.0
 40
0.1
100
AcDbArc
 50
180.0
 51
270.0
  0
ARC
  5
9193
330
210
100
AcDbEntity
  8
AUSFORMSCHRAEGEN
  6
Continuous
 62
     7
100
AcDbCircle
 10
-413.3097293459656
 20
286.5604372044771
 30
0.0
 40
0.1
100
AcDbArc
 50
270.0
 51
0.0
  0
ARC
  5
9198
330
210
100
AcDbEntity
  8
AUSFORMSCHRAEGEN
  6
Continuous
 62
     7
100
AcDbCircle
 10
-391.0173692502656
 20
291.9604372044771
 30
0.0
 40
1.0
100
AcDbArc
 50
0.5000000000013462
 51
90.0
  0
LINE
  5
931E
330
210
100
AcDbEntity
  8
0
100
AcDbLine
 10
-353.3538133146012
 20
243.246874156488
 30
0.0
 11
-338.3538133146012
 21
243.246874156488
 31
0.0
  0
LINE
  5
931F
330
210
100
AcDbEntity
  8
0
100
AcDbLine
 10
-338.3538133146012
 20
243.246874156488
 30
0.0
 11
-338.3538133146012
 21
236.746874156488
 31
0.0
  0
LINE
  5
9320
330
210
100
AcDbEntity
  8
0
100
AcDbLine
 10
-338.3538133146012
 20
216.486907806488
 30
0.0
 11
-353.3538133146012
 21
216.486907806488
 31
0.0
  0
LINE
  5
9321
330
210
100
AcDbEntity
  8
0
100
AcDbLine
 10
-353.3538133146012
 20
216.486907806488
 30
0.0
 11
-353.3538133146012
 21
243.246874156488
 31
0.0
  0
LINE
  5
9322
330
210
100
AcDbEntity
  8
0
100
AcDbLine
 10
-338.3538133146012
 20
216.486907806488
 30
0.0
 11
-338.3538133146012
 21
209.986907806488
 31
0.0
  0
LINE
  5
9323
330
210
100
AcDbEntity
  8
0
100
AcDbLine
 10
-338.3538133146012
 20
209.986907806488
 30
0.0
 11
-353.3538133146012
 21
209.986907806488
 31
0.0
  0
LINE
  5
9324
330
210
100
AcDbEntity
  8
0
100
AcDbLine
 10
-353.3538133146012
 20
209.986907806488
 30
0.0
 11
-353.3538133146012
 21
216.486907806488
 31
0.0
  0
LINE
  5
9325
330
210
100
AcDbEntity
  8
0
100
AcDbLine
 10
-353.3538133146012
 20
236.746874156488
 30
0.0
 11
-353.3538133146012
 21
243.246874156488
 31
0.0
  0
LINE
  5
9326
330
210
100
AcDbEntity
  8
0
100
AcDbLine
 10
-353.3538133146012
 20
209.986907806488
 30
0.0
 11
-338.3538133146012
 21
209.986907806488
 31
0.0
  0
LINE
  5
9332
330
210
100
AcDbEntity
  8
0
100
AcDbLine
 10
531.4573745847687
 20
243.246874156488
 30
0.0
 11
546.4573745847688
 21
243.246874156488
 31
0.0
  0
LINE
  5
9333
330
210
100
AcDbEntity
  8
0
100
AcDbLine
 10
546.4573745847688
 20
243.246874156488
 30
0.0
 11
546.4573745847688
 21
216.486907806488
 31
0.0
  0
LINE
  5
9334
330
210
100
AcDbEntity
  8
0
100
AcDbLine
 10
546.4573745847688
 20
216.486907806488
 30
0.0
 11
531.4573745847687
 21
216.486907806488
 31
0.0
  0
LINE
  5
9336
330
210
100
AcDbEntity
  8
0
100
AcDbLine
 10
546.4573745847688
 20
216.486907806488
 30
0.0
 11
546.4573745847688
 21
209.986907806488
 31
0.0
  0
LINE
  5
9337
330
210
100
AcDbEntity
  8
0
100
AcDbLine
 10
546.4573745847688
 20
209.986907806488
 30
0.0
 11
531.4573745847687
 21
209.986907806488
 31
0.0
  0
LINE
  5
9338
330
210
100
AcDbEntity
  8
0
100
AcDbLine
 10
531.4573745847687
 20
209.986907806488
 30
0.0
 11
531.4573745847687
 21
216.486907806488
 31
0.0
  0
LINE
  5
933A
330
210
100
AcDbEntity
  8
0
100
AcDbLine
 10
531.4573745847687
 20
209.986907806488
 30
0.0
 11
546.4573745847688
 21
209.986907806488
 31
0.0
  0
LINE
  5
933C
330
210
100
AcDbEntity
  8
0
100
AcDbLine
 10
176.1552012173943
 20
243.246874156488
 30
0.0
 11
191.1552012173943
 21
243.246874156488
 31
0.0
  0
LINE
  5
933D
330
210
100
AcDbEntity
  8
0
100
AcDbLine
 10
191.1552012173943
 20
243.246874156488
 30
0.0
 11
191.1552012173943
 21
236.746874156488
 31
0.0
  0
LINE
  5
933E
330
210
100
AcDbEntity
  8
0
100
AcDbLine
 10
191.1552012173943
 20
216.486907806488
 30
0.0
 11
176.1552012173943
 21
216.486907806488
 31
0.0
  0
LINE
  5
9340
330
210
100
AcDbEntity
  8
0
100
AcDbLine
 10
191.1552012173943
 20
216.486907806488
 30
0.0
 11
191.1552012173943
 21
209.986907806488
 31
0.0
  0
LINE
  5
9341
330
210
100
AcDbEntity
  8
0
100
AcDbLine
 10
191.1552012173943
 20
209.986907806488
 30
0.0
 11
176.1552012173943
 21
209.986907806488
 31
0.0
  0
LINE
  5
9342
330
210
100
AcDbEntity
  8
0
100
AcDbLine
 10
176.1552012173943
 20
209.986907806488
 30
0.0
 11
176.1552012173943
 21
216.486907806488
 31
0.0
  0
LINE
  5
9343
330
210
100
AcDbEntity
  8
0
100
AcDbLine
 10
176.1552012173943
 20
236.746874156488
 30
0.0
 11
176.1552012173943
 21
243.246874156488
 31
0.0
  0
LINE
  5
9344
330
210
100
AcDbEntity
  8
0
100
AcDbLine
 10
176.1552012173943
 20
209.986907806488
 30
0.0
 11
191.1552012173943
 21
209.986907806488
 31
0.0
  0
LINE
  5
9346
330
210
100
AcDbEntity
  8
0
100
AcDbLine
 10
-171.8432431807683
 20
243.246874156488
 30
0.0
 11
-156.8432431807683
 21
243.246874156488
 31
0.0
  0
LINE
  5
9347
330
210
100
AcDbEntity
  8
0
100
AcDbLine
 10
-156.8432431807683
 20
243.246874156488
 30
0.0
 11
-156.8432431807683
 21
236.746874156488
 31
0.0
  0
LINE
  5
9348
330
210
100
AcDbEntity
  8
0
100
AcDbLine
 10
-156.8432431807683
 20
216.486907806488
 30
0.0
 11
-171.8432431807683
 21
216.486907806488
 31
0.0
  0
LINE
  5
934A
330
210
100
AcDbEntity
  8
0
100
AcDbLine
 10
-156.8432431807683
 20
216.486907806488
 30
0.0
 11
-156.8432431807683
 21
209.986907806488
 31
0.0
  0
LINE
  5
934B
330
210
100
AcDbEntity
  8
0
100
AcDbLine
 10
-156.8432431807683
 20
209.986907806488
 30
0.0
 11
-171.8432431807683
 21
209.986907806488
 31
0.0
  0
LINE
  5
934C
330
210
100
AcDbEntity
  8
0
100
AcDbLine
 10
-171.8432431807683
 20
209.986907806488
 30
0.0
 11
-171.8432431807683
 21
216.486907806488
 31
0.0
  0
LINE
  5
934D
330
210
100
AcDbEntity
  8
0
100
AcDbLine
 10
-171.8432431807683
 20
236.746874156488
 30
0.0
 11
-171.8432431807683
 21
243.246874156488
 31
0.0
  0
LINE
  5
934E
330
210
100
AcDbEntity
  8
0
100
AcDbLine
 10
-171.8432431807683
 20
209.986907806488
 30
0.0
 11
-156.8432431807683
 21
209.986907806488
 31
0.0
  0
LINE
  5
948E
330
210
100
AcDbEntity
  8
0
100
AcDbLine
 10
531.4573745847687
 20
277.2287669199761
 30
0.0
 11
531.4573745847687
 21
294.2287669199761
 31
0.0
  0
LINE
  5
948F
330
210
100
AcDbEntity
  8
0
100
AcDbLine
 10
531.4573745847687
 20
294.2287669199761
 30
0.0
 11
546.4207989937007
 21
294.2287669199761
 31
0.0
  0
LINE
  5
94C6
330
210
100
AcDbEntity
  8
0
100
AcDbLine
 10
546.4207989937009
 20
275.6600173358515
 30
0.0
 11
546.4207989937007
 21
286.7287669199761
 31
0.0
  0
LINE
  5
94D2
330
210
100
AcDbEntity
  8
0
  6
Continuous
 62
     7
100
AcDbLine
 10
191.1462958016286
 20
294.2287669199761
 30
0.0
 11
191.1462958016286
 21
286.7287669199761
 31
0.0
  0
LINE
  5
94D3
330
210
100
AcDbEntity
  8
0
100
AcDbLine
 10
176.146077569169
 20
275.6620089297921
 30
0.0
 11
176.146077569169
 21
294.2287669199761
 31
0.0
  0
LINE
  5
94D4
330
210
100
AcDbEntity
  8
0
100
AcDbLine
 10
176.146077569169
 20
294.2287669199761
 30
0.0
 11
191.1462958016286
 21
294.2287669199761
 31
0.0
  0
LINE
  5
94D5
330
210
100
AcDbEntity
  8
0
100
AcDbLine
 10
191.1268165332981
 20
275.6620089297921
 30
0.0
 11
176.1243215039207
 21
275.6620089297921
 31
0.0
  0
LINE
  5
94D6
330
210
100
AcDbEntity
  8
0
100
AcDbLine
 10
191.1462958016286
 20
275.6620089297921
 30
0.0
 11
191.1462958016286
 21
286.7287669199761
 31
0.0
  0
LINE
  5
94D7
330
210
100
AcDbEntity
  8
0
  6
Continuous
 62
     7
100
AcDbLine
 10
-156.8538133146012
 20
294.2287669199761
 30
0.0
 11
-156.8538133146012
 21
286.7287669199761
 31
0.0
  0
LINE
  5
94D8
330
210
100
AcDbEntity
  8
0
100
AcDbLine
 10
-171.8538133146012
 20
275.651112112293
 30
0.0
 11
-171.8538133146012
 21
294.2287669199761
 31
0.0
  0
LINE
  5
94D9
330
210
100
AcDbEntity
  8
0
100
AcDbLine
 10
-171.8538133146012
 20
294.2287669199761
 30
0.0
 11
-156.8538133146012
 21
294.2287669199761
 31
0.0
  0
LINE
  5
94DA
330
210
100
AcDbEntity
  8
0
100
AcDbLine
 10
-156.943986472766
 20
275.651112112293
 30
0.0
 11
-171.943986472766
 21
275.651112112293
 31
0.0
  0
LINE
  5
94DB
330
210
100
AcDbEntity
  8
0
100
AcDbLine
 10
-156.8538133146012
 20
275.651112112293
 30
0.0
 11
-156.8538133146012
 21
286.7287669199761
 31
0.0
  0
LINE
  5
94DC
330
210
100
AcDbEntity
  8
0
  6
Continuous
 62
     7
100
AcDbLine
 10
-338.3297606756117
 20
294.2287669199761
 30
0.0
 11
-338.3297606756117
 21
286.7287669199761
 31
0.0
  0
LINE
  5
94DD
330
210
100
AcDbEntity
  8
0
100
AcDbLine
 10
-353.3538133146012
 20
275.6552726561699
 30
0.0
 11
-353.3538133146012
 21
294.2287669199761
 31
0.0
  0
LINE
  5
94DE
330
210
100
AcDbEntity
  8
0
100
AcDbLine
 10
-353.3538133146012
 20
294.2287669199761
 30
0.0
 11
-338.3297606756117
 21
294.2287669199761
 31
0.0
  0
LINE
  5
94DF
330
210
100
AcDbEntity
  8
0
100
AcDbLine
 10
-338.3297606756117
 20
275.6552726561699
 30
0.0
 11
-353.3538133146012
 21
275.6552726561699
 31
0.0
  0
LINE
  5
94E0
330
210
100
AcDbEntity
  8
0
100
AcDbLine
 10
-338.3297606756117
 20
275.6552726561699
 30
0.0
 11
-338.3297606756117
 21
286.7287669199761
 31
0.0
  0
ARC
  5
95F2
330
210
100
AcDbEntity
  8
AUSFORMSCHRAEGEN
  6
Continuous
 62
     7
100
AcDbCircle
 10
-396.3204742976243
 20
292.9584372044772
 30
0.0
 40
0.002
100
AcDbArc
 50
90.0
 51
180.0400123594197
1001
GENIUS_GENODEF_13
1002
{
1000
HIER
1070
     0
1002
}
1002
{
1000
MANEDIT
1070
     0
1002
}
1002
{
1000
NOSEL
1070
     0
1002
}
1002
{
1000
BEHIND
1070
     0
1002
}
1002
{
1000
OTHER
1070
     0
1002
}
1002
{
1000
REACTOR
1002
}
1001
GENIUS_GENOBJ-N-FIL_13
1002
{
1000
OWNER
1000
GEN
1002
}
  0
ARC
  5
95F4
330
210
100
AcDbEntity
  8
AUSFORMSCHRAEGEN
  6
Continuous
 62
     7
100
AcDbCircle
 10
-396.3204742976243
 20
292.9584372044772
 30
0.0
 40
0.002
100
AcDbArc
 50
90.0
 51
180.0400123594197
1001
GENIUS_GENODEF_13
1002
{
1000
HIER
1070
     0
1002
}
1002
{
1000
MANEDIT
1070
     0
1002
}
1002
{
1000
NOSEL
1070
     0
1002
}
1002
{
1000
BEHIND
1070
     0
1002
}
1002
{
1000
OTHER
1070
     0
1002
}
1002
{
1000
REACTOR
1002
}
1001
GENIUS_GENOBJ-N-FIL_13
1002
{
1000
OWNER
1000
GEN
1002
}
  0
ARC
  5
95F5
330
210
100
AcDbEntity
  8
AUSFORMSCHRAEGEN
  6
Continuous
 62
     7
100
AcDbCircle
 10
-416.8747011763801
 20
292.9584372044772
 30
0.0
 40
0.002
100
AcDbArc
 50
359.7422655686482
 51
90.0
1001
GENIUS_GENODEF_13
1002
{
1000
HIER
1070
     0
1002
}
1002
{
1000
MANEDIT
1070
     0
1002
}
1002
{
1000
NOSEL
1070
     0
1002
}
1002
{
1000
BEHIND
1070
     0
1002
}
1002
{
1000
OTHER
1070
     0
1002
}
1002
{
1000
REACTOR
1002
}
1001
GENIUS_GENOBJ-N-FIL_13
1002
{
1000
OWNER
1000
GEN
1002
}
  0
ARC
  5
95F6
330
210
100
AcDbEntity
  8
AUSFORMSCHRAEGEN
  6
Continuous
 62
     7
100
AcDbCircle
 10
-417.8772006217212
 20
291.9604372044771
 30
0.0
 40
1.0
100
AcDbArc
 50
359.7422655686482
 51
90.0
1001
GENIUS_GENODEF_13
1002
{
1000
HIER
1070
     0
1002
}
1002
{
1000
MANEDIT
1070
     0
1002
}
1002
{
1000
NOSEL
1070
     0
1002
}
1002
{
1000
BEHIND
1070
     0
1002
}
1002
{
1000
OTHER
1070
     0
1002
}
1002
{
1000
REACTOR
1002
}
1001
GENIUS_GENOBJ-N-FIL_13
1002
{
1000
OWNER
1000
GEN
1002
}
  0
ARC
  5
95F7
330
210
100
AcDbEntity
  8
AUSFORMSCHRAEGEN
  6
Continuous
 62
     7
100
AcDbCircle
 10
-395.3217771034354
 20
291.9604372044771
 30
0.0
 40
1.0
100
AcDbArc
 50
90.0
 51
180.0400123594197
1001
GENIUS_GENODEF_13
1002
{
1000
HIER
1070
     0
1002
}
1002
{
1000
MANEDIT
1070
     0
1002
}
1002
{
1000
NOSEL
1070
     0
1002
}
1002
{
1000
BEHIND
1070
     0
1002
}
1002
{
1000
OTHER
1070
     0
1002
}
1002
{
1000
REACTOR
1002
}
1001
GENIUS_GENOBJ-N-FIL_13
1002
{
1000
OWNER
1000
GEN
1002
}
  0
DIMENSION
  5
95F8
102
{ACAD_XDICTIONARY
360
9606
102
}
102
{ACAD_REACTORS
330
9607
102
}
330
210
100
AcDbEntity
  8
P-0000
  6
Continuous
100
AcDbDimension
  2
*D87
 10
546.4207989937007
 20
326.3212820385605
 30
0.0
 11
96.53349283954984
 21
333.8212820385605
 31
0.0
 70
    32
 71
     5
 42
899.774612308302
  3
883N99122_001_00149479900
100
AcDbAlignedDimension
 13
-353.3538133146012
 23
297.2235694199759
 33
0.0
 14
546.4207989937007
 24
297.2235694199759
 34
0.0
 50
0.0000000000000114
100
AcDbRotatedDimension
1001
ACAD_DSTYLE_DIMINSPECT
1070
   396
1000
100%
1070
   395
1000

1070
   394
1070
    33
1070
   393
1070
     0
1001
ACAD
1000
DSTYLE
1002
{
1070
   271
1070
     0
1070
   288
1070
     1
1002
}
  0
LINE
  5
96C4
330
210
100
AcDbEntity
  8
0
100
AcDbLine
 10
531.4573745847687
 20
243.246874156488
 30
0.0
 11
531.4573745847687
 21
236.746874156488
 31
0.0
  0
LINE
  5
987F
330
210
100
AcDbEntity
  8
0
100
AcDbLine
 10
531.4573745847687
 20
275.6620089297921
 30
0.0
 11
546.4207989937009
 21
275.6620089297921
 31
0.0
  0
LINE
  5
9880
330
210
100
AcDbEntity
  8
0
100
AcDbLine
 10
546.4207989937009
 20
275.6620089297921
 30
0.0
 11
546.4207989937009
 21
281.1943921279138
 31
0.0
  0
LINE
  5
9881
330
210
100
AcDbEntity
  8
0
100
AcDbLine
 10
531.4573745847687
 20
275.6620089297921
 30
0.0
 11
531.4573745847687
 21
277.2287669199761
 31
0.0
  0
LINE
  5
999C
330
210
100
AcDbEntity
  8
TEIL_STARTBEZUEGE
  6
Continuous
 62
     7
100
AcDbLine
 10
82.48048016753125
 20
297.2243814873242
 30
0.0
 11
23.70958616753132
 21
297.2243814873242
 31
0.0
  0
LINE
  5
999D
330
210
100
AcDbEntity
  8
0
100
AcDbLine
 10
2.156756819231702
 20
243.246874156488
 30
0.0
 11
17.1567568192317
 21
243.246874156488
 31
0.0
  0
LINE
  5
999E
330
210
100
AcDbEntity
  8
0
100
AcDbLine
 10
17.1567568192317
 20
243.246874156488
 30
0.0
 11
17.1567568192317
 21
236.746874156488
 31
0.0
  0
LINE
  5
999F
330
210
100
AcDbEntity
  8
0
100
AcDbLine
 10
17.1567568192317
 20
216.486907806488
 30
0.0
 11
2.156756819231702
 21
216.486907806488
 31
0.0
  0
LINE
  5
99A0
330
210
100
AcDbEntity
  8
0
100
AcDbLine
 10
17.1567568192317
 20
216.486907806488
 30
0.0
 11
17.1567568192317
 21
209.986907806488
 31
0.0
  0
LINE
  5
99A1
330
210
100
AcDbEntity
  8
0
100
AcDbLine
 10
17.1567568192317
 20
209.986907806488
 30
0.0
 11
2.156756819231702
 21
209.986907806488
 31
0.0
  0
LINE
  5
99A2
330
210
100
AcDbEntity
  8
0
100
AcDbLine
 10
2.156756819231702
 20
209.986907806488
 30
0.0
 11
2.156756819231702
 21
216.486907806488
 31
0.0
  0
LINE
  5
99A3
330
210
100
AcDbEntity
  8
0
100
AcDbLine
 10
2.156756819231702
 20
236.746874156488
 30
0.0
 11
2.156756819231702
 21
243.246874156488
 31
0.0
  0
LINE
  5
99A4
330
210
100
AcDbEntity
  8
0
100
AcDbLine
 10
2.156756819231702
 20
209.986907806488
 30
0.0
 11
17.1567568192317
 21
209.986907806488
 31
0.0
  0
LINE
  5
99A5
330
210
100
AcDbEntity
  8
0
  6
Continuous
 62
     7
100
AcDbLine
 10
17.14618668539879
 20
294.2287669199761
 30
0.0
 11
17.14618668539879
 21
286.7287669199761
 31
0.0
  0
LINE
  5
99A6
330
210
100
AcDbEntity
  8
0
100
AcDbLine
 10
2.146186685398788
 20
275.651112112293
 30
0.0
 11
2.146186685398788
 21
294.2287669199761
 31
0.0
  0
LINE
  5
99A7
330
210
100
AcDbEntity
  8
0
100
AcDbLine
 10
2.146186685398788
 20
294.2287669199761
 30
0.0
 11
17.14618668539879
 21
294.2287669199761
 31
0.0
  0
LINE
  5
99A8
330
210
100
AcDbEntity
  8
0
100
AcDbLine
 10
17.05601352723397
 20
275.651112112293
 30
0.0
 11
2.056013527233943
 21
275.651112112293
 31
0.0
  0
LINE
  5
99A9
330
210
100
AcDbEntity
  8
0
100
AcDbLine
 10
17.14618668539879
 20
275.651112112293
 30
0.0
 11
17.14618668539879
 21
286.7287669199761
 31
0.0
  0
LINE
  5
99AE
330
210
100
AcDbEntity
  8
0
100
AcDbLine
 10
350.1552012173943
 20
243.246874156488
 30
0.0
 11
365.1552012173943
 21
243.246874156488
 31
0.0
  0
LINE
  5
99AF
330
210
100
AcDbEntity
  8
0
100
AcDbLine
 10
365.1552012173943
 20
243.246874156488
 30
0.0
 11
365.1552012173943
 21
236.746874156488
 31
0.0
  0
LINE
  5
99B0
330
210
100
AcDbEntity
  8
0
100
AcDbLine
 10
365.1552012173943
 20
216.486907806488
 30
0.0
 11
350.1552012173943
 21
216.486907806488
 31
0.0
  0
LINE
  5
99B1
330
210
100
AcDbEntity
  8
0
100
AcDbLine
 10
365.1552012173943
 20
216.486907806488
 30
0.0
 11
365.1552012173943
 21
209.986907806488
 31
0.0
  0
LINE
  5
99B2
330
210
100
AcDbEntity
  8
0
100
AcDbLine
 10
365.1552012173943
 20
209.986907806488
 30
0.0
 11
350.1552012173943
 21
209.986907806488
 31
0.0
  0
LINE
  5
99B3
330
210
100
AcDbEntity
  8
0
100
AcDbLine
 10
350.1552012173943
 20
209.986907806488
 30
0.0
 11
350.1552012173943
 21
216.486907806488
 31
0.0
  0
LINE
  5
99B4
330
210
100
AcDbEntity
  8
0
100
AcDbLine
 10
350.1552012173943
 20
236.746874156488
 30
0.0
 11
350.1552012173943
 21
243.246874156488
 31
0.0
  0
LINE
  5
99B5
330
210
100
AcDbEntity
  8
0
100
AcDbLine
 10
350.1552012173943
 20
209.986907806488
 30
0.0
 11
365.1552012173943
 21
209.986907806488
 31
0.0
  0
LINE
  5
99B6
330
210
100
AcDbEntity
  8
0
  6
Continuous
 62
     7
100
AcDbLine
 10
365.1462958016286
 20
294.2287669199761
 30
0.0
 11
365.1462958016286
 21
286.7287669199761
 31
0.0
  0
LINE
  5
99B7
330
210
100
AcDbEntity
  8
0
100
AcDbLine
 10
350.146077569169
 20
275.6620089297921
 30
0.0
 11
350.146077569169
 21
294.2287669199761
 31
0.0
  0
LINE
  5
99B8
330
210
100
AcDbEntity
  8
0
100
AcDbLine
 10
350.146077569169
 20
294.2287669199761
 30
0.0
 11
365.1462958016286
 21
294.2287669199761
 31
0.0
  0
LINE
  5
99B9
330
210
100
AcDbEntity
  8
0
100
AcDbLine
 10
365.1268165332981
 20
275.6620089297921
 30
0.0
 11
350.1243215039206
 21
275.6620089297921
 31
0.0
  0
LINE
  5
99BA
330
210
100
AcDbEntity
  8
0
100
AcDbLine
 10
365.1462958016286
 20
275.6620089297921
 30
0.0
 11
365.1462958016286
 21
286.7287669199761
 31
0.0
  0
ENDSEC
  0
SECTION
  2
OBJECTS
  0
DICTIONARY
  5
C
330
0
100
AcDbDictionary
281
     1
  3
ACAD_2007HEADERVARS_RT
350
99C1
  3
ACAD_COLOR
350
432
  3
ACAD_GROUP
350
D
  3
ACAD_LAYOUT
350
1A
  3
ACAD_MATERIAL
350
405
  3
ACAD_MLEADERSTYLE
350
445
  3
ACAD_MLINESTYLE
350
17
  3
ACAD_PLOTSETTINGS
350
19
  3
ACAD_PLOTSTYLENAME
350
E
  3
ACAD_SCALELIST
350
433
  3
ACAD_TABLESTYLE
350
3FC
  3
ACAD_VISUALSTYLE
350
41E
  3
ACDB_RECOMPOSE_DATA
350
99BF
  3
AcDbVariableDictionary
350
8938
  3
AcmDictionary
350
49F
  3
AEC_PROPERTY_SET_DEFS
350
8D99
  3
AMG
350
47F
  3
AMGSNAPSETTINGS
350
4E7
  3
DWGPROPS
350
99C0
  0
DICTIONARY
  5
89A
330
2
100
AcDbDictionary
280
     1
281
     1
  3
ACAD_LAYERSTATES
360
89B
  0
DICTIONARY
  5
187F
330
187E
100
AcDbDictionary
280
     1
281
     1
  0
DICTIONARY
  5
9354
330
210
100
AcDbDictionary
280
     1
281
     1
  3
ACAD_SORTENTS
360
9355
  0
DICTIONARY
  5
77F
330
770
100
AcDbDictionary
280
     1
281
     1
  3
ACAD_DIMASSOC
360
780
  0
DICTIONARY
  5
80C
330
7FE
100
AcDbDictionary
280
     1
281
     1
  3
ACAD_DIMASSOC
360
80D
  0
DICTIONARY
  5
83A
330
82C
100
AcDbDictionary
280
     1
281
     1
  3
ACAD_DIMASSOC
360
83B
  0
DICTIONARY
  5
9606
330
95F8
100
AcDbDictionary
280
     1
281
     1
  3
ACAD_DIMASSOC
360
9607
  0
DICTIONARY
  5
99C1
102
{ACAD_REACTORS
330
C
102
}
330
C
100
AcDbDictionary
281
     1
  3
DIMARCSYM
350
99C2
  3
DIMJOGANG
350
99C3
  3
DIMLTEX1
350
99C5
  3
DIMLTEX2
350
99C6
  3
DIMLTYPE
350
99C4
  0
DICTIONARY
  5
432
102
{ACAD_REACTORS
330
C
102
}
330
C
100
AcDbDictionary
281
     1
  0
DICTIONARY
  5
D
102
{ACAD_REACTORS
330
C
102
}
330
C
100
AcDbDictionary
281
     1
  0
DICTIONARY
  5
1A
102
{ACAD_REACTORS
330
C
102
}
330
C
100
AcDbDictionary
281
     1
  3
Layout1
350
3FE
  3
Model
350
3FD
  0
DICTIONARY
  5
405
102
{ACAD_REACTORS
330
C
102
}
330
C
100
AcDbDictionary
281
     1
  3
ByBlock
350
40E
  3
ByLayer
350
406
  3
Global
350
416
  0
DICTIONARY
  5
445
102
{ACAD_REACTORS
330
C
102
}
330
C
100
AcDbDictionary
281
     1
  3
Standard
350
446
  0
DICTIONARY
  5
17
102
{ACAD_REACTORS
330
C
102
}
330
C
100
AcDbDictionary
281
     1
  3
Standard
350
18
  0
DICTIONARY
  5
19
102
{ACAD_REACTORS
330
C
102
}
330
C
100
AcDbDictionary
281
     1
  0
ACDBDICTIONARYWDFLT
  5
E
102
{ACAD_REACTORS
330
C
102
}
330
C
100
AcDbDictionary
281
     1
  3
Normal
350
F
100
AcDbDictionaryWithDefault
340
F
  0
DICTIONARY
  5
433
102
{ACAD_REACTORS
330
C
102
}
330
C
100
AcDbDictionary
281
     1
  3
*A1
350
899
  3
A0
350
434
  3
A1
350
435
  3
A2
350
436
  3
A3
350
437
  3
A4
350
438
  3
A5
350
439
  3
A6
350
43A
  3
A7
350
43B
  3
A8
350
43C
  3
A9
350
43D
  3
B0
350
43E
  3
B1
350
43F
  3
B2
350
440
  3
B3
350
441
  3
B4
350
442
  3
B5
350
443
  3
B6
350
444
  0
DICTIONARY
  5
3FC
330
C
100
AcDbDictionary
281
     1
  3
Standard
350
3FF
  0
DICTIONARY
  5
41E
102
{ACAD_REACTORS
330
C
102
}
330
C
100
AcDbDictionary
281
     1
  3
2dWireframe
350
424
  3
3D Hidden
350
426
  3
3dWireframe
350
425
  3
Basic
350
423
  3
Brighten
350
42A
  3
ColorChange
350
42E
  3
Conceptual
350
427
  3
Dim
350
429
  3
EdgeColorOff
350
431
  3
Facepattern
350
42D
  3
Flat
350
41F
  3
FlatWithEdges
350
420
  3
Gouraud
350
421
  3
GouraudWithEdges
350
422
  3
JitterOff
350
42F
  3
Linepattern
350
42C
  3
OverhangOff
350
430
  3
Realistic
350
428
  3
Thicken
350
42B
  0
XRECORD
  5
99BF
102
{ACAD_REACTORS
330
C
102
}
330
C
100
AcDbXrecord
280
     1
 90
        1
330
3FF
  0
DICTIONARY
  5
8938
102
{ACAD_REACTORS
330
C
102
}
330
C
100
AcDbDictionary
281
     1
  3
CANNOSCALE
350
893C
  3
CMLEADERSTYLE
350
893A
  3
CTABLESTYLE
350
8939
  3
DIMASSOC
350
8943
  3
HIDETEXT
350
8942
  3
INDEXCTL
350
8941
  3
LAYEREVAL
350
893E
  3
LAYERNOTIFY
350
893F
  3
LIGHTINGUNITS
350
893D
  3
MSLTSCALE
350
893B
  3
SORTENTS
350
8940
  3
XCLIPFRAME
350
99BD
  0
DICTIONARY
  5
49F
102
{ACAD_REACTORS
330
C
102
}
330
C
100
AcDbDictionary
281
     1
  3
AcmStdDictionary
350
4A9
  0
DICTIONARY
  5
8D99
102
{ACAD_REACTORS
330
C
102
}
330
C
100
AcDbDictionary
281
     1
  0
DICTIONARY
  5
47F
102
{ACAD_REACTORS
330
C
102
}
330
C
100
AcDbDictionary
281
     1
  0
DICTIONARY
  5
4E7
102
{ACAD_REACTORS
330
C
102
}
330
C
100
AcDbDictionary
281
     1
  0
XRECORD
  5
99C0
102
{ACAD_REACTORS
330
C
102
}
330
C
100
AcDbXrecord
280
     1
  1
DWGPROPS COOKIE
  2

  3

  4

  6

  7

  8
malaie
  9

300
=
301
=
302
=
303
=
304
=
305
=
306
=
307
=
308
=
309
=
 40
0.1740852777777778
 41
2456716.517536076
 42
2457193.461341447
  1

 90
        0
  0
DICTIONARY
  5
89B
102
{ACAD_REACTORS
330
89A
102
}
330
89A
100
AcDbDictionary
281
     1
  0
SORTENTSTABLE
  5
9355
102
{ACAD_REACTORS
330
9354
102
}
330
9354
100
AcDbSortentsTable
330
210
331
933D
  5
9345
331
39B
  5
39B
331
9105
  5
9107
331
397
  5
397
331
3DE
  5
3DE
331
9101
  5
9104
331
917C
  5
9182
331
393
  5
393
331
3DA
  5
3DA
331
90FD
  5
90FF
331
90F9
  5
90FB
331
9178
  5
9180
331
9325
  5
9338
331
94DC
  5
94E1
331
9321
  5
9326
331
94D8
  5
94DD
331
94D4
  5
94D9
331
90F5
  5
90F5
331
9174
  5
9179
331
90F1
  5
90F1
331
9170
  5
9175
331
916C
  5
9173
331
90ED
  5
90ED
331
505
  5
505
331
38B
  5
38B
331
9191
  5
91A5
331
3B6
  5
3B6
331
9120
  5
916D
331
911C
  5
9121
331
3B2
  5
3B2
331
9118
  5
911D
331
95F6
  5
90F7
331
95F2
  5
911C
331
918D
  5
9192
331
934C
  5
9491
331
9189
  5
918E
331
9348
  5
9356
331
3AE
  5
3AE
331
9344
  5
934D
331
9185
  5
918C
331
3ED
  5
3ED
331
9114
  5
9116
331
30B
  5
30B
331
9340
  5
9348
331
3A6
  5
3A6
331
3E9
  5
3E9
331
9110
  5
9112
331
9181
  5
9188
331
910C
  5
910E
331
2FB
  5
2FB
331
3E5
  5
3E5
331
3E1
  5
3E1
331
9108
  5
910A
331
933C
  5
9344
331
9338
  5
9340
331
39E
  5
39E
331
39A
  5
39A
331
9104
  5
9106
331
9334
  5
933C
331
917F
  5
9184
331
396
  5
396
331
3DD
  5
3DD
331
9100
  5
9102
331
90FC
  5
90FE
331
3D9
  5
3D9
331
90F8
  5
90FA
331
770
  5
770
331
82C
  5
82C
331
94DF
  5
95F4
331
9324
  5
9335
331
94DB
  5
94E0
331
9177
  5
917E
331
9320
  5
9325
331
94D7
  5
94DC
331
94D3
  5
94D8
331
90F4
  5
90F4
331
9173
  5
9178
331
90F0
  5
90F0
331
534
  5
534
331
9198
  5
9320
331
948F
  5
94D4
331
9123
  5
9172
331
9190
  5
9199
331
911F
  5
916C
331
911B
  5
9120
331
382
  5
382
331
3F0
  5
3F0
331
95F5
  5
90F8
331
918C
  5
9191
331
934B
  5
948F
331
3AD
  5
3AD
331
9117
  5
9119
331
9188
  5
918D
331
9347
  5
9353
331
9343
  5
934C
331
3EC
  5
3EC
331
9113
  5
9115
331
9184
  5
918B
331
9180
  5
9185
331
3A5
  5
3A5
331
3E8
  5
3E8
331
910F
  5
9111
331
910B
  5
910D
331
3A1
  5
3A1
331
3E4
  5
3E4
331
3E0
  5
3E0
331
9337
  5
933F
331
9107
  5
9109
331
39D
  5
39D
331
9333
  5
933B
331
399
  5
399
331
917E
  5
9183
331
3DC
  5
3DC
331
90FF
  5
9101
331
90FB
  5
90FD
331
391
  5
391
331
3D8
  5
3D8
331
94DE
  5
95F2
331
9323
  5
9334
331
94DA
  5
94DF
331
94D6
  5
94DB
331
90F7
  5
90F9
331
9176
  5
917D
331
931F
  5
9324
331
94D2
  5
94D7
331
90F3
  5
90F3
331
9172
  5
9177
331
90EF
  5
90EF
331
90EB
  5
90EB
331
94C6
  5
94D6
331
948E
  5
94D3
331
9122
  5
9171
331
9193
  5
931F
331
911E
  5
9123
331
3B4
  5
3B4
331
911A
  5
911F
331
95F4
  5
911B
331
918F
  5
9198
331
934E
  5
94D2
331
918B
  5
9190
331
934A
  5
948E
331
3AC
  5
3AC
331
3EF
  5
3EF
331
9116
  5
9118
331
9346
  5
934E
331
9342
  5
934A
331
94E0
  5
95F5
331
3EB
  5
3EB
331
9112
  5
9114
331
9183
  5
918A
331
3A4
  5
3A4
331
3E7
  5
3E7
331
910E
  5
9110
331
910A
  5
910C
331
3E3
  5
3E3
331
933E
  5
9346
331
933A
  5
9343
331
39C
  5
39C
331
9106
  5
9108
331
9336
  5
933E
331
9332
  5
933A
331
398
  5
398
331
3DF
  5
3DF
331
9102
  5
9105
331
3DB
  5
3DB
331
90FE
  5
9100
331
90FA
  5
90FC
331
9179
  5
9181
331
9326
  5
9339
331
94DD
  5
94E2
331
3D7
  5
3D7
331
9322
  5
9333
331
94D9
  5
94DE
331
94D5
  5
94DA
331
9175
  5
917C
331
931E
  5
9323
331
9171
  5
9176
331
916D
  5
9174
331
7FE
  5
7FE
331
388
  5
388
331
3B7
  5
3B7
331
9121
  5
9170
331
9192
  5
931E
331
911D
  5
9122
331
9119
  5
911E
331
95F7
  5
911A
331
918E
  5
9193
331
934D
  5
94C6
331
918A
  5
918F
331
3AF
  5
3AF
331
3AB
  5
3AB
331
3EE
  5
3EE
331
9115
  5
9117
331
30C
  5
30C
331
9341
  5
9349
331
3A7
  5
3A7
331
3EA
  5
3EA
331
9111
  5
9113
331
9182
  5
9189
331
910D
  5
910F
331
3E6
  5
3E6
331
9109
  5
910B
331
3E2
  5
3E2
  0
DIMASSOC
  5
780
102
{ACAD_REACTORS
330
77F
102
}
330
77F
100
AcDbDimAssoc
330
770
 90
        3
 70
     0
 71
     0
  1
AcDbOsnapPointRef
 72
    13
331
391
 73
     0
 91
        0
 40
0.0
 10
0.0
 20
0.0
 30
2.000000000000000E+50
 75
     0
  1
AcDbOsnapPointRef
 72
     1
331
391
 73
     0
 91
        0
 40
0.0
 10
0.0
 20
0.0
 30
2.000000000000000E+50
 75
     0
  0
DIMASSOC
  5
80D
102
{ACAD_REACTORS
330
80C
102
}
330
80C
100
AcDbDimAssoc
330
7FE
 90
        3
 70
     0
 71
     0
  1
AcDbOsnapPointRef
 72
    13
331
3B4
 73
     0
 91
        0
 40
0.0
 10
0.0
 20
0.0
 30
2.000000000000000E+50
 75
     0
  1
AcDbOsnapPointRef
 72
    13
331
3B7
 73
     0
 91
        0
 40
0.0
 10
0.0
 20
0.0
 30
2.000000000000000E+50
 75
     0
  0
DIMASSOC
  5
83B
102
{ACAD_REACTORS
330
83A
102
}
330
83A
100
AcDbDimAssoc
330
82C
 90
        1
 70
     0
 71
     0
  1
AcDbOsnapPointRef
 72
    13
331
3B4
 73
     0
 91
        0
 40
0.0
 10
0.0
 20
0.0
 30
2.000000000000000E+50
 75
     0
  0
DIMASSOC
  5
9607
102
{ACAD_REACTORS
330
9606
102
}
330
9606
100
AcDbDimAssoc
330
95F8
 90
        3
 70
     0
 71
     0
  1
AcDbOsnapPointRef
 72
     1
331
38B
 73
     0
 91
        0
 40
0.0
 10
0.0
 20
0.0
 30
2.000000000000000E+50
 75
     0
  1
AcDbOsnapPointRef
 72
     8
331
391
 73
     0
 91
        0
 40
0.0
 10
0.0
 20
0.0
 30
0.0
 75
     1
  1
AcDbOsnapPointRef
 72
     1
331
38B
 73
     0
 91
        0
 40
0.0
 10
0.0
 20
0.0
 30
2.000000000000000E+50
 75
     0
  0
XRECORD
  5
99C2
102
{ACAD_REACTORS
330
99C1
102
}
330
99C1
100
AcDbXrecord
280
     1
 70
     1
  0
XRECORD
  5
99C3
102
{ACAD_REACTORS
330
99C1
102
}
330
99C1
100
AcDbXrecord
280
     1
 40
1.570796326794896
  0
XRECORD
  5
99C5
102
{ACAD_REACTORS
330
99C1
102
}
330
99C1
100
AcDbXrecord
280
     1
340
14
  0
XRECORD
  5
99C6
102
{ACAD_REACTORS
330
99C1
102
}
330
99C1
100
AcDbXrecord
280
     1
340
14
  0
XRECORD
  5
99C4
102
{ACAD_REACTORS
330
99C1
102
}
330
99C1
100
AcDbXrecord
280
     1
340
14
  0
LAYOUT
  5
3FE
102
{ACAD_XDICTIONARY
360
99C9
102
}
102
{ACAD_REACTORS
330
1A
102
}
330
1A
100
AcDbPlotSettings
  1

  2
none_device
  4
ISO_A3_(420.00_x_297.00_MM)
  6

 40
0.0
 41
0.0
 42
0.0
 43
0.0
 44
420.0
 45
297.0
 46
0.0
 47
0.0
 48
0.0
 49
0.0
140
0.0
141
0.0
142
1.0
143
1.0
 70
     0
 72
     1
 73
     0
 74
     0
  7

 75
     0
147
1.0
148
0.0
149
0.0
100
AcDbLayout
  1
Layout1
 70
     1
 71
     1
 10
0.0
 20
0.0
 11
12.0
 21
9.0
 12
0.0
 22
0.0
 32
0.0
 14
1.000000000000000E+20
 24
1.000000000000000E+20
 34
1.000000000000000E+20
 15
-1.000000000000000E+20
 25
-1.000000000000000E+20
 35
-1.000000000000000E+20
146
0.0
 13
0.0
 23
0.0
 33
0.0
 16
1.0
 26
0.0
 36
0.0
 17
0.0
 27
1.0
 37
0.0
 76
     0
330
211
  0
LAYOUT
  5
3FD
102
{ACAD_XDICTIONARY
360
99C7
102
}
102
{ACAD_REACTORS
330
1A
102
}
330
1A
100
AcDbPlotSettings
  1

  2
none_device
  4
ISO_A3_(420.00_x_297.00_MM)
  6

 40
0.0
 41
0.0
 42
0.0
 43
0.0
 44
420.0
 45
297.0
 46
0.0
 47
0.0
 48
0.0
 49
0.0
140
0.0
141
0.0
142
1.0
143
1.0
 70
  1024
 72
     1
 73
     0
 74
     0
  7

 75
     0
147
1.0
148
0.0
149
0.0
100
AcDbLayout
  1
Model
 70
     0
 71
     0
 10
0.0
 20
0.0
 11
420.0
 21
297.0
 12
0.0
 22
0.0
 32
0.0
 14
0.0
 24
0.0
 34
0.0
 15
0.0
 25
0.0
 35
0.0
146
0.0
 13
0.0
 23
0.0
 33
0.0
 16
1.0
 26
0.0
 36
0.0
 17
0.0
 27
1.0
 37
0.0
 76
     0
330
210
331
1F4
  0
MATERIAL
  5
40E
102
{ACAD_XDICTIONARY
360
40F
102
}
102
{ACAD_REACTORS
330
405
102
}
330
405
100
AcDbMaterial
  1
ByBlock
 72
     0
 43
0.0008202099737533
 43
0.0
 43
0.0
 43
0.0
 43
0.0
 43
0.0008202099737533
 43
0.0
 43
0.0
 43
0.0
 43
0.0
 43
1.0
 43
0.0
 43
0.0
 43
0.0
 43
0.0
 43
1.0
 77
     0
 47
0.0008202099737533
 47
0.0
 47
0.0
 47
0.0
 47
0.0
 47
0.0008202099737533
 47
0.0
 47
0.0
 47
0.0
 47
0.0
 47
1.0
 47
0.0
 47
0.0
 47
0.0
 47
0.0
 47
1.0
171
     0
 49
0.0008202099737533
 49
0.0
 49
0.0
 49
0.0
 49
0.0
 49
0.0008202099737533
 49
0.0
 49
0.0
 49
0.0
 49
0.0
 49
1.0
 49
0.0
 49
0.0
 49
0.0
 49
0.0
 49
1.0
175
     0
142
0.0008202099737533
142
0.0
142
0.0
142
0.0
142
0.0
142
0.0008202099737533
142
0.0
142
0.0
142
0.0
142
0.0
142
1.0
142
0.0
142
0.0
142
0.0
142
0.0
142
1.0
179
     0
144
0.0008202099737533
144
0.0
144
0.0
144
0.0
144
0.0
144
0.0008202099737533
144
0.0
144
0.0
144
0.0
144
0.0
144
1.0
144
0.0
144
0.0
144
0.0
144
0.0
144
1.0
147
0.0008202099737533
147
0.0
147
0.0
147
0.0
147
0.0
147
0.0008202099737533
147
0.0
147
0.0
147
0.0
147
0.0
147
1.0
147
0.0
147
0.0
147
0.0
147
0.0
147
1.0
  0
MATERIAL
  5
406
102
{ACAD_XDICTIONARY
360
407
102
}
102
{ACAD_REACTORS
330
405
102
}
330
405
100
AcDbMaterial
  1
ByLayer
 72
     0
 43
0.0008202099737533
 43
0.0
 43
0.0
 43
0.0
 43
0.0
 43
0.0008202099737533
 43
0.0
 43
0.0
 43
0.0
 43
0.0
 43
1.0
 43
0.0
 43
0.0
 43
0.0
 43
0.0
 43
1.0
 77
     0
 47
0.0008202099737533
 47
0.0
 47
0.0
 47
0.0
 47
0.0
 47
0.0008202099737533
 47
0.0
 47
0.0
 47
0.0
 47
0.0
 47
1.0
 47
0.0
 47
0.0
 47
0.0
 47
0.0
 47
1.0
171
     0
 49
0.0008202099737533
 49
0.0
 49
0.0
 49
0.0
 49
0.0
 49
0.0008202099737533
 49
0.0
 49
0.0
 49
0.0
 49
0.0
 49
1.0
 49
0.0
 49
0.0
 49
0.0
 49
0.0
 49
1.0
175
     0
142
0.0008202099737533
142
0.0
142
0.0
142
0.0
142
0.0
142
0.0008202099737533
142
0.0
142
0.0
142
0.0
142
0.0
142
1.0
142
0.0
142
0.0
142
0.0
142
0.0
142
1.0
179
     0
144
0.0008202099737533
144
0.0
144
0.0
144
0.0
144
0.0
144
0.0008202099737533
144
0.0
144
0.0
144
0.0
144
0.0
144
1.0
144
0.0
144
0.0
144
0.0
144
0.0
144
1.0
147
0.0008202099737533
147
0.0
147
0.0
147
0.0
147
0.0
147
0.0008202099737533
147
0.0
147
0.0
147
0.0
147
0.0
147
1.0
147
0.0
147
0.0
147
0.0
147
0.0
147
1.0
  0
MATERIAL
  5
416
102
{ACAD_XDICTIONARY
360
417
102
}
102
{ACAD_REACTORS
330
405
102
}
330
405
100
AcDbMaterial
  1
Global
 72
     0
 43
0.0008202099737533
 43
0.0
 43
0.0
 43
0.0
 43
0.0
 43
0.0008202099737533
 43
0.0
 43
0.0
 43
0.0
 43
0.0
 43
1.0
 43
0.0
 43
0.0
 43
0.0
 43
0.0
 43
1.0
 77
     0
 47
0.0008202099737533
 47
0.0
 47
0.0
 47
0.0
 47
0.0
 47
0.0008202099737533
 47
0.0
 47
0.0
 47
0.0
 47
0.0
 47
1.0
 47
0.0
 47
0.0
 47
0.0
 47
0.0
 47
1.0
171
     0
 49
0.0008202099737533
 49
0.0
 49
0.0
 49
0.0
 49
0.0
 49
0.0008202099737533
 49
0.0
 49
0.0
 49
0.0
 49
0.0
 49
1.0
 49
0.0
 49
0.0
 49
0.0
 49
0.0
 49
1.0
175
     0
142
0.0008202099737533
142
0.0
142
0.0
142
0.0
142
0.0
142
0.0008202099737533
142
0.0
142
0.0
142
0.0
142
0.0
142
1.0
142
0.0
142
0.0
142
0.0
142
0.0
142
1.0
179
     0
144
0.0008202099737533
144
0.0
144
0.0
144
0.0
144
0.0
144
0.0008202099737533
144
0.0
144
0.0
144
0.0
144
0.0
144
1.0
144
0.0
144
0.0
144
0.0
144
0.0
144
1.0
147
0.0008202099737533
147
0.0
147
0.0
147
0.0
147
0.0
147
0.0008202099737533
147
0.0
147
0.0
147
0.0
147
0.0
147
1.0
147
0.0
147
0.0
147
0.0
147
0.0
147
1.0
  0
MLEADERSTYLE
  5
446
102
{ACAD_REACTORS
330
445
102
}
330
445
100
AcDbMLeaderStyle
170
     2
171
     1
172
     0
 90
        2
 40
0.0
 41
0.0
173
     1
 91
-1056964608
340
14
 92
       -2
290
     1
 42
2.0
291
     1
 43
0.36
  3
Standard
 44
4.0
300

342
11
174
     1
178
     6
175
     1
176
     0
 93
-1056964608
 45
4.0
292
     0
297
     0
 46
4.0
 94
-1056964608
 47
1.0
 49
1.0
140
1.0
293
     1
141
0.0
294
     1
177
     0
142
1.0
295
     0
296
     0
143
0.125
1001
ACAD_MLEADERVER
1070
     2
  0
MLINESTYLE
  5
18
102
{ACAD_REACTORS
330
17
102
}
330
17
100
AcDbMlineStyle
  2
STANDARD
 70
     0
  3

 62
   256
 51
90.0
 52
90.0
 71
     2
 49
0.5
 62
   256
  6
BYLAYER
 49
-0.5
 62
   256
  6
BYLAYER
  0
ACDBPLACEHOLDER
  5
F
102
{ACAD_REACTORS
330
E
102
}
330
E
  0
SCALE
  5
899
102
{ACAD_REACTORS
330
433
102
}
330
433
100
AcDbScale
 70
     0
300
1:2.5
140
1.0
141
2.5
290
     0
  0
SCALE
  5
434
102
{ACAD_REACTORS
330
433
102
}
330
433
100
AcDbScale
 70
     0
300
1:1
140
1.0
141
1.0
290
     1
  0
SCALE
  5
435
102
{ACAD_REACTORS
330
433
102
}
330
433
100
AcDbScale
 70
     0
300
1:2
140
1.0
141
2.0
290
     0
  0
SCALE
  5
436
102
{ACAD_REACTORS
330
433
102
}
330
433
100
AcDbScale
 70
     0
300
1:4
140
1.0
141
4.0
290
     0
  0
SCALE
  5
437
102
{ACAD_REACTORS
330
433
102
}
330
433
100
AcDbScale
 70
     0
300
1:5
140
1.0
141
5.0
290
     0
  0
SCALE
  5
438
102
{ACAD_REACTORS
330
433
102
}
330
433
100
AcDbScale
 70
     0
300
1:8
140
1.0
141
8.0
290
     0
  0
SCALE
  5
439
102
{ACAD_REACTORS
330
433
102
}
330
433
100
AcDbScale
 70
     0
300
1:10
140
1.0
141
10.0
290
     0
  0
SCALE
  5
43A
102
{ACAD_REACTORS
330
433
102
}
330
433
100
AcDbScale
 70
     0
300
1:16
140
1.0
141
16.0
290
     0
  0
SCALE
  5
43B
102
{ACAD_REACTORS
330
433
102
}
330
433
100
AcDbScale
 70
     0
300
1:20
140
1.0
141
20.0
290
     0
  0
SCALE
  5
43C
102
{ACAD_REACTORS
330
433
102
}
330
433
100
AcDbScale
 70
     0
300
1:30
140
1.0
141
30.0
290
     0
  0
SCALE
  5
43D
102
{ACAD_REACTORS
330
433
102
}
330
433
100
AcDbScale
 70
     0
300
1:40
140
1.0
141
40.0
290
     0
  0
SCALE
  5
43E
102
{ACAD_REACTORS
330
433
102
}
330
433
100
AcDbScale
 70
     0
300
1:50
140
1.0
141
50.0
290
     0
  0
SCALE
  5
43F
102
{ACAD_REACTORS
330
433
102
}
330
433
100
AcDbScale
 70
     0
300
1:100
140
1.0
141
100.0
290
     0
  0
SCALE
  5
440
102
{ACAD_REACTORS
330
433
102
}
330
433
100
AcDbScale
 70
     0
300
2:1
140
2.0
141
1.0
290
     0
  0
SCALE
  5
441
102
{ACAD_REACTORS
330
433
102
}
330
433
100
AcDbScale
 70
     0
300
4:1
140
4.0
141
1.0
290
     0
  0
SCALE
  5
442
102
{ACAD_REACTORS
330
433
102
}
330
433
100
AcDbScale
 70
     0
300
8:1
140
8.0
141
1.0
290
     0
  0
SCALE
  5
443
102
{ACAD_REACTORS
330
433
102
}
330
433
100
AcDbScale
 70
     0
300
10:1
140
10.0
141
1.0
290
     0
  0
SCALE
  5
444
102
{ACAD_REACTORS
330
433
102
}
330
433
100
AcDbScale
 70
     0
300
100:1
140
100.0
141
1.0
290
     0
  0
TABLESTYLE
  5
3FF
102
{ACAD_XDICTIONARY
360
8945
102
}
102
{ACAD_REACTORS
330
3FC
102
}
330
3FC
100
AcDbTableStyle
  3
Standard
 70
     0
 71
     0
 40
0.06
 41
0.06
280
     1
281
     1
  7
STANDARD
140
0.18
170
     1
 62
     0
 63
     7
283
     0
274
    -2
284
     1
 64
     0
275
    -2
285
     1
 65
     0
276
    -2
286
     1
 66
     0
277
    -2
287
     1
 67
     0
278
    -2
288
     1
 68
     0
279
    -2
289
     1
 69
     0
  7
STANDARD
140
0.18
170
     1
 62
     0
 63
     7
283
     0
274
    -2
284
     1
 64
     0
275
    -2
285
     1
 65
     0
276
    -2
286
     1
 66
     0
277
    -2
287
     1
 67
     0
278
    -2
288
     1
 68
     0
279
    -2
289
     1
 69
     0
  7
STANDARD
140
0.18
170
     1
 62
     0
 63
     7
283
     0
274
    -2
284
     1
 64
     0
275
    -2
285
     1
 65
     0
276
    -2
286
     1
 66
     0
277
    -2
287
     1
 67
     0
278
    -2
288
     1
 68
     0
279
    -2
289
     1
 69
     0
  0
VISUALSTYLE
  5
424
102
{ACAD_XDICTIONARY
360
99D6
102
}
102
{ACAD_REACTORS
330
41E
102
}
330
41E
100
AcDbVisualStyle
  2

 70
     4
 71
     0
 72
     2
 73
     0
 90
        0
 40
-0.6
 41
-30.0
 62
     5
 63
     7
 74
     1
 91
        4
 64
     7
 65
   257
 75
     1
175
     1
 42
1.0
 92
        0
 66
   257
 43
1.0
 76
     1
 77
     6
 78
     2
 67
     7
 79
     5
170
     0
171
     0
290
     0
174
     0
 93
        1
 44
0.0
173
     0
291
     0
 45
0.0
1001
ACAD
1000
AcDbSavedByObjectVersion
1070
     0
  0
VISUALSTYLE
  5
426
102
{ACAD_XDICTIONARY
360
99DA
102
}
102
{ACAD_REACTORS
330
41E
102
}
330
41E
100
AcDbVisualStyle
  2

 70
     6
 71
     1
 72
     2
 73
     2
 90
        0
 40
-0.6
 41
-30.0
 62
     5
 63
     7
 74
     2
 91
        2
 64
     7
 65
   257
 75
     2
175
     1
 42
179.0
 92
        0
 66
   257
 43
1.0
 76
     1
 77
     6
 78
     2
 67
     7
 79
     3
170
     0
171
     0
290
     0
174
     0
 93
        1
 44
0.0
173
     0
291
     0
 45
0.0
1001
ACAD
1000
AcDbSavedByObjectVersion
1070
     0
  0
VISUALSTYLE
  5
425
102
{ACAD_XDICTIONARY
360
99D8
102
}
102
{ACAD_REACTORS
330
41E
102
}
330
41E
100
AcDbVisualStyle
  2

 70
     5
 71
     0
 72
     2
 73
     0
 90
        0
 40
-0.6
 41
-30.0
 62
     5
 63
     7
 74
     1
 91
        4
 64
     7
 65
   257
 75
     1
175
     1
 42
1.0
 92
        0
 66
   257
 43
1.0
 76
     1
 77
     6
 78
     2
 67
     7
 79
     5
170
     0
171
     0
290
     0
174
     0
 93
        1
 44
0.0
173
     0
291
     0
 45
0.0
1001
ACAD
1000
AcDbSavedByObjectVersion
1070
     0
  0
VISUALSTYLE
  5
423
102
{ACAD_XDICTIONARY
360
99D4
102
}
102
{ACAD_REACTORS
330
41E
102
}
330
41E
100
AcDbVisualStyle
  2

 70
     7
 71
     1
 72
     0
 73
     1
 90
        0
 40
-0.6
 41
-30.0
 62
     5
 63
     7
 74
     0
 91
        4
 64
     7
 65
   257
 75
     1
175
     1
 42
1.0
 92
        8
 66
     7
 43
1.0
 76
     1
 77
     6
 78
     2
 67
     7
 79
     5
170
     0
171
     0
290
     0
174
     0
 93
        1
 44
0.0
173
     0
291
     1
 45
0.0
1001
ACAD
1000
AcDbSavedByObjectVersion
1070
     0
  0
VISUALSTYLE
  5
42A
102
{ACAD_XDICTIONARY
360
99E2
102
}
102
{ACAD_REACTORS
330
41E
102
}
330
41E
100
AcDbVisualStyle
  2

 70
    12
 71
     2
 72
     2
 73
     0
 90
        0
 40
-0.6
 41
-30.0
 62
     5
 63
     7
 74
     1
 91
        4
 64
     7
 65
   257
 75
     1
175
     1
 42
1.0
 92
        8
 66
     7
 43
1.0
 76
     1
 77
     6
 78
     2
 67
     7
 79
     5
170
     0
171
     0
290
     0
174
     0
 93
        1
 44
50.0
173
     0
291
     1
 45
0.0
1001
ACAD
1000
AcDbSavedByObjectVersion
1070
     0
  0
VISUALSTYLE
  5
42E
102
{ACAD_XDICTIONARY
360
99EA
102
}
102
{ACAD_REACTORS
330
41E
102
}
330
41E
100
AcDbVisualStyle
  2

 70
    16
 71
     2
 72
     2
 73
     3
 90
        0
 40
-0.6
 41
-30.0
 62
     5
 63
     8
 74
     1
 91
        4
 64
     7
 65
   257
 75
     1
175
     1
 42
1.0
 92
        8
 66
     8
 43
1.0
 76
     1
 77
     6
 78
     2
 67
     7
 79
     5
170
     0
171
     0
290
     0
174
     0
 93
        1
 44
0.0
173
     0
291
     1
 45
0.0
1001
ACAD
1000
AcDbSavedByObjectVersion
1070
     0
  0
VISUALSTYLE
  5
427
102
{ACAD_XDICTIONARY
360
99DC
102
}
102
{ACAD_REACTORS
330
41E
102
}
330
41E
100
AcDbVisualStyle
  2

 70
     9
 71
     3
 72
     2
 73
     0
 90
        0
 40
-0.6
 41
-30.0
 62
     5
 63
     7
 74
     2
 91
        2
 64
     7
 65
   257
 75
     1
175
     1
 42
179.0
 92
        8
 66
     7
 43
1.0
 76
     1
 77
     6
 78
     2
 67
     7
 79
     3
170
     0
171
     0
290
     0
174
     0
 93
        1
 44
0.0
173
     0
291
     0
 45
0.0
1001
ACAD
1000
AcDbSavedByObjectVersion
1070
     0
  0
VISUALSTYLE
  5
429
102
{ACAD_XDICTIONARY
360
99E0
102
}
102
{ACAD_REACTORS
330
41E
102
}
330
41E
100
AcDbVisualStyle
  2

 70
    11
 71
     2
 72
     2
 73
     0
 90
        0
 40
-0.6
 41
-30.0
 62
     5
 63
     7
 74
     1
 91
        4
 64
     7
 65
   257
 75
     1
175
     1
 42
1.0
 92
        8
 66
     7
 43
1.0
 76
     1
 77
     6
 78
     2
 67
     7
 79
     5
170
     0
171
     0
290
     0
174
     0
 93
        1
 44
-50.0
173
     0
291
     1
 45
0.0
1001
ACAD
1000
AcDbSavedByObjectVersion
1070
     0
  0
VISUALSTYLE
  5
431
102
{ACAD_XDICTIONARY
360
99F0
102
}
102
{ACAD_REACTORS
330
41E
102
}
330
41E
100
AcDbVisualStyle
  2

 70
    22
 71
     2
 72
     2
 73
     0
 90
        0
 40
-0.6
 41
-30.0
 62
     5
 63
     7
 74
     1
 91
        4
 64
     7
 65
   257
 75
     1
175
     1
 42
1.0
 92
        8
 66
     7
 43
1.0
 76
     1
 77
     6
 78
     2
 67
     7
 79
     5
170
     0
171
     0
290
     0
174
     0
 93
        1
 44
0.0
173
     0
291
     1
 45
0.0
1001
ACAD
1000
AcDbSavedByObjectVersion
1070
     0
  0
VISUALSTYLE
  5
42D
102
{ACAD_XDICTIONARY
360
99E8
102
}
102
{ACAD_REACTORS
330
41E
102
}
330
41E
100
AcDbVisualStyle
  2

 70
    15
 71
     2
 72
     2
 73
     0
 90
        0
 40
-0.6
 41
-30.0
 62
     5
 63
     7
 74
     1
 91
        4
 64
     7
 65
   257
 75
     1
175
     1
 42
1.0
 92
        8
 66
     7
 43
1.0
 76
     1
 77
     6
 78
     2
 67
     7
 79
     5
170
     0
171
     0
290
     0
174
     0
 93
        1
 44
0.0
173
     0
291
     1
 45
0.0
1001
ACAD
1000
AcDbSavedByObjectVersion
1070
     0
  0
VISUALSTYLE
  5
41F
102
{ACAD_XDICTIONARY
360
99CC
102
}
102
{ACAD_REACTORS
330
41E
102
}
330
41E
100
AcDbVisualStyle
  2

 70
     0
 71
     2
 72
     1
 73
     1
 90
        2
 40
-0.6
 41
30.0
 62
     5
 63
     7
 74
     0
 91
        4
 64
     7
 65
   257
 75
     1
175
     1
 42
1.0
 92
        8
 66
     7
 43
1.0
 76
     1
 77
     6
 78
     2
 67
     7
 79
     5
170
     0
171
     0
290
     0
174
     0
 93
       13
 44
0.0
173
     0
291
     1
 45
0.0
1001
ACAD
1000
AcDbSavedByObjectVersion
1070
     0
  0
VISUALSTYLE
  5
420
102
{ACAD_XDICTIONARY
360
99CE
102
}
102
{ACAD_REACTORS
330
41E
102
}
330
41E
100
AcDbVisualStyle
  2

 70
     1
 71
     2
 72
     1
 73
     1
 90
        2
 40
-0.6
 41
30.0
 62
     5
 63
     7
 74
     1
 91
        4
 64
     7
 65
   257
 75
     1
175
     1
 42
1.0
 92
        0
 66
   257
 43
1.0
 76
     1
 77
     6
 78
     2
 67
     7
 79
     5
170
     0
171
     0
290
     0
174
     0
 93
       13
 44
0.0
173
     0
291
     1
 45
0.0
1001
ACAD
1000
AcDbSavedByObjectVersion
1070
     0
  0
VISUALSTYLE
  5
421
102
{ACAD_XDICTIONARY
360
99D0
102
}
102
{ACAD_REACTORS
330
41E
102
}
330
41E
100
AcDbVisualStyle
  2

 70
     2
 71
     2
 72
     2
 73
     1
 90
        2
 40
-0.6
 41
30.0
 62
     5
 63
     7
 74
     0
 91
        4
 64
     7
 65
   257
 75
     1
175
     1
 42
1.0
 92
        0
 66
     7
 43
1.0
 76
     1
 77
     6
 78
     2
 67
     7
 79
     5
170
     0
171
     0
290
     0
174
     0
 93
       13
 44
0.0
173
     0
291
     1
 45
0.0
1001
ACAD
1000
AcDbSavedByObjectVersion
1070
     0
  0
VISUALSTYLE
  5
422
102
{ACAD_XDICTIONARY
360
99D2
102
}
102
{ACAD_REACTORS
330
41E
102
}
330
41E
100
AcDbVisualStyle
  2

 70
     3
 71
     2
 72
     2
 73
     1
 90
        2
 40
-0.6
 41
30.0
 62
     5
 63
     7
 74
     1
 91
        4
 64
     7
 65
   257
 75
     1
175
     1
 42
1.0
 92
        0
 66
   257
 43
1.0
 76
     1
 77
     6
 78
     2
 67
     7
 79
     5
170
     0
171
     0
290
     0
174
     0
 93
       13
 44
0.0
173
     0
291
     1
 45
0.0
1001
ACAD
1000
AcDbSavedByObjectVersion
1070
     0
  0
VISUALSTYLE
  5
42F
102
{ACAD_XDICTIONARY
360
99EC
102
}
102
{ACAD_REACTORS
330
41E
102
}
330
41E
100
AcDbVisualStyle
  2

 70
    20
 71
     2
 72
     2
 73
     0
 90
        0
 40
-0.6
 41
-30.0
 62
     5
 63
     7
 74
     1
 91
        4
 64
     7
 65
   257
 75
     1
175
     1
 42
1.0
 92
       10
 66
     7
 43
1.0
 76
     1
 77
     6
 78
     2
 67
     7
 79
     5
170
     0
171
     0
290
     0
174
     0
 93
        1
 44
0.0
173
     0
291
     1
 45
0.0
1001
ACAD
1000
AcDbSavedByObjectVersion
1070
     0
  0
VISUALSTYLE
  5
42C
102
{ACAD_XDICTIONARY
360
99E6
102
}
102
{ACAD_REACTORS
330
41E
102
}
330
41E
100
AcDbVisualStyle
  2

 70
    14
 71
     2
 72
     2
 73
     0
 90
        0
 40
-0.6
 41
-30.0
 62
     5
 63
     7
 74
     1
 91
        4
 64
     7
 65
   257
 75
     7
175
     7
 42
1.0
 92
        8
 66
     7
 43
1.0
 76
     1
 77
     6
 78
     2
 67
     7
 79
     5
170
     0
171
     0
290
     0
174
     0
 93
        1
 44
0.0
173
     0
291
     1
 45
0.0
1001
ACAD
1000
AcDbSavedByObjectVersion
1070
     0
  0
VISUALSTYLE
  5
430
102
{ACAD_XDICTIONARY
360
99EE
102
}
102
{ACAD_REACTORS
330
41E
102
}
330
41E
100
AcDbVisualStyle
  2

 70
    21
 71
     2
 72
     2
 73
     0
 90
        0
 40
-0.6
 41
-30.0
 62
     5
 63
     7
 74
     1
 91
        4
 64
     7
 65
   257
 75
     1
175
     1
 42
1.0
 92
        9
 66
     7
 43
1.0
 76
     1
 77
     6
 78
     2
 67
     7
 79
     5
170
     0
171
     0
290
     0
174
     0
 93
        1
 44
0.0
173
     0
291
     1
 45
0.0
1001
ACAD
1000
AcDbSavedByObjectVersion
1070
     0
  0
VISUALSTYLE
  5
428
102
{ACAD_XDICTIONARY
360
99DE
102
}
102
{ACAD_REACTORS
330
41E
102
}
330
41E
100
AcDbVisualStyle
  2

 70
     8
 71
     2
 72
     2
 73
     0
 90
        0
 40
-0.6
 41
-30.0
 62
     5
 63
     7
 74
     1
 91
        0
 64
     7
 65
   257
 75
     1
175
     1
 42
1.0
 92
        8
 66
     8
 43
1.0
 76
     1
 77
     6
 78
     2
 67
     7
 79
     5
170
     0
171
     0
290
     0
174
     0
 93
       13
 44
0.0
173
     0
291
     0
 45
0.0
1001
ACAD
1000
AcDbSavedByObjectVersion
1070
     0
  0
VISUALSTYLE
  5
42B
102
{ACAD_XDICTIONARY
360
99E4
102
}
102
{ACAD_REACTORS
330
41E
102
}
330
41E
100
AcDbVisualStyle
  2

 70
    13
 71
     2
 72
     2
 73
     0
 90
        0
 40
-0.6
 41
-30.0
 62
     5
 63
     7
 74
     1
 91
        4
 64
     7
 65
   257
 75
     1
175
     1
 42
1.0
 92
       12
 66
     7
 43
1.0
 76
     1
 77
     6
 78
     2
 67
     7
 79
     5
170
     0
171
     0
290
     0
174
     0
 93
        1
 44
0.0
173
     0
291
     1
 45
0.0
1001
ACAD
1000
AcDbSavedByObjectVersion
1070
     0
  0
DICTIONARYVAR
  5
893C
102
{ACAD_REACTORS
330
8938
102
}
330
8938
100
DictionaryVariables
280
     0
  1
1:1
  0
DICTIONARYVAR
  5
893A
102
{ACAD_REACTORS
330
8938
102
}
330
8938
100
DictionaryVariables
280
     0
  1
STANDARD
  0
DICTIONARYVAR
  5
8939
102
{ACAD_REACTORS
330
8938
102
}
330
8938
100
DictionaryVariables
280
     0
  1
STANDARD
  0
DICTIONARYVAR
  5
8943
102
{ACAD_REACTORS
330
8938
102
}
330
8938
100
DictionaryVariables
280
     0
  1
2
  0
DICTIONARYVAR
  5
8942
102
{ACAD_REACTORS
330
8938
102
}
330
8938
100
DictionaryVariables
280
     0
  1
1
  0
DICTIONARYVAR
  5
8941
102
{ACAD_REACTORS
330
8938
102
}
330
8938
100
DictionaryVariables
280
     0
  1
0
  0
DICTIONARYVAR
  5
893E
102
{ACAD_REACTORS
330
8938
102
}
330
8938
100
DictionaryVariables
280
     0
  1
0
  0
DICTIONARYVAR
  5
893F
102
{ACAD_REACTORS
330
8938
102
}
330
8938
100
DictionaryVariables
280
     0
  1
0
  0
DICTIONARYVAR
  5
893D
102
{ACAD_REACTORS
330
8938
102
}
330
8938
100
DictionaryVariables
280
     0
  1
2
  0
DICTIONARYVAR
  5
893B
102
{ACAD_REACTORS
330
8938
102
}
330
8938
100
DictionaryVariables
280
     0
  1
1
  0
DICTIONARYVAR
  5
8940
102
{ACAD_REACTORS
330
8938
102
}
330
8938
100
DictionaryVariables
280
     0
  1
127
  0
DICTIONARYVAR
  5
99BD
102
{ACAD_REACTORS
330
8938
102
}
330
8938
100
DictionaryVariables
280
     0
  1
2
  0
DICTIONARY
  5
4A9
102
{ACAD_REACTORS
330
49F
102
}
330
49F
100
AcDbDictionary
281
     1
  0
DICTIONARY
  5
99C9
330
3FE
100
AcDbDictionary
280
     1
281
     1
  3
ACAD_XREC_ROUNDTRIP
360
99CA
  0
DICTIONARY
  5
99C7
330
3FD
100
AcDbDictionary
280
     1
281
     1
  3
ACAD_XREC_ROUNDTRIP
360
99C8
  0
DICTIONARY
  5
40F
330
40E
100
AcDbDictionary
280
     1
281
     1
  3
ACAD_XREC_ROUNDTRIP
360
8952
  3
BUMPTILE
360
411
  3
DIFFUSETILE
360
410
  3
OPACITYTILE
360
414
  3
REFLECTIONTILE
360
413
  3
REFRACTIONTILE
360
415
  3
SPECULARTILE
360
412
  0
DICTIONARY
  5
407
330
406
100
AcDbDictionary
280
     1
281
     1
  3
ACAD_XREC_ROUNDTRIP
360
8951
  3
BUMPTILE
360
409
  3
DIFFUSETILE
360
408
  3
OPACITYTILE
360
40C
  3
REFLECTIONTILE
360
40B
  3
REFRACTIONTILE
360
40D
  3
SPECULARTILE
360
40A
  0
DICTIONARY
  5
417
330
416
100
AcDbDictionary
280
     1
281
     1
  3
ACAD_XREC_ROUNDTRIP
360
8953
  3
BUMPTILE
360
419
  3
DIFFUSETILE
360
418
  3
OPACITYTILE
360
41C
  3
REFLECTIONTILE
360
41B
  3
REFRACTIONTILE
360
41D
  3
SPECULARTILE
360
41A
  0
DICTIONARY
  5
8945
330
3FF
100
AcDbDictionary
280
     1
281
     1
  3
ACAD_ROUNDTRIP_2008_TABLESTYLE_CELLSTYLEMAP
360
99BE
  3
ACAD_XREC_ROUNDTRIP
360
99CB
  0
DICTIONARY
  5
99D6
330
424
100
AcDbDictionary
280
     1
281
     1
  3
ACAD_XREC_ROUNDTRIP
360
99D7
  0
DICTIONARY
  5
99DA
330
426
100
AcDbDictionary
280
     1
281
     1
  3
ACAD_XREC_ROUNDTRIP
360
99DB
  0
DICTIONARY
  5
99D8
330
425
100
AcDbDictionary
280
     1
281
     1
  3
ACAD_XREC_ROUNDTRIP
360
99D9
  0
DICTIONARY
  5
99D4
330
423
100
AcDbDictionary
280
     1
281
     1
  3
ACAD_XREC_ROUNDTRIP
360
99D5
  0
DICTIONARY
  5
99E2
330
42A
100
AcDbDictionary
280
     1
281
     1
  3
ACAD_XREC_ROUNDTRIP
360
99E3
  0
DICTIONARY
  5
99EA
330
42E
100
AcDbDictionary
280
     1
281
     1
  3
ACAD_XREC_ROUNDTRIP
360
99EB
  0
DICTIONARY
  5
99DC
330
427
100
AcDbDictionary
280
     1
281
     1
  3
ACAD_XREC_ROUNDTRIP
360
99DD
  0
DICTIONARY
  5
99E0
330
429
100
AcDbDictionary
280
     1
281
     1
  3
ACAD_XREC_ROUNDTRIP
360
99E1
  0
DICTIONARY
  5
99F0
330
431
100
AcDbDictionary
280
     1
281
     1
  3
ACAD_XREC_ROUNDTRIP
360
99F1
  0
DICTIONARY
  5
99E8
330
42D
100
AcDbDictionary
280
     1
281
     1
  3
ACAD_XREC_ROUNDTRIP
360
99E9
  0
DICTIONARY
  5
99CC
330
41F
100
AcDbDictionary
280
     1
281
     1
  3
ACAD_XREC_ROUNDTRIP
360
99CD
  0
DICTIONARY
  5
99CE
330
420
100
AcDbDictionary
280
     1
281
     1
  3
ACAD_XREC_ROUNDTRIP
360
99CF
  0
DICTIONARY
  5
99D0
330
421
100
AcDbDictionary
280
     1
281
     1
  3
ACAD_XREC_ROUNDTRIP
360
99D1
  0
DICTIONARY
  5
99D2
330
422
100
AcDbDictionary
280
     1
281
     1
  3
ACAD_XREC_ROUNDTRIP
360
99D3
  0
DICTIONARY
  5
99EC
330
42F
100
AcDbDictionary
280
     1
281
     1
  3
ACAD_XREC_ROUNDTRIP
360
99ED
  0
DICTIONARY
  5
99E6
330
42C
100
AcDbDictionary
280
     1
281
     1
  3
ACAD_XREC_ROUNDTRIP
360
99E7
  0
DICTIONARY
  5
99EE
330
430
100
AcDbDictionary
280
     1
281
     1
  3
ACAD_XREC_ROUNDTRIP
360
99EF
  0
DICTIONARY
  5
99DE
330
428
100
AcDbDictionary
280
     1
281
     1
  3
ACAD_XREC_ROUNDTRIP
360
99DF
  0
DICTIONARY
  5
99E4
330
42B
100
AcDbDictionary
280
     1
281
     1
  3
ACAD_XREC_ROUNDTRIP
360
99E5
  0
XRECORD
  5
99CA
102
{ACAD_REACTORS
330
99C9
102
}
330
99C9
100
AcDbXrecord
280
     1
102
SHADEPLOT
 70
     0
102
SHADEPLOTRESLEVEL
 70
     2
102
SHADEPLOTCUSTOMDPI
 70
   300
  0
XRECORD
  5
99C8
102
{ACAD_REACTORS
330
99C7
102
}
330
99C7
100
AcDbXrecord
280
     1
102
SHADEPLOT
 70
     0
102
SHADEPLOTRESLEVEL
 70
     2
102
SHADEPLOTCUSTOMDPI
 70
   300
  0
XRECORD
  5
8952
102
{ACAD_REACTORS
330
40F
102
}
330
40F
100
AcDbXrecord
280
     1
102
MATERIAL
148
0.0
149
0.0
149
0.0
 93
        0
 94
      127
282
     0
 72
     0
 77
     0
171
     0
175
     0
179
     0
273
     0
  0
XRECORD
  5
411
102
{ACAD_REACTORS
330
40F
102
}
330
40F
100
AcDbXrecord
280
     1
270
     1
271
     1
  0
XRECORD
  5
410
102
{ACAD_REACTORS
330
40F
102
}
330
40F
100
AcDbXrecord
280
     1
270
     1
271
     1
  0
XRECORD
  5
414
102
{ACAD_REACTORS
330
40F
102
}
330
40F
100
AcDbXrecord
280
     1
270
     1
271
     1
  0
XRECORD
  5
413
102
{ACAD_REACTORS
330
40F
102
}
330
40F
100
AcDbXrecord
280
     1
270
     1
271
     1
  0
XRECORD
  5
415
102
{ACAD_REACTORS
330
40F
102
}
330
40F
100
AcDbXrecord
280
     1
270
     1
271
     1
  0
XRECORD
  5
412
102
{ACAD_REACTORS
330
40F
102
}
330
40F
100
AcDbXrecord
280
     1
270
     1
271
     1
  0
XRECORD
  5
8951
102
{ACAD_REACTORS
330
407
102
}
330
407
100
AcDbXrecord
280
     1
102
MATERIAL
148
0.0
149
0.0
149
0.0
 93
        0
 94
      127
282
     0
 72
     0
 77
     0
171
     0
175
     0
179
     0
273
     0
  0
XRECORD
  5
409
102
{ACAD_REACTORS
330
407
102
}
330
407
100
AcDbXrecord
280
     1
270
     1
271
     1
  0
XRECORD
  5
408
102
{ACAD_REACTORS
330
407
102
}
330
407
100
AcDbXrecord
280
     1
270
     1
271
     1
  0
XRECORD
  5
40C
102
{ACAD_REACTORS
330
407
102
}
330
407
100
AcDbXrecord
280
     1
270
     1
271
     1
  0
XRECORD
  5
40B
102
{ACAD_REACTORS
330
407
102
}
330
407
100
AcDbXrecord
280
     1
270
     1
271
     1
  0
XRECORD
  5
40D
102
{ACAD_REACTORS
330
407
102
}
330
407
100
AcDbXrecord
280
     1
270
     1
271
     1
  0
XRECORD
  5
40A
102
{ACAD_REACTORS
330
407
102
}
330
407
100
AcDbXrecord
280
     1
270
     1
271
     1
  0
XRECORD
  5
8953
102
{ACAD_REACTORS
330
417
102
}
330
417
100
AcDbXrecord
280
     1
102
MATERIAL
148
0.0
149
0.0
149
0.0
 93
        0
 94
      127
282
     0
 72
     0
 77
     0
171
     0
175
     0
179
     0
273
     0
  0
XRECORD
  5
419
102
{ACAD_REACTORS
330
417
102
}
330
417
100
AcDbXrecord
280
     1
270
     1
271
     1
  0
XRECORD
  5
418
102
{ACAD_REACTORS
330
417
102
}
330
417
100
AcDbXrecord
280
     1
270
     1
271
     1
  0
XRECORD
  5
41C
102
{ACAD_REACTORS
330
417
102
}
330
417
100
AcDbXrecord
280
     1
270
     1
271
     1
  0
XRECORD
  5
41B
102
{ACAD_REACTORS
330
417
102
}
330
417
100
AcDbXrecord
280
     1
270
     1
271
     1
  0
XRECORD
  5
41D
102
{ACAD_REACTORS
330
417
102
}
330
417
100
AcDbXrecord
280
     1
270
     1
271
     1
  0
XRECORD
  5
41A
102
{ACAD_REACTORS
330
417
102
}
330
417
100
AcDbXrecord
280
     1
270
     1
271
     1
  0
CELLSTYLEMAP
  5
99BE
102
{ACAD_REACTORS
330
8945
102
}
330
8945
100
AcDbCellStyleMap
 90
        3
300
CELLSTYLE
  1
TABLEFORMAT_BEGIN
 90
        5
170
     1
 91
        0
 92
    32768
 62
   257
 93
        1
300
CONTENTFORMAT
  1
CONTENTFORMAT_BEGIN
 90
        0
 91
        0
 92
      512
 93
        0
300

 40
0.0
140
1.0
 94
        1
 62
     0
340
11
144
0.18
309
CONTENTFORMAT_END
171
     1
301
MARGIN
  1
CELLMARGIN_BEGIN
 40
0.06
 40
0.06
 40
0.06
 40
0.06
 40
0.18
 40
0.18
309
CELLMARGIN_END
 94
        6
 95
        1
302
GRIDFORMAT
  1
GRIDFORMAT_BEGIN
 90
        0
 91
        1
 62
     0
 92
       -2
340
0
 93
        0
 40
0.045
309
GRIDFORMAT_END
 95
        2
302
GRIDFORMAT
  1
GRIDFORMAT_BEGIN
 90
        0
 91
        1
 62
     0
 92
       -2
340
0
 93
        0
 40
0.045
309
GRIDFORMAT_END
 95
        4
302
GRIDFORMAT
  1
GRIDFORMAT_BEGIN
 90
        0
 91
        1
 62
     0
 92
       -2
340
0
 93
        0
 40
0.045
309
GRIDFORMAT_END
 95
        8
302
GRIDFORMAT
  1
GRIDFORMAT_BEGIN
 90
        0
 91
        1
 62
     0
 92
       -2
340
0
 93
        0
 40
0.045
309
GRIDFORMAT_END
 95
       16
302
GRIDFORMAT
  1
GRIDFORMAT_BEGIN
 90
        0
 91
        1
 62
     0
 92
       -2
340
0
 93
        0
 40
0.045
309
GRIDFORMAT_END
 95
       32
302
GRIDFORMAT
  1
GRIDFORMAT_BEGIN
 90
        0
 91
        1
 62
     0
 92
       -2
340
0
 93
        0
 40
0.045
309
GRIDFORMAT_END
309
TABLEFORMAT_END
  1
CELLSTYLE_BEGIN
 90
        1
 91
        1
300
_TITLE
309
CELLSTYLE_END
300
CELLSTYLE
  1
TABLEFORMAT_BEGIN
 90
        5
170
     1
 91
        0
 92
        0
 62
   257
 93
        1
300
CONTENTFORMAT
  1
CONTENTFORMAT_BEGIN
 90
        0
 91
        0
 92
      512
 93
        0
300

 40
0.0
140
1.0
 94
        1
 62
     0
340
11
144
0.18
309
CONTENTFORMAT_END
171
     1
301
MARGIN
  1
CELLMARGIN_BEGIN
 40
0.06
 40
0.06
 40
0.06
 40
0.06
 40
0.18
 40
0.18
309
CELLMARGIN_END
 94
        6
 95
        1
302
GRIDFORMAT
  1
GRIDFORMAT_BEGIN
 90
        0
 91
        1
 62
     0
 92
       -2
340
0
 93
        0
 40
0.045
309
GRIDFORMAT_END
 95
        2
302
GRIDFORMAT
  1
GRIDFORMAT_BEGIN
 90
        0
 91
        1
 62
     0
 92
       -2
340
0
 93
        0
 40
0.045
309
GRIDFORMAT_END
 95
        4
302
GRIDFORMAT
  1
GRIDFORMAT_BEGIN
 90
        0
 91
        1
 62
     0
 92
       -2
340
0
 93
        0
 40
0.045
309
GRIDFORMAT_END
 95
        8
302
GRIDFORMAT
  1
GRIDFORMAT_BEGIN
 90
        0
 91
        1
 62
     0
 92
       -2
340
0
 93
        0
 40
0.045
309
GRIDFORMAT_END
 95
       16
302
GRIDFORMAT
  1
GRIDFORMAT_BEGIN
 90
        0
 91
        1
 62
     0
 92
       -2
340
0
 93
        0
 40
0.045
309
GRIDFORMAT_END
 95
       32
302
GRIDFORMAT
  1
GRIDFORMAT_BEGIN
 90
        0
 91
        1
 62
     0
 92
       -2
340
0
 93
        0
 40
0.045
309
GRIDFORMAT_END
309
TABLEFORMAT_END
  1
CELLSTYLE_BEGIN
 90
        2
 91
        1
300
_HEADER
309
CELLSTYLE_END
300
CELLSTYLE
  1
TABLEFORMAT_BEGIN
 90
        5
170
     1
 91
        0
 92
        0
 62
   257
 93
        1
300
CONTENTFORMAT
  1
CONTENTFORMAT_BEGIN
 90
        0
 91
        0
 92
      512
 93
        0
300

 40
0.0
140
1.0
 94
        1
 62
     0
340
11
144
0.18
309
CONTENTFORMAT_END
171
     1
301
MARGIN
  1
CELLMARGIN_BEGIN
 40
0.06
 40
0.06
 40
0.06
 40
0.06
 40
0.18
 40
0.18
309
CELLMARGIN_END
 94
        6
 95
        1
302
GRIDFORMAT
  1
GRIDFORMAT_BEGIN
 90
        0
 91
        1
 62
     0
 92
       -2
340
0
 93
        0
 40
0.045
309
GRIDFORMAT_END
 95
        2
302
GRIDFORMAT
  1
GRIDFORMAT_BEGIN
 90
        0
 91
        1
 62
     0
 92
       -2
340
0
 93
        0
 40
0.045
309
GRIDFORMAT_END
 95
        4
302
GRIDFORMAT
  1
GRIDFORMAT_BEGIN
 90
        0
 91
        1
 62
     0
 92
       -2
340
0
 93
        0
 40
0.045
309
GRIDFORMAT_END
 95
        8
302
GRIDFORMAT
  1
GRIDFORMAT_BEGIN
 90
        0
 91
        1
 62
     0
 92
       -2
340
0
 93
        0
 40
0.045
309
GRIDFORMAT_END
 95
       16
302
GRIDFORMAT
  1
GRIDFORMAT_BEGIN
 90
        0
 91
        1
 62
     0
 92
       -2
340
0
 93
        0
 40
0.045
309
GRIDFORMAT_END
 95
       32
302
GRIDFORMAT
  1
GRIDFORMAT_BEGIN
 90
        0
 91
        1
 62
     0
 92
       -2
340
0
 93
        0
 40
0.045
309
GRIDFORMAT_END
309
TABLEFORMAT_END
  1
CELLSTYLE_BEGIN
 90
        3
 91
        2
300
_DATA
309
CELLSTYLE_END
  0
XRECORD
  5
99CB
102
{ACAD_REACTORS
330
8945
102
}
330
8945
100
AcDbXrecord
280
     1
102
ACAD_ROUNDTRIP_PRE2007_TABLESTYLE
 90
      512
 91
        0
  1

 92
      512
 93
        0
  2

 94
      512
 95
        0
  3

  0
XRECORD
  5
99D7
102
{ACAD_REACTORS
330
99D6
102
}
330
99D6
100
AcDbXrecord
280
     1
102
RTVSPropertyOp0
 70
     1
102
RTVSPropertyOp1
 70
     1
102
RTVSPropertyOp2
 70
     1
102
RTVSPropertyOp3
 70
     1
102
RTVSPropertyOp4
 70
     1
102
RTVSPropertyOp5
 70
     1
102
RTVSPropertyOp6
 70
     1
102
RTVSPropertyOp7
 70
     1
102
RTVSPropertyOp8
 70
     1
102
RTVSPropertyOp9
 70
     1
102
RTVSPropertyOp10
 70
     1
102
RTVSPropertyOp11
 70
     1
102
RTVSPropertyOp12
 70
     1
102
RTVSPropertyOp13
 70
     1
102
RTVSPropertyOp14
 70
     1
102
RTVSPropertyOp15
 70
     1
102
RTVSPropertyOp16
 70
     1
102
RTVSPropertyOp17
 70
     1
102
RTVSPropertyOp18
 70
     1
102
RTVSPropertyOp19
 70
     1
102
RTVSPropertyOp20
 70
     1
102
RTVSPropertyOp21
 70
     1
102
RTVSPropertyOp22
 70
     1
102
RTVSPropertyOp23
 70
     1
102
RTVSPropertyOp24
 70
     1
102
RTVSPropertyOp25
 70
     1
102
RTVSPropertyOp26
 70
     1
102
RTVSPropertyOp27
 70
     1
  0
XRECORD
  5
99DB
102
{ACAD_REACTORS
330
99DA
102
}
330
99DA
100
AcDbXrecord
280
     1
102
RTVSPropertyOp0
 70
     1
102
RTVSPropertyOp1
 70
     1
102
RTVSPropertyOp2
 70
     1
102
RTVSPropertyOp3
 70
     1
102
RTVSPropertyOp4
 70
     1
102
RTVSPropertyOp5
 70
     1
102
RTVSPropertyOp6
 70
     1
102
RTVSPropertyOp7
 70
     1
102
RTVSPropertyOp8
 70
     1
102
RTVSPropertyOp9
 70
     1
102
RTVSPropertyOp10
 70
     1
102
RTVSPropertyOp11
 70
     1
102
RTVSPropertyOp12
 70
     1
102
RTVSPropertyOp13
 70
     1
102
RTVSPropertyOp14
 70
     1
102
RTVSPropertyOp15
 70
     1
102
RTVSPropertyOp16
 70
     1
102
RTVSPropertyOp17
 70
     1
102
RTVSPropertyOp18
 70
     1
102
RTVSPropertyOp19
 70
     1
102
RTVSPropertyOp20
 70
     1
102
RTVSPropertyOp21
 70
     1
102
RTVSPropertyOp22
 70
     1
102
RTVSPropertyOp23
 70
     1
102
RTVSPropertyOp24
 70
     1
102
RTVSPropertyOp25
 70
     1
102
RTVSPropertyOp26
 70
     1
102
RTVSPropertyOp27
 70
     1
  0
XRECORD
  5
99D9
102
{ACAD_REACTORS
330
99D8
102
}
330
99D8
100
AcDbXrecord
280
     1
102
RTVSPropertyOp0
 70
     1
102
RTVSPropertyOp1
 70
     1
102
RTVSPropertyOp2
 70
     1
102
RTVSPropertyOp3
 70
     1
102
RTVSPropertyOp4
 70
     1
102
RTVSPropertyOp5
 70
     1
102
RTVSPropertyOp6
 70
     1
102
RTVSPropertyOp7
 70
     1
102
RTVSPropertyOp8
 70
     1
102
RTVSPropertyOp9
 70
     1
102
RTVSPropertyOp10
 70
     1
102
RTVSPropertyOp11
 70
     1
102
RTVSPropertyOp12
 70
     1
102
RTVSPropertyOp13
 70
     1
102
RTVSPropertyOp14
 70
     1
102
RTVSPropertyOp15
 70
     1
102
RTVSPropertyOp16
 70
     1
102
RTVSPropertyOp17
 70
     1
102
RTVSPropertyOp18
 70
     1
102
RTVSPropertyOp19
 70
     1
102
RTVSPropertyOp20
 70
     1
102
RTVSPropertyOp21
 70
     1
102
RTVSPropertyOp22
 70
     1
102
RTVSPropertyOp23
 70
     1
102
RTVSPropertyOp24
 70
     1
102
RTVSPropertyOp25
 70
     1
102
RTVSPropertyOp26
 70
     1
102
RTVSPropertyOp27
 70
     1
  0
XRECORD
  5
99D5
102
{ACAD_REACTORS
330
99D4
102
}
330
99D4
100
AcDbXrecord
280
     1
102
RTVSPropertyOp0
 70
     1
102
RTVSPropertyOp1
 70
     1
102
RTVSPropertyOp2
 70
     1
102
RTVSPropertyOp3
 70
     1
102
RTVSPropertyOp4
 70
     1
102
RTVSPropertyOp5
 70
     1
102
RTVSPropertyOp6
 70
     1
102
RTVSPropertyOp7
 70
     1
102
RTVSPropertyOp8
 70
     1
102
RTVSPropertyOp9
 70
     1
102
RTVSPropertyOp10
 70
     1
102
RTVSPropertyOp11
 70
     1
102
RTVSPropertyOp12
 70
     1
102
RTVSPropertyOp13
 70
     1
102
RTVSPropertyOp14
 70
     1
102
RTVSPropertyOp15
 70
     1
102
RTVSPropertyOp16
 70
     1
102
RTVSPropertyOp17
 70
     1
102
RTVSPropertyOp18
 70
     1
102
RTVSPropertyOp19
 70
     1
102
RTVSPropertyOp20
 70
     1
102
RTVSPropertyOp21
 70
     1
102
RTVSPropertyOp22
 70
     1
102
RTVSPropertyOp23
 70
     1
102
RTVSPropertyOp24
 70
     1
102
RTVSPropertyOp25
 70
     1
102
RTVSPropertyOp26
 70
     1
102
RTVSPropertyOp27
 70
     1
  0
XRECORD
  5
99E3
102
{ACAD_REACTORS
330
99E2
102
}
330
99E2
100
AcDbXrecord
280
     1
102
RTVSPropertyOp0
 70
     1
102
RTVSPropertyOp1
 70
     1
102
RTVSPropertyOp2
 70
     1
102
RTVSPropertyOp3
 70
     1
102
RTVSPropertyOp4
 70
     1
102
RTVSPropertyOp5
 70
     1
102
RTVSPropertyOp6
 70
     1
102
RTVSPropertyOp7
 70
     1
102
RTVSPropertyOp8
 70
     1
102
RTVSPropertyOp9
 70
     1
102
RTVSPropertyOp10
 70
     1
102
RTVSPropertyOp11
 70
     1
102
RTVSPropertyOp12
 70
     1
102
RTVSPropertyOp13
 70
     1
102
RTVSPropertyOp14
 70
     1
102
RTVSPropertyOp15
 70
     1
102
RTVSPropertyOp16
 70
     1
102
RTVSPropertyOp17
 70
     1
102
RTVSPropertyOp18
 70
     1
102
RTVSPropertyOp19
 70
     1
102
RTVSPropertyOp20
 70
     1
102
RTVSPropertyOp21
 70
     1
102
RTVSPropertyOp22
 70
     1
102
RTVSPropertyOp23
 70
     1
102
RTVSPropertyOp24
 70
     1
102
RTVSPropertyOp25
 70
     1
102
RTVSPropertyOp26
 70
     1
102
RTVSPropertyOp27
 70
     1
  0
XRECORD
  5
99EB
102
{ACAD_REACTORS
330
99EA
102
}
330
99EA
100
AcDbXrecord
280
     1
102
RTVSPropertyOp0
 70
     1
102
RTVSPropertyOp1
 70
     1
102
RTVSPropertyOp2
 70
     1
102
RTVSPropertyOp3
 70
     1
102
RTVSPropertyOp4
 70
     1
102
RTVSPropertyOp5
 70
     1
102
RTVSPropertyOp6
 70
     1
102
RTVSPropertyOp7
 70
     1
102
RTVSPropertyOp8
 70
     1
102
RTVSPropertyOp9
 70
     1
102
RTVSPropertyOp10
 70
     1
102
RTVSPropertyOp11
 70
     1
102
RTVSPropertyOp12
 70
     1
102
RTVSPropertyOp13
 70
     1
102
RTVSPropertyOp14
 70
     1
102
RTVSPropertyOp15
 70
     1
102
RTVSPropertyOp16
 70
     1
102
RTVSPropertyOp17
 70
     1
102
RTVSPropertyOp18
 70
     1
102
RTVSPropertyOp19
 70
     1
102
RTVSPropertyOp20
 70
     1
102
RTVSPropertyOp21
 70
     1
102
RTVSPropertyOp22
 70
     1
102
RTVSPropertyOp23
 70
     1
102
RTVSPropertyOp24
 70
     1
102
RTVSPropertyOp25
 70
     1
102
RTVSPropertyOp26
 70
     1
102
RTVSPropertyOp27
 70
     1
  0
XRECORD
  5
99DD
102
{ACAD_REACTORS
330
99DC
102
}
330
99DC
100
AcDbXrecord
280
     1
102
RTVSPropertyOp0
 70
     1
102
RTVSPropertyOp1
 70
     1
102
RTVSPropertyOp2
 70
     1
102
RTVSPropertyOp3
 70
     1
102
RTVSPropertyOp4
 70
     1
102
RTVSPropertyOp5
 70
     1
102
RTVSPropertyOp6
 70
     1
102
RTVSPropertyOp7
 70
     1
102
RTVSPropertyOp8
 70
     1
102
RTVSPropertyOp9
 70
     1
102
RTVSPropertyOp10
 70
     1
102
RTVSPropertyOp11
 70
     1
102
RTVSPropertyOp12
 70
     1
102
RTVSPropertyOp13
 70
     1
102
RTVSPropertyOp14
 70
     1
102
RTVSPropertyOp15
 70
     1
102
RTVSPropertyOp16
 70
     1
102
RTVSPropertyOp17
 70
     1
102
RTVSPropertyOp18
 70
     1
102
RTVSPropertyOp19
 70
     1
102
RTVSPropertyOp20
 70
     1
102
RTVSPropertyOp21
 70
     1
102
RTVSPropertyOp22
 70
     1
102
RTVSPropertyOp23
 70
     1
102
RTVSPropertyOp24
 70
     1
102
RTVSPropertyOp25
 70
     1
102
RTVSPropertyOp26
 70
     1
102
RTVSPropertyOp27
 70
     1
  0
XRECORD
  5
99E1
102
{ACAD_REACTORS
330
99E0
102
}
330
99E0
100
AcDbXrecord
280
     1
102
RTVSPropertyOp0
 70
     1
102
RTVSPropertyOp1
 70
     1
102
RTVSPropertyOp2
 70
     1
102
RTVSPropertyOp3
 70
     1
102
RTVSPropertyOp4
 70
     1
102
RTVSPropertyOp5
 70
     1
102
RTVSPropertyOp6
 70
     1
102
RTVSPropertyOp7
 70
     1
102
RTVSPropertyOp8
 70
     1
102
RTVSPropertyOp9
 70
     1
102
RTVSPropertyOp10
 70
     1
102
RTVSPropertyOp11
 70
     1
102
RTVSPropertyOp12
 70
     1
102
RTVSPropertyOp13
 70
     1
102
RTVSPropertyOp14
 70
     1
102
RTVSPropertyOp15
 70
     1
102
RTVSPropertyOp16
 70
     1
102
RTVSPropertyOp17
 70
     1
102
RTVSPropertyOp18
 70
     1
102
RTVSPropertyOp19
 70
     1
102
RTVSPropertyOp20
 70
     1
102
RTVSPropertyOp21
 70
     1
102
RTVSPropertyOp22
 70
     1
102
RTVSPropertyOp23
 70
     1
102
RTVSPropertyOp24
 70
     1
102
RTVSPropertyOp25
 70
     1
102
RTVSPropertyOp26
 70
     1
102
RTVSPropertyOp27
 70
     1
  0
XRECORD
  5
99F1
102
{ACAD_REACTORS
330
99F0
102
}
330
99F0
100
AcDbXrecord
280
     1
102
RTVSPropertyOp0
 70
     0
102
RTVSPropertyOp1
 70
     0
102
RTVSPropertyOp2
 70
     0
102
RTVSPropertyOp3
 70
     0
102
RTVSPropertyOp4
 70
     0
102
RTVSPropertyOp5
 70
     0
102
RTVSPropertyOp6
 70
     0
102
RTVSPropertyOp7
 70
     0
102
RTVSPropertyOp8
 70
     0
102
RTVSPropertyOp9
 70
     0
102
RTVSPropertyOp10
 70
     0
102
RTVSPropertyOp11
 70
     0
102
RTVSPropertyOp12
 70
     0
102
RTVSPropertyOp13
 70
     0
102
RTVSPropertyOp14
 70
     2
102
RTVSPropertyOp15
 70
     0
102
RTVSPropertyOp16
 70
     0
102
RTVSPropertyOp17
 70
     0
102
RTVSPropertyOp18
 70
     0
102
RTVSPropertyOp19
 70
     0
102
RTVSPropertyOp20
 70
     0
102
RTVSPropertyOp21
 70
     0
102
RTVSPropertyOp22
 70
     0
102
RTVSPropertyOp23
 70
     0
102
RTVSPropertyOp24
 70
     0
102
RTVSPropertyOp25
 70
     0
102
RTVSPropertyOp26
 70
     0
102
RTVSPropertyOp27
 70
     0
  0
XRECORD
  5
99E9
102
{ACAD_REACTORS
330
99E8
102
}
330
99E8
100
AcDbXrecord
280
     1
102
RTVSPropertyOp0
 70
     1
102
RTVSPropertyOp1
 70
     1
102
RTVSPropertyOp2
 70
     1
102
RTVSPropertyOp3
 70
     1
102
RTVSPropertyOp4
 70
     1
102
RTVSPropertyOp5
 70
     1
102
RTVSPropertyOp6
 70
     1
102
RTVSPropertyOp7
 70
     1
102
RTVSPropertyOp8
 70
     1
102
RTVSPropertyOp9
 70
     1
102
RTVSPropertyOp10
 70
     1
102
RTVSPropertyOp11
 70
     1
102
RTVSPropertyOp12
 70
     1
102
RTVSPropertyOp13
 70
     1
102
RTVSPropertyOp14
 70
     1
102
RTVSPropertyOp15
 70
     1
102
RTVSPropertyOp16
 70
     1
102
RTVSPropertyOp17
 70
     1
102
RTVSPropertyOp18
 70
     1
102
RTVSPropertyOp19
 70
     1
102
RTVSPropertyOp20
 70
     1
102
RTVSPropertyOp21
 70
     1
102
RTVSPropertyOp22
 70
     1
102
RTVSPropertyOp23
 70
     1
102
RTVSPropertyOp24
 70
     1
102
RTVSPropertyOp25
 70
     1
102
RTVSPropertyOp26
 70
     1
102
RTVSPropertyOp27
 70
     1
  0
XRECORD
  5
99CD
102
{ACAD_REACTORS
330
99CC
102
}
330
99CC
100
AcDbXrecord
280
     1
102
RTVSPropertyOp0
 70
     1
102
RTVSPropertyOp1
 70
     1
102
RTVSPropertyOp2
 70
     1
102
RTVSPropertyOp3
 70
     1
102
RTVSPropertyOp4
 70
     1
102
RTVSPropertyOp5
 70
     1
102
RTVSPropertyOp6
 70
     1
102
RTVSPropertyOp7
 70
     1
102
RTVSPropertyOp8
 70
     1
102
RTVSPropertyOp9
 70
     1
102
RTVSPropertyOp10
 70
     1
102
RTVSPropertyOp11
 70
     1
102
RTVSPropertyOp12
 70
     1
102
RTVSPropertyOp13
 70
     1
102
RTVSPropertyOp14
 70
     1
102
RTVSPropertyOp15
 70
     1
102
RTVSPropertyOp16
 70
     1
102
RTVSPropertyOp17
 70
     1
102
RTVSPropertyOp18
 70
     1
102
RTVSPropertyOp19
 70
     1
102
RTVSPropertyOp20
 70
     1
102
RTVSPropertyOp21
 70
     1
102
RTVSPropertyOp22
 70
     1
102
RTVSPropertyOp23
 70
     1
102
RTVSPropertyOp24
 70
     1
102
RTVSPropertyOp25
 70
     1
102
RTVSPropertyOp26
 70
     1
102
RTVSPropertyOp27
 70
     1
  0
XRECORD
  5
99CF
102
{ACAD_REACTORS
330
99CE
102
}
330
99CE
100
AcDbXrecord
280
     1
102
RTVSPropertyOp0
 70
     1
102
RTVSPropertyOp1
 70
     1
102
RTVSPropertyOp2
 70
     1
102
RTVSPropertyOp3
 70
     1
102
RTVSPropertyOp4
 70
     1
102
RTVSPropertyOp5
 70
     1
102
RTVSPropertyOp6
 70
     1
102
RTVSPropertyOp7
 70
     1
102
RTVSPropertyOp8
 70
     1
102
RTVSPropertyOp9
 70
     1
102
RTVSPropertyOp10
 70
     1
102
RTVSPropertyOp11
 70
     1
102
RTVSPropertyOp12
 70
     1
102
RTVSPropertyOp13
 70
     1
102
RTVSPropertyOp14
 70
     1
102
RTVSPropertyOp15
 70
     1
102
RTVSPropertyOp16
 70
     1
102
RTVSPropertyOp17
 70
     1
102
RTVSPropertyOp18
 70
     1
102
RTVSPropertyOp19
 70
     1
102
RTVSPropertyOp20
 70
     1
102
RTVSPropertyOp21
 70
     1
102
RTVSPropertyOp22
 70
     1
102
RTVSPropertyOp23
 70
     1
102
RTVSPropertyOp24
 70
     1
102
RTVSPropertyOp25
 70
     1
102
RTVSPropertyOp26
 70
     1
102
RTVSPropertyOp27
 70
     1
  0
XRECORD
  5
99D1
102
{ACAD_REACTORS
330
99D0
102
}
330
99D0
100
AcDbXrecord
280
     1
102
RTVSPropertyOp0
 70
     1
102
RTVSPropertyOp1
 70
     1
102
RTVSPropertyOp2
 70
     1
102
RTVSPropertyOp3
 70
     1
102
RTVSPropertyOp4
 70
     1
102
RTVSPropertyOp5
 70
     1
102
RTVSPropertyOp6
 70
     1
102
RTVSPropertyOp7
 70
     1
102
RTVSPropertyOp8
 70
     1
102
RTVSPropertyOp9
 70
     1
102
RTVSPropertyOp10
 70
     1
102
RTVSPropertyOp11
 70
     1
102
RTVSPropertyOp12
 70
     1
102
RTVSPropertyOp13
 70
     1
102
RTVSPropertyOp14
 70
     1
102
RTVSPropertyOp15
 70
     1
102
RTVSPropertyOp16
 70
     1
102
RTVSPropertyOp17
 70
     1
102
RTVSPropertyOp18
 70
     1
102
RTVSPropertyOp19
 70
     1
102
RTVSPropertyOp20
 70
     1
102
RTVSPropertyOp21
 70
     1
102
RTVSPropertyOp22
 70
     1
102
RTVSPropertyOp23
 70
     1
102
RTVSPropertyOp24
 70
     1
102
RTVSPropertyOp25
 70
     1
102
RTVSPropertyOp26
 70
     1
102
RTVSPropertyOp27
 70
     1
  0
XRECORD
  5
99D3
102
{ACAD_REACTORS
330
99D2
102
}
330
99D2
100
AcDbXrecord
280
     1
102
RTVSPropertyOp0
 70
     1
102
RTVSPropertyOp1
 70
     1
102
RTVSPropertyOp2
 70
     1
102
RTVSPropertyOp3
 70
     1
102
RTVSPropertyOp4
 70
     1
102
RTVSPropertyOp5
 70
     1
102
RTVSPropertyOp6
 70
     1
102
RTVSPropertyOp7
 70
     1
102
RTVSPropertyOp8
 70
     1
102
RTVSPropertyOp9
 70
     1
102
RTVSPropertyOp10
 70
     1
102
RTVSPropertyOp11
 70
     1
102
RTVSPropertyOp12
 70
     1
102
RTVSPropertyOp13
 70
     1
102
RTVSPropertyOp14
 70
     1
102
RTVSPropertyOp15
 70
     1
102
RTVSPropertyOp16
 70
     1
102
RTVSPropertyOp17
 70
     1
102
RTVSPropertyOp18
 70
     1
102
RTVSPropertyOp19
 70
     1
102
RTVSPropertyOp20
 70
     1
102
RTVSPropertyOp21
 70
     1
102
RTVSPropertyOp22
 70
     1
102
RTVSPropertyOp23
 70
     1
102
RTVSPropertyOp24
 70
     1
102
RTVSPropertyOp25
 70
     1
102
RTVSPropertyOp26
 70
     1
102
RTVSPropertyOp27
 70
     1
  0
XRECORD
  5
99ED
102
{ACAD_REACTORS
330
99EC
102
}
330
99EC
100
AcDbXrecord
280
     1
102
RTVSPropertyOp0
 70
     0
102
RTVSPropertyOp1
 70
     0
102
RTVSPropertyOp2
 70
     0
102
RTVSPropertyOp3
 70
     0
102
RTVSPropertyOp4
 70
     0
102
RTVSPropertyOp5
 70
     0
102
RTVSPropertyOp6
 70
     0
102
RTVSPropertyOp7
 70
     0
102
RTVSPropertyOp8
 70
     0
102
RTVSPropertyOp9
 70
     0
102
RTVSPropertyOp10
 70
     0
102
RTVSPropertyOp11
 70
     0
102
RTVSPropertyOp12
 70
     0
102
RTVSPropertyOp13
 70
     0
102
RTVSPropertyOp14
 70
     2
102
RTVSPropertyOp15
 70
     0
102
RTVSPropertyOp16
 70
     0
102
RTVSPropertyOp17
 70
     0
102
RTVSPropertyOp18
 70
     0
102
RTVSPropertyOp19
 70
     0
102
RTVSPropertyOp20
 70
     0
102
RTVSPropertyOp21
 70
     0
102
RTVSPropertyOp22
 70
     0
102
RTVSPropertyOp23
 70
     0
102
RTVSPropertyOp24
 70
     0
102
RTVSPropertyOp25
 70
     0
102
RTVSPropertyOp26
 70
     0
102
RTVSPropertyOp27
 70
     0
  0
XRECORD
  5
99E7
102
{ACAD_REACTORS
330
99E6
102
}
330
99E6
100
AcDbXrecord
280
     1
102
RTVSPropertyOp0
 70
     1
102
RTVSPropertyOp1
 70
     1
102
RTVSPropertyOp2
 70
     1
102
RTVSPropertyOp3
 70
     1
102
RTVSPropertyOp4
 70
     1
102
RTVSPropertyOp5
 70
     1
102
RTVSPropertyOp6
 70
     1
102
RTVSPropertyOp7
 70
     1
102
RTVSPropertyOp8
 70
     1
102
RTVSPropertyOp9
 70
     1
102
RTVSPropertyOp10
 70
     1
102
RTVSPropertyOp11
 70
     1
102
RTVSPropertyOp12
 70
     1
102
RTVSPropertyOp13
 70
     1
102
RTVSPropertyOp14
 70
     1
102
RTVSPropertyOp15
 70
     1
102
RTVSPropertyOp16
 70
     1
102
RTVSPropertyOp17
 70
     1
102
RTVSPropertyOp18
 70
     1
102
RTVSPropertyOp19
 70
     1
102
RTVSPropertyOp20
 70
     1
102
RTVSPropertyOp21
 70
     1
102
RTVSPropertyOp22
 70
     1
102
RTVSPropertyOp23
 70
     1
102
RTVSPropertyOp24
 70
     1
102
RTVSPropertyOp25
 70
     1
102
RTVSPropertyOp26
 70
     1
102
RTVSPropertyOp27
 70
     1
  0
XRECORD
  5
99EF
102
{ACAD_REACTORS
330
99EE
102
}
330
99EE
100
AcDbXrecord
280
     1
102
RTVSPropertyOp0
 70
     0
102
RTVSPropertyOp1
 70
     0
102
RTVSPropertyOp2
 70
     0
102
RTVSPropertyOp3
 70
     0
102
RTVSPropertyOp4
 70
     0
102
RTVSPropertyOp5
 70
     0
102
RTVSPropertyOp6
 70
     0
102
RTVSPropertyOp7
 70
     0
102
RTVSPropertyOp8
 70
     0
102
RTVSPropertyOp9
 70
     0
102
RTVSPropertyOp10
 70
     0
102
RTVSPropertyOp11
 70
     0
102
RTVSPropertyOp12
 70
     0
102
RTVSPropertyOp13
 70
     0
102
RTVSPropertyOp14
 70
     2
102
RTVSPropertyOp15
 70
     0
102
RTVSPropertyOp16
 70
     0
102
RTVSPropertyOp17
 70
     0
102
RTVSPropertyOp18
 70
     0
102
RTVSPropertyOp19
 70
     0
102
RTVSPropertyOp20
 70
     0
102
RTVSPropertyOp21
 70
     0
102
RTVSPropertyOp22
 70
     0
102
RTVSPropertyOp23
 70
     0
102
RTVSPropertyOp24
 70
     0
102
RTVSPropertyOp25
 70
     0
102
RTVSPropertyOp26
 70
     0
102
RTVSPropertyOp27
 70
     0
  0
XRECORD
  5
99DF
102
{ACAD_REACTORS
330
99DE
102
}
330
99DE
100
AcDbXrecord
280
     1
102
RTVSPropertyOp0
 70
     1
102
RTVSPropertyOp1
 70
     1
102
RTVSPropertyOp2
 70
     1
102
RTVSPropertyOp3
 70
     1
102
RTVSPropertyOp4
 70
     1
102
RTVSPropertyOp5
 70
     1
102
RTVSPropertyOp6
 70
     1
102
RTVSPropertyOp7
 70
     1
102
RTVSPropertyOp8
 70
     1
102
RTVSPropertyOp9
 70
     1
102
RTVSPropertyOp10
 70
     1
102
RTVSPropertyOp11
 70
     1
102
RTVSPropertyOp12
 70
     1
102
RTVSPropertyOp13
 70
     1
102
RTVSPropertyOp14
 70
     1
102
RTVSPropertyOp15
 70
     1
102
RTVSPropertyOp16
 70
     1
102
RTVSPropertyOp17
 70
     1
102
RTVSPropertyOp18
 70
     1
102
RTVSPropertyOp19
 70
     1
102
RTVSPropertyOp20
 70
     1
102
RTVSPropertyOp21
 70
     1
102
RTVSPropertyOp22
 70
     1
102
RTVSPropertyOp23
 70
     1
102
RTVSPropertyOp24
 70
     1
102
RTVSPropertyOp25
 70
     1
102
RTVSPropertyOp26
 70
     1
102
RTVSPropertyOp27
 70
     1
  0
XRECORD
  5
99E5
102
{ACAD_REACTORS
330
99E4
102
}
330
99E4
100
AcDbXrecord
280
     1
102
RTVSPropertyOp0
 70
     1
102
RTVSPropertyOp1
 70
     1
102
RTVSPropertyOp2
 70
     1
102
RTVSPropertyOp3
 70
     1
102
RTVSPropertyOp4
 70
     1
102
RTVSPropertyOp5
 70
     1
102
RTVSPropertyOp6
 70
     1
102
RTVSPropertyOp7
 70
     1
102
RTVSPropertyOp8
 70
     1
102
RTVSPropertyOp9
 70
     1
102
RTVSPropertyOp10
 70
     1
102
RTVSPropertyOp11
 70
     1
102
RTVSPropertyOp12
 70
     1
102
RTVSPropertyOp13
 70
     1
102
RTVSPropertyOp14
 70
     1
102
RTVSPropertyOp15
 70
     1
102
RTVSPropertyOp16
 70
     1
102
RTVSPropertyOp17
 70
     1
102
RTVSPropertyOp18
 70
     1
102
RTVSPropertyOp19
 70
     1
102
RTVSPropertyOp20
 70
     1
102
RTVSPropertyOp21
 70
     1
102
RTVSPropertyOp22
 70
     1
102
RTVSPropertyOp23
 70
     1
102
RTVSPropertyOp24
 70
     1
102
RTVSPropertyOp25
 70
     1
102
RTVSPropertyOp26
 70
     1
102
RTVSPropertyOp27
 70
     1
  0
ENDSEC
  0
EOF
