  0
SECTION
  2
HEADER
  9
$ACADVER
  1
AC1015
  9
$ACADMAINTVER
 70
    20
  9
$DWGCODEPAGE
  3
ANSI_1252
  9
$INSBASE
 10
0.0
 20
0.0
 30
0.0
  9
$EXTMIN
 10
0.0
 20
0.0
 30
0.0
  9
$EXTMAX
 10
212.3407042155427
 20
297.0
 30
0.0
  9
$LIMMIN
 10
0.0
 20
0.0
  9
$LIMMAX
 10
210.0
 20
297.0
  9
$ORTHOMODE
 70
     0
  9
$REGENMODE
 70
     1
  9
$FILLMODE
 70
     1
  9
$QTEXTMODE
 70
     0
  9
$MIRRTEXT
 70
     0
  9
$LTSCALE
 40
19.36
  9
$ATTMODE
 70
     1
  9
$TEXTSIZE
 40
0.2
  9
$TRACEWID
 40
0.05
  9
$TEXTSTYLE
  7
STANDARD
  9
$CLAYER
  8
0
  9
$CELTYPE
  6
BYLAYER
  9
$CECOLOR
 62
   256
  9
$CELTSCALE
 40
1.0
  9
$DISPSILH
 70
     0
  9
$DIMSCALE
 40
1.0
  9
$DIMASZ
 40
3.5
  9
$DIMEXO
 40
2.2
  9
$DIMDLI
 40
13.376
  9
$DIMRND
 40
0.0
  9
$DIMDLE
 40
0.0
  9
$DIMEXE
 40
6.336
  9
$DIMTP
 40
0.005
  9
$DIMTM
 40
0.005
  9
$DIMTXT
 40
3.5
  9
$DIMCEN
 40
3.168
  9
$DIMTSZ
 40
0.0
  9
$DIMTOL
 70
     1
  9
$DIMLIM
 70
     0
  9
$DIMTIH
 70
     1
  9
$DIMTOH
 70
     1
  9
$DIMSE1
 70
     0
  9
$DIMSE2
 70
     0
  9
$DIMTAD
 70
     0
  9
$DIMZIN
 70
     0
  9
$DIMBLK
  1
_FILLED
  9
$DIMASO
 70
     1
  9
$DIMSHO
 70
     1
  9
$DIMPOST
  1

  9
$DIMAPOST
  1

  9
$DIMALT
 70
     0
  9
$DIMALTD
 70
     2
  9
$DIMALTF
 40
25.4
  9
$DIMLFAC
 40
1.0
  9
$DIMTOFL
 70
     0
  9
$DIMTVP
 40
0.0
  9
$DIMTIX
 70
     0
  9
$DIMSOXD
 70
     0
  9
$DIMSAH
 70
     0
  9
$DIMBLK1
  1

  9
$DIMBLK2
  1

  9
$DIMSTYLE
  2
STANDARD
  9
$DIMCLRD
 70
     0
  9
$DIMCLRE
 70
     0
  9
$DIMCLRT
 70
     0
  9
$DIMTFAC
 40
1.0
  9
$DIMGAP
 40
0.09
  9
$DIMJUST
 70
     0
  9
$DIMSD1
 70
     0
  9
$DIMSD2
 70
     0
  9
$DIMTOLJ
 70
     1
  9
$DIMTZIN
 70
     0
  9
$DIMALTZ
 70
     0
  9
$DIMALTTZ
 70
     0
  9
$DIMUPT
 70
     0
  9
$DIMDEC
 70
     4
  9
$DIMTDEC
 70
     4
  9
$DIMALTU
 70
     2
  9
$DIMALTTD
 70
     2
  9
$DIMTXSTY
  7
STANDARD
  9
$DIMAUNIT
 70
     0
  9
$DIMADEC
 70
     0
  9
$DIMALTRND
 40
0.0
  9
$DIMAZIN
 70
     0
  9
$DIMDSEP
 70
    46
  9
$DIMATFIT
 70
     3
  9
$DIMFRAC
 70
     0
  9
$DIMLDRBLK
  1

  9
$DIMLUNIT
 70
     2
  9
$DIMLWD
 70
    -2
  9
$DIMLWE
 70
    -2
  9
$DIMTMOVE
 70
     0
  9
$LUNITS
 70
     2
  9
$LUPREC
 70
     2
  9
$SKETCHINC
 40
0.1
  9
$FILLETRAD
 40
0.0
  9
$AUNITS
 70
     0
  9
$AUPREC
 70
     0
  9
$MENU
  1
.
  9
$ELEVATION
 40
0.0
  9
$PELEVATION
 40
0.0
  9
$THICKNESS
 40
0.0
  9
$LIMCHECK
 70
     0
  9
$CHAMFERA
 40
0.0
  9
$CHAMFERB
 40
0.0
  9
$CHAMFERC
 40
0.0
  9
$CHAMFERD
 40
0.0
  9
$SKPOLY
 70
     0
  9
$TDCREATE
 40
2456346.526172627
  9
$TDUCREATE
 40
2456346.484505961
  9
$TDUPDATE
 40
2456346.526991134
  9
$TDUUPDATE
 40
2456346.485324468
  9
$TDINDWG
 40
0.0008190394
  9
$TDUSRTIMER
 40
0.0008190394
  9
$USRTIMER
 70
     1
  9
$ANGBASE
 50
0.0
  9
$ANGDIR
 70
     0
  9
$PDMODE
 70
     3
  9
$PDSIZE
 40
0.3125
  9
$PLINEWID
 40
0.0
  9
$SPLFRAME
 70
     0
  9
$SPLINETYPE
 70
     6
  9
$SPLINESEGS
 70
     8
  9
$HANDSEED
  5
686
  9
$SURFTAB1
 70
     6
  9
$SURFTAB2
 70
     6
  9
$SURFTYPE
 70
     6
  9
$SURFU
 70
     6
  9
$SURFV
 70
     6
  9
$UCSBASE
  2

  9
$UCSNAME
  2

  9
$UCSORG
 10
0.0
 20
0.0
 30
0.0
  9
$UCSXDIR
 10
1.0
 20
0.0
 30
0.0
  9
$UCSYDIR
 10
0.0
 20
1.0
 30
0.0
  9
$UCSORTHOREF
  2

  9
$UCSORTHOVIEW
 70
     0
  9
$UCSORGTOP
 10
0.0
 20
0.0
 30
0.0
  9
$UCSORGBOTTOM
 10
0.0
 20
0.0
 30
0.0
  9
$UCSORGLEFT
 10
0.0
 20
0.0
 30
0.0
  9
$UCSORGRIGHT
 10
0.0
 20
0.0
 30
0.0
  9
$UCSORGFRONT
 10
0.0
 20
0.0
 30
0.0
  9
$UCSORGBACK
 10
0.0
 20
0.0
 30
0.0
  9
$PUCSBASE
  2

  9
$PUCSNAME
  2

  9
$PUCSORG
 10
0.0
 20
0.0
 30
0.0
  9
$PUCSXDIR
 10
1.0
 20
0.0
 30
0.0
  9
$PUCSYDIR
 10
0.0
 20
1.0
 30
0.0
  9
$PUCSORTHOREF
  2

  9
$PUCSORTHOVIEW
 70
     0
  9
$PUCSORGTOP
 10
0.0
 20
0.0
 30
0.0
  9
$PUCSORGBOTTOM
 10
0.0
 20
0.0
 30
0.0
  9
$PUCSORGLEFT
 10
0.0
 20
0.0
 30
0.0
  9
$PUCSORGRIGHT
 10
0.0
 20
0.0
 30
0.0
  9
$PUCSORGFRONT
 10
0.0
 20
0.0
 30
0.0
  9
$PUCSORGBACK
 10
0.0
 20
0.0
 30
0.0
  9
$USERI1
 70
     0
  9
$USERI2
 70
     0
  9
$USERI3
 70
     0
  9
$USERI4
 70
     0
  9
$USERI5
 70
     0
  9
$USERR1
 40
0.0
  9
$USERR2
 40
0.0
  9
$USERR3
 40
0.0
  9
$USERR4
 40
0.0
  9
$USERR5
 40
0.0
  9
$WORLDVIEW
 70
     1
  9
$SHADEDGE
 70
     3
  9
$SHADEDIF
 70
    70
  9
$TILEMODE
 70
     1
  9
$MAXACTVP
 70
    64
  9
$PINSBASE
 10
0.0
 20
0.0
 30
0.0
  9
$PLIMCHECK
 70
     0
  9
$PEXTMIN
 10
1.000000000000000E+20
 20
1.000000000000000E+20
 30
1.000000000000000E+20
  9
$PEXTMAX
 10
-1.000000000000000E+20
 20
-1.000000000000000E+20
 30
-1.000000000000000E+20
  9
$PLIMMIN
 10
0.0
 20
0.0
  9
$PLIMMAX
 10
12.0
 20
9.0
  9
$UNITMODE
 70
     0
  9
$VISRETAIN
 70
     1
  9
$PLINEGEN
 70
     0
  9
$PSLTSCALE
 70
     1
  9
$TREEDEPTH
 70
  3020
  9
$CMLSTYLE
  2
Standard
  9
$CMLJUST
 70
     0
  9
$CMLSCALE
 40
1.0
  9
$PROXYGRAPHICS
 70
     1
  9
$MEASUREMENT
 70
     1
  9
$CELWEIGHT
370
    -1
  9
$ENDCAPS
280
     0
  9
$JOINSTYLE
280
     0
  9
$LWDISPLAY
290
     0
  9
$INSUNITS
 70
     4
  9
$HYPERLINKBASE
  1

  9
$STYLESHEET
  1

  9
$XEDIT
290
     1
  9
$CEPSNTYPE
380
     0
  9
$PSTYLEMODE
290
     1
  9
$FINGERPRINTGUID
  2
{21D35A0A-15A1-492A-8E3D-09E647CF5AF9}
  9
$VERSIONGUID
  2
{F07F028C-1EF4-4E7B-A042-2DE5B52E5B01}
  9
$EXTNAMES
290
     1
  9
$PSVPSCALE
 40
0.0
  9
$OLESTARTUP
290
     0
  0
ENDSEC
  0
SECTION
  2
CLASSES
  0
CLASS
  1
ACDBDICTIONARYWDFLT
  2
AcDbDictionaryWithDefault
  3
ObjectDBX Classes
 90
        0
280
     0
281
     0
  0
CLASS
  1
ACDBPLACEHOLDER
  2
AcDbPlaceHolder
  3
ObjectDBX Classes
 90
        0
280
     0
281
     0
  0
CLASS
  1
LAYOUT
  2
AcDbLayout
  3
ObjectDBX Classes
 90
        0
280
     0
281
     0
  0
CLASS
  1
RASTERVARIABLES
  2
AcDbRasterVariables
  3
ISM
 90
        0
280
     0
281
     0
  0
CLASS
  1
IMAGEDEF
  2
AcDbRasterImageDef
  3
ISM
 90
        0
280
     0
281
     0
  0
CLASS
  1
IMAGEDEF_REACTOR
  2
AcDbRasterImageDefReactor
  3
ISM
 90
        1
280
     0
281
     0
  0
CLASS
  1
IMAGE
  2
AcDbRasterImage
  3
ISM
 90
     2175
280
     0
281
     1
  0
CLASS
  1
MATERIAL
  2
AcDbMaterial
  3
ObjectDBX Classes
 90
     1153
280
     0
281
     0
  0
CLASS
  1
VISUALSTYLE
  2
AcDbVisualStyle
  3
ObjectDBX Classes
 90
     4095
280
     0
281
     0
  0
CLASS
  1
TABLESTYLE
  2
AcDbTableStyle
  3
ObjectDBX Classes
 90
     4095
280
     0
281
     0
  0
CLASS
  1
SCALE
  2
AcDbScale
  3
ObjectDBX Classes
 90
     1153
280
     0
281
     0
  0
CLASS
  1
MLEADERSTYLE
  2
AcDbMLeaderStyle
  3
ACDB_MLEADERSTYLE_CLASS
 90
     4095
280
     0
281
     0
  0
CLASS
  1
AMGSETTINGSOBJ
  2
AmgSettingsObj
  3
"AcadM|Product Description: AutoCAD Mechanical|Company: Autodesk, Inc."
 90
     1024
280
     0
281
     0
  0
CLASS
  1
ACME_DOCUMENT
  2
AcMeDbDoc
  3
AcMeServices
 90
     1024
280
     0
281
     0
  0
CLASS
  1
ACMESCOPE
  2
AcMeScope
  3
AcMeServices
 90
     1024
280
     0
281
     0
  0
CLASS
  1
ACMECOMMANDHISTORY
  2
AcMeCommandHistory
  3
AcMeServices
 90
     1024
280
     0
281
     0
  0
CLASS
  1
ACIMSYSVARMAN
  2
AcImSysVarManager
  3
AcMeServices
 90
     1024
280
     0
281
     0
  0
CLASS
  1
ACIMINTSYSVAR
  2
AcImIntSysVar
  3
AcMeServices
 90
     1024
280
     0
281
     0
  0
CLASS
  1
ACMEDRAWINGMAN
  2
AcMeDrawingMan
  3
AcMeServices
 90
     1024
280
     0
281
     0
  0
CLASS
  1
ACMEVIEW
  2
AcMeView
  3
AcMeServices
 90
     1024
280
     0
281
     0
  0
CLASS
  1
ACDBENTITYCACHE
  2
AcMeEntityCache
  3
AcMeServices
 90
     1024
280
     0
281
     0
  0
CLASS
  1
ACMESTATEMGR
  2
AcMeStateMgr
  3
AcMeServices
 90
     1024
280
     0
281
     0
  0
CLASS
  1
ACGREFMASTER
  2
AcGrefMaster
  3
AcAttribServices
 90
     1024
280
     0
281
     0
  0
CLASS
  1
AM_DRAWING_MGR
  2
AcDmDwgMgr
  3
AcMechDwgViewMgmt
 90
     1024
280
     0
281
     0
  0
CLASS
  1
AM_DWG_DOCUMENT
  2
AcDmDwgDocument
  3
AcMechDwgViewMgmt
 90
     1024
280
     0
281
     0
  0
CLASS
  1
AM_DWG_SHEET
  2
AcDmSheet
  3
AcMechDwgViewMgmt
 90
     1024
280
     0
281
     0
  0
CLASS
  1
AM_VIEWDIMPARMAP
  2
AcDmViewDimParMap
  3
AcMechDwgViewMgmt
 90
     1024
280
     0
281
     0
  0
CLASS
  1
AMDTINTERNALREACTOR
  2
AmdtInternalReactor
  3
AcMeServices
 90
     1024
280
     0
281
     0
  0
CLASS
  1
ACIMREALSYSVAR
  2
AcImRealSysVar
  3
AcMeServices
 90
     1024
280
     0
281
     0
  0
CLASS
  1
AM_DWGMGR_NAME
  2
AcDmDwgMgrName
  3
AcMechDwgViewMgmt
 90
     1024
280
     0
281
     0
  0
CLASS
  1
ACME_DATABASE
  2
AcMeDbDatabase
  3
AcMeServices
 90
     1024
280
     0
281
     0
  0
CLASS
  1
ACRFINSADJUSTERMGR
  2
AcRfInsAdjusterMgr
  3
AcMeServices
 90
     1024
280
     0
281
     0
  0
CLASS
  1
ACGREFACADMASTER
  2
AcGrefacadMaster
  3
AcGrefServices
 90
     1024
280
     0
281
     0
  0
CLASS
  1
AMDTMENUSTATEMGR
  2
AmdtMenuStateMgr
  3
McadcomServices
 90
     1024
280
     0
281
     0
  0
CLASS
  1
AMDTMCOMMENUSTATE
  2
AmdtMcomMenuState
  3
McadcomServices
 90
     1024
280
     0
281
     0
  0
CLASS
  1
AMIMASTER
  2
AmiMaster
  3
AmiServices
 90
     1024
280
     0
281
     0
  0
CLASS
  1
MAPIAMMOUDLE
  2
MApiAmModule
  3
MApiAmServices
 90
     1024
280
     0
281
     0
  0
CLASS
  1
ACIMSTRSYSVAR
  2
AcImStrSysVar
  3
AcMeServices
 90
     1024
280
     0
281
     0
  0
CLASS
  1
AMDTADMENUSTATE
  2
AmdtAdMenuState
  3
DesignerServices
 90
     1024
280
     0
281
     0
  0
CLASS
  1
ADAPPL
  2
AcAdAppl
  3
DesignerServices
 90
     1024
280
     0
281
     0
  0
CLASS
  1
DEPMGR
  2
AcAdDepMgr
  3
DesignerServices
 90
     1024
280
     0
281
     0
  0
CLASS
  1
PARAMMGR
  2
AcAdParamMgr
  3
DesignerServices
 90
     1024
280
     0
281
     0
  0
CLASS
  1
PARAMSCOPE
  2
AcAdParamScope
  3
DesignerServices
 90
     1024
280
     0
281
     0
  0
CLASS
  1
NAMEDAPPL
  2
AcAdNamedAppl
  3
DesignerServices
 90
     1024
280
     0
281
     0
  0
CLASS
  1
AMDTDMMENUSTATE
  2
AmdtDmMenuState
  3
AcMechDwgViewMgmt
 90
     1024
280
     0
281
     0
  0
CLASS
  1
AMDTAMMENUSTATE
  2
AmdtAmMenuState
  3
DesignerAssemblies
 90
     1024
280
     0
281
     0
  0
CLASS
  1
ACAMPROJECT
  2
AcAmProject
  3
DesignerAssemblies
 90
     1024
280
     0
281
     0
  0
CLASS
  1
ACAMGRCOMPDEF
  2
AcAmGrCompDef
  3
DesignerAssemblies
 90
     1024
280
     0
281
     0
  0
CLASS
  1
ACAMCOMPDEF
  2
AcAmCompDef
  3
DesignerAssemblies
 90
     1024
280
     0
281
     0
  0
CLASS
  1
ACAMCOMPDEFMGR
  2
AcAmCompDefMgr
  3
DesignerAssemblies
 90
     1024
280
     0
281
     0
  0
CLASS
  1
AMCONTEXTMGR
  2
AcAmContextMgr
  3
DesignerAssemblies
 90
     1024
280
     0
281
     0
  0
CLASS
  1
ACAMCONTEXTMODELER
  2
AcAmContextModeler
  3
DesignerAssemblies
 90
     1024
280
     0
281
     0
  0
CLASS
  1
ACMDATADICTIONARY
  2
AcmDataDictionary
  3
"AcmSymBB|Product Description: AutoCAD Mechanical|Company: Autodesk, Inc."
 90
     1024
280
     0
281
     0
  0
CLASS
  1
CATALOGSTATE
  2
AcAmCatalogState
  3
DesignerAssemblies
 90
     1024
280
     0
281
     0
  0
CLASS
  1
ACAMGRCOMPDEFSET
  2
AcAmGrCompDefSet
  3
DesignerAssemblies
 90
     1024
280
     0
281
     0
  0
CLASS
  1
AMDTBROWSERDBTAB
  2
AmdtBrowserDbTab
  3
McadcomServices
 90
     1024
280
     0
281
     0
  0
CLASS
  1
CBROWSERAPPOBJECT
  2
CBrowserAppObject
  3
McadcomServices
 90
     1024
280
     0
281
     0
  0
CLASS
  1
DM_PLACEHOLDER
  2
AcDmSelsetPlaceholder
  3
AcMechDwgViewMgmt
 90
     1024
280
     0
281
     0
  0
CLASS
  1
EXACXREFPANELOBJECT
  2
ExAcXREFPanelObject
  3
EXAC_ESW
 90
     1025
280
     0
281
     0
  0
CLASS
  1
NPOCOLLECTION
  2
AcDbImpNonPersistentObjectsCollection
  3
ObjectDBX Classes
 90
     1153
280
     0
281
     0
  0
CLASS
  1
ACMSTANDARDDIN
  2
AcmStandardDIN
  3
"Amdt_StdImp|Product Description: AutoCAD Mechanical|Company: Autodesk, Inc."
 90
     1024
280
     0
281
     0
  0
CLASS
  1
AMDTEDGESTANDARDDIN13715
  2
AmdtEdgeStdDIN13715
  3
"Amdt_StdImp|Product Description: AutoCAD Mechanical|Company: Autodesk, Inc."
 90
     1024
280
     0
281
     0
  0
CLASS
  1
ACMSURFSTANDARDDIN2002
  2
AcmSurfTextStdDIN2002
  3
"Amdt_StdImp|Product Description: AutoCAD Mechanical|Company: Autodesk, Inc."
 90
     1024
280
     0
281
     0
  0
CLASS
  1
ACMFCFSTANDARDDIN
  2
AcmFCFStdDIN
  3
"Amdt_StdImp|Product Description: AutoCAD Mechanical|Company: Autodesk, Inc."
 90
     1024
280
     0
281
     0
  0
CLASS
  1
ACMWELDSTANDARDDIN
  2
AcmWeldingStdDIN
  3
"Amdt_StdImp|Product Description: AutoCAD Mechanical|Company: Autodesk, Inc."
 90
     1024
280
     0
281
     0
  0
CLASS
  1
ACMIDSTANDARDDIN
  2
AcmIdStdDIN
  3
"Amdt_StdImp|Product Description: AutoCAD Mechanical|Company: Autodesk, Inc."
 90
     1024
280
     0
281
     0
  0
CLASS
  1
ACMDATUMSTANDARDDIN
  2
AcmDatumStdDIN
  3
"Amdt_StdImp|Product Description: AutoCAD Mechanical|Company: Autodesk, Inc."
 90
     1024
280
     0
281
     0
  0
CLASS
  1
ACMBOMSTANDARDDIN
  2
AcmBOMStdDIN
  3
"Amdt_StdImp|Product Description: AutoCAD Mechanical|Company: Autodesk, Inc."
 90
     1024
280
     0
281
     0
  0
CLASS
  1
ACMDETAILSTANDARDDIN
  2
AmdtDetailSymStdDIN
  3
"Amdt_StdImp|Product Description: AutoCAD Mechanical|Company: Autodesk, Inc."
 90
     1024
280
     0
281
     0
  0
CLASS
  1
ACMSECTIONSTANDARDDIN
  2
AmdtSectionSymStdDIN
  3
"Amdt_StdImp|Product Description: AutoCAD Mechanical|Company: Autodesk, Inc."
 90
     1024
280
     0
281
     0
  0
CLASS
  1
ACMCENTERLINESTANDARDDIN
  2
AmdtCenterLineStdDIN
  3
"Amdt_StdImp|Product Description: AutoCAD Mechanical|Company: Autodesk, Inc."
 90
     1024
280
     0
281
     0
  0
CLASS
  1
ACMTHREADLINESTANDARDDIN
  2
AmdtThreadLineStdDIN
  3
"Amdt_StdImp|Product Description: AutoCAD Mechanical|Company: Autodesk, Inc."
 90
     1024
280
     0
281
     0
  0
CLASS
  1
ACMNOTESTANDARDDIN
  2
AmdtNoteStdDIN
  3
"Amdt_StdImp|Product Description: AutoCAD Mechanical|Company: Autodesk, Inc."
 90
     1024
280
     0
281
     0
  0
CLASS
  1
ACMTAPERSTANDARDDIN
  2
AcmTaperStdDIN
  3
"Amdt_StdImp|Product Description: AutoCAD Mechanical|Company: Autodesk, Inc."
 90
     1024
280
     0
281
     0
  0
CLASS
  1
ACMANOOTATIONVIEWSTANDARDDIN
  2
AmdtAnViewStdDIN
  3
"Amdt_StdImp|Product Description: AutoCAD Mechanical|Company: Autodesk, Inc."
 90
     1024
280
     0
281
     0
  0
CLASS
  1
ACAMGLAYSTD
  2
AcAmgLayStd
  3
"AmgLay|Product Description: AutoCAD Mechanical|Company: Autodesk, Inc."
 90
     1024
280
     0
281
     0
  0
CLASS
  1
ACAMGDIMSTD
  2
AcAmgDimStd
  3
"AmgDim|Product Description: AutoCAD Mechanical|Company: Autodesk, Inc."
 90
     1024
280
     0
281
     0
  0
CLASS
  1
AMGOBJPROPCFG
  2
AmgObjPropCfg
  3
"AmgLay|Product Description: AutoCAD Mechanical|Company: Autodesk, Inc."
 90
     1025
280
     0
281
     0
  0
CLASS
  1
ACAMGHOLECHARTSTDDIN
  2
AcAmgHoleChartStdDIN
  3
AmgDim|Product Description: AutoCAD Mechanical|Company: Autodesk, Inc.
 90
     1024
280
     0
281
     0
  0
CLASS
  1
ACAMGTITLESTD
  2
AcAmgTitleStd
  3
"AmgTitle|Product Description: AutoCAD Mechanical|Company: Autodesk, Inc."
 90
     4095
280
     0
281
     0
  0
CLASS
  1
AMDTNOTETEMPLATEDB
  2
AmdtNoteTemplateDB
  3
AcmSymBB|Product Description: AutoCAD Mechanical|Company: Autodesk, Inc.
 90
     1024
280
     0
281
     0
  0
CLASS
  1
ACAMGFILTERDAT
  2
AcAmgFilterDat
  3
"AcadM|Product Description: AutoCAD Mechanical|Company: Autodesk, Inc."
 90
     1024
280
     0
281
     0
  0
CLASS
  1
DICTIONARYVAR
  2
AcDbDictionaryVar
  3
ObjectDBX Classes
 90
        0
280
     0
281
     0
  0
CLASS
  1
CELLSTYLEMAP
  2
AcDbCellStyleMap
  3
ObjectDBX Classes
 90
     1152
280
     0
281
     0
  0
ENDSEC
  0
SECTION
  2
TABLES
  0
TABLE
  2
VPORT
  5
8
330
0
100
AcDbSymbolTable
 70
     1
  0
VPORT
  5
1F4
330
8
100
AcDbSymbolTableRecord
100
AcDbViewportTableRecord
  2
*ACTIVE
 70
     0
 10
0.0
 20
0.0
 11
1.0
 21
1.0
 12
146.9617331544429
 22
152.8389741558013
 13
0.0
 23
0.0
 14
1.0
 24
1.0
 15
0.0
 25
0.0
 16
0.0
 26
0.0
 36
1.0
 17
0.0
 27
0.0
 37
0.0
 40
223.6084921947768
 41
1.84068136272545
 42
50.0
 43
0.0
 44
0.0
 50
0.0
 51
0.0
 71
     0
 72
   100
 73
     1
 74
     1
 75
     0
 76
     0
 77
     0
 78
     0
281
     0
 65
     0
110
0.0
120
0.0
130
0.0
111
1.0
121
0.0
131
0.0
112
0.0
122
1.0
132
0.0
 79
     0
146
0.0
  0
ENDTAB
  0
TABLE
  2
LTYPE
  5
5
330
0
100
AcDbSymbolTable
 70
    22
  0
LTYPE
  5
14
330
5
100
AcDbSymbolTableRecord
100
AcDbLinetypeTableRecord
  2
BYBLOCK
 70
     0
  3

 72
    65
 73
     0
 40
0.0
  0
LTYPE
  5
15
330
5
100
AcDbSymbolTableRecord
100
AcDbLinetypeTableRecord
  2
BYLAYER
 70
     0
  3

 72
    65
 73
     0
 40
0.0
  0
LTYPE
  5
16
330
5
100
AcDbSymbolTableRecord
100
AcDbLinetypeTableRecord
  2
CONTINUOUS
 70
     0
  3
Solid line
 72
    65
 73
     0
 40
0.0
  0
LTYPE
  5
1F5
330
5
100
AcDbSymbolTableRecord
100
AcDbLinetypeTableRecord
  2
CENTER
 70
     0
  3
____ _ ____ _ ____ _ ____ _ ____ _ ____ _ ____
 72
    65
 73
     4
 40
0.6
 49
0.375
 74
     0
 49
-0.075
 74
     0
 49
0.075
 74
     0
 49
-0.075
 74
     0
  0
LTYPE
  5
1F6
330
5
100
AcDbSymbolTableRecord
100
AcDbLinetypeTableRecord
  2
HIDDEN
 70
     0
  3
- - - - - - - - - - - - - - - - - - - -
 72
    65
 73
     2
 40
0.2
 49
0.1
 74
     0
 49
-0.1
 74
     0
  0
LTYPE
  5
1F7
330
5
100
AcDbSymbolTableRecord
100
AcDbLinetypeTableRecord
  2
PHANTOM
 70
     0
  3
_____ _ _ _____ _ _ _____ _ _ _____
 72
    65
 73
     6
 40
0.8
 49
0.45
 74
     0
 49
-0.05
 74
     0
 49
0.1
 74
     0
 49
-0.05
 74
     0
 49
0.1
 74
     0
 49
-0.05
 74
     0
  0
LTYPE
  5
1F8
330
5
100
AcDbSymbolTableRecord
100
AcDbLinetypeTableRecord
  2
DOT
 70
     0
  3
. . . . . . . . . . . . . . . . . . . .
 72
    65
 73
     2
 40
0.2
 49
0.1
 74
     0
 49
-0.1
 74
     0
  0
LTYPE
  5
1F9
330
5
100
AcDbSymbolTableRecord
100
AcDbLinetypeTableRecord
  2
DASHED
 70
     0
  3
- - - - - - - - - - - - - - - - - - - -
 72
    65
 73
     2
 40
0.2
 49
0.1
 74
     0
 49
-0.1
 74
     0
  0
LTYPE
  5
4D7
330
5
100
AcDbSymbolTableRecord
100
AcDbLinetypeTableRecord
  2
PHANTOM2
 70
     0
  3
Phantom (.5x) ___ _ _ ___ _ _ ___ _ _ ___ _ _
 72
    65
 73
     6
 40
31.75
 49
15.875
 74
     0
 49
-3.174999999999999
 74
     0
 49
3.174999999999999
 74
     0
 49
-3.174999999999999
 74
     0
 49
3.174999999999999
 74
     0
 49
-3.174999999999999
 74
     0
  0
LTYPE
  5
51F
330
5
100
AcDbSymbolTableRecord
100
AcDbLinetypeTableRecord
  2
AM_ISO02W050
 70
     0
  3
__ __ __ __ __ __ __ __ __ __ __ __ __ __ __
 72
    65
 73
     2
 40
7.5
 49
6.0
 74
     0
 49
-1.5
 74
     0
  0
LTYPE
  5
520
330
5
100
AcDbSymbolTableRecord
100
AcDbLinetypeTableRecord
  2
AM_ISO08W050
 70
     0
  3
____ . ____ . ____ . ____ . ____ . ____ . ____
 72
    65
 73
     4
 40
18.0
 49
12.0
 74
     0
 49
-1.5
 74
     0
 49
3.0
 74
     0
 49
-1.5
 74
     0
  0
LTYPE
  5
521
330
5
100
AcDbSymbolTableRecord
100
AcDbLinetypeTableRecord
  2
AM_ISO09W050
 70
     0
  3
_____ . . _____ . . _____ . . ____ .. ____
 72
    65
 73
     6
 40
22.5
 49
12.0
 74
     0
 49
-1.5
 74
     0
 49
3.0
 74
     0
 49
-1.5
 74
     0
 49
3.0
 74
     0
 49
-1.5
 74
     0
  0
LTYPE
  5
522
330
5
100
AcDbSymbolTableRecord
100
AcDbLinetypeTableRecord
  2
Amconstr
 70
     0
  3
_______________________
 72
    65
 73
     2
 40
9999.0
 49
9999.0
 74
     0
 49
0.0
 74
     0
  0
LTYPE
  5
523
330
5
100
AcDbSymbolTableRecord
100
AcDbLinetypeTableRecord
  2
AM_ISO08W050x2
 70
     0
  3
__ . __ . __ . __ . __ . __
 72
    65
 73
     4
 40
9.0
 49
6.0
 74
     0
 49
-0.75
 74
     0
 49
1.5
 74
     0
 49
-0.75
 74
     0
  0
LTYPE
  5
524
330
5
100
AcDbSymbolTableRecord
100
AcDbLinetypeTableRecord
  2
AM_ISO02W050x2
 70
     0
  3
 _ _ _ _ _ _ _ _ _ _ _ _
 72
    65
 73
     2
 40
3.75
 49
3.0
 74
     0
 49
-0.75
 74
     0
  0
LTYPE
  5
527
330
5
100
AcDbSymbolTableRecord
100
AcDbLinetypeTableRecord
  2
Amzigzag
 70
     0
  3
/\/-/\/-/\/-/\/-/\/-/\/
 72
    65
 73
     2
 40
11.0001
 49
0.0001
 74
     4
 75
   136
340
526
 46
0.04
 50
0.0
 44
0.0
 45
0.0
 49
-11.0
 74
     0
  0
LTYPE
  5
528
330
5
100
AcDbSymbolTableRecord
100
AcDbLinetypeTableRecord
  2
AM_DIN_F_W050
 70
     0
  3
__ __ __ __ __ __ __ __ __ __ __ __ __ __ __
 72
    65
 73
     2
 40
6.25
 49
4.75
 74
     0
 49
-1.5
 74
     0
  0
LTYPE
  5
529
330
5
100
AcDbSymbolTableRecord
100
AcDbLinetypeTableRecord
  2
AM_DIN_G_W050
 70
     0
  3
____ . ____ . ____ . ____ . ____ . ____ . ____
 72
    65
 73
     4
 40
13.75
 49
9.75
 74
     0
 49
-1.5
 74
     0
 49
1.0
 74
     0
 49
-1.5
 74
     0
  0
LTYPE
  5
52A
330
5
100
AcDbSymbolTableRecord
100
AcDbLinetypeTableRecord
  2
AM_DIN_K_W050
 70
     0
  3
_____ . . _____ . . _____ . . ____ .. ____
 72
    65
 73
     6
 40
16.25
 49
9.75
 74
     0
 49
-1.5
 74
     0
 49
1.0
 74
     0
 49
-1.5
 74
     0
 49
1.0
 74
     0
 49
-1.5
 74
     0
  0
LTYPE
  5
52B
330
5
100
AcDbSymbolTableRecord
100
AcDbLinetypeTableRecord
  2
AM_DIN_G_W050x2
 70
     0
  3
__ . __ . __ . __ . __ . __
 72
    65
 73
     4
 40
6.875
 49
4.75
 74
     0
 49
-0.875
 74
     0
 49
0.375
 74
     0
 49
-0.875
 74
     0
  0
LTYPE
  5
52C
330
5
100
AcDbSymbolTableRecord
100
AcDbLinetypeTableRecord
  2
AM_DIN_F_W050x2
 70
     0
  3
 _ _ _ _ _ _ _ _ _ _ _ _
 72
    65
 73
     2
 40
3.125
 49
2.25
 74
     0
 49
-0.875
 74
     0
  0
LTYPE
  5
53B
330
5
100
AcDbSymbolTableRecord
100
AcDbLinetypeTableRecord
  2
ACDINWELD
 70
     0
  3
_ _ _ _ _
 72
    65
 73
     2
 40
2.0
 49
2.0
 74
     0
 49
-1.0
 74
     0
  0
LTYPE
  5
53C
330
5
100
AcDbSymbolTableRecord
100
AcDbLinetypeTableRecord
  2
ACDINTGB
 70
     0
  3
__ . . __ . .
 72
    65
 73
     6
 40
9.0
 49
4.0
 74
     0
 49
-1.0
 74
     0
 49
1.0
 74
     0
 49
-1.0
 74
     0
 49
1.0
 74
     0
 49
-1.0
 74
     0
  0
LTYPE
  5
53D
330
5
100
AcDbSymbolTableRecord
100
AcDbLinetypeTableRecord
  2
ACDINTGL
 70
     0
  3
_ _ _ _ _
 72
    65
 73
     2
 40
3.0
 49
2.0
 74
     0
 49
-1.0
 74
     0
  0
ENDTAB
  0
TABLE
  2
LAYER
  5
2
330
0
100
AcDbSymbolTable
 70
    33
  0
LAYER
  5
10
102
{ACAD_XDICTIONARY
360
607
102
}
330
2
100
AcDbSymbolTableRecord
100
AcDbLayerTableRecord
  2
0
 70
     0
 62
     7
  6
CONTINUOUS
370
    -3
390
F
  0
LAYER
  5
1FA
102
{ACAD_XDICTIONARY
360
609
102
}
330
2
100
AcDbSymbolTableRecord
100
AcDbLayerTableRecord
  2
DEFAULT_1
 70
     0
 62
     7
  6
CENTER
370
    -3
390
F
  0
LAYER
  5
1FB
102
{ACAD_XDICTIONARY
360
60B
102
}
330
2
100
AcDbSymbolTableRecord
100
AcDbLayerTableRecord
  2
DEFAULT_2
 70
     0
 62
     8
  6
HIDDEN
370
    -3
390
F
  0
LAYER
  5
1FC
102
{ACAD_XDICTIONARY
360
60D
102
}
330
2
100
AcDbSymbolTableRecord
100
AcDbLayerTableRecord
  2
DEFAULT_3
 70
     0
 62
     7
  6
PHANTOM
370
    -3
390
F
  0
LAYER
  5
1FD
102
{ACAD_XDICTIONARY
360
60F
102
}
330
2
100
AcDbSymbolTableRecord
100
AcDbLayerTableRecord
  2
01___PRT_ALL_DTM_PLN
 70
     0
 62
     7
  6
CONTINUOUS
370
    -3
390
F
  0
LAYER
  5
1FE
102
{ACAD_XDICTIONARY
360
611
102
}
330
2
100
AcDbSymbolTableRecord
100
AcDbLayerTableRecord
  2
01___PRT_DEF_DTM_PLN
 70
     0
 62
     7
  6
CONTINUOUS
370
    -3
390
F
  0
LAYER
  5
1FF
102
{ACAD_XDICTIONARY
360
613
102
}
330
2
100
AcDbSymbolTableRecord
100
AcDbLayerTableRecord
  2
02___PRT_ALL_AXES
 70
     0
 62
     7
  6
CONTINUOUS
370
    -3
390
F
  0
LAYER
  5
200
102
{ACAD_XDICTIONARY
360
615
102
}
330
2
100
AcDbSymbolTableRecord
100
AcDbLayerTableRecord
  2
03___PRT_ALL_CURVES
 70
     0
 62
     7
  6
CONTINUOUS
370
    -3
390
F
  0
LAYER
  5
201
102
{ACAD_XDICTIONARY
360
617
102
}
330
2
100
AcDbSymbolTableRecord
100
AcDbLayerTableRecord
  2
04___PRT_ALL_DTM_PNT
 70
     0
 62
     7
  6
CONTINUOUS
370
    -3
390
F
  0
LAYER
  5
202
102
{ACAD_XDICTIONARY
360
619
102
}
330
2
100
AcDbSymbolTableRecord
100
AcDbLayerTableRecord
  2
05___PRT_ALL_DTM_CSYS
 70
     0
 62
     7
  6
CONTINUOUS
370
    -3
390
F
  0
LAYER
  5
203
102
{ACAD_XDICTIONARY
360
61B
102
}
330
2
100
AcDbSymbolTableRecord
100
AcDbLayerTableRecord
  2
05___PRT_DEF_DTM_CSYS
 70
     0
 62
     7
  6
CONTINUOUS
370
    -3
390
F
  0
LAYER
  5
204
102
{ACAD_XDICTIONARY
360
61D
102
}
330
2
100
AcDbSymbolTableRecord
100
AcDbLayerTableRecord
  2
06___PRT_ALL_SURFS
 70
     0
 62
     7
  6
CONTINUOUS
370
    -3
390
F
  0
LAYER
  5
205
102
{ACAD_XDICTIONARY
360
61F
102
}
330
2
100
AcDbSymbolTableRecord
100
AcDbLayerTableRecord
  2
AXES
 70
     0
 62
     7
  6
CONTINUOUS
370
    -3
390
F
  0
LAYER
  5
206
102
{ACAD_XDICTIONARY
360
621
102
}
330
2
100
AcDbSymbolTableRecord
100
AcDbLayerTableRecord
  2
AXIS
 70
     0
 62
     7
  6
CONTINUOUS
370
    -3
390
F
  0
LAYER
  5
207
102
{ACAD_XDICTIONARY
360
623
102
}
330
2
100
AcDbSymbolTableRecord
100
AcDbLayerTableRecord
  2
BEZUGSACHSEN
 70
     0
 62
     7
  6
CONTINUOUS
370
    -3
390
F
  0
LAYER
  5
208
102
{ACAD_XDICTIONARY
360
625
102
}
330
2
100
AcDbSymbolTableRecord
100
AcDbLayerTableRecord
  2
BEZUGSEBENEN
 70
     0
 62
     7
  6
CONTINUOUS
370
    -3
390
F
  0
LAYER
  5
209
102
{ACAD_XDICTIONARY
360
627
102
}
330
2
100
AcDbSymbolTableRecord
100
AcDbLayerTableRecord
  2
BG_STARTBEZUEGE
 70
     0
 62
     7
  6
CONTINUOUS
370
    -3
390
F
  0
LAYER
  5
20A
102
{ACAD_XDICTIONARY
360
629
102
}
330
2
100
AcDbSymbolTableRecord
100
AcDbLayerTableRecord
  2
CSYS
 70
     0
 62
     7
  6
CONTINUOUS
370
    -3
390
F
  0
LAYER
  5
20B
102
{ACAD_XDICTIONARY
360
62B
102
}
330
2
100
AcDbSymbolTableRecord
100
AcDbLayerTableRecord
  2
CURVE
 70
     0
 62
     7
  6
CONTINUOUS
370
    -3
390
F
  0
LAYER
  5
20C
102
{ACAD_XDICTIONARY
360
62D
102
}
330
2
100
AcDbSymbolTableRecord
100
AcDbLayerTableRecord
  2
CURVES
 70
     0
 62
     7
  6
CONTINUOUS
370
    -3
390
F
  0
LAYER
  5
20D
102
{ACAD_XDICTIONARY
360
62F
102
}
330
2
100
AcDbSymbolTableRecord
100
AcDbLayerTableRecord
  2
FASEN
 70
     0
 62
     7
  6
CONTINUOUS
370
    -3
390
F
  0
LAYER
  5
20E
102
{ACAD_XDICTIONARY
360
631
102
}
330
2
100
AcDbSymbolTableRecord
100
AcDbLayerTableRecord
  2
HILFEN
 70
     0
 62
     7
  6
CONTINUOUS
370
    -3
390
F
  0
LAYER
  5
20F
102
{ACAD_XDICTIONARY
360
633
102
}
330
2
100
AcDbSymbolTableRecord
100
AcDbLayerTableRecord
  2
PLANES
 70
     0
 62
     7
  6
CONTINUOUS
370
    -3
390
F
  0
LAYER
  5
210
102
{ACAD_XDICTIONARY
360
635
102
}
330
2
100
AcDbSymbolTableRecord
100
AcDbLayerTableRecord
  2
PLATZIERUNG
 70
     0
 62
     7
  6
CONTINUOUS
370
    -3
390
F
  0
LAYER
  5
211
102
{ACAD_XDICTIONARY
360
637
102
}
330
2
100
AcDbSymbolTableRecord
100
AcDbLayerTableRecord
  2
PLN
 70
     0
 62
     7
  6
CONTINUOUS
370
    -3
390
F
  0
LAYER
  5
212
102
{ACAD_XDICTIONARY
360
639
102
}
330
2
100
AcDbSymbolTableRecord
100
AcDbLayerTableRecord
  2
PNT
 70
     0
 62
     7
  6
CONTINUOUS
370
    -3
390
F
  0
LAYER
  5
213
102
{ACAD_XDICTIONARY
360
63B
102
}
330
2
100
AcDbSymbolTableRecord
100
AcDbLayerTableRecord
  2
POINTS
 70
     0
 62
     7
  6
CONTINUOUS
370
    -3
390
F
  0
LAYER
  5
214
102
{ACAD_XDICTIONARY
360
63D
102
}
330
2
100
AcDbSymbolTableRecord
100
AcDbLayerTableRecord
  2
RUNDUNGEN
 70
     0
 62
     7
  6
CONTINUOUS
370
    -3
390
F
  0
LAYER
  5
215
102
{ACAD_XDICTIONARY
360
63F
102
}
330
2
100
AcDbSymbolTableRecord
100
AcDbLayerTableRecord
  2
SURFACES
 70
     0
 62
     7
  6
CONTINUOUS
370
    -3
390
F
  0
LAYER
  5
216
102
{ACAD_XDICTIONARY
360
641
102
}
330
2
100
AcDbSymbolTableRecord
100
AcDbLayerTableRecord
  2
TEIL_STARTBEZUEGE
 70
     0
 62
     7
  6
CONTINUOUS
370
    -3
390
F
  0
LAYER
  5
217
102
{ACAD_XDICTIONARY
360
643
102
}
330
2
100
AcDbSymbolTableRecord
100
AcDbLayerTableRecord
  2
ZEICHNUNGSBEMASSUNGEN
 70
     0
 62
     7
  6
CONTINUOUS
370
    -3
390
F
  0
LAYER
  5
54B
102
{ACAD_XDICTIONARY
360
645
102
}
330
2
100
AcDbSymbolTableRecord
100
AcDbLayerTableRecord
  2
AM_5
 70
     0
 62
     3
  6
CONTINUOUS
370
    25
390
F
1001
AcAecLayerStandard
1000

1000

  0
LAYER
  5
550
330
2
100
AcDbSymbolTableRecord
100
AcDbLayerTableRecord
  2
Defpoints
 70
     0
 62
     7
  6
CONTINUOUS
290
     0
370
    -3
390
F
  0
ENDTAB
  0
TABLE
  2
STYLE
  5
3
330
0
100
AcDbSymbolTable
 70
    13
  0
STYLE
  5
11
330
3
100
AcDbSymbolTableRecord
100
AcDbTextStyleTableRecord
  2
STANDARD
 70
     0
 40
0.0
 41
0.7
 50
0.0
 71
     0
 42
0.2
  3
txt
  4

  0
STYLE
  5
218
330
3
100
AcDbSymbolTableRecord
100
AcDbTextStyleTableRecord
  2
TEXTSTYLE_1
 70
     0
 40
0.0
 41
0.8
 50
0.0
 71
     0
 42
0.2
  3
gdt
  4

  0
STYLE
  5
219
330
3
100
AcDbSymbolTableRecord
100
AcDbTextStyleTableRecord
  2
TEXTSTYLE_2
 70
     0
 40
0.0
 41
0.7857142857
 50
0.0
 71
     0
 42
0.2
  3
txt
  4

  0
STYLE
  5
21A
330
3
100
AcDbSymbolTableRecord
100
AcDbTextStyleTableRecord
  2
TEXTSTYLE_3
 70
     0
 40
0.0
 41
0.8333333333
 50
0.0
 71
     0
 42
0.2
  3
txt
  4

  0
STYLE
  5
21B
330
3
100
AcDbSymbolTableRecord
100
AcDbTextStyleTableRecord
  2
TEXTSTYLE_4
 70
     0
 40
0.0
 41
0.9047619048000001
 50
0.0
 71
     0
 42
0.2
  3
txt
  4

  0
STYLE
  5
21C
330
3
100
AcDbSymbolTableRecord
100
AcDbTextStyleTableRecord
  2
TEXTSTYLE_5
 70
     0
 40
0.0
 41
0.7142857143000001
 50
0.0
 71
     0
 42
0.2
  3
txt
  4

  0
STYLE
  5
21D
330
3
100
AcDbSymbolTableRecord
100
AcDbTextStyleTableRecord
  2
TEXTSTYLE_6
 70
     0
 40
0.0
 41
0.5714285714000001
 50
0.0
 71
     0
 42
0.2
  3
txt
  4

  0
STYLE
  5
21E
330
3
100
AcDbSymbolTableRecord
100
AcDbTextStyleTableRecord
  2
TEXTSTYLE_7
 70
     0
 40
0.0
 41
1.0
 50
0.0
 71
     0
 42
0.2
  3
trium.ttf
  4

  0
STYLE
  5
21F
330
3
100
AcDbSymbolTableRecord
100
AcDbTextStyleTableRecord
  2
TEXTSTYLE_8
 70
     0
 40
0.0
 41
0.7
 50
0.0
 71
     0
 42
0.2
  3
txt
  4

  0
STYLE
  5
220
330
3
100
AcDbSymbolTableRecord
100
AcDbTextStyleTableRecord
  2
TEXTSTYLE_9
 70
     0
 40
0.0
 41
1.0
 50
0.0
 71
     0
 42
0.2
  3
trium.ttf
  4

  0
STYLE
  5
526
330
3
100
AcDbSymbolTableRecord
100
AcDbTextStyleTableRecord
  2

 70
     1
 40
0.0
 41
1.0
 50
0.0
 71
     0
 42
0.2
  3
genltshp.shx
  4

  0
STYLE
  5
539
330
3
100
AcDbSymbolTableRecord
100
AcDbTextStyleTableRecord
  2
ACDINTS
 70
     0
 40
1.0
 41
1.0
 50
0.0
 71
     0
 42
0.2
  3
isocp.shx
  4

  0
STYLE
  5
53A
330
3
100
AcDbSymbolTableRecord
100
AcDbTextStyleTableRecord
  2
ACDINGDT
 70
     0
 40
0.0
 41
1.0
 50
0.0
 71
     0
 42
0.2
  3
amgdt.shx
  4

  0
ENDTAB
  0
TABLE
  2
VIEW
  5
6
330
0
100
AcDbSymbolTable
 70
     0
  0
ENDTAB
  0
TABLE
  2
UCS
  5
7
330
0
100
AcDbSymbolTable
 70
     0
  0
ENDTAB
  0
TABLE
  2
APPID
  5
9
330
0
100
AcDbSymbolTable
 70
    18
  0
APPID
  5
221
330
9
100
AcDbSymbolTableRecord
100
AcDbRegAppTableRecord
  2
ACAD
 70
     0
  0
APPID
  5
4AC
330
9
100
AcDbSymbolTableRecord
100
AcDbRegAppTableRecord
  2
MCAD_NO_VIS
 70
     0
  0
APPID
  5
4AD
330
9
100
AcDbSymbolTableRecord
100
AcDbRegAppTableRecord
  2
ACAD_TEMP_GRAPHIC
 70
     0
  0
APPID
  5
4D9
330
9
100
AcDbSymbolTableRecord
100
AcDbRegAppTableRecord
  2
AD_DRAW
 70
     0
  0
APPID
  5
4DC
330
9
100
AcDbSymbolTableRecord
100
AcDbRegAppTableRecord
  2
ACATTRIBSERVICES
 70
     0
  0
APPID
  5
4FC
330
9
100
AcDbSymbolTableRecord
100
AcDbRegAppTableRecord
  2
DESIGNERASSEMBLIES
 70
     0
  0
APPID
  5
502
330
9
100
AcDbSymbolTableRecord
100
AcDbRegAppTableRecord
  2
ACADM_DIM_EDIT
 70
     0
  0
APPID
  5
503
330
9
100
AcDbSymbolTableRecord
100
AcDbRegAppTableRecord
  2
AMDT_DM_ADJ
 70
     0
  0
APPID
  5
51C
330
9
100
AcDbSymbolTableRecord
100
AcDbRegAppTableRecord
  2
ACAD_DSTYLE_DIMJAG
 70
     0
  0
APPID
  5
51D
330
9
100
AcDbSymbolTableRecord
100
AcDbRegAppTableRecord
  2
ACAD_DSTYLE_DIMBREAK
 70
     0
  0
APPID
  5
54C
330
9
100
AcDbSymbolTableRecord
100
AcDbRegAppTableRecord
  2
AcAecLayerStandard
 70
     0
  0
APPID
  5
568
330
9
100
AcDbSymbolTableRecord
100
AcDbRegAppTableRecord
  2
GENIUS_GENDTOL_13
 70
     0
  0
APPID
  5
569
330
9
100
AcDbSymbolTableRecord
100
AcDbRegAppTableRecord
  2
ACAD_DSTYLE_DIMINSPECT
 70
     0
  0
APPID
  5
681
330
9
100
AcDbSymbolTableRecord
100
AcDbRegAppTableRecord
  2
ACAD_MLEADERVER
 70
     0
  0
APPID
  5
682
330
9
100
AcDbSymbolTableRecord
100
AcDbRegAppTableRecord
  2
ACAD_DSTYLE_DIMJOGGED_JOGANGLE_SYMBOL
 70
     0
  0
APPID
  5
683
330
9
100
AcDbSymbolTableRecord
100
AcDbRegAppTableRecord
  2
ACAD_DSTYLE_DIM_LINETYPE
 70
     0
  0
APPID
  5
684
330
9
100
AcDbSymbolTableRecord
100
AcDbRegAppTableRecord
  2
ACAD_DSTYLE_DIM_EXT1_LINETYPE
 70
     0
  0
APPID
  5
685
330
9
100
AcDbSymbolTableRecord
100
AcDbRegAppTableRecord
  2
ACAD_DSTYLE_DIM_EXT2_LINETYPE
 70
     0
  0
ENDTAB
  0
TABLE
  2
DIMSTYLE
  5
A
330
0
100
AcDbSymbolTable
 70
    10
100
AcDbDimStyleTable
 71
     1
340
22A
  0
DIMSTYLE
105
22A
330
A
100
AcDbSymbolTableRecord
100
AcDbDimStyleTableRecord
  2
STANDARD
 70
     0
 41
3.5
 47
0.005
 48
0.005
 71
     1
 73
     0
 74
     0
 77
     1
 78
     8
140
3.5
178
     5
271
     3
272
     3
284
     8
340
11
341
224
342
224
343
224
344
224
  0
DIMSTYLE
105
22B
330
A
100
AcDbSymbolTableRecord
100
AcDbDimStyleTableRecord
  2
DIMSTYLE_1
 70
     0
 41
3.5
 47
0.3
 48
0.3
 73
     0
 74
     0
 77
     1
 78
     8
140
3.5
178
     5
271
     3
272
     3
284
     8
340
11
341
224
342
224
343
224
344
224
  0
DIMSTYLE
105
51B
102
{ACAD_REACTORS
330
50A
102
}
330
A
100
AcDbSymbolTableRecord
100
AcDbDimStyleTableRecord
  2
AM_DIN
 70
     0
  4
"
 41
3.5
 42
1.0
 43
10.0
 44
1.0
 47
0.1
 48
0.1
 73
     0
 74
     0
 77
     1
 78
     8
 79
     2
140
3.5
141
0.0
143
0.0393701
146
0.71
147
1.5
172
     1
176
   256
177
   256
178
     2
271
     2
272
     3
274
     4
283
     0
284
     8
340
11
371
    -1
372
    -1
1001
ACAD_DSTYLE_DIMJAG
1070
   388
1040
1.5
1001
ACAD_DSTYLE_DIMBREAK
1070
   391
1040
3.75
1001
ACAD_DSTYLE_DIMJOGGED_JOGANGLE_SYMBOL
1070
   384
1040
1.570796326794896
1001
ACAD_DSTYLE_DIM_LINETYPE
1070
   380
1005
14
1001
ACAD_DSTYLE_DIM_EXT1_LINETYPE
1070
   381
1005
14
1001
ACAD_DSTYLE_DIM_EXT2_LINETYPE
1070
   382
1005
14
  0
DIMSTYLE
105
52D
330
A
100
AcDbSymbolTableRecord
100
AcDbDimStyleTableRecord
  2
AM_DIN$3
 70
     0
  4
"
 41
3.5
 42
1.0
 43
10.0
 44
1.0
 47
0.1
 48
0.1
 73
     0
 77
     1
 78
     8
 79
     2
140
3.5
141
0.0
143
0.0393701
146
0.71
147
1.5
176
   256
177
   256
178
     2
271
     2
272
     3
274
     4
283
     0
284
     8
288
     1
289
     0
340
11
371
    -1
372
    -1
1001
ACAD_DSTYLE_DIMBREAK
1070
   391
1040
3.75
1001
ACAD_DSTYLE_DIMJAG
1070
   388
1040
1.5
1001
ACAD_DSTYLE_DIMJOGGED_JOGANGLE_SYMBOL
1070
   384
1040
1.570796326794896
1001
ACAD_DSTYLE_DIM_LINETYPE
1070
   380
1005
14
1001
ACAD_DSTYLE_DIM_EXT1_LINETYPE
1070
   381
1005
14
1001
ACAD_DSTYLE_DIM_EXT2_LINETYPE
1070
   382
1005
14
  0
DIMSTYLE
105
52E
330
A
100
AcDbSymbolTableRecord
100
AcDbDimStyleTableRecord
  2
AM_DIN$4
 70
     0
  4
"
 41
3.5
 42
1.0
 43
10.0
 44
1.0
 47
0.1
 48
0.1
 73
     0
 77
     1
 78
     8
 79
     2
140
3.5
141
0.0
143
0.0393701
146
0.71
147
1.5
176
   256
177
   256
178
     2
271
     2
272
     3
274
     4
283
     0
284
     8
288
     1
289
     0
340
11
371
    -1
372
    -1
1001
ACAD_DSTYLE_DIMBREAK
1070
   391
1040
3.75
1001
ACAD_DSTYLE_DIMJAG
1070
   388
1040
1.5
1001
ACAD_DSTYLE_DIMJOGGED_JOGANGLE_SYMBOL
1070
   384
1040
1.570796326794896
1001
ACAD_DSTYLE_DIM_LINETYPE
1070
   380
1005
14
1001
ACAD_DSTYLE_DIM_EXT1_LINETYPE
1070
   381
1005
14
1001
ACAD_DSTYLE_DIM_EXT2_LINETYPE
1070
   382
1005
14
  0
DIMSTYLE
105
52F
330
A
100
AcDbSymbolTableRecord
100
AcDbDimStyleTableRecord
  2
AM_DIN$6
 70
     0
  4
"
 41
3.5
 42
1.0
 43
10.0
 44
1.0
 47
0.1
 48
0.1
 73
     0
 74
     0
 78
     8
 79
     2
140
3.5
141
0.0
143
0.0393701
146
0.71
147
1.5
172
     1
176
   256
177
   256
178
     2
271
     2
272
     3
274
     4
283
     0
284
     8
340
11
371
    -1
372
    -1
1001
ACAD_DSTYLE_DIMBREAK
1070
   391
1040
3.75
1001
ACAD_DSTYLE_DIMJAG
1070
   388
1040
1.5
1001
ACAD_DSTYLE_DIMJOGGED_JOGANGLE_SYMBOL
1070
   384
1040
1.570796326794896
1001
ACAD_DSTYLE_DIM_LINETYPE
1070
   380
1005
14
1001
ACAD_DSTYLE_DIM_EXT1_LINETYPE
1070
   381
1005
14
1001
ACAD_DSTYLE_DIM_EXT2_LINETYPE
1070
   382
1005
14
  0
DIMSTYLE
105
530
330
A
100
AcDbSymbolTableRecord
100
AcDbDimStyleTableRecord
  2
AM_DIN$7
 70
     0
  4
"
 41
3.5
 42
1.0
 43
10.0
 44
1.0
 47
0.1
 48
0.1
 73
     0
 74
     0
 77
     1
 78
     8
 79
     2
140
3.5
141
0.0
143
0.0393701
146
0.71
147
1.5
172
     1
176
   256
177
   256
178
     2
271
     2
272
     3
274
     4
283
     0
284
     8
340
11
371
    -1
372
    -1
1001
ACAD_DSTYLE_DIMBREAK
1070
   391
1040
3.75
1001
ACAD_DSTYLE_DIMJAG
1070
   388
1040
1.5
1001
ACAD_DSTYLE_DIMJOGGED_JOGANGLE_SYMBOL
1070
   384
1040
1.570796326794896
1001
ACAD_DSTYLE_DIM_LINETYPE
1070
   380
1005
14
1001
ACAD_DSTYLE_DIM_EXT1_LINETYPE
1070
   381
1005
14
1001
ACAD_DSTYLE_DIM_EXT2_LINETYPE
1070
   382
1005
14
  0
DIMSTYLE
105
531
330
A
100
AcDbSymbolTableRecord
100
AcDbDimStyleTableRecord
  2
AM_DIN$SF
 70
     0
  4
"
 41
3.5
 42
1.0
 43
10.0
 44
1.0
 47
0.1
 48
0.1
 73
     0
 74
     0
 75
     1
 76
     1
 77
     1
 78
     8
 79
     2
140
3.5
141
0.0
143
0.0393701
146
0.71
147
1.5
172
     1
176
   256
177
   256
178
     2
271
     2
272
     3
274
     4
283
     0
284
     8
340
11
371
    -1
372
    -1
1001
ACAD_DSTYLE_DIMBREAK
1070
   391
1040
3.75
1001
ACAD_DSTYLE_DIMJAG
1070
   388
1040
1.5
1001
ACAD_DSTYLE_DIMJOGGED_JOGANGLE_SYMBOL
1070
   384
1040
1.570796326794896
1001
ACAD_DSTYLE_DIM_LINETYPE
1070
   380
1005
14
1001
ACAD_DSTYLE_DIM_EXT1_LINETYPE
1070
   381
1005
14
1001
ACAD_DSTYLE_DIM_EXT2_LINETYPE
1070
   382
1005
14
  0
DIMSTYLE
105
536
330
A
100
AcDbSymbolTableRecord
100
AcDbDimStyleTableRecord
  2
AM_DIN$SH
 70
     0
  4
"
 41
3.5
 42
1.0
 43
10.0
 44
1.0
 47
0.1
 48
0.1
 73
     0
 74
     0
 75
     1
 76
     1
 77
     1
 78
     8
 79
     2
140
3.5
141
0.0
143
0.0393701
144
2.0
146
0.71
147
1.5
172
     1
173
     1
176
   256
177
   256
178
     2
271
     2
272
     3
274
     4
283
     0
284
     8
340
11
343
532
371
    -1
372
    -1
1001
ACAD_DSTYLE_DIMBREAK
1070
   391
1040
3.75
1001
ACAD_DSTYLE_DIMJAG
1070
   388
1040
1.5
1001
ACAD_DSTYLE_DIMJOGGED_JOGANGLE_SYMBOL
1070
   384
1040
1.570796326794896
1001
ACAD_DSTYLE_DIM_LINETYPE
1070
   380
1005
14
1001
ACAD_DSTYLE_DIM_EXT1_LINETYPE
1070
   381
1005
14
1001
ACAD_DSTYLE_DIM_EXT2_LINETYPE
1070
   382
1005
14
  0
DIMSTYLE
105
54D
102
{ACAD_REACTORS
330
54F
330
588
330
5BE
102
}
330
A
100
AcDbSymbolTableRecord
100
AcDbDimStyleTableRecord
  2
STANDARD$0
 70
     0
 41
3.5
 47
0.005
 48
0.005
 71
     1
 73
     0
 74
     0
 77
     1
 78
     8
140
3.5
178
     5
271
     3
272
     3
284
     8
340
11
341
224
342
224
343
224
344
224
1001
ACAD_DSTYLE_DIMBREAK
1070
   391
1040
3.75
1001
ACAD_DSTYLE_DIMJAG
1070
   388
1040
1.5
  0
ENDTAB
  0
TABLE
  2
BLOCK_RECORD
  5
1
330
0
100
AcDbSymbolTable
 70
    11
  0
BLOCK_RECORD
  5
222
330
1
100
AcDbSymbolTableRecord
100
AcDbBlockTableRecord
  2
*Model_Space
340
45A
  0
BLOCK_RECORD
  5
223
330
1
100
AcDbSymbolTableRecord
100
AcDbBlockTableRecord
  2
*Paper_Space
340
45B
  0
BLOCK_RECORD
  5
224
330
1
100
AcDbSymbolTableRecord
100
AcDbBlockTableRecord
  2
_FILLED
340
0
102
{BLKREFS
331
24E
331
24F
331
582
331
583
331
5B8
331
5B9
331
601
331
602
102
}
  0
BLOCK_RECORD
  5
225
330
1
100
AcDbSymbolTableRecord
100
AcDbBlockTableRecord
  2
_DOTBLANK
340
0
  0
BLOCK_RECORD
  5
226
330
1
100
AcDbSymbolTableRecord
100
AcDbBlockTableRecord
  2
*D2
340
0
  0
BLOCK_RECORD
  5
227
330
1
100
AcDbSymbolTableRecord
100
AcDbBlockTableRecord
  2
BALLOON_BL2
340
0
  0
BLOCK_RECORD
  5
228
330
1
100
AcDbSymbolTableRecord
100
AcDbBlockTableRecord
  2
BALLOON_BL1
340
0
  0
BLOCK_RECORD
  5
229
330
1
100
AcDbSymbolTableRecord
100
AcDbBlockTableRecord
  2
SYMBOL_0_BL0
340
0
  0
BLOCK_RECORD
  5
532
330
1
100
AcDbSymbolTableRecord
100
AcDbBlockTableRecord
  2
GENAXEH
340
0
  0
BLOCK_RECORD
  5
551
330
1
100
AcDbSymbolTableRecord
100
AcDbBlockTableRecord
  2
*D8
340
0
  0
BLOCK_RECORD
  5
589
330
1
100
AcDbSymbolTableRecord
100
AcDbBlockTableRecord
  2
*D9
340
0
  0
BLOCK_RECORD
  5
5BF
330
1
100
AcDbSymbolTableRecord
100
AcDbBlockTableRecord
  2
*D10
340
0
  0
ENDTAB
  0
ENDSEC
  0
SECTION
  2
BLOCKS
  0
BLOCK
  5
20
330
222
100
AcDbEntity
  8
0
100
AcDbBlockBegin
  2
*Model_Space
 70
     0
 10
0.0
 20
0.0
 30
0.0
  3
*Model_Space
  1

  0
ENDBLK
  5
21
330
222
100
AcDbEntity
  8
0
100
AcDbBlockEnd
  0
BLOCK
  5
1C
330
223
100
AcDbEntity
 67
     1
  8
0
100
AcDbBlockBegin
  2
*Paper_Space
 70
     0
 10
0.0
 20
0.0
 30
0.0
  3
*Paper_Space
  1

  0
ENDBLK
  5
1D
330
223
100
AcDbEntity
 67
     1
  8
0
100
AcDbBlockEnd
  0
BLOCK
  5
23F
330
224
100
AcDbEntity
  8
0
100
AcDbBlockBegin
  2
_FILLED
 70
     0
 10
0.0
 20
0.0
 30
0.0
  3
_FILLED
  1

  0
SOLID
  5
240
330
224
100
AcDbEntity
  8
0
  6
ByBlock
 62
     0
100
AcDbTrace
 10
0.0
 20
0.0
 30
0.0
 11
-1.0
 21
0.125
 31
0.0
 12
-1.0
 22
-0.125
 32
0.0
 13
-1.0
 23
-0.125
 33
0.0
  0
ENDBLK
  5
241
330
224
100
AcDbEntity
  8
0
  6
ByBlock
 62
     0
100
AcDbBlockEnd
  0
BLOCK
  5
242
330
225
100
AcDbEntity
  8
0
100
AcDbBlockBegin
  2
_DOTBLANK
 70
     0
 10
0.0
 20
0.0
 30
0.0
  3
_DOTBLANK
  1

  0
CIRCLE
  5
243
330
225
100
AcDbEntity
  8
0
  6
ByBlock
 62
     0
100
AcDbCircle
 10
0.0
 20
0.0
 30
0.0
 40
0.125
  0
LINE
  5
244
330
225
100
AcDbEntity
  8
0
  6
ByBlock
 62
     0
100
AcDbLine
 10
-1.0
 20
0.0
 30
0.0
 11
0.0
 21
0.0
 31
0.0
  0
ENDBLK
  5
245
330
225
100
AcDbEntity
  8
0
  6
ByBlock
 62
     0
100
AcDbBlockEnd
  0
BLOCK
  5
246
330
226
100
AcDbEntity
  8
ZEICHNUNGSBEMASSUNGEN
  6
Continuous
 62
     2
100
AcDbBlockBegin
  2
*D2
 70
     1
 10
0.0
 20
0.0
 30
0.0
  3
*D2
  1

  0
MTEXT
  5
247
330
226
100
AcDbEntity
  8
ZEICHNUNGSBEMASSUNGEN
  6
Continuous
 62
     5
100
AcDbMText
 10
169.6702223201
 20
145.3083361688
 30
0.0
 40
3.5
 41
5.25
 71
     2
 72
     1
  1
50
 11
0.0
 21
1.0
 31
0.0
 73
     1
 44
0.9
1001
ACAD
1000
MTEXTBEGIN
1070
    73
1070
     1
1070
    44
1040
0.9
1070
    74
1070
     0
1000
MTEXTEND
  0
LINE
  5
248
330
226
100
AcDbEntity
  8
ZEICHNUNGSBEMASSUNGEN
  6
Continuous
 62
     2
100
AcDbLine
 10
156.8868262832
 20
168.9933361688
 30
0.0
 11
173.1702223201
 21
168.9933361688
 31
0.0
  0
LINE
  5
249
330
226
100
AcDbEntity
  8
ZEICHNUNGSBEMASSUNGEN
  6
Continuous
 62
     2
100
AcDbLine
 10
173.1702223201
 20
168.9933361688
 30
0.0
 11
175.5452223201
 21
168.9933361688
 31
0.0
  0
LINE
  5
24A
330
226
100
AcDbEntity
  8
ZEICHNUNGSBEMASSUNGEN
  6
Continuous
 62
     2
100
AcDbLine
 10
141.9026694123
 20
121.6233361688
 30
0.0
 11
173.1702223201
 21
121.6233361688
 31
0.0
  0
LINE
  5
24B
330
226
100
AcDbEntity
  8
ZEICHNUNGSBEMASSUNGEN
  6
Continuous
 62
     2
100
AcDbLine
 10
173.1702223201
 20
121.6233361688
 30
0.0
 11
175.5452223201
 21
121.6233361688
 31
0.0
  0
LINE
  5
24C
330
226
100
AcDbEntity
  8
ZEICHNUNGSBEMASSUNGEN
  6
Continuous
 62
     2
100
AcDbLine
 10
174.0452223201
 20
168.9933361688
 30
0.0
 11
174.0452223201
 21
145.3083361688
 31
0.0
  0
LINE
  5
24D
330
226
100
AcDbEntity
  8
ZEICHNUNGSBEMASSUNGEN
  6
Continuous
 62
     2
100
AcDbLine
 10
174.0452223201
 20
121.6233361688
 30
0.0
 11
174.0452223201
 21
145.3083361688
 31
0.0
  0
INSERT
  5
24E
330
226
100
AcDbEntity
  8
ZEICHNUNGSBEMASSUNGEN
  6
Continuous
 62
     2
100
AcDbBlockReference
  2
_FILLED
 10
174.0452223201
 20
168.9933361688
 30
0.0
 41
3.5
 42
3.5
 43
3.5
 50
90.0
  0
INSERT
  5
24F
330
226
100
AcDbEntity
  8
ZEICHNUNGSBEMASSUNGEN
  6
Continuous
 62
     2
100
AcDbBlockReference
  2
_FILLED
 10
174.0452223201
 20
121.6233361688
 30
0.0
 41
3.5
 42
3.5
 43
3.5
 50
270.0
  0
ENDBLK
  5
250
330
226
100
AcDbEntity
  8
0
  6
ByBlock
 62
     0
100
AcDbBlockEnd
  0
BLOCK
  5
22C
330
227
100
AcDbEntity
  8
0
  6
Continuous
 62
     2
100
AcDbBlockBegin
  2
BALLOON_BL2
 70
     0
 10
50.70006708640001
 20
207.5562034504
 30
0.0
  3
BALLOON_BL2
  1

  0
CIRCLE
  5
22D
330
227
100
AcDbEntity
  8
0
  6
Continuous
 62
     2
100
AcDbCircle
 10
50.70006708640001
 20
207.5562034504
 30
0.0
 40
4.1955884318
  0
MTEXT
  5
22E
330
227
100
AcDbEntity
  8
0
  6
Continuous
 62
     5
100
AcDbMText
 10
48.99173375300001
 20
209.3062034504
 30
0.0
 40
3.5
 41
3.4166666667
 71
     1
 72
     1
  1
2
 73
     1
 44
0.9
1001
ACAD
1000
MTEXTBEGIN
1070
    73
1070
     1
1070
    44
1040
0.9
1070
    74
1070
     0
1000
MTEXTEND
  0
ENDBLK
  5
22F
330
227
100
AcDbEntity
  8
0
  6
ByBlock
 62
     0
100
AcDbBlockEnd
  0
BLOCK
  5
230
330
228
100
AcDbEntity
  8
0
  6
Continuous
 62
     2
100
AcDbBlockBegin
  2
BALLOON_BL1
 70
     0
 10
50.0015764119
 20
145.6574391763
 30
0.0
  3
BALLOON_BL1
  1

  0
CIRCLE
  5
231
330
228
100
AcDbEntity
  8
0
  6
Continuous
 62
     2
100
AcDbCircle
 10
50.0015764119
 20
145.6574391763
 30
0.0
 40
3.9500631304
  0
MTEXT
  5
232
330
228
100
AcDbEntity
  8
0
  6
Continuous
 62
     5
100
AcDbMText
 10
48.6682430785
 20
147.4074391763
 30
0.0
 40
3.5
 41
2.666666666699999
 71
     1
 72
     1
  1
1
 73
     1
 44
0.9
1001
ACAD
1000
MTEXTBEGIN
1070
    73
1070
     1
1070
    44
1040
0.9
1070
    74
1070
     0
1000
MTEXTEND
  0
ENDBLK
  5
233
330
228
100
AcDbEntity
  8
0
  6
ByBlock
 62
     0
100
AcDbBlockEnd
  0
BLOCK
  5
234
330
229
100
AcDbEntity
  8
0
  6
Continuous
 62
     2
100
AcDbBlockBegin
  2
SYMBOL_0_BL0
 70
     0
 10
111.4168489175
 20
32.6250038799
 30
0.0
  3
SYMBOL_0_BL0
  1

  0
LINE
  5
235
330
229
100
AcDbEntity
  8
0
  6
Continuous
 62
     7
100
AcDbLine
 10
205.0168553551
 20
60.2500057799
 30
0.0
 11
17.8168424798
 21
60.2500057799
 31
0.0
  0
LINE
  5
236
330
229
100
AcDbEntity
  8
0
  6
Continuous
 62
     7
100
AcDbLine
 10
17.8168424798
 20
60.2500057799
 30
0.0
 11
17.8168424798
 21
5.0000019799
 31
0.0
  0
LINE
  5
237
330
229
100
AcDbEntity
  8
0
  6
Continuous
 62
     7
100
AcDbLine
 10
17.8168424798
 20
5.0000019799
 30
0.0
 11
205.0168553551
 21
5.0000019799
 31
0.0
  0
LINE
  5
238
330
229
100
AcDbEntity
  8
0
  6
Continuous
 62
     7
100
AcDbLine
 10
205.0168553551
 20
5.0000019799
 30
0.0
 11
205.0168553551
 21
60.2500057799
 31
0.0
  0
LINE
  5
239
330
229
100
AcDbEntity
  8
0
  6
Continuous
 62
     7
100
AcDbLine
 10
72.4168462351
 20
60.2500057799
 30
0.0
 11
72.4168462351
 21
5.0000019799
 31
0.0
  0
LINE
  5
23A
330
229
100
AcDbEntity
  8
0
  6
Continuous
 62
     7
100
AcDbLine
 10
116.6168492751
 20
60.2500057799
 30
0.0
 11
116.6168492751
 21
5.0000019799
 31
0.0
  0
LINE
  5
23B
330
229
100
AcDbEntity
  8
0
  6
Continuous
 62
     7
100
AcDbLine
 10
17.8168424798
 20
43.2500046107
 30
0.0
 11
205.0168553551
 21
43.2500046107
 31
0.0
  0
LINE
  5
23C
330
229
100
AcDbEntity
  8
0
  6
Continuous
 62
     7
100
AcDbLine
 10
192.016854461
 20
22.0000031492
 30
0.0
 11
192.016854461
 21
9.250002272199999
 31
0.0
  0
LINE
  5
23D
330
229
100
AcDbEntity
  8
0
  6
Continuous
 62
     7
100
AcDbLine
 10
72.4168462351
 20
22.0000031492
 30
0.0
 11
205.0168553551
 21
22.0000031492
 31
0.0
  0
ENDBLK
  5
23E
330
229
100
AcDbEntity
  8
0
  6
ByBlock
 62
     0
100
AcDbBlockEnd
  0
BLOCK
  5
534
330
532
100
AcDbEntity
  8
0
100
AcDbBlockBegin
  2
GENAXEH
 70
     0
 10
0.0
 20
0.0
 30
0.0
  3
GENAXEH
  1

  0
LINE
  5
533
330
532
100
AcDbEntity
  8
0
100
AcDbLine
 10
-1.0
 20
0.0
 30
0.0
 11
1.0
 21
0.0
 31
0.0
  0
ENDBLK
  5
535
330
532
100
AcDbEntity
  8
0
100
AcDbBlockEnd
  0
BLOCK
  5
552
330
551
100
AcDbEntity
  8
0
100
AcDbBlockBegin
  2
*D8
 70
     1
 10
0.0
 20
0.0
 30
0.0
  3
*D8
  1

  0
LINE
  5
57E
330
551
100
AcDbEntity
  8
AM_5
 62
     0
370
    -2
100
AcDbLine
 10
141.3726694123
 20
121.6233361688
 30
0.0
 11
183.7065984917103
 21
121.6233361688
 31
0.0
  0
LINE
  5
57F
330
551
100
AcDbEntity
  8
AM_5
 62
     0
370
    -2
100
AcDbLine
 10
150.5081710605999
 20
168.9933361688
 30
0.0
 11
183.7065984917103
 21
168.9933361688
 31
0.0
  0
LINE
  5
580
330
551
100
AcDbEntity
  8
AM_5
 62
     0
370
    -2
100
AcDbLine
 10
177.3705984917103
 20
125.1233361688
 30
0.0
 11
177.3705984917103
 21
143.4683361688
 31
0.0
  0
LINE
  5
581
330
551
100
AcDbEntity
  8
AM_5
 62
     0
370
    -2
100
AcDbLine
 10
177.3705984917103
 20
165.4933361688
 30
0.0
 11
177.3705984917103
 21
147.1483361688
 31
0.0
  0
INSERT
  5
582
330
551
100
AcDbEntity
  8
AM_5
 62
     0
370
    -2
100
AcDbBlockReference
  2
_FILLED
 10
177.3705984917103
 20
121.6233361688
 30
0.0
 41
3.5
 42
3.5
 43
3.5
 50
270.0
  0
INSERT
  5
583
330
551
100
AcDbEntity
  8
AM_5
 62
     0
370
    -2
100
AcDbBlockReference
  2
_FILLED
 10
177.3705984917103
 20
168.9933361688
 30
0.0
 41
3.5
 42
3.5
 43
3.5
 50
90.0
  0
MTEXT
  5
584
330
551
100
AcDbEntity
  8
AM_5
 62
     0
100
AcDbMText
 10
177.3705984917103
 20
145.3083361688
 30
0.0
 40
3.5
 41
0.0
 71
     5
 72
     1
  1
\A1;50
 73
     1
 44
1.0
1001
ACAD
1000
MTEXTBEGIN
1070
    73
1070
     1
1070
    44
1040
1.0
1070
    74
1070
     0
1000
MTEXTEND
  0
POINT
  5
585
330
551
100
AcDbEntity
  8
Defpoints
 62
     0
100
AcDbPoint
 10
139.1726694123
 20
121.6233361688
 30
0.0
  0
POINT
  5
586
330
551
100
AcDbEntity
  8
Defpoints
 62
     0
100
AcDbPoint
 10
148.3081710606
 20
168.9933361688
 30
0.0
  0
POINT
  5
587
330
551
100
AcDbEntity
  8
Defpoints
 62
     0
100
AcDbPoint
 10
177.3705984917103
 20
168.9933361688
 30
0.0
  0
ENDBLK
  5
553
330
551
100
AcDbEntity
  8
0
100
AcDbBlockEnd
  0
BLOCK
  5
58A
330
589
100
AcDbEntity
  8
0
100
AcDbBlockBegin
  2
*D9
 70
     1
 10
0.0
 20
0.0
 30
0.0
  3
*D9
  1

  0
LINE
  5
5B4
330
589
100
AcDbEntity
  8
AM_5
 62
     0
370
    -2
100
AcDbLine
 10
162.2423532465
 20
189.2333361688
 30
0.0
 11
204.7933708822095
 21
189.2333361688
 31
0.0
  0
LINE
  5
5B5
330
589
100
AcDbEntity
  8
AM_5
 62
     0
370
    -2
100
AcDbLine
 10
148.3726694123
 20
105.3633361688
 30
0.0
 11
204.7933708822095
 21
105.3633361688
 31
0.0
  0
LINE
  5
5B6
330
589
100
AcDbEntity
  8
AM_5
 62
     0
370
    -2
100
AcDbLine
 10
198.4573708822095
 20
185.7333361688
 30
0.0
 11
198.4573708822095
 21
149.1383361688
 31
0.0
  0
LINE
  5
5B7
330
589
100
AcDbEntity
  8
AM_5
 62
     0
370
    -2
100
AcDbLine
 10
198.4573708822095
 20
108.8633361687999
 30
0.0
 11
198.4573708822095
 21
145.4583361687999
 31
0.0
  0
INSERT
  5
5B8
330
589
100
AcDbEntity
  8
AM_5
 62
     0
370
    -2
100
AcDbBlockReference
  2
_FILLED
 10
198.4573708822095
 20
189.2333361688
 30
0.0
 41
3.5
 42
3.5
 43
3.5
 50
90.0
  0
INSERT
  5
5B9
330
589
100
AcDbEntity
  8
AM_5
 62
     0
370
    -2
100
AcDbBlockReference
  2
_FILLED
 10
198.4573708822095
 20
105.3633361688
 30
0.0
 41
3.5
 42
3.5
 43
3.5
 50
270.0
  0
MTEXT
  5
5BA
330
589
100
AcDbEntity
  8
AM_5
 62
     0
100
AcDbMText
 10
198.4573708822095
 20
147.2983361688
 30
0.0
 40
3.5
 41
0.0
 71
     5
 72
     1
  1
\A1;84
 73
     1
 44
1.0
1001
ACAD
1000
MTEXTBEGIN
1070
    73
1070
     1
1070
    44
1040
1.0
1070
    74
1070
     0
1000
MTEXTEND
  0
POINT
  5
5BB
330
589
100
AcDbEntity
  8
Defpoints
 62
     0
100
AcDbPoint
 10
160.0423532465
 20
189.2333361688
 30
0.0
  0
POINT
  5
5BC
330
589
100
AcDbEntity
  8
Defpoints
 62
     0
100
AcDbPoint
 10
146.1726694123
 20
105.3633361688
 30
0.0
  0
POINT
  5
5BD
330
589
100
AcDbEntity
  8
Defpoints
 62
     0
100
AcDbPoint
 10
198.4573708822095
 20
105.3633361688
 30
0.0
  0
ENDBLK
  5
58B
330
589
100
AcDbEntity
  8
0
100
AcDbBlockEnd
  0
BLOCK
  5
5C0
330
5BF
100
AcDbEntity
  8
0
100
AcDbBlockBegin
  2
*D10
 70
     1
 10
0.0
 20
0.0
 30
0.0
  3
*D10
  1

  0
LINE
  5
5FD
330
5BF
100
AcDbEntity
  8
AM_5
 62
     0
370
    -2
100
AcDbLine
 10
68.70016075287582
 20
190.9754178656009
 30
0.0
 11
68.70016075287582
 21
207.111417865601
 31
0.0
  0
LINE
  5
5FE
330
5BF
100
AcDbEntity
  8
AM_5
 62
     0
370
    -2
100
AcDbLine
 10
161.6795095648705
 20
190.7923517255469
 30
0.0
 11
161.6795095648705
 21
207.111417865601
 31
0.0
  0
LINE
  5
5FF
330
5BF
100
AcDbEntity
  8
AM_5
 62
     0
370
    -2
100
AcDbLine
 10
72.20016075287581
 20
200.775417865601
 30
0.0
 11
111.8331684922065
 21
200.775417865601
 31
0.0
  0
LINE
  5
600
330
5BF
100
AcDbEntity
  8
AM_5
 62
     0
370
    -2
100
AcDbLine
 10
158.1795095648705
 20
200.775417865601
 30
0.0
 11
118.5465018255398
 21
200.775417865601
 31
0.0
  0
INSERT
  5
601
330
5BF
100
AcDbEntity
  8
AM_5
 62
     0
370
    -2
100
AcDbBlockReference
  2
_FILLED
 10
68.70016075287582
 20
200.775417865601
 30
0.0
 41
3.5
 42
3.5
 43
3.5
 50
180.0
  0
INSERT
  5
602
330
5BF
100
AcDbEntity
  8
AM_5
 62
     0
370
    -2
100
AcDbBlockReference
  2
_FILLED
 10
161.6795095648705
 20
200.775417865601
 30
0.0
 41
3.5
 42
3.5
 43
3.5
  0
MTEXT
  5
603
330
5BF
100
AcDbEntity
  8
AM_5
 62
     0
100
AcDbMText
 10
115.1898351588732
 20
200.775417865601
 30
0.0
 40
3.5
 41
0.0
 71
     5
 72
     1
  1
\A1;%%c93
 73
     1
 44
1.0
1001
ACAD
1000
MTEXTBEGIN
1070
    73
1070
     1
1070
    44
1040
1.0
1070
    74
1070
     0
1000
MTEXTEND
  0
POINT
  5
604
330
5BF
100
AcDbEntity
  8
Defpoints
 62
     0
100
AcDbPoint
 10
68.70016075287582
 20
188.7754178656009
 30
0.0
  0
POINT
  5
605
330
5BF
100
AcDbEntity
  8
Defpoints
 62
     0
100
AcDbPoint
 10
161.6795095648705
 20
188.5923517255469
 30
0.0
  0
POINT
  5
606
330
5BF
100
AcDbEntity
  8
Defpoints
 62
     0
100
AcDbPoint
 10
161.6795095648705
 20
200.775417865601
 30
0.0
  0
ENDBLK
  5
5C1
330
5BF
100
AcDbEntity
  8
0
100
AcDbBlockEnd
  0
ENDSEC
  0
SECTION
  2
ENTITIES
  0
IMAGE
  5
251
330
222
100
AcDbEntity
  8
0
  6
Continuous
 62
     7
 92
      140
310
8C000000010000008400000006000000050000004E4BB7235F485240C65930B050AD224000000000000000004E4BB7235F48524078586FAF28B335400000000000000000E4727853F5045C4078586FAF28B335400000000000000000E4727853F5045C40C65930B050AD224000000000000000004E4BB7235F485240C65930
310
B050AD22400000000000000000
100
AcDbRasterImage
 90
        0
 10
73.13080685520001
 20
9.338506227399999
 30
0.0
 11
0.1693333333
 21
0.0
 31
0.0
 12
0.0
 22
0.1693333333
 32
0.0
 13
230.0
 23
73.0
340
45C
 70
     1
280
     0
281
    50
282
    50
283
     0
360
457
 71
     1
 91
        2
 14
-0.5
 24
-0.5
 14
229.5
 24
72.5
  0
HATCH
  5
261
330
222
100
AcDbEntity
  8
0
  6
Continuous
 62
     2
100
AcDbHatch
 10
0.0
 20
0.0
 30
0.0
210
0.0
220
0.0
230
1.0
  2
A
 70
     0
 71
     0
 91
        2
 92
        1
 93
       12
 72
     1
 10
120.2629810223
 20
184.7887714127999
 11
120.124686504
 21
176.8658837624
 72
     4
 94
        3
 73
     1
 74
     0
 95
        8
 96
        4
 40
0.0
 40
0.0
 40
0.0
 40
0.0
 40
1.0
 40
1.0
 40
1.0
 40
1.0
 10
120.2629810223
 20
184.7887714127999
 42
1.0
 10
120.2740249823
 20
185.4214794558
 42
0.7808588349
 10
120.7503995775
 20
185.838023189
 42
0.7808588349
 10
121.3789249566
 20
185.7645569755
 42
1.0
 72
     4
 94
        3
 73
     1
 74
     0
 95
        8
 96
        4
 40
0.0
 40
0.0
 40
0.0
 40
0.0
 40
1.0
 40
1.0
 40
1.0
 40
1.0
 10
121.3789249566
 20
185.7645569755
 42
1.0
 10
121.6437051791
 20
185.7336077076
 42
0.9999873849
 10
121.9082899963
 20
185.7010301411
 42
0.9999873849
 10
122.1726693951
 20
185.6668255091
 42
1.0
 72
     1
 10
122.1726694123
 20
185.3070668795
 11
122.1726694123
 21
185.6668255069
 72
     4
 94
        3
 73
     1
 74
     0
 95
        8
 96
        4
 40
0.0
 40
0.0
 40
0.0
 40
0.0
 40
1.0
 40
1.0
 40
1.0
 40
1.0
 10
121.1051953679
 20
185.4444706393
 42
1.0
 10
121.4613934747
 20
185.40160234
 42
0.9999773612999998
 10
121.8172262059
 20
185.3558000506
 42
0.9999773612999998
 10
122.1726693949
 20
185.3070668819
 42
1.0
 72
     4
 94
        3
 73
     1
 74
     0
 95
        8
 96
        4
 40
0.0
 40
0.0
 40
0.0
 40
0.0
 40
1.0
 40
1.0
 40
1.0
 40
1.0
 10
120.7693948452
 20
185.1518556454
 42
1.0
 10
120.772716744
 20
185.342167098
 42
0.780014475
 10
120.9162185778
 20
185.4672139202
 42
0.780014475
 10
121.1051953679
 20
185.4444706393
 42
1.0
 72
     1
 10
120.7693948452
 20
185.1518556454
 11
120.6246103516
 21
176.8571575591999
 72
     4
 94
        3
 73
     1
 74
     0
 95
        8
 96
        4
 40
0.0
 40
0.0
 40
0.0
 40
0.0
 40
1.0
 40
1.0
 40
1.0
 40
1.0
 10
120.6246103516
 20
176.8571575591999
 42
1.0
 10
120.6094866563
 20
175.9907216395999
 42
0.8088336328
 10
119.9914067109
 20
175.3833361688
 42
0.8088336328
 10
119.1248388088
 20
175.3833361688
 42
1.0
 72
     1
 10
119.1248388088
 20
175.3833361688
 11
118.1726694123
 21
175.3833361688
 72
     1
 10
118.1726694123
 20
175.8833361688
 11
118.1726694123
 21
175.3833361688
 72
     1
 10
119.1248388088
 20
175.8833361688
 11
118.1726694123
 21
175.8833361688
 72
     4
 94
        3
 73
     1
 74
     0
 95
        8
 96
        4
 40
0.0
 40
0.0
 40
0.0
 40
0.0
 40
1.0
 40
1.0
 40
1.0
 40
1.0
 10
120.124686504
 20
176.8658837624
 42
1.0
 10
120.1146040405
 20
176.288259816
 42
0.8088336328
 10
119.7025507436
 20
175.8833361688
 42
0.8088336328
 10
119.1248388088
 20
175.8833361688
 42
1.0
 97
        0
 92
        1
 93
       15
 72
     1
 10
110.0823578023
 20
184.7887714127999
 11
110.0964167268
 21
183.9833361688
 72
     1
 10
110.0964167268
 20
183.9833361688
 11
110.2206523206
 21
176.8658837624
 72
     4
 94
        3
 73
     1
 74
     0
 95
        8
 96
        4
 40
0.0
 40
0.0
 40
0.0
 40
0.0
 40
1.0
 40
1.0
 40
1.0
 40
1.0
 10
110.2206523206
 20
176.8658837624
 42
1.0
 10
110.2307347841
 20
176.288259816
 42
0.8088336328
 10
110.6427880811
 20
175.8833361688
 42
0.8088336328
 10
111.2205000158
 20
175.8833361688
 42
1.0
 72
     1
 10
112.1726694123
 20
175.8833361688
 11
111.2205000158
 21
175.8833361688
 72
     1
 10
112.1726694123
 20
175.8833361688
 11
112.1726694123
 21
175.3833361688
 72
     1
 10
112.1726694123
 20
175.3833361688
 11
111.2205000158
 21
175.3833361688
 72
     4
 94
        3
 73
     1
 74
     0
 95
        8
 96
        4
 40
0.0
 40
0.0
 40
0.0
 40
0.0
 40
1.0
 40
1.0
 40
1.0
 40
1.0
 10
109.7207284731
 20
176.8571575591999
 42
1.0
 10
109.7358521683
 20
175.9907216395999
 42
0.8088336328
 10
110.3539321137
 20
175.3833361688
 42
0.8088336328
 10
111.2205000158
 20
175.3833361688
 42
1.0
 72
     1
 10
109.6015036945999
 20
183.6875405448
 11
109.7207284731
 21
176.8571575591999
 72
     4
 94
        3
 73
     1
 74
     0
 95
        8
 96
        4
 40
0.0
 40
0.0
 40
0.0
 40
0.0
 40
1.0
 40
1.0
 40
1.0
 40
1.0
 10
109.6015038569
 20
183.6875404241
 42
1.0
 10
109.5984642475
 20
183.8616842971999
 42
0.8073853273999999
 10
109.4738600023
 20
183.9833769833
 42
0.8073853273999999
 10
109.299692939
 20
183.9822990918
 42
1.0
 72
     2
 10
109.6032198701
 20
130.0927692374
 40
53.8903846262
 50
90.32270827379999
 51
107.3640620432
 73
     1
 72
     4
 94
        3
 73
     1
 74
     0
 95
        8
 96
        4
 40
0.0
 40
0.0
 40
0.0
 40
0.0
 40
1.0
 40
1.0
 40
1.0
 40
1.0
 10
93.5200533066
 20
181.5272451757
 42
1.0
 10
93.50937588870001
 20
181.5239195113
 42
0.9996249739999999
 10
93.49881601159999
 20
181.5202376242
 42
0.9996249739999999
 10
93.488385556
 20
181.5162036569
 42
1.0
 72
     4
 94
        3
 73
     1
 74
     0
 95
        8
 96
        4
 40
0.0
 40
0.0
 40
0.0
 40
0.0
 40
1.0
 40
1.0
 40
1.0
 40
1.0
 10
93.4883855526
 20
181.5162037125
 42
1.0
 10
92.29112222270002
 20
181.0531680488
 42
0.9997102702999999
 10
91.10802895739999
 20
180.5550397196
 42
0.9997102702999999
 10
89.94013408849999
 20
180.0222516924
 42
1.0
 72
     1
 10
90.17266941229999
 20
180.6280269217
 11
89.94013408849999
 21
180.0222516924
 72
     4
 94
        3
 73
     1
 74
     0
 95
        8
 96
        4
 40
0.0
 40
0.0
 40
0.0
 40
0.0
 40
1.0
 40
1.0
 40
1.0
 40
1.0
 10
108.966413868
 20
185.7645569755
 42
1.0
 10
102.4670459735
 20
185.0048677642
 42
0.9924705222
 10
96.1549376085
 20
183.2797014784
 42
0.9924705222
 10
90.17266941229999
 20
180.6280269217
 42
1.0
 72
     4
 94
        3
 73
     1
 74
     0
 95
        8
 96
        4
 40
0.0
 40
0.0
 40
0.0
 40
0.0
 40
1.0
 40
1.0
 40
1.0
 40
1.0
 10
110.0823578023
 20
184.7887714127999
 42
1.0
 10
110.0713138423
 20
185.4214794558
 42
0.7808588349
 10
109.5949392471
 20
185.838023189
 42
0.7808588349
 10
108.966413868
 20
185.7645569755
 42
1.0
 97
        0
 75
     0
 76
     0
 52
45.0
 41
0.0113000619
 77
     0
 78
     2
 53
45.0
 43
0.0
 44
0.0
 45
-0.0079903504
 46
0.0079903504
 79
     0
 53
285.0
 43
0.0
 44
0.0
 45
0.0019466852
 46
0.0005216127
 79
     0
 98
        1
 10
0.0
 20
0.0
  0
HATCH
  5
262
330
222
100
AcDbEntity
  8
0
  6
Continuous
 62
     2
100
AcDbHatch
 10
0.0
 20
0.0
 30
0.0
210
0.0
220
0.0
230
1.0
  2
DEFAULT__1
 70
     0
 71
     0
 91
        1
 92
        1
 93
       52
 72
     1
 10
75.15227892209999
 20
122.4183280476
 11
73.95954033159999
 21
167.9671771609
 72
     4
 94
        3
 73
     1
 74
     0
 95
       11
 96
        7
 40
0.0
 40
0.0
 40
0.0
 40
0.0
 40
1.0
 40
1.0
 40
1.0
 40
2.0
 40
2.0
 40
2.0
 40
2.0
 10
73.9588552164
 20
167.9671592205
 42
1.0
 10
73.94352111509999
 20
168.5527449238
 42
0.8047378541
 10
74.34674988979999
 20
168.9776593925
 42
0.8047378541
 10
74.93233559310001
 20
168.9929934938
 42
1.0
 10
75.5179212963
 20
169.0083275951
 42
0.8047378541
 10
75.9428357651
 20
168.6050988204
 42
0.8047378541
 10
75.9581698664
 20
168.0195131171
 42
1.0
 72
     1
 10
77.163658214
 20
121.9837704184
 11
75.9581698664
 21
168.0195131171
 72
     4
 94
        3
 73
     1
 74
     0
 95
        8
 96
        4
 40
0.0
 40
0.0
 40
0.0
 40
0.0
 40
1.0
 40
1.0
 40
1.0
 40
1.0
 10
91.65868942620001
 20
107.8633361688
 42
1.0
 10
83.3400628529
 20
107.8633361688
 42
0.8108679623
 10
77.3814144719
 20
113.6679944307
 42
0.8108679623
 10
77.163658214
 20
121.9837704184
 42
1.0
 72
     1
 10
91.65868942620001
 20
107.8633361688
 11
102.9679198497
 21
107.8633361688
 72
     4
 94
        3
 73
     1
 74
     0
 95
        8
 96
        4
 40
0.0
 40
0.0
 40
0.0
 40
0.0
 40
1.0
 40
1.0
 40
1.0
 40
1.0
 10
108.9670060206
 20
113.7586217302
 42
1.0
 10
108.9065112397
 20
110.2928780518
 42
0.8088336328
 10
106.4341914581
 20
107.8633361688
 42
0.8088336328
 10
102.9679198497
 20
107.8633361688
 42
1.0
 72
     1
 10
108.9670060206
 20
113.7586217302
 11
110.0426694123
 21
175.3833361688
 72
     1
 10
110.0426694123
 20
175.3833361688
 11
112.2760799579
 21
175.3833361688
 72
     1
 10
112.2760799579
 20
175.3833361688
 11
112.5240941963
 21
189.5920623721
 72
     4
 94
        3
 73
     1
 74
     0
 95
        8
 96
        4
 40
0.0
 40
0.0
 40
0.0
 40
0.0
 40
1.0
 40
1.0
 40
1.0
 40
1.0
 10
112.5240941963
 20
189.5920623721
 42
1.0
 10
112.529135428
 20
189.8808743453
 42
0.8088336328
 10
112.7351620765
 20
190.0833361688
 42
0.8088336328
 10
113.0240180439
 20
190.0833361688
 42
1.0
 72
     1
 10
113.0240180439
 20
190.0833361688
 11
117.3213207807
 21
190.0833361688
 72
     4
 94
        3
 73
     1
 74
     0
 95
        8
 96
        4
 40
0.0
 40
0.0
 40
0.0
 40
0.0
 40
1.0
 40
1.0
 40
1.0
 40
1.0
 10
117.8212446283
 20
189.5920623721
 42
1.0
 10
117.8162033966
 20
189.8808743453
 42
0.8088336328
 10
117.6101767481
 20
190.0833361688
 42
0.8088336328
 10
117.3213207807
 20
190.0833361688
 42
1.0
 72
     1
 10
118.0692588668
 20
175.3833361688
 11
117.8212446283
 21
189.5920623721
 72
     1
 10
118.0692588668
 20
175.3833361688
 11
120.3026694123
 21
175.3833361688
 72
     1
 10
121.378332804
 20
113.7586217302
 11
120.3026694123
 21
175.3833361688
 72
     4
 94
        3
 73
     1
 74
     0
 95
        8
 96
        4
 40
0.0
 40
0.0
 40
0.0
 40
0.0
 40
1.0
 40
1.0
 40
1.0
 40
1.0
 10
121.378332804
 20
113.7586217302
 42
1.0
 10
121.4388275849
 20
110.2928780518
 42
0.8088336328
 10
123.9111473665
 20
107.8633361688
 42
0.8088336328
 10
127.377418975
 20
107.8633361688
 42
1.0
 72
     1
 10
127.377418975
 20
107.8633361688
 11
138.6866493984
 21
107.8633361688
 72
     4
 94
        3
 73
     1
 74
     0
 95
        8
 96
        4
 40
0.0
 40
0.0
 40
0.0
 40
0.0
 40
1.0
 40
1.0
 40
1.0
 40
1.0
 10
138.6866493984
 20
107.8633361688
 42
1.0
 10
147.0052759717
 20
107.8633361688
 42
0.8108679623
 10
152.9639243528
 20
113.6679944307
 42
0.8108679623
 10
153.1816806105999
 20
121.9837704184
 42
1.0
 72
     1
 10
153.1816806105999
 20
121.9837704184
 11
154.3871689583
 21
168.0195131171
 72
     4
 94
        3
 73
     1
 74
     0
 95
       11
 96
        7
 40
0.0
 40
0.0
 40
0.0
 40
0.0
 40
1.0
 40
1.0
 40
1.0
 40
2.0
 40
2.0
 40
2.0
 40
2.0
 10
156.3864836082
 20
167.9671592205
 42
1.0
 10
156.4018177095
 20
168.5527449238
 42
0.8047378541
 10
155.9985889348
 20
168.9776593925
 42
0.8047378541
 10
155.4130032315
 20
168.9929934938
 42
1.0
 10
154.8274175283
 20
169.0083275951
 42
0.8047378541
 10
154.4025030596
 20
168.6050988204
 42
0.8047378541
 10
154.3871689583
 20
168.0195131171
 42
1.0
 72
     1
 10
155.1930599026
 20
122.4183280476
 11
156.385798493
 21
167.9671771609
 72
     4
 94
        3
 73
     1
 74
     0
 95
        8
 96
        4
 40
0.0
 40
0.0
 40
0.0
 40
0.0
 40
1.0
 40
1.0
 40
1.0
 40
1.0
 10
147.6726694123
 20
108.7478334831
 42
1.0
 10
152.3378639698
 20
111.878933147
 42
0.9256594049
 10
155.045984059
 20
116.8017281811
 42
0.9256594049
 10
155.1930599026
 20
122.4183280476
 42
1.0
 72
     1
 10
146.6726694123
 20
105.3633361688
 11
147.6726694123
 21
108.7478334831
 72
     1
 10
146.1726694123
 20
105.3633361688
 11
146.6726694123
 21
105.3633361688
 72
     1
 10
146.1726694123
 20
105.3633361688
 11
145.6726694123
 21
105.8633361688
 72
     1
 10
127.3066738095
 20
105.8633361688
 11
145.6726694123
 21
105.8633361688
 72
     4
 94
        3
 73
     1
 74
     0
 95
        8
 96
        4
 40
0.0
 40
0.0
 40
0.0
 40
0.0
 40
1.0
 40
1.0
 40
1.0
 40
1.0
 10
119.3080949904
 20
113.7125486511
 42
1.0
 10
119.3951097493
 20
109.0968190624
 42
0.8091597348999998
 10
122.6901241016
 20
105.8633361688
 42
0.8091597348999998
 10
127.3066738095
 20
105.8633361688
 42
1.0
 72
     1
 10
119.3080949904
 20
113.7125486511
 11
119.1307827363
 21
123.1181417774
 72
     4
 94
        3
 73
     1
 74
     0
 95
        8
 96
        4
 40
0.0
 40
0.0
 40
0.0
 40
0.0
 40
1.0
 40
1.0
 40
1.0
 40
1.0
 10
119.1307827363
 20
123.1181417774
 42
1.0
 10
119.1280976707
 20
123.2605720577
 42
0.8128314437
 10
119.0272123976
 20
123.3611491723
 42
0.8128314437
 10
118.8847745696
 20
123.3633985013
 42
1.0
 72
     4
 94
        3
 73
     1
 74
     0
 95
        8
 96
        4
 40
0.0
 40
0.0
 40
0.0
 40
0.0
 40
1.0
 40
1.0
 40
1.0
 40
1.0
 10
118.865937437
 20
124.362621059
 42
1.0
 10
117.9326142115
 20
124.3126504432
 42
0.3564219803
 10
117.9502310941
 20
123.3781564886
 42
0.3564219803
 10
118.8847745696
 20
123.3633985013
 42
1.0
 72
     4
 94
        3
 73
     1
 74
     0
 95
        8
 96
        4
 40
0.0
 40
0.0
 40
0.0
 40
0.0
 40
1.0
 40
1.0
 40
1.0
 40
1.0
 10
118.865937437
 20
124.362621059
 42
1.0
 10
119.0081892815
 20
124.3702372973999
 42
0.8128314437
 10
119.1052121031
 20
124.4745453336
 42
0.8128314437
 10
119.1025270375
 20
124.6169756139
 42
1.0
 72
     1
 10
119.1025270375
 20
124.6169756139
 11
118.2214671815
 21
171.3531167036
 72
     4
 94
        3
 73
     1
 74
     0
 95
        8
 96
        4
 40
0.0
 40
0.0
 40
0.0
 40
0.0
 40
1.0
 40
1.0
 40
1.0
 40
1.0
 10
118.2214671815
 20
171.3531167036
 42
1.0
 10
118.2095190579
 20
171.9869092729999
 42
0.8950263037999999
 10
117.8580696656
 20
172.5144688463
 42
0.8950263037999999
 10
117.2777978299
 20
172.7696557883
 42
1.0
 72
     4
 94
        3
 73
     1
 74
     0
 95
        8
 96
        4
 40
0.0
 40
0.0
 40
0.0
 40
0.0
 40
1.0
 40
1.0
 40
1.0
 40
1.0
 10
116.0832289779
 20
174.5655353039
 42
1.0
 10
116.0972522109
 20
173.7621448193
 42
0.8947754749999999
 10
116.5422684507
 20
173.0931205534999
 42
0.8947754749999999
 10
117.2777978299
 20
172.7696557883
 42
1.0
 72
     1
 10
116.0832289779
 20
174.5655353039
 11
115.8689414008
 21
186.8420623721
 72
     4
 94
        3
 73
     1
 74
     0
 95
        8
 96
        4
 40
0.0
 40
0.0
 40
0.0
 40
0.0
 40
1.0
 40
1.0
 40
1.0
 40
1.0
 10
115.8689414008
 20
186.8420623721
 42
1.0
 10
115.863900169
 20
187.1308743452999
 42
0.8088336328
 10
115.6578735206
 20
187.3333361688
 42
0.8088336328
 10
115.3690175532
 20
187.3333361688
 42
1.0
 72
     1
 10
114.9763212714
 20
187.3333361688
 11
115.3690175532
 21
187.3333361688
 72
     4
 94
        3
 73
     1
 74
     0
 95
        8
 96
        4
 40
0.0
 40
0.0
 40
0.0
 40
0.0
 40
1.0
 40
1.0
 40
1.0
 40
1.0
 10
114.4763974238
 20
186.8420623721
 42
1.0
 10
114.4814386556
 20
187.1308743452999
 42
0.8088336328
 10
114.687465304
 20
187.3333361688
 42
0.8088336328
 10
114.9763212714
 20
187.3333361688
 42
1.0
 72
     1
 10
114.2621098468
 20
174.5655353039
 11
114.4763974238
 21
186.8420623721
 72
     4
 94
        3
 73
     1
 74
     0
 95
        8
 96
        4
 40
0.0
 40
0.0
 40
0.0
 40
0.0
 40
1.0
 40
1.0
 40
1.0
 40
1.0
 10
114.2621098468
 20
174.5655353039
 42
1.0
 10
114.2480866137
 20
173.7621448193
 42
0.8947754749999999
 10
113.8030703739
 20
173.0931205534999
 42
0.8947754749999999
 10
113.0675409947
 20
172.7696557883
 42
1.0
 72
     4
 94
        3
 73
     1
 74
     0
 95
        8
 96
        4
 40
0.0
 40
0.0
 40
0.0
 40
0.0
 40
1.0
 40
1.0
 40
1.0
 40
1.0
 10
112.1238716431
 20
171.3531167036
 42
1.0
 10
112.1358197667
 20
171.9869092729999
 42
0.8950263037999999
 10
112.487269159
 20
172.5144688463
 42
0.8950263037999999
 10
113.0675409947
 20
172.7696557883
 42
1.0
 72
     1
 10
111.2428117871
 20
124.6169756139
 11
112.1238716431
 21
171.3531167036
 72
     4
 94
        3
 73
     1
 74
     0
 95
        8
 96
        4
 40
0.0
 40
0.0
 40
0.0
 40
0.0
 40
1.0
 40
1.0
 40
1.0
 40
1.0
 10
111.4794013876
 20
124.362621059
 42
1.0
 10
111.3371495432
 20
124.3702372973999
 42
0.8128314437
 10
111.2401267216
 20
124.4745453336
 42
0.8128314437
 10
111.2428117871
 20
124.6169756139
 42
1.0
 72
     4
 94
        3
 73
     1
 74
     0
 95
        8
 96
        4
 40
0.0
 40
0.0
 40
0.0
 40
0.0
 40
1.0
 40
1.0
 40
1.0
 40
1.0
 10
111.4794013876
 20
124.362621059
 42
1.0
 10
112.4127246131
 20
124.3126504432
 42
0.3564219803
 10
112.3951077305
 20
123.3781564886
 42
0.3564219803
 10
111.4605642551
 20
123.3633985013
 42
1.0
 72
     4
 94
        3
 73
     1
 74
     0
 95
        8
 96
        4
 40
0.0
 40
0.0
 40
0.0
 40
0.0
 40
1.0
 40
1.0
 40
1.0
 40
1.0
 10
111.2145560883
 20
123.1181417774
 42
1.0
 10
111.2172411539
 20
123.2605720577
 42
0.8128314437
 10
111.318126427
 20
123.3611491723
 42
0.8128314437
 10
111.4605642551
 20
123.3633985013
 42
1.0
 72
     1
 10
111.0372438342
 20
113.7125486511
 11
111.2145560883
 21
123.1181417774
 72
     4
 94
        3
 73
     1
 74
     0
 95
        8
 96
        4
 40
0.0
 40
0.0
 40
0.0
 40
0.0
 40
1.0
 40
1.0
 40
1.0
 40
1.0
 10
111.0372438342
 20
113.7125486511
 42
1.0
 10
110.9502290753
 20
109.0968190624
 42
0.8091597348999998
 10
107.655214723
 20
105.8633361688
 42
0.8091597348999998
 10
103.0386650152
 20
105.8633361688
 42
1.0
 72
     1
 10
84.67266941229999
 20
105.8633361688
 11
103.0386650152
 21
105.8633361688
 72
     1
 10
84.1726694123
 20
105.3633361688
 11
84.67266941229999
 21
105.8633361688
 72
     1
 10
83.67266941229999
 20
105.3633361688
 11
84.1726694123
 21
105.3633361688
 72
     1
 10
83.67266941229999
 20
105.3633361688
 11
82.67266941229999
 21
108.7478334831
 72
     4
 94
        3
 73
     1
 74
     0
 95
        8
 96
        4
 40
0.0
 40
0.0
 40
0.0
 40
0.0
 40
1.0
 40
1.0
 40
1.0
 40
1.0
 10
82.67266941229999
 20
108.7478334831
 42
1.0
 10
78.00747485479999
 20
111.878933147
 42
0.9256594049
 10
75.2993547656
 20
116.8017281811
 42
0.9256594049
 10
75.15227892209999
 20
122.4183280476
 42
1.0
 97
        0
 75
     0
 76
     0
 52
325.0
 41
7.1876423201
 77
     0
 78
     1
 53
325.0
 43
0.0
 44
0.0
 45
4.122662267699999
 46
5.887771900099999
 79
     0
 98
        1
 10
0.0
 20
0.0
  0
HATCH
  5
263
330
222
100
AcDbEntity
  8
0
  6
Continuous
 62
     2
100
AcDbHatch
 10
0.0
 20
0.0
 30
0.0
210
0.0
220
0.0
230
1.0
  2
DEFAULT__2
 70
     0
 71
     0
 91
        2
 92
        1
 93
       34
 72
     4
 94
        3
 73
     0
 74
     0
 95
       17
 96
       13
 40
0.0
 40
0.0
 40
0.0
 40
0.0
 40
0.0014241623
 40
0.0810460626
 40
0.2402898632
 40
0.3597227137
 40
0.4791555642
 40
0.5985884147000001
 40
0.7180212652
 40
0.8772650657999999
 40
0.9568869662
 40
1.0
 40
1.0
 40
1.0
 40
1.0
 10
89.59830781219999
 20
185.4625828022
 10
89.60642498410001
 20
185.4695075206
 10
90.06854747270001
 20
185.8631840883
 10
91.47091287909999
 20
186.9638989327
 10
93.6900433345
 20
188.3337355427
 10
96.28628911860001
 20
189.5578038306
 10
98.7033910114
 20
190.4601920469
 10
101.1795759951
 20
191.1963844249
 10
103.9804625727
 20
191.850137123
 10
106.5403365694
 20
192.2792141744
 10
108.5688744113
 20
192.5228742305
 10
109.4535665838
 20
192.6093671975
 10
109.7644555463
 20
192.6374334591
 72
     4
 94
        3
 73
     1
 74
     0
 95
        8
 96
        4
 40
0.0
 40
0.0
 40
0.0
 40
0.0
 40
1.0
 40
1.0
 40
1.0
 40
1.0
 10
109.7644734519
 20
192.6374282525
 42
1.0
 10
109.9223051446
 20
192.6516792587
 42
0.9815976218999999
 10
110.0724548624
 20
192.7023645293
 42
0.9815976218999999
 10
110.2066332697
 20
192.7866858755
 42
1.0
 72
     4
 94
        3
 73
     1
 74
     0
 95
        8
 96
        4
 40
0.0
 40
0.0
 40
0.0
 40
0.0
 40
1.0
 40
1.0
 40
1.0
 40
1.0
 10
110.4726694123
 20
192.8633361688
 42
1.0
 10
110.3779141094
 20
192.8633361688
 42
0.9739405438999998
 10
110.286862714
 20
192.8371023963
 42
0.9739405438999998
 10
110.2066334756
 20
192.7866857648
 42
1.0
 72
     1
 10
110.4726694123
 20
192.8633361688
 11
119.8726694123
 21
192.8633361688
 72
     4
 94
        3
 73
     1
 74
     0
 95
        8
 96
        4
 40
0.0
 40
0.0
 40
0.0
 40
0.0
 40
1.0
 40
1.0
 40
1.0
 40
1.0
 10
119.8726694123
 20
192.8633361688
 42
1.0
 10
120.153878855
 20
192.8633361688
 42
0.8165782089
 10
120.3577183883
 20
192.6696142151
 42
0.8165782089
 10
120.3720221751
 20
192.3887687908
 42
1.0
 72
     4
 94
        3
 73
     1
 74
     0
 95
        8
 96
        4
 40
0.0
 40
0.0
 40
0.0
 40
0.0
 40
1.0
 40
1.0
 40
1.0
 40
1.0
 10
120.7076353737
 20
191.6910849819
 42
1.0
 10
120.5038746959
 20
191.8715803297
 42
0.9480277965
 10
120.3858669032
 20
192.1168784041
 42
0.9480277965
 10
120.3720113706
 20
192.3887331606
 42
1.0
 72
     4
 94
        3
 73
     0
 74
     0
 95
       13
 96
        9
 40
0.0
 40
0.0
 40
0.0
 40
0.0
 40
0.1666666667
 40
0.3333333333
 40
0.5
 40
0.6666666667
 40
0.8333333333
 40
1.0
 40
1.0
 40
1.0
 40
1.0
 10
120.7076524537
 20
191.6911033359
 10
120.8073976823
 20
191.6027486913
 10
120.969390399
 20
191.4154548372
 10
121.116549911
 20
191.1123464396
 10
121.1611158204
 20
190.8064538477
 10
121.1078748582
 20
190.5124797122
 10
120.9593358957
 20
190.2404326046
 10
120.8000202722
 20
190.076701228
 10
120.7032156082
 20
190.0012802556
 72
     4
 94
        3
 73
     1
 74
     0
 95
        8
 96
        4
 40
0.0
 40
0.0
 40
0.0
 40
0.0
 40
1.0
 40
1.0
 40
1.0
 40
1.0
 10
120.3180514644
 20
189.2299500393
 42
1.0
 10
120.3234036447
 20
189.5373100898
 42
0.9348756530999999
 10
120.4607299088
 20
189.812337986
 42
0.9348756530999999
 10
120.7032004069
 20
190.0013006916
 42
1.0
 72
     1
 10
120.3180528084
 20
189.2299895946
 11
120.1018874371
 21
176.8458837624
 72
     4
 94
        3
 73
     1
 74
     0
 95
        8
 96
        4
 40
0.0
 40
0.0
 40
0.0
 40
0.0
 40
1.0
 40
1.0
 40
1.0
 40
1.0
 10
120.1018874371
 20
176.8458837624
 42
1.0
 10
120.0918049736
 20
176.268259816
 42
0.8088336328
 10
119.6797516766
 20
175.8633361688
 42
0.8088336328
 10
119.1020397419
 20
175.8633361688
 42
1.0
 72
     1
 10
118.4294055161
 20
175.8633361688
 11
119.1020397419
 21
175.8633361688
 72
     1
 10
118.175608872
 20
190.4033361688
 11
118.4294055161
 21
175.8633361688
 72
     1
 10
112.1697299526
 20
190.4033361688
 11
118.175608872
 21
190.4033361688
 72
     1
 10
112.1697299526
 20
190.4033361688
 11
111.9159333085
 21
175.8633361688
 72
     1
 10
111.2432990827
 20
175.8633361688
 11
111.9159333085
 21
175.8633361688
 72
     4
 94
        3
 73
     1
 74
     0
 95
        8
 96
        4
 40
0.0
 40
0.0
 40
0.0
 40
0.0
 40
1.0
 40
1.0
 40
1.0
 40
1.0
 10
110.2434513876
 20
176.8458837624
 42
1.0
 10
110.253533851
 20
176.268259816
 42
0.8088336328
 10
110.665587148
 20
175.8633361688
 42
0.8088336328
 10
111.2432990827
 20
175.8633361688
 42
1.0
 72
     1
 10
110.0214067908
 20
189.5668101891999
 11
110.2434513876
 21
176.8458837624
 72
     4
 94
        3
 73
     1
 74
     0
 95
        8
 96
        4
 40
0.0
 40
0.0
 40
0.0
 40
0.0
 40
1.0
 40
1.0
 40
1.0
 40
1.0
 10
110.0214070216
 20
189.566812058
 42
1.0
 10
110.0104371562
 20
190.1951813033
 42
0.7830616769
 10
109.5391808773
 20
190.6109766446
 42
0.7830616769
 10
108.9143388255
 20
190.5435922499
 42
1.0
 72
     4
 94
        3
 73
     0
 74
     0
 95
       14
 96
       10
 40
0.0
 40
0.0
 40
0.0
 40
0.0
 40
0.0859284002
 40
0.2721084036
 40
0.4117434061
 40
0.5513784087
 40
0.6910134112000001
 40
0.8306484138
 40
1.0
 40
1.0
 40
1.0
 40
1.0
 10
108.9143387567
 20
190.5435930662
 10
108.4026764243
 20
190.488414349
 10
106.7864880178
 20
190.2922967150999
 10
104.3680956781
 20
189.8866812864
 10
101.6903624882
 20
189.261501747
 10
99.3349965282
 20
188.5609152465
 10
97.05947531159999
 20
187.7108266297
 10
94.73278588419999
 20
186.6130531824
 10
93.22366463989999
 20
185.6928109837
 10
92.42785541249999
 20
185.1305558253
 72
     1
 10
92.42785541249999
 20
185.1305558253
 11
92.13461804049998
 21
176.7333361688
 72
     1
 10
92.13461804049998
 20
176.7333361688
 11
91.17266941229999
 21
121.6233361688
 72
     1
 10
89.9426694123
 20
121.6233361688
 11
91.17266941229999
 21
121.6233361688
 72
     1
 10
89.032038675
 20
173.7933361688
 11
89.9426694123
 21
121.6233361688
 72
     1
 10
89.28590108959999
 20
181.0633361674
 11
89.032038675
 21
173.7933361688
 72
     1
 10
89.28590108959999
 20
181.0633361675
 11
88.2731699542
 21
180.0733361682
 72
     4
 94
        3
 73
     0
 74
     0
 95
       12
 96
        8
 40
0.0
 40
0.0
 40
0.0
 40
0.0
 40
0.1558347434
 40
0.5308633246
 40
0.7444111322
 40
0.8891287154999998
 40
1.0
 40
1.0
 40
1.0
 40
1.0
 10
88.2731699542
 20
180.0733361682
 10
88.05272097319999
 20
180.6118358781
 10
87.14955326969999
 20
182.3437314175
 10
85.31027004749999
 20
184.2204295073
 10
82.91486781080001
 20
185.265196998
 10
81.25643432359998
 20
185.5697893227
 10
80.36287709079999
 20
185.6533361688
 10
79.97266941229999
 20
185.6533361688
 72
     1
 10
73.67266941229999
 20
185.6533361688
 11
79.97266941229999
 21
185.6533361688
 72
     4
 94
        3
 73
     1
 74
     0
 95
        8
 96
        4
 40
0.0
 40
0.0
 40
0.0
 40
0.0
 40
1.0
 40
1.0
 40
1.0
 40
1.0
 10
73.67266941229999
 20
185.6533361688
 42
1.0
 10
73.6278897442
 20
186.619925829
 42
0.8432527259
 10
72.97098690689999
 20
187.3304041554
 42
0.8432527259
 10
72.0108640876
 20
187.450674525
 42
1.0
 72
     1
 10
70.55266941229999
 20
187.6333361688
 11
72.0108640876
 21
187.450674525
 72
     1
 10
70.39298557810001
 20
188.2433361688
 11
70.55266941229999
 21
187.6333361688
 72
     1
 10
70.30298557810001
 20
188.2433361688
 11
70.39298557810001
 21
188.2433361688
 72
     1
 10
70.30298557810001
 20
189.2333361688
 11
70.30298557810001
 21
188.2433361688
 72
     1
 10
70.30298557810001
 20
189.2333361688
 11
77.0229855781
 21
189.2333361688
 72
     4
 94
        3
 73
     0
 74
     0
 95
       10
 96
        6
 40
0.0
 40
0.0
 40
0.0
 40
0.0
 40
0.3827112928
 40
0.8946151816
 40
1.0
 40
1.0
 40
1.0
 40
1.0
 10
77.0229855781
 20
189.2333361688
 10
78.6460358603
 20
189.2333361688
 10
82.7865015142
 20
189.1451898139
 10
87.4080811448
 20
187.6055672372
 10
89.30221401510001
 20
185.7956160821
 10
89.59830781219999
 20
185.4625828022
 97
        0
 92
        1
 93
       12
 72
     1
 10
139.1726694123
 20
121.6233361688
 11
140.4026694123
 21
121.6233361688
 72
     1
 10
138.2107207841
 20
176.7333361688
 11
139.1726694123
 21
121.6233361688
 72
     4
 94
        3
 73
     0
 74
     0
 95
       11
 96
        7
 40
0.0
 40
0.0
 40
0.0
 40
0.0
 40
0.1530909317
 40
0.4592727950000001
 40
0.7686799732999999
 40
1.0
 40
1.0
 40
1.0
 40
1.0
 10
138.2107207841
 20
176.7333361688
 10
138.1860899354
 20
178.1444365485
 10
138.4645010871
 20
182.1080645522
 10
141.083158989
 20
186.9878969963
 10
147.5588373104
 20
189.1451898139
 10
151.6993029643
 20
189.2333361688
 10
153.3223532465
 20
189.2333361688
 72
     1
 10
153.3223532465
 20
189.2333361688
 11
160.0423532465
 21
189.2333361688
 72
     1
 10
160.0423532465
 20
189.2333361688
 11
160.0423532465
 21
188.2433361688
 72
     1
 10
159.9523532465
 20
188.2433361688
 11
160.0423532465
 21
188.2433361688
 72
     1
 10
159.9523532465
 20
188.2433361688
 11
159.7926694123
 21
187.6333361688
 72
     1
 10
159.7926694123
 20
187.6333361688
 11
158.334474737
 21
187.450674525
 72
     4
 94
        3
 73
     1
 74
     0
 95
        8
 96
        4
 40
0.0
 40
0.0
 40
0.0
 40
0.0
 40
1.0
 40
1.0
 40
1.0
 40
1.0
 10
156.6726694123
 20
185.6533361688
 42
1.0
 10
156.7174490804
 20
186.619925829
 42
0.8432527259
 10
157.3743519177
 20
187.3304041554
 42
0.8432527259
 10
158.334474737
 20
187.450674525
 42
1.0
 72
     1
 10
150.3726694123
 20
185.6533361688
 11
156.6726694123
 21
185.6533361688
 72
     4
 94
        3
 73
     0
 74
     0
 95
       12
 96
        8
 40
0.0
 40
0.0
 40
0.0
 40
0.0
 40
0.0851131599
 40
0.1962092916
 40
0.3601446946
 40
0.6480449184000001
 40
1.0
 40
1.0
 40
1.0
 40
1.0
 10
150.3726694123
 20
185.6533361688
 10
149.9824617338
 20
185.6533361688
 10
149.088904501
 20
185.5697893227
 10
147.4304710138
 20
185.265196998
 10
145.0350687770999
 20
184.2204295073
 10
142.448040974
 20
181.5807761479
 10
141.3956175825
 20
178.5092987378
 10
141.3626979834
 20
176.6233361688
 72
     1
 10
141.3626979834
 20
176.6233361688
 11
140.4026694123
 21
121.6233361688
 97
        0
 75
     0
 76
     0
 52
125.0
 41
7.400138629099999
 77
     0
 78
     1
 53
125.0
 43
0.0
 44
0.0
 45
-6.061838686099999
 46
-4.244545143399999
 79
     0
 98
        1
 10
0.0
 20
0.0
  0
HATCH
  5
264
330
222
100
AcDbEntity
  8
0
  6
Continuous
 62
     2
100
AcDbHatch
 10
0.0
 20
0.0
 30
0.0
210
0.0
220
0.0
230
1.0
  2
DEFAULT__3
 70
     1
 71
     0
 91
        2
 92
        1
 93
       15
 72
     1
 10
157.4432480099
 20
185.9662646158
 11
158.1003195629
 21
186.6233361688
 72
     4
 94
        3
 73
     1
 74
     0
 95
        8
 96
        4
 40
0.0
 40
0.0
 40
0.0
 40
0.0
 40
1.0
 40
1.0
 40
1.0
 40
1.0
 10
156.9223532465
 20
185.6533361688
 42
1.0
 10
157.1462186394
 20
185.6533361688
 42
0.9048056620999998
 10
157.3381179555
 20
185.7686200212
 42
0.9048056620999998
 10
157.4432480099
 20
185.9662646158
 42
1.0
 72
     1
 10
156.9223532465
 20
185.6533361688
 11
156.6726694123
 21
185.6533361688
 72
     4
 94
        3
 73
     1
 74
     0
 95
        8
 96
        4
 40
0.0
 40
0.0
 40
0.0
 40
0.0
 40
1.0
 40
1.0
 40
1.0
 40
1.0
 10
158.334474737
 20
187.450674525
 42
1.0
 10
157.3743519177
 20
187.3304041554
 42
0.8432527259
 10
156.7174490804
 20
186.619925829
 42
0.8432527259
 10
156.6726694123
 20
185.6533361688
 42
1.0
 72
     1
 10
158.334474737
 20
187.450674525
 11
159.7926694123
 21
187.6333361688
 72
     1
 10
159.7926694123
 20
187.6333361688
 11
159.9523532465
 21
188.2433361688
 72
     1
 10
160.0423532465
 20
188.2433361688
 11
159.9523532465
 21
188.2433361688
 72
     1
 10
160.0423532465
 20
188.2433361688
 11
160.0423532465
 21
189.2333361688
 72
     1
 10
161.1223532465
 20
189.2333361688
 11
160.0423532465
 21
189.2333361688
 72
     4
 94
        3
 73
     1
 74
     0
 95
        8
 96
        4
 40
0.0
 40
0.0
 40
0.0
 40
0.0
 40
1.0
 40
1.0
 40
1.0
 40
1.0
 10
161.3344852809
 20
189.1454682032
 42
1.0
 10
161.2774724415
 20
189.2024810425
 42
0.9492530217
 10
161.2029815771
 20
189.2333361688
 42
0.9492530217
 10
161.1223532465
 20
189.2333361688
 42
1.0
 72
     1
 10
161.5330639246
 20
188.9468895593999
 11
161.3344852809
 21
189.1454682032
 72
     4
 94
        3
 73
     1
 74
     0
 95
        8
 96
        4
 40
0.0
 40
0.0
 40
0.0
 40
0.0
 40
1.0
 40
1.0
 40
1.0
 40
1.0
 10
161.5336263921
 20
188.240346142
 42
1.0
 10
161.7401422183
 20
188.4475206325
 42
0.8051129818999999
 10
161.7399093452
 20
188.7400441389
 42
0.8051129818999999
 10
161.5330639246
 20
188.9468895593999
 42
1.0
 72
     1
 10
160.097608442
 20
186.7997481366
 11
161.5336263921
 21
188.240346142
 72
     4
 94
        3
 73
     1
 74
     0
 95
        8
 96
        4
 40
0.0
 40
0.0
 40
0.0
 40
0.0
 40
1.0
 40
1.0
 40
1.0
 40
1.0
 10
159.6726694123
 20
186.6233361688
 42
1.0
 10
159.8342705528
 20
186.6233361688
 42
0.9490497279999999
 10
159.9835212602
 20
186.6852970836
 42
0.9490497279999999
 10
160.097608442
 20
186.7997481366
 42
1.0
 72
     1
 10
159.6726694123
 20
186.6233361688
 11
158.1003195629
 21
186.6233361688
 97
        0
 92
        1
 93
       15
 72
     1
 10
72.9020908147
 20
185.9662646158
 11
72.24501926169999
 21
186.6233361688
 72
     1
 10
72.24501926169999
 20
186.6233361688
 11
70.67266941229999
 21
186.6233361688
 72
     4
 94
        3
 73
     1
 74
     0
 95
        8
 96
        4
 40
0.0
 40
0.0
 40
0.0
 40
0.0
 40
1.0
 40
1.0
 40
1.0
 40
1.0
 10
70.67266941229999
 20
186.6233361688
 42
1.0
 10
70.51106827179999
 20
186.6233361688
 42
0.9490497279999999
 10
70.3618175645
 20
186.6852970836
 42
0.9490497279999999
 10
70.2477303826
 20
186.7997481366
 42
1.0
 72
     1
 10
70.2477303826
 20
186.7997481366
 11
68.8117124325
 21
188.240346142
 72
     4
 94
        3
 73
     1
 74
     0
 95
        8
 96
        4
 40
0.0
 40
0.0
 40
0.0
 40
0.0
 40
1.0
 40
1.0
 40
1.0
 40
1.0
 10
68.8117124325
 20
188.240346142
 42
1.0
 10
68.6051966063
 20
188.4475206325
 42
0.8051129818999999
 10
68.6054294794
 20
188.7400441389
 42
0.8051129818999999
 10
68.8122749
 20
188.9468895593999
 42
1.0
 72
     1
 10
68.8122749
 20
188.9468895593999
 11
69.0108535437
 21
189.1454682032
 72
     4
 94
        3
 73
     1
 74
     0
 95
        8
 96
        4
 40
0.0
 40
0.0
 40
0.0
 40
0.0
 40
1.0
 40
1.0
 40
1.0
 40
1.0
 10
69.0108535437
 20
189.1454682032
 42
1.0
 10
69.06786638310001
 20
189.2024810425
 42
0.9492530217
 10
69.1423572475
 20
189.2333361688
 42
0.9492530217
 10
69.22298557810001
 20
189.2333361688
 42
1.0
 72
     1
 10
70.30298557810001
 20
189.2333361688
 11
69.22298557810001
 21
189.2333361688
 72
     1
 10
70.30298557810001
 20
188.2433361688
 11
70.30298557810001
 21
189.2333361688
 72
     1
 10
70.39298557810001
 20
188.2433361688
 11
70.30298557810001
 21
188.2433361688
 72
     1
 10
70.55266941229999
 20
187.6333361688
 11
70.39298557810001
 21
188.2433361688
 72
     1
 10
72.0108640876
 20
187.450674525
 11
70.55266941229999
 21
187.6333361688
 72
     4
 94
        3
 73
     1
 74
     0
 95
        8
 96
        4
 40
0.0
 40
0.0
 40
0.0
 40
0.0
 40
1.0
 40
1.0
 40
1.0
 40
1.0
 10
72.0108640876
 20
187.450674525
 42
1.0
 10
72.97098690689999
 20
187.3304041554
 42
0.8432527259
 10
73.6278897442
 20
186.619925829
 42
0.8432527259
 10
73.67266941229999
 20
185.6533361688
 42
1.0
 72
     1
 10
73.67266941229999
 20
185.6533361688
 11
73.42298557810001
 21
185.6533361688
 72
     4
 94
        3
 73
     1
 74
     0
 95
        8
 96
        4
 40
0.0
 40
0.0
 40
0.0
 40
0.0
 40
1.0
 40
1.0
 40
1.0
 40
1.0
 10
73.42298557810001
 20
185.6533361688
 42
1.0
 10
73.1991201852
 20
185.6533361688
 42
0.9048056620999998
 10
73.00722086909999
 20
185.7686200212
 42
0.9048056620999998
 10
72.9020908147
 20
185.9662646158
 42
1.0
 97
        0
 75
     0
 76
     1
 98
        1
 10
0.0
 20
0.0
  0
LINE
  5
2DD
330
222
100
AcDbEntity
  8
0
  6
Continuous
 62
     7
100
AcDbLine
 10
83.67266941229999
 20
105.3633361688
 30
0.0
 11
146.6726694123
 21
105.3633361688
 31
0.0
  0
LINE
  5
2DE
330
222
100
AcDbEntity
  8
0
  6
Continuous
 62
     7
100
AcDbLine
 10
84.67266941229999
 20
105.8633361688
 30
0.0
 11
145.6726694123
 21
105.8633361688
 31
0.0
  0
LINE
  5
2DF
330
222
100
AcDbEntity
  8
0
  6
Continuous
 62
     7
100
AcDbLine
 10
91.65868942620001
 20
107.8633361688
 30
0.0
 11
102.9679198497
 21
107.8633361688
 31
0.0
  0
LINE
  5
2E0
330
222
100
AcDbEntity
  8
0
  6
Continuous
 62
     7
100
AcDbLine
 10
127.377418975
 20
107.8633361688
 30
0.0
 11
138.6866493984
 21
107.8633361688
 31
0.0
  0
LINE
  5
2E1
330
222
100
AcDbEntity
  8
0
  6
Continuous
 62
     7
100
AcDbLine
 10
68.8122749
 20
188.9468895593999
 30
0.0
 11
69.0108535437
 21
189.1454682032
 31
0.0
  0
LINE
  5
2E2
330
222
100
AcDbEntity
  8
0
  6
Continuous
 62
     9
100
AcDbLine
 10
111.0372438342
 20
113.7125486511
 30
0.0
 11
119.3080949904
 21
113.7125486511
 31
0.0
  0
LINE
  5
2E3
330
222
100
AcDbEntity
  8
0
  6
Continuous
 62
     7
100
AcDbLine
 10
83.67266941229999
 20
105.3633361688
 30
0.0
 11
82.67266941229999
 21
108.7478334831
 31
0.0
  0
LINE
  5
2E4
330
222
100
AcDbEntity
  8
0
  6
Continuous
 62
     7
100
AcDbLine
 10
75.15227892209999
 20
122.4183280476
 30
0.0
 11
73.95954033159999
 21
167.9671771609
 31
0.0
  0
LINE
  5
2E5
330
222
100
AcDbEntity
  8
0
  6
Continuous
 62
     7
100
AcDbLine
 10
70.30298557810001
 20
189.2333361688
 30
0.0
 11
70.30298557810001
 21
188.2433361688
 31
0.0
  0
LINE
  5
2E6
330
222
100
AcDbEntity
  8
0
  6
Continuous
 62
     7
100
AcDbLine
 10
89.9426694123
 20
121.6233361688
 30
0.0
 11
109.1042851218
 21
121.6233361688
 31
0.0
  0
LINE
  5
2E7
330
222
100
AcDbEntity
  8
0
  6
Continuous
 62
     7
100
AcDbLine
 10
121.2410537028
 20
121.6233361688
 30
0.0
 11
140.4026694123
 21
121.6233361688
 31
0.0
  0
LINE
  5
2E8
330
222
100
AcDbEntity
  8
0
  6
Continuous
 62
     9
100
AcDbLine
 10
89.93637800909999
 20
121.9837704184
 30
0.0
 11
77.1636582141
 21
121.9837704184
 31
0.0
  0
LINE
  5
2E9
330
222
100
AcDbEntity
  8
0
  6
Continuous
 62
     9
100
AcDbLine
 10
140.4089608155
 20
121.9837704184
 30
0.0
 11
153.1816806105999
 21
121.9837704184
 31
0.0
  0
LINE
  5
2EA
330
222
100
AcDbEntity
  8
0
  6
Continuous
 62
     9
100
AcDbLine
 10
119.1307827363
 20
123.1181417774
 30
0.0
 11
111.2145560883
 21
123.1181417774
 31
0.0
  0
LINE
  5
2EB
330
222
100
AcDbEntity
  8
0
  6
Continuous
 62
     9
100
AcDbLine
 10
111.4605642551
 20
123.3633985013
 30
0.0
 11
118.8847745696
 21
123.3633985013
 31
0.0
  0
LINE
  5
2EC
330
222
100
AcDbEntity
  8
0
  6
Continuous
 62
     7
100
AcDbLine
 10
77.163658214
 20
121.9837704184
 30
0.0
 11
75.9581698664
 21
168.0195131171
 31
0.0
  0
LINE
  5
2ED
330
222
100
AcDbEntity
  8
0
  6
Continuous
 62
     9
100
AcDbLine
 10
111.4794013876
 20
124.362621059
 30
0.0
 11
118.865937437
 21
124.362621059
 31
0.0
  0
LINE
  5
2EE
330
222
100
AcDbEntity
  8
0
  6
Continuous
 62
     9
100
AcDbLine
 10
119.1025270375
 20
124.6169756139
 30
0.0
 11
111.2428117871
 21
124.6169756139
 31
0.0
  0
LINE
  5
2EF
330
222
100
AcDbEntity
  8
0
  6
Continuous
 62
     7
100
AcDbLine
 10
70.39298557810001
 20
188.2433361688
 30
0.0
 11
70.55266941229999
 21
187.6333361688
 31
0.0
  0
LINE
  5
2F0
330
222
100
AcDbEntity
  8
0
  6
Continuous
 62
     7
100
AcDbLine
 10
90.17266941229999
 20
180.6280269217
 30
0.0
 11
89.94013408849999
 21
180.0222516924
 31
0.0
  0
LINE
  5
2F1
330
222
100
AcDbEntity
  8
0
  6
Continuous
 62
     7
100
AcDbLine
 10
88.86012418860001
 20
179.3233361684
 30
0.0
 11
89.2391049183
 21
179.7232080268
 31
0.0
  0
LWPOLYLINE
  5
2F2
330
222
100
AcDbEntity
  8
0
  6
Continuous
 62
     7
100
AcDbPolyline
 90
       10
 70
     0
 43
0.0
 10
92.9870819932
 20
183.1658473872
 10
93.65240136009999
 20
183.719965184
 10
95.22127667479999
 20
184.8259890395
 10
96.9192179214
 20
185.8062038427
 10
98.75006919440002
 20
186.6993581209
 10
100.7076708047
 20
187.488907192
 10
102.8165184544
 20
188.1588112745
 10
105.0173032925
 20
188.6887217891
 10
107.3669804056
 20
189.1096391168
 10
109.9025453385
 20
189.4275677104
  0
LWPOLYLINE
  5
2F3
330
222
100
AcDbEntity
  8
06___PRT_ALL_SURFS
  6
Continuous
 62
     6
100
AcDbPolyline
 90
       13
 70
     0
 43
0.0
 10
92.87312662219999
 20
183.0653821829
 10
94.02899501330001
 20
184.0087574856
 10
95.29219502910001
 20
184.8707327774
 10
96.65645707680001
 20
185.6657004996
 10
98.07981851459999
 20
186.3891223161
 10
99.6058426861
 20
187.0659501278
 10
101.25826349
 20
187.6807852318
 10
102.9848904277
 20
188.2049254818999
 10
104.7815922413
 20
188.6388854341999
 10
106.6481232388
 20
188.9945471654
 10
108.6241659465
 20
189.2843144908
 10
110.7032695708
 20
189.4997259708
 10
112.7826755305
 20
189.6235197542999
  0
LINE
  5
2F4
330
222
100
AcDbEntity
  8
0
  6
Continuous
 62
     7
100
AcDbLine
 10
89.032038675
 20
173.7933361688
 30
0.0
 11
89.9426694123
 21
121.6233361688
 31
0.0
  0
LINE
  5
2F5
330
222
100
AcDbEntity
  8
06___PRT_ALL_SURFS
  6
Continuous
 62
     6
100
AcDbLine
 10
92.2788483042
 20
184.9962824439
 30
0.0
 11
92.13461804049998
 21
176.7333361688
 31
0.0
  0
LINE
  5
2F6
330
222
100
AcDbEntity
  8
0
  6
Continuous
 62
     7
100
AcDbLine
 10
92.13461804049998
 20
176.7333361688
 30
0.0
 11
91.17266941229999
 21
121.6233361688
 31
0.0
  0
LINE
  5
2F7
330
222
100
AcDbEntity
  8
0
  6
Continuous
 62
     7
100
AcDbLine
 10
89.28590108959999
 20
181.0633361674
 30
0.0
 11
89.032038675
 21
173.7933361688
 31
0.0
  0
LINE
  5
2F8
330
222
100
AcDbEntity
  8
03___PRT_ALL_CURVES
  6
Continuous
 62
    40
100
AcDbLine
 10
89.032038675
 20
173.7933361688
 30
0.0
 11
89.28590108959999
 21
181.0633361688
 31
0.0
  0
LINE
  5
2F9
330
222
100
AcDbEntity
  8
06___PRT_ALL_SURFS
  6
Continuous
 62
     6
100
AcDbLine
 10
92.46636535070001
 20
186.2333361688
 30
0.0
 11
92.13461804049998
 21
176.7333361688
 31
0.0
  0
LINE
  5
2FA
330
222
100
AcDbEntity
  8
0
  6
Continuous
 62
     7
100
AcDbLine
 10
92.42785541249999
 20
185.1305558253
 30
0.0
 11
92.13461804049998
 21
176.7333361688
 31
0.0
  0
LINE
  5
2FB
330
222
100
AcDbEntity
  8
0
  6
Continuous
 62
     7
100
AcDbLine
 10
93.10158645999999
 20
177.401659387
 30
0.0
 11
93.1553526681
 21
181.3845878744
 31
0.0
  0
LINE
  5
2FC
330
222
100
AcDbEntity
  8
0
  6
Continuous
 62
     7
100
AcDbLine
 10
93.16207381239999
 20
181.8641107659
 30
0.0
 11
93.1829103972
 21
183.328945005
 31
0.0
  0
LINE
  5
2FD
330
222
100
AcDbEntity
  8
06___PRT_ALL_SURFS
  6
Continuous
 62
     7
100
AcDbLine
 10
95.22113167059998
 20
176.7333361688
 30
0.0
 11
95.50843326889999
 21
186.2333361688
 31
0.0
  0
LWPOLYLINE
  5
2FE
330
222
100
AcDbEntity
  8
0
  6
Continuous
 62
     7
100
AcDbPolyline
 90
        4
 70
     0
 43
0.0
 10
120.4403259471
 20
189.3222129106
 10
120.5450510197
 20
189.3940541832
 10
120.6652110534
 20
189.4424763527
 10
120.780514071
 20
189.4621817692
  0
LINE
  5
2FF
330
222
100
AcDbEntity
  8
0
  6
Continuous
 62
     7
100
AcDbLine
 10
146.1726694123
 20
105.3633361688
 30
0.0
 11
145.6726694123
 21
105.8633361688
 31
0.0
  0
LINE
  5
300
330
222
100
AcDbEntity
  8
0
  6
Continuous
 62
     7
100
AcDbLine
 10
102.660926994
 20
180.5668468308
 30
0.0
 11
102.5564017504
 21
180.0222516924
 31
0.0
  0
LINE
  5
301
330
222
100
AcDbEntity
  8
0
  6
Continuous
 62
     7
100
AcDbLine
 10
72.9020908147
 20
185.9662646158
 30
0.0
 11
72.24501926169999
 21
186.6233361688
 31
0.0
  0
LINE
  5
302
330
222
100
AcDbEntity
  8
0
  6
Continuous
 62
     7
100
AcDbLine
 10
70.2477303826
 20
186.7997481366
 30
0.0
 11
68.8117124325
 21
188.240346142
 31
0.0
  0
LINE
  5
303
330
222
100
AcDbEntity
  8
0
  6
Continuous
 62
     7
100
AcDbLine
 10
109.6015036945999
 20
183.6875405448
 30
0.0
 11
109.7207284731
 21
176.8571575591999
 31
0.0
  0
LINE
  5
304
330
222
100
AcDbEntity
  8
0
  6
Continuous
 62
     7
100
AcDbLine
 10
108.9670060206
 20
113.7586217302
 30
0.0
 11
110.0426694123
 21
175.3833361688
 31
0.0
  0
LINE
  5
305
330
222
100
AcDbEntity
  8
03___PRT_ALL_CURVES
  6
Continuous
 62
    40
100
AcDbLine
 10
88.33675182879998
 20
179.9967095129
 30
0.0
 11
88.27316995430001
 21
180.0733361684
 31
0.0
  0
LINE
  5
306
330
222
100
AcDbEntity
  8
03___PRT_ALL_CURVES
  6
Continuous
 62
    40
100
AcDbLine
 10
88.2731699554
 20
180.073336167
 30
0.0
 11
88.4319232056
 21
179.8802374466
 31
0.0
  0
LINE
  5
307
330
222
100
AcDbEntity
  8
03___PRT_ALL_CURVES
  6
Continuous
 62
    40
100
AcDbLine
 10
108.9178142027
 20
191.7359894694
 30
0.0
 11
108.8324860541
 21
192.5439644034
 31
0.0
  0
LINE
  5
308
330
222
100
AcDbEntity
  8
06___PRT_ALL_SURFS
  6
Continuous
 62
     4
100
AcDbLine
 10
108.9178142027
 20
191.7359894694
 30
0.0
 11
108.8324928534
 21
192.5439000206
 31
0.0
  0
LINE
  5
309
330
222
100
AcDbEntity
  8
06___PRT_ALL_SURFS
  6
Continuous
 62
     6
100
AcDbLine
 10
112.6224464172
 20
192.8329762597
 30
0.0
 11
112.7826741656
 21
189.6235470931
 31
0.0
  0
LINE
  5
30A
330
222
100
AcDbEntity
  8
0
  6
Continuous
 62
     7
100
AcDbLine
 10
110.0823578023
 20
184.7887714127999
 30
0.0
 11
110.2206523206
 21
176.8658837624
 31
0.0
  0
LINE
  5
30B
330
222
100
AcDbEntity
  8
0
  6
Continuous
 62
     7
100
AcDbLine
 10
110.0214067908
 20
189.5668101891999
 30
0.0
 11
110.2434513876
 21
176.8458837624
 31
0.0
  0
LINE
  5
30C
330
222
100
AcDbEntity
  8
0
  6
Continuous
 62
     7
100
AcDbLine
 10
112.1726694123
 20
175.8833361688
 30
0.0
 11
112.1726694123
 21
175.3833361688
 31
0.0
  0
LINE
  5
30F
330
222
100
AcDbEntity
  8
06___PRT_ALL_SURFS
  6
Continuous
 62
     7
100
AcDbLine
 10
115.1726694123
 20
176.7333361688
 30
0.0
 11
115.1726694123
 21
186.2333361688
 31
0.0
  0
LINE
  5
310
330
222
100
AcDbEntity
  8
0
  6
Continuous
 62
     7
100
AcDbLine
 10
112.1697299526
 20
190.4033361688
 30
0.0
 11
111.9159333085
 21
175.8633361688
 31
0.0
  0
LINE
  5
311
330
222
100
AcDbEntity
  8
0
  6
Continuous
 62
     7
100
AcDbLine
 10
112.2760799579
 20
175.3833361688
 30
0.0
 11
112.5240941963
 21
189.5920623721
 31
0.0
  0
LINE
  5
312
330
222
100
AcDbEntity
  8
0
  6
Continuous
 62
     7
100
AcDbLine
 10
114.2621098468
 20
174.5655353039
 30
0.0
 11
114.4763974238
 21
186.8420623721
 31
0.0
  0
LINE
  5
313
330
222
100
AcDbEntity
  8
0
  6
Continuous
 62
     7
100
AcDbLine
 10
111.0372438342
 20
113.7125486511
 30
0.0
 11
111.2145560883
 21
123.1181417774
 31
0.0
  0
LINE
  5
314
330
222
100
AcDbEntity
  8
0
  6
Continuous
 62
     7
100
AcDbLine
 10
111.2428117871
 20
124.6169756139
 30
0.0
 11
112.1238716431
 21
171.3531167036
 31
0.0
  0
LWPOLYLINE
  5
315
330
222
100
AcDbEntity
  8
0
  6
Continuous
 62
     7
100
AcDbPolyline
 90
        4
 70
     0
 43
0.0
 10
120.3168286463
 20
189.1598573913
 10
120.3234161346
 20
189.1758833562
 10
120.3652601349
 20
189.2428954802
 10
120.4403259471
 20
189.3222129106
  0
LINE
  5
316
330
222
100
AcDbEntity
  8
0
  6
Continuous
 62
     7
100
AcDbLine
 10
119.3080949904
 20
113.7125486511
 30
0.0
 11
119.1307827363
 21
123.1181417774
 31
0.0
  0
LINE
  5
317
330
222
100
AcDbEntity
  8
0
  6
Continuous
 62
     7
100
AcDbLine
 10
119.1025270375
 20
124.6169756139
 30
0.0
 11
118.2214671815
 21
171.3531167036
 31
0.0
  0
LINE
  5
318
330
222
100
AcDbEntity
  8
0
  6
Continuous
 62
     7
100
AcDbLine
 10
116.0832289779
 20
174.5655353039
 30
0.0
 11
115.8689414008
 21
186.8420623721
 31
0.0
  0
LINE
  5
319
330
222
100
AcDbEntity
  8
0
  6
Continuous
 62
     7
100
AcDbLine
 10
118.0692588668
 20
175.3833361688
 30
0.0
 11
117.8212446283
 21
189.5920623721
 31
0.0
  0
LINE
  5
31A
330
222
100
AcDbEntity
  8
0
  6
Continuous
 62
     7
100
AcDbLine
 10
118.175608872
 20
190.4033361688
 30
0.0
 11
118.4294055161
 21
175.8633361688
 31
0.0
  0
LINE
  5
31B
330
222
100
AcDbEntity
  8
0
  6
Continuous
 62
     7
100
AcDbLine
 10
121.378332804
 20
113.7586217302
 30
0.0
 11
120.3026694123
 21
175.3833361688
 31
0.0
  0
LINE
  5
31C
330
222
100
AcDbEntity
  8
0
  6
Continuous
 62
     7
100
AcDbLine
 10
118.1726694123
 20
175.8833361688
 30
0.0
 11
118.1726694123
 21
175.3833361688
 31
0.0
  0
LINE
  5
31D
330
222
100
AcDbEntity
  8
0
  6
Continuous
 62
     7
100
AcDbLine
 10
120.3180528084
 20
189.2299895946
 30
0.0
 11
120.1018874371
 21
176.8458837624
 31
0.0
  0
LINE
  5
31E
330
222
100
AcDbEntity
  8
0
  6
Continuous
 62
     7
100
AcDbLine
 10
120.2629810223
 20
184.7887714127999
 30
0.0
 11
120.124686504
 21
176.8658837624
 31
0.0
  0
LINE
  5
31F
330
222
100
AcDbEntity
  8
0
  6
Continuous
 62
     7
100
AcDbLine
 10
120.7693948452
 20
185.1518556454
 30
0.0
 11
120.6246103516
 21
176.8571575591999
 31
0.0
  0
LINE
  5
320
330
222
100
AcDbEntity
  8
0
  6
Continuous
 62
     9
100
AcDbLine
 10
75.9581698664
 20
168.0195131171
 30
0.0
 11
89.1328211313
 21
168.0195131171
 31
0.0
  0
LINE
  5
321
330
222
100
AcDbEntity
  8
0
  6
Continuous
 62
     9
100
AcDbLine
 10
141.2125176934
 20
168.0195131171
 30
0.0
 11
154.3871689583
 21
168.0195131171
 31
0.0
  0
LINE
  5
322
330
222
100
AcDbEntity
  8
0
  6
Continuous
 62
     7
100
AcDbLine
 10
155.3868262832
 20
168.9933361688
 30
0.0
 11
141.229515838
 21
168.9933361688
 31
0.0
  0
LINE
  5
323
330
222
100
AcDbEntity
  8
0
  6
Continuous
 62
     7
100
AcDbLine
 10
89.11582298669999
 20
168.9933361688
 30
0.0
 11
74.95851254139999
 21
168.9933361688
 31
0.0
  0
LINE
  5
324
330
222
100
AcDbEntity
  8
03___PRT_ALL_CURVES
  6
Continuous
 62
    40
100
AcDbLine
 10
89.6226694123
 20
185.4833361688
 30
0.0
 11
91.0326694123
 21
184.5873403956
 31
0.0
  0
LINE
  5
325
330
222
100
AcDbEntity
  8
0
  6
Continuous
 62
     7
100
AcDbLine
 10
122.1726694123
 20
185.3070668795
 30
0.0
 11
122.1726694123
 21
185.6668255069
 31
0.0
  0
LINE
  5
326
330
222
100
AcDbEntity
  8
0
  6
Continuous
 62
     7
100
AcDbLine
 10
92.13461804049998
 20
176.7333361688
 30
0.0
 11
93.07486183389999
 21
176.7340980839
 31
0.0
  0
LINE
  5
327
330
222
100
AcDbEntity
  8
0
  6
Continuous
 62
     9
100
AcDbLine
 10
118.2214671815
 20
171.3531167036
 30
0.0
 11
112.1238716431
 21
171.3531167036
 31
0.0
  0
LINE
  5
328
330
222
100
AcDbEntity
  8
0
  6
Continuous
 62
     9
100
AcDbLine
 10
113.0675409947
 20
172.7696557883
 30
0.0
 11
117.2777978299
 21
172.7696557883
 31
0.0
  0
LINE
  5
329
330
222
100
AcDbEntity
  8
0
  6
Continuous
 62
     9
100
AcDbLine
 10
114.2621098468
 20
174.5655353039
 30
0.0
 11
116.0832289779
 21
174.5655353039
 31
0.0
  0
LINE
  5
32A
330
222
100
AcDbEntity
  8
0
  6
Continuous
 62
     7
100
AcDbLine
 10
110.0426694123
 20
175.3833361688
 30
0.0
 11
112.2760799579
 21
175.3833361688
 31
0.0
  0
LINE
  5
32B
330
222
100
AcDbEntity
  8
0
  6
Continuous
 62
     7
100
AcDbLine
 10
118.0692588668
 20
175.3833361688
 30
0.0
 11
120.3026694123
 21
175.3833361688
 31
0.0
  0
LINE
  5
32C
330
222
100
AcDbEntity
  8
0
  6
Continuous
 62
     7
100
AcDbLine
 10
111.2432990827
 20
175.8633361688
 30
0.0
 11
111.9159333085
 21
175.8633361688
 31
0.0
  0
LINE
  5
32D
330
222
100
AcDbEntity
  8
0
  6
Continuous
 62
     7
100
AcDbLine
 10
118.4294055161
 20
175.8633361688
 30
0.0
 11
119.1020397419
 21
175.8633361688
 31
0.0
  0
LINE
  5
32E
330
222
100
AcDbEntity
  8
0
  6
Continuous
 62
     7
100
AcDbLine
 10
119.1248388088
 20
175.8833361688
 30
0.0
 11
118.0605313343
 21
175.8833361688
 31
0.0
  0
LINE
  5
32F
330
222
100
AcDbEntity
  8
0
  6
Continuous
 62
     7
100
AcDbLine
 10
112.2848074903
 20
175.8833361688
 30
0.0
 11
111.2205000158
 21
175.8833361688
 31
0.0
  0
LINE
  5
330
330
222
100
AcDbEntity
  8
0
  6
Continuous
 62
     9
100
AcDbLine
 10
138.2107207841
 20
176.7333361688
 30
0.0
 11
131.8641664834
 21
176.7330118639
 31
0.0
  0
LINE
  5
332
330
222
100
AcDbEntity
  8
0
  6
Continuous
 62
     6
100
AcDbLine
 10
93.07486183389999
 20
176.7340980839
 30
0.0
 11
93.26218053239999
 21
176.7333361688
 31
0.0
  0
LINE
  5
333
330
222
100
AcDbEntity
  8
06___PRT_ALL_SURFS
  6
Continuous
 62
     7
100
AcDbLine
 10
92.13461804049998
 20
176.7333361688
 30
0.0
 11
95.22113167059998
 21
176.7333361688
 31
0.0
  0
LINE
  5
334
330
222
100
AcDbEntity
  8
06___PRT_ALL_SURFS
  6
Continuous
 62
     7
100
AcDbLine
 10
115.1726694123
 20
176.7333361688
 30
0.0
 11
135.124207154
 21
176.7333361688
 31
0.0
  0
LINE
  5
335
330
222
100
AcDbEntity
  8
0
  6
Continuous
 62
     7
100
AcDbLine
 10
120.624590045
 20
176.7337474693
 30
0.0
 11
131.8641664834
 21
176.7330118639
 31
0.0
  0
LINE
  5
336
330
222
100
AcDbEntity
  8
0
  6
Continuous
 62
     4
100
AcDbLine
 10
161.5336263921
 20
188.240346142
 30
0.0
 11
160.097608442
 21
186.7997481366
 31
0.0
  0
LINE
  5
337
330
222
100
AcDbEntity
  8
03___PRT_ALL_CURVES
  6
Continuous
 62
     4
100
AcDbLine
 10
161.5336263921
 20
188.240346142
 30
0.0
 11
160.097608442
 21
186.7997481366
 31
0.0
  0
LINE
  5
338
330
222
100
AcDbEntity
  8
0
  6
Continuous
 62
     4
100
AcDbLine
 10
158.1003195629
 20
186.6233361688
 30
0.0
 11
157.4432480099
 21
185.9662646158
 31
0.0
  0
LINE
  5
339
330
222
100
AcDbEntity
  8
03___PRT_ALL_CURVES
  6
Continuous
 62
     4
100
AcDbLine
 10
158.1003195629
 20
186.6233361688
 30
0.0
 11
157.4432480099
 21
185.9662646158
 31
0.0
  0
LINE
  5
33A
330
222
100
AcDbEntity
  8
0
  6
Continuous
 62
     4
100
AcDbLine
 10
159.7926694123
 20
187.6333361688
 30
0.0
 11
158.334474737
 21
187.450674525
 31
0.0
  0
LINE
  5
33B
330
222
100
AcDbEntity
  8
03___PRT_ALL_CURVES
  6
Continuous
 62
     4
100
AcDbLine
 10
159.7926694123
 20
187.6333361688
 30
0.0
 11
158.334474737
 21
187.450674525
 31
0.0
  0
LINE
  5
33C
330
222
100
AcDbEntity
  8
0
  6
Continuous
 62
     7
100
AcDbLine
 10
109.6654815495
 20
180.0222516924
 30
0.0
 11
102.5564017504
 21
180.0222516924
 31
0.0
  0
LINE
  5
33D
330
222
100
AcDbEntity
  8
0
  6
Continuous
 62
     7
100
AcDbLine
 10
102.0092647263
 20
180.0222516924
 30
0.0
 11
93.13650936509999
 21
180.0222516924
 31
0.0
  0
LINE
  5
33E
330
222
100
AcDbEntity
  8
0
  6
Continuous
 62
     7
100
AcDbLine
 10
72.0108640876
 20
187.450674525
 30
0.0
 11
70.55266941229999
 21
187.6333361688
 31
0.0
  0
LINE
  5
33F
330
222
100
AcDbEntity
  8
06___PRT_ALL_SURFS
  6
Continuous
 62
     7
100
AcDbLine
 10
135.124207154
 20
176.7333361688
 30
0.0
 11
134.8369055557
 21
186.2333361688
 31
0.0
  0
LINE
  5
340
330
222
100
AcDbEntity
  8
0
  6
Continuous
 62
     7
100
AcDbLine
 10
138.2107207841
 20
176.7333361688
 30
0.0
 11
139.1726694123
 21
121.6233361688
 31
0.0
  0
LINE
  5
341
330
222
100
AcDbEntity
  8
0
  6
Continuous
 62
     7
100
AcDbLine
 10
84.1726694123
 20
105.3633361688
 30
0.0
 11
84.67266941229999
 21
105.8633361688
 31
0.0
  0
LINE
  5
342
330
222
100
AcDbEntity
  8
0
  6
Continuous
 62
     7
100
AcDbLine
 10
109.0825101071
 20
185.7713190064
 30
0.0
 11
108.966413868
 21
185.7645569755
 31
0.0
  0
LINE
  5
343
330
222
100
AcDbEntity
  8
0
  6
Continuous
 62
     7
100
AcDbLine
 10
73.42298557810001
 20
185.6533361688
 30
0.0
 11
79.97266941229999
 21
185.6533361688
 31
0.0
  0
LINE
  5
344
330
222
100
AcDbEntity
  8
0
  6
Continuous
 62
     7
100
AcDbLine
 10
150.3726694123
 20
185.6533361688
 30
0.0
 11
156.6726694123
 21
185.6533361688
 31
0.0
  0
LINE
  5
345
330
222
100
AcDbEntity
  8
0
  6
Continuous
 62
     4
100
AcDbLine
 10
156.6726694123
 20
185.6533361688
 30
0.0
 11
156.9223532465
 21
185.6533361688
 31
0.0
  0
LINE
  5
346
330
222
100
AcDbEntity
  8
03___PRT_ALL_CURVES
  6
Continuous
 62
     4
100
AcDbLine
 10
156.6726694123
 20
185.6533361688
 30
0.0
 11
156.9223532465
 21
185.6533361688
 31
0.0
  0
LINE
  5
347
330
222
100
AcDbEntity
  8
0
  6
Continuous
 62
     7
100
AcDbLine
 10
109.2011858894
 20
185.7713190064
 30
0.0
 11
110.0876573359
 21
185.7713190064
 31
0.0
  0
LINE
  5
348
330
222
100
AcDbEntity
  8
0
  6
Continuous
 62
     7
100
AcDbLine
 10
120.2576814888
 20
185.7713190064
 30
0.0
 11
121.2628287175
 21
185.7713190064
 31
0.0
  0
LINE
  5
349
330
222
100
AcDbEntity
  8
06___PRT_ALL_SURFS
  6
Continuous
 62
     7
100
AcDbLine
 10
92.46636535070001
 20
186.2333361688
 30
0.0
 11
95.50843326889999
 21
186.2333361688
 31
0.0
  0
LINE
  5
34A
330
222
100
AcDbEntity
  8
06___PRT_ALL_SURFS
  6
Continuous
 62
     7
100
AcDbLine
 10
115.1726694123
 20
186.2333361688
 30
0.0
 11
134.8369055557
 21
186.2333361688
 31
0.0
  0
LINE
  5
34B
330
222
100
AcDbEntity
  8
0
  6
Continuous
 62
     7
100
AcDbLine
 10
72.24501926169999
 20
186.6233361688
 30
0.0
 11
70.67266941229999
 21
186.6233361688
 31
0.0
  0
LINE
  5
34C
330
222
100
AcDbEntity
  8
0
  6
Continuous
 62
     4
100
AcDbLine
 10
158.1003195629
 20
186.6233361688
 30
0.0
 11
159.6726694123
 21
186.6233361688
 31
0.0
  0
LINE
  5
34D
330
222
100
AcDbEntity
  8
03___PRT_ALL_CURVES
  6
Continuous
 62
     4
100
AcDbLine
 10
158.1003195629
 20
186.6233361688
 30
0.0
 11
159.6726694123
 21
186.6233361688
 31
0.0
  0
LINE
  5
34E
330
222
100
AcDbEntity
  8
0
  6
Continuous
 62
     9
100
AcDbLine
 10
115.8689414008
 20
186.8420623721
 30
0.0
 11
114.4763974238
 21
186.8420623721
 31
0.0
  0
LINE
  5
34F
330
222
100
AcDbEntity
  8
0
  6
Continuous
 62
     7
100
AcDbLine
 10
114.9763212714
 20
187.3333361688
 30
0.0
 11
115.3690175532
 21
187.3333361688
 31
0.0
  0
LINE
  5
350
330
222
100
AcDbEntity
  8
0
  6
Continuous
 62
     7
100
AcDbLine
 10
70.39298557810001
 20
188.2433361688
 30
0.0
 11
70.30298557810001
 21
188.2433361688
 31
0.0
  0
LINE
  5
351
330
222
100
AcDbEntity
  8
0
  6
Continuous
 62
     4
100
AcDbLine
 10
159.9523532465
 20
188.2433361688
 30
0.0
 11
160.0423532465
 21
188.2433361688
 31
0.0
  0
LINE
  5
352
330
222
100
AcDbEntity
  8
03___PRT_ALL_CURVES
  6
Continuous
 62
     4
100
AcDbLine
 10
159.9523532465
 20
188.2433361688
 30
0.0
 11
160.0423532465
 21
188.2433361688
 31
0.0
  0
LINE
  5
353
330
222
100
AcDbEntity
  8
0
  6
Continuous
 62
     7
100
AcDbLine
 10
121.0681126722
 20
185.446338629
 30
0.0
 11
121.1051953679
 21
185.4444706393
 31
0.0
  0
LINE
  5
354
330
222
100
AcDbEntity
  8
0
  6
Continuous
 62
     7
100
AcDbLine
 10
121.260547206
 20
185.7709435668
 30
0.0
 11
121.3789249566
 21
185.7645569755
 31
0.0
  0
LWPOLYLINE
  5
355
330
222
100
AcDbEntity
  8
0
  6
Continuous
 62
     7
100
AcDbPolyline
 90
        7
 70
     0
 43
0.0
 10
120.76014308
 20
184.6218223694
 10
121.4459520803
 20
184.5695169077
 10
122.9073724719
 20
184.4251807486
 10
124.3661097513
 20
184.2458312805
 10
125.8215337329
 20
184.0315142495
 10
127.2730240029
 20
183.7823438894
 10
128.5533370121
 20
183.532987953
  0
LINE
  5
356
330
222
100
AcDbEntity
  8
RUNDUNGEN
  6
Continuous
 62
     7
100
AcDbLine
 10
128.5533372264
 20
183.532987909
 30
0.0
 11
128.5533964969
 21
183.5329757223
 31
0.0
  0
LWPOLYLINE
  5
357
330
222
100
AcDbEntity
  8
0
  6
Continuous
 62
     7
100
AcDbPolyline
 90
        5
 70
     0
 43
0.0
 10
120.7417898295
 20
183.570365357
 10
121.5441505574
 20
183.3629083151
 10
122.8540967469
 20
182.8877761057
 10
124.1526902839
 20
182.2798363419
 10
124.6746170746
 20
181.9965442793
  0
LINE
  5
358
330
222
100
AcDbEntity
  8
RUNDUNGEN
  6
Continuous
 62
     7
100
AcDbLine
 10
124.6673282878
 20
182.0006570093999
 30
0.0
 11
124.6746171997
 21
181.9965442088
 31
0.0
  0
LINE
  5
359
330
222
100
AcDbEntity
  8
0
  6
Continuous
 62
     7
100
AcDbLine
 10
129.0174056754
 20
184.9320018905
 30
0.0
 11
129.5727608826
 21
184.266689989
 31
0.0
  0
LINE
  5
35A
330
222
100
AcDbEntity
  8
0
  6
Continuous
 62
     9
100
AcDbLine
 10
120.7539808968
 20
189.9361354370999
 30
0.0
 11
120.7032001812
 21
190.0013005157
 31
0.0
  0
LINE
  5
35B
330
222
100
AcDbEntity
  8
0
  6
Continuous
 62
     7
100
AcDbLine
 10
141.3626979834
 20
176.6233361688
 30
0.0
 11
140.4026694123
 21
121.6233361688
 31
0.0
  0
LINE
  5
35C
330
222
100
AcDbEntity
  8
0
  6
Continuous
 62
     7
100
AcDbLine
 10
109.9025453385
 20
189.4275677104
 30
0.0
 11
110.0236377828
 21
189.4389967473
 31
0.0
  0
LWPOLYLINE
  5
35D
330
222
100
AcDbEntity
  8
06___PRT_ALL_SURFS
  6
Continuous
 62
     6
100
AcDbPolyline
 90
       15
 70
     0
 43
0.0
 10
112.6224464172
 20
192.8329762597
 10
110.4983336495
 20
192.6994172211
 10
108.4445071413
 20
192.5039654149
 10
106.4689475376
 20
192.2475743817
 10
104.5655897175
 20
191.9301030366
 10
102.7347221731
 20
191.5522488889
 10
100.9758125021
 20
191.1151917975
 10
99.28925535479999
 20
190.620303931
 10
97.6747034911
 20
190.0672667039
 10
96.1323293044
 20
189.4534494206
 10
94.66614633540002
 20
188.7772522162
 10
93.27749825759999
 20
188.037974617
 10
91.96908823540001
 20
187.2371636881999
 10
90.74297234339999
 20
186.3778178376
 10
89.59830781219999
 20
185.4625828022
  0
LWPOLYLINE
  5
35E
330
222
100
AcDbEntity
  8
06___PRT_ALL_SURFS
  6
Continuous
 62
     6
100
AcDbPolyline
 90
       15
 70
     0
 43
0.0
 10
112.7221707017
 20
190.8354569128
 10
110.8738167175
 20
190.7224010781
 10
109.0830452216
 20
190.5615377293
 10
107.3556374632
 20
190.3535536286
 10
105.6888395033
 20
190.0986986498
 10
104.0812309158
 20
189.7973364768
 10
102.5328522619
 20
189.4502763116
 10
101.0415262939
 20
189.058187568
 10
99.6086479939
 20
188.6220706208
 10
98.23217859120001
 20
188.1407822944
 10
96.9163932074
 20
187.6135432246
 10
95.66152513690001
 20
187.0381259281
 10
94.46856965349999
 20
186.4137737287
 10
93.34161639870002
 20
185.7425762211
 10
92.2793442238
 20
185.0246936578
  0
LINE
  5
35F
330
222
100
AcDbEntity
  8
0
  6
Continuous
 62
     7
100
AcDbLine
 10
110.0272276015
 20
189.2333361688
 30
0.0
 11
108.353497233
 21
189.2333361688
 31
0.0
  0
LINE
  5
360
330
222
100
AcDbEntity
  8
0
  6
Continuous
 62
     7
100
AcDbLine
 10
69.22298557810001
 20
189.2333361688
 30
0.0
 11
95.64482463350001
 21
189.2333361688
 31
0.0
  0
LINE
  5
361
330
222
100
AcDbEntity
  8
0
  6
Continuous
 62
     7
100
AcDbLine
 10
127.7849558752
 20
189.2333361688
 30
0.0
 11
160.0423532465
 21
189.2333361688
 31
0.0
  0
LINE
  5
362
330
222
100
AcDbEntity
  8
0
  6
Continuous
 62
     4
100
AcDbLine
 10
160.0423532465
 20
189.2333361688
 30
0.0
 11
161.1223532465
 21
189.2333361688
 31
0.0
  0
LINE
  5
363
330
222
100
AcDbEntity
  8
03___PRT_ALL_CURVES
  6
Continuous
 62
     4
100
AcDbLine
 10
160.0423532465
 20
189.2333361688
 30
0.0
 11
161.1223532465
 21
189.2333361688
 31
0.0
  0
LINE
  5
364
330
222
100
AcDbEntity
  8
0
  6
Continuous
 62
     7
100
AcDbLine
 10
113.0240180439
 20
190.0833361688
 30
0.0
 11
117.3213207807
 21
190.0833361688
 31
0.0
  0
LINE
  5
365
330
222
100
AcDbEntity
  8
0
  6
Continuous
 62
     7
100
AcDbLine
 10
112.1697299526
 20
190.4033361688
 30
0.0
 11
118.175608872
 21
190.4033361688
 31
0.0
  0
LINE
  5
366
330
222
100
AcDbEntity
  8
0
  6
Continuous
 62
     7
100
AcDbLine
 10
110.4726694123
 20
192.8633361688
 30
0.0
 11
119.8726694123
 21
192.8633361688
 31
0.0
  0
LWPOLYLINE
  5
367
330
222
100
AcDbEntity
  8
0
  6
Continuous
 62
     7
100
AcDbPolyline
 90
        3
 70
     0
 43
0.0
 10
120.780514071
 20
189.4621817692
 10
120.8781530093
 20
189.4588321952
 10
120.8940064342
 20
189.4563305823
  0
LINE
  5
368
330
222
100
AcDbEntity
  8
0
  6
Continuous
 62
     7
100
AcDbLine
 10
120.8941491445
 20
189.4563329941
 30
0.0
 11
120.8957904875
 21
189.456058954
 31
0.0
  0
LWPOLYLINE
  5
369
330
222
100
AcDbEntity
  8
0
  6
Continuous
 62
     7
100
AcDbPolyline
 90
        9
 70
     0
 43
0.0
 10
120.895681944
 20
189.4560778065
 10
121.0565451537
 20
189.4264571738
 10
122.4031198529
 20
189.1034232408
 10
123.6335732041
 20
188.6903267817
 10
124.8015846623
 20
188.1750751146
 10
125.9514736311
 20
187.5212455056
 10
127.0416312693
 20
186.7497066709
 10
128.0761459435
 20
185.8716836109
 10
129.0174056754
 20
184.9320018905
  0
LINE
  5
36A
330
222
100
AcDbEntity
  8
0
  6
Continuous
 62
     7
100
AcDbLine
 10
121.0568400372
 20
192.1532389445
 30
0.0
 11
120.3944550643
 21
192.2968748503
 31
0.0
  0
LWPOLYLINE
  5
36B
330
222
100
AcDbEntity
  8
0
  6
Continuous
 62
     7
100
AcDbPolyline
 90
        5
 70
     0
 43
0.0
 10
125.8025439838
 20
190.4171127664
 10
125.1198287791
 20
190.7420835956
 10
123.8025816648
 20
191.2912551033
 10
122.4601283934
 20
191.7576822933
 10
121.0568400372
 20
192.1532389445
  0
LINE
  5
36C
330
222
100
AcDbEntity
  8
0
  6
Continuous
 62
     7
100
AcDbLine
 10
125.8768895782
 20
190.3797951575
 30
0.0
 11
125.8025439838
 21
190.4171127664
 31
0.0
  0
LINE
  5
36D
330
222
100
AcDbEntity
  8
0
  6
Continuous
 62
     7
100
AcDbLine
 10
120.517728265
 20
192.1326428997
 30
0.0
 11
120.5144227374
 21
192.1354261725
 31
0.0
  0
LWPOLYLINE
  5
36E
330
222
100
AcDbEntity
  8
0
  6
Continuous
 62
     7
100
AcDbPolyline
 90
        6
 70
     0
 43
0.0
 10
120.5177283551
 20
192.1326439473
 10
120.4938258961
 20
192.1539929145
 10
120.4361709495
 20
192.2200956549
 10
120.3977659729
 20
192.2868317057
 10
120.3773252554
 20
192.3488355564
 10
120.3720123931
 20
192.3889332909
  0
LWPOLYLINE
  5
36F
330
222
100
AcDbEntity
  8
0
  6
Continuous
 62
     7
100
AcDbPolyline
 90
        7
 70
     0
 43
0.0
 10
132.5966118676
 20
184.4179392363
 10
131.7050145694
 20
185.6386885509
 10
130.473424656
 20
187.0114035489
 10
129.1266808958
 20
188.2288729468
 10
127.6698456661
 20
189.3195117784
 10
126.1007832433
 20
190.2640257903
 10
125.8770164622
 20
190.3792884576
  0
LINE
  5
370
330
222
100
AcDbEntity
  8
0
  6
Continuous
 62
     7
100
AcDbLine
 10
153.1816806105999
 20
121.9837704184
 30
0.0
 11
154.3871689583
 21
168.0195131171
 31
0.0
  0
LINE
  5
371
330
222
100
AcDbEntity
  8
0
  6
Continuous
 62
     7
100
AcDbLine
 10
155.1930599026
 20
122.4183280476
 30
0.0
 11
156.385798493
 21
167.9671771609
 31
0.0
  0
LINE
  5
372
330
222
100
AcDbEntity
  8
0
  6
Continuous
 62
     4
100
AcDbLine
 10
159.9523532465
 20
188.2433361688
 30
0.0
 11
159.7926694123
 21
187.6333361688
 31
0.0
  0
LINE
  5
373
330
222
100
AcDbEntity
  8
03___PRT_ALL_CURVES
  6
Continuous
 62
     4
100
AcDbLine
 10
159.9523532465
 20
188.2433361688
 30
0.0
 11
159.7926694123
 21
187.6333361688
 31
0.0
  0
LINE
  5
374
330
222
100
AcDbEntity
  8
0
  6
Continuous
 62
     4
100
AcDbLine
 10
160.0423532465
 20
189.2333361688
 30
0.0
 11
160.0423532465
 21
188.2433361688
 31
0.0
  0
LINE
  5
375
330
222
100
AcDbEntity
  8
03___PRT_ALL_CURVES
  6
Continuous
 62
     4
100
AcDbLine
 10
160.0423532465
 20
189.2333361688
 30
0.0
 11
160.0423532465
 21
188.2433361688
 31
0.0
  0
LINE
  5
376
330
222
100
AcDbEntity
  8
0
  6
Continuous
 62
     7
100
AcDbLine
 10
146.6726694123
 20
105.3633361688
 30
0.0
 11
147.6726694123
 21
108.7478334831
 31
0.0
  0
LINE
  5
377
330
222
100
AcDbEntity
  8
0
  6
Continuous
 62
     4
100
AcDbLine
 10
161.3344852809
 20
189.1454682032
 30
0.0
 11
161.5330639246
 21
188.9468895593999
 31
0.0
  0
LINE
  5
378
330
222
100
AcDbEntity
  8
03___PRT_ALL_CURVES
  6
Continuous
 62
     4
100
AcDbLine
 10
161.3344852809
 20
189.1454682032
 30
0.0
 11
161.5330639246
 21
188.9468895593999
 31
0.0
  0
ARC
  5
379
330
222
100
AcDbEntity
  8
0
  6
Continuous
 62
     7
100
AcDbCircle
 10
92.14645344659999
 20
122.8633361688
 30
0.0
 40
17.0
100
AcDbArc
 50
181.5
 51
236.1320028927
  0
ARC
  5
37A
330
222
100
AcDbEntity
  8
0
  6
Continuous
 62
     7
100
AcDbCircle
 10
91.65868942620001
 20
122.3633361688
 30
0.0
 40
14.5
100
AcDbArc
 50
181.5
 51
270.0
  0
ARC
  5
37B
330
222
100
AcDbEntity
  8
0
  6
Continuous
 62
     7
100
AcDbCircle
 10
103.0386650152
 20
113.8633361688
 30
0.0
 40
8.0
100
AcDbArc
 50
270.0
 51
358.92
  0
ARC
  5
37C
330
222
100
AcDbEntity
  8
0
  6
Continuous
 62
     7
100
AcDbCircle
 10
102.9679198497
 20
113.8633361688
 30
0.0
 40
6.0
100
AcDbArc
 50
270.0
 51
359.0
  0
ARC
  5
37D
330
222
100
AcDbEntity
  8
06___PRT_ALL_SURFS
  6
Continuous
 62
    40
100
AcDbCircle
 10
59.454601941
 20
172.3048282525
 30
0.0
 40
31.0904738291
100
AcDbArc
 50
14.4506572365
 51
16.3623069562
  0
ARC
  5
37E
330
222
100
AcDbEntity
  8
03___PRT_ALL_CURVES
  6
Continuous
 62
     4
100
AcDbCircle
 10
104.7755756441
 20
167.6544024127
 30
0.0
 40
23.3983214388
100
AcDbArc
 50
123.8383522467
 51
130.3613881577
  0
ARC
  5
37F
330
222
100
AcDbEntity
  8
03___PRT_ALL_CURVES
  6
Continuous
 62
     4
100
AcDbCircle
 10
104.3859430066
 20
168.1267654846
 30
0.0
 40
22.7860657669
100
AcDbArc
 50
130.3840567824
 51
135.075053366
  0
ARC
  5
380
330
222
100
AcDbEntity
  8
03___PRT_ALL_CURVES
  6
Continuous
 62
    40
100
AcDbCircle
 10
76.8020667018
 20
170.4743975238
 30
0.0
 40
14.9573856872
100
AcDbArc
 50
37.8150043768
 51
39.5409416011
  0
ARC
  5
381
330
222
100
AcDbEntity
  8
03___PRT_ALL_CURVES
  6
Continuous
 62
    40
100
AcDbCircle
 10
77.244789567
 20
170.8251695834
 30
0.0
 40
14.3925749279
100
AcDbArc
 50
37.7919774239
 51
38.9873331083
  0
ARC
  5
382
330
222
100
AcDbEntity
  8
03___PRT_ALL_CURVES
  6
Continuous
 62
    40
100
AcDbCircle
 10
78.11392893369999
 20
171.4962621902
 30
0.0
 40
13.294502605
100
AcDbArc
 50
36.0680109745
 51
37.8023061569
  0
ARC
  5
383
330
222
100
AcDbEntity
  8
0
  6
Continuous
 62
     7
100
AcDbCircle
 10
79.7479646589
 20
176.2473224989
 30
0.0
 40
9.617344300299999
100
AcDbArc
 50
11.124745298
 51
18.6532633061
  0
ARC
  5
384
330
222
100
AcDbEntity
  8
0
  6
Continuous
 62
     7
100
AcDbCircle
 10
71.7747050602
 20
185.5654082536
 30
0.0
 40
1.9
100
AcDbArc
 50
2.6524728447
 51
82.85999999999999
  0
ARC
  5
385
330
222
100
AcDbEntity
  8
0
  6
Continuous
 62
     7
100
AcDbCircle
 10
74.95851254139999
 20
167.9933361688
 30
0.0
 40
1.0
100
AcDbArc
 50
1.5
 51
181.5
  0
ARC
  5
386
330
222
100
AcDbEntity
  8
0
  6
Continuous
 62
     7
100
AcDbCircle
 10
93.6687415195
 20
181.0498650171
 30
0.0
 40
0.5000000005
100
AcDbArc
 50
107.3000931024
 51
111.1439243041
  0
ARC
  5
387
330
222
100
AcDbEntity
  8
03___PRT_ALL_CURVES
  6
Continuous
 62
     4
100
AcDbCircle
 10
117.1156873953
 20
101.7268056337
 30
0.0
 40
91.21932366780001
100
AcDbArc
 50
91.94941305809999
 51
92.4219477929
  0
ARC
  5
388
330
222
100
AcDbEntity
  8
03___PRT_ALL_CURVES
  6
Continuous
 62
     4
100
AcDbCircle
 10
116.4861339439
 20
115.5963298973
 30
0.0
 40
77.3355968159
100
AcDbArc
 50
92.39017363409999
 51
94.19196883860001
  0
ARC
  5
389
330
222
100
AcDbEntity
  8
0
  6
Continuous
 62
     7
100
AcDbCircle
 10
113.3026694123
 20
120.6122981575
 30
0.0
 40
65.3
100
AcDbArc
 50
82.1931159456
 51
83.1374812071
  0
ARC
  5
38A
330
222
100
AcDbEntity
  8
0
  6
Continuous
 62
     7
100
AcDbCircle
 10
113.3120194315
 20
120.6859792996
 30
0.0
 40
65.2257317176
100
AcDbArc
 50
67.2357424598
 51
82.1924614257
  0
ARC
  5
38B
330
222
100
AcDbEntity
  8
0
  6
Continuous
 62
     7
100
AcDbCircle
 10
113.8326694123
 20
121.2040889842
 30
0.0
 40
65.0
100
AcDbArc
 50
82.6281887582
 51
83.33314152689998
  0
ARC
  5
38C
330
222
100
AcDbEntity
  8
0
  6
Continuous
 62
     7
100
AcDbCircle
 10
113.8414919746
 20
121.2770813291
 30
0.0
 40
64.9264789803
100
AcDbArc
 50
67.5291362122
 51
82.6276452809
  0
ARC
  5
38D
330
222
100
AcDbEntity
  8
0
  6
Continuous
 62
     7
100
AcDbCircle
 10
111.4526694123
 20
123.8633361688
 30
0.0
 40
0.5
100
AcDbArc
 50
270.9047199345
 51
86.9352800655
  0
ARC
  5
38E
330
222
100
AcDbEntity
  8
0
  6
Continuous
 62
     7
100
AcDbCircle
 10
111.4927673752
 20
124.612263504
 30
0.0
 40
0.25
100
AcDbArc
 50
178.92
 51
266.9352800655
  0
ARC
  5
38F
330
222
100
AcDbEntity
  8
0
  6
Continuous
 62
     7
100
AcDbCircle
 10
111.4645116764
 20
123.1134296675
 30
0.0
 40
0.25
100
AcDbArc
 50
90.9047199345
 51
178.92
  0
ARC
  5
390
330
222
100
AcDbEntity
  8
0
  6
Continuous
 62
     7
100
AcDbCircle
 10
109.930467024
 20
128.8519616986
 30
0.0
 40
55.172340545
100
AcDbArc
 50
104.8023019124
 51
107.303855124
  0
ARC
  5
391
330
222
100
AcDbEntity
  8
0
  6
Continuous
 62
     7
100
AcDbCircle
 10
109.6402008677
 20
128.9419558261
 30
0.0
 40
55.04139652140001
100
AcDbArc
 50
90.3544561332
 51
90.55949755629999
  0
ARC
  5
392
330
222
100
AcDbEntity
  8
0
  6
Continuous
 62
     7
100
AcDbCircle
 10
109.7847942469
 20
129.3900333981
 30
0.0
 40
54.6149087163
100
AcDbArc
 50
104.2691941794
 51
104.7987672037
  0
ARC
  5
393
330
222
100
AcDbEntity
  8
0
  6
Continuous
 62
     7
100
AcDbCircle
 10
109.6327410933
 20
129.4056312243
 30
0.0
 40
54.57767046499999
100
AcDbArc
 50
90.5564198859
 51
93.0365363701
  0
ARC
  5
394
330
222
100
AcDbEntity
  8
0
  6
Continuous
 62
     7
100
AcDbCircle
 10
109.6825491261
 20
129.8011804257
 30
0.0
 40
54.19124511149999
100
AcDbArc
 50
101.7608406824
 51
104.271570955
  0
ARC
  5
395
330
222
100
AcDbEntity
  8
0
  6
Continuous
 62
     7
100
AcDbCircle
 10
109.6113949367
 20
129.8546188587
 30
0.0
 40
54.1281825196
100
AcDbArc
 50
93.0391487185
 51
93.79871897340001
  0
ARC
  5
396
330
222
100
AcDbEntity
  8
0
  6
Continuous
 62
     7
100
AcDbCircle
 10
109.6175286191
 20
130.1034511154
 30
0.0
 40
53.8820671178
100
AcDbArc
 50
101.3495434372
 51
101.7586665438
  0
ARC
  5
397
330
222
100
AcDbEntity
  8
0
  6
Continuous
 62
     7
100
AcDbCircle
 10
109.5933067364
 20
130.1157167252
 30
0.0
 40
53.8664599314
100
AcDbArc
 50
93.79792089570001
 51
95.71255692799999
  0
ARC
  5
398
330
222
100
AcDbEntity
  8
0
  6
Continuous
 62
     7
100
AcDbCircle
 10
109.5846226737
 20
130.2711706351
 30
0.0
 40
53.7111516895
100
AcDbArc
 50
99.23660764899999
 51
101.3503368041
  0
ARC
  5
399
330
222
100
AcDbEntity
  8
0
  6
Continuous
 62
     7
100
AcDbCircle
 10
109.5756303135
 20
130.2994523885
 30
0.0
 40
53.6818772718
100
AcDbArc
 50
95.71330406340001
 51
96.59119694250001
  0
ARC
  5
39A
330
222
100
AcDbEntity
  8
0
  6
Continuous
 62
     7
100
AcDbCircle
 10
109.566209244
 20
130.380183597
 30
0.0
 40
53.6005982704
100
AcDbArc
 50
96.5910984859
 51
99.23599484889999
  0
ARC
  5
39B
330
222
100
AcDbEntity
  8
RUNDUNGEN
  6
Continuous
 62
     9
100
AcDbCircle
 10
113.9165141622
 20
136.4832063546
 30
0.0
 40
49.42428712609999
100
AcDbArc
 50
79.4885170705
 51
80.4023031026
  0
ARC
  5
39C
330
222
100
AcDbEntity
  8
RUNDUNGEN
  6
Continuous
 62
     9
100
AcDbCircle
 10
113.9428241139
 20
136.6392642517
 30
0.0
 40
49.26602697719999
100
AcDbArc
 50
80.40221272649999
 51
81.46706808419999
  0
ARC
  5
39D
330
222
100
AcDbEntity
  8
RUNDUNGEN
  6
Continuous
 62
     9
100
AcDbCircle
 10
113.9603756576
 20
136.7544037256
 30
0.0
 40
49.14955775220001
100
AcDbArc
 50
81.46738646539999
 51
81.7069908694
  0
ARC
  5
39E
330
222
100
AcDbEntity
  8
RUNDUNGEN
  6
Continuous
 62
     9
100
AcDbCircle
 10
113.7825900283
 20
136.5106474667
 30
0.0
 40
49.09524712029999
100
AcDbArc
 50
79.48793907619999
 51
81.7061494752
  0
ARC
  5
39F
330
222
100
AcDbEntity
  8
03___PRT_ALL_CURVES
  6
Continuous
 62
     4
100
AcDbCircle
 10
115.8505783254
 20
124.8333128114
 30
0.0
 40
68.0768797547
100
AcDbArc
 50
94.2267732107
 51
94.5194517644
  0
ARC
  5
3A0
330
222
100
AcDbEntity
  8
03___PRT_ALL_CURVES
  6
Continuous
 62
     4
100
AcDbCircle
 10
115.7089011676
 20
126.6299408854
 30
0.0
 40
66.2746742339
100
AcDbArc
 50
94.5197398602
 51
94.7543738341
  0
ARC
  5
3A1
330
222
100
AcDbEntity
  8
0
  6
Continuous
 62
     7
100
AcDbCircle
 10
117.0426694123
 20
120.6122981575
 30
0.0
 40
65.3
100
AcDbArc
 50
111.1437314997
 51
114.5222437575
  0
ARC
  5
3A2
330
222
100
AcDbEntity
  8
0
  6
Continuous
 62
     7
100
AcDbCircle
 10
116.5126694123
 20
121.2040889842
 30
0.0
 40
65.0
100
AcDbArc
 50
96.66685847309999
 51
113.9055891347
  0
ARC
  5
3A3
330
222
100
AcDbEntity
  8
03___PRT_ALL_CURVES
  6
Continuous
 62
     4
100
AcDbCircle
 10
115.5416241387
 20
128.6300700011
 30
0.0
 40
64.26756257609999
100
AcDbArc
 50
94.75355168290001
 51
95.1574193028
  0
ARC
  5
3A4
330
222
100
AcDbEntity
  8
RUNDUNGEN
  6
Continuous
 62
     9
100
AcDbCircle
 10
116.1647621739
 20
122.2403650162
 30
0.0
 40
62.5735460451
100
AcDbArc
 50
78.3524453678
 51
78.5734867119
  0
ARC
  5
3A5
330
222
100
AcDbEntity
  8
RUNDUNGEN
  6
Continuous
 62
     9
100
AcDbCircle
 10
115.996984137
 20
122.4001912384
 30
0.0
 40
62.41050516569999
100
AcDbArc
 50
78.39319511560001
 51
79.5439401209
  0
ARC
  5
3A6
330
222
100
AcDbEntity
  8
RUNDUNGEN
  6
Continuous
 62
     9
100
AcDbCircle
 10
116.0635342741
 20
122.7622966923
 30
0.0
 40
62.0423337427
100
AcDbArc
 50
79.6500415142
 51
80.9527906551
  0
ARC
  5
3A7
330
222
100
AcDbEntity
  8
RUNDUNGEN
  6
Continuous
 62
     9
100
AcDbCircle
 10
116.4835381227
 20
123.307068025
 30
0.0
 40
61.7923506639
100
AcDbArc
 50
84.1891836888
 51
86.02607099950001
  0
ARC
  5
3A8
330
222
100
AcDbEntity
  8
RUNDUNGEN
  6
Continuous
 62
     9
100
AcDbCircle
 10
116.1048056625
 20
123.0200137477
 30
0.0
 40
61.7813330647
100
AcDbArc
 50
80.95300616880001
 51
82.2462965152
  0
ARC
  5
3A9
330
222
100
AcDbEntity
  8
RUNDUNGEN
  6
Continuous
 62
     9
100
AcDbCircle
 10
116.3231350029
 20
123.1144139958
 30
0.0
 40
61.6854482768
100
AcDbArc
 50
78.5568374392
 51
85.8748173767
  0
ARC
  5
3AA
330
222
100
AcDbEntity
  8
RUNDUNGEN
  6
Continuous
 62
     9
100
AcDbCircle
 10
116.1204147217
 20
123.1315946868
 30
0.0
 40
61.66866639569999
100
AcDbArc
 50
82.24667968
 51
82.45435752109999
  0
ARC
  5
3AB
330
222
100
AcDbEntity
  8
RUNDUNGEN
  6
Continuous
 62
     9
100
AcDbCircle
 10
116.1283458798
 20
123.1923674337
 30
0.0
 40
61.6073784188
100
AcDbArc
 50
82.45424782399998
 51
83.5059380699
  0
ARC
  5
3AC
330
222
100
AcDbEntity
  8
RUNDUNGEN
  6
Continuous
 62
     9
100
AcDbCircle
 10
116.1341116565
 20
123.2375015902
 30
0.0
 40
61.5618897976
100
AcDbArc
 50
85.0716081508
 51
85.690319152
  0
ARC
  5
3AD
330
222
100
AcDbEntity
  8
RUNDUNGEN
  6
Continuous
 62
     9
100
AcDbCircle
 10
116.1339632623
 20
123.2404471116
 30
0.0
 40
61.5589719131
100
AcDbArc
 50
83.5060716467
 51
83.8028095894
  0
ARC
  5
3AE
330
222
100
AcDbEntity
  8
RUNDUNGEN
  6
Continuous
 62
     9
100
AcDbCircle
 10
116.1356216097
 20
123.2556372767
 30
0.0
 40
61.54369149569999
100
AcDbArc
 50
83.80281784620001
 51
84.9529348637
  0
ARC
  5
3AF
330
222
100
AcDbEntity
  8
0
  6
Continuous
 62
     7
100
AcDbCircle
 10
118.8926694123
 20
123.8633361688
 30
0.0
 40
0.5
100
AcDbArc
 50
93.06471993450001
 51
269.0952800655
  0
ARC
  5
3B0
330
222
100
AcDbEntity
  8
0
  6
Continuous
 62
     7
100
AcDbCircle
 10
118.8525714494
 20
124.612263504
 30
0.0
 40
0.25
100
AcDbArc
 50
273.0647199345
 51
1.08
  0
ARC
  5
3B1
330
222
100
AcDbEntity
  8
0
  6
Continuous
 62
     7
100
AcDbCircle
 10
118.8808271482
 20
123.1134296675
 30
0.0
 40
0.25
100
AcDbArc
 50
1.08
 51
89.09528006549999
  0
ARC
  5
3B2
330
222
100
AcDbEntity
  8
0
  6
Continuous
 62
     7
100
AcDbCircle
 10
115.3077631217
 20
131.1965876001
 30
0.0
 40
61.6904028091
100
AcDbArc
 50
95.1553739809
 51
96.02532873700001
  0
ARC
  5
3B3
330
222
100
AcDbEntity
  8
0
  6
Continuous
 62
     7
100
AcDbCircle
 10
127.3066738095
 20
113.8633361688
 30
0.0
 40
8.0
100
AcDbArc
 50
181.08
 51
270.0
  0
ARC
  5
3B4
330
222
100
AcDbEntity
  8
0
  6
Continuous
 62
     7
100
AcDbCircle
 10
127.377418975
 20
113.8633361688
 30
0.0
 40
6.0
100
AcDbArc
 50
181.0
 51
270.0
  0
ARC
  5
3B5
330
222
100
AcDbEntity
  8
0
  6
Continuous
 62
     7
100
AcDbCircle
 10
138.198885378
 20
122.8633361688
 30
0.0
 40
17.0
100
AcDbArc
 50
303.8679971073
 51
358.5
  0
ARC
  5
3B6
330
222
100
AcDbEntity
  8
0
  6
Continuous
 62
     7
100
AcDbCircle
 10
138.6866493984
 20
122.3633361688
 30
0.0
 40
14.5
100
AcDbArc
 50
270.0
 51
358.5
  0
ARC
  5
3B7
330
222
100
AcDbEntity
  8
0
  6
Continuous
 62
     7
100
AcDbCircle
 10
122.3587756605
 20
156.3851571729
 30
0.0
 40
31.1899796824
100
AcDbArc
 50
129.191105115
 51
130.7256285479
  0
ARC
  5
3B8
330
222
100
AcDbEntity
  8
RUNDUNGEN
  6
Continuous
 62
     9
100
AcDbCircle
 10
115.4115865975
 20
165.2324950533
 30
0.0
 40
19.1997439205
100
AcDbArc
 50
58.12304018239999
 51
60.87587427489999
  0
ARC
  5
3B9
330
222
100
AcDbEntity
  8
RUNDUNGEN
  6
Continuous
 62
     9
100
AcDbCircle
 10
114.5938947717
 20
166.9779920265
 30
0.0
 40
18.4773096317
100
AcDbArc
 50
69.70055431850001
 51
70.5181086388
  0
ARC
  5
3BA
330
222
100
AcDbEntity
  8
RUNDUNGEN
  6
Continuous
 62
     9
100
AcDbCircle
 10
118.7911870385
 20
170.5206913666
 30
0.0
 40
13.963501743
100
AcDbArc
 50
80.8811454045
 51
81.913711088
  0
ARC
  5
3BB
330
222
100
AcDbEntity
  8
RUNDUNGEN
  6
Continuous
 62
     9
100
AcDbCircle
 10
118.3397183067
 20
170.0430881563
 30
0.0
 40
13.9427541017
100
AcDbArc
 50
79.460173641
 51
80.06700708670001
  0
ARC
  5
3BC
330
222
100
AcDbEntity
  8
0
  6
Continuous
 62
     9
100
AcDbCircle
 10
110.9202044356
 20
177.9757605368
 30
0.0
 40
13.2704960007
100
AcDbArc
 50
35.7431122513
 51
35.9272636405
  0
ARC
  5
3BD
330
222
100
AcDbEntity
  8
0
  6
Continuous
 62
     7
100
AcDbCircle
 10
112.2624144564
 20
174.6004401168
 30
0.0
 40
2.0
100
AcDbArc
 50
293.738518913
 51
359.0
  0
ARC
  5
3BE
330
222
100
AcDbEntity
  8
0
  6
Continuous
 62
     7
100
AcDbCircle
 10
118.0829243682
 20
174.6004401168
 30
0.0
 40
2.0
100
AcDbArc
 50
181.0
 51
246.261481087
  0
ARC
  5
3BF
330
222
100
AcDbEntity
  8
0
  6
Continuous
 62
     7
100
AcDbCircle
 10
113.7035909599
 20
171.3233361688
 30
0.0
 40
1.58
100
AcDbArc
 50
113.738518913
 51
178.92
  0
ARC
  5
3C0
330
222
100
AcDbEntity
  8
0
  6
Continuous
 62
     7
100
AcDbCircle
 10
116.6417478647
 20
171.3233361688
 30
0.0
 40
1.58
100
AcDbArc
 50
1.08
 51
66.26148108699999
  0
ARC
  5
3C1
330
222
100
AcDbEntity
  8
0
  6
Continuous
 62
     7
100
AcDbCircle
 10
111.2205000158
 20
176.8833361688
 30
0.0
 40
1.5
100
AcDbArc
 50
181.0
 51
270.0
  0
ARC
  5
3C2
330
222
100
AcDbEntity
  8
0
  6
Continuous
 62
     7
100
AcDbCircle
 10
111.2205000158
 20
176.8833361688
 30
0.0
 40
1.0
100
AcDbArc
 50
181.0
 51
270.0
  0
ARC
  5
3C3
330
222
100
AcDbEntity
  8
0
  6
Continuous
 62
     7
100
AcDbCircle
 10
111.2432990827
 20
176.8633361688
 30
0.0
 40
1.0
100
AcDbArc
 50
181.0
 51
270.0
  0
ARC
  5
3C4
330
222
100
AcDbEntity
  8
0
  6
Continuous
 62
     9
100
AcDbCircle
 10
111.9164674759
 20
178.5069693519
 30
0.0
 40
12.8595549152
100
AcDbArc
 50
33.4940397137
 51
34.9241023282
  0
ARC
  5
3C5
330
222
100
AcDbEntity
  8
0
  6
Continuous
 62
     7
100
AcDbCircle
 10
109.0825101071
 20
184.7713190064
 30
0.0
 40
1.0
100
AcDbArc
 50
1.0
 51
89.86923015200002
  0
ARC
  5
3C6
330
222
100
AcDbEntity
  8
0
  6
Continuous
 62
     7
100
AcDbCircle
 10
109.3015495545
 20
183.6823048455
 30
0.0
 40
0.2999999914
100
AcDbArc
 50
0.9999726468000002
 51
90.3545897112
  0
ARC
  5
3C7
330
222
100
AcDbEntity
  8
0
  6
Continuous
 62
     7
100
AcDbCircle
 10
120.1068723383
 20
175.4332980823
 30
0.0
 40
15.0248308227
100
AcDbArc
 50
36.4224472283
 51
37.3747049688
  0
ARC
  5
3C8
330
222
100
AcDbEntity
  8
0
  6
Continuous
 62
     7
100
AcDbCircle
 10
119.1248388088
 20
176.8833361688
 30
0.0
 40
1.5
100
AcDbArc
 50
270.0
 51
359.0
  0
ARC
  5
3C9
330
222
100
AcDbEntity
  8
0
  6
Continuous
 62
     7
100
AcDbCircle
 10
119.1248388088
 20
176.8833361688
 30
0.0
 40
1.0
100
AcDbArc
 50
270.0
 51
359.0
  0
ARC
  5
3CA
330
222
100
AcDbEntity
  8
0
  6
Continuous
 62
     7
100
AcDbCircle
 10
119.1020397419
 20
176.8633361688
 30
0.0
 40
1.0
100
AcDbArc
 50
270.0
 51
359.0
  0
ARC
  5
3CB
330
222
100
AcDbEntity
  8
0
  6
Continuous
 62
     7
100
AcDbCircle
 10
121.2628287175
 20
184.7713190064
 30
0.0
 40
1.0
100
AcDbArc
 50
90.13076984799999
 51
179.0
  0
ARC
  5
3CC
330
222
100
AcDbEntity
  8
0
  6
Continuous
 62
     7
100
AcDbCircle
 10
121.0693491538
 20
185.1466199234
 30
0.0
 40
0.3
100
AcDbArc
 50
90.2363708801
 51
179.0
  0
ARC
  5
3CD
330
222
100
AcDbEntity
  8
RUNDUNGEN
  6
Continuous
 62
     9
100
AcDbCircle
 10
126.3068159327
 20
181.3197767346
 30
0.0
 40
0.2431897879
100
AcDbArc
 50
57.79172245489999
 51
63.07156873910001
  0
ARC
  5
3CE
330
222
100
AcDbEntity
  8
RUNDUNGEN
  6
Continuous
 62
     9
100
AcDbCircle
 10
128.750324166
 20
183.2906098133
 30
0.0
 40
0.2395386347
100
AcDbArc
 50
72.50493853520001
 51
78.5707428063
  0
ARC
  5
3CF
330
222
100
AcDbEntity
  8
RUNDUNGEN
  6
Continuous
 62
     9
100
AcDbCircle
 10
128.5520838803
 20
183.3086748321
 30
0.0
 40
0.2214904382
100
AcDbArc
 50
71.7882683241
 51
78.08967142010001
  0
ARC
  5
3D0
330
222
100
AcDbEntity
  8
0
  6
Continuous
 62
     7
100
AcDbCircle
 10
155.3868262832
 20
167.9933361688
 30
0.0
 40
1.0
100
AcDbArc
 50
358.5
 51
178.5
  0
ARC
  5
3D1
330
222
100
AcDbEntity
  8
0
  6
Continuous
 62
     7
100
AcDbCircle
 10
145.6396298005
 20
180.6981564143
 30
0.0
 40
13.3361783071
100
AcDbArc
 50
166.9306466254
 51
168.1521358784
  0
ARC
  5
3D2
330
222
100
AcDbEntity
  8
0
  6
Continuous
 62
     4
100
AcDbCircle
 10
158.5706337644
 20
185.5654082536
 30
0.0
 40
1.9
100
AcDbArc
 50
97.14
 51
177.3475271553
  0
ARC
  5
3D3
330
222
100
AcDbEntity
  8
03___PRT_ALL_CURVES
  6
Continuous
 62
     4
100
AcDbCircle
 10
158.5706337644
 20
185.5654082536
 30
0.0
 40
1.9
100
AcDbArc
 50
97.14
 51
177.3475271553
  0
ARC
  5
3D4
330
222
100
AcDbEntity
  8
0
  6
Continuous
 62
     9
100
AcDbCircle
 10
-1379.6274502044
 20
270.5343618658
 30
0.0
 40
1503.1445883982
100
AcDbArc
 50
356.4519915511
 51
356.5769720366
  0
ARC
  5
3D5
330
222
100
AcDbEntity
  8
0
  6
Continuous
 62
     9
100
AcDbCircle
 10
98.4375339315
 20
188.3225165743
 30
0.0
 40
11.0176444466
100
AcDbArc
 50
8.292886514199999
 51
8.5693209738
  0
ARC
  5
3D6
330
222
100
AcDbEntity
  8
0
  6
Continuous
 62
     7
100
AcDbCircle
 10
109.6745463539
 20
193.6333822108
 30
0.0
 40
1.000005585
100
AcDbArc
 50
275.1593842157
 51
302.1463669639
  0
ARC
  5
3D7
330
222
100
AcDbEntity
  8
0
  6
Continuous
 62
     7
100
AcDbCircle
 10
109.0215594221
 20
189.5493570447
 30
0.0
 40
0.9999999498000001
100
AcDbArc
 50
1.000149438
 51
96.15512008700001
  0
ARC
  5
3D8
330
222
100
AcDbEntity
  8
0
  6
Continuous
 62
     9
100
AcDbCircle
 10
109.4271990912
 20
189.4659802000999
 30
0.0
 40
0.8720948717
100
AcDbArc
 50
72.58751884439999
 51
79.4163285954
  0
ARC
  5
3D9
330
222
100
AcDbEntity
  8
0
  6
Continuous
 62
     7
100
AcDbCircle
 10
70.67266941229999
 20
187.2233361688
 30
0.0
 40
0.6
100
AcDbArc
 50
224.9087755826
 51
270.0
  0
ARC
  5
3DA
330
222
100
AcDbEntity
  8
0
  6
Continuous
 62
     7
100
AcDbCircle
 10
73.42298557810001
 20
186.2433361688
 30
0.0
 40
0.59
100
AcDbArc
 50
208.0091655916
 51
270.0
  0
ARC
  5
3DB
330
222
100
AcDbEntity
  8
0
  6
Continuous
 62
     7
100
AcDbCircle
 10
113.0240180439
 20
189.5833361688
 30
0.0
 40
0.5
100
AcDbArc
 50
90.0
 51
179.0
  0
ARC
  5
3DC
330
222
100
AcDbEntity
  8
0
  6
Continuous
 62
     7
100
AcDbCircle
 10
114.9763212714
 20
186.8333361688
 30
0.0
 40
0.5
100
AcDbArc
 50
90.0
 51
179.0
  0
ARC
  5
3DD
330
222
100
AcDbEntity
  8
0
  6
Continuous
 62
     7
100
AcDbCircle
 10
69.16582829060001
 20
188.5933361688
 30
0.0
 40
0.5
100
AcDbArc
 50
135.0000000002
 51
224.9087755826
  0
ARC
  5
3DE
330
222
100
AcDbEntity
  8
0
  6
Continuous
 62
     7
100
AcDbCircle
 10
110.4726694123
 20
192.3633361688
 30
0.0
 40
0.5
100
AcDbArc
 50
90.0
 51
122.145550136
  0
ARC
  5
3DF
330
222
100
AcDbEntity
  8
0
  6
Continuous
 62
     7
100
AcDbCircle
 10
69.22298557810001
 20
188.9333361688
 30
0.0
 40
0.3
100
AcDbArc
 50
90.0
 51
135.0000000002
  0
ARC
  5
3E0
330
222
100
AcDbEntity
  8
0
  6
Continuous
 62
     7
100
AcDbCircle
 10
121.3178998856
 20
189.2125392893
 30
0.0
 40
0.9999999998000001
100
AcDbArc
 50
127.9300871332
 51
179.0023871324
  0
ARC
  5
3E1
330
222
100
AcDbEntity
  8
0
  6
Continuous
 62
     7
100
AcDbCircle
 10
115.3690175532
 20
186.8333361688
 30
0.0
 40
0.5
100
AcDbArc
 50
1.0
 51
90.0
  0
ARC
  5
3E2
330
222
100
AcDbEntity
  8
RUNDUNGEN
  6
Continuous
 62
     9
100
AcDbCircle
 10
128.7057846022999
 20
192.434487889
 30
0.0
 40
8.9097453822
100
AcDbArc
 50
269.3055370189
 51
269.6418428948
  0
ARC
  5
3E3
330
222
100
AcDbEntity
  8
RUNDUNGEN
  6
Continuous
 62
     9
100
AcDbCircle
 10
128.7217677259
 20
191.6319969087
 30
0.0
 40
8.1135484834
100
AcDbArc
 50
269.2905483167
 51
270.7102054483
  0
ARC
  5
3E4
330
222
100
AcDbEntity
  8
RUNDUNGEN
  6
Continuous
 62
     9
100
AcDbCircle
 10
128.699102823
 20
191.1471541034
 30
0.0
 40
7.622395102599999
100
AcDbArc
 50
269.6315791306
 51
270.741834872
  0
ARC
  5
3E5
330
222
100
AcDbEntity
  8
0
  6
Continuous
 62
     7
100
AcDbCircle
 10
119.6993559187
 20
190.5510659881
 30
0.0
 40
1.521955011399999
100
AcDbArc
 50
41.24945056709999
 51
48.5091158015
  0
ARC
  5
3E6
330
222
100
AcDbEntity
  8
0
  6
Continuous
 62
     9
100
AcDbCircle
 10
119.9850611816
 20
191.1762329927999
 30
0.0
 40
1.459136004799999
100
AcDbArc
 50
301.8008922087
 51
308.0945968821
  0
ARC
  5
3E7
330
222
100
AcDbEntity
  8
0
  6
Continuous
 62
     7
100
AcDbCircle
 10
119.7926620462
 20
190.6328869118
 30
0.0
 40
1.3978554669
100
AcDbArc
 50
33.86179973300001
 51
41.249597595
  0
ARC
  5
3E8
330
222
100
AcDbEntity
  8
0
  6
Continuous
 62
     7
100
AcDbCircle
 10
121.3707150945
 20
192.439633767
 30
0.0
 40
1.0
100
AcDbArc
 50
182.9176507254
 51
228.464825079
  0
ARC
  5
3E9
330
222
100
AcDbEntity
  8
0
  6
Continuous
 62
     9
100
AcDbCircle
 10
121.2949405425
 20
192.5150198206999
 30
0.0
 40
0.9530609608
100
AcDbArc
 50
226.8222238089
 51
234.8949901388
  0
ARC
  5
3EA
330
222
100
AcDbEntity
  8
0
  6
Continuous
 62
     9
100
AcDbCircle
 10
121.1706617551
 20
192.4298578564
 30
0.0
 40
0.7997084765000002
100
AcDbArc
 50
182.9451570618
 51
192.0184639447
  0
ARC
  5
3EB
330
222
100
AcDbEntity
  8
0
  6
Continuous
 62
     7
100
AcDbCircle
 10
117.3213207807
 20
189.5833361688
 30
0.0
 40
0.5
100
AcDbArc
 50
1.0
 51
90.0
  0
ARC
  5
3EC
330
222
100
AcDbEntity
  8
0
  6
Continuous
 62
     7
100
AcDbCircle
 10
119.8726694123
 20
192.3633361688
 30
0.0
 40
0.5
100
AcDbArc
 50
2.9156219697
 51
90.0
  0
ARC
  5
3ED
330
222
100
AcDbEntity
  8
0
  6
Continuous
 62
     4
100
AcDbCircle
 10
156.9223532465
 20
186.2433361688
 30
0.0
 40
0.59
100
AcDbArc
 50
270.0
 51
331.9908344084
  0
ARC
  5
3EE
330
222
100
AcDbEntity
  8
03___PRT_ALL_CURVES
  6
Continuous
 62
     4
100
AcDbCircle
 10
156.9223532465
 20
186.2433361688
 30
0.0
 40
0.59
100
AcDbArc
 50
270.0
 51
331.9908344084
  0
ARC
  5
3EF
330
222
100
AcDbEntity
  8
0
  6
Continuous
 62
     4
100
AcDbCircle
 10
159.6726694123
 20
187.2233361688
 30
0.0
 40
0.6
100
AcDbArc
 50
270.0
 51
315.0912244174
  0
ARC
  5
3F0
330
222
100
AcDbEntity
  8
03___PRT_ALL_CURVES
  6
Continuous
 62
     4
100
AcDbCircle
 10
159.6726694123
 20
187.2233361688
 30
0.0
 40
0.6
100
AcDbArc
 50
270.0
 51
315.0912244174
  0
ARC
  5
3F1
330
222
100
AcDbEntity
  8
0
  6
Continuous
 62
     4
100
AcDbCircle
 10
161.179510534
 20
188.5933361688
 30
0.0
 40
0.5
100
AcDbArc
 50
315.0912244174
 51
44.99999999979999
  0
ARC
  5
3F2
330
222
100
AcDbEntity
  8
03___PRT_ALL_CURVES
  6
Continuous
 62
     4
100
AcDbCircle
 10
161.179510534
 20
188.5933361688
 30
0.0
 40
0.5
100
AcDbArc
 50
315.0912244174
 51
44.99999999979999
  0
ARC
  5
3F3
330
222
100
AcDbEntity
  8
0
  6
Continuous
 62
     4
100
AcDbCircle
 10
161.1223532465
 20
188.9333361688
 30
0.0
 40
0.3
100
AcDbArc
 50
44.99999999979999
 51
90.0
  0
ARC
  5
3F4
330
222
100
AcDbEntity
  8
03___PRT_ALL_CURVES
  6
Continuous
 62
     4
100
AcDbCircle
 10
161.1223532465
 20
188.9333361688
 30
0.0
 40
0.3
100
AcDbArc
 50
44.99999999979999
 51
90.0
  0
ARC
  5
3F5
330
222
100
AcDbEntity
  8
0
  6
Continuous
 62
     7
100
AcDbCircle
 10
160.163004061
 20
211.247725994
 30
0.0
 40
72.59584657579999
100
AcDbArc
 50
201.0855323173
 51
201.6491324041
  0
ARC
  5
3F6
330
222
100
AcDbEntity
  8
RUNDUNGEN
  6
Continuous
 62
     9
100
AcDbCircle
 10
141.8028602091
 20
212.6758918025
 30
0.0
 40
35.1885644517
100
AcDbArc
 50
240.5556179863
 51
240.9788971114
  0
ARC
  5
3F7
330
222
100
AcDbEntity
  8
0
  6
Continuous
 62
     6
100
AcDbCircle
 10
3799.356043813
 20
204.0746498503
 30
0.0
 40
3706.1947156751
100
AcDbArc
 50
180.2961417485
 51
180.4226858571
  0
LINE
  5
3F8
330
222
100
AcDbEntity
  8
0
  6
Continuous
 62
     7
100
AcDbLine
 10
102.6495471397
 20
180.5587200816
 30
0.0
 11
102.6975716218
 21
180.5977834518
 31
0.0
  0
SPLINE
  5
3F9
330
222
100
AcDbEntity
  8
0
  6
Continuous
 62
     7
100
AcDbSpline
210
0.0
220
0.0
230
1.0
 70
     8
 71
     3
 72
     9
 73
     5
 74
     0
 42
0.0000000001
 43
0.0000000001
 40
0.0
 40
0.0
 40
0.0
 40
0.0
 40
0.5122775578000001
 40
1.0
 40
1.0
 40
1.0
 40
1.0
 10
102.6975716218
 20
180.5977834518
 30
0.0
 10
103.5231516757
 20
181.2679193438
 30
0.0
 10
105.2049290513
 20
182.492776339
 30
0.0
 10
107.0221808927
 20
183.5087661018
 30
0.0
 10
107.9368936589
 20
183.9425518861
 30
0.0
  0
LINE
  5
3FA
330
222
100
AcDbEntity
  8
0
  6
Continuous
 62
     7
100
AcDbLine
 10
107.9368936589
 20
183.9425518861
 30
0.0
 11
107.9431016766
 21
183.9454947728
 31
0.0
  0
SPLINE
  5
3FB
330
222
100
AcDbEntity
  8
0
  6
Continuous
 62
     7
100
AcDbSpline
210
0.0
220
0.0
230
1.0
 70
     8
 71
     3
 72
     9
 73
     5
 74
     0
 42
0.0000000001
 43
0.0000000001
 40
0.0
 40
0.0
 40
0.0
 40
0.0
 40
0.4839523586000001
 40
1.0
 40
1.0
 40
1.0
 40
1.0
 10
108.1875737895
 20
183.9619584018999
 30
0.0
 10
107.1936310584
 20
183.4649166075999
 30
0.0
 10
105.2202526448
 20
182.2720621291
 30
0.0
 10
103.4317866705
 20
180.8209444806
 30
0.0
 10
102.5564017504
 20
180.0222516924
 30
0.0
  0
SPLINE
  5
3FC
330
222
100
AcDbEntity
  8
RUNDUNGEN
  6
Continuous
 62
     9
100
AcDbSpline
210
0.0
220
0.0
230
1.0
 70
     8
 71
     3
 72
     9
 73
     5
 74
     0
 42
0.0000000001
 43
0.0000000001
 40
0.0
 40
0.0
 40
0.0
 40
0.0
 40
0.4851037964
 40
1.0
 40
1.0
 40
1.0
 40
1.0
 10
120.8901121491
 20
183.7506000818
 30
0.0
 10
121.8407673786
 20
183.573725905
 30
0.0
 10
123.7660815916
 20
183.0018096788
 30
0.0
 10
125.5453096475
 20
182.0784917831
 30
0.0
 10
126.4169528153
 20
181.5366029581
 30
0.0
  0
SPLINE
  5
3FD
330
222
100
AcDbEntity
  8
RUNDUNGEN
  6
Continuous
 62
     9
100
AcDbSpline
210
0.0
220
0.0
230
1.0
 70
     8
 71
     3
 72
     9
 73
     5
 74
     0
 42
0.0000000001
 43
0.0000000001
 40
0.0
 40
0.0
 40
0.0
 40
0.0
 40
0.2625894568
 40
1.0
 40
1.0
 40
1.0
 40
1.0
 10
125.5509117953
 20
181.5366126665
 30
0.0
 10
125.6266663072
 20
181.5335522604
 30
0.0
 10
125.9152464842
 20
181.524561477
 30
0.0
 10
126.2042621879
 20
181.5267225663
 30
0.0
 10
126.4169421277
 20
181.5366029581
 30
0.0
  0
LINE
  5
3FE
330
222
100
AcDbEntity
  8
RUNDUNGEN
  6
Continuous
 62
     9
100
AcDbLine
 10
124.7561645449
 20
182.0047647148
 30
0.0
 11
124.6957166297
 21
182.0382598828
 31
0.0
  0
LINE
  5
3FF
330
222
100
AcDbEntity
  8
RUNDUNGEN
  6
Continuous
 62
     9
100
AcDbLine
 10
124.6957166297
 20
182.0382598828
 30
0.0
 11
124.6883295938
 21
182.0423327834999
 31
0.0
  0
SPLINE
  5
400
330
222
100
AcDbEntity
  8
RUNDUNGEN
  6
Continuous
 62
     9
100
AcDbSpline
210
0.0
220
0.0
230
1.0
 70
     8
 71
     3
 72
     9
 73
     5
 74
     0
 42
0.0000000001
 43
0.0000000001
 40
0.0
 40
0.0
 40
0.0
 40
0.0
 40
0.5105073593000001
 40
1.0
 40
1.0
 40
1.0
 40
1.0
 10
124.6883295938
 20
182.0423327834999
 30
0.0
 10
124.0548220715
 20
182.3914319473
 30
0.0
 10
122.7717208277
 20
183.0024494613
 30
0.0
 10
121.4169613761
 20
183.4352052404
 30
0.0
 10
120.742638041
 20
183.5973842897
 30
0.0
  0
LINE
  5
401
330
222
100
AcDbEntity
  8
RUNDUNGEN
  6
Continuous
 62
     9
100
AcDbLine
 10
128.5977952025
 20
183.5253969665
 30
0.0
 11
128.5536196378
 21
183.534486523
 31
0.0
  0
LINE
  5
402
330
222
100
AcDbEntity
  8
RUNDUNGEN
  6
Continuous
 62
     9
100
AcDbLine
 10
127.3233308629
 20
183.7743309463
 30
0.0
 11
127.2100621769
 21
183.7951246781999
 31
0.0
  0
LINE
  5
403
330
222
100
AcDbEntity
  8
RUNDUNGEN
  6
Continuous
 62
     9
100
AcDbLine
 10
121.5498681107
 20
184.5607096423
 30
0.0
 11
121.4229325691
 21
184.5717876691
 31
0.0
  0
SPLINE
  5
404
330
222
100
AcDbEntity
  8
RUNDUNGEN
  6
Continuous
 62
     9
100
AcDbSpline
210
0.0
220
0.0
230
1.0
 70
     8
 71
     3
 72
    31
 73
    27
 74
     0
 42
0.0000000001
 43
0.0000000001
 40
0.0
 40
0.0
 40
0.0
 40
0.0
 40
0.0016211103
 40
0.0026948457
 40
0.0038973262
 40
0.0052253054
 40
0.0081373555
 40
0.0112744134
 40
0.0145585301
 40
0.017947563
 40
0.0249462586
 40
0.0321505108
 40
0.0394979378
 40
0.0544867252
 40
0.085172743
 40
0.1163821132
 40
0.147876167
 40
0.179534747
 40
0.2430906601
 40
0.3067436178
 40
0.3703529272
 40
0.4338494051
 40
0.4972012242
 40
0.6234384399000001
 40
0.7491623814000001
 40
1.0
 40
1.0
 40
1.0
 40
1.0
 10
126.4169436485
 20
181.5365953679
 30
0.0
 10
126.420252677
 20
181.5369368882
 30
0.0
 10
126.4268802396
 20
181.5393807644
 30
0.0
 10
126.4267032987
 20
181.5483081151
 30
0.0
 10
126.4241195554
 20
181.5551232268999
 30
0.0
 10
126.4187449815
 20
181.5649996245999
 30
0.0
 10
126.4098333585
 20
181.5772524119
 30
0.0
 10
126.3975241202
 20
181.5919399486
 30
0.0
 10
126.3839042567
 20
181.606769419
 30
0.0
 10
126.3643217747
 20
181.6268639828
 30
0.0
 10
126.3382900313
 20
181.6518865964
 30
0.0
 10
126.3056053289
 20
181.6816790707
 30
0.0
 10
126.2600249786
 20
181.721646692
 30
0.0
 10
126.1766446641
 20
181.79156523
 30
0.0
 10
126.0528032129
 20
181.8893602338
 30
0.0
 10
125.8994703451
 20
182.0043381779
 30
0.0
 10
125.7422443813
 20
182.1173844088
 30
0.0
 10
125.5285370044
 20
182.2655091043
 30
0.0
 10
125.2562683862
 20
182.444905435
 30
0.0
 10
124.9233496465
 20
182.6511279908
 30
0.0
 10
124.5851644013
 20
182.8483501488
 30
0.0
 10
124.2425234065
 20
183.0364468577
 30
0.0
 10
123.78098522
 20
183.274660772
 30
0.0
 10
123.1948125013
 20
183.5494171323
 30
0.0
 10
122.2392480764
 20
183.939333485
 30
0.0
 10
121.5017516463
 20
184.1759770867
 30
0.0
 10
121.0041638529
 20
184.3077182717
 30
0.0
  0
SPLINE
  5
405
330
222
100
AcDbEntity
  8
RUNDUNGEN
  6
Continuous
 62
     9
100
AcDbSpline
210
0.0
220
0.0
230
1.0
 70
     8
 71
     3
 72
     8
 73
     4
 74
     0
 42
0.0000000001
 43
0.0000000001
 40
0.0
 40
0.0
 40
0.0
 40
0.0
 40
1.0
 40
1.0
 40
1.0
 40
1.0
 10
121.1127327466
 20
184.5955173467
 30
0.0
 10
121.0523660147
 20
184.5126398833
 30
0.0
 10
121.013605549
 20
184.4098147295
 30
0.0
 10
121.0041645892
 20
184.3077182824
 30
0.0
  0
SPLINE
  5
406
330
222
100
AcDbEntity
  8
RUNDUNGEN
  6
Continuous
 62
     9
100
AcDbSpline
210
0.0
220
0.0
230
1.0
 70
     8
 71
     3
 72
     8
 73
     4
 74
     0
 42
0.0000000001
 43
0.0000000001
 40
0.0
 40
0.0
 40
0.0
 40
0.0
 40
1.0
 40
1.0
 40
1.0
 40
1.0
 10
125.5631309063
 20
181.5255581458
 30
0.0
 10
125.5592634448
 20
181.5294582573
 30
0.0
 10
125.5551922994
 20
181.5331711284
 30
0.0
 10
125.5509118297
 20
181.5366128878
 30
0.0
  0
SPLINE
  5
407
330
222
100
AcDbEntity
  8
RUNDUNGEN
  6
Continuous
 62
     9
100
AcDbSpline
210
0.0
220
0.0
230
1.0
 70
     8
 71
     3
 72
    19
 73
    15
 74
     0
 42
0.0000000001
 43
0.0000000001
 40
0.0
 40
0.0
 40
0.0
 40
0.0
 40
0.0036065643
 40
0.0092423037
 40
0.0185095634
 40
0.0295216299
 40
0.0416909599
 40
0.0546493461
 40
0.0820964272
 40
0.2021177759
 40
0.3294893095
 40
0.4603671738
 40
0.727902565
 40
1.0
 40
1.0
 40
1.0
 40
1.0
 10
128.7977904857
 20
183.5253974732
 30
0.0
 10
128.7983496267
 20
183.5254162808
 30
0.0
 10
128.8003729231
 20
183.5264051541
 30
0.0
 10
128.7959727995
 20
183.5280062705
 30
0.0
 10
128.7931810429
 20
183.5294662843
 30
0.0
 10
128.7881512249
 20
183.5313229695
 30
0.0
 10
128.7829796901
 20
183.5332058516
 30
0.0
 10
128.7752306368
 20
183.5358669411
 30
0.0
 10
128.7516286113
 20
183.543637586
 30
0.0
 10
128.7107895669
 20
183.5560122296
 30
0.0
 10
128.6544808814
 20
183.5724693921
 30
0.0
 10
128.5760259866
 20
183.5947824003
 30
0.0
 10
128.4757904
 20
183.6225453469
 30
0.0
 10
128.3949841885
 20
183.6444019974
 30
0.0
 10
128.3542138322
 20
183.655325209
 30
0.0
  0
SPLINE
  5
408
330
222
100
AcDbEntity
  8
RUNDUNGEN
  6
Continuous
 62
     9
100
AcDbSpline
210
0.0
220
0.0
230
1.0
 70
     8
 71
     3
 72
    10
 73
     6
 74
     0
 42
0.0000000001
 43
0.0000000001
 40
0.0
 40
0.0
 40
0.0
 40
0.0
 40
0.2454265663
 40
0.4954036688000001
 40
1.0
 40
1.0
 40
1.0
 40
1.0
 10
128.3542138322
 20
183.655325209
 30
0.0
 10
127.9014857618
 20
183.7766203103
 30
0.0
 10
126.9822294798
 20
184.0013649239
 30
0.0
 10
125.1149322281
 20
184.4022237039
 30
0.0
 10
123.6935119757
 20
184.6450078118
 30
0.0
 10
122.7396496147
 20
184.7819057187
 30
0.0
  0
SPLINE
  5
409
330
222
100
AcDbEntity
  8
RUNDUNGEN
  6
Continuous
 62
     9
100
AcDbSpline
210
0.0
220
0.0
230
1.0
 70
     8
 71
     3
 72
    10
 73
     6
 74
     0
 42
0.0000000001
 43
0.0000000001
 40
0.0
 40
0.0
 40
0.0
 40
0.0
 40
0.3946321144
 40
0.683741005
 40
1.0
 40
1.0
 40
1.0
 40
1.0
 10
122.9331144168
 20
185.0780731411999
 30
0.0
 10
122.884262233
 20
185.079528206
 30
0.0
 10
122.8118114613
 20
185.0044583686
 30
0.0
 10
122.7633886424
 20
184.8949886012
 30
0.0
 10
122.7450478027
 20
184.8206995433
 30
0.0
 10
122.7396496205
 20
184.781905719
 30
0.0
  0
SPLINE
  5
40A
330
222
100
AcDbEntity
  8
RUNDUNGEN
  6
Continuous
 62
     9
100
AcDbSpline
210
0.0
220
0.0
230
1.0
 70
     8
 71
     3
 72
    17
 73
    13
 74
     0
 42
0.0000000001
 43
0.0000000001
 40
0.0
 40
0.0
 40
0.0
 40
0.0
 40
0.2332740724
 40
0.3515958179999999
 40
0.4714097884
 40
0.5932258618999999
 40
0.7180351309000001
 40
0.7822112319
 40
0.8483754676
 40
0.9182532281999998
 40
0.9562869295
 40
1.0
 40
1.0
 40
1.0
 40
1.0
 10
124.67461721
 20
181.9965441897
 30
0.0
 10
124.7417488111
 20
181.9586614835
 30
0.0
 10
124.8428652968
 20
181.9014475092
 30
0.0
 10
124.978520253
 20
181.8248793308
 30
0.0
 10
125.0822362844
 20
181.7666543159
 30
0.0
 10
125.1881069116
 20
181.7078867334999
 30
0.0
 10
125.2783571692
 20
181.6588755508
 30
0.0
 10
125.3530250155
 20
181.6196936719
 30
0.0
 10
125.4120905915
 20
181.5899527533
 30
0.0
 10
125.4641828203
 20
181.5652753647
 30
0.0
 10
125.5105153937
 20
181.5467000391
 30
0.0
 10
125.5365087672
 20
181.5376994294
 30
0.0
 10
125.5509121513
 20
181.5366105378
 30
0.0
  0
SPLINE
  5
40B
330
222
100
AcDbEntity
  8
RUNDUNGEN
  6
Continuous
 62
     9
100
AcDbSpline
210
0.0
220
0.0
230
1.0
 70
     8
 71
     3
 72
     9
 73
     5
 74
     0
 42
0.0000000001
 43
0.0000000001
 40
0.0
 40
0.0
 40
0.0
 40
0.0
 40
0.2449250959
 40
1.0
 40
1.0
 40
1.0
 40
1.0
 10
123.6793903565
 20
182.5014166673
 30
0.0
 10
123.7468605142
 20
182.4632629699
 30
0.0
 10
124.022141126
 20
182.3071467078
 30
0.0
 10
124.2968031972
 20
182.1499394877
 30
0.0
 10
124.5049199153
 20
182.0325184607
 30
0.0
  0
SPLINE
  5
40C
330
222
100
AcDbEntity
  8
RUNDUNGEN
  6
Continuous
 62
     9
100
AcDbSpline
210
0.0
220
0.0
230
1.0
 70
     8
 71
     3
 72
    14
 73
    10
 74
     0
 42
0.0000000001
 43
0.0000000001
 40
0.0
 40
0.0
 40
0.0
 40
0.0
 40
0.2265879821
 40
0.4611513581000001
 40
0.5831170374
 40
0.7102491178000001
 40
0.8465492540999999
 40
0.9211842897
 40
1.0
 40
1.0
 40
1.0
 40
1.0
 10
124.7317713133
 20
181.9055653159999
 30
0.0
 10
124.7924179154
 20
181.8719792445
 30
0.0
 10
124.9161466737
 20
181.8041647543
 30
0.0
 10
125.073905521
 20
181.7208249209
 30
0.0
 10
125.2063167403
 20
181.6547126938
 30
0.0
 10
125.3130818118
 20
181.6047083963
 30
0.0
 10
125.4086303116
 20
181.5646449082
 30
0.0
 10
125.4927078886
 20
181.5368722443
 30
0.0
 10
125.5390365766
 20
181.5265314344
 30
0.0
 10
125.5631309401
 20
181.5255583282
 30
0.0
  0
SPLINE
  5
40D
330
222
100
AcDbEntity
  8
RUNDUNGEN
  6
Continuous
 62
     9
100
AcDbSpline
210
0.0
220
0.0
230
1.0
 70
     8
 71
     3
 72
     9
 73
     5
 74
     0
 42
0.0000000001
 43
0.0000000001
 40
0.0
 40
0.0
 40
0.0
 40
0.0
 40
0.2624744998
 40
1.0
 40
1.0
 40
1.0
 40
1.0
 10
125.5631309401
 20
181.5255583282
 30
0.0
 10
125.6394892533
 20
181.5225015669
 30
0.0
 10
125.9304955027
 20
181.5135198235
 30
0.0
 10
126.2219322201
 20
181.5156839909
 30
0.0
 10
126.4364362396
 20
181.5255460834
 30
0.0
  0
SPLINE
  5
40E
330
222
100
AcDbEntity
  8
RUNDUNGEN
  6
Continuous
 62
     9
100
AcDbSpline
210
0.0
220
0.0
230
1.0
 70
     8
 71
     3
 72
    30
 73
    26
 74
     0
 42
0.0000000001
 43
0.0000000001
 40
0.0
 40
0.0
 40
0.0
 40
0.0
 40
0.0079307799
 40
0.0127752808
 40
0.0178817548
 40
0.0234533038
 40
0.029397997
 40
0.0356302953
 40
0.0487256781
 40
0.0624265124
 40
0.0765554774
 40
0.0910039763
 40
0.1057003172
 40
0.1356487779
 40
0.166138673
 40
0.1970141253
 40
0.2281748195
 40
0.2910964768
 40
0.354560098
 40
0.4183742907
 40
0.4824269753000001
 40
0.6110043372
 40
0.7400772536
 40
0.8696806122999999
 40
1.0
 40
1.0
 40
1.0
 40
1.0
 10
126.4364362396
 20
181.5255460834
 30
0.0
 10
126.4503126167
 20
181.5262005025
 30
0.0
 10
126.476864081
 20
181.5323478065
 30
0.0
 10
126.4849085571
 20
181.5658753412
 30
0.0
 10
126.4789410928
 20
181.5924717801
 30
0.0
 10
126.4681991775
 20
181.619649906
 30
0.0
 10
126.4536646771
 20
181.647165436
 30
0.0
 10
126.4304832936
 20
181.6849036032
 30
0.0
 10
126.3967609727
 20
181.7319855386
 30
0.0
 10
126.3519547976
 20
181.7879638962
 30
0.0
 10
126.3035227268
 20
181.8440063519
 30
0.0
 10
126.2523665051
 20
181.8999504335
 30
0.0
 10
126.1808167091
 20
181.9747586547
 30
0.0
 10
126.0872286995
 20
182.0673258912
 30
0.0
 10
125.9704441253
 20
182.1766393238
 30
0.0
 10
125.8496346687
 20
182.2846960381
 30
0.0
 10
125.6836702654
 20
182.4274158515
 30
0.0
 10
125.4697801662
 20
182.601872964
 30
0.0
 10
125.2054667651
 20
182.8047539529
 30
0.0
 10
124.9341928468
 20
183.0016196652
 30
0.0
 10
124.5640678216
 20
183.2562145881
 30
0.0
 10
124.088332834
 20
183.5586560535
 30
0.0
 10
123.4995588319
 20
183.8959712424
 30
0.0
 10
122.8934528847
 20
184.207756268
 30
0.0
 10
122.4795157112
 20
184.3977725005
 30
0.0
 10
122.2699956445
 20
184.4883771893
 30
0.0
  0
SPLINE
  5
40F
330
222
100
AcDbEntity
  8
RUNDUNGEN
  6
Continuous
 62
     9
100
AcDbSpline
210
0.0
220
0.0
230
1.0
 70
     8
 71
     3
 72
     9
 73
     5
 74
     0
 42
0.0000000001
 43
0.0000000001
 40
0.0
 40
0.0
 40
0.0
 40
0.0
 40
0.5256287247
 40
1.0
 40
1.0
 40
1.0
 40
1.0
 10
128.4700483889
 20
183.5492077323
 30
0.0
 10
128.495271272
 20
183.5430418645
 30
0.0
 10
128.5433474466
 20
183.5320444737
 30
0.0
 10
128.5917978263
 20
183.5212614648
 30
0.0
 10
128.6151554348
 20
183.5193768436
 30
0.0
  0
LINE
  5
410
330
222
100
AcDbEntity
  8
RUNDUNGEN
  6
Continuous
 62
     9
100
AcDbLine
 10
128.6151554348
 20
183.5193768436
 30
0.0
 11
128.6213061633
 21
183.5190704042
 31
0.0
  0
SPLINE
  5
411
330
222
100
AcDbEntity
  8
RUNDUNGEN
  6
Continuous
 62
     9
100
AcDbSpline
210
0.0
220
0.0
230
1.0
 70
     8
 71
     3
 72
    23
 73
    19
 74
     0
 42
0.0000000001
 43
0.0000000001
 40
0.0
 40
0.0
 40
0.0
 40
0.0
 40
0.0091043969
 40
0.0143248565
 40
0.0174767765
 40
0.0218378433
 40
0.035853546
 40
0.055333655
 40
0.0784313552
 40
0.1040662029
 40
0.1604986685
 40
0.2215591548
 40
0.2857328304
 40
0.3521644349000001
 40
0.4203201738000001
 40
0.5604852813000001
 40
0.7044311623999999
 40
1.0
 40
1.0
 40
1.0
 40
1.0
 10
128.8223360195
 20
183.5190717266
 30
0.0
 10
128.8238733931
 20
183.5191008083
 30
0.0
 10
128.8261357182
 20
183.5193126055
 30
0.0
 10
128.8294402915
 20
183.519952616
 30
0.0
 10
128.8300218558
 20
183.5223768542
 30
0.0
 10
128.8275252612
 20
183.5253570329
 30
0.0
 10
128.8224788938
 20
183.52908396
 30
0.0
 10
128.8141448366
 20
183.5339172384
 30
0.0
 10
128.8039191901
 20
183.5391764657
 30
0.0
 10
128.7878724455
 20
183.5468167019
 30
0.0
 10
128.7657473522
 20
183.5565507859999
 30
0.0
 10
128.7374149757
 20
183.5683327298
 30
0.0
 10
128.7073573986
 20
183.5803500652
 30
0.0
 10
128.676066577
 20
183.5925069448
 30
0.0
 10
128.6326869215
 20
183.6089837398
 30
0.0
 10
128.5768783885
 20
183.6296031507
 30
0.0
 10
128.4847557629
 20
183.6627462736
 30
0.0
 10
128.4146569679
 20
183.687171159
 30
0.0
 10
128.367442484
 20
183.7033786822
 30
0.0
  0
SPLINE
  5
412
330
222
100
AcDbEntity
  8
RUNDUNGEN
  6
Continuous
 62
     9
100
AcDbSpline
210
0.0
220
0.0
230
1.0
 70
     8
 71
     3
 72
    12
 73
     8
 74
     0
 42
0.0000000001
 43
0.0000000001
 40
0.0
 40
0.0
 40
0.0
 40
0.0
 40
0.1183976328
 40
0.2406990226
 40
0.4904848452000001
 40
0.7440672817000001
 40
1.0
 40
1.0
 40
1.0
 40
1.0
 10
128.367442484
 20
183.7033786822
 30
0.0
 10
128.1580428868
 20
183.7752602013
 30
0.0
 10
127.7295986378
 20
183.9134030225
 30
0.0
 10
126.8508149897
 20
184.1760748798
 30
0.0
 10
125.7205997982
 20
184.4794503263
 30
0.0
 10
124.3378673171
 20
184.8028125287
 30
0.0
 10
123.4036562066
 20
184.9907675558
 30
0.0
 10
122.9331144164
 20
185.0780731389
 30
0.0
  0
LINE
  5
413
330
222
100
AcDbEntity
  8
RUNDUNGEN
  6
Continuous
 62
     9
100
AcDbLine
 10
121.0494849369
 20
185.3900239731
 30
0.0
 11
120.9227440395
 21
185.4083289406
 31
0.0
  0
LINE
  5
414
330
222
100
AcDbEntity
  8
RUNDUNGEN
  6
Continuous
 62
     9
100
AcDbLine
 10
120.8645792173
 20
185.0924209926
 30
0.0
 11
120.7686066921
 21
185.1063116631
 31
0.0
  0
SPLINE
  5
415
330
222
100
AcDbEntity
  8
RUNDUNGEN
  6
Continuous
 62
     9
100
AcDbSpline
210
0.0
220
0.0
230
1.0
 70
     8
 71
     3
 72
     9
 73
     5
 74
     0
 42
0.0000000001
 43
0.0000000001
 40
0.0
 40
0.0
 40
0.0
 40
0.0
 40
0.528052653
 40
1.0
 40
1.0
 40
1.0
 40
1.0
 10
128.5533963467
 20
183.5329751293
 30
0.0
 10
128.5611645686
 20
183.5313781109
 30
0.0
 10
128.5758937794
 20
183.5286654606
 30
0.0
 10
128.5907085341
 20
183.5255403229
 30
0.0
 10
128.5977951086
 20
183.5253955754
 30
0.0
  0
SPLINE
  5
416
330
222
100
AcDbEntity
  8
0
  6
Continuous
 62
     7
100
AcDbSpline
210
0.0
220
0.0
230
1.0
 70
     8
 71
     3
 72
    11
 73
     7
 74
     0
 42
0.0000000001
 43
0.0000000001
 40
0.0
 40
0.0
 40
0.0
 40
0.0
 40
0.4224706546000001
 40
0.7376465876000001
 40
0.9333902578
 40
1.0
 40
1.0
 40
1.0
 40
1.0
 10
88.86012418860001
 20
179.3233361684
 30
0.0
 10
88.78116540290001
 20
179.4317733411
 30
0.0
 10
88.65141565260001
 20
179.606030794
 30
0.0
 10
88.4323239945
 20
179.8790527776
 30
0.0
 10
88.37869240329998
 20
179.9479198673
 30
0.0
 10
88.25917414370001
 20
180.0891919789
 30
0.0
 10
88.2731699544
 20
180.0733361683
 30
0.0
  0
SPLINE
  5
417
330
222
100
AcDbEntity
  8
0
  6
Continuous
 62
     7
100
AcDbSpline
210
0.0
220
0.0
230
1.0
 70
     8
 71
     3
 72
     9
 73
     5
 74
     0
 42
0.0000000001
 43
0.0000000001
 40
0.0
 40
0.0
 40
0.0
 40
0.0
 40
0.5206681008000001
 40
1.0
 40
1.0
 40
1.0
 40
1.0
 10
138.2107207841
 20
176.7333361688
 30
0.0
 10
138.196878425
 20
177.5263643916
 30
0.0
 10
138.2392810592
 20
179.0520890901
 30
0.0
 10
138.4736721268
 20
180.5637990998
 30
0.0
 10
138.6468822854
 20
181.2731379589
 30
0.0
  0
SPLINE
  5
418
330
222
100
AcDbEntity
  8
0
  6
Continuous
 62
     7
100
AcDbSpline
210
0.0
220
0.0
230
1.0
 70
     8
 71
     3
 72
    17
 73
    13
 74
     0
 42
0.0000000001
 43
0.0000000001
 40
0.0
 40
0.0
 40
0.0
 40
0.0
 40
0.1266655326
 40
0.2460348664
 40
0.3051307413
 40
0.3650213711
 40
0.4263422424
 40
0.4891852663
 40
0.6183929314
 40
0.7491995223000001
 40
0.8774516558
 40
1.0
 40
1.0
 40
1.0
 40
1.0
 10
138.6468822854
 20
181.2731379589
 30
0.0
 10
138.8295362738
 20
182.0211516597
 30
0.0
 10
139.3166724659
 20
183.4483940579
 30
0.0
 10
140.3199433001
 20
185.0333664327
 30
0.0
 10
141.3247172148
 20
186.0828275679
 30
0.0
 10
142.1845276174
 20
186.7677773005
 30
0.0
 10
143.140734936
 20
187.3533520597
 30
0.0
 10
144.5324226558
 20
188.0183502734
 30
0.0
 10
146.4085407465
 20
188.6242061642
 30
0.0
 10
148.7362047609
 20
189.0450449137
 30
0.0
 10
151.0525345735
 20
189.2161009716
 30
0.0
 10
152.5773898245
 20
189.2333361688
 30
0.0
 10
153.3223532465
 20
189.2333361688
 30
0.0
  0
SPLINE
  5
419
330
222
100
AcDbEntity
  8
0
  6
Continuous
 62
     7
100
AcDbSpline
210
0.0
220
0.0
230
1.0
 70
     8
 71
     3
 72
    18
 73
    14
 74
     0
 42
0.0000000001
 43
0.0000000001
 40
0.0
 40
0.0
 40
0.0
 40
0.0
 40
0.0606041568
 40
0.1217700372
 40
0.1832381226
 40
0.2444247563
 40
0.3051884863
 40
0.3654775315
 40
0.4852342743
 40
0.6067378553000001
 40
0.7322544905
 40
0.8627576323999999
 40
1.0
 40
1.0
 40
1.0
 40
1.0
 10
150.3726694123
 20
185.6533361688
 30
0.0
 10
150.0864483151
 20
185.6533361688
 30
0.0
 10
149.5114889699
 20
185.6127604922
 30
0.0
 10
148.654475209
 20
185.4907864928
 30
0.0
 10
147.8039194671
 20
185.3113007286
 30
0.0
 10
146.9776862906
 20
185.0456270372
 30
0.0
 10
146.1888183502
 20
184.6974395001
 30
0.0
 10
145.20065459
 20
184.1307789623
 30
0.0
 10
144.0856325297
 20
183.2263968246
 30
0.0
 10
142.9811789552
 20
181.8789780312
 30
0.0
 10
142.111395986
 20
180.3113701787
 30
0.0
 10
141.524211356
 20
178.5376001038
 30
0.0
 10
141.3740100707
 20
177.2714052179
 30
0.0
 10
141.3626979834
 20
176.6233361688
 30
0.0
  0
SPLINE
  5
41A
330
222
100
AcDbEntity
  8
0
  6
Continuous
 62
     7
100
AcDbSpline
210
0.0
220
0.0
230
1.0
 70
     8
 71
     3
 72
    14
 73
    10
 74
     0
 42
0.0000000001
 43
0.0000000001
 40
0.0
 40
0.0
 40
0.0
 40
0.0
 40
0.2464821575
 40
0.3752036237
 40
0.5053684496999999
 40
0.6345326602
 40
0.7604849155000001
 40
0.8820708906999998
 40
1.0
 40
1.0
 40
1.0
 40
1.0
 10
77.0229855781
 20
189.2333361688
 30
0.0
 10
78.13312767380001
 20
189.2333361688
 30
0.0
 10
79.8251800404
 20
189.2041922054
 30
0.0
 10
82.090371776
 20
188.9613290909
 30
0.0
 10
83.80898296319999
 20
188.6306263248
 30
0.0
 10
85.4762350112
 20
188.1377715253
 30
0.0
 10
87.03937960360001
 20
187.4657075186
 30
0.0
 10
88.4459611603
 20
186.5962137381
 30
0.0
 10
89.24539071039999
 20
185.8595284359999
 30
0.0
 10
89.59830781219999
 20
185.4625828022
 30
0.0
  0
LINE
  5
41B
330
222
100
AcDbEntity
  8
0
  6
Continuous
 62
     7
100
AcDbLine
 10
89.59830781219999
 20
185.4625828022
 30
0.0
 11
89.62264817979999
 21
185.4833181066999
 31
0.0
  0
SPLINE
  5
41C
330
222
100
AcDbEntity
  8
0
  6
Continuous
 62
     7
100
AcDbSpline
210
0.0
220
0.0
230
1.0
 70
     8
 71
     3
 72
    13
 73
     9
 74
     0
 42
0.0000000001
 43
0.0000000001
 40
0.0
 40
0.0
 40
0.0
 40
0.0
 40
0.1275306767
 40
0.2528636985
 40
0.5012393973
 40
0.6255984762
 40
0.750213165
 40
1.0
 40
1.0
 40
1.0
 40
1.0
 10
89.62264817979999
 20
185.4833181066999
 30
0.0
 10
90.2948876916
 20
186.0551826266
 30
0.0
 10
91.69503965209999
 20
187.1124661762
 30
0.0
 10
94.6787659896
 20
188.8921721824999
 30
0.0
 10
97.8818007499
 20
190.2165685015
 30
0.0
 10
101.1820182246
 20
191.196934344
 30
0.0
 10
104.5451733578
 20
191.9818607353
 30
0.0
 10
107.1131547623
 20
192.3646396847
 30
0.0
 10
108.8322386772
 20
192.5461872884
 30
0.0
  0
SPLINE
  5
41D
330
222
100
AcDbEntity
  8
0
  6
Continuous
 62
     7
100
AcDbSpline
210
0.0
220
0.0
230
1.0
 70
     8
 71
     3
 72
    11
 73
     7
 74
     0
 42
0.0000000001
 43
0.0000000001
 40
0.0
 40
0.0
 40
0.0
 40
0.0
 40
0.2551608667
 40
0.5073549592000001
 40
0.7551597328000001
 40
1.0
 40
1.0
 40
1.0
 40
1.0
 10
108.9143387567
 20
190.5435930662
 30
0.0
 10
107.4326668635
 20
190.3838065248
 30
0.0
 10
104.4967397365
 20
189.9525990371
 30
0.0
 10
100.2062450122
 20
188.8986332186
 30
0.0
 10
96.11582714379999
 20
187.3833198846
 30
0.0
 10
93.59575667500001
 20
185.9557014591
 30
0.0
 10
92.42785541249999
 20
185.1305558253
 30
0.0
  0
LINE
  5
41E
330
222
100
AcDbEntity
  8
0
  6
Continuous
 62
     7
100
AcDbLine
 10
89.28590108959999
 20
181.0633361675
 30
0.0
 11
88.2731699542
 21
180.0733361682
 31
0.0
  0
SPLINE
  5
41F
330
222
100
AcDbEntity
  8
0
  6
Continuous
 62
     7
100
AcDbSpline
210
0.0
220
0.0
230
1.0
 70
     8
 71
     3
 72
    11
 73
     7
 74
     0
 42
0.0000000001
 43
0.0000000001
 40
0.0
 40
0.0
 40
0.0
 40
0.0
 40
0.250150805
 40
0.5001928194
 40
0.7501785284000001
 40
1.0
 40
1.0
 40
1.0
 40
1.0
 10
120.9534188051
 20
191.4117602345
 30
0.0
 10
121.003975504
 20
191.3362478453
 30
0.0
 10
121.0901428363
 20
191.1742231403
 30
0.0
 10
121.1545233417
 20
190.9058976329
 30
0.0
 10
121.1386686522
 20
190.6298059727
 30
0.0
 10
121.0731801598
 20
190.4572063356
 30
0.0
 10
121.0297499552
 20
190.377518268
 30
0.0
  0
SPLINE
  5
420
330
222
100
AcDbEntity
  8
0
  6
Continuous
 62
     7
100
AcDbSpline
210
0.0
220
0.0
230
1.0
 70
     8
 71
     3
 72
     8
 73
     4
 74
     0
 42
0.0000000001
 43
0.0000000001
 40
0.0
 40
0.0
 40
0.0
 40
0.0
 40
1.0
 40
1.0
 40
1.0
 40
1.0
 10
121.0297499552
 20
190.377518268
 30
0.0
 10
120.9502831374
 20
190.2317082906
 30
0.0
 10
120.8342102064
 20
190.1033387675999
 30
0.0
 10
120.7032156082
 20
190.0012802556
 30
0.0
  0
SPLINE
  5
421
330
222
100
AcDbEntity
  8
0
  6
Continuous
 62
     7
100
AcDbSpline
210
0.0
220
0.0
230
1.0
 70
     8
 71
     3
 72
    15
 73
    11
 74
     0
 42
0.0000000001
 43
0.0000000001
 40
0.0
 40
0.0
 40
0.0
 40
0.0
 40
0.1296908533
 40
0.2558559599
 40
0.379399382
 40
0.5019316007
 40
0.6253282116
 40
0.7501488906999999
 40
0.8757812375
 40
1.0
 40
1.0
 40
1.0
 40
1.0
 10
88.2731699542
 20
180.0733361682
 30
0.0
 10
88.09902899829999
 20
180.4987173781
 30
0.0
 10
87.69444592030001
 20
181.3141918869
 30
0.0
 10
86.93560677049999
 20
182.4292297321
 30
0.0
 10
86.0400932559
 20
183.4048860535
 30
0.0
 10
85.0103673267
 20
184.2231264905
 30
0.0
 10
83.8567444457
 20
184.8639270656
 30
0.0
 10
82.60424282149999
 20
185.3156435939
 30
0.0
 10
81.2970154019
 20
185.5625269761
 30
0.0
 10
80.4129212031
 20
185.6533361688
 30
0.0
 10
79.97266941229999
 20
185.6533361688
 30
0.0
  0
SPLINE
  5
422
330
222
100
AcDbEntity
  8
0
  6
Continuous
 62
     9
100
AcDbSpline
210
0.0
220
0.0
230
1.0
 70
     8
 71
     3
 72
    14
 73
    10
 74
     0
 42
0.0000000001
 43
0.0000000001
 40
0.0
 40
0.0
 40
0.0
 40
0.0
 40
0.250009634
 40
0.5000177816
 40
0.6250214501000001
 40
0.7500247817
 40
0.8750262328999999
 40
0.9375227946999999
 40
1.0
 40
1.0
 40
1.0
 40
1.0
 10
131.3436325518
 20
183.5841198534
 30
0.0
 10
131.3867491647
 20
183.0131336732
 30
0.0
 10
131.4728262512
 20
181.8711528494
 30
0.0
 10
131.5799882332
 20
180.4436463244
 30
0.0
 10
131.6653513045
 20
179.3016174276
 30
0.0
 10
131.7292883628
 20
178.4450984293
 30
0.0
 10
131.7822915691
 20
177.7313174726
 30
0.0
 10
131.8260768939
 20
177.1604721542
 30
0.0
 10
131.8487279425
 20
176.8751114086
 30
0.0
 10
131.8625751176
 20
176.73268775
 30
0.0
  0
SPLINE
  5
423
330
222
100
AcDbEntity
  8
0
  6
Continuous
 62
     9
100
AcDbSpline
210
0.0
220
0.0
230
1.0
 70
     8
 71
     3
 72
    14
 73
    10
 74
     0
 42
0.0000000001
 43
0.0000000001
 40
0.0
 40
0.0
 40
0.0
 40
0.0
 40
0.0159501182
 40
0.0637263249
 40
0.1431242577
 40
0.2538355599
 40
0.3954363963
 40
0.5674167179000001
 40
1.0
 40
1.0
 40
1.0
 40
1.0
 10
108.9143387196
 20
190.5435930622
 30
0.0
 10
108.913313907
 20
190.5455332956
 30
0.0
 10
108.9276963987
 20
190.5332235774
 30
0.0
 10
108.9375634006
 20
190.5299719091999
 30
0.0
 10
108.9690245003
 20
190.5082744078
 30
0.0
 10
109.0059083777
 20
190.4857136972
 30
0.0
 10
109.0559512001
 20
190.4539082979
 30
0.0
 10
109.1426270907
 20
190.3997475211
 30
0.0
 10
109.2134245967
 20
190.3557213666
 30
0.0
 10
109.2640594264
 20
190.32445483
 30
0.0
  0
SPLINE
  5
424
330
222
100
AcDbEntity
  8
0
  6
Continuous
 62
     7
100
AcDbSpline
210
0.0
220
0.0
230
1.0
 70
     8
 71
     3
 72
     9
 73
     5
 74
     0
 42
0.0000000001
 43
0.0000000001
 40
0.0
 40
0.0
 40
0.0
 40
0.0
 40
0.1811248162
 40
1.0
 40
1.0
 40
1.0
 40
1.0
 10
93.08191135420001
 20
176.7403679091
 30
0.0
 10
93.08130691299998
 20
176.7403996847
 30
0.0
 10
93.0779125159
 20
176.7408711734
 30
0.0
 10
93.07509868670001
 20
176.7368242993
 30
0.0
 10
93.07486183389999
 20
176.7340980839
 30
0.0
  0
SPLINE
  5
425
330
222
100
AcDbEntity
  8
0
  6
Continuous
 62
     7
100
AcDbSpline
210
0.0
220
0.0
230
1.0
 70
     8
 71
     3
 72
    12
 73
     8
 74
     0
 42
0.0000000001
 43
0.0000000001
 40
0.0
 40
0.0
 40
0.0
 40
0.0
 40
0.2508288904
 40
0.5015886516000001
 40
0.7520838069
 40
0.8769541951999999
 40
1.0
 40
1.0
 40
1.0
 40
1.0
 10
93.10158645979999
 20
177.4016593871
 30
0.0
 10
93.10090996780001
 20
177.3463362092
 30
0.0
 10
93.09908513389999
 20
177.235708947
 30
0.0
 10
93.09529458860001
 20
177.069866063
 30
0.0
 10
93.09000961629999
 20
176.9318202803
 30
0.0
 10
93.08616418639999
 20
176.8220199431
 30
0.0
 10
93.0799799064
 20
176.767405795
 30
0.0
 10
93.08114256459999
 20
176.7402895219
 30
0.0
  0
SPLINE
  5
426
330
222
100
AcDbEntity
  8
0
  6
Continuous
 62
     7
100
AcDbSpline
210
0.0
220
0.0
230
1.0
 70
     8
 71
     3
 72
    20
 73
    16
 74
     0
 42
0.0000000001
 43
0.0000000001
 40
0.0
 40
0.0
 40
0.0
 40
0.0
 40
0.2616027971
 40
0.3943804388
 40
0.5258164301
 40
0.6543150084000001
 40
0.7786097405
 40
0.8388075998999999
 40
0.8973843925
 40
0.9258704331999998
 40
0.953434305
 40
0.9666469703
 40
0.9793649641
 40
0.9895739145999998
 40
1.0
 40
1.0
 40
1.0
 40
1.0
 10
131.4680442642
 20
183.7627012981
 30
0.0
 10
131.5204087621
 20
183.8315281143
 30
0.0
 10
131.6025597095
 20
183.9328045315
 30
0.0
 10
131.710990945
 20
184.0686620863
 30
0.0
 10
131.7899221781
 20
184.1717623406
 30
0.0
 10
131.8632639518
 20
184.2755176719
 30
0.0
 10
131.9189719522
 20
184.3627664911999
 30
0.0
 10
131.95951902
 20
184.4321545144
 30
0.0
 10
131.9829797102
 20
184.4748085083
 30
0.0
 10
132.0010599475
 20
184.5081221050999
 30
0.0
 10
132.011935115
 20
184.5282444461999
 30
0.0
 10
132.0215275049
 20
184.543202799
 30
0.0
 10
132.0274410939999
 20
184.5533375603
 30
0.0
 10
132.0374708202
 20
184.5607318527
 30
0.0
 10
132.0447695435
 20
184.5565365489
 30
0.0
 10
132.0468639657
 20
184.553799168
 30
0.0
  0
SPLINE
  5
427
330
222
100
AcDbEntity
  8
0
  6
Continuous
 62
     7
100
AcDbSpline
210
0.0
220
0.0
230
1.0
 70
     8
 71
     3
 72
    23
 73
    19
 74
     0
 42
0.0000000001
 43
0.0000000001
 40
0.0
 40
0.0
 40
0.0
 40
0.0
 40
0.2471599306
 40
0.3724538002
 40
0.4981230603000001
 40
0.5610172685000001
 40
0.6239237882000001
 40
0.6868285303000001
 40
0.7497207627
 40
0.8125917628999999
 40
0.8440166662999999
 40
0.8754325813999999
 40
0.9068368168999999
 40
0.9382233745999998
 40
0.9539037798
 40
0.9695661164
 40
0.9851871535999999
 40
1.0
 40
1.0
 40
1.0
 40
1.0
 10
132.2921408658
 20
181.3546013984
 30
0.0
 10
132.2600611337999
 20
180.9729778447
 30
0.0
 10
132.1917167113
 20
180.3997612582
 30
0.0
 10
132.1064286011
 20
179.6326873516
 30
0.0
 10
132.0565619385
 20
179.1489184838
 30
0.0
 10
132.0202360051
 20
178.7609658034
 30
0.0
 10
131.9948795165
 20
178.4696694903
 30
0.0
 10
131.9715447847
 20
178.1782072718
 30
0.0
 10
131.9502766207
 20
177.8866423184
 30
0.0
 10
131.9342625123
 20
177.6436068614
 30
0.0
 10
131.9223835501
 20
177.4491822631
 30
0.0
 10
131.9138886963
 20
177.303395162
 30
0.0
 10
131.9056490952
 20
177.1576690278
 30
0.0
 10
131.8988481825
 20
177.0362305631
 30
0.0
 10
131.89289929
 20
176.9392938275
 30
0.0
 10
131.8877854683
 20
176.8664606652
 30
0.0
 10
131.8817322551
 20
176.7961792449
 30
0.0
 10
131.8751593211
 20
176.7472997552
 30
0.0
 10
131.8630433692
 20
176.7278059611
 30
0.0
  0
LINE
  5
428
330
222
100
AcDbEntity
  8
0
  6
Continuous
 62
     9
100
AcDbLine
 10
109.7190379669
 20
176.7333361688
 30
0.0
 11
93.08191135420001
 21
176.7403679091
 31
0.0
  0
SPLINE
  5
429
330
222
100
AcDbEntity
  8
0
  6
Continuous
 62
     7
100
AcDbSpline
210
0.0
220
0.0
230
1.0
 70
     8
 71
     3
 72
     9
 73
     5
 74
     0
 42
0.0000000001
 43
0.0000000001
 40
0.0
 40
0.0
 40
0.0
 40
0.0
 40
0.4896562202000001
 40
1.0
 40
1.0
 40
1.0
 40
1.0
 10
129.357579592
 20
184.536989435
 30
0.0
 10
128.8125732883
 20
184.7748871933
 30
0.0
 10
127.635634782
 20
185.1309904804
 30
0.0
 10
126.4049551134
 20
185.1543291279
 30
0.0
 10
125.788343103
 20
185.0916476817
 30
0.0
  0
SPLINE
  5
42A
330
222
100
AcDbEntity
  8
0
  6
Continuous
 62
     9
100
AcDbSpline
210
0.0
220
0.0
230
1.0
 70
     8
 71
     3
 72
     9
 73
     5
 74
     0
 42
0.0000000001
 43
0.0000000001
 40
0.0
 40
0.0
 40
0.0
 40
0.0
 40
0.1892021568
 40
1.0
 40
1.0
 40
1.0
 40
1.0
 10
109.2640481006
 20
190.3244573406
 30
0.0
 10
109.2656287347
 20
190.3196333836
 30
0.0
 10
109.2732329838
 20
190.2938938705
 30
0.0
 10
109.2790570088
 20
190.2676723628
 30
0.0
 10
109.283553475
 20
190.2463883474
 30
0.0
  0
SPLINE
  5
42B
330
222
100
AcDbEntity
  8
0
  6
Continuous
 62
     9
100
AcDbSpline
210
0.0
220
0.0
230
1.0
 70
     8
 71
     3
 72
     9
 73
     5
 74
     0
 42
0.0000000001
 43
0.0000000001
 40
0.0
 40
0.0
 40
0.0
 40
0.0
 40
0.1970586332
 40
1.0
 40
1.0
 40
1.0
 40
1.0
 10
109.283553475
 20
190.2463883474
 30
0.0
 10
109.2874414427
 20
190.2279846587
 30
0.0
 10
109.3058082859
 20
190.1343064563
 30
0.0
 10
109.3207574492
 20
190.0399978235
 30
0.0
 10
109.3321807889
 20
189.9642105173
 30
0.0
  0
SPLINE
  5
42C
330
222
100
AcDbEntity
  8
0
  6
Continuous
 62
     9
100
AcDbSpline
210
0.0
220
0.0
230
1.0
 70
     8
 71
     3
 72
     8
 73
     4
 74
     0
 42
0.0000000001
 43
0.0000000001
 40
0.0
 40
0.0
 40
0.0
 40
0.0
 40
1.0
 40
1.0
 40
1.0
 40
1.0
 10
120.8200735774
 20
191.9674678678
 30
0.0
 10
120.7105148244
 20
192.0018990778
 30
0.0
 10
120.6057557521
 20
192.0588879641
 30
0.0
 10
120.5177179071
 20
192.1326305327
 30
0.0
  0
SPLINE
  5
42D
330
222
100
AcDbEntity
  8
0
  6
Continuous
 62
     9
100
AcDbSpline
210
0.0
220
0.0
230
1.0
 70
     8
 71
     3
 72
    11
 73
     7
 74
     0
 42
0.0000000001
 43
0.0000000001
 40
0.0
 40
0.0
 40
0.0
 40
0.0
 40
0.2336178045
 40
0.4773899355
 40
0.7323688888
 40
1.0
 40
1.0
 40
1.0
 40
1.0
 10
120.3012091882
 20
188.2598019023
 30
0.0
 10
120.4929047506
 20
188.0970281038
 30
0.0
 10
120.8722148043
 20
187.749644708
 30
0.0
 10
121.420708925
 20
187.1827987212
 30
0.0
 10
121.9583401463
 20
186.5563385509999
 30
0.0
 10
122.2952307499
 20
186.1051605345
 30
0.0
 10
122.4601595694
 20
185.8689466441999
 30
0.0
  0
SPLINE
  5
42E
330
222
100
AcDbEntity
  8
0
  6
Continuous
 62
     9
100
AcDbSpline
210
0.0
220
0.0
230
1.0
 70
     8
 71
     3
 72
     9
 73
     5
 74
     0
 42
0.0000000001
 43
0.0000000001
 40
0.0
 40
0.0
 40
0.0
 40
0.0
 40
0.5214252772
 40
1.0
 40
1.0
 40
1.0
 40
1.0
 10
125.8024805843
 20
190.4171443422
 30
0.0
 10
124.9883983392
 20
190.8228530922
 30
0.0
 10
123.3522490948
 20
191.4531864587
 30
0.0
 10
121.6463209327
 20
191.8476627444
 30
0.0
 10
120.8201301514
 20
191.9674389165
 30
0.0
  0
SPLINE
  5
42F
330
222
100
AcDbEntity
  8
0
  6
Continuous
 62
     7
100
AcDbSpline
210
0.0
220
0.0
230
1.0
 70
     8
 71
     3
 72
     9
 73
     5
 74
     0
 42
0.0000000001
 43
0.0000000001
 40
0.0
 40
0.0
 40
0.0
 40
0.0
 40
0.294801761
 40
1.0
 40
1.0
 40
1.0
 40
1.0
 10
132.648897717
 20
183.713870554
 30
0.0
 10
132.6663455767
 20
183.7820218059
 30
0.0
 10
132.7120588755
 20
184.0132300904
 30
0.0
 10
132.6916002097
 20
184.2790286681
 30
0.0
 10
132.5966141059
 20
184.4179418758
 30
0.0
  0
SPLINE
  5
430
330
222
100
AcDbEntity
  8
0
  6
Continuous
 62
     9
100
AcDbSpline
210
0.0
220
0.0
230
1.0
 70
     8
 71
     3
 72
    13
 73
     9
 74
     0
 42
0.0000000001
 43
0.0000000001
 40
0.0
 40
0.0
 40
0.0
 40
0.0
 40
0.2495325675
 40
0.4993193002
 40
0.6243810857
 40
0.7495234986
 40
0.8747364265999999
 40
1.0
 40
1.0
 40
1.0
 40
1.0
 10
92.76476262899999
 20
183.9029592065
 30
0.0
 10
93.91629789780001
 20
184.8401416057
 30
0.0
 10
96.46405227510001
 20
186.4153012249
 30
0.0
 10
99.8938430819
 20
187.8694875834
 30
0.0
 10
102.7442244042
 20
188.7296795459
 30
0.0
 10
104.9209121445
 20
189.2366730116
 30
0.0
 10
107.1216476635
 20
189.630454317
 30
0.0
 10
108.5993055989
 20
189.8283059765
 30
0.0
 10
109.3399342013
 20
189.9117152854
 30
0.0
  0
SPLINE
  5
431
330
222
100
AcDbEntity
  8
0
  6
Continuous
 62
     9
100
AcDbSpline
210
0.0
220
0.0
230
1.0
 70
     8
 71
     3
 72
    15
 73
    11
 74
     0
 42
0.0000000001
 43
0.0000000001
 40
0.0
 40
0.0
 40
0.0
 40
0.0
 40
0.1248963585
 40
0.2498119907
 40
0.3747320689
 40
0.4996383635
 40
0.6246047677000001
 40
0.7496663026000001
 40
0.8748069237999999
 40
1.0
 40
1.0
 40
1.0
 40
1.0
 10
92.6880173019
 20
184.4655629715
 30
0.0
 10
93.2746111061
 20
184.9174871378
 30
0.0
 10
94.50153998440001
 20
185.7532538032
 30
0.0
 10
96.45265116799999
 20
186.8211709771
 30
0.0
 10
98.47999386799999
 20
187.7346809451
 30
0.0
 10
100.5638719506
 20
188.5108471618
 30
0.0
 10
102.6960816903
 20
189.1450021059
 30
0.0
 10
104.86374176
 20
189.6489373559999
 30
0.0
 10
107.0552005209
 20
190.0420512232
 30
0.0
 10
108.5266164055
 20
190.240110502
 30
0.0
 10
109.2640594264
 20
190.32445483
 30
0.0
  0
SPLINE
  5
432
330
222
100
AcDbEntity
  8
0
  6
Continuous
 62
     9
100
AcDbSpline
210
0.0
220
0.0
230
1.0
 70
     8
 71
     3
 72
     9
 73
     5
 74
     0
 42
0.0000000001
 43
0.0000000001
 40
0.0
 40
0.0
 40
0.0
 40
0.0
 40
0.5240057645000001
 40
1.0
 40
1.0
 40
1.0
 40
1.0
 10
109.3399342013
 20
189.9117152854
 30
0.0
 10
109.3675424644
 20
189.8327088606
 30
0.0
 10
109.4424352372
 20
189.6867305304
 30
0.0
 10
109.5716916425
 20
189.5845032329
 30
0.0
 10
109.6390570114
 20
189.5492693479
 30
0.0
  0
SPLINE
  5
433
330
222
100
AcDbEntity
  8
0
  6
Continuous
 62
     9
100
AcDbSpline
210
0.0
220
0.0
230
1.0
 70
     8
 71
     3
 72
     9
 73
     5
 74
     0
 42
0.0000000001
 43
0.0000000001
 40
0.0
 40
0.0
 40
0.0
 40
0.0
 40
0.2419428915
 40
1.0
 40
1.0
 40
1.0
 40
1.0
 10
109.6390570114
 20
189.5492693479
 30
0.0
 10
109.6674169451
 20
189.5344363459999
 30
0.0
 10
109.7893341739
 20
189.4819592058
 30
0.0
 10
109.9229307984
 20
189.4621112367
 30
0.0
 10
110.0230887579
 20
189.4572165683
 30
0.0
  0
SPLINE
  5
434
330
222
100
AcDbEntity
  8
0
  6
Continuous
 62
     9
100
AcDbSpline
210
0.0
220
0.0
230
1.0
 70
     8
 71
     3
 72
     9
 73
     5
 74
     0
 42
0.0000000001
 43
0.0000000001
 40
0.0
 40
0.0
 40
0.0
 40
0.0
 40
0.2449321313
 40
1.0
 40
1.0
 40
1.0
 40
1.0
 10
120.4383127429
 20
189.6316879715
 30
0.0
 10
120.4573018559
 20
189.6622766352
 30
0.0
 10
120.5427775503
 20
189.7821599908
 30
0.0
 10
120.658485871
 20
189.8795708756999
 30
0.0
 10
120.7539808968
 20
189.9361354370999
 30
0.0
  0
SPLINE
  5
435
330
222
100
AcDbEntity
  8
0
  6
Continuous
 62
     9
100
AcDbSpline
210
0.0
220
0.0
230
1.0
 70
     8
 71
     3
 72
     9
 73
     5
 74
     0
 42
0.0000000001
 43
0.0000000001
 40
0.0
 40
0.0
 40
0.0
 40
0.0
 40
0.2116426271
 40
1.0
 40
1.0
 40
1.0
 40
1.0
 10
120.820074805
 20
191.9674641657
 30
0.0
 10
120.7981059952
 20
191.9872116018
 30
0.0
 10
120.6891482759
 20
192.0747803455
 30
0.0
 10
120.5655155046
 20
192.1424310792
 30
0.0
 10
120.4660046623
 20
192.1893881984999
 30
0.0
  0
SPLINE
  5
436
330
222
100
AcDbEntity
  8
0
  6
Continuous
 62
     9
100
AcDbSpline
210
0.0
220
0.0
230
1.0
 70
     8
 71
     3
 72
    11
 73
     7
 74
     0
 42
0.0000000001
 43
0.0000000001
 40
0.0
 40
0.0
 40
0.0
 40
0.0
 40
0.2265978731
 40
0.4275965305
 40
0.6770270798000001
 40
1.0
 40
1.0
 40
1.0
 40
1.0
 10
120.8955990087
 20
189.4560849397
 30
0.0
 10
120.9043981603
 20
189.4547089649
 30
0.0
 10
120.9229468725
 20
189.4556467377999
 30
0.0
 10
120.9413577779
 20
189.4778415619
 30
0.0
 10
120.9454352906
 20
189.5087311914
 30
0.0
 10
120.9427719189
 20
189.5311486671
 30
0.0
 10
120.9404505837
 20
189.5436285738
 30
0.0
  0
SPLINE
  5
437
330
222
100
AcDbEntity
  8
0
  6
Continuous
 62
     9
100
AcDbSpline
210
0.0
220
0.0
230
1.0
 70
     8
 71
     3
 72
    10
 73
     6
 74
     0
 42
0.0000000001
 43
0.0000000001
 40
0.0
 40
0.0
 40
0.0
 40
0.0
 40
0.1861991326
 40
0.4189608542000001
 40
1.0
 40
1.0
 40
1.0
 40
1.0
 10
120.9404505837
 20
189.5436285738
 30
0.0
 10
120.9354975431
 20
189.5702569921
 30
0.0
 10
120.9172205618
 20
189.6287363678
 30
0.0
 10
120.8598321007
 20
189.7624723085
 30
0.0
 10
120.7994497165
 20
189.8648886321
 30
0.0
 10
120.7539806666
 20
189.9361359378
 30
0.0
  0
SPLINE
  5
438
330
222
100
AcDbEntity
  8
0
  6
Continuous
 62
     7
100
AcDbSpline
210
0.0
220
0.0
230
1.0
 70
     8
 71
     3
 72
    10
 73
     6
 74
     0
 42
0.0000000001
 43
0.0000000001
 40
0.0
 40
0.0
 40
0.0
 40
0.0
 40
0.5975418878000001
 40
0.830910315
 40
1.0
 40
1.0
 40
1.0
 40
1.0
 10
92.76472814919999
 20
183.9034274979
 30
0.0
 10
92.7593512326
 20
184.0165912916
 30
0.0
 10
92.7482251386
 20
184.1741199805
 30
0.0
 10
92.7183281759
 20
184.3612507902
 30
0.0
 10
92.69989183600001
 20
184.4357560429
 30
0.0
 10
92.6880344487
 20
184.4655413207
 30
0.0
  0
SPLINE
  5
439
330
222
100
AcDbEntity
  8
0
  6
Continuous
 62
     9
100
AcDbSpline
210
0.0
220
0.0
230
1.0
 70
     8
 71
     3
 72
     9
 73
     5
 74
     0
 42
0.0000000001
 43
0.0000000001
 40
0.0
 40
0.0
 40
0.0
 40
0.0
 40
0.255703953
 40
1.0
 40
1.0
 40
1.0
 40
1.0
 10
109.3399746243
 20
189.911628304
 30
0.0
 10
109.3699631327
 20
189.9175105473
 30
0.0
 10
109.4879013882
 20
189.9369853847
 30
0.0
 10
109.6080468674
 20
189.9433167186
 30
0.0
 10
109.6969411176
 20
189.9400814057
 30
0.0
  0
SPLINE
  5
43A
330
222
100
AcDbEntity
  8
0
  6
Continuous
 62
     9
100
AcDbSpline
210
0.0
220
0.0
230
1.0
 70
     8
 71
     3
 72
     9
 73
     5
 74
     0
 42
0.0000000001
 43
0.0000000001
 40
0.0
 40
0.0
 40
0.0
 40
0.0
 40
0.2629534153
 40
1.0
 40
1.0
 40
1.0
 40
1.0
 10
109.6969411176
 20
189.9400814057
 30
0.0
 10
109.7201429586
 20
189.939236973
 30
0.0
 10
109.8082635227
 20
189.9339083253
 30
0.0
 10
109.8960529296
 20
189.9199332657
 30
0.0
 10
109.9589546028
 20
189.9032489633
 30
0.0
  0
SPLINE
  5
43B
330
222
100
AcDbEntity
  8
0
  6
Continuous
 62
     9
100
AcDbSpline
210
0.0
220
0.0
230
1.0
 70
     8
 71
     3
 72
     8
 73
     4
 74
     0
 42
0.0000000001
 43
0.0000000001
 40
0.0
 40
0.0
 40
0.0
 40
0.0
 40
1.0
 40
1.0
 40
1.0
 40
1.0
 10
109.2640481006
 20
190.3244573406
 30
0.0
 10
109.3701806493
 20
190.3432146522
 30
0.0
 10
109.4814335599
 20
190.3430319063
 30
0.0
 10
109.587377819
 20
190.3232387611
 30
0.0
  0
LINE
  5
43C
330
222
100
AcDbEntity
  8
0
  6
Continuous
 62
     9
100
AcDbLine
 10
93.16448823540001
 20
183.2762134384999
 30
0.0
 11
93.1601068488
 21
182.9793083241
 31
0.0
  0
LINE
  5
43D
330
222
100
AcDbEntity
  8
0
  6
Continuous
 62
     9
100
AcDbLine
 10
93.1601068488
 20
182.9793083241
 30
0.0
 11
93.14370902299998
 21
181.8565175704
 31
0.0
  0
SPLINE
  5
43E
330
222
100
AcDbEntity
  8
0
  6
Continuous
 62
     9
100
AcDbSpline
210
0.0
220
0.0
230
1.0
 70
     8
 71
     3
 72
     8
 73
     4
 74
     0
 42
0.0000000001
 43
0.0000000001
 40
0.0
 40
0.0
 40
0.0
 40
0.0
 40
1.0
 40
1.0
 40
1.0
 40
1.0
 10
93.13678993759999
 20
181.3772522008
 30
0.0
 10
93.11993344860001
 20
180.2056830950999
 30
0.0
 10
93.10327205209999
 20
179.0341109256
 30
0.0
 10
93.08747809649998
 20
177.8625270142
 30
0.0
  0
SPLINE
  5
43F
330
222
100
AcDbEntity
  8
0
  6
Continuous
 62
     9
100
AcDbSpline
210
0.0
220
0.0
230
1.0
 70
     8
 71
     3
 72
     8
 73
     4
 74
     0
 42
0.0000000001
 43
0.0000000001
 40
0.0
 40
0.0
 40
0.0
 40
0.0
 40
1.0
 40
1.0
 40
1.0
 40
1.0
 10
93.08747809649998
 20
177.8625270142
 30
0.0
 10
93.08240749219999
 20
177.4863933497
 30
0.0
 10
93.0763151372
 20
177.110261268
 30
0.0
 10
93.07454662079999
 20
176.7340975843
 30
0.0
  0
SPLINE
  5
440
330
222
100
AcDbEntity
  8
0
  6
Continuous
 62
     9
100
AcDbSpline
210
0.0
220
0.0
230
1.0
 70
     8
 71
     3
 72
     8
 73
     4
 74
     0
 42
0.0000000001
 43
0.0000000001
 40
0.0
 40
0.0
 40
0.0
 40
0.0
 40
1.0
 40
1.0
 40
1.0
 40
1.0
 10
120.8852921572
 20
190.02790287
 30
0.0
 10
120.9642284674
 20
190.0899144979
 30
0.0
 10
121.0370925487
 20
190.1611273339
 30
0.0
 10
121.0986816014
 20
190.2403937937
 30
0.0
  0
SPLINE
  5
441
330
222
100
AcDbEntity
  8
0
  6
Continuous
 62
     9
100
AcDbSpline
210
0.0
220
0.0
230
1.0
 70
     8
 71
     3
 72
    11
 73
     7
 74
     0
 42
0.0000000001
 43
0.0000000001
 40
0.0
 40
0.0
 40
0.0
 40
0.0
 40
0.2497779732
 40
0.5008717795999999
 40
0.7514139746
 40
1.0
 40
1.0
 40
1.0
 40
1.0
 10
121.0986816014
 20
190.2403937937
 30
0.0
 10
121.1556741414
 20
190.3137444408
 30
0.0
 10
121.2518445754
 20
190.476800274
 30
0.0
 10
121.3123119207
 20
190.7548305274
 30
0.0
 10
121.2796997773
 20
191.036669123
 30
0.0
 10
121.2043704649
 20
191.2089986347
 30
0.0
 10
121.1580541802
 20
191.2890056013
 30
0.0
  0
SPLINE
  5
442
330
222
100
AcDbEntity
  8
0
  6
Continuous
 62
     9
100
AcDbSpline
210
0.0
220
0.0
230
1.0
 70
     8
 71
     3
 72
     9
 73
     5
 74
     0
 42
0.0000000001
 43
0.0000000001
 40
0.0
 40
0.0
 40
0.0
 40
0.0
 40
0.2521530095
 40
1.0
 40
1.0
 40
1.0
 40
1.0
 10
121.1580541802
 20
191.2890056013
 30
0.0
 10
121.1323898527
 20
191.3333382806
 30
0.0
 10
121.0195818983
 20
191.5027787707
 30
0.0
 10
120.8691528053
 20
191.6452011003
 30
0.0
 10
120.7468503112
 20
191.7353333833
 30
0.0
  0
SPLINE
  5
443
330
222
100
AcDbEntity
  8
0
  6
Continuous
 62
     9
100
AcDbSpline
210
0.0
220
0.0
230
1.0
 70
     8
 71
     3
 72
     9
 73
     5
 74
     0
 42
0.0000000001
 43
0.0000000001
 40
0.0
 40
0.0
 40
0.0
 40
0.0
 40
0.2805373621
 40
1.0
 40
1.0
 40
1.0
 40
1.0
 10
120.7468503112
 20
191.7353333833
 30
0.0
 10
120.7549158898
 20
191.7476615977
 30
0.0
 10
120.7819504495
 20
191.7926697182
 30
0.0
 10
120.8023893598
 20
191.8418918782
 30
0.0
 10
120.8114380603
 20
191.8785743883
 30
0.0
  0
SPLINE
  5
444
330
222
100
AcDbEntity
  8
0
  6
Continuous
 62
     9
100
AcDbSpline
210
0.0
220
0.0
230
1.0
 70
     8
 71
     3
 72
     9
 73
     5
 74
     0
 42
0.0000000001
 43
0.0000000001
 40
0.0
 40
0.0
 40
0.0
 40
0.0
 40
0.2805626583
 40
1.0
 40
1.0
 40
1.0
 40
1.0
 10
120.8114380603
 20
191.8785743883
 30
0.0
 10
120.8129249718
 20
191.8846021764
 30
0.0
 10
120.8176811451
 20
191.9062121332
 30
0.0
 10
120.8203705917
 20
191.9283134237
 30
0.0
 10
120.8207625212
 20
191.9442287759
 30
0.0
  0
SPLINE
  5
445
330
222
100
AcDbEntity
  8
0
  6
Continuous
 62
     9
100
AcDbSpline
210
0.0
220
0.0
230
1.0
 70
     8
 71
     3
 72
     8
 73
     4
 74
     0
 42
0.0000000001
 43
0.0000000001
 40
0.0
 40
0.0
 40
0.0
 40
0.0
 40
1.0
 40
1.0
 40
1.0
 40
1.0
 10
120.8207625212
 20
191.9442287759
 30
0.0
 10
120.8209532681
 20
191.9519745628
 30
0.0
 10
120.8207797749
 20
191.9597466159
 30
0.0
 10
120.8200811892
 20
191.9674631940999
 30
0.0
  0
LINE
  5
446
330
222
100
AcDbEntity
  8
0
  6
Continuous
 62
     9
100
AcDbLine
 10
132.0468639647
 20
184.5537991752
 30
0.0
 11
132.1219113817
 21
183.5770011208
 31
0.0
  0
SPLINE
  5
447
330
222
100
AcDbEntity
  8
0
  6
Continuous
 62
     7
100
AcDbSpline
210
0.0
220
0.0
230
1.0
 70
     8
 71
     3
 72
     9
 73
     5
 74
     0
 42
0.0000000001
 43
0.0000000001
 40
0.0
 40
0.0
 40
0.0
 40
0.0
 40
0.2442251463
 40
1.0
 40
1.0
 40
1.0
 40
1.0
 10
132.1967714456
 20
184.354053702
 30
0.0
 10
132.2346658264
 20
184.3027182859
 30
0.0
 10
132.388582114
 20
184.0916018469
 30
0.0
 10
132.5378991014
 20
183.8771558993
 30
0.0
 10
132.6488874978
 20
183.7138456883
 30
0.0
  0
SPLINE
  5
448
330
222
100
AcDbEntity
  8
0
  6
Continuous
 62
     9
100
AcDbSpline
210
0.0
220
0.0
230
1.0
 70
     8
 71
     3
 72
     9
 73
     5
 74
     0
 42
0.0000000001
 43
0.0000000001
 40
0.0
 40
0.0
 40
0.0
 40
0.0
 40
0.239611949
 40
1.0
 40
1.0
 40
1.0
 40
1.0
 10
120.2857539886
 20
187.3740879992
 30
0.0
 10
120.4068739078
 20
187.2553635436
 30
0.0
 10
120.9005781878
 20
186.7479591832
 30
0.0
 10
121.3503480247
 20
186.1981605475
 30
0.0
 10
121.6661548403
 20
185.7623267893
 30
0.0
  0
SPLINE
  5
449
330
222
100
AcDbEntity
  8
0
  6
Continuous
 62
     7
100
AcDbSpline
210
0.0
220
0.0
230
1.0
 70
     8
 71
     3
 72
    16
 73
    12
 74
     0
 42
0.0000000001
 43
0.0000000001
 40
0.0
 40
0.0
 40
0.0
 40
0.0
 40
0.0566474204
 40
0.1100618181
 40
0.1463766455
 40
0.1911476168
 40
0.3060245729
 40
0.4499788576000001
 40
0.6170626334
 40
0.8019994290000001
 40
1.0
 40
1.0
 40
1.0
 40
1.0
 10
92.98708670059999
 20
183.1658799376
 30
0.0
 10
92.9748995127
 20
183.155365015
 30
0.0
 10
92.94394723049999
 20
183.1368841683
 30
0.0
 10
92.9030790865
 20
183.1606045734
 30
0.0
 10
92.88112078839999
 20
183.1915836783
 30
0.0
 10
92.8558149526
 20
183.241546466
 30
0.0
 10
92.83084705729999
 20
183.3244949865
 30
0.0
 10
92.80687821379999
 20
183.4431669941
 30
0.0
 10
92.78806548989999
 20
183.5829277412
 30
0.0
 10
92.77383859889999
 20
183.7385902225
 30
0.0
 10
92.76739737979999
 20
183.8472291856
 30
0.0
 10
92.76472814919999
 20
183.9034274979
 30
0.0
  0
SPLINE
  5
44A
330
222
100
AcDbEntity
  8
03___PRT_ALL_CURVES
  6
Continuous
 62
     4
100
AcDbSpline
210
0.0
220
0.0
230
1.0
 70
     8
 71
     3
 72
    10
 73
     6
 74
     0
 42
0.0000000001
 43
0.0000000001
 40
0.0
 40
0.0
 40
0.0
 40
0.0
 40
0.2612382068
 40
0.5191208239
 40
1.0
 40
1.0
 40
1.0
 40
1.0
 10
89.6226694123
 20
185.4833361688
 30
0.0
 10
91.11073637729999
 20
186.7492112055
 30
0.0
 10
94.29161883769999
 20
188.8030793872
 30
0.0
 10
101.0056275728
 20
191.4033109812
 30
0.0
 10
106.3017688856
 20
192.3248312119
 30
0.0
 10
109.7644560951
 20
192.6374440206
 30
0.0
  0
SPLINE
  5
44B
330
222
100
AcDbEntity
  8
0
  6
Continuous
 62
     6
100
AcDbSpline
210
0.0
220
0.0
230
1.0
 70
     8
 71
     3
 72
    15
 73
    11
 74
     0
 42
0.0000000001
 43
0.0000000001
 40
0.0
 40
0.0
 40
0.0
 40
0.0
 40
0.2060590398
 40
0.3646317856
 40
0.4653899441
 40
0.4999999211
 40
0.5345191943
 40
0.6350997827000001
 40
0.7936044147
 40
1.0
 40
1.0
 40
1.0
 40
1.0
 10
91.0131980428
 20
184.5719145996
 30
0.0
 10
90.82246956780002
 20
184.6999215337
 30
0.0
 10
90.4947882893
 20
184.9152374133
 30
0.0
 10
90.0143234057
 20
185.2136727981
 30
0.0
 10
89.8079032623
 20
185.3390567511
 30
0.0
 10
89.544806681
 20
185.4941138425999
 30
0.0
 10
89.8073585328
 20
185.3393785659
 30
0.0
 10
90.01373951149998
 20
185.2140309292
 30
0.0
 10
90.49422003469999
 20
184.9156052652
 30
0.0
 10
90.8221585171
 20
184.7001302265
 30
0.0
 10
91.01319850200001
 20
184.5719142298
 30
0.0
  0
SPLINE
  5
44C
330
222
100
AcDbEntity
  8
0
  6
Continuous
 62
     6
100
AcDbSpline
210
0.0
220
0.0
230
1.0
 70
     8
 71
     3
 72
    12
 73
     8
 74
     0
 42
0.0000000001
 43
0.0000000001
 40
0.0
 40
0.0
 40
0.0
 40
0.0
 40
0.1682524362
 40
0.3601947261
 40
0.5651620478
 40
0.7788882182
 40
1.0
 40
1.0
 40
1.0
 40
1.0
 10
91.01319850200001
 20
184.5719142298
 30
0.0
 10
91.06530786190001
 20
184.5369507371
 30
0.0
 10
91.16856347669999
 20
184.4500003726
 30
0.0
 10
91.3152372521
 20
184.2984147472
 30
0.0
 10
91.45913367450001
 20
184.1215182672
 30
0.0
 10
91.5957818032
 20
183.9256764592
 30
0.0
 10
91.6788718431
 20
183.7861981626
 30
0.0
 10
91.71848860899999
 20
183.7138705557
 30
0.0
  0
SPLINE
  5
44D
330
222
100
AcDbEntity
  8
0
  6
Continuous
 62
     6
100
AcDbSpline
210
0.0
220
0.0
230
1.0
 70
     8
 71
     3
 72
    11
 73
     7
 74
     0
 42
0.0000000001
 43
0.0000000001
 40
0.0
 40
0.0
 40
0.0
 40
0.0
 40
0.2165906988
 40
0.4556183547
 40
0.716319435
 40
1.0
 40
1.0
 40
1.0
 40
1.0
 10
91.71848860899999
 20
183.7138705557
 30
0.0
 10
91.97213995650001
 20
183.2584962565
 30
0.0
 10
92.42826078510001
 20
182.2559139316
 30
0.0
 10
92.90791398180001
 20
180.5946099099
 30
0.0
 10
93.19450594580001
 20
178.7268314371
 30
0.0
 10
93.25714378509999
 20
177.4160309513
 30
0.0
 10
93.26218053239999
 20
176.7333361688
 30
0.0
  0
SPLINE
  5
44E
330
222
100
AcDbEntity
  8
0
  6
Continuous
 62
     6
100
AcDbSpline
210
0.0
220
0.0
230
1.0
 70
     8
 71
     3
 72
    12
 73
     8
 74
     0
 42
0.0000000001
 43
0.0000000001
 40
0.0
 40
0.0
 40
0.0
 40
0.0
 40
0.2211561608
 40
0.4348837976
 40
0.639826232
 40
0.8317486438999999
 40
1.0
 40
1.0
 40
1.0
 40
1.0
 10
91.71848860950001
 20
183.7138705549
 30
0.0
 10
91.6788638709
 20
183.7862127173
 30
0.0
 10
91.5957639744
 20
183.9257052537
 30
0.0
 10
91.4591083236
 20
184.1215515133
 30
0.0
 10
91.3152197129
 20
184.2984336063
 30
0.0
 10
91.16855683270001
 20
184.4500060487
 30
0.0
 10
91.06530709519999
 20
184.5369513114
 30
0.0
 10
91.0131980428
 20
184.5719145996
 30
0.0
  0
SPLINE
  5
44F
330
222
100
AcDbEntity
  8
06___PRT_ALL_SURFS
  6
Continuous
 62
     9
100
AcDbSpline
210
0.0
220
0.0
230
1.0
 70
     8
 71
     3
 72
    15
 73
    11
 74
     0
 42
0.0000000001
 43
0.0000000001
 40
0.0
 40
0.0
 40
0.0
 40
0.0
 40
0.1223558033
 40
0.244411851
 40
0.3644158021
 40
0.4814730994
 40
0.595582129
 40
0.7448469503
 40
0.8189485110999999
 40
1.0
 40
1.0
 40
1.0
 40
1.0
 10
93.030235698
 20
186.1729273936999
 30
0.0
 10
93.72390896979998
 20
186.6578360119
 30
0.0
 10
95.16662933059999
 20
187.5462520838
 30
0.0
 10
97.42496678180001
 20
188.6708145695
 30
0.0
 10
99.72050009030001
 20
189.6253334816
 30
0.0
 10
102.0281591527
 20
190.3912829213
 30
0.0
 10
104.5809682726
 20
191.037310095
 30
0.0
 10
106.878709476
 20
191.4600575848
 30
0.0
 10
109.6495007178
 20
191.8456426247
 30
0.0
 10
111.4102224898
 20
191.9976435246
 30
0.0
 10
112.6611924709
 20
192.0567282185
 30
0.0
  0
SPLINE
  5
450
330
222
100
AcDbEntity
  8
0
  6
Continuous
 62
     9
100
AcDbSpline
210
0.0
220
0.0
230
1.0
 70
     8
 71
     3
 72
    10
 73
     6
 74
     0
 42
0.0000000001
 43
0.0000000001
 40
0.0
 40
0.0
 40
0.0
 40
0.0
 40
0.0094663311
 40
0.6659447325
 40
1.0
 40
1.0
 40
1.0
 40
1.0
 10
91.01449319329999
 20
184.571092048
 30
0.0
 10
91.0205530224
 20
184.5765087484
 30
0.0
 10
91.44703721540002
 20
184.9573581201
 30
0.0
 10
92.10770016860001
 20
185.5075158362
 30
0.0
 10
92.79516304999999
 20
186.0086200102
 30
0.0
 10
93.0302427886
 20
186.1729507855
 30
0.0
  0
SPLINE
  5
451
330
222
100
AcDbEntity
  8
06___PRT_ALL_SURFS
  6
Continuous
 62
     6
100
AcDbSpline
210
0.0
220
0.0
230
1.0
 70
     9
 71
     3
 72
    11
 73
     7
 74
     0
 42
0.0000000001
 43
0.0000000001
 40
0.0
 40
0.0
 40
0.0
 40
0.0
 40
0.3475748551
 40
0.5000000076
 40
0.6514278364
 40
1.0
 40
1.0
 40
1.0
 40
1.0
 10
92.62233657649998
 20
184.1909864167
 30
0.0
 10
92.54417341780001
 20
184.3769028747
 30
0.0
 10
92.471394435
 20
184.5513218742
 30
0.0
 10
92.23641297749999
 20
185.130825179
 30
0.0
 10
92.4710601535
 20
184.5521481285
 30
0.0
 10
92.5439491416
 20
184.3774363312
 30
0.0
 10
92.62233657649998
 20
184.1909864167
 30
0.0
  0
SPLINE
  5
452
330
222
100
AcDbEntity
  8
06___PRT_ALL_SURFS
  6
Continuous
 62
     6
100
AcDbSpline
210
0.0
220
0.0
230
1.0
 70
     8
 71
     3
 72
    22
 73
    18
 74
     0
 42
0.0000000001
 43
0.0000000001
 40
0.0
 40
0.0
 40
0.0
 40
0.0
 40
0.0932579802
 40
0.1890787802
 40
0.2839149373
 40
0.3747308675999999
 40
0.4597773791
 40
0.5398882108
 40
0.6152191267
 40
0.6845160194
 40
0.7464965062000001
 40
0.8014426109
 40
0.8513498737999999
 40
0.8987225731999998
 40
0.9456939933000001
 40
0.9927337971
 40
1.0
 40
1.0
 40
1.0
 40
1.0
 10
112.7389186785
 20
190.4999878961
 30
0.0
 10
112.0745761318
 20
190.4635807347
 30
0.0
 10
110.7287326345
 20
190.3675068071
 30
0.0
 10
108.7142896889
 20
190.1513589623
 30
0.0
 10
106.7265785523
 20
189.8621564397
 30
0.0
 10
104.82743112
 20
189.5082938409
 30
0.0
 10
103.0479399965
 20
189.0949891902
 30
0.0
 10
101.3966915724
 20
188.6262833885
 30
0.0
 10
99.87815974190001
 20
188.1095884621
 30
0.0
 10
98.5057513147
 20
187.570416423
 30
0.0
 10
97.2913750843
 20
187.0304854475
 30
0.0
 10
96.2240863024
 20
186.5029494749
 30
0.0
 10
95.26948842580001
 20
185.9843840121
 30
0.0
 10
94.38791047089999
 20
185.4527008936
 30
0.0
 10
93.5480003342
 20
184.89351878
 30
0.0
 10
92.9668072217
 20
184.4635625227
 30
0.0
 10
92.6628264894
 20
184.2233405578
 30
0.0
 10
92.6222880695
 20
184.1910292733
 30
0.0
  0
SPLINE
  5
453
330
222
100
AcDbEntity
  8
0
  6
Continuous
 62
     6
100
AcDbSpline
210
0.0
220
0.0
230
1.0
 70
     8
 71
     3
 72
    10
 73
     6
 74
     0
 42
0.0000000001
 43
0.0000000001
 40
0.0
 40
0.0
 40
0.0
 40
0.0
 40
0.2719857184
 40
0.8492983597
 40
1.0
 40
1.0
 40
1.0
 40
1.0
 10
93.21083036469998
 20
184.9191668256
 30
0.0
 10
93.06982028270001
 20
184.817271666
 30
0.0
 10
92.6348287905
 20
184.4916901052
 30
0.0
 10
92.1413168824
 20
184.0841357737
 30
0.0
 10
91.79074235799999
 20
183.7776495705
 30
0.0
 10
91.71849680879999
 20
183.71383342
 30
0.0
  0
SPLINE
  5
454
330
222
100
AcDbEntity
  8
06___PRT_ALL_SURFS
  6
Continuous
 62
     6
100
AcDbSpline
210
0.0
220
0.0
230
1.0
 70
     8
 71
     3
 72
    16
 73
    12
 74
     0
 42
0.0000000001
 43
0.0000000001
 40
0.0
 40
0.0
 40
0.0
 40
0.0
 40
0.1547694981
 40
0.2685378926
 40
0.3436481669
 40
0.3789595778
 40
0.4194895559000001
 40
0.5061246205
 40
0.638175246
 40
0.8075061340000001
 40
1.0
 40
1.0
 40
1.0
 40
1.0
 10
92.62233657649998
 20
184.1909864167
 30
0.0
 10
92.6253848798
 20
184.0291176513
 30
0.0
 10
92.63292939899999
 20
183.7504223534999
 30
0.0
 10
92.68441970629998
 20
183.3858776391
 30
0.0
 10
92.71030918079999
 20
183.1693734567
 30
0.0
 10
92.8316404065
 20
183.0031985549
 30
0.0
 10
92.9696162883
 20
183.1850563111
 30
0.0
 10
93.0310083868
 20
183.4205457252999
 30
0.0
 10
93.12859294489999
 20
183.8291359373
 30
0.0
 10
93.1892456219
 20
184.3376527864
 30
0.0
 10
93.20955426219999
 20
184.7173619622
 30
0.0
 10
93.2108331855
 20
184.9187171441
 30
0.0
  0
SPLINE
  5
455
330
222
100
AcDbEntity
  8
06___PRT_ALL_SURFS
  6
Continuous
 62
     6
100
AcDbSpline
210
0.0
220
0.0
230
1.0
 70
     8
 71
     3
 72
    22
 73
    18
 74
     0
 42
0.0000000001
 43
0.0000000001
 40
0.0
 40
0.0
 40
0.0
 40
0.0
 40
0.0072662031
 40
0.0543060084
 40
0.1012774301
 40
0.1486501309
 40
0.1985573951
 40
0.2535035007
 40
0.315483988
 40
0.3847808807
 40
0.4601117963
 40
0.5402226274000001
 40
0.6252691379
 40
0.7160850670000001
 40
0.8109212226
 40
0.9067420210999999
 40
1.0
 40
1.0
 40
1.0
 40
1.0
 10
92.62228830759999
 20
184.191029063
 30
0.0
 10
92.6628267282
 20
184.2233403483
 30
0.0
 10
92.9668074663
 20
184.4635623188
 30
0.0
 10
93.548000591
 20
184.893518585
 30
0.0
 10
94.3879107465
 20
185.4527007075
 30
0.0
 10
95.26948871950001
 20
185.984383832
 30
0.0
 10
96.2240866103
 20
186.5029492981
 30
0.0
 10
97.29137539900001
 20
187.0304852709999
 30
0.0
 10
98.50575162760002
 20
187.5704162411
 30
0.0
 10
99.8781600436
 20
188.109588268
 30
0.0
 10
101.3966918538
 20
188.6262831775
 30
0.0
 10
103.0479402491
 20
189.0949889596
 30
0.0
 10
104.8274313352
 20
189.5082935912
 30
0.0
 10
106.7265787222
 20
189.8621561726
 30
0.0
 10
108.714289808
 20
190.1513586801
 30
0.0
 10
110.7287327015
 20
190.3675065115
 30
0.0
 10
112.0745761639
 20
190.4635804305
 30
0.0
 10
112.7389186939
 20
190.4999875875
 30
0.0
  0
SPLINE
  5
456
330
222
100
AcDbEntity
  8
06___PRT_ALL_SURFS
  6
Continuous
 62
     6
100
AcDbSpline
210
0.0
220
0.0
230
1.0
 70
     8
 71
     3
 72
     9
 73
     5
 74
     0
 42
0.0000000001
 43
0.0000000001
 40
0.0
 40
0.0
 40
0.0
 40
0.0
 40
0.6129904795000001
 40
1.0
 40
1.0
 40
1.0
 40
1.0
 10
89.59832974379999
 20
185.4625581344
 30
0.0
 10
90.72549831919999
 20
184.1947582114
 30
0.0
 10
91.91945190149999
 20
181.5583301728
 30
0.0
 10
92.1592488892
 20
178.1444365485
 30
0.0
 10
92.13461804049998
 20
176.7333361688
 30
0.0
  0
DIMENSION
  5
54F
330
222
100
AcDbEntity
  8
AM_5
100
AcDbDimension
  2
*D8
 10
177.3705984917103
 20
168.9933361688
 30
0.0
 11
177.3705984917103
 21
145.3083361688
 31
0.0
 70
    32
  1
50
 71
     5
 42
47.37
  3
STANDARD$0
100
AcDbAlignedDimension
 13
139.1726694123
 23
121.6233361688
 33
0.0
 14
148.3081710606
 24
168.9933361688
 34
0.0
 50
90.00000000000003
100
AcDbRotatedDimension
1001
ACAD
1000
DSTYLE
1002
{
1070
    42
1040
2.2
1070
    43
1040
13.376
1070
    44
1040
6.336
1070
    71
1070
     0
1070
    73
1070
     1
1070
    74
1070
     1
1070
    77
1070
     0
1070
    78
1070
     0
1070
   141
1040
3.168
1070
   178
1070
     0
1070
   271
1070
     4
1070
   272
1070
     4
1070
   284
1070
     0
1070
   341
1005
0
1070
   343
1005
0
1070
   344
1005
0
1002
}
1001
ACAD_DSTYLE_DIMINSPECT
1070
   396
1000
100%
1070
   395
1000

1070
   394
1070
    33
1070
   393
1070
     0
  0
DIMENSION
  5
588
330
222
100
AcDbEntity
  8
AM_5
100
AcDbDimension
  2
*D9
 10
198.4573708822095
 20
105.3633361688
 30
0.0
 11
198.4573708822095
 21
147.2983361688
 31
0.0
 70
    32
  1
84
 71
     5
 42
83.87000000000002
  3
STANDARD$0
100
AcDbAlignedDimension
 13
160.0423532465
 23
189.2333361688
 33
0.0
 14
146.1726694123
 24
105.3633361688
 34
0.0
 50
90.0
100
AcDbRotatedDimension
1001
ACAD
1000
DSTYLE
1002
{
1070
    42
1040
2.2
1070
    43
1040
13.376
1070
    44
1040
6.336
1070
    71
1070
     0
1070
    73
1070
     1
1070
    74
1070
     1
1070
    77
1070
     0
1070
    78
1070
     0
1070
   141
1040
3.168
1070
   178
1070
     0
1070
   271
1070
     4
1070
   272
1070
     4
1070
   284
1070
     0
1070
   341
1005
0
1070
   343
1005
0
1070
   344
1005
0
1002
}
1001
ACAD_DSTYLE_DIMINSPECT
1070
   396
1000
100%
1070
   395
1000

1070
   394
1070
    33
1070
   393
1070
     0
  0
DIMENSION
  5
5BE
330
222
100
AcDbEntity
  8
AM_5
100
AcDbDimension
  2
*D10
 10
161.6795095648705
 20
200.775417865601
 30
0.0
 11
115.1898351588732
 21
200.775417865601
 31
0.0
 70
    32
  1
%%c93
 71
     5
 42
92.97934881199473
  3
STANDARD$0
100
AcDbAlignedDimension
 13
68.70016075287582
 23
188.7754178656009
 33
0.0
 14
161.6795095648705
 24
188.5923517255469
 34
0.0
 50
0.0000000000000114
100
AcDbRotatedDimension
1001
ACAD
1000
DSTYLE
1002
{
1070
    42
1040
2.2
1070
    43
1040
13.376
1070
    44
1040
6.336
1070
    71
1070
     0
1070
    73
1070
     1
1070
    74
1070
     1
1070
    77
1070
     0
1070
    78
1070
     0
1070
   141
1040
3.168
1070
   178
1070
     0
1070
   271
1070
     4
1070
   272
1070
     4
1070
   341
1005
0
1070
   343
1005
0
1070
   344
1005
0
1002
}
1001
ACAD_DSTYLE_DIMINSPECT
1070
   396
1000
100%
1070
   395
1000

1070
   394
1070
    33
1070
   393
1070
     0
  0
ENDSEC
  0
SECTION
  2
OBJECTS
  0
DICTIONARY
  5
C
330
0
100
AcDbDictionary
281
     1
  3
ACAD_COLOR
350
48C
  3
ACAD_GROUP
350
D
  3
ACAD_IMAGE_DICT
350
458
  3
ACAD_IMAGE_VARS
350
459
  3
ACAD_LAYOUT
350
1A
  3
ACAD_MATERIAL
350
45F
  3
ACAD_MLEADERSTYLE
350
4A1
  3
ACAD_MLINESTYLE
350
17
  3
ACAD_PLOTSETTINGS
350
19
  3
ACAD_PLOTSTYLENAME
350
E
  3
ACAD_SCALELIST
350
48F
  3
ACAD_TABLESTYLE
350
48D
  3
ACAD_VISUALSTYLE
350
478
  3
ACDB_RECOMPOSE_DATA
350
651
  3
AcDbVariableDictionary
350
647
  3
AcmDictionary
350
4FD
  3
AMG
350
4A7
  3
AMGSNAPSETTINGS
350
544
  3
DWGPROPS
350
652
  0
DICTIONARY
  5
607
330
10
100
AcDbDictionary
280
     1
281
     1
  3
ADSK_XREC_LAYER_RECONCILED
360
608
  0
DICTIONARY
  5
609
330
1FA
100
AcDbDictionary
280
     1
281
     1
  3
ADSK_XREC_LAYER_RECONCILED
360
60A
  0
DICTIONARY
  5
60B
330
1FB
100
AcDbDictionary
280
     1
281
     1
  3
ADSK_XREC_LAYER_RECONCILED
360
60C
  0
DICTIONARY
  5
60D
330
1FC
100
AcDbDictionary
280
     1
281
     1
  3
ADSK_XREC_LAYER_RECONCILED
360
60E
  0
DICTIONARY
  5
60F
330
1FD
100
AcDbDictionary
280
     1
281
     1
  3
ADSK_XREC_LAYER_RECONCILED
360
610
  0
DICTIONARY
  5
611
330
1FE
100
AcDbDictionary
280
     1
281
     1
  3
ADSK_XREC_LAYER_RECONCILED
360
612
  0
DICTIONARY
  5
613
330
1FF
100
AcDbDictionary
280
     1
281
     1
  3
ADSK_XREC_LAYER_RECONCILED
360
614
  0
DICTIONARY
  5
615
330
200
100
AcDbDictionary
280
     1
281
     1
  3
ADSK_XREC_LAYER_RECONCILED
360
616
  0
DICTIONARY
  5
617
330
201
100
AcDbDictionary
280
     1
281
     1
  3
ADSK_XREC_LAYER_RECONCILED
360
618
  0
DICTIONARY
  5
619
330
202
100
AcDbDictionary
280
     1
281
     1
  3
ADSK_XREC_LAYER_RECONCILED
360
61A
  0
DICTIONARY
  5
61B
330
203
100
AcDbDictionary
280
     1
281
     1
  3
ADSK_XREC_LAYER_RECONCILED
360
61C
  0
DICTIONARY
  5
61D
330
204
100
AcDbDictionary
280
     1
281
     1
  3
ADSK_XREC_LAYER_RECONCILED
360
61E
  0
DICTIONARY
  5
61F
330
205
100
AcDbDictionary
280
     1
281
     1
  3
ADSK_XREC_LAYER_RECONCILED
360
620
  0
DICTIONARY
  5
621
330
206
100
AcDbDictionary
280
     1
281
     1
  3
ADSK_XREC_LAYER_RECONCILED
360
622
  0
DICTIONARY
  5
623
330
207
100
AcDbDictionary
280
     1
281
     1
  3
ADSK_XREC_LAYER_RECONCILED
360
624
  0
DICTIONARY
  5
625
330
208
100
AcDbDictionary
280
     1
281
     1
  3
ADSK_XREC_LAYER_RECONCILED
360
626
  0
DICTIONARY
  5
627
330
209
100
AcDbDictionary
280
     1
281
     1
  3
ADSK_XREC_LAYER_RECONCILED
360
628
  0
DICTIONARY
  5
629
330
20A
100
AcDbDictionary
280
     1
281
     1
  3
ADSK_XREC_LAYER_RECONCILED
360
62A
  0
DICTIONARY
  5
62B
330
20B
100
AcDbDictionary
280
     1
281
     1
  3
ADSK_XREC_LAYER_RECONCILED
360
62C
  0
DICTIONARY
  5
62D
330
20C
100
AcDbDictionary
280
     1
281
     1
  3
ADSK_XREC_LAYER_RECONCILED
360
62E
  0
DICTIONARY
  5
62F
330
20D
100
AcDbDictionary
280
     1
281
     1
  3
ADSK_XREC_LAYER_RECONCILED
360
630
  0
DICTIONARY
  5
631
330
20E
100
AcDbDictionary
280
     1
281
     1
  3
ADSK_XREC_LAYER_RECONCILED
360
632
  0
DICTIONARY
  5
633
330
20F
100
AcDbDictionary
280
     1
281
     1
  3
ADSK_XREC_LAYER_RECONCILED
360
634
  0
DICTIONARY
  5
635
330
210
100
AcDbDictionary
280
     1
281
     1
  3
ADSK_XREC_LAYER_RECONCILED
360
636
  0
DICTIONARY
  5
637
330
211
100
AcDbDictionary
280
     1
281
     1
  3
ADSK_XREC_LAYER_RECONCILED
360
638
  0
DICTIONARY
  5
639
330
212
100
AcDbDictionary
280
     1
281
     1
  3
ADSK_XREC_LAYER_RECONCILED
360
63A
  0
DICTIONARY
  5
63B
330
213
100
AcDbDictionary
280
     1
281
     1
  3
ADSK_XREC_LAYER_RECONCILED
360
63C
  0
DICTIONARY
  5
63D
330
214
100
AcDbDictionary
280
     1
281
     1
  3
ADSK_XREC_LAYER_RECONCILED
360
63E
  0
DICTIONARY
  5
63F
330
215
100
AcDbDictionary
280
     1
281
     1
  3
ADSK_XREC_LAYER_RECONCILED
360
640
  0
DICTIONARY
  5
641
330
216
100
AcDbDictionary
280
     1
281
     1
  3
ADSK_XREC_LAYER_RECONCILED
360
642
  0
DICTIONARY
  5
643
330
217
100
AcDbDictionary
280
     1
281
     1
  3
ADSK_XREC_LAYER_RECONCILED
360
644
  0
DICTIONARY
  5
645
330
54B
100
AcDbDictionary
280
     1
281
     1
  3
ADSK_XREC_LAYER_RECONCILED
360
646
  0
IMAGEDEF_REACTOR
  5
457
330
251
100
AcDbRasterImageDefReactor
 90
        2
330
251
  0
DICTIONARY
  5
48C
102
{ACAD_REACTORS
330
C
102
}
330
C
100
AcDbDictionary
281
     1
  0
DICTIONARY
  5
D
102
{ACAD_REACTORS
330
C
102
}
330
C
100
AcDbDictionary
281
     1
  0
DICTIONARY
  5
458
330
C
100
AcDbDictionary
281
     1
  3
2000_00_03_img_1
350
45C
  0
RASTERVARIABLES
  5
459
330
C
100
AcDbRasterVariables
 90
        0
 70
     0
 71
     1
 72
     1
  0
DICTIONARY
  5
1A
102
{ACAD_REACTORS
330
C
102
}
330
C
100
AcDbDictionary
281
     1
  3
Layout1
350
45B
  3
Model
350
45A
  0
DICTIONARY
  5
45F
102
{ACAD_REACTORS
330
C
102
}
330
C
100
AcDbDictionary
281
     1
  3
ByBlock
350
468
  3
ByLayer
350
460
  3
Global
350
470
  0
DICTIONARY
  5
4A1
102
{ACAD_REACTORS
330
C
102
}
330
C
100
AcDbDictionary
281
     1
  3
Standard
350
4A2
  0
DICTIONARY
  5
17
102
{ACAD_REACTORS
330
C
102
}
330
C
100
AcDbDictionary
281
     1
  3
Standard
350
18
  0
DICTIONARY
  5
19
102
{ACAD_REACTORS
330
C
102
}
330
C
100
AcDbDictionary
281
     1
  0
ACDBDICTIONARYWDFLT
  5
E
102
{ACAD_REACTORS
330
C
102
}
330
C
100
AcDbDictionary
281
     1
  3
Normal
350
F
100
AcDbDictionaryWithDefault
340
F
  0
DICTIONARY
  5
48F
102
{ACAD_REACTORS
330
C
102
}
330
C
100
AcDbDictionary
281
     1
  3
A0
350
490
  3
A1
350
491
  3
A2
350
492
  3
A3
350
493
  3
A4
350
494
  3
A5
350
495
  3
A6
350
496
  3
A7
350
497
  3
A8
350
498
  3
A9
350
499
  3
B0
350
49A
  3
B1
350
49B
  3
B2
350
49C
  3
B3
350
49D
  3
B4
350
49E
  3
B5
350
49F
  3
B6
350
4A0
  0
DICTIONARY
  5
48D
102
{ACAD_REACTORS
330
C
102
}
330
C
100
AcDbDictionary
281
     1
  3
Standard
350
48E
  0
DICTIONARY
  5
478
102
{ACAD_REACTORS
330
C
102
}
330
C
100
AcDbDictionary
281
     1
  3
2dWireframe
350
47E
  3
3D Hidden
350
480
  3
3dWireframe
350
47F
  3
Basic
350
47D
  3
Brighten
350
484
  3
ColorChange
350
488
  3
Conceptual
350
481
  3
Dim
350
483
  3
EdgeColorOff
350
48B
  3
Facepattern
350
487
  3
Flat
350
479
  3
FlatWithEdges
350
47A
  3
Gouraud
350
47B
  3
GouraudWithEdges
350
47C
  3
JitterOff
350
489
  3
Linepattern
350
486
  3
OverhangOff
350
48A
  3
Realistic
350
482
  3
Thicken
350
485
  0
XRECORD
  5
651
102
{ACAD_REACTORS
330
C
102
}
330
C
100
AcDbXrecord
280
     1
 90
        1
330
48E
  0
DICTIONARY
  5
647
102
{ACAD_REACTORS
330
C
102
}
330
C
100
AcDbDictionary
281
     1
  3
CANNOSCALE
350
64A
  3
CMLEADERSTYLE
350
649
  3
CTABLESTYLE
350
648
  3
DIMASSOC
350
64D
  3
INDEXCTL
350
64C
  3
SORTENTS
350
64B
  3
XCLIPFRAME
350
64E
  0
DICTIONARY
  5
4FD
102
{ACAD_REACTORS
330
C
102
}
330
C
100
AcDbDictionary
281
     1
  3
AcmStdDictionary
350
509
  0
DICTIONARY
  5
4A7
102
{ACAD_REACTORS
330
C
102
}
330
C
100
AcDbDictionary
281
     1
  0
DICTIONARY
  5
544
102
{ACAD_REACTORS
330
C
102
}
330
C
100
AcDbDictionary
281
     1
  0
XRECORD
  5
652
102
{ACAD_REACTORS
330
C
102
}
330
C
100
AcDbXrecord
280
     1
  1
DWGPROPS COOKIE
  2

  3

  4

  6

  7

  8
atittmar
  9

300
=
301
=
302
=
303
=
304
=
305
=
306
=
307
=
308
=
309
=
 40
0.0008188657407407
 41
2456346.526172627
 42
2456346.526991134
  1

 90
        0
  0
XRECORD
  5
608
102
{ACAD_REACTORS
330
607
102
}
330
607
100
AcDbXrecord
280
     1
290
     1
  0
XRECORD
  5
60A
102
{ACAD_REACTORS
330
609
102
}
330
609
100
AcDbXrecord
280
     1
290
     1
  0
XRECORD
  5
60C
102
{ACAD_REACTORS
330
60B
102
}
330
60B
100
AcDbXrecord
280
     1
290
     1
  0
XRECORD
  5
60E
102
{ACAD_REACTORS
330
60D
102
}
330
60D
100
AcDbXrecord
280
     1
290
     1
  0
XRECORD
  5
610
102
{ACAD_REACTORS
330
60F
102
}
330
60F
100
AcDbXrecord
280
     1
290
     1
  0
XRECORD
  5
612
102
{ACAD_REACTORS
330
611
102
}
330
611
100
AcDbXrecord
280
     1
290
     1
  0
XRECORD
  5
614
102
{ACAD_REACTORS
330
613
102
}
330
613
100
AcDbXrecord
280
     1
290
     1
  0
XRECORD
  5
616
102
{ACAD_REACTORS
330
615
102
}
330
615
100
AcDbXrecord
280
     1
290
     1
  0
XRECORD
  5
618
102
{ACAD_REACTORS
330
617
102
}
330
617
100
AcDbXrecord
280
     1
290
     1
  0
XRECORD
  5
61A
102
{ACAD_REACTORS
330
619
102
}
330
619
100
AcDbXrecord
280
     1
290
     1
  0
XRECORD
  5
61C
102
{ACAD_REACTORS
330
61B
102
}
330
61B
100
AcDbXrecord
280
     1
290
     1
  0
XRECORD
  5
61E
102
{ACAD_REACTORS
330
61D
102
}
330
61D
100
AcDbXrecord
280
     1
290
     1
  0
XRECORD
  5
620
102
{ACAD_REACTORS
330
61F
102
}
330
61F
100
AcDbXrecord
280
     1
290
     1
  0
XRECORD
  5
622
102
{ACAD_REACTORS
330
621
102
}
330
621
100
AcDbXrecord
280
     1
290
     1
  0
XRECORD
  5
624
102
{ACAD_REACTORS
330
623
102
}
330
623
100
AcDbXrecord
280
     1
290
     1
  0
XRECORD
  5
626
102
{ACAD_REACTORS
330
625
102
}
330
625
100
AcDbXrecord
280
     1
290
     1
  0
XRECORD
  5
628
102
{ACAD_REACTORS
330
627
102
}
330
627
100
AcDbXrecord
280
     1
290
     1
  0
XRECORD
  5
62A
102
{ACAD_REACTORS
330
629
102
}
330
629
100
AcDbXrecord
280
     1
290
     1
  0
XRECORD
  5
62C
102
{ACAD_REACTORS
330
62B
102
}
330
62B
100
AcDbXrecord
280
     1
290
     1
  0
XRECORD
  5
62E
102
{ACAD_REACTORS
330
62D
102
}
330
62D
100
AcDbXrecord
280
     1
290
     1
  0
XRECORD
  5
630
102
{ACAD_REACTORS
330
62F
102
}
330
62F
100
AcDbXrecord
280
     1
290
     1
  0
XRECORD
  5
632
102
{ACAD_REACTORS
330
631
102
}
330
631
100
AcDbXrecord
280
     1
290
     1
  0
XRECORD
  5
634
102
{ACAD_REACTORS
330
633
102
}
330
633
100
AcDbXrecord
280
     1
290
     1
  0
XRECORD
  5
636
102
{ACAD_REACTORS
330
635
102
}
330
635
100
AcDbXrecord
280
     1
290
     1
  0
XRECORD
  5
638
102
{ACAD_REACTORS
330
637
102
}
330
637
100
AcDbXrecord
280
     1
290
     1
  0
XRECORD
  5
63A
102
{ACAD_REACTORS
330
639
102
}
330
639
100
AcDbXrecord
280
     1
290
     1
  0
XRECORD
  5
63C
102
{ACAD_REACTORS
330
63B
102
}
330
63B
100
AcDbXrecord
280
     1
290
     1
  0
XRECORD
  5
63E
102
{ACAD_REACTORS
330
63D
102
}
330
63D
100
AcDbXrecord
280
     1
290
     1
  0
XRECORD
  5
640
102
{ACAD_REACTORS
330
63F
102
}
330
63F
100
AcDbXrecord
280
     1
290
     1
  0
XRECORD
  5
642
102
{ACAD_REACTORS
330
641
102
}
330
641
100
AcDbXrecord
280
     1
290
     1
  0
XRECORD
  5
644
102
{ACAD_REACTORS
330
643
102
}
330
643
100
AcDbXrecord
280
     1
290
     1
  0
XRECORD
  5
646
102
{ACAD_REACTORS
330
645
102
}
330
645
100
AcDbXrecord
280
     1
290
     1
  0
IMAGEDEF
  5
45C
102
{ACAD_REACTORS
330
458
330
457
102
}
330
458
100
AcDbRasterImageDef
 90
        0
  1
2000_00_03_img_1.jpg
 10
230.0
 20
73.0
 11
0.1693333333
 21
0.1693333333
280
     1
281
     0
  0
LAYOUT
  5
45B
102
{ACAD_XDICTIONARY
360
655
102
}
102
{ACAD_REACTORS
330
1A
102
}
330
1A
100
AcDbPlotSettings
  1

  2
none_device
  4

  6

 40
0.0
 41
0.0
 42
0.0
 43
0.0
 44
210.0
 45
297.0
 46
0.0
 47
0.0
 48
0.0
 49
0.0
140
0.0
141
0.0
142
1.0
143
1.0
 70
     0
 72
     1
 73
     0
 74
     0
  7

 75
     0
147
1.0
148
0.0
149
0.0
100
AcDbLayout
  1
Layout1
 70
     1
 71
     1
 10
0.0
 20
0.0
 11
12.0
 21
9.0
 12
0.0
 22
0.0
 32
0.0
 14
1.000000000000000E+20
 24
1.000000000000000E+20
 34
1.000000000000000E+20
 15
-1.000000000000000E+20
 25
-1.000000000000000E+20
 35
-1.000000000000000E+20
146
0.0
 13
0.0
 23
0.0
 33
0.0
 16
1.0
 26
0.0
 36
0.0
 17
0.0
 27
1.0
 37
0.0
 76
     0
330
223
  0
LAYOUT
  5
45A
102
{ACAD_XDICTIONARY
360
653
102
}
102
{ACAD_REACTORS
330
1A
102
}
330
1A
100
AcDbPlotSettings
  1

  2
none_device
  4

  6

 40
0.0
 41
0.0
 42
0.0
 43
0.0
 44
210.0
 45
297.0
 46
0.0
 47
0.0
 48
0.0
 49
0.0
140
0.0
141
0.0
142
1.0
143
1.0
 70
  1024
 72
     1
 73
     0
 74
     0
  7

 75
     0
147
1.0
148
0.0
149
0.0
100
AcDbLayout
  1
Model
 70
     0
 71
     0
 10
0.0
 20
0.0
 11
210.0
 21
297.0
 12
0.0
 22
0.0
 32
0.0
 14
0.0
 24
0.0
 34
0.0
 15
0.0
 25
0.0
 35
0.0
146
0.0
 13
0.0
 23
0.0
 33
0.0
 16
1.0
 26
0.0
 36
0.0
 17
0.0
 27
1.0
 37
0.0
 76
     0
330
222
331
1F4
  0
MATERIAL
  5
468
102
{ACAD_XDICTIONARY
360
469
102
}
102
{ACAD_REACTORS
330
45F
102
}
330
45F
100
AcDbMaterial
  1
ByBlock
 72
     0
 43
0.0008202099737533
 43
0.0
 43
0.0
 43
0.0
 43
0.0
 43
0.0008202099737533
 43
0.0
 43
0.0
 43
0.0
 43
0.0
 43
1.0
 43
0.0
 43
0.0
 43
0.0
 43
0.0
 43
1.0
 77
     0
 47
0.0008202099737533
 47
0.0
 47
0.0
 47
0.0
 47
0.0
 47
0.0008202099737533
 47
0.0
 47
0.0
 47
0.0
 47
0.0
 47
1.0
 47
0.0
 47
0.0
 47
0.0
 47
0.0
 47
1.0
171
     0
 49
0.0008202099737533
 49
0.0
 49
0.0
 49
0.0
 49
0.0
 49
0.0008202099737533
 49
0.0
 49
0.0
 49
0.0
 49
0.0
 49
1.0
 49
0.0
 49
0.0
 49
0.0
 49
0.0
 49
1.0
175
     0
142
0.0008202099737533
142
0.0
142
0.0
142
0.0
142
0.0
142
0.0008202099737533
142
0.0
142
0.0
142
0.0
142
0.0
142
1.0
142
0.0
142
0.0
142
0.0
142
0.0
142
1.0
179
     0
144
0.0008202099737533
144
0.0
144
0.0
144
0.0
144
0.0
144
0.0008202099737533
144
0.0
144
0.0
144
0.0
144
0.0
144
1.0
144
0.0
144
0.0
144
0.0
144
0.0
144
1.0
147
0.0008202099737533
147
0.0
147
0.0
147
0.0
147
0.0
147
0.0008202099737533
147
0.0
147
0.0
147
0.0
147
0.0
147
1.0
147
0.0
147
0.0
147
0.0
147
0.0
147
1.0
  0
MATERIAL
  5
460
102
{ACAD_XDICTIONARY
360
461
102
}
102
{ACAD_REACTORS
330
45F
102
}
330
45F
100
AcDbMaterial
  1
ByLayer
 72
     0
 43
0.0008202099737533
 43
0.0
 43
0.0
 43
0.0
 43
0.0
 43
0.0008202099737533
 43
0.0
 43
0.0
 43
0.0
 43
0.0
 43
1.0
 43
0.0
 43
0.0
 43
0.0
 43
0.0
 43
1.0
 77
     0
 47
0.0008202099737533
 47
0.0
 47
0.0
 47
0.0
 47
0.0
 47
0.0008202099737533
 47
0.0
 47
0.0
 47
0.0
 47
0.0
 47
1.0
 47
0.0
 47
0.0
 47
0.0
 47
0.0
 47
1.0
171
     0
 49
0.0008202099737533
 49
0.0
 49
0.0
 49
0.0
 49
0.0
 49
0.0008202099737533
 49
0.0
 49
0.0
 49
0.0
 49
0.0
 49
1.0
 49
0.0
 49
0.0
 49
0.0
 49
0.0
 49
1.0
175
     0
142
0.0008202099737533
142
0.0
142
0.0
142
0.0
142
0.0
142
0.0008202099737533
142
0.0
142
0.0
142
0.0
142
0.0
142
1.0
142
0.0
142
0.0
142
0.0
142
0.0
142
1.0
179
     0
144
0.0008202099737533
144
0.0
144
0.0
144
0.0
144
0.0
144
0.0008202099737533
144
0.0
144
0.0
144
0.0
144
0.0
144
1.0
144
0.0
144
0.0
144
0.0
144
0.0
144
1.0
147
0.0008202099737533
147
0.0
147
0.0
147
0.0
147
0.0
147
0.0008202099737533
147
0.0
147
0.0
147
0.0
147
0.0
147
1.0
147
0.0
147
0.0
147
0.0
147
0.0
147
1.0
  0
MATERIAL
  5
470
102
{ACAD_XDICTIONARY
360
471
102
}
102
{ACAD_REACTORS
330
45F
102
}
330
45F
100
AcDbMaterial
  1
Global
 72
     0
 43
0.0008202099737533
 43
0.0
 43
0.0
 43
0.0
 43
0.0
 43
0.0008202099737533
 43
0.0
 43
0.0
 43
0.0
 43
0.0
 43
1.0
 43
0.0
 43
0.0
 43
0.0
 43
0.0
 43
1.0
 77
     0
 47
0.0008202099737533
 47
0.0
 47
0.0
 47
0.0
 47
0.0
 47
0.0008202099737533
 47
0.0
 47
0.0
 47
0.0
 47
0.0
 47
1.0
 47
0.0
 47
0.0
 47
0.0
 47
0.0
 47
1.0
171
     0
 49
0.0008202099737533
 49
0.0
 49
0.0
 49
0.0
 49
0.0
 49
0.0008202099737533
 49
0.0
 49
0.0
 49
0.0
 49
0.0
 49
1.0
 49
0.0
 49
0.0
 49
0.0
 49
0.0
 49
1.0
175
     0
142
0.0008202099737533
142
0.0
142
0.0
142
0.0
142
0.0
142
0.0008202099737533
142
0.0
142
0.0
142
0.0
142
0.0
142
1.0
142
0.0
142
0.0
142
0.0
142
0.0
142
1.0
179
     0
144
0.0008202099737533
144
0.0
144
0.0
144
0.0
144
0.0
144
0.0008202099737533
144
0.0
144
0.0
144
0.0
144
0.0
144
1.0
144
0.0
144
0.0
144
0.0
144
0.0
144
1.0
147
0.0008202099737533
147
0.0
147
0.0
147
0.0
147
0.0
147
0.0008202099737533
147
0.0
147
0.0
147
0.0
147
0.0
147
1.0
147
0.0
147
0.0
147
0.0
147
0.0
147
1.0
  0
MLEADERSTYLE
  5
4A2
102
{ACAD_REACTORS
330
4A1
102
}
330
4A1
100
AcDbMLeaderStyle
170
     2
171
     1
172
     0
 90
        2
 40
0.0
 41
0.0
173
     1
 91
-1056964608
340
14
 92
       -2
290
     1
 42
2.0
291
     1
 43
0.36
  3
Standard
 44
4.0
300

342
11
174
     1
178
     6
175
     1
176
     0
 93
-1056964608
 45
4.0
292
     0
297
     0
 46
4.0
 94
-1056964608
 47
1.0
 49
1.0
140
1.0
293
     1
141
0.0
294
     1
177
     0
142
1.0
295
     0
296
     0
143
0.125
1001
ACAD_MLEADERVER
1070
     2
  0
MLINESTYLE
  5
18
102
{ACAD_REACTORS
330
17
102
}
330
17
100
AcDbMlineStyle
  2
STANDARD
 70
     0
  3

 62
   256
 51
90.0
 52
90.0
 71
     2
 49
0.5
 62
   256
  6
BYLAYER
 49
-0.5
 62
   256
  6
BYLAYER
  0
ACDBPLACEHOLDER
  5
F
102
{ACAD_REACTORS
330
E
102
}
330
E
  0
SCALE
  5
490
102
{ACAD_REACTORS
330
48F
102
}
330
48F
100
AcDbScale
 70
     0
300
1:1
140
1.0
141
1.0
290
     1
  0
SCALE
  5
491
102
{ACAD_REACTORS
330
48F
102
}
330
48F
100
AcDbScale
 70
     0
300
1:2
140
1.0
141
2.0
290
     0
  0
SCALE
  5
492
102
{ACAD_REACTORS
330
48F
102
}
330
48F
100
AcDbScale
 70
     0
300
1:4
140
1.0
141
4.0
290
     0
  0
SCALE
  5
493
102
{ACAD_REACTORS
330
48F
102
}
330
48F
100
AcDbScale
 70
     0
300
1:5
140
1.0
141
5.0
290
     0
  0
SCALE
  5
494
102
{ACAD_REACTORS
330
48F
102
}
330
48F
100
AcDbScale
 70
     0
300
1:8
140
1.0
141
8.0
290
     0
  0
SCALE
  5
495
102
{ACAD_REACTORS
330
48F
102
}
330
48F
100
AcDbScale
 70
     0
300
1:10
140
1.0
141
10.0
290
     0
  0
SCALE
  5
496
102
{ACAD_REACTORS
330
48F
102
}
330
48F
100
AcDbScale
 70
     0
300
1:16
140
1.0
141
16.0
290
     0
  0
SCALE
  5
497
102
{ACAD_REACTORS
330
48F
102
}
330
48F
100
AcDbScale
 70
     0
300
1:20
140
1.0
141
20.0
290
     0
  0
SCALE
  5
498
102
{ACAD_REACTORS
330
48F
102
}
330
48F
100
AcDbScale
 70
     0
300
1:30
140
1.0
141
30.0
290
     0
  0
SCALE
  5
499
102
{ACAD_REACTORS
330
48F
102
}
330
48F
100
AcDbScale
 70
     0
300
1:40
140
1.0
141
40.0
290
     0
  0
SCALE
  5
49A
102
{ACAD_REACTORS
330
48F
102
}
330
48F
100
AcDbScale
 70
     0
300
1:50
140
1.0
141
50.0
290
     0
  0
SCALE
  5
49B
102
{ACAD_REACTORS
330
48F
102
}
330
48F
100
AcDbScale
 70
     0
300
1:100
140
1.0
141
100.0
290
     0
  0
SCALE
  5
49C
102
{ACAD_REACTORS
330
48F
102
}
330
48F
100
AcDbScale
 70
     0
300
2:1
140
2.0
141
1.0
290
     0
  0
SCALE
  5
49D
102
{ACAD_REACTORS
330
48F
102
}
330
48F
100
AcDbScale
 70
     0
300
4:1
140
4.0
141
1.0
290
     0
  0
SCALE
  5
49E
102
{ACAD_REACTORS
330
48F
102
}
330
48F
100
AcDbScale
 70
     0
300
8:1
140
8.0
141
1.0
290
     0
  0
SCALE
  5
49F
102
{ACAD_REACTORS
330
48F
102
}
330
48F
100
AcDbScale
 70
     0
300
10:1
140
10.0
141
1.0
290
     0
  0
SCALE
  5
4A0
102
{ACAD_REACTORS
330
48F
102
}
330
48F
100
AcDbScale
 70
     0
300
100:1
140
100.0
141
1.0
290
     0
  0
TABLESTYLE
  5
48E
102
{ACAD_XDICTIONARY
360
64F
102
}
102
{ACAD_REACTORS
330
48D
102
}
330
48D
100
AcDbTableStyle
  3
Standard
 70
     0
 71
     0
 40
1.5
 41
1.5
280
     0
281
     0
  7
STANDARD
140
4.5
170
     2
 62
     0
 63
     7
283
     0
274
    -2
284
     1
 64
     0
275
    -2
285
     1
 65
     0
276
    -2
286
     1
 66
     0
277
    -2
287
     1
 67
     0
278
    -2
288
     1
 68
     0
279
    -2
289
     1
 69
     0
  7
STANDARD
140
6.0
170
     5
 62
     0
 63
     7
283
     0
274
    -2
284
     1
 64
     0
275
    -2
285
     1
 65
     0
276
    -2
286
     1
 66
     0
277
    -2
287
     1
 67
     0
278
    -2
288
     1
 68
     0
279
    -2
289
     1
 69
     0
  7
STANDARD
140
4.5
170
     5
 62
     0
 63
     7
283
     0
274
    -2
284
     1
 64
     0
275
    -2
285
     1
 65
     0
276
    -2
286
     1
 66
     0
277
    -2
287
     1
 67
     0
278
    -2
288
     1
 68
     0
279
    -2
289
     1
 69
     0
  0
VISUALSTYLE
  5
47E
102
{ACAD_XDICTIONARY
360
664
102
}
102
{ACAD_REACTORS
330
478
102
}
330
478
100
AcDbVisualStyle
  2
2dWireframe
 70
     4
 71
     0
 72
     2
 73
     0
 90
        0
 40
-0.6
 41
-30.0
 62
     5
 63
     7
 74
     1
 91
        4
 64
     7
 65
   257
 75
     1
175
     1
 42
1.0
 92
        0
 66
   257
 43
1.0
 76
     1
 77
     6
 78
     2
 67
     7
 79
     5
170
     0
171
     0
290
     0
174
     0
 93
        1
 44
0.0
173
     0
291
     0
 45
0.0
1001
ACAD
1000
AcDbSavedByObjectVersion
1070
     0
  0
VISUALSTYLE
  5
480
102
{ACAD_XDICTIONARY
360
668
102
}
102
{ACAD_REACTORS
330
478
102
}
330
478
100
AcDbVisualStyle
  2
3D Hidden
 70
     6
 71
     1
 72
     2
 73
     2
 90
        0
 40
-0.6
 41
-30.0
 62
     5
 63
     7
 74
     2
 91
        2
 64
     7
 65
   257
 75
     2
175
     1
 42
179.0
 92
        0
 66
   257
 43
1.0
 76
     1
 77
     6
 78
     2
 67
     7
 79
     3
170
     0
171
     0
290
     0
174
     0
 93
        1
 44
0.0
173
     0
291
     0
 45
0.0
1001
ACAD
1000
AcDbSavedByObjectVersion
1070
     0
  0
VISUALSTYLE
  5
47F
102
{ACAD_XDICTIONARY
360
666
102
}
102
{ACAD_REACTORS
330
478
102
}
330
478
100
AcDbVisualStyle
  2
3dWireframe
 70
     5
 71
     0
 72
     2
 73
     0
 90
        0
 40
-0.6
 41
-30.0
 62
     5
 63
     7
 74
     1
 91
        4
 64
     7
 65
   257
 75
     1
175
     1
 42
1.0
 92
        0
 66
   257
 43
1.0
 76
     1
 77
     6
 78
     2
 67
     7
 79
     5
170
     0
171
     0
290
     0
174
     0
 93
        1
 44
0.0
173
     0
291
     0
 45
0.0
1001
ACAD
1000
AcDbSavedByObjectVersion
1070
     0
  0
VISUALSTYLE
  5
47D
102
{ACAD_XDICTIONARY
360
662
102
}
102
{ACAD_REACTORS
330
478
102
}
330
478
100
AcDbVisualStyle
  2
Basic
 70
     7
 71
     1
 72
     0
 73
     1
 90
        0
 40
-0.6
 41
-30.0
 62
     5
 63
     7
 74
     0
 91
        4
 64
     7
 65
   257
 75
     1
175
     1
 42
1.0
 92
        8
 66
     7
 43
1.0
 76
     1
 77
     6
 78
     2
 67
     7
 79
     5
170
     0
171
     0
290
     0
174
     0
 93
        1
 44
0.0
173
     0
291
     1
 45
0.0
1001
ACAD
1000
AcDbSavedByObjectVersion
1070
     0
  0
VISUALSTYLE
  5
484
102
{ACAD_XDICTIONARY
360
670
102
}
102
{ACAD_REACTORS
330
478
102
}
330
478
100
AcDbVisualStyle
  2
Brighten
 70
    12
 71
     2
 72
     2
 73
     0
 90
        0
 40
-0.6
 41
-30.0
 62
     5
 63
     7
 74
     1
 91
        4
 64
     7
 65
   257
 75
     1
175
     1
 42
1.0
 92
        8
 66
     7
 43
1.0
 76
     1
 77
     6
 78
     2
 67
     7
 79
     5
170
     0
171
     0
290
     0
174
     0
 93
        1
 44
50.0
173
     0
291
     1
 45
0.0
1001
ACAD
1000
AcDbSavedByObjectVersion
1070
     0
  0
VISUALSTYLE
  5
488
102
{ACAD_XDICTIONARY
360
678
102
}
102
{ACAD_REACTORS
330
478
102
}
330
478
100
AcDbVisualStyle
  2
ColorChange
 70
    16
 71
     2
 72
     2
 73
     3
 90
        0
 40
-0.6
 41
-30.0
 62
     5
 63
     8
 74
     1
 91
        4
 64
     7
 65
   257
 75
     1
175
     1
 42
1.0
 92
        8
 66
     8
 43
1.0
 76
     1
 77
     6
 78
     2
 67
     7
 79
     5
170
     0
171
     0
290
     0
174
     0
 93
        1
 44
0.0
173
     0
291
     1
 45
0.0
1001
ACAD
1000
AcDbSavedByObjectVersion
1070
     0
  0
VISUALSTYLE
  5
481
102
{ACAD_XDICTIONARY
360
66A
102
}
102
{ACAD_REACTORS
330
478
102
}
330
478
100
AcDbVisualStyle
  2
Conceptual
 70
     9
 71
     3
 72
     2
 73
     0
 90
        0
 40
-0.6
 41
-30.0
 62
     5
 63
     7
 74
     2
 91
        2
 64
     7
 65
   257
 75
     1
175
     1
 42
179.0
 92
        8
 66
     7
 43
1.0
 76
     1
 77
     6
 78
     2
 67
     7
 79
     3
170
     0
171
     0
290
     0
174
     0
 93
        1
 44
0.0
173
     0
291
     0
 45
0.0
1001
ACAD
1000
AcDbSavedByObjectVersion
1070
     0
  0
VISUALSTYLE
  5
483
102
{ACAD_XDICTIONARY
360
66E
102
}
102
{ACAD_REACTORS
330
478
102
}
330
478
100
AcDbVisualStyle
  2
Dim
 70
    11
 71
     2
 72
     2
 73
     0
 90
        0
 40
-0.6
 41
-30.0
 62
     5
 63
     7
 74
     1
 91
        4
 64
     7
 65
   257
 75
     1
175
     1
 42
1.0
 92
        8
 66
     7
 43
1.0
 76
     1
 77
     6
 78
     2
 67
     7
 79
     5
170
     0
171
     0
290
     0
174
     0
 93
        1
 44
-50.0
173
     0
291
     1
 45
0.0
1001
ACAD
1000
AcDbSavedByObjectVersion
1070
     0
  0
VISUALSTYLE
  5
48B
102
{ACAD_XDICTIONARY
360
67E
102
}
102
{ACAD_REACTORS
330
478
102
}
330
478
100
AcDbVisualStyle
  2
EdgeColorOff
 70
    22
 71
     2
 72
     2
 73
     0
 90
        0
 40
-0.6
 41
-30.0
 62
     5
 63
     7
 74
     1
 91
        4
 64
     7
 65
   257
 75
     1
175
     1
 42
1.0
 92
        8
 66
     7
 43
1.0
 76
     1
 77
     6
 78
     2
 67
     7
 79
     5
170
     0
171
     0
290
     0
174
     0
 93
        1
 44
0.0
173
     0
291
     1
 45
0.0
1001
ACAD
1000
AcDbSavedByObjectVersion
1070
     0
  0
VISUALSTYLE
  5
487
102
{ACAD_XDICTIONARY
360
676
102
}
102
{ACAD_REACTORS
330
478
102
}
330
478
100
AcDbVisualStyle
  2
Facepattern
 70
    15
 71
     2
 72
     2
 73
     0
 90
        0
 40
-0.6
 41
-30.0
 62
     5
 63
     7
 74
     1
 91
        4
 64
     7
 65
   257
 75
     1
175
     1
 42
1.0
 92
        8
 66
     7
 43
1.0
 76
     1
 77
     6
 78
     2
 67
     7
 79
     5
170
     0
171
     0
290
     0
174
     0
 93
        1
 44
0.0
173
     0
291
     1
 45
0.0
1001
ACAD
1000
AcDbSavedByObjectVersion
1070
     0
  0
VISUALSTYLE
  5
479
102
{ACAD_XDICTIONARY
360
65A
102
}
102
{ACAD_REACTORS
330
478
102
}
330
478
100
AcDbVisualStyle
  2
Flat
 70
     0
 71
     2
 72
     1
 73
     1
 90
        2
 40
-0.6
 41
30.0
 62
     5
 63
     7
 74
     0
 91
        4
 64
     7
 65
   257
 75
     1
175
     1
 42
1.0
 92
        8
 66
     7
 43
1.0
 76
     1
 77
     6
 78
     2
 67
     7
 79
     5
170
     0
171
     0
290
     0
174
     0
 93
       13
 44
0.0
173
     0
291
     1
 45
0.0
1001
ACAD
1000
AcDbSavedByObjectVersion
1070
     0
  0
VISUALSTYLE
  5
47A
102
{ACAD_XDICTIONARY
360
65C
102
}
102
{ACAD_REACTORS
330
478
102
}
330
478
100
AcDbVisualStyle
  2
FlatWithEdges
 70
     1
 71
     2
 72
     1
 73
     1
 90
        2
 40
-0.6
 41
30.0
 62
     5
 63
     7
 74
     1
 91
        4
 64
     7
 65
   257
 75
     1
175
     1
 42
1.0
 92
        0
 66
   257
 43
1.0
 76
     1
 77
     6
 78
     2
 67
     7
 79
     5
170
     0
171
     0
290
     0
174
     0
 93
       13
 44
0.0
173
     0
291
     1
 45
0.0
1001
ACAD
1000
AcDbSavedByObjectVersion
1070
     0
  0
VISUALSTYLE
  5
47B
102
{ACAD_XDICTIONARY
360
65E
102
}
102
{ACAD_REACTORS
330
478
102
}
330
478
100
AcDbVisualStyle
  2
Gouraud
 70
     2
 71
     2
 72
     2
 73
     1
 90
        2
 40
-0.6
 41
30.0
 62
     5
 63
     7
 74
     0
 91
        4
 64
     7
 65
   257
 75
     1
175
     1
 42
1.0
 92
        0
 66
     7
 43
1.0
 76
     1
 77
     6
 78
     2
 67
     7
 79
     5
170
     0
171
     0
290
     0
174
     0
 93
       13
 44
0.0
173
     0
291
     1
 45
0.0
1001
ACAD
1000
AcDbSavedByObjectVersion
1070
     0
  0
VISUALSTYLE
  5
47C
102
{ACAD_XDICTIONARY
360
660
102
}
102
{ACAD_REACTORS
330
478
102
}
330
478
100
AcDbVisualStyle
  2
GouraudWithEdges
 70
     3
 71
     2
 72
     2
 73
     1
 90
        2
 40
-0.6
 41
30.0
 62
     5
 63
     7
 74
     1
 91
        4
 64
     7
 65
   257
 75
     1
175
     1
 42
1.0
 92
        0
 66
   257
 43
1.0
 76
     1
 77
     6
 78
     2
 67
     7
 79
     5
170
     0
171
     0
290
     0
174
     0
 93
       13
 44
0.0
173
     0
291
     1
 45
0.0
1001
ACAD
1000
AcDbSavedByObjectVersion
1070
     0
  0
VISUALSTYLE
  5
489
102
{ACAD_XDICTIONARY
360
67A
102
}
102
{ACAD_REACTORS
330
478
102
}
330
478
100
AcDbVisualStyle
  2
JitterOff
 70
    20
 71
     2
 72
     2
 73
     0
 90
        0
 40
-0.6
 41
-30.0
 62
     5
 63
     7
 74
     1
 91
        4
 64
     7
 65
   257
 75
     1
175
     1
 42
1.0
 92
       10
 66
     7
 43
1.0
 76
     1
 77
     6
 78
     2
 67
     7
 79
     5
170
     0
171
     0
290
     0
174
     0
 93
        1
 44
0.0
173
     0
291
     1
 45
0.0
1001
ACAD
1000
AcDbSavedByObjectVersion
1070
     0
  0
VISUALSTYLE
  5
486
102
{ACAD_XDICTIONARY
360
674
102
}
102
{ACAD_REACTORS
330
478
102
}
330
478
100
AcDbVisualStyle
  2
Linepattern
 70
    14
 71
     2
 72
     2
 73
     0
 90
        0
 40
-0.6
 41
-30.0
 62
     5
 63
     7
 74
     1
 91
        4
 64
     7
 65
   257
 75
     7
175
     7
 42
1.0
 92
        8
 66
     7
 43
1.0
 76
     1
 77
     6
 78
     2
 67
     7
 79
     5
170
     0
171
     0
290
     0
174
     0
 93
        1
 44
0.0
173
     0
291
     1
 45
0.0
1001
ACAD
1000
AcDbSavedByObjectVersion
1070
     0
  0
VISUALSTYLE
  5
48A
102
{ACAD_XDICTIONARY
360
67C
102
}
102
{ACAD_REACTORS
330
478
102
}
330
478
100
AcDbVisualStyle
  2
OverhangOff
 70
    21
 71
     2
 72
     2
 73
     0
 90
        0
 40
-0.6
 41
-30.0
 62
     5
 63
     7
 74
     1
 91
        4
 64
     7
 65
   257
 75
     1
175
     1
 42
1.0
 92
        9
 66
     7
 43
1.0
 76
     1
 77
     6
 78
     2
 67
     7
 79
     5
170
     0
171
     0
290
     0
174
     0
 93
        1
 44
0.0
173
     0
291
     1
 45
0.0
1001
ACAD
1000
AcDbSavedByObjectVersion
1070
     0
  0
VISUALSTYLE
  5
482
102
{ACAD_XDICTIONARY
360
66C
102
}
102
{ACAD_REACTORS
330
478
102
}
330
478
100
AcDbVisualStyle
  2
Realistic
 70
     8
 71
     2
 72
     2
 73
     0
 90
        0
 40
-0.6
 41
-30.0
 62
     5
 63
     7
 74
     1
 91
        0
 64
     7
 65
   257
 75
     1
175
     1
 42
1.0
 92
        8
 66
     8
 43
1.0
 76
     1
 77
     6
 78
     2
 67
     7
 79
     5
170
     0
171
     0
290
     0
174
     0
 93
       13
 44
0.0
173
     0
291
     0
 45
0.0
1001
ACAD
1000
AcDbSavedByObjectVersion
1070
     0
  0
VISUALSTYLE
  5
485
102
{ACAD_XDICTIONARY
360
672
102
}
102
{ACAD_REACTORS
330
478
102
}
330
478
100
AcDbVisualStyle
  2
Thicken
 70
    13
 71
     2
 72
     2
 73
     0
 90
        0
 40
-0.6
 41
-30.0
 62
     5
 63
     7
 74
     1
 91
        4
 64
     7
 65
   257
 75
     1
175
     1
 42
1.0
 92
       12
 66
     7
 43
1.0
 76
     1
 77
     6
 78
     2
 67
     7
 79
     5
170
     0
171
     0
290
     0
174
     0
 93
        1
 44
0.0
173
     0
291
     1
 45
0.0
1001
ACAD
1000
AcDbSavedByObjectVersion
1070
     0
  0
DICTIONARYVAR
  5
64A
102
{ACAD_REACTORS
330
647
102
}
330
647
100
DictionaryVariables
280
     0
  1
1:1
  0
DICTIONARYVAR
  5
649
102
{ACAD_REACTORS
330
647
102
}
330
647
100
DictionaryVariables
280
     0
  1
STANDARD
  0
DICTIONARYVAR
  5
648
102
{ACAD_REACTORS
330
647
102
}
330
647
100
DictionaryVariables
280
     0
  1
STANDARD
  0
DICTIONARYVAR
  5
64D
102
{ACAD_REACTORS
330
647
102
}
330
647
100
DictionaryVariables
280
     0
  1
1
  0
DICTIONARYVAR
  5
64C
102
{ACAD_REACTORS
330
647
102
}
330
647
100
DictionaryVariables
280
     0
  1
0
  0
DICTIONARYVAR
  5
64B
102
{ACAD_REACTORS
330
647
102
}
330
647
100
DictionaryVariables
280
     0
  1
127
  0
DICTIONARYVAR
  5
64E
102
{ACAD_REACTORS
330
647
102
}
330
647
100
DictionaryVariables
280
     0
  1
2
  0
DICTIONARY
  5
509
102
{ACAD_REACTORS
330
4FD
102
}
330
4FD
100
AcDbDictionary
281
     1
  0
DICTIONARY
  5
655
330
45B
100
AcDbDictionary
280
     1
281
     1
  3
ACAD_XREC_ROUNDTRIP
360
656
  0
DICTIONARY
  5
653
330
45A
100
AcDbDictionary
280
     1
281
     1
  3
ACAD_XREC_ROUNDTRIP
360
654
  0
DICTIONARY
  5
469
330
468
100
AcDbDictionary
280
     1
281
     1
  3
ACAD_XREC_ROUNDTRIP
360
658
  3
BUMPTILE
360
46B
  3
DIFFUSETILE
360
46A
  3
OPACITYTILE
360
46E
  3
REFLECTIONTILE
360
46D
  3
REFRACTIONTILE
360
46F
  3
SPECULARTILE
360
46C
  0
DICTIONARY
  5
461
330
460
100
AcDbDictionary
280
     1
281
     1
  3
ACAD_XREC_ROUNDTRIP
360
657
  3
BUMPTILE
360
463
  3
DIFFUSETILE
360
462
  3
OPACITYTILE
360
466
  3
REFLECTIONTILE
360
465
  3
REFRACTIONTILE
360
467
  3
SPECULARTILE
360
464
  0
DICTIONARY
  5
471
330
470
100
AcDbDictionary
280
     1
281
     1
  3
ACAD_XREC_ROUNDTRIP
360
659
  3
BUMPTILE
360
473
  3
DIFFUSETILE
360
472
  3
OPACITYTILE
360
476
  3
REFLECTIONTILE
360
475
  3
REFRACTIONTILE
360
477
  3
SPECULARTILE
360
474
  0
DICTIONARY
  5
64F
330
48E
100
AcDbDictionary
280
     1
281
     1
  3
ACAD_ROUNDTRIP_2008_TABLESTYLE_CELLSTYLEMAP
360
650
  3
ACAD_XREC_ROUNDTRIP
360
680
  0
DICTIONARY
  5
664
330
47E
100
AcDbDictionary
280
     1
281
     1
  3
ACAD_XREC_ROUNDTRIP
360
665
  0
DICTIONARY
  5
668
330
480
100
AcDbDictionary
280
     1
281
     1
  3
ACAD_XREC_ROUNDTRIP
360
669
  0
DICTIONARY
  5
666
330
47F
100
AcDbDictionary
280
     1
281
     1
  3
ACAD_XREC_ROUNDTRIP
360
667
  0
DICTIONARY
  5
662
330
47D
100
AcDbDictionary
280
     1
281
     1
  3
ACAD_XREC_ROUNDTRIP
360
663
  0
DICTIONARY
  5
670
330
484
100
AcDbDictionary
280
     1
281
     1
  3
ACAD_XREC_ROUNDTRIP
360
671
  0
DICTIONARY
  5
678
330
488
100
AcDbDictionary
280
     1
281
     1
  3
ACAD_XREC_ROUNDTRIP
360
679
  0
DICTIONARY
  5
66A
330
481
100
AcDbDictionary
280
     1
281
     1
  3
ACAD_XREC_ROUNDTRIP
360
66B
  0
DICTIONARY
  5
66E
330
483
100
AcDbDictionary
280
     1
281
     1
  3
ACAD_XREC_ROUNDTRIP
360
66F
  0
DICTIONARY
  5
67E
330
48B
100
AcDbDictionary
280
     1
281
     1
  3
ACAD_XREC_ROUNDTRIP
360
67F
  0
DICTIONARY
  5
676
330
487
100
AcDbDictionary
280
     1
281
     1
  3
ACAD_XREC_ROUNDTRIP
360
677
  0
DICTIONARY
  5
65A
330
479
100
AcDbDictionary
280
     1
281
     1
  3
ACAD_XREC_ROUNDTRIP
360
65B
  0
DICTIONARY
  5
65C
330
47A
100
AcDbDictionary
280
     1
281
     1
  3
ACAD_XREC_ROUNDTRIP
360
65D
  0
DICTIONARY
  5
65E
330
47B
100
AcDbDictionary
280
     1
281
     1
  3
ACAD_XREC_ROUNDTRIP
360
65F
  0
DICTIONARY
  5
660
330
47C
100
AcDbDictionary
280
     1
281
     1
  3
ACAD_XREC_ROUNDTRIP
360
661
  0
DICTIONARY
  5
67A
330
489
100
AcDbDictionary
280
     1
281
     1
  3
ACAD_XREC_ROUNDTRIP
360
67B
  0
DICTIONARY
  5
674
330
486
100
AcDbDictionary
280
     1
281
     1
  3
ACAD_XREC_ROUNDTRIP
360
675
  0
DICTIONARY
  5
67C
330
48A
100
AcDbDictionary
280
     1
281
     1
  3
ACAD_XREC_ROUNDTRIP
360
67D
  0
DICTIONARY
  5
66C
330
482
100
AcDbDictionary
280
     1
281
     1
  3
ACAD_XREC_ROUNDTRIP
360
66D
  0
DICTIONARY
  5
672
330
485
100
AcDbDictionary
280
     1
281
     1
  3
ACAD_XREC_ROUNDTRIP
360
673
  0
XRECORD
  5
656
102
{ACAD_REACTORS
330
655
102
}
330
655
100
AcDbXrecord
280
     1
102
SHADEPLOT
 70
     0
102
SHADEPLOTRESLEVEL
 70
     2
102
SHADEPLOTCUSTOMDPI
 70
   300
  0
XRECORD
  5
654
102
{ACAD_REACTORS
330
653
102
}
330
653
100
AcDbXrecord
280
     1
102
SHADEPLOT
 70
     0
102
SHADEPLOTRESLEVEL
 70
     2
102
SHADEPLOTCUSTOMDPI
 70
   300
  0
XRECORD
  5
658
102
{ACAD_REACTORS
330
469
102
}
330
469
100
AcDbXrecord
280
     1
102
MATERIAL
148
0.0
149
0.0
149
0.0
 93
        0
 94
      127
282
     0
 72
     0
 77
     0
171
     0
175
     0
179
     0
273
     0
  0
XRECORD
  5
46B
102
{ACAD_REACTORS
330
469
102
}
330
469
100
AcDbXrecord
280
     1
270
     1
271
     1
  0
XRECORD
  5
46A
102
{ACAD_REACTORS
330
469
102
}
330
469
100
AcDbXrecord
280
     1
270
     1
271
     1
  0
XRECORD
  5
46E
102
{ACAD_REACTORS
330
469
102
}
330
469
100
AcDbXrecord
280
     1
270
     1
271
     1
  0
XRECORD
  5
46D
102
{ACAD_REACTORS
330
469
102
}
330
469
100
AcDbXrecord
280
     1
270
     1
271
     1
  0
XRECORD
  5
46F
102
{ACAD_REACTORS
330
469
102
}
330
469
100
AcDbXrecord
280
     1
270
     1
271
     1
  0
XRECORD
  5
46C
102
{ACAD_REACTORS
330
469
102
}
330
469
100
AcDbXrecord
280
     1
270
     1
271
     1
  0
XRECORD
  5
657
102
{ACAD_REACTORS
330
461
102
}
330
461
100
AcDbXrecord
280
     1
102
MATERIAL
148
0.0
149
0.0
149
0.0
 93
        0
 94
      127
282
     0
 72
     0
 77
     0
171
     0
175
     0
179
     0
273
     0
  0
XRECORD
  5
463
102
{ACAD_REACTORS
330
461
102
}
330
461
100
AcDbXrecord
280
     1
270
     1
271
     1
  0
XRECORD
  5
462
102
{ACAD_REACTORS
330
461
102
}
330
461
100
AcDbXrecord
280
     1
270
     1
271
     1
  0
XRECORD
  5
466
102
{ACAD_REACTORS
330
461
102
}
330
461
100
AcDbXrecord
280
     1
270
     1
271
     1
  0
XRECORD
  5
465
102
{ACAD_REACTORS
330
461
102
}
330
461
100
AcDbXrecord
280
     1
270
     1
271
     1
  0
XRECORD
  5
467
102
{ACAD_REACTORS
330
461
102
}
330
461
100
AcDbXrecord
280
     1
270
     1
271
     1
  0
XRECORD
  5
464
102
{ACAD_REACTORS
330
461
102
}
330
461
100
AcDbXrecord
280
     1
270
     1
271
     1
  0
XRECORD
  5
659
102
{ACAD_REACTORS
330
471
102
}
330
471
100
AcDbXrecord
280
     1
102
MATERIAL
148
0.0
149
0.0
149
0.0
 93
        0
 94
      127
282
     0
 72
     0
 77
     0
171
     0
175
     0
179
     0
273
     0
  0
XRECORD
  5
473
102
{ACAD_REACTORS
330
471
102
}
330
471
100
AcDbXrecord
280
     1
270
     1
271
     1
  0
XRECORD
  5
472
102
{ACAD_REACTORS
330
471
102
}
330
471
100
AcDbXrecord
280
     1
270
     1
271
     1
  0
XRECORD
  5
476
102
{ACAD_REACTORS
330
471
102
}
330
471
100
AcDbXrecord
280
     1
270
     1
271
     1
  0
XRECORD
  5
475
102
{ACAD_REACTORS
330
471
102
}
330
471
100
AcDbXrecord
280
     1
270
     1
271
     1
  0
XRECORD
  5
477
102
{ACAD_REACTORS
330
471
102
}
330
471
100
AcDbXrecord
280
     1
270
     1
271
     1
  0
XRECORD
  5
474
102
{ACAD_REACTORS
330
471
102
}
330
471
100
AcDbXrecord
280
     1
270
     1
271
     1
  0
CELLSTYLEMAP
  5
650
102
{ACAD_REACTORS
330
64F
102
}
330
64F
100
AcDbCellStyleMap
 90
        3
300
CELLSTYLE
  1
TABLEFORMAT_BEGIN
 90
        5
170
     1
 91
        0
 92
    32768
 62
   257
 93
        1
300
CONTENTFORMAT
  1
CONTENTFORMAT_BEGIN
 90
        0
 91
        0
 92
      512
 93
        0
300

 40
0.0
140
1.0
 94
        5
 62
     0
340
11
144
6.0
309
CONTENTFORMAT_END
171
     1
301
MARGIN
  1
CELLMARGIN_BEGIN
 40
1.5
 40
1.5
 40
1.5
 40
1.5
 40
4.5
 40
4.5
309
CELLMARGIN_END
 94
        6
 95
        1
302
GRIDFORMAT
  1
GRIDFORMAT_BEGIN
 90
        0
 91
        1
 62
     0
 92
       -2
340
0
 93
        0
 40
1.125
309
GRIDFORMAT_END
 95
        2
302
GRIDFORMAT
  1
GRIDFORMAT_BEGIN
 90
        0
 91
        1
 62
     0
 92
       -2
340
0
 93
        0
 40
1.125
309
GRIDFORMAT_END
 95
        4
302
GRIDFORMAT
  1
GRIDFORMAT_BEGIN
 90
        0
 91
        1
 62
     0
 92
       -2
340
0
 93
        0
 40
1.125
309
GRIDFORMAT_END
 95
        8
302
GRIDFORMAT
  1
GRIDFORMAT_BEGIN
 90
        0
 91
        1
 62
     0
 92
       -2
340
0
 93
        0
 40
1.125
309
GRIDFORMAT_END
 95
       16
302
GRIDFORMAT
  1
GRIDFORMAT_BEGIN
 90
        0
 91
        1
 62
     0
 92
       -2
340
0
 93
        0
 40
1.125
309
GRIDFORMAT_END
 95
       32
302
GRIDFORMAT
  1
GRIDFORMAT_BEGIN
 90
        0
 91
        1
 62
     0
 92
       -2
340
0
 93
        0
 40
1.125
309
GRIDFORMAT_END
309
TABLEFORMAT_END
  1
CELLSTYLE_BEGIN
 90
        1
 91
        1
300
_TITLE
309
CELLSTYLE_END
300
CELLSTYLE
  1
TABLEFORMAT_BEGIN
 90
        5
170
     1
 91
        0
 92
        0
 62
   257
 93
        1
300
CONTENTFORMAT
  1
CONTENTFORMAT_BEGIN
 90
        0
 91
        0
 92
      512
 93
        0
300

 40
0.0
140
1.0
 94
        5
 62
     0
340
11
144
4.5
309
CONTENTFORMAT_END
171
     1
301
MARGIN
  1
CELLMARGIN_BEGIN
 40
1.5
 40
1.5
 40
1.5
 40
1.5
 40
4.5
 40
4.5
309
CELLMARGIN_END
 94
        6
 95
        1
302
GRIDFORMAT
  1
GRIDFORMAT_BEGIN
 90
        0
 91
        1
 62
     0
 92
       -2
340
0
 93
        0
 40
1.125
309
GRIDFORMAT_END
 95
        2
302
GRIDFORMAT
  1
GRIDFORMAT_BEGIN
 90
        0
 91
        1
 62
     0
 92
       -2
340
0
 93
        0
 40
1.125
309
GRIDFORMAT_END
 95
        4
302
GRIDFORMAT
  1
GRIDFORMAT_BEGIN
 90
        0
 91
        1
 62
     0
 92
       -2
340
0
 93
        0
 40
1.125
309
GRIDFORMAT_END
 95
        8
302
GRIDFORMAT
  1
GRIDFORMAT_BEGIN
 90
        0
 91
        1
 62
     0
 92
       -2
340
0
 93
        0
 40
1.125
309
GRIDFORMAT_END
 95
       16
302
GRIDFORMAT
  1
GRIDFORMAT_BEGIN
 90
        0
 91
        1
 62
     0
 92
       -2
340
0
 93
        0
 40
1.125
309
GRIDFORMAT_END
 95
       32
302
GRIDFORMAT
  1
GRIDFORMAT_BEGIN
 90
        0
 91
        1
 62
     0
 92
       -2
340
0
 93
        0
 40
1.125
309
GRIDFORMAT_END
309
TABLEFORMAT_END
  1
CELLSTYLE_BEGIN
 90
        2
 91
        1
300
_HEADER
309
CELLSTYLE_END
300
CELLSTYLE
  1
TABLEFORMAT_BEGIN
 90
        5
170
     1
 91
        0
 92
        0
 62
   257
 93
        1
300
CONTENTFORMAT
  1
CONTENTFORMAT_BEGIN
 90
        0
 91
        0
 92
      512
 93
        0
300

 40
0.0
140
1.0
 94
        2
 62
     0
340
11
144
4.5
309
CONTENTFORMAT_END
171
     1
301
MARGIN
  1
CELLMARGIN_BEGIN
 40
1.5
 40
1.5
 40
1.5
 40
1.5
 40
4.5
 40
4.5
309
CELLMARGIN_END
 94
        6
 95
        1
302
GRIDFORMAT
  1
GRIDFORMAT_BEGIN
 90
        0
 91
        1
 62
     0
 92
       -2
340
0
 93
        0
 40
1.125
309
GRIDFORMAT_END
 95
        2
302
GRIDFORMAT
  1
GRIDFORMAT_BEGIN
 90
        0
 91
        1
 62
     0
 92
       -2
340
0
 93
        0
 40
1.125
309
GRIDFORMAT_END
 95
        4
302
GRIDFORMAT
  1
GRIDFORMAT_BEGIN
 90
        0
 91
        1
 62
     0
 92
       -2
340
0
 93
        0
 40
1.125
309
GRIDFORMAT_END
 95
        8
302
GRIDFORMAT
  1
GRIDFORMAT_BEGIN
 90
        0
 91
        1
 62
     0
 92
       -2
340
0
 93
        0
 40
1.125
309
GRIDFORMAT_END
 95
       16
302
GRIDFORMAT
  1
GRIDFORMAT_BEGIN
 90
        0
 91
        1
 62
     0
 92
       -2
340
0
 93
        0
 40
1.125
309
GRIDFORMAT_END
 95
       32
302
GRIDFORMAT
  1
GRIDFORMAT_BEGIN
 90
        0
 91
        1
 62
     0
 92
       -2
340
0
 93
        0
 40
1.125
309
GRIDFORMAT_END
309
TABLEFORMAT_END
  1
CELLSTYLE_BEGIN
 90
        3
 91
        2
300
_DATA
309
CELLSTYLE_END
  0
XRECORD
  5
680
102
{ACAD_REACTORS
330
64F
102
}
330
64F
100
AcDbXrecord
280
     1
102
ACAD_ROUNDTRIP_PRE2007_TABLESTYLE
 90
      512
 91
        0
  1

 92
      512
 93
        0
  2

 94
      512
 95
        0
  3

  0
XRECORD
  5
665
102
{ACAD_REACTORS
330
664
102
}
330
664
100
AcDbXrecord
280
     1
102
RTVSPropertyOp0
 70
     1
102
RTVSPropertyOp1
 70
     1
102
RTVSPropertyOp2
 70
     1
102
RTVSPropertyOp3
 70
     1
102
RTVSPropertyOp4
 70
     1
102
RTVSPropertyOp5
 70
     1
102
RTVSPropertyOp6
 70
     1
102
RTVSPropertyOp7
 70
     1
102
RTVSPropertyOp8
 70
     1
102
RTVSPropertyOp9
 70
     1
102
RTVSPropertyOp10
 70
     1
102
RTVSPropertyOp11
 70
     1
102
RTVSPropertyOp12
 70
     1
102
RTVSPropertyOp13
 70
     1
102
RTVSPropertyOp14
 70
     1
102
RTVSPropertyOp15
 70
     1
102
RTVSPropertyOp16
 70
     1
102
RTVSPropertyOp17
 70
     1
102
RTVSPropertyOp18
 70
     1
102
RTVSPropertyOp19
 70
     1
102
RTVSPropertyOp20
 70
     1
102
RTVSPropertyOp21
 70
     1
102
RTVSPropertyOp22
 70
     1
102
RTVSPropertyOp23
 70
     1
102
RTVSPropertyOp24
 70
     1
102
RTVSPropertyOp25
 70
     1
102
RTVSPropertyOp26
 70
     1
102
RTVSPropertyOp27
 70
     1
  0
XRECORD
  5
669
102
{ACAD_REACTORS
330
668
102
}
330
668
100
AcDbXrecord
280
     1
102
RTVSPropertyOp0
 70
     1
102
RTVSPropertyOp1
 70
     1
102
RTVSPropertyOp2
 70
     1
102
RTVSPropertyOp3
 70
     1
102
RTVSPropertyOp4
 70
     1
102
RTVSPropertyOp5
 70
     1
102
RTVSPropertyOp6
 70
     1
102
RTVSPropertyOp7
 70
     1
102
RTVSPropertyOp8
 70
     1
102
RTVSPropertyOp9
 70
     1
102
RTVSPropertyOp10
 70
     1
102
RTVSPropertyOp11
 70
     1
102
RTVSPropertyOp12
 70
     1
102
RTVSPropertyOp13
 70
     1
102
RTVSPropertyOp14
 70
     1
102
RTVSPropertyOp15
 70
     1
102
RTVSPropertyOp16
 70
     1
102
RTVSPropertyOp17
 70
     1
102
RTVSPropertyOp18
 70
     1
102
RTVSPropertyOp19
 70
     1
102
RTVSPropertyOp20
 70
     1
102
RTVSPropertyOp21
 70
     1
102
RTVSPropertyOp22
 70
     1
102
RTVSPropertyOp23
 70
     1
102
RTVSPropertyOp24
 70
     1
102
RTVSPropertyOp25
 70
     1
102
RTVSPropertyOp26
 70
     1
102
RTVSPropertyOp27
 70
     1
  0
XRECORD
  5
667
102
{ACAD_REACTORS
330
666
102
}
330
666
100
AcDbXrecord
280
     1
102
RTVSPropertyOp0
 70
     1
102
RTVSPropertyOp1
 70
     1
102
RTVSPropertyOp2
 70
     1
102
RTVSPropertyOp3
 70
     1
102
RTVSPropertyOp4
 70
     1
102
RTVSPropertyOp5
 70
     1
102
RTVSPropertyOp6
 70
     1
102
RTVSPropertyOp7
 70
     1
102
RTVSPropertyOp8
 70
     1
102
RTVSPropertyOp9
 70
     1
102
RTVSPropertyOp10
 70
     1
102
RTVSPropertyOp11
 70
     1
102
RTVSPropertyOp12
 70
     1
102
RTVSPropertyOp13
 70
     1
102
RTVSPropertyOp14
 70
     1
102
RTVSPropertyOp15
 70
     1
102
RTVSPropertyOp16
 70
     1
102
RTVSPropertyOp17
 70
     1
102
RTVSPropertyOp18
 70
     1
102
RTVSPropertyOp19
 70
     1
102
RTVSPropertyOp20
 70
     1
102
RTVSPropertyOp21
 70
     1
102
RTVSPropertyOp22
 70
     1
102
RTVSPropertyOp23
 70
     1
102
RTVSPropertyOp24
 70
     1
102
RTVSPropertyOp25
 70
     1
102
RTVSPropertyOp26
 70
     1
102
RTVSPropertyOp27
 70
     1
  0
XRECORD
  5
663
102
{ACAD_REACTORS
330
662
102
}
330
662
100
AcDbXrecord
280
     1
102
RTVSPropertyOp0
 70
     1
102
RTVSPropertyOp1
 70
     1
102
RTVSPropertyOp2
 70
     1
102
RTVSPropertyOp3
 70
     1
102
RTVSPropertyOp4
 70
     1
102
RTVSPropertyOp5
 70
     1
102
RTVSPropertyOp6
 70
     1
102
RTVSPropertyOp7
 70
     1
102
RTVSPropertyOp8
 70
     1
102
RTVSPropertyOp9
 70
     1
102
RTVSPropertyOp10
 70
     1
102
RTVSPropertyOp11
 70
     1
102
RTVSPropertyOp12
 70
     1
102
RTVSPropertyOp13
 70
     1
102
RTVSPropertyOp14
 70
     1
102
RTVSPropertyOp15
 70
     1
102
RTVSPropertyOp16
 70
     1
102
RTVSPropertyOp17
 70
     1
102
RTVSPropertyOp18
 70
     1
102
RTVSPropertyOp19
 70
     1
102
RTVSPropertyOp20
 70
     1
102
RTVSPropertyOp21
 70
     1
102
RTVSPropertyOp22
 70
     1
102
RTVSPropertyOp23
 70
     1
102
RTVSPropertyOp24
 70
     1
102
RTVSPropertyOp25
 70
     1
102
RTVSPropertyOp26
 70
     1
102
RTVSPropertyOp27
 70
     1
  0
XRECORD
  5
671
102
{ACAD_REACTORS
330
670
102
}
330
670
100
AcDbXrecord
280
     1
102
RTVSPropertyOp0
 70
     1
102
RTVSPropertyOp1
 70
     1
102
RTVSPropertyOp2
 70
     1
102
RTVSPropertyOp3
 70
     1
102
RTVSPropertyOp4
 70
     1
102
RTVSPropertyOp5
 70
     1
102
RTVSPropertyOp6
 70
     1
102
RTVSPropertyOp7
 70
     1
102
RTVSPropertyOp8
 70
     1
102
RTVSPropertyOp9
 70
     1
102
RTVSPropertyOp10
 70
     1
102
RTVSPropertyOp11
 70
     1
102
RTVSPropertyOp12
 70
     1
102
RTVSPropertyOp13
 70
     1
102
RTVSPropertyOp14
 70
     1
102
RTVSPropertyOp15
 70
     1
102
RTVSPropertyOp16
 70
     1
102
RTVSPropertyOp17
 70
     1
102
RTVSPropertyOp18
 70
     1
102
RTVSPropertyOp19
 70
     1
102
RTVSPropertyOp20
 70
     1
102
RTVSPropertyOp21
 70
     1
102
RTVSPropertyOp22
 70
     1
102
RTVSPropertyOp23
 70
     1
102
RTVSPropertyOp24
 70
     1
102
RTVSPropertyOp25
 70
     1
102
RTVSPropertyOp26
 70
     1
102
RTVSPropertyOp27
 70
     1
  0
XRECORD
  5
679
102
{ACAD_REACTORS
330
678
102
}
330
678
100
AcDbXrecord
280
     1
102
RTVSPropertyOp0
 70
     1
102
RTVSPropertyOp1
 70
     1
102
RTVSPropertyOp2
 70
     1
102
RTVSPropertyOp3
 70
     1
102
RTVSPropertyOp4
 70
     1
102
RTVSPropertyOp5
 70
     1
102
RTVSPropertyOp6
 70
     1
102
RTVSPropertyOp7
 70
     1
102
RTVSPropertyOp8
 70
     1
102
RTVSPropertyOp9
 70
     1
102
RTVSPropertyOp10
 70
     1
102
RTVSPropertyOp11
 70
     1
102
RTVSPropertyOp12
 70
     1
102
RTVSPropertyOp13
 70
     1
102
RTVSPropertyOp14
 70
     1
102
RTVSPropertyOp15
 70
     1
102
RTVSPropertyOp16
 70
     1
102
RTVSPropertyOp17
 70
     1
102
RTVSPropertyOp18
 70
     1
102
RTVSPropertyOp19
 70
     1
102
RTVSPropertyOp20
 70
     1
102
RTVSPropertyOp21
 70
     1
102
RTVSPropertyOp22
 70
     1
102
RTVSPropertyOp23
 70
     1
102
RTVSPropertyOp24
 70
     1
102
RTVSPropertyOp25
 70
     1
102
RTVSPropertyOp26
 70
     1
102
RTVSPropertyOp27
 70
     1
  0
XRECORD
  5
66B
102
{ACAD_REACTORS
330
66A
102
}
330
66A
100
AcDbXrecord
280
     1
102
RTVSPropertyOp0
 70
     1
102
RTVSPropertyOp1
 70
     1
102
RTVSPropertyOp2
 70
     1
102
RTVSPropertyOp3
 70
     1
102
RTVSPropertyOp4
 70
     1
102
RTVSPropertyOp5
 70
     1
102
RTVSPropertyOp6
 70
     1
102
RTVSPropertyOp7
 70
     1
102
RTVSPropertyOp8
 70
     1
102
RTVSPropertyOp9
 70
     1
102
RTVSPropertyOp10
 70
     1
102
RTVSPropertyOp11
 70
     1
102
RTVSPropertyOp12
 70
     1
102
RTVSPropertyOp13
 70
     1
102
RTVSPropertyOp14
 70
     1
102
RTVSPropertyOp15
 70
     1
102
RTVSPropertyOp16
 70
     1
102
RTVSPropertyOp17
 70
     1
102
RTVSPropertyOp18
 70
     1
102
RTVSPropertyOp19
 70
     1
102
RTVSPropertyOp20
 70
     1
102
RTVSPropertyOp21
 70
     1
102
RTVSPropertyOp22
 70
     1
102
RTVSPropertyOp23
 70
     1
102
RTVSPropertyOp24
 70
     1
102
RTVSPropertyOp25
 70
     1
102
RTVSPropertyOp26
 70
     1
102
RTVSPropertyOp27
 70
     1
  0
XRECORD
  5
66F
102
{ACAD_REACTORS
330
66E
102
}
330
66E
100
AcDbXrecord
280
     1
102
RTVSPropertyOp0
 70
     1
102
RTVSPropertyOp1
 70
     1
102
RTVSPropertyOp2
 70
     1
102
RTVSPropertyOp3
 70
     1
102
RTVSPropertyOp4
 70
     1
102
RTVSPropertyOp5
 70
     1
102
RTVSPropertyOp6
 70
     1
102
RTVSPropertyOp7
 70
     1
102
RTVSPropertyOp8
 70
     1
102
RTVSPropertyOp9
 70
     1
102
RTVSPropertyOp10
 70
     1
102
RTVSPropertyOp11
 70
     1
102
RTVSPropertyOp12
 70
     1
102
RTVSPropertyOp13
 70
     1
102
RTVSPropertyOp14
 70
     1
102
RTVSPropertyOp15
 70
     1
102
RTVSPropertyOp16
 70
     1
102
RTVSPropertyOp17
 70
     1
102
RTVSPropertyOp18
 70
     1
102
RTVSPropertyOp19
 70
     1
102
RTVSPropertyOp20
 70
     1
102
RTVSPropertyOp21
 70
     1
102
RTVSPropertyOp22
 70
     1
102
RTVSPropertyOp23
 70
     1
102
RTVSPropertyOp24
 70
     1
102
RTVSPropertyOp25
 70
     1
102
RTVSPropertyOp26
 70
     1
102
RTVSPropertyOp27
 70
     1
  0
XRECORD
  5
67F
102
{ACAD_REACTORS
330
67E
102
}
330
67E
100
AcDbXrecord
280
     1
102
RTVSPropertyOp0
 70
     0
102
RTVSPropertyOp1
 70
     0
102
RTVSPropertyOp2
 70
     0
102
RTVSPropertyOp3
 70
     0
102
RTVSPropertyOp4
 70
     0
102
RTVSPropertyOp5
 70
     0
102
RTVSPropertyOp6
 70
     0
102
RTVSPropertyOp7
 70
     0
102
RTVSPropertyOp8
 70
     0
102
RTVSPropertyOp9
 70
     0
102
RTVSPropertyOp10
 70
     0
102
RTVSPropertyOp11
 70
     0
102
RTVSPropertyOp12
 70
     0
102
RTVSPropertyOp13
 70
     0
102
RTVSPropertyOp14
 70
     2
102
RTVSPropertyOp15
 70
     0
102
RTVSPropertyOp16
 70
     0
102
RTVSPropertyOp17
 70
     0
102
RTVSPropertyOp18
 70
     0
102
RTVSPropertyOp19
 70
     0
102
RTVSPropertyOp20
 70
     0
102
RTVSPropertyOp21
 70
     0
102
RTVSPropertyOp22
 70
     0
102
RTVSPropertyOp23
 70
     0
102
RTVSPropertyOp24
 70
     0
102
RTVSPropertyOp25
 70
     0
102
RTVSPropertyOp26
 70
     0
102
RTVSPropertyOp27
 70
     0
  0
XRECORD
  5
677
102
{ACAD_REACTORS
330
676
102
}
330
676
100
AcDbXrecord
280
     1
102
RTVSPropertyOp0
 70
     1
102
RTVSPropertyOp1
 70
     1
102
RTVSPropertyOp2
 70
     1
102
RTVSPropertyOp3
 70
     1
102
RTVSPropertyOp4
 70
     1
102
RTVSPropertyOp5
 70
     1
102
RTVSPropertyOp6
 70
     1
102
RTVSPropertyOp7
 70
     1
102
RTVSPropertyOp8
 70
     1
102
RTVSPropertyOp9
 70
     1
102
RTVSPropertyOp10
 70
     1
102
RTVSPropertyOp11
 70
     1
102
RTVSPropertyOp12
 70
     1
102
RTVSPropertyOp13
 70
     1
102
RTVSPropertyOp14
 70
     1
102
RTVSPropertyOp15
 70
     1
102
RTVSPropertyOp16
 70
     1
102
RTVSPropertyOp17
 70
     1
102
RTVSPropertyOp18
 70
     1
102
RTVSPropertyOp19
 70
     1
102
RTVSPropertyOp20
 70
     1
102
RTVSPropertyOp21
 70
     1
102
RTVSPropertyOp22
 70
     1
102
RTVSPropertyOp23
 70
     1
102
RTVSPropertyOp24
 70
     1
102
RTVSPropertyOp25
 70
     1
102
RTVSPropertyOp26
 70
     1
102
RTVSPropertyOp27
 70
     1
  0
XRECORD
  5
65B
102
{ACAD_REACTORS
330
65A
102
}
330
65A
100
AcDbXrecord
280
     1
102
RTVSPropertyOp0
 70
     1
102
RTVSPropertyOp1
 70
     1
102
RTVSPropertyOp2
 70
     1
102
RTVSPropertyOp3
 70
     1
102
RTVSPropertyOp4
 70
     1
102
RTVSPropertyOp5
 70
     1
102
RTVSPropertyOp6
 70
     1
102
RTVSPropertyOp7
 70
     1
102
RTVSPropertyOp8
 70
     1
102
RTVSPropertyOp9
 70
     1
102
RTVSPropertyOp10
 70
     1
102
RTVSPropertyOp11
 70
     1
102
RTVSPropertyOp12
 70
     1
102
RTVSPropertyOp13
 70
     1
102
RTVSPropertyOp14
 70
     1
102
RTVSPropertyOp15
 70
     1
102
RTVSPropertyOp16
 70
     1
102
RTVSPropertyOp17
 70
     1
102
RTVSPropertyOp18
 70
     1
102
RTVSPropertyOp19
 70
     1
102
RTVSPropertyOp20
 70
     1
102
RTVSPropertyOp21
 70
     1
102
RTVSPropertyOp22
 70
     1
102
RTVSPropertyOp23
 70
     1
102
RTVSPropertyOp24
 70
     1
102
RTVSPropertyOp25
 70
     1
102
RTVSPropertyOp26
 70
     1
102
RTVSPropertyOp27
 70
     1
  0
XRECORD
  5
65D
102
{ACAD_REACTORS
330
65C
102
}
330
65C
100
AcDbXrecord
280
     1
102
RTVSPropertyOp0
 70
     1
102
RTVSPropertyOp1
 70
     1
102
RTVSPropertyOp2
 70
     1
102
RTVSPropertyOp3
 70
     1
102
RTVSPropertyOp4
 70
     1
102
RTVSPropertyOp5
 70
     1
102
RTVSPropertyOp6
 70
     1
102
RTVSPropertyOp7
 70
     1
102
RTVSPropertyOp8
 70
     1
102
RTVSPropertyOp9
 70
     1
102
RTVSPropertyOp10
 70
     1
102
RTVSPropertyOp11
 70
     1
102
RTVSPropertyOp12
 70
     1
102
RTVSPropertyOp13
 70
     1
102
RTVSPropertyOp14
 70
     1
102
RTVSPropertyOp15
 70
     1
102
RTVSPropertyOp16
 70
     1
102
RTVSPropertyOp17
 70
     1
102
RTVSPropertyOp18
 70
     1
102
RTVSPropertyOp19
 70
     1
102
RTVSPropertyOp20
 70
     1
102
RTVSPropertyOp21
 70
     1
102
RTVSPropertyOp22
 70
     1
102
RTVSPropertyOp23
 70
     1
102
RTVSPropertyOp24
 70
     1
102
RTVSPropertyOp25
 70
     1
102
RTVSPropertyOp26
 70
     1
102
RTVSPropertyOp27
 70
     1
  0
XRECORD
  5
65F
102
{ACAD_REACTORS
330
65E
102
}
330
65E
100
AcDbXrecord
280
     1
102
RTVSPropertyOp0
 70
     1
102
RTVSPropertyOp1
 70
     1
102
RTVSPropertyOp2
 70
     1
102
RTVSPropertyOp3
 70
     1
102
RTVSPropertyOp4
 70
     1
102
RTVSPropertyOp5
 70
     1
102
RTVSPropertyOp6
 70
     1
102
RTVSPropertyOp7
 70
     1
102
RTVSPropertyOp8
 70
     1
102
RTVSPropertyOp9
 70
     1
102
RTVSPropertyOp10
 70
     1
102
RTVSPropertyOp11
 70
     1
102
RTVSPropertyOp12
 70
     1
102
RTVSPropertyOp13
 70
     1
102
RTVSPropertyOp14
 70
     1
102
RTVSPropertyOp15
 70
     1
102
RTVSPropertyOp16
 70
     1
102
RTVSPropertyOp17
 70
     1
102
RTVSPropertyOp18
 70
     1
102
RTVSPropertyOp19
 70
     1
102
RTVSPropertyOp20
 70
     1
102
RTVSPropertyOp21
 70
     1
102
RTVSPropertyOp22
 70
     1
102
RTVSPropertyOp23
 70
     1
102
RTVSPropertyOp24
 70
     1
102
RTVSPropertyOp25
 70
     1
102
RTVSPropertyOp26
 70
     1
102
RTVSPropertyOp27
 70
     1
  0
XRECORD
  5
661
102
{ACAD_REACTORS
330
660
102
}
330
660
100
AcDbXrecord
280
     1
102
RTVSPropertyOp0
 70
     1
102
RTVSPropertyOp1
 70
     1
102
RTVSPropertyOp2
 70
     1
102
RTVSPropertyOp3
 70
     1
102
RTVSPropertyOp4
 70
     1
102
RTVSPropertyOp5
 70
     1
102
RTVSPropertyOp6
 70
     1
102
RTVSPropertyOp7
 70
     1
102
RTVSPropertyOp8
 70
     1
102
RTVSPropertyOp9
 70
     1
102
RTVSPropertyOp10
 70
     1
102
RTVSPropertyOp11
 70
     1
102
RTVSPropertyOp12
 70
     1
102
RTVSPropertyOp13
 70
     1
102
RTVSPropertyOp14
 70
     1
102
RTVSPropertyOp15
 70
     1
102
RTVSPropertyOp16
 70
     1
102
RTVSPropertyOp17
 70
     1
102
RTVSPropertyOp18
 70
     1
102
RTVSPropertyOp19
 70
     1
102
RTVSPropertyOp20
 70
     1
102
RTVSPropertyOp21
 70
     1
102
RTVSPropertyOp22
 70
     1
102
RTVSPropertyOp23
 70
     1
102
RTVSPropertyOp24
 70
     1
102
RTVSPropertyOp25
 70
     1
102
RTVSPropertyOp26
 70
     1
102
RTVSPropertyOp27
 70
     1
  0
XRECORD
  5
67B
102
{ACAD_REACTORS
330
67A
102
}
330
67A
100
AcDbXrecord
280
     1
102
RTVSPropertyOp0
 70
     0
102
RTVSPropertyOp1
 70
     0
102
RTVSPropertyOp2
 70
     0
102
RTVSPropertyOp3
 70
     0
102
RTVSPropertyOp4
 70
     0
102
RTVSPropertyOp5
 70
     0
102
RTVSPropertyOp6
 70
     0
102
RTVSPropertyOp7
 70
     0
102
RTVSPropertyOp8
 70
     0
102
RTVSPropertyOp9
 70
     0
102
RTVSPropertyOp10
 70
     0
102
RTVSPropertyOp11
 70
     0
102
RTVSPropertyOp12
 70
     0
102
RTVSPropertyOp13
 70
     0
102
RTVSPropertyOp14
 70
     2
102
RTVSPropertyOp15
 70
     0
102
RTVSPropertyOp16
 70
     0
102
RTVSPropertyOp17
 70
     0
102
RTVSPropertyOp18
 70
     0
102
RTVSPropertyOp19
 70
     0
102
RTVSPropertyOp20
 70
     0
102
RTVSPropertyOp21
 70
     0
102
RTVSPropertyOp22
 70
     0
102
RTVSPropertyOp23
 70
     0
102
RTVSPropertyOp24
 70
     0
102
RTVSPropertyOp25
 70
     0
102
RTVSPropertyOp26
 70
     0
102
RTVSPropertyOp27
 70
     0
  0
XRECORD
  5
675
102
{ACAD_REACTORS
330
674
102
}
330
674
100
AcDbXrecord
280
     1
102
RTVSPropertyOp0
 70
     1
102
RTVSPropertyOp1
 70
     1
102
RTVSPropertyOp2
 70
     1
102
RTVSPropertyOp3
 70
     1
102
RTVSPropertyOp4
 70
     1
102
RTVSPropertyOp5
 70
     1
102
RTVSPropertyOp6
 70
     1
102
RTVSPropertyOp7
 70
     1
102
RTVSPropertyOp8
 70
     1
102
RTVSPropertyOp9
 70
     1
102
RTVSPropertyOp10
 70
     1
102
RTVSPropertyOp11
 70
     1
102
RTVSPropertyOp12
 70
     1
102
RTVSPropertyOp13
 70
     1
102
RTVSPropertyOp14
 70
     1
102
RTVSPropertyOp15
 70
     1
102
RTVSPropertyOp16
 70
     1
102
RTVSPropertyOp17
 70
     1
102
RTVSPropertyOp18
 70
     1
102
RTVSPropertyOp19
 70
     1
102
RTVSPropertyOp20
 70
     1
102
RTVSPropertyOp21
 70
     1
102
RTVSPropertyOp22
 70
     1
102
RTVSPropertyOp23
 70
     1
102
RTVSPropertyOp24
 70
     1
102
RTVSPropertyOp25
 70
     1
102
RTVSPropertyOp26
 70
     1
102
RTVSPropertyOp27
 70
     1
  0
XRECORD
  5
67D
102
{ACAD_REACTORS
330
67C
102
}
330
67C
100
AcDbXrecord
280
     1
102
RTVSPropertyOp0
 70
     0
102
RTVSPropertyOp1
 70
     0
102
RTVSPropertyOp2
 70
     0
102
RTVSPropertyOp3
 70
     0
102
RTVSPropertyOp4
 70
     0
102
RTVSPropertyOp5
 70
     0
102
RTVSPropertyOp6
 70
     0
102
RTVSPropertyOp7
 70
     0
102
RTVSPropertyOp8
 70
     0
102
RTVSPropertyOp9
 70
     0
102
RTVSPropertyOp10
 70
     0
102
RTVSPropertyOp11
 70
     0
102
RTVSPropertyOp12
 70
     0
102
RTVSPropertyOp13
 70
     0
102
RTVSPropertyOp14
 70
     2
102
RTVSPropertyOp15
 70
     0
102
RTVSPropertyOp16
 70
     0
102
RTVSPropertyOp17
 70
     0
102
RTVSPropertyOp18
 70
     0
102
RTVSPropertyOp19
 70
     0
102
RTVSPropertyOp20
 70
     0
102
RTVSPropertyOp21
 70
     0
102
RTVSPropertyOp22
 70
     0
102
RTVSPropertyOp23
 70
     0
102
RTVSPropertyOp24
 70
     0
102
RTVSPropertyOp25
 70
     0
102
RTVSPropertyOp26
 70
     0
102
RTVSPropertyOp27
 70
     0
  0
XRECORD
  5
66D
102
{ACAD_REACTORS
330
66C
102
}
330
66C
100
AcDbXrecord
280
     1
102
RTVSPropertyOp0
 70
     1
102
RTVSPropertyOp1
 70
     1
102
RTVSPropertyOp2
 70
     1
102
RTVSPropertyOp3
 70
     1
102
RTVSPropertyOp4
 70
     1
102
RTVSPropertyOp5
 70
     1
102
RTVSPropertyOp6
 70
     1
102
RTVSPropertyOp7
 70
     1
102
RTVSPropertyOp8
 70
     1
102
RTVSPropertyOp9
 70
     1
102
RTVSPropertyOp10
 70
     1
102
RTVSPropertyOp11
 70
     1
102
RTVSPropertyOp12
 70
     1
102
RTVSPropertyOp13
 70
     1
102
RTVSPropertyOp14
 70
     1
102
RTVSPropertyOp15
 70
     1
102
RTVSPropertyOp16
 70
     1
102
RTVSPropertyOp17
 70
     1
102
RTVSPropertyOp18
 70
     1
102
RTVSPropertyOp19
 70
     1
102
RTVSPropertyOp20
 70
     1
102
RTVSPropertyOp21
 70
     1
102
RTVSPropertyOp22
 70
     1
102
RTVSPropertyOp23
 70
     1
102
RTVSPropertyOp24
 70
     1
102
RTVSPropertyOp25
 70
     1
102
RTVSPropertyOp26
 70
     1
102
RTVSPropertyOp27
 70
     1
  0
XRECORD
  5
673
102
{ACAD_REACTORS
330
672
102
}
330
672
100
AcDbXrecord
280
     1
102
RTVSPropertyOp0
 70
     1
102
RTVSPropertyOp1
 70
     1
102
RTVSPropertyOp2
 70
     1
102
RTVSPropertyOp3
 70
     1
102
RTVSPropertyOp4
 70
     1
102
RTVSPropertyOp5
 70
     1
102
RTVSPropertyOp6
 70
     1
102
RTVSPropertyOp7
 70
     1
102
RTVSPropertyOp8
 70
     1
102
RTVSPropertyOp9
 70
     1
102
RTVSPropertyOp10
 70
     1
102
RTVSPropertyOp11
 70
     1
102
RTVSPropertyOp12
 70
     1
102
RTVSPropertyOp13
 70
     1
102
RTVSPropertyOp14
 70
     1
102
RTVSPropertyOp15
 70
     1
102
RTVSPropertyOp16
 70
     1
102
RTVSPropertyOp17
 70
     1
102
RTVSPropertyOp18
 70
     1
102
RTVSPropertyOp19
 70
     1
102
RTVSPropertyOp20
 70
     1
102
RTVSPropertyOp21
 70
     1
102
RTVSPropertyOp22
 70
     1
102
RTVSPropertyOp23
 70
     1
102
RTVSPropertyOp24
 70
     1
102
RTVSPropertyOp25
 70
     1
102
RTVSPropertyOp26
 70
     1
102
RTVSPropertyOp27
 70
     1
  0
ENDSEC
  0
EOF
