  0
SECTION
  2
HEADER
  9
$ACADVER
  1
AC1015
  9
$ACADMAINTVER
 70
    20
  9
$DWGCODEPAGE
  3
ANSI_1252
  9
$INSBASE
 10
0.0
 20
0.0
 30
0.0
  9
$EXTMIN
 10
0.0
 20
0.0
 30
0.0
  9
$EXTMAX
 10
219.667792985411
 20
297.0
 30
0.0
  9
$LIMMIN
 10
0.0
 20
0.0
  9
$LIMMAX
 10
210.0
 20
297.0
  9
$ORTHOMODE
 70
     0
  9
$REGENMODE
 70
     1
  9
$FILLMODE
 70
     1
  9
$QTEXTMODE
 70
     0
  9
$MIRRTEXT
 70
     0
  9
$LTSCALE
 40
19.36
  9
$ATTMODE
 70
     1
  9
$TEXTSIZE
 40
0.2
  9
$TRACEWID
 40
0.05
  9
$TEXTSTYLE
  7
STANDARD
  9
$CLAYER
  8
0
  9
$CELTYPE
  6
BYLAYER
  9
$CECOLOR
 62
   256
  9
$CELTSCALE
 40
1.0
  9
$DISPSILH
 70
     0
  9
$DIMSCALE
 40
1.0
  9
$DIMASZ
 40
3.5
  9
$DIMEXO
 40
2.2
  9
$DIMDLI
 40
13.376
  9
$DIMRND
 40
0.0
  9
$DIMDLE
 40
0.0
  9
$DIMEXE
 40
6.336
  9
$DIMTP
 40
0.005
  9
$DIMTM
 40
0.005
  9
$DIMTXT
 40
3.5
  9
$DIMCEN
 40
3.168
  9
$DIMTSZ
 40
0.0
  9
$DIMTOL
 70
     1
  9
$DIMLIM
 70
     0
  9
$DIMTIH
 70
     1
  9
$DIMTOH
 70
     1
  9
$DIMSE1
 70
     0
  9
$DIMSE2
 70
     0
  9
$DIMTAD
 70
     0
  9
$DIMZIN
 70
     0
  9
$DIMBLK
  1
_FILLED
  9
$DIMASO
 70
     1
  9
$DIMSHO
 70
     1
  9
$DIMPOST
  1

  9
$DIMAPOST
  1

  9
$DIMALT
 70
     0
  9
$DIMALTD
 70
     2
  9
$DIMALTF
 40
25.4
  9
$DIMLFAC
 40
1.0
  9
$DIMTOFL
 70
     0
  9
$DIMTVP
 40
0.0
  9
$DIMTIX
 70
     0
  9
$DIMSOXD
 70
     0
  9
$DIMSAH
 70
     0
  9
$DIMBLK1
  1

  9
$DIMBLK2
  1

  9
$DIMSTYLE
  2
STANDARD
  9
$DIMCLRD
 70
     0
  9
$DIMCLRE
 70
     0
  9
$DIMCLRT
 70
     0
  9
$DIMTFAC
 40
1.0
  9
$DIMGAP
 40
0.09
  9
$DIMJUST
 70
     0
  9
$DIMSD1
 70
     0
  9
$DIMSD2
 70
     0
  9
$DIMTOLJ
 70
     1
  9
$DIMTZIN
 70
     0
  9
$DIMALTZ
 70
     0
  9
$DIMALTTZ
 70
     0
  9
$DIMUPT
 70
     0
  9
$DIMDEC
 70
     4
  9
$DIMTDEC
 70
     4
  9
$DIMALTU
 70
     2
  9
$DIMALTTD
 70
     2
  9
$DIMTXSTY
  7
STANDARD
  9
$DIMAUNIT
 70
     0
  9
$DIMADEC
 70
     0
  9
$DIMALTRND
 40
0.0
  9
$DIMAZIN
 70
     0
  9
$DIMDSEP
 70
    46
  9
$DIMATFIT
 70
     3
  9
$DIMFRAC
 70
     0
  9
$DIMLDRBLK
  1

  9
$DIMLUNIT
 70
     2
  9
$DIMLWD
 70
    -2
  9
$DIMLWE
 70
    -2
  9
$DIMTMOVE
 70
     0
  9
$LUNITS
 70
     2
  9
$LUPREC
 70
     2
  9
$SKETCHINC
 40
0.1
  9
$FILLETRAD
 40
0.0
  9
$AUNITS
 70
     0
  9
$AUPREC
 70
     0
  9
$MENU
  1
.
  9
$ELEVATION
 40
0.0
  9
$PELEVATION
 40
0.0
  9
$THICKNESS
 40
0.0
  9
$LIMCHECK
 70
     0
  9
$CHAMFERA
 40
0.0
  9
$CHAMFERB
 40
0.0
  9
$CHAMFERC
 40
0.0
  9
$CHAMFERD
 40
0.0
  9
$SKPOLY
 70
     0
  9
$TDCREATE
 40
2456346.527127963
  9
$TDUCREATE
 40
2456346.485461296
  9
$TDUPDATE
 40
2456346.527830197
  9
$TDUUPDATE
 40
2456346.486163530
  9
$TDINDWG
 40
0.0007027778
  9
$TDUSRTIMER
 40
0.0007027778
  9
$USRTIMER
 70
     1
  9
$ANGBASE
 50
0.0
  9
$ANGDIR
 70
     0
  9
$PDMODE
 70
     3
  9
$PDSIZE
 40
0.3125
  9
$PLINEWID
 40
0.0
  9
$SPLFRAME
 70
     0
  9
$SPLINETYPE
 70
     6
  9
$SPLINESEGS
 70
     8
  9
$HANDSEED
  5
67D
  9
$SURFTAB1
 70
     6
  9
$SURFTAB2
 70
     6
  9
$SURFTYPE
 70
     6
  9
$SURFU
 70
     6
  9
$SURFV
 70
     6
  9
$UCSBASE
  2

  9
$UCSNAME
  2

  9
$UCSORG
 10
0.0
 20
0.0
 30
0.0
  9
$UCSXDIR
 10
1.0
 20
0.0
 30
0.0
  9
$UCSYDIR
 10
0.0
 20
1.0
 30
0.0
  9
$UCSORTHOREF
  2

  9
$UCSORTHOVIEW
 70
     0
  9
$UCSORGTOP
 10
0.0
 20
0.0
 30
0.0
  9
$UCSORGBOTTOM
 10
0.0
 20
0.0
 30
0.0
  9
$UCSORGLEFT
 10
0.0
 20
0.0
 30
0.0
  9
$UCSORGRIGHT
 10
0.0
 20
0.0
 30
0.0
  9
$UCSORGFRONT
 10
0.0
 20
0.0
 30
0.0
  9
$UCSORGBACK
 10
0.0
 20
0.0
 30
0.0
  9
$PUCSBASE
  2

  9
$PUCSNAME
  2

  9
$PUCSORG
 10
0.0
 20
0.0
 30
0.0
  9
$PUCSXDIR
 10
1.0
 20
0.0
 30
0.0
  9
$PUCSYDIR
 10
0.0
 20
1.0
 30
0.0
  9
$PUCSORTHOREF
  2

  9
$PUCSORTHOVIEW
 70
     0
  9
$PUCSORGTOP
 10
0.0
 20
0.0
 30
0.0
  9
$PUCSORGBOTTOM
 10
0.0
 20
0.0
 30
0.0
  9
$PUCSORGLEFT
 10
0.0
 20
0.0
 30
0.0
  9
$PUCSORGRIGHT
 10
0.0
 20
0.0
 30
0.0
  9
$PUCSORGFRONT
 10
0.0
 20
0.0
 30
0.0
  9
$PUCSORGBACK
 10
0.0
 20
0.0
 30
0.0
  9
$USERI1
 70
     0
  9
$USERI2
 70
     0
  9
$USERI3
 70
     0
  9
$USERI4
 70
     0
  9
$USERI5
 70
     0
  9
$USERR1
 40
0.0
  9
$USERR2
 40
0.0
  9
$USERR3
 40
0.0
  9
$USERR4
 40
0.0
  9
$USERR5
 40
0.0
  9
$WORLDVIEW
 70
     1
  9
$SHADEDGE
 70
     3
  9
$SHADEDIF
 70
    70
  9
$TILEMODE
 70
     1
  9
$MAXACTVP
 70
    64
  9
$PINSBASE
 10
0.0
 20
0.0
 30
0.0
  9
$PLIMCHECK
 70
     0
  9
$PEXTMIN
 10
1.000000000000000E+20
 20
1.000000000000000E+20
 30
1.000000000000000E+20
  9
$PEXTMAX
 10
-1.000000000000000E+20
 20
-1.000000000000000E+20
 30
-1.000000000000000E+20
  9
$PLIMMIN
 10
0.0
 20
0.0
  9
$PLIMMAX
 10
12.0
 20
9.0
  9
$UNITMODE
 70
     0
  9
$VISRETAIN
 70
     1
  9
$PLINEGEN
 70
     0
  9
$PSLTSCALE
 70
     1
  9
$TREEDEPTH
 70
  3020
  9
$CMLSTYLE
  2
Standard
  9
$CMLJUST
 70
     0
  9
$CMLSCALE
 40
1.0
  9
$PROXYGRAPHICS
 70
     1
  9
$MEASUREMENT
 70
     1
  9
$CELWEIGHT
370
    -1
  9
$ENDCAPS
280
     0
  9
$JOINSTYLE
280
     0
  9
$LWDISPLAY
290
     0
  9
$INSUNITS
 70
     4
  9
$HYPERLINKBASE
  1

  9
$STYLESHEET
  1

  9
$XEDIT
290
     1
  9
$CEPSNTYPE
380
     0
  9
$PSTYLEMODE
290
     1
  9
$FINGERPRINTGUID
  2
{4BDDED51-5C48-4A24-AF69-47E979D5AF3D}
  9
$VERSIONGUID
  2
{5FFB00A8-8379-48EA-898E-4BF13A894068}
  9
$EXTNAMES
290
     1
  9
$PSVPSCALE
 40
0.0
  9
$OLESTARTUP
290
     0
  0
ENDSEC
  0
SECTION
  2
CLASSES
  0
CLASS
  1
ACDBDICTIONARYWDFLT
  2
AcDbDictionaryWithDefault
  3
ObjectDBX Classes
 90
        0
280
     0
281
     0
  0
CLASS
  1
ACDBPLACEHOLDER
  2
AcDbPlaceHolder
  3
ObjectDBX Classes
 90
        0
280
     0
281
     0
  0
CLASS
  1
LAYOUT
  2
AcDbLayout
  3
ObjectDBX Classes
 90
        0
280
     0
281
     0
  0
CLASS
  1
RASTERVARIABLES
  2
AcDbRasterVariables
  3
ISM
 90
        0
280
     0
281
     0
  0
CLASS
  1
IMAGEDEF
  2
AcDbRasterImageDef
  3
ISM
 90
        0
280
     0
281
     0
  0
CLASS
  1
IMAGEDEF_REACTOR
  2
AcDbRasterImageDefReactor
  3
ISM
 90
        1
280
     0
281
     0
  0
CLASS
  1
IMAGE
  2
AcDbRasterImage
  3
ISM
 90
     2175
280
     0
281
     1
  0
CLASS
  1
MATERIAL
  2
AcDbMaterial
  3
ObjectDBX Classes
 90
     1153
280
     0
281
     0
  0
CLASS
  1
VISUALSTYLE
  2
AcDbVisualStyle
  3
ObjectDBX Classes
 90
     4095
280
     0
281
     0
  0
CLASS
  1
TABLESTYLE
  2
AcDbTableStyle
  3
ObjectDBX Classes
 90
     4095
280
     0
281
     0
  0
CLASS
  1
SCALE
  2
AcDbScale
  3
ObjectDBX Classes
 90
     1153
280
     0
281
     0
  0
CLASS
  1
MLEADERSTYLE
  2
AcDbMLeaderStyle
  3
ACDB_MLEADERSTYLE_CLASS
 90
     4095
280
     0
281
     0
  0
CLASS
  1
AMGSETTINGSOBJ
  2
AmgSettingsObj
  3
"AcadM|Product Description: AutoCAD Mechanical|Company: Autodesk, Inc."
 90
     1024
280
     0
281
     0
  0
CLASS
  1
ACME_DOCUMENT
  2
AcMeDbDoc
  3
AcMeServices
 90
     1024
280
     0
281
     0
  0
CLASS
  1
ACMESCOPE
  2
AcMeScope
  3
AcMeServices
 90
     1024
280
     0
281
     0
  0
CLASS
  1
ACMECOMMANDHISTORY
  2
AcMeCommandHistory
  3
AcMeServices
 90
     1024
280
     0
281
     0
  0
CLASS
  1
ACIMSYSVARMAN
  2
AcImSysVarManager
  3
AcMeServices
 90
     1024
280
     0
281
     0
  0
CLASS
  1
ACIMINTSYSVAR
  2
AcImIntSysVar
  3
AcMeServices
 90
     1024
280
     0
281
     0
  0
CLASS
  1
ACMEDRAWINGMAN
  2
AcMeDrawingMan
  3
AcMeServices
 90
     1024
280
     0
281
     0
  0
CLASS
  1
ACMEVIEW
  2
AcMeView
  3
AcMeServices
 90
     1024
280
     0
281
     0
  0
CLASS
  1
ACDBENTITYCACHE
  2
AcMeEntityCache
  3
AcMeServices
 90
     1024
280
     0
281
     0
  0
CLASS
  1
ACMESTATEMGR
  2
AcMeStateMgr
  3
AcMeServices
 90
     1024
280
     0
281
     0
  0
CLASS
  1
ACGREFMASTER
  2
AcGrefMaster
  3
AcAttribServices
 90
     1024
280
     0
281
     0
  0
CLASS
  1
AM_DRAWING_MGR
  2
AcDmDwgMgr
  3
AcMechDwgViewMgmt
 90
     1024
280
     0
281
     0
  0
CLASS
  1
AM_DWG_DOCUMENT
  2
AcDmDwgDocument
  3
AcMechDwgViewMgmt
 90
     1024
280
     0
281
     0
  0
CLASS
  1
AM_DWG_SHEET
  2
AcDmSheet
  3
AcMechDwgViewMgmt
 90
     1024
280
     0
281
     0
  0
CLASS
  1
AM_VIEWDIMPARMAP
  2
AcDmViewDimParMap
  3
AcMechDwgViewMgmt
 90
     1024
280
     0
281
     0
  0
CLASS
  1
AMDTINTERNALREACTOR
  2
AmdtInternalReactor
  3
AcMeServices
 90
     1024
280
     0
281
     0
  0
CLASS
  1
ACIMREALSYSVAR
  2
AcImRealSysVar
  3
AcMeServices
 90
     1024
280
     0
281
     0
  0
CLASS
  1
AM_DWGMGR_NAME
  2
AcDmDwgMgrName
  3
AcMechDwgViewMgmt
 90
     1024
280
     0
281
     0
  0
CLASS
  1
ACME_DATABASE
  2
AcMeDbDatabase
  3
AcMeServices
 90
     1024
280
     0
281
     0
  0
CLASS
  1
ACRFINSADJUSTERMGR
  2
AcRfInsAdjusterMgr
  3
AcMeServices
 90
     1024
280
     0
281
     0
  0
CLASS
  1
ACGREFACADMASTER
  2
AcGrefacadMaster
  3
AcGrefServices
 90
     1024
280
     0
281
     0
  0
CLASS
  1
AMDTMENUSTATEMGR
  2
AmdtMenuStateMgr
  3
McadcomServices
 90
     1024
280
     0
281
     0
  0
CLASS
  1
AMDTMCOMMENUSTATE
  2
AmdtMcomMenuState
  3
McadcomServices
 90
     1024
280
     0
281
     0
  0
CLASS
  1
AMIMASTER
  2
AmiMaster
  3
AmiServices
 90
     1024
280
     0
281
     0
  0
CLASS
  1
MAPIAMMOUDLE
  2
MApiAmModule
  3
MApiAmServices
 90
     1024
280
     0
281
     0
  0
CLASS
  1
ACIMSTRSYSVAR
  2
AcImStrSysVar
  3
AcMeServices
 90
     1024
280
     0
281
     0
  0
CLASS
  1
AMDTADMENUSTATE
  2
AmdtAdMenuState
  3
DesignerServices
 90
     1024
280
     0
281
     0
  0
CLASS
  1
ADAPPL
  2
AcAdAppl
  3
DesignerServices
 90
     1024
280
     0
281
     0
  0
CLASS
  1
DEPMGR
  2
AcAdDepMgr
  3
DesignerServices
 90
     1024
280
     0
281
     0
  0
CLASS
  1
PARAMMGR
  2
AcAdParamMgr
  3
DesignerServices
 90
     1024
280
     0
281
     0
  0
CLASS
  1
PARAMSCOPE
  2
AcAdParamScope
  3
DesignerServices
 90
     1024
280
     0
281
     0
  0
CLASS
  1
NAMEDAPPL
  2
AcAdNamedAppl
  3
DesignerServices
 90
     1024
280
     0
281
     0
  0
CLASS
  1
AMDTDMMENUSTATE
  2
AmdtDmMenuState
  3
AcMechDwgViewMgmt
 90
     1024
280
     0
281
     0
  0
CLASS
  1
AMDTAMMENUSTATE
  2
AmdtAmMenuState
  3
DesignerAssemblies
 90
     1024
280
     0
281
     0
  0
CLASS
  1
ACAMPROJECT
  2
AcAmProject
  3
DesignerAssemblies
 90
     1024
280
     0
281
     0
  0
CLASS
  1
ACAMGRCOMPDEF
  2
AcAmGrCompDef
  3
DesignerAssemblies
 90
     1024
280
     0
281
     0
  0
CLASS
  1
ACAMCOMPDEF
  2
AcAmCompDef
  3
DesignerAssemblies
 90
     1024
280
     0
281
     0
  0
CLASS
  1
ACAMCOMPDEFMGR
  2
AcAmCompDefMgr
  3
DesignerAssemblies
 90
     1024
280
     0
281
     0
  0
CLASS
  1
AMCONTEXTMGR
  2
AcAmContextMgr
  3
DesignerAssemblies
 90
     1024
280
     0
281
     0
  0
CLASS
  1
ACAMCONTEXTMODELER
  2
AcAmContextModeler
  3
DesignerAssemblies
 90
     1024
280
     0
281
     0
  0
CLASS
  1
ACMDATADICTIONARY
  2
AcmDataDictionary
  3
"AcmSymBB|Product Description: AutoCAD Mechanical|Company: Autodesk, Inc."
 90
     1024
280
     0
281
     0
  0
CLASS
  1
CATALOGSTATE
  2
AcAmCatalogState
  3
DesignerAssemblies
 90
     1024
280
     0
281
     0
  0
CLASS
  1
ACAMGRCOMPDEFSET
  2
AcAmGrCompDefSet
  3
DesignerAssemblies
 90
     1024
280
     0
281
     0
  0
CLASS
  1
AMDTBROWSERDBTAB
  2
AmdtBrowserDbTab
  3
McadcomServices
 90
     1024
280
     0
281
     0
  0
CLASS
  1
CBROWSERAPPOBJECT
  2
CBrowserAppObject
  3
McadcomServices
 90
     1024
280
     0
281
     0
  0
CLASS
  1
DM_PLACEHOLDER
  2
AcDmSelsetPlaceholder
  3
AcMechDwgViewMgmt
 90
     1024
280
     0
281
     0
  0
CLASS
  1
EXACXREFPANELOBJECT
  2
ExAcXREFPanelObject
  3
EXAC_ESW
 90
     1025
280
     0
281
     0
  0
CLASS
  1
NPOCOLLECTION
  2
AcDbImpNonPersistentObjectsCollection
  3
ObjectDBX Classes
 90
     1153
280
     0
281
     0
  0
CLASS
  1
ACMSTANDARDDIN
  2
AcmStandardDIN
  3
"Amdt_StdImp|Product Description: AutoCAD Mechanical|Company: Autodesk, Inc."
 90
     1024
280
     0
281
     0
  0
CLASS
  1
AMDTEDGESTANDARDDIN13715
  2
AmdtEdgeStdDIN13715
  3
"Amdt_StdImp|Product Description: AutoCAD Mechanical|Company: Autodesk, Inc."
 90
     1024
280
     0
281
     0
  0
CLASS
  1
ACMSURFSTANDARDDIN2002
  2
AcmSurfTextStdDIN2002
  3
"Amdt_StdImp|Product Description: AutoCAD Mechanical|Company: Autodesk, Inc."
 90
     1024
280
     0
281
     0
  0
CLASS
  1
ACMFCFSTANDARDDIN
  2
AcmFCFStdDIN
  3
"Amdt_StdImp|Product Description: AutoCAD Mechanical|Company: Autodesk, Inc."
 90
     1024
280
     0
281
     0
  0
CLASS
  1
ACMWELDSTANDARDDIN
  2
AcmWeldingStdDIN
  3
"Amdt_StdImp|Product Description: AutoCAD Mechanical|Company: Autodesk, Inc."
 90
     1024
280
     0
281
     0
  0
CLASS
  1
ACMIDSTANDARDDIN
  2
AcmIdStdDIN
  3
"Amdt_StdImp|Product Description: AutoCAD Mechanical|Company: Autodesk, Inc."
 90
     1024
280
     0
281
     0
  0
CLASS
  1
ACMDATUMSTANDARDDIN
  2
AcmDatumStdDIN
  3
"Amdt_StdImp|Product Description: AutoCAD Mechanical|Company: Autodesk, Inc."
 90
     1024
280
     0
281
     0
  0
CLASS
  1
ACMBOMSTANDARDDIN
  2
AcmBOMStdDIN
  3
"Amdt_StdImp|Product Description: AutoCAD Mechanical|Company: Autodesk, Inc."
 90
     1024
280
     0
281
     0
  0
CLASS
  1
ACMDETAILSTANDARDDIN
  2
AmdtDetailSymStdDIN
  3
"Amdt_StdImp|Product Description: AutoCAD Mechanical|Company: Autodesk, Inc."
 90
     1024
280
     0
281
     0
  0
CLASS
  1
ACMSECTIONSTANDARDDIN
  2
AmdtSectionSymStdDIN
  3
"Amdt_StdImp|Product Description: AutoCAD Mechanical|Company: Autodesk, Inc."
 90
     1024
280
     0
281
     0
  0
CLASS
  1
ACMCENTERLINESTANDARDDIN
  2
AmdtCenterLineStdDIN
  3
"Amdt_StdImp|Product Description: AutoCAD Mechanical|Company: Autodesk, Inc."
 90
     1024
280
     0
281
     0
  0
CLASS
  1
ACMTHREADLINESTANDARDDIN
  2
AmdtThreadLineStdDIN
  3
"Amdt_StdImp|Product Description: AutoCAD Mechanical|Company: Autodesk, Inc."
 90
     1024
280
     0
281
     0
  0
CLASS
  1
ACMNOTESTANDARDDIN
  2
AmdtNoteStdDIN
  3
"Amdt_StdImp|Product Description: AutoCAD Mechanical|Company: Autodesk, Inc."
 90
     1024
280
     0
281
     0
  0
CLASS
  1
ACMTAPERSTANDARDDIN
  2
AcmTaperStdDIN
  3
"Amdt_StdImp|Product Description: AutoCAD Mechanical|Company: Autodesk, Inc."
 90
     1024
280
     0
281
     0
  0
CLASS
  1
ACMANOOTATIONVIEWSTANDARDDIN
  2
AmdtAnViewStdDIN
  3
"Amdt_StdImp|Product Description: AutoCAD Mechanical|Company: Autodesk, Inc."
 90
     1024
280
     0
281
     0
  0
CLASS
  1
ACAMGLAYSTD
  2
AcAmgLayStd
  3
"AmgLay|Product Description: AutoCAD Mechanical|Company: Autodesk, Inc."
 90
     1024
280
     0
281
     0
  0
CLASS
  1
ACAMGDIMSTD
  2
AcAmgDimStd
  3
"AmgDim|Product Description: AutoCAD Mechanical|Company: Autodesk, Inc."
 90
     1024
280
     0
281
     0
  0
CLASS
  1
AMGOBJPROPCFG
  2
AmgObjPropCfg
  3
"AmgLay|Product Description: AutoCAD Mechanical|Company: Autodesk, Inc."
 90
     1025
280
     0
281
     0
  0
CLASS
  1
ACAMGHOLECHARTSTDDIN
  2
AcAmgHoleChartStdDIN
  3
AmgDim|Product Description: AutoCAD Mechanical|Company: Autodesk, Inc.
 90
     1024
280
     0
281
     0
  0
CLASS
  1
ACAMGTITLESTD
  2
AcAmgTitleStd
  3
"AmgTitle|Product Description: AutoCAD Mechanical|Company: Autodesk, Inc."
 90
     4095
280
     0
281
     0
  0
CLASS
  1
AMDTNOTETEMPLATEDB
  2
AmdtNoteTemplateDB
  3
AcmSymBB|Product Description: AutoCAD Mechanical|Company: Autodesk, Inc.
 90
     1024
280
     0
281
     0
  0
CLASS
  1
ACAMGFILTERDAT
  2
AcAmgFilterDat
  3
"AcadM|Product Description: AutoCAD Mechanical|Company: Autodesk, Inc."
 90
     1024
280
     0
281
     0
  0
CLASS
  1
DICTIONARYVAR
  2
AcDbDictionaryVar
  3
ObjectDBX Classes
 90
        0
280
     0
281
     0
  0
CLASS
  1
CELLSTYLEMAP
  2
AcDbCellStyleMap
  3
ObjectDBX Classes
 90
     1152
280
     0
281
     0
  0
ENDSEC
  0
SECTION
  2
TABLES
  0
TABLE
  2
VPORT
  5
8
330
0
100
AcDbSymbolTable
 70
     1
  0
VPORT
  5
1F4
330
8
100
AcDbSymbolTableRecord
100
AcDbViewportTableRecord
  2
*ACTIVE
 70
     0
 10
0.0
 20
0.0
 11
1.0
 21
1.0
 12
173.1877452158268
 22
155.3939891859368
 13
0.0
 23
0.0
 14
1.0
 24
1.0
 15
0.0
 25
0.0
 16
0.0
 26
0.0
 36
1.0
 17
0.0
 27
0.0
 37
0.0
 40
182.3679827827668
 41
1.84068136272545
 42
50.0
 43
0.0
 44
0.0
 50
0.0
 51
0.0
 71
     0
 72
   100
 73
     1
 74
     1
 75
     0
 76
     0
 77
     0
 78
     0
281
     0
 65
     0
110
0.0
120
0.0
130
0.0
111
1.0
121
0.0
131
0.0
112
0.0
122
1.0
132
0.0
 79
     0
146
0.0
  0
ENDTAB
  0
TABLE
  2
LTYPE
  5
5
330
0
100
AcDbSymbolTable
 70
    22
  0
LTYPE
  5
14
330
5
100
AcDbSymbolTableRecord
100
AcDbLinetypeTableRecord
  2
BYBLOCK
 70
     0
  3

 72
    65
 73
     0
 40
0.0
  0
LTYPE
  5
15
330
5
100
AcDbSymbolTableRecord
100
AcDbLinetypeTableRecord
  2
BYLAYER
 70
     0
  3

 72
    65
 73
     0
 40
0.0
  0
LTYPE
  5
16
330
5
100
AcDbSymbolTableRecord
100
AcDbLinetypeTableRecord
  2
CONTINUOUS
 70
     0
  3
Solid line
 72
    65
 73
     0
 40
0.0
  0
LTYPE
  5
1F5
330
5
100
AcDbSymbolTableRecord
100
AcDbLinetypeTableRecord
  2
CENTER
 70
     0
  3
____ _ ____ _ ____ _ ____ _ ____ _ ____ _ ____
 72
    65
 73
     4
 40
0.6
 49
0.375
 74
     0
 49
-0.075
 74
     0
 49
0.075
 74
     0
 49
-0.075
 74
     0
  0
LTYPE
  5
1F6
330
5
100
AcDbSymbolTableRecord
100
AcDbLinetypeTableRecord
  2
HIDDEN
 70
     0
  3
- - - - - - - - - - - - - - - - - - - -
 72
    65
 73
     2
 40
0.2
 49
0.1
 74
     0
 49
-0.1
 74
     0
  0
LTYPE
  5
1F7
330
5
100
AcDbSymbolTableRecord
100
AcDbLinetypeTableRecord
  2
PHANTOM
 70
     0
  3
_____ _ _ _____ _ _ _____ _ _ _____
 72
    65
 73
     6
 40
0.8
 49
0.45
 74
     0
 49
-0.05
 74
     0
 49
0.1
 74
     0
 49
-0.05
 74
     0
 49
0.1
 74
     0
 49
-0.05
 74
     0
  0
LTYPE
  5
1F8
330
5
100
AcDbSymbolTableRecord
100
AcDbLinetypeTableRecord
  2
DOT
 70
     0
  3
. . . . . . . . . . . . . . . . . . . .
 72
    65
 73
     2
 40
0.2
 49
0.1
 74
     0
 49
-0.1
 74
     0
  0
LTYPE
  5
1F9
330
5
100
AcDbSymbolTableRecord
100
AcDbLinetypeTableRecord
  2
DASHED
 70
     0
  3
- - - - - - - - - - - - - - - - - - - -
 72
    65
 73
     2
 40
0.2
 49
0.1
 74
     0
 49
-0.1
 74
     0
  0
LTYPE
  5
4C2
330
5
100
AcDbSymbolTableRecord
100
AcDbLinetypeTableRecord
  2
PHANTOM2
 70
     0
  3
Phantom (.5x) ___ _ _ ___ _ _ ___ _ _ ___ _ _
 72
    65
 73
     6
 40
31.75
 49
15.875
 74
     0
 49
-3.174999999999999
 74
     0
 49
3.174999999999999
 74
     0
 49
-3.174999999999999
 74
     0
 49
3.174999999999999
 74
     0
 49
-3.174999999999999
 74
     0
  0
LTYPE
  5
50A
330
5
100
AcDbSymbolTableRecord
100
AcDbLinetypeTableRecord
  2
AM_ISO02W050
 70
     0
  3
__ __ __ __ __ __ __ __ __ __ __ __ __ __ __
 72
    65
 73
     2
 40
7.5
 49
6.0
 74
     0
 49
-1.5
 74
     0
  0
LTYPE
  5
50B
330
5
100
AcDbSymbolTableRecord
100
AcDbLinetypeTableRecord
  2
AM_ISO08W050
 70
     0
  3
____ . ____ . ____ . ____ . ____ . ____ . ____
 72
    65
 73
     4
 40
18.0
 49
12.0
 74
     0
 49
-1.5
 74
     0
 49
3.0
 74
     0
 49
-1.5
 74
     0
  0
LTYPE
  5
50C
330
5
100
AcDbSymbolTableRecord
100
AcDbLinetypeTableRecord
  2
AM_ISO09W050
 70
     0
  3
_____ . . _____ . . _____ . . ____ .. ____
 72
    65
 73
     6
 40
22.5
 49
12.0
 74
     0
 49
-1.5
 74
     0
 49
3.0
 74
     0
 49
-1.5
 74
     0
 49
3.0
 74
     0
 49
-1.5
 74
     0
  0
LTYPE
  5
50D
330
5
100
AcDbSymbolTableRecord
100
AcDbLinetypeTableRecord
  2
Amconstr
 70
     0
  3
_______________________
 72
    65
 73
     2
 40
9999.0
 49
9999.0
 74
     0
 49
0.0
 74
     0
  0
LTYPE
  5
50E
330
5
100
AcDbSymbolTableRecord
100
AcDbLinetypeTableRecord
  2
AM_ISO08W050x2
 70
     0
  3
__ . __ . __ . __ . __ . __
 72
    65
 73
     4
 40
9.0
 49
6.0
 74
     0
 49
-0.75
 74
     0
 49
1.5
 74
     0
 49
-0.75
 74
     0
  0
LTYPE
  5
50F
330
5
100
AcDbSymbolTableRecord
100
AcDbLinetypeTableRecord
  2
AM_ISO02W050x2
 70
     0
  3
 _ _ _ _ _ _ _ _ _ _ _ _
 72
    65
 73
     2
 40
3.75
 49
3.0
 74
     0
 49
-0.75
 74
     0
  0
LTYPE
  5
512
330
5
100
AcDbSymbolTableRecord
100
AcDbLinetypeTableRecord
  2
Amzigzag
 70
     0
  3
/\/-/\/-/\/-/\/-/\/-/\/
 72
    65
 73
     2
 40
11.0001
 49
0.0001
 74
     4
 75
   136
340
511
 46
0.04
 50
0.0
 44
0.0
 45
0.0
 49
-11.0
 74
     0
  0
LTYPE
  5
513
330
5
100
AcDbSymbolTableRecord
100
AcDbLinetypeTableRecord
  2
AM_DIN_F_W050
 70
     0
  3
__ __ __ __ __ __ __ __ __ __ __ __ __ __ __
 72
    65
 73
     2
 40
6.25
 49
4.75
 74
     0
 49
-1.5
 74
     0
  0
LTYPE
  5
514
330
5
100
AcDbSymbolTableRecord
100
AcDbLinetypeTableRecord
  2
AM_DIN_G_W050
 70
     0
  3
____ . ____ . ____ . ____ . ____ . ____ . ____
 72
    65
 73
     4
 40
13.75
 49
9.75
 74
     0
 49
-1.5
 74
     0
 49
1.0
 74
     0
 49
-1.5
 74
     0
  0
LTYPE
  5
515
330
5
100
AcDbSymbolTableRecord
100
AcDbLinetypeTableRecord
  2
AM_DIN_K_W050
 70
     0
  3
_____ . . _____ . . _____ . . ____ .. ____
 72
    65
 73
     6
 40
16.25
 49
9.75
 74
     0
 49
-1.5
 74
     0
 49
1.0
 74
     0
 49
-1.5
 74
     0
 49
1.0
 74
     0
 49
-1.5
 74
     0
  0
LTYPE
  5
516
330
5
100
AcDbSymbolTableRecord
100
AcDbLinetypeTableRecord
  2
AM_DIN_G_W050x2
 70
     0
  3
__ . __ . __ . __ . __ . __
 72
    65
 73
     4
 40
6.875
 49
4.75
 74
     0
 49
-0.875
 74
     0
 49
0.375
 74
     0
 49
-0.875
 74
     0
  0
LTYPE
  5
517
330
5
100
AcDbSymbolTableRecord
100
AcDbLinetypeTableRecord
  2
AM_DIN_F_W050x2
 70
     0
  3
 _ _ _ _ _ _ _ _ _ _ _ _
 72
    65
 73
     2
 40
3.125
 49
2.25
 74
     0
 49
-0.875
 74
     0
  0
LTYPE
  5
526
330
5
100
AcDbSymbolTableRecord
100
AcDbLinetypeTableRecord
  2
ACDINWELD
 70
     0
  3
_ _ _ _ _
 72
    65
 73
     2
 40
2.0
 49
2.0
 74
     0
 49
-1.0
 74
     0
  0
LTYPE
  5
527
330
5
100
AcDbSymbolTableRecord
100
AcDbLinetypeTableRecord
  2
ACDINTGB
 70
     0
  3
__ . . __ . .
 72
    65
 73
     6
 40
9.0
 49
4.0
 74
     0
 49
-1.0
 74
     0
 49
1.0
 74
     0
 49
-1.0
 74
     0
 49
1.0
 74
     0
 49
-1.0
 74
     0
  0
LTYPE
  5
528
330
5
100
AcDbSymbolTableRecord
100
AcDbLinetypeTableRecord
  2
ACDINTGL
 70
     0
  3
_ _ _ _ _
 72
    65
 73
     2
 40
3.0
 49
2.0
 74
     0
 49
-1.0
 74
     0
  0
ENDTAB
  0
TABLE
  2
LAYER
  5
2
330
0
100
AcDbSymbolTable
 70
    34
  0
LAYER
  5
10
102
{ACAD_XDICTIONARY
360
5FC
102
}
330
2
100
AcDbSymbolTableRecord
100
AcDbLayerTableRecord
  2
0
 70
     0
 62
     7
  6
CONTINUOUS
370
    -3
390
F
  0
LAYER
  5
1FA
102
{ACAD_XDICTIONARY
360
5FE
102
}
330
2
100
AcDbSymbolTableRecord
100
AcDbLayerTableRecord
  2
DEFAULT_1
 70
     0
 62
     7
  6
CENTER
370
    -3
390
F
  0
LAYER
  5
1FB
102
{ACAD_XDICTIONARY
360
600
102
}
330
2
100
AcDbSymbolTableRecord
100
AcDbLayerTableRecord
  2
DEFAULT_2
 70
     0
 62
     8
  6
HIDDEN
370
    -3
390
F
  0
LAYER
  5
1FC
102
{ACAD_XDICTIONARY
360
602
102
}
330
2
100
AcDbSymbolTableRecord
100
AcDbLayerTableRecord
  2
DEFAULT_3
 70
     0
 62
     7
  6
PHANTOM
370
    -3
390
F
  0
LAYER
  5
1FD
102
{ACAD_XDICTIONARY
360
604
102
}
330
2
100
AcDbSymbolTableRecord
100
AcDbLayerTableRecord
  2
01___PRT_ALL_DTM_PLN
 70
     0
 62
     7
  6
CONTINUOUS
370
    -3
390
F
  0
LAYER
  5
1FE
102
{ACAD_XDICTIONARY
360
606
102
}
330
2
100
AcDbSymbolTableRecord
100
AcDbLayerTableRecord
  2
01___PRT_DEF_DTM_PLN
 70
     0
 62
     7
  6
CONTINUOUS
370
    -3
390
F
  0
LAYER
  5
1FF
102
{ACAD_XDICTIONARY
360
608
102
}
330
2
100
AcDbSymbolTableRecord
100
AcDbLayerTableRecord
  2
02___PRT_ALL_AXES
 70
     0
 62
     7
  6
CONTINUOUS
370
    -3
390
F
  0
LAYER
  5
200
102
{ACAD_XDICTIONARY
360
60A
102
}
330
2
100
AcDbSymbolTableRecord
100
AcDbLayerTableRecord
  2
03___PRT_ALL_CURVES
 70
     0
 62
     7
  6
CONTINUOUS
370
    -3
390
F
  0
LAYER
  5
201
102
{ACAD_XDICTIONARY
360
60C
102
}
330
2
100
AcDbSymbolTableRecord
100
AcDbLayerTableRecord
  2
04___PRT_ALL_DTM_PNT
 70
     0
 62
     7
  6
CONTINUOUS
370
    -3
390
F
  0
LAYER
  5
202
102
{ACAD_XDICTIONARY
360
60E
102
}
330
2
100
AcDbSymbolTableRecord
100
AcDbLayerTableRecord
  2
05___PRT_ALL_DTM_CSYS
 70
     0
 62
     7
  6
CONTINUOUS
370
    -3
390
F
  0
LAYER
  5
203
102
{ACAD_XDICTIONARY
360
610
102
}
330
2
100
AcDbSymbolTableRecord
100
AcDbLayerTableRecord
  2
05___PRT_DEF_DTM_CSYS
 70
     0
 62
     7
  6
CONTINUOUS
370
    -3
390
F
  0
LAYER
  5
204
102
{ACAD_XDICTIONARY
360
612
102
}
330
2
100
AcDbSymbolTableRecord
100
AcDbLayerTableRecord
  2
06___PRT_ALL_SURFS
 70
     0
 62
     7
  6
CONTINUOUS
370
    -3
390
F
  0
LAYER
  5
205
102
{ACAD_XDICTIONARY
360
614
102
}
330
2
100
AcDbSymbolTableRecord
100
AcDbLayerTableRecord
  2
AXES
 70
     0
 62
     7
  6
CONTINUOUS
370
    -3
390
F
  0
LAYER
  5
206
102
{ACAD_XDICTIONARY
360
616
102
}
330
2
100
AcDbSymbolTableRecord
100
AcDbLayerTableRecord
  2
AXIS
 70
     0
 62
     7
  6
CONTINUOUS
370
    -3
390
F
  0
LAYER
  5
207
102
{ACAD_XDICTIONARY
360
618
102
}
330
2
100
AcDbSymbolTableRecord
100
AcDbLayerTableRecord
  2
BEZUGSACHSEN
 70
     0
 62
     7
  6
CONTINUOUS
370
    -3
390
F
  0
LAYER
  5
208
102
{ACAD_XDICTIONARY
360
61A
102
}
330
2
100
AcDbSymbolTableRecord
100
AcDbLayerTableRecord
  2
BEZUGSEBENEN
 70
     0
 62
     7
  6
CONTINUOUS
370
    -3
390
F
  0
LAYER
  5
209
102
{ACAD_XDICTIONARY
360
61C
102
}
330
2
100
AcDbSymbolTableRecord
100
AcDbLayerTableRecord
  2
BG_STARTBEZUEGE
 70
     0
 62
     7
  6
CONTINUOUS
370
    -3
390
F
  0
LAYER
  5
20A
102
{ACAD_XDICTIONARY
360
61E
102
}
330
2
100
AcDbSymbolTableRecord
100
AcDbLayerTableRecord
  2
CSYS
 70
     0
 62
     7
  6
CONTINUOUS
370
    -3
390
F
  0
LAYER
  5
20B
102
{ACAD_XDICTIONARY
360
620
102
}
330
2
100
AcDbSymbolTableRecord
100
AcDbLayerTableRecord
  2
CURVE
 70
     0
 62
     7
  6
CONTINUOUS
370
    -3
390
F
  0
LAYER
  5
20C
102
{ACAD_XDICTIONARY
360
622
102
}
330
2
100
AcDbSymbolTableRecord
100
AcDbLayerTableRecord
  2
CURVES
 70
     0
 62
     7
  6
CONTINUOUS
370
    -3
390
F
  0
LAYER
  5
20D
102
{ACAD_XDICTIONARY
360
624
102
}
330
2
100
AcDbSymbolTableRecord
100
AcDbLayerTableRecord
  2
FASEN
 70
     0
 62
     7
  6
CONTINUOUS
370
    -3
390
F
  0
LAYER
  5
20E
102
{ACAD_XDICTIONARY
360
626
102
}
330
2
100
AcDbSymbolTableRecord
100
AcDbLayerTableRecord
  2
HILFEN
 70
     0
 62
     7
  6
CONTINUOUS
370
    -3
390
F
  0
LAYER
  5
20F
102
{ACAD_XDICTIONARY
360
628
102
}
330
2
100
AcDbSymbolTableRecord
100
AcDbLayerTableRecord
  2
KURVEN
 70
     0
 62
     7
  6
CONTINUOUS
370
    -3
390
F
  0
LAYER
  5
210
102
{ACAD_XDICTIONARY
360
62A
102
}
330
2
100
AcDbSymbolTableRecord
100
AcDbLayerTableRecord
  2
PLANES
 70
     0
 62
     7
  6
CONTINUOUS
370
    -3
390
F
  0
LAYER
  5
211
102
{ACAD_XDICTIONARY
360
62C
102
}
330
2
100
AcDbSymbolTableRecord
100
AcDbLayerTableRecord
  2
PLATZIERUNG
 70
     0
 62
     7
  6
CONTINUOUS
370
    -3
390
F
  0
LAYER
  5
212
102
{ACAD_XDICTIONARY
360
62E
102
}
330
2
100
AcDbSymbolTableRecord
100
AcDbLayerTableRecord
  2
PLN
 70
     0
 62
     7
  6
CONTINUOUS
370
    -3
390
F
  0
LAYER
  5
213
102
{ACAD_XDICTIONARY
360
630
102
}
330
2
100
AcDbSymbolTableRecord
100
AcDbLayerTableRecord
  2
PNT
 70
     0
 62
     7
  6
CONTINUOUS
370
    -3
390
F
  0
LAYER
  5
214
102
{ACAD_XDICTIONARY
360
632
102
}
330
2
100
AcDbSymbolTableRecord
100
AcDbLayerTableRecord
  2
POINTS
 70
     0
 62
     7
  6
CONTINUOUS
370
    -3
390
F
  0
LAYER
  5
215
102
{ACAD_XDICTIONARY
360
634
102
}
330
2
100
AcDbSymbolTableRecord
100
AcDbLayerTableRecord
  2
RUNDUNGEN
 70
     0
 62
     7
  6
CONTINUOUS
370
    -3
390
F
  0
LAYER
  5
216
102
{ACAD_XDICTIONARY
360
636
102
}
330
2
100
AcDbSymbolTableRecord
100
AcDbLayerTableRecord
  2
SURFACES
 70
     0
 62
     7
  6
CONTINUOUS
370
    -3
390
F
  0
LAYER
  5
217
102
{ACAD_XDICTIONARY
360
638
102
}
330
2
100
AcDbSymbolTableRecord
100
AcDbLayerTableRecord
  2
TEIL_STARTBEZUEGE
 70
     0
 62
     7
  6
CONTINUOUS
370
    -3
390
F
  0
LAYER
  5
218
102
{ACAD_XDICTIONARY
360
63A
102
}
330
2
100
AcDbSymbolTableRecord
100
AcDbLayerTableRecord
  2
ZEICHNUNGSBEMASSUNGEN
 70
     0
 62
     7
  6
CONTINUOUS
370
    -3
390
F
  0
LAYER
  5
536
102
{ACAD_XDICTIONARY
360
63C
102
}
330
2
100
AcDbSymbolTableRecord
100
AcDbLayerTableRecord
  2
AM_5
 70
     0
 62
     3
  6
CONTINUOUS
370
    25
390
F
1001
AcAecLayerStandard
1000

1000

  0
LAYER
  5
53B
330
2
100
AcDbSymbolTableRecord
100
AcDbLayerTableRecord
  2
Defpoints
 70
     0
 62
     7
  6
CONTINUOUS
290
     0
370
    -3
390
F
  0
ENDTAB
  0
TABLE
  2
STYLE
  5
3
330
0
100
AcDbSymbolTable
 70
    13
  0
STYLE
  5
11
330
3
100
AcDbSymbolTableRecord
100
AcDbTextStyleTableRecord
  2
STANDARD
 70
     0
 40
0.0
 41
0.7
 50
0.0
 71
     0
 42
0.2
  3
txt
  4

  0
STYLE
  5
219
330
3
100
AcDbSymbolTableRecord
100
AcDbTextStyleTableRecord
  2
TEXTSTYLE_1
 70
     0
 40
0.0
 41
0.8
 50
0.0
 71
     0
 42
0.2
  3
gdt
  4

  0
STYLE
  5
21A
330
3
100
AcDbSymbolTableRecord
100
AcDbTextStyleTableRecord
  2
TEXTSTYLE_2
 70
     0
 40
0.0
 41
0.7857142857
 50
0.0
 71
     0
 42
0.2
  3
txt
  4

  0
STYLE
  5
21B
330
3
100
AcDbSymbolTableRecord
100
AcDbTextStyleTableRecord
  2
TEXTSTYLE_3
 70
     0
 40
0.0
 41
0.8333333333
 50
0.0
 71
     0
 42
0.2
  3
txt
  4

  0
STYLE
  5
21C
330
3
100
AcDbSymbolTableRecord
100
AcDbTextStyleTableRecord
  2
TEXTSTYLE_4
 70
     0
 40
0.0
 41
0.9047619048000001
 50
0.0
 71
     0
 42
0.2
  3
txt
  4

  0
STYLE
  5
21D
330
3
100
AcDbSymbolTableRecord
100
AcDbTextStyleTableRecord
  2
TEXTSTYLE_5
 70
     0
 40
0.0
 41
0.7142857143000001
 50
0.0
 71
     0
 42
0.2
  3
txt
  4

  0
STYLE
  5
21E
330
3
100
AcDbSymbolTableRecord
100
AcDbTextStyleTableRecord
  2
TEXTSTYLE_6
 70
     0
 40
0.0
 41
0.5714285714000001
 50
0.0
 71
     0
 42
0.2
  3
txt
  4

  0
STYLE
  5
21F
330
3
100
AcDbSymbolTableRecord
100
AcDbTextStyleTableRecord
  2
TEXTSTYLE_7
 70
     0
 40
0.0
 41
1.0
 50
0.0
 71
     0
 42
0.2
  3
trium.ttf
  4

  0
STYLE
  5
220
330
3
100
AcDbSymbolTableRecord
100
AcDbTextStyleTableRecord
  2
TEXTSTYLE_8
 70
     0
 40
0.0
 41
0.7
 50
0.0
 71
     0
 42
0.2
  3
txt
  4

  0
STYLE
  5
221
330
3
100
AcDbSymbolTableRecord
100
AcDbTextStyleTableRecord
  2
TEXTSTYLE_9
 70
     0
 40
0.0
 41
1.0
 50
0.0
 71
     0
 42
0.2
  3
trium.ttf
  4

  0
STYLE
  5
511
330
3
100
AcDbSymbolTableRecord
100
AcDbTextStyleTableRecord
  2

 70
     1
 40
0.0
 41
1.0
 50
0.0
 71
     0
 42
0.2
  3
genltshp.shx
  4

  0
STYLE
  5
524
330
3
100
AcDbSymbolTableRecord
100
AcDbTextStyleTableRecord
  2
ACDINTS
 70
     0
 40
1.0
 41
1.0
 50
0.0
 71
     0
 42
0.2
  3
isocp.shx
  4

  0
STYLE
  5
525
330
3
100
AcDbSymbolTableRecord
100
AcDbTextStyleTableRecord
  2
ACDINGDT
 70
     0
 40
0.0
 41
1.0
 50
0.0
 71
     0
 42
0.2
  3
amgdt.shx
  4

  0
ENDTAB
  0
TABLE
  2
VIEW
  5
6
330
0
100
AcDbSymbolTable
 70
     0
  0
ENDTAB
  0
TABLE
  2
UCS
  5
7
330
0
100
AcDbSymbolTable
 70
     0
  0
ENDTAB
  0
TABLE
  2
APPID
  5
9
330
0
100
AcDbSymbolTable
 70
    18
  0
APPID
  5
222
330
9
100
AcDbSymbolTableRecord
100
AcDbRegAppTableRecord
  2
ACAD
 70
     0
  0
APPID
  5
497
330
9
100
AcDbSymbolTableRecord
100
AcDbRegAppTableRecord
  2
MCAD_NO_VIS
 70
     0
  0
APPID
  5
498
330
9
100
AcDbSymbolTableRecord
100
AcDbRegAppTableRecord
  2
ACAD_TEMP_GRAPHIC
 70
     0
  0
APPID
  5
4C4
330
9
100
AcDbSymbolTableRecord
100
AcDbRegAppTableRecord
  2
AD_DRAW
 70
     0
  0
APPID
  5
4C7
330
9
100
AcDbSymbolTableRecord
100
AcDbRegAppTableRecord
  2
ACATTRIBSERVICES
 70
     0
  0
APPID
  5
4E7
330
9
100
AcDbSymbolTableRecord
100
AcDbRegAppTableRecord
  2
DESIGNERASSEMBLIES
 70
     0
  0
APPID
  5
4ED
330
9
100
AcDbSymbolTableRecord
100
AcDbRegAppTableRecord
  2
ACADM_DIM_EDIT
 70
     0
  0
APPID
  5
4EE
330
9
100
AcDbSymbolTableRecord
100
AcDbRegAppTableRecord
  2
AMDT_DM_ADJ
 70
     0
  0
APPID
  5
507
330
9
100
AcDbSymbolTableRecord
100
AcDbRegAppTableRecord
  2
ACAD_DSTYLE_DIMJAG
 70
     0
  0
APPID
  5
508
330
9
100
AcDbSymbolTableRecord
100
AcDbRegAppTableRecord
  2
ACAD_DSTYLE_DIMBREAK
 70
     0
  0
APPID
  5
537
330
9
100
AcDbSymbolTableRecord
100
AcDbRegAppTableRecord
  2
AcAecLayerStandard
 70
     0
  0
APPID
  5
553
330
9
100
AcDbSymbolTableRecord
100
AcDbRegAppTableRecord
  2
GENIUS_GENDTOL_13
 70
     0
  0
APPID
  5
554
330
9
100
AcDbSymbolTableRecord
100
AcDbRegAppTableRecord
  2
ACAD_DSTYLE_DIMINSPECT
 70
     0
  0
APPID
  5
678
330
9
100
AcDbSymbolTableRecord
100
AcDbRegAppTableRecord
  2
ACAD_MLEADERVER
 70
     0
  0
APPID
  5
679
330
9
100
AcDbSymbolTableRecord
100
AcDbRegAppTableRecord
  2
ACAD_DSTYLE_DIMJOGGED_JOGANGLE_SYMBOL
 70
     0
  0
APPID
  5
67A
330
9
100
AcDbSymbolTableRecord
100
AcDbRegAppTableRecord
  2
ACAD_DSTYLE_DIM_LINETYPE
 70
     0
  0
APPID
  5
67B
330
9
100
AcDbSymbolTableRecord
100
AcDbRegAppTableRecord
  2
ACAD_DSTYLE_DIM_EXT1_LINETYPE
 70
     0
  0
APPID
  5
67C
330
9
100
AcDbSymbolTableRecord
100
AcDbRegAppTableRecord
  2
ACAD_DSTYLE_DIM_EXT2_LINETYPE
 70
     0
  0
ENDTAB
  0
TABLE
  2
DIMSTYLE
  5
A
330
0
100
AcDbSymbolTable
 70
    10
100
AcDbDimStyleTable
 71
     1
340
22B
  0
DIMSTYLE
105
22B
330
A
100
AcDbSymbolTableRecord
100
AcDbDimStyleTableRecord
  2
STANDARD
 70
     0
 41
3.5
 47
0.005
 48
0.005
 71
     1
 73
     0
 74
     0
 77
     1
 78
     8
140
3.5
178
     5
271
     3
272
     3
284
     8
340
11
341
225
342
225
343
225
344
225
  0
DIMSTYLE
105
22C
330
A
100
AcDbSymbolTableRecord
100
AcDbDimStyleTableRecord
  2
DIMSTYLE_1
 70
     0
 41
3.5
 47
0.2
 48
0.2
 73
     0
 74
     0
 77
     1
 78
     8
140
3.5
178
     5
271
     3
272
     3
284
     8
340
11
341
225
342
225
343
225
344
225
  0
DIMSTYLE
105
506
102
{ACAD_REACTORS
330
4F5
102
}
330
A
100
AcDbSymbolTableRecord
100
AcDbDimStyleTableRecord
  2
AM_DIN
 70
     0
  4
"
 41
3.5
 42
1.0
 43
10.0
 44
1.0
 47
0.1
 48
0.1
 73
     0
 74
     0
 77
     1
 78
     8
 79
     2
140
3.5
141
0.0
143
0.0393701
146
0.71
147
1.5
172
     1
176
   256
177
   256
178
     2
271
     2
272
     3
274
     4
283
     0
284
     8
340
11
371
    -1
372
    -1
1001
ACAD_DSTYLE_DIMJAG
1070
   388
1040
1.5
1001
ACAD_DSTYLE_DIMBREAK
1070
   391
1040
3.75
1001
ACAD_DSTYLE_DIMJOGGED_JOGANGLE_SYMBOL
1070
   384
1040
1.570796326794896
1001
ACAD_DSTYLE_DIM_LINETYPE
1070
   380
1005
14
1001
ACAD_DSTYLE_DIM_EXT1_LINETYPE
1070
   381
1005
14
1001
ACAD_DSTYLE_DIM_EXT2_LINETYPE
1070
   382
1005
14
  0
DIMSTYLE
105
518
330
A
100
AcDbSymbolTableRecord
100
AcDbDimStyleTableRecord
  2
AM_DIN$3
 70
     0
  4
"
 41
3.5
 42
1.0
 43
10.0
 44
1.0
 47
0.1
 48
0.1
 73
     0
 77
     1
 78
     8
 79
     2
140
3.5
141
0.0
143
0.0393701
146
0.71
147
1.5
176
   256
177
   256
178
     2
271
     2
272
     3
274
     4
283
     0
284
     8
288
     1
289
     0
340
11
371
    -1
372
    -1
1001
ACAD_DSTYLE_DIMBREAK
1070
   391
1040
3.75
1001
ACAD_DSTYLE_DIMJAG
1070
   388
1040
1.5
1001
ACAD_DSTYLE_DIMJOGGED_JOGANGLE_SYMBOL
1070
   384
1040
1.570796326794896
1001
ACAD_DSTYLE_DIM_LINETYPE
1070
   380
1005
14
1001
ACAD_DSTYLE_DIM_EXT1_LINETYPE
1070
   381
1005
14
1001
ACAD_DSTYLE_DIM_EXT2_LINETYPE
1070
   382
1005
14
  0
DIMSTYLE
105
519
330
A
100
AcDbSymbolTableRecord
100
AcDbDimStyleTableRecord
  2
AM_DIN$4
 70
     0
  4
"
 41
3.5
 42
1.0
 43
10.0
 44
1.0
 47
0.1
 48
0.1
 73
     0
 77
     1
 78
     8
 79
     2
140
3.5
141
0.0
143
0.0393701
146
0.71
147
1.5
176
   256
177
   256
178
     2
271
     2
272
     3
274
     4
283
     0
284
     8
288
     1
289
     0
340
11
371
    -1
372
    -1
1001
ACAD_DSTYLE_DIMBREAK
1070
   391
1040
3.75
1001
ACAD_DSTYLE_DIMJAG
1070
   388
1040
1.5
1001
ACAD_DSTYLE_DIMJOGGED_JOGANGLE_SYMBOL
1070
   384
1040
1.570796326794896
1001
ACAD_DSTYLE_DIM_LINETYPE
1070
   380
1005
14
1001
ACAD_DSTYLE_DIM_EXT1_LINETYPE
1070
   381
1005
14
1001
ACAD_DSTYLE_DIM_EXT2_LINETYPE
1070
   382
1005
14
  0
DIMSTYLE
105
51A
330
A
100
AcDbSymbolTableRecord
100
AcDbDimStyleTableRecord
  2
AM_DIN$6
 70
     0
  4
"
 41
3.5
 42
1.0
 43
10.0
 44
1.0
 47
0.1
 48
0.1
 73
     0
 74
     0
 78
     8
 79
     2
140
3.5
141
0.0
143
0.0393701
146
0.71
147
1.5
172
     1
176
   256
177
   256
178
     2
271
     2
272
     3
274
     4
283
     0
284
     8
340
11
371
    -1
372
    -1
1001
ACAD_DSTYLE_DIMBREAK
1070
   391
1040
3.75
1001
ACAD_DSTYLE_DIMJAG
1070
   388
1040
1.5
1001
ACAD_DSTYLE_DIMJOGGED_JOGANGLE_SYMBOL
1070
   384
1040
1.570796326794896
1001
ACAD_DSTYLE_DIM_LINETYPE
1070
   380
1005
14
1001
ACAD_DSTYLE_DIM_EXT1_LINETYPE
1070
   381
1005
14
1001
ACAD_DSTYLE_DIM_EXT2_LINETYPE
1070
   382
1005
14
  0
DIMSTYLE
105
51B
330
A
100
AcDbSymbolTableRecord
100
AcDbDimStyleTableRecord
  2
AM_DIN$7
 70
     0
  4
"
 41
3.5
 42
1.0
 43
10.0
 44
1.0
 47
0.1
 48
0.1
 73
     0
 74
     0
 77
     1
 78
     8
 79
     2
140
3.5
141
0.0
143
0.0393701
146
0.71
147
1.5
172
     1
176
   256
177
   256
178
     2
271
     2
272
     3
274
     4
283
     0
284
     8
340
11
371
    -1
372
    -1
1001
ACAD_DSTYLE_DIMBREAK
1070
   391
1040
3.75
1001
ACAD_DSTYLE_DIMJAG
1070
   388
1040
1.5
1001
ACAD_DSTYLE_DIMJOGGED_JOGANGLE_SYMBOL
1070
   384
1040
1.570796326794896
1001
ACAD_DSTYLE_DIM_LINETYPE
1070
   380
1005
14
1001
ACAD_DSTYLE_DIM_EXT1_LINETYPE
1070
   381
1005
14
1001
ACAD_DSTYLE_DIM_EXT2_LINETYPE
1070
   382
1005
14
  0
DIMSTYLE
105
51C
330
A
100
AcDbSymbolTableRecord
100
AcDbDimStyleTableRecord
  2
AM_DIN$SF
 70
     0
  4
"
 41
3.5
 42
1.0
 43
10.0
 44
1.0
 47
0.1
 48
0.1
 73
     0
 74
     0
 75
     1
 76
     1
 77
     1
 78
     8
 79
     2
140
3.5
141
0.0
143
0.0393701
146
0.71
147
1.5
172
     1
176
   256
177
   256
178
     2
271
     2
272
     3
274
     4
283
     0
284
     8
340
11
371
    -1
372
    -1
1001
ACAD_DSTYLE_DIMBREAK
1070
   391
1040
3.75
1001
ACAD_DSTYLE_DIMJAG
1070
   388
1040
1.5
1001
ACAD_DSTYLE_DIMJOGGED_JOGANGLE_SYMBOL
1070
   384
1040
1.570796326794896
1001
ACAD_DSTYLE_DIM_LINETYPE
1070
   380
1005
14
1001
ACAD_DSTYLE_DIM_EXT1_LINETYPE
1070
   381
1005
14
1001
ACAD_DSTYLE_DIM_EXT2_LINETYPE
1070
   382
1005
14
  0
DIMSTYLE
105
521
330
A
100
AcDbSymbolTableRecord
100
AcDbDimStyleTableRecord
  2
AM_DIN$SH
 70
     0
  4
"
 41
3.5
 42
1.0
 43
10.0
 44
1.0
 47
0.1
 48
0.1
 73
     0
 74
     0
 75
     1
 76
     1
 77
     1
 78
     8
 79
     2
140
3.5
141
0.0
143
0.0393701
144
2.0
146
0.71
147
1.5
172
     1
173
     1
176
   256
177
   256
178
     2
271
     2
272
     3
274
     4
283
     0
284
     8
340
11
343
51D
371
    -1
372
    -1
1001
ACAD_DSTYLE_DIMBREAK
1070
   391
1040
3.75
1001
ACAD_DSTYLE_DIMJAG
1070
   388
1040
1.5
1001
ACAD_DSTYLE_DIMJOGGED_JOGANGLE_SYMBOL
1070
   384
1040
1.570796326794896
1001
ACAD_DSTYLE_DIM_LINETYPE
1070
   380
1005
14
1001
ACAD_DSTYLE_DIM_EXT1_LINETYPE
1070
   381
1005
14
1001
ACAD_DSTYLE_DIM_EXT2_LINETYPE
1070
   382
1005
14
  0
DIMSTYLE
105
538
102
{ACAD_REACTORS
330
53A
330
573
330
5A9
102
}
330
A
100
AcDbSymbolTableRecord
100
AcDbDimStyleTableRecord
  2
STANDARD$0
 70
     0
 41
3.5
 47
0.005
 48
0.005
 71
     1
 73
     0
 74
     0
 77
     1
 78
     8
140
3.5
178
     5
271
     3
272
     3
284
     8
340
11
341
225
342
225
343
225
344
225
1001
ACAD_DSTYLE_DIMBREAK
1070
   391
1040
3.75
1001
ACAD_DSTYLE_DIMJAG
1070
   388
1040
1.5
  0
ENDTAB
  0
TABLE
  2
BLOCK_RECORD
  5
1
330
0
100
AcDbSymbolTable
 70
    11
  0
BLOCK_RECORD
  5
223
330
1
100
AcDbSymbolTableRecord
100
AcDbBlockTableRecord
  2
*Model_Space
340
445
  0
BLOCK_RECORD
  5
224
330
1
100
AcDbSymbolTableRecord
100
AcDbBlockTableRecord
  2
*Paper_Space
340
446
  0
BLOCK_RECORD
  5
225
330
1
100
AcDbSymbolTableRecord
100
AcDbBlockTableRecord
  2
_FILLED
340
0
102
{BLKREFS
331
24F
331
250
331
56D
331
56E
331
5A3
331
5A4
331
5F6
331
5F7
102
}
  0
BLOCK_RECORD
  5
226
330
1
100
AcDbSymbolTableRecord
100
AcDbBlockTableRecord
  2
_DOTBLANK
340
0
  0
BLOCK_RECORD
  5
227
330
1
100
AcDbSymbolTableRecord
100
AcDbBlockTableRecord
  2
*D2
340
0
  0
BLOCK_RECORD
  5
228
330
1
100
AcDbSymbolTableRecord
100
AcDbBlockTableRecord
  2
BALLOON_BL2
340
0
  0
BLOCK_RECORD
  5
229
330
1
100
AcDbSymbolTableRecord
100
AcDbBlockTableRecord
  2
BALLOON_BL1
340
0
  0
BLOCK_RECORD
  5
22A
330
1
100
AcDbSymbolTableRecord
100
AcDbBlockTableRecord
  2
SYMBOL_0_BL0
340
0
  0
BLOCK_RECORD
  5
51D
330
1
100
AcDbSymbolTableRecord
100
AcDbBlockTableRecord
  2
GENAXEH
340
0
  0
BLOCK_RECORD
  5
53C
330
1
100
AcDbSymbolTableRecord
100
AcDbBlockTableRecord
  2
*D8
340
0
  0
BLOCK_RECORD
  5
574
330
1
100
AcDbSymbolTableRecord
100
AcDbBlockTableRecord
  2
*D9
340
0
  0
BLOCK_RECORD
  5
5AA
330
1
100
AcDbSymbolTableRecord
100
AcDbBlockTableRecord
  2
*D10
340
0
  0
ENDTAB
  0
ENDSEC
  0
SECTION
  2
BLOCKS
  0
BLOCK
  5
20
330
223
100
AcDbEntity
  8
0
100
AcDbBlockBegin
  2
*Model_Space
 70
     0
 10
0.0
 20
0.0
 30
0.0
  3
*Model_Space
  1

  0
ENDBLK
  5
21
330
223
100
AcDbEntity
  8
0
100
AcDbBlockEnd
  0
BLOCK
  5
1C
330
224
100
AcDbEntity
 67
     1
  8
0
100
AcDbBlockBegin
  2
*Paper_Space
 70
     0
 10
0.0
 20
0.0
 30
0.0
  3
*Paper_Space
  1

  0
ENDBLK
  5
1D
330
224
100
AcDbEntity
 67
     1
  8
0
100
AcDbBlockEnd
  0
BLOCK
  5
240
330
225
100
AcDbEntity
  8
0
100
AcDbBlockBegin
  2
_FILLED
 70
     0
 10
0.0
 20
0.0
 30
0.0
  3
_FILLED
  1

  0
SOLID
  5
241
330
225
100
AcDbEntity
  8
0
  6
ByBlock
 62
     0
100
AcDbTrace
 10
0.0
 20
0.0
 30
0.0
 11
-1.0
 21
0.125
 31
0.0
 12
-1.0
 22
-0.125
 32
0.0
 13
-1.0
 23
-0.125
 33
0.0
  0
ENDBLK
  5
242
330
225
100
AcDbEntity
  8
0
  6
ByBlock
 62
     0
100
AcDbBlockEnd
  0
BLOCK
  5
243
330
226
100
AcDbEntity
  8
0
100
AcDbBlockBegin
  2
_DOTBLANK
 70
     0
 10
0.0
 20
0.0
 30
0.0
  3
_DOTBLANK
  1

  0
CIRCLE
  5
244
330
226
100
AcDbEntity
  8
0
  6
ByBlock
 62
     0
100
AcDbCircle
 10
0.0
 20
0.0
 30
0.0
 40
0.125
  0
LINE
  5
245
330
226
100
AcDbEntity
  8
0
  6
ByBlock
 62
     0
100
AcDbLine
 10
-1.0
 20
0.0
 30
0.0
 11
0.0
 21
0.0
 31
0.0
  0
ENDBLK
  5
246
330
226
100
AcDbEntity
  8
0
  6
ByBlock
 62
     0
100
AcDbBlockEnd
  0
BLOCK
  5
247
330
227
100
AcDbEntity
  8
ZEICHNUNGSBEMASSUNGEN
  6
Continuous
 62
     2
100
AcDbBlockBegin
  2
*D2
 70
     1
 10
0.0
 20
0.0
 30
0.0
  3
*D2
  1

  0
MTEXT
  5
248
330
227
100
AcDbEntity
  8
ZEICHNUNGSBEMASSUNGEN
  6
Continuous
 62
     5
100
AcDbMText
 10
172.1149481355
 20
165.2653382875
 30
0.0
 40
3.5
 41
5.25
 71
     2
 72
     1
  1
30
 11
0.0
 21
1.0
 31
0.0
 73
     1
 44
0.9
1001
ACAD
1000
MTEXTBEGIN
1070
    73
1070
     1
1070
    44
1040
0.9
1070
    74
1070
     0
1000
MTEXTEND
  0
LINE
  5
249
330
227
100
AcDbEntity
  8
ZEICHNUNGSBEMASSUNGEN
  6
Continuous
 62
     2
100
AcDbLine
 10
158.2165218074
 20
178.9303382875
 30
0.0
 11
175.6149481355
 21
178.9303382875
 31
0.0
  0
LINE
  5
24A
330
227
100
AcDbEntity
  8
ZEICHNUNGSBEMASSUNGEN
  6
Continuous
 62
     2
100
AcDbLine
 10
175.6149481355
 20
178.9303382875
 30
0.0
 11
177.9899481355
 21
178.9303382875
 31
0.0
  0
LINE
  5
24B
330
227
100
AcDbEntity
  8
ZEICHNUNGSBEMASSUNGEN
  6
Continuous
 62
     2
100
AcDbLine
 10
144.1208413570999
 20
151.6003382875
 30
0.0
 11
175.6149481355
 21
151.6003382875
 31
0.0
  0
LINE
  5
24C
330
227
100
AcDbEntity
  8
ZEICHNUNGSBEMASSUNGEN
  6
Continuous
 62
     2
100
AcDbLine
 10
175.6149481355
 20
151.6003382875
 30
0.0
 11
177.9899481355
 21
151.6003382875
 31
0.0
  0
LINE
  5
24D
330
227
100
AcDbEntity
  8
ZEICHNUNGSBEMASSUNGEN
  6
Continuous
 62
     2
100
AcDbLine
 10
176.4899481355
 20
178.9303382875
 30
0.0
 11
176.4899481355
 21
165.2653382875
 31
0.0
  0
LINE
  5
24E
330
227
100
AcDbEntity
  8
ZEICHNUNGSBEMASSUNGEN
  6
Continuous
 62
     2
100
AcDbLine
 10
176.4899481355
 20
151.6003382875
 30
0.0
 11
176.4899481355
 21
165.2653382875
 31
0.0
  0
INSERT
  5
24F
330
227
100
AcDbEntity
  8
ZEICHNUNGSBEMASSUNGEN
  6
Continuous
 62
     2
100
AcDbBlockReference
  2
_FILLED
 10
176.4899481355
 20
178.9303382875
 30
0.0
 41
3.5
 42
3.5
 43
3.5
 50
90.0
  0
INSERT
  5
250
330
227
100
AcDbEntity
  8
ZEICHNUNGSBEMASSUNGEN
  6
Continuous
 62
     2
100
AcDbBlockReference
  2
_FILLED
 10
176.4899481355
 20
151.6003382875
 30
0.0
 41
3.5
 42
3.5
 43
3.5
 50
270.0
  0
ENDBLK
  5
251
330
227
100
AcDbEntity
  8
0
  6
ByBlock
 62
     0
100
AcDbBlockEnd
  0
BLOCK
  5
22D
330
228
100
AcDbEntity
  8
0
  6
Continuous
 62
     2
100
AcDbBlockBegin
  2
BALLOON_BL2
 70
     0
 10
49.4102328101
 20
189.3092356409
 30
0.0
  3
BALLOON_BL2
  1

  0
CIRCLE
  5
22E
330
228
100
AcDbEntity
  8
0
  6
Continuous
 62
     2
100
AcDbCircle
 10
49.4102328101
 20
189.3092356409
 30
0.0
 40
4.1955884318
  0
MTEXT
  5
22F
330
228
100
AcDbEntity
  8
0
  6
Continuous
 62
     5
100
AcDbMText
 10
47.7018994767
 20
191.0592356409
 30
0.0
 40
3.5
 41
3.4166666667
 71
     1
 72
     1
  1
2
 73
     1
 44
0.9
1001
ACAD
1000
MTEXTBEGIN
1070
    73
1070
     1
1070
    44
1040
0.9
1070
    74
1070
     0
1000
MTEXTEND
  0
ENDBLK
  5
230
330
228
100
AcDbEntity
  8
0
  6
ByBlock
 62
     0
100
AcDbBlockEnd
  0
BLOCK
  5
231
330
229
100
AcDbEntity
  8
0
  6
Continuous
 62
     2
100
AcDbBlockBegin
  2
BALLOON_BL1
 70
     0
 10
49.6301671829
 20
163.5769140138
 30
0.0
  3
BALLOON_BL1
  1

  0
CIRCLE
  5
232
330
229
100
AcDbEntity
  8
0
  6
Continuous
 62
     2
100
AcDbCircle
 10
49.6301671829
 20
163.5769140138
 30
0.0
 40
3.9500631304
  0
MTEXT
  5
233
330
229
100
AcDbEntity
  8
0
  6
Continuous
 62
     5
100
AcDbMText
 10
48.2968338496
 20
165.3269140137999
 30
0.0
 40
3.5
 41
2.666666666699999
 71
     1
 72
     1
  1
1
 73
     1
 44
0.9
1001
ACAD
1000
MTEXTBEGIN
1070
    73
1070
     1
1070
    44
1040
0.9
1070
    74
1070
     0
1000
MTEXTEND
  0
ENDBLK
  5
234
330
229
100
AcDbEntity
  8
0
  6
ByBlock
 62
     0
100
AcDbBlockEnd
  0
BLOCK
  5
235
330
22A
100
AcDbEntity
  8
0
  6
Continuous
 62
     2
100
AcDbBlockBegin
  2
SYMBOL_0_BL0
 70
     0
 10
111.4168489175
 20
32.6250038799
 30
0.0
  3
SYMBOL_0_BL0
  1

  0
LINE
  5
236
330
22A
100
AcDbEntity
  8
0
  6
Continuous
 62
     7
100
AcDbLine
 10
205.0168553551
 20
60.2500057799
 30
0.0
 11
17.8168424798
 21
60.2500057799
 31
0.0
  0
LINE
  5
237
330
22A
100
AcDbEntity
  8
0
  6
Continuous
 62
     7
100
AcDbLine
 10
17.8168424798
 20
60.2500057799
 30
0.0
 11
17.8168424798
 21
5.0000019799
 31
0.0
  0
LINE
  5
238
330
22A
100
AcDbEntity
  8
0
  6
Continuous
 62
     7
100
AcDbLine
 10
17.8168424798
 20
5.0000019799
 30
0.0
 11
205.0168553551
 21
5.0000019799
 31
0.0
  0
LINE
  5
239
330
22A
100
AcDbEntity
  8
0
  6
Continuous
 62
     7
100
AcDbLine
 10
205.0168553551
 20
5.0000019799
 30
0.0
 11
205.0168553551
 21
60.2500057799
 31
0.0
  0
LINE
  5
23A
330
22A
100
AcDbEntity
  8
0
  6
Continuous
 62
     7
100
AcDbLine
 10
72.4168462351
 20
60.2500057799
 30
0.0
 11
72.4168462351
 21
5.0000019799
 31
0.0
  0
LINE
  5
23B
330
22A
100
AcDbEntity
  8
0
  6
Continuous
 62
     7
100
AcDbLine
 10
116.6168492751
 20
60.2500057799
 30
0.0
 11
116.6168492751
 21
5.0000019799
 31
0.0
  0
LINE
  5
23C
330
22A
100
AcDbEntity
  8
0
  6
Continuous
 62
     7
100
AcDbLine
 10
17.8168424798
 20
43.2500046107
 30
0.0
 11
205.0168553551
 21
43.2500046107
 31
0.0
  0
LINE
  5
23D
330
22A
100
AcDbEntity
  8
0
  6
Continuous
 62
     7
100
AcDbLine
 10
192.016854461
 20
22.0000031492
 30
0.0
 11
192.016854461
 21
9.250002272199999
 31
0.0
  0
LINE
  5
23E
330
22A
100
AcDbEntity
  8
0
  6
Continuous
 62
     7
100
AcDbLine
 10
72.4168462351
 20
22.0000031492
 30
0.0
 11
205.0168553551
 21
22.0000031492
 31
0.0
  0
ENDBLK
  5
23F
330
22A
100
AcDbEntity
  8
0
  6
ByBlock
 62
     0
100
AcDbBlockEnd
  0
BLOCK
  5
51F
330
51D
100
AcDbEntity
  8
0
100
AcDbBlockBegin
  2
GENAXEH
 70
     0
 10
0.0
 20
0.0
 30
0.0
  3
GENAXEH
  1

  0
LINE
  5
51E
330
51D
100
AcDbEntity
  8
0
100
AcDbLine
 10
-1.0
 20
0.0
 30
0.0
 11
1.0
 21
0.0
 31
0.0
  0
ENDBLK
  5
520
330
51D
100
AcDbEntity
  8
0
100
AcDbBlockEnd
  0
BLOCK
  5
53D
330
53C
100
AcDbEntity
  8
0
100
AcDbBlockBegin
  2
*D8
 70
     1
 10
0.0
 20
0.0
 30
0.0
  3
*D8
  1

  0
LINE
  5
569
330
53C
100
AcDbEntity
  8
AM_5
 62
     0
370
    -2
100
AcDbLine
 10
144.8208413570999
 20
151.6003382875
 30
0.0
 11
187.9127995463647
 21
151.6003382875
 31
0.0
  0
LINE
  5
56A
330
53C
100
AcDbEntity
  8
AM_5
 62
     0
370
    -2
100
AcDbLine
 10
158.9165218074
 20
178.9303382875
 30
0.0
 11
187.9127995463647
 21
178.9303382875
 31
0.0
  0
LINE
  5
56B
330
53C
100
AcDbEntity
  8
AM_5
 62
     0
370
    -2
100
AcDbLine
 10
181.5767995463648
 20
155.1003382875
 30
0.0
 11
181.5767995463648
 21
163.4253382875
 31
0.0
  0
LINE
  5
56C
330
53C
100
AcDbEntity
  8
AM_5
 62
     0
370
    -2
100
AcDbLine
 10
181.5767995463648
 20
175.4303382875
 30
0.0
 11
181.5767995463648
 21
167.1053382875
 31
0.0
  0
INSERT
  5
56D
330
53C
100
AcDbEntity
  8
AM_5
 62
     0
370
    -2
100
AcDbBlockReference
  2
_FILLED
 10
181.5767995463648
 20
151.6003382875
 30
0.0
 41
3.5
 42
3.5
 43
3.5
 50
270.0
  0
INSERT
  5
56E
330
53C
100
AcDbEntity
  8
AM_5
 62
     0
370
    -2
100
AcDbBlockReference
  2
_FILLED
 10
181.5767995463648
 20
178.9303382875
 30
0.0
 41
3.5
 42
3.5
 43
3.5
 50
90.0
  0
MTEXT
  5
56F
330
53C
100
AcDbEntity
  8
AM_5
 62
     0
100
AcDbMText
 10
181.5767995463647
 20
165.2653382875
 30
0.0
 40
3.5
 41
0.0
 71
     5
 72
     1
  1
\A1;30
 73
     1
 44
1.0
1001
ACAD
1000
MTEXTBEGIN
1070
    73
1070
     1
1070
    44
1040
1.0
1070
    74
1070
     0
1000
MTEXTEND
  0
POINT
  5
570
330
53C
100
AcDbEntity
  8
Defpoints
 62
     0
100
AcDbPoint
 10
142.6208413571
 20
151.6003382875
 30
0.0
  0
POINT
  5
571
330
53C
100
AcDbEntity
  8
Defpoints
 62
     0
100
AcDbPoint
 10
156.7165218074
 20
178.9303382875
 30
0.0
  0
POINT
  5
572
330
53C
100
AcDbEntity
  8
Defpoints
 62
     0
100
AcDbPoint
 10
181.5767995463648
 20
178.9303382875
 30
0.0
  0
ENDBLK
  5
53E
330
53C
100
AcDbEntity
  8
0
100
AcDbBlockEnd
  0
BLOCK
  5
575
330
574
100
AcDbEntity
  8
0
100
AcDbBlockBegin
  2
*D9
 70
     1
 10
0.0
 20
0.0
 30
0.0
  3
*D9
  1

  0
LINE
  5
59F
330
574
100
AcDbEntity
  8
AM_5
 62
     0
370
    -2
100
AcDbLine
 10
142.2522993335
 20
135.8003382875
 30
0.0
 11
212.3246263187445
 21
135.8003382874999
 31
0.0
  0
LINE
  5
5A0
330
574
100
AcDbEntity
  8
AM_5
 62
     0
370
    -2
100
AcDbLine
 10
165.1720487706
 20
198.1003382875
 30
0.0
 11
212.3246263187446
 21
198.1003382875
 31
0.0
  0
LINE
  5
5A1
330
574
100
AcDbEntity
  8
AM_5
 62
     0
370
    -2
100
AcDbLine
 10
205.9886263187445
 20
139.3003382875
 30
0.0
 11
205.9886263187445
 21
165.1103382874999
 31
0.0
  0
LINE
  5
5A2
330
574
100
AcDbEntity
  8
AM_5
 62
     0
370
    -2
100
AcDbLine
 10
205.9886263187446
 20
194.6003382874999
 30
0.0
 11
205.9886263187445
 21
168.7903382874999
 31
0.0
  0
INSERT
  5
5A3
330
574
100
AcDbEntity
  8
AM_5
 62
     0
370
    -2
100
AcDbBlockReference
  2
_FILLED
 10
205.9886263187445
 20
135.8003382874999
 30
0.0
 41
3.5
 42
3.5
 43
3.5
 50
270.0
  0
INSERT
  5
5A4
330
574
100
AcDbEntity
  8
AM_5
 62
     0
370
    -2
100
AcDbBlockReference
  2
_FILLED
 10
205.9886263187446
 20
198.1003382875
 30
0.0
 41
3.5
 42
3.5
 43
3.5
 50
90.0
  0
MTEXT
  5
5A5
330
574
100
AcDbEntity
  8
AM_5
 62
     0
100
AcDbMText
 10
205.9886263187445
 20
166.9503382875
 30
0.0
 40
3.5
 41
0.0
 71
     5
 72
     1
  1
\A1;62
 73
     1
 44
1.0
1001
ACAD
1000
MTEXTBEGIN
1070
    73
1070
     1
1070
    44
1040
1.0
1070
    74
1070
     0
1000
MTEXTEND
  0
POINT
  5
5A6
330
574
100
AcDbEntity
  8
Defpoints
 62
     0
100
AcDbPoint
 10
140.0522993335
 20
135.8003382875
 30
0.0
  0
POINT
  5
5A7
330
574
100
AcDbEntity
  8
Defpoints
 62
     0
100
AcDbPoint
 10
162.9720487706
 20
198.1003382875
 30
0.0
  0
POINT
  5
5A8
330
574
100
AcDbEntity
  8
Defpoints
 62
     0
100
AcDbPoint
 10
205.9886263187446
 20
198.1003382875
 30
0.0
  0
ENDBLK
  5
576
330
574
100
AcDbEntity
  8
0
100
AcDbBlockEnd
  0
BLOCK
  5
5AB
330
5AA
100
AcDbEntity
  8
0
100
AcDbBlockBegin
  2
*D10
 70
     1
 10
0.0
 20
0.0
 30
0.0
  3
*D10
  1

  0
LINE
  5
5F2
330
5AA
100
AcDbEntity
  8
AM_5
 62
     0
370
    -2
100
AcDbLine
 10
70.6619704241
 20
200.0138916781
 30
0.0
 11
70.6619704241
 21
224.4679047090432
 31
0.0
  0
LINE
  5
5F3
330
5AA
100
AcDbEntity
  8
AM_5
 62
     0
370
    -2
100
AcDbLine
 10
163.5292023954324
 20
199.6584244551859
 30
0.0
 11
163.5292023954324
 21
224.4679047090432
 31
0.0
  0
LINE
  5
5F4
330
5AA
100
AcDbEntity
  8
AM_5
 62
     0
370
    -2
100
AcDbLine
 10
74.16197042410001
 20
218.1319047090432
 30
0.0
 11
114.5167361418404
 21
218.1319047090432
 31
0.0
  0
LINE
  5
5F5
330
5AA
100
AcDbEntity
  8
AM_5
 62
     0
370
    -2
100
AcDbLine
 10
160.0292023954324
 20
218.1319047090432
 30
0.0
 11
121.2300694751737
 21
218.1319047090432
 31
0.0
  0
INSERT
  5
5F6
330
5AA
100
AcDbEntity
  8
AM_5
 62
     0
370
    -2
100
AcDbBlockReference
  2
_FILLED
 10
70.6619704241
 20
218.1319047090432
 30
0.0
 41
3.5
 42
3.5
 43
3.5
 50
180.0
  0
INSERT
  5
5F7
330
5AA
100
AcDbEntity
  8
AM_5
 62
     0
370
    -2
100
AcDbBlockReference
  2
_FILLED
 10
163.5292023954324
 20
218.1319047090432
 30
0.0
 41
3.5
 42
3.5
 43
3.5
  0
MTEXT
  5
5F8
330
5AA
100
AcDbEntity
  8
AM_5
 62
     0
100
AcDbMText
 10
117.8734028085071
 20
218.1319047090432
 30
0.0
 40
3.5
 41
0.0
 71
     5
 72
     1
  1
\A1;%%c93
 73
     1
 44
1.0
1001
ACAD
1000
MTEXTBEGIN
1070
    73
1070
     1
1070
    44
1040
1.0
1070
    74
1070
     0
1000
MTEXTEND
  0
POINT
  5
5F9
330
5AA
100
AcDbEntity
  8
Defpoints
 62
     0
100
AcDbPoint
 10
70.6619704241
 20
197.8138916781
 30
0.0
  0
POINT
  5
5FA
330
5AA
100
AcDbEntity
  8
Defpoints
 62
     0
100
AcDbPoint
 10
163.5292023954324
 20
197.4584244551859
 30
0.0
  0
POINT
  5
5FB
330
5AA
100
AcDbEntity
  8
Defpoints
 62
     0
100
AcDbPoint
 10
163.5292023954324
 20
218.1319047090432
 30
0.0
  0
ENDBLK
  5
5AC
330
5AA
100
AcDbEntity
  8
0
100
AcDbBlockEnd
  0
ENDSEC
  0
SECTION
  2
ENTITIES
  0
IMAGE
  5
252
330
223
100
AcDbEntity
  8
0
  6
Continuous
 62
     7
 92
      140
310
8C000000010000008400000006000000050000004E4BB7235F485240C65930B050AD224000000000000000004E4BB7235F48524078586FAF28B335400000000000000000E4727853F5045C4078586FAF28B335400000000000000000E4727853F5045C40C65930B050AD224000000000000000004E4BB7235F485240C65930
310
B050AD22400000000000000000
100
AcDbRasterImage
 90
        0
 10
73.13080685520001
 20
9.338506227399999
 30
0.0
 11
0.1693333333
 21
0.0
 31
0.0
 12
0.0
 22
0.1693333333
 32
0.0
 13
230.0
 23
73.0
340
447
 70
     1
280
     0
281
    50
282
    50
283
     0
360
442
 71
     1
 91
        2
 14
-0.5
 24
-0.5
 14
229.5
 24
72.5
  0
HATCH
  5
262
330
223
100
AcDbEntity
  8
0
  6
Continuous
 62
     2
100
AcDbHatch
 10
0.0
 20
0.0
 30
0.0
210
0.0
220
0.0
230
1.0
  2
A
 70
     1
 71
     0
 91
        2
 92
        1
 93
       15
 72
     1
 10
74.7517863389
 20
194.8332667345
 11
74.09471478589999
 21
195.4903382875
 72
     1
 10
72.52236493640001
 20
195.4903382875
 11
74.09471478589999
 21
195.4903382875
 72
     4
 94
        3
 73
     1
 74
     0
 95
        8
 96
        4
 40
0.0
 40
0.0
 40
0.0
 40
0.0
 40
1.0
 40
1.0
 40
1.0
 40
1.0
 10
72.52236493640001
 20
195.4903382875
 42
1.0
 10
72.360763796
 20
195.4903382875
 42
0.9490497279999999
 10
72.2115130886
 20
195.5522992022
 42
0.9490497279999999
 10
72.0974259068
 20
195.6667502553
 42
1.0
 72
     1
 10
72.0974259068
 20
195.6667502553
 11
70.6614079566
 21
197.1073482606
 72
     4
 94
        3
 73
     1
 74
     0
 95
        8
 96
        4
 40
0.0
 40
0.0
 40
0.0
 40
0.0
 40
1.0
 40
1.0
 40
1.0
 40
1.0
 10
70.6614079566
 20
197.1073482606
 42
1.0
 10
70.4548921305
 20
197.3145227512
 42
0.8051129818999999
 10
70.4551250036
 20
197.6070462575
 42
0.8051129818999999
 10
70.6619704241
 20
197.8138916781
 42
1.0
 72
     1
 10
70.6619704241
 20
197.8138916781
 11
70.8605490679
 21
198.0124703218
 72
     4
 94
        3
 73
     1
 74
     0
 95
        8
 96
        4
 40
0.0
 40
0.0
 40
0.0
 40
0.0
 40
1.0
 40
1.0
 40
1.0
 40
1.0
 10
70.8605490679
 20
198.0124703218
 42
1.0
 10
70.91756190719999
 20
198.0694831612
 42
0.9492530217
 10
70.9920527716
 20
198.1003382875
 42
0.9492530217
 10
71.07268110220001
 20
198.1003382875
 42
1.0
 72
     1
 10
71.07268110220001
 20
198.1003382875
 11
72.15268110220001
 21
198.1003382875
 72
     1
 10
72.15268110220001
 20
197.1103382875
 11
72.15268110220001
 21
198.1003382875
 72
     1
 10
72.15268110220001
 20
197.1103382875
 11
72.24268110220001
 21
197.1103382875
 72
     1
 10
72.40236493640001
 20
196.5003382875
 11
72.24268110220001
 21
197.1103382875
 72
     1
 10
73.8605596118
 20
196.3176766436
 11
72.40236493640001
 21
196.5003382875
 72
     4
 94
        3
 73
     1
 74
     0
 95
        8
 96
        4
 40
0.0
 40
0.0
 40
0.0
 40
0.0
 40
1.0
 40
1.0
 40
1.0
 40
1.0
 10
73.8605596118
 20
196.3176766436
 42
1.0
 10
74.82068243100001
 20
196.197406274
 42
0.8432527259
 10
75.4775852684
 20
195.4869279477
 42
0.8432527259
 10
75.52236493640001
 20
194.5203382875
 42
1.0
 72
     1
 10
75.27268110219999
 20
194.5203382875
 11
75.52236493640001
 21
194.5203382875
 72
     4
 94
        3
 73
     1
 74
     0
 95
        8
 96
        4
 40
0.0
 40
0.0
 40
0.0
 40
0.0
 40
1.0
 40
1.0
 40
1.0
 40
1.0
 10
75.27268110219999
 20
194.5203382875
 42
1.0
 10
75.04881570929999
 20
194.5203382875
 42
0.9048056620999998
 10
74.85691639319999
 20
194.6356221398
 42
0.9048056620999998
 10
74.7517863389
 20
194.8332667345
 42
1.0
 97
        0
 92
        1
 93
       15
 72
     1
 10
158.5223649364
 20
194.5203382875
 11
158.7720487706
 21
194.5203382875
 72
     4
 94
        3
 73
     1
 74
     0
 95
        8
 96
        4
 40
0.0
 40
0.0
 40
0.0
 40
0.0
 40
1.0
 40
1.0
 40
1.0
 40
1.0
 10
160.1841702611
 20
196.3176766436
 42
1.0
 10
159.2240474418
 20
196.197406274
 42
0.8432527259
 10
158.5671446045
 20
195.4869279477
 42
0.8432527259
 10
158.5223649364
 20
194.5203382875
 42
1.0
 72
     1
 10
160.1841702611
 20
196.3176766436
 11
161.6423649364
 21
196.5003382875
 72
     1
 10
161.6423649364
 20
196.5003382875
 11
161.8020487706
 21
197.1103382875
 72
     1
 10
161.8020487706
 20
197.1103382875
 11
161.8920487706
 21
197.1103382875
 72
     1
 10
161.8920487706
 20
197.1103382875
 11
161.8920487706
 21
198.1003382875
 72
     1
 10
161.8920487706
 20
198.1003382875
 11
162.9720487706
 21
198.1003382875
 72
     4
 94
        3
 73
     1
 74
     0
 95
        8
 96
        4
 40
0.0
 40
0.0
 40
0.0
 40
0.0
 40
1.0
 40
1.0
 40
1.0
 40
1.0
 10
163.184180805
 20
198.0124703218
 42
1.0
 10
163.1271679657
 20
198.0694831612
 42
0.9492530217
 10
163.0526771013
 20
198.1003382875
 42
0.9492530217
 10
162.9720487706
 20
198.1003382875
 42
1.0
 72
     1
 10
163.3827594488
 20
197.8138916781
 11
163.184180805
 21
198.0124703218
 72
     4
 94
        3
 73
     1
 74
     0
 95
        8
 96
        4
 40
0.0
 40
0.0
 40
0.0
 40
0.0
 40
1.0
 40
1.0
 40
1.0
 40
1.0
 10
163.3833219162
 20
197.1073482606
 42
1.0
 10
163.5898377424
 20
197.3145227512
 42
0.8051129818999999
 10
163.5896048693
 20
197.6070462575
 42
0.8051129818999999
 10
163.3827594488
 20
197.8138916781
 42
1.0
 72
     1
 10
161.9473039661
 20
195.6667502553
 11
163.3833219162
 21
197.1073482606
 72
     4
 94
        3
 73
     1
 74
     0
 95
        8
 96
        4
 40
0.0
 40
0.0
 40
0.0
 40
0.0
 40
1.0
 40
1.0
 40
1.0
 40
1.0
 10
161.5223649364
 20
195.4903382875
 42
1.0
 10
161.6839660769
 20
195.4903382875
 42
0.9490497279999999
 10
161.8332167843
 20
195.5522992022
 42
0.9490497279999999
 10
161.9473039661
 20
195.6667502553
 42
1.0
 72
     1
 10
159.950015087
 20
195.4903382875
 11
161.5223649364
 21
195.4903382875
 72
     1
 10
159.292943534
 20
194.8332667345
 11
159.950015087
 21
195.4903382875
 72
     4
 94
        3
 73
     1
 74
     0
 95
        8
 96
        4
 40
0.0
 40
0.0
 40
0.0
 40
0.0
 40
1.0
 40
1.0
 40
1.0
 40
1.0
 10
158.7720487706
 20
194.5203382875
 42
1.0
 10
158.9959141635
 20
194.5203382875
 42
0.9048056620999998
 10
159.1878134796999
 20
194.6356221398
 42
0.9048056620999998
 10
159.292943534
 20
194.8332667345
 42
1.0
 97
        0
 75
     0
 76
     1
 98
        1
 10
0.0
 20
0.0
  0
HATCH
  5
263
330
223
100
AcDbEntity
  8
0
  6
Continuous
 62
     2
100
AcDbHatch
 10
0.0
 20
0.0
 30
0.0
210
0.0
220
0.0
230
1.0
  2
DEFAULT__1
 70
     0
 71
     0
 91
        2
 92
        1
 93
       12
 72
     1
 10
122.1126765465
 20
193.9757735315
 11
121.9743820281
 21
186.0528858809999
 72
     4
 94
        3
 73
     1
 74
     0
 95
        8
 96
        4
 40
0.0
 40
0.0
 40
0.0
 40
0.0
 40
1.0
 40
1.0
 40
1.0
 40
1.0
 10
122.1126765465
 20
193.9757735315
 42
1.0
 10
122.1237205064
 20
194.6084815744
 42
0.7808588349
 10
122.6000951017
 20
195.0250253077
 42
0.7808588349
 10
123.2286204807
 20
194.9515590941
 42
1.0
 72
     4
 94
        3
 73
     1
 74
     0
 95
        8
 96
        4
 40
0.0
 40
0.0
 40
0.0
 40
0.0
 40
1.0
 40
1.0
 40
1.0
 40
1.0
 10
123.2286204808
 20
194.9515590941
 42
1.0
 10
123.4934007032
 20
194.9206098261999
 42
0.9999873849
 10
123.7579855205
 20
194.8880322597999
 42
0.9999873849
 10
124.0223649193
 20
194.8538276278
 42
1.0
 72
     1
 10
124.0223649364
 20
194.4940689981
 11
124.0223649364
 21
194.8538276256
 72
     4
 94
        3
 73
     1
 74
     0
 95
        8
 96
        4
 40
0.0
 40
0.0
 40
0.0
 40
0.0
 40
1.0
 40
1.0
 40
1.0
 40
1.0
 10
122.9548908921
 20
194.6314727579
 42
1.0
 10
123.3110889988
 20
194.5886044586
 42
0.9999773612999998
 10
123.66692173
 20
194.5428021693
 42
0.9999773612999998
 10
124.022364919
 20
194.4940690005
 42
1.0
 72
     4
 94
        3
 73
     1
 74
     0
 95
        8
 96
        4
 40
0.0
 40
0.0
 40
0.0
 40
0.0
 40
1.0
 40
1.0
 40
1.0
 40
1.0
 10
122.6190903693
 20
194.338857764
 42
1.0
 10
122.6224122681
 20
194.5291692167
 42
0.780014475
 10
122.7659141019
 20
194.6542160388
 42
0.780014475
 10
122.9548908921
 20
194.6314727579
 42
1.0
 72
     1
 10
122.6190903693
 20
194.338857764
 11
122.4743058757
 21
186.0441596778
 72
     4
 94
        3
 73
     1
 74
     0
 95
        8
 96
        4
 40
0.0
 40
0.0
 40
0.0
 40
0.0
 40
1.0
 40
1.0
 40
1.0
 40
1.0
 10
122.4743058757
 20
186.0441596778
 42
1.0
 10
122.4591821805
 20
185.1777237581999
 42
0.8088336328
 10
121.8411022351
 20
184.5703382875
 42
0.8088336328
 10
120.974534333
 20
184.5703382875
 42
1.0
 72
     1
 10
120.974534333
 20
184.5703382875
 11
120.0223649364
 21
184.5703382875
 72
     1
 10
120.0223649364
 20
185.0703382875
 11
120.0223649364
 21
184.5703382875
 72
     1
 10
120.974534333
 20
185.0703382875
 11
120.0223649364
 21
185.0703382875
 72
     4
 94
        3
 73
     1
 74
     0
 95
        8
 96
        4
 40
0.0
 40
0.0
 40
0.0
 40
0.0
 40
1.0
 40
1.0
 40
1.0
 40
1.0
 10
121.9743820281
 20
186.0528858809999
 42
1.0
 10
121.9642995646
 20
185.4752619345999
 42
0.8088336328
 10
121.5522462677
 20
185.0703382875
 42
0.8088336328
 10
120.974534333
 20
185.0703382875
 42
1.0
 97
        0
 92
        1
 93
       15
 72
     1
 10
111.9320533264
 20
193.9757735315
 11
111.9461122509
 21
193.1703382875
 72
     1
 10
111.9461122509
 20
193.1703382875
 11
112.0703478448
 21
186.0528858809999
 72
     4
 94
        3
 73
     1
 74
     0
 95
        8
 96
        4
 40
0.0
 40
0.0
 40
0.0
 40
0.0
 40
1.0
 40
1.0
 40
1.0
 40
1.0
 10
112.0703478448
 20
186.0528858809999
 42
1.0
 10
112.0804303083
 20
185.4752619345999
 42
0.8088336328
 10
112.4924836052
 20
185.0703382875
 42
0.8088336328
 10
113.0701955399
 20
185.0703382875
 42
1.0
 72
     1
 10
114.0223649364
 20
185.0703382875
 11
113.0701955399
 21
185.0703382875
 72
     1
 10
114.0223649364
 20
185.0703382875
 11
114.0223649364
 21
184.5703382875
 72
     1
 10
114.0223649364
 20
184.5703382875
 11
113.0701955399
 21
184.5703382875
 72
     4
 94
        3
 73
     1
 74
     0
 95
        8
 96
        4
 40
0.0
 40
0.0
 40
0.0
 40
0.0
 40
1.0
 40
1.0
 40
1.0
 40
1.0
 10
111.5704239972
 20
186.0441596778
 42
1.0
 10
111.5855476924
 20
185.1777237581999
 42
0.8088336328
 10
112.2036276378
 20
184.5703382875
 42
0.8088336328
 10
113.0701955399
 20
184.5703382875
 42
1.0
 72
     1
 10
111.4511992187
 20
192.8745426635
 11
111.5704239972
 21
186.0441596778
 72
     4
 94
        3
 73
     1
 74
     0
 95
        8
 96
        4
 40
0.0
 40
0.0
 40
0.0
 40
0.0
 40
1.0
 40
1.0
 40
1.0
 40
1.0
 10
111.4511993811
 20
192.8745425427
 42
1.0
 10
111.4481597716
 20
193.0486864159
 42
0.8073853273999999
 10
111.3235555264
 20
193.170379102
 42
0.8073853273999999
 10
111.1493884632
 20
193.1693012104
 42
1.0
 72
     2
 10
111.4529153942
 20
139.279771356
 40
53.8903846262
 50
90.32270827379999
 51
107.3640620432
 73
     1
 72
     4
 94
        3
 73
     1
 74
     0
 95
        8
 96
        4
 40
0.0
 40
0.0
 40
0.0
 40
0.0
 40
1.0
 40
1.0
 40
1.0
 40
1.0
 10
95.3697488307
 20
190.7142472944
 42
1.0
 10
95.3590714128
 20
190.71092163
 42
0.9996249739999999
 10
95.3485115357
 20
190.7072397429
 42
0.9996249739999999
 10
95.33808108009999
 20
190.7032057755
 42
1.0
 72
     4
 94
        3
 73
     1
 74
     0
 95
        8
 96
        4
 40
0.0
 40
0.0
 40
0.0
 40
0.0
 40
1.0
 40
1.0
 40
1.0
 40
1.0
 10
95.33808107670001
 20
190.7032058311
 42
1.0
 10
94.14081774679999
 20
190.2401701675
 42
0.9997102702999999
 10
92.9577244815
 20
189.7420418382
 42
0.9997102702999999
 10
91.7898296126
 20
189.209253811
 42
1.0
 72
     1
 10
92.02236493639999
 20
189.8150290403
 11
91.7898296126
 21
189.209253811
 72
     4
 94
        3
 73
     1
 74
     0
 95
        8
 96
        4
 40
0.0
 40
0.0
 40
0.0
 40
0.0
 40
1.0
 40
1.0
 40
1.0
 40
1.0
 10
110.8161093921
 20
194.9515590941
 42
1.0
 10
104.3167414976
 20
194.1918698829
 42
0.9924705222
 10
98.00463313260001
 20
192.466703597
 42
0.9924705222
 10
92.02236493639999
 20
189.8150290403
 42
1.0
 72
     4
 94
        3
 73
     1
 74
     0
 95
        8
 96
        4
 40
0.0
 40
0.0
 40
0.0
 40
0.0
 40
1.0
 40
1.0
 40
1.0
 40
1.0
 10
111.9320533264
 20
193.9757735315
 42
1.0
 10
111.9210093664
 20
194.6084815744
 42
0.7808588349
 10
111.4446347712
 20
195.0250253077
 42
0.7808588349
 10
110.8161093921
 20
194.9515590941
 42
1.0
 97
        0
 75
     0
 76
     0
 52
325.0
 41
0.004111212
 77
     0
 78
     1
 53
325.0
 43
0.0
 44
0.0
 45
0.0023580943
 46
0.0033677077
 79
     0
 98
        1
 10
0.0
 20
0.0
  0
HATCH
  5
264
330
223
100
AcDbEntity
  8
0
  6
Continuous
 62
     2
100
AcDbHatch
 10
0.0
 20
0.0
 30
0.0
210
0.0
220
0.0
230
1.0
  2
DEFAULT__2
 70
     0
 71
     0
 91
        1
 92
        1
 93
       40
 72
     1
 10
157.0464738581
 20
152.3553301663
 11
157.7154940171
 21
177.9041792795
 72
     4
 94
        3
 73
     1
 74
     0
 95
        8
 96
        4
 40
0.0
 40
0.0
 40
0.0
 40
0.0
 40
1.0
 40
1.0
 40
1.0
 40
1.0
 10
140.0522993335
 20
135.8003382875
 42
1.0
 10
149.8051718677
 20
135.8003382875
 42
0.8108679623
 10
156.7911734179
 20
142.6057996979
 42
0.8108679623
 10
157.0464738581
 20
152.3553301663
 42
1.0
 72
     1
 10
140.0522993335
 20
135.8003382875
 11
129.204917332
 21
135.8003382875
 72
     4
 94
        3
 73
     1
 74
     0
 95
        8
 96
        4
 40
0.0
 40
0.0
 40
0.0
 40
0.0
 40
1.0
 40
1.0
 40
1.0
 40
1.0
 10
121.2061357707
 20
143.660719036
 42
1.0
 10
121.2867954786
 20
139.0397274647
 42
0.8088336328
 10
124.5832218541
 20
135.8003382875
 42
0.8088336328
 10
129.204917332
 20
135.8003382875
 42
1.0
 72
     1
 10
121.2061357707
 20
143.660719036
 11
120.5441162724
 21
181.5877906939
 72
     4
 94
        3
 73
     1
 74
     0
 95
        8
 96
        4
 40
0.0
 40
0.0
 40
0.0
 40
0.0
 40
1.0
 40
1.0
 40
1.0
 40
1.0
 10
120.5441162724
 20
181.5877906939
 42
1.0
 10
120.5350664275
 20
182.1062559601
 42
0.8386372698
 10
120.1900091479999
 20
182.4933265037
 42
0.8386372698
 10
119.6759825879
 20
182.5616260456
 42
1.0
 72
     4
 94
        3
 73
     1
 74
     0
 95
        8
 96
        4
 40
0.0
 40
0.0
 40
0.0
 40
0.0
 40
1.0
 40
1.0
 40
1.0
 40
1.0
 10
117.9397152188
 20
184.509296749
 42
1.0
 10
117.9578149086
 20
183.4723662166999
 42
0.8386372698
 10
118.6479294677
 20
182.6982251295
 42
0.8386372698
 10
119.6759825879
 20
182.5616260456
 42
1.0
 72
     1
 10
117.9397152188
 20
184.509296749
 11
117.7255456262
 21
196.7790644907
 72
     4
 94
        3
 73
     1
 74
     0
 95
        8
 96
        4
 40
0.0
 40
0.0
 40
0.0
 40
0.0
 40
1.0
 40
1.0
 40
1.0
 40
1.0
 10
117.7255456262
 20
196.7790644907
 42
1.0
 10
117.7205043945
 20
197.0678764639
 42
0.8088336328
 10
117.514477746
 20
197.2703382875
 42
0.8088336328
 10
117.2256217787
 20
197.2703382875
 42
1.0
 72
     1
 10
117.2256217787
 20
197.2703382875
 11
116.8191080942
 21
197.2703382875
 72
     4
 94
        3
 73
     1
 74
     0
 95
        8
 96
        4
 40
0.0
 40
0.0
 40
0.0
 40
0.0
 40
1.0
 40
1.0
 40
1.0
 40
1.0
 10
116.3191842467
 20
196.7790644907
 42
1.0
 10
116.3242254784
 20
197.0678764639
 42
0.8088336328
 10
116.5302521269
 20
197.2703382875
 42
0.8088336328
 10
116.8191080942
 20
197.2703382875
 42
1.0
 72
     1
 10
116.1050146541
 20
184.509296749
 11
116.3191842467
 21
196.7790644907
 72
     4
 94
        3
 73
     1
 74
     0
 95
        8
 96
        4
 40
0.0
 40
0.0
 40
0.0
 40
0.0
 40
1.0
 40
1.0
 40
1.0
 40
1.0
 10
116.1050146541
 20
184.509296749
 42
1.0
 10
116.0869149643
 20
183.4723662166999
 42
0.8386372698
 10
115.3968004052
 20
182.6982251295
 42
0.8386372698
 10
114.368747285
 20
182.5616260456
 42
1.0
 72
     4
 94
        3
 73
     1
 74
     0
 95
        8
 96
        4
 40
0.0
 40
0.0
 40
0.0
 40
0.0
 40
1.0
 40
1.0
 40
1.0
 40
1.0
 10
113.5006136005
 20
181.5877906939
 42
1.0
 10
113.5096634454
 20
182.1062559601
 42
0.8386372698
 10
113.8547207249
 20
182.4933265037
 42
0.8386372698
 10
114.368747285
 20
182.5616260456
 42
1.0
 72
     1
 10
112.8385941021
 20
143.660719036
 11
113.5006136005
 21
181.5877906939
 72
     4
 94
        3
 73
     1
 74
     0
 95
        8
 96
        4
 40
0.0
 40
0.0
 40
0.0
 40
0.0
 40
1.0
 40
1.0
 40
1.0
 40
1.0
 10
112.8385941021
 20
143.660719036
 42
1.0
 10
112.7579343942
 20
139.0397274647
 42
0.8088336328
 10
109.4615080188
 20
135.8003382875
 42
0.8088336328
 10
104.8398125409
 20
135.8003382875
 42
1.0
 72
     1
 10
104.8398125409
 20
135.8003382875
 11
93.99243053940001
 21
135.8003382875
 72
     4
 94
        3
 73
     1
 74
     0
 95
        8
 96
        4
 40
0.0
 40
0.0
 40
0.0
 40
0.0
 40
1.0
 40
1.0
 40
1.0
 40
1.0
 10
93.99243053940001
 20
135.8003382875
 42
1.0
 10
84.23955800520003
 20
135.8003382875
 42
0.8108679623
 10
77.25355645499999
 20
142.6057996979
 42
0.8108679623
 10
76.99825601479999
 20
152.3553301663
 42
1.0
 72
     1
 10
76.99825601479999
 20
152.3553301663
 11
76.32923585569999
 21
177.9041792795
 72
     4
 94
        3
 73
     1
 74
     0
 95
        8
 96
        4
 40
0.0
 40
0.0
 40
0.0
 40
0.0
 40
1.0
 40
1.0
 40
1.0
 40
1.0
 10
76.3285507405
 20
177.9041613392
 42
1.0
 10
76.27619684390001
 20
179.9034759891
 42
0.3333333333
 10
78.2755114939
 20
179.9558298856999
 42
0.3333333333
 10
78.32786539050001
 20
177.9565152358
 42
1.0
 72
     1
 10
78.99688507979999
 20
152.4076840629
 11
78.32786539050001
 21
177.9565152358
 72
     4
 94
        3
 73
     1
 74
     0
 95
        8
 96
        4
 40
0.0
 40
0.0
 40
0.0
 40
0.0
 40
1.0
 40
1.0
 40
1.0
 40
1.0
 10
93.9917449544
 20
137.8003382875
 42
1.0
 10
85.38626918890001
 20
137.8003382875
 42
0.8108679623
 10
79.2221501741
 20
143.805157179
 42
0.8108679623
 10
78.99688507979999
 20
152.4076840629
 42
1.0
 72
     1
 10
104.8098079711
 20
137.8003382875
 11
93.9917449544
 21
137.8003382875
 72
     4
 94
        3
 73
     1
 74
     0
 95
        8
 96
        4
 40
0.0
 40
0.0
 40
0.0
 40
0.0
 40
1.0
 40
1.0
 40
1.0
 40
1.0
 10
110.808894142
 20
143.6956238489
 42
1.0
 10
110.7483993611
 20
140.2298801704
 42
0.8088336328
 10
108.2760795795
 20
137.8003382875
 42
0.8088336328
 10
104.8098079711
 20
137.8003382875
 42
1.0
 72
     1
 10
110.808894142
 20
143.6956238489
 11
111.5052145044
 21
183.5877906939
 72
     4
 94
        3
 73
     1
 74
     0
 95
        8
 96
        4
 40
0.0
 40
0.0
 40
0.0
 40
0.0
 40
1.0
 40
1.0
 40
1.0
 40
1.0
 10
111.5052145044
 20
183.5877906939
 42
1.0
 10
111.5152969679
 20
184.1654146403
 42
0.8088336328
 10
111.9273502648
 20
184.5703382875
 42
0.8088336328
 10
112.5050621996
 20
184.5703382875
 42
1.0
 72
     1
 10
114.105775482
 20
184.5703382875
 11
112.5050621996
 21
184.5703382875
 72
     1
 10
114.105775482
 20
184.5703382875
 11
114.3537897204
 21
198.7790644907
 72
     4
 94
        3
 73
     1
 74
     0
 95
        8
 96
        4
 40
0.0
 40
0.0
 40
0.0
 40
0.0
 40
1.0
 40
1.0
 40
1.0
 40
1.0
 10
114.3537897204
 20
198.7790644907
 42
1.0
 10
114.3588309522
 20
199.0678764639
 42
0.8088336328
 10
114.5648576006
 20
199.2703382875
 42
0.8088336328
 10
114.853713568
 20
199.2703382875
 42
1.0
 72
     1
 10
119.1910163049
 20
199.2703382875
 11
114.853713568
 21
199.2703382875
 72
     4
 94
        3
 73
     1
 74
     0
 95
        8
 96
        4
 40
0.0
 40
0.0
 40
0.0
 40
0.0
 40
1.0
 40
1.0
 40
1.0
 40
1.0
 10
119.6909401525
 20
198.7790644907
 42
1.0
 10
119.6858989207
 20
199.0678764639
 42
0.8088336328
 10
119.4798722723
 20
199.2703382875
 42
0.8088336328
 10
119.1910163049
 20
199.2703382875
 42
1.0
 72
     1
 10
119.9389543909
 20
184.5703382875
 11
119.6909401525
 21
198.7790644907
 72
     1
 10
121.5396676733
 20
184.5703382875
 11
119.9389543909
 21
184.5703382875
 72
     4
 94
        3
 73
     1
 74
     0
 95
        8
 96
        4
 40
0.0
 40
0.0
 40
0.0
 40
0.0
 40
1.0
 40
1.0
 40
1.0
 40
1.0
 10
122.5395153685
 20
183.5877906939
 42
1.0
 10
122.529432905
 20
184.1654146403
 42
0.8088336328
 10
122.1173796081
 20
184.5703382875
 42
0.8088336328
 10
121.5396676733
 20
184.5703382875
 42
1.0
 72
     1
 10
123.2358357309
 20
143.6956238489
 11
122.5395153685
 21
183.5877906939
 72
     4
 94
        3
 73
     1
 74
     0
 95
        8
 96
        4
 40
0.0
 40
0.0
 40
0.0
 40
0.0
 40
1.0
 40
1.0
 40
1.0
 40
1.0
 10
123.2358357309
 20
143.6956238489
 42
1.0
 10
123.2963305118
 20
140.2298801704
 42
0.8088336328
 10
125.7686502934
 20
137.8003382875
 42
0.8088336328
 10
129.2349219018
 20
137.8003382875
 42
1.0
 72
     1
 10
140.0529849185
 20
137.8003382875
 11
129.2349219018
 21
137.8003382875
 72
     4
 94
        3
 73
     1
 74
     0
 95
        8
 96
        4
 40
0.0
 40
0.0
 40
0.0
 40
0.0
 40
1.0
 40
1.0
 40
1.0
 40
1.0
 10
140.0529849185
 20
137.8003382875
 42
1.0
 10
148.6584606839
 20
137.8003382875
 42
0.8108679623
 10
154.8225796988
 20
143.805157179
 42
0.8108679623
 10
155.0478447931
 20
152.4076840629
 42
1.0
 72
     1
 10
155.0478447931
 20
152.4076840629
 11
155.7168644824
 21
177.9565152358
 72
     4
 94
        3
 73
     1
 74
     0
 95
        8
 96
        4
 40
0.0
 40
0.0
 40
0.0
 40
0.0
 40
1.0
 40
1.0
 40
1.0
 40
1.0
 10
157.7161791323
 20
177.9041613392
 42
1.0
 10
157.768533029
 20
179.9034759891
 42
0.3333333333
 10
155.769218379
 20
179.9558298856999
 42
0.3333333333
 10
155.7168644824
 20
177.9565152358
 42
1.0
 97
        0
 75
     0
 76
     0
 52
325.0
 41
5.735751869999999
 77
     0
 78
     1
 53
325.0
 43
0.0
 44
0.0
 45
3.289892117399999
 46
4.6984528698
 79
     0
 98
        1
 10
0.0
 20
0.0
  0
HATCH
  5
265
330
223
100
AcDbEntity
  8
0
  6
Continuous
 62
     2
100
AcDbHatch
 10
0.0
 20
0.0
 30
0.0
210
0.0
220
0.0
230
1.0
  2
DEFAULT__3
 70
     0
 71
     0
 91
        2
 92
        1
 93
       34
 72
     4
 94
        3
 73
     0
 74
     0
 95
       17
 96
       13
 40
0.0
 40
0.0
 40
0.0
 40
0.0
 40
0.0431130338
 40
0.1227349342
 40
0.2819787348
 40
0.4014115853
 40
0.5208444358
 40
0.6402772863
 40
0.7597101368000001
 40
0.9189539373999998
 40
0.9985758376999999
 40
1.0
 40
1.0
 40
1.0
 40
1.0
 10
122.4305788025
 20
201.5044355778
 10
122.7414677649
 20
201.4763693161
 10
123.6261599374
 20
201.3898763491
 10
125.6546977793
 20
201.1462162931
 10
128.2145717761
 20
200.7171392416
 10
131.0154583537
 20
200.0633865436
 10
133.4916433374
 20
199.3271941655
 10
135.9087452302
 20
198.4248059493
 10
138.5049910142
 20
197.2007376613
 10
140.7241214697
 20
195.8309010513
 10
142.1264868761
 20
194.730186207
 10
142.5886093647
 20
194.3365096392
 10
142.5967265366
 20
194.3295849208
 72
     4
 94
        3
 73
     0
 74
     0
 95
       10
 96
        6
 40
0.0
 40
0.0
 40
0.0
 40
0.0
 40
0.1053848184
 40
0.6172887072
 40
1.0
 40
1.0
 40
1.0
 40
1.0
 10
142.5967265366
 20
194.3295849208
 10
142.8928203336
 20
194.6626182007
 10
144.786953204
 20
196.4725693558
 10
149.4085328345
 20
198.0121919326
 10
153.5489984885
 20
198.1003382875
 10
155.1720487706
 20
198.1003382875
 72
     1
 10
161.8920487706
 20
198.1003382875
 11
155.1720487706
 21
198.1003382875
 72
     1
 10
161.8920487706
 20
198.1003382875
 11
161.8920487706
 21
197.1103382875
 72
     1
 10
161.8920487706
 20
197.1103382875
 11
161.8020487706
 21
197.1103382875
 72
     1
 10
161.8020487706
 20
197.1103382875
 11
161.6423649364
 21
196.5003382875
 72
     1
 10
161.6423649364
 20
196.5003382875
 11
160.1841702611
 21
196.3176766436
 72
     4
 94
        3
 73
     1
 74
     0
 95
        8
 96
        4
 40
0.0
 40
0.0
 40
0.0
 40
0.0
 40
1.0
 40
1.0
 40
1.0
 40
1.0
 10
158.5223649364
 20
194.5203382875
 42
1.0
 10
158.5671446045
 20
195.4869279477
 42
0.8432527259
 10
159.2240474418
 20
196.197406274
 42
0.8432527259
 10
160.1841702611
 20
196.3176766436
 42
1.0
 72
     1
 10
158.5223649364
 20
194.5203382875
 11
152.2223649364
 21
194.5203382875
 72
     4
 94
        3
 73
     0
 74
     0
 95
       12
 96
        8
 40
0.0
 40
0.0
 40
0.0
 40
0.0
 40
0.1108712845
 40
0.2555888678
 40
0.4691366754
 40
0.8441652566
 40
1.0
 40
1.0
 40
1.0
 40
1.0
 10
152.2223649364
 20
194.5203382875
 10
151.8321572579
 20
194.5203382875
 10
150.9386000252
 20
194.4367914413
 10
149.2801665379
 20
194.1321991166
 10
146.8847643012
 20
193.0874316259
 10
145.0454810791
 20
191.2107335362
 10
144.1423133755
 20
189.4788379968
 10
143.9218643946
 20
188.9403382868
 72
     1
 10
143.9218643946
 20
188.9403382868
 11
142.9091332591
 21
189.9303382861
 72
     1
 10
142.9091332591
 20
189.9303382861
 11
143.1629956737
 21
182.6603382875
 72
     1
 10
143.1629956737
 20
182.6603382875
 11
142.6208413571
 21
151.6003382875
 72
     1
 10
142.6208413571
 20
151.6003382875
 11
140.6538885158
 21
151.6003382875
 72
     1
 10
140.0604163082
 20
185.6003382875
 11
140.6538885158
 21
151.6003382875
 72
     1
 10
139.7671789363
 20
193.997557944
 11
140.0604163082
 21
185.6003382875
 72
     4
 94
        3
 73
     0
 74
     0
 95
       14
 96
       10
 40
0.0
 40
0.0
 40
0.0
 40
0.0
 40
0.1693515868
 40
0.3089865898
 40
0.4486215928
 40
0.5882565957
 40
0.7278915987000002
 40
0.9140716026999999
 40
1.0
 40
1.0
 40
1.0
 40
1.0
 10
139.7671789363
 20
193.997557944
 10
138.9713697089
 20
194.5598131023
 10
137.4622484645
 20
195.4800553011
 10
135.1355590372
 20
196.5778287484
 10
132.8600378205
 20
197.4279173651
 10
130.5046718605
 20
198.1285038656
 10
127.8269386707
 20
198.7536834051
 10
125.4085463498
 20
199.1592988305
 10
123.7923579628
 20
199.355416463
 10
123.2806956496
 20
199.4105951787
 72
     4
 94
        3
 73
     1
 74
     0
 95
        8
 96
        4
 40
0.0
 40
0.0
 40
0.0
 40
0.0
 40
1.0
 40
1.0
 40
1.0
 40
1.0
 10
123.2806955058
 20
199.4105942066
 42
1.0
 10
122.6558536661
 20
199.477978384
 42
0.7830618109000001
 10
122.1845975775
 20
199.0621831809
 42
0.7830618109000001
 10
122.1736275673
 20
198.4338141725
 42
1.0
 72
     1
 10
122.1736275579
 20
198.4338123078
 11
121.9515829612
 21
185.712885881
 72
     4
 94
        3
 73
     1
 74
     0
 95
        8
 96
        4
 40
0.0
 40
0.0
 40
0.0
 40
0.0
 40
1.0
 40
1.0
 40
1.0
 40
1.0
 10
121.9515829612
 20
185.712885881
 42
1.0
 10
121.9415004977
 20
185.1352619346
 42
0.8088336328
 10
121.5294472008
 20
184.7303382875
 42
0.8088336328
 10
120.951735266
 20
184.7303382875
 42
1.0
 72
     1
 10
120.951735266
 20
184.7303382875
 11
120.2791010402
 21
184.7303382875
 72
     1
 10
120.0253043962
 20
199.2703382875
 11
120.2791010402
 21
184.7303382875
 72
     1
 10
120.0253043962
 20
199.2703382875
 11
114.0194254767
 21
199.2703382875
 72
     1
 10
114.0194254767
 20
199.2703382875
 11
113.7656288327
 21
184.7303382875
 72
     1
 10
113.7656288327
 20
184.7303382875
 11
113.0929946068
 21
184.7303382875
 72
     4
 94
        3
 73
     1
 74
     0
 95
        8
 96
        4
 40
0.0
 40
0.0
 40
0.0
 40
0.0
 40
1.0
 40
1.0
 40
1.0
 40
1.0
 10
112.0931469117
 20
185.712885881
 42
1.0
 10
112.1032293752
 20
185.1352619346
 42
0.8088336328
 10
112.5152826721
 20
184.7303382875
 42
0.8088336328
 10
113.0929946068
 20
184.7303382875
 42
1.0
 72
     1
 10
111.8769815403
 20
198.0969917132
 11
112.0931469117
 21
185.712885881
 72
     4
 94
        3
 73
     1
 74
     0
 95
        8
 96
        4
 40
0.0
 40
0.0
 40
0.0
 40
0.0
 40
1.0
 40
1.0
 40
1.0
 40
1.0
 10
111.8769828844
 20
198.096952158
 42
1.0
 10
111.8716307041
 20
198.4043122085
 42
0.9348756530999999
 10
111.73430444
 20
198.6793401047
 42
0.9348756530999999
 10
111.4918339419
 20
198.8683028102
 42
1.0
 72
     4
 94
        3
 73
     0
 74
     0
 95
       13
 96
        9
 40
0.0
 40
0.0
 40
0.0
 40
0.0
 40
0.1666666667
 40
0.3333333333
 40
0.5
 40
0.6666666667
 40
0.8333333333
 40
1.0
 40
1.0
 40
1.0
 40
1.0
 10
111.4918187406
 20
198.8682823742
 10
111.3950140765
 20
198.9437033466
 10
111.235698453
 20
199.1074347232
 10
111.0871594905
 20
199.3794818308
 10
111.0339185284
 20
199.6734559663
 10
111.0784844378
 20
199.9793485582
 10
111.2256439498
 20
200.2824569559
 10
111.3876366664
 20
200.46975081
 10
111.487381895
 20
200.5581054545
 72
     4
 94
        3
 73
     1
 74
     0
 95
        8
 96
        4
 40
0.0
 40
0.0
 40
0.0
 40
0.0
 40
1.0
 40
1.0
 40
1.0
 40
1.0
 10
111.4873989751
 20
200.5580871005
 42
1.0
 10
111.6911596529
 20
200.7385824484
 42
0.9480277965
 10
111.8091674456
 20
200.9838805227
 42
0.9480277965
 10
111.8230229782
 20
201.2557352792
 42
1.0
 72
     4
 94
        3
 73
     1
 74
     0
 95
        8
 96
        4
 40
0.0
 40
0.0
 40
0.0
 40
0.0
 40
1.0
 40
1.0
 40
1.0
 40
1.0
 10
112.3223649364
 20
201.7303382875
 42
1.0
 10
112.0411554937
 20
201.7303382875
 42
0.8165782089
 10
111.8373159605
 20
201.5366163337
 42
0.8165782089
 10
111.8230121736
 20
201.2557709094
 42
1.0
 72
     1
 10
121.7223649364
 20
201.7303382875
 11
112.3223649364
 21
201.7303382875
 72
     4
 94
        3
 73
     1
 74
     0
 95
        8
 96
        4
 40
0.0
 40
0.0
 40
0.0
 40
0.0
 40
1.0
 40
1.0
 40
1.0
 40
1.0
 10
121.7223649364
 20
201.7303382875
 42
1.0
 10
121.8171202393
 20
201.7303382875
 42
0.9739405438999998
 10
121.9081716347
 20
201.704104515
 42
0.9739405438999998
 10
121.9884008731
 20
201.6536878835
 42
1.0
 72
     4
 94
        3
 73
     1
 74
     0
 95
        8
 96
        4
 40
0.0
 40
0.0
 40
0.0
 40
0.0
 40
1.0
 40
1.0
 40
1.0
 40
1.0
 10
121.9884009603
 20
201.6536878052
 42
1.0
 10
122.1225801203
 20
201.5693686033
 42
0.9815975351999998
 10
122.272730098
 20
201.5186856773
 42
0.9815975351999998
 10
122.4305615042
 20
201.5044370994
 42
1.0
 97
        0
 92
        1
 93
       12
 72
     1
 10
93.98431356459999
 20
185.6003382875
 11
93.39084135709999
 21
151.6003382875
 72
     1
 10
93.39084135709999
 20
151.6003382875
 11
91.42388851579999
 21
151.6003382875
 72
     1
 10
90.83233636540001
 20
185.4903382875
 11
91.42388851579999
 21
151.6003382875
 72
     4
 94
        3
 73
     0
 74
     0
 95
       12
 96
        8
 40
0.0
 40
0.0
 40
0.0
 40
0.0
 40
0.3519550815999999
 40
0.6398553054000001
 40
0.8037907084
 40
0.9148868401000001
 40
1.0
 40
1.0
 40
1.0
 40
1.0
 10
90.83233636540001
 20
185.4903382875
 10
90.79941676629999
 20
187.3763008565
 10
89.74699337469999
 20
190.4477782666
 10
87.15996557169999
 20
193.0874316259
 10
84.76456333500001
 20
194.1321991166
 10
83.10612984770001
 20
194.4367914413
 10
82.21257261499999
 20
194.5203382875
 10
81.82236493640001
 20
194.5203382875
 72
     1
 10
81.82236493640001
 20
194.5203382875
 11
75.52236493640001
 21
194.5203382875
 72
     4
 94
        3
 73
     1
 74
     0
 95
        8
 96
        4
 40
0.0
 40
0.0
 40
0.0
 40
0.0
 40
1.0
 40
1.0
 40
1.0
 40
1.0
 10
75.52236493640001
 20
194.5203382875
 42
1.0
 10
75.4775852684
 20
195.4869279477
 42
0.8432527259
 10
74.82068243100001
 20
196.197406274
 42
0.8432527259
 10
73.8605596118
 20
196.3176766436
 42
1.0
 72
     1
 10
72.40236493640001
 20
196.5003382875
 11
73.8605596118
 21
196.3176766436
 72
     1
 10
72.24268110220001
 20
197.1103382875
 11
72.40236493640001
 21
196.5003382875
 72
     1
 10
72.24268110220001
 20
197.1103382875
 11
72.15268110220001
 21
197.1103382875
 72
     1
 10
72.15268110220001
 20
198.1003382875
 11
72.15268110220001
 21
197.1103382875
 72
     1
 10
78.8726811022
 20
198.1003382875
 11
72.15268110220001
 21
198.1003382875
 72
     4
 94
        3
 73
     0
 74
     0
 95
       11
 96
        7
 40
0.0
 40
0.0
 40
0.0
 40
0.0
 40
0.2313200267
 40
0.5407272050000001
 40
0.8469090683000001
 40
1.0
 40
1.0
 40
1.0
 40
1.0
 10
78.8726811022
 20
198.1003382875
 10
80.49573138440001
 20
198.1003382875
 10
84.6361970383
 20
198.0121919326
 10
91.1118753597
 20
195.8548991149
 10
93.73053326169999
 20
190.9750666708
 10
94.0089444134
 20
187.0114386672
 10
93.98431356459999
 20
185.6003382875
 97
        0
 75
     0
 76
     0
 52
45.0
 41
4.044779231399999
 77
     0
 78
     1
 53
45.0
 43
0.0
 44
0.0
 45
-2.8600908229
 46
2.8600908229
 79
     0
 98
        1
 10
0.0
 20
0.0
  0
LINE
  5
2DE
330
223
100
AcDbEntity
  8
03___PRT_ALL_CURVES
  6
Continuous
 62
     4
100
AcDbLine
 10
70.8605490679
 20
198.0124703218
 30
0.0
 11
70.6619704241
 21
197.8138916781
 31
0.0
  0
LINE
  5
2DF
330
223
100
AcDbEntity
  8
0
  6
Continuous
 62
     7
100
AcDbLine
 10
70.6619704241
 20
197.8138916781
 30
0.0
 11
70.8605490679
 21
198.0124703218
 31
0.0
  0
LINE
  5
2E0
330
223
100
AcDbEntity
  8
0
  6
Continuous
 62
     7
100
AcDbLine
 10
76.99825601479999
 20
152.3553301663
 30
0.0
 11
76.32923585569999
 21
177.9041792795
 31
0.0
  0
LINE
  5
2E1
330
223
100
AcDbEntity
  8
0
  6
Continuous
 62
     7
100
AcDbLine
 10
72.15268110220001
 20
198.1003382875
 30
0.0
 11
72.15268110220001
 21
197.1103382875
 31
0.0
  0
LINE
  5
2E2
330
223
100
AcDbEntity
  8
03___PRT_ALL_CURVES
  6
Continuous
 62
     4
100
AcDbLine
 10
72.15268110220001
 20
198.1003382875
 30
0.0
 11
72.15268110220001
 21
197.1103382875
 31
0.0
  0
LINE
  5
2E3
330
223
100
AcDbEntity
  8
0
  6
Continuous
 62
     7
100
AcDbLine
 10
78.99688507979999
 20
152.4076840629
 30
0.0
 11
78.32786539050001
 21
177.9565152358
 31
0.0
  0
LINE
  5
2E4
330
223
100
AcDbEntity
  8
0
  6
Continuous
 62
     7
100
AcDbLine
 10
93.99243053940001
 20
135.8003382875
 30
0.0
 11
140.0522993335
 21
135.8003382875
 31
0.0
  0
LINE
  5
2E5
330
223
100
AcDbEntity
  8
0
  6
Continuous
 62
     7
100
AcDbLine
 10
140.0529849185
 20
137.8003382875
 30
0.0
 11
129.2349219018
 21
137.8003382875
 31
0.0
  0
LINE
  5
2E6
330
223
100
AcDbEntity
  8
0
  6
Continuous
 62
     7
100
AcDbLine
 10
104.8098079711
 20
137.8003382875
 30
0.0
 11
93.9917449544
 21
137.8003382875
 31
0.0
  0
LINE
  5
2E7
330
223
100
AcDbEntity
  8
0
  6
Continuous
 62
     7
100
AcDbLine
 10
72.24268110220001
 20
197.1103382875
 30
0.0
 11
72.40236493640001
 21
196.5003382875
 31
0.0
  0
LINE
  5
2E8
330
223
100
AcDbEntity
  8
03___PRT_ALL_CURVES
  6
Continuous
 62
     4
100
AcDbLine
 10
72.24268110220001
 20
197.1103382875
 30
0.0
 11
72.40236493640001
 21
196.5003382875
 31
0.0
  0
LINE
  5
2E9
330
223
100
AcDbEntity
  8
0
  6
Continuous
 62
     7
100
AcDbLine
 10
92.02236493639999
 20
189.8150290403
 30
0.0
 11
91.7898296126
 21
189.209253811
 31
0.0
  0
LINE
  5
2EA
330
223
100
AcDbEntity
  8
0
  6
Continuous
 62
     9
100
AcDbLine
 10
112.8385941021
 20
143.660719036
 30
0.0
 11
121.2061357707
 21
143.660719036
 31
0.0
  0
LINE
  5
2EB
330
223
100
AcDbEntity
  8
0
  6
Continuous
 62
     7
100
AcDbLine
 10
90.83233636540001
 20
185.4903382875
 30
0.0
 11
91.42388851579999
 21
151.6003382875
 31
0.0
  0
LINE
  5
2EC
330
223
100
AcDbEntity
  8
0
  6
Continuous
 62
     7
100
AcDbLine
 10
93.98431356459999
 20
185.6003382875
 30
0.0
 11
93.39084135709999
 21
151.6003382875
 31
0.0
  0
LINE
  5
2ED
330
223
100
AcDbEntity
  8
0
  6
Continuous
 62
     7
100
AcDbLine
 10
100.4900194122
 20
194.5056902094
 30
0.0
 11
99.59842248160001
 21
193.2849413556
 31
0.0
  0
LWPOLYLINE
  5
2EE
330
223
100
AcDbEntity
  8
0
  6
Continuous
 62
     7
100
AcDbPolyline
 90
       10
 70
     0
 43
0.0
 10
102.939680806
 20
193.513944465
 10
103.1776220962
 20
193.7989968436
 10
104.1188728297
 20
194.7386714422
 10
105.1533751151
 20
195.6166869616
 10
106.2435228108
 20
196.3882234689
 10
107.3934081934
 20
197.0420564358
 10
108.5614255332
 20
197.557315154
 10
109.7918897412
 20
197.9704182129
 10
111.1384772039
 20
198.2934570131
 10
111.2994234466
 20
198.3230925784
  0
LINE
  5
2EF
330
223
100
AcDbEntity
  8
0
  6
Continuous
 62
     7
100
AcDbLine
 10
111.6772563084
 20
200.9996038281
 30
0.0
 11
111.6803755701
 21
201.0022291949
 31
0.0
  0
LWPOLYLINE
  5
2F0
330
223
100
AcDbEntity
  8
0
  6
Continuous
 62
     7
100
AcDbPolyline
 90
        6
 70
     0
 43
0.0
 10
106.3180177671
 20
199.2462905159
 10
106.0942487052
 20
199.1310266476
 10
104.5251869023
 20
198.1865126878
 10
103.068352225
 20
197.0958740563
 10
101.7216089441
 20
195.878404921
 10
100.4900194122
 20
194.5056902094
  0
LINE
  5
2F1
330
223
100
AcDbEntity
  8
0
  6
Continuous
 62
     7
100
AcDbLine
 10
106.3181446419
 20
199.2467972111
 30
0.0
 11
106.391002553
 21
199.2833733064
 31
0.0
  0
LINE
  5
2F2
330
223
100
AcDbEntity
  8
06___PRT_ALL_SURFS
  6
Continuous
 62
     7
100
AcDbLine
 10
97.07082719479998
 20
185.6003382875
 30
0.0
 11
97.35812879299999
 21
195.1003382875
 31
0.0
  0
LINE
  5
2F3
330
223
100
AcDbEntity
  8
0
  6
Continuous
 62
     9
100
AcDbLine
 10
111.4918341671
 20
198.8683026343
 30
0.0
 11
111.4410550173
 21
198.8031395643
 31
0.0
  0
LINE
  5
2F4
330
223
100
AcDbEntity
  8
0
  6
Continuous
 62
     7
100
AcDbLine
 10
91.42388851579999
 20
151.6003382875
 30
0.0
 11
110.9468714458
 21
151.6003382875
 31
0.0
  0
LINE
  5
2F5
330
223
100
AcDbEntity
  8
0
  6
Continuous
 62
     7
100
AcDbLine
 10
123.0978584271
 20
151.6003382875
 30
0.0
 11
142.6208413571
 21
151.6003382875
 31
0.0
  0
LINE
  5
2F6
330
223
100
AcDbEntity
  8
0
  6
Continuous
 62
     9
100
AcDbLine
 10
155.0478447931
 20
152.4076840629
 30
0.0
 11
142.63493363
 21
152.4076840629
 31
0.0
  0
LINE
  5
2F7
330
223
100
AcDbEntity
  8
0
  6
Continuous
 62
     9
100
AcDbLine
 10
78.99688507979999
 20
152.4076840629
 30
0.0
 11
91.40979624290002
 21
152.4076840629
 31
0.0
  0
LINE
  5
2F8
330
223
100
AcDbEntity
  8
0
  6
Continuous
 62
     7
100
AcDbLine
 10
104.5106225182
 20
189.7538489495
 30
0.0
 11
104.4060972745
 21
189.209253811
 31
0.0
  0
LINE
  5
2F9
330
223
100
AcDbEntity
  8
03___PRT_ALL_CURVES
  6
Continuous
 62
     4
100
AcDbLine
 10
74.09471478589999
 20
195.4903382875
 30
0.0
 11
74.7517863389
 21
194.8332667345
 31
0.0
  0
LINE
  5
2FA
330
223
100
AcDbEntity
  8
0
  6
Continuous
 62
     7
100
AcDbLine
 10
74.7517863389
 20
194.8332667345
 30
0.0
 11
74.09471478589999
 21
195.4903382875
 31
0.0
  0
LINE
  5
2FB
330
223
100
AcDbEntity
  8
03___PRT_ALL_CURVES
  6
Continuous
 62
     4
100
AcDbLine
 10
70.6614079566
 20
197.1073482606
 30
0.0
 11
72.0974259068
 21
195.6667502553
 31
0.0
  0
LINE
  5
2FC
330
223
100
AcDbEntity
  8
0
  6
Continuous
 62
     7
100
AcDbLine
 10
72.0974259068
 20
195.6667502553
 30
0.0
 11
70.6614079566
 21
197.1073482606
 31
0.0
  0
LINE
  5
2FD
330
223
100
AcDbEntity
  8
0
  6
Continuous
 62
     7
100
AcDbLine
 10
111.4511992187
 20
192.8745426635
 30
0.0
 11
111.5704239972
 21
186.0441596778
 31
0.0
  0
LINE
  5
2FE
330
223
100
AcDbEntity
  8
0
  6
Continuous
 62
     7
100
AcDbLine
 10
110.808894142
 20
143.6956238489
 30
0.0
 11
111.5052145044
 21
183.5877906939
 31
0.0
  0
LWPOLYLINE
  5
2FF
330
223
100
AcDbEntity
  8
0
  6
Continuous
 62
     7
100
AcDbPolyline
 90
        6
 70
     0
 43
0.0
 10
111.8230120449
 20
201.2557779116
 10
111.8170750212
 20
201.213015249
 10
111.7951718405
 20
201.1492050036
 10
111.7543726702
 20
201.0809215569
 10
111.6934872116
 20
201.0137971087
 10
111.6772563084
 20
200.9996038281
  0
LINE
  5
300
330
223
100
AcDbEntity
  8
0
  6
Continuous
 62
     7
100
AcDbLine
 10
111.9320533264
 20
193.9757735315
 30
0.0
 11
112.0703478448
 21
186.0528858809999
 31
0.0
  0
LINE
  5
301
330
223
100
AcDbEntity
  8
0
  6
Continuous
 62
     7
100
AcDbLine
 10
111.8769815403
 20
198.0969917132
 30
0.0
 11
112.0931469117
 21
185.712885881
 31
0.0
  0
LINE
  5
302
330
223
100
AcDbEntity
  8
0
  6
Continuous
 62
     7
100
AcDbLine
 10
114.0223649364
 20
185.0703382875
 30
0.0
 11
114.0223649364
 21
184.5703382875
 31
0.0
  0
LINE
  5
303
330
223
100
AcDbEntity
  8
BG_STARTBEZUEGE
  6
CENTER
 62
     7
100
AcDbLine
 10
117.0223649364
 20
207.0400423729
 30
0.0
 11
117.0223649364
 21
133.5451271186
 31
0.0
  0
LINE
  5
306
330
223
100
AcDbEntity
  8
06___PRT_ALL_SURFS
  6
Continuous
 62
     7
100
AcDbLine
 10
117.0223649364
 20
185.6003382875
 30
0.0
 11
117.0223649364
 21
195.1003382875
 31
0.0
  0
LINE
  5
307
330
223
100
AcDbEntity
  8
0
  6
Continuous
 62
     7
100
AcDbLine
 10
112.8385941021
 20
143.660719036
 30
0.0
 11
113.5006136005
 21
181.5877906939
 31
0.0
  0
LINE
  5
308
330
223
100
AcDbEntity
  8
0
  6
Continuous
 62
     7
100
AcDbLine
 10
114.0194254767
 20
199.2703382875
 30
0.0
 11
113.7656288327
 21
184.7303382875
 31
0.0
  0
LINE
  5
309
330
223
100
AcDbEntity
  8
0
  6
Continuous
 62
     7
100
AcDbLine
 10
114.105775482
 20
184.5703382875
 30
0.0
 11
114.3537897204
 21
198.7790644907
 31
0.0
  0
LINE
  5
30A
330
223
100
AcDbEntity
  8
0
  6
Continuous
 62
     7
100
AcDbLine
 10
116.1050146541
 20
184.509296749
 30
0.0
 11
116.3191842467
 21
196.7790644907
 31
0.0
  0
LINE
  5
30B
330
223
100
AcDbEntity
  8
03___PRT_ALL_CURVES
  6
Continuous
 62
    40
100
AcDbLine
 10
141.1623649364
 20
193.4543425142
 30
0.0
 11
142.5721789213
 21
194.3502200827
 31
0.0
  0
LINE
  5
30C
330
223
100
AcDbEntity
  8
0
  6
Continuous
 62
     7
100
AcDbLine
 10
117.9397152188
 20
184.509296749
 30
0.0
 11
117.7255456262
 21
196.7790644907
 31
0.0
  0
LINE
  5
30D
330
223
100
AcDbEntity
  8
0
  6
Continuous
 62
     7
100
AcDbLine
 10
119.9389543909
 20
184.5703382875
 30
0.0
 11
119.6909401525
 21
198.7790644907
 31
0.0
  0
LINE
  5
30E
330
223
100
AcDbEntity
  8
0
  6
Continuous
 62
     7
100
AcDbLine
 10
120.0253043962
 20
199.2703382875
 30
0.0
 11
120.2791010402
 21
184.7303382875
 31
0.0
  0
LINE
  5
30F
330
223
100
AcDbEntity
  8
0
  6
Continuous
 62
     7
100
AcDbLine
 10
121.2061357707
 20
143.660719036
 30
0.0
 11
120.5441162724
 21
181.5877906939
 31
0.0
  0
LINE
  5
310
330
223
100
AcDbEntity
  8
0
  6
Continuous
 62
     7
100
AcDbLine
 10
123.2358357309
 20
143.6956238489
 30
0.0
 11
122.5395153685
 21
183.5877906939
 31
0.0
  0
LINE
  5
311
330
223
100
AcDbEntity
  8
0
  6
Continuous
 62
     7
100
AcDbLine
 10
120.0223649364
 20
185.0703382875
 30
0.0
 11
120.0223649364
 21
184.5703382875
 31
0.0
  0
LINE
  5
312
330
223
100
AcDbEntity
  8
0
  6
Continuous
 62
     7
100
AcDbLine
 10
122.1736275579
 20
198.4338123078
 30
0.0
 11
121.9515829612
 21
185.712885881
 31
0.0
  0
LINE
  5
313
330
223
100
AcDbEntity
  8
0
  6
Continuous
 62
     7
100
AcDbLine
 10
122.1126765465
 20
193.9757735315
 30
0.0
 11
121.9743820281
 21
186.0528858809999
 31
0.0
  0
LINE
  5
314
330
223
100
AcDbEntity
  8
0
  6
Continuous
 62
     7
100
AcDbLine
 10
122.6190903693
 20
194.338857764
 30
0.0
 11
122.4743058757
 21
186.0441596778
 31
0.0
  0
LINE
  5
315
330
223
100
AcDbEntity
  8
06___PRT_ALL_SURFS
  6
Continuous
 62
     6
100
AcDbLine
 10
119.5725879316
 20
201.6999783784
 30
0.0
 11
119.4123601831
 21
198.4905492116999
 31
0.0
  0
LINE
  5
316
330
223
100
AcDbEntity
  8
03___PRT_ALL_CURVES
  6
Continuous
 62
     4
100
AcDbLine
 10
123.277220146
 20
200.6029915881
 30
0.0
 11
123.3625414836
 21
201.4109020277
 31
0.0
  0
LINE
  5
317
330
223
100
AcDbEntity
  8
0
  6
Continuous
 62
     9
100
AcDbLine
 10
78.32786539050001
 20
177.9565152358
 30
0.0
 11
90.96383973589999
 21
177.9565152358
 31
0.0
  0
LINE
  5
318
330
223
100
AcDbEntity
  8
0
  6
Continuous
 62
     9
100
AcDbLine
 10
143.080890137
 20
177.9565152358
 30
0.0
 11
155.7168644824
 21
177.9565152358
 31
0.0
  0
LINE
  5
319
330
223
100
AcDbEntity
  8
0
  6
Continuous
 62
     7
100
AcDbLine
 10
156.7165218074
 20
178.9303382875
 30
0.0
 11
143.0978882816
 21
178.9303382875
 31
0.0
  0
LINE
  5
31A
330
223
100
AcDbEntity
  8
0
  6
Continuous
 62
     7
100
AcDbLine
 10
90.94684159129998
 20
178.9303382875
 30
0.0
 11
77.32820806550001
 21
178.9303382875
 31
0.0
  0
LINE
  5
31B
330
223
100
AcDbEntity
  8
0
  6
Continuous
 62
     7
100
AcDbLine
 10
124.0223649364
 20
194.4940689981
 30
0.0
 11
124.0223649364
 21
194.8538276256
 31
0.0
  0
LINE
  5
31C
330
223
100
AcDbEntity
  8
03___PRT_ALL_CURVES
  6
Continuous
 62
    40
100
AcDbLine
 10
143.921834207
 20
188.9403022079
 30
0.0
 11
143.8567769127
 21
188.8618870357
 31
0.0
  0
LINE
  5
31D
330
223
100
AcDbEntity
  8
0
  6
Continuous
 62
     9
100
AcDbLine
 10
120.5441162724
 20
181.5877906939
 30
0.0
 11
113.5006136005
 21
181.5877906939
 31
0.0
  0
LINE
  5
31E
330
223
100
AcDbEntity
  8
0
  6
Continuous
 62
     9
100
AcDbLine
 10
114.368747285
 20
182.5616260456
 30
0.0
 11
119.6759825879
 21
182.5616260456
 31
0.0
  0
LINE
  5
31F
330
223
100
AcDbEntity
  8
0
  6
Continuous
 62
     9
100
AcDbLine
 10
116.1050146541
 20
184.509296749
 30
0.0
 11
117.9397152188
 21
184.509296749
 31
0.0
  0
LINE
  5
320
330
223
100
AcDbEntity
  8
0
  6
Continuous
 62
     7
100
AcDbLine
 10
121.5396676733
 20
184.5703382875
 30
0.0
 11
119.9389543909
 21
184.5703382875
 31
0.0
  0
LINE
  5
321
330
223
100
AcDbEntity
  8
0
  6
Continuous
 62
     7
100
AcDbLine
 10
114.105775482
 20
184.5703382875
 30
0.0
 11
112.5050621996
 21
184.5703382875
 31
0.0
  0
LINE
  5
322
330
223
100
AcDbEntity
  8
0
  6
Continuous
 62
     7
100
AcDbLine
 10
120.951735266
 20
184.7303382875
 30
0.0
 11
120.2791010402
 21
184.7303382875
 31
0.0
  0
LINE
  5
323
330
223
100
AcDbEntity
  8
0
  6
Continuous
 62
     7
100
AcDbLine
 10
113.7656288327
 20
184.7303382875
 30
0.0
 11
113.0929946068
 21
184.7303382875
 31
0.0
  0
LINE
  5
324
330
223
100
AcDbEntity
  8
0
  6
Continuous
 62
     7
100
AcDbLine
 10
120.974534333
 20
185.0703382875
 30
0.0
 11
119.9302268584
 21
185.0703382875
 31
0.0
  0
LINE
  5
325
330
223
100
AcDbEntity
  8
0
  6
Continuous
 62
     7
100
AcDbLine
 10
114.1145030145
 20
185.0703382875
 30
0.0
 11
113.0701955399
 21
185.0703382875
 31
0.0
  0
LINE
  5
326
330
223
100
AcDbEntity
  8
0
  6
Continuous
 62
     7
100
AcDbLine
 10
100.3321441504
 20
185.6003214393
 30
0.0
 11
111.6154210625
 21
185.6002297819
 31
0.0
  0
LINE
  5
327
330
223
100
AcDbEntity
  8
0
  6
Continuous
 62
     9
100
AcDbLine
 10
139.1194248503
 20
185.6006108689
 30
0.0
 11
122.397929196
 21
185.6003382875
 31
0.0
  0
LINE
  5
328
330
223
100
AcDbEntity
  8
06___PRT_ALL_SURFS
  6
Continuous
 62
     7
100
AcDbLine
 10
97.07082719479998
 20
185.6003382875
 30
0.0
 11
117.0223649364
 21
185.6003382875
 31
0.0
  0
LINE
  5
329
330
223
100
AcDbEntity
  8
06___PRT_ALL_SURFS
  6
Continuous
 62
     7
100
AcDbLine
 10
136.9739026781
 20
185.6003382875
 30
0.0
 11
140.0604163082
 21
185.6003382875
 31
0.0
  0
LINE
  5
32B
330
223
100
AcDbEntity
  8
0
  6
Continuous
 62
     9
100
AcDbLine
 10
111.646827726
 20
185.6002323472
 30
0.0
 11
111.6154210625
 21
185.6002297819
 31
0.0
  0
LINE
  5
32C
330
223
100
AcDbEntity
  8
0
  6
Continuous
 62
     7
100
AcDbLine
 10
139.1194248503
 20
185.6006108689
 30
0.0
 11
140.0604163082
 21
185.6003382875
 31
0.0
  0
LINE
  5
32D
330
223
100
AcDbEntity
  8
0
  6
Continuous
 62
     7
100
AcDbLine
 10
161.9473039661
 20
195.6667502553
 30
0.0
 11
163.3833219162
 21
197.1073482606
 31
0.0
  0
LINE
  5
32E
330
223
100
AcDbEntity
  8
0
  6
Continuous
 62
     7
100
AcDbLine
 10
159.292943534
 20
194.8332667345
 30
0.0
 11
159.950015087
 21
195.4903382875
 31
0.0
  0
LINE
  5
32F
330
223
100
AcDbEntity
  8
0
  6
Continuous
 62
     7
100
AcDbLine
 10
161.6423649364
 20
196.5003382875
 30
0.0
 11
160.1841702611
 21
196.3176766436
 31
0.0
  0
LINE
  5
330
330
223
100
AcDbEntity
  8
0
  6
Continuous
 62
     7
100
AcDbLine
 10
111.5151770736
 20
189.209253811
 30
0.0
 11
104.4060972745
 21
189.209253811
 31
0.0
  0
LINE
  5
331
330
223
100
AcDbEntity
  8
0
  6
Continuous
 62
     7
100
AcDbLine
 10
103.8589602504
 20
189.209253811
 30
0.0
 11
93.73311968729998
 21
189.209253811
 31
0.0
  0
LINE
  5
332
330
223
100
AcDbEntity
  8
0
  6
Continuous
 62
     7
100
AcDbLine
 10
73.8605596118
 20
196.3176766436
 30
0.0
 11
72.40236493640001
 21
196.5003382875
 31
0.0
  0
LINE
  5
333
330
223
100
AcDbEntity
  8
03___PRT_ALL_CURVES
  6
Continuous
 62
     4
100
AcDbLine
 10
72.40236493640001
 20
196.5003382875
 30
0.0
 11
73.8605596118
 21
196.3176766436
 31
0.0
  0
LINE
  5
334
330
223
100
AcDbEntity
  8
06___PRT_ALL_SURFS
  6
Continuous
 62
     6
100
AcDbLine
 10
139.7286689981
 20
195.1003382875
 30
0.0
 11
140.0604163082
 21
185.6003382875
 31
0.0
  0
LINE
  5
335
330
223
100
AcDbEntity
  8
0
  6
Continuous
 62
     7
100
AcDbLine
 10
139.7671789363
 20
193.997557944
 30
0.0
 11
140.0604163082
 21
185.6003382875
 31
0.0
  0
LINE
  5
336
330
223
100
AcDbEntity
  8
06___PRT_ALL_SURFS
  6
Continuous
 62
     7
100
AcDbLine
 10
136.9739026781
 20
185.6003382875
 30
0.0
 11
136.6866010799
 21
195.1003382875
 31
0.0
  0
LINE
  5
337
330
223
100
AcDbEntity
  8
06___PRT_ALL_SURFS
  6
Continuous
 62
     6
100
AcDbLine
 10
139.9161860445
 20
193.8632845625999
 30
0.0
 11
140.0604163082
 21
185.6003382875
 31
0.0
  0
LINE
  5
338
330
223
100
AcDbEntity
  8
0
  6
Continuous
 62
     7
100
AcDbLine
 10
140.0604163082
 20
185.6003382875
 30
0.0
 11
140.6538885158
 21
151.6003382875
 31
0.0
  0
LINE
  5
339
330
223
100
AcDbEntity
  8
0
  6
Continuous
 62
     7
100
AcDbLine
 10
139.0121244606
 20
192.1959467993
 30
0.0
 11
139.0284900792
 21
191.048268721
 31
0.0
  0
LINE
  5
33A
330
223
100
AcDbEntity
  8
0
  6
Continuous
 62
     7
100
AcDbLine
 10
110.9322056313
 20
194.958321125
 30
0.0
 11
110.8161093921
 21
194.9515590941
 31
0.0
  0
LINE
  5
33B
330
223
100
AcDbEntity
  8
03___PRT_ALL_CURVES
  6
Continuous
 62
     4
100
AcDbLine
 10
75.52236493640001
 20
194.5203382875
 30
0.0
 11
75.27268110219999
 21
194.5203382875
 31
0.0
  0
LINE
  5
33C
330
223
100
AcDbEntity
  8
0
  6
Continuous
 62
     7
100
AcDbLine
 10
75.27268110219999
 20
194.5203382875
 30
0.0
 11
81.82236493640001
 21
194.5203382875
 31
0.0
  0
LINE
  5
33D
330
223
100
AcDbEntity
  8
0
  6
Continuous
 62
     7
100
AcDbLine
 10
152.2223649364
 20
194.5203382875
 30
0.0
 11
158.7720487706
 21
194.5203382875
 31
0.0
  0
LINE
  5
33E
330
223
100
AcDbEntity
  8
0
  6
Continuous
 62
     7
100
AcDbLine
 10
111.0508814136
 20
194.958321125
 30
0.0
 11
111.9317672392
 21
194.958321125
 31
0.0
  0
LINE
  5
33F
330
223
100
AcDbEntity
  8
0
  6
Continuous
 62
     7
100
AcDbLine
 10
122.1129626337
 20
194.958321125
 30
0.0
 11
123.1125242416
 21
194.958321125
 31
0.0
  0
LINE
  5
340
330
223
100
AcDbEntity
  8
06___PRT_ALL_SURFS
  6
Continuous
 62
     7
100
AcDbLine
 10
97.35812879299999
 20
195.1003382875
 30
0.0
 11
117.0223649364
 21
195.1003382875
 31
0.0
  0
LINE
  5
341
330
223
100
AcDbEntity
  8
06___PRT_ALL_SURFS
  6
Continuous
 62
     7
100
AcDbLine
 10
136.6866010799
 20
195.1003382875
 30
0.0
 11
139.7286689981
 21
195.1003382875
 31
0.0
  0
LINE
  5
342
330
223
100
AcDbEntity
  8
03___PRT_ALL_CURVES
  6
Continuous
 62
     4
100
AcDbLine
 10
74.09471478589999
 20
195.4903382875
 30
0.0
 11
72.52236493640001
 21
195.4903382875
 31
0.0
  0
LINE
  5
343
330
223
100
AcDbEntity
  8
0
  6
Continuous
 62
     7
100
AcDbLine
 10
72.52236493640001
 20
195.4903382875
 30
0.0
 11
74.09471478589999
 21
195.4903382875
 31
0.0
  0
LINE
  5
344
330
223
100
AcDbEntity
  8
0
  6
Continuous
 62
     7
100
AcDbLine
 10
159.950015087
 20
195.4903382875
 30
0.0
 11
161.5223649364
 21
195.4903382875
 31
0.0
  0
LINE
  5
345
330
223
100
AcDbEntity
  8
0
  6
Continuous
 62
     9
100
AcDbLine
 10
117.7255456262
 20
196.7790644907
 30
0.0
 11
116.3191842467
 21
196.7790644907
 31
0.0
  0
LINE
  5
346
330
223
100
AcDbEntity
  8
0
  6
Continuous
 62
     7
100
AcDbLine
 10
161.8920487706
 20
197.1103382875
 30
0.0
 11
161.8020487706
 21
197.1103382875
 31
0.0
  0
LINE
  5
347
330
223
100
AcDbEntity
  8
0
  6
Continuous
 62
     7
100
AcDbLine
 10
72.24268110220001
 20
197.1103382875
 30
0.0
 11
72.15268110220001
 21
197.1103382875
 31
0.0
  0
LINE
  5
348
330
223
100
AcDbEntity
  8
03___PRT_ALL_CURVES
  6
Continuous
 62
     4
100
AcDbLine
 10
72.24268110220001
 20
197.1103382875
 30
0.0
 11
72.15268110220001
 21
197.1103382875
 31
0.0
  0
LINE
  5
349
330
223
100
AcDbEntity
  8
0
  6
Continuous
 62
     7
100
AcDbLine
 10
117.2256217787
 20
197.2703382875
 30
0.0
 11
116.8191080942
 21
197.2703382875
 31
0.0
  0
LINE
  5
34A
330
223
100
AcDbEntity
  8
0
  6
Continuous
 62
     7
100
AcDbLine
 10
122.9178081963
 20
194.6333407477
 30
0.0
 11
122.9548908921
 21
194.6314727579
 31
0.0
  0
LINE
  5
34B
330
223
100
AcDbEntity
  8
0
  6
Continuous
 62
     7
100
AcDbLine
 10
123.1102427301
 20
194.9579456854
 30
0.0
 11
123.2286204807
 21
194.9515590941
 31
0.0
  0
LWPOLYLINE
  5
34C
330
223
100
AcDbEntity
  8
0
  6
Continuous
 62
     7
100
AcDbPolyline
 90
        7
 70
     0
 43
0.0
 10
122.6098386041
 20
193.808824488
 10
123.2956476044
 20
193.7565190264
 10
124.757067996
 20
193.6121828673
 10
126.2158052755
 20
193.4328333991
 10
127.671229257
 20
193.2185163681
 10
129.122719527
 20
192.9693460081
 10
130.4030325363
 20
192.7199900716999
  0
LWPOLYLINE
  5
34D
330
223
100
AcDbEntity
  8
0
  6
Continuous
 62
     7
100
AcDbPolyline
 90
        6
 70
     0
 43
0.0
 10
111.4174297266
 20
198.3290277659
 10
111.5335615375
 20
198.3084311534
 10
111.6548184965
 20
198.2583743107
 10
111.7595276602
 20
198.1849782208
 10
111.8330303036
 20
198.1055750684
 10
111.8730915592
 20
198.0398817259
  0
LINE
  5
34E
330
223
100
AcDbEntity
  8
RUNDUNGEN
  6
Continuous
 62
     7
100
AcDbLine
 10
130.4030327506
 20
192.7199900276
 30
0.0
 11
130.403092021
 21
192.7199778409
 31
0.0
  0
LWPOLYLINE
  5
34F
330
223
100
AcDbEntity
  8
0
  6
Continuous
 62
     7
100
AcDbPolyline
 90
        5
 70
     0
 43
0.0
 10
122.5914853537
 20
192.7573674757
 10
123.3938460815
 20
192.5499104336999
 10
124.7037922711
 20
192.0747782243
 10
126.002385808
 20
191.4668384605
 10
126.5243125988
 20
191.1835463979
  0
LINE
  5
350
330
223
100
AcDbEntity
  8
RUNDUNGEN
  6
Continuous
 62
     7
100
AcDbLine
 10
126.5170238119
 20
191.187659128
 30
0.0
 11
126.5243127238
 21
191.1835463274
 31
0.0
  0
LINE
  5
351
330
223
100
AcDbEntity
  8
0
  6
Continuous
 62
     7
100
AcDbLine
 10
142.9091332591
 20
189.9303382861
 30
0.0
 11
143.1629956737
 21
182.6603382875
 31
0.0
  0
LINE
  5
352
330
223
100
AcDbEntity
  8
03___PRT_ALL_CURVES
  6
Continuous
 62
    40
100
AcDbLine
 10
143.1629956737
 20
182.6603382875
 30
0.0
 11
142.9091332591
 21
189.9303382875
 31
0.0
  0
LINE
  5
353
330
223
100
AcDbEntity
  8
0
  6
Continuous
 62
     7
100
AcDbLine
 10
143.1629956737
 20
182.6603382875
 30
0.0
 11
142.6208413571
 21
151.6003382875
 31
0.0
  0
LWPOLYLINE
  5
354
330
223
100
AcDbEntity
  8
0
  6
Continuous
 62
     7
100
AcDbPolyline
 90
        6
 70
     0
 43
0.0
 10
111.8000899317
 20
201.1635328134
 10
111.1160772053
 20
201.014703054
 10
109.7032261193
 20
200.6146955192
 10
108.3520957026
 20
200.1428285874
 10
107.0268270192
 20
199.5870246341
 10
106.391002553
 20
199.2833733064
  0
LINE
  5
355
330
223
100
AcDbEntity
  8
0
  6
Continuous
 62
     7
100
AcDbLine
 10
111.2994383787
 20
198.3230951720999
 30
0.0
 11
111.3011062576
 21
198.3233746233
 31
0.0
  0
LWPOLYLINE
  5
356
330
223
100
AcDbEntity
  8
0
  6
Continuous
 62
     7
100
AcDbPolyline
 90
        3
 70
     0
 43
0.0
 10
111.3010162674
 20
198.3233579509
 10
111.3188865764
 20
198.3261391142
 10
111.4174297266
 20
198.3290277659
  0
LINE
  5
357
330
223
100
AcDbEntity
  8
0
  6
Continuous
 62
     7
100
AcDbLine
 10
123.8415308333
 20
198.1003382875
 30
0.0
 11
122.1678067472
 21
198.1003382875
 31
0.0
  0
LINE
  5
358
330
223
100
AcDbEntity
  8
03___PRT_ALL_CURVES
  6
Continuous
 62
     4
100
AcDbLine
 10
72.15268110220001
 20
198.1003382875
 30
0.0
 11
71.07268110220001
 21
198.1003382875
 31
0.0
  0
LINE
  5
359
330
223
100
AcDbEntity
  8
0
  6
Continuous
 62
     7
100
AcDbLine
 10
71.07268110220001
 20
198.1003382875
 30
0.0
 11
104.410078331
 21
198.1003382875
 31
0.0
  0
LINE
  5
35A
330
223
100
AcDbEntity
  8
0
  6
Continuous
 62
     7
100
AcDbLine
 10
136.5502028422
 20
198.1003382875
 30
0.0
 11
162.9720487706
 21
198.1003382875
 31
0.0
  0
LINE
  5
35B
330
223
100
AcDbEntity
  8
0
  6
Continuous
 62
     7
100
AcDbLine
 10
120.0253043962
 20
199.2703382875
 30
0.0
 11
114.0194254767
 21
199.2703382875
 31
0.0
  0
LINE
  5
35C
330
223
100
AcDbEntity
  8
0
  6
Continuous
 62
     7
100
AcDbLine
 10
121.7223649364
 20
201.7303382875
 30
0.0
 11
112.3223649364
 21
201.7303382875
 31
0.0
  0
LWPOLYLINE
  5
35D
330
223
100
AcDbEntity
  8
06___PRT_ALL_SURFS
  6
Continuous
 62
     6
100
AcDbPolyline
 90
       13
 70
     0
 43
0.0
 10
119.4123588182
 20
198.490521873
 10
121.491764778
 20
198.3667280895
 10
123.5708684022
 20
198.1513166095
 10
125.54691111
 20
197.861549284
 10
127.4134421074
 20
197.5058875529
 10
129.2101439211
 20
197.0719276005
 10
130.9367708588
 20
196.5477873505
 10
132.5891916626
 20
195.9329522464
 10
134.1152158342
 20
195.2561244347
 10
135.538577272
 20
194.5327026183
 10
136.9028393197
 20
193.737734896
 10
138.1660393355
 20
192.8757596041999
 10
139.3219077266
 20
191.9323843015
  0
LINE
  5
35E
330
223
100
AcDbEntity
  8
0
  6
Continuous
 62
     7
100
AcDbLine
 10
122.1713965559
 20
198.3059982854
 30
0.0
 11
122.2927270988
 21
198.2945463712
 31
0.0
  0
LWPOLYLINE
  5
35F
330
223
100
AcDbEntity
  8
0
  6
Continuous
 62
     7
100
AcDbPolyline
 90
       10
 70
     0
 43
0.0
 10
122.2927270988
 20
198.2945463712
 10
124.8282533992
 20
197.976610862
 10
127.1778899552
 20
197.5556908221
 10
129.3786404315
 20
197.0257789026
 10
131.4874560496
 20
196.3558760199
 10
133.4450274741
 20
195.5663323279
 10
135.2758535703
 20
194.6731863482
 10
136.9737772824
 20
193.6929787342
 10
138.5426409477
 20
192.5869610137
 10
139.2079523678
 20
192.0328494953
  0
LWPOLYLINE
  5
360
330
223
100
AcDbEntity
  8
06___PRT_ALL_SURFS
  6
Continuous
 62
     6
100
AcDbPolyline
 90
       15
 70
     0
 43
0.0
 10
139.9156901249
 20
193.8916957765
 10
138.8534179501
 20
194.6095783398
 10
137.7264646952
 20
195.2807758473
 10
136.5335092118
 20
195.9051280467
 10
135.2786411413
 20
196.4805453433
 10
133.9628557575
 20
197.0077844131
 10
132.5863863548
 20
197.4890727395
 10
131.1535080549
 20
197.9251896866
 10
129.6621820868
 20
198.3172784303
 10
128.113803433
 20
198.6643385954
 10
126.5061948454
 20
198.9657007685
 10
124.8393968855
 20
199.2205557472999
 10
123.1119891271
 20
199.428539848
 10
121.3212176312
 20
199.5894031966999
 10
119.472863647
 20
199.7024590314
  0
LINE
  5
361
330
223
100
AcDbEntity
  8
0
  6
Continuous
 62
     7
100
AcDbLine
 10
143.3349101603
 20
188.1903382874
 30
0.0
 11
142.9559294305
 21
188.5902101457
 31
0.0
  0
LWPOLYLINE
  5
362
330
223
100
AcDbEntity
  8
06___PRT_ALL_SURFS
  6
Continuous
 62
     6
100
AcDbPolyline
 90
       15
 70
     0
 43
0.0
 10
142.5967265366
 20
194.3295849208
 10
141.4520620054
 20
195.2448199563
 10
140.2259461134
 20
196.1041658068
 10
138.9175360912
 20
196.9049767356
 10
137.5288880133
 20
197.6442543348
 10
136.0627050444
 20
198.3204515392
 10
134.5203308576
 20
198.9342688225
 10
132.905778994
 20
199.4873060497
 10
131.2192218466
 20
199.9821939161
 10
129.4603121756
 20
200.4192510076
 10
127.6294446313
 20
200.7971051552
 10
125.7260868112
 20
201.1145765004
 10
123.7505272075
 20
201.3709675335
 10
121.6967006993
 20
201.5664193398
 10
119.5725879316
 20
201.6999783784
  0
LINE
  5
363
330
223
100
AcDbEntity
  8
03___PRT_ALL_CURVES
  6
Continuous
 62
     4
100
AcDbLine
 10
142.5967265289
 20
194.3295849124
 30
0.0
 11
142.5723649364
 21
194.3503382875
 31
0.0
  0
LINE
  5
364
330
223
100
AcDbEntity
  8
0
  6
Continuous
 62
     7
100
AcDbLine
 10
143.9218343463
 20
188.9403020717
 30
0.0
 11
142.9091332564
 21
189.9303382875
 31
0.0
  0
LINE
  5
365
330
223
100
AcDbEntity
  8
0
  6
Continuous
 62
     7
100
AcDbLine
 10
155.0478447931
 20
152.4076840629
 30
0.0
 11
155.7168644824
 21
177.9565152358
 31
0.0
  0
LINE
  5
366
330
223
100
AcDbEntity
  8
0
  6
Continuous
 62
     7
100
AcDbLine
 10
157.0464738581
 20
152.3553301663
 30
0.0
 11
157.7154940171
 21
177.9041792795
 31
0.0
  0
LINE
  5
367
330
223
100
AcDbEntity
  8
0
  6
Continuous
 62
     7
100
AcDbLine
 10
161.8020487706
 20
197.1103382875
 30
0.0
 11
161.6423649364
 21
196.5003382875
 31
0.0
  0
LINE
  5
368
330
223
100
AcDbEntity
  8
0
  6
Continuous
 62
     7
100
AcDbLine
 10
161.8920487706
 20
198.1003382875
 30
0.0
 11
161.8920487706
 21
197.1103382875
 31
0.0
  0
LINE
  5
369
330
223
100
AcDbEntity
  8
0
  6
Continuous
 62
     7
100
AcDbLine
 10
163.3827594488
 20
197.8138916781
 30
0.0
 11
163.184180805
 21
198.0124703218
 31
0.0
  0
ARC
  5
36A
330
223
100
AcDbEntity
  8
0
  6
Continuous
 62
     6
100
AcDbCircle
 10
-3567.161009462801
 20
212.941651969
 30
0.0
 40
3706.1947156736
100
AcDbArc
 50
359.5773141429
 51
359.7038582515001
  0
ARC
  5
36B
330
223
100
AcDbEntity
  8
03___PRT_ALL_CURVES
  6
Continuous
 62
     4
100
AcDbCircle
 10
115.0793469535
 20
110.5938077523
 30
0.0
 40
91.21932366780001
100
AcDbArc
 50
87.57805220709999
 51
88.0505869419
  0
ARC
  5
36C
330
223
100
AcDbEntity
  8
03___PRT_ALL_CURVES
  6
Continuous
 62
     4
100
AcDbCircle
 10
115.7089004049
 20
124.4633320159
 30
0.0
 40
77.3355968159
100
AcDbArc
 50
85.80803116140002
 51
87.6098263659
  0
ARC
  5
36D
330
223
100
AcDbEntity
  8
03___PRT_ALL_CURVES
  6
Continuous
 62
     4
100
AcDbCircle
 10
116.3444560234
 20
133.700314931
 30
0.0
 40
68.0768797538
100
AcDbArc
 50
85.48054823560001
 51
85.7732267893
  0
ARC
  5
36E
330
223
100
AcDbEntity
  8
03___PRT_ALL_CURVES
  6
Continuous
 62
     4
100
AcDbCircle
 10
116.4861331373
 20
135.4969424581
 30
0.0
 40
66.27467478159999
100
AcDbArc
 50
85.24562633690001
 51
85.48026013919999
  0
ARC
  5
36F
330
223
100
AcDbEntity
  8
0
  6
Continuous
 62
     7
100
AcDbCircle
 10
115.1523649364
 20
129.7993002761
 30
0.0
 40
65.3
100
AcDbArc
 50
82.1931159456
 51
83.1374812071
  0
ARC
  5
370
330
223
100
AcDbEntity
  8
0
  6
Continuous
 62
     7
100
AcDbCircle
 10
115.1617902949
 20
129.8733116365
 30
0.0
 40
65.2253943259
100
AcDbArc
 50
67.7121940967
 51
82.1924875871
  0
ARC
  5
371
330
223
100
AcDbEntity
  8
0
  6
Continuous
 62
     7
100
AcDbCircle
 10
115.6823649364
 20
130.3910911028
 30
0.0
 40
65.0
100
AcDbArc
 50
82.6281887582
 51
83.33314152689998
  0
ARC
  5
372
330
223
100
AcDbEntity
  8
0
  6
Continuous
 62
     7
100
AcDbCircle
 10
115.6912685656
 20
130.4644528072
 30
0.0
 40
64.926102272
100
AcDbArc
 50
68.12380728089999
 51
82.62767440399999
  0
ARC
  5
373
330
223
100
AcDbEntity
  8
03___PRT_ALL_CURVES
  6
Continuous
 62
     4
100
AcDbCircle
 10
116.6534101637
 20
137.4970715919
 30
0.0
 40
64.2675631059
100
AcDbArc
 50
84.8425806983
 51
85.24644848980001
  0
ARC
  5
374
330
223
100
AcDbEntity
  8
0
  6
Continuous
 62
     7
100
AcDbCircle
 10
111.7801625482
 20
138.0389638172
 30
0.0
 40
55.172340545
100
AcDbArc
 50
104.8023019124
 51
107.303855124
  0
ARC
  5
375
330
223
100
AcDbEntity
  8
0
  6
Continuous
 62
     7
100
AcDbCircle
 10
116.8872712271
 20
140.0635897189
 30
0.0
 40
61.6904028089
100
AcDbArc
 50
83.97467126269999
 51
84.84462601910001
  0
ARC
  5
376
330
223
100
AcDbEntity
  8
0
  6
Continuous
 62
     7
100
AcDbCircle
 10
111.4898963915
 20
138.1289579819
 30
0.0
 40
55.0413964843
100
AcDbArc
 50
90.3544561332
 51
90.55949755639998
  0
ARC
  5
377
330
223
100
AcDbEntity
  8
0
  6
Continuous
 62
     7
100
AcDbCircle
 10
111.634489771
 20
138.5770355167
 30
0.0
 40
54.6149087163
100
AcDbArc
 50
104.2691941794
 51
104.7987672037
  0
ARC
  5
378
330
223
100
AcDbEntity
  8
0
  6
Continuous
 62
     7
100
AcDbCircle
 10
111.4824366174
 20
138.5926333427
 30
0.0
 40
54.5776704652
100
AcDbArc
 50
90.5564198859
 51
93.03653637
  0
ARC
  5
379
330
223
100
AcDbEntity
  8
0
  6
Continuous
 62
     7
100
AcDbCircle
 10
111.5322446503
 20
138.9881825444
 30
0.0
 40
54.19124511149999
100
AcDbArc
 50
101.7608406824
 51
104.271570955
  0
ARC
  5
37A
330
223
100
AcDbEntity
  8
0
  6
Continuous
 62
     7
100
AcDbCircle
 10
111.4610904609
 20
139.0416209765
 30
0.0
 40
54.1281825204
100
AcDbArc
 50
93.0391487185
 51
93.79871897340001
  0
ARC
  5
37B
330
223
100
AcDbEntity
  8
0
  6
Continuous
 62
     7
100
AcDbCircle
 10
111.4672241432
 20
139.290453234
 30
0.0
 40
53.8820671178
100
AcDbArc
 50
101.3495434372
 51
101.7586665438
  0
ARC
  5
37C
330
223
100
AcDbEntity
  8
0
  6
Continuous
 62
     7
100
AcDbCircle
 10
111.4430022606
 20
139.3027188437
 30
0.0
 40
53.8664599316
100
AcDbArc
 50
93.79792089570001
 51
95.71255692799999
  0
ARC
  5
37D
330
223
100
AcDbEntity
  8
0
  6
Continuous
 62
     7
100
AcDbCircle
 10
111.4343181978
 20
139.4581727537
 30
0.0
 40
53.7111516895
100
AcDbArc
 50
99.23660764899999
 51
101.3503368041
  0
ARC
  5
37E
330
223
100
AcDbEntity
  8
0
  6
Continuous
 62
     7
100
AcDbCircle
 10
111.4253258378
 20
139.4864545066
 30
0.0
 40
53.6818772725
100
AcDbArc
 50
95.71330406340001
 51
96.59119694250001
  0
ARC
  5
37F
330
223
100
AcDbEntity
  8
0
  6
Continuous
 62
     7
100
AcDbCircle
 10
111.4159047681
 20
139.567185716
 30
0.0
 40
53.6005982701
100
AcDbArc
 50
96.5910984859
 51
99.23599484889999
  0
ARC
  5
380
330
223
100
AcDbEntity
  8
RUNDUNGEN
  6
Continuous
 62
     9
100
AcDbCircle
 10
115.7662096863
 20
145.6702084734
 30
0.0
 40
49.424287126
100
AcDbArc
 50
79.4885170705
 51
80.4023031026
  0
ARC
  5
381
330
223
100
AcDbEntity
  8
RUNDUNGEN
  6
Continuous
 62
     9
100
AcDbCircle
 10
115.792519638
 20
145.82626637
 30
0.0
 40
49.26602697749999
100
AcDbArc
 50
80.40221272649999
 51
81.46706808419999
  0
ARC
  5
382
330
223
100
AcDbEntity
  8
RUNDUNGEN
  6
Continuous
 62
     9
100
AcDbCircle
 10
115.8100711832
 20
145.9414058546
 30
0.0
 40
49.1495577418
100
AcDbArc
 50
81.46738646539999
 51
81.7069908694
  0
ARC
  5
383
330
223
100
AcDbEntity
  8
RUNDUNGEN
  6
Continuous
 62
     9
100
AcDbCircle
 10
115.6322855524
 20
145.6976495853
 30
0.0
 40
49.09524712029999
100
AcDbArc
 50
79.48793907619999
 51
81.7061494752
  0
ARC
  5
384
330
223
100
AcDbEntity
  8
0
  6
Continuous
 62
     7
100
AcDbCircle
 10
93.99243053940001
 20
152.8003382875
 30
0.0
 40
17.0
100
AcDbArc
 50
181.5
 51
270.0
  0
ARC
  5
385
330
223
100
AcDbEntity
  8
0
  6
Continuous
 62
     7
100
AcDbCircle
 10
93.9917449544
 20
152.8003382875
 30
0.0
 40
15.0
100
AcDbArc
 50
181.5
 51
270.0
  0
ARC
  5
386
330
223
100
AcDbEntity
  8
0
  6
Continuous
 62
     7
100
AcDbCircle
 10
104.8398125409
 20
143.8003382875
 30
0.0
 40
8.0
100
AcDbArc
 50
270.0
 51
359.0
  0
ARC
  5
387
330
223
100
AcDbEntity
  8
0
  6
Continuous
 62
     7
100
AcDbCircle
 10
104.8098079711
 20
143.8003382875
 30
0.0
 40
6.0
100
AcDbArc
 50
270.0
 51
359.0
  0
ARC
  5
388
330
223
100
AcDbEntity
  8
0
  6
Continuous
 62
     7
100
AcDbCircle
 10
118.8923649364
 20
129.7993002761
 30
0.0
 40
65.3
100
AcDbArc
 50
111.1437314997
 51
114.5222437575
  0
ARC
  5
389
330
223
100
AcDbEntity
  8
0
  6
Continuous
 62
     7
100
AcDbCircle
 10
118.3623649364
 20
130.3910911028
 30
0.0
 40
65.0
100
AcDbArc
 50
96.66685847309999
 51
113.9055891347
  0
ARC
  5
38A
330
223
100
AcDbEntity
  8
RUNDUNGEN
  6
Continuous
 62
     9
100
AcDbCircle
 10
118.0144577026
 20
131.4273671576
 30
0.0
 40
62.57354602189999
100
AcDbArc
 50
78.3524453677
 51
78.5734867119
  0
ARC
  5
38B
330
223
100
AcDbEntity
  8
RUNDUNGEN
  6
Continuous
 62
     9
100
AcDbCircle
 10
117.8466796611
 20
131.5871933568
 30
0.0
 40
62.41050516600001
100
AcDbArc
 50
78.39319511560001
 51
79.5439401209
  0
ARC
  5
38C
330
223
100
AcDbEntity
  8
RUNDUNGEN
  6
Continuous
 62
     9
100
AcDbCircle
 10
117.9132297982
 20
131.949298811
 30
0.0
 40
62.0423337426
100
AcDbArc
 50
79.6500415142
 51
80.9527906551
  0
ARC
  5
38D
330
223
100
AcDbEntity
  8
RUNDUNGEN
  6
Continuous
 62
     9
100
AcDbCircle
 10
118.3332336469
 20
132.4940701438
 30
0.0
 40
61.7923506638
100
AcDbArc
 50
84.1891836888
 51
86.02607099950001
  0
ARC
  5
38E
330
223
100
AcDbEntity
  8
RUNDUNGEN
  6
Continuous
 62
     9
100
AcDbCircle
 10
117.9545011866
 20
132.2070158658
 30
0.0
 40
61.7813330653
100
AcDbArc
 50
80.95300616880001
 51
82.2462965152
  0
ARC
  5
38F
330
223
100
AcDbEntity
  8
RUNDUNGEN
  6
Continuous
 62
     9
100
AcDbCircle
 10
118.1728305271
 20
132.3014161144
 30
0.0
 40
61.6854482768
100
AcDbArc
 50
78.5568374392
 51
85.8748173767
  0
ARC
  5
390
330
223
100
AcDbEntity
  8
RUNDUNGEN
  6
Continuous
 62
     9
100
AcDbCircle
 10
117.9701102473
 20
132.3185968169
 30
0.0
 40
61.6686663841
100
AcDbArc
 50
82.24667967989999
 51
82.45435752109999
  0
ARC
  5
391
330
223
100
AcDbEntity
  8
RUNDUNGEN
  6
Continuous
 62
     9
100
AcDbCircle
 10
117.9780414039
 20
132.379369552
 30
0.0
 40
61.6073784191
100
AcDbArc
 50
82.45424782399998
 51
83.5059380699
  0
ARC
  5
392
330
223
100
AcDbEntity
  8
RUNDUNGEN
  6
Continuous
 62
     9
100
AcDbCircle
 10
117.9838071808
 20
132.4245037102
 30
0.0
 40
61.5618897962
100
AcDbArc
 50
85.0716081508
 51
85.690319152
  0
ARC
  5
393
330
223
100
AcDbEntity
  8
RUNDUNGEN
  6
Continuous
 62
     9
100
AcDbCircle
 10
117.9836587851
 20
132.4274492178
 30
0.0
 40
61.55897192560001
100
AcDbArc
 50
83.5060716467
 51
83.8028095894
  0
ARC
  5
394
330
223
100
AcDbEntity
  8
RUNDUNGEN
  6
Continuous
 62
     9
100
AcDbCircle
 10
117.9853171339
 20
132.4426393958
 30
0.0
 40
61.54369149529999
100
AcDbArc
 50
83.80281784620001
 51
84.9529348637
  0
ARC
  5
395
330
223
100
AcDbEntity
  8
0
  6
Continuous
 62
     7
100
AcDbCircle
 10
124.2084711849
 20
165.5721592913
 30
0.0
 40
31.1899796827
100
AcDbArc
 50
129.191105115
 51
130.7256285479
  0
ARC
  5
396
330
223
100
AcDbEntity
  8
0
  6
Continuous
 62
     7
100
AcDbCircle
 10
140.0522993335
 20
152.8003382875
 30
0.0
 40
17.0
100
AcDbArc
 50
270.0
 51
358.5
  0
ARC
  5
397
330
223
100
AcDbEntity
  8
0
  6
Continuous
 62
     7
100
AcDbCircle
 10
140.0529849185
 20
152.8003382875
 30
0.0
 40
15.0
100
AcDbArc
 50
270.0
 51
358.5
  0
ARC
  5
398
330
223
100
AcDbEntity
  8
0
  6
Continuous
 62
     7
100
AcDbCircle
 10
129.204917332
 20
143.8003382875
 30
0.0
 40
8.0
100
AcDbArc
 50
181.0
 51
270.0
  0
ARC
  5
399
330
223
100
AcDbEntity
  8
0
  6
Continuous
 62
     7
100
AcDbCircle
 10
129.2349219018
 20
143.8003382875
 30
0.0
 40
6.0
100
AcDbArc
 50
181.0
 51
270.0
  0
ARC
  5
39A
330
223
100
AcDbEntity
  8
0
  6
Continuous
 62
     7
100
AcDbCircle
 10
77.32820806550001
 20
177.9303382875
 30
0.0
 40
1.0
100
AcDbArc
 50
1.5
 51
181.5
  0
ARC
  5
39B
330
223
100
AcDbEntity
  8
0
  6
Continuous
 62
     7
100
AcDbCircle
 10
81.22814686319999
 20
187.1310000021
 30
0.0
 40
12.6821756281
100
AcDbArc
 50
13.0435642691
 51
15.0129936215
  0
ARC
  5
39C
330
223
100
AcDbEntity
  8
0
  6
Continuous
 62
     7
100
AcDbCircle
 10
72.52236493640001
 20
196.0903382875
 30
0.0
 40
0.6
100
AcDbArc
 50
224.9087755826
 51
270.0
  0
ARC
  5
39D
330
223
100
AcDbEntity
  8
03___PRT_ALL_CURVES
  6
Continuous
 62
     4
100
AcDbCircle
 10
72.52236493640001
 20
196.0903382875
 30
0.0
 40
0.6
100
AcDbArc
 50
224.9087755826
 51
270.0
  0
ARC
  5
39E
330
223
100
AcDbEntity
  8
0
  6
Continuous
 62
     7
100
AcDbCircle
 10
71.0155238147
 20
197.4603382875
 30
0.0
 40
0.5
100
AcDbArc
 50
135.0000000002
 51
224.9087755826
  0
ARC
  5
39F
330
223
100
AcDbEntity
  8
03___PRT_ALL_CURVES
  6
Continuous
 62
     4
100
AcDbCircle
 10
71.0155238147
 20
197.4603382875
 30
0.0
 40
0.5
100
AcDbArc
 50
135.0000000002
 51
224.9087755826
  0
ARC
  5
3A0
330
223
100
AcDbEntity
  8
0
  6
Continuous
 62
     7
100
AcDbCircle
 10
71.07268110220001
 20
197.8003382875
 30
0.0
 40
0.3
100
AcDbArc
 50
90.0
 51
135.0000000002
  0
ARC
  5
3A1
330
223
100
AcDbEntity
  8
03___PRT_ALL_CURVES
  6
Continuous
 62
     4
100
AcDbCircle
 10
71.07268110220001
 20
197.8003382875
 30
0.0
 40
0.3
100
AcDbArc
 50
90.0
 51
135.0000000002
  0
ARC
  5
3A2
330
223
100
AcDbEntity
  8
0
  6
Continuous
 62
     7
100
AcDbCircle
 10
73.62440058439999
 20
194.4324103723
 30
0.0
 40
1.9
100
AcDbArc
 50
2.6524728447
 51
82.85999999999999
  0
ARC
  5
3A3
330
223
100
AcDbEntity
  8
03___PRT_ALL_CURVES
  6
Continuous
 62
     4
100
AcDbCircle
 10
73.62440058439999
 20
194.4324103723
 30
0.0
 40
1.9
100
AcDbArc
 50
2.6524728447
 51
82.85999999999999
  0
ARC
  5
3A4
330
223
100
AcDbEntity
  8
0
  6
Continuous
 62
     7
100
AcDbCircle
 10
75.27268110219999
 20
195.1103382875
 30
0.0
 40
0.59
100
AcDbArc
 50
208.0091655916
 51
270.0
  0
ARC
  5
3A5
330
223
100
AcDbEntity
  8
03___PRT_ALL_CURVES
  6
Continuous
 62
     4
100
AcDbCircle
 10
75.27268110219999
 20
195.1103382875
 30
0.0
 40
0.59
100
AcDbArc
 50
208.0091655916
 51
270.0
  0
ARC
  5
3A6
330
223
100
AcDbEntity
  8
0
  6
Continuous
 62
     7
100
AcDbCircle
 10
95.51843704360001
 20
190.2368671357
 30
0.0
 40
0.5000000005
100
AcDbArc
 50
107.3000931024
 51
111.1439243041
  0
ARC
  5
3A7
330
223
100
AcDbEntity
  8
RUNDUNGEN
  6
Continuous
 62
     9
100
AcDbCircle
 10
116.4435902959
 20
176.1649941454
 30
0.0
 40
18.4773096315
100
AcDbArc
 50
69.70055431850001
 51
70.5181086388
  0
ARC
  5
3A8
330
223
100
AcDbEntity
  8
0
  6
Continuous
 62
     7
100
AcDbCircle
 10
112.0881620055
 20
184.3003002046
 30
0.0
 40
15.0248308166
100
AcDbArc
 50
142.6252950276
 51
143.5775527696
  0
ARC
  5
3A9
330
223
100
AcDbEntity
  8
0
  6
Continuous
 62
     7
100
AcDbCircle
 10
114.1053192638
 20
184.5442015619
 30
0.0
 40
2.0
100
AcDbArc
 50
277.5686496733
 51
359.0
  0
ARC
  5
3AA
330
223
100
AcDbEntity
  8
0
  6
Continuous
 62
     7
100
AcDbCircle
 10
113.0701955399
 20
186.0703382875
 30
0.0
 40
1.5
100
AcDbArc
 50
181.0
 51
270.0
  0
ARC
  5
3AB
330
223
100
AcDbEntity
  8
0
  6
Continuous
 62
     7
100
AcDbCircle
 10
113.0701955399
 20
186.0703382875
 30
0.0
 40
1.0
100
AcDbArc
 50
181.0
 51
270.0
  0
ARC
  5
3AC
330
223
100
AcDbEntity
  8
0
  6
Continuous
 62
     7
100
AcDbCircle
 10
114.5004612956
 20
181.5703382875
 30
0.0
 40
1.0
100
AcDbArc
 50
97.56864967330001
 51
179.0
  0
ARC
  5
3AD
330
223
100
AcDbEntity
  8
0
  6
Continuous
 62
     7
100
AcDbCircle
 10
112.5050621996
 20
183.5703382875
 30
0.0
 40
1.0
100
AcDbArc
 50
90.0
 51
179.0
  0
ARC
  5
3AE
330
223
100
AcDbEntity
  8
0
  6
Continuous
 62
     7
100
AcDbCircle
 10
113.0929946068
 20
185.7303382875
 30
0.0
 40
1.0
100
AcDbArc
 50
181.0
 51
270.0
  0
ARC
  5
3AF
330
223
100
AcDbEntity
  8
RUNDUNGEN
  6
Continuous
 62
     9
100
AcDbCircle
 10
117.2612821216
 20
174.4194971719
 30
0.0
 40
19.1997439205
100
AcDbArc
 50
58.12304018239999
 51
60.87587427489999
  0
ARC
  5
3B0
330
223
100
AcDbEntity
  8
RUNDUNGEN
  6
Continuous
 62
     9
100
AcDbCircle
 10
120.6408825627
 20
179.7076934852
 30
0.0
 40
13.963501743
100
AcDbArc
 50
80.8811454045
 51
81.913711088
  0
ARC
  5
3B1
330
223
100
AcDbEntity
  8
0
  6
Continuous
 62
     7
100
AcDbCircle
 10
119.9394106091
 20
184.5442015619
 30
0.0
 40
2.0
100
AcDbArc
 50
181.0
 51
262.4313503267
  0
ARC
  5
3B2
330
223
100
AcDbEntity
  8
0
  6
Continuous
 62
     7
100
AcDbCircle
 10
120.974534333
 20
186.0703382875
 30
0.0
 40
1.5
100
AcDbArc
 50
270.0
 51
359.0
  0
ARC
  5
3B3
330
223
100
AcDbEntity
  8
0
  6
Continuous
 62
     7
100
AcDbCircle
 10
120.974534333
 20
186.0703382875
 30
0.0
 40
1.0
100
AcDbArc
 50
270.0
 51
359.0
  0
ARC
  5
3B4
330
223
100
AcDbEntity
  8
0
  6
Continuous
 62
     7
100
AcDbCircle
 10
119.5442685773
 20
181.5703382875
 30
0.0
 40
1.0
100
AcDbArc
 50
1.0
 51
82.4313503267
  0
ARC
  5
3B5
330
223
100
AcDbEntity
  8
0
  6
Continuous
 62
     7
100
AcDbCircle
 10
121.5396676733
 20
183.5703382875
 30
0.0
 40
1.0
100
AcDbArc
 50
1.0
 51
90.0
  0
ARC
  5
3B6
330
223
100
AcDbEntity
  8
0
  6
Continuous
 62
     7
100
AcDbCircle
 10
120.951735266
 20
185.7303382875
 30
0.0
 40
1.0
100
AcDbArc
 50
270.0
 51
359.0
  0
ARC
  5
3B7
330
223
100
AcDbEntity
  8
0
  6
Continuous
 62
     9
100
AcDbCircle
 10
121.3866613533
 20
186.7623461393
 30
0.0
 40
13.4081754886
100
AcDbArc
 50
141.8992341083
 51
142.2277542867
  0
ARC
  5
3B8
330
223
100
AcDbEntity
  8
0
  6
Continuous
 62
     9
100
AcDbCircle
 10
121.3475784539
 20
186.7929869185
 30
0.0
 40
13.3585133263
100
AcDbArc
 50
141.5868486357
 51
141.8992173266
  0
ARC
  5
3B9
330
223
100
AcDbEntity
  8
0
  6
Continuous
 62
     9
100
AcDbCircle
 10
120.7643216766
 20
186.4384094146
 30
0.0
 40
9.1885386523
100
AcDbArc
 50
184.5165245525
 51
185.2344828086
  0
ARC
  5
3BA
330
223
100
AcDbEntity
  8
0
  6
Continuous
 62
     7
100
AcDbCircle
 10
105.6168351436
 20
187.2208569268
 30
0.0
 40
6.7748422652
100
AcDbArc
 50
99.05250720120001
 51
107.3925675848
  0
ARC
  5
3BB
330
223
100
AcDbEntity
  8
0
  6
Continuous
 62
     9
100
AcDbCircle
 10
113.8685408182
 20
197.2549597766
 30
0.0
 40
2.879149189599999
100
AcDbArc
 50
147.4716786444
 51
149.1014077501
  0
ARC
  5
3BC
330
223
100
AcDbEntity
  8
0
  6
Continuous
 62
     7
100
AcDbCircle
 10
110.9322056313
 20
193.958321125
 30
0.0
 40
1.0
100
AcDbArc
 50
1.0
 51
89.86923015200002
  0
ARC
  5
3BD
330
223
100
AcDbEntity
  8
0
  6
Continuous
 62
     7
100
AcDbCircle
 10
110.8771344631
 20
198.0795414079
 30
0.0
 40
0.9999999998000001
100
AcDbArc
 50
0.9976128676
 51
52.0699128668
  0
ARC
  5
3BE
330
223
100
AcDbEntity
  8
0
  6
Continuous
 62
     9
100
AcDbCircle
 10
111.1113976698
 20
198.0833566981
 30
0.0
 40
0.7657059225000001
100
AcDbArc
 50
1.017683886799999
 51
9.260922519400001
  0
ARC
  5
3BF
330
223
100
AcDbEntity
  8
0
  6
Continuous
 62
     7
100
AcDbCircle
 10
116.8191080942
 20
196.7703382875
 30
0.0
 40
0.5
100
AcDbArc
 50
90.0
 51
179.0
  0
ARC
  5
3C0
330
223
100
AcDbEntity
  8
0
  6
Continuous
 62
     7
100
AcDbCircle
 10
117.2256217787
 20
196.7703382875
 30
0.0
 40
0.5
100
AcDbArc
 50
1.0
 51
90.0
  0
ARC
  5
3C1
330
223
100
AcDbEntity
  8
0
  6
Continuous
 62
     7
100
AcDbCircle
 10
111.1512450786
 20
192.8693069642
 30
0.0
 40
0.2999999914
100
AcDbArc
 50
0.9999726468000002
 51
90.3545897112
  0
ARC
  5
3C2
330
223
100
AcDbEntity
  8
0
  6
Continuous
 62
     9
100
AcDbCircle
 10
112.2141860594
 20
200.0491028494
 30
0.0
 40
1.4663524153
100
AcDbArc
 50
231.9169511736
 51
238.1803587394
  0
ARC
  5
3C3
330
223
100
AcDbEntity
  8
0
  6
Continuous
 62
     7
100
AcDbCircle
 10
112.3251311594
 20
199.9399425631
 30
0.0
 40
1.3575216933
100
AcDbArc
 50
224.6370362475
 51
232.1317148139
  0
ARC
  5
3C4
330
223
100
AcDbEntity
  8
0
  6
Continuous
 62
     9
100
AcDbCircle
 10
112.1374540421
 20
199.9567821622
 30
0.0
 40
1.163139884
100
AcDbArc
 50
123.9926586218
 51
127.7458389466
  0
ARC
  5
3C5
330
223
100
AcDbEntity
  8
0
  6
Continuous
 62
     7
100
AcDbCircle
 10
110.8243192542
 20
201.3066358857
 30
0.0
 40
1.0
100
AcDbArc
 50
311.535174921
 51
357.0823492746
  0
ARC
  5
3C6
330
223
100
AcDbEntity
  8
0
  6
Continuous
 62
     7
100
AcDbCircle
 10
119.1910163049
 20
198.7703382875
 30
0.0
 40
0.5
100
AcDbArc
 50
1.0
 51
90.0
  0
ARC
  5
3C7
330
223
100
AcDbEntity
  8
0
  6
Continuous
 62
     7
100
AcDbCircle
 10
114.853713568
 20
198.7703382875
 30
0.0
 40
0.5
100
AcDbArc
 50
90.0
 51
179.0
  0
ARC
  5
3C8
330
223
100
AcDbEntity
  8
0
  6
Continuous
 62
     7
100
AcDbCircle
 10
121.7223649364
 20
201.2303382875
 30
0.0
 40
0.5
100
AcDbArc
 50
57.85444986399999
 51
90.0
  0
ARC
  5
3C9
330
223
100
AcDbEntity
  8
0
  6
Continuous
 62
     7
100
AcDbCircle
 10
112.3223649364
 20
201.2303382875
 30
0.0
 40
0.5
100
AcDbArc
 50
90.0
 51
177.0843780303
  0
ARC
  5
3CA
330
223
100
AcDbEntity
  8
03___PRT_ALL_CURVES
  6
Continuous
 62
     4
100
AcDbCircle
 10
127.4194664914
 20
176.5214144208
 30
0.0
 40
23.3983088605
100
AcDbArc
 50
49.6386106886
 51
56.16152999819999
  0
ARC
  5
3CB
330
223
100
AcDbEntity
  8
03___PRT_ALL_CURVES
  6
Continuous
 62
     4
100
AcDbCircle
 10
127.8100470528
 20
176.9947698632
 30
0.0
 40
22.784681317
100
AcDbArc
 50
44.9248593027
 51
49.53566424279999
  0
ARC
  5
3CC
330
223
100
AcDbEntity
  8
0
  6
Continuous
 62
     9
100
AcDbCircle
 10
134.0087015195
 20
197.1529642965
 30
0.0
 40
11.2714863211
100
AcDbArc
 50
171.4716639105
 51
171.7074155767
  0
ARC
  5
3CD
330
223
100
AcDbEntity
  8
0
  6
Continuous
 62
     7
100
AcDbCircle
 10
123.1125242416
 20
193.958321125
 30
0.0
 40
1.0
100
AcDbArc
 50
90.13076984799999
 51
179.0
  0
ARC
  5
3CE
330
223
100
AcDbEntity
  8
0
  6
Continuous
 62
     7
100
AcDbCircle
 10
122.9190446779
 20
194.3336220421
 30
0.0
 40
0.3
100
AcDbArc
 50
90.2363708801
 51
179.0
  0
ARC
  5
3CF
330
223
100
AcDbEntity
  8
RUNDUNGEN
  6
Continuous
 62
     9
100
AcDbCircle
 10
128.1565114568
 20
190.5067788532
 30
0.0
 40
0.2431897879
100
AcDbArc
 50
57.7917224551
 51
63.0715687389
  0
ARC
  5
3D0
330
223
100
AcDbEntity
  8
RUNDUNGEN
  6
Continuous
 62
     9
100
AcDbCircle
 10
130.6000196901
 20
192.4776119319
 30
0.0
 40
0.2395386347
100
AcDbArc
 50
72.50493853520001
 51
78.5707428063
  0
ARC
  5
3D1
330
223
100
AcDbEntity
  8
RUNDUNGEN
  6
Continuous
 62
     9
100
AcDbCircle
 10
130.4017794045
 20
192.4956769507
 30
0.0
 40
0.2214904382
100
AcDbArc
 50
71.788268324
 51
78.08967142020001
  0
ARC
  5
3D2
330
223
100
AcDbEntity
  8
03___PRT_ALL_CURVES
  6
Continuous
 62
    40
100
AcDbCircle
 10
172.7404324077
 20
181.1718303707
 30
0.0
 40
31.0904738292
100
AcDbArc
 50
163.637693043
 51
165.5493427627
  0
ARC
  5
3D3
330
223
100
AcDbEntity
  8
03___PRT_ALL_CURVES
  6
Continuous
 62
    40
100
AcDbCircle
 10
155.6566751204
 20
179.1259094239
 30
0.0
 40
15.2979363893
100
AcDbArc
 50
140.4743017458
 51
141.0287808566
  0
ARC
  5
3D4
330
223
100
AcDbEntity
  8
03___PRT_ALL_CURVES
  6
Continuous
 62
    40
100
AcDbCircle
 10
154.9502447816
 20
179.6921717021
 30
0.0
 40
14.3925749278
100
AcDbArc
 50
141.0126668917
 51
142.2080225761
  0
ARC
  5
3D5
330
223
100
AcDbEntity
  8
03___PRT_ALL_CURVES
  6
Continuous
 62
    40
100
AcDbCircle
 10
154.0811054149
 20
180.3632643089
 30
0.0
 40
13.2945026049
100
AcDbArc
 50
142.1976938431
 51
143.9319890256
  0
ARC
  5
3D6
330
223
100
AcDbEntity
  8
0
  6
Continuous
 62
     7
100
AcDbCircle
 10
152.447069692
 20
185.1143246166
 30
0.0
 40
9.617344302599999
100
AcDbArc
 50
161.346736691
 51
168.875254699
  0
ARC
  5
3D7
330
223
100
AcDbEntity
  8
0
  6
Continuous
 62
     7
100
AcDbCircle
 10
156.7165218074
 20
177.9303382875
 30
0.0
 40
1.0
100
AcDbArc
 50
358.5
 51
178.5
  0
ARC
  5
3D8
330
223
100
AcDbEntity
  8
0
  6
Continuous
 62
     7
100
AcDbCircle
 10
160.4203292885
 20
194.4324103723
 30
0.0
 40
1.9
100
AcDbArc
 50
97.14
 51
177.3475271553
  0
ARC
  5
3D9
330
223
100
AcDbEntity
  8
0
  6
Continuous
 62
     7
100
AcDbCircle
 10
161.5223649364
 20
196.0903382875
 30
0.0
 40
0.6
100
AcDbArc
 50
270.0
 51
315.0912244174
  0
ARC
  5
3DA
330
223
100
AcDbEntity
  8
0
  6
Continuous
 62
     7
100
AcDbCircle
 10
158.7720487706
 20
195.1103382875
 30
0.0
 40
0.59
100
AcDbArc
 50
270.0
 51
331.9908344084
  0
ARC
  5
3DB
330
223
100
AcDbEntity
  8
0
  6
Continuous
 62
     7
100
AcDbCircle
 10
163.0292060582
 20
197.4603382875
 30
0.0
 40
0.5
100
AcDbArc
 50
315.0912244174
 51
44.99999999979999
  0
ARC
  5
3DC
330
223
100
AcDbEntity
  8
0
  6
Continuous
 62
     7
100
AcDbCircle
 10
162.9720487706
 20
197.8003382875
 30
0.0
 40
0.3
100
AcDbArc
 50
44.99999999979999
 51
90.0
  0
ARC
  5
3DD
330
223
100
AcDbEntity
  8
RUNDUNGEN
  6
Continuous
 62
     9
100
AcDbCircle
 10
143.6525557397
 20
221.8628939327
 30
0.0
 40
35.1885644649
100
AcDbArc
 50
240.5556179863999
 51
240.9788971114
  0
ARC
  5
3DE
330
223
100
AcDbEntity
  8
RUNDUNGEN
  6
Continuous
 62
     9
100
AcDbCircle
 10
130.5554801264
 20
201.6214900075
 30
0.0
 40
8.9097453821
100
AcDbArc
 50
269.3055370189
 51
269.6418428948
  0
ARC
  5
3DF
330
223
100
AcDbEntity
  8
RUNDUNGEN
  6
Continuous
 62
     9
100
AcDbCircle
 10
130.57146325
 20
200.8189990274
 30
0.0
 40
8.1135484834
100
AcDbArc
 50
269.2905483167
 51
270.7102054483
  0
ARC
  5
3E0
330
223
100
AcDbEntity
  8
RUNDUNGEN
  6
Continuous
 62
     9
100
AcDbCircle
 10
130.5487983471
 20
200.3341562229
 30
0.0
 40
7.6223951034
100
AcDbArc
 50
269.6315791306
 51
270.741834872
  0
ARC
  5
3E1
330
223
100
AcDbEntity
  8
0
  6
Continuous
 62
     7
100
AcDbCircle
 10
123.1734752099
 20
198.4163589213
 30
0.0
 40
0.9999999970999999
100
AcDbArc
 50
83.84489753670001
 51
178.9998369844
  0
ARC
  5
3E2
330
223
100
AcDbEntity
  8
0
  6
Continuous
 62
     7
100
AcDbCircle
 10
122.5204730619
 20
202.5003868495
 30
0.0
 40
0.9999999965
100
AcDbArc
 50
237.8544342905
 51
264.8414808926
  0
ARC
  5
3E3
330
223
100
AcDbEntity
  8
0
  6
Continuous
 62
     9
100
AcDbCircle
 10
122.7678364842
 20
198.332981778
 30
0.0
 40
0.8720964483999999
100
AcDbArc
 50
100.5837617316
 51
107.4124207269
  0
LINE
  5
3E4
330
223
100
AcDbEntity
  8
0
  6
Continuous
 62
     7
100
AcDbLine
 10
104.4992426639
 20
189.7457222002
 30
0.0
 11
104.547267146
 21
189.7847855705
 31
0.0
  0
SPLINE
  5
3E5
330
223
100
AcDbEntity
  8
0
  6
Continuous
 62
     7
100
AcDbSpline
210
0.0
220
0.0
230
1.0
 70
     8
 71
     3
 72
     9
 73
     5
 74
     0
 42
0.0000000001
 43
0.0000000001
 40
0.0
 40
0.0
 40
0.0
 40
0.0
 40
0.5122775578000001
 40
1.0
 40
1.0
 40
1.0
 40
1.0
 10
104.547267146
 20
189.7847855705
 30
0.0
 10
105.3728471999
 20
190.4549214625
 30
0.0
 10
107.0546245754
 20
191.6797784577
 30
0.0
 10
108.8718764168
 20
192.6957682204
 30
0.0
 10
109.7865891831
 20
193.1295540047
 30
0.0
  0
LINE
  5
3E6
330
223
100
AcDbEntity
  8
0
  6
Continuous
 62
     7
100
AcDbLine
 10
109.7865891831
 20
193.1295540047
 30
0.0
 11
109.7927972007
 21
193.1324968914
 31
0.0
  0
SPLINE
  5
3E7
330
223
100
AcDbEntity
  8
0
  6
Continuous
 62
     7
100
AcDbSpline
210
0.0
220
0.0
230
1.0
 70
     8
 71
     3
 72
     9
 73
     5
 74
     0
 42
0.0000000001
 43
0.0000000001
 40
0.0
 40
0.0
 40
0.0
 40
0.0
 40
0.4839523586000001
 40
1.0
 40
1.0
 40
1.0
 40
1.0
 10
110.0372693136
 20
193.1489605205
 30
0.0
 10
109.0433265825
 20
192.6519187262
 30
0.0
 10
107.0699481689
 20
191.4590642478
 30
0.0
 10
105.2814821946
 20
190.0079465992
 30
0.0
 10
104.4060972745
 20
189.209253811
 30
0.0
  0
SPLINE
  5
3E8
330
223
100
AcDbEntity
  8
RUNDUNGEN
  6
Continuous
 62
     9
100
AcDbSpline
210
0.0
220
0.0
230
1.0
 70
     8
 71
     3
 72
    10
 73
     6
 74
     0
 42
0.0000000001
 43
0.0000000001
 40
0.0
 40
0.0
 40
0.0
 40
0.0
 40
0.2400591394
 40
0.4852581818
 40
1.0
 40
1.0
 40
1.0
 40
1.0
 10
122.5952287526
 20
192.9637149445
 30
0.0
 10
123.0783930286
 20
192.8790771671
 30
0.0
 10
124.0467833398
 20
192.6559493413
 30
0.0
 10
125.9832971744
 20
191.9960666203
 30
0.0
 10
127.3734042121
 20
191.2789229276
 30
0.0
 10
128.2666483394
 20
190.7236050768
 30
0.0
  0
SPLINE
  5
3E9
330
223
100
AcDbEntity
  8
RUNDUNGEN
  6
Continuous
 62
     9
100
AcDbSpline
210
0.0
220
0.0
230
1.0
 70
     8
 71
     3
 72
     9
 73
     5
 74
     0
 42
0.0000000001
 43
0.0000000001
 40
0.0
 40
0.0
 40
0.0
 40
0.0
 40
0.2625894568
 40
1.0
 40
1.0
 40
1.0
 40
1.0
 10
127.4006073194
 20
190.7236147852
 30
0.0
 10
127.4763618313
 20
190.7205543791
 30
0.0
 10
127.7649420083
 20
190.7115635956
 30
0.0
 10
128.053957712
 20
190.713724685
 30
0.0
 10
128.2666376518
 20
190.7236050768
 30
0.0
  0
LINE
  5
3EA
330
223
100
AcDbEntity
  8
RUNDUNGEN
  6
Continuous
 62
     9
100
AcDbLine
 10
126.605860069
 20
191.1917668334
 30
0.0
 11
126.5454121539
 21
191.2252620015
 31
0.0
  0
LINE
  5
3EB
330
223
100
AcDbEntity
  8
RUNDUNGEN
  6
Continuous
 62
     9
100
AcDbLine
 10
126.5454121539
 20
191.2252620015
 30
0.0
 11
126.5380251179
 21
191.2293349021
 31
0.0
  0
SPLINE
  5
3EC
330
223
100
AcDbEntity
  8
RUNDUNGEN
  6
Continuous
 62
     9
100
AcDbSpline
210
0.0
220
0.0
230
1.0
 70
     8
 71
     3
 72
     9
 73
     5
 74
     0
 42
0.0000000001
 43
0.0000000001
 40
0.0
 40
0.0
 40
0.0
 40
0.0
 40
0.5105073593000001
 40
1.0
 40
1.0
 40
1.0
 40
1.0
 10
126.5380251179
 20
191.2293349021
 30
0.0
 10
125.9045175956
 20
191.5784340659
 30
0.0
 10
124.6214163519
 20
192.18945158
 30
0.0
 10
123.2666569003
 20
192.6222073591
 30
0.0
 10
122.5923335651
 20
192.7843864083
 30
0.0
  0
LINE
  5
3ED
330
223
100
AcDbEntity
  8
RUNDUNGEN
  6
Continuous
 62
     9
100
AcDbLine
 10
130.4474907266
 20
192.7123990852
 30
0.0
 11
130.403315162
 21
192.7214886416
 31
0.0
  0
LINE
  5
3EE
330
223
100
AcDbEntity
  8
RUNDUNGEN
  6
Continuous
 62
     9
100
AcDbLine
 10
129.1730263870999
 20
192.9613330649999
 30
0.0
 11
129.059757701
 21
192.9821267968
 31
0.0
  0
LINE
  5
3EF
330
223
100
AcDbEntity
  8
RUNDUNGEN
  6
Continuous
 62
     9
100
AcDbLine
 10
123.3995636349
 20
193.7477117609
 30
0.0
 11
123.2726280932
 21
193.7587897877
 31
0.0
  0
SPLINE
  5
3F0
330
223
100
AcDbEntity
  8
RUNDUNGEN
  6
Continuous
 62
     9
100
AcDbSpline
210
0.0
220
0.0
230
1.0
 70
     8
 71
     3
 72
    31
 73
    27
 74
     0
 42
0.0000000001
 43
0.0000000001
 40
0.0
 40
0.0
 40
0.0
 40
0.0
 40
0.0016211103
 40
0.0026948457
 40
0.0038973262
 40
0.0052253054
 40
0.0081373555
 40
0.0112744134
 40
0.0145585301
 40
0.017947563
 40
0.0249462586
 40
0.0321505108
 40
0.0394979378
 40
0.0544867252
 40
0.085172743
 40
0.1163821132
 40
0.147876167
 40
0.179534747
 40
0.2430906601
 40
0.3067436178
 40
0.3703529272
 40
0.4338494051
 40
0.4972012242
 40
0.6234384399000001
 40
0.7491623814000001
 40
1.0
 40
1.0
 40
1.0
 40
1.0
 10
128.2666391727
 20
190.7235974865
 30
0.0
 10
128.2699482011
 20
190.7239390068
 30
0.0
 10
128.2765757637
 20
190.726382883
 30
0.0
 10
128.2763988228
 20
190.7353102338
 30
0.0
 10
128.2738150796
 20
190.7421253456
 30
0.0
 10
128.2684405057
 20
190.7520017432
 30
0.0
 10
128.2595288827
 20
190.7642545305
 30
0.0
 10
128.2472196444
 20
190.7789420673
 30
0.0
 10
128.2335997808
 20
190.7937715375999
 30
0.0
 10
128.2140172989
 20
190.8138661014
 30
0.0
 10
128.1879855554
 20
190.8388887151
 30
0.0
 10
128.155300853
 20
190.8686811893
 30
0.0
 10
128.1097205028
 20
190.9086488107
 30
0.0
 10
128.0263401882
 20
190.9785673486
 30
0.0
 10
127.902498737
 20
191.0763623525
 30
0.0
 10
127.7491658693
 20
191.1913402966
 30
0.0
 10
127.5919399054
 20
191.3043865274
 30
0.0
 10
127.3782325286
 20
191.452511223
 30
0.0
 10
127.1059639103
 20
191.6319075536
 30
0.0
 10
126.7730451706
 20
191.8381301095
 30
0.0
 10
126.4348599255
 20
192.0353522675
 30
0.0
 10
126.0922189306
 20
192.2234489764
 30
0.0
 10
125.6306807442
 20
192.4616628907
 30
0.0
 10
125.0445080254
 20
192.7364192509
 30
0.0
 10
124.0889436005
 20
193.1263356037
 30
0.0
 10
123.3514471704
 20
193.3629792053
 30
0.0
 10
122.853859377
 20
193.4947203903
 30
0.0
  0
SPLINE
  5
3F1
330
223
100
AcDbEntity
  8
RUNDUNGEN
  6
Continuous
 62
     9
100
AcDbSpline
210
0.0
220
0.0
230
1.0
 70
     8
 71
     3
 72
     8
 73
     4
 74
     0
 42
0.0000000001
 43
0.0000000001
 40
0.0
 40
0.0
 40
0.0
 40
0.0
 40
1.0
 40
1.0
 40
1.0
 40
1.0
 10
122.9624282708
 20
193.7825194653
 30
0.0
 10
122.9020615389
 20
193.699642002
 30
0.0
 10
122.8633010731
 20
193.5968168482
 30
0.0
 10
122.8538601133
 20
193.494720401
 30
0.0
  0
SPLINE
  5
3F2
330
223
100
AcDbEntity
  8
RUNDUNGEN
  6
Continuous
 62
     9
100
AcDbSpline
210
0.0
220
0.0
230
1.0
 70
     8
 71
     3
 72
     8
 73
     4
 74
     0
 42
0.0000000001
 43
0.0000000001
 40
0.0
 40
0.0
 40
0.0
 40
0.0
 40
1.0
 40
1.0
 40
1.0
 40
1.0
 10
127.4128264305
 20
190.7125602645
 30
0.0
 10
127.4089589689
 20
190.7164603759
 30
0.0
 10
127.4048878235
 20
190.7201732470999
 30
0.0
 10
127.4006073538
 20
190.7236150064
 30
0.0
  0
SPLINE
  5
3F3
330
223
100
AcDbEntity
  8
RUNDUNGEN
  6
Continuous
 62
     9
100
AcDbSpline
210
0.0
220
0.0
230
1.0
 70
     8
 71
     3
 72
    19
 73
    15
 74
     0
 42
0.0000000001
 43
0.0000000001
 40
0.0
 40
0.0
 40
0.0
 40
0.0
 40
0.0036065643
 40
0.0092423037
 40
0.0185095634
 40
0.0295216299
 40
0.0416909599
 40
0.0546493461
 40
0.0820964272
 40
0.2021177759
 40
0.3294893095
 40
0.4603671738
 40
0.727902565
 40
1.0
 40
1.0
 40
1.0
 40
1.0
 10
130.6474860098
 20
192.7123995918
 30
0.0
 10
130.6480451508
 20
192.7124183994
 30
0.0
 10
130.6500684473
 20
192.7134072728
 30
0.0
 10
130.6456683236
 20
192.7150083891
 30
0.0
 10
130.6428765671
 20
192.7164684029
 30
0.0
 10
130.637846749
 20
192.7183250882
 30
0.0
 10
130.6326752142
 20
192.7202079703
 30
0.0
 10
130.6249261609
 20
192.7228690597
 30
0.0
 10
130.6013241354
 20
192.7306397046
 30
0.0
 10
130.5604850911
 20
192.7430143483
 30
0.0
 10
130.5041764055
 20
192.7594715108
 30
0.0
 10
130.4257215107
 20
192.781784519
 30
0.0
 10
130.3254859241
 20
192.8095474656
 30
0.0
 10
130.2446797126
 20
192.8314041161
 30
0.0
 10
130.2039093563
 20
192.8423273277
 30
0.0
  0
SPLINE
  5
3F4
330
223
100
AcDbEntity
  8
RUNDUNGEN
  6
Continuous
 62
     9
100
AcDbSpline
210
0.0
220
0.0
230
1.0
 70
     8
 71
     3
 72
    10
 73
     6
 74
     0
 42
0.0000000001
 43
0.0000000001
 40
0.0
 40
0.0
 40
0.0
 40
0.0
 40
0.2454265663
 40
0.4954036688000001
 40
1.0
 40
1.0
 40
1.0
 40
1.0
 10
130.2039093563
 20
192.8423273277
 30
0.0
 10
129.7511812859
 20
192.9636224289
 30
0.0
 10
128.8319250039
 20
193.1883670426
 30
0.0
 10
126.9646277522
 20
193.5892258225
 30
0.0
 10
125.5432074999
 20
193.8320099305
 30
0.0
 10
124.5893451388
 20
193.9689078373
 30
0.0
  0
SPLINE
  5
3F5
330
223
100
AcDbEntity
  8
RUNDUNGEN
  6
Continuous
 62
     9
100
AcDbSpline
210
0.0
220
0.0
230
1.0
 70
     8
 71
     3
 72
    10
 73
     6
 74
     0
 42
0.0000000001
 43
0.0000000001
 40
0.0
 40
0.0
 40
0.0
 40
0.0
 40
0.3946321144
 40
0.683741005
 40
1.0
 40
1.0
 40
1.0
 40
1.0
 10
124.7828099409
 20
194.2650752598
 30
0.0
 10
124.7339577571
 20
194.2665303247
 30
0.0
 10
124.6615069854
 20
194.1914604873
 30
0.0
 10
124.6130841665
 20
194.0819907199
 30
0.0
 10
124.5947433268
 20
194.0077016619
 30
0.0
 10
124.5893451446
 20
193.9689078375999
 30
0.0
  0
SPLINE
  5
3F6
330
223
100
AcDbEntity
  8
RUNDUNGEN
  6
Continuous
 62
     9
100
AcDbSpline
210
0.0
220
0.0
230
1.0
 70
     8
 71
     3
 72
    17
 73
    13
 74
     0
 42
0.0000000001
 43
0.0000000001
 40
0.0
 40
0.0
 40
0.0
 40
0.0
 40
0.2332740724
 40
0.3515958179999999
 40
0.4714097884
 40
0.5932258618999999
 40
0.7180351309000001
 40
0.7822112319
 40
0.8483754676
 40
0.9182532281999998
 40
0.9562869295
 40
1.0
 40
1.0
 40
1.0
 40
1.0
 10
126.5243127342
 20
191.1835463084
 30
0.0
 10
126.5914443352
 20
191.1456636021
 30
0.0
 10
126.6925608209
 20
191.0884496279
 30
0.0
 10
126.8282157771
 20
191.0118814494
 30
0.0
 10
126.9319318085
 20
190.9536564345
 30
0.0
 10
127.0378024357
 20
190.8948888522
 30
0.0
 10
127.1280526933
 20
190.8458776694
 30
0.0
 10
127.2027205396
 20
190.8066957904999
 30
0.0
 10
127.2617861156
 20
190.7769548719
 30
0.0
 10
127.3138783444
 20
190.7522774833
 30
0.0
 10
127.3602109178
 20
190.7337021578
 30
0.0
 10
127.3862042913
 20
190.7247015481
 30
0.0
 10
127.4006076755
 20
190.7236126564
 30
0.0
  0
SPLINE
  5
3F7
330
223
100
AcDbEntity
  8
RUNDUNGEN
  6
Continuous
 62
     9
100
AcDbSpline
210
0.0
220
0.0
230
1.0
 70
     8
 71
     3
 72
     9
 73
     5
 74
     0
 42
0.0000000001
 43
0.0000000001
 40
0.0
 40
0.0
 40
0.0
 40
0.0
 40
0.2449250959
 40
1.0
 40
1.0
 40
1.0
 40
1.0
 10
125.5290858806
 20
191.6884187859
 30
0.0
 10
125.5965560383
 20
191.6502650886
 30
0.0
 10
125.8718366501
 20
191.4941488265
 30
0.0
 10
126.1464987213
 20
191.3369416063
 30
0.0
 10
126.3546154394
 20
191.2195205793
 30
0.0
  0
SPLINE
  5
3F8
330
223
100
AcDbEntity
  8
RUNDUNGEN
  6
Continuous
 62
     9
100
AcDbSpline
210
0.0
220
0.0
230
1.0
 70
     8
 71
     3
 72
    14
 73
    10
 74
     0
 42
0.0000000001
 43
0.0000000001
 40
0.0
 40
0.0
 40
0.0
 40
0.0
 40
0.2265879821
 40
0.4611513581000001
 40
0.5831170374
 40
0.7102491178000001
 40
0.8465492540999999
 40
0.9211842897
 40
1.0
 40
1.0
 40
1.0
 40
1.0
 10
126.5814668374
 20
191.0925674347
 30
0.0
 10
126.6421134396
 20
191.0589813631
 30
0.0
 10
126.7658421979
 20
190.991166873
 30
0.0
 10
126.9236010451
 20
190.9078270395
 30
0.0
 10
127.0560122644
 20
190.8417148124
 30
0.0
 10
127.1627773359
 20
190.7917105149
 30
0.0
 10
127.2583258357
 20
190.7516470268
 30
0.0
 10
127.3424034127
 20
190.723874363
 30
0.0
 10
127.3887321007
 20
190.713533553
 30
0.0
 10
127.4128264643
 20
190.7125604468
 30
0.0
  0
SPLINE
  5
3F9
330
223
100
AcDbEntity
  8
RUNDUNGEN
  6
Continuous
 62
     9
100
AcDbSpline
210
0.0
220
0.0
230
1.0
 70
     8
 71
     3
 72
     9
 73
     5
 74
     0
 42
0.0000000001
 43
0.0000000001
 40
0.0
 40
0.0
 40
0.0
 40
0.0
 40
0.2624744998
 40
1.0
 40
1.0
 40
1.0
 40
1.0
 10
127.4128264643
 20
190.7125604468
 30
0.0
 10
127.4891847774
 20
190.7095036856
 30
0.0
 10
127.7801910268
 20
190.7005219422
 30
0.0
 10
128.0716277442
 20
190.7026861096
 30
0.0
 10
128.2861317638
 20
190.712548202
 30
0.0
  0
SPLINE
  5
3FA
330
223
100
AcDbEntity
  8
RUNDUNGEN
  6
Continuous
 62
     9
100
AcDbSpline
210
0.0
220
0.0
230
1.0
 70
     8
 71
     3
 72
    30
 73
    26
 74
     0
 42
0.0000000001
 43
0.0000000001
 40
0.0
 40
0.0
 40
0.0
 40
0.0
 40
0.0079307799
 40
0.0127752808
 40
0.0178817548
 40
0.0234533038
 40
0.029397997
 40
0.0356302953
 40
0.0487256781
 40
0.0624265124
 40
0.0765554774
 40
0.0910039763
 40
0.1057003172
 40
0.1356487779
 40
0.166138673
 40
0.1970141253
 40
0.2281748195
 40
0.2910964768
 40
0.354560098
 40
0.4183742907
 40
0.4824269753000001
 40
0.6110043372
 40
0.7400772536
 40
0.8696806122999999
 40
1.0
 40
1.0
 40
1.0
 40
1.0
 10
128.2861317638
 20
190.712548202
 30
0.0
 10
128.3000081408
 20
190.7132026211
 30
0.0
 10
128.3265596051
 20
190.7193499252
 30
0.0
 10
128.3346040813
 20
190.7528774599
 30
0.0
 10
128.3286366169
 20
190.7794738987
 30
0.0
 10
128.3178947016
 20
190.8066520246
 30
0.0
 10
128.3033602013
 20
190.8341675546
 30
0.0
 10
128.2801788177
 20
190.8719057219
 30
0.0
 10
128.2464564968
 20
190.9189876573
 30
0.0
 10
128.2016503217
 20
190.9749660149
 30
0.0
 10
128.153218251
 20
191.0310084706
 30
0.0
 10
128.1020620293
 20
191.0869525521
 30
0.0
 10
128.0305122333
 20
191.1617607733
 30
0.0
 10
127.9369242236
 20
191.2543280098
 30
0.0
 10
127.8201396495
 20
191.3636414424
 30
0.0
 10
127.6993301929
 20
191.4716981568
 30
0.0
 10
127.5333657896
 20
191.6144179701
 30
0.0
 10
127.3194756904
 20
191.7888750826
 30
0.0
 10
127.0551622892
 20
191.9917560715
 30
0.0
 10
126.783888371
 20
192.1886217838
 30
0.0
 10
126.4137633458
 20
192.4432167067
 30
0.0
 10
125.9380283581
 20
192.7456581721
 30
0.0
 10
125.349254356
 20
193.082973361
 30
0.0
 10
124.7431484088
 20
193.3947583866999
 30
0.0
 10
124.3292112353
 20
193.5847746191999
 30
0.0
 10
124.1196911686
 20
193.675379308
 30
0.0
  0
SPLINE
  5
3FB
330
223
100
AcDbEntity
  8
RUNDUNGEN
  6
Continuous
 62
     9
100
AcDbSpline
210
0.0
220
0.0
230
1.0
 70
     8
 71
     3
 72
     9
 73
     5
 74
     0
 42
0.0000000001
 43
0.0000000001
 40
0.0
 40
0.0
 40
0.0
 40
0.0
 40
0.5256287247
 40
1.0
 40
1.0
 40
1.0
 40
1.0
 10
130.319743913
 20
192.7362098509
 30
0.0
 10
130.3449667961
 20
192.7300439831
 30
0.0
 10
130.3930429708
 20
192.7190465923
 30
0.0
 10
130.4414933505
 20
192.7082635835
 30
0.0
 10
130.4648509589
 20
192.7063789623
 30
0.0
  0
LINE
  5
3FC
330
223
100
AcDbEntity
  8
RUNDUNGEN
  6
Continuous
 62
     9
100
AcDbLine
 10
130.4648509589
 20
192.7063789623
 30
0.0
 11
130.4710016874
 21
192.7060725229
 31
0.0
  0
SPLINE
  5
3FD
330
223
100
AcDbEntity
  8
RUNDUNGEN
  6
Continuous
 62
     9
100
AcDbSpline
210
0.0
220
0.0
230
1.0
 70
     8
 71
     3
 72
    23
 73
    19
 74
     0
 42
0.0000000001
 43
0.0000000001
 40
0.0
 40
0.0
 40
0.0
 40
0.0
 40
0.0091043969
 40
0.0143248565
 40
0.0174767765
 40
0.0218378433
 40
0.035853546
 40
0.055333655
 40
0.0784313552
 40
0.1040662029
 40
0.1604986685
 40
0.2215591548
 40
0.2857328304
 40
0.3521644349000001
 40
0.4203201738000001
 40
0.5604852813000001
 40
0.7044311623999999
 40
1.0
 40
1.0
 40
1.0
 40
1.0
 10
130.6720315437
 20
192.7060738452
 30
0.0
 10
130.6735689172
 20
192.7061029268999
 30
0.0
 10
130.6758312423
 20
192.7063147241
 30
0.0
 10
130.6791358157
 20
192.7069547347
 30
0.0
 10
130.67971738
 20
192.7093789729
 30
0.0
 10
130.6772207854
 20
192.7123591516
 30
0.0
 10
130.6721744179
 20
192.7160860786
 30
0.0
 10
130.6638403607
 20
192.720919357
 30
0.0
 10
130.6536147143
 20
192.7261785843
 30
0.0
 10
130.6375679695999
 20
192.7338188206
 30
0.0
 10
130.6154428763
 20
192.7435529047
 30
0.0
 10
130.5871104999
 20
192.7553348484
 30
0.0
 10
130.5570529227
 20
192.7673521838
 30
0.0
 10
130.5257621012
 20
192.7795090634
 30
0.0
 10
130.4823824456
 20
192.7959858584
 30
0.0
 10
130.4265739127
 20
192.8166052693
 30
0.0
 10
130.334451287
 20
192.8497483922
 30
0.0
 10
130.264352492
 20
192.8741732777
 30
0.0
 10
130.2171380082
 20
192.8903808008
 30
0.0
  0
SPLINE
  5
3FE
330
223
100
AcDbEntity
  8
RUNDUNGEN
  6
Continuous
 62
     9
100
AcDbSpline
210
0.0
220
0.0
230
1.0
 70
     8
 71
     3
 72
    12
 73
     8
 74
     0
 42
0.0000000001
 43
0.0000000001
 40
0.0
 40
0.0
 40
0.0
 40
0.0
 40
0.1183976328
 40
0.2406990226
 40
0.4904848452000001
 40
0.7440672817000001
 40
1.0
 40
1.0
 40
1.0
 40
1.0
 10
130.2171380082
 20
192.8903808008
 30
0.0
 10
130.0077384109
 20
192.96226232
 30
0.0
 10
129.5792941619
 20
193.1004051411
 30
0.0
 10
128.7005105138
 20
193.3630769984
 30
0.0
 10
127.5702953223
 20
193.6664524449
 30
0.0
 10
126.1875628412
 20
193.9898146473
 30
0.0
 10
125.2533517307
 20
194.1777696745
 30
0.0
 10
124.7828099406
 20
194.2650752575
 30
0.0
  0
LINE
  5
3FF
330
223
100
AcDbEntity
  8
RUNDUNGEN
  6
Continuous
 62
     9
100
AcDbLine
 10
122.8991804611
 20
194.5770260918
 30
0.0
 11
122.7724395636
 21
194.5953310592
 31
0.0
  0
LINE
  5
400
330
223
100
AcDbEntity
  8
RUNDUNGEN
  6
Continuous
 62
     9
100
AcDbLine
 10
122.7142747414
 20
194.2794231113
 30
0.0
 11
122.6183022163
 21
194.2933137818
 31
0.0
  0
SPLINE
  5
401
330
223
100
AcDbEntity
  8
RUNDUNGEN
  6
Continuous
 62
     9
100
AcDbSpline
210
0.0
220
0.0
230
1.0
 70
     8
 71
     3
 72
     9
 73
     5
 74
     0
 42
0.0000000001
 43
0.0000000001
 40
0.0
 40
0.0
 40
0.0
 40
0.0
 40
0.528052653
 40
1.0
 40
1.0
 40
1.0
 40
1.0
 10
130.4030918708
 20
192.7199772479
 30
0.0
 10
130.4108600927
 20
192.7183802296
 30
0.0
 10
130.4255893035
 20
192.7156675793
 30
0.0
 10
130.4404040583
 20
192.7125424415
 30
0.0
 10
130.4474906328
 20
192.7123976941
 30
0.0
  0
SPLINE
  5
402
330
223
100
AcDbEntity
  8
0
  6
Continuous
 62
     7
100
AcDbSpline
210
0.0
220
0.0
230
1.0
 70
     8
 71
     3
 72
    15
 73
    11
 74
     0
 42
0.0000000001
 43
0.0000000001
 40
0.0
 40
0.0
 40
0.0
 40
0.0
 40
0.1242187625
 40
0.2498511093
 40
0.3746717884000001
 40
0.4980683993000001
 40
0.6206006180000001
 40
0.7441440401000001
 40
0.8703091467
 40
1.0
 40
1.0
 40
1.0
 40
1.0
 10
152.2223649364
 20
194.5203382875
 30
0.0
 10
151.7821131456
 20
194.5203382875
 30
0.0
 10
150.8980189468
 20
194.4295290947
 30
0.0
 10
149.5907915273
 20
194.1826457125
 30
0.0
 10
148.3382899031
 20
193.7309291842
 30
0.0
 10
147.184667022
 20
193.0901286091
 30
0.0
 10
146.1549410929
 20
192.2718881722
 30
0.0
 10
145.2594275782
 20
191.2962318508
 30
0.0
 10
144.5005884284
 20
190.1811940056
 30
0.0
 10
144.0960053505
 20
189.3657194968
 30
0.0
 10
143.9218643946
 20
188.9403382868
 30
0.0
  0
SPLINE
  5
403
330
223
100
AcDbEntity
  8
0
  6
Continuous
 62
     7
100
AcDbSpline
210
0.0
220
0.0
230
1.0
 70
     8
 71
     3
 72
     9
 73
     5
 74
     0
 42
0.0000000001
 43
0.0000000001
 40
0.0
 40
0.0
 40
0.0
 40
0.0
 40
0.0693054309
 40
1.0
 40
1.0
 40
1.0
 40
1.0
 10
143.9218342069
 20
188.9403022077999
 30
0.0
 10
143.9077170668
 20
188.9234274317
 30
0.0
 10
143.704953874
 20
188.6791738175
 30
0.0
 10
143.5088235952
 20
188.4291803743
 30
0.0
 10
143.3349101602
 20
188.1903382871
 30
0.0
  0
SPLINE
  5
404
330
223
100
AcDbEntity
  8
0
  6
Continuous
 62
     7
100
AcDbSpline
210
0.0
220
0.0
230
1.0
 70
     8
 71
     3
 72
    17
 73
    13
 74
     0
 42
0.0000000001
 43
0.0000000001
 40
0.0
 40
0.0
 40
0.0
 40
0.0
 40
0.1225892565
 40
0.2508516067
 40
0.3817328329
 40
0.5112381543
 40
0.5743130404
 40
0.6358977425
 40
0.696033267
 40
0.755240738
 40
0.8743190737999999
 40
1.0
 40
1.0
 40
1.0
 40
1.0
 10
78.8726811022
 20
198.1003382875
 30
0.0
 10
79.6062761413
 20
198.1003382875
 30
0.0
 10
81.1076570268
 20
198.0836330057
 30
0.0
 10
83.38876485049999
 20
197.9191356487
 30
0.0
 10
85.6839840678
 20
197.514556475
 30
0.0
 10
87.5382829698
 20
196.9311465191
 30
0.0
 10
88.92018923459998
 20
196.2909915727
 30
0.0
 10
89.8739607957
 20
195.7270372974
 30
0.0
 10
90.7368672309
 20
195.0681532512
 30
0.0
 10
91.74949735549999
 20
194.0576972884
 30
0.0
 10
92.77173746059999
 20
192.5285810632
 30
0.0
 10
93.2825000853
 20
191.1425588891
 30
0.0
 10
93.47744313600001
 20
190.416166586
 30
0.0
  0
SPLINE
  5
405
330
223
100
AcDbEntity
  8
0
  6
Continuous
 62
     7
100
AcDbSpline
210
0.0
220
0.0
230
1.0
 70
     8
 71
     3
 72
     9
 73
     5
 74
     0
 42
0.0000000001
 43
0.0000000001
 40
0.0
 40
0.0
 40
0.0
 40
0.0
 40
0.4800885232
 40
1.0
 40
1.0
 40
1.0
 40
1.0
 10
93.5831064299
 20
189.9932635765999
 30
0.0
 10
93.7428365086
 20
189.3043049623
 30
0.0
 10
93.95883590309999
 20
187.8414050371
 30
0.0
 10
93.99768030610001
 20
186.3661183938
 30
0.0
 10
93.98431356459999
 20
185.6003382875
 30
0.0
  0
SPLINE
  5
406
330
223
100
AcDbEntity
  8
0
  6
Continuous
 62
     7
100
AcDbSpline
210
0.0
220
0.0
230
1.0
 70
     8
 71
     3
 72
    14
 73
    10
 74
     0
 42
0.0000000001
 43
0.0000000001
 40
0.0
 40
0.0
 40
0.0
 40
0.0
 40
0.1179291093
 40
0.2395150845
 40
0.3654673397999999
 40
0.4946315503000001
 40
0.6247963763000001
 40
0.7535178425
 40
1.0
 40
1.0
 40
1.0
 40
1.0
 10
142.5967265366
 20
194.3295849208
 30
0.0
 10
142.9496436383
 20
194.7265305546
 30
0.0
 10
143.7490731885
 20
195.4632158567
 30
0.0
 10
145.1556547451
 20
196.3327096372
 30
0.0
 10
146.7187993375
 20
197.0047736439
 30
0.0
 10
148.3860513855
 20
197.4976284435
 30
0.0
 10
150.1046625727
 20
197.8283312096
 30
0.0
 10
152.3698543084
 20
198.071194324
 30
0.0
 10
154.0619066749
 20
198.1003382875
 30
0.0
 10
155.1720487706
 20
198.1003382875
 30
0.0
  0
SPLINE
  5
407
330
223
100
AcDbEntity
  8
0
  6
Continuous
 62
     7
100
AcDbSpline
210
0.0
220
0.0
230
1.0
 70
     8
 71
     3
 72
    13
 73
     9
 74
     0
 42
0.0000000001
 43
0.0000000001
 40
0.0
 40
0.0
 40
0.0
 40
0.0
 40
0.249786835
 40
0.3744015238
 40
0.4987606027000001
 40
0.7471363015000002
 40
0.8724693232999999
 40
1.0
 40
1.0
 40
1.0
 40
1.0
 10
123.3627956719
 20
201.413189407
 30
0.0
 10
125.0818795868
 20
201.2316418033
 30
0.0
 10
127.6498609914
 20
200.8488628539
 30
0.0
 10
131.0130161247
 20
200.0639364626
 30
0.0
 10
134.3132335994
 20
199.08357062
 30
0.0
 10
137.5162683598
 20
197.7591743008
 30
0.0
 10
140.4999946973
 20
195.9794682944
 30
0.0
 10
141.9001466578
 20
194.9221847448
 30
0.0
 10
142.5723861695999
 20
194.3503202248
 30
0.0
  0
LINE
  5
408
330
223
100
AcDbEntity
  8
0
  6
Continuous
 62
     7
100
AcDbLine
 10
142.5723861695999
 20
194.3503202248
 30
0.0
 11
142.5967265366
 21
194.3295849208
 31
0.0
  0
SPLINE
  5
409
330
223
100
AcDbEntity
  8
0
  6
Continuous
 62
     7
100
AcDbSpline
210
0.0
220
0.0
230
1.0
 70
     8
 71
     3
 72
    11
 73
     7
 74
     0
 42
0.0000000001
 43
0.0000000001
 40
0.0
 40
0.0
 40
0.0
 40
0.0
 40
0.2448402673
 40
0.4926450408
 40
0.7448391334000001
 40
1.0
 40
1.0
 40
1.0
 40
1.0
 10
139.7671789363
 20
193.997557944
 30
0.0
 10
138.5992776776
 20
194.8227035751
 30
0.0
 10
136.0792072175
 20
196.2503219967
 30
0.0
 10
131.9887893636
 20
197.7656353285
 30
0.0
 10
127.6982946545
 20
198.8196011472
 30
0.0
 10
124.7623675377
 20
199.2508086363
 30
0.0
 10
123.2806956496
 20
199.4105951787
 30
0.0
  0
LINE
  5
40A
330
223
100
AcDbEntity
  8
0
  6
Continuous
 62
     7
100
AcDbLine
 10
143.9218643946
 20
188.9403382868
 30
0.0
 11
142.9091332591
 21
189.9303382861
 31
0.0
  0
SPLINE
  5
40B
330
223
100
AcDbEntity
  8
0
  6
Continuous
 62
     7
100
AcDbSpline
210
0.0
220
0.0
230
1.0
 70
     8
 71
     3
 72
    18
 73
    14
 74
     0
 42
0.0000000001
 43
0.0000000001
 40
0.0
 40
0.0
 40
0.0
 40
0.0
 40
0.1372423676
 40
0.2677455095
 40
0.3932621447
 40
0.5147657257000001
 40
0.6345224685000001
 40
0.6948115137000001
 40
0.7555752437000001
 40
0.8167618773999999
 40
0.8782299628
 40
0.9393958431999999
 40
1.0
 40
1.0
 40
1.0
 40
1.0
 10
90.83233636540001
 20
185.4903382875
 30
0.0
 10
90.82102427809999
 20
186.1384073365
 30
0.0
 10
90.6708229928
 20
187.4046022224
 30
0.0
 10
90.0836383628
 20
189.1783722974
 30
0.0
 10
89.2138553935
 20
190.7459801498
 30
0.0
 10
88.1094018191
 20
192.0933989432
 30
0.0
 10
86.9943797588
 20
192.9977810809
 30
0.0
 10
86.00621599850001
 20
193.5644416188
 30
0.0
 10
85.21734805820001
 20
193.9126291558
 30
0.0
 10
84.3911148817
 20
194.1783028472
 30
0.0
 10
83.54055913979999
 20
194.3577886114
 30
0.0
 10
82.68354537890001
 20
194.4797626108
 30
0.0
 10
82.10858603369999
 20
194.5203382875
 30
0.0
 10
81.82236493640001
 20
194.5203382875
 30
0.0
  0
SPLINE
  5
40C
330
223
100
AcDbEntity
  8
0
  6
Continuous
 62
     7
100
AcDbSpline
210
0.0
220
0.0
230
1.0
 70
     8
 71
     3
 72
     8
 73
     4
 74
     0
 42
0.0000000001
 43
0.0000000001
 40
0.0
 40
0.0
 40
0.0
 40
0.0
 40
1.0
 40
1.0
 40
1.0
 40
1.0
 10
111.3591567027
 20
198.9861299522
 30
0.0
 10
111.283583373
 20
199.0628329403
 30
0.0
 10
111.2168135757
 20
199.1499718809
 30
0.0
 10
111.1652843935
 20
199.2445203866
 30
0.0
  0
SPLINE
  5
40D
330
223
100
AcDbEntity
  8
0
  6
Continuous
 62
     7
100
AcDbSpline
210
0.0
220
0.0
230
1.0
 70
     8
 71
     3
 72
    11
 73
     7
 74
     0
 42
0.0000000001
 43
0.0000000001
 40
0.0
 40
0.0
 40
0.0
 40
0.0
 40
0.2498214716
 40
0.4998071806000001
 40
0.749849195
 40
1.0
 40
1.0
 40
1.0
 40
1.0
 10
111.1652843935
 20
199.2445203866
 30
0.0
 10
111.1218541889
 20
199.3242084542
 30
0.0
 10
111.0563656965
 20
199.4968080914
 30
0.0
 10
111.040511007
 20
199.7728997516
 30
0.0
 10
111.1048915124
 20
200.0412252589
 30
0.0
 10
111.1910588448
 20
200.203249964
 30
0.0
 10
111.2416155436
 20
200.2787623531
 30
0.0
  0
SPLINE
  5
40E
330
223
100
AcDbEntity
  8
0
  6
Continuous
 62
     7
100
AcDbSpline
210
0.0
220
0.0
230
1.0
 70
     8
 71
     3
 72
     8
 73
     4
 74
     0
 42
0.0000000001
 43
0.0000000001
 40
0.0
 40
0.0
 40
0.0
 40
0.0
 40
1.0
 40
1.0
 40
1.0
 40
1.0
 10
111.2416155436
 20
200.2787623531
 30
0.0
 10
111.3106138179
 20
200.3818194091
 30
0.0
 10
111.3945444022
 20
200.4758697045
 30
0.0
 10
111.487381895
 20
200.5581054545
 30
0.0
  0
LINE
  5
40F
330
223
100
AcDbEntity
  8
0
  6
Continuous
 62
     9
100
AcDbLine
 10
100.0967848135
 20
192.7521654858
 30
0.0
 11
100.1481703842
 21
193.4208012957
 31
0.0
  0
SPLINE
  5
410
330
223
100
AcDbEntity
  8
0
  6
Continuous
 62
     7
100
AcDbSpline
210
0.0
220
0.0
230
1.0
 70
     8
 71
     3
 72
     9
 73
     5
 74
     0
 42
0.0000000001
 43
0.0000000001
 40
0.0
 40
0.0
 40
0.0
 40
0.0
 40
0.2556876403
 40
1.0
 40
1.0
 40
1.0
 40
1.0
 10
99.54614685100001
 20
192.580847807
 30
0.0
 10
99.58369538319999
 20
192.6360973548
 30
0.0
 10
99.7313731138
 20
192.8516150306
 30
0.0
 10
99.88277466479999
 20
193.0646042136
 30
0.0
 10
99.9982629035
 20
193.2210558211
 30
0.0
  0
SPLINE
  5
411
330
223
100
AcDbEntity
  8
0
  6
Continuous
 62
     9
100
AcDbSpline
210
0.0
220
0.0
230
1.0
 70
     8
 71
     3
 72
     9
 73
     5
 74
     0
 42
0.0000000001
 43
0.0000000001
 40
0.0
 40
0.0
 40
0.0
 40
0.0
 40
0.2549671686
 40
1.0
 40
1.0
 40
1.0
 40
1.0
 10
122.1718386621
 20
198.3242931233
 30
0.0
 10
122.1885456596
 20
198.3251111393
 30
0.0
 10
122.2540009488
 20
198.3294209482
 30
0.0
 10
122.319236157
 20
198.3385265128
 30
0.0
 10
122.3669679887
 20
198.3490473485
 30
0.0
  0
SPLINE
  5
412
330
223
100
AcDbEntity
  8
0
  6
Continuous
 62
     9
100
AcDbSpline
210
0.0
220
0.0
230
1.0
 70
     8
 71
     3
 72
     9
 73
     5
 74
     0
 42
0.0000000001
 43
0.0000000001
 40
0.0
 40
0.0
 40
0.0
 40
0.0
 40
0.2557581486
 40
1.0
 40
1.0
 40
1.0
 40
1.0
 10
122.3669679887
 20
198.3490473485
 30
0.0
 10
122.3899916576
 20
198.354122122
 30
0.0
 10
122.4791650873
 20
198.3773119729
 30
0.0
 10
122.5647557764
 20
198.4165934616
 30
0.0
 10
122.6210831449
 20
198.4557594813999
 30
0.0
  0
SPLINE
  5
413
330
223
100
AcDbEntity
  8
0
  6
Continuous
 62
     9
100
AcDbSpline
210
0.0
220
0.0
230
1.0
 70
     8
 71
     3
 72
     9
 73
     5
 74
     0
 42
0.0000000001
 43
0.0000000001
 40
0.0
 40
0.0
 40
0.0
 40
0.0
 40
0.4767156677
 40
1.0
 40
1.0
 40
1.0
 40
1.0
 10
122.6210831449
 20
198.4557594813999
 30
0.0
 10
122.6737956329
 20
198.4924119722
 30
0.0
 10
122.7722713973
 20
198.5886831025
 30
0.0
 10
122.8318656654
 20
198.7120812087
 30
0.0
 10
122.8550583534
 20
198.7786302505
 30
0.0
  0
SPLINE
  5
414
330
223
100
AcDbEntity
  8
0
  6
Continuous
 62
     9
100
AcDbSpline
210
0.0
220
0.0
230
1.0
 70
     8
 71
     3
 72
     9
 73
     5
 74
     0
 42
0.0000000001
 43
0.0000000001
 40
0.0
 40
0.0
 40
0.0
 40
0.0
 40
0.4999969805
 40
1.0
 40
1.0
 40
1.0
 40
1.0
 10
111.3649073803
 20
189.5655065086
 30
0.0
 10
111.3980024393
 20
189.0205665192
 30
0.0
 10
111.4644700759
 20
187.9306977659999
 30
0.0
 10
111.5296361137
 20
186.8407460573
 30
0.0
 10
111.5642653918
 20
186.2958948041999
 30
0.0
  0
SPLINE
  5
415
330
223
100
AcDbEntity
  8
0
  6
Continuous
 62
     9
100
AcDbSpline
210
0.0
220
0.0
230
1.0
 70
     8
 71
     3
 72
     8
 73
     4
 74
     0
 42
0.0000000001
 43
0.0000000001
 40
0.0
 40
0.0
 40
0.0
 40
0.0
 40
1.0
 40
1.0
 40
1.0
 40
1.0
 10
139.1204891017
 20
185.6008832903
 30
0.0
 10
139.1190746662
 20
185.9574505964
 30
0.0
 10
139.1131363258
 20
186.313986759
 30
0.0
 10
139.1083500341
 20
186.6705247455
 30
0.0
  0
LINE
  5
416
330
223
100
AcDbEntity
  8
0
  6
Continuous
 62
     9
100
AcDbLine
 10
139.0467120661
 20
191.0412529192
 30
0.0
 11
139.0309798194
 21
192.1138833062
 31
0.0
  0
LINE
  5
417
330
223
100
AcDbEntity
  8
0
  6
Continuous
 62
     9
100
AcDbLine
 10
139.0309798194
 20
192.1138833062
 30
0.0
 11
139.0299860873
 21
192.1810721566
 31
0.0
  0
SPLINE
  5
418
330
223
100
AcDbEntity
  8
0
  6
Continuous
 62
     7
100
AcDbSpline
210
0.0
220
0.0
230
1.0
 70
     8
 71
     3
 72
    10
 73
     6
 74
     0
 42
0.0000000001
 43
0.0000000001
 40
0.0
 40
0.0
 40
0.0
 40
0.0
 40
0.1691242766
 40
0.4024748143
 40
1.0
 40
1.0
 40
1.0
 40
1.0
 10
139.5070035521
 20
193.3325576202
 30
0.0
 10
139.4951528924
 20
193.3027874808
 30
0.0
 10
139.4767351655
 20
193.2283313853
 30
0.0
 10
139.4468378151
 20
193.0413397062
 30
0.0
 10
139.4357112454
 20
192.8839307529
 30
0.0
 10
139.4303379202
 20
192.7708517056
 30
0.0
  0
SPLINE
  5
419
330
223
100
AcDbEntity
  8
0
  6
Continuous
 62
     9
100
AcDbSpline
210
0.0
220
0.0
230
1.0
 70
     8
 71
     3
 72
     9
 73
     5
 74
     0
 42
0.0000000001
 43
0.0000000001
 40
0.0
 40
0.0
 40
0.0
 40
0.0
 40
0.4924842476000001
 40
1.0
 40
1.0
 40
1.0
 40
1.0
 10
111.770889673
 20
201.009499897
 30
0.0
 10
111.7401531457
 20
200.9289238637
 30
0.0
 10
111.6511092672
 20
200.7744951086
 30
0.0
 10
111.5208780067
 20
200.6534382894
 30
0.0
 10
111.4481789682
 20
200.602320731
 30
0.0
  0
SPLINE
  5
41A
330
223
100
AcDbEntity
  8
0
  6
Continuous
 62
     7
100
AcDbSpline
210
0.0
220
0.0
230
1.0
 70
     8
 71
     3
 72
     9
 73
     5
 74
     0
 42
0.0000000001
 43
0.0000000001
 40
0.0
 40
0.0
 40
0.0
 40
0.0
 40
0.0656489206
 40
1.0
 40
1.0
 40
1.0
 40
1.0
 10
139.7671789363
 20
193.997557944
 30
0.0
 10
139.7615102423
 20
193.9829961399
 30
0.0
 10
139.6751979006
 20
193.7611682478
 30
0.0
 10
139.5892552367
 20
193.539190785
 30
0.0
 10
139.5070035521
 20
193.3325576202
 30
0.0
  0
SPLINE
  5
41B
330
223
100
AcDbEntity
  8
0
  6
Continuous
 62
     9
100
AcDbSpline
210
0.0
220
0.0
230
1.0
 70
     8
 71
     3
 72
    15
 73
    11
 74
     0
 42
0.0000000001
 43
0.0000000001
 40
0.0
 40
0.0
 40
0.0
 40
0.0
 40
0.1251935029
 40
0.2503344338
 40
0.3753962805
 40
0.5003629819
 40
0.6252695435
 40
0.7501900244
 40
0.8751054231999999
 40
1.0
 40
1.0
 40
1.0
 40
1.0
 10
122.930978957
 20
199.1914589031999
 30
0.0
 10
123.6684243894
 20
199.1071143377
 30
0.0
 10
125.1398448252
 20
198.909056981
 30
0.0
 10
127.331307653
 20
198.5159325320999
 30
0.0
 10
129.4989735441
 20
198.0120003225
 30
0.0
 10
131.6311876048
 20
197.3778419144
 30
0.0
 10
133.7150681381
 20
196.6016671532
 30
0.0
 10
135.7424184211
 20
195.6881706193
 30
0.0
 10
137.6935286856
 20
194.6202674082
 30
0.0
 10
138.9204244259
 20
193.784475777
 30
0.0
 10
139.5070158526
 20
193.332566008
 30
0.0
  0
SPLINE
  5
41C
330
223
100
AcDbEntity
  8
0
  6
Continuous
 62
     7
100
AcDbSpline
210
0.0
220
0.0
230
1.0
 70
     8
 71
     3
 72
    10
 73
     6
 74
     0
 42
0.0000000001
 43
0.0000000001
 40
0.0
 40
0.0
 40
0.0
 40
0.0
 40
0.2115077704
 40
0.5736609755
 40
1.0
 40
1.0
 40
1.0
 40
1.0
 10
99.5984204089
 20
193.284943845
 30
0.0
 10
99.56959494959999
 20
193.2427876229
 30
0.0
 10
99.5104618162
 20
193.1148379499
 30
0.0
 10
99.48894477280001
 20
192.8696984206
 30
0.0
 10
99.52060552849999
 20
192.6805970333
 30
0.0
 10
99.54613663149999
 20
192.5808726738
 30
0.0
  0
SPLINE
  5
41D
330
223
100
AcDbEntity
  8
0
  6
Continuous
 62
     9
100
AcDbSpline
210
0.0
220
0.0
230
1.0
 70
     8
 71
     3
 72
    17
 73
    13
 74
     0
 42
0.0000000001
 43
0.0000000001
 40
0.0
 40
0.0
 40
0.0
 40
0.0
 40
0.2308132202
 40
0.4325868127000001
 40
0.6045679446
 40
0.7461682232
 40
0.8568787252999999
 40
0.9362754598999998
 40
0.9641309153999999
 40
0.9840490726
 40
0.9960097382999999
 40
1.0
 40
1.0
 40
1.0
 40
1.0
 10
122.930978957
 20
199.1914589031999
 30
0.0
 10
122.9579959446
 20
199.2081414835
 30
0.0
 10
123.0085871329
 20
199.239476574
 30
0.0
 10
123.079183005
 20
199.2834541656
 30
0.0
 10
123.1392426254
 20
199.3211049774
 30
0.0
 10
123.1886904303
 20
199.3521773025
 30
0.0
 10
123.2271181074
 20
199.3766392884
 30
0.0
 10
123.252725752
 20
199.3925567443
 30
0.0
 10
123.2670916398
 20
199.4021531323
 30
0.0
 10
123.2746698873
 20
199.4062336661
 30
0.0
 10
123.2776843391
 20
199.4094803808
 30
0.0
 10
123.2807210888
 20
199.4100468382
 30
0.0
 10
123.2806956292
 20
199.4105951809
 30
0.0
  0
SPLINE
  5
41E
330
223
100
AcDbEntity
  8
0
  6
Continuous
 62
     7
100
AcDbSpline
210
0.0
220
0.0
230
1.0
 70
     8
 71
     3
 72
    14
 73
    10
 74
     0
 42
0.0000000001
 43
0.0000000001
 40
0.0
 40
0.0
 40
0.0
 40
0.0
 40
0.0879080787
 40
0.2074490104
 40
0.3320540988
 40
0.4604858153000001
 40
0.5921240534000001
 40
0.7263854304999999
 40
1.0
 40
1.0
 40
1.0
 40
1.0
 10
100.148170383
 20
193.4208012867
 30
0.0
 10
100.1599510474
 20
193.4361984526
 30
0.0
 10
100.2018795907
 20
193.3616269684
 30
0.0
 10
100.2263981841
 20
193.3148089193
 30
0.0
 10
100.2709098609
 20
193.2383678924
 30
0.0
 10
100.3153647715
 20
193.1681673901
 30
0.0
 10
100.3645261244
 20
193.0958245974
 30
0.0
 10
100.4342746099
 20
192.9996170777
 30
0.0
 10
100.4897838858
 20
192.9287234121
 30
0.0
 10
100.5273564796
 20
192.8815059432
 30
0.0
  0
SPLINE
  5
41F
330
223
100
AcDbEntity
  8
0
  6
Continuous
 62
     7
100
AcDbSpline
210
0.0
220
0.0
230
1.0
 70
     8
 71
     3
 72
    10
 73
     6
 74
     0
 42
0.0000000001
 43
0.0000000001
 40
0.0
 40
0.0
 40
0.0
 40
0.0
 40
0.2449816773
 40
0.4964231041
 40
1.0
 40
1.0
 40
1.0
 40
1.0
 10
139.1205639802
 20
185.5866201474
 30
0.0
 10
139.111310533
 20
185.6416112808
 30
0.0
 10
139.1065528023
 20
185.7549418514
 30
0.0
 10
139.0979881657
 20
185.9821893661
 30
0.0
 10
139.0948481224
 20
186.154122249
 30
0.0
 10
139.0934469614
 20
186.2687409737
 30
0.0
  0
SPLINE
  5
420
330
223
100
AcDbEntity
  8
0
  6
Continuous
 62
     9
100
AcDbSpline
210
0.0
220
0.0
230
1.0
 70
     8
 71
     3
 72
    13
 73
     9
 74
     0
 42
0.0000000001
 43
0.0000000001
 40
0.0
 40
0.0
 40
0.0
 40
0.0
 40
0.1252641708
 40
0.2504774588
 40
0.3756201954
 40
0.5006822924000001
 40
0.7504696537000001
 40
1.0
 40
1.0
 40
1.0
 40
1.0
 10
122.8550583534
 20
198.7786302505
 30
0.0
 10
123.5956922156
 20
198.695220147
 30
0.0
 10
125.0733791187
 20
198.4975137553
 30
0.0
 10
127.2741171485
 20
198.1036599854
 30
0.0
 10
129.4508196029
 20
197.5966849295
 30
0.0
 10
132.301208581
 20
196.7364722795
 30
0.0
 10
135.7310409059
 20
195.2823635438
 30
0.0
 10
138.2787322388
 20
193.7071137393
 30
0.0
 10
139.430276335
 20
192.769957568
 30
0.0
  0
SPLINE
  5
421
330
223
100
AcDbEntity
  8
0
  6
Continuous
 62
     9
100
AcDbSpline
210
0.0
220
0.0
230
1.0
 70
     8
 71
     3
 72
     9
 73
     5
 74
     0
 42
0.0000000001
 43
0.0000000001
 40
0.0
 40
0.0
 40
0.0
 40
0.0
 40
0.634591603
 40
1.0
 40
1.0
 40
1.0
 40
1.0
 10
122.8618480569
 20
198.8245090226
 30
0.0
 10
122.8735697745999
 20
198.9026557925
 30
0.0
 10
122.8942305723
 20
199.0252206645
 30
0.0
 10
122.9168223574
 20
199.1482204675
 30
0.0
 10
122.9309893316
 20
199.1914604058
 30
0.0
  0
SPLINE
  5
422
330
223
100
AcDbEntity
  8
0
  6
Continuous
 62
     9
100
AcDbSpline
210
0.0
220
0.0
230
1.0
 70
     8
 71
     3
 72
     8
 73
     4
 74
     0
 42
0.0000000001
 43
0.0000000001
 40
0.0
 40
0.0
 40
0.0
 40
0.0
 40
1.0
 40
1.0
 40
1.0
 40
1.0
 10
111.3749535021
 20
200.8344631646
 30
0.0
 10
111.4844950333
 20
200.86888938
 30
0.0
 10
111.589238056
 20
200.9258657849
 30
0.0
 10
111.6772666623
 20
200.9995914646
 30
0.0
  0
LINE
  5
423
330
223
100
AcDbEntity
  8
0
  6
Continuous
 62
     9
100
AcDbLine
 10
110.7659861258
 20
194.9465035724
 30
0.0
 11
110.7881447147
 21
194.9751784761
 31
0.0
  0
SPLINE
  5
424
330
223
100
AcDbEntity
  8
0
  6
Continuous
 62
     9
100
AcDbSpline
210
0.0
220
0.0
230
1.0
 70
     8
 71
     3
 72
     9
 73
     5
 74
     0
 42
0.0000000001
 43
0.0000000001
 40
0.0
 40
0.0
 40
0.0
 40
0.0
 40
0.2578411304
 40
1.0
 40
1.0
 40
1.0
 40
1.0
 10
110.8805038251
 20
195.0930005934
 30
0.0
 10
110.9628348902
 20
195.1968272387
 30
0.0
 10
111.2881677372
 20
195.5946576405
 30
0.0
 10
111.6365882123
 20
195.9738653571
 30
0.0
 10
111.9090207785
 20
196.2407934267
 30
0.0
  0
SPLINE
  5
425
330
223
100
AcDbEntity
  8
0
  6
Continuous
 62
     9
100
AcDbSpline
210
0.0
220
0.0
230
1.0
 70
     8
 71
     3
 72
     8
 73
     4
 74
     0
 42
0.0000000001
 43
0.0000000001
 40
0.0
 40
0.0
 40
0.0
 40
0.0
 40
1.0
 40
1.0
 40
1.0
 40
1.0
 10
111.3097354459
 20
198.8949111436
 30
0.0
 10
111.2307989296
 20
198.9569051568
 30
0.0
 10
111.1579349275
 20
199.0281071998
 30
0.0
 10
111.0963622302
 20
199.1073727928
 30
0.0
  0
SPLINE
  5
426
330
223
100
AcDbEntity
  8
0
  6
Continuous
 62
     9
100
AcDbSpline
210
0.0
220
0.0
230
1.0
 70
     8
 71
     3
 72
    11
 73
     7
 74
     0
 42
0.0000000001
 43
0.0000000001
 40
0.0
 40
0.0
 40
0.0
 40
0.0
 40
0.2497882637
 40
0.5008780404
 40
0.7514205736
 40
1.0
 40
1.0
 40
1.0
 40
1.0
 10
111.0963622302
 20
199.1073727928
 30
0.0
 10
111.0393743636
 20
199.1807361055
 30
0.0
 10
110.9431909994
 20
199.343788455
 30
0.0
 10
110.882703679
 20
199.62184011
 30
0.0
 10
110.9153823763
 20
199.9036618369
 30
0.0
 10
110.9906158839
 20
200.076043349
 30
0.0
 10
111.0369702396
 20
200.1560292324
 30
0.0
  0
SPLINE
  5
427
330
223
100
AcDbEntity
  8
0
  6
Continuous
 62
     9
100
AcDbSpline
210
0.0
220
0.0
230
1.0
 70
     8
 71
     3
 72
     9
 73
     5
 74
     0
 42
0.0000000001
 43
0.0000000001
 40
0.0
 40
0.0
 40
0.0
 40
0.0
 40
0.2521432293
 40
1.0
 40
1.0
 40
1.0
 40
1.0
 10
111.0369702396
 20
200.1560292324
 30
0.0
 10
111.0626530246
 20
200.2003456773
 30
0.0
 10
111.1755104538
 20
200.3697350233
 30
0.0
 10
111.3258835806
 20
200.5121875104
 30
0.0
 10
111.4481754766
 20
200.6023234736
 30
0.0
  0
SPLINE
  5
428
330
223
100
AcDbEntity
  8
0
  6
Continuous
 62
     9
100
AcDbSpline
210
0.0
220
0.0
230
1.0
 70
     8
 71
     3
 72
     9
 73
     5
 74
     0
 42
0.0000000001
 43
0.0000000001
 40
0.0
 40
0.0
 40
0.0
 40
0.0
 40
0.5810323298000001
 40
1.0
 40
1.0
 40
1.0
 40
1.0
 10
111.3980076129
 20
198.7334609561
 30
0.0
 10
111.3617601984
 20
198.6727994383
 30
0.0
 10
111.3046310338
 20
198.5657994101
 30
0.0
 10
111.2600634784
 20
198.4505684077
 30
0.0
 10
111.2529361021
 20
198.4001138221
 30
0.0
  0
SPLINE
  5
429
330
223
100
AcDbEntity
  8
0
  6
Continuous
 62
     9
100
AcDbSpline
210
0.0
220
0.0
230
1.0
 70
     8
 71
     3
 72
    11
 73
     7
 74
     0
 42
0.0000000001
 43
0.0000000001
 40
0.0
 40
0.0
 40
0.0
 40
0.0
 40
0.3149490344
 40
0.5610727049000001
 40
0.7659203134999999
 40
1.0
 40
1.0
 40
1.0
 40
1.0
 10
111.2529361021
 20
198.4001138221
 30
0.0
 10
111.2513631646
 20
198.3889790221
 30
0.0
 10
111.2499198859
 20
198.3689118053
 30
0.0
 10
111.2555804365
 20
198.3413359273
 30
0.0
 10
111.2738835943
 20
198.3224583489
 30
0.0
 10
111.2909210228
 20
198.3217094957
 30
0.0
 10
111.2991813247
 20
198.3229829434
 30
0.0
  0
SPLINE
  5
42A
330
223
100
AcDbEntity
  8
0
  6
Continuous
 62
     9
100
AcDbSpline
210
0.0
220
0.0
230
1.0
 70
     8
 71
     3
 72
     8
 73
     4
 74
     0
 42
0.0000000001
 43
0.0000000001
 40
0.0
 40
0.0
 40
0.0
 40
0.0
 40
1.0
 40
1.0
 40
1.0
 40
1.0
 10
122.9309893316
 20
199.1914604058
 30
0.0
 10
122.8248556346
 20
199.2102179212
 30
0.0
 10
122.7136014893
 20
199.2100351642
 30
0.0
 10
122.6076561153
 20
199.1902416363
 30
0.0
  0
SPLINE
  5
42B
330
223
100
AcDbEntity
  8
0
  6
Continuous
 62
     9
100
AcDbSpline
210
0.0
220
0.0
230
1.0
 70
     8
 71
     3
 72
     9
 73
     5
 74
     0
 42
0.0000000001
 43
0.0000000001
 40
0.0
 40
0.0
 40
0.0
 40
0.0
 40
0.2557035316
 40
1.0
 40
1.0
 40
1.0
 40
1.0
 10
122.8550646264
 20
198.7786296819
 30
0.0
 10
122.8250741321
 20
198.7845106713
 30
0.0
 10
122.7071280663
 20
198.8039804187
 30
0.0
 10
122.5869753901
 20
198.8103060123
 30
0.0
 10
122.498076133
 20
198.8070662127
 30
0.0
  0
SPLINE
  5
42C
330
223
100
AcDbEntity
  8
0
  6
Continuous
 62
     9
100
AcDbSpline
210
0.0
220
0.0
230
1.0
 70
     8
 71
     3
 72
     9
 73
     5
 74
     0
 42
0.0000000001
 43
0.0000000001
 40
0.0
 40
0.0
 40
0.0
 40
0.0
 40
0.2629533819
 40
1.0
 40
1.0
 40
1.0
 40
1.0
 10
122.498076133
 20
198.8070662127
 30
0.0
 10
122.4748746081
 20
198.806220668
 30
0.0
 10
122.3867553215
 20
198.8008880174
 30
0.0
 10
122.298967573
 20
198.7869099192
 30
0.0
 10
122.2360670824
 20
198.7702241255
 30
0.0
  0
SPLINE
  5
42D
330
223
100
AcDbEntity
  8
0
  6
Continuous
 62
     9
100
AcDbSpline
210
0.0
220
0.0
230
1.0
 70
     8
 71
     3
 72
     9
 73
     5
 74
     0
 42
0.0000000001
 43
0.0000000001
 40
0.0
 40
0.0
 40
0.0
 40
0.0
 40
0.398768317
 40
1.0
 40
1.0
 40
1.0
 40
1.0
 10
111.3749531592
 20
200.8344653126
 30
0.0
 10
111.3719793301
 20
200.8018382697
 30
0.0
 10
111.3846936123
 20
200.7186331328
 30
0.0
 10
111.4211437121
 20
200.6436670312
 30
0.0
 10
111.4481754766
 20
200.6023234736
 30
0.0
  0
SPLINE
  5
42E
330
223
100
AcDbEntity
  8
0
  6
Continuous
 62
     9
100
AcDbSpline
210
0.0
220
0.0
230
1.0
 70
     8
 71
     3
 72
     9
 73
     5
 74
     0
 42
0.0000000001
 43
0.0000000001
 40
0.0
 40
0.0
 40
0.0
 40
0.0
 40
0.4900095786
 40
1.0
 40
1.0
 40
1.0
 40
1.0
 10
111.8087564925
 20
198.4007266064
 30
0.0
 10
111.7719639874
 20
198.482972242
 30
0.0
 10
111.6678902017
 20
198.638936574
 30
0.0
 10
111.5217373375
 20
198.7553489472
 30
0.0
 10
111.4410550173
 20
198.8031395643
 30
0.0
  0
SPLINE
  5
42F
330
223
100
AcDbEntity
  8
0
  6
Continuous
 62
     9
100
AcDbSpline
210
0.0
220
0.0
230
1.0
 70
     8
 71
     3
 72
     9
 73
     5
 74
     0
 42
0.0000000001
 43
0.0000000001
 40
0.0
 40
0.0
 40
0.0
 40
0.0
 40
0.5214348006
 40
1.0
 40
1.0
 40
1.0
 40
1.0
 10
106.3910659431
 20
199.2834048789
 30
0.0
 10
107.2053743323
 20
199.6893426535
 30
0.0
 10
108.8420053374
 20
200.3199920661
 30
0.0
 10
110.5484684036
 20
200.7146293479
 30
0.0
 10
111.3749042865
 20
200.8344410481
 30
0.0
  0
SPLINE
  5
430
330
223
100
AcDbEntity
  8
0
  6
Continuous
 62
     9
100
AcDbSpline
210
0.0
220
0.0
230
1.0
 70
     8
 71
     3
 72
     9
 73
     5
 74
     0
 42
0.0000000001
 43
0.0000000001
 40
0.0
 40
0.0
 40
0.0
 40
0.0
 40
0.2724154791
 40
1.0
 40
1.0
 40
1.0
 40
1.0
 10
111.7325771367
 20
201.0580612837
 30
0.0
 10
111.7094689257
 20
201.0472034239
 30
0.0
 10
111.6252932837
 20
201.0060164412
 30
0.0
 10
111.5436474531
 20
200.9593510701
 30
0.0
 10
111.4871580338
 20
200.9211521593
 30
0.0
  0
SPLINE
  5
431
330
223
100
AcDbEntity
  8
0
  6
Continuous
 62
     9
100
AcDbSpline
210
0.0
220
0.0
230
1.0
 70
     8
 71
     3
 72
     8
 73
     4
 74
     0
 42
0.0000000001
 43
0.0000000001
 40
0.0
 40
0.0
 40
0.0
 40
0.0
 40
1.0
 40
1.0
 40
1.0
 40
1.0
 10
111.425426499
 20
200.876516454
 30
0.0
 10
111.4081298359
 20
200.863089494
 30
0.0
 10
111.3912439645
 20
200.8491045464
 30
0.0
 10
111.3749596324
 20
200.8344662971
 30
0.0
  0
SPLINE
  5
432
330
223
100
AcDbEntity
  8
0
  6
Continuous
 62
     7
100
AcDbSpline
210
0.0
220
0.0
230
1.0
 70
     8
 71
     3
 72
    16
 73
    12
 74
     0
 42
0.0000000001
 43
0.0000000001
 40
0.0
 40
0.0
 40
0.0
 40
0.0
 40
0.1979732701
 40
0.3828994469
 40
0.5499905824
 40
0.6939595832
 40
0.8088535807999999
 40
0.8536325886
 40
0.8899526482999998
 40
0.9433657058999999
 40
1.0
 40
1.0
 40
1.0
 40
1.0
 10
139.4303379202
 20
192.7708517056
 30
0.0
 10
139.4276680394
 20
192.7146333348
 30
0.0
 10
139.4212262512
 20
192.6059513225
 30
0.0
 10
139.407000805
 20
192.4502198372
 30
0.0
 10
139.3881915441
 20
192.3103851699
 30
0.0
 10
139.3642240585
 20
192.1916402299
 30
0.0
 10
139.3392534505
 20
192.1086367412
 30
0.0
 10
139.3139438715
 20
192.0586347529999
 30
0.0
 10
139.2919828861
 20
192.0276319142
 30
0.0
 10
139.2511071654
 20
192.0038788202
 30
0.0
 10
139.2201380296
 20
192.0223643616
 30
0.0
 10
139.2079476597
 20
192.0328820713
 30
0.0
  0
SPLINE
  5
433
330
223
100
AcDbEntity
  8
0
  6
Continuous
 62
     9
100
AcDbSpline
210
0.0
220
0.0
230
1.0
 70
     8
 71
     3
 72
     9
 73
     5
 74
     0
 42
0.0000000001
 43
0.0000000001
 40
0.0
 40
0.0
 40
0.0
 40
0.0
 40
0.5219473302000001
 40
1.0
 40
1.0
 40
1.0
 40
1.0
 10
109.7843077352
 20
194.8064490045999
 30
0.0
 10
110.1000705459
 20
195.2525878987
 30
0.0
 10
110.7609099191
 20
196.0687382797999
 30
0.0
 10
111.5121703304
 20
196.8024759607
 30
0.0
 10
111.8936578947
 20
197.1266338753
 30
0.0
  0
SPLINE
  5
434
330
223
100
AcDbEntity
  8
03___PRT_ALL_CURVES
  6
Continuous
 62
    40
100
AcDbSpline
210
0.0
220
0.0
230
1.0
 70
     8
 71
     3
 72
    10
 73
     6
 74
     0
 42
0.0000000001
 43
0.0000000001
 40
0.0
 40
0.0
 40
0.0
 40
0.0
 40
0.3333117779
 40
0.6666235558000001
 40
1.0
 40
1.0
 40
1.0
 40
1.0
 10
143.5767155222
 20
188.5119815389
 30
0.0
 10
143.6488144086
 20
188.6049708035
 30
0.0
 10
143.7746539574
 20
188.7625044238
 30
0.0
 10
143.8943825944
 20
188.9074950756
 30
0.0
 10
143.9218651824
 20
188.9403391797
 30
0.0
 10
143.9218643944
 20
188.940338287
 30
0.0
  0
SPLINE
  5
435
330
223
100
AcDbEntity
  8
03___PRT_ALL_CURVES
  6
Continuous
 62
     4
100
AcDbSpline
210
0.0
220
0.0
230
1.0
 70
     8
 71
     3
 72
    10
 73
     6
 74
     0
 42
0.0000000001
 43
0.0000000001
 40
0.0
 40
0.0
 40
0.0
 40
0.0
 40
0.2612382068
 40
0.5191208239
 40
1.0
 40
1.0
 40
1.0
 40
1.0
 10
142.5723649364
 20
194.3503382875
 30
0.0
 10
141.0842979715
 20
195.6162133241999
 30
0.0
 10
137.9034155111
 20
197.6700815059
 30
0.0
 10
131.189406776
 20
200.2703130998
 30
0.0
 10
125.8932654632
 20
201.1918333305
 30
0.0
 10
122.4305782536
 20
201.5044461392
 30
0.0
  0
SPLINE
  5
436
330
223
100
AcDbEntity
  8
0
  6
Continuous
 62
     6
100
AcDbSpline
210
0.0
220
0.0
230
1.0
 70
     8
 71
     3
 72
    15
 73
    11
 74
     0
 42
0.0000000001
 43
0.0000000001
 40
0.0
 40
0.0
 40
0.0
 40
0.0
 40
0.2060590398
 40
0.3646317856
 40
0.4653899441
 40
0.4999999211
 40
0.5345191943
 40
0.6350997827000001
 40
0.7936044147
 40
1.0
 40
1.0
 40
1.0
 40
1.0
 10
141.181836306
 20
193.4389167182
 30
0.0
 10
141.3725647809
 20
193.5669236524
 30
0.0
 10
141.7002460594
 20
193.782239532
 30
0.0
 10
142.1807109431
 20
194.0806749167
 30
0.0
 10
142.3871310864
 20
194.2060588698
 30
0.0
 10
142.6502276678
 20
194.3611159613
 30
0.0
 10
142.3876758159
 20
194.2063806846
 30
0.0
 10
142.1812948373
 20
194.0810330478
 30
0.0
 10
141.700814314
 20
193.7826073838
 30
0.0
 10
141.3728758316
 20
193.5671323451
 30
0.0
 10
141.1818358467
 20
193.4389163484
 30
0.0
  0
SPLINE
  5
437
330
223
100
AcDbEntity
  8
0
  6
Continuous
 62
     6
100
AcDbSpline
210
0.0
220
0.0
230
1.0
 70
     8
 71
     3
 72
    12
 73
     8
 74
     0
 42
0.0000000001
 43
0.0000000001
 40
0.0
 40
0.0
 40
0.0
 40
0.0
 40
0.1682524362
 40
0.3601947261
 40
0.5651620478
 40
0.7788882182
 40
1.0
 40
1.0
 40
1.0
 40
1.0
 10
141.1818358467
 20
193.4389163484
 30
0.0
 10
141.1297264869
 20
193.4039528557
 30
0.0
 10
141.026470872
 20
193.3170024912
 30
0.0
 10
140.8797970966
 20
193.1654168658
 30
0.0
 10
140.7359006743
 20
192.9885203859
 30
0.0
 10
140.5992525455
 20
192.7926785778
 30
0.0
 10
140.5161625056
 20
192.6532002813
 30
0.0
 10
140.4765457397
 20
192.5808726744
 30
0.0
  0
SPLINE
  5
438
330
223
100
AcDbEntity
  8
0
  6
Continuous
 62
     6
100
AcDbSpline
210
0.0
220
0.0
230
1.0
 70
     8
 71
     3
 72
    11
 73
     7
 74
     0
 42
0.0000000001
 43
0.0000000001
 40
0.0
 40
0.0
 40
0.0
 40
0.0
 40
0.2165906988
 40
0.4556183547
 40
0.716319435
 40
1.0
 40
1.0
 40
1.0
 40
1.0
 10
140.4765457397
 20
192.5808726744
 30
0.0
 10
140.2228943922
 20
192.1254983751
 30
0.0
 10
139.7667735636
 20
191.1229160502
 30
0.0
 10
139.287120367
 20
189.4616120286
 30
0.0
 10
139.0005284029
 20
187.5938335558
 30
0.0
 10
138.9378905636
 20
186.2830330699
 30
0.0
 10
138.9328538163
 20
185.6003382875
 30
0.0
  0
SPLINE
  5
439
330
223
100
AcDbEntity
  8
0
  6
Continuous
 62
     6
100
AcDbSpline
210
0.0
220
0.0
230
1.0
 70
     8
 71
     3
 72
    12
 73
     8
 74
     0
 42
0.0000000001
 43
0.0000000001
 40
0.0
 40
0.0
 40
0.0
 40
0.0
 40
0.2211561608
 40
0.4348837976
 40
0.639826232
 40
0.8317486438999999
 40
1.0
 40
1.0
 40
1.0
 40
1.0
 10
140.4765457393
 20
192.5808726735
 30
0.0
 10
140.5161704778
 20
192.6532148359
 30
0.0
 10
140.5992703744
 20
192.7927073724
 30
0.0
 10
140.7359260252
 20
192.988553632
 30
0.0
 10
140.8798146358
 20
193.165435725
 30
0.0
 10
141.0264775161
 20
193.3170081674
 30
0.0
 10
141.1297272535
 20
193.40395343
 30
0.0
 10
141.181836306
 20
193.4389167182
 30
0.0
  0
SPLINE
  5
43A
330
223
100
AcDbEntity
  8
06___PRT_ALL_SURFS
  6
Continuous
 62
     9
100
AcDbSpline
210
0.0
220
0.0
230
1.0
 70
     8
 71
     3
 72
    15
 73
    11
 74
     0
 42
0.0000000001
 43
0.0000000001
 40
0.0
 40
0.0
 40
0.0
 40
0.0
 40
0.1223558033
 40
0.244411851
 40
0.3644158021
 40
0.4814730994
 40
0.595582129
 40
0.7448469503
 40
0.8189485110999999
 40
1.0
 40
1.0
 40
1.0
 40
1.0
 10
139.1647986507
 20
195.0399295124
 30
0.0
 10
138.471125379
 20
195.5248381305
 30
0.0
 10
137.0284050182
 20
196.4132542025
 30
0.0
 10
134.7700675669
 20
197.5378166881
 30
0.0
 10
132.4745342585
 20
198.4923356002
 30
0.0
 10
130.166875196
 20
199.2582850399
 30
0.0
 10
127.6140660762
 20
199.9043122136
 30
0.0
 10
125.3163248728
 20
200.3270597035
 30
0.0
 10
122.5455336309
 20
200.7126447434
 30
0.0
 10
120.7848118589
 20
200.8646456433
 30
0.0
 10
119.5338418779
 20
200.9237303371
 30
0.0
  0
SPLINE
  5
43B
330
223
100
AcDbEntity
  8
0
  6
Continuous
 62
     9
100
AcDbSpline
210
0.0
220
0.0
230
1.0
 70
     8
 71
     3
 72
    10
 73
     6
 74
     0
 42
0.0000000001
 43
0.0000000001
 40
0.0
 40
0.0
 40
0.0
 40
0.0
 40
0.0094663311
 40
0.6659447325
 40
1.0
 40
1.0
 40
1.0
 40
1.0
 10
141.1805411554
 20
193.4380941666
 30
0.0
 10
141.1744813263
 20
193.4435108671
 30
0.0
 10
140.7479971333
 20
193.8243602387
 30
0.0
 10
140.0873341801
 20
194.3745179548
 30
0.0
 10
139.3998712988
 20
194.8756221289
 30
0.0
 10
139.1647915602
 20
195.0399529041
 30
0.0
  0
SPLINE
  5
43C
330
223
100
AcDbEntity
  8
06___PRT_ALL_SURFS
  6
Continuous
 62
     6
100
AcDbSpline
210
0.0
220
0.0
230
1.0
 70
     9
 71
     3
 72
    11
 73
     7
 74
     0
 42
0.0000000001
 43
0.0000000001
 40
0.0
 40
0.0
 40
0.0
 40
0.0
 40
0.3475748551
 40
0.5000000076
 40
0.6514278364
 40
1.0
 40
1.0
 40
1.0
 40
1.0
 10
139.5726977723
 20
193.0579885352999
 30
0.0
 10
139.650860931
 20
193.2439049934
 30
0.0
 10
139.7236399138
 20
193.4183239928
 30
0.0
 10
139.9586213713
 20
193.9978272977
 30
0.0
 10
139.7239741952
 20
193.4191502472
 30
0.0
 10
139.6510852072
 20
193.2444384499
 30
0.0
 10
139.5726977723
 20
193.0579885352999
 30
0.0
  0
SPLINE
  5
43D
330
223
100
AcDbEntity
  8
06___PRT_ALL_SURFS
  6
Continuous
 62
     6
100
AcDbSpline
210
0.0
220
0.0
230
1.0
 70
     8
 71
     3
 72
    22
 73
    18
 74
     0
 42
0.0000000001
 43
0.0000000001
 40
0.0
 40
0.0
 40
0.0
 40
0.0
 40
0.0932579802
 40
0.1890787802
 40
0.2839149373
 40
0.3747308675999999
 40
0.4597773791
 40
0.5398882108
 40
0.6152191267
 40
0.6845160194
 40
0.7464965062000001
 40
0.8014426109
 40
0.8513498737999999
 40
0.8987225731999998
 40
0.9456939933000001
 40
0.9927337971
 40
1.0
 40
1.0
 40
1.0
 40
1.0
 10
119.4561156702
 20
199.3669900148
 30
0.0
 10
120.120458217
 20
199.3305828534
 30
0.0
 10
121.4663017142
 20
199.2345089257
 30
0.0
 10
123.4807446598
 20
199.0183610809
 30
0.0
 10
125.4684557965
 20
198.7291585584
 30
0.0
 10
127.3676032287
 20
198.3752959596
 30
0.0
 10
129.1470943523
 20
197.9619913089
 30
0.0
 10
130.7983427763
 20
197.4932855072
 30
0.0
 10
132.3168746068
 20
196.9765905808
 30
0.0
 10
133.689283034
 20
196.4374185416
 30
0.0
 10
134.9036592645
 20
195.8974875661
 30
0.0
 10
135.9709480463
 20
195.3699515936
 30
0.0
 10
136.9255459229
 20
194.8513861308
 30
0.0
 10
137.8071238778
 20
194.3197030123
 30
0.0
 10
138.6470340146
 20
193.7605208987
 30
0.0
 10
139.228227127
 20
193.3305646413
 30
0.0
 10
139.5322078594
 20
193.0903426764
 30
0.0
 10
139.5727462792
 20
193.058031392
 30
0.0
  0
SPLINE
  5
43E
330
223
100
AcDbEntity
  8
0
  6
Continuous
 62
     6
100
AcDbSpline
210
0.0
220
0.0
230
1.0
 70
     8
 71
     3
 72
    10
 73
     6
 74
     0
 42
0.0000000001
 43
0.0000000001
 40
0.0
 40
0.0
 40
0.0
 40
0.0
 40
0.2719857184
 40
0.8492983597
 40
1.0
 40
1.0
 40
1.0
 40
1.0
 10
138.9842039841
 20
193.7861689442
 30
0.0
 10
139.125214066
 20
193.6842737847
 30
0.0
 10
139.5602055582
 20
193.3586922238
 30
0.0
 10
140.0537174664
 20
192.9511378923
 30
0.0
 10
140.4042919907
 20
192.6446516891
 30
0.0
 10
140.4765375399
 20
192.5808355386
 30
0.0
  0
SPLINE
  5
43F
330
223
100
AcDbEntity
  8
06___PRT_ALL_SURFS
  6
Continuous
 62
     6
100
AcDbSpline
210
0.0
220
0.0
230
1.0
 70
     8
 71
     3
 72
    16
 73
    12
 74
     0
 42
0.0000000001
 43
0.0000000001
 40
0.0
 40
0.0
 40
0.0
 40
0.0
 40
0.1547694981
 40
0.2685378926
 40
0.3436481669
 40
0.3789595778
 40
0.4194895559000001
 40
0.5061246205
 40
0.638175246
 40
0.8075061340000001
 40
1.0
 40
1.0
 40
1.0
 40
1.0
 10
139.5726977723
 20
193.0579885352999
 30
0.0
 10
139.569649469
 20
192.8961197699
 30
0.0
 10
139.5621049497
 20
192.6174244722
 30
0.0
 10
139.5106146425
 20
192.2528797578
 30
0.0
 10
139.484725168
 20
192.0363755753
 30
0.0
 10
139.3633939422
 20
191.8702006735
 30
0.0
 10
139.2254180605
 20
192.0520584298
 30
0.0
 10
139.164025962
 20
192.287547844
 30
0.0
 10
139.0664414039
 20
192.696138056
 30
0.0
 10
139.0057887268
 20
193.2046549050999
 30
0.0
 10
138.9854800865
 20
193.5843640808
 30
0.0
 10
138.9842011632
 20
193.7857192628
 30
0.0
  0
SPLINE
  5
440
330
223
100
AcDbEntity
  8
06___PRT_ALL_SURFS
  6
Continuous
 62
     6
100
AcDbSpline
210
0.0
220
0.0
230
1.0
 70
     8
 71
     3
 72
    22
 73
    18
 74
     0
 42
0.0000000001
 43
0.0000000001
 40
0.0
 40
0.0
 40
0.0
 40
0.0
 40
0.0072662031
 40
0.0543060084
 40
0.1012774301
 40
0.1486501309
 40
0.1985573951
 40
0.2535035007
 40
0.315483988
 40
0.3847808807
 40
0.4601117963
 40
0.5402226274000001
 40
0.6252691379
 40
0.7160850670000001
 40
0.8109212226
 40
0.9067420210999999
 40
1.0
 40
1.0
 40
1.0
 40
1.0
 10
139.5727460412
 20
193.0580311817
 30
0.0
 10
139.5322076206
 20
193.0903424669
 30
0.0
 10
139.2282268825
 20
193.3305644374
 30
0.0
 10
138.6470337577
 20
193.7605207036
 30
0.0
 10
137.8071236022
 20
194.3197028261
 30
0.0
 10
136.9255456292
 20
194.8513859506
 30
0.0
 10
135.9709477384
 20
195.3699514168
 30
0.0
 10
134.9036589497
 20
195.8974873897
 30
0.0
 10
133.6892827212
 20
196.4374183597
 30
0.0
 10
132.3168743051
 20
196.9765903866999
 30
0.0
 10
130.7983424949
 20
197.4932852961
 30
0.0
 10
129.1470940996999
 20
197.9619910783
 30
0.0
 10
127.3676030135
 20
198.3752957099
 30
0.0
 10
125.4684556266
 20
198.7291582912
 30
0.0
 10
123.4807445408
 20
199.0183607987
 30
0.0
 10
121.4663016473
 20
199.2345086301
 30
0.0
 10
120.1204581848
 20
199.3305825491
 30
0.0
 10
119.4561156548
 20
199.3669897062
 30
0.0
  0
SPLINE
  5
441
330
223
100
AcDbEntity
  8
06___PRT_ALL_SURFS
  6
Continuous
 62
     6
100
AcDbSpline
210
0.0
220
0.0
230
1.0
 70
     8
 71
     3
 72
     9
 73
     5
 74
     0
 42
0.0000000001
 43
0.0000000001
 40
0.0
 40
0.0
 40
0.0
 40
0.0
 40
0.6129904795000001
 40
1.0
 40
1.0
 40
1.0
 40
1.0
 10
142.596704605
 20
194.329560253
 30
0.0
 10
141.4695360296
 20
193.0617603301
 30
0.0
 10
140.2755824471999
 20
190.4253322914
 30
0.0
 10
140.0357854595
 20
187.0114386672
 30
0.0
 10
140.0604163082
 20
185.6003382875
 30
0.0
  0
DIMENSION
  5
53A
330
223
100
AcDbEntity
  8
AM_5
100
AcDbDimension
  2
*D8
 10
181.5767995463648
 20
178.9303382875
 30
0.0
 11
181.5767995463647
 21
165.2653382875
 31
0.0
 70
    32
  1
30
 71
     5
 42
27.33000000000001
  3
STANDARD$0
100
AcDbAlignedDimension
 13
142.6208413571
 23
151.6003382875
 33
0.0
 14
156.7165218074
 24
178.9303382875
 34
0.0
 50
90.00000000000003
100
AcDbRotatedDimension
1001
ACAD
1000
DSTYLE
1002
{
1070
    42
1040
2.2
1070
    43
1040
13.376
1070
    44
1040
6.336
1070
    71
1070
     0
1070
    73
1070
     1
1070
    74
1070
     1
1070
    77
1070
     0
1070
    78
1070
     0
1070
   141
1040
3.168
1070
   178
1070
     0
1070
   271
1070
     4
1070
   272
1070
     4
1070
   284
1070
     0
1070
   341
1005
0
1070
   343
1005
0
1070
   344
1005
0
1002
}
1001
ACAD_DSTYLE_DIMINSPECT
1070
   396
1000
100%
1070
   395
1000

1070
   394
1070
    33
1070
   393
1070
     0
  0
DIMENSION
  5
573
330
223
100
AcDbEntity
  8
AM_5
100
AcDbDimension
  2
*D9
 10
205.9886263187446
 20
198.1003382875
 30
0.0
 11
205.9886263187445
 21
166.9503382875
 31
0.0
 70
    32
  1
62
 71
     5
 42
62.29999999999998
  3
STANDARD$0
100
AcDbAlignedDimension
 13
140.0522993335
 23
135.8003382875
 33
0.0
 14
162.9720487706
 24
198.1003382875
 34
0.0
 50
90.00000000000003
100
AcDbRotatedDimension
1001
ACAD
1000
DSTYLE
1002
{
1070
    42
1040
2.2
1070
    43
1040
13.376
1070
    44
1040
6.336
1070
    71
1070
     0
1070
    73
1070
     1
1070
    74
1070
     1
1070
    77
1070
     0
1070
    78
1070
     0
1070
   141
1040
3.168
1070
   178
1070
     0
1070
   271
1070
     4
1070
   272
1070
     4
1070
   284
1070
     0
1070
   341
1005
0
1070
   343
1005
0
1070
   344
1005
0
1002
}
1001
ACAD_DSTYLE_DIMINSPECT
1070
   396
1000
100%
1070
   395
1000

1070
   394
1070
    33
1070
   393
1070
     0
  0
DIMENSION
  5
5A9
330
223
100
AcDbEntity
  8
AM_5
100
AcDbDimension
  2
*D10
 10
163.5292023954324
 20
218.1319047090432
 30
0.0
 11
117.8734028085071
 21
218.1319047090432
 31
0.0
 70
   160
  1
%%c93
 71
     5
 42
92.86723197133246
  3
STANDARD$0
100
AcDbAlignedDimension
 13
70.6619704241
 23
197.8138916781
 33
0.0
 14
163.5292023954324
 24
197.4584244551859
 34
0.0
 50
0.0000000000000114
100
AcDbRotatedDimension
1001
ACAD
1000
DSTYLE
1002
{
1070
    42
1040
2.2
1070
    43
1040
13.376
1070
    44
1040
6.336
1070
    71
1070
     0
1070
    73
1070
     1
1070
    74
1070
     1
1070
    77
1070
     0
1070
    78
1070
     0
1070
   141
1040
3.168
1070
   178
1070
     0
1070
   271
1070
     4
1070
   272
1070
     4
1070
   284
1070
     0
1070
   341
1005
0
1070
   343
1005
0
1070
   344
1005
0
1002
}
1001
ACAD_DSTYLE_DIMINSPECT
1070
   396
1000
100%
1070
   395
1000

1070
   394
1070
    33
1070
   393
1070
     0
  0
ENDSEC
  0
SECTION
  2
OBJECTS
  0
DICTIONARY
  5
C
330
0
100
AcDbDictionary
281
     1
  3
ACAD_COLOR
350
477
  3
ACAD_GROUP
350
D
  3
ACAD_IMAGE_DICT
350
443
  3
ACAD_IMAGE_VARS
350
444
  3
ACAD_LAYOUT
350
1A
  3
ACAD_MATERIAL
350
44A
  3
ACAD_MLEADERSTYLE
350
48C
  3
ACAD_MLINESTYLE
350
17
  3
ACAD_PLOTSETTINGS
350
19
  3
ACAD_PLOTSTYLENAME
350
E
  3
ACAD_SCALELIST
350
47A
  3
ACAD_TABLESTYLE
350
478
  3
ACAD_VISUALSTYLE
350
463
  3
ACDB_RECOMPOSE_DATA
350
648
  3
AcDbVariableDictionary
350
63E
  3
AcmDictionary
350
4E8
  3
AMG
350
492
  3
AMGSNAPSETTINGS
350
52F
  3
DWGPROPS
350
649
  0
DICTIONARY
  5
5FC
330
10
100
AcDbDictionary
280
     1
281
     1
  3
ADSK_XREC_LAYER_RECONCILED
360
5FD
  0
DICTIONARY
  5
5FE
330
1FA
100
AcDbDictionary
280
     1
281
     1
  3
ADSK_XREC_LAYER_RECONCILED
360
5FF
  0
DICTIONARY
  5
600
330
1FB
100
AcDbDictionary
280
     1
281
     1
  3
ADSK_XREC_LAYER_RECONCILED
360
601
  0
DICTIONARY
  5
602
330
1FC
100
AcDbDictionary
280
     1
281
     1
  3
ADSK_XREC_LAYER_RECONCILED
360
603
  0
DICTIONARY
  5
604
330
1FD
100
AcDbDictionary
280
     1
281
     1
  3
ADSK_XREC_LAYER_RECONCILED
360
605
  0
DICTIONARY
  5
606
330
1FE
100
AcDbDictionary
280
     1
281
     1
  3
ADSK_XREC_LAYER_RECONCILED
360
607
  0
DICTIONARY
  5
608
330
1FF
100
AcDbDictionary
280
     1
281
     1
  3
ADSK_XREC_LAYER_RECONCILED
360
609
  0
DICTIONARY
  5
60A
330
200
100
AcDbDictionary
280
     1
281
     1
  3
ADSK_XREC_LAYER_RECONCILED
360
60B
  0
DICTIONARY
  5
60C
330
201
100
AcDbDictionary
280
     1
281
     1
  3
ADSK_XREC_LAYER_RECONCILED
360
60D
  0
DICTIONARY
  5
60E
330
202
100
AcDbDictionary
280
     1
281
     1
  3
ADSK_XREC_LAYER_RECONCILED
360
60F
  0
DICTIONARY
  5
610
330
203
100
AcDbDictionary
280
     1
281
     1
  3
ADSK_XREC_LAYER_RECONCILED
360
611
  0
DICTIONARY
  5
612
330
204
100
AcDbDictionary
280
     1
281
     1
  3
ADSK_XREC_LAYER_RECONCILED
360
613
  0
DICTIONARY
  5
614
330
205
100
AcDbDictionary
280
     1
281
     1
  3
ADSK_XREC_LAYER_RECONCILED
360
615
  0
DICTIONARY
  5
616
330
206
100
AcDbDictionary
280
     1
281
     1
  3
ADSK_XREC_LAYER_RECONCILED
360
617
  0
DICTIONARY
  5
618
330
207
100
AcDbDictionary
280
     1
281
     1
  3
ADSK_XREC_LAYER_RECONCILED
360
619
  0
DICTIONARY
  5
61A
330
208
100
AcDbDictionary
280
     1
281
     1
  3
ADSK_XREC_LAYER_RECONCILED
360
61B
  0
DICTIONARY
  5
61C
330
209
100
AcDbDictionary
280
     1
281
     1
  3
ADSK_XREC_LAYER_RECONCILED
360
61D
  0
DICTIONARY
  5
61E
330
20A
100
AcDbDictionary
280
     1
281
     1
  3
ADSK_XREC_LAYER_RECONCILED
360
61F
  0
DICTIONARY
  5
620
330
20B
100
AcDbDictionary
280
     1
281
     1
  3
ADSK_XREC_LAYER_RECONCILED
360
621
  0
DICTIONARY
  5
622
330
20C
100
AcDbDictionary
280
     1
281
     1
  3
ADSK_XREC_LAYER_RECONCILED
360
623
  0
DICTIONARY
  5
624
330
20D
100
AcDbDictionary
280
     1
281
     1
  3
ADSK_XREC_LAYER_RECONCILED
360
625
  0
DICTIONARY
  5
626
330
20E
100
AcDbDictionary
280
     1
281
     1
  3
ADSK_XREC_LAYER_RECONCILED
360
627
  0
DICTIONARY
  5
628
330
20F
100
AcDbDictionary
280
     1
281
     1
  3
ADSK_XREC_LAYER_RECONCILED
360
629
  0
DICTIONARY
  5
62A
330
210
100
AcDbDictionary
280
     1
281
     1
  3
ADSK_XREC_LAYER_RECONCILED
360
62B
  0
DICTIONARY
  5
62C
330
211
100
AcDbDictionary
280
     1
281
     1
  3
ADSK_XREC_LAYER_RECONCILED
360
62D
  0
DICTIONARY
  5
62E
330
212
100
AcDbDictionary
280
     1
281
     1
  3
ADSK_XREC_LAYER_RECONCILED
360
62F
  0
DICTIONARY
  5
630
330
213
100
AcDbDictionary
280
     1
281
     1
  3
ADSK_XREC_LAYER_RECONCILED
360
631
  0
DICTIONARY
  5
632
330
214
100
AcDbDictionary
280
     1
281
     1
  3
ADSK_XREC_LAYER_RECONCILED
360
633
  0
DICTIONARY
  5
634
330
215
100
AcDbDictionary
280
     1
281
     1
  3
ADSK_XREC_LAYER_RECONCILED
360
635
  0
DICTIONARY
  5
636
330
216
100
AcDbDictionary
280
     1
281
     1
  3
ADSK_XREC_LAYER_RECONCILED
360
637
  0
DICTIONARY
  5
638
330
217
100
AcDbDictionary
280
     1
281
     1
  3
ADSK_XREC_LAYER_RECONCILED
360
639
  0
DICTIONARY
  5
63A
330
218
100
AcDbDictionary
280
     1
281
     1
  3
ADSK_XREC_LAYER_RECONCILED
360
63B
  0
DICTIONARY
  5
63C
330
536
100
AcDbDictionary
280
     1
281
     1
  3
ADSK_XREC_LAYER_RECONCILED
360
63D
  0
IMAGEDEF_REACTOR
  5
442
330
252
100
AcDbRasterImageDefReactor
 90
        2
330
252
  0
DICTIONARY
  5
477
102
{ACAD_REACTORS
330
C
102
}
330
C
100
AcDbDictionary
281
     1
  0
DICTIONARY
  5
D
102
{ACAD_REACTORS
330
C
102
}
330
C
100
AcDbDictionary
281
     1
  0
DICTIONARY
  5
443
330
C
100
AcDbDictionary
281
     1
  3
2005_00_00_img_1
350
447
  0
RASTERVARIABLES
  5
444
330
C
100
AcDbRasterVariables
 90
        0
 70
     0
 71
     1
 72
     1
  0
DICTIONARY
  5
1A
102
{ACAD_REACTORS
330
C
102
}
330
C
100
AcDbDictionary
281
     1
  3
Layout1
350
446
  3
Model
350
445
  0
DICTIONARY
  5
44A
102
{ACAD_REACTORS
330
C
102
}
330
C
100
AcDbDictionary
281
     1
  3
ByBlock
350
453
  3
ByLayer
350
44B
  3
Global
350
45B
  0
DICTIONARY
  5
48C
102
{ACAD_REACTORS
330
C
102
}
330
C
100
AcDbDictionary
281
     1
  3
Standard
350
48D
  0
DICTIONARY
  5
17
102
{ACAD_REACTORS
330
C
102
}
330
C
100
AcDbDictionary
281
     1
  3
Standard
350
18
  0
DICTIONARY
  5
19
102
{ACAD_REACTORS
330
C
102
}
330
C
100
AcDbDictionary
281
     1
  0
ACDBDICTIONARYWDFLT
  5
E
102
{ACAD_REACTORS
330
C
102
}
330
C
100
AcDbDictionary
281
     1
  3
Normal
350
F
100
AcDbDictionaryWithDefault
340
F
  0
DICTIONARY
  5
47A
102
{ACAD_REACTORS
330
C
102
}
330
C
100
AcDbDictionary
281
     1
  3
A0
350
47B
  3
A1
350
47C
  3
A2
350
47D
  3
A3
350
47E
  3
A4
350
47F
  3
A5
350
480
  3
A6
350
481
  3
A7
350
482
  3
A8
350
483
  3
A9
350
484
  3
B0
350
485
  3
B1
350
486
  3
B2
350
487
  3
B3
350
488
  3
B4
350
489
  3
B5
350
48A
  3
B6
350
48B
  0
DICTIONARY
  5
478
102
{ACAD_REACTORS
330
C
102
}
330
C
100
AcDbDictionary
281
     1
  3
Standard
350
479
  0
DICTIONARY
  5
463
102
{ACAD_REACTORS
330
C
102
}
330
C
100
AcDbDictionary
281
     1
  3
2dWireframe
350
469
  3
3D Hidden
350
46B
  3
3dWireframe
350
46A
  3
Basic
350
468
  3
Brighten
350
46F
  3
ColorChange
350
473
  3
Conceptual
350
46C
  3
Dim
350
46E
  3
EdgeColorOff
350
476
  3
Facepattern
350
472
  3
Flat
350
464
  3
FlatWithEdges
350
465
  3
Gouraud
350
466
  3
GouraudWithEdges
350
467
  3
JitterOff
350
474
  3
Linepattern
350
471
  3
OverhangOff
350
475
  3
Realistic
350
46D
  3
Thicken
350
470
  0
XRECORD
  5
648
102
{ACAD_REACTORS
330
C
102
}
330
C
100
AcDbXrecord
280
     1
 90
        1
330
479
  0
DICTIONARY
  5
63E
102
{ACAD_REACTORS
330
C
102
}
330
C
100
AcDbDictionary
281
     1
  3
CANNOSCALE
350
641
  3
CMLEADERSTYLE
350
640
  3
CTABLESTYLE
350
63F
  3
DIMASSOC
350
644
  3
INDEXCTL
350
643
  3
SORTENTS
350
642
  3
XCLIPFRAME
350
645
  0
DICTIONARY
  5
4E8
102
{ACAD_REACTORS
330
C
102
}
330
C
100
AcDbDictionary
281
     1
  3
AcmStdDictionary
350
4F4
  0
DICTIONARY
  5
492
102
{ACAD_REACTORS
330
C
102
}
330
C
100
AcDbDictionary
281
     1
  0
DICTIONARY
  5
52F
102
{ACAD_REACTORS
330
C
102
}
330
C
100
AcDbDictionary
281
     1
  0
XRECORD
  5
649
102
{ACAD_REACTORS
330
C
102
}
330
C
100
AcDbXrecord
280
     1
  1
DWGPROPS COOKIE
  2

  3

  4

  6

  7

  8
atittmar
  9

300
=
301
=
302
=
303
=
304
=
305
=
306
=
307
=
308
=
309
=
 40
0.0007025925925926
 41
2456346.527127963
 42
2456346.527830197
  1

 90
        0
  0
XRECORD
  5
5FD
102
{ACAD_REACTORS
330
5FC
102
}
330
5FC
100
AcDbXrecord
280
     1
290
     1
  0
XRECORD
  5
5FF
102
{ACAD_REACTORS
330
5FE
102
}
330
5FE
100
AcDbXrecord
280
     1
290
     1
  0
XRECORD
  5
601
102
{ACAD_REACTORS
330
600
102
}
330
600
100
AcDbXrecord
280
     1
290
     1
  0
XRECORD
  5
603
102
{ACAD_REACTORS
330
602
102
}
330
602
100
AcDbXrecord
280
     1
290
     1
  0
XRECORD
  5
605
102
{ACAD_REACTORS
330
604
102
}
330
604
100
AcDbXrecord
280
     1
290
     1
  0
XRECORD
  5
607
102
{ACAD_REACTORS
330
606
102
}
330
606
100
AcDbXrecord
280
     1
290
     1
  0
XRECORD
  5
609
102
{ACAD_REACTORS
330
608
102
}
330
608
100
AcDbXrecord
280
     1
290
     1
  0
XRECORD
  5
60B
102
{ACAD_REACTORS
330
60A
102
}
330
60A
100
AcDbXrecord
280
     1
290
     1
  0
XRECORD
  5
60D
102
{ACAD_REACTORS
330
60C
102
}
330
60C
100
AcDbXrecord
280
     1
290
     1
  0
XRECORD
  5
60F
102
{ACAD_REACTORS
330
60E
102
}
330
60E
100
AcDbXrecord
280
     1
290
     1
  0
XRECORD
  5
611
102
{ACAD_REACTORS
330
610
102
}
330
610
100
AcDbXrecord
280
     1
290
     1
  0
XRECORD
  5
613
102
{ACAD_REACTORS
330
612
102
}
330
612
100
AcDbXrecord
280
     1
290
     1
  0
XRECORD
  5
615
102
{ACAD_REACTORS
330
614
102
}
330
614
100
AcDbXrecord
280
     1
290
     1
  0
XRECORD
  5
617
102
{ACAD_REACTORS
330
616
102
}
330
616
100
AcDbXrecord
280
     1
290
     1
  0
XRECORD
  5
619
102
{ACAD_REACTORS
330
618
102
}
330
618
100
AcDbXrecord
280
     1
290
     1
  0
XRECORD
  5
61B
102
{ACAD_REACTORS
330
61A
102
}
330
61A
100
AcDbXrecord
280
     1
290
     1
  0
XRECORD
  5
61D
102
{ACAD_REACTORS
330
61C
102
}
330
61C
100
AcDbXrecord
280
     1
290
     1
  0
XRECORD
  5
61F
102
{ACAD_REACTORS
330
61E
102
}
330
61E
100
AcDbXrecord
280
     1
290
     1
  0
XRECORD
  5
621
102
{ACAD_REACTORS
330
620
102
}
330
620
100
AcDbXrecord
280
     1
290
     1
  0
XRECORD
  5
623
102
{ACAD_REACTORS
330
622
102
}
330
622
100
AcDbXrecord
280
     1
290
     1
  0
XRECORD
  5
625
102
{ACAD_REACTORS
330
624
102
}
330
624
100
AcDbXrecord
280
     1
290
     1
  0
XRECORD
  5
627
102
{ACAD_REACTORS
330
626
102
}
330
626
100
AcDbXrecord
280
     1
290
     1
  0
XRECORD
  5
629
102
{ACAD_REACTORS
330
628
102
}
330
628
100
AcDbXrecord
280
     1
290
     1
  0
XRECORD
  5
62B
102
{ACAD_REACTORS
330
62A
102
}
330
62A
100
AcDbXrecord
280
     1
290
     1
  0
XRECORD
  5
62D
102
{ACAD_REACTORS
330
62C
102
}
330
62C
100
AcDbXrecord
280
     1
290
     1
  0
XRECORD
  5
62F
102
{ACAD_REACTORS
330
62E
102
}
330
62E
100
AcDbXrecord
280
     1
290
     1
  0
XRECORD
  5
631
102
{ACAD_REACTORS
330
630
102
}
330
630
100
AcDbXrecord
280
     1
290
     1
  0
XRECORD
  5
633
102
{ACAD_REACTORS
330
632
102
}
330
632
100
AcDbXrecord
280
     1
290
     1
  0
XRECORD
  5
635
102
{ACAD_REACTORS
330
634
102
}
330
634
100
AcDbXrecord
280
     1
290
     1
  0
XRECORD
  5
637
102
{ACAD_REACTORS
330
636
102
}
330
636
100
AcDbXrecord
280
     1
290
     1
  0
XRECORD
  5
639
102
{ACAD_REACTORS
330
638
102
}
330
638
100
AcDbXrecord
280
     1
290
     1
  0
XRECORD
  5
63B
102
{ACAD_REACTORS
330
63A
102
}
330
63A
100
AcDbXrecord
280
     1
290
     1
  0
XRECORD
  5
63D
102
{ACAD_REACTORS
330
63C
102
}
330
63C
100
AcDbXrecord
280
     1
290
     1
  0
IMAGEDEF
  5
447
102
{ACAD_REACTORS
330
443
330
442
102
}
330
443
100
AcDbRasterImageDef
 90
        0
  1
2005_00_00_img_1.jpg
 10
230.0
 20
73.0
 11
0.1693333333
 21
0.1693333333
280
     1
281
     0
  0
LAYOUT
  5
446
102
{ACAD_XDICTIONARY
360
64C
102
}
102
{ACAD_REACTORS
330
1A
102
}
330
1A
100
AcDbPlotSettings
  1

  2
none_device
  4

  6

 40
0.0
 41
0.0
 42
0.0
 43
0.0
 44
210.0
 45
297.0
 46
0.0
 47
0.0
 48
0.0
 49
0.0
140
0.0
141
0.0
142
1.0
143
1.0
 70
     0
 72
     1
 73
     0
 74
     0
  7

 75
     0
147
1.0
148
0.0
149
0.0
100
AcDbLayout
  1
Layout1
 70
     1
 71
     1
 10
0.0
 20
0.0
 11
12.0
 21
9.0
 12
0.0
 22
0.0
 32
0.0
 14
1.000000000000000E+20
 24
1.000000000000000E+20
 34
1.000000000000000E+20
 15
-1.000000000000000E+20
 25
-1.000000000000000E+20
 35
-1.000000000000000E+20
146
0.0
 13
0.0
 23
0.0
 33
0.0
 16
1.0
 26
0.0
 36
0.0
 17
0.0
 27
1.0
 37
0.0
 76
     0
330
224
  0
LAYOUT
  5
445
102
{ACAD_XDICTIONARY
360
64A
102
}
102
{ACAD_REACTORS
330
1A
102
}
330
1A
100
AcDbPlotSettings
  1

  2
none_device
  4

  6

 40
0.0
 41
0.0
 42
0.0
 43
0.0
 44
210.0
 45
297.0
 46
0.0
 47
0.0
 48
0.0
 49
0.0
140
0.0
141
0.0
142
1.0
143
1.0
 70
  1024
 72
     1
 73
     0
 74
     0
  7

 75
     0
147
1.0
148
0.0
149
0.0
100
AcDbLayout
  1
Model
 70
     0
 71
     0
 10
0.0
 20
0.0
 11
210.0
 21
297.0
 12
0.0
 22
0.0
 32
0.0
 14
0.0
 24
0.0
 34
0.0
 15
0.0
 25
0.0
 35
0.0
146
0.0
 13
0.0
 23
0.0
 33
0.0
 16
1.0
 26
0.0
 36
0.0
 17
0.0
 27
1.0
 37
0.0
 76
     0
330
223
331
1F4
  0
MATERIAL
  5
453
102
{ACAD_XDICTIONARY
360
454
102
}
102
{ACAD_REACTORS
330
44A
102
}
330
44A
100
AcDbMaterial
  1
ByBlock
 72
     0
 43
0.0008202099737533
 43
0.0
 43
0.0
 43
0.0
 43
0.0
 43
0.0008202099737533
 43
0.0
 43
0.0
 43
0.0
 43
0.0
 43
1.0
 43
0.0
 43
0.0
 43
0.0
 43
0.0
 43
1.0
 77
     0
 47
0.0008202099737533
 47
0.0
 47
0.0
 47
0.0
 47
0.0
 47
0.0008202099737533
 47
0.0
 47
0.0
 47
0.0
 47
0.0
 47
1.0
 47
0.0
 47
0.0
 47
0.0
 47
0.0
 47
1.0
171
     0
 49
0.0008202099737533
 49
0.0
 49
0.0
 49
0.0
 49
0.0
 49
0.0008202099737533
 49
0.0
 49
0.0
 49
0.0
 49
0.0
 49
1.0
 49
0.0
 49
0.0
 49
0.0
 49
0.0
 49
1.0
175
     0
142
0.0008202099737533
142
0.0
142
0.0
142
0.0
142
0.0
142
0.0008202099737533
142
0.0
142
0.0
142
0.0
142
0.0
142
1.0
142
0.0
142
0.0
142
0.0
142
0.0
142
1.0
179
     0
144
0.0008202099737533
144
0.0
144
0.0
144
0.0
144
0.0
144
0.0008202099737533
144
0.0
144
0.0
144
0.0
144
0.0
144
1.0
144
0.0
144
0.0
144
0.0
144
0.0
144
1.0
147
0.0008202099737533
147
0.0
147
0.0
147
0.0
147
0.0
147
0.0008202099737533
147
0.0
147
0.0
147
0.0
147
0.0
147
1.0
147
0.0
147
0.0
147
0.0
147
0.0
147
1.0
  0
MATERIAL
  5
44B
102
{ACAD_XDICTIONARY
360
44C
102
}
102
{ACAD_REACTORS
330
44A
102
}
330
44A
100
AcDbMaterial
  1
ByLayer
 72
     0
 43
0.0008202099737533
 43
0.0
 43
0.0
 43
0.0
 43
0.0
 43
0.0008202099737533
 43
0.0
 43
0.0
 43
0.0
 43
0.0
 43
1.0
 43
0.0
 43
0.0
 43
0.0
 43
0.0
 43
1.0
 77
     0
 47
0.0008202099737533
 47
0.0
 47
0.0
 47
0.0
 47
0.0
 47
0.0008202099737533
 47
0.0
 47
0.0
 47
0.0
 47
0.0
 47
1.0
 47
0.0
 47
0.0
 47
0.0
 47
0.0
 47
1.0
171
     0
 49
0.0008202099737533
 49
0.0
 49
0.0
 49
0.0
 49
0.0
 49
0.0008202099737533
 49
0.0
 49
0.0
 49
0.0
 49
0.0
 49
1.0
 49
0.0
 49
0.0
 49
0.0
 49
0.0
 49
1.0
175
     0
142
0.0008202099737533
142
0.0
142
0.0
142
0.0
142
0.0
142
0.0008202099737533
142
0.0
142
0.0
142
0.0
142
0.0
142
1.0
142
0.0
142
0.0
142
0.0
142
0.0
142
1.0
179
     0
144
0.0008202099737533
144
0.0
144
0.0
144
0.0
144
0.0
144
0.0008202099737533
144
0.0
144
0.0
144
0.0
144
0.0
144
1.0
144
0.0
144
0.0
144
0.0
144
0.0
144
1.0
147
0.0008202099737533
147
0.0
147
0.0
147
0.0
147
0.0
147
0.0008202099737533
147
0.0
147
0.0
147
0.0
147
0.0
147
1.0
147
0.0
147
0.0
147
0.0
147
0.0
147
1.0
  0
MATERIAL
  5
45B
102
{ACAD_XDICTIONARY
360
45C
102
}
102
{ACAD_REACTORS
330
44A
102
}
330
44A
100
AcDbMaterial
  1
Global
 72
     0
 43
0.0008202099737533
 43
0.0
 43
0.0
 43
0.0
 43
0.0
 43
0.0008202099737533
 43
0.0
 43
0.0
 43
0.0
 43
0.0
 43
1.0
 43
0.0
 43
0.0
 43
0.0
 43
0.0
 43
1.0
 77
     0
 47
0.0008202099737533
 47
0.0
 47
0.0
 47
0.0
 47
0.0
 47
0.0008202099737533
 47
0.0
 47
0.0
 47
0.0
 47
0.0
 47
1.0
 47
0.0
 47
0.0
 47
0.0
 47
0.0
 47
1.0
171
     0
 49
0.0008202099737533
 49
0.0
 49
0.0
 49
0.0
 49
0.0
 49
0.0008202099737533
 49
0.0
 49
0.0
 49
0.0
 49
0.0
 49
1.0
 49
0.0
 49
0.0
 49
0.0
 49
0.0
 49
1.0
175
     0
142
0.0008202099737533
142
0.0
142
0.0
142
0.0
142
0.0
142
0.0008202099737533
142
0.0
142
0.0
142
0.0
142
0.0
142
1.0
142
0.0
142
0.0
142
0.0
142
0.0
142
1.0
179
     0
144
0.0008202099737533
144
0.0
144
0.0
144
0.0
144
0.0
144
0.0008202099737533
144
0.0
144
0.0
144
0.0
144
0.0
144
1.0
144
0.0
144
0.0
144
0.0
144
0.0
144
1.0
147
0.0008202099737533
147
0.0
147
0.0
147
0.0
147
0.0
147
0.0008202099737533
147
0.0
147
0.0
147
0.0
147
0.0
147
1.0
147
0.0
147
0.0
147
0.0
147
0.0
147
1.0
  0
MLEADERSTYLE
  5
48D
102
{ACAD_REACTORS
330
48C
102
}
330
48C
100
AcDbMLeaderStyle
170
     2
171
     1
172
     0
 90
        2
 40
0.0
 41
0.0
173
     1
 91
-1056964608
340
14
 92
       -2
290
     1
 42
2.0
291
     1
 43
0.36
  3
Standard
 44
4.0
300

342
11
174
     1
178
     6
175
     1
176
     0
 93
-1056964608
 45
4.0
292
     0
297
     0
 46
4.0
 94
-1056964608
 47
1.0
 49
1.0
140
1.0
293
     1
141
0.0
294
     1
177
     0
142
1.0
295
     0
296
     0
143
0.125
1001
ACAD_MLEADERVER
1070
     2
  0
MLINESTYLE
  5
18
102
{ACAD_REACTORS
330
17
102
}
330
17
100
AcDbMlineStyle
  2
STANDARD
 70
     0
  3

 62
   256
 51
90.0
 52
90.0
 71
     2
 49
0.5
 62
   256
  6
BYLAYER
 49
-0.5
 62
   256
  6
BYLAYER
  0
ACDBPLACEHOLDER
  5
F
102
{ACAD_REACTORS
330
E
102
}
330
E
  0
SCALE
  5
47B
102
{ACAD_REACTORS
330
47A
102
}
330
47A
100
AcDbScale
 70
     0
300
1:1
140
1.0
141
1.0
290
     1
  0
SCALE
  5
47C
102
{ACAD_REACTORS
330
47A
102
}
330
47A
100
AcDbScale
 70
     0
300
1:2
140
1.0
141
2.0
290
     0
  0
SCALE
  5
47D
102
{ACAD_REACTORS
330
47A
102
}
330
47A
100
AcDbScale
 70
     0
300
1:4
140
1.0
141
4.0
290
     0
  0
SCALE
  5
47E
102
{ACAD_REACTORS
330
47A
102
}
330
47A
100
AcDbScale
 70
     0
300
1:5
140
1.0
141
5.0
290
     0
  0
SCALE
  5
47F
102
{ACAD_REACTORS
330
47A
102
}
330
47A
100
AcDbScale
 70
     0
300
1:8
140
1.0
141
8.0
290
     0
  0
SCALE
  5
480
102
{ACAD_REACTORS
330
47A
102
}
330
47A
100
AcDbScale
 70
     0
300
1:10
140
1.0
141
10.0
290
     0
  0
SCALE
  5
481
102
{ACAD_REACTORS
330
47A
102
}
330
47A
100
AcDbScale
 70
     0
300
1:16
140
1.0
141
16.0
290
     0
  0
SCALE
  5
482
102
{ACAD_REACTORS
330
47A
102
}
330
47A
100
AcDbScale
 70
     0
300
1:20
140
1.0
141
20.0
290
     0
  0
SCALE
  5
483
102
{ACAD_REACTORS
330
47A
102
}
330
47A
100
AcDbScale
 70
     0
300
1:30
140
1.0
141
30.0
290
     0
  0
SCALE
  5
484
102
{ACAD_REACTORS
330
47A
102
}
330
47A
100
AcDbScale
 70
     0
300
1:40
140
1.0
141
40.0
290
     0
  0
SCALE
  5
485
102
{ACAD_REACTORS
330
47A
102
}
330
47A
100
AcDbScale
 70
     0
300
1:50
140
1.0
141
50.0
290
     0
  0
SCALE
  5
486
102
{ACAD_REACTORS
330
47A
102
}
330
47A
100
AcDbScale
 70
     0
300
1:100
140
1.0
141
100.0
290
     0
  0
SCALE
  5
487
102
{ACAD_REACTORS
330
47A
102
}
330
47A
100
AcDbScale
 70
     0
300
2:1
140
2.0
141
1.0
290
     0
  0
SCALE
  5
488
102
{ACAD_REACTORS
330
47A
102
}
330
47A
100
AcDbScale
 70
     0
300
4:1
140
4.0
141
1.0
290
     0
  0
SCALE
  5
489
102
{ACAD_REACTORS
330
47A
102
}
330
47A
100
AcDbScale
 70
     0
300
8:1
140
8.0
141
1.0
290
     0
  0
SCALE
  5
48A
102
{ACAD_REACTORS
330
47A
102
}
330
47A
100
AcDbScale
 70
     0
300
10:1
140
10.0
141
1.0
290
     0
  0
SCALE
  5
48B
102
{ACAD_REACTORS
330
47A
102
}
330
47A
100
AcDbScale
 70
     0
300
100:1
140
100.0
141
1.0
290
     0
  0
TABLESTYLE
  5
479
102
{ACAD_XDICTIONARY
360
646
102
}
102
{ACAD_REACTORS
330
478
102
}
330
478
100
AcDbTableStyle
  3
Standard
 70
     0
 71
     0
 40
1.5
 41
1.5
280
     0
281
     0
  7
STANDARD
140
4.5
170
     2
 62
     0
 63
     7
283
     0
274
    -2
284
     1
 64
     0
275
    -2
285
     1
 65
     0
276
    -2
286
     1
 66
     0
277
    -2
287
     1
 67
     0
278
    -2
288
     1
 68
     0
279
    -2
289
     1
 69
     0
  7
STANDARD
140
6.0
170
     5
 62
     0
 63
     7
283
     0
274
    -2
284
     1
 64
     0
275
    -2
285
     1
 65
     0
276
    -2
286
     1
 66
     0
277
    -2
287
     1
 67
     0
278
    -2
288
     1
 68
     0
279
    -2
289
     1
 69
     0
  7
STANDARD
140
4.5
170
     5
 62
     0
 63
     7
283
     0
274
    -2
284
     1
 64
     0
275
    -2
285
     1
 65
     0
276
    -2
286
     1
 66
     0
277
    -2
287
     1
 67
     0
278
    -2
288
     1
 68
     0
279
    -2
289
     1
 69
     0
  0
VISUALSTYLE
  5
469
102
{ACAD_XDICTIONARY
360
65B
102
}
102
{ACAD_REACTORS
330
463
102
}
330
463
100
AcDbVisualStyle
  2
2dWireframe
 70
     4
 71
     0
 72
     2
 73
     0
 90
        0
 40
-0.6
 41
-30.0
 62
     5
 63
     7
 74
     1
 91
        4
 64
     7
 65
   257
 75
     1
175
     1
 42
1.0
 92
        0
 66
   257
 43
1.0
 76
     1
 77
     6
 78
     2
 67
     7
 79
     5
170
     0
171
     0
290
     0
174
     0
 93
        1
 44
0.0
173
     0
291
     0
 45
0.0
1001
ACAD
1000
AcDbSavedByObjectVersion
1070
     0
  0
VISUALSTYLE
  5
46B
102
{ACAD_XDICTIONARY
360
65F
102
}
102
{ACAD_REACTORS
330
463
102
}
330
463
100
AcDbVisualStyle
  2
3D Hidden
 70
     6
 71
     1
 72
     2
 73
     2
 90
        0
 40
-0.6
 41
-30.0
 62
     5
 63
     7
 74
     2
 91
        2
 64
     7
 65
   257
 75
     2
175
     1
 42
179.0
 92
        0
 66
   257
 43
1.0
 76
     1
 77
     6
 78
     2
 67
     7
 79
     3
170
     0
171
     0
290
     0
174
     0
 93
        1
 44
0.0
173
     0
291
     0
 45
0.0
1001
ACAD
1000
AcDbSavedByObjectVersion
1070
     0
  0
VISUALSTYLE
  5
46A
102
{ACAD_XDICTIONARY
360
65D
102
}
102
{ACAD_REACTORS
330
463
102
}
330
463
100
AcDbVisualStyle
  2
3dWireframe
 70
     5
 71
     0
 72
     2
 73
     0
 90
        0
 40
-0.6
 41
-30.0
 62
     5
 63
     7
 74
     1
 91
        4
 64
     7
 65
   257
 75
     1
175
     1
 42
1.0
 92
        0
 66
   257
 43
1.0
 76
     1
 77
     6
 78
     2
 67
     7
 79
     5
170
     0
171
     0
290
     0
174
     0
 93
        1
 44
0.0
173
     0
291
     0
 45
0.0
1001
ACAD
1000
AcDbSavedByObjectVersion
1070
     0
  0
VISUALSTYLE
  5
468
102
{ACAD_XDICTIONARY
360
659
102
}
102
{ACAD_REACTORS
330
463
102
}
330
463
100
AcDbVisualStyle
  2
Basic
 70
     7
 71
     1
 72
     0
 73
     1
 90
        0
 40
-0.6
 41
-30.0
 62
     5
 63
     7
 74
     0
 91
        4
 64
     7
 65
   257
 75
     1
175
     1
 42
1.0
 92
        8
 66
     7
 43
1.0
 76
     1
 77
     6
 78
     2
 67
     7
 79
     5
170
     0
171
     0
290
     0
174
     0
 93
        1
 44
0.0
173
     0
291
     1
 45
0.0
1001
ACAD
1000
AcDbSavedByObjectVersion
1070
     0
  0
VISUALSTYLE
  5
46F
102
{ACAD_XDICTIONARY
360
667
102
}
102
{ACAD_REACTORS
330
463
102
}
330
463
100
AcDbVisualStyle
  2
Brighten
 70
    12
 71
     2
 72
     2
 73
     0
 90
        0
 40
-0.6
 41
-30.0
 62
     5
 63
     7
 74
     1
 91
        4
 64
     7
 65
   257
 75
     1
175
     1
 42
1.0
 92
        8
 66
     7
 43
1.0
 76
     1
 77
     6
 78
     2
 67
     7
 79
     5
170
     0
171
     0
290
     0
174
     0
 93
        1
 44
50.0
173
     0
291
     1
 45
0.0
1001
ACAD
1000
AcDbSavedByObjectVersion
1070
     0
  0
VISUALSTYLE
  5
473
102
{ACAD_XDICTIONARY
360
66F
102
}
102
{ACAD_REACTORS
330
463
102
}
330
463
100
AcDbVisualStyle
  2
ColorChange
 70
    16
 71
     2
 72
     2
 73
     3
 90
        0
 40
-0.6
 41
-30.0
 62
     5
 63
     8
 74
     1
 91
        4
 64
     7
 65
   257
 75
     1
175
     1
 42
1.0
 92
        8
 66
     8
 43
1.0
 76
     1
 77
     6
 78
     2
 67
     7
 79
     5
170
     0
171
     0
290
     0
174
     0
 93
        1
 44
0.0
173
     0
291
     1
 45
0.0
1001
ACAD
1000
AcDbSavedByObjectVersion
1070
     0
  0
VISUALSTYLE
  5
46C
102
{ACAD_XDICTIONARY
360
661
102
}
102
{ACAD_REACTORS
330
463
102
}
330
463
100
AcDbVisualStyle
  2
Conceptual
 70
     9
 71
     3
 72
     2
 73
     0
 90
        0
 40
-0.6
 41
-30.0
 62
     5
 63
     7
 74
     2
 91
        2
 64
     7
 65
   257
 75
     1
175
     1
 42
179.0
 92
        8
 66
     7
 43
1.0
 76
     1
 77
     6
 78
     2
 67
     7
 79
     3
170
     0
171
     0
290
     0
174
     0
 93
        1
 44
0.0
173
     0
291
     0
 45
0.0
1001
ACAD
1000
AcDbSavedByObjectVersion
1070
     0
  0
VISUALSTYLE
  5
46E
102
{ACAD_XDICTIONARY
360
665
102
}
102
{ACAD_REACTORS
330
463
102
}
330
463
100
AcDbVisualStyle
  2
Dim
 70
    11
 71
     2
 72
     2
 73
     0
 90
        0
 40
-0.6
 41
-30.0
 62
     5
 63
     7
 74
     1
 91
        4
 64
     7
 65
   257
 75
     1
175
     1
 42
1.0
 92
        8
 66
     7
 43
1.0
 76
     1
 77
     6
 78
     2
 67
     7
 79
     5
170
     0
171
     0
290
     0
174
     0
 93
        1
 44
-50.0
173
     0
291
     1
 45
0.0
1001
ACAD
1000
AcDbSavedByObjectVersion
1070
     0
  0
VISUALSTYLE
  5
476
102
{ACAD_XDICTIONARY
360
675
102
}
102
{ACAD_REACTORS
330
463
102
}
330
463
100
AcDbVisualStyle
  2
EdgeColorOff
 70
    22
 71
     2
 72
     2
 73
     0
 90
        0
 40
-0.6
 41
-30.0
 62
     5
 63
     7
 74
     1
 91
        4
 64
     7
 65
   257
 75
     1
175
     1
 42
1.0
 92
        8
 66
     7
 43
1.0
 76
     1
 77
     6
 78
     2
 67
     7
 79
     5
170
     0
171
     0
290
     0
174
     0
 93
        1
 44
0.0
173
     0
291
     1
 45
0.0
1001
ACAD
1000
AcDbSavedByObjectVersion
1070
     0
  0
VISUALSTYLE
  5
472
102
{ACAD_XDICTIONARY
360
66D
102
}
102
{ACAD_REACTORS
330
463
102
}
330
463
100
AcDbVisualStyle
  2
Facepattern
 70
    15
 71
     2
 72
     2
 73
     0
 90
        0
 40
-0.6
 41
-30.0
 62
     5
 63
     7
 74
     1
 91
        4
 64
     7
 65
   257
 75
     1
175
     1
 42
1.0
 92
        8
 66
     7
 43
1.0
 76
     1
 77
     6
 78
     2
 67
     7
 79
     5
170
     0
171
     0
290
     0
174
     0
 93
        1
 44
0.0
173
     0
291
     1
 45
0.0
1001
ACAD
1000
AcDbSavedByObjectVersion
1070
     0
  0
VISUALSTYLE
  5
464
102
{ACAD_XDICTIONARY
360
651
102
}
102
{ACAD_REACTORS
330
463
102
}
330
463
100
AcDbVisualStyle
  2
Flat
 70
     0
 71
     2
 72
     1
 73
     1
 90
        2
 40
-0.6
 41
30.0
 62
     5
 63
     7
 74
     0
 91
        4
 64
     7
 65
   257
 75
     1
175
     1
 42
1.0
 92
        8
 66
     7
 43
1.0
 76
     1
 77
     6
 78
     2
 67
     7
 79
     5
170
     0
171
     0
290
     0
174
     0
 93
       13
 44
0.0
173
     0
291
     1
 45
0.0
1001
ACAD
1000
AcDbSavedByObjectVersion
1070
     0
  0
VISUALSTYLE
  5
465
102
{ACAD_XDICTIONARY
360
653
102
}
102
{ACAD_REACTORS
330
463
102
}
330
463
100
AcDbVisualStyle
  2
FlatWithEdges
 70
     1
 71
     2
 72
     1
 73
     1
 90
        2
 40
-0.6
 41
30.0
 62
     5
 63
     7
 74
     1
 91
        4
 64
     7
 65
   257
 75
     1
175
     1
 42
1.0
 92
        0
 66
   257
 43
1.0
 76
     1
 77
     6
 78
     2
 67
     7
 79
     5
170
     0
171
     0
290
     0
174
     0
 93
       13
 44
0.0
173
     0
291
     1
 45
0.0
1001
ACAD
1000
AcDbSavedByObjectVersion
1070
     0
  0
VISUALSTYLE
  5
466
102
{ACAD_XDICTIONARY
360
655
102
}
102
{ACAD_REACTORS
330
463
102
}
330
463
100
AcDbVisualStyle
  2
Gouraud
 70
     2
 71
     2
 72
     2
 73
     1
 90
        2
 40
-0.6
 41
30.0
 62
     5
 63
     7
 74
     0
 91
        4
 64
     7
 65
   257
 75
     1
175
     1
 42
1.0
 92
        0
 66
     7
 43
1.0
 76
     1
 77
     6
 78
     2
 67
     7
 79
     5
170
     0
171
     0
290
     0
174
     0
 93
       13
 44
0.0
173
     0
291
     1
 45
0.0
1001
ACAD
1000
AcDbSavedByObjectVersion
1070
     0
  0
VISUALSTYLE
  5
467
102
{ACAD_XDICTIONARY
360
657
102
}
102
{ACAD_REACTORS
330
463
102
}
330
463
100
AcDbVisualStyle
  2
GouraudWithEdges
 70
     3
 71
     2
 72
     2
 73
     1
 90
        2
 40
-0.6
 41
30.0
 62
     5
 63
     7
 74
     1
 91
        4
 64
     7
 65
   257
 75
     1
175
     1
 42
1.0
 92
        0
 66
   257
 43
1.0
 76
     1
 77
     6
 78
     2
 67
     7
 79
     5
170
     0
171
     0
290
     0
174
     0
 93
       13
 44
0.0
173
     0
291
     1
 45
0.0
1001
ACAD
1000
AcDbSavedByObjectVersion
1070
     0
  0
VISUALSTYLE
  5
474
102
{ACAD_XDICTIONARY
360
671
102
}
102
{ACAD_REACTORS
330
463
102
}
330
463
100
AcDbVisualStyle
  2
JitterOff
 70
    20
 71
     2
 72
     2
 73
     0
 90
        0
 40
-0.6
 41
-30.0
 62
     5
 63
     7
 74
     1
 91
        4
 64
     7
 65
   257
 75
     1
175
     1
 42
1.0
 92
       10
 66
     7
 43
1.0
 76
     1
 77
     6
 78
     2
 67
     7
 79
     5
170
     0
171
     0
290
     0
174
     0
 93
        1
 44
0.0
173
     0
291
     1
 45
0.0
1001
ACAD
1000
AcDbSavedByObjectVersion
1070
     0
  0
VISUALSTYLE
  5
471
102
{ACAD_XDICTIONARY
360
66B
102
}
102
{ACAD_REACTORS
330
463
102
}
330
463
100
AcDbVisualStyle
  2
Linepattern
 70
    14
 71
     2
 72
     2
 73
     0
 90
        0
 40
-0.6
 41
-30.0
 62
     5
 63
     7
 74
     1
 91
        4
 64
     7
 65
   257
 75
     7
175
     7
 42
1.0
 92
        8
 66
     7
 43
1.0
 76
     1
 77
     6
 78
     2
 67
     7
 79
     5
170
     0
171
     0
290
     0
174
     0
 93
        1
 44
0.0
173
     0
291
     1
 45
0.0
1001
ACAD
1000
AcDbSavedByObjectVersion
1070
     0
  0
VISUALSTYLE
  5
475
102
{ACAD_XDICTIONARY
360
673
102
}
102
{ACAD_REACTORS
330
463
102
}
330
463
100
AcDbVisualStyle
  2
OverhangOff
 70
    21
 71
     2
 72
     2
 73
     0
 90
        0
 40
-0.6
 41
-30.0
 62
     5
 63
     7
 74
     1
 91
        4
 64
     7
 65
   257
 75
     1
175
     1
 42
1.0
 92
        9
 66
     7
 43
1.0
 76
     1
 77
     6
 78
     2
 67
     7
 79
     5
170
     0
171
     0
290
     0
174
     0
 93
        1
 44
0.0
173
     0
291
     1
 45
0.0
1001
ACAD
1000
AcDbSavedByObjectVersion
1070
     0
  0
VISUALSTYLE
  5
46D
102
{ACAD_XDICTIONARY
360
663
102
}
102
{ACAD_REACTORS
330
463
102
}
330
463
100
AcDbVisualStyle
  2
Realistic
 70
     8
 71
     2
 72
     2
 73
     0
 90
        0
 40
-0.6
 41
-30.0
 62
     5
 63
     7
 74
     1
 91
        0
 64
     7
 65
   257
 75
     1
175
     1
 42
1.0
 92
        8
 66
     8
 43
1.0
 76
     1
 77
     6
 78
     2
 67
     7
 79
     5
170
     0
171
     0
290
     0
174
     0
 93
       13
 44
0.0
173
     0
291
     0
 45
0.0
1001
ACAD
1000
AcDbSavedByObjectVersion
1070
     0
  0
VISUALSTYLE
  5
470
102
{ACAD_XDICTIONARY
360
669
102
}
102
{ACAD_REACTORS
330
463
102
}
330
463
100
AcDbVisualStyle
  2
Thicken
 70
    13
 71
     2
 72
     2
 73
     0
 90
        0
 40
-0.6
 41
-30.0
 62
     5
 63
     7
 74
     1
 91
        4
 64
     7
 65
   257
 75
     1
175
     1
 42
1.0
 92
       12
 66
     7
 43
1.0
 76
     1
 77
     6
 78
     2
 67
     7
 79
     5
170
     0
171
     0
290
     0
174
     0
 93
        1
 44
0.0
173
     0
291
     1
 45
0.0
1001
ACAD
1000
AcDbSavedByObjectVersion
1070
     0
  0
DICTIONARYVAR
  5
641
102
{ACAD_REACTORS
330
63E
102
}
330
63E
100
DictionaryVariables
280
     0
  1
1:1
  0
DICTIONARYVAR
  5
640
102
{ACAD_REACTORS
330
63E
102
}
330
63E
100
DictionaryVariables
280
     0
  1
STANDARD
  0
DICTIONARYVAR
  5
63F
102
{ACAD_REACTORS
330
63E
102
}
330
63E
100
DictionaryVariables
280
     0
  1
STANDARD
  0
DICTIONARYVAR
  5
644
102
{ACAD_REACTORS
330
63E
102
}
330
63E
100
DictionaryVariables
280
     0
  1
1
  0
DICTIONARYVAR
  5
643
102
{ACAD_REACTORS
330
63E
102
}
330
63E
100
DictionaryVariables
280
     0
  1
0
  0
DICTIONARYVAR
  5
642
102
{ACAD_REACTORS
330
63E
102
}
330
63E
100
DictionaryVariables
280
     0
  1
127
  0
DICTIONARYVAR
  5
645
102
{ACAD_REACTORS
330
63E
102
}
330
63E
100
DictionaryVariables
280
     0
  1
2
  0
DICTIONARY
  5
4F4
102
{ACAD_REACTORS
330
4E8
102
}
330
4E8
100
AcDbDictionary
281
     1
  0
DICTIONARY
  5
64C
330
446
100
AcDbDictionary
280
     1
281
     1
  3
ACAD_XREC_ROUNDTRIP
360
64D
  0
DICTIONARY
  5
64A
330
445
100
AcDbDictionary
280
     1
281
     1
  3
ACAD_XREC_ROUNDTRIP
360
64B
  0
DICTIONARY
  5
454
330
453
100
AcDbDictionary
280
     1
281
     1
  3
ACAD_XREC_ROUNDTRIP
360
64F
  3
BUMPTILE
360
456
  3
DIFFUSETILE
360
455
  3
OPACITYTILE
360
459
  3
REFLECTIONTILE
360
458
  3
REFRACTIONTILE
360
45A
  3
SPECULARTILE
360
457
  0
DICTIONARY
  5
44C
330
44B
100
AcDbDictionary
280
     1
281
     1
  3
ACAD_XREC_ROUNDTRIP
360
64E
  3
BUMPTILE
360
44E
  3
DIFFUSETILE
360
44D
  3
OPACITYTILE
360
451
  3
REFLECTIONTILE
360
450
  3
REFRACTIONTILE
360
452
  3
SPECULARTILE
360
44F
  0
DICTIONARY
  5
45C
330
45B
100
AcDbDictionary
280
     1
281
     1
  3
ACAD_XREC_ROUNDTRIP
360
650
  3
BUMPTILE
360
45E
  3
DIFFUSETILE
360
45D
  3
OPACITYTILE
360
461
  3
REFLECTIONTILE
360
460
  3
REFRACTIONTILE
360
462
  3
SPECULARTILE
360
45F
  0
DICTIONARY
  5
646
330
479
100
AcDbDictionary
280
     1
281
     1
  3
ACAD_ROUNDTRIP_2008_TABLESTYLE_CELLSTYLEMAP
360
647
  3
ACAD_XREC_ROUNDTRIP
360
677
  0
DICTIONARY
  5
65B
330
469
100
AcDbDictionary
280
     1
281
     1
  3
ACAD_XREC_ROUNDTRIP
360
65C
  0
DICTIONARY
  5
65F
330
46B
100
AcDbDictionary
280
     1
281
     1
  3
ACAD_XREC_ROUNDTRIP
360
660
  0
DICTIONARY
  5
65D
330
46A
100
AcDbDictionary
280
     1
281
     1
  3
ACAD_XREC_ROUNDTRIP
360
65E
  0
DICTIONARY
  5
659
330
468
100
AcDbDictionary
280
     1
281
     1
  3
ACAD_XREC_ROUNDTRIP
360
65A
  0
DICTIONARY
  5
667
330
46F
100
AcDbDictionary
280
     1
281
     1
  3
ACAD_XREC_ROUNDTRIP
360
668
  0
DICTIONARY
  5
66F
330
473
100
AcDbDictionary
280
     1
281
     1
  3
ACAD_XREC_ROUNDTRIP
360
670
  0
DICTIONARY
  5
661
330
46C
100
AcDbDictionary
280
     1
281
     1
  3
ACAD_XREC_ROUNDTRIP
360
662
  0
DICTIONARY
  5
665
330
46E
100
AcDbDictionary
280
     1
281
     1
  3
ACAD_XREC_ROUNDTRIP
360
666
  0
DICTIONARY
  5
675
330
476
100
AcDbDictionary
280
     1
281
     1
  3
ACAD_XREC_ROUNDTRIP
360
676
  0
DICTIONARY
  5
66D
330
472
100
AcDbDictionary
280
     1
281
     1
  3
ACAD_XREC_ROUNDTRIP
360
66E
  0
DICTIONARY
  5
651
330
464
100
AcDbDictionary
280
     1
281
     1
  3
ACAD_XREC_ROUNDTRIP
360
652
  0
DICTIONARY
  5
653
330
465
100
AcDbDictionary
280
     1
281
     1
  3
ACAD_XREC_ROUNDTRIP
360
654
  0
DICTIONARY
  5
655
330
466
100
AcDbDictionary
280
     1
281
     1
  3
ACAD_XREC_ROUNDTRIP
360
656
  0
DICTIONARY
  5
657
330
467
100
AcDbDictionary
280
     1
281
     1
  3
ACAD_XREC_ROUNDTRIP
360
658
  0
DICTIONARY
  5
671
330
474
100
AcDbDictionary
280
     1
281
     1
  3
ACAD_XREC_ROUNDTRIP
360
672
  0
DICTIONARY
  5
66B
330
471
100
AcDbDictionary
280
     1
281
     1
  3
ACAD_XREC_ROUNDTRIP
360
66C
  0
DICTIONARY
  5
673
330
475
100
AcDbDictionary
280
     1
281
     1
  3
ACAD_XREC_ROUNDTRIP
360
674
  0
DICTIONARY
  5
663
330
46D
100
AcDbDictionary
280
     1
281
     1
  3
ACAD_XREC_ROUNDTRIP
360
664
  0
DICTIONARY
  5
669
330
470
100
AcDbDictionary
280
     1
281
     1
  3
ACAD_XREC_ROUNDTRIP
360
66A
  0
XRECORD
  5
64D
102
{ACAD_REACTORS
330
64C
102
}
330
64C
100
AcDbXrecord
280
     1
102
SHADEPLOT
 70
     0
102
SHADEPLOTRESLEVEL
 70
     2
102
SHADEPLOTCUSTOMDPI
 70
   300
  0
XRECORD
  5
64B
102
{ACAD_REACTORS
330
64A
102
}
330
64A
100
AcDbXrecord
280
     1
102
SHADEPLOT
 70
     0
102
SHADEPLOTRESLEVEL
 70
     2
102
SHADEPLOTCUSTOMDPI
 70
   300
  0
XRECORD
  5
64F
102
{ACAD_REACTORS
330
454
102
}
330
454
100
AcDbXrecord
280
     1
102
MATERIAL
148
0.0
149
0.0
149
0.0
 93
        0
 94
      127
282
     0
 72
     0
 77
     0
171
     0
175
     0
179
     0
273
     0
  0
XRECORD
  5
456
102
{ACAD_REACTORS
330
454
102
}
330
454
100
AcDbXrecord
280
     1
270
     1
271
     1
  0
XRECORD
  5
455
102
{ACAD_REACTORS
330
454
102
}
330
454
100
AcDbXrecord
280
     1
270
     1
271
     1
  0
XRECORD
  5
459
102
{ACAD_REACTORS
330
454
102
}
330
454
100
AcDbXrecord
280
     1
270
     1
271
     1
  0
XRECORD
  5
458
102
{ACAD_REACTORS
330
454
102
}
330
454
100
AcDbXrecord
280
     1
270
     1
271
     1
  0
XRECORD
  5
45A
102
{ACAD_REACTORS
330
454
102
}
330
454
100
AcDbXrecord
280
     1
270
     1
271
     1
  0
XRECORD
  5
457
102
{ACAD_REACTORS
330
454
102
}
330
454
100
AcDbXrecord
280
     1
270
     1
271
     1
  0
XRECORD
  5
64E
102
{ACAD_REACTORS
330
44C
102
}
330
44C
100
AcDbXrecord
280
     1
102
MATERIAL
148
0.0
149
0.0
149
0.0
 93
        0
 94
      127
282
     0
 72
     0
 77
     0
171
     0
175
     0
179
     0
273
     0
  0
XRECORD
  5
44E
102
{ACAD_REACTORS
330
44C
102
}
330
44C
100
AcDbXrecord
280
     1
270
     1
271
     1
  0
XRECORD
  5
44D
102
{ACAD_REACTORS
330
44C
102
}
330
44C
100
AcDbXrecord
280
     1
270
     1
271
     1
  0
XRECORD
  5
451
102
{ACAD_REACTORS
330
44C
102
}
330
44C
100
AcDbXrecord
280
     1
270
     1
271
     1
  0
XRECORD
  5
450
102
{ACAD_REACTORS
330
44C
102
}
330
44C
100
AcDbXrecord
280
     1
270
     1
271
     1
  0
XRECORD
  5
452
102
{ACAD_REACTORS
330
44C
102
}
330
44C
100
AcDbXrecord
280
     1
270
     1
271
     1
  0
XRECORD
  5
44F
102
{ACAD_REACTORS
330
44C
102
}
330
44C
100
AcDbXrecord
280
     1
270
     1
271
     1
  0
XRECORD
  5
650
102
{ACAD_REACTORS
330
45C
102
}
330
45C
100
AcDbXrecord
280
     1
102
MATERIAL
148
0.0
149
0.0
149
0.0
 93
        0
 94
      127
282
     0
 72
     0
 77
     0
171
     0
175
     0
179
     0
273
     0
  0
XRECORD
  5
45E
102
{ACAD_REACTORS
330
45C
102
}
330
45C
100
AcDbXrecord
280
     1
270
     1
271
     1
  0
XRECORD
  5
45D
102
{ACAD_REACTORS
330
45C
102
}
330
45C
100
AcDbXrecord
280
     1
270
     1
271
     1
  0
XRECORD
  5
461
102
{ACAD_REACTORS
330
45C
102
}
330
45C
100
AcDbXrecord
280
     1
270
     1
271
     1
  0
XRECORD
  5
460
102
{ACAD_REACTORS
330
45C
102
}
330
45C
100
AcDbXrecord
280
     1
270
     1
271
     1
  0
XRECORD
  5
462
102
{ACAD_REACTORS
330
45C
102
}
330
45C
100
AcDbXrecord
280
     1
270
     1
271
     1
  0
XRECORD
  5
45F
102
{ACAD_REACTORS
330
45C
102
}
330
45C
100
AcDbXrecord
280
     1
270
     1
271
     1
  0
CELLSTYLEMAP
  5
647
102
{ACAD_REACTORS
330
646
102
}
330
646
100
AcDbCellStyleMap
 90
        3
300
CELLSTYLE
  1
TABLEFORMAT_BEGIN
 90
        5
170
     1
 91
        0
 92
    32768
 62
   257
 93
        1
300
CONTENTFORMAT
  1
CONTENTFORMAT_BEGIN
 90
        0
 91
        0
 92
      512
 93
        0
300

 40
0.0
140
1.0
 94
        5
 62
     0
340
11
144
6.0
309
CONTENTFORMAT_END
171
     1
301
MARGIN
  1
CELLMARGIN_BEGIN
 40
1.5
 40
1.5
 40
1.5
 40
1.5
 40
4.5
 40
4.5
309
CELLMARGIN_END
 94
        6
 95
        1
302
GRIDFORMAT
  1
GRIDFORMAT_BEGIN
 90
        0
 91
        1
 62
     0
 92
       -2
340
0
 93
        0
 40
1.125
309
GRIDFORMAT_END
 95
        2
302
GRIDFORMAT
  1
GRIDFORMAT_BEGIN
 90
        0
 91
        1
 62
     0
 92
       -2
340
0
 93
        0
 40
1.125
309
GRIDFORMAT_END
 95
        4
302
GRIDFORMAT
  1
GRIDFORMAT_BEGIN
 90
        0
 91
        1
 62
     0
 92
       -2
340
0
 93
        0
 40
1.125
309
GRIDFORMAT_END
 95
        8
302
GRIDFORMAT
  1
GRIDFORMAT_BEGIN
 90
        0
 91
        1
 62
     0
 92
       -2
340
0
 93
        0
 40
1.125
309
GRIDFORMAT_END
 95
       16
302
GRIDFORMAT
  1
GRIDFORMAT_BEGIN
 90
        0
 91
        1
 62
     0
 92
       -2
340
0
 93
        0
 40
1.125
309
GRIDFORMAT_END
 95
       32
302
GRIDFORMAT
  1
GRIDFORMAT_BEGIN
 90
        0
 91
        1
 62
     0
 92
       -2
340
0
 93
        0
 40
1.125
309
GRIDFORMAT_END
309
TABLEFORMAT_END
  1
CELLSTYLE_BEGIN
 90
        1
 91
        1
300
_TITLE
309
CELLSTYLE_END
300
CELLSTYLE
  1
TABLEFORMAT_BEGIN
 90
        5
170
     1
 91
        0
 92
        0
 62
   257
 93
        1
300
CONTENTFORMAT
  1
CONTENTFORMAT_BEGIN
 90
        0
 91
        0
 92
      512
 93
        0
300

 40
0.0
140
1.0
 94
        5
 62
     0
340
11
144
4.5
309
CONTENTFORMAT_END
171
     1
301
MARGIN
  1
CELLMARGIN_BEGIN
 40
1.5
 40
1.5
 40
1.5
 40
1.5
 40
4.5
 40
4.5
309
CELLMARGIN_END
 94
        6
 95
        1
302
GRIDFORMAT
  1
GRIDFORMAT_BEGIN
 90
        0
 91
        1
 62
     0
 92
       -2
340
0
 93
        0
 40
1.125
309
GRIDFORMAT_END
 95
        2
302
GRIDFORMAT
  1
GRIDFORMAT_BEGIN
 90
        0
 91
        1
 62
     0
 92
       -2
340
0
 93
        0
 40
1.125
309
GRIDFORMAT_END
 95
        4
302
GRIDFORMAT
  1
GRIDFORMAT_BEGIN
 90
        0
 91
        1
 62
     0
 92
       -2
340
0
 93
        0
 40
1.125
309
GRIDFORMAT_END
 95
        8
302
GRIDFORMAT
  1
GRIDFORMAT_BEGIN
 90
        0
 91
        1
 62
     0
 92
       -2
340
0
 93
        0
 40
1.125
309
GRIDFORMAT_END
 95
       16
302
GRIDFORMAT
  1
GRIDFORMAT_BEGIN
 90
        0
 91
        1
 62
     0
 92
       -2
340
0
 93
        0
 40
1.125
309
GRIDFORMAT_END
 95
       32
302
GRIDFORMAT
  1
GRIDFORMAT_BEGIN
 90
        0
 91
        1
 62
     0
 92
       -2
340
0
 93
        0
 40
1.125
309
GRIDFORMAT_END
309
TABLEFORMAT_END
  1
CELLSTYLE_BEGIN
 90
        2
 91
        1
300
_HEADER
309
CELLSTYLE_END
300
CELLSTYLE
  1
TABLEFORMAT_BEGIN
 90
        5
170
     1
 91
        0
 92
        0
 62
   257
 93
        1
300
CONTENTFORMAT
  1
CONTENTFORMAT_BEGIN
 90
        0
 91
        0
 92
      512
 93
        0
300

 40
0.0
140
1.0
 94
        2
 62
     0
340
11
144
4.5
309
CONTENTFORMAT_END
171
     1
301
MARGIN
  1
CELLMARGIN_BEGIN
 40
1.5
 40
1.5
 40
1.5
 40
1.5
 40
4.5
 40
4.5
309
CELLMARGIN_END
 94
        6
 95
        1
302
GRIDFORMAT
  1
GRIDFORMAT_BEGIN
 90
        0
 91
        1
 62
     0
 92
       -2
340
0
 93
        0
 40
1.125
309
GRIDFORMAT_END
 95
        2
302
GRIDFORMAT
  1
GRIDFORMAT_BEGIN
 90
        0
 91
        1
 62
     0
 92
       -2
340
0
 93
        0
 40
1.125
309
GRIDFORMAT_END
 95
        4
302
GRIDFORMAT
  1
GRIDFORMAT_BEGIN
 90
        0
 91
        1
 62
     0
 92
       -2
340
0
 93
        0
 40
1.125
309
GRIDFORMAT_END
 95
        8
302
GRIDFORMAT
  1
GRIDFORMAT_BEGIN
 90
        0
 91
        1
 62
     0
 92
       -2
340
0
 93
        0
 40
1.125
309
GRIDFORMAT_END
 95
       16
302
GRIDFORMAT
  1
GRIDFORMAT_BEGIN
 90
        0
 91
        1
 62
     0
 92
       -2
340
0
 93
        0
 40
1.125
309
GRIDFORMAT_END
 95
       32
302
GRIDFORMAT
  1
GRIDFORMAT_BEGIN
 90
        0
 91
        1
 62
     0
 92
       -2
340
0
 93
        0
 40
1.125
309
GRIDFORMAT_END
309
TABLEFORMAT_END
  1
CELLSTYLE_BEGIN
 90
        3
 91
        2
300
_DATA
309
CELLSTYLE_END
  0
XRECORD
  5
677
102
{ACAD_REACTORS
330
646
102
}
330
646
100
AcDbXrecord
280
     1
102
ACAD_ROUNDTRIP_PRE2007_TABLESTYLE
 90
      512
 91
        0
  1

 92
      512
 93
        0
  2

 94
      512
 95
        0
  3

  0
XRECORD
  5
65C
102
{ACAD_REACTORS
330
65B
102
}
330
65B
100
AcDbXrecord
280
     1
102
RTVSPropertyOp0
 70
     1
102
RTVSPropertyOp1
 70
     1
102
RTVSPropertyOp2
 70
     1
102
RTVSPropertyOp3
 70
     1
102
RTVSPropertyOp4
 70
     1
102
RTVSPropertyOp5
 70
     1
102
RTVSPropertyOp6
 70
     1
102
RTVSPropertyOp7
 70
     1
102
RTVSPropertyOp8
 70
     1
102
RTVSPropertyOp9
 70
     1
102
RTVSPropertyOp10
 70
     1
102
RTVSPropertyOp11
 70
     1
102
RTVSPropertyOp12
 70
     1
102
RTVSPropertyOp13
 70
     1
102
RTVSPropertyOp14
 70
     1
102
RTVSPropertyOp15
 70
     1
102
RTVSPropertyOp16
 70
     1
102
RTVSPropertyOp17
 70
     1
102
RTVSPropertyOp18
 70
     1
102
RTVSPropertyOp19
 70
     1
102
RTVSPropertyOp20
 70
     1
102
RTVSPropertyOp21
 70
     1
102
RTVSPropertyOp22
 70
     1
102
RTVSPropertyOp23
 70
     1
102
RTVSPropertyOp24
 70
     1
102
RTVSPropertyOp25
 70
     1
102
RTVSPropertyOp26
 70
     1
102
RTVSPropertyOp27
 70
     1
  0
XRECORD
  5
660
102
{ACAD_REACTORS
330
65F
102
}
330
65F
100
AcDbXrecord
280
     1
102
RTVSPropertyOp0
 70
     1
102
RTVSPropertyOp1
 70
     1
102
RTVSPropertyOp2
 70
     1
102
RTVSPropertyOp3
 70
     1
102
RTVSPropertyOp4
 70
     1
102
RTVSPropertyOp5
 70
     1
102
RTVSPropertyOp6
 70
     1
102
RTVSPropertyOp7
 70
     1
102
RTVSPropertyOp8
 70
     1
102
RTVSPropertyOp9
 70
     1
102
RTVSPropertyOp10
 70
     1
102
RTVSPropertyOp11
 70
     1
102
RTVSPropertyOp12
 70
     1
102
RTVSPropertyOp13
 70
     1
102
RTVSPropertyOp14
 70
     1
102
RTVSPropertyOp15
 70
     1
102
RTVSPropertyOp16
 70
     1
102
RTVSPropertyOp17
 70
     1
102
RTVSPropertyOp18
 70
     1
102
RTVSPropertyOp19
 70
     1
102
RTVSPropertyOp20
 70
     1
102
RTVSPropertyOp21
 70
     1
102
RTVSPropertyOp22
 70
     1
102
RTVSPropertyOp23
 70
     1
102
RTVSPropertyOp24
 70
     1
102
RTVSPropertyOp25
 70
     1
102
RTVSPropertyOp26
 70
     1
102
RTVSPropertyOp27
 70
     1
  0
XRECORD
  5
65E
102
{ACAD_REACTORS
330
65D
102
}
330
65D
100
AcDbXrecord
280
     1
102
RTVSPropertyOp0
 70
     1
102
RTVSPropertyOp1
 70
     1
102
RTVSPropertyOp2
 70
     1
102
RTVSPropertyOp3
 70
     1
102
RTVSPropertyOp4
 70
     1
102
RTVSPropertyOp5
 70
     1
102
RTVSPropertyOp6
 70
     1
102
RTVSPropertyOp7
 70
     1
102
RTVSPropertyOp8
 70
     1
102
RTVSPropertyOp9
 70
     1
102
RTVSPropertyOp10
 70
     1
102
RTVSPropertyOp11
 70
     1
102
RTVSPropertyOp12
 70
     1
102
RTVSPropertyOp13
 70
     1
102
RTVSPropertyOp14
 70
     1
102
RTVSPropertyOp15
 70
     1
102
RTVSPropertyOp16
 70
     1
102
RTVSPropertyOp17
 70
     1
102
RTVSPropertyOp18
 70
     1
102
RTVSPropertyOp19
 70
     1
102
RTVSPropertyOp20
 70
     1
102
RTVSPropertyOp21
 70
     1
102
RTVSPropertyOp22
 70
     1
102
RTVSPropertyOp23
 70
     1
102
RTVSPropertyOp24
 70
     1
102
RTVSPropertyOp25
 70
     1
102
RTVSPropertyOp26
 70
     1
102
RTVSPropertyOp27
 70
     1
  0
XRECORD
  5
65A
102
{ACAD_REACTORS
330
659
102
}
330
659
100
AcDbXrecord
280
     1
102
RTVSPropertyOp0
 70
     1
102
RTVSPropertyOp1
 70
     1
102
RTVSPropertyOp2
 70
     1
102
RTVSPropertyOp3
 70
     1
102
RTVSPropertyOp4
 70
     1
102
RTVSPropertyOp5
 70
     1
102
RTVSPropertyOp6
 70
     1
102
RTVSPropertyOp7
 70
     1
102
RTVSPropertyOp8
 70
     1
102
RTVSPropertyOp9
 70
     1
102
RTVSPropertyOp10
 70
     1
102
RTVSPropertyOp11
 70
     1
102
RTVSPropertyOp12
 70
     1
102
RTVSPropertyOp13
 70
     1
102
RTVSPropertyOp14
 70
     1
102
RTVSPropertyOp15
 70
     1
102
RTVSPropertyOp16
 70
     1
102
RTVSPropertyOp17
 70
     1
102
RTVSPropertyOp18
 70
     1
102
RTVSPropertyOp19
 70
     1
102
RTVSPropertyOp20
 70
     1
102
RTVSPropertyOp21
 70
     1
102
RTVSPropertyOp22
 70
     1
102
RTVSPropertyOp23
 70
     1
102
RTVSPropertyOp24
 70
     1
102
RTVSPropertyOp25
 70
     1
102
RTVSPropertyOp26
 70
     1
102
RTVSPropertyOp27
 70
     1
  0
XRECORD
  5
668
102
{ACAD_REACTORS
330
667
102
}
330
667
100
AcDbXrecord
280
     1
102
RTVSPropertyOp0
 70
     1
102
RTVSPropertyOp1
 70
     1
102
RTVSPropertyOp2
 70
     1
102
RTVSPropertyOp3
 70
     1
102
RTVSPropertyOp4
 70
     1
102
RTVSPropertyOp5
 70
     1
102
RTVSPropertyOp6
 70
     1
102
RTVSPropertyOp7
 70
     1
102
RTVSPropertyOp8
 70
     1
102
RTVSPropertyOp9
 70
     1
102
RTVSPropertyOp10
 70
     1
102
RTVSPropertyOp11
 70
     1
102
RTVSPropertyOp12
 70
     1
102
RTVSPropertyOp13
 70
     1
102
RTVSPropertyOp14
 70
     1
102
RTVSPropertyOp15
 70
     1
102
RTVSPropertyOp16
 70
     1
102
RTVSPropertyOp17
 70
     1
102
RTVSPropertyOp18
 70
     1
102
RTVSPropertyOp19
 70
     1
102
RTVSPropertyOp20
 70
     1
102
RTVSPropertyOp21
 70
     1
102
RTVSPropertyOp22
 70
     1
102
RTVSPropertyOp23
 70
     1
102
RTVSPropertyOp24
 70
     1
102
RTVSPropertyOp25
 70
     1
102
RTVSPropertyOp26
 70
     1
102
RTVSPropertyOp27
 70
     1
  0
XRECORD
  5
670
102
{ACAD_REACTORS
330
66F
102
}
330
66F
100
AcDbXrecord
280
     1
102
RTVSPropertyOp0
 70
     1
102
RTVSPropertyOp1
 70
     1
102
RTVSPropertyOp2
 70
     1
102
RTVSPropertyOp3
 70
     1
102
RTVSPropertyOp4
 70
     1
102
RTVSPropertyOp5
 70
     1
102
RTVSPropertyOp6
 70
     1
102
RTVSPropertyOp7
 70
     1
102
RTVSPropertyOp8
 70
     1
102
RTVSPropertyOp9
 70
     1
102
RTVSPropertyOp10
 70
     1
102
RTVSPropertyOp11
 70
     1
102
RTVSPropertyOp12
 70
     1
102
RTVSPropertyOp13
 70
     1
102
RTVSPropertyOp14
 70
     1
102
RTVSPropertyOp15
 70
     1
102
RTVSPropertyOp16
 70
     1
102
RTVSPropertyOp17
 70
     1
102
RTVSPropertyOp18
 70
     1
102
RTVSPropertyOp19
 70
     1
102
RTVSPropertyOp20
 70
     1
102
RTVSPropertyOp21
 70
     1
102
RTVSPropertyOp22
 70
     1
102
RTVSPropertyOp23
 70
     1
102
RTVSPropertyOp24
 70
     1
102
RTVSPropertyOp25
 70
     1
102
RTVSPropertyOp26
 70
     1
102
RTVSPropertyOp27
 70
     1
  0
XRECORD
  5
662
102
{ACAD_REACTORS
330
661
102
}
330
661
100
AcDbXrecord
280
     1
102
RTVSPropertyOp0
 70
     1
102
RTVSPropertyOp1
 70
     1
102
RTVSPropertyOp2
 70
     1
102
RTVSPropertyOp3
 70
     1
102
RTVSPropertyOp4
 70
     1
102
RTVSPropertyOp5
 70
     1
102
RTVSPropertyOp6
 70
     1
102
RTVSPropertyOp7
 70
     1
102
RTVSPropertyOp8
 70
     1
102
RTVSPropertyOp9
 70
     1
102
RTVSPropertyOp10
 70
     1
102
RTVSPropertyOp11
 70
     1
102
RTVSPropertyOp12
 70
     1
102
RTVSPropertyOp13
 70
     1
102
RTVSPropertyOp14
 70
     1
102
RTVSPropertyOp15
 70
     1
102
RTVSPropertyOp16
 70
     1
102
RTVSPropertyOp17
 70
     1
102
RTVSPropertyOp18
 70
     1
102
RTVSPropertyOp19
 70
     1
102
RTVSPropertyOp20
 70
     1
102
RTVSPropertyOp21
 70
     1
102
RTVSPropertyOp22
 70
     1
102
RTVSPropertyOp23
 70
     1
102
RTVSPropertyOp24
 70
     1
102
RTVSPropertyOp25
 70
     1
102
RTVSPropertyOp26
 70
     1
102
RTVSPropertyOp27
 70
     1
  0
XRECORD
  5
666
102
{ACAD_REACTORS
330
665
102
}
330
665
100
AcDbXrecord
280
     1
102
RTVSPropertyOp0
 70
     1
102
RTVSPropertyOp1
 70
     1
102
RTVSPropertyOp2
 70
     1
102
RTVSPropertyOp3
 70
     1
102
RTVSPropertyOp4
 70
     1
102
RTVSPropertyOp5
 70
     1
102
RTVSPropertyOp6
 70
     1
102
RTVSPropertyOp7
 70
     1
102
RTVSPropertyOp8
 70
     1
102
RTVSPropertyOp9
 70
     1
102
RTVSPropertyOp10
 70
     1
102
RTVSPropertyOp11
 70
     1
102
RTVSPropertyOp12
 70
     1
102
RTVSPropertyOp13
 70
     1
102
RTVSPropertyOp14
 70
     1
102
RTVSPropertyOp15
 70
     1
102
RTVSPropertyOp16
 70
     1
102
RTVSPropertyOp17
 70
     1
102
RTVSPropertyOp18
 70
     1
102
RTVSPropertyOp19
 70
     1
102
RTVSPropertyOp20
 70
     1
102
RTVSPropertyOp21
 70
     1
102
RTVSPropertyOp22
 70
     1
102
RTVSPropertyOp23
 70
     1
102
RTVSPropertyOp24
 70
     1
102
RTVSPropertyOp25
 70
     1
102
RTVSPropertyOp26
 70
     1
102
RTVSPropertyOp27
 70
     1
  0
XRECORD
  5
676
102
{ACAD_REACTORS
330
675
102
}
330
675
100
AcDbXrecord
280
     1
102
RTVSPropertyOp0
 70
     0
102
RTVSPropertyOp1
 70
     0
102
RTVSPropertyOp2
 70
     0
102
RTVSPropertyOp3
 70
     0
102
RTVSPropertyOp4
 70
     0
102
RTVSPropertyOp5
 70
     0
102
RTVSPropertyOp6
 70
     0
102
RTVSPropertyOp7
 70
     0
102
RTVSPropertyOp8
 70
     0
102
RTVSPropertyOp9
 70
     0
102
RTVSPropertyOp10
 70
     0
102
RTVSPropertyOp11
 70
     0
102
RTVSPropertyOp12
 70
     0
102
RTVSPropertyOp13
 70
     0
102
RTVSPropertyOp14
 70
     2
102
RTVSPropertyOp15
 70
     0
102
RTVSPropertyOp16
 70
     0
102
RTVSPropertyOp17
 70
     0
102
RTVSPropertyOp18
 70
     0
102
RTVSPropertyOp19
 70
     0
102
RTVSPropertyOp20
 70
     0
102
RTVSPropertyOp21
 70
     0
102
RTVSPropertyOp22
 70
     0
102
RTVSPropertyOp23
 70
     0
102
RTVSPropertyOp24
 70
     0
102
RTVSPropertyOp25
 70
     0
102
RTVSPropertyOp26
 70
     0
102
RTVSPropertyOp27
 70
     0
  0
XRECORD
  5
66E
102
{ACAD_REACTORS
330
66D
102
}
330
66D
100
AcDbXrecord
280
     1
102
RTVSPropertyOp0
 70
     1
102
RTVSPropertyOp1
 70
     1
102
RTVSPropertyOp2
 70
     1
102
RTVSPropertyOp3
 70
     1
102
RTVSPropertyOp4
 70
     1
102
RTVSPropertyOp5
 70
     1
102
RTVSPropertyOp6
 70
     1
102
RTVSPropertyOp7
 70
     1
102
RTVSPropertyOp8
 70
     1
102
RTVSPropertyOp9
 70
     1
102
RTVSPropertyOp10
 70
     1
102
RTVSPropertyOp11
 70
     1
102
RTVSPropertyOp12
 70
     1
102
RTVSPropertyOp13
 70
     1
102
RTVSPropertyOp14
 70
     1
102
RTVSPropertyOp15
 70
     1
102
RTVSPropertyOp16
 70
     1
102
RTVSPropertyOp17
 70
     1
102
RTVSPropertyOp18
 70
     1
102
RTVSPropertyOp19
 70
     1
102
RTVSPropertyOp20
 70
     1
102
RTVSPropertyOp21
 70
     1
102
RTVSPropertyOp22
 70
     1
102
RTVSPropertyOp23
 70
     1
102
RTVSPropertyOp24
 70
     1
102
RTVSPropertyOp25
 70
     1
102
RTVSPropertyOp26
 70
     1
102
RTVSPropertyOp27
 70
     1
  0
XRECORD
  5
652
102
{ACAD_REACTORS
330
651
102
}
330
651
100
AcDbXrecord
280
     1
102
RTVSPropertyOp0
 70
     1
102
RTVSPropertyOp1
 70
     1
102
RTVSPropertyOp2
 70
     1
102
RTVSPropertyOp3
 70
     1
102
RTVSPropertyOp4
 70
     1
102
RTVSPropertyOp5
 70
     1
102
RTVSPropertyOp6
 70
     1
102
RTVSPropertyOp7
 70
     1
102
RTVSPropertyOp8
 70
     1
102
RTVSPropertyOp9
 70
     1
102
RTVSPropertyOp10
 70
     1
102
RTVSPropertyOp11
 70
     1
102
RTVSPropertyOp12
 70
     1
102
RTVSPropertyOp13
 70
     1
102
RTVSPropertyOp14
 70
     1
102
RTVSPropertyOp15
 70
     1
102
RTVSPropertyOp16
 70
     1
102
RTVSPropertyOp17
 70
     1
102
RTVSPropertyOp18
 70
     1
102
RTVSPropertyOp19
 70
     1
102
RTVSPropertyOp20
 70
     1
102
RTVSPropertyOp21
 70
     1
102
RTVSPropertyOp22
 70
     1
102
RTVSPropertyOp23
 70
     1
102
RTVSPropertyOp24
 70
     1
102
RTVSPropertyOp25
 70
     1
102
RTVSPropertyOp26
 70
     1
102
RTVSPropertyOp27
 70
     1
  0
XRECORD
  5
654
102
{ACAD_REACTORS
330
653
102
}
330
653
100
AcDbXrecord
280
     1
102
RTVSPropertyOp0
 70
     1
102
RTVSPropertyOp1
 70
     1
102
RTVSPropertyOp2
 70
     1
102
RTVSPropertyOp3
 70
     1
102
RTVSPropertyOp4
 70
     1
102
RTVSPropertyOp5
 70
     1
102
RTVSPropertyOp6
 70
     1
102
RTVSPropertyOp7
 70
     1
102
RTVSPropertyOp8
 70
     1
102
RTVSPropertyOp9
 70
     1
102
RTVSPropertyOp10
 70
     1
102
RTVSPropertyOp11
 70
     1
102
RTVSPropertyOp12
 70
     1
102
RTVSPropertyOp13
 70
     1
102
RTVSPropertyOp14
 70
     1
102
RTVSPropertyOp15
 70
     1
102
RTVSPropertyOp16
 70
     1
102
RTVSPropertyOp17
 70
     1
102
RTVSPropertyOp18
 70
     1
102
RTVSPropertyOp19
 70
     1
102
RTVSPropertyOp20
 70
     1
102
RTVSPropertyOp21
 70
     1
102
RTVSPropertyOp22
 70
     1
102
RTVSPropertyOp23
 70
     1
102
RTVSPropertyOp24
 70
     1
102
RTVSPropertyOp25
 70
     1
102
RTVSPropertyOp26
 70
     1
102
RTVSPropertyOp27
 70
     1
  0
XRECORD
  5
656
102
{ACAD_REACTORS
330
655
102
}
330
655
100
AcDbXrecord
280
     1
102
RTVSPropertyOp0
 70
     1
102
RTVSPropertyOp1
 70
     1
102
RTVSPropertyOp2
 70
     1
102
RTVSPropertyOp3
 70
     1
102
RTVSPropertyOp4
 70
     1
102
RTVSPropertyOp5
 70
     1
102
RTVSPropertyOp6
 70
     1
102
RTVSPropertyOp7
 70
     1
102
RTVSPropertyOp8
 70
     1
102
RTVSPropertyOp9
 70
     1
102
RTVSPropertyOp10
 70
     1
102
RTVSPropertyOp11
 70
     1
102
RTVSPropertyOp12
 70
     1
102
RTVSPropertyOp13
 70
     1
102
RTVSPropertyOp14
 70
     1
102
RTVSPropertyOp15
 70
     1
102
RTVSPropertyOp16
 70
     1
102
RTVSPropertyOp17
 70
     1
102
RTVSPropertyOp18
 70
     1
102
RTVSPropertyOp19
 70
     1
102
RTVSPropertyOp20
 70
     1
102
RTVSPropertyOp21
 70
     1
102
RTVSPropertyOp22
 70
     1
102
RTVSPropertyOp23
 70
     1
102
RTVSPropertyOp24
 70
     1
102
RTVSPropertyOp25
 70
     1
102
RTVSPropertyOp26
 70
     1
102
RTVSPropertyOp27
 70
     1
  0
XRECORD
  5
658
102
{ACAD_REACTORS
330
657
102
}
330
657
100
AcDbXrecord
280
     1
102
RTVSPropertyOp0
 70
     1
102
RTVSPropertyOp1
 70
     1
102
RTVSPropertyOp2
 70
     1
102
RTVSPropertyOp3
 70
     1
102
RTVSPropertyOp4
 70
     1
102
RTVSPropertyOp5
 70
     1
102
RTVSPropertyOp6
 70
     1
102
RTVSPropertyOp7
 70
     1
102
RTVSPropertyOp8
 70
     1
102
RTVSPropertyOp9
 70
     1
102
RTVSPropertyOp10
 70
     1
102
RTVSPropertyOp11
 70
     1
102
RTVSPropertyOp12
 70
     1
102
RTVSPropertyOp13
 70
     1
102
RTVSPropertyOp14
 70
     1
102
RTVSPropertyOp15
 70
     1
102
RTVSPropertyOp16
 70
     1
102
RTVSPropertyOp17
 70
     1
102
RTVSPropertyOp18
 70
     1
102
RTVSPropertyOp19
 70
     1
102
RTVSPropertyOp20
 70
     1
102
RTVSPropertyOp21
 70
     1
102
RTVSPropertyOp22
 70
     1
102
RTVSPropertyOp23
 70
     1
102
RTVSPropertyOp24
 70
     1
102
RTVSPropertyOp25
 70
     1
102
RTVSPropertyOp26
 70
     1
102
RTVSPropertyOp27
 70
     1
  0
XRECORD
  5
672
102
{ACAD_REACTORS
330
671
102
}
330
671
100
AcDbXrecord
280
     1
102
RTVSPropertyOp0
 70
     0
102
RTVSPropertyOp1
 70
     0
102
RTVSPropertyOp2
 70
     0
102
RTVSPropertyOp3
 70
     0
102
RTVSPropertyOp4
 70
     0
102
RTVSPropertyOp5
 70
     0
102
RTVSPropertyOp6
 70
     0
102
RTVSPropertyOp7
 70
     0
102
RTVSPropertyOp8
 70
     0
102
RTVSPropertyOp9
 70
     0
102
RTVSPropertyOp10
 70
     0
102
RTVSPropertyOp11
 70
     0
102
RTVSPropertyOp12
 70
     0
102
RTVSPropertyOp13
 70
     0
102
RTVSPropertyOp14
 70
     2
102
RTVSPropertyOp15
 70
     0
102
RTVSPropertyOp16
 70
     0
102
RTVSPropertyOp17
 70
     0
102
RTVSPropertyOp18
 70
     0
102
RTVSPropertyOp19
 70
     0
102
RTVSPropertyOp20
 70
     0
102
RTVSPropertyOp21
 70
     0
102
RTVSPropertyOp22
 70
     0
102
RTVSPropertyOp23
 70
     0
102
RTVSPropertyOp24
 70
     0
102
RTVSPropertyOp25
 70
     0
102
RTVSPropertyOp26
 70
     0
102
RTVSPropertyOp27
 70
     0
  0
XRECORD
  5
66C
102
{ACAD_REACTORS
330
66B
102
}
330
66B
100
AcDbXrecord
280
     1
102
RTVSPropertyOp0
 70
     1
102
RTVSPropertyOp1
 70
     1
102
RTVSPropertyOp2
 70
     1
102
RTVSPropertyOp3
 70
     1
102
RTVSPropertyOp4
 70
     1
102
RTVSPropertyOp5
 70
     1
102
RTVSPropertyOp6
 70
     1
102
RTVSPropertyOp7
 70
     1
102
RTVSPropertyOp8
 70
     1
102
RTVSPropertyOp9
 70
     1
102
RTVSPropertyOp10
 70
     1
102
RTVSPropertyOp11
 70
     1
102
RTVSPropertyOp12
 70
     1
102
RTVSPropertyOp13
 70
     1
102
RTVSPropertyOp14
 70
     1
102
RTVSPropertyOp15
 70
     1
102
RTVSPropertyOp16
 70
     1
102
RTVSPropertyOp17
 70
     1
102
RTVSPropertyOp18
 70
     1
102
RTVSPropertyOp19
 70
     1
102
RTVSPropertyOp20
 70
     1
102
RTVSPropertyOp21
 70
     1
102
RTVSPropertyOp22
 70
     1
102
RTVSPropertyOp23
 70
     1
102
RTVSPropertyOp24
 70
     1
102
RTVSPropertyOp25
 70
     1
102
RTVSPropertyOp26
 70
     1
102
RTVSPropertyOp27
 70
     1
  0
XRECORD
  5
674
102
{ACAD_REACTORS
330
673
102
}
330
673
100
AcDbXrecord
280
     1
102
RTVSPropertyOp0
 70
     0
102
RTVSPropertyOp1
 70
     0
102
RTVSPropertyOp2
 70
     0
102
RTVSPropertyOp3
 70
     0
102
RTVSPropertyOp4
 70
     0
102
RTVSPropertyOp5
 70
     0
102
RTVSPropertyOp6
 70
     0
102
RTVSPropertyOp7
 70
     0
102
RTVSPropertyOp8
 70
     0
102
RTVSPropertyOp9
 70
     0
102
RTVSPropertyOp10
 70
     0
102
RTVSPropertyOp11
 70
     0
102
RTVSPropertyOp12
 70
     0
102
RTVSPropertyOp13
 70
     0
102
RTVSPropertyOp14
 70
     2
102
RTVSPropertyOp15
 70
     0
102
RTVSPropertyOp16
 70
     0
102
RTVSPropertyOp17
 70
     0
102
RTVSPropertyOp18
 70
     0
102
RTVSPropertyOp19
 70
     0
102
RTVSPropertyOp20
 70
     0
102
RTVSPropertyOp21
 70
     0
102
RTVSPropertyOp22
 70
     0
102
RTVSPropertyOp23
 70
     0
102
RTVSPropertyOp24
 70
     0
102
RTVSPropertyOp25
 70
     0
102
RTVSPropertyOp26
 70
     0
102
RTVSPropertyOp27
 70
     0
  0
XRECORD
  5
664
102
{ACAD_REACTORS
330
663
102
}
330
663
100
AcDbXrecord
280
     1
102
RTVSPropertyOp0
 70
     1
102
RTVSPropertyOp1
 70
     1
102
RTVSPropertyOp2
 70
     1
102
RTVSPropertyOp3
 70
     1
102
RTVSPropertyOp4
 70
     1
102
RTVSPropertyOp5
 70
     1
102
RTVSPropertyOp6
 70
     1
102
RTVSPropertyOp7
 70
     1
102
RTVSPropertyOp8
 70
     1
102
RTVSPropertyOp9
 70
     1
102
RTVSPropertyOp10
 70
     1
102
RTVSPropertyOp11
 70
     1
102
RTVSPropertyOp12
 70
     1
102
RTVSPropertyOp13
 70
     1
102
RTVSPropertyOp14
 70
     1
102
RTVSPropertyOp15
 70
     1
102
RTVSPropertyOp16
 70
     1
102
RTVSPropertyOp17
 70
     1
102
RTVSPropertyOp18
 70
     1
102
RTVSPropertyOp19
 70
     1
102
RTVSPropertyOp20
 70
     1
102
RTVSPropertyOp21
 70
     1
102
RTVSPropertyOp22
 70
     1
102
RTVSPropertyOp23
 70
     1
102
RTVSPropertyOp24
 70
     1
102
RTVSPropertyOp25
 70
     1
102
RTVSPropertyOp26
 70
     1
102
RTVSPropertyOp27
 70
     1
  0
XRECORD
  5
66A
102
{ACAD_REACTORS
330
669
102
}
330
669
100
AcDbXrecord
280
     1
102
RTVSPropertyOp0
 70
     1
102
RTVSPropertyOp1
 70
     1
102
RTVSPropertyOp2
 70
     1
102
RTVSPropertyOp3
 70
     1
102
RTVSPropertyOp4
 70
     1
102
RTVSPropertyOp5
 70
     1
102
RTVSPropertyOp6
 70
     1
102
RTVSPropertyOp7
 70
     1
102
RTVSPropertyOp8
 70
     1
102
RTVSPropertyOp9
 70
     1
102
RTVSPropertyOp10
 70
     1
102
RTVSPropertyOp11
 70
     1
102
RTVSPropertyOp12
 70
     1
102
RTVSPropertyOp13
 70
     1
102
RTVSPropertyOp14
 70
     1
102
RTVSPropertyOp15
 70
     1
102
RTVSPropertyOp16
 70
     1
102
RTVSPropertyOp17
 70
     1
102
RTVSPropertyOp18
 70
     1
102
RTVSPropertyOp19
 70
     1
102
RTVSPropertyOp20
 70
     1
102
RTVSPropertyOp21
 70
     1
102
RTVSPropertyOp22
 70
     1
102
RTVSPropertyOp23
 70
     1
102
RTVSPropertyOp24
 70
     1
102
RTVSPropertyOp25
 70
     1
102
RTVSPropertyOp26
 70
     1
102
RTVSPropertyOp27
 70
     1
  0
ENDSEC
  0
EOF
