  0
SECTION
  2
HEADER
  9
$ACADVER
  1
AC1015
  9
$ACADMAINTVER
 70
    20
  9
$DWGCODEPAGE
  3
ANSI_1252
  9
$INSBASE
 10
0.0
 20
0.0
 30
0.0
  9
$EXTMIN
 10
922.5663957773237
 20
540.2640391121811
 30
0.0
  9
$EXTMAX
 10
1360.866395777322
 20
839.1640391121811
 30
0.0
  9
$LIMMIN
 10
0.0
 20
0.0
  9
$LIMMAX
 10
420.0
 20
297.0
  9
$ORTHOMODE
 70
     1
  9
$REGENMODE
 70
     1
  9
$FILLMODE
 70
     1
  9
$QTEXTMODE
 70
     0
  9
$MIRRTEXT
 70
     1
  9
$LTSCALE
 40
1.0
  9
$ATTMODE
 70
     1
  9
$TEXTSIZE
 40
2.5
  9
$TRACEWID
 40
1.0
  9
$TEXTSTYLE
  7
STANDARD
  9
$CLAYER
  8
0
  9
$CELTYPE
  6
ByLayer
  9
$CECOLOR
 62
   256
  9
$CELTSCALE
 40
1.0
  9
$DISPSILH
 70
     0
  9
$DIMSCALE
 40
1.0
  9
$DIMASZ
 40
2.5
  9
$DIMEXO
 40
1.0
  9
$DIMDLI
 40
10.0
  9
$DIMRND
 40
0.0
  9
$DIMDLE
 40
0.0
  9
$DIMEXE
 40
1.0
  9
$DIMTP
 40
0.1
  9
$DIMTM
 40
0.1
  9
$DIMTXT
 40
3.5
  9
$DIMCEN
 40
0.0
  9
$DIMTSZ
 40
0.0
  9
$DIMTOL
 70
     0
  9
$DIMLIM
 70
     0
  9
$DIMTIH
 70
     0
  9
$DIMTOH
 70
     0
  9
$DIMSE1
 70
     0
  9
$DIMSE2
 70
     0
  9
$DIMTAD
 70
     1
  9
$DIMZIN
 70
     8
  9
$DIMBLK
  1

  9
$DIMASO
 70
     1
  9
$DIMSHO
 70
     1
  9
$DIMPOST
  1

  9
$DIMAPOST
  1
"
  9
$DIMALT
 70
     0
  9
$DIMALTD
 70
     2
  9
$DIMALTF
 40
0.0393701
  9
$DIMLFAC
 40
1.0
  9
$DIMTOFL
 70
     1
  9
$DIMTVP
 40
0.0
  9
$DIMTIX
 70
     0
  9
$DIMSOXD
 70
     0
  9
$DIMSAH
 70
     0
  9
$DIMBLK1
  1

  9
$DIMBLK2
  1

  9
$DIMSTYLE
  2
AM_ISO
  9
$DIMCLRD
 70
   256
  9
$DIMCLRE
 70
   256
  9
$DIMCLRT
 70
     2
  9
$DIMTFAC
 40
0.71
  9
$DIMGAP
 40
1.5
  9
$DIMJUST
 70
     0
  9
$DIMSD1
 70
     0
  9
$DIMSD2
 70
     0
  9
$DIMTOLJ
 70
     0
  9
$DIMTZIN
 70
     8
  9
$DIMALTZ
 70
     0
  9
$DIMALTTZ
 70
     0
  9
$DIMUPT
 70
     0
  9
$DIMDEC
 70
     2
  9
$DIMTDEC
 70
     3
  9
$DIMALTU
 70
     2
  9
$DIMALTTD
 70
     4
  9
$DIMTXSTY
  7
STANDARD
  9
$DIMAUNIT
 70
     0
  9
$DIMADEC
 70
     0
  9
$DIMALTRND
 40
0.0
  9
$DIMAZIN
 70
     2
  9
$DIMDSEP
 70
    46
  9
$DIMATFIT
 70
     3
  9
$DIMFRAC
 70
     0
  9
$DIMLDRBLK
  1

  9
$DIMLUNIT
 70
     2
  9
$DIMLWD
 70
    -1
  9
$DIMLWE
 70
    -1
  9
$DIMTMOVE
 70
     0
  9
$LUNITS
 70
     2
  9
$LUPREC
 70
     2
  9
$SKETCHINC
 40
1.0
  9
$FILLETRAD
 40
0.0
  9
$AUNITS
 70
     0
  9
$AUPREC
 70
     0
  9
$MENU
  1
.
  9
$ELEVATION
 40
0.0
  9
$PELEVATION
 40
0.0
  9
$THICKNESS
 40
0.0
  9
$LIMCHECK
 70
     0
  9
$CHAMFERA
 40
2.5
  9
$CHAMFERB
 40
2.5
  9
$CHAMFERC
 40
20.0
  9
$CHAMFERD
 40
0.0
  9
$SKPOLY
 70
     0
  9
$TDCREATE
 40
2454805.271839780
  9
$TDUCREATE
 40
2454805.230173113
  9
$TDUPDATE
 40
2455146.449743044
  9
$TDUUPDATE
 40
2455146.408076377
  9
$TDINDWG
 40
0.0851780787
  9
$TDUSRTIMER
 40
0.0848508796
  9
$USRTIMER
 70
     1
  9
$ANGBASE
 50
0.0
  9
$ANGDIR
 70
     0
  9
$PDMODE
 70
     0
  9
$PDSIZE
 40
0.0
  9
$PLINEWID
 40
0.0
  9
$SPLFRAME
 70
     0
  9
$SPLINETYPE
 70
     6
  9
$SPLINESEGS
 70
     8
  9
$HANDSEED
  5
1314
  9
$SURFTAB1
 70
     6
  9
$SURFTAB2
 70
     6
  9
$SURFTYPE
 70
     6
  9
$SURFU
 70
     6
  9
$SURFV
 70
     6
  9
$UCSBASE
  2

  9
$UCSNAME
  2

  9
$UCSORG
 10
0.0
 20
0.0
 30
0.0
  9
$UCSXDIR
 10
1.0
 20
0.0
 30
0.0
  9
$UCSYDIR
 10
0.0
 20
1.0
 30
0.0
  9
$UCSORTHOREF
  2

  9
$UCSORTHOVIEW
 70
     0
  9
$UCSORGTOP
 10
0.0
 20
0.0
 30
0.0
  9
$UCSORGBOTTOM
 10
0.0
 20
0.0
 30
0.0
  9
$UCSORGLEFT
 10
0.0
 20
0.0
 30
0.0
  9
$UCSORGRIGHT
 10
0.0
 20
0.0
 30
0.0
  9
$UCSORGFRONT
 10
0.0
 20
0.0
 30
0.0
  9
$UCSORGBACK
 10
0.0
 20
0.0
 30
0.0
  9
$PUCSBASE
  2

  9
$PUCSNAME
  2

  9
$PUCSORG
 10
0.0
 20
0.0
 30
0.0
  9
$PUCSXDIR
 10
1.0
 20
0.0
 30
0.0
  9
$PUCSYDIR
 10
0.0
 20
1.0
 30
0.0
  9
$PUCSORTHOREF
  2

  9
$PUCSORTHOVIEW
 70
     0
  9
$PUCSORGTOP
 10
0.0
 20
0.0
 30
0.0
  9
$PUCSORGBOTTOM
 10
0.0
 20
0.0
 30
0.0
  9
$PUCSORGLEFT
 10
0.0
 20
0.0
 30
0.0
  9
$PUCSORGRIGHT
 10
0.0
 20
0.0
 30
0.0
  9
$PUCSORGFRONT
 10
0.0
 20
0.0
 30
0.0
  9
$PUCSORGBACK
 10
0.0
 20
0.0
 30
0.0
  9
$USERI1
 70
     0
  9
$USERI2
 70
     0
  9
$USERI3
 70
     0
  9
$USERI4
 70
     0
  9
$USERI5
 70
     0
  9
$USERR1
 40
0.0
  9
$USERR2
 40
0.0
  9
$USERR3
 40
0.0
  9
$USERR4
 40
0.0
  9
$USERR5
 40
0.0
  9
$WORLDVIEW
 70
     1
  9
$SHADEDGE
 70
     3
  9
$SHADEDIF
 70
    70
  9
$TILEMODE
 70
     1
  9
$MAXACTVP
 70
    64
  9
$PINSBASE
 10
0.0
 20
0.0
 30
0.0
  9
$PLIMCHECK
 70
     0
  9
$PEXTMIN
 10
1.000000000000000E+20
 20
1.000000000000000E+20
 30
1.000000000000000E+20
  9
$PEXTMAX
 10
-1.000000000000000E+20
 20
-1.000000000000000E+20
 30
-1.000000000000000E+20
  9
$PLIMMIN
 10
0.0
 20
0.0
  9
$PLIMMAX
 10
420.0
 20
297.0
  9
$UNITMODE
 70
     0
  9
$VISRETAIN
 70
     1
  9
$PLINEGEN
 70
     0
  9
$PSLTSCALE
 70
     1
  9
$TREEDEPTH
 70
  3020
  9
$CMLSTYLE
  2
Standard
  9
$CMLJUST
 70
     0
  9
$CMLSCALE
 40
20.0
  9
$PROXYGRAPHICS
 70
     1
  9
$MEASUREMENT
 70
     1
  9
$CELWEIGHT
370
    -1
  9
$ENDCAPS
280
     0
  9
$JOINSTYLE
280
     0
  9
$LWDISPLAY
290
     0
  9
$INSUNITS
 70
     4
  9
$HYPERLINKBASE
  1

  9
$STYLESHEET
  1

  9
$XEDIT
290
     1
  9
$CEPSNTYPE
380
     0
  9
$PSTYLEMODE
290
     1
  9
$FINGERPRINTGUID
  2
{45BF285C-033E-49EC-BB72-6B571F90B167}
  9
$VERSIONGUID
  2
{384CB9CA-F868-426E-92C9-82B856BCC666}
  9
$EXTNAMES
290
     1
  9
$PSVPSCALE
 40
0.0
  9
$OLESTARTUP
290
     0
  0
ENDSEC
  0
SECTION
  2
CLASSES
  0
CLASS
  1
ACDBDICTIONARYWDFLT
  2
AcDbDictionaryWithDefault
  3
ObjectDBX Classes
 90
        0
280
     0
281
     0
  0
CLASS
  1
ACDBPLACEHOLDER
  2
AcDbPlaceHolder
  3
ObjectDBX Classes
 90
        0
280
     0
281
     0
  0
CLASS
  1
LAYOUT
  2
AcDbLayout
  3
ObjectDBX Classes
 90
        0
280
     0
281
     0
  0
CLASS
  1
ACME_DOCUMENT
  2
AcMeDbDoc
  3
AcMeServices
 90
     1024
280
     0
281
     0
  0
CLASS
  1
AMGSETTINGSOBJ
  2
AmgSettingsObj
  3
"AcadM|Product Description: AutoCAD Mechanical|Company: Autodesk, Inc."
 90
     1024
280
     0
281
     0
  0
CLASS
  1
ACMESCOPE
  2
AcMeScope
  3
AcMeServices
 90
     1024
280
     0
281
     0
  0
CLASS
  1
ACMECOMMANDHISTORY
  2
AcMeCommandHistory
  3
AcMeServices
 90
     1024
280
     0
281
     0
  0
CLASS
  1
ACIMSYSVARMAN
  2
AcImSysVarManager
  3
AcMeServices
 90
     1024
280
     0
281
     0
  0
CLASS
  1
ACIMREALSYSVAR
  2
AcImRealSysVar
  3
AcMeServices
 90
     1024
280
     0
281
     0
  0
CLASS
  1
ACIMINTSYSVAR
  2
AcImIntSysVar
  3
AcMeServices
 90
     1024
280
     0
281
     0
  0
CLASS
  1
ACMEDRAWINGMAN
  2
AcMeDrawingMan
  3
AcMeServices
 90
     1024
280
     0
281
     0
  0
CLASS
  1
ACMEVIEW
  2
AcMeView
  3
AcMeServices
 90
     1024
280
     0
281
     0
  0
CLASS
  1
ACDBENTITYCACHE
  2
AcMeEntityCache
  3
AcMeServices
 90
     1024
280
     0
281
     0
  0
CLASS
  1
GSMANAGER
  2
AcMeGSManager
  3
AcMeServices
 90
     1024
280
     0
281
     0
  0
CLASS
  1
AMDTINTERNALREACTOR
  2
AmdtInternalReactor
  3
AcMeServices
 90
     1024
280
     0
281
     0
  0
CLASS
  1
ACMESTATEMGR
  2
AcMeStateMgr
  3
AcMeServices
 90
     1024
280
     0
281
     0
  0
CLASS
  1
ACGREFMASTER
  2
AcGrefMaster
  3
AcAttribServices
 90
     1024
280
     0
281
     0
  0
CLASS
  1
ACME_DATABASE
  2
AcMeDbDatabase
  3
AcMeServices
 90
     1024
280
     0
281
     0
  0
CLASS
  1
ACRFINSADJUSTERMGR
  2
AcRfInsAdjusterMgr
  3
AcMeServices
 90
     1024
280
     0
281
     0
  0
CLASS
  1
ACGREFACADMASTER
  2
AcGrefacadMaster
  3
AcGrefServices
 90
     1024
280
     0
281
     0
  0
CLASS
  1
AMIMASTER
  2
AmiMaster
  3
AmiServices
 90
     1024
280
     0
281
     0
  0
CLASS
  1
ACMDATADICTIONARY
  2
AcmDataDictionary
  3
"AcmSymBB|Product Description: AutoCAD Mechanical|Company: Autodesk, Inc."
 90
     1024
280
     0
281
     0
  0
CLASS
  1
ACMDATAENTRYBLOCK
  2
AcmDataEntryBlock
  3
AcmSymBB|Product Description: AutoCAD Mechanical|Company: Autodesk, Inc.
 90
     1024
280
     0
281
     0
  0
CLASS
  1
ACIMSTRSYSVAR
  2
AcImStrSysVar
  3
AcMeServices
 90
     1024
280
     0
281
     0
  0
CLASS
  1
ACMSTANDARDISO
  2
AcmStandardISO
  3
"Amdt_StdImp|Product Description: AutoCAD Mechanical|Company: Autodesk, Inc."
 90
     1024
280
     0
281
     0
  0
CLASS
  1
AMGOBJPROPCFG
  2
AmgObjPropCfg
  3
"AmgLay|Product Description: AutoCAD Mechanical|Company: Autodesk, Inc."
 90
     1025
280
     0
281
     0
  0
CLASS
  1
AMDTEDGESTANDARDISO
  2
AmdtEdgeStdISO
  3
"Amdt_StdImp|Product Description: AutoCAD Mechanical|Company: Autodesk, Inc."
 90
     1024
280
     0
281
     0
  0
CLASS
  1
ACMSURFSTANDARDISO
  2
AcmSurfTextStdISO
  3
"Amdt_StdImp|Product Description: AutoCAD Mechanical|Company: Autodesk, Inc."
 90
     1024
280
     0
281
     0
  0
CLASS
  1
ACMFCFSTANDARDISO
  2
AcmFCFStdISO
  3
"Amdt_StdImp|Product Description: AutoCAD Mechanical|Company: Autodesk, Inc."
 90
     1024
280
     0
281
     0
  0
CLASS
  1
ACMWELDSTANDARDISO
  2
AcmWeldingStdISO
  3
"Amdt_StdImp|Product Description: AutoCAD Mechanical|Company: Autodesk, Inc."
 90
     1024
280
     0
281
     0
  0
CLASS
  1
ACMIDSTANDARDISO
  2
AcmIdStdISO
  3
"Amdt_StdImp|Product Description: AutoCAD Mechanical|Company: Autodesk, Inc."
 90
     1024
280
     0
281
     0
  0
CLASS
  1
ACMDATUMSTANDARDISO
  2
AcmDatumStdISO
  3
"Amdt_StdImp|Product Description: AutoCAD Mechanical|Company: Autodesk, Inc."
 90
     1024
280
     0
281
     0
  0
CLASS
  1
ACMBOMSTANDARDISO
  2
AcmBOMStdISO
  3
"Amdt_StdImp|Product Description: AutoCAD Mechanical|Company: Autodesk, Inc."
 90
     1024
280
     0
281
     0
  0
CLASS
  1
ACMDETAILSTANDARDISO
  2
AmdtDetailSymStdISO
  3
"Amdt_StdImp|Product Description: AutoCAD Mechanical|Company: Autodesk, Inc."
 90
     1024
280
     0
281
     0
  0
CLASS
  1
ACMSECTIONSTANDARDISO
  2
AmdtSectionSymStdISO
  3
"Amdt_StdImp|Product Description: AutoCAD Mechanical|Company: Autodesk, Inc."
 90
     1024
280
     0
281
     0
  0
CLASS
  1
ACMCENTERLINESTANDARDISO
  2
AmdtCenterLineStdISO
  3
"Amdt_StdImp|Product Description: AutoCAD Mechanical|Company: Autodesk, Inc."
 90
     1024
280
     0
281
     0
  0
CLASS
  1
ACMNOTESTANDARDISO
  2
AmdtNoteStdISO
  3
"Amdt_StdImp|Product Description: AutoCAD Mechanical|Company: Autodesk, Inc."
 90
     1024
280
     0
281
     0
  0
CLASS
  1
ACAMGLAYSTD
  2
AcAmgLayStd
  3
"AmgLay|Product Description: AutoCAD Mechanical|Company: Autodesk, Inc."
 90
     1024
280
     0
281
     0
  0
CLASS
  1
ACAMGDIMSTD
  2
AcAmgDimStd
  3
"AmgDim|Product Description: AutoCAD Mechanical|Company: Autodesk, Inc."
 90
     1024
280
     0
281
     0
  0
CLASS
  1
ACAMGHOLECHARTSTDISO
  2
AcAmgHoleChartStdISO
  3
AmgDim|Product Description: AutoCAD Mechanical|Company: Autodesk, Inc.
 90
     1024
280
     0
281
     0
  0
CLASS
  1
ACAMGTITLESTD
  2
AcAmgTitleStd
  3
"AmgTitle|Product Description: AutoCAD Mechanical|Company: Autodesk, Inc."
 90
     4095
280
     0
281
     0
  0
CLASS
  1
LAYER_INDEX
  2
AcDbLayerIndex
  3
ObjectDBX Classes
 90
    32768
280
     0
281
     0
  0
CLASS
  1
IDBUFFER
  2
AcDbIdBuffer
  3
ObjectDBX Classes
 90
    32768
280
     0
281
     0
  0
CLASS
  1
DICTIONARYVAR
  2
AcDbDictionaryVar
  3
ObjectDBX Classes
 90
        0
280
     0
281
     0
  0
CLASS
  1
AM_DRAWING_MGR
  2
AcDmDwgMgr
  3
AcMechDwgViewMgmt
 90
     1024
280
     0
281
     0
  0
CLASS
  1
AM_DWG_DOCUMENT
  2
AcDmDwgDocument
  3
AcMechDwgViewMgmt
 90
     1024
280
     0
281
     0
  0
CLASS
  1
AM_DWG_SHEET
  2
AcDmSheet
  3
AcMechDwgViewMgmt
 90
     1024
280
     0
281
     0
  0
CLASS
  1
AM_VIEWDIMPARMAP
  2
AcDmViewDimParMap
  3
AcMechDwgViewMgmt
 90
     1024
280
     0
281
     0
  0
CLASS
  1
AM_DWGMGR_NAME
  2
AcDmDwgMgrName
  3
AcMechDwgViewMgmt
 90
     1024
280
     0
281
     0
  0
CLASS
  1
AMDTMENUSTATEMGR
  2
AmdtMenuStateMgr
  3
McadcomServices
 90
     1024
280
     0
281
     0
  0
CLASS
  1
AMDTMCOMMENUSTATE
  2
AmdtMcomMenuState
  3
McadcomServices
 90
     1024
280
     0
281
     0
  0
CLASS
  1
MAPIAMMOUDLE
  2
MApiAmModule
  3
MApiAmServices
 90
     1024
280
     0
281
     0
  0
CLASS
  1
AMDTADMENUSTATE
  2
AmdtAdMenuState
  3
DesignerServices
 90
     1024
280
     0
281
     0
  0
CLASS
  1
ADAPPL
  2
AcAdAppl
  3
DesignerServices
 90
     1024
280
     0
281
     0
  0
CLASS
  1
DEPMGR
  2
AcAdDepMgr
  3
DesignerServices
 90
     1024
280
     0
281
     0
  0
CLASS
  1
PARAMMGR
  2
AcAdParamMgr
  3
DesignerServices
 90
     1024
280
     0
281
     0
  0
CLASS
  1
PARAMSCOPE
  2
AcAdParamScope
  3
DesignerServices
 90
     1024
280
     0
281
     0
  0
CLASS
  1
NAMEDAPPL
  2
AcAdNamedAppl
  3
DesignerServices
 90
     1024
280
     0
281
     0
  0
CLASS
  1
AMDTDMMENUSTATE
  2
AmdtDmMenuState
  3
AcMechDwgViewMgmt
 90
     1024
280
     0
281
     0
  0
CLASS
  1
AMDTAMMENUSTATE
  2
AmdtAmMenuState
  3
DesignerAssemblies
 90
     1024
280
     0
281
     0
  0
CLASS
  1
ACAMPROJECT
  2
AcAmProject
  3
DesignerAssemblies
 90
     1024
280
     0
281
     0
  0
CLASS
  1
ACAMGRCOMPDEF
  2
AcAmGrCompDef
  3
DesignerAssemblies
 90
     1024
280
     0
281
     0
  0
CLASS
  1
ACCMCONTEXT
  2
AcCmContext
  3
DesignerAssemblies
 90
     1024
280
     0
281
     0
  0
CLASS
  1
ACAMCOMPDEF
  2
AcAmCompDef
  3
DesignerAssemblies
 90
     1024
280
     0
281
     0
  0
CLASS
  1
ACAMCOMPDEFMGR
  2
AcAmCompDefMgr
  3
DesignerAssemblies
 90
     1024
280
     0
281
     0
  0
CLASS
  1
AMCONTEXTMGR
  2
AcAmContextMgr
  3
DesignerAssemblies
 90
     1024
280
     0
281
     0
  0
CLASS
  1
ACAMCONTEXTMODELER
  2
AcAmContextModeler
  3
DesignerAssemblies
 90
     1024
280
     0
281
     0
  0
CLASS
  1
ACMTHREADLINESTANDARDISO
  2
AmdtThreadLineStdISO
  3
"Amdt_StdImp|Product Description: AutoCAD Mechanical|Company: Autodesk, Inc."
 90
     1024
280
     0
281
     0
  0
CLASS
  1
CATALOGSTATE
  2
AcAmCatalogState
  3
DesignerAssemblies
 90
     1024
280
     0
281
     0
  0
CLASS
  1
ACAMGRCOMPDEFSET
  2
AcAmGrCompDefSet
  3
DesignerAssemblies
 90
     1024
280
     0
281
     0
  0
CLASS
  1
AMDTBROWSERDBTAB
  2
AmdtBrowserDbTab
  3
McadcomServices
 90
     1024
280
     0
281
     0
  0
CLASS
  1
CBROWSERAPPOBJECT
  2
CBrowserAppObject
  3
McadcomServices
 90
     1024
280
     0
281
     0
  0
CLASS
  1
DM_PLACEHOLDER
  2
AcDmSelsetPlaceholder
  3
AcMechDwgViewMgmt
 90
     1024
280
     0
281
     0
  0
CLASS
  1
TABLESTYLE
  2
AcDbTableStyle
  3
ObjectDBX Classes
 90
     4095
280
     0
281
     0
  0
CLASS
  1
VAACXREFPANELOBJECT
  2
VaAcXREFPanelObject
  3
VAAC_ADDIN
 90
    32768
280
     0
281
     0
  0
CLASS
  1
VAACIMAGEINVENTORY
  2
VaAcImageInventory
  3
VAAC_ADDIN
 90
    32768
280
     0
281
     0
  0
CLASS
  1
AMDTNOTETEMPLATEDB
  2
AmdtNoteTemplateDB
  3
AcmSymBB|Product Description: AutoCAD Mechanical|Company: Autodesk, Inc.
 90
     1024
280
     0
281
     0
  0
CLASS
  1
ACAMGFILTERDAT
  2
AcAmgFilterDat
  3
"AcadM|Product Description: AutoCAD Mechanical|Company: Autodesk, Inc."
 90
     1024
280
     0
281
     0
  0
CLASS
  1
ACMBOM
  2
AcmBom
  3
"AcmSymBB|Product Description: AutoCAD Mechanical|Company: Autodesk, Inc."
 90
    33792
280
     0
281
     0
  0
CLASS
  1
AMDTFORMULAUPDATEDISPATCHER
  2
AmdtFormulaUpdateDispatcher
  3
AcMeServices
 90
    33792
280
     0
281
     0
  0
CLASS
  1
MATERIAL
  2
AcDbMaterial
  3
ObjectDBX Classes
 90
     1153
280
     0
281
     0
  0
CLASS
  1
AMDTDETAILSYM
  2
AmdtDetailSym
  3
"AcmSymBB|Product Description: AutoCAD Mechanical|Company: Autodesk, Inc."
 90
    36863
280
     0
281
     1
  0
CLASS
  1
AMDTDETAILSYMLABEL
  2
AmdtDetailSymLabel
  3
"AcmSymBB|Product Description: AutoCAD Mechanical|Company: Autodesk, Inc."
 90
    36863
280
     0
281
     1
  0
CLASS
  1
AMDTSECTIONSYM
  2
AmdtSectionSym
  3
"AcmSymBB|Product Description: AutoCAD Mechanical|Company: Autodesk, Inc."
 90
    36863
280
     0
281
     1
  0
CLASS
  1
AMDTSECTIONSYMLABEL
  2
AmdtSectionSymLabel
  3
"AcmSymBB|Product Description: AutoCAD Mechanical|Company: Autodesk, Inc."
 90
    36863
280
     0
281
     1
  0
CLASS
  1
SORTENTSTABLE
  2
AcDbSortentsTable
  3
ObjectDBX Classes
 90
        0
280
     0
281
     0
  0
CLASS
  1
ACMSTANDARDDIN
  2
AcmStandardDIN
  3
"Amdt_StdImp|Product Description: AutoCAD Mechanical|Company: Autodesk, Inc."
 90
     1024
280
     0
281
     0
  0
CLASS
  1
AMDTEDGESTANDARDDIN
  2
AmdtEdgeStdDIN
  3
"Amdt_StdImp|Product Description: AutoCAD Mechanical|Company: Autodesk, Inc."
 90
     1024
280
     0
281
     0
  0
CLASS
  1
ACMSURFSTANDARDDIN
  2
AcmSurfTextStdDIN
  3
"Amdt_StdImp|Product Description: AutoCAD Mechanical|Company: Autodesk, Inc."
 90
     1024
280
     0
281
     0
  0
CLASS
  1
ACMFCFSTANDARDDIN
  2
AcmFCFStdDIN
  3
"Amdt_StdImp|Product Description: AutoCAD Mechanical|Company: Autodesk, Inc."
 90
     1024
280
     0
281
     0
  0
CLASS
  1
ACMWELDSTANDARDDIN
  2
AcmWeldingStdDIN
  3
"Amdt_StdImp|Product Description: AutoCAD Mechanical|Company: Autodesk, Inc."
 90
     1024
280
     0
281
     0
  0
CLASS
  1
ACMIDSTANDARDDIN
  2
AcmIdStdDIN
  3
"Amdt_StdImp|Product Description: AutoCAD Mechanical|Company: Autodesk, Inc."
 90
     1024
280
     0
281
     0
  0
CLASS
  1
ACMDATUMSTANDARDDIN
  2
AcmDatumStdDIN
  3
"Amdt_StdImp|Product Description: AutoCAD Mechanical|Company: Autodesk, Inc."
 90
     1024
280
     0
281
     0
  0
CLASS
  1
ACMBOMSTANDARDDIN
  2
AcmBOMStdDIN
  3
"Amdt_StdImp|Product Description: AutoCAD Mechanical|Company: Autodesk, Inc."
 90
     1024
280
     0
281
     0
  0
CLASS
  1
ACMDETAILSTANDARDDIN
  2
AmdtDetailSymStdDIN
  3
"Amdt_StdImp|Product Description: AutoCAD Mechanical|Company: Autodesk, Inc."
 90
     1024
280
     0
281
     0
  0
CLASS
  1
ACMSECTIONSTANDARDDIN
  2
AmdtSectionSymStdDIN
  3
"Amdt_StdImp|Product Description: AutoCAD Mechanical|Company: Autodesk, Inc."
 90
     1024
280
     0
281
     0
  0
CLASS
  1
ACMCENTERLINESTANDARDDIN
  2
AmdtCenterLineStdDIN
  3
"Amdt_StdImp|Product Description: AutoCAD Mechanical|Company: Autodesk, Inc."
 90
     1024
280
     0
281
     0
  0
CLASS
  1
ACMTHREADLINESTANDARDDIN
  2
AmdtThreadLineStdDIN
  3
"Amdt_StdImp|Product Description: AutoCAD Mechanical|Company: Autodesk, Inc."
 90
     1024
280
     0
281
     0
  0
CLASS
  1
ACMNOTESTANDARDDIN
  2
AmdtNoteStdDIN
  3
"Amdt_StdImp|Product Description: AutoCAD Mechanical|Company: Autodesk, Inc."
 90
     1024
280
     0
281
     0
  0
CLASS
  1
ACMSTANDARDANSI
  2
AcmStandardANSI
  3
"Amdt_StdImp|Product Description: AutoCAD Mechanical|Company: Autodesk, Inc."
 90
     1024
280
     0
281
     0
  0
CLASS
  1
ACMSURFSTANDARDANSI
  2
AcmSurfTextStdANSI
  3
"Amdt_StdImp|Product Description: AutoCAD Mechanical|Company: Autodesk, Inc."
 90
     1024
280
     0
281
     0
  0
CLASS
  1
ACMFCFSTANDARDANSI
  2
AcmFCFStdANSI
  3
"Amdt_StdImp|Product Description: AutoCAD Mechanical|Company: Autodesk, Inc."
 90
     1024
280
     0
281
     0
  0
CLASS
  1
ACMWELDSTANDARDANSI
  2
AcmWeldingStdANSI
  3
"Amdt_StdImp|Product Description: AutoCAD Mechanical|Company: Autodesk, Inc."
 90
     1024
280
     0
281
     0
  0
CLASS
  1
ACMIDSTANDARDANSI
  2
AcmIdStdANSI
  3
"Amdt_StdImp|Product Description: AutoCAD Mechanical|Company: Autodesk, Inc."
 90
     1024
280
     0
281
     0
  0
CLASS
  1
ACMDATUMSTANDARDANSI
  2
AcmDatumStdANSI
  3
"Amdt_StdImp|Product Description: AutoCAD Mechanical|Company: Autodesk, Inc."
 90
     1024
280
     0
281
     0
  0
CLASS
  1
ACMBOMSTANDARDANSI
  2
AcmBOMStdANSI
  3
"Amdt_StdImp|Product Description: AutoCAD Mechanical|Company: Autodesk, Inc."
 90
     1024
280
     0
281
     0
  0
CLASS
  1
ACMDETAILSTANDARDANSI
  2
AmdtDetailSymStdANSI
  3
"Amdt_StdImp|Product Description: AutoCAD Mechanical|Company: Autodesk, Inc."
 90
     1024
280
     0
281
     0
  0
CLASS
  1
ACMSECTIONSTANDARDANSI
  2
AmdtSectionSymStdANSI
  3
"Amdt_StdImp|Product Description: AutoCAD Mechanical|Company: Autodesk, Inc."
 90
     1024
280
     0
281
     0
  0
CLASS
  1
ACMCENTERLINESTANDARDANSI
  2
AmdtCenterLineStdANSI
  3
"Amdt_StdImp|Product Description: AutoCAD Mechanical|Company: Autodesk, Inc."
 90
     1024
280
     0
281
     0
  0
CLASS
  1
ACMTHREADLINESTANDARDANSI
  2
AmdtThreadLineStdANSI
  3
"Amdt_StdImp|Product Description: AutoCAD Mechanical|Company: Autodesk, Inc."
 90
     1024
280
     0
281
     0
  0
CLASS
  1
ACMNOTESTANDARDANSI
  2
AmdtNoteStdANSI
  3
"Amdt_StdImp|Product Description: AutoCAD Mechanical|Company: Autodesk, Inc."
 90
     1024
280
     0
281
     0
  0
CLASS
  1
ACAMGHOLECHARTSTDANSI
  2
AcAmgHoleChartStdANSI
  3
AmgDim|Product Description: AutoCAD Mechanical|Company: Autodesk, Inc.
 90
     1024
280
     0
281
     0
  0
CLASS
  1
DIMASSOC
  2
AcDbDimAssoc
  3
"AcDbDimAssoc|Product Desc:     AcDim ARX App For Dimension|Company:          Autodesk, Inc.|WEB Address:      www.autodesk.com"
 90
        0
280
     0
281
     0
  0
CLASS
  1
VISUALSTYLE
  2
AcDbVisualStyle
  3
ObjectDBX Classes
 90
     4095
280
     0
281
     0
  0
CLASS
  1
SCALE
  2
AcDbScale
  3
ObjectDBX Classes
 90
     1153
280
     0
281
     0
  0
CLASS
  1
MLEADERSTYLE
  2
AcDbMLeaderStyle
  3
ACDB_MLEADERSTYLE_CLASS
 90
     4095
280
     0
281
     0
  0
CLASS
  1
ACRFATTGENMGR
  2
AcRfAttGeneralMgr
  3
AcAttribServices
 90
     1024
280
     0
281
     0
  0
CLASS
  1
ACRFOBJATTMGR
  2
AcRfObjAttGroupMgr
  3
AcAttribServices
 90
     1024
280
     0
281
     0
  0
CLASS
  1
ACRFMCADAPIATTHOLDER
  2
AcRfMCADAPIAttHolder
  3
AcAttribServices
 90
     1024
280
     0
281
     0
  0
CLASS
  1
AMDTSYSATTR
  2
AmdtSystemAttribute
  3
AcAttribServices
 90
     1024
280
     0
281
     0
  0
CLASS
  1
ACMTAPERSTANDARDISO
  2
AcmTaperStdISO
  3
"Amdt_StdImp|Product Description: AutoCAD Mechanical|Company: Autodesk, Inc."
 90
     1024
280
     0
281
     0
  0
CLASS
  1
ACMANOOTATIONVIEWSTANDARDISO
  2
AmdtAnViewStdISO
  3
"Amdt_StdImp|Product Description: AutoCAD Mechanical|Company: Autodesk, Inc."
 90
     1024
280
     0
281
     0
  0
CLASS
  1
ACMTAPERSTANDARDDIN
  2
AcmTaperStdDIN
  3
"Amdt_StdImp|Product Description: AutoCAD Mechanical|Company: Autodesk, Inc."
 90
     1024
280
     0
281
     0
  0
CLASS
  1
ACMANOOTATIONVIEWSTANDARDDIN
  2
AmdtAnViewStdDIN
  3
"Amdt_StdImp|Product Description: AutoCAD Mechanical|Company: Autodesk, Inc."
 90
     1024
280
     0
281
     0
  0
CLASS
  1
ACMTAPERSTANDARDANSI
  2
AcmTaperStdANSI
  3
"Amdt_StdImp|Product Description: AutoCAD Mechanical|Company: Autodesk, Inc."
 90
     1024
280
     0
281
     0
  0
CLASS
  1
ACMANOOTATIONVIEWSTANDARDANSI
  2
AmdtAnViewStdANSI
  3
"Amdt_StdImp|Product Description: AutoCAD Mechanical|Company: Autodesk, Inc."
 90
     1024
280
     0
281
     0
  0
CLASS
  1
EXACXREFPANELOBJECT
  2
ExAcXREFPanelObject
  3
EXAC_ESW
 90
     1025
280
     0
281
     0
  0
CLASS
  1
NPOCOLLECTION
  2
AcDbImpNonPersistentObjectsCollection
  3
ObjectDBX Classes
 90
     1153
280
     0
281
     0
  0
CLASS
  1
CAMSSTRUCTBTNSTATE
  2
StructBtnState
  3
DesignerAssemblies
 90
     1024
280
     0
281
     0
  0
CLASS
  1
CELLSTYLEMAP
  2
AcDbCellStyleMap
  3
ObjectDBX Classes
 90
     1152
280
     0
281
     0
  0
CLASS
  1
ACDBLINERES
  2
AcDbLineRes
  3
AcGrefServices
 90
     1024
280
     0
281
     0
  0
CLASS
  1
ACMFCFRAME
  2
AcmFCF
  3
"AcmSymBB|Product Description: AutoCAD Mechanical|Company: Autodesk, Inc."
 90
     4095
280
     0
281
     1
  0
CLASS
  1
AEC_REFEDIT_STATUS_TRACKER
  2
AecDbRefEditStatusTracker
  3
AecArchBase50|Product Desc: Autodesk Architectural Desktop 2007 |Company: Autodesk,Inc. |WEB Address: www.autodesk.com
 90
      129
280
     0
281
     0
  0
ENDSEC
  0
SECTION
  2
TABLES
  0
TABLE
  2
VPORT
  5
8
330
0
100
AcDbSymbolTable
 70
     1
  0
VPORT
  5
10AF
330
8
100
AcDbSymbolTableRecord
100
AcDbViewportTableRecord
  2
*Active
 70
     0
 10
0.0
 20
0.0
 11
1.0
 21
1.0
 12
1096.842108263144
 22
715.0766396528122
 13
0.0
 23
0.0
 14
2.5
 24
2.5
 15
10.0
 25
10.0
 16
0.0
 26
0.0
 36
1.0
 17
0.0
 27
0.0
 37
0.0
 40
489.1631169052108
 41
1.833531510107015
 42
50.0
 43
0.0
 44
0.0
 50
0.0
 51
0.0
 71
     0
 72
   100
 73
     1
 74
     3
 75
     0
 76
     0
 77
     0
 78
     0
281
     0
 65
     1
110
0.0
120
0.0
130
0.0
111
1.0
121
0.0
131
0.0
112
0.0
122
1.0
132
0.0
 79
     0
146
0.0
  0
ENDTAB
  0
TABLE
  2
LTYPE
  5
5
330
0
100
AcDbSymbolTable
 70
    29
  0
LTYPE
  5
14
330
5
100
AcDbSymbolTableRecord
100
AcDbLinetypeTableRecord
  2
ByBlock
 70
     0
  3

 72
    65
 73
     0
 40
0.0
  0
LTYPE
  5
15
330
5
100
AcDbSymbolTableRecord
100
AcDbLinetypeTableRecord
  2
ByLayer
 70
     0
  3

 72
    65
 73
     0
 40
0.0
  0
LTYPE
  5
16
330
5
100
AcDbSymbolTableRecord
100
AcDbLinetypeTableRecord
  2
Continuous
 70
     0
  3
Solid line
 72
    65
 73
     0
 40
0.0
  0
LTYPE
  5
64
330
5
100
AcDbSymbolTableRecord
100
AcDbLinetypeTableRecord
  2
AM_ISO02W050
 70
     0
  3
__ __ __ __ __ __ __ __ __ __ __ __ __ __ __
 72
    65
 73
     2
 40
7.5
 49
6.0
 74
     0
 49
-1.5
 74
     0
  0
LTYPE
  5
65
330
5
100
AcDbSymbolTableRecord
100
AcDbLinetypeTableRecord
  2
AM_ISO08W050
 70
     0
  3
____ . ____ . ____ . ____ . ____ . ____ . ____
 72
    65
 73
     4
 40
18.0
 49
12.0
 74
     0
 49
-1.5
 74
     0
 49
3.0
 74
     0
 49
-1.5
 74
     0
  0
LTYPE
  5
66
330
5
100
AcDbSymbolTableRecord
100
AcDbLinetypeTableRecord
  2
AM_ISO09W050
 70
     0
  3
_____ . . _____ . . _____ . . ____ .. ____
 72
    65
 73
     6
 40
22.5
 49
12.0
 74
     0
 49
-1.5
 74
     0
 49
3.0
 74
     0
 49
-1.5
 74
     0
 49
3.0
 74
     0
 49
-1.5
 74
     0
  0
LTYPE
  5
67
330
5
100
AcDbSymbolTableRecord
100
AcDbLinetypeTableRecord
  2
Amconstr
 70
     0
  3
_______________________
 72
    65
 73
     2
 40
9999.0
 49
9999.0
 74
     0
 49
0.0
 74
     0
  0
LTYPE
  5
68
330
5
100
AcDbSymbolTableRecord
100
AcDbLinetypeTableRecord
  2
AM_ISO08W050x2
 70
     0
  3
__ . __ . __ . __ . __ . __
 72
    65
 73
     4
 40
9.0
 49
6.0
 74
     0
 49
-0.75
 74
     0
 49
1.5
 74
     0
 49
-0.75
 74
     0
  0
LTYPE
  5
69
330
5
100
AcDbSymbolTableRecord
100
AcDbLinetypeTableRecord
  2
AM_ISO02W050x2
 70
     0
  3
 _ _ _ _ _ _ _ _ _ _ _ _
 72
    65
 73
     2
 40
3.75
 49
3.0
 74
     0
 49
-0.75
 74
     0
  0
LTYPE
  5
6C
330
5
100
AcDbSymbolTableRecord
100
AcDbLinetypeTableRecord
  2
Amzigzag
 70
     0
  3
/\/-/\/-/\/-/\/-/\/-/\/
 72
    65
 73
     2
 40
11.0001
 49
0.0001
 74
     4
 75
   136
340
22C
 46
0.04
 50
0.0
 44
0.0
 45
0.0
 49
-11.0
 74
     0
  0
LTYPE
  5
7A
330
5
100
AcDbSymbolTableRecord
100
AcDbLinetypeTableRecord
  2
ACISOWELD
 70
     0
  3
_ _ _ _ _
 72
    65
 73
     2
 40
2.0
 49
2.0
 74
     0
 49
-1.0
 74
     0
  0
LTYPE
  5
7B
330
5
100
AcDbSymbolTableRecord
100
AcDbLinetypeTableRecord
  2
ACISOTGB
 70
     0
  3
__ . . __ . .
 72
    65
 73
     6
 40
9.0
 49
4.0
 74
     0
 49
-1.0
 74
     0
 49
1.0
 74
     0
 49
-1.0
 74
     0
 49
1.0
 74
     0
 49
-1.0
 74
     0
  0
LTYPE
  5
7C
330
5
100
AcDbSymbolTableRecord
100
AcDbLinetypeTableRecord
  2
ACISOTGL
 70
     0
  3
_ _ _ _ _
 72
    65
 73
     2
 40
3.0
 49
2.0
 74
     0
 49
-1.0
 74
     0
  0
LTYPE
  5
7E
330
5
100
AcDbSymbolTableRecord
100
AcDbLinetypeTableRecord
  2
CENTER
 70
     0
  3
__ . __
 72
    65
 73
     4
 40
7.0
 49
4.0
 74
     0
 49
-1.0
 74
     0
 49
1.0
 74
     0
 49
-1.0
 74
     0
  0
LTYPE
  5
D8
330
5
100
AcDbSymbolTableRecord
100
AcDbLinetypeTableRecord
  2
HIDDEN
 70
     0
  3
Hidden __ __ __ __ __ __ __ __ __ __ __ __ __ _
 72
    65
 73
     2
 40
9.524999999999998
 49
6.349999999999999
 74
     0
 49
-3.174999999999999
 74
     0
  0
LTYPE
  5
D9
330
5
100
AcDbSymbolTableRecord
100
AcDbLinetypeTableRecord
  2
PHANTOM2
 70
     0
  3
Phantom (.5x) ___ _ _ ___ _ _ ___ _ _ ___ _ _
 72
    65
 73
     6
 40
31.75
 49
15.875
 74
     0
 49
-3.174999999999999
 74
     0
 49
3.174999999999999
 74
     0
 49
-3.174999999999999
 74
     0
 49
3.174999999999999
 74
     0
 49
-3.174999999999999
 74
     0
  0
LTYPE
  5
397
330
5
100
AcDbSymbolTableRecord
100
AcDbLinetypeTableRecord
  2
AM_DIN_F_W050
 70
     0
  3
__ __ __ __ __ __ __ __ __ __ __ __ __ __ __
 72
    65
 73
     2
 40
6.25
 49
4.75
 74
     0
 49
-1.5
 74
     0
  0
LTYPE
  5
398
330
5
100
AcDbSymbolTableRecord
100
AcDbLinetypeTableRecord
  2
AM_DIN_G_W050
 70
     0
  3
____ . ____ . ____ . ____ . ____ . ____ . ____
 72
    65
 73
     4
 40
13.75
 49
9.75
 74
     0
 49
-1.5
 74
     0
 49
1.0
 74
     0
 49
-1.5
 74
     0
  0
LTYPE
  5
399
330
5
100
AcDbSymbolTableRecord
100
AcDbLinetypeTableRecord
  2
AM_DIN_K_W050
 70
     0
  3
_____ . . _____ . . _____ . . ____ .. ____
 72
    65
 73
     6
 40
16.25
 49
9.75
 74
     0
 49
-1.5
 74
     0
 49
1.0
 74
     0
 49
-1.5
 74
     0
 49
1.0
 74
     0
 49
-1.5
 74
     0
  0
LTYPE
  5
39A
330
5
100
AcDbSymbolTableRecord
100
AcDbLinetypeTableRecord
  2
AM_DIN_G_W050x2
 70
     0
  3
__ . __ . __ . __ . __ . __
 72
    65
 73
     4
 40
6.875
 49
4.75
 74
     0
 49
-0.875
 74
     0
 49
0.375
 74
     0
 49
-0.875
 74
     0
  0
LTYPE
  5
39B
330
5
100
AcDbSymbolTableRecord
100
AcDbLinetypeTableRecord
  2
AM_DIN_F_W050x2
 70
     0
  3
 _ _ _ _ _ _ _ _ _ _ _ _
 72
    65
 73
     2
 40
3.125
 49
2.25
 74
     0
 49
-0.875
 74
     0
  0
LTYPE
  5
39C
330
5
100
AcDbSymbolTableRecord
100
AcDbLinetypeTableRecord
  2
ACDINWELD
 70
     0
  3
_ _ _ _ _
 72
    65
 73
     2
 40
2.0
 49
2.0
 74
     0
 49
-1.0
 74
     0
  0
LTYPE
  5
39D
330
5
100
AcDbSymbolTableRecord
100
AcDbLinetypeTableRecord
  2
ACDINTGB
 70
     0
  3
__ . . __ . .
 72
    65
 73
     6
 40
9.0
 49
4.0
 74
     0
 49
-1.0
 74
     0
 49
1.0
 74
     0
 49
-1.0
 74
     0
 49
1.0
 74
     0
 49
-1.0
 74
     0
  0
LTYPE
  5
39E
330
5
100
AcDbSymbolTableRecord
100
AcDbLinetypeTableRecord
  2
ACDINTGL
 70
     0
  3
_ _ _ _ _
 72
    65
 73
     2
 40
3.0
 49
2.0
 74
     0
 49
-1.0
 74
     0
  0
LTYPE
  5
6F2
330
5
100
AcDbSymbolTableRecord
100
AcDbLinetypeTableRecord
  2
CENTER2
 70
     0
  3
Center (.5x) ___ _ ___ _ ___ _ ___ _ ___ _ ___
 72
    65
 73
     4
 40
1.125
 49
0.75
 74
     0
 49
-0.125
 74
     0
 49
0.125
 74
     0
 49
-0.125
 74
     0
  0
LTYPE
  5
6F3
330
5
100
AcDbSymbolTableRecord
100
AcDbLinetypeTableRecord
  2
HIDDEN2
 70
     0
  3
Hidden (.5x) _ _ _ _ _ _ _ _ _ _ _ _ _ _ _ _ _
 72
    65
 73
     2
 40
0.1875
 49
0.125
 74
     0
 49
-0.0625
 74
     0
  0
LTYPE
  5
6F4
330
5
100
AcDbSymbolTableRecord
100
AcDbLinetypeTableRecord
  2
Amzigzag2
 70
     0
  3
/\/-/\/-/\/-/\/-/\/-/\/
 72
    65
 73
     2
 40
0.4401
 49
0.0001
 74
     4
 75
   136
340
22C
 46
0.0016
 50
0.0
 44
0.0
 45
0.0
 49
-0.4400000000000001
 74
     0
  0
LTYPE
  5
6F5
330
5
100
AcDbSymbolTableRecord
100
AcDbLinetypeTableRecord
  2
ACANSTGB
 70
     0
  3
__ . . __ . .
 72
    65
 73
     6
 40
0.35433070866
 49
0.15748031496
 74
     0
 49
-0.03937007874
 74
     0
 49
0.03937007874
 74
     0
 49
-0.03937007874
 74
     0
 49
0.03937007874
 74
     0
 49
-0.03937007874
 74
     0
  0
LTYPE
  5
6F6
330
5
100
AcDbSymbolTableRecord
100
AcDbLinetypeTableRecord
  2
ACANSTGL
 70
     0
  3
_ _ _ _ _
 72
    65
 73
     2
 40
0.11811023622
 49
0.07874015748
 74
     0
 49
-0.03937007874
 74
     0
  0
LTYPE
  5
DAB
330
5
100
AcDbSymbolTableRecord
100
AcDbLinetypeTableRecord
  2
AUSGEZOGEN
 70
     0
  3
Ausgezogene Linie
 72
    65
 73
     0
 40
0.0
  0
LTYPE
  5
DAC
330
5
100
AcDbSymbolTableRecord
100
AcDbLinetypeTableRecord
  2
STRICHPUNKT
 70
     0
  3
__ . __ . __ . __ . __ . __ . __ . __ . __ . __
 72
    65
 73
     4
 40
1.0
 49
0.5
 74
     0
 49
-0.25
 74
     0
 49
0.0
 74
     0
 49
-0.25
 74
     0
  0
ENDTAB
  0
TABLE
  2
LAYER
  5
2
102
{ACAD_XDICTIONARY
360
3C3
102
}
330
0
100
AcDbSymbolTable
 70
    23
  0
LAYER
  5
10
102
{ACAD_XDICTIONARY
360
113E
102
}
330
2
100
AcDbSymbolTableRecord
100
AcDbLayerTableRecord
  2
0
 70
     0
 62
     7
  6
Continuous
370
    -3
390
F
  0
LAYER
  5
39F
102
{ACAD_XDICTIONARY
360
1140
102
}
330
2
100
AcDbSymbolTableRecord
100
AcDbLayerTableRecord
  2
5
 70
     0
 62
     3
  6
Continuous
370
    -3
390
F
  0
LAYER
  5
3A0
330
2
100
AcDbSymbolTableRecord
100
AcDbLayerTableRecord
  2
DEFPOINTS
 70
     0
 62
     7
  6
Continuous
290
     0
370
    -3
390
F
  0
LAYER
  5
3A1
102
{ACAD_XDICTIONARY
360
1142
102
}
330
2
100
AcDbSymbolTableRecord
100
AcDbLayerTableRecord
  2
AM_5
 70
     0
 62
     3
  6
Continuous
370
    25
390
F
  0
LAYER
  5
3A2
102
{ACAD_XDICTIONARY
360
1144
102
}
330
2
100
AcDbSymbolTableRecord
100
AcDbLayerTableRecord
  2
AM_7
 70
     0
 62
     4
  6
AM_ISO08W050
370
    25
390
F
  0
LAYER
  5
3A3
102
{ACAD_XDICTIONARY
360
1146
102
}
330
2
100
AcDbSymbolTableRecord
100
AcDbLayerTableRecord
  2
AM_4
 70
     0
 62
     3
  6
Continuous
370
    25
390
F
  0
LAYER
  5
3A4
102
{ACAD_XDICTIONARY
360
1148
102
}
330
2
100
AcDbSymbolTableRecord
100
AcDbLayerTableRecord
  2
AM_8
 70
     0
 62
     1
  6
Continuous
370
    25
390
F
  0
LAYER
  5
3A5
102
{ACAD_XDICTIONARY
360
114A
102
}
330
2
100
AcDbSymbolTableRecord
100
AcDbLayerTableRecord
  2
WHITE
 70
     0
 62
     7
  6
Continuous
370
    -3
390
F
  0
LAYER
  5
3A8
102
{ACAD_XDICTIONARY
360
114C
102
}
330
2
100
AcDbSymbolTableRecord
100
AcDbLayerTableRecord
  2
AM_10
 70
     0
 62
     7
  6
AM_ISO08W050
370
    50
390
F
1001
AcAecLayerStandard
1000

1000

  0
LAYER
  5
6F7
102
{ACAD_XDICTIONARY
360
114E
102
}
330
2
100
AcDbSymbolTableRecord
100
AcDbLayerTableRecord
  2
MIT VERRIEGELUNG
 70
     0
 62
     7
  6
Continuous
370
    -3
390
F
  0
LAYER
  5
6F8
102
{ACAD_XDICTIONARY
360
1150
102
}
330
2
100
AcDbSymbolTableRecord
100
AcDbLayerTableRecord
  2
RUNDUNGEN
 70
     0
 62
     7
  6
Continuous
370
    -3
390
F
  0
LAYER
  5
8BC
102
{ACAD_XDICTIONARY
360
1152
102
}
330
2
100
AcDbSymbolTableRecord
100
AcDbLayerTableRecord
  2
AM_CL
 70
     0
 62
     1
  6
Amconstr
370
    25
390
F
1001
AcAecLayerStandard
1000

1000

  0
LAYER
  5
DAD
102
{ACAD_XDICTIONARY
360
1154
102
}
330
2
100
AcDbSymbolTableRecord
100
AcDbLayerTableRecord
  2
RAHM2
 70
     0
 62
     1
  6
Continuous
370
    -3
390
F
  0
LAYER
  5
DAE
102
{ACAD_XDICTIONARY
360
1156
102
}
330
2
100
AcDbSymbolTableRecord
100
AcDbLayerTableRecord
  2
6
 70
     0
 62
     2
  6
Continuous
370
    -3
390
F
  0
LAYER
  5
DAF
102
{ACAD_XDICTIONARY
360
1158
102
}
330
2
100
AcDbSymbolTableRecord
100
AcDbLayerTableRecord
  2
0N
 70
     0
 62
     7
  6
Continuous
370
    -3
390
F
  0
LAYER
  5
DB0
102
{ACAD_XDICTIONARY
360
115A
102
}
330
2
100
AcDbSymbolTableRecord
100
AcDbLayerTableRecord
  2
RAHM3
 70
     0
 62
     2
  6
Continuous
370
    -3
390
F
  0
LAYER
  5
DB1
102
{ACAD_XDICTIONARY
360
115C
102
}
330
2
100
AcDbSymbolTableRecord
100
AcDbLayerTableRecord
  2
MITTE
 70
     0
 62
     1
  6
STRICHPUNKT
370
    -3
390
F
  0
LAYER
  5
DB2
102
{ACAD_XDICTIONARY
360
115E
102
}
330
2
100
AcDbSymbolTableRecord
100
AcDbLayerTableRecord
  2
TEXT50
 70
     0
 62
     7
  6
Continuous
370
    -3
390
F
  0
LAYER
  5
DB3
102
{ACAD_XDICTIONARY
360
1160
102
}
330
2
100
AcDbSymbolTableRecord
100
AcDbLayerTableRecord
  2
TEXT35
 70
     0
 62
   132
  6
Continuous
370
    -3
390
F
  0
LAYER
  5
DB4
102
{ACAD_XDICTIONARY
360
1162
102
}
330
2
100
AcDbSymbolTableRecord
100
AcDbLayerTableRecord
  2
TEXT25
 70
     0
 62
     3
  6
Continuous
370
    -3
390
F
  0
LAYER
  5
DB5
102
{ACAD_XDICTIONARY
360
1164
102
}
330
2
100
AcDbSymbolTableRecord
100
AcDbLayerTableRecord
  2
KOPF
 70
     0
 62
     1
  6
AUSGEZOGEN
370
    -3
390
F
  0
LAYER
  5
DB6
102
{ACAD_XDICTIONARY
360
1166
102
}
330
2
100
AcDbSymbolTableRecord
100
AcDbLayerTableRecord
  2
Sperrlayer
 70
     1
 62
     7
  6
Continuous
370
    50
390
F
  0
LAYER
  5
DB7
102
{ACAD_XDICTIONARY
360
1168
102
}
330
2
100
AcDbSymbolTableRecord
100
AcDbLayerTableRecord
  2
AM_0
 70
     0
 62
     7
  6
Continuous
370
    50
390
F
1001
AcAecLayerStandard
1000

1000

  0
ENDTAB
  0
TABLE
  2
STYLE
  5
3
330
0
100
AcDbSymbolTable
 70
    16
  0
STYLE
  5
11
330
3
100
AcDbSymbolTableRecord
100
AcDbTextStyleTableRecord
  2
STANDARD
 70
     0
 40
0.0
 41
1.0
 50
0.0
 71
     0
 42
2.5
  3
ISOCP.SHX
  4

  0
STYLE
  5
6B
330
3
100
AcDbSymbolTableRecord
100
AcDbTextStyleTableRecord
  2

 70
     1
 40
0.0
 41
1.0
 50
0.0
 71
     0
 42
2.5
  3
ltypeshp.shx
  4

  0
STYLE
  5
6D
330
3
100
AcDbSymbolTableRecord
100
AcDbTextStyleTableRecord
  2
ACISOTS
 70
     0
 40
1.0
 41
1.0
 50
0.0
 71
     0
 42
2.5
  3
isocp.shx
  4
bigfont.shx
  0
STYLE
  5
79
330
3
100
AcDbSymbolTableRecord
100
AcDbTextStyleTableRecord
  2
ACISOGDT
 70
     0
 40
0.0
 41
1.0
 50
0.0
 71
     0
 42
2.5
  3
AMGDT
  4
bigfont.shx
  0
STYLE
  5
1ED
330
3
100
AcDbSymbolTableRecord
100
AcDbTextStyleTableRecord
  2
USER1
 70
     0
 40
0.0
 41
1.0
 50
0.0
 71
     0
 42
2.5
  3
TXT.SHX
  4
bigfont.shx
  0
STYLE
  5
1EE
330
3
100
AcDbSymbolTableRecord
100
AcDbTextStyleTableRecord
  2
USER2
 70
     0
 40
0.0
 41
1.0
 50
0.0
 71
     0
 42
2.5
  3
SIMPLEX.SHX
  4
bigfont.shx
  0
STYLE
  5
1EF
330
3
100
AcDbSymbolTableRecord
100
AcDbTextStyleTableRecord
  2
USER3
 70
     0
 40
0.0
 41
1.0
 50
0.0
 71
     0
 42
2.5
  3
ITALIC.SHX
  4
bigfont.shx
  0
STYLE
  5
22C
330
3
100
AcDbSymbolTableRecord
100
AcDbTextStyleTableRecord
  2

 70
     1
 40
0.0
 41
1.0
 50
0.0
 71
     0
 42
2.5
  3
genltshp.shx
  4

  0
STYLE
  5
3A9
330
3
100
AcDbSymbolTableRecord
100
AcDbTextStyleTableRecord
  2
ACDINTS
 70
     0
 40
1.0
 41
1.0
 50
0.0
 71
     0
 42
2.5
  3
isocp.shx
  4

  0
STYLE
  5
3AA
330
3
100
AcDbSymbolTableRecord
100
AcDbTextStyleTableRecord
  2
ACDINGDT
 70
     0
 40
0.0
 41
1.0
 50
0.0
 71
     0
 42
2.5
  3
amgdt.shx
  4

  0
STYLE
  5
6F9
330
3
100
AcDbSymbolTableRecord
100
AcDbTextStyleTableRecord
  2
ACANSTS
 70
     0
 40
1.0
 41
1.0
 50
0.0
 71
     0
 42
0.2
  3
romans.shx
  4

  0
STYLE
  5
6FA
330
3
100
AcDbSymbolTableRecord
100
AcDbTextStyleTableRecord
  2
ACANSGDT
 70
     0
 40
0.0
 41
1.0
 50
0.0
 71
     0
 42
0.2
  3
amgdt.shx
  4

  0
STYLE
  5
DB8
330
3
100
AcDbSymbolTableRecord
100
AcDbTextStyleTableRecord
  2
KOPF
 70
     0
 40
0.0
 41
0.9
 50
10.0
 71
     0
 42
2.5
  3
dutchi.ttf
  4

1001
ACAD
1000
Dutch801 Rm BT
1071
 16777234
  0
STYLE
  5
DB9
330
3
100
AcDbSymbolTableRecord
100
AcDbTextStyleTableRecord
  2
TEXT20
 70
     0
 40
2.0
 41
0.8
 50
0.0
 71
     0
 42
2.0
  3
isocp3.shx
  4

  0
STYLE
  5
DBA
330
3
100
AcDbSymbolTableRecord
100
AcDbTextStyleTableRecord
  2
TEXT35
 70
     0
 40
3.5
 41
0.8
 50
0.0
 71
     0
 42
3.5
  3
isocp3.shx
  4

  0
STYLE
  5
DBB
330
3
100
AcDbSymbolTableRecord
100
AcDbTextStyleTableRecord
  2
TEXT50
 70
     0
 40
5.0
 41
0.8
 50
0.0
 71
     0
 42
5.0
  3
isocp3.shx
  4

  0
ENDTAB
  0
TABLE
  2
VIEW
  5
6
330
0
100
AcDbSymbolTable
 70
     0
  0
ENDTAB
  0
TABLE
  2
UCS
  5
7
330
0
100
AcDbSymbolTable
 70
     0
  0
ENDTAB
  0
TABLE
  2
APPID
  5
9
330
0
100
AcDbSymbolTable
 70
    36
  0
APPID
  5
12
330
9
100
AcDbSymbolTableRecord
100
AcDbRegAppTableRecord
  2
ACAD
 70
     0
  0
APPID
  5
46
330
9
100
AcDbSymbolTableRecord
100
AcDbRegAppTableRecord
  2
MCAD_NO_VIS
 70
     0
  0
APPID
  5
47
330
9
100
AcDbSymbolTableRecord
100
AcDbRegAppTableRecord
  2
ACAD_TEMP_GRAPHIC
 70
     0
  0
APPID
  5
58
330
9
100
AcDbSymbolTableRecord
100
AcDbRegAppTableRecord
  2
ACATTRIBSERVICES
 70
     0
  0
APPID
  5
EE
330
9
100
AcDbSymbolTableRecord
100
AcDbRegAppTableRecord
  2
AD_DRAW
 70
     0
  0
APPID
  5
10C
330
9
100
AcDbSymbolTableRecord
100
AcDbRegAppTableRecord
  2
DESIGNERASSEMBLIES
 70
     0
  0
APPID
  5
111
330
9
100
AcDbSymbolTableRecord
100
AcDbRegAppTableRecord
  2
ACADM_DIM_EDIT
 70
     0
  0
APPID
  5
112
330
9
100
AcDbSymbolTableRecord
100
AcDbRegAppTableRecord
  2
AMDT_DM_ADJ
 70
     0
  0
APPID
  5
1A3
330
9
100
AcDbSymbolTableRecord
100
AcDbRegAppTableRecord
  2
ACAD_DSTYLE_DIMARC_LENGTH_SYMBOL
 70
     0
  0
APPID
  5
1A4
330
9
100
AcDbSymbolTableRecord
100
AcDbRegAppTableRecord
  2
ACAD_DSTYLE_DIMJOGGED_JOGANGLE_SYMBOL
 70
     0
  0
APPID
  5
3B5
330
9
100
AcDbSymbolTableRecord
100
AcDbRegAppTableRecord
  2
GENIUS_GENODEF_13
 70
     0
  0
APPID
  5
3B6
330
9
100
AcDbSymbolTableRecord
100
AcDbRegAppTableRecord
  2
GENIUS_GENOBJ-N-CEN_13
 70
     0
  0
APPID
  5
3B7
330
9
100
AcDbSymbolTableRecord
100
AcDbRegAppTableRecord
  2
GENIUS_GENOBJ-N-FIL_13
 70
     0
  0
APPID
  5
3B8
330
9
100
AcDbSymbolTableRecord
100
AcDbRegAppTableRecord
  2
GENIUS_GENDTOL_13
 70
     0
  0
APPID
  5
3B9
330
9
100
AcDbSymbolTableRecord
100
AcDbRegAppTableRecord
  2
GENIUS_GENOBJ-N-HTC_13
 70
     0
  0
APPID
  5
3BA
330
9
100
AcDbSymbolTableRecord
100
AcDbRegAppTableRecord
  2
GENIUS_GENHATCH_13
 70
     0
  0
APPID
  5
3BB
330
9
100
AcDbSymbolTableRecord
100
AcDbRegAppTableRecord
  2
AcAecLayerStandard
 70
     0
  0
APPID
  5
3BC
330
9
100
AcDbSymbolTableRecord
100
AcDbRegAppTableRecord
  2
GENIUS_GENSCREG_15
 70
     0
  0
APPID
  5
3BD
330
9
100
AcDbSymbolTableRecord
100
AcDbRegAppTableRecord
  2
GENIUS_GENOBJ-N-SDF_13
 70
     0
  0
APPID
  5
3BE
330
9
100
AcDbSymbolTableRecord
100
AcDbRegAppTableRecord
  2
GENIUS_GENOBJ-N-ZOO_13
 70
     0
  0
APPID
  5
3BF
330
9
100
AcDbSymbolTableRecord
100
AcDbRegAppTableRecord
  2
GENIUS_GENZOO_17
 70
     0
  0
APPID
  5
81A
330
9
100
AcDbSymbolTableRecord
100
AcDbRegAppTableRecord
  2
ACAD_EXEMPT_FROM_CAD_STANDARDS
 70
     0
  0
APPID
  5
8B2
330
9
100
AcDbSymbolTableRecord
100
AcDbRegAppTableRecord
  2
GENIUS_GENOENT_13
 70
     0
  0
APPID
  5
8B3
330
9
100
AcDbSymbolTableRecord
100
AcDbRegAppTableRecord
  2
GENIUS_GENOBJ-N-CRS_13
 70
     0
  0
APPID
  5
8B4
330
9
100
AcDbSymbolTableRecord
100
AcDbRegAppTableRecord
  2
GENIUS_GENOLIS_13
 70
     0
  0
APPID
  5
8B5
330
9
100
AcDbSymbolTableRecord
100
AcDbRegAppTableRecord
  2
GENIUS_GENOREF_13
 70
     0
  0
APPID
  5
8C4
330
9
100
AcDbSymbolTableRecord
100
AcDbRegAppTableRecord
  2
GENIUS_GENCEN_19
 70
     0
  0
APPID
  5
DBD
330
9
100
AcDbSymbolTableRecord
100
AcDbRegAppTableRecord
  2
GENIUS_VERSION2
 70
     0
  0
APPID
  5
DBE
330
9
100
AcDbSymbolTableRecord
100
AcDbRegAppTableRecord
  2
GENIUS_GENBLLY_14
 70
     0
  0
APPID
  5
DBF
330
9
100
AcDbSymbolTableRecord
100
AcDbRegAppTableRecord
  2
GENIUS_GENREC_14
 70
     0
  0
APPID
  5
DC0
330
9
100
AcDbSymbolTableRecord
100
AcDbRegAppTableRecord
  2
GENIUS_GENOBJ-N-REC_13
 70
     0
  0
APPID
  5
DC1
330
9
100
AcDbSymbolTableRecord
100
AcDbRegAppTableRecord
  2
GENIUS_AMGTXT_16
 70
     0
  0
APPID
  5
DC2
330
9
100
AcDbSymbolTableRecord
100
AcDbRegAppTableRecord
  2
DCO15
 70
     0
  0
APPID
  5
10E6
330
9
100
AcDbSymbolTableRecord
100
AcDbRegAppTableRecord
  2
ACAD_MLEADERVER
 70
     0
  0
APPID
  5
1121
330
9
100
AcDbSymbolTableRecord
100
AcDbRegAppTableRecord
  2
ACAD_DSTYLE_DIMINSPECT
 70
     0
  0
APPID
  5
1122
330
9
100
AcDbSymbolTableRecord
100
AcDbRegAppTableRecord
  2
ACAD_DSTYLE_DIMRADIAL_EXTENSION
 70
     0
  0
ENDTAB
  0
TABLE
  2
DIMSTYLE
  5
A
330
0
100
AcDbSymbolTable
 70
    27
100
AcDbDimStyleTable
 71
     1
340
81
  0
DIMSTYLE
105
27
330
A
100
AcDbSymbolTableRecord
100
AcDbDimStyleTableRecord
  2
ISO-25
 70
     0
 41
2.5
 42
0.625
 43
3.75
 44
1.25
 73
     0
 74
     0
 77
     1
 78
     8
140
2.5
141
2.5
143
0.03937007874016
147
0.625
171
     3
172
     1
271
     2
272
     2
274
     3
278
    44
283
     0
284
     8
340
11
  0
DIMSTYLE
105
81
330
A
100
AcDbSymbolTableRecord
100
AcDbDimStyleTableRecord
  2
AM_ISO
 70
     0
  4
"
 41
2.5
 42
1.0
 43
10.0
 44
1.0
 47
0.1
 48
0.1
 73
     0
 74
     0
 77
     1
 78
     8
 79
     2
140
3.5
141
0.0
143
0.0393701
146
0.71
147
1.5
172
     1
176
   256
177
   256
178
     2
271
     2
272
     3
274
     4
283
     0
284
     8
340
11
371
    -1
372
    -1
1001
ACAD_DSTYLE_DIMJOGGED_JOGANGLE_SYMBOL
1070
   384
1040
0.7853981633974483
1001
ACAD_DSTYLE_DIMARC_LENGTH_SYMBOL
1070
   379
1070
     1
  0
DIMSTYLE
105
82
330
A
100
AcDbSymbolTableRecord
100
AcDbDimStyleTableRecord
  2
AM_ISO$3
 70
     0
  4
"
 41
2.5
 42
1.0
 43
10.0
 44
1.0
 47
0.1
 48
0.1
 73
     0
 77
     1
 78
     8
 79
     2
140
3.5
141
0.0
143
0.0393701
146
0.71
147
1.5
176
   256
177
   256
178
     2
271
     2
272
     3
274
     4
283
     0
284
     8
288
     1
289
     0
340
11
371
    -1
372
    -1
1001
ACAD_DSTYLE_DIMJOGGED_JOGANGLE_SYMBOL
1070
   384
1040
0.7853981633974483
1001
ACAD_DSTYLE_DIMARC_LENGTH_SYMBOL
1070
   379
1070
     1
  0
DIMSTYLE
105
83
330
A
100
AcDbSymbolTableRecord
100
AcDbDimStyleTableRecord
  2
AM_ISO$4
 70
     0
  4
"
 41
2.5
 42
1.0
 43
10.0
 44
1.0
 47
0.1
 48
0.1
 73
     0
 77
     1
 78
     8
 79
     2
140
3.5
141
0.0
143
0.0393701
146
0.71
147
1.5
176
   256
177
   256
178
     2
271
     2
272
     3
274
     4
283
     0
284
     8
288
     1
289
     0
340
11
371
    -1
372
    -1
1001
ACAD_DSTYLE_DIMJOGGED_JOGANGLE_SYMBOL
1070
   384
1040
0.7853981633974483
1001
ACAD_DSTYLE_DIMARC_LENGTH_SYMBOL
1070
   379
1070
     1
  0
DIMSTYLE
105
84
330
A
100
AcDbSymbolTableRecord
100
AcDbDimStyleTableRecord
  2
AM_ISO$6
 70
     0
  4
"
 41
2.5
 42
1.0
 43
10.0
 44
1.0
 47
0.1
 48
0.1
 73
     0
 74
     0
 78
     8
 79
     2
140
3.5
141
0.0
143
0.0393701
146
0.71
147
1.5
172
     1
176
   256
177
   256
178
     2
271
     2
272
     3
274
     4
283
     0
284
     8
340
11
371
    -1
372
    -1
1001
ACAD_DSTYLE_DIMJOGGED_JOGANGLE_SYMBOL
1070
   384
1040
0.7853981633974483
1001
ACAD_DSTYLE_DIMARC_LENGTH_SYMBOL
1070
   379
1070
     1
  0
DIMSTYLE
105
85
330
A
100
AcDbSymbolTableRecord
100
AcDbDimStyleTableRecord
  2
AM_ISO$7
 70
     0
  4
"
 41
2.5
 42
1.0
 43
10.0
 44
1.0
 47
0.1
 48
0.1
 73
     0
 74
     0
 77
     1
 78
     8
 79
     2
140
5.0
141
0.0
143
0.0393701
146
0.71
147
1.5
172
     1
176
   256
177
   256
178
     2
271
     2
272
     3
274
     4
283
     0
284
     8
340
11
371
    -1
372
    -1
1001
ACAD_DSTYLE_DIMJOGGED_JOGANGLE_SYMBOL
1070
   384
1040
0.7853981633974483
1001
ACAD_DSTYLE_DIMARC_LENGTH_SYMBOL
1070
   379
1070
     1
  0
DIMSTYLE
105
86
330
A
100
AcDbSymbolTableRecord
100
AcDbDimStyleTableRecord
  2
AM_ISO$SF
 70
     0
  4
"
 41
2.5
 42
1.0
 43
10.0
 44
1.0
 47
0.1
 48
0.1
 73
     0
 74
     0
 75
     1
 76
     1
 77
     1
 78
     8
 79
     2
140
3.5
141
0.0
143
0.0393701
146
0.71
147
1.5
172
     1
176
   256
177
   256
178
     2
271
     2
272
     3
274
     4
283
     0
284
     8
340
11
371
    -1
372
    -1
1001
ACAD_DSTYLE_DIMJOGGED_JOGANGLE_SYMBOL
1070
   384
1040
0.7853981633974483
1001
ACAD_DSTYLE_DIMARC_LENGTH_SYMBOL
1070
   379
1070
     1
  0
DIMSTYLE
105
8B
330
A
100
AcDbSymbolTableRecord
100
AcDbDimStyleTableRecord
  2
AM_ISO$SH
 70
     0
  4
"
 41
2.5
 42
1.0
 43
10.0
 44
1.0
 47
0.1
 48
0.1
 73
     0
 74
     0
 75
     1
 76
     1
 77
     1
 78
     8
 79
     2
140
3.5
141
0.0
143
0.0393701
144
2.0
146
0.71
147
1.5
172
     1
173
     1
176
   256
177
   256
178
     2
271
     2
272
     3
274
     4
283
     0
284
     8
340
11
343
87
371
    -1
372
    -1
1001
ACAD_DSTYLE_DIMJOGGED_JOGANGLE_SYMBOL
1070
   384
1040
0.7853981633974483
1001
ACAD_DSTYLE_DIMARC_LENGTH_SYMBOL
1070
   379
1070
     1
  0
DIMSTYLE
105
3AB
330
A
100
AcDbSymbolTableRecord
100
AcDbDimStyleTableRecord
  2
AM_DIN
 70
     0
  4
"
 41
2.5
 42
1.0
 43
10.0
 44
1.0
 47
0.1
 48
0.1
 73
     0
 74
     0
 77
     1
 78
     8
 79
     2
140
3.5
141
0.0
143
0.0393701
146
0.71
147
1.5
172
     1
176
   256
177
   256
178
     2
271
     2
272
     3
274
     4
283
     0
284
     8
340
11
371
    -1
372
    -1
1001
ACAD_DSTYLE_DIMJOGGED_JOGANGLE_SYMBOL
1070
   384
1040
1.570796326794896
  0
DIMSTYLE
105
3AC
330
A
100
AcDbSymbolTableRecord
100
AcDbDimStyleTableRecord
  2
AM_DIN$3
 70
     0
  4
"
 41
2.5
 42
1.0
 43
10.0
 44
1.0
 47
0.1
 48
0.1
 73
     0
 77
     1
 78
     8
 79
     2
140
3.5
141
0.0
143
0.0393701
146
0.71
147
1.5
176
   256
177
   256
178
     2
271
     2
272
     3
274
     4
283
     0
284
     8
288
     1
289
     0
340
11
371
    -1
372
    -1
1001
ACAD_DSTYLE_DIMJOGGED_JOGANGLE_SYMBOL
1070
   384
1040
1.570796326794896
  0
DIMSTYLE
105
3AD
330
A
100
AcDbSymbolTableRecord
100
AcDbDimStyleTableRecord
  2
AM_DIN$4
 70
     0
  4
"
 41
2.5
 42
1.0
 43
10.0
 44
1.0
 47
0.1
 48
0.1
 73
     0
 77
     1
 78
     8
 79
     2
140
3.5
141
0.0
143
0.0393701
146
0.71
147
1.5
176
   256
177
   256
178
     2
271
     2
272
     3
274
     4
283
     0
284
     8
288
     1
289
     0
340
11
371
    -1
372
    -1
1001
ACAD_DSTYLE_DIMJOGGED_JOGANGLE_SYMBOL
1070
   384
1040
1.570796326794896
  0
DIMSTYLE
105
3AE
330
A
100
AcDbSymbolTableRecord
100
AcDbDimStyleTableRecord
  2
AM_DIN$6
 70
     0
  4
"
 41
2.5
 42
1.0
 43
10.0
 44
1.0
 47
0.1
 48
0.1
 73
     0
 74
     0
 78
     8
 79
     2
140
3.5
141
0.0
143
0.0393701
146
0.71
147
1.5
172
     1
176
   256
177
   256
178
     2
271
     2
272
     3
274
     4
283
     0
284
     8
340
11
371
    -1
372
    -1
1001
ACAD_DSTYLE_DIMJOGGED_JOGANGLE_SYMBOL
1070
   384
1040
1.570796326794896
  0
DIMSTYLE
105
3AF
330
A
100
AcDbSymbolTableRecord
100
AcDbDimStyleTableRecord
  2
AM_DIN$7
 70
     0
  4
"
 41
2.5
 42
1.0
 43
10.0
 44
1.0
 47
0.1
 48
0.1
 73
     0
 74
     0
 77
     1
 78
     8
 79
     2
140
5.0
141
0.0
143
0.0393701
146
0.71
147
1.5
172
     1
176
   256
177
   256
178
     2
271
     2
272
     3
274
     4
283
     0
284
     8
340
11
371
    -1
372
    -1
1001
ACAD_DSTYLE_DIMJOGGED_JOGANGLE_SYMBOL
1070
   384
1040
1.570796326794896
  0
DIMSTYLE
105
3B0
330
A
100
AcDbSymbolTableRecord
100
AcDbDimStyleTableRecord
  2
AM_DIN$SF
 70
     0
  4
"
 41
2.5
 42
1.0
 43
10.0
 44
1.0
 47
0.1
 48
0.1
 73
     0
 74
     0
 75
     1
 76
     1
 77
     1
 78
     8
 79
     2
140
3.5
141
0.0
143
0.0393701
146
0.71
147
1.5
172
     1
176
   256
177
   256
178
     2
271
     2
272
     3
274
     4
283
     0
284
     8
340
11
371
    -1
372
    -1
1001
ACAD_DSTYLE_DIMJOGGED_JOGANGLE_SYMBOL
1070
   384
1040
1.570796326794896
  0
DIMSTYLE
105
3B1
330
A
100
AcDbSymbolTableRecord
100
AcDbDimStyleTableRecord
  2
AM_DIN$SH
 70
     0
  4
"
 41
2.5
 42
1.0
 43
10.0
 44
1.0
 47
0.1
 48
0.1
 73
     0
 74
     0
 75
     1
 76
     1
 77
     1
 78
     8
 79
     2
140
3.5
141
0.0
143
0.0393701
144
2.0
146
0.71
147
1.5
172
     1
173
     1
176
   256
177
   256
178
     2
271
     2
272
     3
274
     4
283
     0
284
     8
340
11
343
87
371
    -1
372
    -1
1001
ACAD_DSTYLE_DIMJOGGED_JOGANGLE_SYMBOL
1070
   384
1040
1.570796326794896
  0
DIMSTYLE
105
3B2
330
A
100
AcDbSymbolTableRecord
100
AcDbDimStyleTableRecord
  2
GEN-ISO
 70
     0
 41
2.5
 42
1.0
 43
7.0
 44
1.0
 47
0.1
 48
0.1
 73
     0
 74
     0
 77
     1
 78
     8
140
3.5
141
0.0
143
0.0393701
146
0.71
147
0.6
172
     1
176
   256
177
   256
178
     2
271
     2
272
     3
274
     4
283
     0
340
11
  0
DIMSTYLE
105
3B3
330
A
100
AcDbSymbolTableRecord
100
AcDbDimStyleTableRecord
  2
GEN-ISO$4
 70
     0
  3
<>
  4
"
 41
2.5
 42
1.0
 43
7.0
 44
1.0
 47
0.1
 48
0.1
 73
     0
 77
     1
 78
     8
140
3.5
141
0.0
143
0.0393701
146
0.71
147
0.6
176
   256
177
   256
178
     2
271
     2
272
     3
274
     4
283
     0
288
     1
289
     0
340
11
  0
DIMSTYLE
105
3B4
102
{ACAD_REACTORS
330
E71
330
E74
102
}
330
A
100
AcDbSymbolTableRecord
100
AcDbDimStyleTableRecord
  2
GEN-ISO$0
 70
     0
  3
<>
  4
"
 41
2.5
 42
1.0
 43
7.0
 44
1.0
 47
0.1
 48
0.1
 73
     0
 74
     0
 77
     1
 78
     8
140
3.5
141
0.0
143
0.0393701
146
0.71
147
0.6
172
     1
176
   256
177
   256
178
     2
271
     2
272
     3
274
     4
283
     0
340
11
  0
DIMSTYLE
105
6FB
330
A
100
AcDbSymbolTableRecord
100
AcDbDimStyleTableRecord
  2
Standard
 70
     0
340
11
  0
DIMSTYLE
105
6FC
330
A
100
AcDbSymbolTableRecord
100
AcDbDimStyleTableRecord
  2
AM_ANSI
 70
     0
  4
mm
 41
0.1
 42
0.05
 43
0.5
 44
0.1
 47
0.1
 48
0.1
 78
     7
 79
     2
140
0.12
141
0.0
146
0.71
147
0.06
176
   256
177
   256
178
     2
274
     4
284
     7
340
11
371
    -1
372
    -1
1001
ACAD_DSTYLE_DIMJOGGED_JOGANGLE_SYMBOL
1070
   384
1040
0.7853981633974483
1001
ACAD_DSTYLE_DIMARC_LENGTH_SYMBOL
1070
   379
1070
     1
  0
DIMSTYLE
105
6FD
330
A
100
AcDbSymbolTableRecord
100
AcDbDimStyleTableRecord
  2
AM_ANSI$3
 70
     0
  4
mm
 41
0.1
 42
0.05
 43
0.5
 44
0.1
 47
0.1
 48
0.1
 78
     7
 79
     2
140
0.12
141
0.0
146
0.71
147
0.06
176
   256
177
   256
178
     2
274
     4
284
     7
288
     1
289
     0
340
11
371
    -1
372
    -1
1001
ACAD_DSTYLE_DIMJOGGED_JOGANGLE_SYMBOL
1070
   384
1040
0.7853981633974483
1001
ACAD_DSTYLE_DIMARC_LENGTH_SYMBOL
1070
   379
1070
     1
  0
DIMSTYLE
105
6FE
330
A
100
AcDbSymbolTableRecord
100
AcDbDimStyleTableRecord
  2
AM_ANSI$4
 70
     0
  4
mm
 41
0.1
 42
0.05
 43
0.5
 44
0.1
 47
0.1
 48
0.1
 78
     7
 79
     2
140
0.12
141
0.0
146
0.71
147
0.06
176
   256
177
   256
178
     2
274
     4
284
     7
288
     1
289
     0
340
11
371
    -1
372
    -1
1001
ACAD_DSTYLE_DIMJOGGED_JOGANGLE_SYMBOL
1070
   384
1040
0.7853981633974483
1001
ACAD_DSTYLE_DIMARC_LENGTH_SYMBOL
1070
   379
1070
     1
  0
DIMSTYLE
105
6FF
330
A
100
AcDbSymbolTableRecord
100
AcDbDimStyleTableRecord
  2
AM_ANSI$7
 70
     0
  4
mm
 41
0.1
 42
0.05
 43
0.5
 44
0.1
 47
0.1
 48
0.1
 78
     7
 79
     2
140
0.24
141
0.0
146
0.71
147
0.06
176
   256
177
   256
178
     2
274
     4
284
     7
340
11
371
    -1
372
    -1
1001
ACAD_DSTYLE_DIMJOGGED_JOGANGLE_SYMBOL
1070
   384
1040
0.7853981633974483
1001
ACAD_DSTYLE_DIMARC_LENGTH_SYMBOL
1070
   379
1070
     1
  0
DIMSTYLE
105
700
330
A
100
AcDbSymbolTableRecord
100
AcDbDimStyleTableRecord
  2
AM_ANSI$SF
 70
     0
  4
mm
 41
0.1
 42
0.05
 43
0.5
 44
0.1
 47
0.1
 48
0.1
 75
     1
 76
     1
 78
     7
 79
     2
140
0.12
141
0.0
146
0.71
147
0.06
176
   256
177
   256
178
     2
274
     4
284
     7
340
11
371
    -1
372
    -1
1001
ACAD_DSTYLE_DIMJOGGED_JOGANGLE_SYMBOL
1070
   384
1040
0.7853981633974483
1001
ACAD_DSTYLE_DIMARC_LENGTH_SYMBOL
1070
   379
1070
     1
  0
DIMSTYLE
105
701
330
A
100
AcDbSymbolTableRecord
100
AcDbDimStyleTableRecord
  2
AM_ANSI$SH
 70
     0
  4
mm
 41
0.1
 42
0.05
 43
0.5
 44
0.1
 47
0.1
 48
0.1
 75
     1
 76
     1
 78
     7
 79
     2
140
0.12
141
0.0
146
0.71
147
0.06
173
     1
176
   256
177
   256
178
     2
274
     4
284
     7
340
11
343
87
371
    -1
372
    -1
1001
ACAD_DSTYLE_DIMJOGGED_JOGANGLE_SYMBOL
1070
   384
1040
0.7853981633974483
1001
ACAD_DSTYLE_DIMARC_LENGTH_SYMBOL
1070
   379
1070
     1
  0
DIMSTYLE
105
DBC
330
A
100
AcDbSymbolTableRecord
100
AcDbDimStyleTableRecord
  2
Standard$0
 70
     0
340
11
  0
DIMSTYLE
105
FC7
102
{ACAD_REACTORS
330
FCB
102
}
330
A
100
AcDbSymbolTableRecord
100
AcDbDimStyleTableRecord
  2
AM_ISO$0
 70
     0
  4
"
 41
2.5
 42
1.0
 43
10.0
 44
1.0
 47
0.1
 48
0.1
 73
     0
 74
     0
 77
     1
 78
     8
 79
     2
140
3.5
141
0.0
143
0.0393701
146
0.71
147
1.5
172
     1
176
   256
177
   256
178
     2
271
     2
272
     3
274
     4
283
     0
284
     8
340
11
371
    -1
372
    -1
1001
ACAD_DSTYLE_DIMJOGGED_JOGANGLE_SYMBOL
1070
   384
1040
0.7853981633974483
1001
ACAD_DSTYLE_DIMARC_LENGTH_SYMBOL
1070
   379
1070
     1
  0
ENDTAB
  0
TABLE
  2
BLOCK_RECORD
  5
1
330
0
100
AcDbSymbolTable
 70
    21
  0
BLOCK_RECORD
  5
1F
102
{ACAD_XDICTIONARY
360
8F
102
}
330
1
100
AcDbSymbolTableRecord
100
AcDbBlockTableRecord
  2
*Model_Space
340
22
  0
BLOCK_RECORD
  5
1B
330
1
100
AcDbSymbolTableRecord
100
AcDbBlockTableRecord
  2
*Paper_Space
340
1E
  0
BLOCK_RECORD
  5
23
330
1
100
AcDbSymbolTableRecord
100
AcDbBlockTableRecord
  2
*Paper_Space0
340
26
  0
BLOCK_RECORD
  5
87
330
1
100
AcDbSymbolTableRecord
100
AcDbBlockTableRecord
  2
GENAXEH
340
0
  0
BLOCK_RECORD
  5
8D6
330
1
100
AcDbSymbolTableRecord
100
AcDbBlockTableRecord
  2
1
340
0
310
2800000020000000200000000100080000000000000400000000000000000000000000000000000000000000000080000080000000808000800000008000800080800000C0C0C000C0DCC000F0CAA6000020400000206000002080000020A0000020C0000020E00000400000004020000040400000406000004080000040A0
310
000040C0000040E00000600000006020000060400000606000006080000060A0000060C0000060E00000800000008020000080400000806000008080000080A0000080C0000080E00000A0000000A0200000A0400000A0600000A0800000A0A00000A0C00000A0E00000C0000000C0200000C0400000C0600000C0800000C0
310
A00000C0C00000C0E00000E0000000E0200000E0400000E0600000E0800000E0A00000E0C00000E0E00040000000400020004000400040006000400080004000A0004000C0004000E00040200000402020004020400040206000402080004020A0004020C0004020E000404000004040200040404000404060004040800040
310
40A0004040C0004040E00040600000406020004060400040606000406080004060A0004060C0004060E00040800000408020004080400040806000408080004080A0004080C0004080E00040A0000040A0200040A0400040A0600040A0800040A0A00040A0C00040A0E00040C0000040C0200040C0400040C0600040C08000
310
40C0A00040C0C00040C0E00040E0000040E0200040E0400040E0600040E0800040E0A00040E0C00040E0E00080000000800020008000400080006000800080008000A0008000C0008000E00080200000802020008020400080206000802080008020A0008020C0008020E00080400000804020008040400080406000804080
310
008040A0008040C0008040E00080600000806020008060400080606000806080008060A0008060C0008060E00080800000808020008080400080806000808080008080A0008080C0008080E00080A0000080A0200080A0400080A0600080A0800080A0A00080A0C00080A0E00080C0000080C0200080C0400080C0600080C0
310
800080C0A00080C0C00080C0E00080E0000080E0200080E0400080E0600080E0800080E0A00080E0C00080E0E000C0000000C0002000C0004000C0006000C0008000C000A000C000C000C000E000C0200000C0202000C0204000C0206000C0208000C020A000C020C000C020E000C0400000C0402000C0404000C0406000C0
310
408000C040A000C040C000C040E000C0600000C0602000C0604000C0606000C0608000C060A000C060C000C060E000C0800000C0802000C0804000C0806000C0808000C080A000C080C000C080E000C0A00000C0A02000C0A04000C0A06000C0A08000C0A0A000C0A0C000C0A0E000C0C00000C0C02000C0C04000C0C06000
310
C0C08000C0C0A000F0FBFF00A4A0A000808080000000FF0000FF000000FFFF00FF000000FF00FF00FFFF0000FFFFFF00000000000000000000000000000000000000000000000000000000000000000000000000000000000000000000000000FF00000000000000000000000000000000000000000000000000000000FFFF
310
FFFFFFFF00000000000000000000000000000000000000000000000000FFFFFFFFFFFFFFFF000000000000000000000000000000000000000000000000FFFFFF0000FFFFFF000000000000000000000000000000000000000000000000FFFF00000000FFFF000000000000000000000000000000000000000000000000FFFF
310
000000FFFFFF000000000000000000000000000000000000000000000000FFFFFF0000FFFFFF00000000000000000000000000000000000000000000000000FFFFFFFFFFFF00000000000000000000000000000000000000000000000000000000FFFF00000000000000000000000000000000000000000000000000000000
310
0000000000000000000000000000000000000000000000000000000000000000000000000000000000000000000000000000000000000000000000000000000000FF0000FF000000000000000000000000000000000000000000000000000000FFFF0000FFFF00000000000000000000000000000000000000000000000000
310
FFFFFF0000FFFFFF000000000000000000000000000000000000000000000000FFFF00000000FFFF000000000000000000000000000000000000000000000000FFFF00000000FFFF000000000000000000000000000000000000000000000000FFFFFFFF00FFFFFF0000000000000000000000000000000000000000000000
310
0000FFFFFFFFFFFF000000000000000000000000000000000000000000000000000000FFFFFFFF00000000000000000000000000000000000000000000000000000000000000000000000000000000000000000000000000000000000000000000000000000000000000000000000000000000000000000000000000000000
310
0000FFFF000000000000000000000000000000000000000000000000000000000000FFFFFFFFFF00000000000000000000000000000000000000000000000000000000FFFFFFFFFF000000000000000000000000000000000000000000000000000000FFFFFFFFFFFF00000000000000000000000000000000000000000000
310
00000000FFFF0000FFFFFF00000000000000000000000000000000000000000000000000FFFF00FFFFFF00000000000000000000000000000000000000000000000000FFFFFFFFFFFF0000000000000000000000000000000000000000000000000000FFFFFFFF000000000000000000000000000000000000000000000000
310
00000000FF000000000000000000000000000000000000000000000000000000000000000000000000000000000000000000000000000000
102
{BLKREFS
331
A65
102
}
1001
ACAD
1000
DesignCenter Data
1002
{
1070
     1
1070
     4
1002
}
  0
BLOCK_RECORD
  5
A87
330
1
100
AcDbSymbolTableRecord
100
AcDbBlockTableRecord
  2
ACO_A3
340
0
  0
BLOCK_RECORD
  5
ACA
330
1
100
AcDbSymbolTableRecord
100
AcDbBlockTableRecord
  2
ACO-SF02-GR
340
0
  0
BLOCK_RECORD
  5
CFF
330
1
100
AcDbSymbolTableRecord
100
AcDbBlockTableRecord
  2
GENZOOIJNBVB3
340
0
  0
BLOCK_RECORD
  5
E78
330
1
100
AcDbSymbolTableRecord
100
AcDbBlockTableRecord
  2
*D7
340
0
  0
BLOCK_RECORD
  5
E84
330
1
100
AcDbSymbolTableRecord
100
AcDbBlockTableRecord
  2
*D8
340
0
  0
BLOCK_RECORD
  5
E90
330
1
100
AcDbSymbolTableRecord
100
AcDbBlockTableRecord
  2
*D9
340
0
  0
BLOCK_RECORD
  5
E9E
330
1
100
AcDbSymbolTableRecord
100
AcDbBlockTableRecord
  2
*D10
340
0
  0
BLOCK_RECORD
  5
EAA
330
1
100
AcDbSymbolTableRecord
100
AcDbBlockTableRecord
  2
*D11
340
0
  0
BLOCK_RECORD
  5
EB6
330
1
100
AcDbSymbolTableRecord
100
AcDbBlockTableRecord
  2
*D12
340
0
  0
BLOCK_RECORD
  5
EC2
330
1
100
AcDbSymbolTableRecord
100
AcDbBlockTableRecord
  2
*D13
340
0
  0
BLOCK_RECORD
  5
ED0
330
1
100
AcDbSymbolTableRecord
100
AcDbBlockTableRecord
  2
*D14
340
0
  0
BLOCK_RECORD
  5
EDE
330
1
100
AcDbSymbolTableRecord
100
AcDbBlockTableRecord
  2
*D15
340
0
  0
BLOCK_RECORD
  5
EE7
330
1
100
AcDbSymbolTableRecord
100
AcDbBlockTableRecord
  2
*D16
340
0
  0
BLOCK_RECORD
  5
EF0
330
1
100
AcDbSymbolTableRecord
100
AcDbBlockTableRecord
  2
*D17
340
0
  0
BLOCK_RECORD
  5
EFE
330
1
100
AcDbSymbolTableRecord
100
AcDbBlockTableRecord
  2
*D18
340
0
  0
BLOCK_RECORD
  5
FCC
330
1
100
AcDbSymbolTableRecord
100
AcDbBlockTableRecord
  2
*D19
340
0
  0
BLOCK_RECORD
  5
12F3
330
1
100
AcDbSymbolTableRecord
100
AcDbBlockTableRecord
  2
*S20
340
0
  0
ENDTAB
  0
ENDSEC
  0
SECTION
  2
BLOCKS
  0
BLOCK
  5
20
330
1F
100
AcDbEntity
  8
0
100
AcDbBlockBegin
  2
*Model_Space
 70
     0
 10
0.0
 20
0.0
 30
0.0
  3
*Model_Space
  1

  0
ENDBLK
  5
21
330
1F
100
AcDbEntity
  8
0
100
AcDbBlockEnd
  0
BLOCK
  5
1C
330
1B
100
AcDbEntity
 67
     1
  8
0
100
AcDbBlockBegin
  2
*Paper_Space
 70
     0
 10
0.0
 20
0.0
 30
0.0
  3
*Paper_Space
  1

  0
ENDBLK
  5
1D
330
1B
100
AcDbEntity
 67
     1
  8
0
100
AcDbBlockEnd
  0
BLOCK
  5
24
330
23
100
AcDbEntity
 67
     1
  8
0
100
AcDbBlockBegin
  2
*Paper_Space0
 70
     0
 10
0.0
 20
0.0
 30
0.0
  3
*Paper_Space0
  1

  0
ENDBLK
  5
25
330
23
100
AcDbEntity
 67
     1
  8
0
100
AcDbBlockEnd
  0
BLOCK
  5
89
330
87
100
AcDbEntity
  8
0
100
AcDbBlockBegin
  2
GENAXEH
 70
     0
 10
0.0
 20
0.0
 30
0.0
  3
GENAXEH
  1

  0
LINE
  5
88
330
87
100
AcDbEntity
  8
0
100
AcDbLine
 10
-1.0
 20
0.0
 30
0.0
 11
1.0
 21
0.0
 31
0.0
  0
ENDBLK
  5
8A
330
87
100
AcDbEntity
  8
0
100
AcDbBlockEnd
  0
BLOCK
  5
8D7
330
8D6
100
AcDbEntity
  8
0
100
AcDbBlockBegin
  2
1
 70
     0
 10
0.0
 20
0.0
 30
0.0
  3
1
  1

  0
CIRCLE
  5
8D9
330
8D6
100
AcDbEntity
  8
WHITE
  6
Continuous
100
AcDbCircle
 10
1089.111519291493
 20
639.8814185441644
 30
0.0
 40
2.277733996314847
  0
CIRCLE
  5
8DA
330
8D6
100
AcDbEntity
  8
WHITE
  6
Continuous
100
AcDbCircle
 10
1089.111519291493
 20
639.8814185441644
 30
0.0
 40
1.576892766679509
  0
ARC
  5
8DB
330
8D6
100
AcDbEntity
  8
WHITE
  6
Continuous
100
AcDbCircle
 10
1086.778409506527
 20
649.4601463888359
 30
0.0
 40
4.905835633809448
100
AcDbArc
 50
82.30575400000205
 51
89.7112909999983
  0
LINE
  5
8DC
330
8D6
100
AcDbEntity
  8
WHITE
  6
Continuous
100
AcDbLine
 10
1087.435235755396
 20
654.3218121958611
 30
0.0
 11
1087.435235755396
 21
651.2563642786231
 31
0.0
  0
ARC
  5
8DD
330
8D6
100
AcDbEntity
  8
WHITE
  6
Continuous
100
AcDbCircle
 10
1086.778405431631
 20
656.1180952839718
 30
0.0
 40
4.905898794685424
100
AcDbArc
 50
270.2887579999957
 51
277.6941970000059
  0
LINE
  5
8DE
330
8D6
100
AcDbEntity
  8
WHITE
  6
Continuous
100
AcDbLine
 10
1086.803129858405
 20
651.2122576127149
 30
0.0
 11
1086.803129858405
 21
650.5114102707366
 31
0.0
  0
ARC
  5
8DF
330
8D6
100
AcDbEntity
  8
WHITE
  6
Continuous
100
AcDbCircle
 10
1086.778405431631
 20
656.1180952839718
 30
0.0
 40
5.606740024320764
100
AcDbArc
 50
270.2526630000051
 51
323.5763710000033
  0
ARC
  5
8E0
330
8D6
100
AcDbEntity
  8
WHITE
  6
Continuous
100
AcDbCircle
 10
1086.778409506527
 20
649.4601463888359
 30
0.0
 40
5.606699275368519
100
AcDbArc
 50
36.42314499999444
 51
89.7473799999978
  0
LINE
  5
8E1
330
8D6
100
AcDbEntity
  8
WHITE
  6
Continuous
100
AcDbLine
 10
1086.803129858405
 20
655.0667682411954
 30
0.0
 11
1086.803129858405
 21
654.3659188617693
 31
0.0
  0
ARC
  5
8E2
330
8D6
100
AcDbEntity
  8
WHITE
  6
Continuous
100
AcDbCircle
 10
1089.111519291493
 20
646.3352518626177
 30
0.0
 40
1.576890729231897
100
AcDbArc
 50
301.0557830000058
 51
239.9999749999983
  0
LINE
  5
8E3
330
8D6
100
AcDbEntity
  8
WHITE
  6
Continuous
100
AcDbLine
 10
1089.924994700024
 20
644.9843833467943
 30
0.0
 11
1090.275458101241
 21
644.3773665796998
 31
0.0
  0
ARC
  5
8E4
330
8D6
100
AcDbEntity
  8
WHITE
  6
Continuous
100
AcDbCircle
 10
1089.111519291493
 20
646.3352518626177
 30
0.0
 40
2.277731958867235
100
AcDbArc
 50
300.7309509999972
 51
239.9999720000061
  0
LINE
  5
8E5
330
8D6
100
AcDbEntity
  8
WHITE
  6
Continuous
100
AcDbLine
 10
1087.972653312059
 20
644.3626786198636
 30
0.0
 11
1088.323073926876
 21
644.9696240762919
 31
0.0
  0
HATCH
  5
8E6
330
8D6
100
AcDbEntity
  8
0
100
AcDbHatch
 10
0.0
 20
0.0
 30
0.0
210
0.0
220
0.0
230
1.0
  2
SOLID
 70
     1
 71
     0
 91
        5
 92
        7
 72
     1
 73
     1
 93
        4
 10
1087.972653097009
 20
644.3626782473861
 42
0.0
 10
1088.323074080951
 20
644.969624343156
 42
-3.664441712880978
 10
1089.924994126741
 20
644.9843843397438
 42
0.0
 10
1090.275457502188
 20
644.3773676172837
 42
3.684997770613025
 97
        0
 92
        7
 72
     1
 73
     1
 93
        2
 10
1089.111519291493
 20
642.1591525404792
 42
1.0
 10
1089.111519291493
 20
637.6036845478495
 42
1.0
 97
        0
 92
       22
 72
     1
 73
     1
 93
        2
 10
1089.111519291493
 20
638.3045257774849
 42
-1.0
 10
1089.111519291493
 20
641.458311310844
 42
-1.0
 97
        0
 92
        7
 72
     1
 73
     1
 93
        7
 10
1091.289863371424
 20
652.7890892825057
 42
0.2369624768135127
 10
1086.803129858405
 20
655.0667911670098
 42
0.0
 10
1086.803129858405
 20
654.3659197397111
 42
-0.0323239992921771
 10
1087.435235755396
 20
654.3218130315365
 42
0.0
 10
1087.435235755396
 20
651.2563654571015
 42
-0.0323235821139967
 10
1086.803129858405
 20
651.2122587919539
 42
0.0
 10
1086.803129858405
 20
650.5114097744178
 42
0.2369600159374391
 97
        0
 92
       22
 72
     1
 73
     1
 93
        4
 10
1090.381953887648
 20
652.7890891997429
 42
-0.1369916014750728
 10
1088.136076985031
 20
651.4038009638445
 42
0.0
 10
1088.136076985031
 20
654.1743931165919
 42
-0.1369933941410354
 10
1090.381953252667
 20
652.7890885123944
 42
0.0
 97
        0
 75
     0
 76
     1
 47
0.0243724694748106
 98
        5
 10
1091.076730554272
 20
646.7288451660163
 10
1091.076730554272
 20
639.7552509427166
 10
1091.076730554272
 20
639.7552509427166
 10
1090.68677093372
 20
652.6783453171267
 10
1090.68677093372
 20
652.6783453171267
1001
ACAD
1010
0.0
1020
0.0
1030
0.0
  0
ARC
  5
8E7
330
8D6
100
AcDbEntity
  8
WHITE
  6
Continuous
100
AcDbCircle
 10
1086.778405431631
 20
656.1180952839718
 30
0.0
 40
4.905898794685424
100
AcDbArc
 50
286.0658920000016
 51
317.2678370000014
  0
LINE
  5
8E8
330
8D6
100
AcDbEntity
  8
WHITE
  6
Continuous
100
AcDbLine
 10
1088.136076985031
 20
651.4038001001827
 30
0.0
 11
1088.136076985031
 21
654.1743784117493
 31
0.0
  0
ARC
  5
8E9
330
8D6
100
AcDbEntity
  8
WHITE
  6
Continuous
100
AcDbCircle
 10
1086.778409506527
 20
649.4601463888359
 30
0.0
 40
4.905851933390343
100
AcDbArc
 50
42.73166599999857
 51
73.93395699999459
  0
ENDBLK
  5
8D8
330
8D6
100
AcDbEntity
  8
0
100
AcDbBlockEnd
  0
BLOCK
  5
A88
330
A87
100
AcDbEntity
  8
0
100
AcDbBlockBegin
  2
ACO_A3
 70
     0
 10
0.0
 20
0.0
 30
0.0
  3
ACO_A3
  1

  0
LINE
  5
A89
330
A87
100
AcDbEntity
  8
RAHM2
100
AcDbLine
 10
420.0
 20
297.0
 30
0.0
 11
419.9999999999999
 21
0.0
 31
0.0
1001
GENIUS_GENBLLY_14
1000
BOR2
  0
LINE
  5
A8A
330
A87
100
AcDbEntity
  8
RAHM2
100
AcDbLine
 10
230.0
 20
5.00000000000005
 30
0.0
 11
230.0
 21
0.0000000000000233
 31
0.0
1001
GENIUS_GENBLLY_14
1000
BOR2
  0
LINE
  5
A8B
330
A87
100
AcDbEntity
  8
RAHM2
100
AcDbLine
 10
157.12
 20
10.00000000000003
 30
0.0
 11
9.999999999999943
 21
10.00000000000005
 31
0.0
1001
GENIUS_GENBLLY_14
1000
BOR2
  0
TEXT
  5
A8C
330
A87
100
AcDbEntity
  8
RAHM2
100
AcDbText
 10
411.0
 20
262.0
 30
0.0
 40
4.0
  1
A
100
AcDbText
1001
GENIUS_GENBLLY_14
1000
BOR2
  0
TEXT
  5
A8D
330
A87
100
AcDbEntity
  8
RAHM2
100
AcDbText
 10
411.0
 20
216.0
 30
0.0
 40
4.0
  1
B
100
AcDbText
1001
GENIUS_GENBLLY_14
1000
BOR2
  0
TEXT
  5
A8E
330
A87
100
AcDbEntity
  8
RAHM2
100
AcDbText
 10
411.0
 20
170.0
 30
0.0
 40
4.0
  1
C
100
AcDbText
1001
GENIUS_GENBLLY_14
1000
BOR2
  0
TEXT
  5
A8F
330
A87
100
AcDbEntity
  8
RAHM2
100
AcDbText
 10
411.0
 20
123.0
 30
0.0
 40
4.0
  1
D
100
AcDbText
1001
GENIUS_GENBLLY_14
1000
BOR2
  0
TEXT
  5
A90
330
A87
100
AcDbEntity
  8
RAHM2
100
AcDbText
 10
411.0
 20
77.0
 30
0.0
 40
4.0
  1
E
100
AcDbText
1001
GENIUS_GENBLLY_14
1000
BOR2
  0
TEXT
  5
A91
330
A87
100
AcDbEntity
  8
RAHM2
100
AcDbText
 10
411.0
 20
31.0
 30
0.0
 40
4.0
  1
F
100
AcDbText
1001
GENIUS_GENBLLY_14
1000
BOR2
  0
LINE
  5
A92
330
A87
100
AcDbEntity
  8
RAHM2
100
AcDbLine
 10
415.0
 20
240.83
 30
0.0
 11
410.0
 21
240.83
 31
0.0
1001
GENIUS_GENBLLY_14
1000
BOR2
  0
LINE
  5
A93
330
A87
100
AcDbEntity
  8
RAHM2
100
AcDbLine
 10
415.0
 20
194.664
 30
0.0
 11
410.0
 21
194.664
 31
0.0
1001
GENIUS_GENBLLY_14
1000
BOR2
  0
LINE
  5
A94
330
A87
100
AcDbEntity
  8
RAHM2
100
AcDbLine
 10
415.0
 20
148.498
 30
0.0
 11
410.0
 21
148.498
 31
0.0
1001
GENIUS_GENBLLY_14
1000
BOR2
  0
LINE
  5
A95
330
A87
100
AcDbEntity
  8
RAHM2
100
AcDbLine
 10
415.0
 20
102.332
 30
0.0
 11
410.0
 21
102.332
 31
0.0
1001
GENIUS_GENBLLY_14
1000
BOR2
  0
LINE
  5
A96
330
A87
100
AcDbEntity
  8
RAHM2
100
AcDbLine
 10
415.0
 20
56.166
 30
0.0
 11
410.0
 21
56.166
 31
0.0
1001
GENIUS_GENBLLY_14
1000
BOR2
  0
LINE
  5
A97
330
A87
100
AcDbEntity
  8
RAHM2
100
AcDbLine
 10
60.0
 20
291.9999999999999
 30
0.0
 11
60.0
 21
287.0
 31
0.0
1001
GENIUS_GENBLLY_14
1000
BOR2
  0
LINE
  5
A98
330
A87
100
AcDbEntity
  8
RAHM2
100
AcDbLine
 10
110.0
 20
291.9999999999999
 30
0.0
 11
110.0
 21
287.0
 31
0.0
1001
GENIUS_GENBLLY_14
1000
BOR2
  0
LINE
  5
A99
330
A87
100
AcDbEntity
  8
RAHM2
100
AcDbLine
 10
160.0
 20
291.9999999999999
 30
0.0
 11
160.0
 21
287.0
 31
0.0
1001
GENIUS_GENBLLY_14
1000
BOR2
  0
LINE
  5
A9A
330
A87
100
AcDbEntity
  8
RAHM2
100
AcDbLine
 10
210.0
 20
291.9999999999999
 30
0.0
 11
210.0
 21
287.0
 31
0.0
1001
GENIUS_GENBLLY_14
1000
BOR2
  0
LINE
  5
A9B
330
A87
100
AcDbEntity
  8
RAHM2
100
AcDbLine
 10
260.0
 20
291.9999999999999
 30
0.0
 11
260.0
 21
287.0
 31
0.0
1001
GENIUS_GENBLLY_14
1000
BOR2
  0
LINE
  5
A9C
330
A87
100
AcDbEntity
  8
RAHM2
100
AcDbLine
 10
310.0
 20
291.9999999999999
 30
0.0
 11
310.0
 21
287.0
 31
0.0
1001
GENIUS_GENBLLY_14
1000
BOR2
  0
LINE
  5
A9D
330
A87
100
AcDbEntity
  8
RAHM2
100
AcDbLine
 10
360.0
 20
291.9999999999999
 30
0.0
 11
360.0
 21
287.0
 31
0.0
1001
GENIUS_GENBLLY_14
1000
BOR2
  0
TEXT
  5
A9E
330
A87
100
AcDbEntity
  8
RAHM2
100
AcDbText
 10
384.0
 20
287.5
 30
0.0
 40
4.0
  1
8
100
AcDbText
1001
GENIUS_GENBLLY_14
1000
BOR2
  0
TEXT
  5
A9F
330
A87
100
AcDbEntity
  8
RAHM2
100
AcDbText
 10
334.0
 20
287.5
 30
0.0
 40
4.0
  1
7
100
AcDbText
1001
GENIUS_GENBLLY_14
1000
BOR2
  0
TEXT
  5
AA0
330
A87
100
AcDbEntity
  8
RAHM2
100
AcDbText
 10
284.0
 20
287.5
 30
0.0
 40
4.0
  1
6
100
AcDbText
1001
GENIUS_GENBLLY_14
1000
BOR2
  0
TEXT
  5
AA1
330
A87
100
AcDbEntity
  8
RAHM2
100
AcDbText
 10
233.5
 20
287.5
 30
0.0
 40
4.0
  1
5
100
AcDbText
1001
GENIUS_GENBLLY_14
1000
BOR2
  0
TEXT
  5
AA2
330
A87
100
AcDbEntity
  8
RAHM2
100
AcDbText
 10
183.5
 20
287.5
 30
0.0
 40
4.0
  1
4
100
AcDbText
1001
GENIUS_GENBLLY_14
1000
BOR2
  0
TEXT
  5
AA3
330
A87
100
AcDbEntity
  8
RAHM2
100
AcDbText
 10
133.5
 20
287.5
 30
0.0
 40
4.0
  1
3
100
AcDbText
1001
GENIUS_GENBLLY_14
1000
BOR2
  0
TEXT
  5
AA4
330
A87
100
AcDbEntity
  8
RAHM2
100
AcDbText
 10
83.49999999999999
 20
287.5
 30
0.0
 40
4.0
  1
2
100
AcDbText
1001
GENIUS_GENBLLY_14
1000
BOR2
  0
TEXT
  5
AA5
330
A87
100
AcDbEntity
  8
RAHM2
100
AcDbText
 10
33.5
 20
287.5
 30
0.0
 40
4.0
  1
1
100
AcDbText
1001
GENIUS_GENBLLY_14
1000
BOR2
  0
TEXT
  5
AA6
330
A87
100
AcDbEntity
  8
RAHM2
100
AcDbText
 10
33.5
 20
5.5
 30
0.0
 40
4.0
  1
1
100
AcDbText
1001
GENIUS_GENBLLY_14
1000
BOR2
  0
TEXT
  5
AA7
330
A87
100
AcDbEntity
  8
RAHM2
100
AcDbText
 10
83.49999999999999
 20
5.5
 30
0.0
 40
4.0
  1
2
100
AcDbText
1001
GENIUS_GENBLLY_14
1000
BOR2
  0
TEXT
  5
AA8
330
A87
100
AcDbEntity
  8
RAHM2
100
AcDbText
 10
133.5
 20
5.5
 30
0.0
 40
4.0
  1
3
100
AcDbText
1001
GENIUS_GENBLLY_14
1000
BOR2
  0
TEXT
  5
AA9
330
A87
100
AcDbEntity
  8
RAHM2
100
AcDbText
 10
6.0
 20
262.0
 30
0.0
 40
4.0
  1
A
100
AcDbText
1001
GENIUS_GENBLLY_14
1000
BOR2
  0
TEXT
  5
AAA
330
A87
100
AcDbEntity
  8
RAHM2
100
AcDbText
 10
6.0
 20
216.0
 30
0.0
 40
4.0
  1
B
100
AcDbText
1001
GENIUS_GENBLLY_14
1000
BOR2
  0
TEXT
  5
AAB
330
A87
100
AcDbEntity
  8
RAHM2
100
AcDbText
 10
6.0
 20
170.0
 30
0.0
 40
4.0
  1
C
100
AcDbText
1001
GENIUS_GENBLLY_14
1000
BOR2
  0
TEXT
  5
AAC
330
A87
100
AcDbEntity
  8
RAHM2
100
AcDbText
 10
6.0
 20
123.0
 30
0.0
 40
4.0
  1
D
100
AcDbText
1001
GENIUS_GENBLLY_14
1000
BOR2
  0
TEXT
  5
AAD
330
A87
100
AcDbEntity
  8
RAHM2
100
AcDbText
 10
6.0
 20
77.0
 30
0.0
 40
4.0
  1
E
100
AcDbText
1001
GENIUS_GENBLLY_14
1000
BOR2
  0
TEXT
  5
AAE
330
A87
100
AcDbEntity
  8
RAHM2
100
AcDbText
 10
6.0
 20
31.0
 30
0.0
 40
4.0
  1
F
100
AcDbText
1001
GENIUS_GENBLLY_14
1000
BOR2
  0
LINE
  5
AAF
330
A87
100
AcDbEntity
  8
RAHM2
100
AcDbLine
 10
110.0
 20
10.0
 30
0.0
 11
110.0
 21
5.0
 31
0.0
1001
GENIUS_GENBLLY_14
1000
BOR2
  0
LINE
  5
AB0
330
A87
100
AcDbEntity
  8
RAHM2
100
AcDbLine
 10
60.0
 20
10.0
 30
0.0
 11
60.0
 21
5.0
 31
0.0
1001
GENIUS_GENBLLY_14
1000
BOR2
  0
LINE
  5
AB1
330
A87
100
AcDbEntity
  8
RAHM2
100
AcDbLine
 10
10.0
 20
240.83
 30
0.0
 11
5.0
 21
240.83
 31
0.0
1001
GENIUS_GENBLLY_14
1000
BOR2
  0
LINE
  5
AB2
330
A87
100
AcDbEntity
  8
RAHM2
100
AcDbLine
 10
10.0
 20
194.664
 30
0.0
 11
5.0
 21
194.664
 31
0.0
1001
GENIUS_GENBLLY_14
1000
BOR2
  0
LINE
  5
AB3
330
A87
100
AcDbEntity
  8
RAHM2
100
AcDbLine
 10
10.0
 20
148.498
 30
0.0
 11
5.0
 21
148.498
 31
0.0
1001
GENIUS_GENBLLY_14
1000
BOR2
  0
LINE
  5
AB4
330
A87
100
AcDbEntity
  8
RAHM2
100
AcDbLine
 10
10.0
 20
102.332
 30
0.0
 11
5.0
 21
102.332
 31
0.0
1001
GENIUS_GENBLLY_14
1000
BOR2
  0
LINE
  5
AB5
330
A87
100
AcDbEntity
  8
RAHM2
100
AcDbLine
 10
10.0
 20
56.166
 30
0.0
 11
5.0
 21
56.166
 31
0.0
1001
GENIUS_GENBLLY_14
1000
BOR2
  0
LINE
  5
AB6
330
A87
100
AcDbEntity
  8
RAHM2
100
AcDbLine
 10
410.0
 20
287.0
 30
0.0
 11
409.9999999999999
 21
5.0
 31
0.0
1001
GENIUS_GENBLLY_14
1000
BOR2
  0
LINE
  5
AB7
330
A87
100
AcDbEntity
  8
RAHM2
100
AcDbLine
 10
10.00000000000001
 20
287.0
 30
0.0
 11
410.0
 21
287.0
 31
0.0
1001
GENIUS_GENBLLY_14
1000
BOR2
  0
LINE
  5
AB8
330
A87
100
AcDbEntity
  8
RAHM2
100
AcDbLine
 10
10.0
 20
10.0
 30
0.0
 11
10.00000000000001
 21
287.0
 31
0.0
1001
GENIUS_GENBLLY_14
1000
BOR2
  0
LINE
  5
AB9
330
A87
100
AcDbEntity
  8
0
100
AcDbLine
 10
414.9999999999999
 20
5.0
 30
0.0
 11
4.999999999999943
 21
5.00000000000005
 31
0.0
  0
LINE
  5
ABA
330
A87
100
AcDbEntity
  8
0
100
AcDbLine
 10
415.0
 20
292.0
 30
0.0
 11
414.9999999999999
 21
5.0
 31
0.0
  0
LINE
  5
ABB
330
A87
100
AcDbEntity
  8
0
100
AcDbLine
 10
5.000000000000017
 20
292.0
 30
0.0
 11
415.0
 21
292.0
 31
0.0
  0
LINE
  5
ABC
330
A87
100
AcDbEntity
  8
RAHM2
100
AcDbLine
 10
0.0000000000000182
 20
297.0
 30
0.0
 11
420.0
 21
297.0
 31
0.0
1001
GENIUS_GENBLLY_14
1000
BOR2
  0
LINE
  5
ABD
330
A87
100
AcDbEntity
  8
RAHM2
100
AcDbLine
 10
0.0
 20
0.0
 30
0.0
 11
0.0000000000000182
 21
297.0
 31
0.0
1001
GENIUS_GENBLLY_14
1000
BOR2
  0
LINE
  5
ABE
330
A87
100
AcDbEntity
  8
RAHM2
100
AcDbLine
 10
125.0
 20
0.0000000000000514
 30
0.0
 11
125.0
 21
5.000000000000035
 31
0.0
1001
GENIUS_GENBLLY_14
1000
BOR2
  0
TEXT
  5
ABF
330
A87
100
AcDbEntity
  8
0
100
AcDbText
 10
420.0
 20
297.0
 30
0.0
 40
2.0
  1
!GENTITLE-MAX
100
AcDbText
  0
TEXT
  5
AC0
330
A87
100
AcDbEntity
  8
0
100
AcDbText
 10
410.0
 20
287.0
 30
0.0
 40
2.0
  1
!GENTITLE-RU
100
AcDbText
  0
TEXT
  5
AC1
330
A87
100
AcDbEntity
  8
0
100
AcDbText
 10
409.9999999999999
 20
5.0
 30
0.0
 40
2.0
  1
!GENTITLE-INSERT
100
AcDbText
  0
TEXT
  5
AC2
330
A87
100
AcDbEntity
  8
0
100
AcDbText
 10
10.0
 20
10.00000000000005
 30
0.0
 40
2.0
  1
!GENTITLE-LL
100
AcDbText
  0
LINE
  5
AC3
330
A87
100
AcDbEntity
  8
0
100
AcDbLine
 10
5.0
 20
5.0
 30
0.0
 11
5.000000000000017
 21
292.0
 31
0.0
  0
LINE
  5
AC4
330
A87
100
AcDbEntity
  8
RAHM2
100
AcDbLine
 10
419.9999999999999
 20
0.0
 30
0.0
 11
-0.0000000000000568
 21
0.0000000000000514
 31
0.0
1001
GENIUS_VERSION2
1070
     2
1001
GENIUS_GENBLLY_14
1000
BOR2
  0
LWPOLYLINE
  5
AC5
330
A87
100
AcDbEntity
  8
RAHM2
100
AcDbPolyline
 90
        4
 70
     1
 43
0.0
 10
227.1200000000001
 20
5.000000000000031
 10
157.12
 20
5.000000000000031
 10
157.12
 20
13.50000000000003
 10
227.1200000000001
 20
13.50000000000002
1001
GENIUS_GENREC_14
1002
{
1000
PXDIR
1011
157.12
1021
5.000000000000031
1031
0.0
1002
}
1002
{
1000
PORI
1011
227.1200000000001
1021
5.000000000000031
1031
0.0
1002
}
1002
{
1000
PINS
1011
227.1200000000001
1021
5.000000000000031
1031
0.0
1002
}
1002
{
1000
HVAL
1000
8.5
1002
}
1002
{
1000
H
1070
     2
1002
}
1002
{
1000
WVAL
1000
-70
1002
}
1002
{
1000
W
1070
     2
1002
}
1002
{
1000
C
1070
     1
1002
}
1001
GENIUS_GENODEF_13
1002
{
1000
HIER
1070
     0
1002
}
1002
{
1000
MANEDIT
1070
     0
1002
}
1002
{
1000
NOSEL
1070
     0
1002
}
1002
{
1000
BEHIND
1070
     0
1002
}
1002
{
1000
REACTOR
1002
}
1001
GENIUS_GENOBJ-N-REC_13
1002
{
1000
OWNER
1000
GEN
1002
}
  0
MTEXT
  5
AC6
102
{ACAD_XDICTIONARY
360
1310
102
}
330
A87
100
AcDbEntity
  8
RAHM2
100
AcDbMText
 10
158.8183525451007
 20
12.32474728438519
 30
0.0
 40
3.5
 41
4.301759591192151
 71
     1
 72
     5
  1
\fArial|b0|i0|c0|p32;\U+00A9
 73
     1
 44
1.0
1001
ACAD
1000
MTEXTBEGIN
1070
    73
1070
     1
1070
    44
1040
1.0
1070
    74
1070
     0
1000
MTEXTEND
  0
MTEXT
  5
AC7
330
A87
100
AcDbEntity
  8
RAHM2
100
AcDbMText
 10
200.9022594589521
 20
9.282856166729633
 30
0.0
 40
2.5
 41
51.25
 71
     5
 72
     5
  1
\fArial Black|b0|i0|c0|p34;ACO\Fgeniso.shx; \fDutch801 Rm BT|b0|i1|c0|p18;passavant \P\Fgeniso.shx;\H1.8;Schutzvermerk nach DIN 34
 73
     1
 44
1.0
1001
ACAD
1000
MTEXTBEGIN
1070
    73
1070
     1
1070
    44
1040
1.0
1070
    74
1070
     0
1000
MTEXTEND
  0
MTEXT
  5
AC8
330
A87
100
AcDbEntity
  8
RAHM2
100
AcDbMText
 10
165.5515418910248
 20
11.24554815700972
 30
0.0
 40
2.0
 41
5.5175
 71
     1
 72
     5
  1
2001
 73
     1
 44
1.0
1001
ACAD
1000
MTEXTBEGIN
1070
    73
1070
     1
1070
    44
1040
1.0
1070
    74
1070
     0
1000
MTEXTEND
  0
ENDBLK
  5
AC9
330
A87
100
AcDbEntity
  8
0
100
AcDbBlockEnd
  0
BLOCK
  5
ACB
330
ACA
100
AcDbEntity
  8
0
100
AcDbBlockBegin
  2
ACO-SF02-GR
 70
     2
 10
0.0
 20
0.0
 30
0.0
  3
ACO-SF02-GR
  1

  0
LINE
  5
ACC
330
ACA
100
AcDbEntity
  8
KOPF
 62
    12
100
AcDbLine
 10
0.0
 20
5.0
 30
0.0
 11
-83.0
 21
5.0
 31
0.0
  0
LWPOLYLINE
  5
ACD
330
ACA
100
AcDbEntity
  8
KOPF
 62
    12
100
AcDbPolyline
 90
        2
 70
     0
 43
0.5
 10
-83.0
 20
10.0
 10
0.0
 20
10.0
  0
LINE
  5
ACE
330
ACA
100
AcDbEntity
  8
KOPF
100
AcDbLine
 10
-83.0
 20
10.0
 30
0.0
 11
0.0
 21
10.0
 31
0.0
  0
LINE
  5
ACF
330
ACA
100
AcDbEntity
  8
KOPF
100
AcDbLine
 10
0.0
 20
5.0
 30
0.0
 11
-83.0
 21
5.0
 31
0.0
  0
LWPOLYLINE
  5
AD0
330
ACA
100
AcDbEntity
  8
KOPF
 62
    12
100
AcDbPolyline
 90
        2
 70
     0
 43
0.5
 10
0.0
 20
68.49999999999997
 10
-182.0
 20
68.49999999999997
  0
LWPOLYLINE
  5
AD1
330
ACA
100
AcDbEntity
  8
KOPF
 62
    12
100
AcDbPolyline
 90
        2
 70
     0
 43
0.5
 10
0.0
 20
46.99999999999997
 10
-182.0
 20
46.99999999999997
  0
LWPOLYLINE
  5
AD2
330
ACA
100
AcDbEntity
  8
KOPF
 62
    12
100
AcDbPolyline
 90
        2
 70
     0
 43
0.5
 10
-0.2154115848244373
 20
27.23910754630094
 10
-182.1882840408789
 20
27.23910754630094
  0
LINE
  5
AD3
330
ACA
100
AcDbEntity
  8
KOPF
 62
    12
100
AcDbLine
 10
0.0
 20
88.49999999999996
 30
0.0
 11
-182.0
 21
88.49999999999996
 31
0.0
  0
LINE
  5
AD4
330
ACA
100
AcDbEntity
  8
KOPF
 62
    12
100
AcDbLine
 10
-182.0
 20
83.49999999999997
 30
0.0
 11
0.0
 21
83.49999999999997
 31
0.0
  0
LINE
  5
AD5
330
ACA
100
AcDbEntity
  8
KOPF
 62
    12
100
AcDbLine
 10
0.0
 20
73.49999999999997
 30
0.0
 11
-182.0
 21
73.49999999999997
 31
0.0
  0
LINE
  5
AD6
330
ACA
100
AcDbEntity
  8
KOPF
 62
    12
100
AcDbLine
 10
-162.682677
 20
78.49999999999997
 30
0.0
 11
0.0
 21
78.49999999999997
 31
0.0
  0
LINE
  5
AD7
330
ACA
100
AcDbEntity
  8
KOPF
100
AcDbLine
 10
0.0
 20
68.49999999999997
 30
0.0
 11
-182.0
 21
68.49999999999997
 31
0.0
  0
LINE
  5
AD8
330
ACA
100
AcDbEntity
  8
KOPF
100
AcDbLine
 10
0.0
 20
88.49999999999996
 30
0.0
 11
-182.0
 21
88.49999999999996
 31
0.0
  0
LINE
  5
AD9
330
ACA
100
AcDbEntity
  8
KOPF
100
AcDbLine
 10
-182.0
 20
83.49999999999997
 30
0.0
 11
0.0
 21
83.49999999999997
 31
0.0
  0
LINE
  5
ADA
330
ACA
100
AcDbEntity
  8
KOPF
100
AcDbLine
 10
0.0
 20
73.49999999999997
 30
0.0
 11
-182.0
 21
73.49999999999997
 31
0.0
  0
LINE
  5
ADB
330
ACA
100
AcDbEntity
  8
KOPF
100
AcDbLine
 10
-162.682677
 20
78.49999999999997
 30
0.0
 11
0.0
 21
78.49999999999997
 31
0.0
  0
LINE
  5
ADC
330
ACA
100
AcDbEntity
  8
KOPF
 62
    12
100
AcDbLine
 10
-182.0
 20
57.74999999999997
 30
0.0
 11
-100.0
 21
57.74999999999997
 31
0.0
  0
LINE
  5
ADD
330
ACA
100
AcDbEntity
  8
KOPF
 62
    12
100
AcDbLine
 10
-182.0
 20
41.99999999999996
 30
0.0
 11
-113.4
 21
41.99999999999996
 31
0.0
  0
LINE
  5
ADE
330
ACA
100
AcDbEntity
  8
KOPF
100
AcDbLine
 10
-182.0
 20
57.74999999999997
 30
0.0
 11
-100.0
 21
57.74999999999997
 31
0.0
  0
LINE
  5
ADF
330
ACA
100
AcDbEntity
  8
KOPF
100
AcDbLine
 10
-182.0
 20
41.99999999999996
 30
0.0
 11
-113.4
 21
41.99999999999996
 31
0.0
  0
LINE
  5
AE0
330
ACA
100
AcDbEntity
  8
KOPF
 62
    12
100
AcDbLine
 10
-142.0
 20
68.49999999999997
 30
0.0
 11
-142.0
 21
46.99999999999997
 31
0.0
  0
LINE
  5
AE1
330
ACA
100
AcDbEntity
  8
KOPF
 62
    12
100
AcDbLine
 10
-142.0
 20
68.49999999999997
 30
0.0
 11
-142.0
 21
46.99999999999997
 31
0.0
  0
ATTDEF
  5
AE2
330
ACA
100
AcDbEntity
  8
TEXT35
100
AcDbText
 10
-140.2
 20
49.4
 30
0.0
 40
3.5
  1

 41
0.8
  7
TEXT35
100
AcDbAttributeDefinition
  3
Oberfläche:
  2
F63
 70
     0
  0
LWPOLYLINE
  5
AE3
330
ACA
100
AcDbEntity
  8
KOPF
 62
    12
100
AcDbPolyline
 90
        2
 70
     0
 43
0.7
 10
-182.0
 20
103.4999999999999
 10
-182.0
 20
0.0
  0
LINE
  5
AE4
330
ACA
100
AcDbEntity
  8
KOPF
100
AcDbLine
 10
-182.0
 20
103.4999999999999
 30
0.0
 11
-182.0
 21
0.0
 31
0.0
  0
TEXT
  5
AE5
330
ACA
100
AcDbEntity
  8
KOPF
100
AcDbText
 10
-179.738589
 20
38.32439403633659
 30
0.0
 40
2.0
  1
Gezeichnet:
 41
0.8
  7
TEXT20
100
AcDbText
  0
ATTDEF
  5
AE6
330
ACA
100
AcDbEntity
  8
TEXT35
100
AcDbText
 10
-176.6
 20
3.399999999999999
 30
0.0
 40
3.5
  1

 41
0.8
  7
TEXT35
100
AcDbAttributeDefinition
  3
Z-Titel 3
  2
F13
 70
     0
  0
ATTDEF
  5
AE7
330
ACA
100
AcDbEntity
  8
TEXT50
100
AcDbText
 10
-176.6
 20
10.63250279796295
 30
0.0
 40
5.0
  1

 41
0.8
  7
TEXT50
100
AcDbAttributeDefinition
  3
Z-Titel 2
  2
F3
 70
     0
  0
ATTDEF
  5
AE8
330
ACA
100
AcDbEntity
  8
TEXT50
100
AcDbText
 10
-176.6
 20
18.56318324460701
 30
0.0
 40
5.0
  1

 41
0.8
  7
TEXT50
100
AcDbAttributeDefinition
  3
Z-Titel 1
  2
F2
 70
     0
  0
TEXT
  5
AE9
330
ACA
100
AcDbEntity
  8
KOPF
100
AcDbText
 10
-179.738589
 20
28.52395361420514
 30
0.0
 40
2.0
  1
Update:
 41
0.8
  7
TEXT20
100
AcDbText
  0
TEXT
  5
AEA
330
ACA
100
AcDbEntity
  8
KOPF
100
AcDbText
 10
-179.738589
 20
33.43577642824449
 30
0.0
 40
2.0
  1
Geprüft
 41
0.8
  7
TEXT20
100
AcDbText
  0
LINE
  5
AEB
330
ACA
100
AcDbEntity
  8
KOPF
 62
    12
100
AcDbLine
 10
-163.0
 20
46.99999999999997
 30
0.0
 11
-163.0
 21
27.0
 31
0.0
  0
LINE
  5
AEC
330
ACA
100
AcDbEntity
  8
KOPF
100
AcDbLine
 10
-163.0
 20
46.99999999999997
 30
0.0
 11
-163.0
 21
27.0
 31
0.0
  0
ATTDEF
  5
AED
330
ACA
100
AcDbEntity
  8
TEXT25
100
AcDbText
 10
-161.5009557098303
 20
28.32091209119023
 30
0.0
 40
2.0
  1

 41
0.8
  7
TEXT20
100
AcDbAttributeDefinition
  3
Update am:
  2
F53
 70
     0
  0
ATTDEF
  5
AEE
330
ACA
100
AcDbEntity
  8
TEXT25
100
AcDbText
 10
-161.5539333606331
 20
33.12227989587696
 30
0.0
 40
2.0
  1

 41
0.8
  7
TEXT20
100
AcDbAttributeDefinition
  3
Geprüft am:
  2
F22
 70
     0
  0
ATTDEF
  5
AEF
330
ACA
100
AcDbEntity
  8
TEXT25
100
AcDbText
 10
-161.5207141482394
 20
38.33983936444393
 30
0.0
 40
2.0
  1

 41
0.8
  7
TEXT20
100
AcDbAttributeDefinition
  3
Gezeichnet am:
  2
F9
 70
     0
  0
TEXT
  5
AF0
330
ACA
100
AcDbEntity
  8
KOPF
100
AcDbText
 10
-155.964455
 20
43.13467299999999
 30
0.0
 40
2.0
  1
Datum
 41
0.8
  7
TEXT20
100
AcDbText
  0
LINE
  5
AF1
330
ACA
100
AcDbEntity
  8
KOPF
 62
    12
100
AcDbLine
 10
-138.4
 20
46.99999999999997
 30
0.0
 11
-138.4
 21
27.0
 31
0.0
  0
LINE
  5
AF2
330
ACA
100
AcDbEntity
  8
KOPF
100
AcDbLine
 10
-138.4
 20
46.99999999999997
 30
0.0
 11
-138.4
 21
27.0
 31
0.0
  0
TEXT
  5
AF3
330
ACA
100
AcDbEntity
  8
KOPF
100
AcDbText
 10
-130.065072
 20
43.14125800000002
 30
0.0
 40
2.0
  1
Name
 41
0.8
  7
TEXT20
100
AcDbText
  0
ATTDEF
  5
AF4
330
ACA
100
AcDbEntity
  8
TEXT25
100
AcDbText
 10
-136.2746977811447
 20
33.28471223400234
 30
0.0
 40
2.0
  1

 41
0.8
  7
TEXT20
100
AcDbAttributeDefinition
  3
Geprüft von:
  2
F21
 70
     0
  0
ATTDEF
  5
AF5
330
ACA
100
AcDbEntity
  8
TEXT25
100
AcDbText
 10
-136.3996291720711
 20
28.23101841142455
 30
0.0
 40
2.0
  1

 41
0.8
  7
TEXT20
100
AcDbAttributeDefinition
  3
Update von:
  2
F52
 70
     0
  0
ATTDEF
  5
AF6
330
ACA
100
AcDbEntity
  8
TEXT25
100
AcDbText
 10
-136.1922113552417
 20
38.48172579575253
 30
0.0
 40
2.0
  1

 41
0.8
  7
TEXT20
100
AcDbAttributeDefinition
  3
Gezeichnet von
  2
F8
 70
     0
  0
TEXT
  5
AF7
330
ACA
100
AcDbEntity
  8
KOPF
100
AcDbText
 10
-174.6925639999999
 20
69.53813999999997
 30
0.0
 40
2.0
  1
Index
 41
0.8
  7
TEXT20
100
AcDbText
  0
LINE
  5
AF8
330
ACA
100
AcDbEntity
  8
KOPF
100
AcDbLine
 10
-182.0
 20
78.49999999999997
 30
0.0
 11
-162.682677
 21
78.49999999999997
 31
0.0
  0
LINE
  5
AF9
330
ACA
100
AcDbEntity
  8
KOPF
100
AcDbLine
 10
-182.0
 20
78.49999999999997
 30
0.0
 11
-162.682677
 21
78.49999999999997
 31
0.0
  0
TEXT
  5
AFA
330
ACA
100
AcDbEntity
  8
KOPF
100
AcDbText
 10
-180.0
 20
65.166273
 30
0.0
 40
2.0
  1
Werkstoff:
 41
0.8
  7
TEXT20
100
AcDbText
  0
TEXT
  5
AFB
330
ACA
100
AcDbEntity
  8
KOPF
100
AcDbText
 10
-181.0
 20
54.49999999999997
 30
0.0
 40
2.0
  1
zul. Abweich.:
 41
0.8
  7
TEXT20
100
AcDbText
  0
ATTDEF
  5
AFC
330
ACA
100
AcDbEntity
  8
TEXT35
100
AcDbText
 10
-179.7
 20
59.6
 30
0.0
 40
3.5
  1

 41
0.8
  7
TEXT35
100
AcDbAttributeDefinition
  3
Werkstoff:
  2
F61
 70
     0
  0
ATTDEF
  5
AFD
330
ACA
100
AcDbEntity
  8
TEXT35
100
AcDbText
 10
-179.7
 20
49.7
 30
0.0
 40
3.5
  1

 41
0.8
  7
TEXT35
100
AcDbAttributeDefinition
  3
zul. Abweichung
  2
F62
 70
     0
  0
ATTDEF
  5
AFE
330
ACA
100
AcDbEntity
  8
TEXT25
100
AcDbText
 10
-174.360415155955
 20
74.59999999999999
 30
0.0
 40
2.0
  1

 41
0.8
  7
TEXT20
100
AcDbAttributeDefinition
  3
Index vv.:
  2
F72
 70
     0
  0
ATTDEF
  5
AFF
330
ACA
100
AcDbEntity
  8
TEXT25
100
AcDbText
 10
-174.4435409453564
 20
79.47378932523601
 30
0.0
 40
2.0
  1

 41
0.8
  7
TEXT20
100
AcDbAttributeDefinition
  3
Index v.:
  2
F68
 70
     0
  0
ATTDEF
  5
B00
330
ACA
100
AcDbEntity
  8
TEXT25
100
AcDbText
 10
-174.3700408782365
 20
84.63034186138365
 30
0.0
 40
2.0
  1

 41
0.8
  7
TEXT20
100
AcDbAttributeDefinition
  3
Index l.:
  2
F64
 70
     0
  0
LINE
  5
B01
330
ACA
100
AcDbEntity
  8
KOPF
100
AcDbLine
 10
-162.682677
 20
88.49999999999996
 30
0.0
 11
-162.682677
 21
68.49999999999997
 31
0.0
  0
LINE
  5
B02
330
ACA
100
AcDbEntity
  8
KOPF
100
AcDbLine
 10
-162.682677
 20
88.49999999999996
 30
0.0
 11
-162.682677
 21
68.49999999999997
 31
0.0
  0
TEXT
  5
B03
330
ACA
100
AcDbEntity
  8
KOPF
100
AcDbText
 10
-156.706568
 20
69.53813999999997
 30
0.0
 40
2.0
  1
Datum
 41
0.8
  7
TEXT20
100
AcDbText
  0
ATTDEF
  5
B04
330
ACA
100
AcDbEntity
  8
TEXT25
100
AcDbText
 10
-160.9
 20
75.09999999999999
 30
0.0
 40
2.0
  1

 41
0.8
  7
TEXT20
100
AcDbAttributeDefinition
  3
Datum vv.:
  2
F73
 70
     0
  0
ATTDEF
  5
B05
330
ACA
100
AcDbEntity
  8
TEXT25
100
AcDbText
 10
-160.9
 20
79.40000000000001
 30
0.0
 40
2.0
  1

 41
0.8
  7
TEXT20
100
AcDbAttributeDefinition
  3
Datum v.:
  2
F69
 70
     0
  0
ATTDEF
  5
B06
330
ACA
100
AcDbEntity
  8
TEXT25
100
AcDbText
 10
-160.6
 20
84.50000000000001
 30
0.0
 40
2.0
  1

 41
0.8
  7
TEXT20
100
AcDbAttributeDefinition
  3
Datum l.:
  2
F65
 70
     0
  0
LINE
  5
B07
330
ACA
100
AcDbEntity
  8
KOPF
 62
    12
100
AcDbLine
 10
-142.0
 20
68.49999999999997
 30
0.0
 11
-142.0
 21
88.49999999999996
 31
0.0
  0
LINE
  5
B08
330
ACA
100
AcDbEntity
  8
KOPF
100
AcDbLine
 10
-142.0
 20
68.49999999999997
 30
0.0
 11
-142.0
 21
88.49999999999996
 31
0.0
  0
ATTDEF
  5
B09
330
ACA
100
AcDbEntity
  8
TEXT35
100
AcDbText
 10
-139.9
 20
59.29999999999999
 30
0.0
 40
3.5
  1

 41
0.8
  7
TEXT35
100
AcDbAttributeDefinition
  3
Gewicht:
  2
F60
 70
     0
  0
TEXT
  5
B0A
330
ACA
100
AcDbEntity
  8
KOPF
100
AcDbText
 10
-140.387393
 20
54.54752599999996
 30
0.0
 40
2.0
  1
Oberfläche
 41
0.8
  7
TEXT20
100
AcDbText
  0
TEXT
  5
B0B
330
ACA
100
AcDbEntity
  8
KOPF
100
AcDbText
 10
-140.1020469999999
 20
65.166273
 30
0.0
 40
2.0
  1
Gewicht:
 41
0.8
  7
TEXT20
100
AcDbText
  0
TEXT
  5
B0C
330
ACA
100
AcDbEntity
  8
KOPF
100
AcDbText
 10
-140.1020469999999
 20
65.166273
 30
0.0
 40
2.0
  1
Gewicht:
 41
0.8
  7
TEXT20
100
AcDbText
  0
ATTDEF
  5
B0D
330
ACA
100
AcDbEntity
  8
TEXT25
100
AcDbText
 10
-140.4
 20
74.59999999999999
 30
0.0
 40
2.0
  1

 41
0.8
  7
TEXT20
100
AcDbAttributeDefinition
  3
Bennenung vv.:
  2
F74
 70
     0
  0
ATTDEF
  5
B0E
330
ACA
100
AcDbEntity
  8
TEXT25
100
AcDbText
 10
-140.5063960262479
 20
79.64480359078786
 30
0.0
 40
2.0
  1

 41
0.8
  7
TEXT20
100
AcDbAttributeDefinition
  3
Benennung v.:
  2
F70
 70
     0
  0
ATTDEF
  5
B0F
330
ACA
100
AcDbEntity
  8
TEXT25
100
AcDbText
 10
-140.390233442385
 20
84.56120109651198
 30
0.0
 40
2.0
  1

 41
0.8
  7
TEXT20
100
AcDbAttributeDefinition
  3
Bennenung l.:
  2
F66
 70
     0
  0
LINE
  5
B10
330
ACA
100
AcDbEntity
  8
KOPF
 62
    12
100
AcDbLine
 10
-100.0
 20
68.49999999999997
 30
0.0
 11
-100.0
 21
46.99999999999997
 31
0.0
  0
LWPOLYLINE
  5
B11
330
ACA
100
AcDbEntity
  8
KOPF
 62
    12
100
AcDbPolyline
 90
        2
 70
     0
 43
0.5
 10
-83.0
 20
46.99999999999997
 10
-83.0
 20
0.0
  0
LINE
  5
B12
330
ACA
100
AcDbEntity
  8
KOPF
100
AcDbLine
 10
-83.0
 20
46.99999999999997
 30
0.0
 11
-83.0
 21
0.0
 31
0.0
  0
TEXT
  5
B13
330
ACA
100
AcDbEntity
  8
KOPF
100
AcDbText
 10
-81.0
 20
1.714285999999985
 30
0.0
 40
2.0
  1
Ersetzt durch:
 41
0.8
  7
TEXT20
100
AcDbText
  0
LINE
  5
B14
330
ACA
100
AcDbEntity
  8
KOPF
 62
    12
100
AcDbLine
 10
-113.4
 20
27.0
 30
0.0
 11
-113.4
 21
46.99999999999997
 31
0.0
  0
LWPOLYLINE
  5
B15
330
ACA
100
AcDbEntity
  8
KOPF
100
AcDbPolyline
 90
        2
 70
     0
 43
0.5
 10
-113.4
 20
27.0
 10
-113.4
 20
46.99999999999997
  0
LINE
  5
B16
330
ACA
100
AcDbEntity
  8
KOPF
100
AcDbLine
 10
-113.4
 20
27.0
 30
0.0
 11
-113.4
 21
46.99999999999997
 31
0.0
  0
LINE
  5
B17
330
ACA
100
AcDbEntity
  8
KOPF
100
AcDbLine
 10
-113.4
 20
27.0
 30
0.0
 11
-113.4
 21
46.99999999999997
 31
0.0
  0
ATTDEF
  5
B18
330
ACA
100
AcDbEntity
  8
TEXT35
100
AcDbText
 10
-104.4935632823758
 20
33.13408015176805
 30
0.0
 40
3.5
  1

 41
0.8
  7
TEXT35
100
AcDbAttributeDefinition
  3
Maßstab 2:
  2
F54
 70
     0
  0
ATTDEF
  5
B19
330
ACA
100
AcDbEntity
  8
TEXT35
100
AcDbText
 10
-104.487948258847
 20
28.6
 30
0.0
 40
3.5
  1

 41
0.8
  7
TEXT35
100
AcDbAttributeDefinition
  3
Maßstab 3:
  2
F55
 70
     0
  0
ATTDEF
  5
B1A
330
ACA
100
AcDbEntity
  8
TEXT50
100
AcDbText
 10
-106.6
 20
37.8
 30
0.0
 40
5.0
  1

 41
0.8
  7
TEXT50
100
AcDbAttributeDefinition
  3
Maßstab 1:
  2
F25
 70
     0
  0
TEXT
  5
B1B
330
ACA
100
AcDbEntity
  8
KOPF
100
AcDbText
 10
-112.263457
 20
43.88678899999999
 30
0.0
 40
2.0
  1
Massstab:
 41
0.8
  7
TEXT20
100
AcDbText
  0
LINE
  5
B1C
330
ACA
100
AcDbEntity
  8
KOPF
 62
    12
100
AcDbLine
 10
-57.80813400000011
 20
27.0
 30
0.0
 11
-57.80813400000011
 21
46.99999999999997
 31
0.0
  0
LINE
  5
B1D
330
ACA
100
AcDbEntity
  8
KOPF
100
AcDbLine
 10
-57.80813400000011
 20
27.0
 30
0.0
 11
-57.80813400000011
 21
46.99999999999997
 31
0.0
  0
TEXT
  5
B1E
330
ACA
100
AcDbEntity
  8
KOPF
100
AcDbText
 10
-81.59296000000006
 20
23.69783599999999
 30
0.0
 40
2.0
  1
Zeichnung Nr.:
 41
0.8
  7
TEXT20
100
AcDbText
  0
TEXT
  5
B1F
330
ACA
100
AcDbEntity
  8
KOPF
100
AcDbText
 10
-81.00375700000006
 20
5.924711999999997
 30
0.0
 40
2.0
  1
Ersatz für:
 41
0.8
  7
TEXT20
100
AcDbText
  0
TEXT
  5
B20
330
ACA
100
AcDbEntity
  8
KOPF
100
AcDbText
 10
-81.59296000000006
 20
23.69783599999999
 30
0.0
 40
2.0
  1
Zeichnung Nr.:
 41
0.8
  7
TEXT20
100
AcDbText
  0
ATTDEF
  5
B21
330
ACA
100
AcDbEntity
  8
TEXT50
100
AcDbText
 10
-78.29193986361122
 20
14.50587824180555
 30
0.0
 40
5.0
  1

 41
0.8
  7
TEXT50
100
AcDbAttributeDefinition
  3
Standart:
  2
F1
 70
     0
  0
TEXT
  5
B22
330
ACA
100
AcDbEntity
  8
KOPF
100
AcDbText
 10
-81.48889200000008
 20
43.86057200000001
 30
0.0
 40
2.0
  1
Masseinheit:
 41
0.8
  7
TEXT20
100
AcDbText
  0
LINE
  5
B23
330
ACA
100
AcDbEntity
  8
KOPF
 62
    12
100
AcDbLine
 10
-57.80813400000011
 20
36.213444
 30
0.0
 11
-83.0
 21
36.213444
 31
0.0
  0
LINE
  5
B24
330
ACA
100
AcDbEntity
  8
KOPF
100
AcDbLine
 10
-57.80813400000011
 20
36.213444
 30
0.0
 11
-83.0
 21
36.213444
 31
0.0
  0
ATTDEF
  5
B25
330
ACA
100
AcDbEntity
  8
TEXT35
100
AcDbText
 10
-79.40896486611496
 20
38.08722024605356
 30
0.0
 40
3.5
  1

 41
0.8
  7
TEXT35
100
AcDbAttributeDefinition
  3
Maßeinheit:
  2
F56
 70
     0
  0
TEXT
  5
B26
330
ACA
100
AcDbEntity
  8
KOPF
100
AcDbText
 10
-33.57569784693112
 20
42.62823225872138
 30
0.0
 40
1.54
  1
Diese Zeichnung darf weder kopiert
 41
0.8
  7
TEXT20
100
AcDbText
  0
TEXT
  5
B27
330
ACA
100
AcDbEntity
  8
KOPF
100
AcDbText
 10
-33.57569784693112
 20
40.26106040199917
 30
0.0
 40
1.54
  1
noch dritten Personen, insbesondere
 41
0.8
  7
TEXT20
100
AcDbText
  0
TEXT
  5
B28
330
ACA
100
AcDbEntity
  8
KOPF
100
AcDbText
 10
-33.57569784693112
 20
35.63814072439632
 30
0.0
 40
1.54
  1
mitgeteilt werden und bleibt unser
 41
0.8
  7
TEXT20
100
AcDbText
  0
TEXT
  5
B29
330
ACA
100
AcDbEntity
  8
KOPF
100
AcDbText
 10
-33.57569784693112
 20
33.37532604459598
 30
0.0
 40
1.54
  1
Eigentum.
 41
0.8
  7
TEXT20
100
AcDbText
  0
TEXT
  5
B2A
330
ACA
100
AcDbEntity
  8
KOPF
100
AcDbText
 10
-33.57569784693112
 20
37.97994933403727
 30
0.0
 40
1.54
  1
zum Zweck anderweitiger Benutzung
 41
0.8
  7
TEXT20
100
AcDbText
  0
TEXT
  5
B2B
330
ACA
100
AcDbEntity
  8
KOPF
100
AcDbText
 10
-33.7904806989385
 20
30.30982488917614
 30
0.0
 40
1.54
  1
Schutzvermerk nach DIN 34 beachten
 41
0.75
  7
TEXT20
100
AcDbText
  0
LINE
  5
B2C
330
ACA
100
AcDbEntity
  8
KOPF
100
AcDbLine
 10
-34.94281200000012
 20
47.01203199999999
 30
0.0
 11
-34.94281200000012
 21
27.0
 31
0.0
  0
LINE
  5
B2D
330
ACA
100
AcDbEntity
  8
KOPF
100
AcDbLine
 10
-34.94281200000012
 20
47.01203199999999
 30
0.0
 11
-34.94281200000012
 21
27.0
 31
0.0
  0
LINE
  5
B2E
330
ACA
100
AcDbEntity
  8
MITTE
100
AcDbLine
 10
-45.85521401410289
 20
36.04852954632858
 30
0.0
 11
-35.23444858652556
 21
36.04852954632858
 31
0.0
  0
LINE
  5
B2F
330
ACA
100
AcDbEntity
  8
TEXT50
100
AcDbLine
 10
-45.05865660703466
 20
32.02559619470341
 30
0.0
 11
-36.50894043783512
 21
34.06858135367652
 31
0.0
  0
LINE
  5
B30
330
ACA
100
AcDbEntity
  8
TEXT50
100
AcDbLine
 10
-36.50894043783512
 20
38.02847773898061
 30
0.0
 11
-45.05865660703466
 21
40.07146289795374
 31
0.0
  0
TEXT
  5
B31
330
ACA
100
AcDbEntity
  8
KOPF
100
AcDbText
 10
-57.12244047883302
 20
43.82431699999997
 30
0.0
 40
2.0
  1
Projektion: ISO-E
 41
0.8
  7
TEXT20
100
AcDbText
  0
LINE
  5
B32
330
ACA
100
AcDbEntity
  8
TEXT50
100
AcDbLine
 10
-45.05865660703466
 20
40.07146289795374
 30
0.0
 11
-45.05865660703466
 21
32.02559619470346
 31
0.0
  0
LINE
  5
B33
330
ACA
100
AcDbEntity
  8
MITTE
100
AcDbLine
 10
-51.4945506424383
 20
40.07146289795374
 30
0.0
 11
-51.4945506424383
 21
30.76413131482123
 31
0.0
  0
CIRCLE
  5
B34
330
ACA
100
AcDbEntity
  8
TEXT50
100
AcDbCircle
 10
-51.4945506424383
 20
36.04852954632858
 30
0.0
 40
4.022933351625178
  0
CIRCLE
  5
B35
330
ACA
100
AcDbEntity
  8
TEXT50
100
AcDbCircle
 10
-51.4945506424383
 20
36.04852954632858
 30
0.0
 40
1.979948192651899
  0
LINE
  5
B36
330
ACA
100
AcDbEntity
  8
MITTE
100
AcDbLine
 10
-56.48631039339966
 20
36.04852954632858
 30
0.0
 11
-46.50279089147699
 21
36.04852954632858
 31
0.0
  0
LINE
  5
B37
330
ACA
100
AcDbEntity
  8
TEXT50
100
AcDbLine
 10
-36.50894043783512
 20
38.02847773898061
 30
0.0
 11
-36.50894043783512
 21
34.06858135367652
 31
0.0
  0
LWPOLYLINE
  5
B38
330
ACA
100
AcDbEntity
  8
KOPF
 62
    12
100
AcDbPolyline
 90
        2
 70
     0
 43
0.5
 10
-12.0
 20
27.0
 10
-12.0
 20
10.0
  0
LINE
  5
B39
330
ACA
100
AcDbEntity
  8
KOPF
100
AcDbLine
 10
-12.0
 20
27.0
 30
0.0
 11
-12.0
 21
10.0
 31
0.0
  0
ATTDEF
  5
B3A
330
ACA
100
AcDbEntity
  8
TEXT50
100
AcDbText
 10
-5.58570360403041
 20
17.00587824180555
 30
0.0
 40
5.0
  1

 41
0.8
  7
TEXT50
 72
     4
 11
-5.58570360403041
 21
17.00587824180555
 31
0.0
100
AcDbAttributeDefinition
  3
Index:
  2
F1B
 70
     0
  0
TEXT
  5
B3B
330
ACA
100
AcDbEntity
  8
KOPF
100
AcDbText
 10
-8.353129999999964
 20
23.330072
 30
0.0
 40
2.0
  1
Index
 41
0.8
  7
TEXT20
100
AcDbText
  0
TEXT
  5
B3C
330
ACA
100
AcDbEntity
  8
KOPF
100
AcDbText
 10
-94.40535829344497
 20
70.39773773357916
 30
0.0
 40
2.0
  1
Benennung
 41
0.8
  7
TEXT20
100
AcDbText
  0
LINE
  5
B3D
330
ACA
100
AcDbEntity
  8
KOPF
100
AcDbLine
 10
-15.0
 20
88.49999999999996
 30
0.0
 11
-15.0
 21
68.49999999999997
 31
0.0
  0
LINE
  5
B3E
330
ACA
100
AcDbEntity
  8
KOPF
100
AcDbLine
 10
-15.0
 20
88.49999999999996
 30
0.0
 11
-15.0
 21
68.49999999999997
 31
0.0
  0
TEXT
  5
B3F
330
ACA
100
AcDbEntity
  8
KOPF
100
AcDbText
 10
-11.65833600000008
 20
69.53813999999997
 30
0.0
 40
2.0
  1
Name
 41
0.8
  7
TEXT20
100
AcDbText
  0
TEXT
  5
B40
330
ACA
100
AcDbEntity
  8
KOPF
100
AcDbText
 10
-11.65833600000008
 20
69.53813999999997
 30
0.0
 40
2.0
  1
Name
 41
0.8
  7
TEXT20
100
AcDbText
  0
ATTDEF
  5
B41
330
ACA
100
AcDbEntity
  8
TEXT25
100
AcDbText
 10
-13.39999999999998
 20
74.90000000000001
 30
0.0
 40
2.0
  1

 41
0.8
  7
TEXT20
100
AcDbAttributeDefinition
  3
Name vv.:
  2
F75
 70
     0
  0
ATTDEF
  5
B42
330
ACA
100
AcDbEntity
  8
TEXT25
100
AcDbText
 10
-13.39999999999998
 20
79.7
 30
0.0
 40
2.0
  1

 41
0.8
  7
TEXT20
100
AcDbAttributeDefinition
  3
Name v.:
  2
F71
 70
     0
  0
ATTDEF
  5
B43
330
ACA
100
AcDbEntity
  8
TEXT25
100
AcDbText
 10
-13.31006638105163
 20
84.29999999999999
 30
0.0
 40
2.0
  1

 41
0.8
  7
TEXT20
100
AcDbAttributeDefinition
  3
Name l.:
  2
F67
 70
     0
  0
LINE
  5
B44
330
ACA
100
AcDbEntity
  8
KOPF
100
AcDbLine
 10
-182.0
 20
36.99999999999997
 30
0.0
 11
-113.4
 21
36.99999999999997
 31
0.0
  0
LINE
  5
B45
330
ACA
100
AcDbEntity
  8
KOPF
100
AcDbLine
 10
-182.0
 20
31.99999999999997
 30
0.0
 11
-113.4
 21
31.99999999999997
 31
0.0
  0
MTEXT
  5
B46
330
ACA
100
AcDbEntity
  8
Sperrlayer
 62
     1
100
AcDbMText
 10
-166.0749851709908
 20
9.027899370527848
 30
0.0
 40
10.0
 41
771.0
 71
     1
 72
     5
  1
VORABZUG - nicht FREIGEGEBEN !
  7
TEXT20
 11
0.8660254037844387
 21
0.5
 31
0.0
 73
     1
 44
1.0
1001
ACAD
1000
MTEXTBEGIN
1070
    73
1070
     1
1070
    44
1040
1.0
1070
    74
1070
     0
1000
MTEXTEND
  0
SOLID
  5
B47
330
ACA
100
AcDbEntity
  8
RAHM2
100
AcDbTrace
 10
-65.27552397868255
 20
61.53746598194189
 30
0.0
 11
-62.05035543935675
 21
61.53746598194189
 31
0.0
 12
-65.27552397868255
 22
61.25701654373962
 32
0.0
 13
-62.05035543935675
 23
61.25701654373962
 33
0.0
  0
TEXT
  5
B48
330
ACA
100
AcDbEntity
  8
RAHM2
100
AcDbText
 10
-40.91775160745712
 20
53.63170934671963
 30
0.0
 40
2.6
  1
GmbH
  7
KOPF
 72
     1
 11
-35.478939452761
 21
53.63170934671963
 31
0.0
100
AcDbText
  0
TEXT
  5
B49
330
ACA
100
AcDbEntity
  8
RAHM2
100
AcDbText
 10
-58.33566801898796
 20
50.12594670488301
 30
0.0
 40
2.6
  1
36269 Philippsthal
  7
KOPF
 72
     1
 11
-44.32206304661227
 21
50.12594670488301
 31
0.0
100
AcDbText
  0
SOLID
  5
B4A
330
ACA
100
AcDbEntity
  8
RAHM2
100
AcDbTrace
 10
-67.51911948430052
 20
62.09836485834642
 30
0.0
 11
-66.95822060789598
 21
62.09836485834642
 31
0.0
 12
-67.51911948430052
 22
61.9581401392452
 32
0.0
 13
-66.95822060789598
 23
61.9581401392452
 33
0.0
  0
SOLID
  5
B4B
330
ACA
100
AcDbEntity
  8
RAHM2
100
AcDbTrace
 10
-68.36046779890714
 20
61.9581401392452
 30
0.0
 11
-66.11687229328918
 21
61.9581401392452
 31
0.0
 12
-68.36046779890714
 22
61.81791542014416
 32
0.0
 13
-66.11687229328918
 23
61.81791542014416
 33
0.0
  0
SOLID
  5
B4C
330
ACA
100
AcDbEntity
  8
RAHM2
100
AcDbTrace
 10
-68.64091723710941
 20
61.81791542014416
 30
0.0
 11
-66.11687229328918
 21
61.81791542014416
 31
0.0
 12
-68.64091723710941
 22
61.67769070104293
 32
0.0
 13
-66.11687229328918
 23
61.67769070104293
 33
0.0
  0
SOLID
  5
B4D
330
ACA
100
AcDbEntity
  8
RAHM2
100
AcDbTrace
 10
-68.92136667531167
 20
61.67769070104293
 30
0.0
 11
-66.2570970123904
 21
61.67769070104293
 31
0.0
 12
-68.92136667531167
 22
61.53746598194189
 32
0.0
 13
-66.2570970123904
 23
61.53746598194189
 33
0.0
  0
SOLID
  5
B4E
330
ACA
100
AcDbEntity
  8
RAHM2
100
AcDbTrace
 10
-69.0615913944129
 20
61.53746598194189
 30
0.0
 11
-66.2570970123904
 21
61.53746598194189
 31
0.0
 12
-69.0615913944129
 22
61.39724126284066
 32
0.0
 13
-66.2570970123904
 23
61.39724126284066
 33
0.0
  0
SOLID
  5
B4F
330
ACA
100
AcDbEntity
  8
RAHM2
100
AcDbTrace
 10
-69.20181611351394
 20
61.39724126284066
 30
0.0
 11
-66.2570970123904
 21
61.39724126284066
 31
0.0
 12
-69.20181611351394
 22
61.25701654373962
 32
0.0
 13
-66.2570970123904
 23
61.25701654373962
 33
0.0
  0
SOLID
  5
B50
330
ACA
100
AcDbEntity
  8
RAHM2
100
AcDbTrace
 10
-69.34204083261517
 20
61.25701654373962
 30
0.0
 11
-67.09844532699702
 21
61.25701654373962
 31
0.0
 12
-69.34204083261517
 22
61.1167918246384
 32
0.0
 13
-67.09844532699702
 23
61.1167918246384
 33
0.0
  0
SOLID
  5
B51
330
ACA
100
AcDbEntity
  8
RAHM2
100
AcDbTrace
 10
-69.20181611351394
 20
58.59274688081836
 30
0.0
 11
-66.39732173149145
 21
58.59274688081836
 31
0.0
 12
-69.20181611351394
 22
58.45252216171712
 32
0.0
 13
-66.39732173149145
 23
58.45252216171712
 33
0.0
  0
SOLID
  5
B52
330
ACA
100
AcDbEntity
  8
RAHM2
100
AcDbTrace
 10
-69.0615913944129
 20
58.45252216171712
 30
0.0
 11
-66.2570970123904
 21
58.45252216171712
 31
0.0
 12
-69.0615913944129
 22
58.17207272351486
 32
0.0
 13
-66.2570970123904
 23
58.17207272351486
 33
0.0
  0
SOLID
  5
B53
330
ACA
100
AcDbEntity
  8
RAHM2
100
AcDbTrace
 10
-68.78114195621063
 20
58.17207272351486
 30
0.0
 11
-66.2570970123904
 21
58.17207272351486
 31
0.0
 12
-68.78114195621063
 22
58.03184800441382
 32
0.0
 13
-66.2570970123904
 23
58.03184800441382
 33
0.0
  0
SOLID
  5
B54
330
ACA
100
AcDbEntity
  8
RAHM2
100
AcDbTrace
 10
-68.50069251800836
 20
58.03184800441382
 30
0.0
 11
-66.11687229328918
 21
58.03184800441382
 31
0.0
 12
-68.50069251800836
 22
57.89162328531259
 32
0.0
 13
-66.11687229328918
 23
57.89162328531259
 33
0.0
  0
SOLID
  5
B55
330
ACA
100
AcDbEntity
  8
RAHM2
100
AcDbTrace
 10
-68.22024307980609
 20
57.89162328531259
 30
0.0
 11
-66.11687229328918
 21
57.89162328531259
 31
0.0
 12
-68.22024307980609
 22
57.75139856621155
 32
0.0
 13
-66.11687229328918
 23
57.75139856621155
 33
0.0
  0
SOLID
  5
B56
330
ACA
100
AcDbEntity
  8
RAHM2
100
AcDbTrace
 10
-67.79956892250279
 20
57.75139856621155
 30
0.0
 11
-66.39732173149145
 21
57.75139856621155
 31
0.0
 12
-67.79956892250279
 22
57.61117384711032
 32
0.0
 13
-66.39732173149145
 23
57.61117384711032
 33
0.0
  0
SOLID
  5
B57
330
ACA
100
AcDbEntity
  8
RAHM2
100
AcDbTrace
 10
-81.82204083261508
 20
64.86384610464772
 30
0.0
 11
-79.99911948430043
 21
64.86384610464772
 31
0.0
 12
-81.82204083261508
 22
60.23643037431057
 32
0.0
 13
-79.99911948430043
 23
60.23643037431057
 33
0.0
  0
SOLID
  5
B58
330
ACA
100
AcDbEntity
  8
RAHM2
100
AcDbTrace
 10
-79.4382206078959
 20
64.86384610464772
 30
0.0
 11
-77.61529925958143
 21
64.86384610464772
 31
0.0
 12
-79.4382206078959
 22
60.23643037431057
 32
0.0
 13
-77.61529925958143
 23
60.23643037431057
 33
0.0
  0
SOLID
  5
B59
330
ACA
100
AcDbEntity
  8
RAHM2
100
AcDbTrace
 10
-77.19462510227794
 20
64.86384610464772
 30
0.0
 11
-75.23147903486225
 21
64.86384610464772
 31
0.0
 12
-77.19462510227794
 22
60.23643037431057
 32
0.0
 13
-75.23147903486225
 23
60.23643037431057
 33
0.0
  0
SOLID
  5
B5A
330
ACA
100
AcDbEntity
  8
RAHM2
100
AcDbTrace
 10
-72.70743409104202
 20
62.09836485834642
 30
0.0
 11
-71.58563633823312
 21
62.09836485834642
 31
0.0
 12
-72.70743409104202
 22
61.9581401392452
 32
0.0
 13
-71.58563633823312
 23
61.9581401392452
 33
0.0
  0
SOLID
  5
B5B
330
ACA
100
AcDbEntity
  8
RAHM2
100
AcDbTrace
 10
-72.70743409104202
 20
61.9581401392452
 30
0.0
 11
-71.4454116191319
 21
61.9581401392452
 31
0.0
 12
-72.70743409104202
 22
61.81791542014416
 32
0.0
 13
-71.4454116191319
 23
61.81791542014416
 33
0.0
  0
SOLID
  5
B5C
330
ACA
100
AcDbEntity
  8
RAHM2
100
AcDbTrace
 10
-72.84765881014324
 20
61.81791542014416
 30
0.0
 11
-71.4454116191319
 21
61.81791542014416
 31
0.0
 12
-72.84765881014324
 22
61.67769070104293
 32
0.0
 13
-71.4454116191319
 23
61.67769070104293
 33
0.0
  0
SOLID
  5
B5D
330
ACA
100
AcDbEntity
  8
RAHM2
100
AcDbTrace
 10
-72.84765881014324
 20
61.67769070104293
 30
0.0
 11
-71.30518690003086
 21
61.67769070104293
 31
0.0
 12
-72.84765881014324
 22
61.53746598194189
 32
0.0
 13
-71.30518690003086
 23
61.53746598194189
 33
0.0
  0
SOLID
  5
B5E
330
ACA
100
AcDbEntity
  8
RAHM2
100
AcDbTrace
 10
-72.98788352924429
 20
61.53746598194189
 30
0.0
 11
-71.30518690003086
 21
61.53746598194189
 31
0.0
 12
-72.98788352924429
 22
61.25701654373962
 32
0.0
 13
-71.30518690003086
 23
61.25701654373962
 33
0.0
  0
SOLID
  5
B5F
330
ACA
100
AcDbEntity
  8
RAHM2
100
AcDbTrace
 10
-72.98788352924429
 20
61.25701654373962
 30
0.0
 11
-71.16496218092963
 21
61.25701654373962
 31
0.0
 12
-72.98788352924429
 22
61.1167918246384
 32
0.0
 13
-71.16496218092963
 23
61.1167918246384
 33
0.0
  0
SOLID
  5
B60
330
ACA
100
AcDbEntity
  8
RAHM2
100
AcDbTrace
 10
-73.12810824834551
 20
61.1167918246384
 30
0.0
 11
-71.16496218092963
 21
61.1167918246384
 31
0.0
 12
-73.12810824834551
 22
60.97656710553735
 32
0.0
 13
-71.16496218092963
 23
60.97656710553735
 33
0.0
  0
SOLID
  5
B61
330
ACA
100
AcDbEntity
  8
RAHM2
100
AcDbTrace
 10
-73.12810824834551
 20
60.97656710553735
 30
0.0
 11
-72.28675993373871
 21
60.97656710553735
 31
0.0
 12
-73.12810824834551
 22
60.83634238643631
 32
0.0
 13
-72.28675993373871
 23
60.83634238643631
 33
0.0
  0
SOLID
  5
B62
330
ACA
100
AcDbEntity
  8
RAHM2
100
AcDbTrace
 10
-73.26833296744656
 20
60.83634238643631
 30
0.0
 11
-72.28675993373871
 21
60.83634238643631
 31
0.0
 12
-73.26833296744656
 22
60.69611766733508
 32
0.0
 13
-72.28675993373871
 23
60.69611766733508
 33
0.0
  0
SOLID
  5
B63
330
ACA
100
AcDbEntity
  8
RAHM2
100
AcDbTrace
 10
-73.26833296744656
 20
60.69611766733508
 30
0.0
 11
-72.42698465283975
 21
60.69611766733508
 31
0.0
 12
-73.26833296744656
 22
60.41566822913281
 32
0.0
 13
-72.42698465283975
 23
60.41566822913281
 33
0.0
  0
SOLID
  5
B64
330
ACA
100
AcDbEntity
  8
RAHM2
100
AcDbTrace
 10
-73.40855768654759
 20
60.41566822913281
 30
0.0
 11
-72.42698465283975
 21
60.41566822913281
 31
0.0
 12
-73.40855768654759
 22
60.27544351003178
 32
0.0
 13
-72.42698465283975
 23
60.27544351003178
 33
0.0
  0
SOLID
  5
B65
330
ACA
100
AcDbEntity
  8
RAHM2
100
AcDbTrace
 10
-73.40855768654759
 20
60.27544351003178
 30
0.0
 11
-72.56720937194097
 21
60.27544351003178
 31
0.0
 12
-73.40855768654759
 22
60.13521879093055
 32
0.0
 13
-72.56720937194097
 23
60.13521879093055
 33
0.0
  0
SOLID
  5
B66
330
ACA
100
AcDbEntity
  8
RAHM2
100
AcDbTrace
 10
-73.54878240564882
 20
60.13521879093055
 30
0.0
 11
-72.56720937194097
 21
60.13521879093055
 31
0.0
 12
-73.54878240564882
 22
59.85476935272828
 32
0.0
 13
-72.56720937194097
 23
59.85476935272828
 33
0.0
  0
SOLID
  5
B67
330
ACA
100
AcDbEntity
  8
RAHM2
100
AcDbTrace
 10
-73.68900712474986
 20
59.85476935272828
 30
0.0
 11
-72.70743409104202
 21
59.85476935272828
 31
0.0
 12
-73.68900712474986
 22
59.43409519542497
 32
0.0
 13
-72.70743409104202
 23
59.43409519542497
 33
0.0
  0
SOLID
  5
B68
330
ACA
100
AcDbEntity
  8
RAHM2
100
AcDbTrace
 10
-72.28675993373871
 20
60.97656710553735
 30
0.0
 11
-71.16496218092963
 21
60.97656710553735
 31
0.0
 12
-72.28675993373871
 22
60.83634238643631
 32
0.0
 13
-71.16496218092963
 23
60.83634238643631
 33
0.0
  0
SOLID
  5
B69
330
ACA
100
AcDbEntity
  8
RAHM2
100
AcDbTrace
 10
-72.14653521463748
 20
60.83634238643631
 30
0.0
 11
-71.02473746182859
 21
60.83634238643631
 31
0.0
 12
-72.14653521463748
 22
60.55589294823405
 32
0.0
 13
-71.02473746182859
 23
60.55589294823405
 33
0.0
  0
SOLID
  5
B6A
330
ACA
100
AcDbEntity
  8
RAHM2
100
AcDbTrace
 10
-72.14653521463748
 20
60.55589294823405
 30
0.0
 11
-70.88451274272737
 21
60.55589294823405
 31
0.0
 12
-72.14653521463748
 22
60.27544351003178
 32
0.0
 13
-70.88451274272737
 23
60.27544351003178
 33
0.0
  0
SOLID
  5
B6B
330
ACA
100
AcDbEntity
  8
RAHM2
100
AcDbTrace
 10
-72.00631049553644
 20
60.27544351003178
 30
0.0
 11
-70.88451274272737
 21
60.27544351003178
 31
0.0
 12
-72.00631049553644
 22
60.13521879093055
 32
0.0
 13
-70.88451274272737
 23
60.13521879093055
 33
0.0
  0
SOLID
  5
B6C
330
ACA
100
AcDbEntity
  8
RAHM2
100
AcDbTrace
 10
-72.00631049553644
 20
60.13521879093055
 30
0.0
 11
-70.74428802362632
 21
60.13521879093055
 31
0.0
 12
-72.00631049553644
 22
59.85476935272828
 32
0.0
 13
-70.74428802362632
 23
59.85476935272828
 33
0.0
  0
SOLID
  5
B6D
330
ACA
100
AcDbEntity
  8
RAHM2
100
AcDbTrace
 10
-72.00631049553644
 20
59.85476935272828
 30
0.0
 11
-70.60406330452528
 21
59.85476935272828
 31
0.0
 12
-72.00631049553644
 22
59.71454463362724
 32
0.0
 13
-70.60406330452528
 23
59.71454463362724
 33
0.0
  0
SOLID
  5
B6E
330
ACA
100
AcDbEntity
  8
RAHM2
100
AcDbTrace
 10
-71.86608577643539
 20
59.71454463362724
 30
0.0
 11
-70.60406330452528
 21
59.71454463362724
 31
0.0
 12
-71.86608577643539
 22
59.43409519542497
 32
0.0
 13
-70.60406330452528
 23
59.43409519542497
 33
0.0
  0
SOLID
  5
B6F
330
ACA
100
AcDbEntity
  8
RAHM2
100
AcDbTrace
 10
-73.82923184385109
 20
59.43409519542497
 30
0.0
 11
-70.46383858542405
 21
59.43409519542497
 31
0.0
 12
-73.82923184385109
 22
59.15364575722271
 32
0.0
 13
-70.46383858542405
 23
59.15364575722271
 33
0.0
  0
SOLID
  5
B70
330
ACA
100
AcDbEntity
  8
RAHM2
100
AcDbTrace
 10
-73.96945656295213
 20
59.15364575722271
 30
0.0
 11
-70.46383858542405
 21
59.15364575722271
 31
0.0
 12
-73.96945656295213
 22
59.01342103812166
 32
0.0
 13
-70.46383858542405
 23
59.01342103812166
 33
0.0
  0
SOLID
  5
B71
330
ACA
100
AcDbEntity
  8
RAHM2
100
AcDbTrace
 10
-73.96945656295213
 20
59.01342103812166
 30
0.0
 11
-70.32361386632302
 21
59.01342103812166
 31
0.0
 12
-73.96945656295213
 22
58.87319631902044
 32
0.0
 13
-70.32361386632302
 23
58.87319631902044
 33
0.0
  0
SOLID
  5
B72
330
ACA
100
AcDbEntity
  8
RAHM2
100
AcDbTrace
 10
-74.10968128205336
 20
58.87319631902044
 30
0.0
 11
-70.32361386632302
 21
58.87319631902044
 31
0.0
 12
-74.10968128205336
 22
58.73297159991939
 32
0.0
 13
-70.32361386632302
 23
58.73297159991939
 33
0.0
  0
SOLID
  5
B73
330
ACA
100
AcDbEntity
  8
RAHM2
100
AcDbTrace
 10
-74.10968128205336
 20
58.73297159991939
 30
0.0
 11
-72.98788352924429
 21
58.73297159991939
 31
0.0
 12
-74.10968128205336
 22
58.45252216171712
 32
0.0
 13
-72.98788352924429
 23
58.45252216171712
 33
0.0
  0
SOLID
  5
B74
330
ACA
100
AcDbEntity
  8
RAHM2
100
AcDbTrace
 10
-74.2499060011544
 20
58.45252216171712
 30
0.0
 11
-73.12810824834551
 21
58.45252216171712
 31
0.0
 12
-74.2499060011544
 22
58.17207272351486
 32
0.0
 13
-73.12810824834551
 23
58.17207272351486
 33
0.0
  0
SOLID
  5
B75
330
ACA
100
AcDbEntity
  8
RAHM2
100
AcDbTrace
 10
-74.39013072025563
 20
58.17207272351486
 30
0.0
 11
-73.26833296744656
 21
58.17207272351486
 31
0.0
 12
-74.39013072025563
 22
57.75139856621155
 32
0.0
 13
-73.26833296744656
 23
57.75139856621155
 33
0.0
  0
SOLID
  5
B76
330
ACA
100
AcDbEntity
  8
RAHM2
100
AcDbTrace
 10
-71.72586105733417
 20
58.73297159991939
 30
0.0
 11
-70.18338914722178
 21
58.73297159991939
 31
0.0
 12
-71.72586105733417
 22
58.59274688081836
 32
0.0
 13
-70.18338914722178
 23
58.59274688081836
 33
0.0
  0
SOLID
  5
B77
330
ACA
100
AcDbEntity
  8
RAHM2
100
AcDbTrace
 10
-71.58563633823312
 20
58.59274688081836
 30
0.0
 11
-70.18338914722178
 21
58.59274688081836
 31
0.0
 12
-71.58563633823312
 22
58.31229744261609
 32
0.0
 13
-70.18338914722178
 23
58.31229744261609
 33
0.0
  0
SOLID
  5
B78
330
ACA
100
AcDbEntity
  8
RAHM2
100
AcDbTrace
 10
-71.4454116191319
 20
58.31229744261609
 30
0.0
 11
-70.04316442812075
 21
58.31229744261609
 31
0.0
 12
-71.4454116191319
 22
58.03184800441382
 32
0.0
 13
-70.04316442812075
 23
58.03184800441382
 33
0.0
  0
SOLID
  5
B79
330
ACA
100
AcDbEntity
  8
RAHM2
100
AcDbTrace
 10
-71.4454116191319
 20
58.03184800441382
 30
0.0
 11
-69.90293970901952
 21
58.03184800441382
 31
0.0
 12
-71.4454116191319
 22
57.89162328531259
 32
0.0
 13
-69.90293970901952
 23
57.89162328531259
 33
0.0
  0
SOLID
  5
B7A
330
ACA
100
AcDbEntity
  8
RAHM2
100
AcDbTrace
 10
-71.30518690003086
 20
57.89162328531259
 30
0.0
 11
-69.90293970901952
 21
57.89162328531259
 31
0.0
 12
-71.30518690003086
 22
57.75139856621155
 32
0.0
 13
-69.90293970901952
 23
57.75139856621155
 33
0.0
  0
SOLID
  5
B7B
330
ACA
100
AcDbEntity
  8
RAHM2
100
AcDbTrace
 10
-69.34204083261517
 20
61.1167918246384
 30
0.0
 11
-67.51911948430052
 21
61.1167918246384
 31
0.0
 12
-69.34204083261517
 22
60.97656710553735
 32
0.0
 13
-67.51911948430052
 23
60.97656710553735
 33
0.0
  0
SOLID
  5
B7C
330
ACA
100
AcDbEntity
  8
RAHM2
100
AcDbTrace
 10
-69.48226555171621
 20
60.97656710553735
 30
0.0
 11
-67.93979364160382
 21
60.97656710553735
 31
0.0
 12
-69.48226555171621
 22
60.83634238643631
 32
0.0
 13
-67.93979364160382
 23
60.83634238643631
 33
0.0
  0
SOLID
  5
B7D
330
ACA
100
AcDbEntity
  8
RAHM2
100
AcDbTrace
 10
-69.62249027081725
 20
60.83634238643631
 30
0.0
 11
-68.08001836070506
 21
60.83634238643631
 31
0.0
 12
-69.62249027081725
 22
60.69611766733508
 32
0.0
 13
-68.08001836070506
 23
60.69611766733508
 33
0.0
  0
SOLID
  5
B7E
330
ACA
100
AcDbEntity
  8
RAHM2
100
AcDbTrace
 10
-69.62249027081725
 20
60.69611766733508
 30
0.0
 11
-68.22024307980609
 21
60.69611766733508
 31
0.0
 12
-69.62249027081725
 22
60.55589294823405
 32
0.0
 13
-68.22024307980609
 23
60.55589294823405
 33
0.0
  0
SOLID
  5
B7F
330
ACA
100
AcDbEntity
  8
RAHM2
100
AcDbTrace
 10
-69.62249027081725
 20
60.55589294823405
 30
0.0
 11
-68.36046779890714
 21
60.55589294823405
 31
0.0
 12
-69.62249027081725
 22
60.41566822913281
 32
0.0
 13
-68.36046779890714
 23
60.41566822913281
 33
0.0
  0
SOLID
  5
B80
330
ACA
100
AcDbEntity
  8
RAHM2
100
AcDbTrace
 10
-69.62249027081725
 20
60.41566822913281
 30
0.0
 11
-68.36046779890714
 21
60.41566822913281
 31
0.0
 12
-69.62249027081725
 22
60.13521879093055
 32
0.0
 13
-68.36046779890714
 23
60.13521879093055
 33
0.0
  0
SOLID
  5
B81
330
ACA
100
AcDbEntity
  8
RAHM2
100
AcDbTrace
 10
-69.76271498991848
 20
60.13521879093055
 30
0.0
 11
-68.36046779890714
 21
60.13521879093055
 31
0.0
 12
-69.76271498991848
 22
59.99499407182951
 32
0.0
 13
-68.36046779890714
 23
59.99499407182951
 33
0.0
  0
SOLID
  5
B82
330
ACA
100
AcDbEntity
  8
RAHM2
100
AcDbTrace
 10
-69.76271498991848
 20
59.99499407182951
 30
0.0
 11
-68.50069251800836
 21
59.99499407182951
 31
0.0
 12
-69.76271498991848
 22
59.85476935272828
 32
0.0
 13
-68.50069251800836
 23
59.85476935272828
 33
0.0
  0
SOLID
  5
B83
330
ACA
100
AcDbEntity
  8
RAHM2
100
AcDbTrace
 10
-69.76271498991848
 20
59.85476935272828
 30
0.0
 11
-68.50069251800836
 21
59.85476935272828
 31
0.0
 12
-69.76271498991848
 22
59.71454463362724
 32
0.0
 13
-68.50069251800836
 23
59.71454463362724
 33
0.0
  0
SOLID
  5
B84
330
ACA
100
AcDbEntity
  8
RAHM2
100
AcDbTrace
 10
-69.62249027081725
 20
59.71454463362724
 30
0.0
 11
-68.36046779890714
 21
59.71454463362724
 31
0.0
 12
-69.62249027081725
 22
59.29387047632393
 32
0.0
 13
-68.36046779890714
 23
59.29387047632393
 33
0.0
  0
SOLID
  5
B85
330
ACA
100
AcDbEntity
  8
RAHM2
100
AcDbTrace
 10
-69.62249027081725
 20
59.29387047632393
 30
0.0
 11
-68.36046779890714
 21
59.29387047632393
 31
0.0
 12
-69.62249027081725
 22
59.15364575722271
 32
0.0
 13
-68.36046779890714
 23
59.15364575722271
 33
0.0
  0
SOLID
  5
B86
330
ACA
100
AcDbEntity
  8
RAHM2
100
AcDbTrace
 10
-69.62249027081725
 20
59.15364575722271
 30
0.0
 11
-68.22024307980609
 21
59.15364575722271
 31
0.0
 12
-69.62249027081725
 22
59.01342103812166
 32
0.0
 13
-68.22024307980609
 23
59.01342103812166
 33
0.0
  0
SOLID
  5
B87
330
ACA
100
AcDbEntity
  8
RAHM2
100
AcDbTrace
 10
-69.48226555171621
 20
59.01342103812166
 30
0.0
 11
-68.08001836070506
 21
59.01342103812166
 31
0.0
 12
-69.48226555171621
 22
58.87319631902044
 32
0.0
 13
-68.08001836070506
 23
58.87319631902044
 33
0.0
  0
SOLID
  5
B88
330
ACA
100
AcDbEntity
  8
RAHM2
100
AcDbTrace
 10
-69.48226555171621
 20
58.87319631902044
 30
0.0
 11
-67.93979364160382
 21
58.87319631902044
 31
0.0
 12
-69.48226555171621
 22
58.73297159991939
 32
0.0
 13
-67.93979364160382
 23
58.73297159991939
 33
0.0
  0
SOLID
  5
B89
330
ACA
100
AcDbEntity
  8
RAHM2
100
AcDbTrace
 10
-69.34204083261517
 20
58.73297159991939
 30
0.0
 11
-67.37889476519929
 21
58.73297159991939
 31
0.0
 12
-69.34204083261517
 22
58.59274688081836
 32
0.0
 13
-67.37889476519929
 23
58.59274688081836
 33
0.0
  0
SOLID
  5
B8A
330
ACA
100
AcDbEntity
  8
RAHM2
100
AcDbTrace
 10
-52.09440038317687
 20
60.55589294823405
 30
0.0
 11
-51.67372622587357
 21
60.55589294823405
 31
0.0
 12
-52.09440038317687
 22
60.41566822913281
 32
0.0
 13
-51.67372622587357
 23
60.41566822913281
 33
0.0
  0
SOLID
  5
B8B
330
ACA
100
AcDbEntity
  8
RAHM2
100
AcDbTrace
 10
-52.23462510227792
 20
60.41566822913281
 30
0.0
 11
-51.8139509449746
 21
60.41566822913281
 31
0.0
 12
-52.23462510227792
 22
60.13521879093055
 32
0.0
 13
-51.8139509449746
 23
60.13521879093055
 33
0.0
  0
SOLID
  5
B8C
330
ACA
100
AcDbEntity
  8
RAHM2
100
AcDbTrace
 10
-52.37484982137914
 20
60.13521879093055
 30
0.0
 11
-51.95417566407583
 21
60.13521879093055
 31
0.0
 12
-52.37484982137914
 22
59.99499407182951
 32
0.0
 13
-51.95417566407583
 23
59.99499407182951
 33
0.0
  0
SOLID
  5
B8D
330
ACA
100
AcDbEntity
  8
RAHM2
100
AcDbTrace
 10
-52.37484982137914
 20
59.99499407182951
 30
0.0
 11
-51.8139509449746
 21
59.99499407182951
 31
0.0
 12
-52.37484982137914
 22
59.85476935272828
 32
0.0
 13
-51.8139509449746
 23
59.85476935272828
 33
0.0
  0
SOLID
  5
B8E
330
ACA
100
AcDbEntity
  8
RAHM2
100
AcDbTrace
 10
-52.23462510227792
 20
59.85476935272828
 30
0.0
 11
-51.67372622587357
 21
59.85476935272828
 31
0.0
 12
-52.23462510227792
 22
59.71454463362724
 32
0.0
 13
-51.67372622587357
 23
59.71454463362724
 33
0.0
  0
SOLID
  5
B8F
330
ACA
100
AcDbEntity
  8
RAHM2
100
AcDbTrace
 10
-52.23462510227792
 20
59.71454463362724
 30
0.0
 11
-51.53350150677233
 21
59.71454463362724
 31
0.0
 12
-52.23462510227792
 22
59.5743199145262
 32
0.0
 13
-51.53350150677233
 23
59.5743199145262
 33
0.0
  0
SOLID
  5
B90
330
ACA
100
AcDbEntity
  8
RAHM2
100
AcDbTrace
 10
-52.23462510227792
 20
59.5743199145262
 30
0.0
 11
-51.3932767876713
 21
59.5743199145262
 31
0.0
 12
-52.23462510227792
 22
59.43409519542497
 32
0.0
 13
-51.3932767876713
 23
59.43409519542497
 33
0.0
  0
SOLID
  5
B91
330
ACA
100
AcDbEntity
  8
RAHM2
100
AcDbTrace
 10
-52.09440038317687
 20
59.43409519542497
 30
0.0
 11
-51.3932767876713
 21
59.43409519542497
 31
0.0
 12
-52.09440038317687
 22
59.29387047632393
 32
0.0
 13
-51.3932767876713
 23
59.29387047632393
 33
0.0
  0
SOLID
  5
B92
330
ACA
100
AcDbEntity
  8
RAHM2
100
AcDbTrace
 10
-52.65529925958141
 20
57.75139856621155
 30
0.0
 11
-51.67372622587357
 21
57.75139856621155
 31
0.0
 12
-52.65529925958141
 22
57.61117384711032
 32
0.0
 13
-51.67372622587357
 23
57.61117384711032
 33
0.0
  0
SOLID
  5
B93
330
ACA
100
AcDbEntity
  8
RAHM2
100
AcDbTrace
 10
-59.80675993373861
 20
59.99499407182951
 30
0.0
 11
-59.38608577643529
 21
59.99499407182951
 31
0.0
 12
-59.80675993373861
 22
59.85476935272828
 32
0.0
 13
-59.38608577643529
 23
59.85476935272828
 33
0.0
  0
SOLID
  5
B94
330
ACA
100
AcDbEntity
  8
RAHM2
100
AcDbTrace
 10
-59.80675993373861
 20
59.85476935272828
 30
0.0
 11
-59.66653521463756
 21
59.85476935272828
 31
0.0
 12
-59.80675993373861
 22
59.71454463362724
 32
0.0
 13
-59.66653521463756
 23
59.71454463362724
 33
0.0
  0
SOLID
  5
B95
330
ACA
100
AcDbEntity
  8
RAHM2
100
AcDbTrace
 10
-59.80675993373861
 20
58.17207272351486
 30
0.0
 11
-59.10563633823302
 21
58.17207272351486
 31
0.0
 12
-59.80675993373861
 22
58.03184800441382
 32
0.0
 13
-59.10563633823302
 23
58.03184800441382
 33
0.0
  0
SOLID
  5
B96
330
ACA
100
AcDbEntity
  8
RAHM2
100
AcDbTrace
 10
-59.80675993373861
 20
58.03184800441382
 30
0.0
 11
-59.24586105733425
 21
58.03184800441382
 31
0.0
 12
-59.80675993373861
 22
57.89162328531259
 32
0.0
 13
-59.24586105733425
 23
57.89162328531259
 33
0.0
  0
SOLID
  5
B97
330
ACA
100
AcDbEntity
  8
RAHM2
100
AcDbTrace
 10
-59.80675993373861
 20
57.89162328531259
 30
0.0
 11
-58.26428802362641
 21
57.89162328531259
 31
0.0
 12
-59.80675993373861
 22
57.75139856621155
 32
0.0
 13
-58.26428802362641
 23
57.75139856621155
 33
0.0
  0
SOLID
  5
B98
330
ACA
100
AcDbEntity
  8
RAHM2
100
AcDbTrace
 10
-59.80675993373861
 20
57.75139856621155
 30
0.0
 11
-58.68496218092971
 21
57.75139856621155
 31
0.0
 12
-59.80675993373861
 22
57.61117384711032
 32
0.0
 13
-58.68496218092971
 23
57.61117384711032
 33
0.0
  0
SOLID
  5
B99
330
ACA
100
AcDbEntity
  8
RAHM2
100
AcDbTrace
 10
-59.80675993373861
 20
57.61117384711032
 30
0.0
 11
-59.24586105733425
 21
57.61117384711032
 31
0.0
 12
-59.80675993373861
 22
57.47094912800928
 32
0.0
 13
-59.24586105733425
 23
57.47094912800928
 33
0.0
  0
SOLID
  5
B9A
330
ACA
100
AcDbEntity
  8
RAHM2
100
AcDbTrace
 10
-59.94698465283983
 20
57.47094912800928
 30
0.0
 11
-59.24586105733425
 21
57.47094912800928
 31
0.0
 12
-59.94698465283983
 22
57.19049968980701
 32
0.0
 13
-59.24586105733425
 23
57.19049968980701
 33
0.0
  0
SOLID
  5
B9B
330
ACA
100
AcDbEntity
  8
RAHM2
100
AcDbTrace
 10
-59.94698465283983
 20
57.19049968980701
 30
0.0
 11
-59.38608577643529
 21
57.19049968980701
 31
0.0
 12
-59.94698465283983
 22
56.7698255325037
 32
0.0
 13
-59.38608577643529
 23
56.7698255325037
 33
0.0
  0
SOLID
  5
B9C
330
ACA
100
AcDbEntity
  8
RAHM2
100
AcDbTrace
 10
-60.08720937194087
 20
56.7698255325037
 30
0.0
 11
-59.52631049553652
 21
56.7698255325037
 31
0.0
 12
-60.08720937194087
 22
56.62960081340248
 32
0.0
 13
-59.52631049553652
 23
56.62960081340248
 33
0.0
  0
SOLID
  5
B9D
330
ACA
100
AcDbEntity
  8
RAHM2
100
AcDbTrace
 10
-60.08720937194087
 20
56.62960081340248
 30
0.0
 11
-59.52631049553652
 21
56.62960081340248
 31
0.0
 12
-60.08720937194087
 22
56.34915137520021
 32
0.0
 13
-59.52631049553652
 23
56.34915137520021
 33
0.0
  0
SOLID
  5
B9E
330
ACA
100
AcDbEntity
  8
RAHM2
100
AcDbTrace
 10
-60.08720937194087
 20
56.34915137520021
 30
0.0
 11
-59.38608577643529
 21
56.34915137520021
 31
0.0
 12
-60.08720937194087
 22
56.20892665609916
 32
0.0
 13
-59.38608577643529
 23
56.20892665609916
 33
0.0
  0
SOLID
  5
B9F
330
ACA
100
AcDbEntity
  8
RAHM2
100
AcDbTrace
 10
-60.64810824834541
 20
56.20892665609916
 30
0.0
 11
-58.96541161913198
 21
56.20892665609916
 31
0.0
 12
-60.64810824834541
 22
56.06870193699812
 32
0.0
 13
-58.96541161913198
 23
56.06870193699812
 33
0.0
  0
SOLID
  5
BA0
330
ACA
100
AcDbEntity
  8
RAHM2
100
AcDbTrace
 10
-66.81799588879494
 20
61.25701654373962
 30
0.0
 11
-66.2570970123904
 21
61.25701654373962
 31
0.0
 12
-66.81799588879494
 22
61.1167918246384
 32
0.0
 13
-66.2570970123904
 23
61.1167918246384
 33
0.0
  0
SOLID
  5
BA1
330
ACA
100
AcDbEntity
  8
RAHM2
100
AcDbTrace
 10
-63.87327678767121
 20
62.09836485834642
 30
0.0
 11
-63.45260263036791
 21
62.09836485834642
 31
0.0
 12
-63.87327678767121
 22
61.9581401392452
 32
0.0
 13
-63.45260263036791
 23
61.9581401392452
 33
0.0
  0
SOLID
  5
BA2
330
ACA
100
AcDbEntity
  8
RAHM2
100
AcDbTrace
 10
-64.57440038317698
 20
61.9581401392452
 30
0.0
 11
-62.75147903486232
 21
61.9581401392452
 31
0.0
 12
-64.57440038317698
 22
61.81791542014416
 32
0.0
 13
-62.75147903486232
 23
61.81791542014416
 33
0.0
  0
SOLID
  5
BA3
330
ACA
100
AcDbEntity
  8
RAHM2
100
AcDbTrace
 10
-64.85484982137906
 20
61.81791542014416
 30
0.0
 11
-62.47102959666006
 21
61.81791542014416
 31
0.0
 12
-64.85484982137906
 22
61.67769070104293
 32
0.0
 13
-62.47102959666006
 23
61.67769070104293
 33
0.0
  0
SOLID
  5
BA4
330
ACA
100
AcDbEntity
  8
RAHM2
100
AcDbTrace
 10
-64.99507454048028
 20
61.67769070104293
 30
0.0
 11
-62.33080487755883
 21
61.67769070104293
 31
0.0
 12
-64.99507454048028
 22
61.53746598194189
 32
0.0
 13
-62.33080487755883
 23
61.53746598194189
 33
0.0
  0
SOLID
  5
BA5
330
ACA
100
AcDbEntity
  8
RAHM2
100
AcDbTrace
 10
-65.4157486977836
 20
61.25701654373962
 30
0.0
 11
-63.73305206857017
 21
61.25701654373962
 31
0.0
 12
-65.4157486977836
 22
61.1167918246384
 32
0.0
 13
-63.73305206857017
 23
61.1167918246384
 33
0.0
  0
SOLID
  5
BA6
330
ACA
100
AcDbEntity
  8
RAHM2
100
AcDbTrace
 10
-63.59282734946894
 20
61.25701654373962
 30
0.0
 11
-61.91013072025552
 21
61.25701654373962
 31
0.0
 12
-63.59282734946894
 22
61.1167918246384
 32
0.0
 13
-61.91013072025552
 23
61.1167918246384
 33
0.0
  0
SOLID
  5
BA7
330
ACA
100
AcDbEntity
  8
RAHM2
100
AcDbTrace
 10
-65.55597341688482
 20
61.1167918246384
 30
0.0
 11
-64.01350150677244
 21
61.1167918246384
 31
0.0
 12
-65.55597341688482
 22
60.97656710553735
 32
0.0
 13
-64.01350150677244
 23
60.97656710553735
 33
0.0
  0
SOLID
  5
BA8
330
ACA
100
AcDbEntity
  8
RAHM2
100
AcDbTrace
 10
-65.55597341688482
 20
60.97656710553735
 30
0.0
 11
-64.15372622587348
 21
60.97656710553735
 31
0.0
 12
-65.55597341688482
 22
60.83634238643631
 32
0.0
 13
-64.15372622587348
 23
60.83634238643631
 33
0.0
  0
SOLID
  5
BA9
330
ACA
100
AcDbEntity
  8
RAHM2
100
AcDbTrace
 10
-63.17215319216564
 20
61.1167918246384
 30
0.0
 11
-61.76990600115448
 21
61.1167918246384
 31
0.0
 12
-63.17215319216564
 22
60.97656710553735
 32
0.0
 13
-61.76990600115448
 23
60.97656710553735
 33
0.0
  0
SOLID
  5
BAA
330
ACA
100
AcDbEntity
  8
RAHM2
100
AcDbTrace
 10
-63.03192847306459
 20
60.97656710553735
 30
0.0
 11
-61.76990600115448
 21
60.97656710553735
 31
0.0
 12
-63.03192847306459
 22
60.83634238643631
 32
0.0
 13
-61.76990600115448
 23
60.83634238643631
 33
0.0
  0
SOLID
  5
BAB
330
ACA
100
AcDbEntity
  8
RAHM2
100
AcDbTrace
 10
-65.69619813598587
 20
60.83634238643631
 30
0.0
 11
-64.29395094497471
 21
60.83634238643631
 31
0.0
 12
-65.69619813598587
 22
60.13521879093055
 32
0.0
 13
-64.29395094497471
 23
60.13521879093055
 33
0.0
  0
SOLID
  5
BAC
330
ACA
100
AcDbEntity
  8
RAHM2
100
AcDbTrace
 10
-65.83642285508691
 20
60.13521879093055
 30
0.0
 11
-64.43417566407575
 21
60.13521879093055
 31
0.0
 12
-65.83642285508691
 22
59.99499407182951
 32
0.0
 13
-64.43417566407575
 23
59.99499407182951
 33
0.0
  0
SOLID
  5
BAD
330
ACA
100
AcDbEntity
  8
RAHM2
100
AcDbTrace
 10
-63.03192847306459
 20
60.83634238643631
 30
0.0
 11
-61.62968128205325
 21
60.83634238643631
 31
0.0
 12
-63.03192847306459
 22
60.41566822913281
 32
0.0
 13
-61.62968128205325
 23
60.41566822913281
 33
0.0
  0
SOLID
  5
BAE
330
ACA
100
AcDbEntity
  8
RAHM2
100
AcDbTrace
 10
-62.89170375396337
 20
60.41566822913281
 30
0.0
 11
-61.48945656295222
 21
60.41566822913281
 31
0.0
 12
-62.89170375396337
 22
59.99499407182951
 32
0.0
 13
-61.48945656295222
 23
59.99499407182951
 33
0.0
  0
SOLID
  5
BAF
330
ACA
100
AcDbEntity
  8
RAHM2
100
AcDbTrace
 10
-65.83642285508691
 20
59.99499407182951
 30
0.0
 11
-64.43417566407575
 21
59.99499407182951
 31
0.0
 12
-65.83642285508691
 22
59.71454463362724
 32
0.0
 13
-64.43417566407575
 23
59.71454463362724
 33
0.0
  0
SOLID
  5
BB0
330
ACA
100
AcDbEntity
  8
RAHM2
100
AcDbTrace
 10
-65.69619813598587
 20
59.71454463362724
 30
0.0
 11
-64.29395094497471
 21
59.71454463362724
 31
0.0
 12
-65.69619813598587
 22
59.01342103812166
 32
0.0
 13
-64.29395094497471
 23
59.01342103812166
 33
0.0
  0
SOLID
  5
BB1
330
ACA
100
AcDbEntity
  8
RAHM2
100
AcDbTrace
 10
-62.89170375396337
 20
59.99499407182951
 30
0.0
 11
-61.48945656295222
 21
59.99499407182951
 31
0.0
 12
-62.89170375396337
 22
59.29387047632393
 32
0.0
 13
-61.48945656295222
 23
59.29387047632393
 33
0.0
  0
SOLID
  5
BB2
330
ACA
100
AcDbEntity
  8
RAHM2
100
AcDbTrace
 10
-63.03192847306459
 20
59.29387047632393
 30
0.0
 11
-61.62968128205325
 21
59.29387047632393
 31
0.0
 12
-63.03192847306459
 22
59.01342103812166
 32
0.0
 13
-61.62968128205325
 23
59.01342103812166
 33
0.0
  0
SOLID
  5
BB3
330
ACA
100
AcDbEntity
  8
RAHM2
100
AcDbTrace
 10
-65.69619813598587
 20
59.01342103812166
 30
0.0
 11
-64.29395094497471
 21
59.01342103812166
 31
0.0
 12
-65.69619813598587
 22
58.87319631902044
 32
0.0
 13
-64.29395094497471
 23
58.87319631902044
 33
0.0
  0
SOLID
  5
BB4
330
ACA
100
AcDbEntity
  8
RAHM2
100
AcDbTrace
 10
-63.03192847306459
 20
59.01342103812166
 30
0.0
 11
-61.62968128205325
 21
59.01342103812166
 31
0.0
 12
-63.03192847306459
 22
58.87319631902044
 32
0.0
 13
-61.62968128205325
 23
58.87319631902044
 33
0.0
  0
SOLID
  5
BB5
330
ACA
100
AcDbEntity
  8
RAHM2
100
AcDbTrace
 10
-65.55597341688482
 20
58.87319631902044
 30
0.0
 11
-64.15372622587348
 21
58.87319631902044
 31
0.0
 12
-65.55597341688482
 22
58.73297159991939
 32
0.0
 13
-64.15372622587348
 23
58.73297159991939
 33
0.0
  0
SOLID
  5
BB6
330
ACA
100
AcDbEntity
  8
RAHM2
100
AcDbTrace
 10
-65.4157486977836
 20
58.73297159991939
 30
0.0
 11
-64.01350150677244
 21
58.73297159991939
 31
0.0
 12
-65.4157486977836
 22
58.59274688081836
 32
0.0
 13
-64.01350150677244
 23
58.59274688081836
 33
0.0
  0
SOLID
  5
BB7
330
ACA
100
AcDbEntity
  8
RAHM2
100
AcDbTrace
 10
-63.17215319216564
 20
58.87319631902044
 30
0.0
 11
-61.76990600115448
 21
58.87319631902044
 31
0.0
 12
-63.17215319216564
 22
58.73297159991939
 32
0.0
 13
-61.76990600115448
 23
58.73297159991939
 33
0.0
  0
SOLID
  5
BB8
330
ACA
100
AcDbEntity
  8
RAHM2
100
AcDbTrace
 10
-63.31237791126686
 20
58.73297159991939
 30
0.0
 11
-61.76990600115448
 21
58.73297159991939
 31
0.0
 12
-63.31237791126686
 22
58.59274688081836
 32
0.0
 13
-61.76990600115448
 23
58.59274688081836
 33
0.0
  0
SOLID
  5
BB9
330
ACA
100
AcDbEntity
  8
RAHM2
100
AcDbTrace
 10
-65.4157486977836
 20
58.59274688081836
 30
0.0
 11
-61.91013072025552
 21
58.59274688081836
 31
0.0
 12
-65.4157486977836
 22
58.45252216171712
 32
0.0
 13
-61.91013072025552
 23
58.45252216171712
 33
0.0
  0
SOLID
  5
BBA
330
ACA
100
AcDbEntity
  8
RAHM2
100
AcDbTrace
 10
-65.27552397868255
 20
58.45252216171712
 30
0.0
 11
-62.05035543935675
 21
58.45252216171712
 31
0.0
 12
-65.27552397868255
 22
58.31229744261609
 32
0.0
 13
-62.05035543935675
 23
58.31229744261609
 33
0.0
  0
SOLID
  5
BBB
330
ACA
100
AcDbEntity
  8
RAHM2
100
AcDbTrace
 10
-65.27552397868255
 20
58.31229744261609
 30
0.0
 11
-62.05035543935675
 21
58.31229744261609
 31
0.0
 12
-65.27552397868255
 22
58.17207272351486
 32
0.0
 13
-62.05035543935675
 23
58.17207272351486
 33
0.0
  0
SOLID
  5
BBC
330
ACA
100
AcDbEntity
  8
RAHM2
100
AcDbTrace
 10
-64.99507454048028
 20
58.17207272351486
 30
0.0
 11
-62.33080487755883
 21
58.17207272351486
 31
0.0
 12
-64.99507454048028
 22
58.03184800441382
 32
0.0
 13
-62.33080487755883
 23
58.03184800441382
 33
0.0
  0
SOLID
  5
BBD
330
ACA
100
AcDbEntity
  8
RAHM2
100
AcDbTrace
 10
-64.85484982137906
 20
58.03184800441382
 30
0.0
 11
-62.47102959666006
 21
58.03184800441382
 31
0.0
 12
-64.85484982137906
 22
57.89162328531259
 32
0.0
 13
-62.47102959666006
 23
57.89162328531259
 33
0.0
  0
SOLID
  5
BBE
330
ACA
100
AcDbEntity
  8
RAHM2
100
AcDbTrace
 10
-64.71462510227802
 20
57.89162328531259
 30
0.0
 11
-62.6112543157611
 21
57.89162328531259
 31
0.0
 12
-64.71462510227802
 22
57.75139856621155
 32
0.0
 13
-62.6112543157611
 23
57.75139856621155
 33
0.0
  0
SOLID
  5
BBF
330
ACA
100
AcDbEntity
  8
RAHM2
100
AcDbTrace
 10
-64.15372622587348
 20
57.75139856621155
 30
0.0
 11
-63.17215319216564
 21
57.75139856621155
 31
0.0
 12
-64.15372622587348
 22
57.61117384711032
 32
0.0
 13
-63.17215319216564
 23
57.61117384711032
 33
0.0
  0
SOLID
  5
BC0
330
ACA
100
AcDbEntity
  8
RAHM2
100
AcDbTrace
 10
-58.82518690003076
 20
61.1167918246384
 30
0.0
 11
-58.54473746182849
 21
61.1167918246384
 31
0.0
 12
-58.82518690003076
 22
60.97656710553735
 32
0.0
 13
-58.54473746182849
 23
60.97656710553735
 33
0.0
  0
SOLID
  5
BC1
330
ACA
100
AcDbEntity
  8
RAHM2
100
AcDbTrace
 10
-59.10563633823302
 20
60.97656710553735
 30
0.0
 11
-58.54473746182849
 21
60.97656710553735
 31
0.0
 12
-59.10563633823302
 22
60.83634238643631
 32
0.0
 13
-58.54473746182849
 23
60.83634238643631
 33
0.0
  0
SOLID
  5
BC2
330
ACA
100
AcDbEntity
  8
RAHM2
100
AcDbTrace
 10
-59.10563633823302
 20
60.83634238643631
 30
0.0
 11
-58.54473746182849
 21
60.83634238643631
 31
0.0
 12
-59.10563633823302
 22
60.69611766733508
 32
0.0
 13
-58.54473746182849
 23
60.69611766733508
 33
0.0
  0
SOLID
  5
BC3
330
ACA
100
AcDbEntity
  8
RAHM2
100
AcDbTrace
 10
-57.70338914722187
 20
60.83634238643631
 30
0.0
 11
-57.4229397090196
 21
60.83634238643631
 31
0.0
 12
-57.70338914722187
 22
60.69611766733508
 32
0.0
 13
-57.4229397090196
 23
60.69611766733508
 33
0.0
  0
SOLID
  5
BC4
330
ACA
100
AcDbEntity
  8
RAHM2
100
AcDbTrace
 10
-59.10563633823302
 20
60.69611766733508
 30
0.0
 11
-58.54473746182849
 21
60.69611766733508
 31
0.0
 12
-59.10563633823302
 22
60.55589294823405
 32
0.0
 13
-58.54473746182849
 23
60.55589294823405
 33
0.0
  0
SOLID
  5
BC5
330
ACA
100
AcDbEntity
  8
RAHM2
100
AcDbTrace
 10
-58.26428802362641
 20
60.69611766733508
 30
0.0
 11
-57.14249027081733
 21
60.69611766733508
 31
0.0
 12
-58.26428802362641
 22
60.55589294823405
 32
0.0
 13
-57.14249027081733
 23
60.55589294823405
 33
0.0
  0
SOLID
  5
BC6
330
ACA
100
AcDbEntity
  8
RAHM2
100
AcDbTrace
 10
-59.10563633823302
 20
60.55589294823405
 30
0.0
 11
-58.68496218092971
 21
60.55589294823405
 31
0.0
 12
-59.10563633823302
 22
60.41566822913281
 32
0.0
 13
-58.68496218092971
 23
60.41566822913281
 33
0.0
  0
SOLID
  5
BC7
330
ACA
100
AcDbEntity
  8
RAHM2
100
AcDbTrace
 10
-58.54473746182849
 20
60.55589294823405
 30
0.0
 11
-57.98383858542414
 21
60.55589294823405
 31
0.0
 12
-58.54473746182849
 22
60.41566822913281
 32
0.0
 13
-57.98383858542414
 23
60.41566822913281
 33
0.0
  0
SOLID
  5
BC8
330
ACA
100
AcDbEntity
  8
RAHM2
100
AcDbTrace
 10
-57.84361386632291
 20
60.55589294823405
 30
0.0
 11
-57.00226555171629
 21
60.55589294823405
 31
0.0
 12
-57.84361386632291
 22
60.41566822913281
 32
0.0
 13
-57.00226555171629
 23
60.41566822913281
 33
0.0
  0
SOLID
  5
BC9
330
ACA
100
AcDbEntity
  8
RAHM2
100
AcDbTrace
 10
-59.10563633823302
 20
60.41566822913281
 30
0.0
 11
-58.40451274272744
 21
60.41566822913281
 31
0.0
 12
-59.10563633823302
 22
60.27544351003178
 32
0.0
 13
-58.40451274272744
 23
60.27544351003178
 33
0.0
  0
SOLID
  5
BCA
330
ACA
100
AcDbEntity
  8
RAHM2
100
AcDbTrace
 10
-57.70338914722187
 20
60.41566822913281
 30
0.0
 11
-57.00226555171629
 21
60.41566822913281
 31
0.0
 12
-57.70338914722187
 22
60.27544351003178
 32
0.0
 13
-57.00226555171629
 23
60.27544351003178
 33
0.0
  0
SOLID
  5
BCB
330
ACA
100
AcDbEntity
  8
RAHM2
100
AcDbTrace
 10
-59.24586105733425
 20
60.27544351003178
 30
0.0
 11
-58.68496218092971
 21
60.27544351003178
 31
0.0
 12
-59.24586105733425
 22
60.13521879093055
 32
0.0
 13
-58.68496218092971
 23
60.13521879093055
 33
0.0
  0
SOLID
  5
BCC
330
ACA
100
AcDbEntity
  8
RAHM2
100
AcDbTrace
 10
-57.56316442812064
 20
60.27544351003178
 30
0.0
 11
-57.00226555171629
 21
60.27544351003178
 31
0.0
 12
-57.56316442812064
 22
60.13521879093055
 32
0.0
 13
-57.00226555171629
 23
60.13521879093055
 33
0.0
  0
SOLID
  5
BCD
330
ACA
100
AcDbEntity
  8
RAHM2
100
AcDbTrace
 10
-59.38608577643529
 20
60.13521879093055
 30
0.0
 11
-58.68496218092971
 21
60.13521879093055
 31
0.0
 12
-59.38608577643529
 22
59.99499407182951
 32
0.0
 13
-58.68496218092971
 23
59.99499407182951
 33
0.0
  0
SOLID
  5
BCE
330
ACA
100
AcDbEntity
  8
RAHM2
100
AcDbTrace
 10
-57.56316442812064
 20
60.13521879093055
 30
0.0
 11
-57.00226555171629
 21
60.13521879093055
 31
0.0
 12
-57.56316442812064
 22
59.99499407182951
 32
0.0
 13
-57.00226555171629
 23
59.99499407182951
 33
0.0
  0
SOLID
  5
BCF
330
ACA
100
AcDbEntity
  8
RAHM2
100
AcDbTrace
 10
-59.38608577643529
 20
59.99499407182951
 30
0.0
 11
-58.68496218092971
 21
59.99499407182951
 31
0.0
 12
-59.38608577643529
 22
59.85476935272828
 32
0.0
 13
-58.68496218092971
 23
59.85476935272828
 33
0.0
  0
SOLID
  5
BD0
330
ACA
100
AcDbEntity
  8
RAHM2
100
AcDbTrace
 10
-59.38608577643529
 20
59.85476935272828
 30
0.0
 11
-58.82518690003076
 21
59.85476935272828
 31
0.0
 12
-59.38608577643529
 22
59.71454463362724
 32
0.0
 13
-58.82518690003076
 23
59.71454463362724
 33
0.0
  0
SOLID
  5
BD1
330
ACA
100
AcDbEntity
  8
RAHM2
100
AcDbTrace
 10
-57.56316442812064
 20
59.99499407182951
 30
0.0
 11
-57.00226555171629
 21
59.99499407182951
 31
0.0
 12
-57.56316442812064
 22
59.71454463362724
 32
0.0
 13
-57.00226555171629
 23
59.71454463362724
 33
0.0
  0
SOLID
  5
BD2
330
ACA
100
AcDbEntity
  8
RAHM2
100
AcDbTrace
 10
-59.38608577643529
 20
59.71454463362724
 30
0.0
 11
-58.82518690003076
 21
59.71454463362724
 31
0.0
 12
-59.38608577643529
 22
59.43409519542497
 32
0.0
 13
-58.82518690003076
 23
59.43409519542497
 33
0.0
  0
SOLID
  5
BD3
330
ACA
100
AcDbEntity
  8
RAHM2
100
AcDbTrace
 10
-59.52631049553652
 20
59.43409519542497
 30
0.0
 11
-58.82518690003076
 21
59.43409519542497
 31
0.0
 12
-59.52631049553652
 22
59.15364575722271
 32
0.0
 13
-58.82518690003076
 23
59.15364575722271
 33
0.0
  0
SOLID
  5
BD4
330
ACA
100
AcDbEntity
  8
RAHM2
100
AcDbTrace
 10
-57.56316442812064
 20
59.71454463362724
 30
0.0
 11
-57.00226555171629
 21
59.71454463362724
 31
0.0
 12
-57.56316442812064
 22
59.43409519542497
 32
0.0
 13
-57.00226555171629
 23
59.43409519542497
 33
0.0
  0
SOLID
  5
BD5
330
ACA
100
AcDbEntity
  8
RAHM2
100
AcDbTrace
 10
-57.56316442812064
 20
59.43409519542497
 30
0.0
 11
-57.14249027081733
 21
59.43409519542497
 31
0.0
 12
-57.56316442812064
 22
59.29387047632393
 32
0.0
 13
-57.14249027081733
 23
59.29387047632393
 33
0.0
  0
SOLID
  5
BD6
330
ACA
100
AcDbEntity
  8
RAHM2
100
AcDbTrace
 10
-57.70338914722187
 20
59.29387047632393
 30
0.0
 11
-57.14249027081733
 21
59.29387047632393
 31
0.0
 12
-57.70338914722187
 22
59.15364575722271
 32
0.0
 13
-57.14249027081733
 23
59.15364575722271
 33
0.0
  0
SOLID
  5
BD7
330
ACA
100
AcDbEntity
  8
RAHM2
100
AcDbTrace
 10
-59.52631049553652
 20
59.15364575722271
 30
0.0
 11
-58.96541161913198
 21
59.15364575722271
 31
0.0
 12
-59.52631049553652
 22
59.01342103812166
 32
0.0
 13
-58.96541161913198
 23
59.01342103812166
 33
0.0
  0
SOLID
  5
BD8
330
ACA
100
AcDbEntity
  8
RAHM2
100
AcDbTrace
 10
-57.70338914722187
 20
59.15364575722271
 30
0.0
 11
-57.14249027081733
 21
59.15364575722271
 31
0.0
 12
-57.70338914722187
 22
59.01342103812166
 32
0.0
 13
-57.14249027081733
 23
59.01342103812166
 33
0.0
  0
SOLID
  5
BD9
330
ACA
100
AcDbEntity
  8
RAHM2
100
AcDbTrace
 10
-59.52631049553652
 20
59.01342103812166
 30
0.0
 11
-58.96541161913198
 21
59.01342103812166
 31
0.0
 12
-59.52631049553652
 22
58.73297159991939
 32
0.0
 13
-58.96541161913198
 23
58.73297159991939
 33
0.0
  0
SOLID
  5
BDA
330
ACA
100
AcDbEntity
  8
RAHM2
100
AcDbTrace
 10
-59.66653521463756
 20
58.73297159991939
 30
0.0
 11
-58.96541161913198
 21
58.73297159991939
 31
0.0
 12
-59.66653521463756
 22
58.59274688081836
 32
0.0
 13
-58.96541161913198
 23
58.59274688081836
 33
0.0
  0
SOLID
  5
BDB
330
ACA
100
AcDbEntity
  8
RAHM2
100
AcDbTrace
 10
-59.66653521463756
 20
58.59274688081836
 30
0.0
 11
-59.10563633823302
 21
58.59274688081836
 31
0.0
 12
-59.66653521463756
 22
58.45252216171712
 32
0.0
 13
-59.10563633823302
 23
58.45252216171712
 33
0.0
  0
SOLID
  5
BDC
330
ACA
100
AcDbEntity
  8
RAHM2
100
AcDbTrace
 10
-57.70338914722187
 20
59.01342103812166
 30
0.0
 11
-57.14249027081733
 21
59.01342103812166
 31
0.0
 12
-57.70338914722187
 22
58.87319631902044
 32
0.0
 13
-57.14249027081733
 23
58.87319631902044
 33
0.0
  0
SOLID
  5
BDD
330
ACA
100
AcDbEntity
  8
RAHM2
100
AcDbTrace
 10
-57.84361386632291
 20
58.87319631902044
 30
0.0
 11
-57.28271498991837
 21
58.87319631902044
 31
0.0
 12
-57.84361386632291
 22
58.73297159991939
 32
0.0
 13
-57.28271498991837
 23
58.73297159991939
 33
0.0
  0
SOLID
  5
BDE
330
ACA
100
AcDbEntity
  8
RAHM2
100
AcDbTrace
 10
-57.84361386632291
 20
58.73297159991939
 30
0.0
 11
-57.4229397090196
 21
58.73297159991939
 31
0.0
 12
-57.84361386632291
 22
58.59274688081836
 32
0.0
 13
-57.4229397090196
 23
58.59274688081836
 33
0.0
  0
SOLID
  5
BDF
330
ACA
100
AcDbEntity
  8
RAHM2
100
AcDbTrace
 10
-57.98383858542414
 20
58.59274688081836
 30
0.0
 11
-57.4229397090196
 21
58.59274688081836
 31
0.0
 12
-57.98383858542414
 22
58.45252216171712
 32
0.0
 13
-57.4229397090196
 23
58.45252216171712
 33
0.0
  0
SOLID
  5
BE0
330
ACA
100
AcDbEntity
  8
RAHM2
100
AcDbTrace
 10
-59.66653521463756
 20
58.45252216171712
 30
0.0
 11
-59.10563633823302
 21
58.45252216171712
 31
0.0
 12
-59.66653521463756
 22
58.17207272351486
 32
0.0
 13
-59.10563633823302
 23
58.17207272351486
 33
0.0
  0
SOLID
  5
BE1
330
ACA
100
AcDbEntity
  8
RAHM2
100
AcDbTrace
 10
-58.12406330452517
 20
58.45252216171712
 30
0.0
 11
-57.56316442812064
 21
58.45252216171712
 31
0.0
 12
-58.12406330452517
 22
58.31229744261609
 32
0.0
 13
-57.56316442812064
 23
58.31229744261609
 33
0.0
  0
SOLID
  5
BE2
330
ACA
100
AcDbEntity
  8
RAHM2
100
AcDbTrace
 10
-58.26428802362641
 20
58.31229744261609
 30
0.0
 11
-57.70338914722187
 21
58.31229744261609
 31
0.0
 12
-58.26428802362641
 22
58.17207272351486
 32
0.0
 13
-57.70338914722187
 23
58.17207272351486
 33
0.0
  0
SOLID
  5
BE3
330
ACA
100
AcDbEntity
  8
RAHM2
100
AcDbTrace
 10
-58.40451274272744
 20
58.17207272351486
 30
0.0
 11
-57.84361386632291
 21
58.17207272351486
 31
0.0
 12
-58.40451274272744
 22
58.03184800441382
 32
0.0
 13
-57.84361386632291
 23
58.03184800441382
 33
0.0
  0
SOLID
  5
BE4
330
ACA
100
AcDbEntity
  8
RAHM2
100
AcDbTrace
 10
-58.54473746182849
 20
58.03184800441382
 30
0.0
 11
-58.12406330452517
 21
58.03184800441382
 31
0.0
 12
-58.54473746182849
 22
57.89162328531259
 32
0.0
 13
-58.12406330452517
 23
57.89162328531259
 33
0.0
  0
SOLID
  5
BE5
330
ACA
100
AcDbEntity
  8
RAHM2
100
AcDbTrace
 10
-54.33799588879484
 20
60.83634238643631
 30
0.0
 11
-53.49664757418803
 21
60.83634238643631
 31
0.0
 12
-54.33799588879484
 22
60.69611766733508
 32
0.0
 13
-53.49664757418803
 23
60.69611766733508
 33
0.0
  0
SOLID
  5
BE6
330
ACA
100
AcDbEntity
  8
RAHM2
100
AcDbTrace
 10
-54.89889476519937
 20
60.69611766733508
 30
0.0
 11
-53.49664757418803
 21
60.69611766733508
 31
0.0
 12
-54.89889476519937
 22
60.55589294823405
 32
0.0
 13
-53.49664757418803
 23
60.55589294823405
 33
0.0
  0
SOLID
  5
BE7
330
ACA
100
AcDbEntity
  8
RAHM2
100
AcDbTrace
 10
-55.17934420340164
 20
60.55589294823405
 30
0.0
 11
-54.61844532699711
 21
60.55589294823405
 31
0.0
 12
-55.17934420340164
 22
60.41566822913281
 32
0.0
 13
-54.61844532699711
 23
60.41566822913281
 33
0.0
  0
SOLID
  5
BE8
330
ACA
100
AcDbEntity
  8
RAHM2
100
AcDbTrace
 10
-55.45979364160391
 20
60.41566822913281
 30
0.0
 11
-55.03911948430041
 21
60.41566822913281
 31
0.0
 12
-55.45979364160391
 22
60.27544351003178
 32
0.0
 13
-55.03911948430041
 23
60.27544351003178
 33
0.0
  0
SOLID
  5
BE9
330
ACA
100
AcDbEntity
  8
RAHM2
100
AcDbTrace
 10
-54.05754645059257
 20
60.55589294823405
 30
0.0
 11
-53.49664757418803
 21
60.55589294823405
 31
0.0
 12
-54.05754645059257
 22
60.27544351003178
 32
0.0
 13
-53.49664757418803
 23
60.27544351003178
 33
0.0
  0
SOLID
  5
BEA
330
ACA
100
AcDbEntity
  8
RAHM2
100
AcDbTrace
 10
-55.60001836070495
 20
60.27544351003178
 30
0.0
 11
-55.31956892250268
 21
60.27544351003178
 31
0.0
 12
-55.60001836070495
 22
60.13521879093055
 32
0.0
 13
-55.31956892250268
 23
60.13521879093055
 33
0.0
  0
SOLID
  5
BEB
330
ACA
100
AcDbEntity
  8
RAHM2
100
AcDbTrace
 10
-55.74024307980618
 20
60.13521879093055
 30
0.0
 11
-55.31956892250268
 21
60.13521879093055
 31
0.0
 12
-55.74024307980618
 22
59.99499407182951
 32
0.0
 13
-55.31956892250268
 23
59.99499407182951
 33
0.0
  0
SOLID
  5
BEC
330
ACA
100
AcDbEntity
  8
RAHM2
100
AcDbTrace
 10
-54.05754645059257
 20
60.27544351003178
 30
0.0
 11
-53.63687229328926
 21
60.27544351003178
 31
0.0
 12
-54.05754645059257
 22
60.13521879093055
 32
0.0
 13
-53.63687229328926
 23
60.13521879093055
 33
0.0
  0
SOLID
  5
BED
330
ACA
100
AcDbEntity
  8
RAHM2
100
AcDbTrace
 10
-54.19777116969379
 20
60.13521879093055
 30
0.0
 11
-53.63687229328926
 21
60.13521879093055
 31
0.0
 12
-54.19777116969379
 22
59.99499407182951
 32
0.0
 13
-53.63687229328926
 23
59.99499407182951
 33
0.0
  0
SOLID
  5
BEE
330
ACA
100
AcDbEntity
  8
RAHM2
100
AcDbTrace
 10
-55.88046779890722
 20
59.99499407182951
 30
0.0
 11
-55.45979364160391
 21
59.99499407182951
 31
0.0
 12
-55.88046779890722
 22
59.85476935272828
 32
0.0
 13
-55.45979364160391
 23
59.85476935272828
 33
0.0
  0
SOLID
  5
BEF
330
ACA
100
AcDbEntity
  8
RAHM2
100
AcDbTrace
 10
-56.02069251800826
 20
59.85476935272828
 30
0.0
 11
-55.60001836070495
 21
59.85476935272828
 31
0.0
 12
-56.02069251800826
 22
59.71454463362724
 32
0.0
 13
-55.60001836070495
 23
59.71454463362724
 33
0.0
  0
SOLID
  5
BF0
330
ACA
100
AcDbEntity
  8
RAHM2
100
AcDbTrace
 10
-54.19777116969379
 20
59.99499407182951
 30
0.0
 11
-53.63687229328926
 21
59.99499407182951
 31
0.0
 12
-54.19777116969379
 22
59.71454463362724
 32
0.0
 13
-53.63687229328926
 23
59.71454463362724
 33
0.0
  0
SOLID
  5
BF1
330
ACA
100
AcDbEntity
  8
RAHM2
100
AcDbTrace
 10
-56.02069251800826
 20
59.71454463362724
 30
0.0
 11
-55.60001836070495
 21
59.71454463362724
 31
0.0
 12
-56.02069251800826
 22
59.5743199145262
 32
0.0
 13
-55.60001836070495
 23
59.5743199145262
 33
0.0
  0
SOLID
  5
BF2
330
ACA
100
AcDbEntity
  8
RAHM2
100
AcDbTrace
 10
-56.16091723710948
 20
59.5743199145262
 30
0.0
 11
-55.60001836070495
 21
59.5743199145262
 31
0.0
 12
-56.16091723710948
 22
59.43409519542497
 32
0.0
 13
-55.60001836070495
 23
59.43409519542497
 33
0.0
  0
SOLID
  5
BF3
330
ACA
100
AcDbEntity
  8
RAHM2
100
AcDbTrace
 10
-54.33799588879484
 20
59.71454463362724
 30
0.0
 11
-53.7770970123903
 21
59.71454463362724
 31
0.0
 12
-54.33799588879484
 22
59.43409519542497
 32
0.0
 13
-53.7770970123903
 23
59.43409519542497
 33
0.0
  0
SOLID
  5
BF4
330
ACA
100
AcDbEntity
  8
RAHM2
100
AcDbTrace
 10
-56.16091723710948
 20
59.43409519542497
 30
0.0
 11
-55.74024307980618
 21
59.43409519542497
 31
0.0
 12
-56.16091723710948
 22
59.29387047632393
 32
0.0
 13
-55.74024307980618
 23
59.29387047632393
 33
0.0
  0
SOLID
  5
BF5
330
ACA
100
AcDbEntity
  8
RAHM2
100
AcDbTrace
 10
-56.30114195621053
 20
59.29387047632393
 30
0.0
 11
-55.74024307980618
 21
59.29387047632393
 31
0.0
 12
-56.30114195621053
 22
59.15364575722271
 32
0.0
 13
-55.74024307980618
 23
59.15364575722271
 33
0.0
  0
SOLID
  5
BF6
330
ACA
100
AcDbEntity
  8
RAHM2
100
AcDbTrace
 10
-54.47822060789606
 20
59.43409519542497
 30
0.0
 11
-53.7770970123903
 21
59.43409519542497
 31
0.0
 12
-54.47822060789606
 22
59.15364575722271
 32
0.0
 13
-53.7770970123903
 23
59.15364575722271
 33
0.0
  0
SOLID
  5
BF7
330
ACA
100
AcDbEntity
  8
RAHM2
100
AcDbTrace
 10
-56.30114195621053
 20
59.15364575722271
 30
0.0
 11
-55.74024307980618
 21
59.15364575722271
 31
0.0
 12
-56.30114195621053
 22
59.01342103812166
 32
0.0
 13
-55.74024307980618
 23
59.01342103812166
 33
0.0
  0
SOLID
  5
BF8
330
ACA
100
AcDbEntity
  8
RAHM2
100
AcDbTrace
 10
-54.61844532699711
 20
59.15364575722271
 30
0.0
 11
-53.7770970123903
 21
59.15364575722271
 31
0.0
 12
-54.61844532699711
 22
59.01342103812166
 32
0.0
 13
-53.7770970123903
 23
59.01342103812166
 33
0.0
  0
SOLID
  5
BF9
330
ACA
100
AcDbEntity
  8
RAHM2
100
AcDbTrace
 10
-56.30114195621053
 20
59.01342103812166
 30
0.0
 11
-55.74024307980618
 21
59.01342103812166
 31
0.0
 12
-56.30114195621053
 22
58.73297159991939
 32
0.0
 13
-55.74024307980618
 23
58.73297159991939
 33
0.0
  0
SOLID
  5
BFA
330
ACA
100
AcDbEntity
  8
RAHM2
100
AcDbTrace
 10
-56.30114195621053
 20
58.73297159991939
 30
0.0
 11
-55.88046779890722
 21
58.73297159991939
 31
0.0
 12
-56.30114195621053
 22
58.59274688081836
 32
0.0
 13
-55.88046779890722
 23
58.59274688081836
 33
0.0
  0
SOLID
  5
BFB
330
ACA
100
AcDbEntity
  8
RAHM2
100
AcDbTrace
 10
-54.61844532699711
 20
59.01342103812166
 30
0.0
 11
-54.47822060789606
 21
59.01342103812166
 31
0.0
 12
-54.61844532699711
 22
58.87319631902044
 32
0.0
 13
-54.47822060789606
 23
58.87319631902044
 33
0.0
  0
SOLID
  5
BFC
330
ACA
100
AcDbEntity
  8
RAHM2
100
AcDbTrace
 10
-54.75867004609814
 20
58.87319631902044
 30
0.0
 11
-54.61844532699711
 21
58.87319631902044
 31
0.0
 12
-54.75867004609814
 22
58.73297159991939
 32
0.0
 13
-54.61844532699711
 23
58.73297159991939
 33
0.0
  0
SOLID
  5
BFD
330
ACA
100
AcDbEntity
  8
RAHM2
100
AcDbTrace
 10
-54.47822060789606
 20
59.01342103812166
 30
0.0
 11
-53.91732173149152
 21
59.01342103812166
 31
0.0
 12
-54.47822060789606
 22
58.59274688081836
 32
0.0
 13
-53.91732173149152
 23
58.59274688081836
 33
0.0
  0
SOLID
  5
BFE
330
ACA
100
AcDbEntity
  8
RAHM2
100
AcDbTrace
 10
-56.44136667531175
 20
58.59274688081836
 30
0.0
 11
-55.88046779890722
 21
58.59274688081836
 31
0.0
 12
-56.44136667531175
 22
58.31229744261609
 32
0.0
 13
-55.88046779890722
 23
58.31229744261609
 33
0.0
  0
SOLID
  5
BFF
330
ACA
100
AcDbEntity
  8
RAHM2
100
AcDbTrace
 10
-54.89889476519937
 20
58.59274688081836
 30
0.0
 11
-54.75867004609814
 21
58.59274688081836
 31
0.0
 12
-54.89889476519937
 22
58.45252216171712
 32
0.0
 13
-54.75867004609814
 23
58.45252216171712
 33
0.0
  0
SOLID
  5
C00
330
ACA
100
AcDbEntity
  8
RAHM2
100
AcDbTrace
 10
-55.17934420340164
 20
58.45252216171712
 30
0.0
 11
-54.89889476519937
 21
58.45252216171712
 31
0.0
 12
-55.17934420340164
 22
58.31229744261609
 32
0.0
 13
-54.89889476519937
 23
58.31229744261609
 33
0.0
  0
SOLID
  5
C01
330
ACA
100
AcDbEntity
  8
RAHM2
100
AcDbTrace
 10
-54.47822060789606
 20
58.59274688081836
 30
0.0
 11
-53.91732173149152
 21
58.59274688081836
 31
0.0
 12
-54.47822060789606
 22
58.45252216171712
 32
0.0
 13
-53.91732173149152
 23
58.45252216171712
 33
0.0
  0
SOLID
  5
C02
330
ACA
100
AcDbEntity
  8
RAHM2
100
AcDbTrace
 10
-54.47822060789606
 20
58.45252216171712
 30
0.0
 11
-54.05754645059257
 21
58.45252216171712
 31
0.0
 12
-54.47822060789606
 22
58.31229744261609
 32
0.0
 13
-54.05754645059257
 23
58.31229744261609
 33
0.0
  0
SOLID
  5
C03
330
ACA
100
AcDbEntity
  8
RAHM2
100
AcDbTrace
 10
-56.44136667531175
 20
58.31229744261609
 30
0.0
 11
-55.88046779890722
 21
58.31229744261609
 31
0.0
 12
-56.44136667531175
 22
58.17207272351486
 32
0.0
 13
-55.88046779890722
 23
58.17207272351486
 33
0.0
  0
SOLID
  5
C04
330
ACA
100
AcDbEntity
  8
RAHM2
100
AcDbTrace
 10
-55.31956892250268
 20
58.31229744261609
 30
0.0
 11
-55.03911948430041
 21
58.31229744261609
 31
0.0
 12
-55.31956892250268
 22
58.17207272351486
 32
0.0
 13
-55.03911948430041
 23
58.17207272351486
 33
0.0
  0
SOLID
  5
C05
330
ACA
100
AcDbEntity
  8
RAHM2
100
AcDbTrace
 10
-54.61844532699711
 20
58.31229744261609
 30
0.0
 11
-54.05754645059257
 21
58.31229744261609
 31
0.0
 12
-54.61844532699711
 22
58.17207272351486
 32
0.0
 13
-54.05754645059257
 23
58.17207272351486
 33
0.0
  0
SOLID
  5
C06
330
ACA
100
AcDbEntity
  8
RAHM2
100
AcDbTrace
 10
-56.44136667531175
 20
58.17207272351486
 30
0.0
 11
-55.74024307980618
 21
58.17207272351486
 31
0.0
 12
-56.44136667531175
 22
58.03184800441382
 32
0.0
 13
-55.74024307980618
 23
58.03184800441382
 33
0.0
  0
SOLID
  5
C07
330
ACA
100
AcDbEntity
  8
RAHM2
100
AcDbTrace
 10
-55.45979364160391
 20
58.17207272351486
 30
0.0
 11
-55.17934420340164
 21
58.17207272351486
 31
0.0
 12
-55.45979364160391
 22
58.03184800441382
 32
0.0
 13
-55.17934420340164
 23
58.03184800441382
 33
0.0
  0
SOLID
  5
C08
330
ACA
100
AcDbEntity
  8
RAHM2
100
AcDbTrace
 10
-54.61844532699711
 20
58.17207272351486
 30
0.0
 11
-54.05754645059257
 21
58.17207272351486
 31
0.0
 12
-54.61844532699711
 22
58.03184800441382
 32
0.0
 13
-54.05754645059257
 23
58.03184800441382
 33
0.0
  0
SOLID
  5
C09
330
ACA
100
AcDbEntity
  8
RAHM2
100
AcDbTrace
 10
-53.91732173149152
 20
58.17207272351486
 30
0.0
 11
-53.49664757418803
 21
58.17207272351486
 31
0.0
 12
-53.91732173149152
 22
58.03184800441382
 32
0.0
 13
-53.49664757418803
 23
58.03184800441382
 33
0.0
  0
SOLID
  5
C0A
330
ACA
100
AcDbEntity
  8
RAHM2
100
AcDbTrace
 10
-56.44136667531175
 20
58.03184800441382
 30
0.0
 11
-55.31956892250268
 21
58.03184800441382
 31
0.0
 12
-56.44136667531175
 22
57.89162328531259
 32
0.0
 13
-55.31956892250268
 23
57.89162328531259
 33
0.0
  0
SOLID
  5
C0B
330
ACA
100
AcDbEntity
  8
RAHM2
100
AcDbTrace
 10
-56.30114195621053
 20
57.89162328531259
 30
0.0
 11
-55.45979364160391
 21
57.89162328531259
 31
0.0
 12
-56.30114195621053
 22
57.75139856621155
 32
0.0
 13
-55.45979364160391
 23
57.75139856621155
 33
0.0
  0
SOLID
  5
C0C
330
ACA
100
AcDbEntity
  8
RAHM2
100
AcDbTrace
 10
-54.61844532699711
 20
58.03184800441382
 30
0.0
 11
-53.7770970123903
 21
58.03184800441382
 31
0.0
 12
-54.61844532699711
 22
57.89162328531259
 32
0.0
 13
-53.7770970123903
 23
57.89162328531259
 33
0.0
  0
SOLID
  5
C0D
330
ACA
100
AcDbEntity
  8
RAHM2
100
AcDbTrace
 10
-54.75867004609814
 20
57.89162328531259
 30
0.0
 11
-54.05754645059257
 21
57.89162328531259
 31
0.0
 12
-54.75867004609814
 22
57.75139856621155
 32
0.0
 13
-54.05754645059257
 23
57.75139856621155
 33
0.0
  0
SOLID
  5
C0E
330
ACA
100
AcDbEntity
  8
RAHM2
100
AcDbTrace
 10
-56.16091723710948
 20
57.75139856621155
 30
0.0
 11
-55.74024307980618
 21
57.75139856621155
 31
0.0
 12
-56.16091723710948
 22
57.61117384711032
 32
0.0
 13
-55.74024307980618
 23
57.61117384711032
 33
0.0
  0
SOLID
  5
C0F
330
ACA
100
AcDbEntity
  8
RAHM2
100
AcDbTrace
 10
-54.61844532699711
 20
57.75139856621155
 30
0.0
 11
-54.33799588879484
 21
57.75139856621155
 31
0.0
 12
-54.61844532699711
 22
57.61117384711032
 32
0.0
 13
-54.33799588879484
 23
57.61117384711032
 33
0.0
  0
SOLID
  5
C10
330
ACA
100
AcDbEntity
  8
RAHM2
100
AcDbTrace
 10
-52.79552397868245
 20
58.45252216171712
 30
0.0
 11
-52.65529925958141
 21
58.45252216171712
 31
0.0
 12
-52.79552397868245
 22
58.31229744261609
 32
0.0
 13
-52.65529925958141
 23
58.31229744261609
 33
0.0
  0
SOLID
  5
C11
330
ACA
100
AcDbEntity
  8
RAHM2
100
AcDbTrace
 10
-52.79552397868245
 20
58.31229744261609
 30
0.0
 11
-52.51507454048018
 21
58.31229744261609
 31
0.0
 12
-52.79552397868245
 22
57.89162328531259
 32
0.0
 13
-52.51507454048018
 23
57.89162328531259
 33
0.0
  0
SOLID
  5
C12
330
ACA
100
AcDbEntity
  8
RAHM2
100
AcDbTrace
 10
-52.93574869778367
 20
57.89162328531259
 30
0.0
 11
-52.23462510227792
 21
57.89162328531259
 31
0.0
 12
-52.93574869778367
 22
57.75139856621155
 32
0.0
 13
-52.23462510227792
 23
57.75139856621155
 33
0.0
  0
SOLID
  5
C13
330
ACA
100
AcDbEntity
  8
RAHM2
100
AcDbTrace
 10
-45.08316442812072
 20
60.83634238643631
 30
0.0
 11
-44.24181611351392
 21
60.83634238643631
 31
0.0
 12
-45.08316442812072
 22
60.69611766733508
 32
0.0
 13
-44.24181611351392
 23
60.69611766733508
 33
0.0
  0
SOLID
  5
C14
330
ACA
100
AcDbEntity
  8
RAHM2
100
AcDbTrace
 10
-45.64406330452526
 20
60.69611766733508
 30
0.0
 11
-44.24181611351392
 21
60.69611766733508
 31
0.0
 12
-45.64406330452526
 22
60.55589294823405
 32
0.0
 13
-44.24181611351392
 23
60.55589294823405
 33
0.0
  0
SOLID
  5
C15
330
ACA
100
AcDbEntity
  8
RAHM2
100
AcDbTrace
 10
-44.80271498991846
 20
60.55589294823405
 30
0.0
 11
-44.24181611351392
 21
60.55589294823405
 31
0.0
 12
-44.80271498991846
 22
60.27544351003178
 32
0.0
 13
-44.24181611351392
 23
60.27544351003178
 33
0.0
  0
SOLID
  5
C16
330
ACA
100
AcDbEntity
  8
RAHM2
100
AcDbTrace
 10
-44.38204083261514
 20
58.31229744261609
 30
0.0
 11
-44.24181611351392
 21
58.31229744261609
 31
0.0
 12
-44.38204083261514
 22
58.17207272351486
 32
0.0
 13
-44.24181611351392
 23
58.17207272351486
 33
0.0
  0
SOLID
  5
C17
330
ACA
100
AcDbEntity
  8
RAHM2
100
AcDbTrace
 10
-44.66249027081741
 20
58.17207272351486
 30
0.0
 11
-44.24181611351392
 21
58.17207272351486
 31
0.0
 12
-44.66249027081741
 22
58.03184800441382
 32
0.0
 13
-44.24181611351392
 23
58.03184800441382
 33
0.0
  0
SOLID
  5
C18
330
ACA
100
AcDbEntity
  8
RAHM2
100
AcDbTrace
 10
-51.53350150677233
 20
60.83634238643631
 30
0.0
 11
-51.11282734946903
 21
60.83634238643631
 31
0.0
 12
-51.53350150677233
 22
60.69611766733508
 32
0.0
 13
-51.11282734946903
 23
60.69611766733508
 33
0.0
  0
SOLID
  5
C19
330
ACA
100
AcDbEntity
  8
RAHM2
100
AcDbTrace
 10
-51.95417566407583
 20
60.69611766733508
 30
0.0
 11
-51.3932767876713
 21
60.69611766733508
 31
0.0
 12
-51.95417566407583
 22
60.55589294823405
 32
0.0
 13
-51.3932767876713
 23
60.55589294823405
 33
0.0
  0
SOLID
  5
C1A
330
ACA
100
AcDbEntity
  8
RAHM2
100
AcDbTrace
 10
-51.25305206857007
 20
60.69611766733508
 30
0.0
 11
-50.69215319216572
 21
60.69611766733508
 31
0.0
 12
-51.25305206857007
 22
60.55589294823405
 32
0.0
 13
-50.69215319216572
 23
60.55589294823405
 33
0.0
  0
SOLID
  5
C1B
330
ACA
100
AcDbEntity
  8
RAHM2
100
AcDbTrace
 10
-50.97260263036798
 20
60.55589294823405
 30
0.0
 11
-50.69215319216572
 21
60.55589294823405
 31
0.0
 12
-50.97260263036798
 22
60.41566822913281
 32
0.0
 13
-50.69215319216572
 23
60.41566822913281
 33
0.0
  0
SOLID
  5
C1C
330
ACA
100
AcDbEntity
  8
RAHM2
100
AcDbTrace
 10
-50.97260263036798
 20
60.41566822913281
 30
0.0
 11
-50.69215319216572
 21
60.41566822913281
 31
0.0
 12
-50.97260263036798
 22
60.27544351003178
 32
0.0
 13
-50.69215319216572
 23
60.27544351003178
 33
0.0
  0
SOLID
  5
C1D
330
ACA
100
AcDbEntity
  8
RAHM2
100
AcDbTrace
 10
-50.97260263036798
 20
60.27544351003178
 30
0.0
 11
-50.83237791126676
 21
60.27544351003178
 31
0.0
 12
-50.97260263036798
 22
60.13521879093055
 32
0.0
 13
-50.83237791126676
 23
60.13521879093055
 33
0.0
  0
SOLID
  5
C1E
330
ACA
100
AcDbEntity
  8
RAHM2
100
AcDbTrace
 10
-51.95417566407583
 20
59.29387047632393
 30
0.0
 11
-51.25305206857007
 21
59.29387047632393
 31
0.0
 12
-51.95417566407583
 22
59.15364575722271
 32
0.0
 13
-51.25305206857007
 23
59.15364575722271
 33
0.0
  0
SOLID
  5
C1F
330
ACA
100
AcDbEntity
  8
RAHM2
100
AcDbTrace
 10
-51.8139509449746
 20
59.15364575722271
 30
0.0
 11
-51.11282734946903
 21
59.15364575722271
 31
0.0
 12
-51.8139509449746
 22
59.01342103812166
 32
0.0
 13
-51.11282734946903
 23
59.01342103812166
 33
0.0
  0
SOLID
  5
C20
330
ACA
100
AcDbEntity
  8
RAHM2
100
AcDbTrace
 10
-51.67372622587357
 20
59.01342103812166
 30
0.0
 11
-50.97260263036798
 21
59.01342103812166
 31
0.0
 12
-51.67372622587357
 22
58.87319631902044
 32
0.0
 13
-50.97260263036798
 23
58.87319631902044
 33
0.0
  0
SOLID
  5
C21
330
ACA
100
AcDbEntity
  8
RAHM2
100
AcDbTrace
 10
-51.53350150677233
 20
58.87319631902044
 30
0.0
 11
-50.97260263036798
 21
58.87319631902044
 31
0.0
 12
-51.53350150677233
 22
58.73297159991939
 32
0.0
 13
-50.97260263036798
 23
58.73297159991939
 33
0.0
  0
SOLID
  5
C22
330
ACA
100
AcDbEntity
  8
RAHM2
100
AcDbTrace
 10
-51.3932767876713
 20
58.73297159991939
 30
0.0
 11
-50.83237791126676
 21
58.73297159991939
 31
0.0
 12
-51.3932767876713
 22
58.45252216171712
 32
0.0
 13
-50.83237791126676
 23
58.45252216171712
 33
0.0
  0
SOLID
  5
C23
330
ACA
100
AcDbEntity
  8
RAHM2
100
AcDbTrace
 10
-51.3932767876713
 20
58.45252216171712
 30
0.0
 11
-50.83237791126676
 21
58.45252216171712
 31
0.0
 12
-51.3932767876713
 22
58.31229744261609
 32
0.0
 13
-50.83237791126676
 23
58.31229744261609
 33
0.0
  0
SOLID
  5
C24
330
ACA
100
AcDbEntity
  8
RAHM2
100
AcDbTrace
 10
-51.3932767876713
 20
58.31229744261609
 30
0.0
 11
-50.97260263036798
 21
58.31229744261609
 31
0.0
 12
-51.3932767876713
 22
58.03184800441382
 32
0.0
 13
-50.97260263036798
 23
58.03184800441382
 33
0.0
  0
SOLID
  5
C25
330
ACA
100
AcDbEntity
  8
RAHM2
100
AcDbTrace
 10
-51.53350150677233
 20
58.03184800441382
 30
0.0
 11
-51.11282734946903
 21
58.03184800441382
 31
0.0
 12
-51.53350150677233
 22
57.89162328531259
 32
0.0
 13
-51.11282734946903
 23
57.89162328531259
 33
0.0
  0
SOLID
  5
C26
330
ACA
100
AcDbEntity
  8
RAHM2
100
AcDbTrace
 10
-51.67372622587357
 20
57.89162328531259
 30
0.0
 11
-51.25305206857007
 21
57.89162328531259
 31
0.0
 12
-51.67372622587357
 22
57.75139856621155
 32
0.0
 13
-51.25305206857007
 23
57.75139856621155
 33
0.0
  0
SOLID
  5
C27
330
ACA
100
AcDbEntity
  8
RAHM2
100
AcDbTrace
 10
-48.86923184385107
 20
60.83634238643631
 30
0.0
 11
-48.44855768654776
 21
60.83634238643631
 31
0.0
 12
-48.86923184385107
 22
60.69611766733508
 32
0.0
 13
-48.44855768654776
 23
60.69611766733508
 33
0.0
  0
SOLID
  5
C28
330
ACA
100
AcDbEntity
  8
RAHM2
100
AcDbTrace
 10
-49.28990600115437
 20
60.69611766733508
 30
0.0
 11
-48.72900712474984
 21
60.69611766733508
 31
0.0
 12
-49.28990600115437
 22
60.55589294823405
 32
0.0
 13
-48.72900712474984
 23
60.55589294823405
 33
0.0
  0
SOLID
  5
C29
330
ACA
100
AcDbEntity
  8
RAHM2
100
AcDbTrace
 10
-48.5887824056488
 20
60.69611766733508
 30
0.0
 11
-47.88765881014322
 21
60.69611766733508
 31
0.0
 12
-48.5887824056488
 22
60.55589294823405
 32
0.0
 13
-47.88765881014322
 23
60.55589294823405
 33
0.0
  0
SOLID
  5
C2A
330
ACA
100
AcDbEntity
  8
RAHM2
100
AcDbTrace
 10
-49.28990600115437
 20
60.55589294823405
 30
0.0
 11
-49.00945656295211
 21
60.55589294823405
 31
0.0
 12
-49.28990600115437
 22
60.41566822913281
 32
0.0
 13
-49.00945656295211
 23
60.41566822913281
 33
0.0
  0
SOLID
  5
C2B
330
ACA
100
AcDbEntity
  8
RAHM2
100
AcDbTrace
 10
-48.30833296744653
 20
60.55589294823405
 30
0.0
 11
-47.88765881014322
 21
60.55589294823405
 31
0.0
 12
-48.30833296744653
 22
60.41566822913281
 32
0.0
 13
-47.88765881014322
 23
60.41566822913281
 33
0.0
  0
SOLID
  5
C2C
330
ACA
100
AcDbEntity
  8
RAHM2
100
AcDbTrace
 10
-49.43013072025561
 20
60.41566822913281
 30
0.0
 11
-49.00945656295211
 21
60.41566822913281
 31
0.0
 12
-49.43013072025561
 22
60.13521879093055
 32
0.0
 13
-49.00945656295211
 23
60.13521879093055
 33
0.0
  0
SOLID
  5
C2D
330
ACA
100
AcDbEntity
  8
RAHM2
100
AcDbTrace
 10
-48.16810824834549
 20
60.41566822913281
 30
0.0
 11
-47.88765881014322
 21
60.41566822913281
 31
0.0
 12
-48.16810824834549
 22
60.27544351003178
 32
0.0
 13
-47.88765881014322
 23
60.27544351003178
 33
0.0
  0
SOLID
  5
C2E
330
ACA
100
AcDbEntity
  8
RAHM2
100
AcDbTrace
 10
-48.16810824834549
 20
60.27544351003178
 30
0.0
 11
-48.02788352924427
 21
60.27544351003178
 31
0.0
 12
-48.16810824834549
 22
60.13521879093055
 32
0.0
 13
-48.02788352924427
 23
60.13521879093055
 33
0.0
  0
SOLID
  5
C2F
330
ACA
100
AcDbEntity
  8
RAHM2
100
AcDbTrace
 10
-49.57035543935664
 20
60.13521879093055
 30
0.0
 11
-49.14968128205334
 21
60.13521879093055
 31
0.0
 12
-49.57035543935664
 22
59.99499407182951
 32
0.0
 13
-49.14968128205334
 23
59.99499407182951
 33
0.0
  0
SOLID
  5
C30
330
ACA
100
AcDbEntity
  8
RAHM2
100
AcDbTrace
 10
-49.57035543935664
 20
59.99499407182951
 30
0.0
 11
-49.00945656295211
 21
59.99499407182951
 31
0.0
 12
-49.57035543935664
 22
59.85476935272828
 32
0.0
 13
-49.00945656295211
 23
59.85476935272828
 33
0.0
  0
SOLID
  5
C31
330
ACA
100
AcDbEntity
  8
RAHM2
100
AcDbTrace
 10
-49.57035543935664
 20
59.85476935272828
 30
0.0
 11
-48.86923184385107
 21
59.85476935272828
 31
0.0
 12
-49.57035543935664
 22
59.71454463362724
 32
0.0
 13
-48.86923184385107
 23
59.71454463362724
 33
0.0
  0
SOLID
  5
C32
330
ACA
100
AcDbEntity
  8
RAHM2
100
AcDbTrace
 10
-49.57035543935664
 20
59.71454463362724
 30
0.0
 11
-48.72900712474984
 21
59.71454463362724
 31
0.0
 12
-49.57035543935664
 22
59.5743199145262
 32
0.0
 13
-48.72900712474984
 23
59.5743199145262
 33
0.0
  0
SOLID
  5
C33
330
ACA
100
AcDbEntity
  8
RAHM2
100
AcDbTrace
 10
-49.43013072025561
 20
59.5743199145262
 30
0.0
 11
-48.5887824056488
 21
59.5743199145262
 31
0.0
 12
-49.43013072025561
 22
59.43409519542497
 32
0.0
 13
-48.5887824056488
 23
59.43409519542497
 33
0.0
  0
SOLID
  5
C34
330
ACA
100
AcDbEntity
  8
RAHM2
100
AcDbTrace
 10
-49.28990600115437
 20
59.43409519542497
 30
0.0
 11
-48.5887824056488
 21
59.43409519542497
 31
0.0
 12
-49.28990600115437
 22
59.29387047632393
 32
0.0
 13
-48.5887824056488
 23
59.29387047632393
 33
0.0
  0
SOLID
  5
C35
330
ACA
100
AcDbEntity
  8
RAHM2
100
AcDbTrace
 10
-49.14968128205334
 20
59.29387047632393
 30
0.0
 11
-48.44855768654776
 21
59.29387047632393
 31
0.0
 12
-49.14968128205334
 22
59.15364575722271
 32
0.0
 13
-48.44855768654776
 23
59.15364575722271
 33
0.0
  0
SOLID
  5
C36
330
ACA
100
AcDbEntity
  8
RAHM2
100
AcDbTrace
 10
-49.14968128205334
 20
59.15364575722271
 30
0.0
 11
-48.30833296744653
 21
59.15364575722271
 31
0.0
 12
-49.14968128205334
 22
59.01342103812166
 32
0.0
 13
-48.30833296744653
 23
59.01342103812166
 33
0.0
  0
SOLID
  5
C37
330
ACA
100
AcDbEntity
  8
RAHM2
100
AcDbTrace
 10
-49.00945656295211
 20
59.01342103812166
 30
0.0
 11
-48.16810824834549
 21
59.01342103812166
 31
0.0
 12
-49.00945656295211
 22
58.87319631902044
 32
0.0
 13
-48.16810824834549
 23
58.87319631902044
 33
0.0
  0
SOLID
  5
C38
330
ACA
100
AcDbEntity
  8
RAHM2
100
AcDbTrace
 10
-48.86923184385107
 20
58.87319631902044
 30
0.0
 11
-48.16810824834549
 21
58.87319631902044
 31
0.0
 12
-48.86923184385107
 22
58.73297159991939
 32
0.0
 13
-48.16810824834549
 23
58.73297159991939
 33
0.0
  0
SOLID
  5
C39
330
ACA
100
AcDbEntity
  8
RAHM2
100
AcDbTrace
 10
-48.86923184385107
 20
58.73297159991939
 30
0.0
 11
-48.02788352924427
 21
58.73297159991939
 31
0.0
 12
-48.86923184385107
 22
58.59274688081836
 32
0.0
 13
-48.02788352924427
 23
58.59274688081836
 33
0.0
  0
SOLID
  5
C3A
330
ACA
100
AcDbEntity
  8
RAHM2
100
AcDbTrace
 10
-48.72900712474984
 20
58.59274688081836
 30
0.0
 11
-48.02788352924427
 21
58.59274688081836
 31
0.0
 12
-48.72900712474984
 22
58.45252216171712
 32
0.0
 13
-48.02788352924427
 23
58.45252216171712
 33
0.0
  0
SOLID
  5
C3B
330
ACA
100
AcDbEntity
  8
RAHM2
100
AcDbTrace
 10
-49.99102959665996
 20
58.45252216171712
 30
0.0
 11
-49.85080487755891
 21
58.45252216171712
 31
0.0
 12
-49.99102959665996
 22
58.31229744261609
 32
0.0
 13
-49.85080487755891
 23
58.31229744261609
 33
0.0
  0
SOLID
  5
C3C
330
ACA
100
AcDbEntity
  8
RAHM2
100
AcDbTrace
 10
-48.5887824056488
 20
58.45252216171712
 30
0.0
 11
-48.02788352924427
 21
58.45252216171712
 31
0.0
 12
-48.5887824056488
 22
58.31229744261609
 32
0.0
 13
-48.02788352924427
 23
58.31229744261609
 33
0.0
  0
SOLID
  5
C3D
330
ACA
100
AcDbEntity
  8
RAHM2
100
AcDbTrace
 10
-49.99102959665996
 20
58.31229744261609
 30
0.0
 11
-49.71058015845769
 21
58.31229744261609
 31
0.0
 12
-49.99102959665996
 22
57.89162328531259
 32
0.0
 13
-49.71058015845769
 23
57.89162328531259
 33
0.0
  0
SOLID
  5
C3E
330
ACA
100
AcDbEntity
  8
RAHM2
100
AcDbTrace
 10
-48.5887824056488
 20
58.31229744261609
 30
0.0
 11
-48.16810824834549
 21
58.31229744261609
 31
0.0
 12
-48.5887824056488
 22
58.17207272351486
 32
0.0
 13
-48.16810824834549
 23
58.17207272351486
 33
0.0
  0
SOLID
  5
C3F
330
ACA
100
AcDbEntity
  8
RAHM2
100
AcDbTrace
 10
-48.72900712474984
 20
58.17207272351486
 30
0.0
 11
-48.16810824834549
 21
58.17207272351486
 31
0.0
 12
-48.72900712474984
 22
58.03184800441382
 32
0.0
 13
-48.16810824834549
 23
58.03184800441382
 33
0.0
  0
SOLID
  5
C40
330
ACA
100
AcDbEntity
  8
RAHM2
100
AcDbTrace
 10
-48.72900712474984
 20
58.03184800441382
 30
0.0
 11
-48.30833296744653
 21
58.03184800441382
 31
0.0
 12
-48.72900712474984
 22
57.89162328531259
 32
0.0
 13
-48.30833296744653
 23
57.89162328531259
 33
0.0
  0
SOLID
  5
C41
330
ACA
100
AcDbEntity
  8
RAHM2
100
AcDbTrace
 10
-50.13125431576118
 20
57.89162328531259
 30
0.0
 11
-49.57035543935664
 21
57.89162328531259
 31
0.0
 12
-50.13125431576118
 22
57.75139856621155
 32
0.0
 13
-49.57035543935664
 23
57.75139856621155
 33
0.0
  0
SOLID
  5
C42
330
ACA
100
AcDbEntity
  8
RAHM2
100
AcDbTrace
 10
-49.00945656295211
 20
57.89162328531259
 30
0.0
 11
-48.44855768654776
 21
57.89162328531259
 31
0.0
 12
-49.00945656295211
 22
57.75139856621155
 32
0.0
 13
-48.44855768654776
 23
57.75139856621155
 33
0.0
  0
SOLID
  5
C43
330
ACA
100
AcDbEntity
  8
RAHM2
100
AcDbTrace
 10
-49.85080487755891
 20
57.75139856621155
 30
0.0
 11
-48.86923184385107
 21
57.75139856621155
 31
0.0
 12
-49.85080487755891
 22
57.61117384711032
 32
0.0
 13
-48.86923184385107
 23
57.61117384711032
 33
0.0
  0
SOLID
  5
C44
330
ACA
100
AcDbEntity
  8
RAHM2
100
AcDbTrace
 10
-45.92451274272753
 20
60.55589294823405
 30
0.0
 11
-45.36361386632299
 21
60.55589294823405
 31
0.0
 12
-45.92451274272753
 22
60.41566822913281
 32
0.0
 13
-45.36361386632299
 23
60.41566822913281
 33
0.0
  0
SOLID
  5
C45
330
ACA
100
AcDbEntity
  8
RAHM2
100
AcDbTrace
 10
-46.20496218092961
 20
60.41566822913281
 30
0.0
 11
-45.7842880236263
 21
60.41566822913281
 31
0.0
 12
-46.20496218092961
 22
60.27544351003178
 32
0.0
 13
-45.7842880236263
 23
60.27544351003178
 33
0.0
  0
SOLID
  5
C46
330
ACA
100
AcDbEntity
  8
RAHM2
100
AcDbTrace
 10
-46.34518690003083
 20
60.27544351003178
 30
0.0
 11
-46.06473746182857
 21
60.27544351003178
 31
0.0
 12
-46.34518690003083
 22
60.13521879093055
 32
0.0
 13
-46.06473746182857
 23
60.13521879093055
 33
0.0
  0
SOLID
  5
C47
330
ACA
100
AcDbEntity
  8
RAHM2
100
AcDbTrace
 10
-46.48541161913188
 20
60.13521879093055
 30
0.0
 11
-46.06473746182857
 21
60.13521879093055
 31
0.0
 12
-46.48541161913188
 22
59.99499407182951
 32
0.0
 13
-46.06473746182857
 23
59.99499407182951
 33
0.0
  0
SOLID
  5
C48
330
ACA
100
AcDbEntity
  8
RAHM2
100
AcDbTrace
 10
-44.80271498991846
 20
60.27544351003178
 30
0.0
 11
-44.38204083261514
 21
60.27544351003178
 31
0.0
 12
-44.80271498991846
 22
60.13521879093055
 32
0.0
 13
-44.38204083261514
 23
60.13521879093055
 33
0.0
  0
SOLID
  5
C49
330
ACA
100
AcDbEntity
  8
RAHM2
100
AcDbTrace
 10
-44.94293970901949
 20
60.13521879093055
 30
0.0
 11
-44.38204083261514
 21
60.13521879093055
 31
0.0
 12
-44.94293970901949
 22
59.99499407182951
 32
0.0
 13
-44.38204083261514
 23
59.99499407182951
 33
0.0
  0
SOLID
  5
C4A
330
ACA
100
AcDbEntity
  8
RAHM2
100
AcDbTrace
 10
-46.6256363382331
 20
59.99499407182951
 30
0.0
 11
-46.20496218092961
 21
59.99499407182951
 31
0.0
 12
-46.6256363382331
 22
59.85476935272828
 32
0.0
 13
-46.20496218092961
 23
59.85476935272828
 33
0.0
  0
SOLID
  5
C4B
330
ACA
100
AcDbEntity
  8
RAHM2
100
AcDbTrace
 10
-46.76586105733415
 20
59.85476935272828
 30
0.0
 11
-46.34518690003083
 21
59.85476935272828
 31
0.0
 12
-46.76586105733415
 22
59.71454463362724
 32
0.0
 13
-46.34518690003083
 23
59.71454463362724
 33
0.0
  0
SOLID
  5
C4C
330
ACA
100
AcDbEntity
  8
RAHM2
100
AcDbTrace
 10
-44.94293970901949
 20
59.99499407182951
 30
0.0
 11
-44.38204083261514
 21
59.99499407182951
 31
0.0
 12
-44.94293970901949
 22
59.71454463362724
 32
0.0
 13
-44.38204083261514
 23
59.71454463362724
 33
0.0
  0
SOLID
  5
C4D
330
ACA
100
AcDbEntity
  8
RAHM2
100
AcDbTrace
 10
-46.76586105733415
 20
59.71454463362724
 30
0.0
 11
-46.34518690003083
 21
59.71454463362724
 31
0.0
 12
-46.76586105733415
 22
59.5743199145262
 32
0.0
 13
-46.34518690003083
 23
59.5743199145262
 33
0.0
  0
SOLID
  5
C4E
330
ACA
100
AcDbEntity
  8
RAHM2
100
AcDbTrace
 10
-46.90608577643537
 20
59.5743199145262
 30
0.0
 11
-46.34518690003083
 21
59.5743199145262
 31
0.0
 12
-46.90608577643537
 22
59.43409519542497
 32
0.0
 13
-46.34518690003083
 23
59.43409519542497
 33
0.0
  0
SOLID
  5
C4F
330
ACA
100
AcDbEntity
  8
RAHM2
100
AcDbTrace
 10
-45.08316442812072
 20
59.71454463362724
 30
0.0
 11
-44.52226555171619
 21
59.71454463362724
 31
0.0
 12
-45.08316442812072
 22
59.43409519542497
 32
0.0
 13
-44.52226555171619
 23
59.43409519542497
 33
0.0
  0
SOLID
  5
C50
330
ACA
100
AcDbEntity
  8
RAHM2
100
AcDbTrace
 10
-46.90608577643537
 20
59.43409519542497
 30
0.0
 11
-46.48541161913188
 21
59.43409519542497
 31
0.0
 12
-46.90608577643537
 22
59.29387047632393
 32
0.0
 13
-46.48541161913188
 23
59.29387047632393
 33
0.0
  0
SOLID
  5
C51
330
ACA
100
AcDbEntity
  8
RAHM2
100
AcDbTrace
 10
-47.04631049553642
 20
59.29387047632393
 30
0.0
 11
-46.48541161913188
 21
59.29387047632393
 31
0.0
 12
-47.04631049553642
 22
59.15364575722271
 32
0.0
 13
-46.48541161913188
 23
59.15364575722271
 33
0.0
  0
SOLID
  5
C52
330
ACA
100
AcDbEntity
  8
RAHM2
100
AcDbTrace
 10
-45.22338914722176
 20
59.43409519542497
 30
0.0
 11
-44.52226555171619
 21
59.43409519542497
 31
0.0
 12
-45.22338914722176
 22
59.15364575722271
 32
0.0
 13
-44.52226555171619
 23
59.15364575722271
 33
0.0
  0
SOLID
  5
C53
330
ACA
100
AcDbEntity
  8
RAHM2
100
AcDbTrace
 10
-47.04631049553642
 20
59.15364575722271
 30
0.0
 11
-46.48541161913188
 21
59.15364575722271
 31
0.0
 12
-47.04631049553642
 22
59.01342103812166
 32
0.0
 13
-46.48541161913188
 23
59.01342103812166
 33
0.0
  0
SOLID
  5
C54
330
ACA
100
AcDbEntity
  8
RAHM2
100
AcDbTrace
 10
-45.36361386632299
 20
59.15364575722271
 30
0.0
 11
-44.52226555171619
 21
59.15364575722271
 31
0.0
 12
-45.36361386632299
 22
59.01342103812166
 32
0.0
 13
-44.52226555171619
 23
59.01342103812166
 33
0.0
  0
SOLID
  5
C55
330
ACA
100
AcDbEntity
  8
RAHM2
100
AcDbTrace
 10
-47.04631049553642
 20
59.01342103812166
 30
0.0
 11
-46.48541161913188
 21
59.01342103812166
 31
0.0
 12
-47.04631049553642
 22
58.73297159991939
 32
0.0
 13
-46.48541161913188
 23
58.73297159991939
 33
0.0
  0
SOLID
  5
C56
330
ACA
100
AcDbEntity
  8
RAHM2
100
AcDbTrace
 10
-47.04631049553642
 20
58.73297159991939
 30
0.0
 11
-46.6256363382331
 21
58.73297159991939
 31
0.0
 12
-47.04631049553642
 22
58.59274688081836
 32
0.0
 13
-46.6256363382331
 23
58.59274688081836
 33
0.0
  0
SOLID
  5
C57
330
ACA
100
AcDbEntity
  8
RAHM2
100
AcDbTrace
 10
-45.36361386632299
 20
59.01342103812166
 30
0.0
 11
-45.22338914722176
 21
59.01342103812166
 31
0.0
 12
-45.36361386632299
 22
58.87319631902044
 32
0.0
 13
-45.22338914722176
 23
58.87319631902044
 33
0.0
  0
SOLID
  5
C58
330
ACA
100
AcDbEntity
  8
RAHM2
100
AcDbTrace
 10
-45.50383858542403
 20
58.87319631902044
 30
0.0
 11
-45.36361386632299
 21
58.87319631902044
 31
0.0
 12
-45.50383858542403
 22
58.73297159991939
 32
0.0
 13
-45.36361386632299
 23
58.73297159991939
 33
0.0
  0
SOLID
  5
C59
330
ACA
100
AcDbEntity
  8
RAHM2
100
AcDbTrace
 10
-45.22338914722176
 20
59.01342103812166
 30
0.0
 11
-44.66249027081741
 21
59.01342103812166
 31
0.0
 12
-45.22338914722176
 22
58.59274688081836
 32
0.0
 13
-44.66249027081741
 23
58.59274688081836
 33
0.0
  0
SOLID
  5
C5A
330
ACA
100
AcDbEntity
  8
RAHM2
100
AcDbTrace
 10
-47.18653521463764
 20
58.59274688081836
 30
0.0
 11
-46.6256363382331
 21
58.59274688081836
 31
0.0
 12
-47.18653521463764
 22
58.31229744261609
 32
0.0
 13
-46.6256363382331
 23
58.31229744261609
 33
0.0
  0
SOLID
  5
C5B
330
ACA
100
AcDbEntity
  8
RAHM2
100
AcDbTrace
 10
-45.7842880236263
 20
58.59274688081836
 30
0.0
 11
-45.50383858542403
 21
58.59274688081836
 31
0.0
 12
-45.7842880236263
 22
58.45252216171712
 32
0.0
 13
-45.50383858542403
 23
58.45252216171712
 33
0.0
  0
SOLID
  5
C5C
330
ACA
100
AcDbEntity
  8
RAHM2
100
AcDbTrace
 10
-45.92451274272753
 20
58.45252216171712
 30
0.0
 11
-45.64406330452526
 21
58.45252216171712
 31
0.0
 12
-45.92451274272753
 22
58.31229744261609
 32
0.0
 13
-45.64406330452526
 23
58.31229744261609
 33
0.0
  0
SOLID
  5
C5D
330
ACA
100
AcDbEntity
  8
RAHM2
100
AcDbTrace
 10
-45.22338914722176
 20
58.59274688081836
 30
0.0
 11
-44.66249027081741
 21
58.59274688081836
 31
0.0
 12
-45.22338914722176
 22
58.45252216171712
 32
0.0
 13
-44.66249027081741
 23
58.45252216171712
 33
0.0
  0
SOLID
  5
C5E
330
ACA
100
AcDbEntity
  8
RAHM2
100
AcDbTrace
 10
-45.22338914722176
 20
58.45252216171712
 30
0.0
 11
-44.80271498991846
 21
58.45252216171712
 31
0.0
 12
-45.22338914722176
 22
58.31229744261609
 32
0.0
 13
-44.80271498991846
 23
58.31229744261609
 33
0.0
  0
SOLID
  5
C5F
330
ACA
100
AcDbEntity
  8
RAHM2
100
AcDbTrace
 10
-47.18653521463764
 20
58.31229744261609
 30
0.0
 11
-46.6256363382331
 21
58.31229744261609
 31
0.0
 12
-47.18653521463764
 22
58.17207272351486
 32
0.0
 13
-46.6256363382331
 23
58.17207272351486
 33
0.0
  0
SOLID
  5
C60
330
ACA
100
AcDbEntity
  8
RAHM2
100
AcDbTrace
 10
-46.06473746182857
 20
58.31229744261609
 30
0.0
 11
-45.7842880236263
 21
58.31229744261609
 31
0.0
 12
-46.06473746182857
 22
58.17207272351486
 32
0.0
 13
-45.7842880236263
 23
58.17207272351486
 33
0.0
  0
SOLID
  5
C61
330
ACA
100
AcDbEntity
  8
RAHM2
100
AcDbTrace
 10
-45.36361386632299
 20
58.31229744261609
 30
0.0
 11
-44.80271498991846
 21
58.31229744261609
 31
0.0
 12
-45.36361386632299
 22
58.17207272351486
 32
0.0
 13
-44.80271498991846
 23
58.17207272351486
 33
0.0
  0
SOLID
  5
C62
330
ACA
100
AcDbEntity
  8
RAHM2
100
AcDbTrace
 10
-47.18653521463764
 20
58.17207272351486
 30
0.0
 11
-46.48541161913188
 21
58.17207272351486
 31
0.0
 12
-47.18653521463764
 22
58.03184800441382
 32
0.0
 13
-46.48541161913188
 23
58.03184800441382
 33
0.0
  0
SOLID
  5
C63
330
ACA
100
AcDbEntity
  8
RAHM2
100
AcDbTrace
 10
-46.20496218092961
 20
58.17207272351486
 30
0.0
 11
-45.92451274272753
 21
58.17207272351486
 31
0.0
 12
-46.20496218092961
 22
58.03184800441382
 32
0.0
 13
-45.92451274272753
 23
58.03184800441382
 33
0.0
  0
SOLID
  5
C64
330
ACA
100
AcDbEntity
  8
RAHM2
100
AcDbTrace
 10
-45.36361386632299
 20
58.17207272351486
 30
0.0
 11
-44.80271498991846
 21
58.17207272351486
 31
0.0
 12
-45.36361386632299
 22
58.03184800441382
 32
0.0
 13
-44.80271498991846
 23
58.03184800441382
 33
0.0
  0
SOLID
  5
C65
330
ACA
100
AcDbEntity
  8
RAHM2
100
AcDbTrace
 10
-47.18653521463764
 20
58.03184800441382
 30
0.0
 11
-46.06473746182857
 21
58.03184800441382
 31
0.0
 12
-47.18653521463764
 22
57.89162328531259
 32
0.0
 13
-46.06473746182857
 23
57.89162328531259
 33
0.0
  0
SOLID
  5
C66
330
ACA
100
AcDbEntity
  8
RAHM2
100
AcDbTrace
 10
-47.04631049553642
 20
57.89162328531259
 30
0.0
 11
-46.34518690003083
 21
57.89162328531259
 31
0.0
 12
-47.04631049553642
 22
57.75139856621155
 32
0.0
 13
-46.34518690003083
 23
57.75139856621155
 33
0.0
  0
SOLID
  5
C67
330
ACA
100
AcDbEntity
  8
RAHM2
100
AcDbTrace
 10
-45.36361386632299
 20
58.03184800441382
 30
0.0
 11
-44.52226555171619
 21
58.03184800441382
 31
0.0
 12
-45.36361386632299
 22
57.89162328531259
 32
0.0
 13
-44.52226555171619
 23
57.89162328531259
 33
0.0
  0
SOLID
  5
C68
330
ACA
100
AcDbEntity
  8
RAHM2
100
AcDbTrace
 10
-45.36361386632299
 20
57.89162328531259
 30
0.0
 11
-44.80271498991846
 21
57.89162328531259
 31
0.0
 12
-45.36361386632299
 22
57.75139856621155
 32
0.0
 13
-44.80271498991846
 23
57.75139856621155
 33
0.0
  0
SOLID
  5
C69
330
ACA
100
AcDbEntity
  8
RAHM2
100
AcDbTrace
 10
-46.90608577643537
 20
57.75139856621155
 30
0.0
 11
-46.48541161913188
 21
57.75139856621155
 31
0.0
 12
-46.90608577643537
 22
57.61117384711032
 32
0.0
 13
-46.48541161913188
 23
57.61117384711032
 33
0.0
  0
SOLID
  5
C6A
330
ACA
100
AcDbEntity
  8
RAHM2
100
AcDbTrace
 10
-45.36361386632299
 20
57.75139856621155
 30
0.0
 11
-45.08316442812072
 21
57.75139856621155
 31
0.0
 12
-45.36361386632299
 22
57.61117384711032
 32
0.0
 13
-45.08316442812072
 23
57.61117384711032
 33
0.0
  0
SOLID
  5
C6B
330
ACA
100
AcDbEntity
  8
RAHM2
100
AcDbTrace
 10
-42.55911948430049
 20
60.83634238643631
 30
0.0
 11
-42.41889476519945
 21
60.83634238643631
 31
0.0
 12
-42.55911948430049
 22
60.69611766733508
 32
0.0
 13
-42.41889476519945
 23
60.69611766733508
 33
0.0
  0
SOLID
  5
C6C
330
ACA
100
AcDbEntity
  8
RAHM2
100
AcDbTrace
 10
-40.87642285508707
 20
60.83634238643631
 30
0.0
 11
-40.5959734168848
 21
60.83634238643631
 31
0.0
 12
-40.87642285508707
 22
60.69611766733508
 32
0.0
 13
-40.5959734168848
 23
60.69611766733508
 33
0.0
  0
SOLID
  5
C6D
330
ACA
100
AcDbEntity
  8
RAHM2
100
AcDbTrace
 10
-42.9797936416038
 20
60.69611766733508
 30
0.0
 11
-42.41889476519945
 21
60.69611766733508
 31
0.0
 12
-42.9797936416038
 22
60.55589294823405
 32
0.0
 13
-42.41889476519945
 23
60.55589294823405
 33
0.0
  0
SOLID
  5
C6E
330
ACA
100
AcDbEntity
  8
RAHM2
100
AcDbTrace
 10
-41.01664757418811
 20
60.69611766733508
 30
0.0
 11
-40.5959734168848
 21
60.69611766733508
 31
0.0
 12
-41.01664757418811
 22
60.55589294823405
 32
0.0
 13
-40.5959734168848
 23
60.55589294823405
 33
0.0
  0
SOLID
  5
C6F
330
ACA
100
AcDbEntity
  8
RAHM2
100
AcDbTrace
 10
-43.40046779890729
 20
60.55589294823405
 30
0.0
 11
-42.41889476519945
 21
60.55589294823405
 31
0.0
 12
-43.40046779890729
 22
60.41566822913281
 32
0.0
 13
-42.41889476519945
 23
60.41566822913281
 33
0.0
  0
SOLID
  5
C70
330
ACA
100
AcDbEntity
  8
RAHM2
100
AcDbTrace
 10
-41.01664757418811
 20
60.55589294823405
 30
0.0
 11
-40.45574869778358
 21
60.55589294823405
 31
0.0
 12
-41.01664757418811
 22
60.41566822913281
 32
0.0
 13
-40.45574869778358
 23
60.41566822913281
 33
0.0
  0
SOLID
  5
C71
330
ACA
100
AcDbEntity
  8
RAHM2
100
AcDbTrace
 10
-43.12001836070503
 20
60.41566822913281
 30
0.0
 11
-42.41889476519945
 21
60.41566822913281
 31
0.0
 12
-43.12001836070503
 22
60.27544351003178
 32
0.0
 13
-42.41889476519945
 23
60.27544351003178
 33
0.0
  0
SOLID
  5
C72
330
ACA
100
AcDbEntity
  8
RAHM2
100
AcDbTrace
 10
-41.01664757418811
 20
60.41566822913281
 30
0.0
 11
-40.45574869778358
 21
60.41566822913281
 31
0.0
 12
-41.01664757418811
 22
60.27544351003178
 32
0.0
 13
-40.45574869778358
 23
60.27544351003178
 33
0.0
  0
SOLID
  5
C73
330
ACA
100
AcDbEntity
  8
RAHM2
100
AcDbTrace
 10
-42.83956892250276
 20
60.27544351003178
 30
0.0
 11
-42.27867004609822
 21
60.27544351003178
 31
0.0
 12
-42.83956892250276
 22
59.99499407182951
 32
0.0
 13
-42.27867004609822
 23
59.99499407182951
 33
0.0
  0
SOLID
  5
C74
330
ACA
100
AcDbEntity
  8
RAHM2
100
AcDbTrace
 10
-41.01664757418811
 20
60.27544351003178
 30
0.0
 11
-40.45574869778358
 21
60.27544351003178
 31
0.0
 12
-41.01664757418811
 22
60.13521879093055
 32
0.0
 13
-40.45574869778358
 23
60.13521879093055
 33
0.0
  0
SOLID
  5
C75
330
ACA
100
AcDbEntity
  8
RAHM2
100
AcDbTrace
 10
-41.01664757418811
 20
60.13521879093055
 30
0.0
 11
-40.5959734168848
 21
60.13521879093055
 31
0.0
 12
-41.01664757418811
 22
59.99499407182951
 32
0.0
 13
-40.5959734168848
 23
59.99499407182951
 33
0.0
  0
SOLID
  5
C76
330
ACA
100
AcDbEntity
  8
RAHM2
100
AcDbTrace
 10
-42.83956892250276
 20
59.99499407182951
 30
0.0
 11
-42.27867004609822
 21
59.99499407182951
 31
0.0
 12
-42.83956892250276
 22
59.71454463362724
 32
0.0
 13
-42.27867004609822
 23
59.71454463362724
 33
0.0
  0
SOLID
  5
C77
330
ACA
100
AcDbEntity
  8
RAHM2
100
AcDbTrace
 10
-41.01664757418811
 20
59.99499407182951
 30
0.0
 11
-40.73619813598584
 21
59.99499407182951
 31
0.0
 12
-41.01664757418811
 22
59.85476935272828
 32
0.0
 13
-40.73619813598584
 23
59.85476935272828
 33
0.0
  0
SOLID
  5
C78
330
ACA
100
AcDbEntity
  8
RAHM2
100
AcDbTrace
 10
-41.15687229328933
 20
59.85476935272828
 30
0.0
 11
-40.73619813598584
 21
59.85476935272828
 31
0.0
 12
-41.15687229328933
 22
59.71454463362724
 32
0.0
 13
-40.73619813598584
 23
59.71454463362724
 33
0.0
  0
SOLID
  5
C79
330
ACA
100
AcDbEntity
  8
RAHM2
100
AcDbTrace
 10
-42.83956892250276
 20
59.71454463362724
 30
0.0
 11
-42.27867004609822
 21
59.71454463362724
 31
0.0
 12
-42.83956892250276
 22
59.5743199145262
 32
0.0
 13
-42.27867004609822
 23
59.5743199145262
 33
0.0
  0
SOLID
  5
C7A
330
ACA
100
AcDbEntity
  8
RAHM2
100
AcDbTrace
 10
-41.15687229328933
 20
59.71454463362724
 30
0.0
 11
-40.87642285508707
 21
59.71454463362724
 31
0.0
 12
-41.15687229328933
 22
59.5743199145262
 32
0.0
 13
-40.87642285508707
 23
59.5743199145262
 33
0.0
  0
SOLID
  5
C7B
330
ACA
100
AcDbEntity
  8
RAHM2
100
AcDbTrace
 10
-42.83956892250276
 20
59.5743199145262
 30
0.0
 11
-42.27867004609822
 21
59.5743199145262
 31
0.0
 12
-42.83956892250276
 22
59.15364575722271
 32
0.0
 13
-42.27867004609822
 23
59.15364575722271
 33
0.0
  0
SOLID
  5
C7C
330
ACA
100
AcDbEntity
  8
RAHM2
100
AcDbTrace
 10
-42.69934420340153
 20
59.15364575722271
 30
0.0
 11
-42.13844532699718
 21
59.15364575722271
 31
0.0
 12
-42.69934420340153
 22
58.31229744261609
 32
0.0
 13
-42.13844532699718
 23
58.31229744261609
 33
0.0
  0
SOLID
  5
C7D
330
ACA
100
AcDbEntity
  8
RAHM2
100
AcDbTrace
 10
-41.29709701239038
 20
59.5743199145262
 30
0.0
 11
-41.01664757418811
 21
59.5743199145262
 31
0.0
 12
-41.29709701239038
 22
59.43409519542497
 32
0.0
 13
-41.01664757418811
 23
59.43409519542497
 33
0.0
  0
SOLID
  5
C7E
330
ACA
100
AcDbEntity
  8
RAHM2
100
AcDbTrace
 10
-41.43732173149142
 20
59.43409519542497
 30
0.0
 11
-41.01664757418811
 21
59.43409519542497
 31
0.0
 12
-41.43732173149142
 22
59.29387047632393
 32
0.0
 13
-41.01664757418811
 23
59.29387047632393
 33
0.0
  0
SOLID
  5
C7F
330
ACA
100
AcDbEntity
  8
RAHM2
100
AcDbTrace
 10
-41.43732173149142
 20
59.29387047632393
 30
0.0
 11
-41.15687229328933
 21
59.29387047632393
 31
0.0
 12
-41.43732173149142
 22
59.15364575722271
 32
0.0
 13
-41.15687229328933
 23
59.15364575722271
 33
0.0
  0
SOLID
  5
C80
330
ACA
100
AcDbEntity
  8
RAHM2
100
AcDbTrace
 10
-41.57754645059265
 20
59.15364575722271
 30
0.0
 11
-41.29709701239038
 21
59.15364575722271
 31
0.0
 12
-41.57754645059265
 22
59.01342103812166
 32
0.0
 13
-41.29709701239038
 23
59.01342103812166
 33
0.0
  0
SOLID
  5
C81
330
ACA
100
AcDbEntity
  8
RAHM2
100
AcDbTrace
 10
-41.71777116969368
 20
59.01342103812166
 30
0.0
 11
-41.43732173149142
 21
59.01342103812166
 31
0.0
 12
-41.71777116969368
 22
58.73297159991939
 32
0.0
 13
-41.43732173149142
 23
58.73297159991939
 33
0.0
  0
SOLID
  5
C82
330
ACA
100
AcDbEntity
  8
RAHM2
100
AcDbTrace
 10
-41.85799588879492
 20
58.73297159991939
 30
0.0
 11
-41.57754645059265
 21
58.73297159991939
 31
0.0
 12
-41.85799588879492
 22
58.59274688081836
 32
0.0
 13
-41.57754645059265
 23
58.59274688081836
 33
0.0
  0
SOLID
  5
C83
330
ACA
100
AcDbEntity
  8
RAHM2
100
AcDbTrace
 10
-41.99822060789595
 20
58.59274688081836
 30
0.0
 11
-41.71777116969368
 21
58.59274688081836
 31
0.0
 12
-41.99822060789595
 22
58.45252216171712
 32
0.0
 13
-41.71777116969368
 23
58.45252216171712
 33
0.0
  0
SOLID
  5
C84
330
ACA
100
AcDbEntity
  8
RAHM2
100
AcDbTrace
 10
-41.99822060789595
 20
58.45252216171712
 30
0.0
 11
-41.85799588879492
 21
58.45252216171712
 31
0.0
 12
-41.99822060789595
 22
58.31229744261609
 32
0.0
 13
-41.85799588879492
 23
58.31229744261609
 33
0.0
  0
SOLID
  5
C85
330
ACA
100
AcDbEntity
  8
RAHM2
100
AcDbTrace
 10
-42.69934420340153
 20
58.31229744261609
 30
0.0
 11
-41.85799588879492
 21
58.31229744261609
 31
0.0
 12
-42.69934420340153
 22
58.17207272351486
 32
0.0
 13
-41.85799588879492
 23
58.17207272351486
 33
0.0
  0
SOLID
  5
C86
330
ACA
100
AcDbEntity
  8
RAHM2
100
AcDbTrace
 10
-42.69934420340153
 20
58.17207272351486
 30
0.0
 11
-41.99822060789595
 21
58.17207272351486
 31
0.0
 12
-42.69934420340153
 22
58.03184800441382
 32
0.0
 13
-41.99822060789595
 23
58.03184800441382
 33
0.0
  0
SOLID
  5
C87
330
ACA
100
AcDbEntity
  8
RAHM2
100
AcDbTrace
 10
-42.69934420340153
 20
58.03184800441382
 30
0.0
 11
-42.13844532699718
 21
58.03184800441382
 31
0.0
 12
-42.69934420340153
 22
57.75139856621155
 32
0.0
 13
-42.13844532699718
 23
57.75139856621155
 33
0.0
  0
SOLID
  5
C88
330
ACA
100
AcDbEntity
  8
RAHM2
100
AcDbTrace
 10
-42.69934420340153
 20
57.75139856621155
 30
0.0
 11
-42.27867004609822
 21
57.75139856621155
 31
0.0
 12
-42.69934420340153
 22
57.61117384711032
 32
0.0
 13
-42.27867004609822
 23
57.61117384711032
 33
0.0
  0
SOLID
  5
C89
330
ACA
100
AcDbEntity
  8
RAHM2
100
AcDbTrace
 10
-38.07192847306458
 20
60.83634238643631
 30
0.0
 11
-37.23058015845777
 21
60.83634238643631
 31
0.0
 12
-38.07192847306458
 22
60.69611766733508
 32
0.0
 13
-37.23058015845777
 23
60.69611766733508
 33
0.0
  0
SOLID
  5
C8A
330
ACA
100
AcDbEntity
  8
RAHM2
100
AcDbTrace
 10
-38.63282734946911
 20
60.69611766733508
 30
0.0
 11
-37.23058015845777
 21
60.69611766733508
 31
0.0
 12
-38.63282734946911
 22
60.55589294823405
 32
0.0
 13
-37.23058015845777
 23
60.55589294823405
 33
0.0
  0
SOLID
  5
C8B
330
ACA
100
AcDbEntity
  8
RAHM2
100
AcDbTrace
 10
-38.91327678767119
 20
60.55589294823405
 30
0.0
 11
-38.35237791126684
 21
60.55589294823405
 31
0.0
 12
-38.91327678767119
 22
60.41566822913281
 32
0.0
 13
-38.35237791126684
 23
60.41566822913281
 33
0.0
  0
SOLID
  5
C8C
330
ACA
100
AcDbEntity
  8
RAHM2
100
AcDbTrace
 10
-39.19372622587346
 20
60.41566822913281
 30
0.0
 11
-38.77305206857015
 21
60.41566822913281
 31
0.0
 12
-39.19372622587346
 22
60.27544351003178
 32
0.0
 13
-38.77305206857015
 23
60.27544351003178
 33
0.0
  0
SOLID
  5
C8D
330
ACA
100
AcDbEntity
  8
RAHM2
100
AcDbTrace
 10
-37.79147903486231
 20
60.55589294823405
 30
0.0
 11
-37.23058015845777
 21
60.55589294823405
 31
0.0
 12
-37.79147903486231
 22
60.27544351003178
 32
0.0
 13
-37.23058015845777
 23
60.27544351003178
 33
0.0
  0
SOLID
  5
C8E
330
ACA
100
AcDbEntity
  8
RAHM2
100
AcDbTrace
 10
-39.33395094497469
 20
60.27544351003178
 30
0.0
 11
-39.05350150677242
 21
60.27544351003178
 31
0.0
 12
-39.33395094497469
 22
60.13521879093055
 32
0.0
 13
-39.05350150677242
 23
60.13521879093055
 33
0.0
  0
SOLID
  5
C8F
330
ACA
100
AcDbEntity
  8
RAHM2
100
AcDbTrace
 10
-39.47417566407573
 20
60.13521879093055
 30
0.0
 11
-39.05350150677242
 21
60.13521879093055
 31
0.0
 12
-39.47417566407573
 22
59.99499407182951
 32
0.0
 13
-39.05350150677242
 23
59.99499407182951
 33
0.0
  0
SOLID
  5
C90
330
ACA
100
AcDbEntity
  8
RAHM2
100
AcDbTrace
 10
-37.79147903486231
 20
60.27544351003178
 30
0.0
 11
-37.370804877559
 21
60.27544351003178
 31
0.0
 12
-37.79147903486231
 22
60.13521879093055
 32
0.0
 13
-37.370804877559
 23
60.13521879093055
 33
0.0
  0
SOLID
  5
C91
330
ACA
100
AcDbEntity
  8
RAHM2
100
AcDbTrace
 10
-37.93170375396335
 20
60.13521879093055
 30
0.0
 11
-37.370804877559
 21
60.13521879093055
 31
0.0
 12
-37.93170375396335
 22
59.99499407182951
 32
0.0
 13
-37.370804877559
 23
59.99499407182951
 33
0.0
  0
SOLID
  5
C92
330
ACA
100
AcDbEntity
  8
RAHM2
100
AcDbTrace
 10
-39.61440038317696
 20
59.99499407182951
 30
0.0
 11
-39.19372622587346
 21
59.99499407182951
 31
0.0
 12
-39.61440038317696
 22
59.85476935272828
 32
0.0
 13
-39.19372622587346
 23
59.85476935272828
 33
0.0
  0
SOLID
  5
C93
330
ACA
100
AcDbEntity
  8
RAHM2
100
AcDbTrace
 10
-39.754625102278
 20
59.85476935272828
 30
0.0
 11
-39.33395094497469
 21
59.85476935272828
 31
0.0
 12
-39.754625102278
 22
59.71454463362724
 32
0.0
 13
-39.33395094497469
 23
59.71454463362724
 33
0.0
  0
SOLID
  5
C94
330
ACA
100
AcDbEntity
  8
RAHM2
100
AcDbTrace
 10
-37.93170375396335
 20
59.99499407182951
 30
0.0
 11
-37.370804877559
 21
59.99499407182951
 31
0.0
 12
-37.93170375396335
 22
59.71454463362724
 32
0.0
 13
-37.370804877559
 23
59.71454463362724
 33
0.0
  0
SOLID
  5
C95
330
ACA
100
AcDbEntity
  8
RAHM2
100
AcDbTrace
 10
-39.754625102278
 20
59.71454463362724
 30
0.0
 11
-39.33395094497469
 21
59.71454463362724
 31
0.0
 12
-39.754625102278
 22
59.5743199145262
 32
0.0
 13
-39.33395094497469
 23
59.5743199145262
 33
0.0
  0
SOLID
  5
C96
330
ACA
100
AcDbEntity
  8
RAHM2
100
AcDbTrace
 10
-39.89484982137923
 20
59.5743199145262
 30
0.0
 11
-39.33395094497469
 21
59.5743199145262
 31
0.0
 12
-39.89484982137923
 22
59.43409519542497
 32
0.0
 13
-39.33395094497469
 23
59.43409519542497
 33
0.0
  0
SOLID
  5
C97
330
ACA
100
AcDbEntity
  8
RAHM2
100
AcDbTrace
 10
-38.07192847306458
 20
59.71454463362724
 30
0.0
 11
-37.51102959666004
 21
59.71454463362724
 31
0.0
 12
-38.07192847306458
 22
59.43409519542497
 32
0.0
 13
-37.51102959666004
 23
59.43409519542497
 33
0.0
  0
SOLID
  5
C98
330
ACA
100
AcDbEntity
  8
RAHM2
100
AcDbTrace
 10
-39.89484982137923
 20
59.43409519542497
 30
0.0
 11
-39.47417566407573
 21
59.43409519542497
 31
0.0
 12
-39.89484982137923
 22
59.29387047632393
 32
0.0
 13
-39.47417566407573
 23
59.29387047632393
 33
0.0
  0
SOLID
  5
C99
330
ACA
100
AcDbEntity
  8
RAHM2
100
AcDbTrace
 10
-40.03507454048026
 20
59.29387047632393
 30
0.0
 11
-39.47417566407573
 21
59.29387047632393
 31
0.0
 12
-40.03507454048026
 22
59.15364575722271
 32
0.0
 13
-39.47417566407573
 23
59.15364575722271
 33
0.0
  0
SOLID
  5
C9A
330
ACA
100
AcDbEntity
  8
RAHM2
100
AcDbTrace
 10
-38.21215319216562
 20
59.43409519542497
 30
0.0
 11
-37.51102959666004
 21
59.43409519542497
 31
0.0
 12
-38.21215319216562
 22
59.15364575722271
 32
0.0
 13
-37.51102959666004
 23
59.15364575722271
 33
0.0
  0
SOLID
  5
C9B
330
ACA
100
AcDbEntity
  8
RAHM2
100
AcDbTrace
 10
-40.03507454048026
 20
59.15364575722271
 30
0.0
 11
-39.47417566407573
 21
59.15364575722271
 31
0.0
 12
-40.03507454048026
 22
59.01342103812166
 32
0.0
 13
-39.47417566407573
 23
59.01342103812166
 33
0.0
  0
SOLID
  5
C9C
330
ACA
100
AcDbEntity
  8
RAHM2
100
AcDbTrace
 10
-38.35237791126684
 20
59.15364575722271
 30
0.0
 11
-37.51102959666004
 21
59.15364575722271
 31
0.0
 12
-38.35237791126684
 22
59.01342103812166
 32
0.0
 13
-37.51102959666004
 23
59.01342103812166
 33
0.0
  0
SOLID
  5
C9D
330
ACA
100
AcDbEntity
  8
RAHM2
100
AcDbTrace
 10
-40.03507454048026
 20
59.01342103812166
 30
0.0
 11
-39.47417566407573
 21
59.01342103812166
 31
0.0
 12
-40.03507454048026
 22
58.73297159991939
 32
0.0
 13
-39.47417566407573
 23
58.73297159991939
 33
0.0
  0
SOLID
  5
C9E
330
ACA
100
AcDbEntity
  8
RAHM2
100
AcDbTrace
 10
-40.03507454048026
 20
58.73297159991939
 30
0.0
 11
-39.61440038317696
 21
58.73297159991939
 31
0.0
 12
-40.03507454048026
 22
58.59274688081836
 32
0.0
 13
-39.61440038317696
 23
58.59274688081836
 33
0.0
  0
SOLID
  5
C9F
330
ACA
100
AcDbEntity
  8
RAHM2
100
AcDbTrace
 10
-38.35237791126684
 20
59.01342103812166
 30
0.0
 11
-38.21215319216562
 21
59.01342103812166
 31
0.0
 12
-38.35237791126684
 22
58.87319631902044
 32
0.0
 13
-38.21215319216562
 23
58.87319631902044
 33
0.0
  0
SOLID
  5
CA0
330
ACA
100
AcDbEntity
  8
RAHM2
100
AcDbTrace
 10
-38.49260263036788
 20
58.87319631902044
 30
0.0
 11
-38.35237791126684
 21
58.87319631902044
 31
0.0
 12
-38.49260263036788
 22
58.73297159991939
 32
0.0
 13
-38.35237791126684
 23
58.73297159991939
 33
0.0
  0
SOLID
  5
CA1
330
ACA
100
AcDbEntity
  8
RAHM2
100
AcDbTrace
 10
-38.21215319216562
 20
59.01342103812166
 30
0.0
 11
-37.65125431576108
 21
59.01342103812166
 31
0.0
 12
-38.21215319216562
 22
58.59274688081836
 32
0.0
 13
-37.65125431576108
 23
58.59274688081836
 33
0.0
  0
SOLID
  5
CA2
330
ACA
100
AcDbEntity
  8
RAHM2
100
AcDbTrace
 10
-40.03507454048026
 20
58.59274688081836
 30
0.0
 11
-39.61440038317696
 21
58.59274688081836
 31
0.0
 12
-40.03507454048026
 22
58.45252216171712
 32
0.0
 13
-39.61440038317696
 23
58.45252216171712
 33
0.0
  0
SOLID
  5
CA3
330
ACA
100
AcDbEntity
  8
RAHM2
100
AcDbTrace
 10
-40.17529925958131
 20
58.45252216171712
 30
0.0
 11
-39.61440038317696
 21
58.45252216171712
 31
0.0
 12
-40.17529925958131
 22
58.31229744261609
 32
0.0
 13
-39.61440038317696
 23
58.31229744261609
 33
0.0
  0
SOLID
  5
CA4
330
ACA
100
AcDbEntity
  8
RAHM2
100
AcDbTrace
 10
-38.63282734946911
 20
58.59274688081836
 30
0.0
 11
-38.49260263036788
 21
58.59274688081836
 31
0.0
 12
-38.63282734946911
 22
58.45252216171712
 32
0.0
 13
-38.49260263036788
 23
58.45252216171712
 33
0.0
  0
SOLID
  5
CA5
330
ACA
100
AcDbEntity
  8
RAHM2
100
AcDbTrace
 10
-38.91327678767119
 20
58.45252216171712
 30
0.0
 11
-38.63282734946911
 21
58.45252216171712
 31
0.0
 12
-38.91327678767119
 22
58.31229744261609
 32
0.0
 13
-38.63282734946911
 23
58.31229744261609
 33
0.0
  0
SOLID
  5
CA6
330
ACA
100
AcDbEntity
  8
RAHM2
100
AcDbTrace
 10
-38.21215319216562
 20
58.59274688081836
 30
0.0
 11
-37.65125431576108
 21
58.59274688081836
 31
0.0
 12
-38.21215319216562
 22
58.45252216171712
 32
0.0
 13
-37.65125431576108
 23
58.45252216171712
 33
0.0
  0
SOLID
  5
CA7
330
ACA
100
AcDbEntity
  8
RAHM2
100
AcDbTrace
 10
-38.21215319216562
 20
58.45252216171712
 30
0.0
 11
-37.79147903486231
 21
58.45252216171712
 31
0.0
 12
-38.21215319216562
 22
58.31229744261609
 32
0.0
 13
-37.79147903486231
 23
58.31229744261609
 33
0.0
  0
SOLID
  5
CA8
330
ACA
100
AcDbEntity
  8
RAHM2
100
AcDbTrace
 10
-40.17529925958131
 20
58.31229744261609
 30
0.0
 11
-39.61440038317696
 21
58.31229744261609
 31
0.0
 12
-40.17529925958131
 22
58.17207272351486
 32
0.0
 13
-39.61440038317696
 23
58.17207272351486
 33
0.0
  0
SOLID
  5
CA9
330
ACA
100
AcDbEntity
  8
RAHM2
100
AcDbTrace
 10
-39.05350150677242
 20
58.31229744261609
 30
0.0
 11
-38.77305206857015
 21
58.31229744261609
 31
0.0
 12
-39.05350150677242
 22
58.17207272351486
 32
0.0
 13
-38.77305206857015
 23
58.17207272351486
 33
0.0
  0
SOLID
  5
CAA
330
ACA
100
AcDbEntity
  8
RAHM2
100
AcDbTrace
 10
-38.35237791126684
 20
58.31229744261609
 30
0.0
 11
-37.79147903486231
 21
58.31229744261609
 31
0.0
 12
-38.35237791126684
 22
58.17207272351486
 32
0.0
 13
-37.79147903486231
 23
58.17207272351486
 33
0.0
  0
SOLID
  5
CAB
330
ACA
100
AcDbEntity
  8
RAHM2
100
AcDbTrace
 10
-40.17529925958131
 20
58.17207272351486
 30
0.0
 11
-39.47417566407573
 21
58.17207272351486
 31
0.0
 12
-40.17529925958131
 22
58.03184800441382
 32
0.0
 13
-39.47417566407573
 23
58.03184800441382
 33
0.0
  0
SOLID
  5
CAC
330
ACA
100
AcDbEntity
  8
RAHM2
100
AcDbTrace
 10
-39.19372622587346
 20
58.17207272351486
 30
0.0
 11
-38.91327678767119
 21
58.17207272351486
 31
0.0
 12
-39.19372622587346
 22
58.03184800441382
 32
0.0
 13
-38.91327678767119
 23
58.03184800441382
 33
0.0
  0
SOLID
  5
CAD
330
ACA
100
AcDbEntity
  8
RAHM2
100
AcDbTrace
 10
-38.35237791126684
 20
58.17207272351486
 30
0.0
 11
-37.79147903486231
 21
58.17207272351486
 31
0.0
 12
-38.35237791126684
 22
58.03184800441382
 32
0.0
 13
-37.79147903486231
 23
58.03184800441382
 33
0.0
  0
SOLID
  5
CAE
330
ACA
100
AcDbEntity
  8
RAHM2
100
AcDbTrace
 10
-37.65125431576108
 20
58.17207272351486
 30
0.0
 11
-37.23058015845777
 21
58.17207272351486
 31
0.0
 12
-37.65125431576108
 22
58.03184800441382
 32
0.0
 13
-37.23058015845777
 23
58.03184800441382
 33
0.0
  0
SOLID
  5
CAF
330
ACA
100
AcDbEntity
  8
RAHM2
100
AcDbTrace
 10
-40.03507454048026
 20
58.03184800441382
 30
0.0
 11
-39.05350150677242
 21
58.03184800441382
 31
0.0
 12
-40.03507454048026
 22
57.89162328531259
 32
0.0
 13
-39.05350150677242
 23
57.89162328531259
 33
0.0
  0
SOLID
  5
CB0
330
ACA
100
AcDbEntity
  8
RAHM2
100
AcDbTrace
 10
-40.03507454048026
 20
57.89162328531259
 30
0.0
 11
-39.19372622587346
 21
57.89162328531259
 31
0.0
 12
-40.03507454048026
 22
57.75139856621155
 32
0.0
 13
-39.19372622587346
 23
57.75139856621155
 33
0.0
  0
SOLID
  5
CB1
330
ACA
100
AcDbEntity
  8
RAHM2
100
AcDbTrace
 10
-38.35237791126684
 20
58.03184800441382
 30
0.0
 11
-37.51102959666004
 21
58.03184800441382
 31
0.0
 12
-38.35237791126684
 22
57.89162328531259
 32
0.0
 13
-37.51102959666004
 23
57.89162328531259
 33
0.0
  0
SOLID
  5
CB2
330
ACA
100
AcDbEntity
  8
RAHM2
100
AcDbTrace
 10
-38.35237791126684
 20
57.89162328531259
 30
0.0
 11
-37.79147903486231
 21
57.89162328531259
 31
0.0
 12
-38.35237791126684
 22
57.75139856621155
 32
0.0
 13
-37.79147903486231
 23
57.75139856621155
 33
0.0
  0
SOLID
  5
CB3
330
ACA
100
AcDbEntity
  8
RAHM2
100
AcDbTrace
 10
-39.89484982137923
 20
57.75139856621155
 30
0.0
 11
-39.47417566407573
 21
57.75139856621155
 31
0.0
 12
-39.89484982137923
 22
57.61117384711032
 32
0.0
 13
-39.47417566407573
 23
57.61117384711032
 33
0.0
  0
SOLID
  5
CB4
330
ACA
100
AcDbEntity
  8
RAHM2
100
AcDbTrace
 10
-38.35237791126684
 20
57.75139856621155
 30
0.0
 11
-37.93170375396335
 21
57.75139856621155
 31
0.0
 12
-38.35237791126684
 22
57.61117384711032
 32
0.0
 13
-37.93170375396335
 23
57.61117384711032
 33
0.0
  0
SOLID
  5
CB5
330
ACA
100
AcDbEntity
  8
RAHM2
100
AcDbTrace
 10
-35.26743409104208
 20
60.83634238643631
 30
0.0
 11
-35.12720937194085
 21
60.83634238643631
 31
0.0
 12
-35.26743409104208
 22
60.69611766733508
 32
0.0
 13
-35.12720937194085
 23
60.69611766733508
 33
0.0
  0
SOLID
  5
CB6
330
ACA
100
AcDbEntity
  8
RAHM2
100
AcDbTrace
 10
-33.72496218092969
 20
60.83634238643631
 30
0.0
 11
-33.44451274272743
 21
60.83634238643631
 31
0.0
 12
-33.72496218092969
 22
60.69611766733508
 32
0.0
 13
-33.44451274272743
 23
60.69611766733508
 33
0.0
  0
SOLID
  5
CB7
330
ACA
100
AcDbEntity
  8
RAHM2
100
AcDbTrace
 10
-35.68810824834539
 20
60.69611766733508
 30
0.0
 11
-35.12720937194085
 21
60.69611766733508
 31
0.0
 12
-35.68810824834539
 22
60.55589294823405
 32
0.0
 13
-35.12720937194085
 23
60.55589294823405
 33
0.0
  0
SOLID
  5
CB8
330
ACA
100
AcDbEntity
  8
RAHM2
100
AcDbTrace
 10
-34.14563633823301
 20
60.69611766733508
 30
0.0
 11
-33.30428802362638
 21
60.69611766733508
 31
0.0
 12
-34.14563633823301
 22
60.55589294823405
 32
0.0
 13
-33.30428802362638
 23
60.55589294823405
 33
0.0
  0
SOLID
  5
CB9
330
ACA
100
AcDbEntity
  8
RAHM2
100
AcDbTrace
 10
-36.10878240564888
 20
60.55589294823405
 30
0.0
 11
-35.12720937194085
 21
60.55589294823405
 31
0.0
 12
-36.10878240564888
 22
60.41566822913281
 32
0.0
 13
-35.12720937194085
 23
60.41566822913281
 33
0.0
  0
SOLID
  5
CBA
330
ACA
100
AcDbEntity
  8
RAHM2
100
AcDbTrace
 10
-34.28586105733423
 20
60.55589294823405
 30
0.0
 11
-33.30428802362638
 21
60.55589294823405
 31
0.0
 12
-34.28586105733423
 22
60.41566822913281
 32
0.0
 13
-33.30428802362638
 23
60.41566822913281
 33
0.0
  0
SOLID
  5
CBB
330
ACA
100
AcDbEntity
  8
RAHM2
100
AcDbTrace
 10
-36.38923184385097
 20
60.41566822913281
 30
0.0
 11
-36.10878240564888
 21
60.41566822913281
 31
0.0
 12
-36.38923184385097
 22
60.27544351003178
 32
0.0
 13
-36.10878240564888
 23
60.27544351003178
 33
0.0
  0
SOLID
  5
CBC
330
ACA
100
AcDbEntity
  8
RAHM2
100
AcDbTrace
 10
-35.82833296744662
 20
60.41566822913281
 30
0.0
 11
-35.12720937194085
 21
60.41566822913281
 31
0.0
 12
-35.82833296744662
 22
60.27544351003178
 32
0.0
 13
-35.12720937194085
 23
60.27544351003178
 33
0.0
  0
SOLID
  5
CBD
330
ACA
100
AcDbEntity
  8
RAHM2
100
AcDbTrace
 10
-34.5663104955365
 20
60.41566822913281
 30
0.0
 11
-34.14563633823301
 21
60.41566822913281
 31
0.0
 12
-34.5663104955365
 22
60.27544351003178
 32
0.0
 13
-34.14563633823301
 23
60.27544351003178
 33
0.0
  0
SOLID
  5
CBE
330
ACA
100
AcDbEntity
  8
RAHM2
100
AcDbTrace
 10
-33.86518690003074
 20
60.41566822913281
 30
0.0
 11
-33.30428802362638
 21
60.41566822913281
 31
0.0
 12
-33.86518690003074
 22
60.27544351003178
 32
0.0
 13
-33.30428802362638
 23
60.27544351003178
 33
0.0
  0
SOLID
  5
CBF
330
ACA
100
AcDbEntity
  8
RAHM2
100
AcDbTrace
 10
-35.82833296744662
 20
60.27544351003178
 30
0.0
 11
-35.12720937194085
 21
60.27544351003178
 31
0.0
 12
-35.82833296744662
 22
60.13521879093055
 32
0.0
 13
-35.12720937194085
 23
60.13521879093055
 33
0.0
  0
SOLID
  5
CC0
330
ACA
100
AcDbEntity
  8
RAHM2
100
AcDbTrace
 10
-34.70653521463754
 20
60.27544351003178
 30
0.0
 11
-34.42608577643528
 21
60.27544351003178
 31
0.0
 12
-34.70653521463754
 22
60.13521879093055
 32
0.0
 13
-34.42608577643528
 23
60.13521879093055
 33
0.0
  0
SOLID
  5
CC1
330
ACA
100
AcDbEntity
  8
RAHM2
100
AcDbTrace
 10
-33.86518690003074
 20
60.27544351003178
 30
0.0
 11
-33.30428802362638
 21
60.27544351003178
 31
0.0
 12
-33.86518690003074
 22
60.13521879093055
 32
0.0
 13
-33.30428802362638
 23
60.13521879093055
 33
0.0
  0
SOLID
  5
CC2
330
ACA
100
AcDbEntity
  8
RAHM2
100
AcDbTrace
 10
-35.82833296744662
 20
60.13521879093055
 30
0.0
 11
-35.26743409104208
 21
60.13521879093055
 31
0.0
 12
-35.82833296744662
 22
59.85476935272828
 32
0.0
 13
-35.26743409104208
 23
59.85476935272828
 33
0.0
  0
SOLID
  5
CC3
330
ACA
100
AcDbEntity
  8
RAHM2
100
AcDbTrace
 10
-34.84675993373877
 20
60.13521879093055
 30
0.0
 11
-34.5663104955365
 21
60.13521879093055
 31
0.0
 12
-34.84675993373877
 22
59.99499407182951
 32
0.0
 13
-34.5663104955365
 23
59.99499407182951
 33
0.0
  0
SOLID
  5
CC4
330
ACA
100
AcDbEntity
  8
RAHM2
100
AcDbTrace
 10
-34.98698465283981
 20
59.99499407182951
 30
0.0
 11
-34.70653521463754
 21
59.99499407182951
 31
0.0
 12
-34.98698465283981
 22
59.85476935272828
 32
0.0
 13
-34.70653521463754
 23
59.85476935272828
 33
0.0
  0
SOLID
  5
CC5
330
ACA
100
AcDbEntity
  8
RAHM2
100
AcDbTrace
 10
-33.86518690003074
 20
60.13521879093055
 30
0.0
 11
-33.30428802362638
 21
60.13521879093055
 31
0.0
 12
-33.86518690003074
 22
59.85476935272828
 32
0.0
 13
-33.30428802362638
 23
59.85476935272828
 33
0.0
  0
SOLID
  5
CC6
330
ACA
100
AcDbEntity
  8
RAHM2
100
AcDbTrace
 10
-35.82833296744662
 20
59.85476935272828
 30
0.0
 11
-35.26743409104208
 21
59.85476935272828
 31
0.0
 12
-35.82833296744662
 22
59.71454463362724
 32
0.0
 13
-35.26743409104208
 23
59.71454463362724
 33
0.0
  0
SOLID
  5
CC7
330
ACA
100
AcDbEntity
  8
RAHM2
100
AcDbTrace
 10
-34.98698465283981
 20
59.85476935272828
 30
0.0
 11
-34.84675993373877
 21
59.85476935272828
 31
0.0
 12
-34.98698465283981
 22
59.71454463362724
 32
0.0
 13
-34.84675993373877
 23
59.71454463362724
 33
0.0
  0
SOLID
  5
CC8
330
ACA
100
AcDbEntity
  8
RAHM2
100
AcDbTrace
 10
-33.86518690003074
 20
59.85476935272828
 30
0.0
 11
-33.30428802362638
 21
59.85476935272828
 31
0.0
 12
-33.86518690003074
 22
59.71454463362724
 32
0.0
 13
-33.30428802362638
 23
59.71454463362724
 33
0.0
  0
SOLID
  5
CC9
330
ACA
100
AcDbEntity
  8
RAHM2
100
AcDbTrace
 10
-35.82833296744662
 20
59.71454463362724
 30
0.0
 11
-35.26743409104208
 21
59.71454463362724
 31
0.0
 12
-35.82833296744662
 22
59.5743199145262
 32
0.0
 13
-35.26743409104208
 23
59.5743199145262
 33
0.0
  0
SOLID
  5
CCA
330
ACA
100
AcDbEntity
  8
RAHM2
100
AcDbTrace
 10
-35.96855768654766
 20
59.5743199145262
 30
0.0
 11
-35.40765881014312
 21
59.5743199145262
 31
0.0
 12
-35.96855768654766
 22
59.43409519542497
 32
0.0
 13
-35.40765881014312
 23
59.43409519542497
 33
0.0
  0
SOLID
  5
CCB
330
ACA
100
AcDbEntity
  8
RAHM2
100
AcDbTrace
 10
-35.12720937194085
 20
59.71454463362724
 30
0.0
 11
-34.98698465283981
 21
59.71454463362724
 31
0.0
 12
-35.12720937194085
 22
59.5743199145262
 32
0.0
 13
-34.98698465283981
 23
59.5743199145262
 33
0.0
  0
SOLID
  5
CCC
330
ACA
100
AcDbEntity
  8
RAHM2
100
AcDbTrace
 10
-35.26743409104208
 20
59.5743199145262
 30
0.0
 11
-35.12720937194085
 21
59.5743199145262
 31
0.0
 12
-35.26743409104208
 22
59.43409519542497
 32
0.0
 13
-35.12720937194085
 23
59.43409519542497
 33
0.0
  0
SOLID
  5
CCD
330
ACA
100
AcDbEntity
  8
RAHM2
100
AcDbTrace
 10
-33.86518690003074
 20
59.71454463362724
 30
0.0
 11
-33.44451274272743
 21
59.71454463362724
 31
0.0
 12
-33.86518690003074
 22
59.43409519542497
 32
0.0
 13
-33.44451274272743
 23
59.43409519542497
 33
0.0
  0
SOLID
  5
CCE
330
ACA
100
AcDbEntity
  8
RAHM2
100
AcDbTrace
 10
-35.96855768654766
 20
59.43409519542497
 30
0.0
 11
-35.12720937194085
 21
59.43409519542497
 31
0.0
 12
-35.96855768654766
 22
59.29387047632393
 32
0.0
 13
-35.12720937194085
 23
59.29387047632393
 33
0.0
  0
SOLID
  5
CCF
330
ACA
100
AcDbEntity
  8
RAHM2
100
AcDbTrace
 10
-35.96855768654766
 20
59.29387047632393
 30
0.0
 11
-35.26743409104208
 21
59.29387047632393
 31
0.0
 12
-35.96855768654766
 22
59.01342103812166
 32
0.0
 13
-35.26743409104208
 23
59.01342103812166
 33
0.0
  0
SOLID
  5
CD0
330
ACA
100
AcDbEntity
  8
RAHM2
100
AcDbTrace
 10
-34.00541161913196
 20
59.43409519542497
 30
0.0
 11
-33.44451274272743
 21
59.43409519542497
 31
0.0
 12
-34.00541161913196
 22
59.15364575722271
 32
0.0
 13
-33.44451274272743
 23
59.15364575722271
 33
0.0
  0
SOLID
  5
CD1
330
ACA
100
AcDbEntity
  8
RAHM2
100
AcDbTrace
 10
-34.00541161913196
 20
59.15364575722271
 30
0.0
 11
-33.58473746182865
 21
59.15364575722271
 31
0.0
 12
-34.00541161913196
 22
59.01342103812166
 32
0.0
 13
-33.58473746182865
 23
59.01342103812166
 33
0.0
  0
SOLID
  5
CD2
330
ACA
100
AcDbEntity
  8
RAHM2
100
AcDbTrace
 10
-36.10878240564888
 20
59.01342103812166
 30
0.0
 11
-35.40765881014312
 21
59.01342103812166
 31
0.0
 12
-36.10878240564888
 22
58.73297159991939
 32
0.0
 13
-35.40765881014312
 23
58.73297159991939
 33
0.0
  0
SOLID
  5
CD3
330
ACA
100
AcDbEntity
  8
RAHM2
100
AcDbTrace
 10
-36.10878240564888
 20
58.73297159991939
 30
0.0
 11
-35.54788352924435
 21
58.73297159991939
 31
0.0
 12
-36.10878240564888
 22
58.45252216171712
 32
0.0
 13
-35.54788352924435
 23
58.45252216171712
 33
0.0
  0
SOLID
  5
CD4
330
ACA
100
AcDbEntity
  8
RAHM2
100
AcDbTrace
 10
-34.00541161913196
 20
59.01342103812166
 30
0.0
 11
-33.58473746182865
 21
59.01342103812166
 31
0.0
 12
-34.00541161913196
 22
58.87319631902044
 32
0.0
 13
-33.58473746182865
 23
58.87319631902044
 33
0.0
  0
SOLID
  5
CD5
330
ACA
100
AcDbEntity
  8
RAHM2
100
AcDbTrace
 10
-34.14563633823301
 20
58.87319631902044
 30
0.0
 11
-33.58473746182865
 21
58.87319631902044
 31
0.0
 12
-34.14563633823301
 22
58.59274688081836
 32
0.0
 13
-33.58473746182865
 23
58.59274688081836
 33
0.0
  0
SOLID
  5
CD6
330
ACA
100
AcDbEntity
  8
RAHM2
100
AcDbTrace
 10
-34.14563633823301
 20
58.59274688081836
 30
0.0
 11
-33.72496218092969
 21
58.59274688081836
 31
0.0
 12
-34.14563633823301
 22
58.45252216171712
 32
0.0
 13
-33.72496218092969
 23
58.45252216171712
 33
0.0
  0
SOLID
  5
CD7
330
ACA
100
AcDbEntity
  8
RAHM2
100
AcDbTrace
 10
-36.10878240564888
 20
58.45252216171712
 30
0.0
 11
-35.54788352924435
 21
58.45252216171712
 31
0.0
 12
-36.10878240564888
 22
58.31229744261609
 32
0.0
 13
-35.54788352924435
 23
58.31229744261609
 33
0.0
  0
SOLID
  5
CD8
330
ACA
100
AcDbEntity
  8
RAHM2
100
AcDbTrace
 10
-34.28586105733423
 20
58.45252216171712
 30
0.0
 11
-33.72496218092969
 21
58.45252216171712
 31
0.0
 12
-34.28586105733423
 22
58.31229744261609
 32
0.0
 13
-33.72496218092969
 23
58.31229744261609
 33
0.0
  0
SOLID
  5
CD9
330
ACA
100
AcDbEntity
  8
RAHM2
100
AcDbTrace
 10
-36.24900712474993
 20
58.31229744261609
 30
0.0
 11
-35.68810824834539
 21
58.31229744261609
 31
0.0
 12
-36.24900712474993
 22
58.17207272351486
 32
0.0
 13
-35.68810824834539
 23
58.17207272351486
 33
0.0
  0
SOLID
  5
CDA
330
ACA
100
AcDbEntity
  8
RAHM2
100
AcDbTrace
 10
-34.28586105733423
 20
58.31229744261609
 30
0.0
 11
-33.72496218092969
 21
58.31229744261609
 31
0.0
 12
-34.28586105733423
 22
58.17207272351486
 32
0.0
 13
-33.72496218092969
 23
58.17207272351486
 33
0.0
  0
SOLID
  5
CDB
330
ACA
100
AcDbEntity
  8
RAHM2
100
AcDbTrace
 10
-33.30428802362638
 20
58.31229744261609
 30
0.0
 11
-33.16406330452516
 21
58.31229744261609
 31
0.0
 12
-33.30428802362638
 22
58.17207272351486
 32
0.0
 13
-33.16406330452516
 23
58.17207272351486
 33
0.0
  0
SOLID
  5
CDC
330
ACA
100
AcDbEntity
  8
RAHM2
100
AcDbTrace
 10
-36.24900712474993
 20
58.17207272351486
 30
0.0
 11
-35.68810824834539
 21
58.17207272351486
 31
0.0
 12
-36.24900712474993
 22
58.03184800441382
 32
0.0
 13
-35.68810824834539
 23
58.03184800441382
 33
0.0
  0
SOLID
  5
CDD
330
ACA
100
AcDbEntity
  8
RAHM2
100
AcDbTrace
 10
-34.28586105733423
 20
58.17207272351486
 30
0.0
 11
-33.72496218092969
 21
58.17207272351486
 31
0.0
 12
-34.28586105733423
 22
58.03184800441382
 32
0.0
 13
-33.72496218092969
 23
58.03184800441382
 33
0.0
  0
SOLID
  5
CDE
330
ACA
100
AcDbEntity
  8
RAHM2
100
AcDbTrace
 10
-33.58473746182865
 20
58.17207272351486
 30
0.0
 11
-33.16406330452516
 21
58.17207272351486
 31
0.0
 12
-33.58473746182865
 22
58.03184800441382
 32
0.0
 13
-33.16406330452516
 23
58.03184800441382
 33
0.0
  0
SOLID
  5
CDF
330
ACA
100
AcDbEntity
  8
RAHM2
100
AcDbTrace
 10
-36.24900712474993
 20
58.03184800441382
 30
0.0
 11
-35.68810824834539
 21
58.03184800441382
 31
0.0
 12
-36.24900712474993
 22
57.75139856621155
 32
0.0
 13
-35.68810824834539
 23
57.75139856621155
 33
0.0
  0
SOLID
  5
CE0
330
ACA
100
AcDbEntity
  8
RAHM2
100
AcDbTrace
 10
-34.28586105733423
 20
58.03184800441382
 30
0.0
 11
-33.44451274272743
 21
58.03184800441382
 31
0.0
 12
-34.28586105733423
 22
57.89162328531259
 32
0.0
 13
-33.44451274272743
 23
57.89162328531259
 33
0.0
  0
SOLID
  5
CE1
330
ACA
100
AcDbEntity
  8
RAHM2
100
AcDbTrace
 10
-34.42608577643528
 20
57.89162328531259
 30
0.0
 11
-33.72496218092969
 21
57.89162328531259
 31
0.0
 12
-34.42608577643528
 22
57.75139856621155
 32
0.0
 13
-33.72496218092969
 23
57.75139856621155
 33
0.0
  0
SOLID
  5
CE2
330
ACA
100
AcDbEntity
  8
RAHM2
100
AcDbTrace
 10
-36.38923184385097
 20
57.75139856621155
 30
0.0
 11
-35.82833296744662
 21
57.75139856621155
 31
0.0
 12
-36.38923184385097
 22
57.61117384711032
 32
0.0
 13
-35.82833296744662
 23
57.61117384711032
 33
0.0
  0
SOLID
  5
CE3
330
ACA
100
AcDbEntity
  8
RAHM2
100
AcDbTrace
 10
-34.28586105733423
 20
57.75139856621155
 30
0.0
 11
-34.00541161913196
 21
57.75139856621155
 31
0.0
 12
-34.28586105733423
 22
57.61117384711032
 32
0.0
 13
-34.00541161913196
 23
57.61117384711032
 33
0.0
  0
SOLID
  5
CE4
330
ACA
100
AcDbEntity
  8
RAHM2
100
AcDbTrace
 10
-30.92046779890719
 20
61.81791542014416
 30
0.0
 11
-30.78024307980615
 21
61.81791542014416
 31
0.0
 12
-30.92046779890719
 22
61.67769070104293
 32
0.0
 13
-30.78024307980615
 23
61.67769070104293
 33
0.0
  0
SOLID
  5
CE5
330
ACA
100
AcDbEntity
  8
RAHM2
100
AcDbTrace
 10
-31.06069251800842
 20
61.67769070104293
 30
0.0
 11
-30.78024307980615
 21
61.67769070104293
 31
0.0
 12
-31.06069251800842
 22
61.53746598194189
 32
0.0
 13
-30.78024307980615
 23
61.53746598194189
 33
0.0
  0
SOLID
  5
CE6
330
ACA
100
AcDbEntity
  8
RAHM2
100
AcDbTrace
 10
-31.20091723710946
 20
61.53746598194189
 30
0.0
 11
-30.78024307980615
 21
61.53746598194189
 31
0.0
 12
-31.20091723710946
 22
61.39724126284066
 32
0.0
 13
-30.78024307980615
 23
61.39724126284066
 33
0.0
  0
SOLID
  5
CE7
330
ACA
100
AcDbEntity
  8
RAHM2
100
AcDbTrace
 10
-31.3411419562105
 20
61.39724126284066
 30
0.0
 11
-30.78024307980615
 21
61.39724126284066
 31
0.0
 12
-31.3411419562105
 22
61.1167918246384
 32
0.0
 13
-30.78024307980615
 23
61.1167918246384
 33
0.0
  0
SOLID
  5
CE8
330
ACA
100
AcDbEntity
  8
RAHM2
100
AcDbTrace
 10
-31.3411419562105
 20
61.1167918246384
 30
0.0
 11
-30.92046779890719
 21
61.1167918246384
 31
0.0
 12
-31.3411419562105
 22
60.97656710553735
 32
0.0
 13
-30.92046779890719
 23
60.97656710553735
 33
0.0
  0
SOLID
  5
CE9
330
ACA
100
AcDbEntity
  8
RAHM2
100
AcDbTrace
 10
-31.48136667531173
 20
60.97656710553735
 30
0.0
 11
-30.92046779890719
 21
60.97656710553735
 31
0.0
 12
-31.48136667531173
 22
60.83634238643631
 32
0.0
 13
-30.92046779890719
 23
60.83634238643631
 33
0.0
  0
SOLID
  5
CEA
330
ACA
100
AcDbEntity
  8
RAHM2
100
AcDbTrace
 10
-32.04226555171627
 20
60.83634238643631
 30
0.0
 11
-30.07911948430039
 21
60.83634238643631
 31
0.0
 12
-32.04226555171627
 22
60.69611766733508
 32
0.0
 13
-30.07911948430039
 23
60.69611766733508
 33
0.0
  0
SOLID
  5
CEB
330
ACA
100
AcDbEntity
  8
RAHM2
100
AcDbTrace
 10
-32.04226555171627
 20
60.69611766733508
 30
0.0
 11
-30.07911948430039
 21
60.69611766733508
 31
0.0
 12
-32.04226555171627
 22
60.55589294823405
 32
0.0
 13
-30.07911948430039
 23
60.55589294823405
 33
0.0
  0
SOLID
  5
CEC
330
ACA
100
AcDbEntity
  8
RAHM2
100
AcDbTrace
 10
-31.62159139441277
 20
60.55589294823405
 30
0.0
 11
-31.06069251800842
 21
60.55589294823405
 31
0.0
 12
-31.62159139441277
 22
59.99499407182951
 32
0.0
 13
-31.06069251800842
 23
59.99499407182951
 33
0.0
  0
SOLID
  5
CED
330
ACA
100
AcDbEntity
  8
RAHM2
100
AcDbTrace
 10
-31.761816113514
 20
59.99499407182951
 30
0.0
 11
-31.20091723710946
 21
59.99499407182951
 31
0.0
 12
-31.761816113514
 22
59.43409519542497
 32
0.0
 13
-31.20091723710946
 23
59.43409519542497
 33
0.0
  0
SOLID
  5
CEE
330
ACA
100
AcDbEntity
  8
RAHM2
100
AcDbTrace
 10
-31.761816113514
 20
59.43409519542497
 30
0.0
 11
-31.3411419562105
 21
59.43409519542497
 31
0.0
 12
-31.761816113514
 22
59.15364575722271
 32
0.0
 13
-31.3411419562105
 23
59.15364575722271
 33
0.0
  0
SOLID
  5
CEF
330
ACA
100
AcDbEntity
  8
RAHM2
100
AcDbTrace
 10
-31.90204083261504
 20
59.15364575722271
 30
0.0
 11
-31.3411419562105
 21
59.15364575722271
 31
0.0
 12
-31.90204083261504
 22
58.73297159991939
 32
0.0
 13
-31.3411419562105
 23
58.73297159991939
 33
0.0
  0
SOLID
  5
CF0
330
ACA
100
AcDbEntity
  8
RAHM2
100
AcDbTrace
 10
-31.90204083261504
 20
58.73297159991939
 30
0.0
 11
-31.48136667531173
 21
58.73297159991939
 31
0.0
 12
-31.90204083261504
 22
58.59274688081836
 32
0.0
 13
-31.48136667531173
 23
58.59274688081836
 33
0.0
  0
SOLID
  5
CF1
330
ACA
100
AcDbEntity
  8
RAHM2
100
AcDbTrace
 10
-31.90204083261504
 20
58.59274688081836
 30
0.0
 11
-31.48136667531173
 21
58.59274688081836
 31
0.0
 12
-31.90204083261504
 22
58.45252216171712
 32
0.0
 13
-31.48136667531173
 23
58.45252216171712
 33
0.0
  0
SOLID
  5
CF2
330
ACA
100
AcDbEntity
  8
RAHM2
100
AcDbTrace
 10
-32.04226555171627
 20
58.45252216171712
 30
0.0
 11
-31.48136667531173
 21
58.45252216171712
 31
0.0
 12
-32.04226555171627
 22
58.31229744261609
 32
0.0
 13
-31.48136667531173
 23
58.31229744261609
 33
0.0
  0
SOLID
  5
CF3
330
ACA
100
AcDbEntity
  8
RAHM2
100
AcDbTrace
 10
-32.04226555171627
 20
58.31229744261609
 30
0.0
 11
-31.3411419562105
 21
58.31229744261609
 31
0.0
 12
-32.04226555171627
 22
58.17207272351486
 32
0.0
 13
-31.3411419562105
 23
58.17207272351486
 33
0.0
  0
SOLID
  5
CF4
330
ACA
100
AcDbEntity
  8
RAHM2
100
AcDbTrace
 10
-32.04226555171627
 20
58.17207272351486
 30
0.0
 11
-31.3411419562105
 21
58.17207272351486
 31
0.0
 12
-32.04226555171627
 22
58.03184800441382
 32
0.0
 13
-31.3411419562105
 23
58.03184800441382
 33
0.0
  0
SOLID
  5
CF5
330
ACA
100
AcDbEntity
  8
RAHM2
100
AcDbTrace
 10
-30.64001836070493
 20
58.17207272351486
 30
0.0
 11
-30.49979364160388
 21
58.17207272351486
 31
0.0
 12
-30.64001836070493
 22
58.03184800441382
 32
0.0
 13
-30.49979364160388
 23
58.03184800441382
 33
0.0
  0
SOLID
  5
CF6
330
ACA
100
AcDbEntity
  8
RAHM2
100
AcDbTrace
 10
-32.04226555171627
 20
58.03184800441382
 30
0.0
 11
-30.49979364160388
 21
58.03184800441382
 31
0.0
 12
-32.04226555171627
 22
57.89162328531259
 32
0.0
 13
-30.49979364160388
 23
57.89162328531259
 33
0.0
  0
SOLID
  5
CF7
330
ACA
100
AcDbEntity
  8
RAHM2
100
AcDbTrace
 10
-32.04226555171627
 20
57.89162328531259
 30
0.0
 11
-30.64001836070493
 21
57.89162328531259
 31
0.0
 12
-32.04226555171627
 22
57.75139856621155
 32
0.0
 13
-30.64001836070493
 23
57.75139856621155
 33
0.0
  0
SOLID
  5
CF8
330
ACA
100
AcDbEntity
  8
RAHM2
100
AcDbTrace
 10
-31.90204083261504
 20
57.75139856621155
 30
0.0
 11
-31.20091723710946
 21
57.75139856621155
 31
0.0
 12
-31.90204083261504
 22
57.61117384711032
 32
0.0
 13
-31.20091723710946
 23
57.61117384711032
 33
0.0
  0
ATTDEF
  5
CF9
330
ACA
100
AcDbEntity
  8
RAHM3
100
AcDbText
 10
-100.7395275842899
 20
38.58583043117892
 30
0.0
 40
3.0
  1
-
 72
     1
 11
-99.68952758428997
 21
38.58583043117892
 31
0.0
100
AcDbAttributeDefinition
  3
(genmsg"gendwg"83)
  2
GEN-TITLE-SCA{5.42}
 70
     0
1001
GENIUS_GENBLLY_14
1000
BOR3
  0
TEXT
  5
CFA
330
ACA
100
AcDbEntity
  8
0N
100
AcDbText
 10
-180.0433753026868
 20
97.16012098886922
 30
0.0
 40
3.5
  1
Zeichnungen größer darstellenden Maßstabes bzw. Einzelteilzeichnungen
 41
0.9
100
AcDbText
  0
TEXT
  5
CFB
330
ACA
100
AcDbEntity
  8
0N
100
AcDbText
 10
-180.0433753026868
 20
91.14471067045299
 30
0.0
 40
3.5
  1
haben vorrangige Gültigkeit
 41
0.9
100
AcDbText
  0
LINE
  5
CFC
330
ACA
100
AcDbEntity
  8
KOPF
 62
    12
100
AcDbLine
 10
0.0
 20
103.4999999999999
 30
0.0
 11
-182.0
 21
103.4999999999999
 31
0.0
  0
LINE
  5
CFD
330
ACA
100
AcDbEntity
  8
KOPF
100
AcDbLine
 10
0.0
 20
103.4999999999999
 30
0.0
 11
-182.0
 21
103.4999999999999
 31
0.0
  0
ENDBLK
  5
CFE
330
ACA
100
AcDbEntity
  8
0
100
AcDbBlockEnd
  0
BLOCK
  5
D00
330
CFF
100
AcDbEntity
  8
0
100
AcDbBlockBegin
  2
GENZOOIJNBVB3
 70
     0
 10
0.0
 20
0.0
 30
0.0
  3
GENZOOIJNBVB3
  1

  0
CIRCLE
  5
D01
330
CFF
100
AcDbEntity
  8
WHITE
  6
Continuous
100
AcDbCircle
 10
6.453833318453121
 20
0.0
 30
0.0
 40
2.277733996314847
  0
CIRCLE
  5
D02
330
CFF
100
AcDbEntity
  8
WHITE
  6
Continuous
100
AcDbCircle
 10
6.453833318453121
 20
0.0
 30
0.0
 40
1.576892766679509
  0
ARC
  5
D03
330
CFF
100
AcDbEntity
  8
WHITE
100
AcDbCircle
 10
-3.124894526218326
 20
-2.333109784966268
 30
0.0
 40
4.905835633809448
100
AcDbArc
 50
172.3057540000012
 51
179.7112909999983
  0
LINE
  5
D04
330
CFF
100
AcDbEntity
  8
WHITE
100
AcDbLine
 10
-7.98656033324346
 20
-1.676283536096804
 30
0.0
 11
-4.921112416005485
 21
-1.676283536096804
 31
0.0
  0
ARC
  5
D05
330
CFF
100
AcDbEntity
  8
WHITE
100
AcDbCircle
 10
-9.782843421354186
 20
-2.333113859861612
 30
0.0
 40
4.905898794685424
100
AcDbArc
 50
0.2887579999957042
 51
7.694197000004674
  0
LINE
  5
D06
330
CFF
100
AcDbEntity
  8
WHITE
100
AcDbLine
 10
-4.877005750097168
 20
-2.308389433087711
 30
0.0
 11
-4.176158408119135
 21
-2.308389433087711
 31
0.0
  0
ARC
  5
D07
330
CFF
100
AcDbEntity
  8
WHITE
100
AcDbCircle
 10
-9.782843421354186
 20
-2.333113859861612
 30
0.0
 40
5.606740024320764
100
AcDbArc
 50
0.2526630000050822
 51
53.57637100000324
  0
ARC
  5
D08
330
CFF
100
AcDbEntity
  8
WHITE
100
AcDbCircle
 10
-3.124894526218326
 20
-2.333109784966268
 30
0.0
 40
5.606699275368519
100
AcDbArc
 50
126.4231449999945
 51
179.7473799999977
  0
LINE
  5
D09
330
CFF
100
AcDbEntity
  8
WHITE
100
AcDbLine
 10
-8.731516378577907
 20
-2.308389433087711
 30
0.0
 11
-8.03066699915189
 21
-2.308389433087711
 31
0.0
  0
ARC
  5
D0A
330
CFF
100
AcDbEntity
  8
WHITE
  6
Continuous
100
AcDbCircle
 10
0.0
 20
0.0
 30
0.0
 40
1.576890729231897
100
AcDbArc
 50
31.05578300000499
 51
329.9999750000025
  0
LINE
  5
D0B
330
CFF
100
AcDbEntity
  8
WHITE
  6
Continuous
100
AcDbLine
 10
1.350868515823094
 20
0.8134754085312891
 30
0.0
 11
1.957885282917686
 21
1.163938809748742
 31
0.0
  0
ARC
  5
D0C
330
CFF
100
AcDbEntity
  8
WHITE
  6
Continuous
100
AcDbCircle
 10
0.0
 20
0.0
 30
0.0
 40
2.277731958867235
100
AcDbArc
 50
30.73095099999774
 51
329.9999720000071
  0
LINE
  5
D0D
330
CFF
100
AcDbEntity
  8
WHITE
  6
Continuous
100
AcDbLine
 10
1.972573242753924
 20
-1.138865979433802
 30
0.0
 11
1.365627786325603
 21
-0.7884453646161802
 31
0.0
  0
ARC
  5
D0E
330
CFF
100
AcDbEntity
  8
WHITE
100
AcDbCircle
 10
-9.782843421354186
 20
-2.333113859861612
 30
0.0
 40
4.905898794685424
100
AcDbArc
 50
16.0658920000019
 51
47.26783700000162
  0
LINE
  5
D0F
330
CFF
100
AcDbEntity
  8
WHITE
100
AcDbLine
 10
-5.06854823756521
 20
-0.9754423064612467
 30
0.0
 11
-7.839126549131606
 21
-0.9754423064612467
 31
0.0
  0
ARC
  5
D10
330
CFF
100
AcDbEntity
  8
WHITE
100
AcDbCircle
 10
-3.124894526218326
 20
-2.333109784966268
 30
0.0
 40
4.905851933390343
100
AcDbArc
 50
132.7316659999998
 51
163.9339569999975
  0
HATCH
  5
D11
330
CFF
100
AcDbEntity
  8
AM_8
100
AcDbHatch
 10
0.0
 20
0.0
 30
0.0
210
0.0
220
0.0
230
1.0
  2
_U
 70
     0
 71
     0
 91
        1
 92
        1
 93
        4
 72
     2
 10
0.0
 20
0.0
 40
2.277731958867238
 50
30.73096496929825
 51
329.9999720000063
 73
     1
 72
     1
 10
1.972573182835617
 20
-1.138866943414654
 11
1.365627086482618
 21
-0.788445960483216
 72
     2
 10
0.0
 20
-0.0000000000000142
 40
1.576890729231897
 50
30.0000249999977
 51
328.9442169999937
 73
     0
 72
     1
 10
1.350867814038679
 20
0.8134743517356355
 11
1.957884245333985
 21
1.163938210695889
 97
        0
 75
     0
 76
     0
 52
45.0
 41
0.09
 77
     1
 78
     2
 53
45.0
 43
-176.4571517690805
 44
-54.26157204673851
 45
-0.0636396103067893
 46
0.0636396103067893
 79
     0
 53
135.0
 43
-176.4571517690805
 44
-54.26157204673851
 45
-0.0636396103067893
 46
-0.0636396103067893
 79
     0
 98
        1
 10
-176.4571517690805
 20
-54.26157204673851
1001
GENIUS_GENODEF_13
1002
{
1000
HIER
1070
     0
1002
}
1002
{
1000
MANEDIT
1070
     0
1002
}
1002
{
1000
NOSEL
1070
     0
1002
}
1002
{
1000
BEHIND
1070
     0
1002
}
1002
{
1000
OTHER
1070
     0
1002
}
1002
{
1000
REACTOR
1002
}
1001
GENIUS_GENOBJ-N-HTC_13
1002
{
1000
OWNER
1000
GEN
1002
}
1001
GENIUS_GENHATCH_13
1002
{
1000
DATA
1040
45.0
1042
0.09
1000
_U
1070
     1
1011
-1.371550383403359
1021
1.131275704293642
1031
0.0
1002
}
1002
{
1000
UCS
1010
0.0
1020
0.0
1030
0.0
1010
1.0
1020
0.0
1030
0.0
1010
0.0
1020
1.0
1030
0.0
1002
}
  0
HATCH
  5
D12
330
CFF
100
AcDbEntity
  8
AM_8
100
AcDbHatch
 10
0.0
 20
0.0
 30
0.0
210
0.0
220
0.0
230
1.0
  2
_U
 70
     0
 71
     0
 91
        2
 92
        1
 93
        2
 72
     2
 10
6.453833318453121
 20
-0.0000000000000426
 40
2.277733996314838
 50
191.4591559026153
 51
535.1587630986702
 73
     1
 72
     2
 10
6.453833318453121
 20
-0.0000000000000426
 40
2.277733996314837
 50
175.1587630986701
 51
191.4591559026153
 73
     1
 97
        0
 92
       16
 93
        2
 72
     2
 10
6.453833318453121
 20
0.0
 40
1.576892766679508
 50
348.5408440973836
 51
544.8412369013289
 73
     0
 72
     2
 10
6.453833318453121
 20
0.0
 40
1.576892766679513
 50
184.8412369013289
 51
348.5408440973836
 73
     0
 97
        0
 75
     0
 76
     0
 52
45.0
 41
0.09
 77
     1
 78
     2
 53
45.0
 43
-176.4571517690805
 44
-54.26157204673851
 45
-0.0636396103067893
 46
0.0636396103067893
 79
     0
 53
135.0
 43
-176.4571517690805
 44
-54.26157204673851
 45
-0.0636396103067893
 46
-0.0636396103067893
 79
     0
 98
        1
 10
-176.4571517690805
 20
-54.26157204673851
1001
GENIUS_GENODEF_13
1002
{
1000
HIER
1070
     0
1002
}
1002
{
1000
MANEDIT
1070
     0
1002
}
1002
{
1000
NOSEL
1070
     0
1002
}
1002
{
1000
BEHIND
1070
     0
1002
}
1002
{
1000
OTHER
1070
     0
1002
}
1002
{
1000
REACTOR
1002
}
1001
GENIUS_GENOBJ-N-HTC_13
1002
{
1000
OWNER
1000
GEN
1002
}
1001
GENIUS_GENHATCH_13
1002
{
1000
DATA
1040
45.0
1042
0.09
1000
_U
1070
     1
1011
4.645613787216802
1021
0.1531511037996154
1031
0.0
1002
}
1002
{
1000
UCS
1010
0.0
1020
0.0
1030
0.0
1010
1.0
1020
0.0
1030
0.0
1010
0.0
1020
1.0
1030
0.0
1002
}
  0
HATCH
  5
D13
330
CFF
100
AcDbEntity
  8
AM_8
100
AcDbHatch
 10
0.0
 20
0.0
 30
0.0
210
0.0
220
0.0
230
1.0
  2
_U
 70
     0
 71
     0
 91
        2
 92
        1
 93
        2
 72
     2
 10
6.453833318453121
 20
0.0
 40
2.277733996314846
 50
191.4591559026164
 51
474.0889047300826
 73
     1
 72
     2
 10
6.453833318453121
 20
0.0
 40
2.27773399631485
 50
114.0889047300826
 51
191.4591559026164
 73
     1
 97
        0
 92
       16
 93
        2
 72
     2
 10
6.453833318453121
 20
0.0
 40
1.576892766679481
 50
348.5408440973834
 51
605.911095269917
 73
     0
 72
     2
 10
6.453833318453121
 20
0.0
 40
1.576892766679515
 50
245.9110952699171
 51
348.5408440973834
 73
     0
 97
        0
 75
     0
 76
     0
 52
45.0
 41
0.09
 77
     1
 78
     2
 53
45.0
 43
-176.4571517690805
 44
-54.26157204673851
 45
-0.0636396103067893
 46
0.0636396103067893
 79
     0
 53
135.0
 43
-176.4571517690805
 44
-54.26157204673851
 45
-0.0636396103067893
 46
-0.0636396103067893
 79
     0
 98
        1
 10
-176.4571517690805
 20
-54.26157204673851
1001
GENIUS_GENOBJ-N-HTC_13
1002
{
1000
OWNER
1000
GEN
1002
}
1001
GENIUS_GENODEF_13
1002
{
1000
HIER
1070
     0
1002
}
1002
{
1000
MANEDIT
1070
     0
1002
}
1002
{
1000
NOSEL
1070
     0
1002
}
1002
{
1000
BEHIND
1070
     0
1002
}
1002
{
1000
OTHER
1070
     0
1002
}
1002
{
1000
REACTOR
1002
}
1001
GENIUS_GENHATCH_13
1002
{
1000
DATA
1040
45.0
1042
0.09
1000
_U
1070
     1
1011
5.696521842210927
1021
1.693870951949719
1031
0.0
1002
}
1002
{
1000
UCS
1010
0.0
1020
0.0
1030
0.0
1010
1.0
1020
0.0
1030
0.0
1010
0.0
1020
1.0
1030
0.0
1002
}
  0
LINE
  5
D14
330
CFF
100
AcDbEntity
  8
0
100
AcDbLine
 10
-4.921113586658179
 20
-1.676283594022066
 30
0.0
 11
-4.921113586658179
 21
-1.676283594022066
 31
0.0
  0
LINE
  5
D15
330
CFF
100
AcDbEntity
  8
0
100
AcDbLine
 10
-4.176157912251255
 20
-2.30838933083865
 30
0.0
 11
-4.176157912251255
 21
-2.30838933083865
 31
0.0
  0
HATCH
  5
D16
330
CFF
100
AcDbEntity
  8
AM_8
100
AcDbHatch
 10
0.0
 20
0.0
 30
0.0
210
0.0
220
0.0
230
1.0
  2
_U
 70
     0
 71
     0
 91
        2
 92
        1
 93
        4
 72
     1
 10
1.957884529114039
 20
1.163937733343487
 11
1.350868515823094
 21
0.813475408531282
 72
     2
 10
-0.0000000103964339
 20
0.00000112835842
 40
1.576891302415311
 50
31.05576742335645
 51
329.9999396831432
 73
     1
 72
     1
 10
1.365627086482618
 20
-0.788445960483216
 11
1.972573182835617
 21
-1.138866943414654
 72
     2
 10
-0.0000000000001137
 20
-0.0000000000000426
 40
2.277731958867243
 50
30.0000279999924
 51
329.269049000002
 73
     0
 97
        0
 92
        1
 93
        2
 72
     1
 10
-6.45383755364196
 20
1.270433126186262
 11
-6.453760069863676
 21
1.270363214094082
 72
     1
 10
-6.453760069863619
 20
1.270363214094089
 11
-6.453837553641903
 21
1.270433126186269
 97
        0
 75
     0
 76
     0
 52
45.0
 41
0.09
 77
     1
 78
     2
 53
45.0
 43
-176.4571517690805
 44
-54.26157204673851
 45
-0.0636396103067893
 46
0.0636396103067893
 79
     0
 53
135.0
 43
-176.4571517690805
 44
-54.26157204673851
 45
-0.0636396103067893
 46
-0.0636396103067893
 79
     0
 98
        1
 10
-176.4571517690805
 20
-54.26157204673851
1001
GENIUS_GENOBJ-N-HTC_13
1002
{
1000
OWNER
1000
GEN
1002
}
1001
GENIUS_GENODEF_13
1002
{
1000
HIER
1070
     0
1002
}
1002
{
1000
MANEDIT
1070
     0
1002
}
1002
{
1000
NOSEL
1070
     0
1002
}
1002
{
1000
BEHIND
1070
     0
1002
}
1002
{
1000
OTHER
1070
     0
1002
}
1002
{
1000
REACTOR
1002
}
1001
GENIUS_GENHATCH_13
1002
{
1000
DATA
1040
45.0
1042
0.09
1000
_U
1070
     1
1011
-6.974571080846772
1021
0.9674675190033497
1031
0.0
1002
}
1002
{
1000
UCS
1010
0.0
1020
0.0
1030
0.0
1010
1.0
1020
0.0
1030
0.0
1010
0.0
1020
1.0
1030
0.0
1002
}
  0
HATCH
  5
D17
330
CFF
100
AcDbEntity
  8
AM_8
100
AcDbHatch
 10
0.0
 20
0.0
 30
0.0
210
0.0
220
0.0
230
1.0
  2
_U
 70
     0
 71
     0
 91
        2
 92
        1
 93
       43
 72
     1
 10
-7.98656033324346
 20
-1.676283536096804
 11
-4.921113586658208
 21
-1.676283594022088
 72
     2
 10
-9.782843421354186
 20
-2.333113859861668
 40
4.905898794685422
 50
352.305802999994
 51
359.7108172679506
 73
     0
 72
     1
 10
-4.877007113300464
 20
-2.308352957657263
 11
-4.87700575009714
 21
-2.308389433087711
 72
     1
 10
-4.877005750097168
 20
-2.308389433087711
 11
-4.176158408119135
 21
-2.308389433087711
 72
     1
 10
-4.176158408119135
 20
-2.308389433087711
 11
-4.185576899990763
 21
-2.03695700745618
 72
     1
 10
-4.185576899990792
 20
-2.03695700745618
 11
-4.205716101885343
 21
-1.757627489254723
 72
     2
 10
-9.782843421354186
 20
-2.333113859861526
 40
5.606740024320776
 50
5.891322448679513
 51
10.01155376516831
 73
     1
 72
     1
 10
-4.261478816228418
 20
-1.358400262139298
 11
-4.31760204673418
 21
-1.081446804506228
 72
     2
 10
-9.782843421354073
 20
-2.333113859862208
 40
5.606740024320759
 50
12.89959841733238
 51
13.74468133579606
 73
     1
 72
     1
 10
-4.336657277835911
 20
-1.000976408068737
 11
-4.473245849456418
 21
-0.5320843418310944
 72
     2
 10
-9.782843421354073
 20
-2.333113859862038
 40
5.606740024320804
 50
18.73707193417068
 51
19.34996135248807
 73
     1
 72
     1
 10
-4.49281475478017
 20
-0.4753920273082031
 11
-4.75298323684521
 21
0.1421632830709427
 72
     1
 10
-4.752983236845238
 20
0.1421632830709427
 11
-4.928712158876322
 21
0.4727627209870989
 72
     2
 10
-9.782843421354073
 20
-2.333113859861725
 40
5.60674002432075
 50
30.02958189183695
 51
33.33627185401258
 73
     1
 72
     1
 10
-5.09863848789223
 20
0.7480803634309297
 11
-5.138660865507631
 21
0.8080805130308448
 72
     2
 10
-9.782843421354186
 20
-2.333113859861583
 40
5.606740024320772
 50
34.07331412204379
 51
37.96952971603585
 73
     1
 72
     1
 10
-5.362836895098666
 20
1.116389873746868
 11
-5.55634551943541
 21
1.350939503676485
 72
     2
 10
-9.782843421354186
 20
-2.333113859861697
 40
5.606740024320796
 50
41.07723853974786
 51
41.7849099604546
 73
     1
 72
     1
 10
-5.602169205213385
 20
1.402859480355914
 11
-5.934529615065173
 21
1.74142275478141
 72
     1
 10
-5.93452961506523
 20
1.74142275478141
 11
-6.189526065605605
 21
1.970791817682474
 72
     2
 10
-9.782843421354073
 20
-2.333113859861668
 40
5.606740024320699
 50
50.14160045082939
 51
50.63287161007293
 73
     1
 72
     1
 10
-6.226560675684709
 20
2.001443410860957
 11
-6.453838469888012
 21
2.178343305150342
 72
     1
 10
-6.453838469888069
 20
2.178343305150349
 11
-6.552277665487594
 21
2.104020096057162
 72
     2
 10
-3.124894526218213
 20
-2.333109784966126
 40
5.606699275368516
 50
127.683662553009
 51
130.2598590092964
 73
     1
 72
     1
 10
-6.748253654859695
 20
1.945481734366836
 11
-7.021551729907741
 21
1.694187143316575
 72
     1
 10
-7.021551729907741
 20
1.694187143316582
 11
-7.227711389014615
 21
1.48814270011929
 72
     2
 10
-3.124894526218213
 20
-2.333109784965941
 40
5.606699275368423
 50
137.0350233487508
 51
137.6540480887846
 73
     1
 72
     1
 10
-7.268756021495846
 20
1.443593628379062
 11
-7.585074629266955
 21
1.064223023692179
 72
     2
 10
-3.12489452621628
 20
-2.333109784965259
 40
5.606699275369539
 50
142.7033646660853
 51
142.8216597002024
 73
     1
 72
     1
 10
-7.592079379868437
 20
1.055007132694214
 11
-7.860094419581059
 21
0.6690492271974336
 72
     2
 10
-3.124894526218099
 20
-2.333109784965898
 40
5.606699275368515
 50
147.6249377417097
 51
149.0670983871278
 73
     1
 72
     1
 10
-7.934152221209274
 20
0.5489237310755187
 11
-8.076625443805141
 21
0.2966121935388486
 72
     2
 10
-3.124894526218326
 20
-2.333109784966239
 40
5.606699275368516
 50
152.0285131198598
 51
154.3414573586053
 73
     1
 72
     1
 10
-8.178720365011372
 20
0.0946301425313294
 11
-8.330609067681052
 21
-0.2528326446147275
 72
     1
 10
-8.330609067681052
 20
-0.2528326446147275
 11
-8.457695598812108
 21
-0.6021246652841655
 72
     2
 10
-3.124894526218099
 20
-2.333109784965671
 40
5.606699275368532
 50
162.016978950881
 51
163.4414752505082
 73
     1
 72
     1
 10
-8.49907909006049
 20
-0.7352308664689815
 11
-8.630641129756838
 21
-1.276656782582229
 72
     1
 10
-8.630641129756895
 20
-1.276656782582222
 11
-8.703270018325412
 21
-1.770256666046812
 72
     2
 10
-3.124894526218213
 20
-2.333109784966126
 40
5.606699275368573
 50
174.238406294719
 51
176.3825340783078
 73
     1
 72
     1
 10
-8.720422683888841
 20
-1.979356479491457
 11
-8.731539305319074
 21
-2.308389643377473
 72
     1
 10
-8.731539305319074
 20
-2.308389643377466
 11
-8.030667878757896
 21
-2.308389763381427
 72
     2
 10
-3.124894526218326
 20
-2.333109784966353
 40
4.905835633809412
 50
180.2887090000028
 51
183.9914775000014
 73
     0
 72
     1
 10
-8.018830639676252
 20
-1.991623938484991
 11
-7.986560333243488
 21
-1.676283536096796
 97
        0
 92
       16
 93
       21
 72
     1
 10
-5.068549074126622
 20
-0.9754424005628834
 11
-7.839126549131577
 21
-0.9754423064612396
 72
     1
 10
-7.839126549131606
 20
-0.9754423064612467
 11
-7.783579277884854
 21
-0.7998499933333392
 72
     1
 10
-7.783579277884882
 20
-0.7998499933333392
 11
-7.728318635382947
 21
-0.6420501996990993
 72
     1
 10
-7.728318635382947
 20
-0.6420501996990993
 11
-7.613850443832689
 21
-0.3501208963448903
 72
     1
 10
-7.613850443832689
 20
-0.3501208963448903
 11
-7.590312164318618
 21
-0.3015024140176123
 72
     2
 10
-3.124894526218326
 20
-2.333109784966239
 40
4.905851933390338
 50
204.4638591797037
 51
209.5711748127995
 73
     0
 72
     1
 10
-7.391726468587989
 20
0.0879495633198815
 11
-7.377019259925617
 21
0.1153878651378406
 72
     1
 10
-7.377019259925646
 20
0.1153878651378477
 11
-7.270444881467483
 21
0.2929121081945709
 72
     1
 10
-7.270444881467483
 20
0.2929121081945709
 11
-7.241477213598983
 21
0.3354347940707498
 72
     2
 10
-3.124894526218326
 20
-2.333109784966296
 40
4.905851933390331
 50
212.9530288293097
 51
227.2680634576603
 73
     0
 72
     1
 10
-6.453854569010331
 20
1.270417407361264
 11
-6.453837337125094
 21
1.270434596155268
 72
     2
 10
-9.782843421354414
 20
-2.333113859861413
 40
4.905898794685419
 50
312.732163000002
 51
315.445619133743
 73
     0
 72
     1
 10
-6.286974130352291
 20
1.1087956223773
 11
-6.248111142606063
 21
1.071149375617835
 72
     1
 10
-6.248111142606148
 20
1.071149375617835
 11
-6.21442952233275
 21
1.033526190539731
 72
     2
 10
-9.782843421354186
 20
-2.333113859861555
 40
4.905898794685414
 50
316.6665377932571
 51
324.6089167120336
 73
     0
 72
     1
 10
-5.783466726528786
 20
0.508158572796603
 11
-5.742112982373498
 21
0.4530508543929273
 72
     1
 10
-5.742112982373555
 20
0.4530508543929273
 11
-5.709368291387249
 21
0.4008655382386124
 72
     2
 10
-9.782843421354186
 20
-2.333113859861597
 40
4.905898794685411
 50
326.1318174816516
 51
335.126920261769
 73
     0
 72
     1
 10
-5.332007278957462
 20
-0.2696457556179723
 11
-5.28722508894063
 21
-0.3591607879468555
 72
     1
 10
-5.287225088940658
 20
-0.3591607879468484
 11
-5.243307024379589
 21
-0.4728847653040376
 72
     2
 10
-9.782843421354186
 20
-2.333113859861583
 40
4.905898794685409
 50
337.7169696472817
 51
343.9341079999992
 73
     0
 97
        0
 75
     0
 76
     0
 52
45.0
 41
0.1
 77
     1
 78
     2
 53
45.0
 43
-176.4571513522422
 44
-54.26157211694988
 45
-0.0707106781186548
 46
0.0707106781186548
 79
     0
 53
135.0
 43
-176.4571513522422
 44
-54.26157211694988
 45
-0.0707106781186548
 46
-0.0707106781186548
 79
     0
 98
        1
 10
-176.4571513522422
 20
-54.26157211694988
1001
GENIUS_GENODEF_13
1002
{
1000
HIER
1070
     0
1002
}
1002
{
1000
MANEDIT
1070
     0
1002
}
1002
{
1000
NOSEL
1070
     0
1002
}
1002
{
1000
BEHIND
1070
     0
1002
}
1002
{
1000
OTHER
1070
     0
1002
}
1002
{
1000
REACTOR
1002
}
1001
GENIUS_GENOBJ-N-HTC_13
1002
{
1000
OWNER
1000
GEN
1002
}
1001
GENIUS_GENHATCH_13
1002
{
1000
DATA
1040
45.0
1042
0.1
1000
_U
1070
     1
1011
-6.315948351937777
1021
-1.141903832062041
1031
0.0
1002
}
1002
{
1000
UCS
1010
0.0
1020
0.0
1030
0.0
1010
1.0
1020
0.0
1030
0.0
1010
0.0
1020
1.0
1030
0.0
1002
}
  0
ENDBLK
  5
D18
330
CFF
100
AcDbEntity
  8
0
100
AcDbBlockEnd
  0
BLOCK
  5
E82
330
E78
100
AcDbEntity
  8
0
100
AcDbBlockBegin
  2
*D7
 70
     1
 10
0.0
 20
0.0
 30
0.0
  3
*D7
  1

  0
LINE
  5
104D
330
E78
100
AcDbEntity
  8
5
370
    -2
100
AcDbLine
 10
1238.154978110017
 20
776.6086591972674
 30
0.0
 11
1214.918390030653
 21
776.6086591972674
 31
0.0
  0
LINE
  5
104E
330
E78
100
AcDbEntity
  8
5
370
    -2
100
AcDbLine
 10
1231.321871713243
 20
763.1484585737411
 30
0.0
 11
1214.918390030653
 21
763.1484585737411
 31
0.0
  0
LINE
  5
104F
330
E78
100
AcDbEntity
  8
5
370
    -2
100
AcDbLine
 10
1215.918390030653
 20
774.1086591972673
 30
0.0
 11
1215.918390030653
 21
765.6484585737412
 31
0.0
  0
SOLID
  5
1050
330
E78
100
AcDbEntity
  8
5
100
AcDbTrace
 10
1215.501723363987
 20
774.1086591972673
 30
0.0
 11
1216.33505669732
 21
774.1086591972673
 31
0.0
 12
1215.918390030653
 22
776.6086591972674
 32
0.0
 13
1215.918390030653
 23
776.6086591972674
 33
0.0
  0
SOLID
  5
1051
330
E78
100
AcDbEntity
  8
5
100
AcDbTrace
 10
1215.501723363987
 20
765.6484585737412
 30
0.0
 11
1216.33505669732
 21
765.6484585737412
 31
0.0
 12
1215.918390030653
 22
763.1484585737411
 32
0.0
 13
1215.918390030653
 23
763.1484585737411
 33
0.0
  0
MTEXT
  5
1052
330
E78
100
AcDbEntity
  8
5
 62
     2
100
AcDbMText
 10
1213.568390030653
 20
769.8785588855042
 30
0.0
 40
3.5
 41
0.0
 71
     5
 72
     1
  1
4.5
 11
0.0000000000000001
 21
1.0
 31
0.0
 73
     1
 44
1.0
1001
ACAD
1000
MTEXTBEGIN
1070
    73
1070
     1
1070
    44
1040
1.0
1070
    74
1070
     0
1000
MTEXTEND
  0
POINT
  5
1053
330
E78
100
AcDbEntity
  8
DEFPOINTS
 62
     0
100
AcDbPoint
 10
1239.154978110017
 20
776.6086591972674
 30
0.0
  0
POINT
  5
1054
330
E78
100
AcDbEntity
  8
DEFPOINTS
 62
     0
100
AcDbPoint
 10
1232.321871713243
 20
763.1484585737411
 30
0.0
  0
POINT
  5
1055
330
E78
100
AcDbEntity
  8
DEFPOINTS
 62
     0
100
AcDbPoint
 10
1215.918390030653
 20
763.1484585737411
 30
0.0
  0
ENDBLK
  5
E83
330
E78
100
AcDbEntity
  8
0
100
AcDbBlockEnd
  0
BLOCK
  5
E8E
330
E84
100
AcDbEntity
  8
0
100
AcDbBlockBegin
  2
*D8
 70
     1
 10
0.0
 20
0.0
 30
0.0
  3
*D8
  1

  0
LINE
  5
FFC
330
E84
100
AcDbEntity
  8
5
370
    -2
100
AcDbLine
 10
1232.321871713243
 20
764.1484585737414
 30
0.0
 11
1232.321871713243
 21
786.7998097439709
 31
0.0
  0
LINE
  5
FFD
330
E84
100
AcDbEntity
  8
5
370
    -2
100
AcDbLine
 10
1245.988015892447
 20
764.1484595113579
 30
0.0
 11
1245.988015892447
 21
786.7998097439709
 31
0.0
  0
LINE
  5
FFE
330
E84
100
AcDbEntity
  8
5
370
    -2
100
AcDbLine
 10
1234.821871713243
 20
785.7998097439709
 30
0.0
 11
1243.488015892446
 21
785.7998097439709
 31
0.0
  0
SOLID
  5
FFF
330
E84
100
AcDbEntity
  8
5
100
AcDbTrace
 10
1234.821871713243
 20
786.2164764106376
 30
0.0
 11
1234.821871713243
 21
785.3831430773043
 31
0.0
 12
1232.321871713243
 22
785.7998097439709
 32
0.0
 13
1232.321871713243
 23
785.7998097439709
 33
0.0
  0
SOLID
  5
1000
330
E84
100
AcDbEntity
  8
5
100
AcDbTrace
 10
1243.488015892446
 20
786.2164764106376
 30
0.0
 11
1243.488015892446
 21
785.3831430773043
 31
0.0
 12
1245.988015892447
 22
785.7998097439709
 32
0.0
 13
1245.988015892447
 23
785.7998097439709
 33
0.0
  0
MTEXT
  5
1001
330
E84
100
AcDbEntity
  8
5
 62
     2
100
AcDbMText
 10
1239.154943802845
 20
788.149809743971
 30
0.0
 40
3.5
 41
0.0
 71
     5
 72
     1
  1
4.6
 73
     1
 44
1.0
1001
ACAD
1000
MTEXTBEGIN
1070
    73
1070
     1
1070
    44
1040
1.0
1070
    74
1070
     0
1000
MTEXTEND
  0
POINT
  5
1002
330
E84
100
AcDbEntity
  8
DEFPOINTS
 62
     0
100
AcDbPoint
 10
1232.321871713243
 20
763.1484585737414
 30
0.0
  0
POINT
  5
1003
330
E84
100
AcDbEntity
  8
DEFPOINTS
 62
     0
100
AcDbPoint
 10
1245.988015892447
 20
763.1484595113579
 30
0.0
  0
POINT
  5
1004
330
E84
100
AcDbEntity
  8
DEFPOINTS
 62
     0
100
AcDbPoint
 10
1245.988015892447
 20
785.7998097439709
 30
0.0
  0
ENDBLK
  5
E8F
330
E84
100
AcDbEntity
  8
0
100
AcDbBlockEnd
  0
BLOCK
  5
E9C
330
E90
100
AcDbEntity
  8
0
100
AcDbBlockBegin
  2
*D9
 70
     1
 10
0.0
 20
0.0
 30
0.0
  3
*D9
  1

  0
LINE
  5
1005
330
E90
100
AcDbEntity
  8
5
370
    -2
100
AcDbLine
 10
1271.044787595615
 20
771.0736275038738
 30
0.0
 11
1271.044787595615
 21
786.7998097439707
 31
0.0
  0
LINE
  5
1006
330
E90
100
AcDbEntity
  8
5
370
    -2
100
AcDbLine
 10
1273.147311284521
 20
771.0736275038738
 30
0.0
 11
1273.147311284521
 21
786.7998097439707
 31
0.0
  0
LINE
  5
1007
330
E90
100
AcDbEntity
  8
5
370
    -2
100
AcDbLine
 10
1268.544787595615
 20
785.7998097439707
 30
0.0
 11
1266.044787595615
 21
785.7998097439707
 31
0.0
  0
LINE
  5
1008
330
E90
100
AcDbEntity
  8
5
370
    -2
100
AcDbLine
 10
1275.647311284521
 20
785.7998097439707
 30
0.0
 11
1278.147311284521
 21
785.7998097439707
 31
0.0
  0
LINE
  5
1009
330
E90
100
AcDbEntity
  8
5
370
    -2
100
AcDbLine
 10
1271.044787595615
 20
785.7998097439707
 30
0.0
 11
1273.147311284521
 21
785.7998097439707
 31
0.0
  0
SOLID
  5
100A
330
E90
100
AcDbEntity
  8
5
100
AcDbTrace
 10
1268.544787595615
 20
786.2164764106373
 30
0.0
 11
1268.544787595615
 21
785.3831430773041
 31
0.0
 12
1271.044787595615
 22
785.7998097439707
 32
0.0
 13
1271.044787595615
 23
785.7998097439707
 33
0.0
  0
SOLID
  5
100B
330
E90
100
AcDbEntity
  8
5
100
AcDbTrace
 10
1275.647311284521
 20
786.2164764106373
 30
0.0
 11
1275.647311284521
 21
785.3831430773041
 31
0.0
 12
1273.147311284521
 22
785.7998097439707
 32
0.0
 13
1273.147311284521
 23
785.7998097439707
 33
0.0
  0
MTEXT
  5
100C
330
E90
100
AcDbEntity
  8
5
 62
     2
100
AcDbMText
 10
1272.096049440068
 20
788.1498097439707
 30
0.0
 40
3.5
 41
0.0
 71
     5
 72
     1
  1
0.7
 73
     1
 44
1.0
1001
ACAD
1000
MTEXTBEGIN
1070
    73
1070
     1
1070
    44
1040
1.0
1070
    74
1070
     0
1000
MTEXTEND
  0
POINT
  5
100D
330
E90
100
AcDbEntity
  8
DEFPOINTS
 62
     0
100
AcDbPoint
 10
1271.044787595615
 20
770.0736275038738
 30
0.0
  0
POINT
  5
100E
330
E90
100
AcDbEntity
  8
DEFPOINTS
 62
     0
100
AcDbPoint
 10
1273.147311284521
 20
770.0736275038738
 30
0.0
  0
POINT
  5
100F
330
E90
100
AcDbEntity
  8
DEFPOINTS
 62
     0
100
AcDbPoint
 10
1273.147311284521
 20
785.7998097439707
 30
0.0
  0
ENDBLK
  5
E9D
330
E90
100
AcDbEntity
  8
0
100
AcDbBlockEnd
  0
BLOCK
  5
EA8
330
E9E
100
AcDbEntity
  8
0
100
AcDbBlockBegin
  2
*D10
 70
     1
 10
0.0
 20
0.0
 30
0.0
  3
*D10
  1

  0
LINE
  5
1010
330
E9E
100
AcDbEntity
  8
5
370
    -2
100
AcDbLine
 10
1284.711191573504
 20
769.0736275038738
 30
0.0
 11
1284.711191573504
 21
741.1361960765758
 31
0.0
  0
LINE
  5
1011
330
E9E
100
AcDbEntity
  8
5
370
    -2
100
AcDbLine
 10
1232.321940493466
 20
762.1484592046105
 30
0.0
 11
1232.321940493466
 21
741.1361960765758
 31
0.0
  0
LINE
  5
1012
330
E9E
100
AcDbEntity
  8
5
370
    -2
100
AcDbLine
 10
1282.211191573504
 20
742.1361960765758
 30
0.0
 11
1234.821940493466
 21
742.1361960765758
 31
0.0
  0
SOLID
  5
1013
330
E9E
100
AcDbEntity
  8
5
100
AcDbTrace
 10
1282.211191573504
 20
742.5528627432425
 30
0.0
 11
1282.211191573504
 21
741.7195294099092
 31
0.0
 12
1284.711191573504
 22
742.1361960765758
 32
0.0
 13
1284.711191573504
 23
742.1361960765758
 33
0.0
  0
SOLID
  5
1014
330
E9E
100
AcDbEntity
  8
5
100
AcDbTrace
 10
1234.821940493466
 20
742.5528627432425
 30
0.0
 11
1234.821940493466
 21
741.7195294099092
 31
0.0
 12
1232.321940493466
 22
742.1361960765758
 32
0.0
 13
1232.321940493466
 23
742.1361960765758
 33
0.0
  0
MTEXT
  5
1015
330
E9E
100
AcDbEntity
  8
5
 62
     2
100
AcDbMText
 10
1259.371457223237
 20
744.4861960765758
 30
0.0
 40
3.5
 41
0.0
 71
     5
 72
     1
  1
17.5
 73
     1
 44
1.0
1001
ACAD
1000
MTEXTBEGIN
1070
    73
1070
     1
1070
    44
1040
1.0
1070
    74
1070
     0
1000
MTEXTEND
  0
POINT
  5
1016
330
E9E
100
AcDbEntity
  8
DEFPOINTS
 62
     0
100
AcDbPoint
 10
1284.711191573504
 20
770.0736275038738
 30
0.0
  0
POINT
  5
1017
330
E9E
100
AcDbEntity
  8
DEFPOINTS
 62
     0
100
AcDbPoint
 10
1232.321940493466
 20
763.1484592046104
 30
0.0
  0
POINT
  5
1018
330
E9E
100
AcDbEntity
  8
DEFPOINTS
 62
     0
100
AcDbPoint
 10
1232.321940493466
 20
742.1361960765758
 30
0.0
  0
ENDBLK
  5
EA9
330
E9E
100
AcDbEntity
  8
0
100
AcDbBlockEnd
  0
BLOCK
  5
EB4
330
EAA
100
AcDbEntity
  8
0
100
AcDbBlockBegin
  2
*D11
 70
     1
 10
0.0
 20
0.0
 30
0.0
  3
*D11
  1

  0
LINE
  5
1019
330
EAA
100
AcDbEntity
  8
5
370
    -2
100
AcDbLine
 10
1258.5164896292
 20
769.0736275038738
 30
0.0
 11
1258.5164896292
 21
750.3449678583101
 31
0.0
  0
LINE
  5
101A
330
EAA
100
AcDbEntity
  8
5
370
    -2
100
AcDbLine
 10
1239.154977449155
 20
766.1473005844899
 30
0.0
 11
1239.154977449155
 21
750.3449678583101
 31
0.0
  0
LINE
  5
101B
330
EAA
100
AcDbEntity
  8
5
370
    -2
100
AcDbLine
 10
1256.0164896292
 20
751.3449678583101
 30
0.0
 11
1241.654977449155
 21
751.3449678583101
 31
0.0
  0
SOLID
  5
101C
330
EAA
100
AcDbEntity
  8
5
100
AcDbTrace
 10
1256.0164896292
 20
751.7616345249767
 30
0.0
 11
1256.0164896292
 21
750.9283011916435
 31
0.0
 12
1258.5164896292
 22
751.3449678583101
 32
0.0
 13
1258.5164896292
 23
751.3449678583101
 33
0.0
  0
SOLID
  5
101D
330
EAA
100
AcDbEntity
  8
5
100
AcDbTrace
 10
1241.654977449155
 20
751.7616345249767
 30
0.0
 11
1241.654977449155
 21
750.9283011916435
 31
0.0
 12
1239.154977449155
 22
751.3449678583101
 32
0.0
 13
1239.154977449155
 23
751.3449678583101
 33
0.0
  0
MTEXT
  5
101E
330
EAA
100
AcDbEntity
  8
5
 62
     2
100
AcDbMText
 10
1250.596308811699
 20
753.6949678583101
 30
0.0
 40
3.5
 41
0.0
 71
     5
 72
     1
  1
6.5
 73
     1
 44
1.0
1001
ACAD
1000
MTEXTBEGIN
1070
    73
1070
     1
1070
    44
1040
1.0
1070
    74
1070
     0
1000
MTEXTEND
  0
POINT
  5
101F
330
EAA
100
AcDbEntity
  8
DEFPOINTS
 62
     0
100
AcDbPoint
 10
1258.5164896292
 20
770.0736275038738
 30
0.0
  0
POINT
  5
1020
330
EAA
100
AcDbEntity
  8
DEFPOINTS
 62
     0
100
AcDbPoint
 10
1239.154977449155
 20
767.1473005844899
 30
0.0
  0
POINT
  5
1021
330
EAA
100
AcDbEntity
  8
DEFPOINTS
 62
     0
100
AcDbPoint
 10
1239.154977449155
 20
751.3449678583101
 30
0.0
  0
ENDBLK
  5
EB5
330
EAA
100
AcDbEntity
  8
0
100
AcDbBlockEnd
  0
BLOCK
  5
EC0
330
EB6
100
AcDbEntity
  8
0
100
AcDbBlockBegin
  2
*D12
 70
     1
 10
0.0
 20
0.0
 30
0.0
  3
*D12
  1

  0
LINE
  5
1056
330
EB6
100
AcDbEntity
  8
5
370
    -2
100
AcDbLine
 10
1277.87798958456
 20
769.0736275038738
 30
0.0
 11
1277.87798958456
 21
750.3449678583102
 31
0.0
  0
LINE
  5
1057
330
EB6
100
AcDbEntity
  8
5
370
    -2
100
AcDbLine
 10
1258.5164896292
 20
769.0736275038738
 30
0.0
 11
1258.5164896292
 21
750.3449678583102
 31
0.0
  0
LINE
  5
1058
330
EB6
100
AcDbEntity
  8
5
370
    -2
100
AcDbLine
 10
1275.37798958456
 20
751.3449678583103
 30
0.0
 11
1261.0164896292
 21
751.3449678583103
 31
0.0
  0
SOLID
  5
1059
330
EB6
100
AcDbEntity
  8
5
100
AcDbTrace
 10
1275.37798958456
 20
751.7616345249769
 30
0.0
 11
1275.37798958456
 21
750.9283011916436
 31
0.0
 12
1277.87798958456
 22
751.3449678583103
 32
0.0
 13
1277.87798958456
 23
751.3449678583103
 33
0.0
  0
SOLID
  5
105A
330
EB6
100
AcDbEntity
  8
5
100
AcDbTrace
 10
1261.0164896292
 20
751.7616345249769
 30
0.0
 11
1261.0164896292
 21
750.9283011916436
 31
0.0
 12
1258.5164896292
 22
751.3449678583103
 32
0.0
 13
1258.5164896292
 23
751.3449678583103
 33
0.0
  0
MTEXT
  5
105B
330
EB6
100
AcDbEntity
  8
5
 62
     2
100
AcDbMText
 10
1268.58536404857
 20
753.6949678583103
 30
0.0
 40
3.5
 41
0.0
 71
     5
 72
     1
  1
6.5
 73
     1
 44
1.0
1001
ACAD
1000
MTEXTBEGIN
1070
    73
1070
     1
1070
    44
1040
1.0
1070
    74
1070
     0
1000
MTEXTEND
  0
POINT
  5
105C
330
EB6
100
AcDbEntity
  8
DEFPOINTS
 62
     0
100
AcDbPoint
 10
1277.87798958456
 20
770.0736275038738
 30
0.0
  0
POINT
  5
105D
330
EB6
100
AcDbEntity
  8
DEFPOINTS
 62
     0
100
AcDbPoint
 10
1258.5164896292
 20
770.0736275038738
 30
0.0
  0
POINT
  5
105E
330
EB6
100
AcDbEntity
  8
DEFPOINTS
 62
     0
100
AcDbPoint
 10
1258.5164896292
 20
751.3449678583103
 30
0.0
  0
ENDBLK
  5
EC1
330
EB6
100
AcDbEntity
  8
0
100
AcDbBlockEnd
  0
BLOCK
  5
ECE
330
EC2
100
AcDbEntity
  8
0
100
AcDbBlockBegin
  2
*D13
 70
     1
 10
0.0
 20
0.0
 30
0.0
  3
*D13
  1

  0
LINE
  5
102B
330
EC2
100
AcDbEntity
  8
5
370
    -2
100
AcDbLine
 10
1263.569093071316
 20
772.5140505590807
 30
0.0
 11
1268.466082813144
 21
772.5140505590807
 31
0.0
  0
LINE
  5
102C
330
EC2
100
AcDbEntity
  8
5
370
    -2
100
AcDbLine
 10
1263.613372988177
 20
767.7082914100253
 30
0.0
 11
1268.466082813144
 21
767.7082914100253
 31
0.0
  0
LINE
  5
102D
330
EC2
100
AcDbEntity
  8
5
370
    -2
100
AcDbLine
 10
1267.466082813144
 20
765.2082914100254
 30
0.0
 11
1267.466082813144
 21
762.7082914100253
 31
0.0
  0
LINE
  5
102E
330
EC2
100
AcDbEntity
  8
5
370
    -2
100
AcDbLine
 10
1267.466082813144
 20
775.0140505590807
 30
0.0
 11
1267.466082813144
 21
783.8175282493694
 31
0.0
  0
LINE
  5
102F
330
EC2
100
AcDbEntity
  8
5
370
    -2
100
AcDbLine
 10
1267.466082813144
 20
767.7082914100253
 30
0.0
 11
1267.466082813144
 21
772.5140505590807
 31
0.0
  0
SOLID
  5
1030
330
EC2
100
AcDbEntity
  8
5
100
AcDbTrace
 10
1267.049416146477
 20
765.2082914100254
 30
0.0
 11
1267.882749479811
 21
765.2082914100254
 31
0.0
 12
1267.466082813144
 22
767.7082914100253
 32
0.0
 13
1267.466082813144
 23
767.7082914100253
 33
0.0
  0
SOLID
  5
1031
330
EC2
100
AcDbEntity
  8
5
100
AcDbTrace
 10
1267.049416146477
 20
775.0140505590807
 30
0.0
 11
1267.882749479811
 21
775.0140505590807
 31
0.0
 12
1267.466082813144
 22
772.5140505590807
 32
0.0
 13
1267.466082813144
 23
772.5140505590807
 33
0.0
  0
MTEXT
  5
1032
330
EC2
100
AcDbEntity
  8
5
 62
     2
100
AcDbMText
 10
1265.116082813144
 20
781.0307172257475
 30
0.0
 40
3.5
 41
0.0
 71
     5
 72
     1
  1
1.6
 11
0.0000000000000001
 21
1.0
 31
0.0
 73
     1
 44
1.0
1001
ACAD
1000
MTEXTBEGIN
1070
    73
1070
     1
1070
    44
1040
1.0
1070
    74
1070
     0
1000
MTEXTEND
  0
POINT
  5
1033
330
EC2
100
AcDbEntity
  8
DEFPOINTS
 62
     0
100
AcDbPoint
 10
1262.569093071316
 20
772.5140505590807
 30
0.0
  0
POINT
  5
1034
330
EC2
100
AcDbEntity
  8
DEFPOINTS
 62
     0
100
AcDbPoint
 10
1262.613372988177
 20
767.7082914100253
 30
0.0
  0
POINT
  5
1035
330
EC2
100
AcDbEntity
  8
DEFPOINTS
 62
     0
100
AcDbPoint
 10
1267.466082813144
 20
767.7082914100253
 30
0.0
  0
ENDBLK
  5
ECF
330
EC2
100
AcDbEntity
  8
0
100
AcDbBlockEnd
  0
BLOCK
  5
EDC
330
ED0
100
AcDbEntity
  8
0
100
AcDbBlockBegin
  2
*D14
 70
     1
 10
0.0
 20
0.0
 30
0.0
  3
*D14
  1

  0
LINE
  5
1036
330
ED0
100
AcDbEntity
  8
5
370
    -2
100
AcDbLine
 10
1231.321871713243
 20
763.1484585737414
 30
0.0
 11
1222.748346237974
 21
763.1484585737414
 31
0.0
  0
LINE
  5
1037
330
ED0
100
AcDbEntity
  8
5
370
    -2
100
AcDbLine
 10
1233.556806008298
 20
765.0447760507136
 30
0.0
 11
1222.748346237974
 21
765.0447760507136
 31
0.0
  0
LINE
  5
1038
330
ED0
100
AcDbEntity
  8
5
370
    -2
100
AcDbLine
 10
1223.748346237974
 20
767.5447760507136
 30
0.0
 11
1223.748346237974
 21
770.0447760507135
 31
0.0
  0
LINE
  5
1039
330
ED0
100
AcDbEntity
  8
5
370
    -2
100
AcDbLine
 10
1223.748346237974
 20
760.6484585737414
 30
0.0
 11
1223.748346237974
 21
751.2019362640301
 31
0.0
  0
LINE
  5
103A
330
ED0
100
AcDbEntity
  8
5
370
    -2
100
AcDbLine
 10
1223.748346237974
 20
765.0447760507136
 30
0.0
 11
1223.748346237974
 21
763.1484585737414
 31
0.0
  0
SOLID
  5
103B
330
ED0
100
AcDbEntity
  8
5
100
AcDbTrace
 10
1223.331679571307
 20
767.5447760507136
 30
0.0
 11
1224.165012904641
 21
767.5447760507136
 31
0.0
 12
1223.748346237974
 22
765.0447760507136
 32
0.0
 13
1223.748346237974
 23
765.0447760507136
 33
0.0
  0
SOLID
  5
103C
330
ED0
100
AcDbEntity
  8
5
100
AcDbTrace
 10
1223.331679571307
 20
760.6484585737414
 30
0.0
 11
1224.165012904641
 21
760.6484585737414
 31
0.0
 12
1223.748346237974
 22
763.1484585737414
 32
0.0
 13
1223.748346237974
 23
763.1484585737414
 33
0.0
  0
MTEXT
  5
103D
330
ED0
100
AcDbEntity
  8
5
 62
     2
100
AcDbMText
 10
1221.398346237974
 20
754.3401252404081
 30
0.0
 40
3.5
 41
0.0
 71
     5
 72
     1
  1
0.6
 11
0.0000000000000001
 21
1.0
 31
0.0
 73
     1
 44
1.0
1001
ACAD
1000
MTEXTBEGIN
1070
    73
1070
     1
1070
    44
1040
1.0
1070
    74
1070
     0
1000
MTEXTEND
  0
POINT
  5
103E
330
ED0
100
AcDbEntity
  8
DEFPOINTS
 62
     0
100
AcDbPoint
 10
1232.321871713243
 20
763.1484585737414
 30
0.0
  0
POINT
  5
103F
330
ED0
100
AcDbEntity
  8
DEFPOINTS
 62
     0
100
AcDbPoint
 10
1234.556806008298
 20
765.0447760507136
 30
0.0
  0
POINT
  5
1040
330
ED0
100
AcDbEntity
  8
DEFPOINTS
 62
     0
100
AcDbPoint
 10
1223.748346237974
 20
765.0447760507136
 30
0.0
  0
ENDBLK
  5
EDD
330
ED0
100
AcDbEntity
  8
0
100
AcDbBlockEnd
  0
BLOCK
  5
EE5
330
EDE
100
AcDbEntity
  8
0
100
AcDbBlockBegin
  2
*D15
 70
     1
 10
0.0
 20
0.0
 30
0.0
  3
*D15
  1

  0
LINE
  5
10A8
330
EDE
100
AcDbEntity
  8
5
370
    -2
100
AcDbLine
 10
1298.325742937062
 20
778.9170737498595
 30
0.0
 11
1286.444355428698
 21
773.7784939779608
 31
0.0
  0
MTEXT
  5
10A9
330
EDE
100
AcDbEntity
  8
5
 62
     2
100
AcDbMText
 10
1292.599364142601
 20
779.0012134015464
 30
0.0
 40
3.5
 41
0.0
 71
     5
 72
     1
  1
R 2.3
 11
0.9178378282486246
 21
0.396955565568551
 31
0.0
 73
     1
 44
1.0
1001
ACAD
1000
MTEXTBEGIN
1070
    73
1070
     1
1070
    44
1040
1.0
1070
    74
1070
     0
1000
MTEXTEND
  0
LINE
  5
10AA
330
EDE
100
AcDbEntity
  8
5
370
    -2
100
AcDbLine
 10
1277.87798958456
 20
770.073627503874
 30
0.0
 11
1284.149760858076
 21
772.7861050640394
 31
0.0
  0
SOLID
  5
10AB
330
EDE
100
AcDbEntity
  8
5
100
AcDbTrace
 10
1286.278957276377
 20
774.1609264063977
 30
0.0
 11
1286.609753581018
 21
773.3960615495239
 31
0.0
 12
1284.149760858076
 22
772.7861050640394
 32
0.0
 13
1284.149760858076
 23
772.7861050640394
 33
0.0
  0
POINT
  5
10AC
330
EDE
100
AcDbEntity
  8
DEFPOINTS
 62
     0
100
AcDbPoint
 10
1284.149760858076
 20
772.7861050640394
 30
0.0
  0
POINT
  5
10AD
330
EDE
100
AcDbEntity
  8
DEFPOINTS
 62
     0
100
AcDbPoint
 10
1277.87798958456
 20
770.073627503874
 30
0.0
  0
ENDBLK
  5
EE6
330
EDE
100
AcDbEntity
  8
0
100
AcDbBlockEnd
  0
BLOCK
  5
EEE
330
EE7
100
AcDbEntity
  8
0
100
AcDbBlockBegin
  2
*D16
 70
     1
 10
0.0
 20
0.0
 30
0.0
  3
*D16
  1

  0
LINE
  5
109B
330
EE7
100
AcDbEntity
  8
5
370
    -2
100
AcDbLine
 10
1261.281690696755
 20
789.3598085133823
 30
0.0
 11
1244.1185541044
 21
775.3115495322195
 31
0.0
  0
MTEXT
  5
109C
330
EE7
100
AcDbEntity
  8
5
 62
     2
100
AcDbMText
 10
1255.740811327128
 20
787.8613608138022
 30
0.0
 40
3.5
 41
0.0
 71
     5
 72
     1
  1
R 5.6
 11
0.7738314927471267
 21
0.6333915225456951
 31
0.0
 73
     1
 44
1.0
1001
ACAD
1000
MTEXTBEGIN
1070
    73
1070
     1
1070
    44
1040
1.0
1070
    74
1070
     0
1000
MTEXTEND
  0
LINE
  5
109D
330
EE7
100
AcDbEntity
  8
5
370
    -2
100
AcDbLine
 10
1229.167959365138
 20
763.0742859242888
 30
0.0
 11
1242.183975372532
 21
773.7280707258553
 31
0.0
  0
SOLID
  5
109E
330
EE7
100
AcDbEntity
  8
5
100
AcDbTrace
 10
1243.854640970006
 20
775.6339793208642
 30
0.0
 11
1244.382467238794
 21
774.989119743575
 31
0.0
 12
1242.183975372532
 22
773.7280707258553
 32
0.0
 13
1242.183975372532
 23
773.7280707258553
 33
0.0
  0
POINT
  5
109F
330
EE7
100
AcDbEntity
  8
DEFPOINTS
 62
     0
100
AcDbPoint
 10
1242.183975372532
 20
773.7280707258553
 30
0.0
  0
POINT
  5
10A0
330
EE7
100
AcDbEntity
  8
DEFPOINTS
 62
     0
100
AcDbPoint
 10
1229.167959365138
 20
763.0742859242888
 30
0.0
  0
ENDBLK
  5
EEF
330
EE7
100
AcDbEntity
  8
0
100
AcDbBlockEnd
  0
BLOCK
  5
EFC
330
EF0
100
AcDbEntity
  8
0
100
AcDbBlockBegin
  2
*D17
 70
     1
 10
0.0
 20
0.0
 30
0.0
  3
*D17
  1

  0
LINE
  5
122F
330
EF0
100
AcDbEntity
  8
5
370
    -2
100
AcDbLine
 10
1109.544031697338
 20
762.9503845538439
 30
0.0
 11
1123.160283887084
 21
762.9503845538439
 31
0.0
  0
LINE
  5
1230
330
EF0
100
AcDbEntity
  8
5
370
    -2
100
AcDbLine
 10
1109.544031697338
 20
757.950384553844
 30
0.0
 11
1123.160283887084
 21
757.950384553844
 31
0.0
  0
LINE
  5
1231
330
EF0
100
AcDbEntity
  8
5
370
    -2
100
AcDbLine
 10
1122.160283887084
 20
755.4503845538439
 30
0.0
 11
1122.160283887084
 21
752.9503845538439
 31
0.0
  0
LINE
  5
1232
330
EF0
100
AcDbEntity
  8
5
370
    -2
100
AcDbLine
 10
1122.160283887084
 20
765.4503845538439
 30
0.0
 11
1122.160283887084
 21
771.0895385939259
 31
0.0
  0
LINE
  5
1233
330
EF0
100
AcDbEntity
  8
5
370
    -2
100
AcDbLine
 10
1122.160283887084
 20
757.950384553844
 30
0.0
 11
1122.160283887084
 21
762.9503845538439
 31
0.0
  0
SOLID
  5
1234
330
EF0
100
AcDbEntity
  8
5
100
AcDbTrace
 10
1121.743617220417
 20
755.4503845538439
 30
0.0
 11
1122.576950553751
 21
755.4503845538439
 31
0.0
 12
1122.160283887084
 22
757.950384553844
 32
0.0
 13
1122.160283887084
 23
757.950384553844
 33
0.0
  0
SOLID
  5
1235
330
EF0
100
AcDbEntity
  8
5
100
AcDbTrace
 10
1121.743617220417
 20
765.4503845538439
 30
0.0
 11
1122.576950553751
 21
765.4503845538439
 31
0.0
 12
1122.160283887084
 22
762.9503845538439
 32
0.0
 13
1122.160283887084
 23
762.9503845538439
 33
0.0
  0
MTEXT
  5
1236
330
EF0
100
AcDbEntity
  8
5
 62
     2
100
AcDbMText
 10
1119.810283887084
 20
769.7170512205107
 30
0.0
 40
3.5
 41
0.0
 71
     5
 72
     1
  1
5
 11
0.0000000000000001
 21
1.0
 31
0.0
 73
     1
 44
1.0
1001
ACAD
1000
MTEXTBEGIN
1070
    73
1070
     1
1070
    44
1040
1.0
1070
    74
1070
     0
1000
MTEXTEND
  0
POINT
  5
1237
330
EF0
100
AcDbEntity
  8
DEFPOINTS
 62
     0
100
AcDbPoint
 10
1108.544031697338
 20
762.9503845538439
 30
0.0
  0
POINT
  5
1238
330
EF0
100
AcDbEntity
  8
DEFPOINTS
 62
     0
100
AcDbPoint
 10
1108.544031697338
 20
757.950384553844
 30
0.0
  0
POINT
  5
1239
330
EF0
100
AcDbEntity
  8
DEFPOINTS
 62
     0
100
AcDbPoint
 10
1122.160283887084
 20
757.950384553844
 30
0.0
  0
ENDBLK
  5
EFD
330
EF0
100
AcDbEntity
  8
0
100
AcDbBlockEnd
  0
BLOCK
  5
F08
330
EFE
100
AcDbEntity
  8
0
100
AcDbBlockBegin
  2
*D18
 70
     1
 10
0.0
 20
0.0
 30
0.0
  3
*D18
  1

  0
LINE
  5
1290
330
EFE
100
AcDbEntity
  8
5
370
    -2
100
AcDbLine
 10
1108.544031697338
 20
763.9503845538439
 30
0.0
 11
1108.544031697338
 21
775.8193697191954
 31
0.0
  0
LINE
  5
1291
330
EFE
100
AcDbEntity
  8
5
370
    -2
100
AcDbLine
 10
981.3454345314216
 20
763.9503845538456
 30
0.0
 11
981.3454345314216
 21
775.8193697191954
 31
0.0
  0
LINE
  5
1292
330
EFE
100
AcDbEntity
  8
5
370
    -2
100
AcDbLine
 10
1106.044031697338
 20
774.8193697191953
 30
0.0
 11
983.8454345314216
 21
774.8193697191953
 31
0.0
  0
SOLID
  5
1293
330
EFE
100
AcDbEntity
  8
5
100
AcDbTrace
 10
1106.044031697338
 20
775.236036385862
 30
0.0
 11
1106.044031697338
 21
774.4027030525288
 31
0.0
 12
1108.544031697338
 22
774.8193697191953
 32
0.0
 13
1108.544031697338
 23
774.8193697191953
 33
0.0
  0
SOLID
  5
1294
330
EFE
100
AcDbEntity
  8
5
100
AcDbTrace
 10
983.8454345314216
 20
775.236036385862
 30
0.0
 11
983.8454345314216
 21
774.4027030525288
 31
0.0
 12
981.3454345314216
 22
774.8193697191953
 32
0.0
 13
981.3454345314216
 23
774.8193697191953
 33
0.0
  0
MTEXT
  5
1295
330
EFE
100
AcDbEntity
  8
5
 62
     2
100
AcDbMText
 10
1044.94473311438
 20
778.1338734921612
 30
0.0
 40
3.5
 41
0.0
 71
     5
 72
     1
  1
%%c127.2{}{\H0.71x;\C3;\S+0.1^ -0.2;}
 73
     1
 44
1.0
1001
ACAD
1000
MTEXTBEGIN
1070
    73
1070
     1
1070
    44
1040
1.0
1070
    74
1070
     0
1000
MTEXTEND
  0
POINT
  5
1296
330
EFE
100
AcDbEntity
  8
DEFPOINTS
 62
     0
100
AcDbPoint
 10
1108.544031697338
 20
762.9503845538439
 30
0.0
  0
POINT
  5
1297
330
EFE
100
AcDbEntity
  8
DEFPOINTS
 62
     0
100
AcDbPoint
 10
981.3454345314216
 20
762.9503845538456
 30
0.0
  0
POINT
  5
1298
330
EFE
100
AcDbEntity
  8
DEFPOINTS
 62
     0
100
AcDbPoint
 10
981.3454345314216
 20
774.8193697191953
 30
0.0
  0
ENDBLK
  5
F09
330
EFE
100
AcDbEntity
  8
0
100
AcDbBlockEnd
  0
BLOCK
  5
FD6
330
FCC
100
AcDbEntity
  8
0
100
AcDbBlockBegin
  2
*D19
 70
     1
 10
0.0
 20
0.0
 30
0.0
  3
*D19
  1

  0
LINE
  5
FDA
330
FCC
100
AcDbEntity
  8
AM_5
100
AcDbLine
 10
1042.96166017203
 20
654.0213298400102
 30
0.0
 11
1042.96166017203
 21
728.2898849001577
 31
0.0
  0
LINE
  5
FDB
330
FCC
100
AcDbEntity
  8
AM_5
100
AcDbLine
 10
988.9626739504221
 20
654.0213298400098
 30
0.0
 11
988.9626739504221
 21
728.2898849001577
 31
0.0
  0
LINE
  5
FDC
330
FCC
100
AcDbEntity
  8
AM_5
100
AcDbLine
 10
1040.46166017203
 20
727.2898849001578
 30
0.0
 11
991.4626739504221
 21
727.2898849001578
 31
0.0
  0
SOLID
  5
FDD
330
FCC
100
AcDbEntity
  8
AM_5
100
AcDbTrace
 10
1040.46166017203
 20
727.7065515668243
 30
0.0
 11
1040.46166017203
 21
726.8732182334911
 31
0.0
 12
1042.96166017203
 22
727.2898849001578
 32
0.0
 13
1042.96166017203
 23
727.2898849001578
 33
0.0
  0
SOLID
  5
FDE
330
FCC
100
AcDbEntity
  8
AM_5
100
AcDbTrace
 10
991.4626739504221
 20
727.7065515668243
 30
0.0
 11
991.4626739504221
 21
726.8732182334911
 31
0.0
 12
988.9626739504221
 22
727.2898849001578
 32
0.0
 13
988.9626739504221
 23
727.2898849001578
 33
0.0
  0
MTEXT
  5
FDF
330
FCC
100
AcDbEntity
  8
AM_5
 62
     2
100
AcDbMText
 10
1015.962167061226
 20
730.5398849001577
 30
0.0
 40
3.5
 41
0.0
 71
     5
 72
     1
  1
54
 73
     1
 44
1.0
1001
ACAD
1000
MTEXTBEGIN
1070
    73
1070
     1
1070
    44
1040
1.0
1070
    74
1070
     0
1000
MTEXTEND
  0
POINT
  5
FE0
330
FCC
100
AcDbEntity
  8
DEFPOINTS
 62
     0
100
AcDbPoint
 10
1042.96166017203
 20
653.0213298400102
 30
0.0
  0
POINT
  5
FE1
330
FCC
100
AcDbEntity
  8
DEFPOINTS
 62
     0
100
AcDbPoint
 10
988.9626739504221
 20
653.0213298400098
 30
0.0
  0
POINT
  5
FE2
330
FCC
100
AcDbEntity
  8
DEFPOINTS
 62
     0
100
AcDbPoint
 10
988.9626739504221
 20
727.2898849001578
 30
0.0
  0
ENDBLK
  5
FD7
330
FCC
100
AcDbEntity
  8
0
100
AcDbBlockEnd
  0
BLOCK
  5
12FE
330
12F3
100
AcDbEntity
  8
0
100
AcDbBlockBegin
  2
*S20
 70
     1
 10
0.0
 20
0.0
 30
0.0
  3
*S20
  1

  0
LINE
  5
12F4
330
12F3
100
AcDbEntity
  8
AM_5
100
AcDbLine
 10
1086.327029928086
 20
730.6753789131406
 30
0.0
 11
1082.827029928085
 21
730.6753789131406
 31
0.0
  0
LINE
  5
12F5
330
12F3
100
AcDbEntity
  8
AM_5
100
AcDbLine
 10
1082.827029928085
 20
730.6753789131406
 30
0.0
 11
1082.827029928085
 21
754.4503845538441
 31
0.0
  0
TRACE
  5
12F6
330
12F3
100
AcDbEntity
  8
AM_5
  6
Continuous
100
AcDbTrace
 10
1083.287813667586
 20
754.4503845538441
 30
0.0
 11
1082.366246188586
 21
754.4503845538441
 31
0.0
 12
1082.827029928085
 22
757.9503845538441
 32
0.0
 13
1082.827029928085
 23
757.9503845538441
 33
0.0
  0
MTEXT
  5
12F7
330
12F3
100
AcDbEntity
  8
AM_5
 62
     2
100
AcDbMText
 10
1089.827029928086
 20
730.6753789131406
 30
0.0
 40
3.5
 41
0.0
 71
     5
 72
     5
  1
c
  7
ACISOGDT
 73
     1
 44
1.0
1001
ACAD
1000
MTEXTBEGIN
1070
    73
1070
     1
1070
    44
1040
1.0
1070
    74
1070
     0
1000
MTEXTEND
  0
LINE
  5
12F8
330
12F3
100
AcDbEntity
  8
AM_5
 62
     2
100
AcDbLine
 10
1093.327029928086
 20
734.1753789131407
 30
0.0
 11
1093.327029928086
 21
727.1753789131406
 31
0.0
  0
MTEXT
  5
12F9
330
12F3
100
AcDbEntity
  8
AM_5
 62
     2
100
AcDbMText
 10
1094.202029928085
 20
730.6753789131406
 30
0.0
 40
3.5
 41
0.0
 71
     4
 72
     5
  1
0.3
  7
ACISOTS
 73
     1
 44
1.0
1001
ACAD
1000
MTEXTBEGIN
1070
    73
1070
     1
1070
    44
1040
1.0
1070
    74
1070
     0
1000
MTEXTEND
  0
LINE
  5
12FA
330
12F3
100
AcDbEntity
  8
AM_5
 62
     2
100
AcDbLine
 10
1100.124760580428
 20
734.1753789131407
 30
0.0
 11
1100.124760580428
 21
727.1753789131406
 31
0.0
  0
LINE
  5
12FB
330
12F3
100
AcDbEntity
  8
AM_5
 62
     2
100
AcDbLine
 10
1086.327029928086
 20
734.1753789131407
 30
0.0
 11
1100.124760580428
 21
734.1753789131407
 31
0.0
  0
LINE
  5
12FC
330
12F3
100
AcDbEntity
  8
AM_5
 62
     2
100
AcDbLine
 10
1086.327029928086
 20
727.1753789131406
 30
0.0
 11
1100.124760580428
 21
727.1753789131406
 31
0.0
  0
LINE
  5
12FD
330
12F3
100
AcDbEntity
  8
AM_5
 62
     2
100
AcDbLine
 10
1086.327029928086
 20
734.1753789131407
 30
0.0
 11
1086.327029928086
 21
727.1753789131406
 31
0.0
  0
ENDBLK
  5
12FF
330
12F3
100
AcDbEntity
  8
0
100
AcDbBlockEnd
  0
ENDSEC
  0
SECTION
  2
ENTITIES
  0
ARC
  5
9E4
330
1F
100
AcDbEntity
  8
0
  6
ByBlock
100
AcDbCircle
 10
1075.06791017203
 20
673.4525798400102
 30
0.0
 40
35.05584404037011
100
AcDbArc
 50
283.4023859165419
 51
290.440993425884
  0
ARC
  5
9E5
330
1F
100
AcDbEntity
  8
0
  6
ByBlock
100
AcDbCircle
 10
1075.06791017203
 20
673.4525798400102
 30
0.0
 40
41.05584404037011
100
AcDbArc
 50
280.8184061744413
 51
286.4278962782739
  0
LINE
  5
9E6
330
1F
100
AcDbEntity
  8
0
100
AcDbLine
 10
1081.96166017203
 20
689.2980441344437
 30
0.0
 11
1081.96166017203
 21
640.3242049290751
 31
0.0
1001
GENIUS_GENODEF_13
1002
{
1000
HIER
1070
     0
1002
}
1002
{
1000
MANEDIT
1070
     0
1002
}
1002
{
1000
NOSEL
1070
     0
1002
}
1002
{
1000
BEHIND
1070
     0
1002
}
1002
{
1000
OTHER
1070
     0
1002
}
1002
{
1000
REACTOR
1002
}
1001
GENIUS_GENOBJ-N-CEN_13
1002
{
1000
OWNER
1000
GEN
1002
}
  0
LINE
  5
9E7
330
1F
100
AcDbEntity
  8
0
100
AcDbLine
 10
1075.96166017203
 20
696.5184561818729
 30
0.0
 11
1075.96166017203
 21
639.3969015434391
 31
0.0
1001
GENIUS_GENODEF_13
1002
{
1000
HIER
1070
     0
1002
}
1002
{
1000
MANEDIT
1070
     0
1002
}
1002
{
1000
NOSEL
1070
     0
1002
}
1002
{
1000
BEHIND
1070
     0
1002
}
1002
{
1000
OTHER
1070
     0
1002
}
1002
{
1000
REACTOR
1002
}
1001
GENIUS_GENOBJ-N-CEN_13
1002
{
1000
OWNER
1000
GEN
1002
}
  0
LINE
  5
9E8
330
1F
100
AcDbEntity
  8
0
100
AcDbLine
 10
1069.96166017203
 20
699.1949153624704
 30
0.0
 11
1069.96166017203
 21
639.6451956726492
 31
0.0
1001
GENIUS_GENODEF_13
1002
{
1000
HIER
1070
     0
1002
}
1002
{
1000
MANEDIT
1070
     0
1002
}
1002
{
1000
NOSEL
1070
     0
1002
}
1002
{
1000
BEHIND
1070
     0
1002
}
1002
{
1000
OTHER
1070
     0
1002
}
1002
{
1000
REACTOR
1002
}
1001
GENIUS_GENOBJ-N-CEN_13
1002
{
1000
OWNER
1000
GEN
1002
}
  0
LINE
  5
9E9
330
1F
100
AcDbEntity
  8
0
100
AcDbLine
 10
1063.96166017203
 20
703.1810746559473
 30
0.0
 11
1063.96166017203
 21
641.6211610177291
 31
0.0
1001
GENIUS_GENODEF_13
1002
{
1000
HIER
1070
     0
1002
}
1002
{
1000
MANEDIT
1070
     0
1002
}
1002
{
1000
NOSEL
1070
     0
1002
}
1002
{
1000
BEHIND
1070
     0
1002
}
1002
{
1000
OTHER
1070
     0
1002
}
1002
{
1000
REACTOR
1002
}
1001
GENIUS_GENOBJ-N-CEN_13
1002
{
1000
OWNER
1000
GEN
1002
}
  0
LINE
  5
9EA
330
1F
100
AcDbEntity
  8
0
100
AcDbLine
 10
1057.96166017203
 20
704.59651767292
 30
0.0
 11
1057.96166017203
 21
643.4460934705681
 31
0.0
1001
GENIUS_GENODEF_13
1002
{
1000
HIER
1070
     0
1002
}
1002
{
1000
MANEDIT
1070
     0
1002
}
1002
{
1000
NOSEL
1070
     0
1002
}
1002
{
1000
BEHIND
1070
     0
1002
}
1002
{
1000
OTHER
1070
     0
1002
}
1002
{
1000
REACTOR
1002
}
1001
GENIUS_GENOBJ-N-CEN_13
1002
{
1000
OWNER
1000
GEN
1002
}
  0
LINE
  5
9EB
330
1F
100
AcDbEntity
  8
0
100
AcDbLine
 10
1081.96166017203
 20
632.1441941430911
 30
0.0
 11
1081.96166017203
 21
616.7446155455751
 31
0.0
1001
GENIUS_GENODEF_13
1002
{
1000
HIER
1070
     0
1002
}
1002
{
1000
MANEDIT
1070
     0
1002
}
1002
{
1000
NOSEL
1070
     0
1002
}
1002
{
1000
BEHIND
1070
     0
1002
}
1002
{
1000
OTHER
1070
     0
1002
}
1002
{
1000
REACTOR
1002
}
1001
GENIUS_GENOBJ-N-CEN_13
1002
{
1000
OWNER
1000
GEN
1002
}
  0
LINE
  5
9EC
330
1F
100
AcDbEntity
  8
0
100
AcDbLine
 10
1051.96166017203
 20
638.9912576238589
 30
0.0
 11
1051.96166017203
 21
599.6172101487351
 31
0.0
1001
GENIUS_GENODEF_13
1002
{
1000
HIER
1070
     0
1002
}
1002
{
1000
MANEDIT
1070
     0
1002
}
1002
{
1000
NOSEL
1070
     0
1002
}
1002
{
1000
BEHIND
1070
     0
1002
}
1002
{
1000
OTHER
1070
     0
1002
}
1002
{
1000
REACTOR
1002
}
1001
GENIUS_GENOBJ-N-CEN_13
1002
{
1000
OWNER
1000
GEN
1002
}
  0
LINE
  5
9ED
330
1F
100
AcDbEntity
  8
0
100
AcDbLine
 10
1045.96166017203
 20
642.16787544816
 30
0.0
 11
1045.96166017203
 21
599.1696817686642
 31
0.0
1001
GENIUS_GENODEF_13
1002
{
1000
HIER
1070
     0
1002
}
1002
{
1000
MANEDIT
1070
     0
1002
}
1002
{
1000
NOSEL
1070
     0
1002
}
1002
{
1000
BEHIND
1070
     0
1002
}
1002
{
1000
OTHER
1070
     0
1002
}
1002
{
1000
REACTOR
1002
}
1001
GENIUS_GENOBJ-N-CEN_13
1002
{
1000
OWNER
1000
GEN
1002
}
  0
LINE
  5
9EE
330
1F
100
AcDbEntity
  8
0
100
AcDbLine
 10
1057.96166017203
 20
634.6030916981382
 30
0.0
 11
1057.96166017203
 21
601.4461420070991
 31
0.0
1001
GENIUS_GENODEF_13
1002
{
1000
HIER
1070
     0
1002
}
1002
{
1000
MANEDIT
1070
     0
1002
}
1002
{
1000
NOSEL
1070
     0
1002
}
1002
{
1000
BEHIND
1070
     0
1002
}
1002
{
1000
OTHER
1070
     0
1002
}
1002
{
1000
REACTOR
1002
}
1001
GENIUS_GENOBJ-N-CEN_13
1002
{
1000
OWNER
1000
GEN
1002
}
  0
LINE
  5
9EF
330
1F
100
AcDbEntity
  8
0
100
AcDbLine
 10
1063.96166017203
 20
633.1768709215388
 30
0.0
 11
1063.96166017203
 21
602.861585024072
 31
0.0
1001
GENIUS_GENODEF_13
1002
{
1000
HIER
1070
     0
1002
}
1002
{
1000
MANEDIT
1070
     0
1002
}
1002
{
1000
NOSEL
1070
     0
1002
}
1002
{
1000
BEHIND
1070
     0
1002
}
1002
{
1000
OTHER
1070
     0
1002
}
1002
{
1000
REACTOR
1002
}
1001
GENIUS_GENOBJ-N-CEN_13
1002
{
1000
OWNER
1000
GEN
1002
}
  0
LINE
  5
9F0
330
1F
100
AcDbEntity
  8
0
100
AcDbLine
 10
1069.96166017203
 20
631.5976789455461
 30
0.0
 11
1069.96166017203
 21
606.847744317549
 31
0.0
1001
GENIUS_GENODEF_13
1002
{
1000
HIER
1070
     0
1002
}
1002
{
1000
MANEDIT
1070
     0
1002
}
1002
{
1000
NOSEL
1070
     0
1002
}
1002
{
1000
BEHIND
1070
     0
1002
}
1002
{
1000
OTHER
1070
     0
1002
}
1002
{
1000
REACTOR
1002
}
1001
GENIUS_GENOBJ-N-CEN_13
1002
{
1000
OWNER
1000
GEN
1002
}
  0
LINE
  5
9F1
330
1F
100
AcDbEntity
  8
0
100
AcDbLine
 10
1075.96166017203
 20
631.3968700150002
 30
0.0
 11
1075.96166017203
 21
609.5242034981471
 31
0.0
1001
GENIUS_GENODEF_13
1002
{
1000
HIER
1070
     0
1002
}
1002
{
1000
MANEDIT
1070
     0
1002
}
1002
{
1000
NOSEL
1070
     0
1002
}
1002
{
1000
BEHIND
1070
     0
1002
}
1002
{
1000
OTHER
1070
     0
1002
}
1002
{
1000
REACTOR
1002
}
1001
GENIUS_GENOBJ-N-CEN_13
1002
{
1000
OWNER
1000
GEN
1002
}
  0
ARC
  5
9F2
330
1F
100
AcDbEntity
  8
0
  6
ByBlock
100
AcDbCircle
 10
1075.06791017203
 20
673.4525798400102
 30
0.0
 40
41.05584404037011
100
AcDbArc
 50
228.0634034835701
 51
235.0265913861436
  0
ARC
  5
9F3
330
1F
100
AcDbEntity
  8
0
100
AcDbCircle
 10
1046.96166017203
 20
642.16787544816
 30
0.0
 40
1.0
100
AcDbArc
 50
48.06340348357007
 51
180.0
  0
ARC
  5
9F4
330
1F
100
AcDbEntity
  8
0
100
AcDbCircle
 10
1058.96166017203
 20
634.6030916981382
 30
0.0
 40
1.0
100
AcDbArc
 50
67.48204493122431
 51
180.0
  0
ARC
  5
9F5
330
1F
100
AcDbEntity
  8
0
  6
ByBlock
100
AcDbCircle
 10
1075.06791017203
 20
673.4525798400102
 30
0.0
 40
41.05584404037011
100
AcDbArc
 50
247.4820449312243
 51
253.2700414997453
  0
ARC
  5
9F6
330
1F
100
AcDbEntity
  8
0
100
AcDbCircle
 10
1062.96166017203
 20
633.1768709215388
 30
0.0
 40
1.0
100
AcDbArc
 50
0.0
 51
73.27004149974531
  0
ARC
  5
9F7
330
1F
100
AcDbEntity
  8
0
  6
ByBlock
100
AcDbCircle
 10
1075.06791017203
 20
673.4525798400102
 30
0.0
 40
35.05584404037011
100
AcDbArc
 50
241.7749226510489
 51
249.1769932600611
  0
ARC
  5
9F8
330
1F
100
AcDbEntity
  8
0
100
AcDbCircle
 10
1058.96166017203
 20
643.4460934705681
 30
0.0
 40
1.0
100
AcDbArc
 50
180.0
 51
241.7749226510489
  0
ARC
  5
9F9
330
1F
100
AcDbEntity
  8
0
100
AcDbCircle
 10
1050.96166017203
 20
638.9912576238589
 30
0.0
 40
1.0
100
AcDbArc
 50
0.0
 51
55.02659138614362
  0
ARC
  5
9FA
330
1F
100
AcDbEntity
  8
0
100
AcDbCircle
 10
1062.96166017203
 20
641.6211610177291
 30
0.0
 40
1.0
100
AcDbArc
 50
249.1769932600611
 51
0.0
  0
ARC
  5
9FB
330
1F
100
AcDbEntity
  8
0
100
AcDbCircle
 10
1074.96166017203
 20
631.3968700150002
 30
0.0
 40
1.0
100
AcDbArc
 50
0.0
 51
89.85524763114483
  0
ARC
  5
9FC
330
1F
100
AcDbEntity
  8
0
  6
ByBlock
100
AcDbCircle
 10
1075.06791017203
 20
673.4525798400102
 30
0.0
 40
41.05584404037011
100
AcDbArc
 50
264.396825787925
 51
269.8552476311383
  0
ARC
  5
9FD
330
1F
100
AcDbEntity
  8
0
100
AcDbCircle
 10
1070.96166017203
 20
631.5976789455461
 30
0.0
 40
1.0
100
AcDbArc
 50
84.39682578792499
 51
180.0
  0
ARC
  5
9FE
330
1F
100
AcDbEntity
  8
0
100
AcDbCircle
 10
1082.96166017203
 20
632.1441941430911
 30
0.0
 40
1.0
100
AcDbArc
 50
100.8184061744489
 51
180.0
  0
ARC
  5
9FF
330
1F
100
AcDbEntity
  8
0
100
AcDbCircle
 10
1074.96166017203
 20
639.3969015434391
 30
0.0
 40
1.0
100
AcDbArc
 50
269.8212440002356
 51
0.0
  0
ARC
  5
A00
330
1F
100
AcDbEntity
  8
0
  6
ByBlock
100
AcDbCircle
 10
1075.06791017203
 20
673.4525798400102
 30
0.0
 40
35.05584404037011
100
AcDbArc
 50
263.0747679835921
 51
269.8212440002356
  0
ARC
  5
A01
330
1F
100
AcDbEntity
  8
0
100
AcDbCircle
 10
1070.96166017203
 20
639.6451956726492
 30
0.0
 40
1.0
100
AcDbArc
 50
180.0
 51
263.0747679835856
  0
ARC
  5
A02
330
1F
100
AcDbEntity
  8
0
100
AcDbCircle
 10
1082.96166017203
 20
640.3242049290751
 30
0.0
 40
1.0
100
AcDbArc
 50
180.0
 51
283.4023859165356
  0
LINE
  5
A03
330
1F
100
AcDbEntity
  8
0
100
AcDbLine
 10
1087.96166017203
 20
684.3262815250064
 30
0.0
 11
1087.96166017203
 21
641.5411520399329
 31
0.0
1001
GENIUS_GENODEF_13
1002
{
1000
HIER
1070
     0
1002
}
1002
{
1000
MANEDIT
1070
     0
1002
}
1002
{
1000
NOSEL
1070
     0
1002
}
1002
{
1000
BEHIND
1070
     0
1002
}
1002
{
1000
OTHER
1070
     0
1002
}
1002
{
1000
REACTOR
1002
}
1001
GENIUS_GENOBJ-N-CEN_13
1002
{
1000
OWNER
1000
GEN
1002
}
  0
LINE
  5
A04
330
1F
100
AcDbEntity
  8
0
100
AcDbLine
 10
1087.96166017203
 20
633.1136070111762
 30
0.0
 11
1087.96166017203
 21
621.7163781550131
 31
0.0
1001
GENIUS_GENODEF_13
1002
{
1000
HIER
1070
     0
1002
}
1002
{
1000
MANEDIT
1070
     0
1002
}
1002
{
1000
NOSEL
1070
     0
1002
}
1002
{
1000
BEHIND
1070
     0
1002
}
1002
{
1000
OTHER
1070
     0
1002
}
1002
{
1000
REACTOR
1002
}
1001
GENIUS_GENOBJ-N-CEN_13
1002
{
1000
OWNER
1000
GEN
1002
}
  0
ARC
  5
A05
330
1F
100
AcDbEntity
  8
0
100
AcDbCircle
 10
1086.96166017203
 20
633.1136070111762
 30
0.0
 40
1.0
100
AcDbArc
 50
0.0
 51
106.4278962782738
  0
ARC
  5
A06
330
1F
100
AcDbEntity
  8
0
100
AcDbCircle
 10
1086.96166017203
 20
641.5411520399329
 30
0.0
 40
1.0
100
AcDbArc
 50
290.440993425884
 51
0.0
  0
LINE
  5
A07
330
1F
100
AcDbEntity
  8
0
100
AcDbLine
 10
1051.96166017203
 20
706.4254495312846
 30
0.0
 11
1051.96166017203
 21
649.39661957567
 31
0.0
1001
GENIUS_GENODEF_13
1002
{
1000
HIER
1070
     0
1002
}
1002
{
1000
MANEDIT
1070
     0
1002
}
1002
{
1000
NOSEL
1070
     0
1002
}
1002
{
1000
BEHIND
1070
     0
1002
}
1002
{
1000
OTHER
1070
     0
1002
}
1002
{
1000
REACTOR
1002
}
1001
GENIUS_GENOBJ-N-CEN_13
1002
{
1000
OWNER
1000
GEN
1002
}
  0
LINE
  5
A08
330
1F
100
AcDbEntity
  8
0
100
AcDbLine
 10
1045.96166017203
 20
706.8729779113548
 30
0.0
 11
1045.96166017203
 21
654.2213753993239
 31
0.0
1001
GENIUS_GENODEF_13
1002
{
1000
HIER
1070
     0
1002
}
1002
{
1000
MANEDIT
1070
     0
1002
}
1002
{
1000
NOSEL
1070
     0
1002
}
1002
{
1000
BEHIND
1070
     0
1002
}
1002
{
1000
OTHER
1070
     0
1002
}
1002
{
1000
REACTOR
1002
}
1001
GENIUS_GENOBJ-N-CEN_13
1002
{
1000
OWNER
1000
GEN
1002
}
  0
LINE
  5
A09
330
1F
100
AcDbEntity
  8
0
100
AcDbLine
 10
997.9616601720309
 20
664.5015076400872
 30
0.0
 11
997.9616601720309
 21
621.7163781550124
 31
0.0
1001
GENIUS_GENODEF_13
1002
{
1000
HIER
1070
     0
1002
}
1002
{
1000
MANEDIT
1070
     0
1002
}
1002
{
1000
NOSEL
1070
     0
1002
}
1002
{
1000
BEHIND
1070
     0
1002
}
1002
{
1000
OTHER
1070
     0
1002
}
1002
{
1000
REACTOR
1002
}
1001
GENIUS_GENOBJ-N-CEN_13
1002
{
1000
OWNER
1000
GEN
1002
}
  0
LINE
  5
A0A
330
1F
100
AcDbEntity
  8
0
100
AcDbLine
 10
1003.961660172031
 20
665.7184547509461
 30
0.0
 11
1003.961660172031
 21
616.7446155455752
 31
0.0
1001
GENIUS_GENODEF_13
1002
{
1000
HIER
1070
     0
1002
}
1002
{
1000
MANEDIT
1070
     0
1002
}
1002
{
1000
NOSEL
1070
     0
1002
}
1002
{
1000
BEHIND
1070
     0
1002
}
1002
{
1000
OTHER
1070
     0
1002
}
1002
{
1000
REACTOR
1002
}
1001
GENIUS_GENOBJ-N-CEN_13
1002
{
1000
OWNER
1000
GEN
1002
}
  0
LINE
  5
A0B
330
1F
100
AcDbEntity
  8
0
100
AcDbLine
 10
1009.96166017203
 20
666.6457581365811
 30
0.0
 11
1009.96166017203
 21
609.5242034981472
 31
0.0
1001
GENIUS_GENODEF_13
1002
{
1000
HIER
1070
     0
1002
}
1002
{
1000
MANEDIT
1070
     0
1002
}
1002
{
1000
NOSEL
1070
     0
1002
}
1002
{
1000
BEHIND
1070
     0
1002
}
1002
{
1000
OTHER
1070
     0
1002
}
1002
{
1000
REACTOR
1002
}
1001
GENIUS_GENOBJ-N-CEN_13
1002
{
1000
OWNER
1000
GEN
1002
}
  0
LINE
  5
A0C
330
1F
100
AcDbEntity
  8
0
100
AcDbLine
 10
1015.96166017203
 20
666.3974640073713
 30
0.0
 11
1015.96166017203
 21
606.8477443175494
 31
0.0
1001
GENIUS_GENODEF_13
1002
{
1000
HIER
1070
     0
1002
}
1002
{
1000
MANEDIT
1070
     0
1002
}
1002
{
1000
NOSEL
1070
     0
1002
}
1002
{
1000
BEHIND
1070
     0
1002
}
1002
{
1000
OTHER
1070
     0
1002
}
1002
{
1000
REACTOR
1002
}
1001
GENIUS_GENOBJ-N-CEN_13
1002
{
1000
OWNER
1000
GEN
1002
}
  0
LINE
  5
A0D
330
1F
100
AcDbEntity
  8
0
100
AcDbLine
 10
1021.96166017203
 20
664.4214986622933
 30
0.0
 11
1021.96166017203
 21
602.861585024072
 31
0.0
1001
GENIUS_GENODEF_13
1002
{
1000
HIER
1070
     0
1002
}
1002
{
1000
MANEDIT
1070
     0
1002
}
1002
{
1000
NOSEL
1070
     0
1002
}
1002
{
1000
BEHIND
1070
     0
1002
}
1002
{
1000
OTHER
1070
     0
1002
}
1002
{
1000
REACTOR
1002
}
1001
GENIUS_GENOBJ-N-CEN_13
1002
{
1000
OWNER
1000
GEN
1002
}
  0
LINE
  5
A0E
330
1F
100
AcDbEntity
  8
0
100
AcDbLine
 10
1027.96166017203
 20
662.5965662094532
 30
0.0
 11
1027.96166017203
 21
601.4461420070991
 31
0.0
1001
GENIUS_GENODEF_13
1002
{
1000
HIER
1070
     0
1002
}
1002
{
1000
MANEDIT
1070
     0
1002
}
1002
{
1000
NOSEL
1070
     0
1002
}
1002
{
1000
BEHIND
1070
     0
1002
}
1002
{
1000
OTHER
1070
     0
1002
}
1002
{
1000
REACTOR
1002
}
1001
GENIUS_GENOBJ-N-CEN_13
1002
{
1000
OWNER
1000
GEN
1002
}
  0
LINE
  5
A0F
330
1F
100
AcDbEntity
  8
0
100
AcDbLine
 10
1033.96166017203
 20
656.6460401043512
 30
0.0
 11
1033.96166017203
 21
599.6172101487351
 31
0.0
1001
GENIUS_GENODEF_13
1002
{
1000
HIER
1070
     0
1002
}
1002
{
1000
MANEDIT
1070
     0
1002
}
1002
{
1000
NOSEL
1070
     0
1002
}
1002
{
1000
BEHIND
1070
     0
1002
}
1002
{
1000
OTHER
1070
     0
1002
}
1002
{
1000
REACTOR
1002
}
1001
GENIUS_GENOBJ-N-CEN_13
1002
{
1000
OWNER
1000
GEN
1002
}
  0
LINE
  5
A10
330
1F
100
AcDbEntity
  8
0
100
AcDbLine
 10
1039.96166017203
 20
652.1282069846551
 30
0.0
 11
1039.96166017203
 21
599.1696817686642
 31
0.0
1001
GENIUS_GENODEF_13
1002
{
1000
HIER
1070
     0
1002
}
1002
{
1000
MANEDIT
1070
     0
1002
}
1002
{
1000
NOSEL
1070
     0
1002
}
1002
{
1000
BEHIND
1070
     0
1002
}
1002
{
1000
OTHER
1070
     0
1002
}
1002
{
1000
REACTOR
1002
}
1001
GENIUS_GENOBJ-N-CEN_13
1002
{
1000
OWNER
1000
GEN
1002
}
  0
ARC
  5
A11
330
1F
100
AcDbEntity
  8
0
  6
ByBlock
100
AcDbCircle
 10
1075.06791017203
 20
673.4525798400102
 30
0.0
 40
35.05584404037011
100
AcDbArc
 50
214.3811949530725
 51
224.9401732490348
  0
ARC
  5
A12
330
1F
100
AcDbEntity
  8
0
100
AcDbCircle
 10
1046.96166017203
 20
654.2213753993239
 30
0.0
 40
1.0
100
AcDbArc
 50
180.0
 51
214.3811949530725
  0
ARC
  5
A13
330
1F
100
AcDbEntity
  8
0
100
AcDbCircle
 10
1022.96166017203
 20
672.8657887584822
 30
0.0
 40
1.0
100
AcDbArc
 50
180.0
 51
253.2700414997453
  0
ARC
  5
A14
330
1F
100
AcDbEntity
  8
0
100
AcDbCircle
 10
998.9616601720308
 20
672.9290526688451
 30
0.0
 40
1.0
100
AcDbArc
 50
180.0
 51
286.4278962782739
  0
ARC
  5
A15
330
1F
100
AcDbEntity
  8
0
  6
ByBlock
100
AcDbCircle
 10
1010.855410172031
 20
632.5900798400103
 30
0.0
 40
41.05584404037058
100
AcDbArc
 50
100.8184061744489
 51
106.4278962782738
  0
LINE
  5
A16
330
1F
100
AcDbEntity
  8
0
100
AcDbLine
 10
1033.96166017203
 20
706.4254495312846
 30
0.0
 11
1033.96166017203
 21
667.0514020561632
 31
0.0
1001
GENIUS_GENODEF_13
1002
{
1000
HIER
1070
     0
1002
}
1002
{
1000
MANEDIT
1070
     0
1002
}
1002
{
1000
NOSEL
1070
     0
1002
}
1002
{
1000
BEHIND
1070
     0
1002
}
1002
{
1000
OTHER
1070
     0
1002
}
1002
{
1000
REACTOR
1002
}
1001
GENIUS_GENOBJ-N-CEN_13
1002
{
1000
OWNER
1000
GEN
1002
}
  0
LINE
  5
A17
330
1F
100
AcDbEntity
  8
0
100
AcDbLine
 10
1027.96166017203
 20
704.5965176729203
 30
0.0
 11
1027.96166017203
 21
671.4395679818823
 31
0.0
1001
GENIUS_GENODEF_13
1002
{
1000
HIER
1070
     0
1002
}
1002
{
1000
MANEDIT
1070
     0
1002
}
1002
{
1000
NOSEL
1070
     0
1002
}
1002
{
1000
BEHIND
1070
     0
1002
}
1002
{
1000
OTHER
1070
     0
1002
}
1002
{
1000
REACTOR
1002
}
1001
GENIUS_GENOBJ-N-CEN_13
1002
{
1000
OWNER
1000
GEN
1002
}
  0
ARC
  5
A18
330
1F
100
AcDbEntity
  8
0
100
AcDbCircle
 10
1014.96166017203
 20
666.3974640073713
 30
0.0
 40
1.0
100
AcDbArc
 50
0.0
 51
83.07476798359207
  0
ARC
  5
A19
330
1F
100
AcDbEntity
  8
0
  6
ByBlock
100
AcDbCircle
 10
1010.855410172031
 20
632.5900798400103
 30
0.0
 40
35.05584404037058
100
AcDbArc
 50
103.4023859165419
 51
110.440993425884
  0
ARC
  5
A1A
330
1F
100
AcDbEntity
  8
0
100
AcDbCircle
 10
998.9616601720308
 20
664.5015076400872
 30
0.0
 40
1.0
100
AcDbArc
 50
110.440993425884
 51
180.0
  0
ARC
  5
A1B
330
1F
100
AcDbEntity
  8
0
100
AcDbCircle
 10
1002.96166017203
 20
665.7184547509461
 30
0.0
 40
1.0
100
AcDbArc
 50
0.0
 51
103.4023859165419
  0
ARC
  5
A1C
330
1F
100
AcDbEntity
  8
0
  6
ByBlock
100
AcDbCircle
 10
1010.855410172031
 20
632.5900798400103
 30
0.0
 40
35.05584404037058
100
AcDbArc
 50
83.07476798359207
 51
89.82124400023561
  0
ARC
  5
A1D
330
1F
100
AcDbEntity
  8
0
100
AcDbCircle
 10
1010.96166017203
 20
666.6457581365811
 30
0.0
 40
1.0
100
AcDbArc
 50
89.82124400023561
 51
180.0
  0
ARC
  5
A1E
330
1F
100
AcDbEntity
  8
0
  6
ByBlock
100
AcDbCircle
 10
1010.855410172031
 20
632.5900798400103
 30
0.0
 40
41.05584404037058
100
AcDbArc
 50
67.48204493122431
 51
73.27004149974531
  0
ARC
  5
A1F
330
1F
100
AcDbEntity
  8
0
  6
ByBlock
100
AcDbCircle
 10
1010.855410172031
 20
632.5900798400103
 30
0.0
 40
35.05584404037058
100
AcDbArc
 50
61.77492265104318
 51
69.17699326006104
  0
ARC
  5
A20
330
1F
100
AcDbEntity
  8
0
100
AcDbCircle
 10
1022.96166017203
 20
664.4214986622933
 30
0.0
 40
1.0
100
AcDbArc
 50
69.17699326006104
 51
180.0
  0
ARC
  5
A21
330
1F
100
AcDbEntity
  8
0
100
AcDbCircle
 10
1026.961660172031
 20
662.5965662094532
 30
0.0
 40
1.0
100
AcDbArc
 50
0.0
 51
61.77492265104318
  0
ARC
  5
A22
330
1F
100
AcDbEntity
  8
0
100
AcDbCircle
 10
1026.961660172031
 20
671.4395679818823
 30
0.0
 40
1.0
100
AcDbArc
 50
247.4820449312243
 51
0.0
  0
ARC
  5
A23
330
1F
100
AcDbEntity
  8
0
100
AcDbCircle
 10
1034.96166017203
 20
667.0514020561632
 30
0.0
 40
1.0
100
AcDbArc
 50
180.0
 51
235.0265913861436
  0
ARC
  5
A24
330
1F
100
AcDbEntity
  8
0
100
AcDbCircle
 10
1034.96166017203
 20
667.0514020561632
 30
0.0
 40
1.0
100
AcDbArc
 50
180.0
 51
235.0265913861436
  0
ARC
  5
A25
330
1F
100
AcDbEntity
  8
0
  6
ByBlock
100
AcDbCircle
 10
1010.855410172031
 20
632.5900798400103
 30
0.0
 40
41.05584404037058
100
AcDbArc
 50
48.06340348357007
 51
55.02659138614362
  0
ARC
  5
A26
330
1F
100
AcDbEntity
  8
0
100
AcDbCircle
 10
1038.96166017203
 20
663.8747842318612
 30
0.0
 40
1.0
100
AcDbArc
 50
228.0634034835701
 51
0.0
  0
ARC
  5
A27
330
1F
100
AcDbEntity
  8
0
100
AcDbCircle
 10
1014.96166017203
 20
674.4449807344751
 30
0.0
 40
1.0
100
AcDbArc
 50
264.396825787925
 51
0.0
  0
LINE
  5
A28
330
1F
100
AcDbEntity
  8
0
100
AcDbLine
 10
1015.96166017203
 20
699.1949153624704
 30
0.0
 11
1015.96166017203
 21
674.4449807344751
 31
0.0
1001
GENIUS_GENODEF_13
1002
{
1000
HIER
1070
     0
1002
}
1002
{
1000
MANEDIT
1070
     0
1002
}
1002
{
1000
NOSEL
1070
     0
1002
}
1002
{
1000
BEHIND
1070
     0
1002
}
1002
{
1000
OTHER
1070
     0
1002
}
1002
{
1000
REACTOR
1002
}
1001
GENIUS_GENOBJ-N-CEN_13
1002
{
1000
OWNER
1000
GEN
1002
}
  0
LINE
  5
A29
330
1F
100
AcDbEntity
  8
0
100
AcDbLine
 10
1009.961660172031
 20
696.5184561818729
 30
0.0
 11
1009.96166017203
 21
674.6457896650212
 31
0.0
1001
GENIUS_GENODEF_13
1002
{
1000
HIER
1070
     0
1002
}
1002
{
1000
MANEDIT
1070
     0
1002
}
1002
{
1000
NOSEL
1070
     0
1002
}
1002
{
1000
BEHIND
1070
     0
1002
}
1002
{
1000
OTHER
1070
     0
1002
}
1002
{
1000
REACTOR
1002
}
1001
GENIUS_GENOBJ-N-CEN_13
1002
{
1000
OWNER
1000
GEN
1002
}
  0
LINE
  5
A2A
330
1F
100
AcDbEntity
  8
0
100
AcDbLine
 10
1003.96166017203
 20
689.2980441344441
 30
0.0
 11
1003.961660172031
 21
673.8984655369303
 31
0.0
1001
GENIUS_GENODEF_13
1002
{
1000
HIER
1070
     0
1002
}
1002
{
1000
MANEDIT
1070
     0
1002
}
1002
{
1000
NOSEL
1070
     0
1002
}
1002
{
1000
BEHIND
1070
     0
1002
}
1002
{
1000
OTHER
1070
     0
1002
}
1002
{
1000
REACTOR
1002
}
1001
GENIUS_GENOBJ-N-CEN_13
1002
{
1000
OWNER
1000
GEN
1002
}
  0
LINE
  5
A2B
330
1F
100
AcDbEntity
  8
0
100
AcDbLine
 10
997.9616601720303
 20
684.3262815250069
 30
0.0
 11
997.9616601720309
 21
672.9290526688451
 31
0.0
1001
GENIUS_GENODEF_13
1002
{
1000
HIER
1070
     0
1002
}
1002
{
1000
MANEDIT
1070
     0
1002
}
1002
{
1000
NOSEL
1070
     0
1002
}
1002
{
1000
BEHIND
1070
     0
1002
}
1002
{
1000
OTHER
1070
     0
1002
}
1002
{
1000
REACTOR
1002
}
1001
GENIUS_GENOBJ-N-CEN_13
1002
{
1000
OWNER
1000
GEN
1002
}
  0
ARC
  5
A2C
330
1F
100
AcDbEntity
  8
0
100
AcDbCircle
 10
1002.96166017203
 20
673.8984655369303
 30
0.0
 40
1.0
100
AcDbArc
 50
280.8184061744413
 51
0.0
  0
ARC
  5
A2D
330
1F
100
AcDbEntity
  8
0
  6
ByBlock
100
AcDbCircle
 10
1010.855410172031
 20
632.5900798400103
 30
0.0
 40
41.05584404037058
100
AcDbArc
 50
84.39682578792499
 51
89.85524763114483
  0
ARC
  5
A2E
330
1F
100
AcDbEntity
  8
0
100
AcDbCircle
 10
1010.96166017203
 20
674.6457896650212
 30
0.0
 40
1.0
100
AcDbArc
 50
180.0
 51
269.8552476311383
  0
LINE
  5
A2F
330
1F
100
AcDbEntity
  8
0
100
AcDbLine
 10
1021.96166017203
 20
703.1810746559478
 30
0.0
 11
1021.96166017203
 21
672.8657887584822
 31
0.0
1001
GENIUS_GENODEF_13
1002
{
1000
HIER
1070
     0
1002
}
1002
{
1000
MANEDIT
1070
     0
1002
}
1002
{
1000
NOSEL
1070
     0
1002
}
1002
{
1000
BEHIND
1070
     0
1002
}
1002
{
1000
OTHER
1070
     0
1002
}
1002
{
1000
REACTOR
1002
}
1001
GENIUS_GENOBJ-N-CEN_13
1002
{
1000
OWNER
1000
GEN
1002
}
  0
LINE
  5
A30
330
1F
100
AcDbEntity
  8
0
100
AcDbLine
 10
1039.96166017203
 20
706.8729779113546
 30
0.0
 11
1039.96166017203
 21
663.8747842318612
 31
0.0
1001
GENIUS_GENODEF_13
1002
{
1000
HIER
1070
     0
1002
}
1002
{
1000
MANEDIT
1070
     0
1002
}
1002
{
1000
NOSEL
1070
     0
1002
}
1002
{
1000
BEHIND
1070
     0
1002
}
1002
{
1000
OTHER
1070
     0
1002
}
1002
{
1000
REACTOR
1002
}
1001
GENIUS_GENOBJ-N-CEN_13
1002
{
1000
OWNER
1000
GEN
1002
}
  0
ARC
  5
A31
330
1F
100
AcDbEntity
  8
0
  6
ByBlock
100
AcDbCircle
 10
1010.855410172031
 20
632.5900798400103
 30
0.0
 40
35.05584404037058
100
AcDbArc
 50
33.87224270421536
 51
44.94017324903477
  0
ARC
  5
A32
330
1F
100
AcDbEntity
  8
0
100
AcDbCircle
 10
1050.96166017203
 20
649.39661957567
 30
0.0
 40
1.0
100
AcDbArc
 50
224.9401732490348
 51
0.0
  0
ARC
  5
A33
330
1F
100
AcDbEntity
  8
0
100
AcDbCircle
 10
1034.96166017203
 20
656.6460401043512
 30
0.0
 40
1.0
100
AcDbArc
 50
44.94017324903477
 51
180.0
  0
ARC
  5
A35
330
1F
100
AcDbEntity
  8
0
100
AcDbCircle
 10
1042.96166017203
 20
653.0213298400102
 30
0.0
 40
55.0
100
AcDbArc
 50
215.43094468734
 51
222.2054464037281
  0
ARC
  5
A36
330
1F
100
AcDbEntity
  8
0
100
AcDbCircle
 10
998.9616601720308
 20
621.7163781550124
 30
0.0
 40
1.0
100
AcDbArc
 50
180.0
 51
215.43094468734
  0
ARC
  5
A37
330
1F
100
AcDbEntity
  8
0
100
AcDbCircle
 10
1002.961660172031
 20
616.7446155455752
 30
0.0
 40
1.0
100
AcDbArc
 50
222.2054464037281
 51
0.0
  0
ARC
  5
A38
330
1F
100
AcDbEntity
  8
0
100
AcDbCircle
 10
1042.96166017203
 20
653.0213298400102
 30
0.0
 40
55.0
100
AcDbArc
 50
233.6587969062148
 51
238.7670709844829
  0
ARC
  5
A39
330
1F
100
AcDbEntity
  8
0
100
AcDbCircle
 10
1010.96166017203
 20
609.5242034981472
 30
0.0
 40
1.0
100
AcDbArc
 50
180.0
 51
233.6587969062148
  0
ARC
  5
A3A
330
1F
100
AcDbEntity
  8
0
100
AcDbCircle
 10
1014.96166017203
 20
606.8477443175494
 30
0.0
 40
1.0
100
AcDbArc
 50
238.7670709844829
 51
0.0
  0
ARC
  5
A3B
330
1F
100
AcDbEntity
  8
0
100
AcDbCircle
 10
1042.96166017203
 20
653.0213298400102
 30
0.0
 40
55.0
100
AcDbArc
 50
248.2615392084755
 51
252.7647147429119
  0
ARC
  5
A3C
330
1F
100
AcDbEntity
  8
0
100
AcDbCircle
 10
1022.96166017203
 20
602.861585024072
 30
0.0
 40
1.0
100
AcDbArc
 50
180.0
 51
248.2615392084816
  0
ARC
  5
A3D
330
1F
100
AcDbEntity
  8
0
100
AcDbCircle
 10
1026.96166017203
 20
601.4461420070991
 30
0.0
 40
1.0
100
AcDbArc
 50
252.7647147429119
 51
0.0
  0
ARC
  5
A3E
330
1F
100
AcDbEntity
  8
0
100
AcDbCircle
 10
1042.96166017203
 20
653.0213298400102
 30
0.0
 40
55.0
100
AcDbArc
 50
261.4803757458572
 51
265.7519773332682
  0
ARC
  5
A3F
330
1F
100
AcDbEntity
  8
0
100
AcDbCircle
 10
1034.96166017203
 20
599.6172101487351
 30
0.0
 40
1.0
100
AcDbArc
 50
180.0
 51
261.4803757458572
  0
ARC
  5
A40
330
1F
100
AcDbEntity
  8
0
100
AcDbCircle
 10
1038.96166017203
 20
599.1696817686642
 30
0.0
 40
1.0
100
AcDbArc
 50
265.7519773332682
 51
0.0
  0
ARC
  5
A41
330
1F
100
AcDbEntity
  8
0
100
AcDbCircle
 10
1042.96166017203
 20
653.0213298400102
 30
0.0
 40
55.0
100
AcDbArc
 50
274.2480226667319
 51
278.5196242541429
  0
ARC
  5
A42
330
1F
100
AcDbEntity
  8
0
100
AcDbCircle
 10
1046.96166017203
 20
599.1696817686642
 30
0.0
 40
1.0
100
AcDbArc
 50
180.0
 51
274.2480226667319
  0
ARC
  5
A43
330
1F
100
AcDbEntity
  8
0
100
AcDbCircle
 10
1050.96166017203
 20
599.6172101487351
 30
0.0
 40
1.0
100
AcDbArc
 50
278.5196242541365
 51
0.0
  0
ARC
  5
A44
330
1F
100
AcDbEntity
  8
0
100
AcDbCircle
 10
1042.96166017203
 20
653.0213298400102
 30
0.0
 40
55.0
100
AcDbArc
 50
287.2352852570882
 51
291.7384607915244
  0
ARC
  5
A45
330
1F
100
AcDbEntity
  8
0
100
AcDbCircle
 10
1058.96166017203
 20
601.4461420070991
 30
0.0
 40
1.0
100
AcDbArc
 50
180.0
 51
287.2352852570882
  0
ARC
  5
A46
330
1F
100
AcDbEntity
  8
0
100
AcDbCircle
 10
1062.96166017203
 20
602.861585024072
 30
0.0
 40
1.0
100
AcDbArc
 50
291.7384607915244
 51
0.0
  0
ARC
  5
A47
330
1F
100
AcDbEntity
  8
0
100
AcDbCircle
 10
1042.96166017203
 20
653.0213298400102
 30
0.0
 40
55.0
100
AcDbArc
 50
301.232929015517
 51
306.3412030937852
  0
ARC
  5
A48
330
1F
100
AcDbEntity
  8
0
100
AcDbCircle
 10
1074.96166017203
 20
609.5242034981471
 30
0.0
 40
1.0
100
AcDbArc
 50
306.3412030937852
 51
0.0
  0
ARC
  5
A49
330
1F
100
AcDbEntity
  8
0
100
AcDbCircle
 10
1070.96166017203
 20
606.847744317549
 30
0.0
 40
1.0
100
AcDbArc
 50
179.999999999987
 51
301.2329290155115
  0
ARC
  5
A4A
330
1F
100
AcDbEntity
  8
0
100
AcDbCircle
 10
1042.96166017203
 20
653.0213298400102
 30
0.0
 40
55.0
100
AcDbArc
 50
317.7945535962718
 51
324.5690553126601
  0
ARC
  5
A4B
330
1F
100
AcDbEntity
  8
0
100
AcDbCircle
 10
1086.96166017203
 20
621.7163781550131
 30
0.0
 40
1.0
100
AcDbArc
 50
324.5690553126601
 51
0.0
  0
ARC
  5
A4C
330
1F
100
AcDbEntity
  8
0
100
AcDbCircle
 10
1082.961660172029
 20
616.7446155455751
 30
0.0
 40
1.0
100
AcDbArc
 50
180.0
 51
317.7945535962578
  0
ARC
  5
A4D
330
1F
100
AcDbEntity
  8
0
100
AcDbCircle
 10
1042.96166017203
 20
653.0213298400102
 30
0.0
 40
55.0
100
AcDbArc
 50
35.43094468733995
 51
42.20544640372817
  0
ARC
  5
A4E
330
1F
100
AcDbEntity
  8
0
100
AcDbCircle
 10
1086.96166017203
 20
684.3262815250064
 30
0.0
 40
1.0
100
AcDbArc
 50
0.0
 51
35.43094468733995
  0
ARC
  5
A4F
330
1F
100
AcDbEntity
  8
0
100
AcDbCircle
 10
1082.96166017203
 20
689.2980441344437
 30
0.0
 40
1.0
100
AcDbArc
 50
42.20544640374219
 51
180.0
  0
ARC
  5
A50
330
1F
100
AcDbEntity
  8
0
100
AcDbCircle
 10
1042.96166017203
 20
653.0213298400102
 30
0.0
 40
55.0
100
AcDbArc
 50
53.65879690621478
 51
58.76707098448296
  0
ARC
  5
A51
330
1F
100
AcDbEntity
  8
0
100
AcDbCircle
 10
1074.96166017203
 20
696.5184561818729
 30
0.0
 40
1.0
100
AcDbArc
 50
0.0
 51
53.65879690621478
  0
ARC
  5
A52
330
1F
100
AcDbEntity
  8
0
100
AcDbCircle
 10
1070.96166017203
 20
699.1949153624704
 30
0.0
 40
1.0
100
AcDbArc
 50
58.76707098448853
 51
180.0
  0
ARC
  5
A53
330
1F
100
AcDbEntity
  8
0
100
AcDbCircle
 10
1042.96166017203
 20
653.0213298400102
 30
0.0
 40
55.0
100
AcDbArc
 50
68.26153920847554
 51
72.76471474291184
  0
ARC
  5
A54
330
1F
100
AcDbEntity
  8
0
100
AcDbCircle
 10
1058.96166017203
 20
704.5965176729203
 30
0.0
 40
1.0
100
AcDbArc
 50
72.76471474291184
 51
180.0
  0
ARC
  5
A55
330
1F
100
AcDbEntity
  8
0
100
AcDbCircle
 10
1062.96166017203
 20
703.1810746559473
 30
0.0
 40
1.0
100
AcDbArc
 50
0.0
 51
68.26153920847554
  0
ARC
  5
A56
330
1F
100
AcDbEntity
  8
0
100
AcDbCircle
 10
1042.96166017203
 20
653.0213298400102
 30
0.0
 40
55.0
100
AcDbArc
 50
81.4803757458571
 51
85.75197733326815
  0
ARC
  5
A57
330
1F
100
AcDbEntity
  8
0
100
AcDbCircle
 10
1050.96166017203
 20
706.4254495312846
 30
0.0
 40
1.0
100
AcDbArc
 50
359.999999999987
 51
81.48037574586354
  0
ARC
  5
A58
330
1F
100
AcDbEntity
  8
0
100
AcDbCircle
 10
1046.96166017203
 20
706.8729779113548
 30
0.0
 40
1.0
100
AcDbArc
 50
85.75197733326815
 51
180.0
  0
ARC
  5
A59
330
1F
100
AcDbEntity
  8
0
100
AcDbCircle
 10
1042.96166017203
 20
653.0213298400102
 30
0.0
 40
55.0
100
AcDbArc
 50
94.24802266673184
 51
98.51962425414289
  0
ARC
  5
A5A
330
1F
100
AcDbEntity
  8
0
100
AcDbCircle
 10
1038.96166017203
 20
706.8729779113548
 30
0.0
 40
1.0
100
AcDbArc
 50
359.999999999987
 51
94.24802266673184
  0
ARC
  5
A5B
330
1F
100
AcDbEntity
  8
0
100
AcDbCircle
 10
1034.96166017203
 20
706.4254495312846
 30
0.0
 40
1.0
100
AcDbArc
 50
98.51962425414289
 51
180.0
  0
ARC
  5
A5C
330
1F
100
AcDbEntity
  8
0
100
AcDbCircle
 10
1042.96166017203
 20
653.0213298400102
 30
0.0
 40
55.0
100
AcDbArc
 50
107.2352852570881
 51
111.7384607915244
  0
ARC
  5
A5D
330
1F
100
AcDbEntity
  8
0
100
AcDbCircle
 10
1022.96166017203
 20
703.1810746559478
 30
0.0
 40
1.0
100
AcDbArc
 50
111.7384607915184
 51
179.999999999987
  0
ARC
  5
A5E
330
1F
100
AcDbEntity
  8
0
100
AcDbCircle
 10
1026.96166017203
 20
704.5965176729203
 30
0.0
 40
1.0
100
AcDbArc
 50
0.0
 51
107.2352852570881
  0
ARC
  5
A5F
330
1F
100
AcDbEntity
  8
0
100
AcDbCircle
 10
1042.96166017203
 20
653.0213298400102
 30
0.0
 40
55.0
100
AcDbArc
 50
121.232929015517
 51
126.3412030937852
  0
ARC
  5
A60
330
1F
100
AcDbEntity
  8
0
100
AcDbCircle
 10
1014.96166017203
 20
699.1949153624704
 30
0.0
 40
1.0
100
AcDbArc
 50
0.0
 51
121.2329290155114
  0
ARC
  5
A61
330
1F
100
AcDbEntity
  8
0
100
AcDbCircle
 10
1010.961660172031
 20
696.5184561818729
 30
0.0
 40
1.0
100
AcDbArc
 50
126.3412030937852
 51
180.0
  0
ARC
  5
A62
330
1F
100
AcDbEntity
  8
0
100
AcDbCircle
 10
1042.96166017203
 20
653.0213298400102
 30
0.0
 40
55.0
100
AcDbArc
 50
137.7945535962718
 51
144.56905531266
  0
ARC
  5
A63
330
1F
100
AcDbEntity
  8
0
100
AcDbCircle
 10
998.9616601720303
 20
684.3262815250069
 30
0.0
 40
1.0
100
AcDbArc
 50
144.56905531266
 51
180.0
  0
ARC
  5
A64
330
1F
100
AcDbEntity
  8
0
100
AcDbCircle
 10
1002.961660172031
 20
689.2980441344441
 30
0.0
 40
1.0
100
AcDbArc
 50
0.0
 51
137.7945535962718
  0
INSERT
  5
A65
102
{ACAD_REACTORS
330
FD9
102
}
330
1F
100
AcDbEntity
  8
0
100
AcDbBlockReference
  2
1
 10
2078.074193241915
 20
1299.356581702627
 30
0.0
 50
180.0
  0
LINE
  5
E23
330
1F
100
AcDbEntity
  8
0
100
AcDbLine
 10
981.3454345314218
 20
762.9503845538456
 30
0.0
 11
1108.544031697338
 21
762.9503845538439
 31
0.0
  0
LINE
  5
E24
330
1F
100
AcDbEntity
  8
0
100
AcDbLine
 10
981.3454345314218
 20
757.9503845538455
 30
0.0
 11
1108.544031697338
 21
757.9503845538438
 31
0.0
  0
POINT
  5
E25
330
1F
100
AcDbEntity
  8
0
  6
ByBlock
 62
     0
100
AcDbPoint
 10
991.7249895927927
 20
762.9503845538456
 30
0.0
  0
POINT
  5
E26
330
1F
100
AcDbEntity
  8
0
  6
ByBlock
 62
     0
100
AcDbPoint
 10
988.8249895927925
 20
757.9503845538456
 30
0.0
  0
POINT
  5
E27
330
1F
100
AcDbEntity
  8
0
  6
ByBlock
 62
     0
100
AcDbPoint
 10
982.2249895927926
 20
757.9503845538456
 30
0.0
  0
LINE
  5
E6E
330
1F
100
AcDbEntity
  8
AM_7
100
AcDbLine
 10
1044.568405821869
 20
770.0649654711058
 30
0.0
 11
1044.568405821869
 21
749.6645270897268
 31
0.0
  0
LINE
  5
E6F
102
{ACAD_REACTORS
330
E76
102
}
330
1F
100
AcDbEntity
  8
0
100
AcDbLine
 10
981.3454345314216
 20
762.9503845538456
 30
0.0
 11
981.3454345314216
 21
757.9503845538456
 31
0.0
  0
LINE
  5
E70
102
{ACAD_REACTORS
330
E73
330
E76
102
}
330
1F
100
AcDbEntity
  8
0
100
AcDbLine
 10
1108.544031697338
 20
762.9503845538439
 30
0.0
 11
1108.544031697338
 21
757.950384553844
 31
0.0
  0
DIMENSION
  5
E71
102
{ACAD_XDICTIONARY
360
E72
102
}
102
{ACAD_REACTORS
330
E73
102
}
330
1F
100
AcDbEntity
  8
5
100
AcDbDimension
  2
*D17
 10
1122.160283887084
 20
757.950384553844
 30
0.0
 11
1122.160283887084
 21
769.7170512205107
 31
0.0
 70
   160
 71
     5
 42
5.0
  3
GEN-ISO$0
100
AcDbAlignedDimension
 13
1108.544031697338
 23
762.9503845538439
 33
0.0
 14
1108.544031697338
 24
757.950384553844
 34
0.0
 50
90.0
100
AcDbRotatedDimension
  0
DIMENSION
  5
E74
102
{ACAD_XDICTIONARY
360
E75
102
}
102
{ACAD_REACTORS
330
E76
102
}
330
1F
100
AcDbEntity
  8
5
100
AcDbDimension
  2
*D18
 10
981.3454345314216
 20
774.8193697191953
 30
0.0
 11
1044.94473311438
 21
778.1338734921612
 31
0.0
 70
    32
  1
%%c<>{}{\H0.71x;\C3;\S+0.1^ -0.2;}
 71
     5
 42
127.1985971659167
  3
GEN-ISO$0
100
AcDbAlignedDimension
 13
1108.544031697338
 23
762.9503845538439
 33
0.0
 14
981.3454345314216
 24
762.9503845538456
 34
0.0
100
AcDbRotatedDimension
1001
ACAD_DSTYLE_DIMINSPECT
1070
   396
1000
100%
1070
   395
1000

1070
   394
1070
    33
1070
   393
1070
     0
1001
GENIUS_GENDTOL_13
1000
TolSmNrm
1000

1000
{\H0.71x;$2\S$+$P^ $-$M;}
1040
127.2
1001
ACAD
1000
DSTYLE
1002
{
1070
   286
1070
     0
1070
   284
1070
     0
1070
   274
1070
     4
1070
    47
1040
0.1
1070
    48
1040
0.2
1070
   272
1070
     1
1002
}
  0
LINE
  5
F54
330
1F
100
AcDbEntity
  8
AM_7
  6
AM_ISO08W050x2
100
AcDbLine
 10
1042.96166017203
 20
653.0213298400102
 30
0.0
 11
1050.486173799538
 21
653.0213298400102
 31
0.0
1001
GENIUS_GENOREF_13
1005
F58
  0
LINE
  5
F55
330
1F
100
AcDbEntity
  8
AM_7
  6
AM_ISO08W050x2
100
AcDbLine
 10
1042.96166017203
 20
653.0213298400102
 30
0.0
 11
1042.96166017203
 21
660.5458434675181
 31
0.0
1001
GENIUS_GENOREF_13
1005
F58
  0
LINE
  5
F56
330
1F
100
AcDbEntity
  8
AM_7
  6
AM_ISO08W050x2
100
AcDbLine
 10
1042.96166017203
 20
653.0213298400102
 30
0.0
 11
1035.437146544522
 21
653.0213298400102
 31
0.0
1001
GENIUS_GENOREF_13
1005
F58
  0
LINE
  5
F57
102
{ACAD_REACTORS
330
FD9
102
}
330
1F
100
AcDbEntity
  8
AM_7
  6
AM_ISO08W050x2
100
AcDbLine
 10
1042.96166017203
 20
653.0213298400102
 30
0.0
 11
1042.96166017203
 21
645.4968162125023
 31
0.0
1001
GENIUS_GENOREF_13
1005
F58
  0
POINT
  5
F58
330
1F
100
AcDbEntity
  8
0
 60
     1
100
AcDbPoint
 10
0.0
 20
0.0
 30
0.0
1001
GENIUS_GENOBJ-N-CRS_13
1002
{
1000
OWNER
1000
GEN
1002
}
1001
GENIUS_GENOLIS_13
1002
{
1000
ENT
1005
F57
1005
F56
1005
F55
1005
F54
1002
}
1001
GENIUS_GENOENT_13
1002
{
1000
MYREF
1005
F58
1002
}
1002
{
1000
GRP
1005
0
1002
}
1001
GENIUS_GENODEF_13
1002
{
1000
HIER
1070
    10
1002
}
1002
{
1000
MANEDIT
1070
     0
1002
}
1002
{
1000
NOSEL
1070
     0
1002
}
1002
{
1000
BEHIND
1070
     0
1002
}
1002
{
1000
OTHER
1070
     0
1002
}
1002
{
1000
REACTOR
1002
}
  0
DIMENSION
  5
FCB
102
{ACAD_XDICTIONARY
360
FD8
102
}
102
{ACAD_REACTORS
330
FD9
102
}
330
1F
100
AcDbEntity
  8
AM_5
100
AcDbDimension
  2
*D19
 10
988.9626739504221
 20
727.2898849001578
 30
0.0
 11
1015.962167061226
 21
730.5398849001577
 31
0.0
 70
    32
 71
     5
 42
53.99898622160822
  3
AM_ISO$0
100
AcDbAlignedDimension
 13
1042.96166017203
 23
653.0213298400102
 33
0.0
 14
988.9626739504221
 24
653.0213298400098
 34
0.0
100
AcDbRotatedDimension
  0
CIRCLE
  5
FF1
330
1F
100
AcDbEntity
  8
0
100
AcDbCircle
 10
988.9626739504221
 20
653.0213298400098
 30
0.0
 40
11.95385997863536
  0
MTEXT
  5
FF2
330
1F
100
AcDbEntity
  8
0
100
AcDbMText
 10
986.9033381842237
 20
639.8928261302067
 30
0.0
 40
3.5
 41
7.602967201137971
 71
     1
 72
     5
  1
Z
 73
     1
 44
1.0
1001
ACAD
1000
MTEXTBEGIN
1070
    73
1070
     1
1070
    44
1040
1.0
1070
    74
1070
     0
1000
MTEXTEND
  0
CIRCLE
  5
120A
330
1F
100
AcDbEntity
  8
0
100
AcDbCircle
 10
1042.96166017203
 20
653.0213298400102
 30
0.0
 40
63.6
  0
INSERT
  5
129B
330
1F
100
AcDbEntity
  8
AM_5
100
AcDbBlockReference
  2
*S20
 10
0.0
 20
0.0
 30
0.0
  0
ENDSEC
  0
SECTION
  2
OBJECTS
  0
DICTIONARY
  5
C
330
0
100
AcDbDictionary
281
     1
  3
ACAD_2007HEADERVARS_RT
350
1305
  3
ACAD_COLOR
350
BE
  3
ACAD_GROUP
350
D
  3
ACAD_LAYOUT
350
1A
  3
ACAD_MATERIAL
350
BD
  3
ACAD_MLEADERSTYLE
350
10E4
  3
ACAD_MLINESTYLE
350
17
  3
ACAD_PLOTSETTINGS
350
19
  3
ACAD_PLOTSTYLENAME
350
E
  3
ACAD_SCALELIST
350
10D2
  3
ACAD_TABLESTYLE
350
11A
  3
ACAD_VISUALSTYLE
350
10C1
  3
ACDB_RECOMPOSE_DATA
350
1188
  3
AcDbVariableDictionary
350
94
  3
AcmDictionary
350
5B
  3
AMG
350
41
  3
AMGSNAPSETTINGS
350
26B
  3
ASE_INDEX_DICTIONARY
350
106C
  3
DWGPROPS
350
1304
  0
DICTIONARY
  5
3C3
330
2
100
AcDbDictionary
280
     1
281
     1
  3
ACAD_LAYERSTATES
360
3C4
  0
DICTIONARY
  5
113E
330
10
100
AcDbDictionary
280
     1
281
     1
  3
ADSK_XREC_LAYER_RECONCILED
360
113F
  0
DICTIONARY
  5
1140
330
39F
100
AcDbDictionary
280
     1
281
     1
  3
ADSK_XREC_LAYER_RECONCILED
360
1141
  0
DICTIONARY
  5
1142
330
3A1
100
AcDbDictionary
280
     1
281
     1
  3
ADSK_XREC_LAYER_RECONCILED
360
1143
  0
DICTIONARY
  5
1144
330
3A2
100
AcDbDictionary
280
     1
281
     1
  3
ADSK_XREC_LAYER_RECONCILED
360
1145
  0
DICTIONARY
  5
1146
330
3A3
100
AcDbDictionary
280
     1
281
     1
  3
ADSK_XREC_LAYER_RECONCILED
360
1147
  0
DICTIONARY
  5
1148
330
3A4
100
AcDbDictionary
280
     1
281
     1
  3
ADSK_XREC_LAYER_RECONCILED
360
1149
  0
DICTIONARY
  5
114A
330
3A5
100
AcDbDictionary
280
     1
281
     1
  3
ADSK_XREC_LAYER_RECONCILED
360
114B
  0
DICTIONARY
  5
114C
330
3A8
100
AcDbDictionary
280
     1
281
     1
  3
ADSK_XREC_LAYER_RECONCILED
360
114D
  0
DICTIONARY
  5
114E
330
6F7
100
AcDbDictionary
280
     1
281
     1
  3
ADSK_XREC_LAYER_RECONCILED
360
114F
  0
DICTIONARY
  5
1150
330
6F8
100
AcDbDictionary
280
     1
281
     1
  3
ADSK_XREC_LAYER_RECONCILED
360
1151
  0
DICTIONARY
  5
1152
330
8BC
100
AcDbDictionary
280
     1
281
     1
  3
ADSK_XREC_LAYER_RECONCILED
360
1153
  0
DICTIONARY
  5
1154
330
DAD
100
AcDbDictionary
280
     1
281
     1
  3
ADSK_XREC_LAYER_RECONCILED
360
1155
  0
DICTIONARY
  5
1156
330
DAE
100
AcDbDictionary
280
     1
281
     1
  3
ADSK_XREC_LAYER_RECONCILED
360
1157
  0
DICTIONARY
  5
1158
330
DAF
100
AcDbDictionary
280
     1
281
     1
  3
ADSK_XREC_LAYER_RECONCILED
360
1159
  0
DICTIONARY
  5
115A
330
DB0
100
AcDbDictionary
280
     1
281
     1
  3
ADSK_XREC_LAYER_RECONCILED
360
115B
  0
DICTIONARY
  5
115C
330
DB1
100
AcDbDictionary
280
     1
281
     1
  3
ADSK_XREC_LAYER_RECONCILED
360
115D
  0
DICTIONARY
  5
115E
330
DB2
100
AcDbDictionary
280
     1
281
     1
  3
ADSK_XREC_LAYER_RECONCILED
360
115F
  0
DICTIONARY
  5
1160
330
DB3
100
AcDbDictionary
280
     1
281
     1
  3
ADSK_XREC_LAYER_RECONCILED
360
1161
  0
DICTIONARY
  5
1162
330
DB4
100
AcDbDictionary
280
     1
281
     1
  3
ADSK_XREC_LAYER_RECONCILED
360
1163
  0
DICTIONARY
  5
1164
330
DB5
100
AcDbDictionary
280
     1
281
     1
  3
ADSK_XREC_LAYER_RECONCILED
360
1165
  0
DICTIONARY
  5
1166
330
DB6
100
AcDbDictionary
280
     1
281
     1
  3
ADSK_XREC_LAYER_RECONCILED
360
1167
  0
DICTIONARY
  5
1168
330
DB7
100
AcDbDictionary
280
     1
281
     1
  3
ADSK_XREC_LAYER_RECONCILED
360
1169
  0
DICTIONARY
  5
8F
330
1F
100
AcDbDictionary
280
     1
281
     1
  3
ACAD_SORTENTS
360
6D9
  0
DICTIONARY
  5
1310
330
AC6
100
AcDbDictionary
280
     1
281
     1
  3
ACAD_MTEXT_RT
360
1311
  0
DICTIONARY
  5
E72
330
E71
100
AcDbDictionary
280
     1
281
     1
  3
ACAD_DIMASSOC
360
E73
  0
DICTIONARY
  5
E75
330
E74
100
AcDbDictionary
280
     1
281
     1
  3
ACAD_DIMASSOC
360
E76
  0
DICTIONARY
  5
FD8
330
FCB
100
AcDbDictionary
280
     1
281
     1
  3
ACAD_DIMASSOC
360
FD9
  0
DICTIONARY
  5
1305
102
{ACAD_REACTORS
330
C
102
}
330
C
100
AcDbDictionary
281
     1
  3
DIMARCSYM
350
1306
  0
DICTIONARY
  5
BE
102
{ACAD_REACTORS
330
C
102
}
330
C
100
AcDbDictionary
281
     1
  0
DICTIONARY
  5
D
102
{ACAD_REACTORS
330
C
102
}
330
C
100
AcDbDictionary
281
     1
  0
DICTIONARY
  5
1A
102
{ACAD_REACTORS
330
C
102
}
330
C
100
AcDbDictionary
281
     1
  3
Layout1
350
1E
  3
Layout2
350
26
  3
Model
350
22
  0
DICTIONARY
  5
BD
102
{ACAD_REACTORS
330
C
102
}
330
C
100
AcDbDictionary
281
     1
  3
ByBlock
350
10B9
  3
ByLayer
350
10B1
  3
Global
350
3C0
  0
DICTIONARY
  5
10E4
102
{ACAD_REACTORS
330
C
102
}
330
C
100
AcDbDictionary
281
     1
  3
Standard
350
10E5
  0
DICTIONARY
  5
17
102
{ACAD_REACTORS
330
C
102
}
330
C
100
AcDbDictionary
281
     1
  3
Standard
350
18
  0
DICTIONARY
  5
19
102
{ACAD_REACTORS
330
C
102
}
330
C
100
AcDbDictionary
281
     1
  0
ACDBDICTIONARYWDFLT
  5
E
102
{ACAD_REACTORS
330
C
102
}
330
C
100
AcDbDictionary
281
     1
  3
Normal
350
F
100
AcDbDictionaryWithDefault
340
F
  0
DICTIONARY
  5
10D2
102
{ACAD_REACTORS
330
C
102
}
330
C
100
AcDbDictionary
281
     1
  3
A0
350
10D3
  3
A1
350
10D4
  3
A2
350
10D5
  3
A3
350
10D6
  3
A4
350
10D7
  3
A5
350
10D8
  3
A6
350
10D9
  3
A7
350
10DA
  3
A8
350
10DB
  3
A9
350
10DC
  3
B0
350
10DD
  3
B1
350
10DE
  3
B2
350
10DF
  3
B3
350
10E0
  3
B4
350
10E1
  3
B5
350
10E2
  3
B6
350
10E3
  0
DICTIONARY
  5
11A
102
{ACAD_REACTORS
330
C
102
}
330
C
100
AcDbDictionary
281
     1
  3
Standard
350
11B
  0
DICTIONARY
  5
10C1
102
{ACAD_REACTORS
330
C
102
}
330
C
100
AcDbDictionary
281
     1
  3
2dWireframe
350
10C7
  3
3D Hidden
350
10C9
  3
3dWireframe
350
10C8
  3
Basic
350
10C6
  3
Brighten
350
10CD
  3
ColorChange
350
10D1
  3
Conceptual
350
10CA
  3
Dim
350
10CC
  3
Facepattern
350
10D0
  3
Flat
350
10C2
  3
FlatWithEdges
350
10C3
  3
Gouraud
350
10C4
  3
GouraudWithEdges
350
10C5
  3
Linepattern
350
10CF
  3
Realistic
350
10CB
  3
Thicken
350
10CE
  0
XRECORD
  5
1188
102
{ACAD_REACTORS
330
C
102
}
330
C
100
AcDbXrecord
280
     1
 90
        1
330
11B
  0
DICTIONARY
  5
94
102
{ACAD_REACTORS
330
C
102
}
330
C
100
AcDbDictionary
281
     1
  3
CANNOSCALE
350
118B
  3
CMLEADERSTYLE
350
1189
  3
CTABLESTYLE
350
138
  3
DIMASSOC
350
96
  3
INDEXCTL
350
95
  3
LAYEREVAL
350
118D
  3
LAYERNOTIFY
350
118E
  3
LIGHTINGUNITS
350
118C
  3
MSLTSCALE
350
118A
  3
SORTENTS
350
1302
  0
DICTIONARY
  5
5B
102
{ACAD_REACTORS
330
C
102
}
330
C
100
AcDbDictionary
281
     1
  3
AcmBOM
350
272
  3
AcmStdDictionary
350
61
  3
AMDTSECTSYM_ARROWCOLOR
350
123
  0
DICTIONARY
  5
41
102
{ACAD_REACTORS
330
C
102
}
330
C
100
AcDbDictionary
281
     1
  0
DICTIONARY
  5
26B
102
{ACAD_REACTORS
330
C
102
}
330
C
100
AcDbDictionary
281
     1
  0
DICTIONARY
  5
106C
102
{ACAD_REACTORS
330
C
102
}
330
C
100
AcDbDictionary
281
     1
  3
ASEBlockHierarchyIndexRecord
350
106D
1001
DCO15
1040
1643088628.639
  0
XRECORD
  5
1304
102
{ACAD_REACTORS
330
C
102
}
330
C
100
AcDbXrecord
280
     1
  1
DWGPROPS COOKIE
  2

  3

  4

  6

  7

  8
jamoeller
  9

300
AmdtFileType=84
301
=
302
=
303
=
304
=
305
=
306
=
307
=
308
=
309
=
 40
0.0851777199074074
 41
2454805.27183978
 42
2455146.449743044
  1

 90
        1
  0
DICTIONARY
  5
3C4
102
{ACAD_REACTORS
330
3C3
102
}
330
3C3
100
AcDbDictionary
281
     1
  0
XRECORD
  5
113F
102
{ACAD_REACTORS
330
113E
102
}
330
113E
100
AcDbXrecord
280
     1
290
     1
  0
XRECORD
  5
1141
102
{ACAD_REACTORS
330
1140
102
}
330
1140
100
AcDbXrecord
280
     1
290
     1
  0
XRECORD
  5
1143
102
{ACAD_REACTORS
330
1142
102
}
330
1142
100
AcDbXrecord
280
     1
290
     1
  0
XRECORD
  5
1145
102
{ACAD_REACTORS
330
1144
102
}
330
1144
100
AcDbXrecord
280
     1
290
     1
  0
XRECORD
  5
1147
102
{ACAD_REACTORS
330
1146
102
}
330
1146
100
AcDbXrecord
280
     1
290
     1
  0
XRECORD
  5
1149
102
{ACAD_REACTORS
330
1148
102
}
330
1148
100
AcDbXrecord
280
     1
290
     1
  0
XRECORD
  5
114B
102
{ACAD_REACTORS
330
114A
102
}
330
114A
100
AcDbXrecord
280
     1
290
     1
  0
XRECORD
  5
114D
102
{ACAD_REACTORS
330
114C
102
}
330
114C
100
AcDbXrecord
280
     1
290
     1
  0
XRECORD
  5
114F
102
{ACAD_REACTORS
330
114E
102
}
330
114E
100
AcDbXrecord
280
     1
290
     1
  0
XRECORD
  5
1151
102
{ACAD_REACTORS
330
1150
102
}
330
1150
100
AcDbXrecord
280
     1
290
     1
  0
XRECORD
  5
1153
102
{ACAD_REACTORS
330
1152
102
}
330
1152
100
AcDbXrecord
280
     1
290
     1
  0
XRECORD
  5
1155
102
{ACAD_REACTORS
330
1154
102
}
330
1154
100
AcDbXrecord
280
     1
290
     1
  0
XRECORD
  5
1157
102
{ACAD_REACTORS
330
1156
102
}
330
1156
100
AcDbXrecord
280
     1
290
     1
  0
XRECORD
  5
1159
102
{ACAD_REACTORS
330
1158
102
}
330
1158
100
AcDbXrecord
280
     1
290
     1
  0
XRECORD
  5
115B
102
{ACAD_REACTORS
330
115A
102
}
330
115A
100
AcDbXrecord
280
     1
290
     1
  0
XRECORD
  5
115D
102
{ACAD_REACTORS
330
115C
102
}
330
115C
100
AcDbXrecord
280
     1
290
     1
  0
XRECORD
  5
115F
102
{ACAD_REACTORS
330
115E
102
}
330
115E
100
AcDbXrecord
280
     1
290
     1
  0
XRECORD
  5
1161
102
{ACAD_REACTORS
330
1160
102
}
330
1160
100
AcDbXrecord
280
     1
290
     1
  0
XRECORD
  5
1163
102
{ACAD_REACTORS
330
1162
102
}
330
1162
100
AcDbXrecord
280
     1
290
     1
  0
XRECORD
  5
1165
102
{ACAD_REACTORS
330
1164
102
}
330
1164
100
AcDbXrecord
280
     1
290
     1
  0
XRECORD
  5
1167
102
{ACAD_REACTORS
330
1166
102
}
330
1166
100
AcDbXrecord
280
     1
290
     1
  0
XRECORD
  5
1169
102
{ACAD_REACTORS
330
1168
102
}
330
1168
100
AcDbXrecord
280
     1
290
     1
  0
SORTENTSTABLE
  5
6D9
102
{ACAD_REACTORS
330
8F
102
}
330
8F
100
AcDbSortentsTable
330
1F
  0
XRECORD
  5
1311
102
{ACAD_REACTORS
330
1310
102
}
330
1310
100
AcDbXrecord
280
     1
 40
30543.0
  1
\fArial|b0|i0|c0|p32;©
  0
DIMASSOC
  5
E73
102
{ACAD_REACTORS
330
E72
102
}
330
E72
100
AcDbDimAssoc
330
E71
 90
        3
 70
     0
 71
     0
  1
AcDbOsnapPointRef
 72
    13
331
E70
 73
     0
 91
        0
 40
0.0
 10
0.0
 20
0.0
 30
2.000000000000000E+50
 75
     0
  1
AcDbOsnapPointRef
 72
     1
331
E70
 73
     0
 91
        0
 40
0.0
 10
0.0
 20
0.0
 30
2.000000000000000E+50
 75
     0
  0
DIMASSOC
  5
E76
102
{ACAD_REACTORS
330
E75
102
}
330
E75
100
AcDbDimAssoc
330
E74
 90
        3
 70
     0
 71
     0
  1
AcDbOsnapPointRef
 72
    13
331
E70
 73
     0
 91
        0
 40
0.0
 10
0.0
 20
0.0
 30
2.000000000000000E+50
 75
     0
  1
AcDbOsnapPointRef
 72
    13
331
E6F
 73
     0
 91
        0
 40
0.0
 10
0.0
 20
0.0
 30
2.000000000000000E+50
 75
     0
  0
DIMASSOC
  5
FD9
102
{ACAD_REACTORS
330
FD8
102
}
330
FD8
100
AcDbDimAssoc
330
FCB
 90
        3
 70
     0
 71
     0
  1
AcDbOsnapPointRef
 72
    13
331
F57
 73
     0
 91
        0
 40
0.0
 10
0.0
 20
0.0
 30
2.000000000000000E+50
 75
     0
  1
AcDbOsnapPointRef
 72
     3
331
A65
331
8E4
 73
     0
 91
        0
 40
2.107152604013895
 10
0.0
 20
0.0
 30
0.0
 75
     0
  0
XRECORD
  5
1306
102
{ACAD_REACTORS
330
1305
102
}
330
1305
100
AcDbXrecord
280
     1
 70
     1
  0
LAYOUT
  5
1E
102
{ACAD_XDICTIONARY
360
1307
102
}
102
{ACAD_REACTORS
330
1A
102
}
330
1A
100
AcDbPlotSettings
  1

  2

  4

  6

 40
0.0
 41
0.0
 42
0.0
 43
0.0
 44
0.0
 45
0.0
 46
0.0
 47
0.0
 48
0.0
 49
0.0
140
0.0
141
0.0
142
1.0
143
1.0
 70
   688
 72
     0
 73
     0
 74
     5
  7

 75
    16
147
1.0
148
0.0
149
0.0
100
AcDbLayout
  1
Layout1
 70
     1
 71
     1
 10
0.0
 20
0.0
 11
420.0
 21
297.0
 12
0.0
 22
0.0
 32
0.0
 14
1.000000000000000E+20
 24
1.000000000000000E+20
 34
1.000000000000000E+20
 15
-1.000000000000000E+20
 25
-1.000000000000000E+20
 35
-1.000000000000000E+20
146
0.0
 13
0.0
 23
0.0
 33
0.0
 16
1.0
 26
0.0
 36
0.0
 17
0.0
 27
1.0
 37
0.0
 76
     0
330
1B
  0
LAYOUT
  5
26
102
{ACAD_XDICTIONARY
360
130B
102
}
102
{ACAD_REACTORS
330
1A
102
}
330
1A
100
AcDbPlotSettings
  1

  2

  4

  6

 40
0.0
 41
0.0
 42
0.0
 43
0.0
 44
0.0
 45
0.0
 46
0.0
 47
0.0
 48
0.0
 49
0.0
140
0.0
141
0.0
142
1.0
143
1.0
 70
   688
 72
     0
 73
     0
 74
     5
  7

 75
    16
147
1.0
148
0.0
149
0.0
100
AcDbLayout
  1
Layout2
 70
     1
 71
     2
 10
0.0
 20
0.0
 11
12.0
 21
9.0
 12
0.0
 22
0.0
 32
0.0
 14
0.0
 24
0.0
 34
0.0
 15
0.0
 25
0.0
 35
0.0
146
0.0
 13
0.0
 23
0.0
 33
0.0
 16
1.0
 26
0.0
 36
0.0
 17
0.0
 27
1.0
 37
0.0
 76
     0
330
23
  0
LAYOUT
  5
22
102
{ACAD_XDICTIONARY
360
1309
102
}
102
{ACAD_REACTORS
330
1A
102
}
330
1A
100
AcDbPlotSettings
  1

  2

  4

  6

 40
0.0
 41
0.0
 42
0.0
 43
0.0
 44
0.0
 45
0.0
 46
0.0
 47
0.0
 48
0.0
 49
0.0
140
0.0
141
0.0
142
1.0
143
1.0
 70
  1712
 72
     0
 73
     0
 74
     0
  7

 75
     0
147
1.0
148
0.0
149
0.0
100
AcDbLayout
  1
Model
 70
     1
 71
     0
 10
0.0
 20
0.0
 11
12.0
 21
9.0
 12
0.0
 22
0.0
 32
0.0
 14
0.0
 24
0.0
 34
0.0
 15
0.0
 25
0.0
 35
0.0
146
0.0
 13
0.0
 23
0.0
 33
0.0
 16
1.0
 26
0.0
 36
0.0
 17
0.0
 27
1.0
 37
0.0
 76
     0
330
1F
331
10AF
  0
MATERIAL
  5
10B9
102
{ACAD_XDICTIONARY
360
10BA
102
}
102
{ACAD_REACTORS
330
BD
102
}
330
BD
100
AcDbMaterial
  1
ByBlock
 72
     0
 43
0.0008202099737533
 43
0.0
 43
0.0
 43
0.0
 43
0.0
 43
0.0008202099737533
 43
0.0
 43
0.0
 43
0.0
 43
0.0
 43
1.0
 43
0.0
 43
0.0
 43
0.0
 43
0.0
 43
1.0
 77
     0
 47
0.0008202099737533
 47
0.0
 47
0.0
 47
0.0
 47
0.0
 47
0.0008202099737533
 47
0.0
 47
0.0
 47
0.0
 47
0.0
 47
1.0
 47
0.0
 47
0.0
 47
0.0
 47
0.0
 47
1.0
171
     0
 49
0.0008202099737533
 49
0.0
 49
0.0
 49
0.0
 49
0.0
 49
0.0008202099737533
 49
0.0
 49
0.0
 49
0.0
 49
0.0
 49
1.0
 49
0.0
 49
0.0
 49
0.0
 49
0.0
 49
1.0
175
     0
142
0.0008202099737533
142
0.0
142
0.0
142
0.0
142
0.0
142
0.0008202099737533
142
0.0
142
0.0
142
0.0
142
0.0
142
1.0
142
0.0
142
0.0
142
0.0
142
0.0
142
1.0
179
     0
144
0.0008202099737533
144
0.0
144
0.0
144
0.0
144
0.0
144
0.0008202099737533
144
0.0
144
0.0
144
0.0
144
0.0
144
1.0
144
0.0
144
0.0
144
0.0
144
0.0
144
1.0
147
0.0008202099737533
147
0.0
147
0.0
147
0.0
147
0.0
147
0.0008202099737533
147
0.0
147
0.0
147
0.0
147
0.0
147
1.0
147
0.0
147
0.0
147
0.0
147
0.0
147
1.0
  0
MATERIAL
  5
10B1
102
{ACAD_XDICTIONARY
360
10B2
102
}
102
{ACAD_REACTORS
330
BD
102
}
330
BD
100
AcDbMaterial
  1
ByLayer
 72
     0
 43
0.0008202099737533
 43
0.0
 43
0.0
 43
0.0
 43
0.0
 43
0.0008202099737533
 43
0.0
 43
0.0
 43
0.0
 43
0.0
 43
1.0
 43
0.0
 43
0.0
 43
0.0
 43
0.0
 43
1.0
 77
     0
 47
0.0008202099737533
 47
0.0
 47
0.0
 47
0.0
 47
0.0
 47
0.0008202099737533
 47
0.0
 47
0.0
 47
0.0
 47
0.0
 47
1.0
 47
0.0
 47
0.0
 47
0.0
 47
0.0
 47
1.0
171
     0
 49
0.0008202099737533
 49
0.0
 49
0.0
 49
0.0
 49
0.0
 49
0.0008202099737533
 49
0.0
 49
0.0
 49
0.0
 49
0.0
 49
1.0
 49
0.0
 49
0.0
 49
0.0
 49
0.0
 49
1.0
175
     0
142
0.0008202099737533
142
0.0
142
0.0
142
0.0
142
0.0
142
0.0008202099737533
142
0.0
142
0.0
142
0.0
142
0.0
142
1.0
142
0.0
142
0.0
142
0.0
142
0.0
142
1.0
179
     0
144
0.0008202099737533
144
0.0
144
0.0
144
0.0
144
0.0
144
0.0008202099737533
144
0.0
144
0.0
144
0.0
144
0.0
144
1.0
144
0.0
144
0.0
144
0.0
144
0.0
144
1.0
147
0.0008202099737533
147
0.0
147
0.0
147
0.0
147
0.0
147
0.0008202099737533
147
0.0
147
0.0
147
0.0
147
0.0
147
1.0
147
0.0
147
0.0
147
0.0
147
0.0
147
1.0
  0
MATERIAL
  5
3C0
102
{ACAD_XDICTIONARY
360
130E
102
}
102
{ACAD_REACTORS
330
BD
102
}
330
BD
100
AcDbMaterial
  1
Global
 73
     1
 78
     1
172
     1
176
     1
270
     1
274
     1
  0
MLEADERSTYLE
  5
10E5
102
{ACAD_REACTORS
330
10E4
102
}
330
10E4
100
AcDbMLeaderStyle
170
     2
171
     1
172
     0
 90
        2
 40
0.0
 41
0.0
173
     1
 91
-1056964608
340
14
 92
       -2
290
     1
 42
2.0
291
     1
 43
0.36
  3
Standard
 44
4.0
300

342
11
174
     1
178
     6
175
     1
176
     0
 93
-1056964608
 45
4.0
292
     0
297
     0
 46
4.0
 94
-1056964608
 47
1.0
 49
1.0
140
1.0
293
     1
141
0.0
294
     1
177
     0
142
1.0
295
     0
296
     0
143
0.125
1001
ACAD_MLEADERVER
1070
     2
  0
MLINESTYLE
  5
18
102
{ACAD_REACTORS
330
17
102
}
330
17
100
AcDbMlineStyle
  2
STANDARD
 70
     0
  3

 62
   256
 51
90.0
 52
90.0
 71
     2
 49
0.5
 62
   256
  6
BYLAYER
 49
-0.5
 62
   256
  6
BYLAYER
  0
ACDBPLACEHOLDER
  5
F
102
{ACAD_REACTORS
330
E
102
}
330
E
  0
SCALE
  5
10D3
102
{ACAD_REACTORS
330
10D2
102
}
330
10D2
100
AcDbScale
 70
     0
300
1:1
140
1.0
141
1.0
290
     1
  0
SCALE
  5
10D4
102
{ACAD_REACTORS
330
10D2
102
}
330
10D2
100
AcDbScale
 70
     0
300
1:2
140
1.0
141
2.0
290
     0
  0
SCALE
  5
10D5
102
{ACAD_REACTORS
330
10D2
102
}
330
10D2
100
AcDbScale
 70
     0
300
1:4
140
1.0
141
4.0
290
     0
  0
SCALE
  5
10D6
102
{ACAD_REACTORS
330
10D2
102
}
330
10D2
100
AcDbScale
 70
     0
300
1:5
140
1.0
141
5.0
290
     0
  0
SCALE
  5
10D7
102
{ACAD_REACTORS
330
10D2
102
}
330
10D2
100
AcDbScale
 70
     0
300
1:8
140
1.0
141
8.0
290
     0
  0
SCALE
  5
10D8
102
{ACAD_REACTORS
330
10D2
102
}
330
10D2
100
AcDbScale
 70
     0
300
1:10
140
1.0
141
10.0
290
     0
  0
SCALE
  5
10D9
102
{ACAD_REACTORS
330
10D2
102
}
330
10D2
100
AcDbScale
 70
     0
300
1:16
140
1.0
141
16.0
290
     0
  0
SCALE
  5
10DA
102
{ACAD_REACTORS
330
10D2
102
}
330
10D2
100
AcDbScale
 70
     0
300
1:20
140
1.0
141
20.0
290
     0
  0
SCALE
  5
10DB
102
{ACAD_REACTORS
330
10D2
102
}
330
10D2
100
AcDbScale
 70
     0
300
1:30
140
1.0
141
30.0
290
     0
  0
SCALE
  5
10DC
102
{ACAD_REACTORS
330
10D2
102
}
330
10D2
100
AcDbScale
 70
     0
300
1:40
140
1.0
141
40.0
290
     0
  0
SCALE
  5
10DD
102
{ACAD_REACTORS
330
10D2
102
}
330
10D2
100
AcDbScale
 70
     0
300
1:50
140
1.0
141
50.0
290
     0
  0
SCALE
  5
10DE
102
{ACAD_REACTORS
330
10D2
102
}
330
10D2
100
AcDbScale
 70
     0
300
1:100
140
1.0
141
100.0
290
     0
  0
SCALE
  5
10DF
102
{ACAD_REACTORS
330
10D2
102
}
330
10D2
100
AcDbScale
 70
     0
300
2:1
140
2.0
141
1.0
290
     0
  0
SCALE
  5
10E0
102
{ACAD_REACTORS
330
10D2
102
}
330
10D2
100
AcDbScale
 70
     0
300
4:1
140
4.0
141
1.0
290
     0
  0
SCALE
  5
10E1
102
{ACAD_REACTORS
330
10D2
102
}
330
10D2
100
AcDbScale
 70
     0
300
8:1
140
8.0
141
1.0
290
     0
  0
SCALE
  5
10E2
102
{ACAD_REACTORS
330
10D2
102
}
330
10D2
100
AcDbScale
 70
     0
300
10:1
140
10.0
141
1.0
290
     0
  0
SCALE
  5
10E3
102
{ACAD_REACTORS
330
10D2
102
}
330
10D2
100
AcDbScale
 70
     0
300
100:1
140
100.0
141
1.0
290
     0
  0
TABLESTYLE
  5
11B
102
{ACAD_XDICTIONARY
360
1186
102
}
102
{ACAD_REACTORS
330
11A
102
}
330
11A
100
AcDbTableStyle
  3
Standard
 70
     0
 71
     0
 40
1.5
 41
1.5
280
     0
281
     0
  7
STANDARD
140
4.5
170
     2
 62
     0
 63
     7
283
     0
274
    -2
284
     1
 64
     0
275
    -2
285
     1
 65
     0
276
    -2
286
     1
 66
     0
277
    -2
287
     1
 67
     0
278
    -2
288
     1
 68
     0
279
    -2
289
     1
 69
     0
  7
STANDARD
140
6.0
170
     5
 62
     0
 63
     7
283
     0
274
    -2
284
     1
 64
     0
275
    -2
285
     1
 65
     0
276
    -2
286
     1
 66
     0
277
    -2
287
     1
 67
     0
278
    -2
288
     1
 68
     0
279
    -2
289
     1
 69
     0
  7
STANDARD
140
4.5
170
     5
 62
     0
 63
     7
283
     0
274
    -2
284
     1
 64
     0
275
    -2
285
     1
 65
     0
276
    -2
286
     1
 66
     0
277
    -2
287
     1
 67
     0
278
    -2
288
     1
 68
     0
279
    -2
289
     1
 69
     0
  0
VISUALSTYLE
  5
10C7
102
{ACAD_REACTORS
330
10C1
102
}
330
10C1
100
AcDbVisualStyle
  2
2dWireframe
 70
     4
 71
     0
 72
     2
 73
     0
 90
        0
 40
-0.6
 41
-30.0
 62
     5
 63
     7
 74
     1
 91
        4
 64
     7
 65
   257
 75
     1
175
     1
 42
1.0
 92
        0
 66
   257
 43
1.0
 76
     1
 77
     6
 78
     2
 67
     7
 79
     5
170
     0
171
     0
290
     0
174
     0
 93
        1
 44
0.0
173
     0
291
     0
 45
0.0
1001
ACAD
1000
AcDbSavedByObjectVersion
1070
     0
  0
VISUALSTYLE
  5
10C9
102
{ACAD_REACTORS
330
10C1
102
}
330
10C1
100
AcDbVisualStyle
  2
3D Hidden
 70
     6
 71
     1
 72
     2
 73
     2
 90
        0
 40
-0.6
 41
-30.0
 62
     5
 63
     7
 74
     2
 91
        2
 64
     7
 65
   257
 75
     2
175
     1
 42
40.0
 92
        0
 66
   257
 43
1.0
 76
     1
 77
     6
 78
     2
 67
     7
 79
     3
170
     0
171
     0
290
     0
174
     0
 93
        1
 44
0.0
173
     0
291
     0
 45
0.0
1001
ACAD
1000
AcDbSavedByObjectVersion
1070
     0
  0
VISUALSTYLE
  5
10C8
102
{ACAD_REACTORS
330
10C1
102
}
330
10C1
100
AcDbVisualStyle
  2
3dWireframe
 70
     5
 71
     0
 72
     2
 73
     0
 90
        0
 40
-0.6
 41
-30.0
 62
     5
 63
     7
 74
     1
 91
        4
 64
     7
 65
   257
 75
     1
175
     1
 42
1.0
 92
        0
 66
   257
 43
1.0
 76
     1
 77
     6
 78
     2
 67
     7
 79
     5
170
     0
171
     0
290
     0
174
     0
 93
        1
 44
0.0
173
     0
291
     0
 45
0.0
1001
ACAD
1000
AcDbSavedByObjectVersion
1070
     0
  0
VISUALSTYLE
  5
10C6
102
{ACAD_REACTORS
330
10C1
102
}
330
10C1
100
AcDbVisualStyle
  2
Basic
 70
     7
 71
     1
 72
     0
 73
     1
 90
        0
 40
-0.6
 41
-30.0
 62
     5
 63
     7
 74
     0
 91
        4
 64
     7
 65
   257
 75
     1
175
     1
 42
1.0
 92
        8
 66
     7
 43
1.0
 76
     1
 77
     6
 78
     2
 67
     7
 79
     5
170
     0
171
     0
290
     0
174
     0
 93
        1
 44
0.0
173
     0
291
     1
 45
0.0
1001
ACAD
1000
AcDbSavedByObjectVersion
1070
     0
  0
VISUALSTYLE
  5
10CD
102
{ACAD_REACTORS
330
10C1
102
}
330
10C1
100
AcDbVisualStyle
  2
Brighten
 70
    12
 71
     2
 72
     2
 73
     0
 90
        0
 40
-0.6
 41
-30.0
 62
     5
 63
     7
 74
     1
 91
        4
 64
     7
 65
   257
 75
     1
175
     1
 42
1.0
 92
        8
 66
     7
 43
1.0
 76
     1
 77
     6
 78
     2
 67
     7
 79
     5
170
     0
171
     0
290
     0
174
     0
 93
        1
 44
50.0
173
     0
291
     1
 45
0.0
1001
ACAD
1000
AcDbSavedByObjectVersion
1070
     0
  0
VISUALSTYLE
  5
10D1
102
{ACAD_REACTORS
330
10C1
102
}
330
10C1
100
AcDbVisualStyle
  2
ColorChange
 70
    16
 71
     2
 72
     2
 73
     3
 90
        0
 40
-0.6
 41
-30.0
 62
     5
 63
     8
 74
     1
 91
        4
 64
     7
 65
   257
 75
     1
175
     1
 42
1.0
 92
        8
 66
     8
 43
1.0
 76
     1
 77
     6
 78
     2
 67
     7
 79
     5
170
     0
171
     0
290
     0
174
     0
 93
        1
 44
0.0
173
     0
291
     1
 45
0.0
1001
ACAD
1000
AcDbSavedByObjectVersion
1070
     0
  0
VISUALSTYLE
  5
10CA
102
{ACAD_REACTORS
330
10C1
102
}
330
10C1
100
AcDbVisualStyle
  2
Conceptual
 70
     9
 71
     3
 72
     2
 73
     0
 90
        0
 40
-0.6
 41
-30.0
 62
     5
 63
     7
 74
     2
 91
        2
 64
     7
 65
   257
 75
     1
175
     1
 42
40.0
 92
        8
 66
     7
 43
1.0
 76
     1
 77
     6
 78
     2
 67
     7
 79
     3
170
     0
171
     0
290
     0
174
     0
 93
        1
 44
0.0
173
     0
291
     0
 45
0.0
1001
ACAD
1000
AcDbSavedByObjectVersion
1070
     0
  0
VISUALSTYLE
  5
10CC
102
{ACAD_REACTORS
330
10C1
102
}
330
10C1
100
AcDbVisualStyle
  2
Dim
 70
    11
 71
     2
 72
     2
 73
     0
 90
        0
 40
-0.6
 41
-30.0
 62
     5
 63
     7
 74
     1
 91
        4
 64
     7
 65
   257
 75
     1
175
     1
 42
1.0
 92
        8
 66
     7
 43
1.0
 76
     1
 77
     6
 78
     2
 67
     7
 79
     5
170
     0
171
     0
290
     0
174
     0
 93
        1
 44
-50.0
173
     0
291
     1
 45
0.0
1001
ACAD
1000
AcDbSavedByObjectVersion
1070
     0
  0
VISUALSTYLE
  5
10D0
102
{ACAD_REACTORS
330
10C1
102
}
330
10C1
100
AcDbVisualStyle
  2
Facepattern
 70
    15
 71
     2
 72
     2
 73
     0
 90
        0
 40
-0.6
 41
-30.0
 62
     5
 63
     7
 74
     1
 91
        4
 64
     7
 65
   257
 75
     1
175
     1
 42
1.0
 92
        8
 66
     7
 43
1.0
 76
     1
 77
     6
 78
     2
 67
     7
 79
     5
170
     0
171
     0
290
     0
174
     0
 93
        1
 44
0.0
173
     0
291
     1
 45
0.0
1001
ACAD
1000
AcDbSavedByObjectVersion
1070
     0
  0
VISUALSTYLE
  5
10C2
102
{ACAD_REACTORS
330
10C1
102
}
330
10C1
100
AcDbVisualStyle
  2
Flat
 70
     0
 71
     2
 72
     1
 73
     1
 90
        2
 40
-0.6
 41
30.0
 62
     5
 63
     7
 74
     0
 91
        4
 64
     7
 65
   257
 75
     1
175
     1
 42
1.0
 92
        8
 66
     7
 43
1.0
 76
     1
 77
     6
 78
     2
 67
     7
 79
     5
170
     0
171
     0
290
     0
174
     0
 93
       13
 44
0.0
173
     0
291
     1
 45
0.0
1001
ACAD
1000
AcDbSavedByObjectVersion
1070
     0
  0
VISUALSTYLE
  5
10C3
102
{ACAD_REACTORS
330
10C1
102
}
330
10C1
100
AcDbVisualStyle
  2
FlatWithEdges
 70
     1
 71
     2
 72
     1
 73
     1
 90
        2
 40
-0.6
 41
30.0
 62
     5
 63
     7
 74
     1
 91
        4
 64
     7
 65
   257
 75
     1
175
     1
 42
1.0
 92
        0
 66
   257
 43
1.0
 76
     1
 77
     6
 78
     2
 67
     7
 79
     5
170
     0
171
     0
290
     0
174
     0
 93
       13
 44
0.0
173
     0
291
     1
 45
0.0
1001
ACAD
1000
AcDbSavedByObjectVersion
1070
     0
  0
VISUALSTYLE
  5
10C4
102
{ACAD_REACTORS
330
10C1
102
}
330
10C1
100
AcDbVisualStyle
  2
Gouraud
 70
     2
 71
     2
 72
     2
 73
     1
 90
        2
 40
-0.6
 41
30.0
 62
     5
 63
     7
 74
     0
 91
        4
 64
     7
 65
   257
 75
     1
175
     1
 42
1.0
 92
        0
 66
     7
 43
1.0
 76
     1
 77
     6
 78
     2
 67
     7
 79
     5
170
     0
171
     0
290
     0
174
     0
 93
       13
 44
0.0
173
     0
291
     1
 45
0.0
1001
ACAD
1000
AcDbSavedByObjectVersion
1070
     0
  0
VISUALSTYLE
  5
10C5
102
{ACAD_REACTORS
330
10C1
102
}
330
10C1
100
AcDbVisualStyle
  2
GouraudWithEdges
 70
     3
 71
     2
 72
     2
 73
     1
 90
        2
 40
-0.6
 41
30.0
 62
     5
 63
     7
 74
     1
 91
        4
 64
     7
 65
   257
 75
     1
175
     1
 42
1.0
 92
        0
 66
   257
 43
1.0
 76
     1
 77
     6
 78
     2
 67
     7
 79
     5
170
     0
171
     0
290
     0
174
     0
 93
       13
 44
0.0
173
     0
291
     1
 45
0.0
1001
ACAD
1000
AcDbSavedByObjectVersion
1070
     0
  0
VISUALSTYLE
  5
10CF
102
{ACAD_REACTORS
330
10C1
102
}
330
10C1
100
AcDbVisualStyle
  2
Linepattern
 70
    14
 71
     2
 72
     2
 73
     0
 90
        0
 40
-0.6
 41
-30.0
 62
     5
 63
     7
 74
     1
 91
        4
 64
     7
 65
   257
 75
     7
175
     7
 42
1.0
 92
        8
 66
     7
 43
1.0
 76
     1
 77
     6
 78
     2
 67
     7
 79
     5
170
     0
171
     0
290
     0
174
     0
 93
        1
 44
0.0
173
     0
291
     1
 45
0.0
1001
ACAD
1000
AcDbSavedByObjectVersion
1070
     0
  0
VISUALSTYLE
  5
10CB
102
{ACAD_REACTORS
330
10C1
102
}
330
10C1
100
AcDbVisualStyle
  2
Realistic
 70
     8
 71
     2
 72
     2
 73
     0
 90
        0
 40
-0.6
 41
-30.0
 62
     5
 63
     7
 74
     1
 91
        0
 64
     7
 65
   257
 75
     1
175
     1
 42
1.0
 92
        8
 66
     8
 43
1.0
 76
     1
 77
     6
 78
     2
 67
     7
 79
     5
170
     0
171
     0
290
     0
174
     0
 93
       13
 44
0.0
173
     0
291
     0
 45
0.0
1001
ACAD
1000
AcDbSavedByObjectVersion
1070
     0
  0
VISUALSTYLE
  5
10CE
102
{ACAD_REACTORS
330
10C1
102
}
330
10C1
100
AcDbVisualStyle
  2
Thicken
 70
    13
 71
     2
 72
     2
 73
     0
 90
        0
 40
-0.6
 41
-30.0
 62
     5
 63
     7
 74
     1
 91
        4
 64
     7
 65
   257
 75
     1
175
     1
 42
1.0
 92
       12
 66
     7
 43
1.0
 76
     1
 77
     6
 78
     2
 67
     7
 79
     5
170
     0
171
     0
290
     0
174
     0
 93
        1
 44
0.0
173
     0
291
     1
 45
0.0
1001
ACAD
1000
AcDbSavedByObjectVersion
1070
     0
  0
DICTIONARYVAR
  5
118B
102
{ACAD_REACTORS
330
94
102
}
330
94
100
DictionaryVariables
280
     0
  1
1:1
  0
DICTIONARYVAR
  5
1189
102
{ACAD_REACTORS
330
94
102
}
330
94
100
DictionaryVariables
280
     0
  1
STANDARD
  0
DICTIONARYVAR
  5
138
102
{ACAD_REACTORS
330
94
102
}
330
94
100
DictionaryVariables
280
     0
  1
STANDARD
  0
DICTIONARYVAR
  5
96
102
{ACAD_REACTORS
330
94
102
}
330
94
100
DictionaryVariables
280
     0
  1
2
  0
DICTIONARYVAR
  5
95
102
{ACAD_REACTORS
330
94
102
}
330
94
100
DictionaryVariables
280
     0
  1
0
  0
DICTIONARYVAR
  5
118D
102
{ACAD_REACTORS
330
94
102
}
330
94
100
DictionaryVariables
280
     0
  1
1
  0
DICTIONARYVAR
  5
118E
102
{ACAD_REACTORS
330
94
102
}
330
94
100
DictionaryVariables
280
     0
  1
15
  0
DICTIONARYVAR
  5
118C
102
{ACAD_REACTORS
330
94
102
}
330
94
100
DictionaryVariables
280
     0
  1
0
  0
DICTIONARYVAR
  5
118A
102
{ACAD_REACTORS
330
94
102
}
330
94
100
DictionaryVariables
280
     0
  1
0
  0
DICTIONARYVAR
  5
1302
102
{ACAD_REACTORS
330
94
102
}
330
94
100
DictionaryVariables
280
     0
  1
127
  0
DICTIONARY
  5
272
102
{ACAD_REACTORS
330
5B
102
}
330
5B
100
AcDbDictionary
281
     1
  0
DICTIONARY
  5
61
102
{ACAD_REACTORS
330
5B
102
}
330
5B
100
AcDbDictionary
281
     1
  0
XRECORD
  5
123
102
{ACAD_REACTORS
330
5B
102
}
330
5B
100
AcDbXrecord
280
     1
 90
-1023410169
  0
XRECORD
  5
106D
102
{ACAD_REACTORS
330
106C
102
}
330
106C
100
AcDbXrecord
280
     1
330
E28
330
E29
330
E4D
330
A65
330
0
330
0
330
0
  0
DICTIONARY
  5
1307
330
1E
100
AcDbDictionary
280
     1
281
     1
  3
ACAD_XREC_ROUNDTRIP
360
1308
  0
DICTIONARY
  5
130B
330
26
100
AcDbDictionary
280
     1
281
     1
  3
ACAD_XREC_ROUNDTRIP
360
130C
  0
DICTIONARY
  5
1309
330
22
100
AcDbDictionary
280
     1
281
     1
  3
ACAD_XREC_ROUNDTRIP
360
130A
  0
DICTIONARY
  5
10BA
330
10B9
100
AcDbDictionary
280
     1
281
     1
  3
ACAD_XREC_ROUNDTRIP
360
1313
  3
BUMPTILE
360
10BC
  3
DIFFUSETILE
360
10BB
  3
OPACITYTILE
360
10BF
  3
REFLECTIONTILE
360
10BE
  3
REFRACTIONTILE
360
10C0
  3
SPECULARTILE
360
10BD
  0
DICTIONARY
  5
10B2
330
10B1
100
AcDbDictionary
280
     1
281
     1
  3
ACAD_XREC_ROUNDTRIP
360
1312
  3
BUMPTILE
360
10B4
  3
DIFFUSETILE
360
10B3
  3
OPACITYTILE
360
10B7
  3
REFLECTIONTILE
360
10B6
  3
REFRACTIONTILE
360
10B8
  3
SPECULARTILE
360
10B5
  0
DICTIONARY
  5
130E
330
3C0
100
AcDbDictionary
280
     1
281
     1
  3
ACAD_XREC_ROUNDTRIP
360
130F
  0
DICTIONARY
  5
1186
330
11B
100
AcDbDictionary
280
     1
281
     1
  3
ACAD_ROUNDTRIP_2008_TABLESTYLE_CELLSTYLEMAP
360
1303
  3
ACAD_XREC_ROUNDTRIP
360
130D
  0
XRECORD
  5
1308
102
{ACAD_REACTORS
330
1307
102
}
330
1307
100
AcDbXrecord
280
     1
102
SHADEPLOT
 70
     0
102
SHADEPLOTRESLEVEL
 70
     2
102
SHADEPLOTCUSTOMDPI
 70
   300
  0
XRECORD
  5
130C
102
{ACAD_REACTORS
330
130B
102
}
330
130B
100
AcDbXrecord
280
     1
102
SHADEPLOT
 70
     0
102
SHADEPLOTRESLEVEL
 70
     2
102
SHADEPLOTCUSTOMDPI
 70
   300
  0
XRECORD
  5
130A
102
{ACAD_REACTORS
330
1309
102
}
330
1309
100
AcDbXrecord
280
     1
102
SHADEPLOT
 70
     0
102
SHADEPLOTRESLEVEL
 70
     2
102
SHADEPLOTCUSTOMDPI
 70
   300
  0
XRECORD
  5
1313
102
{ACAD_REACTORS
330
10BA
102
}
330
10BA
100
AcDbXrecord
280
     1
102
MATERIAL
148
0.0
149
0.0
149
0.0
 93
        0
 94
      127
282
     0
 72
     0
 77
     0
171
     0
175
     0
179
     0
273
     0
  0
XRECORD
  5
10BC
102
{ACAD_REACTORS
330
10BA
102
}
330
10BA
100
AcDbXrecord
280
     1
270
     1
271
     1
  0
XRECORD
  5
10BB
102
{ACAD_REACTORS
330
10BA
102
}
330
10BA
100
AcDbXrecord
280
     1
270
     1
271
     1
  0
XRECORD
  5
10BF
102
{ACAD_REACTORS
330
10BA
102
}
330
10BA
100
AcDbXrecord
280
     1
270
     1
271
     1
  0
XRECORD
  5
10BE
102
{ACAD_REACTORS
330
10BA
102
}
330
10BA
100
AcDbXrecord
280
     1
270
     1
271
     1
  0
XRECORD
  5
10C0
102
{ACAD_REACTORS
330
10BA
102
}
330
10BA
100
AcDbXrecord
280
     1
270
     1
271
     1
  0
XRECORD
  5
10BD
102
{ACAD_REACTORS
330
10BA
102
}
330
10BA
100
AcDbXrecord
280
     1
270
     1
271
     1
  0
XRECORD
  5
1312
102
{ACAD_REACTORS
330
10B2
102
}
330
10B2
100
AcDbXrecord
280
     1
102
MATERIAL
148
0.0
149
0.0
149
0.0
 93
        0
 94
      127
282
     0
 72
     0
 77
     0
171
     0
175
     0
179
     0
273
     0
  0
XRECORD
  5
10B4
102
{ACAD_REACTORS
330
10B2
102
}
330
10B2
100
AcDbXrecord
280
     1
270
     1
271
     1
  0
XRECORD
  5
10B3
102
{ACAD_REACTORS
330
10B2
102
}
330
10B2
100
AcDbXrecord
280
     1
270
     1
271
     1
  0
XRECORD
  5
10B7
102
{ACAD_REACTORS
330
10B2
102
}
330
10B2
100
AcDbXrecord
280
     1
270
     1
271
     1
  0
XRECORD
  5
10B6
102
{ACAD_REACTORS
330
10B2
102
}
330
10B2
100
AcDbXrecord
280
     1
270
     1
271
     1
  0
XRECORD
  5
10B8
102
{ACAD_REACTORS
330
10B2
102
}
330
10B2
100
AcDbXrecord
280
     1
270
     1
271
     1
  0
XRECORD
  5
10B5
102
{ACAD_REACTORS
330
10B2
102
}
330
10B2
100
AcDbXrecord
280
     1
270
     1
271
     1
  0
XRECORD
  5
130F
102
{ACAD_REACTORS
330
130E
102
}
330
130E
100
AcDbXrecord
280
     1
102
MATERIAL
148
0.0
149
0.0
149
0.0
 93
        0
 94
       63
282
     0
 72
     1
 77
     1
171
     1
175
     1
179
     1
273
     0
  0
CELLSTYLEMAP
  5
1303
102
{ACAD_REACTORS
330
1186
102
}
330
1186
100
AcDbCellStyleMap
 90
        3
300
CELLSTYLE
  1
TABLEFORMAT_BEGIN
 90
        5
170
     1
 91
        0
 92
    32768
 62
   257
 93
        1
300
CONTENTFORMAT
  1
CONTENTFORMAT_BEGIN
 90
        0
 91
        0
 92
        4
 93
        0
300

 40
0.0
140
1.0
 94
        5
 62
     0
340
11
144
6.0
309
CONTENTFORMAT_END
171
     1
301
MARGIN
  1
CELLMARGIN_BEGIN
 40
1.5
 40
1.5
 40
1.5
 40
1.5
 40
0.18
 40
0.18
309
CELLMARGIN_END
 94
        6
 95
        1
302
GRIDFORMAT
  1
GRIDFORMAT_BEGIN
 90
        0
 91
        1
 62
     0
 92
       -2
340
0
 93
        0
 40
0.045
309
GRIDFORMAT_END
 95
        2
302
GRIDFORMAT
  1
GRIDFORMAT_BEGIN
 90
        0
 91
        1
 62
     0
 92
       -2
340
0
 93
        0
 40
0.045
309
GRIDFORMAT_END
 95
        4
302
GRIDFORMAT
  1
GRIDFORMAT_BEGIN
 90
        0
 91
        1
 62
     0
 92
       -2
340
0
 93
        0
 40
0.045
309
GRIDFORMAT_END
 95
        8
302
GRIDFORMAT
  1
GRIDFORMAT_BEGIN
 90
        0
 91
        1
 62
     0
 92
       -2
340
0
 93
        0
 40
0.045
309
GRIDFORMAT_END
 95
       16
302
GRIDFORMAT
  1
GRIDFORMAT_BEGIN
 90
        0
 91
        1
 62
     0
 92
       -2
340
0
 93
        0
 40
0.045
309
GRIDFORMAT_END
 95
       32
302
GRIDFORMAT
  1
GRIDFORMAT_BEGIN
 90
        0
 91
        1
 62
     0
 92
       -2
340
0
 93
        0
 40
0.045
309
GRIDFORMAT_END
309
TABLEFORMAT_END
  1
CELLSTYLE_BEGIN
 90
        1
 91
        1
300
_TITLE
309
CELLSTYLE_END
300
CELLSTYLE
  1
TABLEFORMAT_BEGIN
 90
        5
170
     1
 91
        0
 92
        0
 62
   257
 93
        1
300
CONTENTFORMAT
  1
CONTENTFORMAT_BEGIN
 90
        0
 91
        0
 92
        4
 93
        0
300

 40
0.0
140
1.0
 94
        5
 62
     0
340
11
144
4.5
309
CONTENTFORMAT_END
171
     1
301
MARGIN
  1
CELLMARGIN_BEGIN
 40
1.5
 40
1.5
 40
1.5
 40
1.5
 40
0.18
 40
0.18
309
CELLMARGIN_END
 94
        6
 95
        1
302
GRIDFORMAT
  1
GRIDFORMAT_BEGIN
 90
        0
 91
        1
 62
     0
 92
       -2
340
0
 93
        0
 40
0.045
309
GRIDFORMAT_END
 95
        2
302
GRIDFORMAT
  1
GRIDFORMAT_BEGIN
 90
        0
 91
        1
 62
     0
 92
       -2
340
0
 93
        0
 40
0.045
309
GRIDFORMAT_END
 95
        4
302
GRIDFORMAT
  1
GRIDFORMAT_BEGIN
 90
        0
 91
        1
 62
     0
 92
       -2
340
0
 93
        0
 40
0.045
309
GRIDFORMAT_END
 95
        8
302
GRIDFORMAT
  1
GRIDFORMAT_BEGIN
 90
        0
 91
        1
 62
     0
 92
       -2
340
0
 93
        0
 40
0.045
309
GRIDFORMAT_END
 95
       16
302
GRIDFORMAT
  1
GRIDFORMAT_BEGIN
 90
        0
 91
        1
 62
     0
 92
       -2
340
0
 93
        0
 40
0.045
309
GRIDFORMAT_END
 95
       32
302
GRIDFORMAT
  1
GRIDFORMAT_BEGIN
 90
        0
 91
        1
 62
     0
 92
       -2
340
0
 93
        0
 40
0.045
309
GRIDFORMAT_END
309
TABLEFORMAT_END
  1
CELLSTYLE_BEGIN
 90
        2
 91
        1
300
_HEADER
309
CELLSTYLE_END
300
CELLSTYLE
  1
TABLEFORMAT_BEGIN
 90
        5
170
     1
 91
        0
 92
        0
 62
   257
 93
        1
300
CONTENTFORMAT
  1
CONTENTFORMAT_BEGIN
 90
        0
 91
        0
 92
        4
 93
        0
300

 40
0.0
140
1.0
 94
        2
 62
     0
340
11
144
4.5
309
CONTENTFORMAT_END
171
     1
301
MARGIN
  1
CELLMARGIN_BEGIN
 40
1.5
 40
1.5
 40
1.5
 40
1.5
 40
0.18
 40
0.18
309
CELLMARGIN_END
 94
        6
 95
        1
302
GRIDFORMAT
  1
GRIDFORMAT_BEGIN
 90
        0
 91
        1
 62
     0
 92
       -2
340
0
 93
        0
 40
0.045
309
GRIDFORMAT_END
 95
        2
302
GRIDFORMAT
  1
GRIDFORMAT_BEGIN
 90
        0
 91
        1
 62
     0
 92
       -2
340
0
 93
        0
 40
0.045
309
GRIDFORMAT_END
 95
        4
302
GRIDFORMAT
  1
GRIDFORMAT_BEGIN
 90
        0
 91
        1
 62
     0
 92
       -2
340
0
 93
        0
 40
0.045
309
GRIDFORMAT_END
 95
        8
302
GRIDFORMAT
  1
GRIDFORMAT_BEGIN
 90
        0
 91
        1
 62
     0
 92
       -2
340
0
 93
        0
 40
0.045
309
GRIDFORMAT_END
 95
       16
302
GRIDFORMAT
  1
GRIDFORMAT_BEGIN
 90
        0
 91
        1
 62
     0
 92
       -2
340
0
 93
        0
 40
0.045
309
GRIDFORMAT_END
 95
       32
302
GRIDFORMAT
  1
GRIDFORMAT_BEGIN
 90
        0
 91
        1
 62
     0
 92
       -2
340
0
 93
        0
 40
0.045
309
GRIDFORMAT_END
309
TABLEFORMAT_END
  1
CELLSTYLE_BEGIN
 90
        3
 91
        2
300
_DATA
309
CELLSTYLE_END
  0
XRECORD
  5
130D
102
{ACAD_REACTORS
330
1186
102
}
330
1186
100
AcDbXrecord
280
     1
102
ACAD_ROUNDTRIP_PRE2007_TABLESTYLE
 90
        4
 91
        0
  1

 92
        4
 93
        0
  2

 94
        4
 95
        0
  3

  0
ENDSEC
  0
EOF
