  0
SECTION
  2
HEADER
  9
$ACADVER
  1
AC1015
  9
$ACADMAINTVER
 70
    20
  9
$DWGCODEPAGE
  3
ANSI_1252
  9
$INSBASE
 10
0.0
 20
0.0
 30
0.0
  9
$EXTMIN
 10
-48.61771725853671
 20
-36.42137717908644
 30
0.0
  9
$EXTMAX
 10
394.7156160747967
 20
262.5786228209135
 30
0.0
  9
$LIMMIN
 10
0.0
 20
0.0
  9
$LIMMAX
 10
12.0
 20
9.0
  9
$ORTHOMODE
 70
     1
  9
$REGENMODE
 70
     1
  9
$FILLMODE
 70
     1
  9
$QTEXTMODE
 70
     0
  9
$MIRRTEXT
 70
     1
  9
$LTSCALE
 40
1.0
  9
$ATTMODE
 70
     1
  9
$TEXTSIZE
 40
0.2
  9
$TRACEWID
 40
0.05
  9
$TEXTSTYLE
  7
Standard
  9
$CLAYER
  8
0
  9
$CELTYPE
  6
ByLayer
  9
$CECOLOR
 62
   256
  9
$CELTSCALE
 40
1.0
  9
$DISPSILH
 70
     0
  9
$DIMSCALE
 40
1.0
  9
$DIMASZ
 40
0.18
  9
$DIMEXO
 40
0.0625
  9
$DIMDLI
 40
0.38
  9
$DIMRND
 40
0.0
  9
$DIMDLE
 40
0.0
  9
$DIMEXE
 40
0.18
  9
$DIMTP
 40
0.0
  9
$DIMTM
 40
0.0
  9
$DIMTXT
 40
0.18
  9
$DIMCEN
 40
0.09
  9
$DIMTSZ
 40
0.0
  9
$DIMTOL
 70
     0
  9
$DIMLIM
 70
     0
  9
$DIMTIH
 70
     1
  9
$DIMTOH
 70
     1
  9
$DIMSE1
 70
     0
  9
$DIMSE2
 70
     0
  9
$DIMTAD
 70
     0
  9
$DIMZIN
 70
     0
  9
$DIMBLK
  1

  9
$DIMASO
 70
     1
  9
$DIMSHO
 70
     1
  9
$DIMPOST
  1

  9
$DIMAPOST
  1

  9
$DIMALT
 70
     0
  9
$DIMALTD
 70
     2
  9
$DIMALTF
 40
25.4
  9
$DIMLFAC
 40
1.0
  9
$DIMTOFL
 70
     0
  9
$DIMTVP
 40
0.0
  9
$DIMTIX
 70
     0
  9
$DIMSOXD
 70
     0
  9
$DIMSAH
 70
     0
  9
$DIMBLK1
  1

  9
$DIMBLK2
  1

  9
$DIMSTYLE
  2
Standard
  9
$DIMCLRD
 70
     0
  9
$DIMCLRE
 70
     0
  9
$DIMCLRT
 70
     0
  9
$DIMTFAC
 40
1.0
  9
$DIMGAP
 40
0.09
  9
$DIMJUST
 70
     0
  9
$DIMSD1
 70
     0
  9
$DIMSD2
 70
     0
  9
$DIMTOLJ
 70
     1
  9
$DIMTZIN
 70
     0
  9
$DIMALTZ
 70
     0
  9
$DIMALTTZ
 70
     0
  9
$DIMUPT
 70
     0
  9
$DIMDEC
 70
     4
  9
$DIMTDEC
 70
     4
  9
$DIMALTU
 70
     2
  9
$DIMALTTD
 70
     2
  9
$DIMTXSTY
  7
Standard
  9
$DIMAUNIT
 70
     0
  9
$DIMADEC
 70
     0
  9
$DIMALTRND
 40
0.0
  9
$DIMAZIN
 70
     0
  9
$DIMDSEP
 70
    46
  9
$DIMATFIT
 70
     3
  9
$DIMFRAC
 70
     0
  9
$DIMLDRBLK
  1

  9
$DIMLUNIT
 70
     2
  9
$DIMLWD
 70
    -2
  9
$DIMLWE
 70
    -2
  9
$DIMTMOVE
 70
     0
  9
$LUNITS
 70
     2
  9
$LUPREC
 70
     3
  9
$SKETCHINC
 40
0.1
  9
$FILLETRAD
 40
0.0
  9
$AUNITS
 70
     0
  9
$AUPREC
 70
     0
  9
$MENU
  1
.
  9
$ELEVATION
 40
0.0
  9
$PELEVATION
 40
0.0
  9
$THICKNESS
 40
0.0
  9
$LIMCHECK
 70
     0
  9
$CHAMFERA
 40
0.5
  9
$CHAMFERB
 40
0.5
  9
$CHAMFERC
 40
1.0
  9
$CHAMFERD
 40
0.0
  9
$SKPOLY
 70
     0
  9
$TDCREATE
 40
2454769.751203160
  9
$TDUCREATE
 40
2454769.709536493
  9
$TDUPDATE
 40
2455146.450176320
  9
$TDUUPDATE
 40
2455146.408509653
  9
$TDINDWG
 40
0.0356241319
  9
$TDUSRTIMER
 40
0.0356241319
  9
$USRTIMER
 70
     1
  9
$ANGBASE
 50
0.0
  9
$ANGDIR
 70
     0
  9
$PDMODE
 70
     0
  9
$PDSIZE
 40
0.0
  9
$PLINEWID
 40
0.0
  9
$SPLFRAME
 70
     0
  9
$SPLINETYPE
 70
     6
  9
$SPLINESEGS
 70
     8
  9
$HANDSEED
  5
D8A
  9
$SURFTAB1
 70
     6
  9
$SURFTAB2
 70
     6
  9
$SURFTYPE
 70
     6
  9
$SURFU
 70
     6
  9
$SURFV
 70
     6
  9
$UCSBASE
  2

  9
$UCSNAME
  2

  9
$UCSORG
 10
0.0
 20
0.0
 30
0.0
  9
$UCSXDIR
 10
1.0
 20
0.0
 30
0.0
  9
$UCSYDIR
 10
0.0
 20
1.0
 30
0.0
  9
$UCSORTHOREF
  2

  9
$UCSORTHOVIEW
 70
     0
  9
$UCSORGTOP
 10
0.0
 20
0.0
 30
0.0
  9
$UCSORGBOTTOM
 10
0.0
 20
0.0
 30
0.0
  9
$UCSORGLEFT
 10
0.0
 20
0.0
 30
0.0
  9
$UCSORGRIGHT
 10
0.0
 20
0.0
 30
0.0
  9
$UCSORGFRONT
 10
0.0
 20
0.0
 30
0.0
  9
$UCSORGBACK
 10
0.0
 20
0.0
 30
0.0
  9
$PUCSBASE
  2

  9
$PUCSNAME
  2

  9
$PUCSORG
 10
0.0
 20
0.0
 30
0.0
  9
$PUCSXDIR
 10
1.0
 20
0.0
 30
0.0
  9
$PUCSYDIR
 10
0.0
 20
1.0
 30
0.0
  9
$PUCSORTHOREF
  2

  9
$PUCSORTHOVIEW
 70
     0
  9
$PUCSORGTOP
 10
0.0
 20
0.0
 30
0.0
  9
$PUCSORGBOTTOM
 10
0.0
 20
0.0
 30
0.0
  9
$PUCSORGLEFT
 10
0.0
 20
0.0
 30
0.0
  9
$PUCSORGRIGHT
 10
0.0
 20
0.0
 30
0.0
  9
$PUCSORGFRONT
 10
0.0
 20
0.0
 30
0.0
  9
$PUCSORGBACK
 10
0.0
 20
0.0
 30
0.0
  9
$USERI1
 70
     0
  9
$USERI2
 70
     0
  9
$USERI3
 70
     0
  9
$USERI4
 70
     0
  9
$USERI5
 70
     0
  9
$USERR1
 40
0.0
  9
$USERR2
 40
0.0
  9
$USERR3
 40
0.0
  9
$USERR4
 40
0.0
  9
$USERR5
 40
0.0
  9
$WORLDVIEW
 70
     1
  9
$SHADEDGE
 70
     3
  9
$SHADEDIF
 70
    70
  9
$TILEMODE
 70
     1
  9
$MAXACTVP
 70
    64
  9
$PINSBASE
 10
0.0
 20
0.0
 30
0.0
  9
$PLIMCHECK
 70
     0
  9
$PEXTMIN
 10
1.000000000000000E+20
 20
1.000000000000000E+20
 30
1.000000000000000E+20
  9
$PEXTMAX
 10
-1.000000000000000E+20
 20
-1.000000000000000E+20
 30
-1.000000000000000E+20
  9
$PLIMMIN
 10
0.0
 20
0.0
  9
$PLIMMAX
 10
12.0
 20
9.0
  9
$UNITMODE
 70
     0
  9
$VISRETAIN
 70
     1
  9
$PLINEGEN
 70
     0
  9
$PSLTSCALE
 70
     1
  9
$TREEDEPTH
 70
  3020
  9
$CMLSTYLE
  2
Standard
  9
$CMLJUST
 70
     0
  9
$CMLSCALE
 40
1.0
  9
$PROXYGRAPHICS
 70
     1
  9
$MEASUREMENT
 70
     0
  9
$CELWEIGHT
370
    -1
  9
$ENDCAPS
280
     0
  9
$JOINSTYLE
280
     0
  9
$LWDISPLAY
290
     0
  9
$INSUNITS
 70
     4
  9
$HYPERLINKBASE
  1

  9
$STYLESHEET
  1

  9
$XEDIT
290
     1
  9
$CEPSNTYPE
380
     0
  9
$PSTYLEMODE
290
     1
  9
$FINGERPRINTGUID
  2
{6F988028-BB6E-42C1-959B-A27F8B779448}
  9
$VERSIONGUID
  2
{CB8EAAEC-C2C8-49F6-8F6C-80ADF319C4D6}
  9
$EXTNAMES
290
     1
  9
$PSVPSCALE
 40
0.0
  9
$OLESTARTUP
290
     0
  0
ENDSEC
  0
SECTION
  2
CLASSES
  0
CLASS
  1
ACDBDICTIONARYWDFLT
  2
AcDbDictionaryWithDefault
  3
ObjectDBX Classes
 90
        0
280
     0
281
     0
  0
CLASS
  1
TABLESTYLE
  2
AcDbTableStyle
  3
ObjectDBX Classes
 90
     4095
280
     0
281
     0
  0
CLASS
  1
ACME_DOCUMENT
  2
AcMeDbDoc
  3
AcMeServices
 90
     1024
280
     0
281
     0
  0
CLASS
  1
AMGSETTINGSOBJ
  2
AmgSettingsObj
  3
"AcadM|Product Description: AutoCAD Mechanical|Company: Autodesk, Inc."
 90
     1024
280
     0
281
     0
  0
CLASS
  1
ACMESCOPE
  2
AcMeScope
  3
AcMeServices
 90
     1024
280
     0
281
     0
  0
CLASS
  1
ACMECOMMANDHISTORY
  2
AcMeCommandHistory
  3
AcMeServices
 90
     1024
280
     0
281
     0
  0
CLASS
  1
ACIMSYSVARMAN
  2
AcImSysVarManager
  3
AcMeServices
 90
     1024
280
     0
281
     0
  0
CLASS
  1
ACIMINTSYSVAR
  2
AcImIntSysVar
  3
AcMeServices
 90
     1024
280
     0
281
     0
  0
CLASS
  1
ACMEDRAWINGMAN
  2
AcMeDrawingMan
  3
AcMeServices
 90
     1024
280
     0
281
     0
  0
CLASS
  1
ACMEVIEW
  2
AcMeView
  3
AcMeServices
 90
     1024
280
     0
281
     0
  0
CLASS
  1
ACDBENTITYCACHE
  2
AcMeEntityCache
  3
AcMeServices
 90
     1024
280
     0
281
     0
  0
CLASS
  1
GSMANAGER
  2
AcMeGSManager
  3
AcMeServices
 90
     1024
280
     0
281
     0
  0
CLASS
  1
AMDTINTERNALREACTOR
  2
AmdtInternalReactor
  3
AcMeServices
 90
     1024
280
     0
281
     0
  0
CLASS
  1
ACMESTATEMGR
  2
AcMeStateMgr
  3
AcMeServices
 90
     1024
280
     0
281
     0
  0
CLASS
  1
ACGREFMASTER
  2
AcGrefMaster
  3
AcAttribServices
 90
     1024
280
     0
281
     0
  0
CLASS
  1
AM_DRAWING_MGR
  2
AcDmDwgMgr
  3
AcMechDwgViewMgmt
 90
     1024
280
     0
281
     0
  0
CLASS
  1
AM_DWG_DOCUMENT
  2
AcDmDwgDocument
  3
AcMechDwgViewMgmt
 90
     1024
280
     0
281
     0
  0
CLASS
  1
AM_DWG_SHEET
  2
AcDmSheet
  3
AcMechDwgViewMgmt
 90
     1024
280
     0
281
     0
  0
CLASS
  1
AM_VIEWDIMPARMAP
  2
AcDmViewDimParMap
  3
AcMechDwgViewMgmt
 90
     1024
280
     0
281
     0
  0
CLASS
  1
ACIMREALSYSVAR
  2
AcImRealSysVar
  3
AcMeServices
 90
     1024
280
     0
281
     0
  0
CLASS
  1
AM_DWGMGR_NAME
  2
AcDmDwgMgrName
  3
AcMechDwgViewMgmt
 90
     1024
280
     0
281
     0
  0
CLASS
  1
ACME_DATABASE
  2
AcMeDbDatabase
  3
AcMeServices
 90
     1024
280
     0
281
     0
  0
CLASS
  1
ACRFINSADJUSTERMGR
  2
AcRfInsAdjusterMgr
  3
AcMeServices
 90
     1024
280
     0
281
     0
  0
CLASS
  1
ACGREFACADMASTER
  2
AcGrefacadMaster
  3
AcGrefServices
 90
     1024
280
     0
281
     0
  0
CLASS
  1
AMDTMENUSTATEMGR
  2
AmdtMenuStateMgr
  3
McadcomServices
 90
     1024
280
     0
281
     0
  0
CLASS
  1
AMDTMCOMMENUSTATE
  2
AmdtMcomMenuState
  3
McadcomServices
 90
     1024
280
     0
281
     0
  0
CLASS
  1
AMIMASTER
  2
AmiMaster
  3
AmiServices
 90
     1024
280
     0
281
     0
  0
CLASS
  1
MAPIAMMOUDLE
  2
MApiAmModule
  3
MApiAmServices
 90
     1024
280
     0
281
     0
  0
CLASS
  1
ACIMSTRSYSVAR
  2
AcImStrSysVar
  3
AcMeServices
 90
     1024
280
     0
281
     0
  0
CLASS
  1
AMDTADMENUSTATE
  2
AmdtAdMenuState
  3
DesignerServices
 90
     1024
280
     0
281
     0
  0
CLASS
  1
ADAPPL
  2
AcAdAppl
  3
DesignerServices
 90
     1024
280
     0
281
     0
  0
CLASS
  1
DEPMGR
  2
AcAdDepMgr
  3
DesignerServices
 90
     1024
280
     0
281
     0
  0
CLASS
  1
PARAMMGR
  2
AcAdParamMgr
  3
DesignerServices
 90
     1024
280
     0
281
     0
  0
CLASS
  1
PARAMSCOPE
  2
AcAdParamScope
  3
DesignerServices
 90
     1024
280
     0
281
     0
  0
CLASS
  1
NAMEDAPPL
  2
AcAdNamedAppl
  3
DesignerServices
 90
     1024
280
     0
281
     0
  0
CLASS
  1
AMDTDMMENUSTATE
  2
AmdtDmMenuState
  3
AcMechDwgViewMgmt
 90
     1024
280
     0
281
     0
  0
CLASS
  1
AMDTAMMENUSTATE
  2
AmdtAmMenuState
  3
DesignerAssemblies
 90
     1024
280
     0
281
     0
  0
CLASS
  1
ACAMPROJECT
  2
AcAmProject
  3
DesignerAssemblies
 90
     1024
280
     0
281
     0
  0
CLASS
  1
ACAMGRCOMPDEF
  2
AcAmGrCompDef
  3
DesignerAssemblies
 90
     1024
280
     0
281
     0
  0
CLASS
  1
ACCMCONTEXT
  2
AcCmContext
  3
DesignerAssemblies
 90
     1024
280
     0
281
     0
  0
CLASS
  1
ACAMCOMPDEF
  2
AcAmCompDef
  3
DesignerAssemblies
 90
     1024
280
     0
281
     0
  0
CLASS
  1
ACAMCOMPDEFMGR
  2
AcAmCompDefMgr
  3
DesignerAssemblies
 90
     1024
280
     0
281
     0
  0
CLASS
  1
AMCONTEXTMGR
  2
AcAmContextMgr
  3
DesignerAssemblies
 90
     1024
280
     0
281
     0
  0
CLASS
  1
ACAMCONTEXTMODELER
  2
AcAmContextModeler
  3
DesignerAssemblies
 90
     1024
280
     0
281
     0
  0
CLASS
  1
ACMDATADICTIONARY
  2
AcmDataDictionary
  3
"AcmSymBB|Product Description: AutoCAD Mechanical|Company: Autodesk, Inc."
 90
     1024
280
     0
281
     0
  0
CLASS
  1
CATALOGSTATE
  2
AcAmCatalogState
  3
DesignerAssemblies
 90
     1024
280
     0
281
     0
  0
CLASS
  1
ACAMGRCOMPDEFSET
  2
AcAmGrCompDefSet
  3
DesignerAssemblies
 90
     1024
280
     0
281
     0
  0
CLASS
  1
AMDTBROWSERDBTAB
  2
AmdtBrowserDbTab
  3
McadcomServices
 90
     1024
280
     0
281
     0
  0
CLASS
  1
CBROWSERAPPOBJECT
  2
CBrowserAppObject
  3
McadcomServices
 90
     1024
280
     0
281
     0
  0
CLASS
  1
DM_PLACEHOLDER
  2
AcDmSelsetPlaceholder
  3
AcMechDwgViewMgmt
 90
     1024
280
     0
281
     0
  0
CLASS
  1
ACMSTANDARDANSI
  2
AcmStandardANSI
  3
"Amdt_StdImp|Product Description: AutoCAD Mechanical|Company: Autodesk, Inc."
 90
     1024
280
     0
281
     0
  0
CLASS
  1
AMGOBJPROPCFG
  2
AmgObjPropCfg
  3
"AmgLay|Product Description: AutoCAD Mechanical|Company: Autodesk, Inc."
 90
     1025
280
     0
281
     0
  0
CLASS
  1
ACMSURFSTANDARDANSI
  2
AcmSurfTextStdANSI
  3
"Amdt_StdImp|Product Description: AutoCAD Mechanical|Company: Autodesk, Inc."
 90
     1024
280
     0
281
     0
  0
CLASS
  1
ACMFCFSTANDARDANSI
  2
AcmFCFStdANSI
  3
"Amdt_StdImp|Product Description: AutoCAD Mechanical|Company: Autodesk, Inc."
 90
     1024
280
     0
281
     0
  0
CLASS
  1
ACMWELDSTANDARDANSI
  2
AcmWeldingStdANSI
  3
"Amdt_StdImp|Product Description: AutoCAD Mechanical|Company: Autodesk, Inc."
 90
     1024
280
     0
281
     0
  0
CLASS
  1
ACMIDSTANDARDANSI
  2
AcmIdStdANSI
  3
"Amdt_StdImp|Product Description: AutoCAD Mechanical|Company: Autodesk, Inc."
 90
     1024
280
     0
281
     0
  0
CLASS
  1
ACMDATUMSTANDARDANSI
  2
AcmDatumStdANSI
  3
"Amdt_StdImp|Product Description: AutoCAD Mechanical|Company: Autodesk, Inc."
 90
     1024
280
     0
281
     0
  0
CLASS
  1
ACMBOMSTANDARDANSI
  2
AcmBOMStdANSI
  3
"Amdt_StdImp|Product Description: AutoCAD Mechanical|Company: Autodesk, Inc."
 90
     1024
280
     0
281
     0
  0
CLASS
  1
ACMDETAILSTANDARDANSI
  2
AmdtDetailSymStdANSI
  3
"Amdt_StdImp|Product Description: AutoCAD Mechanical|Company: Autodesk, Inc."
 90
     1024
280
     0
281
     0
  0
CLASS
  1
ACMSECTIONSTANDARDANSI
  2
AmdtSectionSymStdANSI
  3
"Amdt_StdImp|Product Description: AutoCAD Mechanical|Company: Autodesk, Inc."
 90
     1024
280
     0
281
     0
  0
CLASS
  1
ACMCENTERLINESTANDARDANSI
  2
AmdtCenterLineStdANSI
  3
"Amdt_StdImp|Product Description: AutoCAD Mechanical|Company: Autodesk, Inc."
 90
     1024
280
     0
281
     0
  0
CLASS
  1
ACMTHREADLINESTANDARDANSI
  2
AmdtThreadLineStdANSI
  3
"Amdt_StdImp|Product Description: AutoCAD Mechanical|Company: Autodesk, Inc."
 90
     1024
280
     0
281
     0
  0
CLASS
  1
ACMNOTESTANDARDANSI
  2
AmdtNoteStdANSI
  3
"Amdt_StdImp|Product Description: AutoCAD Mechanical|Company: Autodesk, Inc."
 90
     1024
280
     0
281
     0
  0
CLASS
  1
AMDTNOTETEMPLATEDB
  2
AmdtNoteTemplateDB
  3
AcmSymBB|Product Description: AutoCAD Mechanical|Company: Autodesk, Inc.
 90
     1024
280
     0
281
     0
  0
CLASS
  1
ACAMGLAYSTD
  2
AcAmgLayStd
  3
"AmgLay|Product Description: AutoCAD Mechanical|Company: Autodesk, Inc."
 90
     1024
280
     0
281
     0
  0
CLASS
  1
ACAMGDIMSTD
  2
AcAmgDimStd
  3
"AmgDim|Product Description: AutoCAD Mechanical|Company: Autodesk, Inc."
 90
     1024
280
     0
281
     0
  0
CLASS
  1
ACAMGHOLECHARTSTDANSI
  2
AcAmgHoleChartStdANSI
  3
AmgDim|Product Description: AutoCAD Mechanical|Company: Autodesk, Inc.
 90
     1024
280
     0
281
     0
  0
CLASS
  1
ACAMGTITLESTD
  2
AcAmgTitleStd
  3
"AmgTitle|Product Description: AutoCAD Mechanical|Company: Autodesk, Inc."
 90
     4095
280
     0
281
     0
  0
CLASS
  1
ACAMGFILTERDAT
  2
AcAmgFilterDat
  3
"AcadM|Product Description: AutoCAD Mechanical|Company: Autodesk, Inc."
 90
     1024
280
     0
281
     0
  0
CLASS
  1
DICTIONARYVAR
  2
AcDbDictionaryVar
  3
ObjectDBX Classes
 90
        0
280
     0
281
     0
  0
CLASS
  1
MATERIAL
  2
AcDbMaterial
  3
ObjectDBX Classes
 90
     1153
280
     0
281
     0
  0
CLASS
  1
SORTENTSTABLE
  2
AcDbSortentsTable
  3
ObjectDBX Classes
 90
    32768
280
     0
281
     0
  0
CLASS
  1
ACMDATAENTRYBLOCK
  2
AcmDataEntryBlock
  3
AcmSymBB|Product Description: AutoCAD Mechanical|Company: Autodesk, Inc.
 90
    33792
280
     0
281
     0
  0
CLASS
  1
DIMASSOC
  2
AcDbDimAssoc
  3
"AcDbDimAssoc|Product Desc:     AcDim ARX App For Dimension|Company:          Autodesk, Inc.|WEB Address:      www.autodesk.com"
 90
        0
280
     0
281
     0
  0
CLASS
  1
VISUALSTYLE
  2
AcDbVisualStyle
  3
ObjectDBX Classes
 90
     4095
280
     0
281
     0
  0
CLASS
  1
SCALE
  2
AcDbScale
  3
ObjectDBX Classes
 90
     1153
280
     0
281
     0
  0
CLASS
  1
MLEADERSTYLE
  2
AcDbMLeaderStyle
  3
ACDB_MLEADERSTYLE_CLASS
 90
     4095
280
     0
281
     0
  0
CLASS
  1
ACMTAPERSTANDARDANSI
  2
AcmTaperStdANSI
  3
"Amdt_StdImp|Product Description: AutoCAD Mechanical|Company: Autodesk, Inc."
 90
     1024
280
     0
281
     0
  0
CLASS
  1
ACMANOOTATIONVIEWSTANDARDANSI
  2
AmdtAnViewStdANSI
  3
"Amdt_StdImp|Product Description: AutoCAD Mechanical|Company: Autodesk, Inc."
 90
     1024
280
     0
281
     0
  0
CLASS
  1
EXACXREFPANELOBJECT
  2
ExAcXREFPanelObject
  3
EXAC_ESW
 90
     1025
280
     0
281
     0
  0
CLASS
  1
NPOCOLLECTION
  2
AcDbImpNonPersistentObjectsCollection
  3
ObjectDBX Classes
 90
     1153
280
     0
281
     0
  0
CLASS
  1
CAMSSTRUCTBTNSTATE
  2
StructBtnState
  3
DesignerAssemblies
 90
     1024
280
     0
281
     0
  0
CLASS
  1
CELLSTYLEMAP
  2
AcDbCellStyleMap
  3
ObjectDBX Classes
 90
     1152
280
     0
281
     0
  0
CLASS
  1
ACDBLINERES
  2
AcDbLineRes
  3
AcGrefServices
 90
     1024
280
     0
281
     0
  0
CLASS
  1
ACMFCFRAME
  2
AcmFCF
  3
"AcmSymBB|Product Description: AutoCAD Mechanical|Company: Autodesk, Inc."
 90
     4095
280
     0
281
     1
  0
CLASS
  1
AEC_REFEDIT_STATUS_TRACKER
  2
AecDbRefEditStatusTracker
  3
AecArchBase50|Product Desc: Autodesk Architectural Desktop 2007 |Company: Autodesk,Inc. |WEB Address: www.autodesk.com
 90
      129
280
     0
281
     0
  0
CLASS
  1
ACDBPLACEHOLDER
  2
AcDbPlaceHolder
  3
ObjectDBX Classes
 90
        0
280
     0
281
     0
  0
CLASS
  1
LAYOUT
  2
AcDbLayout
  3
ObjectDBX Classes
 90
        0
280
     0
281
     0
  0
ENDSEC
  0
SECTION
  2
TABLES
  0
TABLE
  2
VPORT
  5
8
330
0
100
AcDbSymbolTable
 70
     1
  0
VPORT
  5
B49
330
8
100
AcDbSymbolTableRecord
100
AcDbViewportTableRecord
  2
*Active
 70
     0
 10
0.0
 20
0.0
 11
1.0
 21
1.0
 12
193.1726698660002
 22
37.52436190637741
 13
0.0
 23
0.0
 14
0.5
 24
0.5
 15
0.5
 25
0.5
 16
0.0
 26
0.0
 36
1.0
 17
62.99720394328892
 27
63.00612889441305
 37
0.0
 40
361.6250610421744
 41
1.833531510107015
 42
50.0
 43
0.0
 44
0.0
 50
0.0
 51
0.0
 71
     0
 72
   100
 73
     1
 74
     3
 75
     0
 76
     0
 77
     0
 78
     0
281
     0
 65
     1
110
0.0
120
0.0
130
0.0
111
1.0
121
0.0
131
0.0
112
0.0
122
1.0
132
0.0
 79
     0
146
0.0
  0
ENDTAB
  0
TABLE
  2
LTYPE
  5
5
330
0
100
AcDbSymbolTable
 70
    18
  0
LTYPE
  5
14
330
5
100
AcDbSymbolTableRecord
100
AcDbLinetypeTableRecord
  2
ByBlock
 70
     0
  3

 72
    65
 73
     0
 40
0.0
  0
LTYPE
  5
15
330
5
100
AcDbSymbolTableRecord
100
AcDbLinetypeTableRecord
  2
ByLayer
 70
     0
  3

 72
    65
 73
     0
 40
0.0
  0
LTYPE
  5
16
330
5
100
AcDbSymbolTableRecord
100
AcDbLinetypeTableRecord
  2
Continuous
 70
     0
  3
Solid line
 72
    65
 73
     0
 40
0.0
  0
LTYPE
  5
1D4
330
5
100
AcDbSymbolTableRecord
100
AcDbLinetypeTableRecord
  2
HIDDEN
 70
     0
  3
Verdeckt
 72
    65
 73
     2
 40
0.375
 49
0.25
 74
     0
 49
-0.125
 74
     0
  0
LTYPE
  5
1D5
330
5
100
AcDbSymbolTableRecord
100
AcDbLinetypeTableRecord
  2
PHANTOM2
 70
     0
  3
Phantom (.5x) ___ _ _ ___ _ _ ___ _ _ ___ _ _
 72
    65
 73
     6
 40
1.25
 49
0.625
 74
     0
 49
-0.125
 74
     0
 49
0.125
 74
     0
 49
-0.125
 74
     0
 49
0.125
 74
     0
 49
-0.125
 74
     0
  0
LTYPE
  5
1D6
330
5
100
AcDbSymbolTableRecord
100
AcDbLinetypeTableRecord
  2
CENTER
 70
     0
  3
Mitte ____ _ ____ _ ____ _ ____ _ ____ _ ____
 72
    65
 73
     4
 40
2.0
 49
1.25
 74
     0
 49
-0.25
 74
     0
 49
0.25
 74
     0
 49
-0.25
 74
     0
  0
LTYPE
  5
20A
330
5
100
AcDbSymbolTableRecord
100
AcDbLinetypeTableRecord
  2
AM_ISO02W050
 70
     0
  3
__ __ __ __ __ __ __ __ __ __ __ __ __ __ __
 72
    65
 73
     2
 40
7.5
 49
6.0
 74
     0
 49
-1.5
 74
     0
  0
LTYPE
  5
20B
330
5
100
AcDbSymbolTableRecord
100
AcDbLinetypeTableRecord
  2
AM_ISO08W050
 70
     0
  3
____ . ____ . ____ . ____ . ____ . ____ . ____
 72
    65
 73
     4
 40
18.0
 49
12.0
 74
     0
 49
-1.5
 74
     0
 49
3.0
 74
     0
 49
-1.5
 74
     0
  0
LTYPE
  5
20C
330
5
100
AcDbSymbolTableRecord
100
AcDbLinetypeTableRecord
  2
AM_ISO09W050
 70
     0
  3
_____ . . _____ . . _____ . . ____ .. ____
 72
    65
 73
     6
 40
22.5
 49
12.0
 74
     0
 49
-1.5
 74
     0
 49
3.0
 74
     0
 49
-1.5
 74
     0
 49
3.0
 74
     0
 49
-1.5
 74
     0
  0
LTYPE
  5
20D
330
5
100
AcDbSymbolTableRecord
100
AcDbLinetypeTableRecord
  2
Amconstr
 70
     0
  3
_______________________
 72
    65
 73
     2
 40
9999.0
 49
9999.0
 74
     0
 49
0.0
 74
     0
  0
LTYPE
  5
20E
330
5
100
AcDbSymbolTableRecord
100
AcDbLinetypeTableRecord
  2
AM_ISO08W050x2
 70
     0
  3
__ . __ . __ . __ . __ . __
 72
    65
 73
     4
 40
9.0
 49
6.0
 74
     0
 49
-0.75
 74
     0
 49
1.5
 74
     0
 49
-0.75
 74
     0
  0
LTYPE
  5
20F
330
5
100
AcDbSymbolTableRecord
100
AcDbLinetypeTableRecord
  2
AM_ISO02W050x2
 70
     0
  3
 _ _ _ _ _ _ _ _ _ _ _ _
 72
    65
 73
     2
 40
3.75
 49
3.0
 74
     0
 49
-0.75
 74
     0
  0
LTYPE
  5
212
330
5
100
AcDbSymbolTableRecord
100
AcDbLinetypeTableRecord
  2
Amzigzag
 70
     0
  3
/\/-/\/-/\/-/\/-/\/-/\/
 72
    65
 73
     2
 40
11.0001
 49
0.0001
 74
     4
 75
   136
340
211
 46
0.04
 50
0.0
 44
0.0
 45
0.0
 49
-11.0
 74
     0
  0
LTYPE
  5
213
330
5
100
AcDbSymbolTableRecord
100
AcDbLinetypeTableRecord
  2
CENTER2
 70
     0
  3
Center (.5x) ___ _ ___ _ ___ _ ___ _ ___ _ ___
 72
    65
 73
     4
 40
1.125
 49
0.75
 74
     0
 49
-0.125
 74
     0
 49
0.125
 74
     0
 49
-0.125
 74
     0
  0
LTYPE
  5
214
330
5
100
AcDbSymbolTableRecord
100
AcDbLinetypeTableRecord
  2
HIDDEN2
 70
     0
  3
Hidden (.5x) _ _ _ _ _ _ _ _ _ _ _ _ _ _ _ _ _
 72
    65
 73
     2
 40
0.1875
 49
0.125
 74
     0
 49
-0.0625
 74
     0
  0
LTYPE
  5
215
330
5
100
AcDbSymbolTableRecord
100
AcDbLinetypeTableRecord
  2
Amzigzag2
 70
     0
  3
/\/-/\/-/\/-/\/-/\/-/\/
 72
    65
 73
     2
 40
0.4401
 49
0.0001
 74
     4
 75
   136
340
211
 46
0.0016
 50
0.0
 44
0.0
 45
0.0
 49
-0.4400000000000001
 74
     0
  0
LTYPE
  5
223
330
5
100
AcDbSymbolTableRecord
100
AcDbLinetypeTableRecord
  2
ACANSTGB
 70
     0
  3
__ . . __ . .
 72
    65
 73
     6
 40
0.35433070866
 49
0.15748031496
 74
     0
 49
-0.03937007874
 74
     0
 49
0.03937007874
 74
     0
 49
-0.03937007874
 74
     0
 49
0.03937007874
 74
     0
 49
-0.03937007874
 74
     0
  0
LTYPE
  5
224
330
5
100
AcDbSymbolTableRecord
100
AcDbLinetypeTableRecord
  2
ACANSTGL
 70
     0
  3
_ _ _ _ _
 72
    65
 73
     2
 40
0.11811023622
 49
0.07874015748
 74
     0
 49
-0.03937007874
 74
     0
  0
LTYPE
  5
8BD
330
5
100
AcDbSymbolTableRecord
100
AcDbLinetypeTableRecord
  2
AUSGEZOGEN
 70
     0
  3
Ausgezogene Linie
 72
    65
 73
     0
 40
0.0
  0
LTYPE
  5
8BE
330
5
100
AcDbSymbolTableRecord
100
AcDbLinetypeTableRecord
  2
STRICHPUNKT
 70
     0
  3
__ . __ . __ . __ . __ . __ . __ . __ . __ . __
 72
    65
 73
     4
 40
1.0
 49
0.5
 74
     0
 49
-0.25
 74
     0
 49
0.0
 74
     0
 49
-0.25
 74
     0
  0
ENDTAB
  0
TABLE
  2
LAYER
  5
2
102
{ACAD_XDICTIONARY
360
2A9
102
}
330
0
100
AcDbSymbolTable
 70
    20
  0
LAYER
  5
10
102
{ACAD_XDICTIONARY
360
BDC
102
}
330
2
100
AcDbSymbolTableRecord
100
AcDbLayerTableRecord
  2
0
 70
     0
 62
     7
  6
Continuous
370
    -3
390
F
  0
LAYER
  5
2A
102
{ACAD_XDICTIONARY
360
BDE
102
}
330
2
100
AcDbSymbolTableRecord
100
AcDbLayerTableRecord
  2
OHNE VERRIEGELUNG
 70
     0
 62
     7
  6
Continuous
370
    -3
390
F
  0
LAYER
  5
282
102
{ACAD_XDICTIONARY
360
BE0
102
}
330
2
100
AcDbSymbolTableRecord
100
AcDbLayerTableRecord
  2
AM_7
 70
     0
 62
     4
  6
CENTER
370
    15
390
F
1001
AcAecLayerStandard
1000

1000

  0
LAYER
  5
2A3
102
{ACAD_XDICTIONARY
360
BE2
102
}
330
2
100
AcDbSymbolTableRecord
100
AcDbLayerTableRecord
  2
WHITE
 70
     0
 62
     7
  6
Continuous
370
    -3
390
F
  0
LAYER
  5
8BF
330
2
100
AcDbSymbolTableRecord
100
AcDbLayerTableRecord
  2
Defpoints
 70
     0
 62
     7
  6
Continuous
290
     0
370
    -3
390
F
  0
LAYER
  5
8C0
102
{ACAD_XDICTIONARY
360
BE4
102
}
330
2
100
AcDbSymbolTableRecord
100
AcDbLayerTableRecord
  2
RAHM2
 70
     0
 62
     1
  6
Continuous
370
    -3
390
F
  0
LAYER
  5
8C1
102
{ACAD_XDICTIONARY
360
BE6
102
}
330
2
100
AcDbSymbolTableRecord
100
AcDbLayerTableRecord
  2
6
 70
     0
 62
     2
  6
Continuous
370
    -3
390
F
  0
LAYER
  5
8C2
102
{ACAD_XDICTIONARY
360
BE8
102
}
330
2
100
AcDbSymbolTableRecord
100
AcDbLayerTableRecord
  2
5
 70
     0
 62
     3
  6
Continuous
370
    -3
390
F
  0
LAYER
  5
8C3
102
{ACAD_XDICTIONARY
360
BEA
102
}
330
2
100
AcDbSymbolTableRecord
100
AcDbLayerTableRecord
  2
0N
 70
     0
 62
     7
  6
Continuous
370
    -3
390
F
  0
LAYER
  5
8C4
102
{ACAD_XDICTIONARY
360
BEC
102
}
330
2
100
AcDbSymbolTableRecord
100
AcDbLayerTableRecord
  2
RAHM3
 70
     0
 62
     2
  6
Continuous
370
    -3
390
F
  0
LAYER
  5
8C5
102
{ACAD_XDICTIONARY
360
BEE
102
}
330
2
100
AcDbSymbolTableRecord
100
AcDbLayerTableRecord
  2
MITTE
 70
     0
 62
     1
  6
STRICHPUNKT
370
    -3
390
F
  0
LAYER
  5
8C6
102
{ACAD_XDICTIONARY
360
BF0
102
}
330
2
100
AcDbSymbolTableRecord
100
AcDbLayerTableRecord
  2
TEXT50
 70
     0
 62
     7
  6
Continuous
370
    -3
390
F
  0
LAYER
  5
8C7
102
{ACAD_XDICTIONARY
360
BF2
102
}
330
2
100
AcDbSymbolTableRecord
100
AcDbLayerTableRecord
  2
TEXT35
 70
     0
 62
   132
  6
Continuous
370
    -3
390
F
  0
LAYER
  5
8C8
102
{ACAD_XDICTIONARY
360
BF4
102
}
330
2
100
AcDbSymbolTableRecord
100
AcDbLayerTableRecord
  2
TEXT25
 70
     0
 62
     3
  6
Continuous
370
    -3
390
F
  0
LAYER
  5
8C9
102
{ACAD_XDICTIONARY
360
BF6
102
}
330
2
100
AcDbSymbolTableRecord
100
AcDbLayerTableRecord
  2
KOPF
 70
     0
 62
     1
  6
AUSGEZOGEN
370
    -3
390
F
  0
LAYER
  5
8CA
102
{ACAD_XDICTIONARY
360
BF8
102
}
330
2
100
AcDbSymbolTableRecord
100
AcDbLayerTableRecord
  2
Sperrlayer
 70
     1
 62
     7
  6
Continuous
370
    50
390
F
  0
LAYER
  5
8CB
102
{ACAD_XDICTIONARY
360
BFA
102
}
330
2
100
AcDbSymbolTableRecord
100
AcDbLayerTableRecord
  2
AM_8
 70
     0
 62
     1
  6
Continuous
370
    15
390
F
1001
AcAecLayerStandard
1000

1000

  0
LAYER
  5
8CC
102
{ACAD_XDICTIONARY
360
BFC
102
}
330
2
100
AcDbSymbolTableRecord
100
AcDbLayerTableRecord
  2
AM_0
 70
     0
 62
     7
  6
Continuous
370
    30
390
F
1001
AcAecLayerStandard
1000

1000

  0
LAYER
  5
A3F
102
{ACAD_XDICTIONARY
360
BFE
102
}
330
2
100
AcDbSymbolTableRecord
100
AcDbLayerTableRecord
  2
AM_CL
 70
     0
 62
     1
  6
Amconstr
370
    15
390
F
1001
AcAecLayerStandard
1000

1000

  0
LAYER
  5
A57
102
{ACAD_XDICTIONARY
360
C00
102
}
330
2
100
AcDbSymbolTableRecord
100
AcDbLayerTableRecord
  2
AM_5
 70
     0
 62
     3
  6
Continuous
370
    15
390
F
1001
AcAecLayerStandard
1000

1000

  0
ENDTAB
  0
TABLE
  2
STYLE
  5
3
330
0
100
AcDbSymbolTable
 70
     8
  0
STYLE
  5
11
330
3
100
AcDbSymbolTableRecord
100
AcDbTextStyleTableRecord
  2
Standard
 70
     0
 40
0.0
 41
1.0
 50
0.0
 71
     0
 42
0.2
  3
txt
  4

  0
STYLE
  5
211
330
3
100
AcDbSymbolTableRecord
100
AcDbTextStyleTableRecord
  2

 70
     1
 40
0.0
 41
1.0
 50
0.0
 71
     0
 42
0.2
  3
genltshp.shx
  4

  0
STYLE
  5
216
330
3
100
AcDbSymbolTableRecord
100
AcDbTextStyleTableRecord
  2
ACANSTS
 70
     0
 40
1.0
 41
1.0
 50
0.0
 71
     0
 42
0.2
  3
romans.shx
  4

  0
STYLE
  5
222
330
3
100
AcDbSymbolTableRecord
100
AcDbTextStyleTableRecord
  2
ACANSGDT
 70
     0
 40
0.0
 41
1.0
 50
0.0
 71
     0
 42
0.2
  3
amgdt.shx
  4

  0
STYLE
  5
8CD
330
3
100
AcDbSymbolTableRecord
100
AcDbTextStyleTableRecord
  2
KOPF
 70
     0
 40
0.0
 41
0.9
 50
10.0
 71
     0
 42
2.5
  3
dutchi.ttf
  4

1001
ACAD
1000
Dutch801 Rm BT
1071
 16777234
  0
STYLE
  5
8CE
330
3
100
AcDbSymbolTableRecord
100
AcDbTextStyleTableRecord
  2
TEXT20
 70
     0
 40
2.0
 41
0.8
 50
0.0
 71
     0
 42
2.0
  3
isocp3.shx
  4

  0
STYLE
  5
8CF
330
3
100
AcDbSymbolTableRecord
100
AcDbTextStyleTableRecord
  2
TEXT35
 70
     0
 40
3.5
 41
0.8
 50
0.0
 71
     0
 42
3.5
  3
isocp3.shx
  4

  0
STYLE
  5
8D0
330
3
100
AcDbSymbolTableRecord
100
AcDbTextStyleTableRecord
  2
TEXT50
 70
     0
 40
5.0
 41
0.8
 50
0.0
 71
     0
 42
5.0
  3
isocp3.shx
  4

  0
ENDTAB
  0
TABLE
  2
VIEW
  5
6
330
0
100
AcDbSymbolTable
 70
     0
  0
ENDTAB
  0
TABLE
  2
UCS
  5
7
330
0
100
AcDbSymbolTable
 70
     0
  0
ENDTAB
  0
TABLE
  2
APPID
  5
9
330
0
100
AcDbSymbolTable
 70
    29
  0
APPID
  5
12
330
9
100
AcDbSymbolTableRecord
100
AcDbRegAppTableRecord
  2
ACAD
 70
     0
  0
APPID
  5
1A5
330
9
100
AcDbSymbolTableRecord
100
AcDbRegAppTableRecord
  2
MCAD_NO_VIS
 70
     0
  0
APPID
  5
1A6
330
9
100
AcDbSymbolTableRecord
100
AcDbRegAppTableRecord
  2
ACAD_TEMP_GRAPHIC
 70
     0
  0
APPID
  5
1D8
330
9
100
AcDbSymbolTableRecord
100
AcDbRegAppTableRecord
  2
AD_DRAW
 70
     0
  0
APPID
  5
1DB
330
9
100
AcDbSymbolTableRecord
100
AcDbRegAppTableRecord
  2
ACATTRIBSERVICES
 70
     0
  0
APPID
  5
1FB
330
9
100
AcDbSymbolTableRecord
100
AcDbRegAppTableRecord
  2
DESIGNERASSEMBLIES
 70
     0
  0
APPID
  5
201
330
9
100
AcDbSymbolTableRecord
100
AcDbRegAppTableRecord
  2
ACADM_DIM_EDIT
 70
     0
  0
APPID
  5
202
330
9
100
AcDbSymbolTableRecord
100
AcDbRegAppTableRecord
  2
AMDT_DM_ADJ
 70
     0
  0
APPID
  5
230
330
9
100
AcDbSymbolTableRecord
100
AcDbRegAppTableRecord
  2
ACAD_DSTYLE_DIMARC_LENGTH_SYMBOL
 70
     0
  0
APPID
  5
231
330
9
100
AcDbSymbolTableRecord
100
AcDbRegAppTableRecord
  2
ACAD_DSTYLE_DIMJOGGED_JOGANGLE_SYMBOL
 70
     0
  0
APPID
  5
283
330
9
100
AcDbSymbolTableRecord
100
AcDbRegAppTableRecord
  2
AcAecLayerStandard
 70
     0
  0
APPID
  5
289
330
9
100
AcDbSymbolTableRecord
100
AcDbRegAppTableRecord
  2
GENIUS_GENODEF_13
 70
     0
  0
APPID
  5
28A
330
9
100
AcDbSymbolTableRecord
100
AcDbRegAppTableRecord
  2
GENIUS_GENOLIS_13
 70
     0
  0
APPID
  5
28B
330
9
100
AcDbSymbolTableRecord
100
AcDbRegAppTableRecord
  2
GENIUS_GENOENT_13
 70
     0
  0
APPID
  5
28C
330
9
100
AcDbSymbolTableRecord
100
AcDbRegAppTableRecord
  2
GENIUS_GENOBJ-N-CRS_13
 70
     0
  0
APPID
  5
28D
330
9
100
AcDbSymbolTableRecord
100
AcDbRegAppTableRecord
  2
GENIUS_GENOREF_13
 70
     0
  0
APPID
  5
8D5
330
9
100
AcDbSymbolTableRecord
100
AcDbRegAppTableRecord
  2
GENIUS_VERSION2
 70
     0
  0
APPID
  5
8D6
330
9
100
AcDbSymbolTableRecord
100
AcDbRegAppTableRecord
  2
GENIUS_GENOBJ-N-HTC_13
 70
     0
  0
APPID
  5
8D7
330
9
100
AcDbSymbolTableRecord
100
AcDbRegAppTableRecord
  2
GENIUS_GENHATCH_13
 70
     0
  0
APPID
  5
8D8
330
9
100
AcDbSymbolTableRecord
100
AcDbRegAppTableRecord
  2
GENIUS_GENBLLY_14
 70
     0
  0
APPID
  5
8D9
330
9
100
AcDbSymbolTableRecord
100
AcDbRegAppTableRecord
  2
GENIUS_GENREC_14
 70
     0
  0
APPID
  5
8DA
330
9
100
AcDbSymbolTableRecord
100
AcDbRegAppTableRecord
  2
GENIUS_GENOBJ-N-REC_13
 70
     0
  0
APPID
  5
8DB
330
9
100
AcDbSymbolTableRecord
100
AcDbRegAppTableRecord
  2
GENIUS_AMGTXT_16
 70
     0
  0
APPID
  5
8DC
330
9
100
AcDbSymbolTableRecord
100
AcDbRegAppTableRecord
  2
DCO15
 70
     0
  0
APPID
  5
B2E
330
9
100
AcDbSymbolTableRecord
100
AcDbRegAppTableRecord
  2
GENIUS_GENDTOL_13
 70
     0
  0
APPID
  5
B90
330
9
100
AcDbSymbolTableRecord
100
AcDbRegAppTableRecord
  2
ACAD_MLEADERVER
 70
     0
  0
APPID
  5
BBF
330
9
100
AcDbSymbolTableRecord
100
AcDbRegAppTableRecord
  2
ACAD_DSTYLE_DIMINSPECT
 70
     0
  0
APPID
  5
BC0
330
9
100
AcDbSymbolTableRecord
100
AcDbRegAppTableRecord
  2
ACAD_DSTYLE_DIMRADIAL_EXTENSION
 70
     0
  0
APPID
  5
C4A
330
9
100
AcDbSymbolTableRecord
100
AcDbRegAppTableRecord
  2
ACAD_EXEMPT_FROM_CAD_STANDARDS
 70
     0
  0
ENDTAB
  0
TABLE
  2
DIMSTYLE
  5
A
330
0
100
AcDbSymbolTable
 70
    11
100
AcDbDimStyleTable
 71
     2
340
27
340
8D1
  0
DIMSTYLE
105
27
330
A
100
AcDbSymbolTableRecord
100
AcDbDimStyleTableRecord
  2
Standard
 70
     0
340
11
  0
DIMSTYLE
105
22F
330
A
100
AcDbSymbolTableRecord
100
AcDbDimStyleTableRecord
  2
AM_ANSI
 70
     0
  4
mm
 41
0.1
 42
0.05
 43
0.5
 44
0.1
 47
0.1
 48
0.1
 78
     7
 79
     2
140
0.12
141
0.0
146
0.71
147
0.06
176
   256
177
   256
178
     2
274
     4
284
     7
340
11
371
    -1
372
    -1
1001
ACAD_DSTYLE_DIMJOGGED_JOGANGLE_SYMBOL
1070
   384
1040
0.7853981633974483
1001
ACAD_DSTYLE_DIMARC_LENGTH_SYMBOL
1070
   379
1070
     1
  0
DIMSTYLE
105
238
330
A
100
AcDbSymbolTableRecord
100
AcDbDimStyleTableRecord
  2
AM_ANSI$3
 70
     0
  4
mm
 41
0.1
 42
0.05
 43
0.5
 44
0.1
 47
0.1
 48
0.1
 78
     7
 79
     2
140
0.12
141
0.0
146
0.71
147
0.06
176
   256
177
   256
178
     2
274
     4
284
     7
288
     1
289
     0
340
11
371
    -1
372
    -1
1001
ACAD_DSTYLE_DIMJOGGED_JOGANGLE_SYMBOL
1070
   384
1040
0.7853981633974483
1001
ACAD_DSTYLE_DIMARC_LENGTH_SYMBOL
1070
   379
1070
     1
  0
DIMSTYLE
105
23B
330
A
100
AcDbSymbolTableRecord
100
AcDbDimStyleTableRecord
  2
AM_ANSI$4
 70
     0
  4
mm
 41
0.1
 42
0.05
 43
0.5
 44
0.1
 47
0.1
 48
0.1
 78
     7
 79
     2
140
0.12
141
0.0
146
0.71
147
0.06
176
   256
177
   256
178
     2
274
     4
284
     7
288
     1
289
     0
340
11
371
    -1
372
    -1
1001
ACAD_DSTYLE_DIMJOGGED_JOGANGLE_SYMBOL
1070
   384
1040
0.7853981633974483
1001
ACAD_DSTYLE_DIMARC_LENGTH_SYMBOL
1070
   379
1070
     1
  0
DIMSTYLE
105
240
330
A
100
AcDbSymbolTableRecord
100
AcDbDimStyleTableRecord
  2
AM_ANSI$7
 70
     0
  4
mm
 41
0.1
 42
0.05
 43
0.5
 44
0.1
 47
0.1
 48
0.1
 78
     7
 79
     2
140
0.24
141
0.0
146
0.71
147
0.06
176
   256
177
   256
178
     2
274
     4
284
     7
340
11
371
    -1
372
    -1
1001
ACAD_DSTYLE_DIMJOGGED_JOGANGLE_SYMBOL
1070
   384
1040
0.7853981633974483
1001
ACAD_DSTYLE_DIMARC_LENGTH_SYMBOL
1070
   379
1070
     1
  0
DIMSTYLE
105
243
330
A
100
AcDbSymbolTableRecord
100
AcDbDimStyleTableRecord
  2
AM_ANSI$SF
 70
     0
  4
mm
 41
0.1
 42
0.05
 43
0.5
 44
0.1
 47
0.1
 48
0.1
 75
     1
 76
     1
 78
     7
 79
     2
140
0.12
141
0.0
146
0.71
147
0.06
176
   256
177
   256
178
     2
274
     4
284
     7
340
11
371
    -1
372
    -1
1001
ACAD_DSTYLE_DIMJOGGED_JOGANGLE_SYMBOL
1070
   384
1040
0.7853981633974483
1001
ACAD_DSTYLE_DIMARC_LENGTH_SYMBOL
1070
   379
1070
     1
  0
DIMSTYLE
105
24A
330
A
100
AcDbSymbolTableRecord
100
AcDbDimStyleTableRecord
  2
AM_ANSI$SH
 70
     0
  4
mm
 41
0.1
 42
0.05
 43
0.5
 44
0.1
 47
0.1
 48
0.1
 75
     1
 76
     1
 78
     7
 79
     2
140
0.12
141
0.0
146
0.71
147
0.06
173
     1
176
   256
177
   256
178
     2
274
     4
284
     7
340
11
343
244
371
    -1
372
    -1
1001
ACAD_DSTYLE_DIMJOGGED_JOGANGLE_SYMBOL
1070
   384
1040
0.7853981633974483
1001
ACAD_DSTYLE_DIMARC_LENGTH_SYMBOL
1070
   379
1070
     1
  0
DIMSTYLE
105
8D1
330
A
100
AcDbSymbolTableRecord
100
AcDbDimStyleTableRecord
  2
GEN-ISO
 70
     0
  3
<>
  4
"
 41
2.5
 42
1.0
 43
7.0
 44
1.0
 47
0.1
 48
0.1
 73
     0
 74
     0
 77
     1
 78
     8
140
3.5
141
0.0
143
0.0393701
146
0.71
147
0.6
172
     1
176
   256
177
   256
178
     2
271
     2
272
     3
274
     4
283
     0
340
11
  0
DIMSTYLE
105
8D2
330
A
100
AcDbSymbolTableRecord
100
AcDbDimStyleTableRecord
  2
GEN-ISO$4
 70
     0
  3
<>
  4
"
 41
2.5
 42
1.0
 43
7.0
 44
1.0
 47
0.1
 48
0.1
 73
     0
 77
     1
 78
     8
140
3.5
141
0.0
143
0.0393701
146
0.71
147
0.6
176
   256
177
   256
178
     2
271
     2
272
     3
274
     4
283
     0
288
     1
289
     0
340
11
  0
DIMSTYLE
105
8D3
102
{ACAD_REACTORS
330
98B
330
98E
330
A75
330
AA1
102
}
330
A
100
AcDbSymbolTableRecord
100
AcDbDimStyleTableRecord
  2
GEN-ISO$0
 70
     0
  3
<>
  4
"
 41
2.5
 42
1.0
 43
7.0
 44
1.0
 47
0.1
 48
0.1
 73
     0
 74
     0
 77
     1
 78
     8
140
3.5
141
0.0
143
0.0393701
146
0.71
147
0.6
172
     1
176
   256
177
   256
178
     2
271
     2
272
     3
274
     4
283
     0
340
11
  0
DIMSTYLE
105
8D4
330
A
100
AcDbSymbolTableRecord
100
AcDbDimStyleTableRecord
  2
Standard$0
 70
     0
340
11
  0
ENDTAB
  0
TABLE
  2
BLOCK_RECORD
  5
1
330
0
100
AcDbSymbolTable
 70
    22
  0
BLOCK_RECORD
  5
1F
330
1
100
AcDbSymbolTableRecord
100
AcDbBlockTableRecord
  2
*Model_Space
340
22
  0
BLOCK_RECORD
  5
1B
330
1
100
AcDbSymbolTableRecord
100
AcDbBlockTableRecord
  2
*Paper_Space
340
1E
  0
BLOCK_RECORD
  5
23
330
1
100
AcDbSymbolTableRecord
100
AcDbBlockTableRecord
  2
*Paper_Space0
340
26
  0
BLOCK_RECORD
  5
244
330
1
100
AcDbSymbolTableRecord
100
AcDbBlockTableRecord
  2
GENAXEH
340
0
  0
BLOCK_RECORD
  5
28F
330
1
100
AcDbSymbolTableRecord
100
AcDbBlockTableRecord
  2
1
340
0
310
2800000020000000200000000100080000000000000400000000000000000000000000000000000000000000000080000080000000808000800000008000800080800000C0C0C000C0DCC000F0CAA6000020400000206000002080000020A0000020C0000020E00000400000004020000040400000406000004080000040A0
310
000040C0000040E00000600000006020000060400000606000006080000060A0000060C0000060E00000800000008020000080400000806000008080000080A0000080C0000080E00000A0000000A0200000A0400000A0600000A0800000A0A00000A0C00000A0E00000C0000000C0200000C0400000C0600000C0800000C0
310
A00000C0C00000C0E00000E0000000E0200000E0400000E0600000E0800000E0A00000E0C00000E0E00040000000400020004000400040006000400080004000A0004000C0004000E00040200000402020004020400040206000402080004020A0004020C0004020E000404000004040200040404000404060004040800040
310
40A0004040C0004040E00040600000406020004060400040606000406080004060A0004060C0004060E00040800000408020004080400040806000408080004080A0004080C0004080E00040A0000040A0200040A0400040A0600040A0800040A0A00040A0C00040A0E00040C0000040C0200040C0400040C0600040C08000
310
40C0A00040C0C00040C0E00040E0000040E0200040E0400040E0600040E0800040E0A00040E0C00040E0E00080000000800020008000400080006000800080008000A0008000C0008000E00080200000802020008020400080206000802080008020A0008020C0008020E00080400000804020008040400080406000804080
310
008040A0008040C0008040E00080600000806020008060400080606000806080008060A0008060C0008060E00080800000808020008080400080806000808080008080A0008080C0008080E00080A0000080A0200080A0400080A0600080A0800080A0A00080A0C00080A0E00080C0000080C0200080C0400080C0600080C0
310
800080C0A00080C0C00080C0E00080E0000080E0200080E0400080E0600080E0800080E0A00080E0C00080E0E000C0000000C0002000C0004000C0006000C0008000C000A000C000C000C000E000C0200000C0202000C0204000C0206000C0208000C020A000C020C000C020E000C0400000C0402000C0404000C0406000C0
310
408000C040A000C040C000C040E000C0600000C0602000C0604000C0606000C0608000C060A000C060C000C060E000C0800000C0802000C0804000C0806000C0808000C080A000C080C000C080E000C0A00000C0A02000C0A04000C0A06000C0A08000C0A0A000C0A0C000C0A0E000C0C00000C0C02000C0C04000C0C06000
310
C0C08000C0C0A000F0FBFF00A4A0A000808080000000FF0000FF000000FFFF00FF000000FF00FF00FFFF0000FFFFFF00000000000000000000000000000000000000000000000000000000000000000000000000000000000000000000000000FF00000000000000000000000000000000000000000000000000000000FFFF
310
FFFFFFFF00000000000000000000000000000000000000000000000000FFFFFFFFFFFFFFFF000000000000000000000000000000000000000000000000FFFFFF0000FFFFFF000000000000000000000000000000000000000000000000FFFF00000000FFFF000000000000000000000000000000000000000000000000FFFF
310
000000FFFFFF000000000000000000000000000000000000000000000000FFFFFF0000FFFFFF00000000000000000000000000000000000000000000000000FFFFFFFFFFFF00000000000000000000000000000000000000000000000000000000FFFF00000000000000000000000000000000000000000000000000000000
310
0000000000000000000000000000000000000000000000000000000000000000000000000000000000000000000000000000000000000000000000000000000000FF0000FF000000000000000000000000000000000000000000000000000000FFFF0000FFFF00000000000000000000000000000000000000000000000000
310
FFFFFF0000FFFFFF000000000000000000000000000000000000000000000000FFFF00000000FFFF000000000000000000000000000000000000000000000000FFFF00000000FFFF000000000000000000000000000000000000000000000000FFFFFFFF00FFFFFF0000000000000000000000000000000000000000000000
310
0000FFFFFFFFFFFF000000000000000000000000000000000000000000000000000000FFFFFFFF00000000000000000000000000000000000000000000000000000000000000000000000000000000000000000000000000000000000000000000000000000000000000000000000000000000000000000000000000000000
310
0000FFFF000000000000000000000000000000000000000000000000000000000000FFFFFFFFFF00000000000000000000000000000000000000000000000000000000FFFFFFFFFF000000000000000000000000000000000000000000000000000000FFFFFFFFFFFF00000000000000000000000000000000000000000000
310
00000000FFFF0000FFFFFF00000000000000000000000000000000000000000000000000FFFF00FFFFFF00000000000000000000000000000000000000000000000000FFFFFFFFFFFF0000000000000000000000000000000000000000000000000000FFFFFFFF000000000000000000000000000000000000000000000000
310
00000000FF000000000000000000000000000000000000000000000000000000000000000000000000000000000000000000000000000000
102
{BLKREFS
331
57B
102
}
1001
ACAD
1000
DesignCenter Data
1002
{
1070
     1
1070
     4
1002
}
  0
BLOCK_RECORD
  5
599
330
1
100
AcDbSymbolTableRecord
100
AcDbBlockTableRecord
  2
ACO_A3
340
0
  0
BLOCK_RECORD
  5
5DC
330
1
100
AcDbSymbolTableRecord
100
AcDbBlockTableRecord
  2
ACO-SF02-GR
340
0
  0
BLOCK_RECORD
  5
811
330
1
100
AcDbSymbolTableRecord
100
AcDbBlockTableRecord
  2
GENZOOIJNBVB3
340
0
  0
BLOCK_RECORD
  5
992
330
1
100
AcDbSymbolTableRecord
100
AcDbBlockTableRecord
  2
*D7
340
0
  0
BLOCK_RECORD
  5
99E
330
1
100
AcDbSymbolTableRecord
100
AcDbBlockTableRecord
  2
*D8
340
0
  0
BLOCK_RECORD
  5
9AC
330
1
100
AcDbSymbolTableRecord
100
AcDbBlockTableRecord
  2
*D9
340
0
  0
BLOCK_RECORD
  5
9BA
330
1
100
AcDbSymbolTableRecord
100
AcDbBlockTableRecord
  2
*D10
340
0
  0
BLOCK_RECORD
  5
9C3
330
1
100
AcDbSymbolTableRecord
100
AcDbBlockTableRecord
  2
*D11
340
0
  0
BLOCK_RECORD
  5
9CC
330
1
100
AcDbSymbolTableRecord
100
AcDbBlockTableRecord
  2
*D12
340
0
  0
BLOCK_RECORD
  5
9DA
330
1
100
AcDbSymbolTableRecord
100
AcDbBlockTableRecord
  2
*D13
340
0
  0
BLOCK_RECORD
  5
9E6
330
1
100
AcDbSymbolTableRecord
100
AcDbBlockTableRecord
  2
*D14
340
0
  0
BLOCK_RECORD
  5
9F2
330
1
100
AcDbSymbolTableRecord
100
AcDbBlockTableRecord
  2
*D15
340
0
  0
BLOCK_RECORD
  5
9FE
330
1
100
AcDbSymbolTableRecord
100
AcDbBlockTableRecord
  2
*D16
340
0
  0
BLOCK_RECORD
  5
A0C
330
1
100
AcDbSymbolTableRecord
100
AcDbBlockTableRecord
  2
*D17
340
0
  0
BLOCK_RECORD
  5
A18
330
1
100
AcDbSymbolTableRecord
100
AcDbBlockTableRecord
  2
*D18
340
0
  0
BLOCK_RECORD
  5
A76
330
1
100
AcDbSymbolTableRecord
100
AcDbBlockTableRecord
  2
*D19
340
0
  0
BLOCK_RECORD
  5
AA2
330
1
100
AcDbSymbolTableRecord
100
AcDbBlockTableRecord
  2
*D20
340
0
  0
BLOCK_RECORD
  5
D66
330
1
100
AcDbSymbolTableRecord
100
AcDbBlockTableRecord
  2
*S21
340
0
  0
ENDTAB
  0
ENDSEC
  0
SECTION
  2
BLOCKS
  0
BLOCK
  5
20
330
1F
100
AcDbEntity
  8
0
100
AcDbBlockBegin
  2
*Model_Space
 70
     0
 10
0.0
 20
0.0
 30
0.0
  3
*Model_Space
  1

  0
ENDBLK
  5
21
330
1F
100
AcDbEntity
  8
0
100
AcDbBlockEnd
  0
BLOCK
  5
1C
330
1B
100
AcDbEntity
 67
     1
  8
0
100
AcDbBlockBegin
  2
*Paper_Space
 70
     0
 10
0.0
 20
0.0
 30
0.0
  3
*Paper_Space
  1

  0
ENDBLK
  5
1D
330
1B
100
AcDbEntity
 67
     1
  8
0
100
AcDbBlockEnd
  0
BLOCK
  5
24
330
23
100
AcDbEntity
 67
     1
  8
0
100
AcDbBlockBegin
  2
*Paper_Space0
 70
     0
 10
0.0
 20
0.0
 30
0.0
  3
*Paper_Space0
  1

  0
ENDBLK
  5
25
330
23
100
AcDbEntity
 67
     1
  8
0
100
AcDbBlockEnd
  0
BLOCK
  5
246
330
244
100
AcDbEntity
  8
0
100
AcDbBlockBegin
  2
GENAXEH
 70
     0
 10
0.0
 20
0.0
 30
0.0
  3
GENAXEH
  1

  0
LINE
  5
245
330
244
100
AcDbEntity
  8
0
100
AcDbLine
 10
-1.0
 20
0.0
 30
0.0
 11
1.0
 21
0.0
 31
0.0
  0
ENDBLK
  5
247
330
244
100
AcDbEntity
  8
0
100
AcDbBlockEnd
  0
BLOCK
  5
290
330
28F
100
AcDbEntity
  8
0
100
AcDbBlockBegin
  2
1
 70
     0
 10
0.0
 20
0.0
 30
0.0
  3
1
  1

  0
CIRCLE
  5
291
330
28F
100
AcDbEntity
  8
WHITE
  6
Continuous
100
AcDbCircle
 10
1089.111519291493
 20
639.8814185441644
 30
0.0
 40
2.277733996314847
  0
CIRCLE
  5
292
330
28F
100
AcDbEntity
  8
WHITE
  6
Continuous
100
AcDbCircle
 10
1089.111519291493
 20
639.8814185441644
 30
0.0
 40
1.576892766679509
  0
ARC
  5
293
330
28F
100
AcDbEntity
  8
WHITE
  6
Continuous
100
AcDbCircle
 10
1086.778409506527
 20
649.4601463888359
 30
0.0
 40
4.905835633809448
100
AcDbArc
 50
82.30575400000205
 51
89.7112909999983
  0
LINE
  5
294
330
28F
100
AcDbEntity
  8
WHITE
  6
Continuous
100
AcDbLine
 10
1087.435235755396
 20
654.3218121958611
 30
0.0
 11
1087.435235755396
 21
651.2563642786231
 31
0.0
  0
ARC
  5
295
330
28F
100
AcDbEntity
  8
WHITE
  6
Continuous
100
AcDbCircle
 10
1086.778405431631
 20
656.1180952839718
 30
0.0
 40
4.905898794685424
100
AcDbArc
 50
270.2887579999957
 51
277.6941970000059
  0
LINE
  5
296
330
28F
100
AcDbEntity
  8
WHITE
  6
Continuous
100
AcDbLine
 10
1086.803129858405
 20
651.2122576127149
 30
0.0
 11
1086.803129858405
 21
650.5114102707366
 31
0.0
  0
ARC
  5
297
330
28F
100
AcDbEntity
  8
WHITE
  6
Continuous
100
AcDbCircle
 10
1086.778405431631
 20
656.1180952839718
 30
0.0
 40
5.606740024320764
100
AcDbArc
 50
270.2526630000051
 51
323.5763710000033
  0
ARC
  5
298
330
28F
100
AcDbEntity
  8
WHITE
  6
Continuous
100
AcDbCircle
 10
1086.778409506527
 20
649.4601463888359
 30
0.0
 40
5.606699275368519
100
AcDbArc
 50
36.42314499999444
 51
89.7473799999978
  0
LINE
  5
299
330
28F
100
AcDbEntity
  8
WHITE
  6
Continuous
100
AcDbLine
 10
1086.803129858405
 20
655.0667682411954
 30
0.0
 11
1086.803129858405
 21
654.3659188617693
 31
0.0
  0
ARC
  5
29A
330
28F
100
AcDbEntity
  8
WHITE
  6
Continuous
100
AcDbCircle
 10
1089.111519291493
 20
646.3352518626177
 30
0.0
 40
1.576890729231897
100
AcDbArc
 50
301.0557830000058
 51
239.9999749999983
  0
LINE
  5
29B
330
28F
100
AcDbEntity
  8
WHITE
  6
Continuous
100
AcDbLine
 10
1089.924994700024
 20
644.9843833467943
 30
0.0
 11
1090.275458101241
 21
644.3773665796998
 31
0.0
  0
ARC
  5
29C
330
28F
100
AcDbEntity
  8
WHITE
  6
Continuous
100
AcDbCircle
 10
1089.111519291493
 20
646.3352518626177
 30
0.0
 40
2.277731958867235
100
AcDbArc
 50
300.7309509999972
 51
239.9999720000061
  0
LINE
  5
29D
330
28F
100
AcDbEntity
  8
WHITE
  6
Continuous
100
AcDbLine
 10
1087.972653312059
 20
644.3626786198636
 30
0.0
 11
1088.323073926876
 21
644.9696240762919
 31
0.0
  0
HATCH
  5
29E
330
28F
100
AcDbEntity
  8
0
100
AcDbHatch
 10
0.0
 20
0.0
 30
0.0
210
0.0
220
0.0
230
1.0
  2
SOLID
 70
     1
 71
     0
 91
        5
 92
        7
 72
     1
 73
     1
 93
        4
 10
1087.972653097009
 20
644.3626782473861
 42
0.0
 10
1088.323074080951
 20
644.969624343156
 42
-3.664441712880978
 10
1089.924994126741
 20
644.9843843397438
 42
0.0
 10
1090.275457502188
 20
644.3773676172837
 42
3.684997770613025
 97
        0
 92
        7
 72
     1
 73
     1
 93
        2
 10
1089.111519291493
 20
642.1591525404792
 42
1.0
 10
1089.111519291493
 20
637.6036845478495
 42
1.0
 97
        0
 92
       22
 72
     1
 73
     1
 93
        2
 10
1089.111519291493
 20
638.3045257774849
 42
-1.0
 10
1089.111519291493
 20
641.458311310844
 42
-1.0
 97
        0
 92
        7
 72
     1
 73
     1
 93
        7
 10
1091.289863371424
 20
652.7890892825057
 42
0.2369624768135127
 10
1086.803129858405
 20
655.0667911670098
 42
0.0
 10
1086.803129858405
 20
654.3659197397111
 42
-0.0323239992921771
 10
1087.435235755396
 20
654.3218130315365
 42
0.0
 10
1087.435235755396
 20
651.2563654571015
 42
-0.0323235821139967
 10
1086.803129858405
 20
651.2122587919539
 42
0.0
 10
1086.803129858405
 20
650.5114097744178
 42
0.2369600159374391
 97
        0
 92
       22
 72
     1
 73
     1
 93
        4
 10
1090.381953887648
 20
652.7890891997429
 42
-0.1369916014750728
 10
1088.136076985031
 20
651.4038009638445
 42
0.0
 10
1088.136076985031
 20
654.1743931165919
 42
-0.1369933941410354
 10
1090.381953252667
 20
652.7890885123944
 42
0.0
 97
        0
 75
     0
 76
     1
 47
0.0243724694748106
 98
        5
 10
1091.076730554272
 20
646.7288451660163
 10
1091.076730554272
 20
639.7552509427166
 10
1091.076730554272
 20
639.7552509427166
 10
1090.68677093372
 20
652.6783453171267
 10
1090.68677093372
 20
652.6783453171267
1001
ACAD
1010
0.0
1020
0.0
1030
0.0
  0
ARC
  5
29F
330
28F
100
AcDbEntity
  8
WHITE
  6
Continuous
100
AcDbCircle
 10
1086.778405431631
 20
656.1180952839718
 30
0.0
 40
4.905898794685424
100
AcDbArc
 50
286.0658920000016
 51
317.2678370000014
  0
LINE
  5
2A0
330
28F
100
AcDbEntity
  8
WHITE
  6
Continuous
100
AcDbLine
 10
1088.136076985031
 20
651.4038001001827
 30
0.0
 11
1088.136076985031
 21
654.1743784117493
 31
0.0
  0
ARC
  5
2A1
330
28F
100
AcDbEntity
  8
WHITE
  6
Continuous
100
AcDbCircle
 10
1086.778409506527
 20
649.4601463888359
 30
0.0
 40
4.905851933390343
100
AcDbArc
 50
42.73166599999857
 51
73.93395699999459
  0
ENDBLK
  5
2A2
330
28F
100
AcDbEntity
  8
0
100
AcDbBlockEnd
  0
BLOCK
  5
59A
330
599
100
AcDbEntity
  8
0
100
AcDbBlockBegin
  2
ACO_A3
 70
     0
 10
0.0
 20
0.0
 30
0.0
  3
ACO_A3
  1

  0
LINE
  5
59B
330
599
100
AcDbEntity
  8
RAHM2
100
AcDbLine
 10
420.0
 20
297.0
 30
0.0
 11
419.9999999999999
 21
0.0
 31
0.0
1001
GENIUS_GENBLLY_14
1000
BOR2
  0
LINE
  5
59C
330
599
100
AcDbEntity
  8
RAHM2
100
AcDbLine
 10
230.0
 20
5.00000000000005
 30
0.0
 11
230.0
 21
0.0000000000000233
 31
0.0
1001
GENIUS_GENBLLY_14
1000
BOR2
  0
LINE
  5
59D
330
599
100
AcDbEntity
  8
RAHM2
100
AcDbLine
 10
157.12
 20
10.00000000000003
 30
0.0
 11
9.999999999999943
 21
10.00000000000005
 31
0.0
1001
GENIUS_GENBLLY_14
1000
BOR2
  0
TEXT
  5
59E
330
599
100
AcDbEntity
  8
RAHM2
100
AcDbText
 10
411.0
 20
262.0
 30
0.0
 40
4.0
  1
A
100
AcDbText
1001
GENIUS_GENBLLY_14
1000
BOR2
  0
TEXT
  5
59F
330
599
100
AcDbEntity
  8
RAHM2
100
AcDbText
 10
411.0
 20
216.0
 30
0.0
 40
4.0
  1
B
100
AcDbText
1001
GENIUS_GENBLLY_14
1000
BOR2
  0
TEXT
  5
5A0
330
599
100
AcDbEntity
  8
RAHM2
100
AcDbText
 10
411.0
 20
170.0
 30
0.0
 40
4.0
  1
C
100
AcDbText
1001
GENIUS_GENBLLY_14
1000
BOR2
  0
TEXT
  5
5A1
330
599
100
AcDbEntity
  8
RAHM2
100
AcDbText
 10
411.0
 20
123.0
 30
0.0
 40
4.0
  1
D
100
AcDbText
1001
GENIUS_GENBLLY_14
1000
BOR2
  0
TEXT
  5
5A2
330
599
100
AcDbEntity
  8
RAHM2
100
AcDbText
 10
411.0
 20
77.0
 30
0.0
 40
4.0
  1
E
100
AcDbText
1001
GENIUS_GENBLLY_14
1000
BOR2
  0
TEXT
  5
5A3
330
599
100
AcDbEntity
  8
RAHM2
100
AcDbText
 10
411.0
 20
31.0
 30
0.0
 40
4.0
  1
F
100
AcDbText
1001
GENIUS_GENBLLY_14
1000
BOR2
  0
LINE
  5
5A4
330
599
100
AcDbEntity
  8
RAHM2
100
AcDbLine
 10
415.0
 20
240.83
 30
0.0
 11
410.0
 21
240.83
 31
0.0
1001
GENIUS_GENBLLY_14
1000
BOR2
  0
LINE
  5
5A5
330
599
100
AcDbEntity
  8
RAHM2
100
AcDbLine
 10
415.0
 20
194.664
 30
0.0
 11
410.0
 21
194.664
 31
0.0
1001
GENIUS_GENBLLY_14
1000
BOR2
  0
LINE
  5
5A6
330
599
100
AcDbEntity
  8
RAHM2
100
AcDbLine
 10
415.0
 20
148.498
 30
0.0
 11
410.0
 21
148.498
 31
0.0
1001
GENIUS_GENBLLY_14
1000
BOR2
  0
LINE
  5
5A7
330
599
100
AcDbEntity
  8
RAHM2
100
AcDbLine
 10
415.0
 20
102.332
 30
0.0
 11
410.0
 21
102.332
 31
0.0
1001
GENIUS_GENBLLY_14
1000
BOR2
  0
LINE
  5
5A8
330
599
100
AcDbEntity
  8
RAHM2
100
AcDbLine
 10
415.0
 20
56.166
 30
0.0
 11
410.0
 21
56.166
 31
0.0
1001
GENIUS_GENBLLY_14
1000
BOR2
  0
LINE
  5
5A9
330
599
100
AcDbEntity
  8
RAHM2
100
AcDbLine
 10
60.0
 20
291.9999999999999
 30
0.0
 11
60.0
 21
287.0
 31
0.0
1001
GENIUS_GENBLLY_14
1000
BOR2
  0
LINE
  5
5AA
330
599
100
AcDbEntity
  8
RAHM2
100
AcDbLine
 10
110.0
 20
291.9999999999999
 30
0.0
 11
110.0
 21
287.0
 31
0.0
1001
GENIUS_GENBLLY_14
1000
BOR2
  0
LINE
  5
5AB
330
599
100
AcDbEntity
  8
RAHM2
100
AcDbLine
 10
160.0
 20
291.9999999999999
 30
0.0
 11
160.0
 21
287.0
 31
0.0
1001
GENIUS_GENBLLY_14
1000
BOR2
  0
LINE
  5
5AC
330
599
100
AcDbEntity
  8
RAHM2
100
AcDbLine
 10
210.0
 20
291.9999999999999
 30
0.0
 11
210.0
 21
287.0
 31
0.0
1001
GENIUS_GENBLLY_14
1000
BOR2
  0
LINE
  5
5AD
330
599
100
AcDbEntity
  8
RAHM2
100
AcDbLine
 10
260.0
 20
291.9999999999999
 30
0.0
 11
260.0
 21
287.0
 31
0.0
1001
GENIUS_GENBLLY_14
1000
BOR2
  0
LINE
  5
5AE
330
599
100
AcDbEntity
  8
RAHM2
100
AcDbLine
 10
310.0
 20
291.9999999999999
 30
0.0
 11
310.0
 21
287.0
 31
0.0
1001
GENIUS_GENBLLY_14
1000
BOR2
  0
LINE
  5
5AF
330
599
100
AcDbEntity
  8
RAHM2
100
AcDbLine
 10
360.0
 20
291.9999999999999
 30
0.0
 11
360.0
 21
287.0
 31
0.0
1001
GENIUS_GENBLLY_14
1000
BOR2
  0
TEXT
  5
5B0
330
599
100
AcDbEntity
  8
RAHM2
100
AcDbText
 10
384.0
 20
287.5
 30
0.0
 40
4.0
  1
8
100
AcDbText
1001
GENIUS_GENBLLY_14
1000
BOR2
  0
TEXT
  5
5B1
330
599
100
AcDbEntity
  8
RAHM2
100
AcDbText
 10
334.0
 20
287.5
 30
0.0
 40
4.0
  1
7
100
AcDbText
1001
GENIUS_GENBLLY_14
1000
BOR2
  0
TEXT
  5
5B2
330
599
100
AcDbEntity
  8
RAHM2
100
AcDbText
 10
284.0
 20
287.5
 30
0.0
 40
4.0
  1
6
100
AcDbText
1001
GENIUS_GENBLLY_14
1000
BOR2
  0
TEXT
  5
5B3
330
599
100
AcDbEntity
  8
RAHM2
100
AcDbText
 10
233.5
 20
287.5
 30
0.0
 40
4.0
  1
5
100
AcDbText
1001
GENIUS_GENBLLY_14
1000
BOR2
  0
TEXT
  5
5B4
330
599
100
AcDbEntity
  8
RAHM2
100
AcDbText
 10
183.5
 20
287.5
 30
0.0
 40
4.0
  1
4
100
AcDbText
1001
GENIUS_GENBLLY_14
1000
BOR2
  0
TEXT
  5
5B5
330
599
100
AcDbEntity
  8
RAHM2
100
AcDbText
 10
133.5
 20
287.5
 30
0.0
 40
4.0
  1
3
100
AcDbText
1001
GENIUS_GENBLLY_14
1000
BOR2
  0
TEXT
  5
5B6
330
599
100
AcDbEntity
  8
RAHM2
100
AcDbText
 10
83.49999999999999
 20
287.5
 30
0.0
 40
4.0
  1
2
100
AcDbText
1001
GENIUS_GENBLLY_14
1000
BOR2
  0
TEXT
  5
5B7
330
599
100
AcDbEntity
  8
RAHM2
100
AcDbText
 10
33.5
 20
287.5
 30
0.0
 40
4.0
  1
1
100
AcDbText
1001
GENIUS_GENBLLY_14
1000
BOR2
  0
TEXT
  5
5B8
330
599
100
AcDbEntity
  8
RAHM2
100
AcDbText
 10
33.5
 20
5.5
 30
0.0
 40
4.0
  1
1
100
AcDbText
1001
GENIUS_GENBLLY_14
1000
BOR2
  0
TEXT
  5
5B9
330
599
100
AcDbEntity
  8
RAHM2
100
AcDbText
 10
83.49999999999999
 20
5.5
 30
0.0
 40
4.0
  1
2
100
AcDbText
1001
GENIUS_GENBLLY_14
1000
BOR2
  0
TEXT
  5
5BA
330
599
100
AcDbEntity
  8
RAHM2
100
AcDbText
 10
133.5
 20
5.5
 30
0.0
 40
4.0
  1
3
100
AcDbText
1001
GENIUS_GENBLLY_14
1000
BOR2
  0
TEXT
  5
5BB
330
599
100
AcDbEntity
  8
RAHM2
100
AcDbText
 10
6.0
 20
262.0
 30
0.0
 40
4.0
  1
A
100
AcDbText
1001
GENIUS_GENBLLY_14
1000
BOR2
  0
TEXT
  5
5BC
330
599
100
AcDbEntity
  8
RAHM2
100
AcDbText
 10
6.0
 20
216.0
 30
0.0
 40
4.0
  1
B
100
AcDbText
1001
GENIUS_GENBLLY_14
1000
BOR2
  0
TEXT
  5
5BD
330
599
100
AcDbEntity
  8
RAHM2
100
AcDbText
 10
6.0
 20
170.0
 30
0.0
 40
4.0
  1
C
100
AcDbText
1001
GENIUS_GENBLLY_14
1000
BOR2
  0
TEXT
  5
5BE
330
599
100
AcDbEntity
  8
RAHM2
100
AcDbText
 10
6.0
 20
123.0
 30
0.0
 40
4.0
  1
D
100
AcDbText
1001
GENIUS_GENBLLY_14
1000
BOR2
  0
TEXT
  5
5BF
330
599
100
AcDbEntity
  8
RAHM2
100
AcDbText
 10
6.0
 20
77.0
 30
0.0
 40
4.0
  1
E
100
AcDbText
1001
GENIUS_GENBLLY_14
1000
BOR2
  0
TEXT
  5
5C0
330
599
100
AcDbEntity
  8
RAHM2
100
AcDbText
 10
6.0
 20
31.0
 30
0.0
 40
4.0
  1
F
100
AcDbText
1001
GENIUS_GENBLLY_14
1000
BOR2
  0
LINE
  5
5C1
330
599
100
AcDbEntity
  8
RAHM2
100
AcDbLine
 10
110.0
 20
10.0
 30
0.0
 11
110.0
 21
5.0
 31
0.0
1001
GENIUS_GENBLLY_14
1000
BOR2
  0
LINE
  5
5C2
330
599
100
AcDbEntity
  8
RAHM2
100
AcDbLine
 10
60.0
 20
10.0
 30
0.0
 11
60.0
 21
5.0
 31
0.0
1001
GENIUS_GENBLLY_14
1000
BOR2
  0
LINE
  5
5C3
330
599
100
AcDbEntity
  8
RAHM2
100
AcDbLine
 10
10.0
 20
240.83
 30
0.0
 11
5.0
 21
240.83
 31
0.0
1001
GENIUS_GENBLLY_14
1000
BOR2
  0
LINE
  5
5C4
330
599
100
AcDbEntity
  8
RAHM2
100
AcDbLine
 10
10.0
 20
194.664
 30
0.0
 11
5.0
 21
194.664
 31
0.0
1001
GENIUS_GENBLLY_14
1000
BOR2
  0
LINE
  5
5C5
330
599
100
AcDbEntity
  8
RAHM2
100
AcDbLine
 10
10.0
 20
148.498
 30
0.0
 11
5.0
 21
148.498
 31
0.0
1001
GENIUS_GENBLLY_14
1000
BOR2
  0
LINE
  5
5C6
330
599
100
AcDbEntity
  8
RAHM2
100
AcDbLine
 10
10.0
 20
102.332
 30
0.0
 11
5.0
 21
102.332
 31
0.0
1001
GENIUS_GENBLLY_14
1000
BOR2
  0
LINE
  5
5C7
330
599
100
AcDbEntity
  8
RAHM2
100
AcDbLine
 10
10.0
 20
56.166
 30
0.0
 11
5.0
 21
56.166
 31
0.0
1001
GENIUS_GENBLLY_14
1000
BOR2
  0
LINE
  5
5C8
330
599
100
AcDbEntity
  8
RAHM2
100
AcDbLine
 10
410.0
 20
287.0
 30
0.0
 11
409.9999999999999
 21
5.0
 31
0.0
1001
GENIUS_GENBLLY_14
1000
BOR2
  0
LINE
  5
5C9
330
599
100
AcDbEntity
  8
RAHM2
100
AcDbLine
 10
10.00000000000001
 20
287.0
 30
0.0
 11
410.0
 21
287.0
 31
0.0
1001
GENIUS_GENBLLY_14
1000
BOR2
  0
LINE
  5
5CA
330
599
100
AcDbEntity
  8
RAHM2
100
AcDbLine
 10
10.0
 20
10.0
 30
0.0
 11
10.00000000000001
 21
287.0
 31
0.0
1001
GENIUS_GENBLLY_14
1000
BOR2
  0
LINE
  5
5CB
330
599
100
AcDbEntity
  8
0
100
AcDbLine
 10
414.9999999999999
 20
5.0
 30
0.0
 11
4.999999999999943
 21
5.00000000000005
 31
0.0
  0
LINE
  5
5CC
330
599
100
AcDbEntity
  8
0
100
AcDbLine
 10
415.0
 20
292.0
 30
0.0
 11
414.9999999999999
 21
5.0
 31
0.0
  0
LINE
  5
5CD
330
599
100
AcDbEntity
  8
0
100
AcDbLine
 10
5.000000000000017
 20
292.0
 30
0.0
 11
415.0
 21
292.0
 31
0.0
  0
LINE
  5
5CE
330
599
100
AcDbEntity
  8
RAHM2
100
AcDbLine
 10
0.0000000000000182
 20
297.0
 30
0.0
 11
420.0
 21
297.0
 31
0.0
1001
GENIUS_GENBLLY_14
1000
BOR2
  0
LINE
  5
5CF
330
599
100
AcDbEntity
  8
RAHM2
100
AcDbLine
 10
0.0
 20
0.0
 30
0.0
 11
0.0000000000000182
 21
297.0
 31
0.0
1001
GENIUS_GENBLLY_14
1000
BOR2
  0
LINE
  5
5D0
330
599
100
AcDbEntity
  8
RAHM2
100
AcDbLine
 10
125.0
 20
0.0000000000000514
 30
0.0
 11
125.0
 21
5.000000000000035
 31
0.0
1001
GENIUS_GENBLLY_14
1000
BOR2
  0
TEXT
  5
5D1
330
599
100
AcDbEntity
  8
0
100
AcDbText
 10
420.0
 20
297.0
 30
0.0
 40
2.0
  1
!GENTITLE-MAX
100
AcDbText
  0
TEXT
  5
5D2
330
599
100
AcDbEntity
  8
0
100
AcDbText
 10
410.0
 20
287.0
 30
0.0
 40
2.0
  1
!GENTITLE-RU
100
AcDbText
  0
TEXT
  5
5D3
330
599
100
AcDbEntity
  8
0
100
AcDbText
 10
409.9999999999999
 20
5.0
 30
0.0
 40
2.0
  1
!GENTITLE-INSERT
100
AcDbText
  0
TEXT
  5
5D4
330
599
100
AcDbEntity
  8
0
100
AcDbText
 10
10.0
 20
10.00000000000005
 30
0.0
 40
2.0
  1
!GENTITLE-LL
100
AcDbText
  0
LINE
  5
5D5
330
599
100
AcDbEntity
  8
0
100
AcDbLine
 10
5.0
 20
5.0
 30
0.0
 11
5.000000000000017
 21
292.0
 31
0.0
  0
LINE
  5
5D6
330
599
100
AcDbEntity
  8
RAHM2
100
AcDbLine
 10
419.9999999999999
 20
0.0
 30
0.0
 11
-0.0000000000000568
 21
0.0000000000000514
 31
0.0
1001
GENIUS_VERSION2
1070
     2
1001
GENIUS_GENBLLY_14
1000
BOR2
  0
LWPOLYLINE
  5
5D7
330
599
100
AcDbEntity
  8
RAHM2
100
AcDbPolyline
 90
        4
 70
     1
 43
0.0
 10
227.1200000000001
 20
5.000000000000031
 10
157.12
 20
5.000000000000031
 10
157.12
 20
13.50000000000003
 10
227.1200000000001
 20
13.50000000000002
1001
GENIUS_GENREC_14
1002
{
1000
PXDIR
1011
157.12
1021
5.000000000000031
1031
0.0
1002
}
1002
{
1000
PORI
1011
227.1200000000001
1021
5.000000000000031
1031
0.0
1002
}
1002
{
1000
PINS
1011
227.1200000000001
1021
5.000000000000031
1031
0.0
1002
}
1002
{
1000
HVAL
1000
8.5
1002
}
1002
{
1000
H
1070
     2
1002
}
1002
{
1000
WVAL
1000
-70
1002
}
1002
{
1000
W
1070
     2
1002
}
1002
{
1000
C
1070
     1
1002
}
1001
GENIUS_GENODEF_13
1002
{
1000
HIER
1070
     0
1002
}
1002
{
1000
MANEDIT
1070
     0
1002
}
1002
{
1000
NOSEL
1070
     0
1002
}
1002
{
1000
BEHIND
1070
     0
1002
}
1002
{
1000
REACTOR
1002
}
1001
GENIUS_GENOBJ-N-REC_13
1002
{
1000
OWNER
1000
GEN
1002
}
  0
MTEXT
  5
5D8
102
{ACAD_XDICTIONARY
360
D86
102
}
330
599
100
AcDbEntity
  8
RAHM2
100
AcDbMText
 10
158.8183525451007
 20
12.32474728438519
 30
0.0
 40
3.5
 41
4.301759591192151
 71
     1
 72
     5
  1
\fArial|b0|i0|c0|p32;\U+00A9
 73
     1
 44
1.0
1001
ACAD
1000
MTEXTBEGIN
1070
    73
1070
     1
1070
    44
1040
1.0
1070
    74
1070
     0
1000
MTEXTEND
  0
MTEXT
  5
5D9
330
599
100
AcDbEntity
  8
RAHM2
100
AcDbMText
 10
200.9022594589521
 20
9.282856166729633
 30
0.0
 40
2.5
 41
51.25
 71
     5
 72
     5
  1
\fArial Black|b0|i0|c0|p34;ACO\Fgeniso.shx; \fDutch801 Rm BT|b0|i1|c0|p18;passavant \P\Fgeniso.shx;\H1.8;Schutzvermerk nach DIN 34
 73
     1
 44
1.0
1001
ACAD
1000
MTEXTBEGIN
1070
    73
1070
     1
1070
    44
1040
1.0
1070
    74
1070
     0
1000
MTEXTEND
  0
MTEXT
  5
5DA
330
599
100
AcDbEntity
  8
RAHM2
100
AcDbMText
 10
165.5515418910248
 20
11.24554815700972
 30
0.0
 40
2.0
 41
5.5175
 71
     1
 72
     5
  1
2001
 73
     1
 44
1.0
1001
ACAD
1000
MTEXTBEGIN
1070
    73
1070
     1
1070
    44
1040
1.0
1070
    74
1070
     0
1000
MTEXTEND
  0
ENDBLK
  5
5DB
330
599
100
AcDbEntity
  8
0
100
AcDbBlockEnd
  0
BLOCK
  5
5DD
330
5DC
100
AcDbEntity
  8
0
100
AcDbBlockBegin
  2
ACO-SF02-GR
 70
     2
 10
0.0
 20
0.0
 30
0.0
  3
ACO-SF02-GR
  1

  0
LINE
  5
5DE
330
5DC
100
AcDbEntity
  8
KOPF
 62
    12
100
AcDbLine
 10
0.0
 20
5.0
 30
0.0
 11
-83.0
 21
5.0
 31
0.0
  0
LWPOLYLINE
  5
5DF
330
5DC
100
AcDbEntity
  8
KOPF
 62
    12
100
AcDbPolyline
 90
        2
 70
     0
 43
0.5
 10
-83.0
 20
10.0
 10
0.0
 20
10.0
  0
LINE
  5
5E0
330
5DC
100
AcDbEntity
  8
KOPF
100
AcDbLine
 10
-83.0
 20
10.0
 30
0.0
 11
0.0
 21
10.0
 31
0.0
  0
LINE
  5
5E1
330
5DC
100
AcDbEntity
  8
KOPF
100
AcDbLine
 10
0.0
 20
5.0
 30
0.0
 11
-83.0
 21
5.0
 31
0.0
  0
LWPOLYLINE
  5
5E2
330
5DC
100
AcDbEntity
  8
KOPF
 62
    12
100
AcDbPolyline
 90
        2
 70
     0
 43
0.5
 10
0.0
 20
68.49999999999997
 10
-182.0
 20
68.49999999999997
  0
LWPOLYLINE
  5
5E3
330
5DC
100
AcDbEntity
  8
KOPF
 62
    12
100
AcDbPolyline
 90
        2
 70
     0
 43
0.5
 10
0.0
 20
46.99999999999997
 10
-182.0
 20
46.99999999999997
  0
LWPOLYLINE
  5
5E4
330
5DC
100
AcDbEntity
  8
KOPF
 62
    12
100
AcDbPolyline
 90
        2
 70
     0
 43
0.5
 10
-0.2154115848244373
 20
27.23910754630094
 10
-182.1882840408789
 20
27.23910754630094
  0
LINE
  5
5E5
330
5DC
100
AcDbEntity
  8
KOPF
 62
    12
100
AcDbLine
 10
0.0
 20
88.49999999999996
 30
0.0
 11
-182.0
 21
88.49999999999996
 31
0.0
  0
LINE
  5
5E6
330
5DC
100
AcDbEntity
  8
KOPF
 62
    12
100
AcDbLine
 10
-182.0
 20
83.49999999999997
 30
0.0
 11
0.0
 21
83.49999999999997
 31
0.0
  0
LINE
  5
5E7
330
5DC
100
AcDbEntity
  8
KOPF
 62
    12
100
AcDbLine
 10
0.0
 20
73.49999999999997
 30
0.0
 11
-182.0
 21
73.49999999999997
 31
0.0
  0
LINE
  5
5E8
330
5DC
100
AcDbEntity
  8
KOPF
 62
    12
100
AcDbLine
 10
-162.682677
 20
78.49999999999997
 30
0.0
 11
0.0
 21
78.49999999999997
 31
0.0
  0
LINE
  5
5E9
330
5DC
100
AcDbEntity
  8
KOPF
100
AcDbLine
 10
0.0
 20
68.49999999999997
 30
0.0
 11
-182.0
 21
68.49999999999997
 31
0.0
  0
LINE
  5
5EA
330
5DC
100
AcDbEntity
  8
KOPF
100
AcDbLine
 10
0.0
 20
88.49999999999996
 30
0.0
 11
-182.0
 21
88.49999999999996
 31
0.0
  0
LINE
  5
5EB
330
5DC
100
AcDbEntity
  8
KOPF
100
AcDbLine
 10
-182.0
 20
83.49999999999997
 30
0.0
 11
0.0
 21
83.49999999999997
 31
0.0
  0
LINE
  5
5EC
330
5DC
100
AcDbEntity
  8
KOPF
100
AcDbLine
 10
0.0
 20
73.49999999999997
 30
0.0
 11
-182.0
 21
73.49999999999997
 31
0.0
  0
LINE
  5
5ED
330
5DC
100
AcDbEntity
  8
KOPF
100
AcDbLine
 10
-162.682677
 20
78.49999999999997
 30
0.0
 11
0.0
 21
78.49999999999997
 31
0.0
  0
LINE
  5
5EE
330
5DC
100
AcDbEntity
  8
KOPF
 62
    12
100
AcDbLine
 10
-182.0
 20
57.74999999999997
 30
0.0
 11
-100.0
 21
57.74999999999997
 31
0.0
  0
LINE
  5
5EF
330
5DC
100
AcDbEntity
  8
KOPF
 62
    12
100
AcDbLine
 10
-182.0
 20
41.99999999999996
 30
0.0
 11
-113.4
 21
41.99999999999996
 31
0.0
  0
LINE
  5
5F0
330
5DC
100
AcDbEntity
  8
KOPF
100
AcDbLine
 10
-182.0
 20
57.74999999999997
 30
0.0
 11
-100.0
 21
57.74999999999997
 31
0.0
  0
LINE
  5
5F1
330
5DC
100
AcDbEntity
  8
KOPF
100
AcDbLine
 10
-182.0
 20
41.99999999999996
 30
0.0
 11
-113.4
 21
41.99999999999996
 31
0.0
  0
LINE
  5
5F2
330
5DC
100
AcDbEntity
  8
KOPF
 62
    12
100
AcDbLine
 10
-142.0
 20
68.49999999999997
 30
0.0
 11
-142.0
 21
46.99999999999997
 31
0.0
  0
LINE
  5
5F3
330
5DC
100
AcDbEntity
  8
KOPF
 62
    12
100
AcDbLine
 10
-142.0
 20
68.49999999999997
 30
0.0
 11
-142.0
 21
46.99999999999997
 31
0.0
  0
ATTDEF
  5
5F4
330
5DC
100
AcDbEntity
  8
TEXT35
100
AcDbText
 10
-140.2
 20
49.4
 30
0.0
 40
3.5
  1

 41
0.8
  7
TEXT35
100
AcDbAttributeDefinition
  3
Oberfläche:
  2
F63
 70
     0
  0
LWPOLYLINE
  5
5F5
330
5DC
100
AcDbEntity
  8
KOPF
 62
    12
100
AcDbPolyline
 90
        2
 70
     0
 43
0.7
 10
-182.0
 20
103.4999999999999
 10
-182.0
 20
0.0
  0
LINE
  5
5F6
330
5DC
100
AcDbEntity
  8
KOPF
100
AcDbLine
 10
-182.0
 20
103.4999999999999
 30
0.0
 11
-182.0
 21
0.0
 31
0.0
  0
TEXT
  5
5F7
330
5DC
100
AcDbEntity
  8
KOPF
100
AcDbText
 10
-179.738589
 20
38.32439403633659
 30
0.0
 40
2.0
  1
Gezeichnet:
 41
0.8
  7
TEXT20
100
AcDbText
  0
ATTDEF
  5
5F8
330
5DC
100
AcDbEntity
  8
TEXT35
100
AcDbText
 10
-176.6
 20
3.399999999999999
 30
0.0
 40
3.5
  1

 41
0.8
  7
TEXT35
100
AcDbAttributeDefinition
  3
Z-Titel 3
  2
F13
 70
     0
  0
ATTDEF
  5
5F9
330
5DC
100
AcDbEntity
  8
TEXT50
100
AcDbText
 10
-176.6
 20
10.63250279796295
 30
0.0
 40
5.0
  1

 41
0.8
  7
TEXT50
100
AcDbAttributeDefinition
  3
Z-Titel 2
  2
F3
 70
     0
  0
ATTDEF
  5
5FA
330
5DC
100
AcDbEntity
  8
TEXT50
100
AcDbText
 10
-176.6
 20
18.56318324460701
 30
0.0
 40
5.0
  1

 41
0.8
  7
TEXT50
100
AcDbAttributeDefinition
  3
Z-Titel 1
  2
F2
 70
     0
  0
TEXT
  5
5FB
330
5DC
100
AcDbEntity
  8
KOPF
100
AcDbText
 10
-179.738589
 20
28.52395361420514
 30
0.0
 40
2.0
  1
Update:
 41
0.8
  7
TEXT20
100
AcDbText
  0
TEXT
  5
5FC
330
5DC
100
AcDbEntity
  8
KOPF
100
AcDbText
 10
-179.738589
 20
33.43577642824449
 30
0.0
 40
2.0
  1
Geprüft
 41
0.8
  7
TEXT20
100
AcDbText
  0
LINE
  5
5FD
330
5DC
100
AcDbEntity
  8
KOPF
 62
    12
100
AcDbLine
 10
-163.0
 20
46.99999999999997
 30
0.0
 11
-163.0
 21
27.0
 31
0.0
  0
LINE
  5
5FE
330
5DC
100
AcDbEntity
  8
KOPF
100
AcDbLine
 10
-163.0
 20
46.99999999999997
 30
0.0
 11
-163.0
 21
27.0
 31
0.0
  0
ATTDEF
  5
5FF
330
5DC
100
AcDbEntity
  8
TEXT25
100
AcDbText
 10
-161.5009557098303
 20
28.32091209119023
 30
0.0
 40
2.0
  1

 41
0.8
  7
TEXT20
100
AcDbAttributeDefinition
  3
Update am:
  2
F53
 70
     0
  0
ATTDEF
  5
600
330
5DC
100
AcDbEntity
  8
TEXT25
100
AcDbText
 10
-161.5539333606331
 20
33.12227989587696
 30
0.0
 40
2.0
  1

 41
0.8
  7
TEXT20
100
AcDbAttributeDefinition
  3
Geprüft am:
  2
F22
 70
     0
  0
ATTDEF
  5
601
330
5DC
100
AcDbEntity
  8
TEXT25
100
AcDbText
 10
-161.5207141482394
 20
38.33983936444393
 30
0.0
 40
2.0
  1

 41
0.8
  7
TEXT20
100
AcDbAttributeDefinition
  3
Gezeichnet am:
  2
F9
 70
     0
  0
TEXT
  5
602
330
5DC
100
AcDbEntity
  8
KOPF
100
AcDbText
 10
-155.964455
 20
43.13467299999999
 30
0.0
 40
2.0
  1
Datum
 41
0.8
  7
TEXT20
100
AcDbText
  0
LINE
  5
603
330
5DC
100
AcDbEntity
  8
KOPF
 62
    12
100
AcDbLine
 10
-138.4
 20
46.99999999999997
 30
0.0
 11
-138.4
 21
27.0
 31
0.0
  0
LINE
  5
604
330
5DC
100
AcDbEntity
  8
KOPF
100
AcDbLine
 10
-138.4
 20
46.99999999999997
 30
0.0
 11
-138.4
 21
27.0
 31
0.0
  0
TEXT
  5
605
330
5DC
100
AcDbEntity
  8
KOPF
100
AcDbText
 10
-130.065072
 20
43.14125800000002
 30
0.0
 40
2.0
  1
Name
 41
0.8
  7
TEXT20
100
AcDbText
  0
ATTDEF
  5
606
330
5DC
100
AcDbEntity
  8
TEXT25
100
AcDbText
 10
-136.2746977811447
 20
33.28471223400234
 30
0.0
 40
2.0
  1

 41
0.8
  7
TEXT20
100
AcDbAttributeDefinition
  3
Geprüft von:
  2
F21
 70
     0
  0
ATTDEF
  5
607
330
5DC
100
AcDbEntity
  8
TEXT25
100
AcDbText
 10
-136.3996291720711
 20
28.23101841142455
 30
0.0
 40
2.0
  1

 41
0.8
  7
TEXT20
100
AcDbAttributeDefinition
  3
Update von:
  2
F52
 70
     0
  0
ATTDEF
  5
608
330
5DC
100
AcDbEntity
  8
TEXT25
100
AcDbText
 10
-136.1922113552417
 20
38.48172579575253
 30
0.0
 40
2.0
  1

 41
0.8
  7
TEXT20
100
AcDbAttributeDefinition
  3
Gezeichnet von
  2
F8
 70
     0
  0
TEXT
  5
609
330
5DC
100
AcDbEntity
  8
KOPF
100
AcDbText
 10
-174.6925639999999
 20
69.53813999999997
 30
0.0
 40
2.0
  1
Index
 41
0.8
  7
TEXT20
100
AcDbText
  0
LINE
  5
60A
330
5DC
100
AcDbEntity
  8
KOPF
100
AcDbLine
 10
-182.0
 20
78.49999999999997
 30
0.0
 11
-162.682677
 21
78.49999999999997
 31
0.0
  0
LINE
  5
60B
330
5DC
100
AcDbEntity
  8
KOPF
100
AcDbLine
 10
-182.0
 20
78.49999999999997
 30
0.0
 11
-162.682677
 21
78.49999999999997
 31
0.0
  0
TEXT
  5
60C
330
5DC
100
AcDbEntity
  8
KOPF
100
AcDbText
 10
-180.0
 20
65.166273
 30
0.0
 40
2.0
  1
Werkstoff:
 41
0.8
  7
TEXT20
100
AcDbText
  0
TEXT
  5
60D
330
5DC
100
AcDbEntity
  8
KOPF
100
AcDbText
 10
-181.0
 20
54.49999999999997
 30
0.0
 40
2.0
  1
zul. Abweich.:
 41
0.8
  7
TEXT20
100
AcDbText
  0
ATTDEF
  5
60E
330
5DC
100
AcDbEntity
  8
TEXT35
100
AcDbText
 10
-179.7
 20
59.6
 30
0.0
 40
3.5
  1

 41
0.8
  7
TEXT35
100
AcDbAttributeDefinition
  3
Werkstoff:
  2
F61
 70
     0
  0
ATTDEF
  5
60F
330
5DC
100
AcDbEntity
  8
TEXT35
100
AcDbText
 10
-179.7
 20
49.7
 30
0.0
 40
3.5
  1

 41
0.8
  7
TEXT35
100
AcDbAttributeDefinition
  3
zul. Abweichung
  2
F62
 70
     0
  0
ATTDEF
  5
610
330
5DC
100
AcDbEntity
  8
TEXT25
100
AcDbText
 10
-174.360415155955
 20
74.59999999999999
 30
0.0
 40
2.0
  1

 41
0.8
  7
TEXT20
100
AcDbAttributeDefinition
  3
Index vv.:
  2
F72
 70
     0
  0
ATTDEF
  5
611
330
5DC
100
AcDbEntity
  8
TEXT25
100
AcDbText
 10
-174.4435409453564
 20
79.47378932523601
 30
0.0
 40
2.0
  1

 41
0.8
  7
TEXT20
100
AcDbAttributeDefinition
  3
Index v.:
  2
F68
 70
     0
  0
ATTDEF
  5
612
330
5DC
100
AcDbEntity
  8
TEXT25
100
AcDbText
 10
-174.3700408782365
 20
84.63034186138365
 30
0.0
 40
2.0
  1

 41
0.8
  7
TEXT20
100
AcDbAttributeDefinition
  3
Index l.:
  2
F64
 70
     0
  0
LINE
  5
613
330
5DC
100
AcDbEntity
  8
KOPF
100
AcDbLine
 10
-162.682677
 20
88.49999999999996
 30
0.0
 11
-162.682677
 21
68.49999999999997
 31
0.0
  0
LINE
  5
614
330
5DC
100
AcDbEntity
  8
KOPF
100
AcDbLine
 10
-162.682677
 20
88.49999999999996
 30
0.0
 11
-162.682677
 21
68.49999999999997
 31
0.0
  0
TEXT
  5
615
330
5DC
100
AcDbEntity
  8
KOPF
100
AcDbText
 10
-156.706568
 20
69.53813999999997
 30
0.0
 40
2.0
  1
Datum
 41
0.8
  7
TEXT20
100
AcDbText
  0
ATTDEF
  5
616
330
5DC
100
AcDbEntity
  8
TEXT25
100
AcDbText
 10
-160.9
 20
75.09999999999999
 30
0.0
 40
2.0
  1

 41
0.8
  7
TEXT20
100
AcDbAttributeDefinition
  3
Datum vv.:
  2
F73
 70
     0
  0
ATTDEF
  5
617
330
5DC
100
AcDbEntity
  8
TEXT25
100
AcDbText
 10
-160.9
 20
79.40000000000001
 30
0.0
 40
2.0
  1

 41
0.8
  7
TEXT20
100
AcDbAttributeDefinition
  3
Datum v.:
  2
F69
 70
     0
  0
ATTDEF
  5
618
330
5DC
100
AcDbEntity
  8
TEXT25
100
AcDbText
 10
-160.6
 20
84.50000000000001
 30
0.0
 40
2.0
  1

 41
0.8
  7
TEXT20
100
AcDbAttributeDefinition
  3
Datum l.:
  2
F65
 70
     0
  0
LINE
  5
619
330
5DC
100
AcDbEntity
  8
KOPF
 62
    12
100
AcDbLine
 10
-142.0
 20
68.49999999999997
 30
0.0
 11
-142.0
 21
88.49999999999996
 31
0.0
  0
LINE
  5
61A
330
5DC
100
AcDbEntity
  8
KOPF
100
AcDbLine
 10
-142.0
 20
68.49999999999997
 30
0.0
 11
-142.0
 21
88.49999999999996
 31
0.0
  0
ATTDEF
  5
61B
330
5DC
100
AcDbEntity
  8
TEXT35
100
AcDbText
 10
-139.9
 20
59.29999999999999
 30
0.0
 40
3.5
  1

 41
0.8
  7
TEXT35
100
AcDbAttributeDefinition
  3
Gewicht:
  2
F60
 70
     0
  0
TEXT
  5
61C
330
5DC
100
AcDbEntity
  8
KOPF
100
AcDbText
 10
-140.387393
 20
54.54752599999996
 30
0.0
 40
2.0
  1
Oberfläche
 41
0.8
  7
TEXT20
100
AcDbText
  0
TEXT
  5
61D
330
5DC
100
AcDbEntity
  8
KOPF
100
AcDbText
 10
-140.1020469999999
 20
65.166273
 30
0.0
 40
2.0
  1
Gewicht:
 41
0.8
  7
TEXT20
100
AcDbText
  0
TEXT
  5
61E
330
5DC
100
AcDbEntity
  8
KOPF
100
AcDbText
 10
-140.1020469999999
 20
65.166273
 30
0.0
 40
2.0
  1
Gewicht:
 41
0.8
  7
TEXT20
100
AcDbText
  0
ATTDEF
  5
61F
330
5DC
100
AcDbEntity
  8
TEXT25
100
AcDbText
 10
-140.4
 20
74.59999999999999
 30
0.0
 40
2.0
  1

 41
0.8
  7
TEXT20
100
AcDbAttributeDefinition
  3
Bennenung vv.:
  2
F74
 70
     0
  0
ATTDEF
  5
620
330
5DC
100
AcDbEntity
  8
TEXT25
100
AcDbText
 10
-140.5063960262479
 20
79.64480359078786
 30
0.0
 40
2.0
  1

 41
0.8
  7
TEXT20
100
AcDbAttributeDefinition
  3
Benennung v.:
  2
F70
 70
     0
  0
ATTDEF
  5
621
330
5DC
100
AcDbEntity
  8
TEXT25
100
AcDbText
 10
-140.390233442385
 20
84.56120109651198
 30
0.0
 40
2.0
  1

 41
0.8
  7
TEXT20
100
AcDbAttributeDefinition
  3
Bennenung l.:
  2
F66
 70
     0
  0
LINE
  5
622
330
5DC
100
AcDbEntity
  8
KOPF
 62
    12
100
AcDbLine
 10
-100.0
 20
68.49999999999997
 30
0.0
 11
-100.0
 21
46.99999999999997
 31
0.0
  0
LWPOLYLINE
  5
623
330
5DC
100
AcDbEntity
  8
KOPF
 62
    12
100
AcDbPolyline
 90
        2
 70
     0
 43
0.5
 10
-83.0
 20
46.99999999999997
 10
-83.0
 20
0.0
  0
LINE
  5
624
330
5DC
100
AcDbEntity
  8
KOPF
100
AcDbLine
 10
-83.0
 20
46.99999999999997
 30
0.0
 11
-83.0
 21
0.0
 31
0.0
  0
TEXT
  5
625
330
5DC
100
AcDbEntity
  8
KOPF
100
AcDbText
 10
-81.0
 20
1.714285999999985
 30
0.0
 40
2.0
  1
Ersetzt durch:
 41
0.8
  7
TEXT20
100
AcDbText
  0
LINE
  5
626
330
5DC
100
AcDbEntity
  8
KOPF
 62
    12
100
AcDbLine
 10
-113.4
 20
27.0
 30
0.0
 11
-113.4
 21
46.99999999999997
 31
0.0
  0
LWPOLYLINE
  5
627
330
5DC
100
AcDbEntity
  8
KOPF
100
AcDbPolyline
 90
        2
 70
     0
 43
0.5
 10
-113.4
 20
27.0
 10
-113.4
 20
46.99999999999997
  0
LINE
  5
628
330
5DC
100
AcDbEntity
  8
KOPF
100
AcDbLine
 10
-113.4
 20
27.0
 30
0.0
 11
-113.4
 21
46.99999999999997
 31
0.0
  0
LINE
  5
629
330
5DC
100
AcDbEntity
  8
KOPF
100
AcDbLine
 10
-113.4
 20
27.0
 30
0.0
 11
-113.4
 21
46.99999999999997
 31
0.0
  0
ATTDEF
  5
62A
330
5DC
100
AcDbEntity
  8
TEXT35
100
AcDbText
 10
-104.4935632823758
 20
33.13408015176805
 30
0.0
 40
3.5
  1

 41
0.8
  7
TEXT35
100
AcDbAttributeDefinition
  3
Maßstab 2:
  2
F54
 70
     0
  0
ATTDEF
  5
62B
330
5DC
100
AcDbEntity
  8
TEXT35
100
AcDbText
 10
-104.487948258847
 20
28.6
 30
0.0
 40
3.5
  1

 41
0.8
  7
TEXT35
100
AcDbAttributeDefinition
  3
Maßstab 3:
  2
F55
 70
     0
  0
ATTDEF
  5
62C
330
5DC
100
AcDbEntity
  8
TEXT50
100
AcDbText
 10
-106.6
 20
37.8
 30
0.0
 40
5.0
  1

 41
0.8
  7
TEXT50
100
AcDbAttributeDefinition
  3
Maßstab 1:
  2
F25
 70
     0
  0
TEXT
  5
62D
330
5DC
100
AcDbEntity
  8
KOPF
100
AcDbText
 10
-112.263457
 20
43.88678899999999
 30
0.0
 40
2.0
  1
Massstab:
 41
0.8
  7
TEXT20
100
AcDbText
  0
LINE
  5
62E
330
5DC
100
AcDbEntity
  8
KOPF
 62
    12
100
AcDbLine
 10
-57.80813400000011
 20
27.0
 30
0.0
 11
-57.80813400000011
 21
46.99999999999997
 31
0.0
  0
LINE
  5
62F
330
5DC
100
AcDbEntity
  8
KOPF
100
AcDbLine
 10
-57.80813400000011
 20
27.0
 30
0.0
 11
-57.80813400000011
 21
46.99999999999997
 31
0.0
  0
TEXT
  5
630
330
5DC
100
AcDbEntity
  8
KOPF
100
AcDbText
 10
-81.59296000000006
 20
23.69783599999999
 30
0.0
 40
2.0
  1
Zeichnung Nr.:
 41
0.8
  7
TEXT20
100
AcDbText
  0
TEXT
  5
631
330
5DC
100
AcDbEntity
  8
KOPF
100
AcDbText
 10
-81.00375700000006
 20
5.924711999999997
 30
0.0
 40
2.0
  1
Ersatz für:
 41
0.8
  7
TEXT20
100
AcDbText
  0
TEXT
  5
632
330
5DC
100
AcDbEntity
  8
KOPF
100
AcDbText
 10
-81.59296000000006
 20
23.69783599999999
 30
0.0
 40
2.0
  1
Zeichnung Nr.:
 41
0.8
  7
TEXT20
100
AcDbText
  0
ATTDEF
  5
633
330
5DC
100
AcDbEntity
  8
TEXT50
100
AcDbText
 10
-78.29193986361122
 20
14.50587824180555
 30
0.0
 40
5.0
  1

 41
0.8
  7
TEXT50
100
AcDbAttributeDefinition
  3
Standart:
  2
F1
 70
     0
  0
TEXT
  5
634
330
5DC
100
AcDbEntity
  8
KOPF
100
AcDbText
 10
-81.48889200000008
 20
43.86057200000001
 30
0.0
 40
2.0
  1
Masseinheit:
 41
0.8
  7
TEXT20
100
AcDbText
  0
LINE
  5
635
330
5DC
100
AcDbEntity
  8
KOPF
 62
    12
100
AcDbLine
 10
-57.80813400000011
 20
36.213444
 30
0.0
 11
-83.0
 21
36.213444
 31
0.0
  0
LINE
  5
636
330
5DC
100
AcDbEntity
  8
KOPF
100
AcDbLine
 10
-57.80813400000011
 20
36.213444
 30
0.0
 11
-83.0
 21
36.213444
 31
0.0
  0
ATTDEF
  5
637
330
5DC
100
AcDbEntity
  8
TEXT35
100
AcDbText
 10
-79.40896486611496
 20
38.08722024605356
 30
0.0
 40
3.5
  1

 41
0.8
  7
TEXT35
100
AcDbAttributeDefinition
  3
Maßeinheit:
  2
F56
 70
     0
  0
TEXT
  5
638
330
5DC
100
AcDbEntity
  8
KOPF
100
AcDbText
 10
-33.57569784693112
 20
42.62823225872138
 30
0.0
 40
1.54
  1
Diese Zeichnung darf weder kopiert
 41
0.8
  7
TEXT20
100
AcDbText
  0
TEXT
  5
639
330
5DC
100
AcDbEntity
  8
KOPF
100
AcDbText
 10
-33.57569784693112
 20
40.26106040199917
 30
0.0
 40
1.54
  1
noch dritten Personen, insbesondere
 41
0.8
  7
TEXT20
100
AcDbText
  0
TEXT
  5
63A
330
5DC
100
AcDbEntity
  8
KOPF
100
AcDbText
 10
-33.57569784693112
 20
35.63814072439632
 30
0.0
 40
1.54
  1
mitgeteilt werden und bleibt unser
 41
0.8
  7
TEXT20
100
AcDbText
  0
TEXT
  5
63B
330
5DC
100
AcDbEntity
  8
KOPF
100
AcDbText
 10
-33.57569784693112
 20
33.37532604459598
 30
0.0
 40
1.54
  1
Eigentum.
 41
0.8
  7
TEXT20
100
AcDbText
  0
TEXT
  5
63C
330
5DC
100
AcDbEntity
  8
KOPF
100
AcDbText
 10
-33.57569784693112
 20
37.97994933403727
 30
0.0
 40
1.54
  1
zum Zweck anderweitiger Benutzung
 41
0.8
  7
TEXT20
100
AcDbText
  0
TEXT
  5
63D
330
5DC
100
AcDbEntity
  8
KOPF
100
AcDbText
 10
-33.7904806989385
 20
30.30982488917614
 30
0.0
 40
1.54
  1
Schutzvermerk nach DIN 34 beachten
 41
0.75
  7
TEXT20
100
AcDbText
  0
LINE
  5
63E
330
5DC
100
AcDbEntity
  8
KOPF
100
AcDbLine
 10
-34.94281200000012
 20
47.01203199999999
 30
0.0
 11
-34.94281200000012
 21
27.0
 31
0.0
  0
LINE
  5
63F
330
5DC
100
AcDbEntity
  8
KOPF
100
AcDbLine
 10
-34.94281200000012
 20
47.01203199999999
 30
0.0
 11
-34.94281200000012
 21
27.0
 31
0.0
  0
LINE
  5
640
330
5DC
100
AcDbEntity
  8
MITTE
100
AcDbLine
 10
-45.85521401410289
 20
36.04852954632858
 30
0.0
 11
-35.23444858652556
 21
36.04852954632858
 31
0.0
  0
LINE
  5
641
330
5DC
100
AcDbEntity
  8
TEXT50
100
AcDbLine
 10
-45.05865660703466
 20
32.02559619470341
 30
0.0
 11
-36.50894043783512
 21
34.06858135367652
 31
0.0
  0
LINE
  5
642
330
5DC
100
AcDbEntity
  8
TEXT50
100
AcDbLine
 10
-36.50894043783512
 20
38.02847773898061
 30
0.0
 11
-45.05865660703466
 21
40.07146289795374
 31
0.0
  0
TEXT
  5
643
330
5DC
100
AcDbEntity
  8
KOPF
100
AcDbText
 10
-57.12244047883302
 20
43.82431699999997
 30
0.0
 40
2.0
  1
Projektion: ISO-E
 41
0.8
  7
TEXT20
100
AcDbText
  0
LINE
  5
644
330
5DC
100
AcDbEntity
  8
TEXT50
100
AcDbLine
 10
-45.05865660703466
 20
40.07146289795374
 30
0.0
 11
-45.05865660703466
 21
32.02559619470346
 31
0.0
  0
LINE
  5
645
330
5DC
100
AcDbEntity
  8
MITTE
100
AcDbLine
 10
-51.4945506424383
 20
40.07146289795374
 30
0.0
 11
-51.4945506424383
 21
30.76413131482123
 31
0.0
  0
CIRCLE
  5
646
330
5DC
100
AcDbEntity
  8
TEXT50
100
AcDbCircle
 10
-51.4945506424383
 20
36.04852954632858
 30
0.0
 40
4.022933351625178
  0
CIRCLE
  5
647
330
5DC
100
AcDbEntity
  8
TEXT50
100
AcDbCircle
 10
-51.4945506424383
 20
36.04852954632858
 30
0.0
 40
1.979948192651899
  0
LINE
  5
648
330
5DC
100
AcDbEntity
  8
MITTE
100
AcDbLine
 10
-56.48631039339966
 20
36.04852954632858
 30
0.0
 11
-46.50279089147699
 21
36.04852954632858
 31
0.0
  0
LINE
  5
649
330
5DC
100
AcDbEntity
  8
TEXT50
100
AcDbLine
 10
-36.50894043783512
 20
38.02847773898061
 30
0.0
 11
-36.50894043783512
 21
34.06858135367652
 31
0.0
  0
LWPOLYLINE
  5
64A
330
5DC
100
AcDbEntity
  8
KOPF
 62
    12
100
AcDbPolyline
 90
        2
 70
     0
 43
0.5
 10
-12.0
 20
27.0
 10
-12.0
 20
10.0
  0
LINE
  5
64B
330
5DC
100
AcDbEntity
  8
KOPF
100
AcDbLine
 10
-12.0
 20
27.0
 30
0.0
 11
-12.0
 21
10.0
 31
0.0
  0
ATTDEF
  5
64C
330
5DC
100
AcDbEntity
  8
TEXT50
100
AcDbText
 10
-5.58570360403041
 20
17.00587824180555
 30
0.0
 40
5.0
  1

 41
0.8
  7
TEXT50
 72
     4
 11
-5.58570360403041
 21
17.00587824180555
 31
0.0
100
AcDbAttributeDefinition
  3
Index:
  2
F1B
 70
     0
  0
TEXT
  5
64D
330
5DC
100
AcDbEntity
  8
KOPF
100
AcDbText
 10
-8.353129999999964
 20
23.330072
 30
0.0
 40
2.0
  1
Index
 41
0.8
  7
TEXT20
100
AcDbText
  0
TEXT
  5
64E
330
5DC
100
AcDbEntity
  8
KOPF
100
AcDbText
 10
-94.40535829344497
 20
70.39773773357916
 30
0.0
 40
2.0
  1
Benennung
 41
0.8
  7
TEXT20
100
AcDbText
  0
LINE
  5
64F
330
5DC
100
AcDbEntity
  8
KOPF
100
AcDbLine
 10
-15.0
 20
88.49999999999996
 30
0.0
 11
-15.0
 21
68.49999999999997
 31
0.0
  0
LINE
  5
650
330
5DC
100
AcDbEntity
  8
KOPF
100
AcDbLine
 10
-15.0
 20
88.49999999999996
 30
0.0
 11
-15.0
 21
68.49999999999997
 31
0.0
  0
TEXT
  5
651
330
5DC
100
AcDbEntity
  8
KOPF
100
AcDbText
 10
-11.65833600000008
 20
69.53813999999997
 30
0.0
 40
2.0
  1
Name
 41
0.8
  7
TEXT20
100
AcDbText
  0
TEXT
  5
652
330
5DC
100
AcDbEntity
  8
KOPF
100
AcDbText
 10
-11.65833600000008
 20
69.53813999999997
 30
0.0
 40
2.0
  1
Name
 41
0.8
  7
TEXT20
100
AcDbText
  0
ATTDEF
  5
653
330
5DC
100
AcDbEntity
  8
TEXT25
100
AcDbText
 10
-13.39999999999998
 20
74.90000000000001
 30
0.0
 40
2.0
  1

 41
0.8
  7
TEXT20
100
AcDbAttributeDefinition
  3
Name vv.:
  2
F75
 70
     0
  0
ATTDEF
  5
654
330
5DC
100
AcDbEntity
  8
TEXT25
100
AcDbText
 10
-13.39999999999998
 20
79.7
 30
0.0
 40
2.0
  1

 41
0.8
  7
TEXT20
100
AcDbAttributeDefinition
  3
Name v.:
  2
F71
 70
     0
  0
ATTDEF
  5
655
330
5DC
100
AcDbEntity
  8
TEXT25
100
AcDbText
 10
-13.31006638105163
 20
84.29999999999999
 30
0.0
 40
2.0
  1

 41
0.8
  7
TEXT20
100
AcDbAttributeDefinition
  3
Name l.:
  2
F67
 70
     0
  0
LINE
  5
656
330
5DC
100
AcDbEntity
  8
KOPF
100
AcDbLine
 10
-182.0
 20
36.99999999999997
 30
0.0
 11
-113.4
 21
36.99999999999997
 31
0.0
  0
LINE
  5
657
330
5DC
100
AcDbEntity
  8
KOPF
100
AcDbLine
 10
-182.0
 20
31.99999999999997
 30
0.0
 11
-113.4
 21
31.99999999999997
 31
0.0
  0
MTEXT
  5
658
330
5DC
100
AcDbEntity
  8
Sperrlayer
 62
     1
100
AcDbMText
 10
-166.0749851709908
 20
9.027899370527848
 30
0.0
 40
10.0
 41
771.0
 71
     1
 72
     5
  1
VORABZUG - nicht FREIGEGEBEN !
  7
TEXT20
 11
0.8660254037844387
 21
0.5
 31
0.0
 73
     1
 44
1.0
1001
ACAD
1000
MTEXTBEGIN
1070
    73
1070
     1
1070
    44
1040
1.0
1070
    74
1070
     0
1000
MTEXTEND
  0
SOLID
  5
659
330
5DC
100
AcDbEntity
  8
RAHM2
100
AcDbTrace
 10
-65.27552397868255
 20
61.53746598194189
 30
0.0
 11
-62.05035543935675
 21
61.53746598194189
 31
0.0
 12
-65.27552397868255
 22
61.25701654373962
 32
0.0
 13
-62.05035543935675
 23
61.25701654373962
 33
0.0
  0
TEXT
  5
65A
330
5DC
100
AcDbEntity
  8
RAHM2
100
AcDbText
 10
-40.91775160745712
 20
53.63170934671963
 30
0.0
 40
2.6
  1
GmbH
  7
KOPF
 72
     1
 11
-35.478939452761
 21
53.63170934671963
 31
0.0
100
AcDbText
  0
TEXT
  5
65B
330
5DC
100
AcDbEntity
  8
RAHM2
100
AcDbText
 10
-58.33566801898796
 20
50.12594670488301
 30
0.0
 40
2.6
  1
36269 Philippsthal
  7
KOPF
 72
     1
 11
-44.32206304661227
 21
50.12594670488301
 31
0.0
100
AcDbText
  0
SOLID
  5
65C
330
5DC
100
AcDbEntity
  8
RAHM2
100
AcDbTrace
 10
-67.51911948430052
 20
62.09836485834642
 30
0.0
 11
-66.95822060789598
 21
62.09836485834642
 31
0.0
 12
-67.51911948430052
 22
61.9581401392452
 32
0.0
 13
-66.95822060789598
 23
61.9581401392452
 33
0.0
  0
SOLID
  5
65D
330
5DC
100
AcDbEntity
  8
RAHM2
100
AcDbTrace
 10
-68.36046779890714
 20
61.9581401392452
 30
0.0
 11
-66.11687229328918
 21
61.9581401392452
 31
0.0
 12
-68.36046779890714
 22
61.81791542014416
 32
0.0
 13
-66.11687229328918
 23
61.81791542014416
 33
0.0
  0
SOLID
  5
65E
330
5DC
100
AcDbEntity
  8
RAHM2
100
AcDbTrace
 10
-68.64091723710941
 20
61.81791542014416
 30
0.0
 11
-66.11687229328918
 21
61.81791542014416
 31
0.0
 12
-68.64091723710941
 22
61.67769070104293
 32
0.0
 13
-66.11687229328918
 23
61.67769070104293
 33
0.0
  0
SOLID
  5
65F
330
5DC
100
AcDbEntity
  8
RAHM2
100
AcDbTrace
 10
-68.92136667531167
 20
61.67769070104293
 30
0.0
 11
-66.2570970123904
 21
61.67769070104293
 31
0.0
 12
-68.92136667531167
 22
61.53746598194189
 32
0.0
 13
-66.2570970123904
 23
61.53746598194189
 33
0.0
  0
SOLID
  5
660
330
5DC
100
AcDbEntity
  8
RAHM2
100
AcDbTrace
 10
-69.0615913944129
 20
61.53746598194189
 30
0.0
 11
-66.2570970123904
 21
61.53746598194189
 31
0.0
 12
-69.0615913944129
 22
61.39724126284066
 32
0.0
 13
-66.2570970123904
 23
61.39724126284066
 33
0.0
  0
SOLID
  5
661
330
5DC
100
AcDbEntity
  8
RAHM2
100
AcDbTrace
 10
-69.20181611351394
 20
61.39724126284066
 30
0.0
 11
-66.2570970123904
 21
61.39724126284066
 31
0.0
 12
-69.20181611351394
 22
61.25701654373962
 32
0.0
 13
-66.2570970123904
 23
61.25701654373962
 33
0.0
  0
SOLID
  5
662
330
5DC
100
AcDbEntity
  8
RAHM2
100
AcDbTrace
 10
-69.34204083261517
 20
61.25701654373962
 30
0.0
 11
-67.09844532699702
 21
61.25701654373962
 31
0.0
 12
-69.34204083261517
 22
61.1167918246384
 32
0.0
 13
-67.09844532699702
 23
61.1167918246384
 33
0.0
  0
SOLID
  5
663
330
5DC
100
AcDbEntity
  8
RAHM2
100
AcDbTrace
 10
-69.20181611351394
 20
58.59274688081836
 30
0.0
 11
-66.39732173149145
 21
58.59274688081836
 31
0.0
 12
-69.20181611351394
 22
58.45252216171712
 32
0.0
 13
-66.39732173149145
 23
58.45252216171712
 33
0.0
  0
SOLID
  5
664
330
5DC
100
AcDbEntity
  8
RAHM2
100
AcDbTrace
 10
-69.0615913944129
 20
58.45252216171712
 30
0.0
 11
-66.2570970123904
 21
58.45252216171712
 31
0.0
 12
-69.0615913944129
 22
58.17207272351486
 32
0.0
 13
-66.2570970123904
 23
58.17207272351486
 33
0.0
  0
SOLID
  5
665
330
5DC
100
AcDbEntity
  8
RAHM2
100
AcDbTrace
 10
-68.78114195621063
 20
58.17207272351486
 30
0.0
 11
-66.2570970123904
 21
58.17207272351486
 31
0.0
 12
-68.78114195621063
 22
58.03184800441382
 32
0.0
 13
-66.2570970123904
 23
58.03184800441382
 33
0.0
  0
SOLID
  5
666
330
5DC
100
AcDbEntity
  8
RAHM2
100
AcDbTrace
 10
-68.50069251800836
 20
58.03184800441382
 30
0.0
 11
-66.11687229328918
 21
58.03184800441382
 31
0.0
 12
-68.50069251800836
 22
57.89162328531259
 32
0.0
 13
-66.11687229328918
 23
57.89162328531259
 33
0.0
  0
SOLID
  5
667
330
5DC
100
AcDbEntity
  8
RAHM2
100
AcDbTrace
 10
-68.22024307980609
 20
57.89162328531259
 30
0.0
 11
-66.11687229328918
 21
57.89162328531259
 31
0.0
 12
-68.22024307980609
 22
57.75139856621155
 32
0.0
 13
-66.11687229328918
 23
57.75139856621155
 33
0.0
  0
SOLID
  5
668
330
5DC
100
AcDbEntity
  8
RAHM2
100
AcDbTrace
 10
-67.79956892250279
 20
57.75139856621155
 30
0.0
 11
-66.39732173149145
 21
57.75139856621155
 31
0.0
 12
-67.79956892250279
 22
57.61117384711032
 32
0.0
 13
-66.39732173149145
 23
57.61117384711032
 33
0.0
  0
SOLID
  5
669
330
5DC
100
AcDbEntity
  8
RAHM2
100
AcDbTrace
 10
-81.82204083261508
 20
64.86384610464772
 30
0.0
 11
-79.99911948430043
 21
64.86384610464772
 31
0.0
 12
-81.82204083261508
 22
60.23643037431057
 32
0.0
 13
-79.99911948430043
 23
60.23643037431057
 33
0.0
  0
SOLID
  5
66A
330
5DC
100
AcDbEntity
  8
RAHM2
100
AcDbTrace
 10
-79.4382206078959
 20
64.86384610464772
 30
0.0
 11
-77.61529925958143
 21
64.86384610464772
 31
0.0
 12
-79.4382206078959
 22
60.23643037431057
 32
0.0
 13
-77.61529925958143
 23
60.23643037431057
 33
0.0
  0
SOLID
  5
66B
330
5DC
100
AcDbEntity
  8
RAHM2
100
AcDbTrace
 10
-77.19462510227794
 20
64.86384610464772
 30
0.0
 11
-75.23147903486225
 21
64.86384610464772
 31
0.0
 12
-77.19462510227794
 22
60.23643037431057
 32
0.0
 13
-75.23147903486225
 23
60.23643037431057
 33
0.0
  0
SOLID
  5
66C
330
5DC
100
AcDbEntity
  8
RAHM2
100
AcDbTrace
 10
-72.70743409104202
 20
62.09836485834642
 30
0.0
 11
-71.58563633823312
 21
62.09836485834642
 31
0.0
 12
-72.70743409104202
 22
61.9581401392452
 32
0.0
 13
-71.58563633823312
 23
61.9581401392452
 33
0.0
  0
SOLID
  5
66D
330
5DC
100
AcDbEntity
  8
RAHM2
100
AcDbTrace
 10
-72.70743409104202
 20
61.9581401392452
 30
0.0
 11
-71.4454116191319
 21
61.9581401392452
 31
0.0
 12
-72.70743409104202
 22
61.81791542014416
 32
0.0
 13
-71.4454116191319
 23
61.81791542014416
 33
0.0
  0
SOLID
  5
66E
330
5DC
100
AcDbEntity
  8
RAHM2
100
AcDbTrace
 10
-72.84765881014324
 20
61.81791542014416
 30
0.0
 11
-71.4454116191319
 21
61.81791542014416
 31
0.0
 12
-72.84765881014324
 22
61.67769070104293
 32
0.0
 13
-71.4454116191319
 23
61.67769070104293
 33
0.0
  0
SOLID
  5
66F
330
5DC
100
AcDbEntity
  8
RAHM2
100
AcDbTrace
 10
-72.84765881014324
 20
61.67769070104293
 30
0.0
 11
-71.30518690003086
 21
61.67769070104293
 31
0.0
 12
-72.84765881014324
 22
61.53746598194189
 32
0.0
 13
-71.30518690003086
 23
61.53746598194189
 33
0.0
  0
SOLID
  5
670
330
5DC
100
AcDbEntity
  8
RAHM2
100
AcDbTrace
 10
-72.98788352924429
 20
61.53746598194189
 30
0.0
 11
-71.30518690003086
 21
61.53746598194189
 31
0.0
 12
-72.98788352924429
 22
61.25701654373962
 32
0.0
 13
-71.30518690003086
 23
61.25701654373962
 33
0.0
  0
SOLID
  5
671
330
5DC
100
AcDbEntity
  8
RAHM2
100
AcDbTrace
 10
-72.98788352924429
 20
61.25701654373962
 30
0.0
 11
-71.16496218092963
 21
61.25701654373962
 31
0.0
 12
-72.98788352924429
 22
61.1167918246384
 32
0.0
 13
-71.16496218092963
 23
61.1167918246384
 33
0.0
  0
SOLID
  5
672
330
5DC
100
AcDbEntity
  8
RAHM2
100
AcDbTrace
 10
-73.12810824834551
 20
61.1167918246384
 30
0.0
 11
-71.16496218092963
 21
61.1167918246384
 31
0.0
 12
-73.12810824834551
 22
60.97656710553735
 32
0.0
 13
-71.16496218092963
 23
60.97656710553735
 33
0.0
  0
SOLID
  5
673
330
5DC
100
AcDbEntity
  8
RAHM2
100
AcDbTrace
 10
-73.12810824834551
 20
60.97656710553735
 30
0.0
 11
-72.28675993373871
 21
60.97656710553735
 31
0.0
 12
-73.12810824834551
 22
60.83634238643631
 32
0.0
 13
-72.28675993373871
 23
60.83634238643631
 33
0.0
  0
SOLID
  5
674
330
5DC
100
AcDbEntity
  8
RAHM2
100
AcDbTrace
 10
-73.26833296744656
 20
60.83634238643631
 30
0.0
 11
-72.28675993373871
 21
60.83634238643631
 31
0.0
 12
-73.26833296744656
 22
60.69611766733508
 32
0.0
 13
-72.28675993373871
 23
60.69611766733508
 33
0.0
  0
SOLID
  5
675
330
5DC
100
AcDbEntity
  8
RAHM2
100
AcDbTrace
 10
-73.26833296744656
 20
60.69611766733508
 30
0.0
 11
-72.42698465283975
 21
60.69611766733508
 31
0.0
 12
-73.26833296744656
 22
60.41566822913281
 32
0.0
 13
-72.42698465283975
 23
60.41566822913281
 33
0.0
  0
SOLID
  5
676
330
5DC
100
AcDbEntity
  8
RAHM2
100
AcDbTrace
 10
-73.40855768654759
 20
60.41566822913281
 30
0.0
 11
-72.42698465283975
 21
60.41566822913281
 31
0.0
 12
-73.40855768654759
 22
60.27544351003178
 32
0.0
 13
-72.42698465283975
 23
60.27544351003178
 33
0.0
  0
SOLID
  5
677
330
5DC
100
AcDbEntity
  8
RAHM2
100
AcDbTrace
 10
-73.40855768654759
 20
60.27544351003178
 30
0.0
 11
-72.56720937194097
 21
60.27544351003178
 31
0.0
 12
-73.40855768654759
 22
60.13521879093055
 32
0.0
 13
-72.56720937194097
 23
60.13521879093055
 33
0.0
  0
SOLID
  5
678
330
5DC
100
AcDbEntity
  8
RAHM2
100
AcDbTrace
 10
-73.54878240564882
 20
60.13521879093055
 30
0.0
 11
-72.56720937194097
 21
60.13521879093055
 31
0.0
 12
-73.54878240564882
 22
59.85476935272828
 32
0.0
 13
-72.56720937194097
 23
59.85476935272828
 33
0.0
  0
SOLID
  5
679
330
5DC
100
AcDbEntity
  8
RAHM2
100
AcDbTrace
 10
-73.68900712474986
 20
59.85476935272828
 30
0.0
 11
-72.70743409104202
 21
59.85476935272828
 31
0.0
 12
-73.68900712474986
 22
59.43409519542497
 32
0.0
 13
-72.70743409104202
 23
59.43409519542497
 33
0.0
  0
SOLID
  5
67A
330
5DC
100
AcDbEntity
  8
RAHM2
100
AcDbTrace
 10
-72.28675993373871
 20
60.97656710553735
 30
0.0
 11
-71.16496218092963
 21
60.97656710553735
 31
0.0
 12
-72.28675993373871
 22
60.83634238643631
 32
0.0
 13
-71.16496218092963
 23
60.83634238643631
 33
0.0
  0
SOLID
  5
67B
330
5DC
100
AcDbEntity
  8
RAHM2
100
AcDbTrace
 10
-72.14653521463748
 20
60.83634238643631
 30
0.0
 11
-71.02473746182859
 21
60.83634238643631
 31
0.0
 12
-72.14653521463748
 22
60.55589294823405
 32
0.0
 13
-71.02473746182859
 23
60.55589294823405
 33
0.0
  0
SOLID
  5
67C
330
5DC
100
AcDbEntity
  8
RAHM2
100
AcDbTrace
 10
-72.14653521463748
 20
60.55589294823405
 30
0.0
 11
-70.88451274272737
 21
60.55589294823405
 31
0.0
 12
-72.14653521463748
 22
60.27544351003178
 32
0.0
 13
-70.88451274272737
 23
60.27544351003178
 33
0.0
  0
SOLID
  5
67D
330
5DC
100
AcDbEntity
  8
RAHM2
100
AcDbTrace
 10
-72.00631049553644
 20
60.27544351003178
 30
0.0
 11
-70.88451274272737
 21
60.27544351003178
 31
0.0
 12
-72.00631049553644
 22
60.13521879093055
 32
0.0
 13
-70.88451274272737
 23
60.13521879093055
 33
0.0
  0
SOLID
  5
67E
330
5DC
100
AcDbEntity
  8
RAHM2
100
AcDbTrace
 10
-72.00631049553644
 20
60.13521879093055
 30
0.0
 11
-70.74428802362632
 21
60.13521879093055
 31
0.0
 12
-72.00631049553644
 22
59.85476935272828
 32
0.0
 13
-70.74428802362632
 23
59.85476935272828
 33
0.0
  0
SOLID
  5
67F
330
5DC
100
AcDbEntity
  8
RAHM2
100
AcDbTrace
 10
-72.00631049553644
 20
59.85476935272828
 30
0.0
 11
-70.60406330452528
 21
59.85476935272828
 31
0.0
 12
-72.00631049553644
 22
59.71454463362724
 32
0.0
 13
-70.60406330452528
 23
59.71454463362724
 33
0.0
  0
SOLID
  5
680
330
5DC
100
AcDbEntity
  8
RAHM2
100
AcDbTrace
 10
-71.86608577643539
 20
59.71454463362724
 30
0.0
 11
-70.60406330452528
 21
59.71454463362724
 31
0.0
 12
-71.86608577643539
 22
59.43409519542497
 32
0.0
 13
-70.60406330452528
 23
59.43409519542497
 33
0.0
  0
SOLID
  5
681
330
5DC
100
AcDbEntity
  8
RAHM2
100
AcDbTrace
 10
-73.82923184385109
 20
59.43409519542497
 30
0.0
 11
-70.46383858542405
 21
59.43409519542497
 31
0.0
 12
-73.82923184385109
 22
59.15364575722271
 32
0.0
 13
-70.46383858542405
 23
59.15364575722271
 33
0.0
  0
SOLID
  5
682
330
5DC
100
AcDbEntity
  8
RAHM2
100
AcDbTrace
 10
-73.96945656295213
 20
59.15364575722271
 30
0.0
 11
-70.46383858542405
 21
59.15364575722271
 31
0.0
 12
-73.96945656295213
 22
59.01342103812166
 32
0.0
 13
-70.46383858542405
 23
59.01342103812166
 33
0.0
  0
SOLID
  5
683
330
5DC
100
AcDbEntity
  8
RAHM2
100
AcDbTrace
 10
-73.96945656295213
 20
59.01342103812166
 30
0.0
 11
-70.32361386632302
 21
59.01342103812166
 31
0.0
 12
-73.96945656295213
 22
58.87319631902044
 32
0.0
 13
-70.32361386632302
 23
58.87319631902044
 33
0.0
  0
SOLID
  5
684
330
5DC
100
AcDbEntity
  8
RAHM2
100
AcDbTrace
 10
-74.10968128205336
 20
58.87319631902044
 30
0.0
 11
-70.32361386632302
 21
58.87319631902044
 31
0.0
 12
-74.10968128205336
 22
58.73297159991939
 32
0.0
 13
-70.32361386632302
 23
58.73297159991939
 33
0.0
  0
SOLID
  5
685
330
5DC
100
AcDbEntity
  8
RAHM2
100
AcDbTrace
 10
-74.10968128205336
 20
58.73297159991939
 30
0.0
 11
-72.98788352924429
 21
58.73297159991939
 31
0.0
 12
-74.10968128205336
 22
58.45252216171712
 32
0.0
 13
-72.98788352924429
 23
58.45252216171712
 33
0.0
  0
SOLID
  5
686
330
5DC
100
AcDbEntity
  8
RAHM2
100
AcDbTrace
 10
-74.2499060011544
 20
58.45252216171712
 30
0.0
 11
-73.12810824834551
 21
58.45252216171712
 31
0.0
 12
-74.2499060011544
 22
58.17207272351486
 32
0.0
 13
-73.12810824834551
 23
58.17207272351486
 33
0.0
  0
SOLID
  5
687
330
5DC
100
AcDbEntity
  8
RAHM2
100
AcDbTrace
 10
-74.39013072025563
 20
58.17207272351486
 30
0.0
 11
-73.26833296744656
 21
58.17207272351486
 31
0.0
 12
-74.39013072025563
 22
57.75139856621155
 32
0.0
 13
-73.26833296744656
 23
57.75139856621155
 33
0.0
  0
SOLID
  5
688
330
5DC
100
AcDbEntity
  8
RAHM2
100
AcDbTrace
 10
-71.72586105733417
 20
58.73297159991939
 30
0.0
 11
-70.18338914722178
 21
58.73297159991939
 31
0.0
 12
-71.72586105733417
 22
58.59274688081836
 32
0.0
 13
-70.18338914722178
 23
58.59274688081836
 33
0.0
  0
SOLID
  5
689
330
5DC
100
AcDbEntity
  8
RAHM2
100
AcDbTrace
 10
-71.58563633823312
 20
58.59274688081836
 30
0.0
 11
-70.18338914722178
 21
58.59274688081836
 31
0.0
 12
-71.58563633823312
 22
58.31229744261609
 32
0.0
 13
-70.18338914722178
 23
58.31229744261609
 33
0.0
  0
SOLID
  5
68A
330
5DC
100
AcDbEntity
  8
RAHM2
100
AcDbTrace
 10
-71.4454116191319
 20
58.31229744261609
 30
0.0
 11
-70.04316442812075
 21
58.31229744261609
 31
0.0
 12
-71.4454116191319
 22
58.03184800441382
 32
0.0
 13
-70.04316442812075
 23
58.03184800441382
 33
0.0
  0
SOLID
  5
68B
330
5DC
100
AcDbEntity
  8
RAHM2
100
AcDbTrace
 10
-71.4454116191319
 20
58.03184800441382
 30
0.0
 11
-69.90293970901952
 21
58.03184800441382
 31
0.0
 12
-71.4454116191319
 22
57.89162328531259
 32
0.0
 13
-69.90293970901952
 23
57.89162328531259
 33
0.0
  0
SOLID
  5
68C
330
5DC
100
AcDbEntity
  8
RAHM2
100
AcDbTrace
 10
-71.30518690003086
 20
57.89162328531259
 30
0.0
 11
-69.90293970901952
 21
57.89162328531259
 31
0.0
 12
-71.30518690003086
 22
57.75139856621155
 32
0.0
 13
-69.90293970901952
 23
57.75139856621155
 33
0.0
  0
SOLID
  5
68D
330
5DC
100
AcDbEntity
  8
RAHM2
100
AcDbTrace
 10
-69.34204083261517
 20
61.1167918246384
 30
0.0
 11
-67.51911948430052
 21
61.1167918246384
 31
0.0
 12
-69.34204083261517
 22
60.97656710553735
 32
0.0
 13
-67.51911948430052
 23
60.97656710553735
 33
0.0
  0
SOLID
  5
68E
330
5DC
100
AcDbEntity
  8
RAHM2
100
AcDbTrace
 10
-69.48226555171621
 20
60.97656710553735
 30
0.0
 11
-67.93979364160382
 21
60.97656710553735
 31
0.0
 12
-69.48226555171621
 22
60.83634238643631
 32
0.0
 13
-67.93979364160382
 23
60.83634238643631
 33
0.0
  0
SOLID
  5
68F
330
5DC
100
AcDbEntity
  8
RAHM2
100
AcDbTrace
 10
-69.62249027081725
 20
60.83634238643631
 30
0.0
 11
-68.08001836070506
 21
60.83634238643631
 31
0.0
 12
-69.62249027081725
 22
60.69611766733508
 32
0.0
 13
-68.08001836070506
 23
60.69611766733508
 33
0.0
  0
SOLID
  5
690
330
5DC
100
AcDbEntity
  8
RAHM2
100
AcDbTrace
 10
-69.62249027081725
 20
60.69611766733508
 30
0.0
 11
-68.22024307980609
 21
60.69611766733508
 31
0.0
 12
-69.62249027081725
 22
60.55589294823405
 32
0.0
 13
-68.22024307980609
 23
60.55589294823405
 33
0.0
  0
SOLID
  5
691
330
5DC
100
AcDbEntity
  8
RAHM2
100
AcDbTrace
 10
-69.62249027081725
 20
60.55589294823405
 30
0.0
 11
-68.36046779890714
 21
60.55589294823405
 31
0.0
 12
-69.62249027081725
 22
60.41566822913281
 32
0.0
 13
-68.36046779890714
 23
60.41566822913281
 33
0.0
  0
SOLID
  5
692
330
5DC
100
AcDbEntity
  8
RAHM2
100
AcDbTrace
 10
-69.62249027081725
 20
60.41566822913281
 30
0.0
 11
-68.36046779890714
 21
60.41566822913281
 31
0.0
 12
-69.62249027081725
 22
60.13521879093055
 32
0.0
 13
-68.36046779890714
 23
60.13521879093055
 33
0.0
  0
SOLID
  5
693
330
5DC
100
AcDbEntity
  8
RAHM2
100
AcDbTrace
 10
-69.76271498991848
 20
60.13521879093055
 30
0.0
 11
-68.36046779890714
 21
60.13521879093055
 31
0.0
 12
-69.76271498991848
 22
59.99499407182951
 32
0.0
 13
-68.36046779890714
 23
59.99499407182951
 33
0.0
  0
SOLID
  5
694
330
5DC
100
AcDbEntity
  8
RAHM2
100
AcDbTrace
 10
-69.76271498991848
 20
59.99499407182951
 30
0.0
 11
-68.50069251800836
 21
59.99499407182951
 31
0.0
 12
-69.76271498991848
 22
59.85476935272828
 32
0.0
 13
-68.50069251800836
 23
59.85476935272828
 33
0.0
  0
SOLID
  5
695
330
5DC
100
AcDbEntity
  8
RAHM2
100
AcDbTrace
 10
-69.76271498991848
 20
59.85476935272828
 30
0.0
 11
-68.50069251800836
 21
59.85476935272828
 31
0.0
 12
-69.76271498991848
 22
59.71454463362724
 32
0.0
 13
-68.50069251800836
 23
59.71454463362724
 33
0.0
  0
SOLID
  5
696
330
5DC
100
AcDbEntity
  8
RAHM2
100
AcDbTrace
 10
-69.62249027081725
 20
59.71454463362724
 30
0.0
 11
-68.36046779890714
 21
59.71454463362724
 31
0.0
 12
-69.62249027081725
 22
59.29387047632393
 32
0.0
 13
-68.36046779890714
 23
59.29387047632393
 33
0.0
  0
SOLID
  5
697
330
5DC
100
AcDbEntity
  8
RAHM2
100
AcDbTrace
 10
-69.62249027081725
 20
59.29387047632393
 30
0.0
 11
-68.36046779890714
 21
59.29387047632393
 31
0.0
 12
-69.62249027081725
 22
59.15364575722271
 32
0.0
 13
-68.36046779890714
 23
59.15364575722271
 33
0.0
  0
SOLID
  5
698
330
5DC
100
AcDbEntity
  8
RAHM2
100
AcDbTrace
 10
-69.62249027081725
 20
59.15364575722271
 30
0.0
 11
-68.22024307980609
 21
59.15364575722271
 31
0.0
 12
-69.62249027081725
 22
59.01342103812166
 32
0.0
 13
-68.22024307980609
 23
59.01342103812166
 33
0.0
  0
SOLID
  5
699
330
5DC
100
AcDbEntity
  8
RAHM2
100
AcDbTrace
 10
-69.48226555171621
 20
59.01342103812166
 30
0.0
 11
-68.08001836070506
 21
59.01342103812166
 31
0.0
 12
-69.48226555171621
 22
58.87319631902044
 32
0.0
 13
-68.08001836070506
 23
58.87319631902044
 33
0.0
  0
SOLID
  5
69A
330
5DC
100
AcDbEntity
  8
RAHM2
100
AcDbTrace
 10
-69.48226555171621
 20
58.87319631902044
 30
0.0
 11
-67.93979364160382
 21
58.87319631902044
 31
0.0
 12
-69.48226555171621
 22
58.73297159991939
 32
0.0
 13
-67.93979364160382
 23
58.73297159991939
 33
0.0
  0
SOLID
  5
69B
330
5DC
100
AcDbEntity
  8
RAHM2
100
AcDbTrace
 10
-69.34204083261517
 20
58.73297159991939
 30
0.0
 11
-67.37889476519929
 21
58.73297159991939
 31
0.0
 12
-69.34204083261517
 22
58.59274688081836
 32
0.0
 13
-67.37889476519929
 23
58.59274688081836
 33
0.0
  0
SOLID
  5
69C
330
5DC
100
AcDbEntity
  8
RAHM2
100
AcDbTrace
 10
-52.09440038317687
 20
60.55589294823405
 30
0.0
 11
-51.67372622587357
 21
60.55589294823405
 31
0.0
 12
-52.09440038317687
 22
60.41566822913281
 32
0.0
 13
-51.67372622587357
 23
60.41566822913281
 33
0.0
  0
SOLID
  5
69D
330
5DC
100
AcDbEntity
  8
RAHM2
100
AcDbTrace
 10
-52.23462510227792
 20
60.41566822913281
 30
0.0
 11
-51.8139509449746
 21
60.41566822913281
 31
0.0
 12
-52.23462510227792
 22
60.13521879093055
 32
0.0
 13
-51.8139509449746
 23
60.13521879093055
 33
0.0
  0
SOLID
  5
69E
330
5DC
100
AcDbEntity
  8
RAHM2
100
AcDbTrace
 10
-52.37484982137914
 20
60.13521879093055
 30
0.0
 11
-51.95417566407583
 21
60.13521879093055
 31
0.0
 12
-52.37484982137914
 22
59.99499407182951
 32
0.0
 13
-51.95417566407583
 23
59.99499407182951
 33
0.0
  0
SOLID
  5
69F
330
5DC
100
AcDbEntity
  8
RAHM2
100
AcDbTrace
 10
-52.37484982137914
 20
59.99499407182951
 30
0.0
 11
-51.8139509449746
 21
59.99499407182951
 31
0.0
 12
-52.37484982137914
 22
59.85476935272828
 32
0.0
 13
-51.8139509449746
 23
59.85476935272828
 33
0.0
  0
SOLID
  5
6A0
330
5DC
100
AcDbEntity
  8
RAHM2
100
AcDbTrace
 10
-52.23462510227792
 20
59.85476935272828
 30
0.0
 11
-51.67372622587357
 21
59.85476935272828
 31
0.0
 12
-52.23462510227792
 22
59.71454463362724
 32
0.0
 13
-51.67372622587357
 23
59.71454463362724
 33
0.0
  0
SOLID
  5
6A1
330
5DC
100
AcDbEntity
  8
RAHM2
100
AcDbTrace
 10
-52.23462510227792
 20
59.71454463362724
 30
0.0
 11
-51.53350150677233
 21
59.71454463362724
 31
0.0
 12
-52.23462510227792
 22
59.5743199145262
 32
0.0
 13
-51.53350150677233
 23
59.5743199145262
 33
0.0
  0
SOLID
  5
6A2
330
5DC
100
AcDbEntity
  8
RAHM2
100
AcDbTrace
 10
-52.23462510227792
 20
59.5743199145262
 30
0.0
 11
-51.3932767876713
 21
59.5743199145262
 31
0.0
 12
-52.23462510227792
 22
59.43409519542497
 32
0.0
 13
-51.3932767876713
 23
59.43409519542497
 33
0.0
  0
SOLID
  5
6A3
330
5DC
100
AcDbEntity
  8
RAHM2
100
AcDbTrace
 10
-52.09440038317687
 20
59.43409519542497
 30
0.0
 11
-51.3932767876713
 21
59.43409519542497
 31
0.0
 12
-52.09440038317687
 22
59.29387047632393
 32
0.0
 13
-51.3932767876713
 23
59.29387047632393
 33
0.0
  0
SOLID
  5
6A4
330
5DC
100
AcDbEntity
  8
RAHM2
100
AcDbTrace
 10
-52.65529925958141
 20
57.75139856621155
 30
0.0
 11
-51.67372622587357
 21
57.75139856621155
 31
0.0
 12
-52.65529925958141
 22
57.61117384711032
 32
0.0
 13
-51.67372622587357
 23
57.61117384711032
 33
0.0
  0
SOLID
  5
6A5
330
5DC
100
AcDbEntity
  8
RAHM2
100
AcDbTrace
 10
-59.80675993373861
 20
59.99499407182951
 30
0.0
 11
-59.38608577643529
 21
59.99499407182951
 31
0.0
 12
-59.80675993373861
 22
59.85476935272828
 32
0.0
 13
-59.38608577643529
 23
59.85476935272828
 33
0.0
  0
SOLID
  5
6A6
330
5DC
100
AcDbEntity
  8
RAHM2
100
AcDbTrace
 10
-59.80675993373861
 20
59.85476935272828
 30
0.0
 11
-59.66653521463756
 21
59.85476935272828
 31
0.0
 12
-59.80675993373861
 22
59.71454463362724
 32
0.0
 13
-59.66653521463756
 23
59.71454463362724
 33
0.0
  0
SOLID
  5
6A7
330
5DC
100
AcDbEntity
  8
RAHM2
100
AcDbTrace
 10
-59.80675993373861
 20
58.17207272351486
 30
0.0
 11
-59.10563633823302
 21
58.17207272351486
 31
0.0
 12
-59.80675993373861
 22
58.03184800441382
 32
0.0
 13
-59.10563633823302
 23
58.03184800441382
 33
0.0
  0
SOLID
  5
6A8
330
5DC
100
AcDbEntity
  8
RAHM2
100
AcDbTrace
 10
-59.80675993373861
 20
58.03184800441382
 30
0.0
 11
-59.24586105733425
 21
58.03184800441382
 31
0.0
 12
-59.80675993373861
 22
57.89162328531259
 32
0.0
 13
-59.24586105733425
 23
57.89162328531259
 33
0.0
  0
SOLID
  5
6A9
330
5DC
100
AcDbEntity
  8
RAHM2
100
AcDbTrace
 10
-59.80675993373861
 20
57.89162328531259
 30
0.0
 11
-58.26428802362641
 21
57.89162328531259
 31
0.0
 12
-59.80675993373861
 22
57.75139856621155
 32
0.0
 13
-58.26428802362641
 23
57.75139856621155
 33
0.0
  0
SOLID
  5
6AA
330
5DC
100
AcDbEntity
  8
RAHM2
100
AcDbTrace
 10
-59.80675993373861
 20
57.75139856621155
 30
0.0
 11
-58.68496218092971
 21
57.75139856621155
 31
0.0
 12
-59.80675993373861
 22
57.61117384711032
 32
0.0
 13
-58.68496218092971
 23
57.61117384711032
 33
0.0
  0
SOLID
  5
6AB
330
5DC
100
AcDbEntity
  8
RAHM2
100
AcDbTrace
 10
-59.80675993373861
 20
57.61117384711032
 30
0.0
 11
-59.24586105733425
 21
57.61117384711032
 31
0.0
 12
-59.80675993373861
 22
57.47094912800928
 32
0.0
 13
-59.24586105733425
 23
57.47094912800928
 33
0.0
  0
SOLID
  5
6AC
330
5DC
100
AcDbEntity
  8
RAHM2
100
AcDbTrace
 10
-59.94698465283983
 20
57.47094912800928
 30
0.0
 11
-59.24586105733425
 21
57.47094912800928
 31
0.0
 12
-59.94698465283983
 22
57.19049968980701
 32
0.0
 13
-59.24586105733425
 23
57.19049968980701
 33
0.0
  0
SOLID
  5
6AD
330
5DC
100
AcDbEntity
  8
RAHM2
100
AcDbTrace
 10
-59.94698465283983
 20
57.19049968980701
 30
0.0
 11
-59.38608577643529
 21
57.19049968980701
 31
0.0
 12
-59.94698465283983
 22
56.7698255325037
 32
0.0
 13
-59.38608577643529
 23
56.7698255325037
 33
0.0
  0
SOLID
  5
6AE
330
5DC
100
AcDbEntity
  8
RAHM2
100
AcDbTrace
 10
-60.08720937194087
 20
56.7698255325037
 30
0.0
 11
-59.52631049553652
 21
56.7698255325037
 31
0.0
 12
-60.08720937194087
 22
56.62960081340248
 32
0.0
 13
-59.52631049553652
 23
56.62960081340248
 33
0.0
  0
SOLID
  5
6AF
330
5DC
100
AcDbEntity
  8
RAHM2
100
AcDbTrace
 10
-60.08720937194087
 20
56.62960081340248
 30
0.0
 11
-59.52631049553652
 21
56.62960081340248
 31
0.0
 12
-60.08720937194087
 22
56.34915137520021
 32
0.0
 13
-59.52631049553652
 23
56.34915137520021
 33
0.0
  0
SOLID
  5
6B0
330
5DC
100
AcDbEntity
  8
RAHM2
100
AcDbTrace
 10
-60.08720937194087
 20
56.34915137520021
 30
0.0
 11
-59.38608577643529
 21
56.34915137520021
 31
0.0
 12
-60.08720937194087
 22
56.20892665609916
 32
0.0
 13
-59.38608577643529
 23
56.20892665609916
 33
0.0
  0
SOLID
  5
6B1
330
5DC
100
AcDbEntity
  8
RAHM2
100
AcDbTrace
 10
-60.64810824834541
 20
56.20892665609916
 30
0.0
 11
-58.96541161913198
 21
56.20892665609916
 31
0.0
 12
-60.64810824834541
 22
56.06870193699812
 32
0.0
 13
-58.96541161913198
 23
56.06870193699812
 33
0.0
  0
SOLID
  5
6B2
330
5DC
100
AcDbEntity
  8
RAHM2
100
AcDbTrace
 10
-66.81799588879494
 20
61.25701654373962
 30
0.0
 11
-66.2570970123904
 21
61.25701654373962
 31
0.0
 12
-66.81799588879494
 22
61.1167918246384
 32
0.0
 13
-66.2570970123904
 23
61.1167918246384
 33
0.0
  0
SOLID
  5
6B3
330
5DC
100
AcDbEntity
  8
RAHM2
100
AcDbTrace
 10
-63.87327678767121
 20
62.09836485834642
 30
0.0
 11
-63.45260263036791
 21
62.09836485834642
 31
0.0
 12
-63.87327678767121
 22
61.9581401392452
 32
0.0
 13
-63.45260263036791
 23
61.9581401392452
 33
0.0
  0
SOLID
  5
6B4
330
5DC
100
AcDbEntity
  8
RAHM2
100
AcDbTrace
 10
-64.57440038317698
 20
61.9581401392452
 30
0.0
 11
-62.75147903486232
 21
61.9581401392452
 31
0.0
 12
-64.57440038317698
 22
61.81791542014416
 32
0.0
 13
-62.75147903486232
 23
61.81791542014416
 33
0.0
  0
SOLID
  5
6B5
330
5DC
100
AcDbEntity
  8
RAHM2
100
AcDbTrace
 10
-64.85484982137906
 20
61.81791542014416
 30
0.0
 11
-62.47102959666006
 21
61.81791542014416
 31
0.0
 12
-64.85484982137906
 22
61.67769070104293
 32
0.0
 13
-62.47102959666006
 23
61.67769070104293
 33
0.0
  0
SOLID
  5
6B6
330
5DC
100
AcDbEntity
  8
RAHM2
100
AcDbTrace
 10
-64.99507454048028
 20
61.67769070104293
 30
0.0
 11
-62.33080487755883
 21
61.67769070104293
 31
0.0
 12
-64.99507454048028
 22
61.53746598194189
 32
0.0
 13
-62.33080487755883
 23
61.53746598194189
 33
0.0
  0
SOLID
  5
6B7
330
5DC
100
AcDbEntity
  8
RAHM2
100
AcDbTrace
 10
-65.4157486977836
 20
61.25701654373962
 30
0.0
 11
-63.73305206857017
 21
61.25701654373962
 31
0.0
 12
-65.4157486977836
 22
61.1167918246384
 32
0.0
 13
-63.73305206857017
 23
61.1167918246384
 33
0.0
  0
SOLID
  5
6B8
330
5DC
100
AcDbEntity
  8
RAHM2
100
AcDbTrace
 10
-63.59282734946894
 20
61.25701654373962
 30
0.0
 11
-61.91013072025552
 21
61.25701654373962
 31
0.0
 12
-63.59282734946894
 22
61.1167918246384
 32
0.0
 13
-61.91013072025552
 23
61.1167918246384
 33
0.0
  0
SOLID
  5
6B9
330
5DC
100
AcDbEntity
  8
RAHM2
100
AcDbTrace
 10
-65.55597341688482
 20
61.1167918246384
 30
0.0
 11
-64.01350150677244
 21
61.1167918246384
 31
0.0
 12
-65.55597341688482
 22
60.97656710553735
 32
0.0
 13
-64.01350150677244
 23
60.97656710553735
 33
0.0
  0
SOLID
  5
6BA
330
5DC
100
AcDbEntity
  8
RAHM2
100
AcDbTrace
 10
-65.55597341688482
 20
60.97656710553735
 30
0.0
 11
-64.15372622587348
 21
60.97656710553735
 31
0.0
 12
-65.55597341688482
 22
60.83634238643631
 32
0.0
 13
-64.15372622587348
 23
60.83634238643631
 33
0.0
  0
SOLID
  5
6BB
330
5DC
100
AcDbEntity
  8
RAHM2
100
AcDbTrace
 10
-63.17215319216564
 20
61.1167918246384
 30
0.0
 11
-61.76990600115448
 21
61.1167918246384
 31
0.0
 12
-63.17215319216564
 22
60.97656710553735
 32
0.0
 13
-61.76990600115448
 23
60.97656710553735
 33
0.0
  0
SOLID
  5
6BC
330
5DC
100
AcDbEntity
  8
RAHM2
100
AcDbTrace
 10
-63.03192847306459
 20
60.97656710553735
 30
0.0
 11
-61.76990600115448
 21
60.97656710553735
 31
0.0
 12
-63.03192847306459
 22
60.83634238643631
 32
0.0
 13
-61.76990600115448
 23
60.83634238643631
 33
0.0
  0
SOLID
  5
6BD
330
5DC
100
AcDbEntity
  8
RAHM2
100
AcDbTrace
 10
-65.69619813598587
 20
60.83634238643631
 30
0.0
 11
-64.29395094497471
 21
60.83634238643631
 31
0.0
 12
-65.69619813598587
 22
60.13521879093055
 32
0.0
 13
-64.29395094497471
 23
60.13521879093055
 33
0.0
  0
SOLID
  5
6BE
330
5DC
100
AcDbEntity
  8
RAHM2
100
AcDbTrace
 10
-65.83642285508691
 20
60.13521879093055
 30
0.0
 11
-64.43417566407575
 21
60.13521879093055
 31
0.0
 12
-65.83642285508691
 22
59.99499407182951
 32
0.0
 13
-64.43417566407575
 23
59.99499407182951
 33
0.0
  0
SOLID
  5
6BF
330
5DC
100
AcDbEntity
  8
RAHM2
100
AcDbTrace
 10
-63.03192847306459
 20
60.83634238643631
 30
0.0
 11
-61.62968128205325
 21
60.83634238643631
 31
0.0
 12
-63.03192847306459
 22
60.41566822913281
 32
0.0
 13
-61.62968128205325
 23
60.41566822913281
 33
0.0
  0
SOLID
  5
6C0
330
5DC
100
AcDbEntity
  8
RAHM2
100
AcDbTrace
 10
-62.89170375396337
 20
60.41566822913281
 30
0.0
 11
-61.48945656295222
 21
60.41566822913281
 31
0.0
 12
-62.89170375396337
 22
59.99499407182951
 32
0.0
 13
-61.48945656295222
 23
59.99499407182951
 33
0.0
  0
SOLID
  5
6C1
330
5DC
100
AcDbEntity
  8
RAHM2
100
AcDbTrace
 10
-65.83642285508691
 20
59.99499407182951
 30
0.0
 11
-64.43417566407575
 21
59.99499407182951
 31
0.0
 12
-65.83642285508691
 22
59.71454463362724
 32
0.0
 13
-64.43417566407575
 23
59.71454463362724
 33
0.0
  0
SOLID
  5
6C2
330
5DC
100
AcDbEntity
  8
RAHM2
100
AcDbTrace
 10
-65.69619813598587
 20
59.71454463362724
 30
0.0
 11
-64.29395094497471
 21
59.71454463362724
 31
0.0
 12
-65.69619813598587
 22
59.01342103812166
 32
0.0
 13
-64.29395094497471
 23
59.01342103812166
 33
0.0
  0
SOLID
  5
6C3
330
5DC
100
AcDbEntity
  8
RAHM2
100
AcDbTrace
 10
-62.89170375396337
 20
59.99499407182951
 30
0.0
 11
-61.48945656295222
 21
59.99499407182951
 31
0.0
 12
-62.89170375396337
 22
59.29387047632393
 32
0.0
 13
-61.48945656295222
 23
59.29387047632393
 33
0.0
  0
SOLID
  5
6C4
330
5DC
100
AcDbEntity
  8
RAHM2
100
AcDbTrace
 10
-63.03192847306459
 20
59.29387047632393
 30
0.0
 11
-61.62968128205325
 21
59.29387047632393
 31
0.0
 12
-63.03192847306459
 22
59.01342103812166
 32
0.0
 13
-61.62968128205325
 23
59.01342103812166
 33
0.0
  0
SOLID
  5
6C5
330
5DC
100
AcDbEntity
  8
RAHM2
100
AcDbTrace
 10
-65.69619813598587
 20
59.01342103812166
 30
0.0
 11
-64.29395094497471
 21
59.01342103812166
 31
0.0
 12
-65.69619813598587
 22
58.87319631902044
 32
0.0
 13
-64.29395094497471
 23
58.87319631902044
 33
0.0
  0
SOLID
  5
6C6
330
5DC
100
AcDbEntity
  8
RAHM2
100
AcDbTrace
 10
-63.03192847306459
 20
59.01342103812166
 30
0.0
 11
-61.62968128205325
 21
59.01342103812166
 31
0.0
 12
-63.03192847306459
 22
58.87319631902044
 32
0.0
 13
-61.62968128205325
 23
58.87319631902044
 33
0.0
  0
SOLID
  5
6C7
330
5DC
100
AcDbEntity
  8
RAHM2
100
AcDbTrace
 10
-65.55597341688482
 20
58.87319631902044
 30
0.0
 11
-64.15372622587348
 21
58.87319631902044
 31
0.0
 12
-65.55597341688482
 22
58.73297159991939
 32
0.0
 13
-64.15372622587348
 23
58.73297159991939
 33
0.0
  0
SOLID
  5
6C8
330
5DC
100
AcDbEntity
  8
RAHM2
100
AcDbTrace
 10
-65.4157486977836
 20
58.73297159991939
 30
0.0
 11
-64.01350150677244
 21
58.73297159991939
 31
0.0
 12
-65.4157486977836
 22
58.59274688081836
 32
0.0
 13
-64.01350150677244
 23
58.59274688081836
 33
0.0
  0
SOLID
  5
6C9
330
5DC
100
AcDbEntity
  8
RAHM2
100
AcDbTrace
 10
-63.17215319216564
 20
58.87319631902044
 30
0.0
 11
-61.76990600115448
 21
58.87319631902044
 31
0.0
 12
-63.17215319216564
 22
58.73297159991939
 32
0.0
 13
-61.76990600115448
 23
58.73297159991939
 33
0.0
  0
SOLID
  5
6CA
330
5DC
100
AcDbEntity
  8
RAHM2
100
AcDbTrace
 10
-63.31237791126686
 20
58.73297159991939
 30
0.0
 11
-61.76990600115448
 21
58.73297159991939
 31
0.0
 12
-63.31237791126686
 22
58.59274688081836
 32
0.0
 13
-61.76990600115448
 23
58.59274688081836
 33
0.0
  0
SOLID
  5
6CB
330
5DC
100
AcDbEntity
  8
RAHM2
100
AcDbTrace
 10
-65.4157486977836
 20
58.59274688081836
 30
0.0
 11
-61.91013072025552
 21
58.59274688081836
 31
0.0
 12
-65.4157486977836
 22
58.45252216171712
 32
0.0
 13
-61.91013072025552
 23
58.45252216171712
 33
0.0
  0
SOLID
  5
6CC
330
5DC
100
AcDbEntity
  8
RAHM2
100
AcDbTrace
 10
-65.27552397868255
 20
58.45252216171712
 30
0.0
 11
-62.05035543935675
 21
58.45252216171712
 31
0.0
 12
-65.27552397868255
 22
58.31229744261609
 32
0.0
 13
-62.05035543935675
 23
58.31229744261609
 33
0.0
  0
SOLID
  5
6CD
330
5DC
100
AcDbEntity
  8
RAHM2
100
AcDbTrace
 10
-65.27552397868255
 20
58.31229744261609
 30
0.0
 11
-62.05035543935675
 21
58.31229744261609
 31
0.0
 12
-65.27552397868255
 22
58.17207272351486
 32
0.0
 13
-62.05035543935675
 23
58.17207272351486
 33
0.0
  0
SOLID
  5
6CE
330
5DC
100
AcDbEntity
  8
RAHM2
100
AcDbTrace
 10
-64.99507454048028
 20
58.17207272351486
 30
0.0
 11
-62.33080487755883
 21
58.17207272351486
 31
0.0
 12
-64.99507454048028
 22
58.03184800441382
 32
0.0
 13
-62.33080487755883
 23
58.03184800441382
 33
0.0
  0
SOLID
  5
6CF
330
5DC
100
AcDbEntity
  8
RAHM2
100
AcDbTrace
 10
-64.85484982137906
 20
58.03184800441382
 30
0.0
 11
-62.47102959666006
 21
58.03184800441382
 31
0.0
 12
-64.85484982137906
 22
57.89162328531259
 32
0.0
 13
-62.47102959666006
 23
57.89162328531259
 33
0.0
  0
SOLID
  5
6D0
330
5DC
100
AcDbEntity
  8
RAHM2
100
AcDbTrace
 10
-64.71462510227802
 20
57.89162328531259
 30
0.0
 11
-62.6112543157611
 21
57.89162328531259
 31
0.0
 12
-64.71462510227802
 22
57.75139856621155
 32
0.0
 13
-62.6112543157611
 23
57.75139856621155
 33
0.0
  0
SOLID
  5
6D1
330
5DC
100
AcDbEntity
  8
RAHM2
100
AcDbTrace
 10
-64.15372622587348
 20
57.75139856621155
 30
0.0
 11
-63.17215319216564
 21
57.75139856621155
 31
0.0
 12
-64.15372622587348
 22
57.61117384711032
 32
0.0
 13
-63.17215319216564
 23
57.61117384711032
 33
0.0
  0
SOLID
  5
6D2
330
5DC
100
AcDbEntity
  8
RAHM2
100
AcDbTrace
 10
-58.82518690003076
 20
61.1167918246384
 30
0.0
 11
-58.54473746182849
 21
61.1167918246384
 31
0.0
 12
-58.82518690003076
 22
60.97656710553735
 32
0.0
 13
-58.54473746182849
 23
60.97656710553735
 33
0.0
  0
SOLID
  5
6D3
330
5DC
100
AcDbEntity
  8
RAHM2
100
AcDbTrace
 10
-59.10563633823302
 20
60.97656710553735
 30
0.0
 11
-58.54473746182849
 21
60.97656710553735
 31
0.0
 12
-59.10563633823302
 22
60.83634238643631
 32
0.0
 13
-58.54473746182849
 23
60.83634238643631
 33
0.0
  0
SOLID
  5
6D4
330
5DC
100
AcDbEntity
  8
RAHM2
100
AcDbTrace
 10
-59.10563633823302
 20
60.83634238643631
 30
0.0
 11
-58.54473746182849
 21
60.83634238643631
 31
0.0
 12
-59.10563633823302
 22
60.69611766733508
 32
0.0
 13
-58.54473746182849
 23
60.69611766733508
 33
0.0
  0
SOLID
  5
6D5
330
5DC
100
AcDbEntity
  8
RAHM2
100
AcDbTrace
 10
-57.70338914722187
 20
60.83634238643631
 30
0.0
 11
-57.4229397090196
 21
60.83634238643631
 31
0.0
 12
-57.70338914722187
 22
60.69611766733508
 32
0.0
 13
-57.4229397090196
 23
60.69611766733508
 33
0.0
  0
SOLID
  5
6D6
330
5DC
100
AcDbEntity
  8
RAHM2
100
AcDbTrace
 10
-59.10563633823302
 20
60.69611766733508
 30
0.0
 11
-58.54473746182849
 21
60.69611766733508
 31
0.0
 12
-59.10563633823302
 22
60.55589294823405
 32
0.0
 13
-58.54473746182849
 23
60.55589294823405
 33
0.0
  0
SOLID
  5
6D7
330
5DC
100
AcDbEntity
  8
RAHM2
100
AcDbTrace
 10
-58.26428802362641
 20
60.69611766733508
 30
0.0
 11
-57.14249027081733
 21
60.69611766733508
 31
0.0
 12
-58.26428802362641
 22
60.55589294823405
 32
0.0
 13
-57.14249027081733
 23
60.55589294823405
 33
0.0
  0
SOLID
  5
6D8
330
5DC
100
AcDbEntity
  8
RAHM2
100
AcDbTrace
 10
-59.10563633823302
 20
60.55589294823405
 30
0.0
 11
-58.68496218092971
 21
60.55589294823405
 31
0.0
 12
-59.10563633823302
 22
60.41566822913281
 32
0.0
 13
-58.68496218092971
 23
60.41566822913281
 33
0.0
  0
SOLID
  5
6D9
330
5DC
100
AcDbEntity
  8
RAHM2
100
AcDbTrace
 10
-58.54473746182849
 20
60.55589294823405
 30
0.0
 11
-57.98383858542414
 21
60.55589294823405
 31
0.0
 12
-58.54473746182849
 22
60.41566822913281
 32
0.0
 13
-57.98383858542414
 23
60.41566822913281
 33
0.0
  0
SOLID
  5
6DA
330
5DC
100
AcDbEntity
  8
RAHM2
100
AcDbTrace
 10
-57.84361386632291
 20
60.55589294823405
 30
0.0
 11
-57.00226555171629
 21
60.55589294823405
 31
0.0
 12
-57.84361386632291
 22
60.41566822913281
 32
0.0
 13
-57.00226555171629
 23
60.41566822913281
 33
0.0
  0
SOLID
  5
6DB
330
5DC
100
AcDbEntity
  8
RAHM2
100
AcDbTrace
 10
-59.10563633823302
 20
60.41566822913281
 30
0.0
 11
-58.40451274272744
 21
60.41566822913281
 31
0.0
 12
-59.10563633823302
 22
60.27544351003178
 32
0.0
 13
-58.40451274272744
 23
60.27544351003178
 33
0.0
  0
SOLID
  5
6DC
330
5DC
100
AcDbEntity
  8
RAHM2
100
AcDbTrace
 10
-57.70338914722187
 20
60.41566822913281
 30
0.0
 11
-57.00226555171629
 21
60.41566822913281
 31
0.0
 12
-57.70338914722187
 22
60.27544351003178
 32
0.0
 13
-57.00226555171629
 23
60.27544351003178
 33
0.0
  0
SOLID
  5
6DD
330
5DC
100
AcDbEntity
  8
RAHM2
100
AcDbTrace
 10
-59.24586105733425
 20
60.27544351003178
 30
0.0
 11
-58.68496218092971
 21
60.27544351003178
 31
0.0
 12
-59.24586105733425
 22
60.13521879093055
 32
0.0
 13
-58.68496218092971
 23
60.13521879093055
 33
0.0
  0
SOLID
  5
6DE
330
5DC
100
AcDbEntity
  8
RAHM2
100
AcDbTrace
 10
-57.56316442812064
 20
60.27544351003178
 30
0.0
 11
-57.00226555171629
 21
60.27544351003178
 31
0.0
 12
-57.56316442812064
 22
60.13521879093055
 32
0.0
 13
-57.00226555171629
 23
60.13521879093055
 33
0.0
  0
SOLID
  5
6DF
330
5DC
100
AcDbEntity
  8
RAHM2
100
AcDbTrace
 10
-59.38608577643529
 20
60.13521879093055
 30
0.0
 11
-58.68496218092971
 21
60.13521879093055
 31
0.0
 12
-59.38608577643529
 22
59.99499407182951
 32
0.0
 13
-58.68496218092971
 23
59.99499407182951
 33
0.0
  0
SOLID
  5
6E0
330
5DC
100
AcDbEntity
  8
RAHM2
100
AcDbTrace
 10
-57.56316442812064
 20
60.13521879093055
 30
0.0
 11
-57.00226555171629
 21
60.13521879093055
 31
0.0
 12
-57.56316442812064
 22
59.99499407182951
 32
0.0
 13
-57.00226555171629
 23
59.99499407182951
 33
0.0
  0
SOLID
  5
6E1
330
5DC
100
AcDbEntity
  8
RAHM2
100
AcDbTrace
 10
-59.38608577643529
 20
59.99499407182951
 30
0.0
 11
-58.68496218092971
 21
59.99499407182951
 31
0.0
 12
-59.38608577643529
 22
59.85476935272828
 32
0.0
 13
-58.68496218092971
 23
59.85476935272828
 33
0.0
  0
SOLID
  5
6E2
330
5DC
100
AcDbEntity
  8
RAHM2
100
AcDbTrace
 10
-59.38608577643529
 20
59.85476935272828
 30
0.0
 11
-58.82518690003076
 21
59.85476935272828
 31
0.0
 12
-59.38608577643529
 22
59.71454463362724
 32
0.0
 13
-58.82518690003076
 23
59.71454463362724
 33
0.0
  0
SOLID
  5
6E3
330
5DC
100
AcDbEntity
  8
RAHM2
100
AcDbTrace
 10
-57.56316442812064
 20
59.99499407182951
 30
0.0
 11
-57.00226555171629
 21
59.99499407182951
 31
0.0
 12
-57.56316442812064
 22
59.71454463362724
 32
0.0
 13
-57.00226555171629
 23
59.71454463362724
 33
0.0
  0
SOLID
  5
6E4
330
5DC
100
AcDbEntity
  8
RAHM2
100
AcDbTrace
 10
-59.38608577643529
 20
59.71454463362724
 30
0.0
 11
-58.82518690003076
 21
59.71454463362724
 31
0.0
 12
-59.38608577643529
 22
59.43409519542497
 32
0.0
 13
-58.82518690003076
 23
59.43409519542497
 33
0.0
  0
SOLID
  5
6E5
330
5DC
100
AcDbEntity
  8
RAHM2
100
AcDbTrace
 10
-59.52631049553652
 20
59.43409519542497
 30
0.0
 11
-58.82518690003076
 21
59.43409519542497
 31
0.0
 12
-59.52631049553652
 22
59.15364575722271
 32
0.0
 13
-58.82518690003076
 23
59.15364575722271
 33
0.0
  0
SOLID
  5
6E6
330
5DC
100
AcDbEntity
  8
RAHM2
100
AcDbTrace
 10
-57.56316442812064
 20
59.71454463362724
 30
0.0
 11
-57.00226555171629
 21
59.71454463362724
 31
0.0
 12
-57.56316442812064
 22
59.43409519542497
 32
0.0
 13
-57.00226555171629
 23
59.43409519542497
 33
0.0
  0
SOLID
  5
6E7
330
5DC
100
AcDbEntity
  8
RAHM2
100
AcDbTrace
 10
-57.56316442812064
 20
59.43409519542497
 30
0.0
 11
-57.14249027081733
 21
59.43409519542497
 31
0.0
 12
-57.56316442812064
 22
59.29387047632393
 32
0.0
 13
-57.14249027081733
 23
59.29387047632393
 33
0.0
  0
SOLID
  5
6E8
330
5DC
100
AcDbEntity
  8
RAHM2
100
AcDbTrace
 10
-57.70338914722187
 20
59.29387047632393
 30
0.0
 11
-57.14249027081733
 21
59.29387047632393
 31
0.0
 12
-57.70338914722187
 22
59.15364575722271
 32
0.0
 13
-57.14249027081733
 23
59.15364575722271
 33
0.0
  0
SOLID
  5
6E9
330
5DC
100
AcDbEntity
  8
RAHM2
100
AcDbTrace
 10
-59.52631049553652
 20
59.15364575722271
 30
0.0
 11
-58.96541161913198
 21
59.15364575722271
 31
0.0
 12
-59.52631049553652
 22
59.01342103812166
 32
0.0
 13
-58.96541161913198
 23
59.01342103812166
 33
0.0
  0
SOLID
  5
6EA
330
5DC
100
AcDbEntity
  8
RAHM2
100
AcDbTrace
 10
-57.70338914722187
 20
59.15364575722271
 30
0.0
 11
-57.14249027081733
 21
59.15364575722271
 31
0.0
 12
-57.70338914722187
 22
59.01342103812166
 32
0.0
 13
-57.14249027081733
 23
59.01342103812166
 33
0.0
  0
SOLID
  5
6EB
330
5DC
100
AcDbEntity
  8
RAHM2
100
AcDbTrace
 10
-59.52631049553652
 20
59.01342103812166
 30
0.0
 11
-58.96541161913198
 21
59.01342103812166
 31
0.0
 12
-59.52631049553652
 22
58.73297159991939
 32
0.0
 13
-58.96541161913198
 23
58.73297159991939
 33
0.0
  0
SOLID
  5
6EC
330
5DC
100
AcDbEntity
  8
RAHM2
100
AcDbTrace
 10
-59.66653521463756
 20
58.73297159991939
 30
0.0
 11
-58.96541161913198
 21
58.73297159991939
 31
0.0
 12
-59.66653521463756
 22
58.59274688081836
 32
0.0
 13
-58.96541161913198
 23
58.59274688081836
 33
0.0
  0
SOLID
  5
6ED
330
5DC
100
AcDbEntity
  8
RAHM2
100
AcDbTrace
 10
-59.66653521463756
 20
58.59274688081836
 30
0.0
 11
-59.10563633823302
 21
58.59274688081836
 31
0.0
 12
-59.66653521463756
 22
58.45252216171712
 32
0.0
 13
-59.10563633823302
 23
58.45252216171712
 33
0.0
  0
SOLID
  5
6EE
330
5DC
100
AcDbEntity
  8
RAHM2
100
AcDbTrace
 10
-57.70338914722187
 20
59.01342103812166
 30
0.0
 11
-57.14249027081733
 21
59.01342103812166
 31
0.0
 12
-57.70338914722187
 22
58.87319631902044
 32
0.0
 13
-57.14249027081733
 23
58.87319631902044
 33
0.0
  0
SOLID
  5
6EF
330
5DC
100
AcDbEntity
  8
RAHM2
100
AcDbTrace
 10
-57.84361386632291
 20
58.87319631902044
 30
0.0
 11
-57.28271498991837
 21
58.87319631902044
 31
0.0
 12
-57.84361386632291
 22
58.73297159991939
 32
0.0
 13
-57.28271498991837
 23
58.73297159991939
 33
0.0
  0
SOLID
  5
6F0
330
5DC
100
AcDbEntity
  8
RAHM2
100
AcDbTrace
 10
-57.84361386632291
 20
58.73297159991939
 30
0.0
 11
-57.4229397090196
 21
58.73297159991939
 31
0.0
 12
-57.84361386632291
 22
58.59274688081836
 32
0.0
 13
-57.4229397090196
 23
58.59274688081836
 33
0.0
  0
SOLID
  5
6F1
330
5DC
100
AcDbEntity
  8
RAHM2
100
AcDbTrace
 10
-57.98383858542414
 20
58.59274688081836
 30
0.0
 11
-57.4229397090196
 21
58.59274688081836
 31
0.0
 12
-57.98383858542414
 22
58.45252216171712
 32
0.0
 13
-57.4229397090196
 23
58.45252216171712
 33
0.0
  0
SOLID
  5
6F2
330
5DC
100
AcDbEntity
  8
RAHM2
100
AcDbTrace
 10
-59.66653521463756
 20
58.45252216171712
 30
0.0
 11
-59.10563633823302
 21
58.45252216171712
 31
0.0
 12
-59.66653521463756
 22
58.17207272351486
 32
0.0
 13
-59.10563633823302
 23
58.17207272351486
 33
0.0
  0
SOLID
  5
6F3
330
5DC
100
AcDbEntity
  8
RAHM2
100
AcDbTrace
 10
-58.12406330452517
 20
58.45252216171712
 30
0.0
 11
-57.56316442812064
 21
58.45252216171712
 31
0.0
 12
-58.12406330452517
 22
58.31229744261609
 32
0.0
 13
-57.56316442812064
 23
58.31229744261609
 33
0.0
  0
SOLID
  5
6F4
330
5DC
100
AcDbEntity
  8
RAHM2
100
AcDbTrace
 10
-58.26428802362641
 20
58.31229744261609
 30
0.0
 11
-57.70338914722187
 21
58.31229744261609
 31
0.0
 12
-58.26428802362641
 22
58.17207272351486
 32
0.0
 13
-57.70338914722187
 23
58.17207272351486
 33
0.0
  0
SOLID
  5
6F5
330
5DC
100
AcDbEntity
  8
RAHM2
100
AcDbTrace
 10
-58.40451274272744
 20
58.17207272351486
 30
0.0
 11
-57.84361386632291
 21
58.17207272351486
 31
0.0
 12
-58.40451274272744
 22
58.03184800441382
 32
0.0
 13
-57.84361386632291
 23
58.03184800441382
 33
0.0
  0
SOLID
  5
6F6
330
5DC
100
AcDbEntity
  8
RAHM2
100
AcDbTrace
 10
-58.54473746182849
 20
58.03184800441382
 30
0.0
 11
-58.12406330452517
 21
58.03184800441382
 31
0.0
 12
-58.54473746182849
 22
57.89162328531259
 32
0.0
 13
-58.12406330452517
 23
57.89162328531259
 33
0.0
  0
SOLID
  5
6F7
330
5DC
100
AcDbEntity
  8
RAHM2
100
AcDbTrace
 10
-54.33799588879484
 20
60.83634238643631
 30
0.0
 11
-53.49664757418803
 21
60.83634238643631
 31
0.0
 12
-54.33799588879484
 22
60.69611766733508
 32
0.0
 13
-53.49664757418803
 23
60.69611766733508
 33
0.0
  0
SOLID
  5
6F8
330
5DC
100
AcDbEntity
  8
RAHM2
100
AcDbTrace
 10
-54.89889476519937
 20
60.69611766733508
 30
0.0
 11
-53.49664757418803
 21
60.69611766733508
 31
0.0
 12
-54.89889476519937
 22
60.55589294823405
 32
0.0
 13
-53.49664757418803
 23
60.55589294823405
 33
0.0
  0
SOLID
  5
6F9
330
5DC
100
AcDbEntity
  8
RAHM2
100
AcDbTrace
 10
-55.17934420340164
 20
60.55589294823405
 30
0.0
 11
-54.61844532699711
 21
60.55589294823405
 31
0.0
 12
-55.17934420340164
 22
60.41566822913281
 32
0.0
 13
-54.61844532699711
 23
60.41566822913281
 33
0.0
  0
SOLID
  5
6FA
330
5DC
100
AcDbEntity
  8
RAHM2
100
AcDbTrace
 10
-55.45979364160391
 20
60.41566822913281
 30
0.0
 11
-55.03911948430041
 21
60.41566822913281
 31
0.0
 12
-55.45979364160391
 22
60.27544351003178
 32
0.0
 13
-55.03911948430041
 23
60.27544351003178
 33
0.0
  0
SOLID
  5
6FB
330
5DC
100
AcDbEntity
  8
RAHM2
100
AcDbTrace
 10
-54.05754645059257
 20
60.55589294823405
 30
0.0
 11
-53.49664757418803
 21
60.55589294823405
 31
0.0
 12
-54.05754645059257
 22
60.27544351003178
 32
0.0
 13
-53.49664757418803
 23
60.27544351003178
 33
0.0
  0
SOLID
  5
6FC
330
5DC
100
AcDbEntity
  8
RAHM2
100
AcDbTrace
 10
-55.60001836070495
 20
60.27544351003178
 30
0.0
 11
-55.31956892250268
 21
60.27544351003178
 31
0.0
 12
-55.60001836070495
 22
60.13521879093055
 32
0.0
 13
-55.31956892250268
 23
60.13521879093055
 33
0.0
  0
SOLID
  5
6FD
330
5DC
100
AcDbEntity
  8
RAHM2
100
AcDbTrace
 10
-55.74024307980618
 20
60.13521879093055
 30
0.0
 11
-55.31956892250268
 21
60.13521879093055
 31
0.0
 12
-55.74024307980618
 22
59.99499407182951
 32
0.0
 13
-55.31956892250268
 23
59.99499407182951
 33
0.0
  0
SOLID
  5
6FE
330
5DC
100
AcDbEntity
  8
RAHM2
100
AcDbTrace
 10
-54.05754645059257
 20
60.27544351003178
 30
0.0
 11
-53.63687229328926
 21
60.27544351003178
 31
0.0
 12
-54.05754645059257
 22
60.13521879093055
 32
0.0
 13
-53.63687229328926
 23
60.13521879093055
 33
0.0
  0
SOLID
  5
6FF
330
5DC
100
AcDbEntity
  8
RAHM2
100
AcDbTrace
 10
-54.19777116969379
 20
60.13521879093055
 30
0.0
 11
-53.63687229328926
 21
60.13521879093055
 31
0.0
 12
-54.19777116969379
 22
59.99499407182951
 32
0.0
 13
-53.63687229328926
 23
59.99499407182951
 33
0.0
  0
SOLID
  5
700
330
5DC
100
AcDbEntity
  8
RAHM2
100
AcDbTrace
 10
-55.88046779890722
 20
59.99499407182951
 30
0.0
 11
-55.45979364160391
 21
59.99499407182951
 31
0.0
 12
-55.88046779890722
 22
59.85476935272828
 32
0.0
 13
-55.45979364160391
 23
59.85476935272828
 33
0.0
  0
SOLID
  5
701
330
5DC
100
AcDbEntity
  8
RAHM2
100
AcDbTrace
 10
-56.02069251800826
 20
59.85476935272828
 30
0.0
 11
-55.60001836070495
 21
59.85476935272828
 31
0.0
 12
-56.02069251800826
 22
59.71454463362724
 32
0.0
 13
-55.60001836070495
 23
59.71454463362724
 33
0.0
  0
SOLID
  5
702
330
5DC
100
AcDbEntity
  8
RAHM2
100
AcDbTrace
 10
-54.19777116969379
 20
59.99499407182951
 30
0.0
 11
-53.63687229328926
 21
59.99499407182951
 31
0.0
 12
-54.19777116969379
 22
59.71454463362724
 32
0.0
 13
-53.63687229328926
 23
59.71454463362724
 33
0.0
  0
SOLID
  5
703
330
5DC
100
AcDbEntity
  8
RAHM2
100
AcDbTrace
 10
-56.02069251800826
 20
59.71454463362724
 30
0.0
 11
-55.60001836070495
 21
59.71454463362724
 31
0.0
 12
-56.02069251800826
 22
59.5743199145262
 32
0.0
 13
-55.60001836070495
 23
59.5743199145262
 33
0.0
  0
SOLID
  5
704
330
5DC
100
AcDbEntity
  8
RAHM2
100
AcDbTrace
 10
-56.16091723710948
 20
59.5743199145262
 30
0.0
 11
-55.60001836070495
 21
59.5743199145262
 31
0.0
 12
-56.16091723710948
 22
59.43409519542497
 32
0.0
 13
-55.60001836070495
 23
59.43409519542497
 33
0.0
  0
SOLID
  5
705
330
5DC
100
AcDbEntity
  8
RAHM2
100
AcDbTrace
 10
-54.33799588879484
 20
59.71454463362724
 30
0.0
 11
-53.7770970123903
 21
59.71454463362724
 31
0.0
 12
-54.33799588879484
 22
59.43409519542497
 32
0.0
 13
-53.7770970123903
 23
59.43409519542497
 33
0.0
  0
SOLID
  5
706
330
5DC
100
AcDbEntity
  8
RAHM2
100
AcDbTrace
 10
-56.16091723710948
 20
59.43409519542497
 30
0.0
 11
-55.74024307980618
 21
59.43409519542497
 31
0.0
 12
-56.16091723710948
 22
59.29387047632393
 32
0.0
 13
-55.74024307980618
 23
59.29387047632393
 33
0.0
  0
SOLID
  5
707
330
5DC
100
AcDbEntity
  8
RAHM2
100
AcDbTrace
 10
-56.30114195621053
 20
59.29387047632393
 30
0.0
 11
-55.74024307980618
 21
59.29387047632393
 31
0.0
 12
-56.30114195621053
 22
59.15364575722271
 32
0.0
 13
-55.74024307980618
 23
59.15364575722271
 33
0.0
  0
SOLID
  5
708
330
5DC
100
AcDbEntity
  8
RAHM2
100
AcDbTrace
 10
-54.47822060789606
 20
59.43409519542497
 30
0.0
 11
-53.7770970123903
 21
59.43409519542497
 31
0.0
 12
-54.47822060789606
 22
59.15364575722271
 32
0.0
 13
-53.7770970123903
 23
59.15364575722271
 33
0.0
  0
SOLID
  5
709
330
5DC
100
AcDbEntity
  8
RAHM2
100
AcDbTrace
 10
-56.30114195621053
 20
59.15364575722271
 30
0.0
 11
-55.74024307980618
 21
59.15364575722271
 31
0.0
 12
-56.30114195621053
 22
59.01342103812166
 32
0.0
 13
-55.74024307980618
 23
59.01342103812166
 33
0.0
  0
SOLID
  5
70A
330
5DC
100
AcDbEntity
  8
RAHM2
100
AcDbTrace
 10
-54.61844532699711
 20
59.15364575722271
 30
0.0
 11
-53.7770970123903
 21
59.15364575722271
 31
0.0
 12
-54.61844532699711
 22
59.01342103812166
 32
0.0
 13
-53.7770970123903
 23
59.01342103812166
 33
0.0
  0
SOLID
  5
70B
330
5DC
100
AcDbEntity
  8
RAHM2
100
AcDbTrace
 10
-56.30114195621053
 20
59.01342103812166
 30
0.0
 11
-55.74024307980618
 21
59.01342103812166
 31
0.0
 12
-56.30114195621053
 22
58.73297159991939
 32
0.0
 13
-55.74024307980618
 23
58.73297159991939
 33
0.0
  0
SOLID
  5
70C
330
5DC
100
AcDbEntity
  8
RAHM2
100
AcDbTrace
 10
-56.30114195621053
 20
58.73297159991939
 30
0.0
 11
-55.88046779890722
 21
58.73297159991939
 31
0.0
 12
-56.30114195621053
 22
58.59274688081836
 32
0.0
 13
-55.88046779890722
 23
58.59274688081836
 33
0.0
  0
SOLID
  5
70D
330
5DC
100
AcDbEntity
  8
RAHM2
100
AcDbTrace
 10
-54.61844532699711
 20
59.01342103812166
 30
0.0
 11
-54.47822060789606
 21
59.01342103812166
 31
0.0
 12
-54.61844532699711
 22
58.87319631902044
 32
0.0
 13
-54.47822060789606
 23
58.87319631902044
 33
0.0
  0
SOLID
  5
70E
330
5DC
100
AcDbEntity
  8
RAHM2
100
AcDbTrace
 10
-54.75867004609814
 20
58.87319631902044
 30
0.0
 11
-54.61844532699711
 21
58.87319631902044
 31
0.0
 12
-54.75867004609814
 22
58.73297159991939
 32
0.0
 13
-54.61844532699711
 23
58.73297159991939
 33
0.0
  0
SOLID
  5
70F
330
5DC
100
AcDbEntity
  8
RAHM2
100
AcDbTrace
 10
-54.47822060789606
 20
59.01342103812166
 30
0.0
 11
-53.91732173149152
 21
59.01342103812166
 31
0.0
 12
-54.47822060789606
 22
58.59274688081836
 32
0.0
 13
-53.91732173149152
 23
58.59274688081836
 33
0.0
  0
SOLID
  5
710
330
5DC
100
AcDbEntity
  8
RAHM2
100
AcDbTrace
 10
-56.44136667531175
 20
58.59274688081836
 30
0.0
 11
-55.88046779890722
 21
58.59274688081836
 31
0.0
 12
-56.44136667531175
 22
58.31229744261609
 32
0.0
 13
-55.88046779890722
 23
58.31229744261609
 33
0.0
  0
SOLID
  5
711
330
5DC
100
AcDbEntity
  8
RAHM2
100
AcDbTrace
 10
-54.89889476519937
 20
58.59274688081836
 30
0.0
 11
-54.75867004609814
 21
58.59274688081836
 31
0.0
 12
-54.89889476519937
 22
58.45252216171712
 32
0.0
 13
-54.75867004609814
 23
58.45252216171712
 33
0.0
  0
SOLID
  5
712
330
5DC
100
AcDbEntity
  8
RAHM2
100
AcDbTrace
 10
-55.17934420340164
 20
58.45252216171712
 30
0.0
 11
-54.89889476519937
 21
58.45252216171712
 31
0.0
 12
-55.17934420340164
 22
58.31229744261609
 32
0.0
 13
-54.89889476519937
 23
58.31229744261609
 33
0.0
  0
SOLID
  5
713
330
5DC
100
AcDbEntity
  8
RAHM2
100
AcDbTrace
 10
-54.47822060789606
 20
58.59274688081836
 30
0.0
 11
-53.91732173149152
 21
58.59274688081836
 31
0.0
 12
-54.47822060789606
 22
58.45252216171712
 32
0.0
 13
-53.91732173149152
 23
58.45252216171712
 33
0.0
  0
SOLID
  5
714
330
5DC
100
AcDbEntity
  8
RAHM2
100
AcDbTrace
 10
-54.47822060789606
 20
58.45252216171712
 30
0.0
 11
-54.05754645059257
 21
58.45252216171712
 31
0.0
 12
-54.47822060789606
 22
58.31229744261609
 32
0.0
 13
-54.05754645059257
 23
58.31229744261609
 33
0.0
  0
SOLID
  5
715
330
5DC
100
AcDbEntity
  8
RAHM2
100
AcDbTrace
 10
-56.44136667531175
 20
58.31229744261609
 30
0.0
 11
-55.88046779890722
 21
58.31229744261609
 31
0.0
 12
-56.44136667531175
 22
58.17207272351486
 32
0.0
 13
-55.88046779890722
 23
58.17207272351486
 33
0.0
  0
SOLID
  5
716
330
5DC
100
AcDbEntity
  8
RAHM2
100
AcDbTrace
 10
-55.31956892250268
 20
58.31229744261609
 30
0.0
 11
-55.03911948430041
 21
58.31229744261609
 31
0.0
 12
-55.31956892250268
 22
58.17207272351486
 32
0.0
 13
-55.03911948430041
 23
58.17207272351486
 33
0.0
  0
SOLID
  5
717
330
5DC
100
AcDbEntity
  8
RAHM2
100
AcDbTrace
 10
-54.61844532699711
 20
58.31229744261609
 30
0.0
 11
-54.05754645059257
 21
58.31229744261609
 31
0.0
 12
-54.61844532699711
 22
58.17207272351486
 32
0.0
 13
-54.05754645059257
 23
58.17207272351486
 33
0.0
  0
SOLID
  5
718
330
5DC
100
AcDbEntity
  8
RAHM2
100
AcDbTrace
 10
-56.44136667531175
 20
58.17207272351486
 30
0.0
 11
-55.74024307980618
 21
58.17207272351486
 31
0.0
 12
-56.44136667531175
 22
58.03184800441382
 32
0.0
 13
-55.74024307980618
 23
58.03184800441382
 33
0.0
  0
SOLID
  5
719
330
5DC
100
AcDbEntity
  8
RAHM2
100
AcDbTrace
 10
-55.45979364160391
 20
58.17207272351486
 30
0.0
 11
-55.17934420340164
 21
58.17207272351486
 31
0.0
 12
-55.45979364160391
 22
58.03184800441382
 32
0.0
 13
-55.17934420340164
 23
58.03184800441382
 33
0.0
  0
SOLID
  5
71A
330
5DC
100
AcDbEntity
  8
RAHM2
100
AcDbTrace
 10
-54.61844532699711
 20
58.17207272351486
 30
0.0
 11
-54.05754645059257
 21
58.17207272351486
 31
0.0
 12
-54.61844532699711
 22
58.03184800441382
 32
0.0
 13
-54.05754645059257
 23
58.03184800441382
 33
0.0
  0
SOLID
  5
71B
330
5DC
100
AcDbEntity
  8
RAHM2
100
AcDbTrace
 10
-53.91732173149152
 20
58.17207272351486
 30
0.0
 11
-53.49664757418803
 21
58.17207272351486
 31
0.0
 12
-53.91732173149152
 22
58.03184800441382
 32
0.0
 13
-53.49664757418803
 23
58.03184800441382
 33
0.0
  0
SOLID
  5
71C
330
5DC
100
AcDbEntity
  8
RAHM2
100
AcDbTrace
 10
-56.44136667531175
 20
58.03184800441382
 30
0.0
 11
-55.31956892250268
 21
58.03184800441382
 31
0.0
 12
-56.44136667531175
 22
57.89162328531259
 32
0.0
 13
-55.31956892250268
 23
57.89162328531259
 33
0.0
  0
SOLID
  5
71D
330
5DC
100
AcDbEntity
  8
RAHM2
100
AcDbTrace
 10
-56.30114195621053
 20
57.89162328531259
 30
0.0
 11
-55.45979364160391
 21
57.89162328531259
 31
0.0
 12
-56.30114195621053
 22
57.75139856621155
 32
0.0
 13
-55.45979364160391
 23
57.75139856621155
 33
0.0
  0
SOLID
  5
71E
330
5DC
100
AcDbEntity
  8
RAHM2
100
AcDbTrace
 10
-54.61844532699711
 20
58.03184800441382
 30
0.0
 11
-53.7770970123903
 21
58.03184800441382
 31
0.0
 12
-54.61844532699711
 22
57.89162328531259
 32
0.0
 13
-53.7770970123903
 23
57.89162328531259
 33
0.0
  0
SOLID
  5
71F
330
5DC
100
AcDbEntity
  8
RAHM2
100
AcDbTrace
 10
-54.75867004609814
 20
57.89162328531259
 30
0.0
 11
-54.05754645059257
 21
57.89162328531259
 31
0.0
 12
-54.75867004609814
 22
57.75139856621155
 32
0.0
 13
-54.05754645059257
 23
57.75139856621155
 33
0.0
  0
SOLID
  5
720
330
5DC
100
AcDbEntity
  8
RAHM2
100
AcDbTrace
 10
-56.16091723710948
 20
57.75139856621155
 30
0.0
 11
-55.74024307980618
 21
57.75139856621155
 31
0.0
 12
-56.16091723710948
 22
57.61117384711032
 32
0.0
 13
-55.74024307980618
 23
57.61117384711032
 33
0.0
  0
SOLID
  5
721
330
5DC
100
AcDbEntity
  8
RAHM2
100
AcDbTrace
 10
-54.61844532699711
 20
57.75139856621155
 30
0.0
 11
-54.33799588879484
 21
57.75139856621155
 31
0.0
 12
-54.61844532699711
 22
57.61117384711032
 32
0.0
 13
-54.33799588879484
 23
57.61117384711032
 33
0.0
  0
SOLID
  5
722
330
5DC
100
AcDbEntity
  8
RAHM2
100
AcDbTrace
 10
-52.79552397868245
 20
58.45252216171712
 30
0.0
 11
-52.65529925958141
 21
58.45252216171712
 31
0.0
 12
-52.79552397868245
 22
58.31229744261609
 32
0.0
 13
-52.65529925958141
 23
58.31229744261609
 33
0.0
  0
SOLID
  5
723
330
5DC
100
AcDbEntity
  8
RAHM2
100
AcDbTrace
 10
-52.79552397868245
 20
58.31229744261609
 30
0.0
 11
-52.51507454048018
 21
58.31229744261609
 31
0.0
 12
-52.79552397868245
 22
57.89162328531259
 32
0.0
 13
-52.51507454048018
 23
57.89162328531259
 33
0.0
  0
SOLID
  5
724
330
5DC
100
AcDbEntity
  8
RAHM2
100
AcDbTrace
 10
-52.93574869778367
 20
57.89162328531259
 30
0.0
 11
-52.23462510227792
 21
57.89162328531259
 31
0.0
 12
-52.93574869778367
 22
57.75139856621155
 32
0.0
 13
-52.23462510227792
 23
57.75139856621155
 33
0.0
  0
SOLID
  5
725
330
5DC
100
AcDbEntity
  8
RAHM2
100
AcDbTrace
 10
-45.08316442812072
 20
60.83634238643631
 30
0.0
 11
-44.24181611351392
 21
60.83634238643631
 31
0.0
 12
-45.08316442812072
 22
60.69611766733508
 32
0.0
 13
-44.24181611351392
 23
60.69611766733508
 33
0.0
  0
SOLID
  5
726
330
5DC
100
AcDbEntity
  8
RAHM2
100
AcDbTrace
 10
-45.64406330452526
 20
60.69611766733508
 30
0.0
 11
-44.24181611351392
 21
60.69611766733508
 31
0.0
 12
-45.64406330452526
 22
60.55589294823405
 32
0.0
 13
-44.24181611351392
 23
60.55589294823405
 33
0.0
  0
SOLID
  5
727
330
5DC
100
AcDbEntity
  8
RAHM2
100
AcDbTrace
 10
-44.80271498991846
 20
60.55589294823405
 30
0.0
 11
-44.24181611351392
 21
60.55589294823405
 31
0.0
 12
-44.80271498991846
 22
60.27544351003178
 32
0.0
 13
-44.24181611351392
 23
60.27544351003178
 33
0.0
  0
SOLID
  5
728
330
5DC
100
AcDbEntity
  8
RAHM2
100
AcDbTrace
 10
-44.38204083261514
 20
58.31229744261609
 30
0.0
 11
-44.24181611351392
 21
58.31229744261609
 31
0.0
 12
-44.38204083261514
 22
58.17207272351486
 32
0.0
 13
-44.24181611351392
 23
58.17207272351486
 33
0.0
  0
SOLID
  5
729
330
5DC
100
AcDbEntity
  8
RAHM2
100
AcDbTrace
 10
-44.66249027081741
 20
58.17207272351486
 30
0.0
 11
-44.24181611351392
 21
58.17207272351486
 31
0.0
 12
-44.66249027081741
 22
58.03184800441382
 32
0.0
 13
-44.24181611351392
 23
58.03184800441382
 33
0.0
  0
SOLID
  5
72A
330
5DC
100
AcDbEntity
  8
RAHM2
100
AcDbTrace
 10
-51.53350150677233
 20
60.83634238643631
 30
0.0
 11
-51.11282734946903
 21
60.83634238643631
 31
0.0
 12
-51.53350150677233
 22
60.69611766733508
 32
0.0
 13
-51.11282734946903
 23
60.69611766733508
 33
0.0
  0
SOLID
  5
72B
330
5DC
100
AcDbEntity
  8
RAHM2
100
AcDbTrace
 10
-51.95417566407583
 20
60.69611766733508
 30
0.0
 11
-51.3932767876713
 21
60.69611766733508
 31
0.0
 12
-51.95417566407583
 22
60.55589294823405
 32
0.0
 13
-51.3932767876713
 23
60.55589294823405
 33
0.0
  0
SOLID
  5
72C
330
5DC
100
AcDbEntity
  8
RAHM2
100
AcDbTrace
 10
-51.25305206857007
 20
60.69611766733508
 30
0.0
 11
-50.69215319216572
 21
60.69611766733508
 31
0.0
 12
-51.25305206857007
 22
60.55589294823405
 32
0.0
 13
-50.69215319216572
 23
60.55589294823405
 33
0.0
  0
SOLID
  5
72D
330
5DC
100
AcDbEntity
  8
RAHM2
100
AcDbTrace
 10
-50.97260263036798
 20
60.55589294823405
 30
0.0
 11
-50.69215319216572
 21
60.55589294823405
 31
0.0
 12
-50.97260263036798
 22
60.41566822913281
 32
0.0
 13
-50.69215319216572
 23
60.41566822913281
 33
0.0
  0
SOLID
  5
72E
330
5DC
100
AcDbEntity
  8
RAHM2
100
AcDbTrace
 10
-50.97260263036798
 20
60.41566822913281
 30
0.0
 11
-50.69215319216572
 21
60.41566822913281
 31
0.0
 12
-50.97260263036798
 22
60.27544351003178
 32
0.0
 13
-50.69215319216572
 23
60.27544351003178
 33
0.0
  0
SOLID
  5
72F
330
5DC
100
AcDbEntity
  8
RAHM2
100
AcDbTrace
 10
-50.97260263036798
 20
60.27544351003178
 30
0.0
 11
-50.83237791126676
 21
60.27544351003178
 31
0.0
 12
-50.97260263036798
 22
60.13521879093055
 32
0.0
 13
-50.83237791126676
 23
60.13521879093055
 33
0.0
  0
SOLID
  5
730
330
5DC
100
AcDbEntity
  8
RAHM2
100
AcDbTrace
 10
-51.95417566407583
 20
59.29387047632393
 30
0.0
 11
-51.25305206857007
 21
59.29387047632393
 31
0.0
 12
-51.95417566407583
 22
59.15364575722271
 32
0.0
 13
-51.25305206857007
 23
59.15364575722271
 33
0.0
  0
SOLID
  5
731
330
5DC
100
AcDbEntity
  8
RAHM2
100
AcDbTrace
 10
-51.8139509449746
 20
59.15364575722271
 30
0.0
 11
-51.11282734946903
 21
59.15364575722271
 31
0.0
 12
-51.8139509449746
 22
59.01342103812166
 32
0.0
 13
-51.11282734946903
 23
59.01342103812166
 33
0.0
  0
SOLID
  5
732
330
5DC
100
AcDbEntity
  8
RAHM2
100
AcDbTrace
 10
-51.67372622587357
 20
59.01342103812166
 30
0.0
 11
-50.97260263036798
 21
59.01342103812166
 31
0.0
 12
-51.67372622587357
 22
58.87319631902044
 32
0.0
 13
-50.97260263036798
 23
58.87319631902044
 33
0.0
  0
SOLID
  5
733
330
5DC
100
AcDbEntity
  8
RAHM2
100
AcDbTrace
 10
-51.53350150677233
 20
58.87319631902044
 30
0.0
 11
-50.97260263036798
 21
58.87319631902044
 31
0.0
 12
-51.53350150677233
 22
58.73297159991939
 32
0.0
 13
-50.97260263036798
 23
58.73297159991939
 33
0.0
  0
SOLID
  5
734
330
5DC
100
AcDbEntity
  8
RAHM2
100
AcDbTrace
 10
-51.3932767876713
 20
58.73297159991939
 30
0.0
 11
-50.83237791126676
 21
58.73297159991939
 31
0.0
 12
-51.3932767876713
 22
58.45252216171712
 32
0.0
 13
-50.83237791126676
 23
58.45252216171712
 33
0.0
  0
SOLID
  5
735
330
5DC
100
AcDbEntity
  8
RAHM2
100
AcDbTrace
 10
-51.3932767876713
 20
58.45252216171712
 30
0.0
 11
-50.83237791126676
 21
58.45252216171712
 31
0.0
 12
-51.3932767876713
 22
58.31229744261609
 32
0.0
 13
-50.83237791126676
 23
58.31229744261609
 33
0.0
  0
SOLID
  5
736
330
5DC
100
AcDbEntity
  8
RAHM2
100
AcDbTrace
 10
-51.3932767876713
 20
58.31229744261609
 30
0.0
 11
-50.97260263036798
 21
58.31229744261609
 31
0.0
 12
-51.3932767876713
 22
58.03184800441382
 32
0.0
 13
-50.97260263036798
 23
58.03184800441382
 33
0.0
  0
SOLID
  5
737
330
5DC
100
AcDbEntity
  8
RAHM2
100
AcDbTrace
 10
-51.53350150677233
 20
58.03184800441382
 30
0.0
 11
-51.11282734946903
 21
58.03184800441382
 31
0.0
 12
-51.53350150677233
 22
57.89162328531259
 32
0.0
 13
-51.11282734946903
 23
57.89162328531259
 33
0.0
  0
SOLID
  5
738
330
5DC
100
AcDbEntity
  8
RAHM2
100
AcDbTrace
 10
-51.67372622587357
 20
57.89162328531259
 30
0.0
 11
-51.25305206857007
 21
57.89162328531259
 31
0.0
 12
-51.67372622587357
 22
57.75139856621155
 32
0.0
 13
-51.25305206857007
 23
57.75139856621155
 33
0.0
  0
SOLID
  5
739
330
5DC
100
AcDbEntity
  8
RAHM2
100
AcDbTrace
 10
-48.86923184385107
 20
60.83634238643631
 30
0.0
 11
-48.44855768654776
 21
60.83634238643631
 31
0.0
 12
-48.86923184385107
 22
60.69611766733508
 32
0.0
 13
-48.44855768654776
 23
60.69611766733508
 33
0.0
  0
SOLID
  5
73A
330
5DC
100
AcDbEntity
  8
RAHM2
100
AcDbTrace
 10
-49.28990600115437
 20
60.69611766733508
 30
0.0
 11
-48.72900712474984
 21
60.69611766733508
 31
0.0
 12
-49.28990600115437
 22
60.55589294823405
 32
0.0
 13
-48.72900712474984
 23
60.55589294823405
 33
0.0
  0
SOLID
  5
73B
330
5DC
100
AcDbEntity
  8
RAHM2
100
AcDbTrace
 10
-48.5887824056488
 20
60.69611766733508
 30
0.0
 11
-47.88765881014322
 21
60.69611766733508
 31
0.0
 12
-48.5887824056488
 22
60.55589294823405
 32
0.0
 13
-47.88765881014322
 23
60.55589294823405
 33
0.0
  0
SOLID
  5
73C
330
5DC
100
AcDbEntity
  8
RAHM2
100
AcDbTrace
 10
-49.28990600115437
 20
60.55589294823405
 30
0.0
 11
-49.00945656295211
 21
60.55589294823405
 31
0.0
 12
-49.28990600115437
 22
60.41566822913281
 32
0.0
 13
-49.00945656295211
 23
60.41566822913281
 33
0.0
  0
SOLID
  5
73D
330
5DC
100
AcDbEntity
  8
RAHM2
100
AcDbTrace
 10
-48.30833296744653
 20
60.55589294823405
 30
0.0
 11
-47.88765881014322
 21
60.55589294823405
 31
0.0
 12
-48.30833296744653
 22
60.41566822913281
 32
0.0
 13
-47.88765881014322
 23
60.41566822913281
 33
0.0
  0
SOLID
  5
73E
330
5DC
100
AcDbEntity
  8
RAHM2
100
AcDbTrace
 10
-49.43013072025561
 20
60.41566822913281
 30
0.0
 11
-49.00945656295211
 21
60.41566822913281
 31
0.0
 12
-49.43013072025561
 22
60.13521879093055
 32
0.0
 13
-49.00945656295211
 23
60.13521879093055
 33
0.0
  0
SOLID
  5
73F
330
5DC
100
AcDbEntity
  8
RAHM2
100
AcDbTrace
 10
-48.16810824834549
 20
60.41566822913281
 30
0.0
 11
-47.88765881014322
 21
60.41566822913281
 31
0.0
 12
-48.16810824834549
 22
60.27544351003178
 32
0.0
 13
-47.88765881014322
 23
60.27544351003178
 33
0.0
  0
SOLID
  5
740
330
5DC
100
AcDbEntity
  8
RAHM2
100
AcDbTrace
 10
-48.16810824834549
 20
60.27544351003178
 30
0.0
 11
-48.02788352924427
 21
60.27544351003178
 31
0.0
 12
-48.16810824834549
 22
60.13521879093055
 32
0.0
 13
-48.02788352924427
 23
60.13521879093055
 33
0.0
  0
SOLID
  5
741
330
5DC
100
AcDbEntity
  8
RAHM2
100
AcDbTrace
 10
-49.57035543935664
 20
60.13521879093055
 30
0.0
 11
-49.14968128205334
 21
60.13521879093055
 31
0.0
 12
-49.57035543935664
 22
59.99499407182951
 32
0.0
 13
-49.14968128205334
 23
59.99499407182951
 33
0.0
  0
SOLID
  5
742
330
5DC
100
AcDbEntity
  8
RAHM2
100
AcDbTrace
 10
-49.57035543935664
 20
59.99499407182951
 30
0.0
 11
-49.00945656295211
 21
59.99499407182951
 31
0.0
 12
-49.57035543935664
 22
59.85476935272828
 32
0.0
 13
-49.00945656295211
 23
59.85476935272828
 33
0.0
  0
SOLID
  5
743
330
5DC
100
AcDbEntity
  8
RAHM2
100
AcDbTrace
 10
-49.57035543935664
 20
59.85476935272828
 30
0.0
 11
-48.86923184385107
 21
59.85476935272828
 31
0.0
 12
-49.57035543935664
 22
59.71454463362724
 32
0.0
 13
-48.86923184385107
 23
59.71454463362724
 33
0.0
  0
SOLID
  5
744
330
5DC
100
AcDbEntity
  8
RAHM2
100
AcDbTrace
 10
-49.57035543935664
 20
59.71454463362724
 30
0.0
 11
-48.72900712474984
 21
59.71454463362724
 31
0.0
 12
-49.57035543935664
 22
59.5743199145262
 32
0.0
 13
-48.72900712474984
 23
59.5743199145262
 33
0.0
  0
SOLID
  5
745
330
5DC
100
AcDbEntity
  8
RAHM2
100
AcDbTrace
 10
-49.43013072025561
 20
59.5743199145262
 30
0.0
 11
-48.5887824056488
 21
59.5743199145262
 31
0.0
 12
-49.43013072025561
 22
59.43409519542497
 32
0.0
 13
-48.5887824056488
 23
59.43409519542497
 33
0.0
  0
SOLID
  5
746
330
5DC
100
AcDbEntity
  8
RAHM2
100
AcDbTrace
 10
-49.28990600115437
 20
59.43409519542497
 30
0.0
 11
-48.5887824056488
 21
59.43409519542497
 31
0.0
 12
-49.28990600115437
 22
59.29387047632393
 32
0.0
 13
-48.5887824056488
 23
59.29387047632393
 33
0.0
  0
SOLID
  5
747
330
5DC
100
AcDbEntity
  8
RAHM2
100
AcDbTrace
 10
-49.14968128205334
 20
59.29387047632393
 30
0.0
 11
-48.44855768654776
 21
59.29387047632393
 31
0.0
 12
-49.14968128205334
 22
59.15364575722271
 32
0.0
 13
-48.44855768654776
 23
59.15364575722271
 33
0.0
  0
SOLID
  5
748
330
5DC
100
AcDbEntity
  8
RAHM2
100
AcDbTrace
 10
-49.14968128205334
 20
59.15364575722271
 30
0.0
 11
-48.30833296744653
 21
59.15364575722271
 31
0.0
 12
-49.14968128205334
 22
59.01342103812166
 32
0.0
 13
-48.30833296744653
 23
59.01342103812166
 33
0.0
  0
SOLID
  5
749
330
5DC
100
AcDbEntity
  8
RAHM2
100
AcDbTrace
 10
-49.00945656295211
 20
59.01342103812166
 30
0.0
 11
-48.16810824834549
 21
59.01342103812166
 31
0.0
 12
-49.00945656295211
 22
58.87319631902044
 32
0.0
 13
-48.16810824834549
 23
58.87319631902044
 33
0.0
  0
SOLID
  5
74A
330
5DC
100
AcDbEntity
  8
RAHM2
100
AcDbTrace
 10
-48.86923184385107
 20
58.87319631902044
 30
0.0
 11
-48.16810824834549
 21
58.87319631902044
 31
0.0
 12
-48.86923184385107
 22
58.73297159991939
 32
0.0
 13
-48.16810824834549
 23
58.73297159991939
 33
0.0
  0
SOLID
  5
74B
330
5DC
100
AcDbEntity
  8
RAHM2
100
AcDbTrace
 10
-48.86923184385107
 20
58.73297159991939
 30
0.0
 11
-48.02788352924427
 21
58.73297159991939
 31
0.0
 12
-48.86923184385107
 22
58.59274688081836
 32
0.0
 13
-48.02788352924427
 23
58.59274688081836
 33
0.0
  0
SOLID
  5
74C
330
5DC
100
AcDbEntity
  8
RAHM2
100
AcDbTrace
 10
-48.72900712474984
 20
58.59274688081836
 30
0.0
 11
-48.02788352924427
 21
58.59274688081836
 31
0.0
 12
-48.72900712474984
 22
58.45252216171712
 32
0.0
 13
-48.02788352924427
 23
58.45252216171712
 33
0.0
  0
SOLID
  5
74D
330
5DC
100
AcDbEntity
  8
RAHM2
100
AcDbTrace
 10
-49.99102959665996
 20
58.45252216171712
 30
0.0
 11
-49.85080487755891
 21
58.45252216171712
 31
0.0
 12
-49.99102959665996
 22
58.31229744261609
 32
0.0
 13
-49.85080487755891
 23
58.31229744261609
 33
0.0
  0
SOLID
  5
74E
330
5DC
100
AcDbEntity
  8
RAHM2
100
AcDbTrace
 10
-48.5887824056488
 20
58.45252216171712
 30
0.0
 11
-48.02788352924427
 21
58.45252216171712
 31
0.0
 12
-48.5887824056488
 22
58.31229744261609
 32
0.0
 13
-48.02788352924427
 23
58.31229744261609
 33
0.0
  0
SOLID
  5
74F
330
5DC
100
AcDbEntity
  8
RAHM2
100
AcDbTrace
 10
-49.99102959665996
 20
58.31229744261609
 30
0.0
 11
-49.71058015845769
 21
58.31229744261609
 31
0.0
 12
-49.99102959665996
 22
57.89162328531259
 32
0.0
 13
-49.71058015845769
 23
57.89162328531259
 33
0.0
  0
SOLID
  5
750
330
5DC
100
AcDbEntity
  8
RAHM2
100
AcDbTrace
 10
-48.5887824056488
 20
58.31229744261609
 30
0.0
 11
-48.16810824834549
 21
58.31229744261609
 31
0.0
 12
-48.5887824056488
 22
58.17207272351486
 32
0.0
 13
-48.16810824834549
 23
58.17207272351486
 33
0.0
  0
SOLID
  5
751
330
5DC
100
AcDbEntity
  8
RAHM2
100
AcDbTrace
 10
-48.72900712474984
 20
58.17207272351486
 30
0.0
 11
-48.16810824834549
 21
58.17207272351486
 31
0.0
 12
-48.72900712474984
 22
58.03184800441382
 32
0.0
 13
-48.16810824834549
 23
58.03184800441382
 33
0.0
  0
SOLID
  5
752
330
5DC
100
AcDbEntity
  8
RAHM2
100
AcDbTrace
 10
-48.72900712474984
 20
58.03184800441382
 30
0.0
 11
-48.30833296744653
 21
58.03184800441382
 31
0.0
 12
-48.72900712474984
 22
57.89162328531259
 32
0.0
 13
-48.30833296744653
 23
57.89162328531259
 33
0.0
  0
SOLID
  5
753
330
5DC
100
AcDbEntity
  8
RAHM2
100
AcDbTrace
 10
-50.13125431576118
 20
57.89162328531259
 30
0.0
 11
-49.57035543935664
 21
57.89162328531259
 31
0.0
 12
-50.13125431576118
 22
57.75139856621155
 32
0.0
 13
-49.57035543935664
 23
57.75139856621155
 33
0.0
  0
SOLID
  5
754
330
5DC
100
AcDbEntity
  8
RAHM2
100
AcDbTrace
 10
-49.00945656295211
 20
57.89162328531259
 30
0.0
 11
-48.44855768654776
 21
57.89162328531259
 31
0.0
 12
-49.00945656295211
 22
57.75139856621155
 32
0.0
 13
-48.44855768654776
 23
57.75139856621155
 33
0.0
  0
SOLID
  5
755
330
5DC
100
AcDbEntity
  8
RAHM2
100
AcDbTrace
 10
-49.85080487755891
 20
57.75139856621155
 30
0.0
 11
-48.86923184385107
 21
57.75139856621155
 31
0.0
 12
-49.85080487755891
 22
57.61117384711032
 32
0.0
 13
-48.86923184385107
 23
57.61117384711032
 33
0.0
  0
SOLID
  5
756
330
5DC
100
AcDbEntity
  8
RAHM2
100
AcDbTrace
 10
-45.92451274272753
 20
60.55589294823405
 30
0.0
 11
-45.36361386632299
 21
60.55589294823405
 31
0.0
 12
-45.92451274272753
 22
60.41566822913281
 32
0.0
 13
-45.36361386632299
 23
60.41566822913281
 33
0.0
  0
SOLID
  5
757
330
5DC
100
AcDbEntity
  8
RAHM2
100
AcDbTrace
 10
-46.20496218092961
 20
60.41566822913281
 30
0.0
 11
-45.7842880236263
 21
60.41566822913281
 31
0.0
 12
-46.20496218092961
 22
60.27544351003178
 32
0.0
 13
-45.7842880236263
 23
60.27544351003178
 33
0.0
  0
SOLID
  5
758
330
5DC
100
AcDbEntity
  8
RAHM2
100
AcDbTrace
 10
-46.34518690003083
 20
60.27544351003178
 30
0.0
 11
-46.06473746182857
 21
60.27544351003178
 31
0.0
 12
-46.34518690003083
 22
60.13521879093055
 32
0.0
 13
-46.06473746182857
 23
60.13521879093055
 33
0.0
  0
SOLID
  5
759
330
5DC
100
AcDbEntity
  8
RAHM2
100
AcDbTrace
 10
-46.48541161913188
 20
60.13521879093055
 30
0.0
 11
-46.06473746182857
 21
60.13521879093055
 31
0.0
 12
-46.48541161913188
 22
59.99499407182951
 32
0.0
 13
-46.06473746182857
 23
59.99499407182951
 33
0.0
  0
SOLID
  5
75A
330
5DC
100
AcDbEntity
  8
RAHM2
100
AcDbTrace
 10
-44.80271498991846
 20
60.27544351003178
 30
0.0
 11
-44.38204083261514
 21
60.27544351003178
 31
0.0
 12
-44.80271498991846
 22
60.13521879093055
 32
0.0
 13
-44.38204083261514
 23
60.13521879093055
 33
0.0
  0
SOLID
  5
75B
330
5DC
100
AcDbEntity
  8
RAHM2
100
AcDbTrace
 10
-44.94293970901949
 20
60.13521879093055
 30
0.0
 11
-44.38204083261514
 21
60.13521879093055
 31
0.0
 12
-44.94293970901949
 22
59.99499407182951
 32
0.0
 13
-44.38204083261514
 23
59.99499407182951
 33
0.0
  0
SOLID
  5
75C
330
5DC
100
AcDbEntity
  8
RAHM2
100
AcDbTrace
 10
-46.6256363382331
 20
59.99499407182951
 30
0.0
 11
-46.20496218092961
 21
59.99499407182951
 31
0.0
 12
-46.6256363382331
 22
59.85476935272828
 32
0.0
 13
-46.20496218092961
 23
59.85476935272828
 33
0.0
  0
SOLID
  5
75D
330
5DC
100
AcDbEntity
  8
RAHM2
100
AcDbTrace
 10
-46.76586105733415
 20
59.85476935272828
 30
0.0
 11
-46.34518690003083
 21
59.85476935272828
 31
0.0
 12
-46.76586105733415
 22
59.71454463362724
 32
0.0
 13
-46.34518690003083
 23
59.71454463362724
 33
0.0
  0
SOLID
  5
75E
330
5DC
100
AcDbEntity
  8
RAHM2
100
AcDbTrace
 10
-44.94293970901949
 20
59.99499407182951
 30
0.0
 11
-44.38204083261514
 21
59.99499407182951
 31
0.0
 12
-44.94293970901949
 22
59.71454463362724
 32
0.0
 13
-44.38204083261514
 23
59.71454463362724
 33
0.0
  0
SOLID
  5
75F
330
5DC
100
AcDbEntity
  8
RAHM2
100
AcDbTrace
 10
-46.76586105733415
 20
59.71454463362724
 30
0.0
 11
-46.34518690003083
 21
59.71454463362724
 31
0.0
 12
-46.76586105733415
 22
59.5743199145262
 32
0.0
 13
-46.34518690003083
 23
59.5743199145262
 33
0.0
  0
SOLID
  5
760
330
5DC
100
AcDbEntity
  8
RAHM2
100
AcDbTrace
 10
-46.90608577643537
 20
59.5743199145262
 30
0.0
 11
-46.34518690003083
 21
59.5743199145262
 31
0.0
 12
-46.90608577643537
 22
59.43409519542497
 32
0.0
 13
-46.34518690003083
 23
59.43409519542497
 33
0.0
  0
SOLID
  5
761
330
5DC
100
AcDbEntity
  8
RAHM2
100
AcDbTrace
 10
-45.08316442812072
 20
59.71454463362724
 30
0.0
 11
-44.52226555171619
 21
59.71454463362724
 31
0.0
 12
-45.08316442812072
 22
59.43409519542497
 32
0.0
 13
-44.52226555171619
 23
59.43409519542497
 33
0.0
  0
SOLID
  5
762
330
5DC
100
AcDbEntity
  8
RAHM2
100
AcDbTrace
 10
-46.90608577643537
 20
59.43409519542497
 30
0.0
 11
-46.48541161913188
 21
59.43409519542497
 31
0.0
 12
-46.90608577643537
 22
59.29387047632393
 32
0.0
 13
-46.48541161913188
 23
59.29387047632393
 33
0.0
  0
SOLID
  5
763
330
5DC
100
AcDbEntity
  8
RAHM2
100
AcDbTrace
 10
-47.04631049553642
 20
59.29387047632393
 30
0.0
 11
-46.48541161913188
 21
59.29387047632393
 31
0.0
 12
-47.04631049553642
 22
59.15364575722271
 32
0.0
 13
-46.48541161913188
 23
59.15364575722271
 33
0.0
  0
SOLID
  5
764
330
5DC
100
AcDbEntity
  8
RAHM2
100
AcDbTrace
 10
-45.22338914722176
 20
59.43409519542497
 30
0.0
 11
-44.52226555171619
 21
59.43409519542497
 31
0.0
 12
-45.22338914722176
 22
59.15364575722271
 32
0.0
 13
-44.52226555171619
 23
59.15364575722271
 33
0.0
  0
SOLID
  5
765
330
5DC
100
AcDbEntity
  8
RAHM2
100
AcDbTrace
 10
-47.04631049553642
 20
59.15364575722271
 30
0.0
 11
-46.48541161913188
 21
59.15364575722271
 31
0.0
 12
-47.04631049553642
 22
59.01342103812166
 32
0.0
 13
-46.48541161913188
 23
59.01342103812166
 33
0.0
  0
SOLID
  5
766
330
5DC
100
AcDbEntity
  8
RAHM2
100
AcDbTrace
 10
-45.36361386632299
 20
59.15364575722271
 30
0.0
 11
-44.52226555171619
 21
59.15364575722271
 31
0.0
 12
-45.36361386632299
 22
59.01342103812166
 32
0.0
 13
-44.52226555171619
 23
59.01342103812166
 33
0.0
  0
SOLID
  5
767
330
5DC
100
AcDbEntity
  8
RAHM2
100
AcDbTrace
 10
-47.04631049553642
 20
59.01342103812166
 30
0.0
 11
-46.48541161913188
 21
59.01342103812166
 31
0.0
 12
-47.04631049553642
 22
58.73297159991939
 32
0.0
 13
-46.48541161913188
 23
58.73297159991939
 33
0.0
  0
SOLID
  5
768
330
5DC
100
AcDbEntity
  8
RAHM2
100
AcDbTrace
 10
-47.04631049553642
 20
58.73297159991939
 30
0.0
 11
-46.6256363382331
 21
58.73297159991939
 31
0.0
 12
-47.04631049553642
 22
58.59274688081836
 32
0.0
 13
-46.6256363382331
 23
58.59274688081836
 33
0.0
  0
SOLID
  5
769
330
5DC
100
AcDbEntity
  8
RAHM2
100
AcDbTrace
 10
-45.36361386632299
 20
59.01342103812166
 30
0.0
 11
-45.22338914722176
 21
59.01342103812166
 31
0.0
 12
-45.36361386632299
 22
58.87319631902044
 32
0.0
 13
-45.22338914722176
 23
58.87319631902044
 33
0.0
  0
SOLID
  5
76A
330
5DC
100
AcDbEntity
  8
RAHM2
100
AcDbTrace
 10
-45.50383858542403
 20
58.87319631902044
 30
0.0
 11
-45.36361386632299
 21
58.87319631902044
 31
0.0
 12
-45.50383858542403
 22
58.73297159991939
 32
0.0
 13
-45.36361386632299
 23
58.73297159991939
 33
0.0
  0
SOLID
  5
76B
330
5DC
100
AcDbEntity
  8
RAHM2
100
AcDbTrace
 10
-45.22338914722176
 20
59.01342103812166
 30
0.0
 11
-44.66249027081741
 21
59.01342103812166
 31
0.0
 12
-45.22338914722176
 22
58.59274688081836
 32
0.0
 13
-44.66249027081741
 23
58.59274688081836
 33
0.0
  0
SOLID
  5
76C
330
5DC
100
AcDbEntity
  8
RAHM2
100
AcDbTrace
 10
-47.18653521463764
 20
58.59274688081836
 30
0.0
 11
-46.6256363382331
 21
58.59274688081836
 31
0.0
 12
-47.18653521463764
 22
58.31229744261609
 32
0.0
 13
-46.6256363382331
 23
58.31229744261609
 33
0.0
  0
SOLID
  5
76D
330
5DC
100
AcDbEntity
  8
RAHM2
100
AcDbTrace
 10
-45.7842880236263
 20
58.59274688081836
 30
0.0
 11
-45.50383858542403
 21
58.59274688081836
 31
0.0
 12
-45.7842880236263
 22
58.45252216171712
 32
0.0
 13
-45.50383858542403
 23
58.45252216171712
 33
0.0
  0
SOLID
  5
76E
330
5DC
100
AcDbEntity
  8
RAHM2
100
AcDbTrace
 10
-45.92451274272753
 20
58.45252216171712
 30
0.0
 11
-45.64406330452526
 21
58.45252216171712
 31
0.0
 12
-45.92451274272753
 22
58.31229744261609
 32
0.0
 13
-45.64406330452526
 23
58.31229744261609
 33
0.0
  0
SOLID
  5
76F
330
5DC
100
AcDbEntity
  8
RAHM2
100
AcDbTrace
 10
-45.22338914722176
 20
58.59274688081836
 30
0.0
 11
-44.66249027081741
 21
58.59274688081836
 31
0.0
 12
-45.22338914722176
 22
58.45252216171712
 32
0.0
 13
-44.66249027081741
 23
58.45252216171712
 33
0.0
  0
SOLID
  5
770
330
5DC
100
AcDbEntity
  8
RAHM2
100
AcDbTrace
 10
-45.22338914722176
 20
58.45252216171712
 30
0.0
 11
-44.80271498991846
 21
58.45252216171712
 31
0.0
 12
-45.22338914722176
 22
58.31229744261609
 32
0.0
 13
-44.80271498991846
 23
58.31229744261609
 33
0.0
  0
SOLID
  5
771
330
5DC
100
AcDbEntity
  8
RAHM2
100
AcDbTrace
 10
-47.18653521463764
 20
58.31229744261609
 30
0.0
 11
-46.6256363382331
 21
58.31229744261609
 31
0.0
 12
-47.18653521463764
 22
58.17207272351486
 32
0.0
 13
-46.6256363382331
 23
58.17207272351486
 33
0.0
  0
SOLID
  5
772
330
5DC
100
AcDbEntity
  8
RAHM2
100
AcDbTrace
 10
-46.06473746182857
 20
58.31229744261609
 30
0.0
 11
-45.7842880236263
 21
58.31229744261609
 31
0.0
 12
-46.06473746182857
 22
58.17207272351486
 32
0.0
 13
-45.7842880236263
 23
58.17207272351486
 33
0.0
  0
SOLID
  5
773
330
5DC
100
AcDbEntity
  8
RAHM2
100
AcDbTrace
 10
-45.36361386632299
 20
58.31229744261609
 30
0.0
 11
-44.80271498991846
 21
58.31229744261609
 31
0.0
 12
-45.36361386632299
 22
58.17207272351486
 32
0.0
 13
-44.80271498991846
 23
58.17207272351486
 33
0.0
  0
SOLID
  5
774
330
5DC
100
AcDbEntity
  8
RAHM2
100
AcDbTrace
 10
-47.18653521463764
 20
58.17207272351486
 30
0.0
 11
-46.48541161913188
 21
58.17207272351486
 31
0.0
 12
-47.18653521463764
 22
58.03184800441382
 32
0.0
 13
-46.48541161913188
 23
58.03184800441382
 33
0.0
  0
SOLID
  5
775
330
5DC
100
AcDbEntity
  8
RAHM2
100
AcDbTrace
 10
-46.20496218092961
 20
58.17207272351486
 30
0.0
 11
-45.92451274272753
 21
58.17207272351486
 31
0.0
 12
-46.20496218092961
 22
58.03184800441382
 32
0.0
 13
-45.92451274272753
 23
58.03184800441382
 33
0.0
  0
SOLID
  5
776
330
5DC
100
AcDbEntity
  8
RAHM2
100
AcDbTrace
 10
-45.36361386632299
 20
58.17207272351486
 30
0.0
 11
-44.80271498991846
 21
58.17207272351486
 31
0.0
 12
-45.36361386632299
 22
58.03184800441382
 32
0.0
 13
-44.80271498991846
 23
58.03184800441382
 33
0.0
  0
SOLID
  5
777
330
5DC
100
AcDbEntity
  8
RAHM2
100
AcDbTrace
 10
-47.18653521463764
 20
58.03184800441382
 30
0.0
 11
-46.06473746182857
 21
58.03184800441382
 31
0.0
 12
-47.18653521463764
 22
57.89162328531259
 32
0.0
 13
-46.06473746182857
 23
57.89162328531259
 33
0.0
  0
SOLID
  5
778
330
5DC
100
AcDbEntity
  8
RAHM2
100
AcDbTrace
 10
-47.04631049553642
 20
57.89162328531259
 30
0.0
 11
-46.34518690003083
 21
57.89162328531259
 31
0.0
 12
-47.04631049553642
 22
57.75139856621155
 32
0.0
 13
-46.34518690003083
 23
57.75139856621155
 33
0.0
  0
SOLID
  5
779
330
5DC
100
AcDbEntity
  8
RAHM2
100
AcDbTrace
 10
-45.36361386632299
 20
58.03184800441382
 30
0.0
 11
-44.52226555171619
 21
58.03184800441382
 31
0.0
 12
-45.36361386632299
 22
57.89162328531259
 32
0.0
 13
-44.52226555171619
 23
57.89162328531259
 33
0.0
  0
SOLID
  5
77A
330
5DC
100
AcDbEntity
  8
RAHM2
100
AcDbTrace
 10
-45.36361386632299
 20
57.89162328531259
 30
0.0
 11
-44.80271498991846
 21
57.89162328531259
 31
0.0
 12
-45.36361386632299
 22
57.75139856621155
 32
0.0
 13
-44.80271498991846
 23
57.75139856621155
 33
0.0
  0
SOLID
  5
77B
330
5DC
100
AcDbEntity
  8
RAHM2
100
AcDbTrace
 10
-46.90608577643537
 20
57.75139856621155
 30
0.0
 11
-46.48541161913188
 21
57.75139856621155
 31
0.0
 12
-46.90608577643537
 22
57.61117384711032
 32
0.0
 13
-46.48541161913188
 23
57.61117384711032
 33
0.0
  0
SOLID
  5
77C
330
5DC
100
AcDbEntity
  8
RAHM2
100
AcDbTrace
 10
-45.36361386632299
 20
57.75139856621155
 30
0.0
 11
-45.08316442812072
 21
57.75139856621155
 31
0.0
 12
-45.36361386632299
 22
57.61117384711032
 32
0.0
 13
-45.08316442812072
 23
57.61117384711032
 33
0.0
  0
SOLID
  5
77D
330
5DC
100
AcDbEntity
  8
RAHM2
100
AcDbTrace
 10
-42.55911948430049
 20
60.83634238643631
 30
0.0
 11
-42.41889476519945
 21
60.83634238643631
 31
0.0
 12
-42.55911948430049
 22
60.69611766733508
 32
0.0
 13
-42.41889476519945
 23
60.69611766733508
 33
0.0
  0
SOLID
  5
77E
330
5DC
100
AcDbEntity
  8
RAHM2
100
AcDbTrace
 10
-40.87642285508707
 20
60.83634238643631
 30
0.0
 11
-40.5959734168848
 21
60.83634238643631
 31
0.0
 12
-40.87642285508707
 22
60.69611766733508
 32
0.0
 13
-40.5959734168848
 23
60.69611766733508
 33
0.0
  0
SOLID
  5
77F
330
5DC
100
AcDbEntity
  8
RAHM2
100
AcDbTrace
 10
-42.9797936416038
 20
60.69611766733508
 30
0.0
 11
-42.41889476519945
 21
60.69611766733508
 31
0.0
 12
-42.9797936416038
 22
60.55589294823405
 32
0.0
 13
-42.41889476519945
 23
60.55589294823405
 33
0.0
  0
SOLID
  5
780
330
5DC
100
AcDbEntity
  8
RAHM2
100
AcDbTrace
 10
-41.01664757418811
 20
60.69611766733508
 30
0.0
 11
-40.5959734168848
 21
60.69611766733508
 31
0.0
 12
-41.01664757418811
 22
60.55589294823405
 32
0.0
 13
-40.5959734168848
 23
60.55589294823405
 33
0.0
  0
SOLID
  5
781
330
5DC
100
AcDbEntity
  8
RAHM2
100
AcDbTrace
 10
-43.40046779890729
 20
60.55589294823405
 30
0.0
 11
-42.41889476519945
 21
60.55589294823405
 31
0.0
 12
-43.40046779890729
 22
60.41566822913281
 32
0.0
 13
-42.41889476519945
 23
60.41566822913281
 33
0.0
  0
SOLID
  5
782
330
5DC
100
AcDbEntity
  8
RAHM2
100
AcDbTrace
 10
-41.01664757418811
 20
60.55589294823405
 30
0.0
 11
-40.45574869778358
 21
60.55589294823405
 31
0.0
 12
-41.01664757418811
 22
60.41566822913281
 32
0.0
 13
-40.45574869778358
 23
60.41566822913281
 33
0.0
  0
SOLID
  5
783
330
5DC
100
AcDbEntity
  8
RAHM2
100
AcDbTrace
 10
-43.12001836070503
 20
60.41566822913281
 30
0.0
 11
-42.41889476519945
 21
60.41566822913281
 31
0.0
 12
-43.12001836070503
 22
60.27544351003178
 32
0.0
 13
-42.41889476519945
 23
60.27544351003178
 33
0.0
  0
SOLID
  5
784
330
5DC
100
AcDbEntity
  8
RAHM2
100
AcDbTrace
 10
-41.01664757418811
 20
60.41566822913281
 30
0.0
 11
-40.45574869778358
 21
60.41566822913281
 31
0.0
 12
-41.01664757418811
 22
60.27544351003178
 32
0.0
 13
-40.45574869778358
 23
60.27544351003178
 33
0.0
  0
SOLID
  5
785
330
5DC
100
AcDbEntity
  8
RAHM2
100
AcDbTrace
 10
-42.83956892250276
 20
60.27544351003178
 30
0.0
 11
-42.27867004609822
 21
60.27544351003178
 31
0.0
 12
-42.83956892250276
 22
59.99499407182951
 32
0.0
 13
-42.27867004609822
 23
59.99499407182951
 33
0.0
  0
SOLID
  5
786
330
5DC
100
AcDbEntity
  8
RAHM2
100
AcDbTrace
 10
-41.01664757418811
 20
60.27544351003178
 30
0.0
 11
-40.45574869778358
 21
60.27544351003178
 31
0.0
 12
-41.01664757418811
 22
60.13521879093055
 32
0.0
 13
-40.45574869778358
 23
60.13521879093055
 33
0.0
  0
SOLID
  5
787
330
5DC
100
AcDbEntity
  8
RAHM2
100
AcDbTrace
 10
-41.01664757418811
 20
60.13521879093055
 30
0.0
 11
-40.5959734168848
 21
60.13521879093055
 31
0.0
 12
-41.01664757418811
 22
59.99499407182951
 32
0.0
 13
-40.5959734168848
 23
59.99499407182951
 33
0.0
  0
SOLID
  5
788
330
5DC
100
AcDbEntity
  8
RAHM2
100
AcDbTrace
 10
-42.83956892250276
 20
59.99499407182951
 30
0.0
 11
-42.27867004609822
 21
59.99499407182951
 31
0.0
 12
-42.83956892250276
 22
59.71454463362724
 32
0.0
 13
-42.27867004609822
 23
59.71454463362724
 33
0.0
  0
SOLID
  5
789
330
5DC
100
AcDbEntity
  8
RAHM2
100
AcDbTrace
 10
-41.01664757418811
 20
59.99499407182951
 30
0.0
 11
-40.73619813598584
 21
59.99499407182951
 31
0.0
 12
-41.01664757418811
 22
59.85476935272828
 32
0.0
 13
-40.73619813598584
 23
59.85476935272828
 33
0.0
  0
SOLID
  5
78A
330
5DC
100
AcDbEntity
  8
RAHM2
100
AcDbTrace
 10
-41.15687229328933
 20
59.85476935272828
 30
0.0
 11
-40.73619813598584
 21
59.85476935272828
 31
0.0
 12
-41.15687229328933
 22
59.71454463362724
 32
0.0
 13
-40.73619813598584
 23
59.71454463362724
 33
0.0
  0
SOLID
  5
78B
330
5DC
100
AcDbEntity
  8
RAHM2
100
AcDbTrace
 10
-42.83956892250276
 20
59.71454463362724
 30
0.0
 11
-42.27867004609822
 21
59.71454463362724
 31
0.0
 12
-42.83956892250276
 22
59.5743199145262
 32
0.0
 13
-42.27867004609822
 23
59.5743199145262
 33
0.0
  0
SOLID
  5
78C
330
5DC
100
AcDbEntity
  8
RAHM2
100
AcDbTrace
 10
-41.15687229328933
 20
59.71454463362724
 30
0.0
 11
-40.87642285508707
 21
59.71454463362724
 31
0.0
 12
-41.15687229328933
 22
59.5743199145262
 32
0.0
 13
-40.87642285508707
 23
59.5743199145262
 33
0.0
  0
SOLID
  5
78D
330
5DC
100
AcDbEntity
  8
RAHM2
100
AcDbTrace
 10
-42.83956892250276
 20
59.5743199145262
 30
0.0
 11
-42.27867004609822
 21
59.5743199145262
 31
0.0
 12
-42.83956892250276
 22
59.15364575722271
 32
0.0
 13
-42.27867004609822
 23
59.15364575722271
 33
0.0
  0
SOLID
  5
78E
330
5DC
100
AcDbEntity
  8
RAHM2
100
AcDbTrace
 10
-42.69934420340153
 20
59.15364575722271
 30
0.0
 11
-42.13844532699718
 21
59.15364575722271
 31
0.0
 12
-42.69934420340153
 22
58.31229744261609
 32
0.0
 13
-42.13844532699718
 23
58.31229744261609
 33
0.0
  0
SOLID
  5
78F
330
5DC
100
AcDbEntity
  8
RAHM2
100
AcDbTrace
 10
-41.29709701239038
 20
59.5743199145262
 30
0.0
 11
-41.01664757418811
 21
59.5743199145262
 31
0.0
 12
-41.29709701239038
 22
59.43409519542497
 32
0.0
 13
-41.01664757418811
 23
59.43409519542497
 33
0.0
  0
SOLID
  5
790
330
5DC
100
AcDbEntity
  8
RAHM2
100
AcDbTrace
 10
-41.43732173149142
 20
59.43409519542497
 30
0.0
 11
-41.01664757418811
 21
59.43409519542497
 31
0.0
 12
-41.43732173149142
 22
59.29387047632393
 32
0.0
 13
-41.01664757418811
 23
59.29387047632393
 33
0.0
  0
SOLID
  5
791
330
5DC
100
AcDbEntity
  8
RAHM2
100
AcDbTrace
 10
-41.43732173149142
 20
59.29387047632393
 30
0.0
 11
-41.15687229328933
 21
59.29387047632393
 31
0.0
 12
-41.43732173149142
 22
59.15364575722271
 32
0.0
 13
-41.15687229328933
 23
59.15364575722271
 33
0.0
  0
SOLID
  5
792
330
5DC
100
AcDbEntity
  8
RAHM2
100
AcDbTrace
 10
-41.57754645059265
 20
59.15364575722271
 30
0.0
 11
-41.29709701239038
 21
59.15364575722271
 31
0.0
 12
-41.57754645059265
 22
59.01342103812166
 32
0.0
 13
-41.29709701239038
 23
59.01342103812166
 33
0.0
  0
SOLID
  5
793
330
5DC
100
AcDbEntity
  8
RAHM2
100
AcDbTrace
 10
-41.71777116969368
 20
59.01342103812166
 30
0.0
 11
-41.43732173149142
 21
59.01342103812166
 31
0.0
 12
-41.71777116969368
 22
58.73297159991939
 32
0.0
 13
-41.43732173149142
 23
58.73297159991939
 33
0.0
  0
SOLID
  5
794
330
5DC
100
AcDbEntity
  8
RAHM2
100
AcDbTrace
 10
-41.85799588879492
 20
58.73297159991939
 30
0.0
 11
-41.57754645059265
 21
58.73297159991939
 31
0.0
 12
-41.85799588879492
 22
58.59274688081836
 32
0.0
 13
-41.57754645059265
 23
58.59274688081836
 33
0.0
  0
SOLID
  5
795
330
5DC
100
AcDbEntity
  8
RAHM2
100
AcDbTrace
 10
-41.99822060789595
 20
58.59274688081836
 30
0.0
 11
-41.71777116969368
 21
58.59274688081836
 31
0.0
 12
-41.99822060789595
 22
58.45252216171712
 32
0.0
 13
-41.71777116969368
 23
58.45252216171712
 33
0.0
  0
SOLID
  5
796
330
5DC
100
AcDbEntity
  8
RAHM2
100
AcDbTrace
 10
-41.99822060789595
 20
58.45252216171712
 30
0.0
 11
-41.85799588879492
 21
58.45252216171712
 31
0.0
 12
-41.99822060789595
 22
58.31229744261609
 32
0.0
 13
-41.85799588879492
 23
58.31229744261609
 33
0.0
  0
SOLID
  5
797
330
5DC
100
AcDbEntity
  8
RAHM2
100
AcDbTrace
 10
-42.69934420340153
 20
58.31229744261609
 30
0.0
 11
-41.85799588879492
 21
58.31229744261609
 31
0.0
 12
-42.69934420340153
 22
58.17207272351486
 32
0.0
 13
-41.85799588879492
 23
58.17207272351486
 33
0.0
  0
SOLID
  5
798
330
5DC
100
AcDbEntity
  8
RAHM2
100
AcDbTrace
 10
-42.69934420340153
 20
58.17207272351486
 30
0.0
 11
-41.99822060789595
 21
58.17207272351486
 31
0.0
 12
-42.69934420340153
 22
58.03184800441382
 32
0.0
 13
-41.99822060789595
 23
58.03184800441382
 33
0.0
  0
SOLID
  5
799
330
5DC
100
AcDbEntity
  8
RAHM2
100
AcDbTrace
 10
-42.69934420340153
 20
58.03184800441382
 30
0.0
 11
-42.13844532699718
 21
58.03184800441382
 31
0.0
 12
-42.69934420340153
 22
57.75139856621155
 32
0.0
 13
-42.13844532699718
 23
57.75139856621155
 33
0.0
  0
SOLID
  5
79A
330
5DC
100
AcDbEntity
  8
RAHM2
100
AcDbTrace
 10
-42.69934420340153
 20
57.75139856621155
 30
0.0
 11
-42.27867004609822
 21
57.75139856621155
 31
0.0
 12
-42.69934420340153
 22
57.61117384711032
 32
0.0
 13
-42.27867004609822
 23
57.61117384711032
 33
0.0
  0
SOLID
  5
79B
330
5DC
100
AcDbEntity
  8
RAHM2
100
AcDbTrace
 10
-38.07192847306458
 20
60.83634238643631
 30
0.0
 11
-37.23058015845777
 21
60.83634238643631
 31
0.0
 12
-38.07192847306458
 22
60.69611766733508
 32
0.0
 13
-37.23058015845777
 23
60.69611766733508
 33
0.0
  0
SOLID
  5
79C
330
5DC
100
AcDbEntity
  8
RAHM2
100
AcDbTrace
 10
-38.63282734946911
 20
60.69611766733508
 30
0.0
 11
-37.23058015845777
 21
60.69611766733508
 31
0.0
 12
-38.63282734946911
 22
60.55589294823405
 32
0.0
 13
-37.23058015845777
 23
60.55589294823405
 33
0.0
  0
SOLID
  5
79D
330
5DC
100
AcDbEntity
  8
RAHM2
100
AcDbTrace
 10
-38.91327678767119
 20
60.55589294823405
 30
0.0
 11
-38.35237791126684
 21
60.55589294823405
 31
0.0
 12
-38.91327678767119
 22
60.41566822913281
 32
0.0
 13
-38.35237791126684
 23
60.41566822913281
 33
0.0
  0
SOLID
  5
79E
330
5DC
100
AcDbEntity
  8
RAHM2
100
AcDbTrace
 10
-39.19372622587346
 20
60.41566822913281
 30
0.0
 11
-38.77305206857015
 21
60.41566822913281
 31
0.0
 12
-39.19372622587346
 22
60.27544351003178
 32
0.0
 13
-38.77305206857015
 23
60.27544351003178
 33
0.0
  0
SOLID
  5
79F
330
5DC
100
AcDbEntity
  8
RAHM2
100
AcDbTrace
 10
-37.79147903486231
 20
60.55589294823405
 30
0.0
 11
-37.23058015845777
 21
60.55589294823405
 31
0.0
 12
-37.79147903486231
 22
60.27544351003178
 32
0.0
 13
-37.23058015845777
 23
60.27544351003178
 33
0.0
  0
SOLID
  5
7A0
330
5DC
100
AcDbEntity
  8
RAHM2
100
AcDbTrace
 10
-39.33395094497469
 20
60.27544351003178
 30
0.0
 11
-39.05350150677242
 21
60.27544351003178
 31
0.0
 12
-39.33395094497469
 22
60.13521879093055
 32
0.0
 13
-39.05350150677242
 23
60.13521879093055
 33
0.0
  0
SOLID
  5
7A1
330
5DC
100
AcDbEntity
  8
RAHM2
100
AcDbTrace
 10
-39.47417566407573
 20
60.13521879093055
 30
0.0
 11
-39.05350150677242
 21
60.13521879093055
 31
0.0
 12
-39.47417566407573
 22
59.99499407182951
 32
0.0
 13
-39.05350150677242
 23
59.99499407182951
 33
0.0
  0
SOLID
  5
7A2
330
5DC
100
AcDbEntity
  8
RAHM2
100
AcDbTrace
 10
-37.79147903486231
 20
60.27544351003178
 30
0.0
 11
-37.370804877559
 21
60.27544351003178
 31
0.0
 12
-37.79147903486231
 22
60.13521879093055
 32
0.0
 13
-37.370804877559
 23
60.13521879093055
 33
0.0
  0
SOLID
  5
7A3
330
5DC
100
AcDbEntity
  8
RAHM2
100
AcDbTrace
 10
-37.93170375396335
 20
60.13521879093055
 30
0.0
 11
-37.370804877559
 21
60.13521879093055
 31
0.0
 12
-37.93170375396335
 22
59.99499407182951
 32
0.0
 13
-37.370804877559
 23
59.99499407182951
 33
0.0
  0
SOLID
  5
7A4
330
5DC
100
AcDbEntity
  8
RAHM2
100
AcDbTrace
 10
-39.61440038317696
 20
59.99499407182951
 30
0.0
 11
-39.19372622587346
 21
59.99499407182951
 31
0.0
 12
-39.61440038317696
 22
59.85476935272828
 32
0.0
 13
-39.19372622587346
 23
59.85476935272828
 33
0.0
  0
SOLID
  5
7A5
330
5DC
100
AcDbEntity
  8
RAHM2
100
AcDbTrace
 10
-39.754625102278
 20
59.85476935272828
 30
0.0
 11
-39.33395094497469
 21
59.85476935272828
 31
0.0
 12
-39.754625102278
 22
59.71454463362724
 32
0.0
 13
-39.33395094497469
 23
59.71454463362724
 33
0.0
  0
SOLID
  5
7A6
330
5DC
100
AcDbEntity
  8
RAHM2
100
AcDbTrace
 10
-37.93170375396335
 20
59.99499407182951
 30
0.0
 11
-37.370804877559
 21
59.99499407182951
 31
0.0
 12
-37.93170375396335
 22
59.71454463362724
 32
0.0
 13
-37.370804877559
 23
59.71454463362724
 33
0.0
  0
SOLID
  5
7A7
330
5DC
100
AcDbEntity
  8
RAHM2
100
AcDbTrace
 10
-39.754625102278
 20
59.71454463362724
 30
0.0
 11
-39.33395094497469
 21
59.71454463362724
 31
0.0
 12
-39.754625102278
 22
59.5743199145262
 32
0.0
 13
-39.33395094497469
 23
59.5743199145262
 33
0.0
  0
SOLID
  5
7A8
330
5DC
100
AcDbEntity
  8
RAHM2
100
AcDbTrace
 10
-39.89484982137923
 20
59.5743199145262
 30
0.0
 11
-39.33395094497469
 21
59.5743199145262
 31
0.0
 12
-39.89484982137923
 22
59.43409519542497
 32
0.0
 13
-39.33395094497469
 23
59.43409519542497
 33
0.0
  0
SOLID
  5
7A9
330
5DC
100
AcDbEntity
  8
RAHM2
100
AcDbTrace
 10
-38.07192847306458
 20
59.71454463362724
 30
0.0
 11
-37.51102959666004
 21
59.71454463362724
 31
0.0
 12
-38.07192847306458
 22
59.43409519542497
 32
0.0
 13
-37.51102959666004
 23
59.43409519542497
 33
0.0
  0
SOLID
  5
7AA
330
5DC
100
AcDbEntity
  8
RAHM2
100
AcDbTrace
 10
-39.89484982137923
 20
59.43409519542497
 30
0.0
 11
-39.47417566407573
 21
59.43409519542497
 31
0.0
 12
-39.89484982137923
 22
59.29387047632393
 32
0.0
 13
-39.47417566407573
 23
59.29387047632393
 33
0.0
  0
SOLID
  5
7AB
330
5DC
100
AcDbEntity
  8
RAHM2
100
AcDbTrace
 10
-40.03507454048026
 20
59.29387047632393
 30
0.0
 11
-39.47417566407573
 21
59.29387047632393
 31
0.0
 12
-40.03507454048026
 22
59.15364575722271
 32
0.0
 13
-39.47417566407573
 23
59.15364575722271
 33
0.0
  0
SOLID
  5
7AC
330
5DC
100
AcDbEntity
  8
RAHM2
100
AcDbTrace
 10
-38.21215319216562
 20
59.43409519542497
 30
0.0
 11
-37.51102959666004
 21
59.43409519542497
 31
0.0
 12
-38.21215319216562
 22
59.15364575722271
 32
0.0
 13
-37.51102959666004
 23
59.15364575722271
 33
0.0
  0
SOLID
  5
7AD
330
5DC
100
AcDbEntity
  8
RAHM2
100
AcDbTrace
 10
-40.03507454048026
 20
59.15364575722271
 30
0.0
 11
-39.47417566407573
 21
59.15364575722271
 31
0.0
 12
-40.03507454048026
 22
59.01342103812166
 32
0.0
 13
-39.47417566407573
 23
59.01342103812166
 33
0.0
  0
SOLID
  5
7AE
330
5DC
100
AcDbEntity
  8
RAHM2
100
AcDbTrace
 10
-38.35237791126684
 20
59.15364575722271
 30
0.0
 11
-37.51102959666004
 21
59.15364575722271
 31
0.0
 12
-38.35237791126684
 22
59.01342103812166
 32
0.0
 13
-37.51102959666004
 23
59.01342103812166
 33
0.0
  0
SOLID
  5
7AF
330
5DC
100
AcDbEntity
  8
RAHM2
100
AcDbTrace
 10
-40.03507454048026
 20
59.01342103812166
 30
0.0
 11
-39.47417566407573
 21
59.01342103812166
 31
0.0
 12
-40.03507454048026
 22
58.73297159991939
 32
0.0
 13
-39.47417566407573
 23
58.73297159991939
 33
0.0
  0
SOLID
  5
7B0
330
5DC
100
AcDbEntity
  8
RAHM2
100
AcDbTrace
 10
-40.03507454048026
 20
58.73297159991939
 30
0.0
 11
-39.61440038317696
 21
58.73297159991939
 31
0.0
 12
-40.03507454048026
 22
58.59274688081836
 32
0.0
 13
-39.61440038317696
 23
58.59274688081836
 33
0.0
  0
SOLID
  5
7B1
330
5DC
100
AcDbEntity
  8
RAHM2
100
AcDbTrace
 10
-38.35237791126684
 20
59.01342103812166
 30
0.0
 11
-38.21215319216562
 21
59.01342103812166
 31
0.0
 12
-38.35237791126684
 22
58.87319631902044
 32
0.0
 13
-38.21215319216562
 23
58.87319631902044
 33
0.0
  0
SOLID
  5
7B2
330
5DC
100
AcDbEntity
  8
RAHM2
100
AcDbTrace
 10
-38.49260263036788
 20
58.87319631902044
 30
0.0
 11
-38.35237791126684
 21
58.87319631902044
 31
0.0
 12
-38.49260263036788
 22
58.73297159991939
 32
0.0
 13
-38.35237791126684
 23
58.73297159991939
 33
0.0
  0
SOLID
  5
7B3
330
5DC
100
AcDbEntity
  8
RAHM2
100
AcDbTrace
 10
-38.21215319216562
 20
59.01342103812166
 30
0.0
 11
-37.65125431576108
 21
59.01342103812166
 31
0.0
 12
-38.21215319216562
 22
58.59274688081836
 32
0.0
 13
-37.65125431576108
 23
58.59274688081836
 33
0.0
  0
SOLID
  5
7B4
330
5DC
100
AcDbEntity
  8
RAHM2
100
AcDbTrace
 10
-40.03507454048026
 20
58.59274688081836
 30
0.0
 11
-39.61440038317696
 21
58.59274688081836
 31
0.0
 12
-40.03507454048026
 22
58.45252216171712
 32
0.0
 13
-39.61440038317696
 23
58.45252216171712
 33
0.0
  0
SOLID
  5
7B5
330
5DC
100
AcDbEntity
  8
RAHM2
100
AcDbTrace
 10
-40.17529925958131
 20
58.45252216171712
 30
0.0
 11
-39.61440038317696
 21
58.45252216171712
 31
0.0
 12
-40.17529925958131
 22
58.31229744261609
 32
0.0
 13
-39.61440038317696
 23
58.31229744261609
 33
0.0
  0
SOLID
  5
7B6
330
5DC
100
AcDbEntity
  8
RAHM2
100
AcDbTrace
 10
-38.63282734946911
 20
58.59274688081836
 30
0.0
 11
-38.49260263036788
 21
58.59274688081836
 31
0.0
 12
-38.63282734946911
 22
58.45252216171712
 32
0.0
 13
-38.49260263036788
 23
58.45252216171712
 33
0.0
  0
SOLID
  5
7B7
330
5DC
100
AcDbEntity
  8
RAHM2
100
AcDbTrace
 10
-38.91327678767119
 20
58.45252216171712
 30
0.0
 11
-38.63282734946911
 21
58.45252216171712
 31
0.0
 12
-38.91327678767119
 22
58.31229744261609
 32
0.0
 13
-38.63282734946911
 23
58.31229744261609
 33
0.0
  0
SOLID
  5
7B8
330
5DC
100
AcDbEntity
  8
RAHM2
100
AcDbTrace
 10
-38.21215319216562
 20
58.59274688081836
 30
0.0
 11
-37.65125431576108
 21
58.59274688081836
 31
0.0
 12
-38.21215319216562
 22
58.45252216171712
 32
0.0
 13
-37.65125431576108
 23
58.45252216171712
 33
0.0
  0
SOLID
  5
7B9
330
5DC
100
AcDbEntity
  8
RAHM2
100
AcDbTrace
 10
-38.21215319216562
 20
58.45252216171712
 30
0.0
 11
-37.79147903486231
 21
58.45252216171712
 31
0.0
 12
-38.21215319216562
 22
58.31229744261609
 32
0.0
 13
-37.79147903486231
 23
58.31229744261609
 33
0.0
  0
SOLID
  5
7BA
330
5DC
100
AcDbEntity
  8
RAHM2
100
AcDbTrace
 10
-40.17529925958131
 20
58.31229744261609
 30
0.0
 11
-39.61440038317696
 21
58.31229744261609
 31
0.0
 12
-40.17529925958131
 22
58.17207272351486
 32
0.0
 13
-39.61440038317696
 23
58.17207272351486
 33
0.0
  0
SOLID
  5
7BB
330
5DC
100
AcDbEntity
  8
RAHM2
100
AcDbTrace
 10
-39.05350150677242
 20
58.31229744261609
 30
0.0
 11
-38.77305206857015
 21
58.31229744261609
 31
0.0
 12
-39.05350150677242
 22
58.17207272351486
 32
0.0
 13
-38.77305206857015
 23
58.17207272351486
 33
0.0
  0
SOLID
  5
7BC
330
5DC
100
AcDbEntity
  8
RAHM2
100
AcDbTrace
 10
-38.35237791126684
 20
58.31229744261609
 30
0.0
 11
-37.79147903486231
 21
58.31229744261609
 31
0.0
 12
-38.35237791126684
 22
58.17207272351486
 32
0.0
 13
-37.79147903486231
 23
58.17207272351486
 33
0.0
  0
SOLID
  5
7BD
330
5DC
100
AcDbEntity
  8
RAHM2
100
AcDbTrace
 10
-40.17529925958131
 20
58.17207272351486
 30
0.0
 11
-39.47417566407573
 21
58.17207272351486
 31
0.0
 12
-40.17529925958131
 22
58.03184800441382
 32
0.0
 13
-39.47417566407573
 23
58.03184800441382
 33
0.0
  0
SOLID
  5
7BE
330
5DC
100
AcDbEntity
  8
RAHM2
100
AcDbTrace
 10
-39.19372622587346
 20
58.17207272351486
 30
0.0
 11
-38.91327678767119
 21
58.17207272351486
 31
0.0
 12
-39.19372622587346
 22
58.03184800441382
 32
0.0
 13
-38.91327678767119
 23
58.03184800441382
 33
0.0
  0
SOLID
  5
7BF
330
5DC
100
AcDbEntity
  8
RAHM2
100
AcDbTrace
 10
-38.35237791126684
 20
58.17207272351486
 30
0.0
 11
-37.79147903486231
 21
58.17207272351486
 31
0.0
 12
-38.35237791126684
 22
58.03184800441382
 32
0.0
 13
-37.79147903486231
 23
58.03184800441382
 33
0.0
  0
SOLID
  5
7C0
330
5DC
100
AcDbEntity
  8
RAHM2
100
AcDbTrace
 10
-37.65125431576108
 20
58.17207272351486
 30
0.0
 11
-37.23058015845777
 21
58.17207272351486
 31
0.0
 12
-37.65125431576108
 22
58.03184800441382
 32
0.0
 13
-37.23058015845777
 23
58.03184800441382
 33
0.0
  0
SOLID
  5
7C1
330
5DC
100
AcDbEntity
  8
RAHM2
100
AcDbTrace
 10
-40.03507454048026
 20
58.03184800441382
 30
0.0
 11
-39.05350150677242
 21
58.03184800441382
 31
0.0
 12
-40.03507454048026
 22
57.89162328531259
 32
0.0
 13
-39.05350150677242
 23
57.89162328531259
 33
0.0
  0
SOLID
  5
7C2
330
5DC
100
AcDbEntity
  8
RAHM2
100
AcDbTrace
 10
-40.03507454048026
 20
57.89162328531259
 30
0.0
 11
-39.19372622587346
 21
57.89162328531259
 31
0.0
 12
-40.03507454048026
 22
57.75139856621155
 32
0.0
 13
-39.19372622587346
 23
57.75139856621155
 33
0.0
  0
SOLID
  5
7C3
330
5DC
100
AcDbEntity
  8
RAHM2
100
AcDbTrace
 10
-38.35237791126684
 20
58.03184800441382
 30
0.0
 11
-37.51102959666004
 21
58.03184800441382
 31
0.0
 12
-38.35237791126684
 22
57.89162328531259
 32
0.0
 13
-37.51102959666004
 23
57.89162328531259
 33
0.0
  0
SOLID
  5
7C4
330
5DC
100
AcDbEntity
  8
RAHM2
100
AcDbTrace
 10
-38.35237791126684
 20
57.89162328531259
 30
0.0
 11
-37.79147903486231
 21
57.89162328531259
 31
0.0
 12
-38.35237791126684
 22
57.75139856621155
 32
0.0
 13
-37.79147903486231
 23
57.75139856621155
 33
0.0
  0
SOLID
  5
7C5
330
5DC
100
AcDbEntity
  8
RAHM2
100
AcDbTrace
 10
-39.89484982137923
 20
57.75139856621155
 30
0.0
 11
-39.47417566407573
 21
57.75139856621155
 31
0.0
 12
-39.89484982137923
 22
57.61117384711032
 32
0.0
 13
-39.47417566407573
 23
57.61117384711032
 33
0.0
  0
SOLID
  5
7C6
330
5DC
100
AcDbEntity
  8
RAHM2
100
AcDbTrace
 10
-38.35237791126684
 20
57.75139856621155
 30
0.0
 11
-37.93170375396335
 21
57.75139856621155
 31
0.0
 12
-38.35237791126684
 22
57.61117384711032
 32
0.0
 13
-37.93170375396335
 23
57.61117384711032
 33
0.0
  0
SOLID
  5
7C7
330
5DC
100
AcDbEntity
  8
RAHM2
100
AcDbTrace
 10
-35.26743409104208
 20
60.83634238643631
 30
0.0
 11
-35.12720937194085
 21
60.83634238643631
 31
0.0
 12
-35.26743409104208
 22
60.69611766733508
 32
0.0
 13
-35.12720937194085
 23
60.69611766733508
 33
0.0
  0
SOLID
  5
7C8
330
5DC
100
AcDbEntity
  8
RAHM2
100
AcDbTrace
 10
-33.72496218092969
 20
60.83634238643631
 30
0.0
 11
-33.44451274272743
 21
60.83634238643631
 31
0.0
 12
-33.72496218092969
 22
60.69611766733508
 32
0.0
 13
-33.44451274272743
 23
60.69611766733508
 33
0.0
  0
SOLID
  5
7C9
330
5DC
100
AcDbEntity
  8
RAHM2
100
AcDbTrace
 10
-35.68810824834539
 20
60.69611766733508
 30
0.0
 11
-35.12720937194085
 21
60.69611766733508
 31
0.0
 12
-35.68810824834539
 22
60.55589294823405
 32
0.0
 13
-35.12720937194085
 23
60.55589294823405
 33
0.0
  0
SOLID
  5
7CA
330
5DC
100
AcDbEntity
  8
RAHM2
100
AcDbTrace
 10
-34.14563633823301
 20
60.69611766733508
 30
0.0
 11
-33.30428802362638
 21
60.69611766733508
 31
0.0
 12
-34.14563633823301
 22
60.55589294823405
 32
0.0
 13
-33.30428802362638
 23
60.55589294823405
 33
0.0
  0
SOLID
  5
7CB
330
5DC
100
AcDbEntity
  8
RAHM2
100
AcDbTrace
 10
-36.10878240564888
 20
60.55589294823405
 30
0.0
 11
-35.12720937194085
 21
60.55589294823405
 31
0.0
 12
-36.10878240564888
 22
60.41566822913281
 32
0.0
 13
-35.12720937194085
 23
60.41566822913281
 33
0.0
  0
SOLID
  5
7CC
330
5DC
100
AcDbEntity
  8
RAHM2
100
AcDbTrace
 10
-34.28586105733423
 20
60.55589294823405
 30
0.0
 11
-33.30428802362638
 21
60.55589294823405
 31
0.0
 12
-34.28586105733423
 22
60.41566822913281
 32
0.0
 13
-33.30428802362638
 23
60.41566822913281
 33
0.0
  0
SOLID
  5
7CD
330
5DC
100
AcDbEntity
  8
RAHM2
100
AcDbTrace
 10
-36.38923184385097
 20
60.41566822913281
 30
0.0
 11
-36.10878240564888
 21
60.41566822913281
 31
0.0
 12
-36.38923184385097
 22
60.27544351003178
 32
0.0
 13
-36.10878240564888
 23
60.27544351003178
 33
0.0
  0
SOLID
  5
7CE
330
5DC
100
AcDbEntity
  8
RAHM2
100
AcDbTrace
 10
-35.82833296744662
 20
60.41566822913281
 30
0.0
 11
-35.12720937194085
 21
60.41566822913281
 31
0.0
 12
-35.82833296744662
 22
60.27544351003178
 32
0.0
 13
-35.12720937194085
 23
60.27544351003178
 33
0.0
  0
SOLID
  5
7CF
330
5DC
100
AcDbEntity
  8
RAHM2
100
AcDbTrace
 10
-34.5663104955365
 20
60.41566822913281
 30
0.0
 11
-34.14563633823301
 21
60.41566822913281
 31
0.0
 12
-34.5663104955365
 22
60.27544351003178
 32
0.0
 13
-34.14563633823301
 23
60.27544351003178
 33
0.0
  0
SOLID
  5
7D0
330
5DC
100
AcDbEntity
  8
RAHM2
100
AcDbTrace
 10
-33.86518690003074
 20
60.41566822913281
 30
0.0
 11
-33.30428802362638
 21
60.41566822913281
 31
0.0
 12
-33.86518690003074
 22
60.27544351003178
 32
0.0
 13
-33.30428802362638
 23
60.27544351003178
 33
0.0
  0
SOLID
  5
7D1
330
5DC
100
AcDbEntity
  8
RAHM2
100
AcDbTrace
 10
-35.82833296744662
 20
60.27544351003178
 30
0.0
 11
-35.12720937194085
 21
60.27544351003178
 31
0.0
 12
-35.82833296744662
 22
60.13521879093055
 32
0.0
 13
-35.12720937194085
 23
60.13521879093055
 33
0.0
  0
SOLID
  5
7D2
330
5DC
100
AcDbEntity
  8
RAHM2
100
AcDbTrace
 10
-34.70653521463754
 20
60.27544351003178
 30
0.0
 11
-34.42608577643528
 21
60.27544351003178
 31
0.0
 12
-34.70653521463754
 22
60.13521879093055
 32
0.0
 13
-34.42608577643528
 23
60.13521879093055
 33
0.0
  0
SOLID
  5
7D3
330
5DC
100
AcDbEntity
  8
RAHM2
100
AcDbTrace
 10
-33.86518690003074
 20
60.27544351003178
 30
0.0
 11
-33.30428802362638
 21
60.27544351003178
 31
0.0
 12
-33.86518690003074
 22
60.13521879093055
 32
0.0
 13
-33.30428802362638
 23
60.13521879093055
 33
0.0
  0
SOLID
  5
7D4
330
5DC
100
AcDbEntity
  8
RAHM2
100
AcDbTrace
 10
-35.82833296744662
 20
60.13521879093055
 30
0.0
 11
-35.26743409104208
 21
60.13521879093055
 31
0.0
 12
-35.82833296744662
 22
59.85476935272828
 32
0.0
 13
-35.26743409104208
 23
59.85476935272828
 33
0.0
  0
SOLID
  5
7D5
330
5DC
100
AcDbEntity
  8
RAHM2
100
AcDbTrace
 10
-34.84675993373877
 20
60.13521879093055
 30
0.0
 11
-34.5663104955365
 21
60.13521879093055
 31
0.0
 12
-34.84675993373877
 22
59.99499407182951
 32
0.0
 13
-34.5663104955365
 23
59.99499407182951
 33
0.0
  0
SOLID
  5
7D6
330
5DC
100
AcDbEntity
  8
RAHM2
100
AcDbTrace
 10
-34.98698465283981
 20
59.99499407182951
 30
0.0
 11
-34.70653521463754
 21
59.99499407182951
 31
0.0
 12
-34.98698465283981
 22
59.85476935272828
 32
0.0
 13
-34.70653521463754
 23
59.85476935272828
 33
0.0
  0
SOLID
  5
7D7
330
5DC
100
AcDbEntity
  8
RAHM2
100
AcDbTrace
 10
-33.86518690003074
 20
60.13521879093055
 30
0.0
 11
-33.30428802362638
 21
60.13521879093055
 31
0.0
 12
-33.86518690003074
 22
59.85476935272828
 32
0.0
 13
-33.30428802362638
 23
59.85476935272828
 33
0.0
  0
SOLID
  5
7D8
330
5DC
100
AcDbEntity
  8
RAHM2
100
AcDbTrace
 10
-35.82833296744662
 20
59.85476935272828
 30
0.0
 11
-35.26743409104208
 21
59.85476935272828
 31
0.0
 12
-35.82833296744662
 22
59.71454463362724
 32
0.0
 13
-35.26743409104208
 23
59.71454463362724
 33
0.0
  0
SOLID
  5
7D9
330
5DC
100
AcDbEntity
  8
RAHM2
100
AcDbTrace
 10
-34.98698465283981
 20
59.85476935272828
 30
0.0
 11
-34.84675993373877
 21
59.85476935272828
 31
0.0
 12
-34.98698465283981
 22
59.71454463362724
 32
0.0
 13
-34.84675993373877
 23
59.71454463362724
 33
0.0
  0
SOLID
  5
7DA
330
5DC
100
AcDbEntity
  8
RAHM2
100
AcDbTrace
 10
-33.86518690003074
 20
59.85476935272828
 30
0.0
 11
-33.30428802362638
 21
59.85476935272828
 31
0.0
 12
-33.86518690003074
 22
59.71454463362724
 32
0.0
 13
-33.30428802362638
 23
59.71454463362724
 33
0.0
  0
SOLID
  5
7DB
330
5DC
100
AcDbEntity
  8
RAHM2
100
AcDbTrace
 10
-35.82833296744662
 20
59.71454463362724
 30
0.0
 11
-35.26743409104208
 21
59.71454463362724
 31
0.0
 12
-35.82833296744662
 22
59.5743199145262
 32
0.0
 13
-35.26743409104208
 23
59.5743199145262
 33
0.0
  0
SOLID
  5
7DC
330
5DC
100
AcDbEntity
  8
RAHM2
100
AcDbTrace
 10
-35.96855768654766
 20
59.5743199145262
 30
0.0
 11
-35.40765881014312
 21
59.5743199145262
 31
0.0
 12
-35.96855768654766
 22
59.43409519542497
 32
0.0
 13
-35.40765881014312
 23
59.43409519542497
 33
0.0
  0
SOLID
  5
7DD
330
5DC
100
AcDbEntity
  8
RAHM2
100
AcDbTrace
 10
-35.12720937194085
 20
59.71454463362724
 30
0.0
 11
-34.98698465283981
 21
59.71454463362724
 31
0.0
 12
-35.12720937194085
 22
59.5743199145262
 32
0.0
 13
-34.98698465283981
 23
59.5743199145262
 33
0.0
  0
SOLID
  5
7DE
330
5DC
100
AcDbEntity
  8
RAHM2
100
AcDbTrace
 10
-35.26743409104208
 20
59.5743199145262
 30
0.0
 11
-35.12720937194085
 21
59.5743199145262
 31
0.0
 12
-35.26743409104208
 22
59.43409519542497
 32
0.0
 13
-35.12720937194085
 23
59.43409519542497
 33
0.0
  0
SOLID
  5
7DF
330
5DC
100
AcDbEntity
  8
RAHM2
100
AcDbTrace
 10
-33.86518690003074
 20
59.71454463362724
 30
0.0
 11
-33.44451274272743
 21
59.71454463362724
 31
0.0
 12
-33.86518690003074
 22
59.43409519542497
 32
0.0
 13
-33.44451274272743
 23
59.43409519542497
 33
0.0
  0
SOLID
  5
7E0
330
5DC
100
AcDbEntity
  8
RAHM2
100
AcDbTrace
 10
-35.96855768654766
 20
59.43409519542497
 30
0.0
 11
-35.12720937194085
 21
59.43409519542497
 31
0.0
 12
-35.96855768654766
 22
59.29387047632393
 32
0.0
 13
-35.12720937194085
 23
59.29387047632393
 33
0.0
  0
SOLID
  5
7E1
330
5DC
100
AcDbEntity
  8
RAHM2
100
AcDbTrace
 10
-35.96855768654766
 20
59.29387047632393
 30
0.0
 11
-35.26743409104208
 21
59.29387047632393
 31
0.0
 12
-35.96855768654766
 22
59.01342103812166
 32
0.0
 13
-35.26743409104208
 23
59.01342103812166
 33
0.0
  0
SOLID
  5
7E2
330
5DC
100
AcDbEntity
  8
RAHM2
100
AcDbTrace
 10
-34.00541161913196
 20
59.43409519542497
 30
0.0
 11
-33.44451274272743
 21
59.43409519542497
 31
0.0
 12
-34.00541161913196
 22
59.15364575722271
 32
0.0
 13
-33.44451274272743
 23
59.15364575722271
 33
0.0
  0
SOLID
  5
7E3
330
5DC
100
AcDbEntity
  8
RAHM2
100
AcDbTrace
 10
-34.00541161913196
 20
59.15364575722271
 30
0.0
 11
-33.58473746182865
 21
59.15364575722271
 31
0.0
 12
-34.00541161913196
 22
59.01342103812166
 32
0.0
 13
-33.58473746182865
 23
59.01342103812166
 33
0.0
  0
SOLID
  5
7E4
330
5DC
100
AcDbEntity
  8
RAHM2
100
AcDbTrace
 10
-36.10878240564888
 20
59.01342103812166
 30
0.0
 11
-35.40765881014312
 21
59.01342103812166
 31
0.0
 12
-36.10878240564888
 22
58.73297159991939
 32
0.0
 13
-35.40765881014312
 23
58.73297159991939
 33
0.0
  0
SOLID
  5
7E5
330
5DC
100
AcDbEntity
  8
RAHM2
100
AcDbTrace
 10
-36.10878240564888
 20
58.73297159991939
 30
0.0
 11
-35.54788352924435
 21
58.73297159991939
 31
0.0
 12
-36.10878240564888
 22
58.45252216171712
 32
0.0
 13
-35.54788352924435
 23
58.45252216171712
 33
0.0
  0
SOLID
  5
7E6
330
5DC
100
AcDbEntity
  8
RAHM2
100
AcDbTrace
 10
-34.00541161913196
 20
59.01342103812166
 30
0.0
 11
-33.58473746182865
 21
59.01342103812166
 31
0.0
 12
-34.00541161913196
 22
58.87319631902044
 32
0.0
 13
-33.58473746182865
 23
58.87319631902044
 33
0.0
  0
SOLID
  5
7E7
330
5DC
100
AcDbEntity
  8
RAHM2
100
AcDbTrace
 10
-34.14563633823301
 20
58.87319631902044
 30
0.0
 11
-33.58473746182865
 21
58.87319631902044
 31
0.0
 12
-34.14563633823301
 22
58.59274688081836
 32
0.0
 13
-33.58473746182865
 23
58.59274688081836
 33
0.0
  0
SOLID
  5
7E8
330
5DC
100
AcDbEntity
  8
RAHM2
100
AcDbTrace
 10
-34.14563633823301
 20
58.59274688081836
 30
0.0
 11
-33.72496218092969
 21
58.59274688081836
 31
0.0
 12
-34.14563633823301
 22
58.45252216171712
 32
0.0
 13
-33.72496218092969
 23
58.45252216171712
 33
0.0
  0
SOLID
  5
7E9
330
5DC
100
AcDbEntity
  8
RAHM2
100
AcDbTrace
 10
-36.10878240564888
 20
58.45252216171712
 30
0.0
 11
-35.54788352924435
 21
58.45252216171712
 31
0.0
 12
-36.10878240564888
 22
58.31229744261609
 32
0.0
 13
-35.54788352924435
 23
58.31229744261609
 33
0.0
  0
SOLID
  5
7EA
330
5DC
100
AcDbEntity
  8
RAHM2
100
AcDbTrace
 10
-34.28586105733423
 20
58.45252216171712
 30
0.0
 11
-33.72496218092969
 21
58.45252216171712
 31
0.0
 12
-34.28586105733423
 22
58.31229744261609
 32
0.0
 13
-33.72496218092969
 23
58.31229744261609
 33
0.0
  0
SOLID
  5
7EB
330
5DC
100
AcDbEntity
  8
RAHM2
100
AcDbTrace
 10
-36.24900712474993
 20
58.31229744261609
 30
0.0
 11
-35.68810824834539
 21
58.31229744261609
 31
0.0
 12
-36.24900712474993
 22
58.17207272351486
 32
0.0
 13
-35.68810824834539
 23
58.17207272351486
 33
0.0
  0
SOLID
  5
7EC
330
5DC
100
AcDbEntity
  8
RAHM2
100
AcDbTrace
 10
-34.28586105733423
 20
58.31229744261609
 30
0.0
 11
-33.72496218092969
 21
58.31229744261609
 31
0.0
 12
-34.28586105733423
 22
58.17207272351486
 32
0.0
 13
-33.72496218092969
 23
58.17207272351486
 33
0.0
  0
SOLID
  5
7ED
330
5DC
100
AcDbEntity
  8
RAHM2
100
AcDbTrace
 10
-33.30428802362638
 20
58.31229744261609
 30
0.0
 11
-33.16406330452516
 21
58.31229744261609
 31
0.0
 12
-33.30428802362638
 22
58.17207272351486
 32
0.0
 13
-33.16406330452516
 23
58.17207272351486
 33
0.0
  0
SOLID
  5
7EE
330
5DC
100
AcDbEntity
  8
RAHM2
100
AcDbTrace
 10
-36.24900712474993
 20
58.17207272351486
 30
0.0
 11
-35.68810824834539
 21
58.17207272351486
 31
0.0
 12
-36.24900712474993
 22
58.03184800441382
 32
0.0
 13
-35.68810824834539
 23
58.03184800441382
 33
0.0
  0
SOLID
  5
7EF
330
5DC
100
AcDbEntity
  8
RAHM2
100
AcDbTrace
 10
-34.28586105733423
 20
58.17207272351486
 30
0.0
 11
-33.72496218092969
 21
58.17207272351486
 31
0.0
 12
-34.28586105733423
 22
58.03184800441382
 32
0.0
 13
-33.72496218092969
 23
58.03184800441382
 33
0.0
  0
SOLID
  5
7F0
330
5DC
100
AcDbEntity
  8
RAHM2
100
AcDbTrace
 10
-33.58473746182865
 20
58.17207272351486
 30
0.0
 11
-33.16406330452516
 21
58.17207272351486
 31
0.0
 12
-33.58473746182865
 22
58.03184800441382
 32
0.0
 13
-33.16406330452516
 23
58.03184800441382
 33
0.0
  0
SOLID
  5
7F1
330
5DC
100
AcDbEntity
  8
RAHM2
100
AcDbTrace
 10
-36.24900712474993
 20
58.03184800441382
 30
0.0
 11
-35.68810824834539
 21
58.03184800441382
 31
0.0
 12
-36.24900712474993
 22
57.75139856621155
 32
0.0
 13
-35.68810824834539
 23
57.75139856621155
 33
0.0
  0
SOLID
  5
7F2
330
5DC
100
AcDbEntity
  8
RAHM2
100
AcDbTrace
 10
-34.28586105733423
 20
58.03184800441382
 30
0.0
 11
-33.44451274272743
 21
58.03184800441382
 31
0.0
 12
-34.28586105733423
 22
57.89162328531259
 32
0.0
 13
-33.44451274272743
 23
57.89162328531259
 33
0.0
  0
SOLID
  5
7F3
330
5DC
100
AcDbEntity
  8
RAHM2
100
AcDbTrace
 10
-34.42608577643528
 20
57.89162328531259
 30
0.0
 11
-33.72496218092969
 21
57.89162328531259
 31
0.0
 12
-34.42608577643528
 22
57.75139856621155
 32
0.0
 13
-33.72496218092969
 23
57.75139856621155
 33
0.0
  0
SOLID
  5
7F4
330
5DC
100
AcDbEntity
  8
RAHM2
100
AcDbTrace
 10
-36.38923184385097
 20
57.75139856621155
 30
0.0
 11
-35.82833296744662
 21
57.75139856621155
 31
0.0
 12
-36.38923184385097
 22
57.61117384711032
 32
0.0
 13
-35.82833296744662
 23
57.61117384711032
 33
0.0
  0
SOLID
  5
7F5
330
5DC
100
AcDbEntity
  8
RAHM2
100
AcDbTrace
 10
-34.28586105733423
 20
57.75139856621155
 30
0.0
 11
-34.00541161913196
 21
57.75139856621155
 31
0.0
 12
-34.28586105733423
 22
57.61117384711032
 32
0.0
 13
-34.00541161913196
 23
57.61117384711032
 33
0.0
  0
SOLID
  5
7F6
330
5DC
100
AcDbEntity
  8
RAHM2
100
AcDbTrace
 10
-30.92046779890719
 20
61.81791542014416
 30
0.0
 11
-30.78024307980615
 21
61.81791542014416
 31
0.0
 12
-30.92046779890719
 22
61.67769070104293
 32
0.0
 13
-30.78024307980615
 23
61.67769070104293
 33
0.0
  0
SOLID
  5
7F7
330
5DC
100
AcDbEntity
  8
RAHM2
100
AcDbTrace
 10
-31.06069251800842
 20
61.67769070104293
 30
0.0
 11
-30.78024307980615
 21
61.67769070104293
 31
0.0
 12
-31.06069251800842
 22
61.53746598194189
 32
0.0
 13
-30.78024307980615
 23
61.53746598194189
 33
0.0
  0
SOLID
  5
7F8
330
5DC
100
AcDbEntity
  8
RAHM2
100
AcDbTrace
 10
-31.20091723710946
 20
61.53746598194189
 30
0.0
 11
-30.78024307980615
 21
61.53746598194189
 31
0.0
 12
-31.20091723710946
 22
61.39724126284066
 32
0.0
 13
-30.78024307980615
 23
61.39724126284066
 33
0.0
  0
SOLID
  5
7F9
330
5DC
100
AcDbEntity
  8
RAHM2
100
AcDbTrace
 10
-31.3411419562105
 20
61.39724126284066
 30
0.0
 11
-30.78024307980615
 21
61.39724126284066
 31
0.0
 12
-31.3411419562105
 22
61.1167918246384
 32
0.0
 13
-30.78024307980615
 23
61.1167918246384
 33
0.0
  0
SOLID
  5
7FA
330
5DC
100
AcDbEntity
  8
RAHM2
100
AcDbTrace
 10
-31.3411419562105
 20
61.1167918246384
 30
0.0
 11
-30.92046779890719
 21
61.1167918246384
 31
0.0
 12
-31.3411419562105
 22
60.97656710553735
 32
0.0
 13
-30.92046779890719
 23
60.97656710553735
 33
0.0
  0
SOLID
  5
7FB
330
5DC
100
AcDbEntity
  8
RAHM2
100
AcDbTrace
 10
-31.48136667531173
 20
60.97656710553735
 30
0.0
 11
-30.92046779890719
 21
60.97656710553735
 31
0.0
 12
-31.48136667531173
 22
60.83634238643631
 32
0.0
 13
-30.92046779890719
 23
60.83634238643631
 33
0.0
  0
SOLID
  5
7FC
330
5DC
100
AcDbEntity
  8
RAHM2
100
AcDbTrace
 10
-32.04226555171627
 20
60.83634238643631
 30
0.0
 11
-30.07911948430039
 21
60.83634238643631
 31
0.0
 12
-32.04226555171627
 22
60.69611766733508
 32
0.0
 13
-30.07911948430039
 23
60.69611766733508
 33
0.0
  0
SOLID
  5
7FD
330
5DC
100
AcDbEntity
  8
RAHM2
100
AcDbTrace
 10
-32.04226555171627
 20
60.69611766733508
 30
0.0
 11
-30.07911948430039
 21
60.69611766733508
 31
0.0
 12
-32.04226555171627
 22
60.55589294823405
 32
0.0
 13
-30.07911948430039
 23
60.55589294823405
 33
0.0
  0
SOLID
  5
7FE
330
5DC
100
AcDbEntity
  8
RAHM2
100
AcDbTrace
 10
-31.62159139441277
 20
60.55589294823405
 30
0.0
 11
-31.06069251800842
 21
60.55589294823405
 31
0.0
 12
-31.62159139441277
 22
59.99499407182951
 32
0.0
 13
-31.06069251800842
 23
59.99499407182951
 33
0.0
  0
SOLID
  5
7FF
330
5DC
100
AcDbEntity
  8
RAHM2
100
AcDbTrace
 10
-31.761816113514
 20
59.99499407182951
 30
0.0
 11
-31.20091723710946
 21
59.99499407182951
 31
0.0
 12
-31.761816113514
 22
59.43409519542497
 32
0.0
 13
-31.20091723710946
 23
59.43409519542497
 33
0.0
  0
SOLID
  5
800
330
5DC
100
AcDbEntity
  8
RAHM2
100
AcDbTrace
 10
-31.761816113514
 20
59.43409519542497
 30
0.0
 11
-31.3411419562105
 21
59.43409519542497
 31
0.0
 12
-31.761816113514
 22
59.15364575722271
 32
0.0
 13
-31.3411419562105
 23
59.15364575722271
 33
0.0
  0
SOLID
  5
801
330
5DC
100
AcDbEntity
  8
RAHM2
100
AcDbTrace
 10
-31.90204083261504
 20
59.15364575722271
 30
0.0
 11
-31.3411419562105
 21
59.15364575722271
 31
0.0
 12
-31.90204083261504
 22
58.73297159991939
 32
0.0
 13
-31.3411419562105
 23
58.73297159991939
 33
0.0
  0
SOLID
  5
802
330
5DC
100
AcDbEntity
  8
RAHM2
100
AcDbTrace
 10
-31.90204083261504
 20
58.73297159991939
 30
0.0
 11
-31.48136667531173
 21
58.73297159991939
 31
0.0
 12
-31.90204083261504
 22
58.59274688081836
 32
0.0
 13
-31.48136667531173
 23
58.59274688081836
 33
0.0
  0
SOLID
  5
803
330
5DC
100
AcDbEntity
  8
RAHM2
100
AcDbTrace
 10
-31.90204083261504
 20
58.59274688081836
 30
0.0
 11
-31.48136667531173
 21
58.59274688081836
 31
0.0
 12
-31.90204083261504
 22
58.45252216171712
 32
0.0
 13
-31.48136667531173
 23
58.45252216171712
 33
0.0
  0
SOLID
  5
804
330
5DC
100
AcDbEntity
  8
RAHM2
100
AcDbTrace
 10
-32.04226555171627
 20
58.45252216171712
 30
0.0
 11
-31.48136667531173
 21
58.45252216171712
 31
0.0
 12
-32.04226555171627
 22
58.31229744261609
 32
0.0
 13
-31.48136667531173
 23
58.31229744261609
 33
0.0
  0
SOLID
  5
805
330
5DC
100
AcDbEntity
  8
RAHM2
100
AcDbTrace
 10
-32.04226555171627
 20
58.31229744261609
 30
0.0
 11
-31.3411419562105
 21
58.31229744261609
 31
0.0
 12
-32.04226555171627
 22
58.17207272351486
 32
0.0
 13
-31.3411419562105
 23
58.17207272351486
 33
0.0
  0
SOLID
  5
806
330
5DC
100
AcDbEntity
  8
RAHM2
100
AcDbTrace
 10
-32.04226555171627
 20
58.17207272351486
 30
0.0
 11
-31.3411419562105
 21
58.17207272351486
 31
0.0
 12
-32.04226555171627
 22
58.03184800441382
 32
0.0
 13
-31.3411419562105
 23
58.03184800441382
 33
0.0
  0
SOLID
  5
807
330
5DC
100
AcDbEntity
  8
RAHM2
100
AcDbTrace
 10
-30.64001836070493
 20
58.17207272351486
 30
0.0
 11
-30.49979364160388
 21
58.17207272351486
 31
0.0
 12
-30.64001836070493
 22
58.03184800441382
 32
0.0
 13
-30.49979364160388
 23
58.03184800441382
 33
0.0
  0
SOLID
  5
808
330
5DC
100
AcDbEntity
  8
RAHM2
100
AcDbTrace
 10
-32.04226555171627
 20
58.03184800441382
 30
0.0
 11
-30.49979364160388
 21
58.03184800441382
 31
0.0
 12
-32.04226555171627
 22
57.89162328531259
 32
0.0
 13
-30.49979364160388
 23
57.89162328531259
 33
0.0
  0
SOLID
  5
809
330
5DC
100
AcDbEntity
  8
RAHM2
100
AcDbTrace
 10
-32.04226555171627
 20
57.89162328531259
 30
0.0
 11
-30.64001836070493
 21
57.89162328531259
 31
0.0
 12
-32.04226555171627
 22
57.75139856621155
 32
0.0
 13
-30.64001836070493
 23
57.75139856621155
 33
0.0
  0
SOLID
  5
80A
330
5DC
100
AcDbEntity
  8
RAHM2
100
AcDbTrace
 10
-31.90204083261504
 20
57.75139856621155
 30
0.0
 11
-31.20091723710946
 21
57.75139856621155
 31
0.0
 12
-31.90204083261504
 22
57.61117384711032
 32
0.0
 13
-31.20091723710946
 23
57.61117384711032
 33
0.0
  0
ATTDEF
  5
80B
330
5DC
100
AcDbEntity
  8
RAHM3
100
AcDbText
 10
-100.6895275842899
 20
38.58583043117892
 30
0.0
 40
3.0
  1
-
 72
     1
 11
-99.68952758428997
 21
38.58583043117892
 31
0.0
100
AcDbAttributeDefinition
  3
(genmsg"gendwg"83)
  2
GEN-TITLE-SCA{5.42}
 70
     0
1001
GENIUS_GENBLLY_14
1000
BOR3
  0
TEXT
  5
80C
330
5DC
100
AcDbEntity
  8
0N
100
AcDbText
 10
-180.0433753026868
 20
97.16012098886922
 30
0.0
 40
3.5
  1
Zeichnungen größer darstellenden Maßstabes bzw. Einzelteilzeichnungen
 41
0.9
100
AcDbText
  0
TEXT
  5
80D
330
5DC
100
AcDbEntity
  8
0N
100
AcDbText
 10
-180.0433753026868
 20
91.14471067045299
 30
0.0
 40
3.5
  1
haben vorrangige Gültigkeit
 41
0.9
100
AcDbText
  0
LINE
  5
80E
330
5DC
100
AcDbEntity
  8
KOPF
 62
    12
100
AcDbLine
 10
0.0
 20
103.4999999999999
 30
0.0
 11
-182.0
 21
103.4999999999999
 31
0.0
  0
LINE
  5
80F
330
5DC
100
AcDbEntity
  8
KOPF
100
AcDbLine
 10
0.0
 20
103.4999999999999
 30
0.0
 11
-182.0
 21
103.4999999999999
 31
0.0
  0
ENDBLK
  5
810
330
5DC
100
AcDbEntity
  8
0
100
AcDbBlockEnd
  0
BLOCK
  5
812
330
811
100
AcDbEntity
  8
0
100
AcDbBlockBegin
  2
GENZOOIJNBVB3
 70
     0
 10
0.0
 20
0.0
 30
0.0
  3
GENZOOIJNBVB3
  1

  0
CIRCLE
  5
813
330
811
100
AcDbEntity
  8
WHITE
  6
Continuous
100
AcDbCircle
 10
6.453833318453121
 20
0.0
 30
0.0
 40
2.277733996314847
  0
CIRCLE
  5
814
330
811
100
AcDbEntity
  8
WHITE
  6
Continuous
100
AcDbCircle
 10
6.453833318453121
 20
0.0
 30
0.0
 40
1.576892766679509
  0
ARC
  5
815
330
811
100
AcDbEntity
  8
WHITE
100
AcDbCircle
 10
-3.124894526218326
 20
-2.333109784966268
 30
0.0
 40
4.905835633809448
100
AcDbArc
 50
172.3057540000012
 51
179.7112909999983
  0
LINE
  5
816
330
811
100
AcDbEntity
  8
WHITE
100
AcDbLine
 10
-7.98656033324346
 20
-1.676283536096804
 30
0.0
 11
-4.921112416005485
 21
-1.676283536096804
 31
0.0
  0
ARC
  5
817
330
811
100
AcDbEntity
  8
WHITE
100
AcDbCircle
 10
-9.782843421354186
 20
-2.333113859861612
 30
0.0
 40
4.905898794685424
100
AcDbArc
 50
0.2887579999957042
 51
7.694197000004674
  0
LINE
  5
818
330
811
100
AcDbEntity
  8
WHITE
100
AcDbLine
 10
-4.877005750097168
 20
-2.308389433087711
 30
0.0
 11
-4.176158408119135
 21
-2.308389433087711
 31
0.0
  0
ARC
  5
819
330
811
100
AcDbEntity
  8
WHITE
100
AcDbCircle
 10
-9.782843421354186
 20
-2.333113859861612
 30
0.0
 40
5.606740024320764
100
AcDbArc
 50
0.2526630000050822
 51
53.57637100000324
  0
ARC
  5
81A
330
811
100
AcDbEntity
  8
WHITE
100
AcDbCircle
 10
-3.124894526218326
 20
-2.333109784966268
 30
0.0
 40
5.606699275368519
100
AcDbArc
 50
126.4231449999945
 51
179.7473799999977
  0
LINE
  5
81B
330
811
100
AcDbEntity
  8
WHITE
100
AcDbLine
 10
-8.731516378577907
 20
-2.308389433087711
 30
0.0
 11
-8.03066699915189
 21
-2.308389433087711
 31
0.0
  0
ARC
  5
81C
330
811
100
AcDbEntity
  8
WHITE
  6
Continuous
100
AcDbCircle
 10
0.0
 20
0.0
 30
0.0
 40
1.576890729231897
100
AcDbArc
 50
31.05578300000499
 51
329.9999750000025
  0
LINE
  5
81D
330
811
100
AcDbEntity
  8
WHITE
  6
Continuous
100
AcDbLine
 10
1.350868515823094
 20
0.8134754085312891
 30
0.0
 11
1.957885282917686
 21
1.163938809748742
 31
0.0
  0
ARC
  5
81E
330
811
100
AcDbEntity
  8
WHITE
  6
Continuous
100
AcDbCircle
 10
0.0
 20
0.0
 30
0.0
 40
2.277731958867235
100
AcDbArc
 50
30.73095099999774
 51
329.9999720000071
  0
LINE
  5
81F
330
811
100
AcDbEntity
  8
WHITE
  6
Continuous
100
AcDbLine
 10
1.972573242753924
 20
-1.138865979433802
 30
0.0
 11
1.365627786325603
 21
-0.7884453646161802
 31
0.0
  0
ARC
  5
820
330
811
100
AcDbEntity
  8
WHITE
100
AcDbCircle
 10
-9.782843421354186
 20
-2.333113859861612
 30
0.0
 40
4.905898794685424
100
AcDbArc
 50
16.0658920000019
 51
47.26783700000162
  0
LINE
  5
821
330
811
100
AcDbEntity
  8
WHITE
100
AcDbLine
 10
-5.06854823756521
 20
-0.9754423064612467
 30
0.0
 11
-7.839126549131606
 21
-0.9754423064612467
 31
0.0
  0
ARC
  5
822
330
811
100
AcDbEntity
  8
WHITE
100
AcDbCircle
 10
-3.124894526218326
 20
-2.333109784966268
 30
0.0
 40
4.905851933390343
100
AcDbArc
 50
132.7316659999998
 51
163.9339569999975
  0
HATCH
  5
823
330
811
100
AcDbEntity
  8
AM_8
100
AcDbHatch
 10
0.0
 20
0.0
 30
0.0
210
0.0
220
0.0
230
1.0
  2
_U
 70
     0
 71
     0
 91
        1
 92
        1
 93
        4
 72
     2
 10
0.0
 20
0.0
 40
2.277731958867238
 50
30.73096496929825
 51
329.9999720000063
 73
     1
 72
     1
 10
1.972573182835617
 20
-1.138866943414654
 11
1.365627086482618
 21
-0.788445960483216
 72
     2
 10
0.0
 20
-0.0000000000000142
 40
1.576890729231897
 50
30.0000249999977
 51
328.9442169999937
 73
     0
 72
     1
 10
1.350867814038679
 20
0.8134743517356355
 11
1.957884245333985
 21
1.163938210695889
 97
        0
 75
     0
 76
     0
 52
45.0
 41
0.09
 77
     1
 78
     2
 53
45.0
 43
-176.4571517690805
 44
-54.26157204673851
 45
-0.0636396103067893
 46
0.0636396103067893
 79
     0
 53
135.0
 43
-176.4571517690805
 44
-54.26157204673851
 45
-0.0636396103067893
 46
-0.0636396103067893
 79
     0
 98
        1
 10
-176.4571517690805
 20
-54.26157204673851
1001
GENIUS_GENODEF_13
1002
{
1000
HIER
1070
     0
1002
}
1002
{
1000
MANEDIT
1070
     0
1002
}
1002
{
1000
NOSEL
1070
     0
1002
}
1002
{
1000
BEHIND
1070
     0
1002
}
1002
{
1000
OTHER
1070
     0
1002
}
1002
{
1000
REACTOR
1002
}
1001
GENIUS_GENOBJ-N-HTC_13
1002
{
1000
OWNER
1000
GEN
1002
}
1001
GENIUS_GENHATCH_13
1002
{
1000
DATA
1040
45.0
1042
0.09
1000
_U
1070
     1
1011
-1.371550383403359
1021
1.131275704293642
1031
0.0
1002
}
1002
{
1000
UCS
1010
0.0
1020
0.0
1030
0.0
1010
1.0
1020
0.0
1030
0.0
1010
0.0
1020
1.0
1030
0.0
1002
}
  0
HATCH
  5
824
330
811
100
AcDbEntity
  8
AM_8
100
AcDbHatch
 10
0.0
 20
0.0
 30
0.0
210
0.0
220
0.0
230
1.0
  2
_U
 70
     0
 71
     0
 91
        2
 92
        1
 93
        2
 72
     2
 10
6.453833318453121
 20
-0.0000000000000426
 40
2.277733996314838
 50
191.4591559026153
 51
535.1587630986702
 73
     1
 72
     2
 10
6.453833318453121
 20
-0.0000000000000426
 40
2.277733996314837
 50
175.1587630986701
 51
191.4591559026153
 73
     1
 97
        0
 92
       16
 93
        2
 72
     2
 10
6.453833318453121
 20
0.0
 40
1.576892766679508
 50
348.5408440973836
 51
544.8412369013289
 73
     0
 72
     2
 10
6.453833318453121
 20
0.0
 40
1.576892766679513
 50
184.8412369013289
 51
348.5408440973836
 73
     0
 97
        0
 75
     0
 76
     0
 52
45.0
 41
0.09
 77
     1
 78
     2
 53
45.0
 43
-176.4571517690805
 44
-54.26157204673851
 45
-0.0636396103067893
 46
0.0636396103067893
 79
     0
 53
135.0
 43
-176.4571517690805
 44
-54.26157204673851
 45
-0.0636396103067893
 46
-0.0636396103067893
 79
     0
 98
        1
 10
-176.4571517690805
 20
-54.26157204673851
1001
GENIUS_GENODEF_13
1002
{
1000
HIER
1070
     0
1002
}
1002
{
1000
MANEDIT
1070
     0
1002
}
1002
{
1000
NOSEL
1070
     0
1002
}
1002
{
1000
BEHIND
1070
     0
1002
}
1002
{
1000
OTHER
1070
     0
1002
}
1002
{
1000
REACTOR
1002
}
1001
GENIUS_GENOBJ-N-HTC_13
1002
{
1000
OWNER
1000
GEN
1002
}
1001
GENIUS_GENHATCH_13
1002
{
1000
DATA
1040
45.0
1042
0.09
1000
_U
1070
     1
1011
4.645613787216802
1021
0.1531511037996154
1031
0.0
1002
}
1002
{
1000
UCS
1010
0.0
1020
0.0
1030
0.0
1010
1.0
1020
0.0
1030
0.0
1010
0.0
1020
1.0
1030
0.0
1002
}
  0
HATCH
  5
825
330
811
100
AcDbEntity
  8
AM_8
100
AcDbHatch
 10
0.0
 20
0.0
 30
0.0
210
0.0
220
0.0
230
1.0
  2
_U
 70
     0
 71
     0
 91
        2
 92
        1
 93
        2
 72
     2
 10
6.453833318453121
 20
0.0
 40
2.277733996314846
 50
191.4591559026164
 51
474.0889047300826
 73
     1
 72
     2
 10
6.453833318453121
 20
0.0
 40
2.27773399631485
 50
114.0889047300826
 51
191.4591559026164
 73
     1
 97
        0
 92
       16
 93
        2
 72
     2
 10
6.453833318453121
 20
0.0
 40
1.576892766679481
 50
348.5408440973834
 51
605.911095269917
 73
     0
 72
     2
 10
6.453833318453121
 20
0.0
 40
1.576892766679515
 50
245.9110952699171
 51
348.5408440973834
 73
     0
 97
        0
 75
     0
 76
     0
 52
45.0
 41
0.09
 77
     1
 78
     2
 53
45.0
 43
-176.4571517690805
 44
-54.26157204673851
 45
-0.0636396103067893
 46
0.0636396103067893
 79
     0
 53
135.0
 43
-176.4571517690805
 44
-54.26157204673851
 45
-0.0636396103067893
 46
-0.0636396103067893
 79
     0
 98
        1
 10
-176.4571517690805
 20
-54.26157204673851
1001
GENIUS_GENOBJ-N-HTC_13
1002
{
1000
OWNER
1000
GEN
1002
}
1001
GENIUS_GENODEF_13
1002
{
1000
HIER
1070
     0
1002
}
1002
{
1000
MANEDIT
1070
     0
1002
}
1002
{
1000
NOSEL
1070
     0
1002
}
1002
{
1000
BEHIND
1070
     0
1002
}
1002
{
1000
OTHER
1070
     0
1002
}
1002
{
1000
REACTOR
1002
}
1001
GENIUS_GENHATCH_13
1002
{
1000
DATA
1040
45.0
1042
0.09
1000
_U
1070
     1
1011
5.696521842210927
1021
1.693870951949719
1031
0.0
1002
}
1002
{
1000
UCS
1010
0.0
1020
0.0
1030
0.0
1010
1.0
1020
0.0
1030
0.0
1010
0.0
1020
1.0
1030
0.0
1002
}
  0
LINE
  5
826
330
811
100
AcDbEntity
  8
0
100
AcDbLine
 10
-4.921113586658179
 20
-1.676283594022066
 30
0.0
 11
-4.921113586658179
 21
-1.676283594022066
 31
0.0
  0
LINE
  5
827
330
811
100
AcDbEntity
  8
0
100
AcDbLine
 10
-4.176157912251255
 20
-2.30838933083865
 30
0.0
 11
-4.176157912251255
 21
-2.30838933083865
 31
0.0
  0
HATCH
  5
828
330
811
100
AcDbEntity
  8
AM_8
100
AcDbHatch
 10
0.0
 20
0.0
 30
0.0
210
0.0
220
0.0
230
1.0
  2
_U
 70
     0
 71
     0
 91
        2
 92
        1
 93
        4
 72
     1
 10
1.957884529114039
 20
1.163937733343487
 11
1.350868515823094
 21
0.813475408531282
 72
     2
 10
-0.0000000103964339
 20
0.00000112835842
 40
1.576891302415311
 50
31.05576742335645
 51
329.9999396831432
 73
     1
 72
     1
 10
1.365627086482618
 20
-0.788445960483216
 11
1.972573182835617
 21
-1.138866943414654
 72
     2
 10
-0.0000000000001137
 20
-0.0000000000000426
 40
2.277731958867243
 50
30.0000279999924
 51
329.269049000002
 73
     0
 97
        0
 92
        1
 93
        2
 72
     1
 10
-6.45383755364196
 20
1.270433126186262
 11
-6.453760069863676
 21
1.270363214094082
 72
     1
 10
-6.453760069863619
 20
1.270363214094089
 11
-6.453837553641903
 21
1.270433126186269
 97
        0
 75
     0
 76
     0
 52
45.0
 41
0.09
 77
     1
 78
     2
 53
45.0
 43
-176.4571517690805
 44
-54.26157204673851
 45
-0.0636396103067893
 46
0.0636396103067893
 79
     0
 53
135.0
 43
-176.4571517690805
 44
-54.26157204673851
 45
-0.0636396103067893
 46
-0.0636396103067893
 79
     0
 98
        1
 10
-176.4571517690805
 20
-54.26157204673851
1001
GENIUS_GENOBJ-N-HTC_13
1002
{
1000
OWNER
1000
GEN
1002
}
1001
GENIUS_GENODEF_13
1002
{
1000
HIER
1070
     0
1002
}
1002
{
1000
MANEDIT
1070
     0
1002
}
1002
{
1000
NOSEL
1070
     0
1002
}
1002
{
1000
BEHIND
1070
     0
1002
}
1002
{
1000
OTHER
1070
     0
1002
}
1002
{
1000
REACTOR
1002
}
1001
GENIUS_GENHATCH_13
1002
{
1000
DATA
1040
45.0
1042
0.09
1000
_U
1070
     1
1011
-6.974571080846772
1021
0.9674675190033497
1031
0.0
1002
}
1002
{
1000
UCS
1010
0.0
1020
0.0
1030
0.0
1010
1.0
1020
0.0
1030
0.0
1010
0.0
1020
1.0
1030
0.0
1002
}
  0
HATCH
  5
829
330
811
100
AcDbEntity
  8
AM_8
100
AcDbHatch
 10
0.0
 20
0.0
 30
0.0
210
0.0
220
0.0
230
1.0
  2
_U
 70
     0
 71
     0
 91
        2
 92
        1
 93
       43
 72
     1
 10
-7.98656033324346
 20
-1.676283536096804
 11
-4.921113586658208
 21
-1.676283594022088
 72
     2
 10
-9.782843421354186
 20
-2.333113859861668
 40
4.905898794685422
 50
352.305802999994
 51
359.7108172679506
 73
     0
 72
     1
 10
-4.877007113300464
 20
-2.308352957657263
 11
-4.87700575009714
 21
-2.308389433087711
 72
     1
 10
-4.877005750097168
 20
-2.308389433087711
 11
-4.176158408119135
 21
-2.308389433087711
 72
     1
 10
-4.176158408119135
 20
-2.308389433087711
 11
-4.185576899990763
 21
-2.03695700745618
 72
     1
 10
-4.185576899990792
 20
-2.03695700745618
 11
-4.205716101885343
 21
-1.757627489254723
 72
     2
 10
-9.782843421354186
 20
-2.333113859861526
 40
5.606740024320776
 50
5.891322448679513
 51
10.01155376516831
 73
     1
 72
     1
 10
-4.261478816228418
 20
-1.358400262139298
 11
-4.31760204673418
 21
-1.081446804506228
 72
     2
 10
-9.782843421354073
 20
-2.333113859862208
 40
5.606740024320759
 50
12.89959841733238
 51
13.74468133579606
 73
     1
 72
     1
 10
-4.336657277835911
 20
-1.000976408068737
 11
-4.473245849456418
 21
-0.5320843418310944
 72
     2
 10
-9.782843421354073
 20
-2.333113859862038
 40
5.606740024320804
 50
18.73707193417068
 51
19.34996135248807
 73
     1
 72
     1
 10
-4.49281475478017
 20
-0.4753920273082031
 11
-4.75298323684521
 21
0.1421632830709427
 72
     1
 10
-4.752983236845238
 20
0.1421632830709427
 11
-4.928712158876322
 21
0.4727627209870989
 72
     2
 10
-9.782843421354073
 20
-2.333113859861725
 40
5.60674002432075
 50
30.02958189183695
 51
33.33627185401258
 73
     1
 72
     1
 10
-5.09863848789223
 20
0.7480803634309297
 11
-5.138660865507631
 21
0.8080805130308448
 72
     2
 10
-9.782843421354186
 20
-2.333113859861583
 40
5.606740024320772
 50
34.07331412204379
 51
37.96952971603585
 73
     1
 72
     1
 10
-5.362836895098666
 20
1.116389873746868
 11
-5.55634551943541
 21
1.350939503676485
 72
     2
 10
-9.782843421354186
 20
-2.333113859861697
 40
5.606740024320796
 50
41.07723853974786
 51
41.7849099604546
 73
     1
 72
     1
 10
-5.602169205213385
 20
1.402859480355914
 11
-5.934529615065173
 21
1.74142275478141
 72
     1
 10
-5.93452961506523
 20
1.74142275478141
 11
-6.189526065605605
 21
1.970791817682474
 72
     2
 10
-9.782843421354073
 20
-2.333113859861668
 40
5.606740024320699
 50
50.14160045082939
 51
50.63287161007293
 73
     1
 72
     1
 10
-6.226560675684709
 20
2.001443410860957
 11
-6.453838469888012
 21
2.178343305150342
 72
     1
 10
-6.453838469888069
 20
2.178343305150349
 11
-6.552277665487594
 21
2.104020096057162
 72
     2
 10
-3.124894526218213
 20
-2.333109784966126
 40
5.606699275368516
 50
127.683662553009
 51
130.2598590092964
 73
     1
 72
     1
 10
-6.748253654859695
 20
1.945481734366836
 11
-7.021551729907741
 21
1.694187143316575
 72
     1
 10
-7.021551729907741
 20
1.694187143316582
 11
-7.227711389014615
 21
1.48814270011929
 72
     2
 10
-3.124894526218213
 20
-2.333109784965941
 40
5.606699275368423
 50
137.0350233487508
 51
137.6540480887846
 73
     1
 72
     1
 10
-7.268756021495846
 20
1.443593628379062
 11
-7.585074629266955
 21
1.064223023692179
 72
     2
 10
-3.12489452621628
 20
-2.333109784965259
 40
5.606699275369539
 50
142.7033646660853
 51
142.8216597002024
 73
     1
 72
     1
 10
-7.592079379868437
 20
1.055007132694214
 11
-7.860094419581059
 21
0.6690492271974336
 72
     2
 10
-3.124894526218099
 20
-2.333109784965898
 40
5.606699275368515
 50
147.6249377417097
 51
149.0670983871278
 73
     1
 72
     1
 10
-7.934152221209274
 20
0.5489237310755187
 11
-8.076625443805141
 21
0.2966121935388486
 72
     2
 10
-3.124894526218326
 20
-2.333109784966239
 40
5.606699275368516
 50
152.0285131198598
 51
154.3414573586053
 73
     1
 72
     1
 10
-8.178720365011372
 20
0.0946301425313294
 11
-8.330609067681052
 21
-0.2528326446147275
 72
     1
 10
-8.330609067681052
 20
-0.2528326446147275
 11
-8.457695598812108
 21
-0.6021246652841655
 72
     2
 10
-3.124894526218099
 20
-2.333109784965671
 40
5.606699275368532
 50
162.016978950881
 51
163.4414752505082
 73
     1
 72
     1
 10
-8.49907909006049
 20
-0.7352308664689815
 11
-8.630641129756838
 21
-1.276656782582229
 72
     1
 10
-8.630641129756895
 20
-1.276656782582222
 11
-8.703270018325412
 21
-1.770256666046812
 72
     2
 10
-3.124894526218213
 20
-2.333109784966126
 40
5.606699275368573
 50
174.238406294719
 51
176.3825340783078
 73
     1
 72
     1
 10
-8.720422683888841
 20
-1.979356479491457
 11
-8.731539305319074
 21
-2.308389643377473
 72
     1
 10
-8.731539305319074
 20
-2.308389643377466
 11
-8.030667878757896
 21
-2.308389763381427
 72
     2
 10
-3.124894526218326
 20
-2.333109784966353
 40
4.905835633809412
 50
180.2887090000028
 51
183.9914775000014
 73
     0
 72
     1
 10
-8.018830639676252
 20
-1.991623938484991
 11
-7.986560333243488
 21
-1.676283536096796
 97
        0
 92
       16
 93
       21
 72
     1
 10
-5.068549074126622
 20
-0.9754424005628834
 11
-7.839126549131577
 21
-0.9754423064612396
 72
     1
 10
-7.839126549131606
 20
-0.9754423064612467
 11
-7.783579277884854
 21
-0.7998499933333392
 72
     1
 10
-7.783579277884882
 20
-0.7998499933333392
 11
-7.728318635382947
 21
-0.6420501996990993
 72
     1
 10
-7.728318635382947
 20
-0.6420501996990993
 11
-7.613850443832689
 21
-0.3501208963448903
 72
     1
 10
-7.613850443832689
 20
-0.3501208963448903
 11
-7.590312164318618
 21
-0.3015024140176123
 72
     2
 10
-3.124894526218326
 20
-2.333109784966239
 40
4.905851933390338
 50
204.4638591797037
 51
209.5711748127995
 73
     0
 72
     1
 10
-7.391726468587989
 20
0.0879495633198815
 11
-7.377019259925617
 21
0.1153878651378406
 72
     1
 10
-7.377019259925646
 20
0.1153878651378477
 11
-7.270444881467483
 21
0.2929121081945709
 72
     1
 10
-7.270444881467483
 20
0.2929121081945709
 11
-7.241477213598983
 21
0.3354347940707498
 72
     2
 10
-3.124894526218326
 20
-2.333109784966296
 40
4.905851933390331
 50
212.9530288293097
 51
227.2680634576603
 73
     0
 72
     1
 10
-6.453854569010331
 20
1.270417407361264
 11
-6.453837337125094
 21
1.270434596155268
 72
     2
 10
-9.782843421354414
 20
-2.333113859861413
 40
4.905898794685419
 50
312.732163000002
 51
315.445619133743
 73
     0
 72
     1
 10
-6.286974130352291
 20
1.1087956223773
 11
-6.248111142606063
 21
1.071149375617835
 72
     1
 10
-6.248111142606148
 20
1.071149375617835
 11
-6.21442952233275
 21
1.033526190539731
 72
     2
 10
-9.782843421354186
 20
-2.333113859861555
 40
4.905898794685414
 50
316.6665377932571
 51
324.6089167120336
 73
     0
 72
     1
 10
-5.783466726528786
 20
0.508158572796603
 11
-5.742112982373498
 21
0.4530508543929273
 72
     1
 10
-5.742112982373555
 20
0.4530508543929273
 11
-5.709368291387249
 21
0.4008655382386124
 72
     2
 10
-9.782843421354186
 20
-2.333113859861597
 40
4.905898794685411
 50
326.1318174816516
 51
335.126920261769
 73
     0
 72
     1
 10
-5.332007278957462
 20
-0.2696457556179723
 11
-5.28722508894063
 21
-0.3591607879468555
 72
     1
 10
-5.287225088940658
 20
-0.3591607879468484
 11
-5.243307024379589
 21
-0.4728847653040376
 72
     2
 10
-9.782843421354186
 20
-2.333113859861583
 40
4.905898794685409
 50
337.7169696472817
 51
343.9341079999992
 73
     0
 97
        0
 75
     0
 76
     0
 52
45.0
 41
0.1
 77
     1
 78
     2
 53
45.0
 43
-176.4571513522422
 44
-54.26157211694988
 45
-0.0707106781186548
 46
0.0707106781186548
 79
     0
 53
135.0
 43
-176.4571513522422
 44
-54.26157211694988
 45
-0.0707106781186548
 46
-0.0707106781186548
 79
     0
 98
        1
 10
-176.4571513522422
 20
-54.26157211694988
1001
GENIUS_GENODEF_13
1002
{
1000
HIER
1070
     0
1002
}
1002
{
1000
MANEDIT
1070
     0
1002
}
1002
{
1000
NOSEL
1070
     0
1002
}
1002
{
1000
BEHIND
1070
     0
1002
}
1002
{
1000
OTHER
1070
     0
1002
}
1002
{
1000
REACTOR
1002
}
1001
GENIUS_GENOBJ-N-HTC_13
1002
{
1000
OWNER
1000
GEN
1002
}
1001
GENIUS_GENHATCH_13
1002
{
1000
DATA
1040
45.0
1042
0.1
1000
_U
1070
     1
1011
-6.315948351937777
1021
-1.141903832062041
1031
0.0
1002
}
1002
{
1000
UCS
1010
0.0
1020
0.0
1030
0.0
1010
1.0
1020
0.0
1030
0.0
1010
0.0
1020
1.0
1030
0.0
1002
}
  0
ENDBLK
  5
82A
330
811
100
AcDbEntity
  8
0
100
AcDbBlockEnd
  0
BLOCK
  5
99C
330
992
100
AcDbEntity
  8
0
100
AcDbBlockBegin
  2
*D7
 70
     1
 10
0.0
 20
0.0
 30
0.0
  3
*D7
  1

  0
LINE
  5
A24
330
992
100
AcDbEntity
  8
5
370
    -2
100
AcDbLine
 10
306.6938765486993
 20
200.7972563679702
 30
0.0
 11
306.6938765486993
 21
182.0685967224066
 31
0.0
  0
LINE
  5
A25
330
992
100
AcDbEntity
  8
5
370
    -2
100
AcDbLine
 10
287.3323765933399
 20
200.7972563679702
 30
0.0
 11
287.3323765933399
 21
182.0685967224066
 31
0.0
  0
LINE
  5
A26
330
992
100
AcDbEntity
  8
5
370
    -2
100
AcDbLine
 10
304.1938765486993
 20
183.0685967224066
 30
0.0
 11
289.8323765933398
 21
183.0685967224066
 31
0.0
  0
SOLID
  5
A27
330
992
100
AcDbEntity
  8
5
100
AcDbTrace
 10
304.1938765486993
 20
183.4852633890733
 30
0.0
 11
304.1938765486993
 21
182.65193005574
 31
0.0
 12
306.6938765486993
 22
183.0685967224066
 32
0.0
 13
306.6938765486993
 23
183.0685967224066
 33
0.0
  0
SOLID
  5
A28
330
992
100
AcDbEntity
  8
5
100
AcDbTrace
 10
289.8323765933398
 20
183.4852633890733
 30
0.0
 11
289.8323765933398
 21
182.65193005574
 31
0.0
 12
287.3323765933399
 22
183.0685967224066
 32
0.0
 13
287.3323765933399
 23
183.0685967224066
 33
0.0
  0
MTEXT
  5
A29
330
992
100
AcDbEntity
  8
5
 62
     2
100
AcDbMText
 10
297.4012510127105
 20
185.4185967224066
 30
0.0
 40
3.5
 41
0.0
 71
     5
 72
     1
  1
6.5
 73
     1
 44
1.0
1001
ACAD
1000
MTEXTBEGIN
1070
    73
1070
     1
1070
    44
1040
1.0
1070
    74
1070
     0
1000
MTEXTEND
  0
POINT
  5
A2A
330
992
100
AcDbEntity
  8
Defpoints
 62
     0
100
AcDbPoint
 10
306.6938765486993
 20
201.7972563679702
 30
0.0
  0
POINT
  5
A2B
330
992
100
AcDbEntity
  8
Defpoints
 62
     0
100
AcDbPoint
 10
287.3323765933399
 20
201.7972563679702
 30
0.0
  0
POINT
  5
A2C
330
992
100
AcDbEntity
  8
Defpoints
 62
     0
100
AcDbPoint
 10
287.3323765933399
 20
183.0685967224066
 30
0.0
  0
ENDBLK
  5
99D
330
992
100
AcDbEntity
  8
0
100
AcDbBlockEnd
  0
BLOCK
  5
9AA
330
99E
100
AcDbEntity
  8
0
100
AcDbBlockBegin
  2
*D8
 70
     1
 10
0.0
 20
0.0
 30
0.0
  3
*D8
  1

  0
LINE
  5
99F
330
99E
100
AcDbEntity
  8
5
370
    -2
100
AcDbLine
 10
292.3849800354561
 20
204.237679423177
 30
0.0
 11
297.2819697772836
 21
204.237679423177
 31
0.0
  0
LINE
  5
9A0
330
99E
100
AcDbEntity
  8
5
370
    -2
100
AcDbLine
 10
292.4292599523168
 20
199.4319202741216
 30
0.0
 11
297.2819697772836
 21
199.4319202741216
 31
0.0
  0
LINE
  5
9A1
330
99E
100
AcDbEntity
  8
5
370
    -2
100
AcDbLine
 10
296.2819697772836
 20
196.9319202741217
 30
0.0
 11
296.2819697772836
 21
194.4319202741216
 31
0.0
  0
LINE
  5
9A2
330
99E
100
AcDbEntity
  8
5
370
    -2
100
AcDbLine
 10
296.2819697772836
 20
206.737679423177
 30
0.0
 11
296.2819697772836
 21
216.2710127565105
 31
0.0
  0
LINE
  5
9A3
330
99E
100
AcDbEntity
  8
5
370
    -2
100
AcDbLine
 10
296.2819697772836
 20
199.4319202741216
 30
0.0
 11
296.2819697772836
 21
204.237679423177
 31
0.0
  0
SOLID
  5
9A4
330
99E
100
AcDbEntity
  8
5
100
AcDbTrace
 10
295.8653031106169
 20
196.9319202741217
 30
0.0
 11
296.6986364439502
 21
196.9319202741217
 31
0.0
 12
296.2819697772836
 22
199.4319202741216
 32
0.0
 13
296.2819697772836
 23
199.4319202741216
 33
0.0
  0
SOLID
  5
9A5
330
99E
100
AcDbEntity
  8
5
100
AcDbTrace
 10
295.8653031106169
 20
206.737679423177
 30
0.0
 11
296.6986364439502
 21
206.737679423177
 31
0.0
 12
296.2819697772836
 22
204.237679423177
 32
0.0
 13
296.2819697772836
 23
204.237679423177
 33
0.0
  0
MTEXT
  5
9A6
330
99E
100
AcDbEntity
  8
5
 62
     2
100
AcDbMText
 10
293.9319697772835
 20
212.7543460898439
 30
0.0
 40
3.5
 41
0.0
 71
     5
 72
     1
  1
1.6
 11
0.0000000000000001
 21
1.0
 31
0.0
 73
     1
 44
1.0
1001
ACAD
1000
MTEXTBEGIN
1070
    73
1070
     1
1070
    44
1040
1.0
1070
    74
1070
     0
1000
MTEXTEND
  0
POINT
  5
9A7
330
99E
100
AcDbEntity
  8
Defpoints
 62
     0
100
AcDbPoint
 10
291.3849800354561
 20
204.237679423177
 30
0.0
  0
POINT
  5
9A8
330
99E
100
AcDbEntity
  8
Defpoints
 62
     0
100
AcDbPoint
 10
291.4292599523168
 20
199.4319202741216
 30
0.0
  0
POINT
  5
9A9
330
99E
100
AcDbEntity
  8
Defpoints
 62
     0
100
AcDbPoint
 10
296.2819697772836
 20
199.4319202741216
 30
0.0
  0
ENDBLK
  5
9AB
330
99E
100
AcDbEntity
  8
0
100
AcDbBlockEnd
  0
BLOCK
  5
9B8
330
9AC
100
AcDbEntity
  8
0
100
AcDbBlockBegin
  2
*D9
 70
     1
 10
0.0
 20
0.0
 30
0.0
  3
*D9
  1

  0
LINE
  5
9AD
330
9AC
100
AcDbEntity
  8
5
370
    -2
100
AcDbLine
 10
260.1377586773826
 20
194.8720874378378
 30
0.0
 11
251.5642332021137
 21
194.8720874378378
 31
0.0
  0
LINE
  5
9AE
330
9AC
100
AcDbEntity
  8
5
370
    -2
100
AcDbLine
 10
262.3726929724376
 20
196.7684049148099
 30
0.0
 11
251.5642332021137
 21
196.7684049148099
 31
0.0
  0
LINE
  5
9AF
330
9AC
100
AcDbEntity
  8
5
370
    -2
100
AcDbLine
 10
252.5642332021137
 20
199.2684049148099
 30
0.0
 11
252.5642332021137
 21
201.76840491481
 31
0.0
  0
LINE
  5
9B0
330
9AC
100
AcDbEntity
  8
5
370
    -2
100
AcDbLine
 10
252.5642332021137
 20
192.3720874378378
 30
0.0
 11
252.5642332021137
 21
182.2554207711711
 31
0.0
  0
LINE
  5
9B1
330
9AC
100
AcDbEntity
  8
5
370
    -2
100
AcDbLine
 10
252.5642332021137
 20
196.7684049148099
 30
0.0
 11
252.5642332021137
 21
194.8720874378378
 31
0.0
  0
SOLID
  5
9B2
330
9AC
100
AcDbEntity
  8
5
100
AcDbTrace
 10
252.1475665354471
 20
199.2684049148099
 30
0.0
 11
252.9808998687804
 21
199.2684049148099
 31
0.0
 12
252.5642332021137
 22
196.7684049148099
 32
0.0
 13
252.5642332021137
 23
196.7684049148099
 33
0.0
  0
SOLID
  5
9B3
330
9AC
100
AcDbEntity
  8
5
100
AcDbTrace
 10
252.1475665354471
 20
192.3720874378378
 30
0.0
 11
252.9808998687804
 21
192.3720874378378
 31
0.0
 12
252.5642332021137
 22
194.8720874378378
 32
0.0
 13
252.5642332021137
 23
194.8720874378378
 33
0.0
  0
MTEXT
  5
9B4
330
9AC
100
AcDbEntity
  8
5
 62
     2
100
AcDbMText
 10
250.2142332021136
 20
186.0637541045045
 30
0.0
 40
3.5
 41
0.0
 71
     5
 72
     1
  1
0.6
 11
0.0000000000000001
 21
1.0
 31
0.0
 73
     1
 44
1.0
1001
ACAD
1000
MTEXTBEGIN
1070
    73
1070
     1
1070
    44
1040
1.0
1070
    74
1070
     0
1000
MTEXTEND
  0
POINT
  5
9B5
330
9AC
100
AcDbEntity
  8
Defpoints
 62
     0
100
AcDbPoint
 10
261.1377586773826
 20
194.8720874378378
 30
0.0
  0
POINT
  5
9B6
330
9AC
100
AcDbEntity
  8
Defpoints
 62
     0
100
AcDbPoint
 10
263.3726929724375
 20
196.7684049148099
 30
0.0
  0
POINT
  5
9B7
330
9AC
100
AcDbEntity
  8
Defpoints
 62
     0
100
AcDbPoint
 10
252.5642332021137
 20
196.7684049148099
 30
0.0
  0
ENDBLK
  5
9B9
330
9AC
100
AcDbEntity
  8
0
100
AcDbBlockEnd
  0
BLOCK
  5
9C1
330
9BA
100
AcDbEntity
  8
0
100
AcDbBlockBegin
  2
*D10
 70
     1
 10
0.0
 20
0.0
 30
0.0
  3
*D10
  1

  0
LINE
  5
B42
330
9BA
100
AcDbEntity
  8
5
370
    -2
100
AcDbLine
 10
331.5059719528373
 20
212.5282363526205
 30
0.0
 11
315.2602423928367
 21
205.5021228420569
 31
0.0
  0
MTEXT
  5
B43
330
9BA
100
AcDbEntity
  8
5
 62
     2
100
AcDbMText
 10
323.5975588790617
 20
211.6682929506837
 30
0.0
 40
3.5
 41
0.0
 71
     5
 72
     1
  1
R 2.3
 11
0.9178378282486175
 21
0.3969555655685673
 31
0.0
 73
     1
 44
1.0
1001
ACAD
1000
MTEXTBEGIN
1070
    73
1070
     1
1070
    44
1040
1.0
1070
    74
1070
     0
1000
MTEXTEND
  0
LINE
  5
B44
330
9BA
100
AcDbEntity
  8
5
370
    -2
100
AcDbLine
 10
306.6938765486991
 20
201.7972563679701
 30
0.0
 11
312.9656478222152
 21
204.5097339281355
 31
0.0
  0
SOLID
  5
B45
330
9BA
100
AcDbEntity
  8
5
100
AcDbTrace
 10
315.0948442405165
 20
205.8845552704938
 30
0.0
 11
315.425640545157
 21
205.11969041362
 31
0.0
 12
312.9656478222152
 22
204.5097339281355
 32
0.0
 13
312.9656478222152
 23
204.5097339281355
 33
0.0
  0
POINT
  5
B46
330
9BA
100
AcDbEntity
  8
Defpoints
 62
     0
100
AcDbPoint
 10
312.9656478222152
 20
204.5097339281355
 30
0.0
  0
POINT
  5
B47
330
9BA
100
AcDbEntity
  8
Defpoints
 62
     0
100
AcDbPoint
 10
306.6938765486991
 20
201.7972563679701
 30
0.0
  0
ENDBLK
  5
9C2
330
9BA
100
AcDbEntity
  8
0
100
AcDbBlockEnd
  0
BLOCK
  5
9CA
330
9C3
100
AcDbEntity
  8
0
100
AcDbBlockBegin
  2
*D11
 70
     1
 10
0.0
 20
0.0
 30
0.0
  3
*D11
  1

  0
LINE
  5
B35
330
9C3
100
AcDbEntity
  8
5
370
    -2
100
AcDbLine
 10
291.9262877141286
 20
222.5802612412907
 30
0.0
 11
272.9344410685398
 21
207.0351783963164
 31
0.0
  0
MTEXT
  5
B36
330
9C3
100
AcDbEntity
  8
5
 62
     2
100
AcDbMText
 10
284.556698291268
 20
219.5849896778991
 30
0.0
 40
3.5
 41
0.0
 71
     5
 72
     1
  1
R 5.6
 11
0.7738314927471177
 21
0.633391522545706
 31
0.0
 73
     1
 44
1.0
1001
ACAD
1000
MTEXTBEGIN
1070
    73
1070
     1
1070
    44
1040
1.0
1070
    74
1070
     0
1000
MTEXTEND
  0
LINE
  5
B37
330
9C3
100
AcDbEntity
  8
5
370
    -2
100
AcDbLine
 10
257.9838463292773
 20
194.7979147883853
 30
0.0
 11
270.999862336672
 21
205.4516995899521
 31
0.0
  0
SOLID
  5
B38
330
9C3
100
AcDbEntity
  8
5
100
AcDbTrace
 10
272.6705279341457
 20
207.3576081849611
 30
0.0
 11
273.1983542029338
 21
206.7127486076718
 31
0.0
 12
270.999862336672
 22
205.4516995899521
 32
0.0
 13
270.999862336672
 23
205.4516995899521
 33
0.0
  0
POINT
  5
B39
330
9C3
100
AcDbEntity
  8
Defpoints
 62
     0
100
AcDbPoint
 10
270.999862336672
 20
205.4516995899521
 30
0.0
  0
POINT
  5
B3A
330
9C3
100
AcDbEntity
  8
Defpoints
 62
     0
100
AcDbPoint
 10
257.9838463292773
 20
194.7979147883853
 30
0.0
  0
ENDBLK
  5
9CB
330
9C3
100
AcDbEntity
  8
0
100
AcDbBlockEnd
  0
BLOCK
  5
9D8
330
9CC
100
AcDbEntity
  8
0
100
AcDbBlockBegin
  2
*D12
 70
     1
 10
0.0
 20
0.0
 30
0.0
  3
*D12
  1

  0
LINE
  5
CAC
330
9CC
100
AcDbEntity
  8
5
370
    -2
100
AcDbLine
 10
138.359918661478
 20
186.2649682625764
 30
0.0
 11
151.9761708512234
 21
186.2649682625764
 31
0.0
  0
LINE
  5
CAD
330
9CC
100
AcDbEntity
  8
5
370
    -2
100
AcDbLine
 10
138.359918661478
 20
181.2649682625764
 30
0.0
 11
151.9761708512234
 21
181.2649682625764
 31
0.0
  0
LINE
  5
CAE
330
9CC
100
AcDbEntity
  8
5
370
    -2
100
AcDbLine
 10
150.9761708512234
 20
178.7649682625764
 30
0.0
 11
150.9761708512234
 21
176.2649682625764
 31
0.0
  0
LINE
  5
CAF
330
9CC
100
AcDbEntity
  8
5
370
    -2
100
AcDbLine
 10
150.9761708512234
 20
188.7649682625764
 30
0.0
 11
150.9761708512234
 21
194.7983015959098
 31
0.0
  0
LINE
  5
CB0
330
9CC
100
AcDbEntity
  8
5
370
    -2
100
AcDbLine
 10
150.9761708512234
 20
181.2649682625764
 30
0.0
 11
150.9761708512234
 21
186.2649682625764
 31
0.0
  0
SOLID
  5
CB1
330
9CC
100
AcDbEntity
  8
5
100
AcDbTrace
 10
150.5595041845568
 20
178.7649682625764
 30
0.0
 11
151.3928375178901
 21
178.7649682625764
 31
0.0
 12
150.9761708512234
 22
181.2649682625764
 32
0.0
 13
150.9761708512234
 23
181.2649682625764
 33
0.0
  0
SOLID
  5
CB2
330
9CC
100
AcDbEntity
  8
5
100
AcDbTrace
 10
150.5595041845568
 20
188.7649682625764
 30
0.0
 11
151.3928375178901
 21
188.7649682625764
 31
0.0
 12
150.9761708512234
 22
186.2649682625764
 32
0.0
 13
150.9761708512234
 23
186.2649682625764
 33
0.0
  0
MTEXT
  5
CB3
330
9CC
100
AcDbEntity
  8
5
 62
     2
100
AcDbMText
 10
148.6261708512234
 20
193.0316349292431
 30
0.0
 40
3.5
 41
0.0
 71
     5
 72
     1
  1
5
 11
0.0000000000000001
 21
1.0
 31
0.0
 73
     1
 44
1.0
1001
ACAD
1000
MTEXTBEGIN
1070
    73
1070
     1
1070
    44
1040
1.0
1070
    74
1070
     0
1000
MTEXTEND
  0
POINT
  5
CB4
330
9CC
100
AcDbEntity
  8
Defpoints
 62
     0
100
AcDbPoint
 10
137.359918661478
 20
186.2649682625764
 30
0.0
  0
POINT
  5
CB5
330
9CC
100
AcDbEntity
  8
Defpoints
 62
     0
100
AcDbPoint
 10
137.359918661478
 20
181.2649682625764
 30
0.0
  0
POINT
  5
CB6
330
9CC
100
AcDbEntity
  8
Defpoints
 62
     0
100
AcDbPoint
 10
150.9761708512234
 20
181.2649682625764
 30
0.0
  0
ENDBLK
  5
9D9
330
9CC
100
AcDbEntity
  8
0
100
AcDbBlockEnd
  0
BLOCK
  5
9E4
330
9DA
100
AcDbEntity
  8
0
100
AcDbBlockBegin
  2
*D13
 70
     1
 10
0.0
 20
0.0
 30
0.0
  3
*D13
  1

  0
LINE
  5
CE4
330
9DA
100
AcDbEntity
  8
5
370
    -2
100
AcDbLine
 10
137.359918661478
 20
187.2649682625764
 30
0.0
 11
137.359918661478
 21
199.1339534279279
 31
0.0
  0
LINE
  5
CE5
330
9DA
100
AcDbEntity
  8
5
370
    -2
100
AcDbLine
 10
10.16132149556114
 20
187.2649682625782
 30
0.0
 11
10.16132149556114
 21
199.1339534279279
 31
0.0
  0
LINE
  5
CE6
330
9DA
100
AcDbEntity
  8
5
370
    -2
100
AcDbLine
 10
134.859918661478
 20
198.1339534279279
 30
0.0
 11
12.66132149556115
 21
198.1339534279279
 31
0.0
  0
SOLID
  5
CE7
330
9DA
100
AcDbEntity
  8
5
100
AcDbTrace
 10
134.859918661478
 20
198.5506200945945
 30
0.0
 11
134.859918661478
 21
197.7172867612612
 31
0.0
 12
137.359918661478
 22
198.1339534279279
 32
0.0
 13
137.359918661478
 23
198.1339534279279
 33
0.0
  0
SOLID
  5
CE8
330
9DA
100
AcDbEntity
  8
5
100
AcDbTrace
 10
12.66132149556115
 20
198.5506200945945
 30
0.0
 11
12.66132149556115
 21
197.7172867612612
 31
0.0
 12
10.16132149556114
 22
198.1339534279279
 32
0.0
 13
10.16132149556114
 23
198.1339534279279
 33
0.0
  0
MTEXT
  5
CE9
330
9DA
100
AcDbEntity
  8
5
 62
     2
100
AcDbMText
 10
73.76062007851956
 20
201.6331200945946
 30
0.0
 40
3.5
 41
0.0
 71
     5
 72
     1
  1
%%c127.2{}{\H0.71x;\C3;\S+0.1^ -0.2;}
 73
     1
 44
1.0
1001
ACAD
1000
MTEXTBEGIN
1070
    73
1070
     1
1070
    44
1040
1.0
1070
    74
1070
     0
1000
MTEXTEND
  0
POINT
  5
CEA
330
9DA
100
AcDbEntity
  8
Defpoints
 62
     0
100
AcDbPoint
 10
137.359918661478
 20
186.2649682625764
 30
0.0
  0
POINT
  5
CEB
330
9DA
100
AcDbEntity
  8
Defpoints
 62
     0
100
AcDbPoint
 10
10.16132149556114
 20
186.2649682625782
 30
0.0
  0
POINT
  5
CEC
330
9DA
100
AcDbEntity
  8
Defpoints
 62
     0
100
AcDbPoint
 10
10.16132149556114
 20
198.1339534279279
 30
0.0
  0
ENDBLK
  5
9E5
330
9DA
100
AcDbEntity
  8
0
100
AcDbBlockEnd
  0
BLOCK
  5
9F0
330
9E6
100
AcDbEntity
  8
0
100
AcDbBlockBegin
  2
*D14
 70
     1
 10
0.0
 20
0.0
 30
0.0
  3
*D14
  1

  0
LINE
  5
9E7
330
9E6
100
AcDbEntity
  8
5
370
    -2
100
AcDbLine
 10
266.9708650741565
 20
208.3322880613638
 30
0.0
 11
243.7342769947928
 21
208.3322880613638
 31
0.0
  0
LINE
  5
9E8
330
9E6
100
AcDbEntity
  8
5
370
    -2
100
AcDbLine
 10
260.1377586773826
 20
194.8720874378377
 30
0.0
 11
243.7342769947928
 21
194.8720874378377
 31
0.0
  0
LINE
  5
9E9
330
9E6
100
AcDbEntity
  8
5
370
    -2
100
AcDbLine
 10
244.7342769947927
 20
205.8322880613638
 30
0.0
 11
244.7342769947927
 21
197.3720874378377
 31
0.0
  0
SOLID
  5
9EA
330
9E6
100
AcDbEntity
  8
5
100
AcDbTrace
 10
244.3176103281261
 20
205.8322880613638
 30
0.0
 11
245.1509436614594
 21
205.8322880613638
 31
0.0
 12
244.7342769947927
 22
208.3322880613638
 32
0.0
 13
244.7342769947927
 23
208.3322880613638
 33
0.0
  0
SOLID
  5
9EB
330
9E6
100
AcDbEntity
  8
5
100
AcDbTrace
 10
244.3176103281261
 20
197.3720874378377
 30
0.0
 11
245.1509436614594
 21
197.3720874378377
 31
0.0
 12
244.7342769947927
 22
194.8720874378377
 32
0.0
 13
244.7342769947927
 23
194.8720874378377
 33
0.0
  0
MTEXT
  5
9EC
330
9E6
100
AcDbEntity
  8
5
 62
     2
100
AcDbMText
 10
242.3842769947927
 20
201.6021877496008
 30
0.0
 40
3.5
 41
0.0
 71
     5
 72
     1
  1
4.5
 11
0.0000000000000001
 21
1.0
 31
0.0
 73
     1
 44
1.0
1001
ACAD
1000
MTEXTBEGIN
1070
    73
1070
     1
1070
    44
1040
1.0
1070
    74
1070
     0
1000
MTEXTEND
  0
POINT
  5
9ED
330
9E6
100
AcDbEntity
  8
Defpoints
 62
     0
100
AcDbPoint
 10
267.9708650741566
 20
208.3322880613638
 30
0.0
  0
POINT
  5
9EE
330
9E6
100
AcDbEntity
  8
Defpoints
 62
     0
100
AcDbPoint
 10
261.1377586773826
 20
194.8720874378377
 30
0.0
  0
POINT
  5
9EF
330
9E6
100
AcDbEntity
  8
Defpoints
 62
     0
100
AcDbPoint
 10
244.7342769947927
 20
194.8720874378377
 30
0.0
  0
ENDBLK
  5
9F1
330
9E6
100
AcDbEntity
  8
0
100
AcDbBlockEnd
  0
BLOCK
  5
9FC
330
9F2
100
AcDbEntity
  8
0
100
AcDbBlockBegin
  2
*D15
 70
     1
 10
0.0
 20
0.0
 30
0.0
  3
*D15
  1

  0
LINE
  5
9F3
330
9F2
100
AcDbEntity
  8
5
370
    -2
100
AcDbLine
 10
261.1377586773826
 20
195.8720874378378
 30
0.0
 11
261.1377586773826
 21
218.5234386080673
 31
0.0
  0
LINE
  5
9F4
330
9F2
100
AcDbEntity
  8
5
370
    -2
100
AcDbLine
 10
274.8039028565863
 20
195.8720883754542
 30
0.0
 11
274.8039028565863
 21
218.5234386080673
 31
0.0
  0
LINE
  5
9F5
330
9F2
100
AcDbEntity
  8
5
370
    -2
100
AcDbLine
 10
263.6377586773826
 20
217.5234386080673
 30
0.0
 11
272.3039028565863
 21
217.5234386080673
 31
0.0
  0
SOLID
  5
9F6
330
9F2
100
AcDbEntity
  8
5
100
AcDbTrace
 10
263.6377586773826
 20
217.9401052747339
 30
0.0
 11
263.6377586773826
 21
217.1067719414006
 31
0.0
 12
261.1377586773826
 22
217.5234386080673
 32
0.0
 13
261.1377586773826
 23
217.5234386080673
 33
0.0
  0
SOLID
  5
9F7
330
9F2
100
AcDbEntity
  8
5
100
AcDbTrace
 10
272.3039028565863
 20
217.9401052747339
 30
0.0
 11
272.3039028565863
 21
217.1067719414006
 31
0.0
 12
274.8039028565863
 22
217.5234386080673
 32
0.0
 13
274.8039028565863
 23
217.5234386080673
 33
0.0
  0
MTEXT
  5
9F8
330
9F2
100
AcDbEntity
  8
5
 62
     2
100
AcDbMText
 10
267.9708307669845
 20
219.8734386080673
 30
0.0
 40
3.5
 41
0.0
 71
     5
 72
     1
  1
4.6
 73
     1
 44
1.0
1001
ACAD
1000
MTEXTBEGIN
1070
    73
1070
     1
1070
    44
1040
1.0
1070
    74
1070
     0
1000
MTEXTEND
  0
POINT
  5
9F9
330
9F2
100
AcDbEntity
  8
Defpoints
 62
     0
100
AcDbPoint
 10
261.1377586773826
 20
194.8720874378378
 30
0.0
  0
POINT
  5
9FA
330
9F2
100
AcDbEntity
  8
Defpoints
 62
     0
100
AcDbPoint
 10
274.8039028565863
 20
194.8720883754542
 30
0.0
  0
POINT
  5
9FB
330
9F2
100
AcDbEntity
  8
Defpoints
 62
     0
100
AcDbPoint
 10
274.8039028565863
 20
217.5234386080673
 30
0.0
  0
ENDBLK
  5
9FD
330
9F2
100
AcDbEntity
  8
0
100
AcDbBlockEnd
  0
BLOCK
  5
A0A
330
9FE
100
AcDbEntity
  8
0
100
AcDbBlockBegin
  2
*D16
 70
     1
 10
0.0
 20
0.0
 30
0.0
  3
*D16
  1

  0
LINE
  5
9FF
330
9FE
100
AcDbEntity
  8
5
370
    -2
100
AcDbLine
 10
299.8606745597547
 20
202.7972563679702
 30
0.0
 11
299.8606745597547
 21
218.5234386080672
 31
0.0
  0
LINE
  5
A00
330
9FE
100
AcDbEntity
  8
5
370
    -2
100
AcDbLine
 10
301.9631982486608
 20
202.7972563679702
 30
0.0
 11
301.9631982486608
 21
218.5234386080672
 31
0.0
  0
LINE
  5
A01
330
9FE
100
AcDbEntity
  8
5
370
    -2
100
AcDbLine
 10
297.3606745597546
 20
217.5234386080672
 30
0.0
 11
294.8606745597547
 21
217.5234386080672
 31
0.0
  0
LINE
  5
A02
330
9FE
100
AcDbEntity
  8
5
370
    -2
100
AcDbLine
 10
304.4631982486608
 20
217.5234386080672
 30
0.0
 11
306.9631982486608
 21
217.5234386080672
 31
0.0
  0
LINE
  5
A03
330
9FE
100
AcDbEntity
  8
5
370
    -2
100
AcDbLine
 10
299.8606745597547
 20
217.5234386080672
 30
0.0
 11
301.9631982486608
 21
217.5234386080672
 31
0.0
  0
SOLID
  5
A04
330
9FE
100
AcDbEntity
  8
5
100
AcDbTrace
 10
297.3606745597546
 20
217.9401052747339
 30
0.0
 11
297.3606745597546
 21
217.1067719414006
 31
0.0
 12
299.8606745597547
 22
217.5234386080672
 32
0.0
 13
299.8606745597547
 23
217.5234386080672
 33
0.0
  0
SOLID
  5
A05
330
9FE
100
AcDbEntity
  8
5
100
AcDbTrace
 10
304.4631982486608
 20
217.9401052747339
 30
0.0
 11
304.4631982486608
 21
217.1067719414006
 31
0.0
 12
301.9631982486608
 22
217.5234386080672
 32
0.0
 13
301.9631982486608
 23
217.5234386080672
 33
0.0
  0
MTEXT
  5
A06
330
9FE
100
AcDbEntity
  8
5
 62
     2
100
AcDbMText
 10
300.9119364042077
 20
219.8734386080672
 30
0.0
 40
3.5
 41
0.0
 71
     5
 72
     1
  1
0.7
 73
     1
 44
1.0
1001
ACAD
1000
MTEXTBEGIN
1070
    73
1070
     1
1070
    44
1040
1.0
1070
    74
1070
     0
1000
MTEXTEND
  0
POINT
  5
A07
330
9FE
100
AcDbEntity
  8
Defpoints
 62
     0
100
AcDbPoint
 10
299.8606745597547
 20
201.7972563679702
 30
0.0
  0
POINT
  5
A08
330
9FE
100
AcDbEntity
  8
Defpoints
 62
     0
100
AcDbPoint
 10
301.9631982486608
 20
201.7972563679702
 30
0.0
  0
POINT
  5
A09
330
9FE
100
AcDbEntity
  8
Defpoints
 62
     0
100
AcDbPoint
 10
301.9631982486608
 20
217.5234386080672
 30
0.0
  0
ENDBLK
  5
A0B
330
9FE
100
AcDbEntity
  8
0
100
AcDbBlockEnd
  0
BLOCK
  5
A16
330
A0C
100
AcDbEntity
  8
0
100
AcDbBlockBegin
  2
*D17
 70
     1
 10
0.0
 20
0.0
 30
0.0
  3
*D17
  1

  0
LINE
  5
A0D
330
A0C
100
AcDbEntity
  8
5
370
    -2
100
AcDbLine
 10
313.5270785376438
 20
200.7972563679702
 30
0.0
 11
313.5270785376438
 21
172.8598249406723
 31
0.0
  0
LINE
  5
A0E
330
A0C
100
AcDbEntity
  8
5
370
    -2
100
AcDbLine
 10
261.1378274576061
 20
193.872088068707
 30
0.0
 11
261.1378274576061
 21
172.8598249406723
 31
0.0
  0
LINE
  5
A0F
330
A0C
100
AcDbEntity
  8
5
370
    -2
100
AcDbLine
 10
311.0270785376438
 20
173.8598249406723
 30
0.0
 11
263.6378274576061
 21
173.8598249406723
 31
0.0
  0
SOLID
  5
A10
330
A0C
100
AcDbEntity
  8
5
100
AcDbTrace
 10
311.0270785376438
 20
174.276491607339
 30
0.0
 11
311.0270785376438
 21
173.4431582740057
 31
0.0
 12
313.5270785376438
 22
173.8598249406723
 32
0.0
 13
313.5270785376438
 23
173.8598249406723
 33
0.0
  0
SOLID
  5
A11
330
A0C
100
AcDbEntity
  8
5
100
AcDbTrace
 10
263.6378274576061
 20
174.276491607339
 30
0.0
 11
263.6378274576061
 21
173.4431582740057
 31
0.0
 12
261.1378274576061
 22
173.8598249406723
 32
0.0
 13
261.1378274576061
 23
173.8598249406723
 33
0.0
  0
MTEXT
  5
A12
330
A0C
100
AcDbEntity
  8
5
 62
     2
100
AcDbMText
 10
288.1873441873763
 20
176.2098249406723
 30
0.0
 40
3.5
 41
0.0
 71
     5
 72
     1
  1
17.5
 73
     1
 44
1.0
1001
ACAD
1000
MTEXTBEGIN
1070
    73
1070
     1
1070
    44
1040
1.0
1070
    74
1070
     0
1000
MTEXTEND
  0
POINT
  5
A13
330
A0C
100
AcDbEntity
  8
Defpoints
 62
     0
100
AcDbPoint
 10
313.5270785376438
 20
201.7972563679702
 30
0.0
  0
POINT
  5
A14
330
A0C
100
AcDbEntity
  8
Defpoints
 62
     0
100
AcDbPoint
 10
261.1378274576061
 20
194.872088068707
 30
0.0
  0
POINT
  5
A15
330
A0C
100
AcDbEntity
  8
Defpoints
 62
     0
100
AcDbPoint
 10
261.1378274576061
 20
173.8598249406723
 30
0.0
  0
ENDBLK
  5
A17
330
A0C
100
AcDbEntity
  8
0
100
AcDbBlockEnd
  0
BLOCK
  5
A22
330
A18
100
AcDbEntity
  8
0
100
AcDbBlockBegin
  2
*D18
 70
     1
 10
0.0
 20
0.0
 30
0.0
  3
*D18
  1

  0
LINE
  5
A19
330
A18
100
AcDbEntity
  8
5
370
    -2
100
AcDbLine
 10
287.3323765933399
 20
200.7972563679702
 30
0.0
 11
287.3323765933399
 21
182.0685967224066
 31
0.0
  0
LINE
  5
A1A
330
A18
100
AcDbEntity
  8
5
370
    -2
100
AcDbLine
 10
267.9708644132948
 20
197.8709294485864
 30
0.0
 11
267.9708644132948
 21
182.0685967224066
 31
0.0
  0
LINE
  5
A1B
330
A18
100
AcDbEntity
  8
5
370
    -2
100
AcDbLine
 10
284.8323765933399
 20
183.0685967224066
 30
0.0
 11
270.4708644132947
 21
183.0685967224066
 31
0.0
  0
SOLID
  5
A1C
330
A18
100
AcDbEntity
  8
5
100
AcDbTrace
 10
284.8323765933399
 20
183.4852633890732
 30
0.0
 11
284.8323765933399
 21
182.6519300557399
 31
0.0
 12
287.3323765933399
 22
183.0685967224066
 32
0.0
 13
287.3323765933399
 23
183.0685967224066
 33
0.0
  0
SOLID
  5
A1D
330
A18
100
AcDbEntity
  8
5
100
AcDbTrace
 10
270.4708644132947
 20
183.4852633890732
 30
0.0
 11
270.4708644132947
 21
182.6519300557399
 31
0.0
 12
267.9708644132948
 22
183.0685967224066
 32
0.0
 13
267.9708644132948
 23
183.0685967224066
 33
0.0
  0
MTEXT
  5
A1E
330
A18
100
AcDbEntity
  8
5
 62
     2
100
AcDbMText
 10
279.4121957758391
 20
185.4185967224066
 30
0.0
 40
3.5
 41
0.0
 71
     5
 72
     1
  1
6.5
 73
     1
 44
1.0
1001
ACAD
1000
MTEXTBEGIN
1070
    73
1070
     1
1070
    44
1040
1.0
1070
    74
1070
     0
1000
MTEXTEND
  0
POINT
  5
A1F
330
A18
100
AcDbEntity
  8
Defpoints
 62
     0
100
AcDbPoint
 10
287.3323765933399
 20
201.7972563679702
 30
0.0
  0
POINT
  5
A20
330
A18
100
AcDbEntity
  8
Defpoints
 62
     0
100
AcDbPoint
 10
267.9708644132948
 20
198.8709294485864
 30
0.0
  0
POINT
  5
A21
330
A18
100
AcDbEntity
  8
Defpoints
 62
     0
100
AcDbPoint
 10
267.9708644132948
 20
183.0685967224066
 30
0.0
  0
ENDBLK
  5
A23
330
A18
100
AcDbEntity
  8
0
100
AcDbBlockEnd
  0
BLOCK
  5
A81
330
A76
100
AcDbEntity
  8
0
100
AcDbBlockBegin
  2
*D19
 70
     1
 10
0.0
 20
0.0
 30
0.0
  3
*D19
  1

  0
LINE
  5
AE8
330
A76
100
AcDbEntity
  8
5
370
    -2
100
AcDbLine
 10
70.22673143167913
 20
23.78634351204766
 30
0.0
 11
154.46569089976
 21
23.78634351204764
 31
0.0
  0
LINE
  5
AE9
330
A76
100
AcDbEntity
  8
5
370
    -2
100
AcDbLine
 10
74.38429278600904
 20
70.50877182589272
 30
0.0
 11
154.46569089976
 21
70.50877182589271
 31
0.0
  0
LINE
  5
AEA
330
A76
100
AcDbEntity
  8
5
370
    -2
100
AcDbLine
 10
153.46569089976
 20
26.28634351204764
 30
0.0
 11
153.46569089976
 21
68.00877182589271
 31
0.0
  0
SOLID
  5
AEB
330
A76
100
AcDbEntity
  8
5
100
AcDbTrace
 10
153.0490242330934
 20
26.28634351204764
 30
0.0
 11
153.8823575664267
 21
26.28634351204764
 31
0.0
 12
153.46569089976
 22
23.78634351204764
 32
0.0
 13
153.46569089976
 23
23.78634351204764
 33
0.0
  0
SOLID
  5
AEC
330
A76
100
AcDbEntity
  8
5
100
AcDbTrace
 10
153.0490242330934
 20
68.00877182589271
 30
0.0
 11
153.8823575664267
 21
68.00877182589271
 31
0.0
 12
153.46569089976
 22
70.50877182589271
 32
0.0
 13
153.46569089976
 23
70.50877182589271
 33
0.0
  0
MTEXT
  5
AED
330
A76
100
AcDbEntity
  8
5
 62
     2
100
AcDbMText
 10
151.11569089976
 20
47.14755766897019
 30
0.0
 40
3.5
 41
0.0
 71
     5
 72
     1
  1
47
 11
0.0000000000000001
 21
1.0
 31
0.0
 73
     1
 44
1.0
1001
ACAD
1000
MTEXTBEGIN
1070
    73
1070
     1
1070
    44
1040
1.0
1070
    74
1070
     0
1000
MTEXTEND
  0
POINT
  5
AEE
330
A76
100
AcDbEntity
  8
Defpoints
 62
     0
100
AcDbPoint
 10
69.22673143167912
 20
23.78634351204766
 30
0.0
  0
POINT
  5
AEF
330
A76
100
AcDbEntity
  8
Defpoints
 62
     0
100
AcDbPoint
 10
73.38429278600904
 20
70.50877182589272
 30
0.0
  0
POINT
  5
AF0
330
A76
100
AcDbEntity
  8
Defpoints
 62
     0
100
AcDbPoint
 10
153.46569089976
 20
70.50877182589271
 30
0.0
  0
ENDBLK
  5
A82
330
A76
100
AcDbEntity
  8
0
100
AcDbBlockEnd
  0
BLOCK
  5
AAD
330
AA2
100
AcDbEntity
  8
0
100
AcDbBlockBegin
  2
*D20
 70
     1
 10
0.0
 20
0.0
 30
0.0
  3
*D20
  1

  0
LINE
  5
AFD
330
AA2
100
AcDbEntity
  8
5
370
    -2
100
AcDbLine
 10
73.38429278600904
 20
69.50877182589272
 30
0.0
 11
73.38429278600904
 21
-11.92785401346935
 31
0.0
  0
LINE
  5
AFE
330
AA2
100
AcDbEntity
  8
5
370
    -2
100
AcDbLine
 10
69.22673143167912
 20
22.78634351204766
 30
0.0
 11
69.22673143167912
 21
-11.92785401346935
 31
0.0
  0
LINE
  5
AFF
330
AA2
100
AcDbEntity
  8
5
370
    -2
100
AcDbLine
 10
66.72673143167912
 20
-10.92785401346936
 30
0.0
 11
64.22673143167912
 21
-10.92785401346936
 31
0.0
  0
LINE
  5
B00
330
AA2
100
AcDbEntity
  8
5
370
    -2
100
AcDbLine
 10
75.88429278600904
 20
-10.92785401346936
 30
0.0
 11
85.29413052306326
 21
-10.92785401346936
 31
0.0
  0
LINE
  5
B01
330
AA2
100
AcDbEntity
  8
5
370
    -2
100
AcDbLine
 10
69.22673143167912
 20
-10.92785401346936
 30
0.0
 11
73.38429278600904
 21
-10.92785401346936
 31
0.0
  0
SOLID
  5
B02
330
AA2
100
AcDbEntity
  8
5
100
AcDbTrace
 10
66.72673143167912
 20
-10.51118734680269
 30
0.0
 11
66.72673143167912
 21
-11.34452068013602
 31
0.0
 12
69.22673143167912
 22
-10.92785401346936
 32
0.0
 13
69.22673143167912
 23
-10.92785401346936
 33
0.0
  0
SOLID
  5
B03
330
AA2
100
AcDbEntity
  8
5
100
AcDbTrace
 10
75.88429278600904
 20
-10.51118734680269
 30
0.0
 11
75.88429278600904
 21
-11.34452068013602
 31
0.0
 12
73.38429278600904
 22
-10.92785401346936
 32
0.0
 13
73.38429278600904
 23
-10.92785401346936
 33
0.0
  0
MTEXT
  5
B04
330
AA2
100
AcDbEntity
  8
5
 62
     2
100
AcDbMText
 10
83.5274638563966
 20
-8.577854013469357
 30
0.0
 40
3.5
 41
0.0
 71
     5
 72
     1
  1
4
 73
     1
 44
1.0
1001
ACAD
1000
MTEXTBEGIN
1070
    73
1070
     1
1070
    44
1040
1.0
1070
    74
1070
     0
1000
MTEXTEND
  0
POINT
  5
B05
330
AA2
100
AcDbEntity
  8
Defpoints
 62
     0
100
AcDbPoint
 10
73.38429278600904
 20
70.50877182589272
 30
0.0
  0
POINT
  5
B06
330
AA2
100
AcDbEntity
  8
Defpoints
 62
     0
100
AcDbPoint
 10
69.22673143167912
 20
23.78634351204766
 30
0.0
  0
POINT
  5
B07
330
AA2
100
AcDbEntity
  8
Defpoints
 62
     0
100
AcDbPoint
 10
69.22673143167912
 20
-10.92785401346936
 30
0.0
  0
ENDBLK
  5
AAE
330
AA2
100
AcDbEntity
  8
0
100
AcDbBlockEnd
  0
BLOCK
  5
D71
330
D66
100
AcDbEntity
  8
0
100
AcDbBlockBegin
  2
*S21
 70
     1
 10
0.0
 20
0.0
 30
0.0
  3
*S21
  1

  0
LINE
  5
D67
330
D66
100
AcDbEntity
  8
AM_5
 62
     3
100
AcDbLine
 10
111.167641516907
 20
165.2832473838676
 30
0.0
 11
106.3676415169068
 21
165.2832473838676
 31
0.0
  0
LINE
  5
D68
330
D66
100
AcDbEntity
  8
AM_5
 62
     3
100
AcDbLine
 10
106.3676415169068
 20
165.2832473838676
 30
0.0
 11
106.3676415169068
 21
176.4649682625768
 31
0.0
  0
TRACE
  5
D69
330
D66
100
AcDbEntity
  8
AM_5
  6
Continuous
 62
     3
100
AcDbTrace
 10
107.1676415137068
 20
176.4649682625768
 30
0.0
 11
105.5676415201068
 21
176.4649682625768
 31
0.0
 12
106.3676415169068
 22
181.2649682625768
 32
0.0
 13
106.3676415169068
 23
181.2649682625768
 33
0.0
  0
MTEXT
  5
D6A
330
D66
100
AcDbEntity
  8
AM_5
 62
     2
100
AcDbMText
 10
115.967641516907
 20
165.2832473838676
 30
0.0
 40
4.799999999999999
 41
0.0
 71
     5
 72
     5
  1
c
  7
ACANSGDT
 73
     1
 44
1.0
1001
ACAD
1000
MTEXTBEGIN
1070
    73
1070
     1
1070
    44
1040
1.0
1070
    74
1070
     0
1000
MTEXTEND
  0
LINE
  5
D6B
330
D66
100
AcDbEntity
  8
AM_5
 62
     2
100
AcDbLine
 10
120.767641516907
 20
170.0832473838677
 30
0.0
 11
120.767641516907
 21
160.4832473838676
 31
0.0
  0
MTEXT
  5
D6C
330
D66
100
AcDbEntity
  8
AM_5
 62
     2
100
AcDbMText
 10
121.967641516907
 20
165.2832473838676
 30
0.0
 40
4.799999999999999
 41
0.0
 71
     4
 72
     5
  1
0.3
  7
ACANSTS
 73
     1
 44
1.0
1001
ACAD
1000
MTEXTBEGIN
1070
    73
1070
     1
1070
    44
1040
1.0
1070
    74
1070
     0
1000
MTEXTEND
  0
LINE
  5
D6D
330
D66
100
AcDbEntity
  8
AM_5
 62
     2
100
AcDbLine
 10
133.2247843740499
 20
170.0832473838677
 30
0.0
 11
133.2247843740499
 21
160.4832473838676
 31
0.0
  0
LINE
  5
D6E
330
D66
100
AcDbEntity
  8
AM_5
 62
     2
100
AcDbLine
 10
111.167641516907
 20
170.0832473838677
 30
0.0
 11
133.2247843740499
 21
170.0832473838677
 31
0.0
  0
LINE
  5
D6F
330
D66
100
AcDbEntity
  8
AM_5
 62
     2
100
AcDbLine
 10
111.167641516907
 20
160.4832473838676
 30
0.0
 11
133.2247843740499
 21
160.4832473838676
 31
0.0
  0
LINE
  5
D70
330
D66
100
AcDbEntity
  8
AM_5
 62
     2
100
AcDbLine
 10
111.167641516907
 20
170.0832473838677
 30
0.0
 11
111.167641516907
 21
160.4832473838676
 31
0.0
  0
ENDBLK
  5
D72
330
D66
100
AcDbEntity
  8
0
100
AcDbBlockEnd
  0
ENDSEC
  0
SECTION
  2
ENTITIES
  0
POLYLINE
  5
429
330
1F
100
AcDbEntity
  8
OHNE VERRIEGELUNG
100
AcDb2dPolyline
 66
     1
 10
0.0
 20
0.0
 30
0.0
  0
VERTEX
  5
42A
330
429
100
AcDbEntity
  8
OHNE VERRIEGELUNG
100
AcDbVertex
100
AcDb2dVertex
 10
54.79582554355438
 20
18.21360124316091
 30
0.0
 42
0.0242773777988506
  0
VERTEX
  5
42B
330
429
100
AcDbEntity
  8
OHNE VERRIEGELUNG
100
AcDbVertex
100
AcDb2dVertex
 10
59.95280911901055
 20
16.65833292253041
 30
0.0
 42
0.4877385961076743
  0
VERTEX
  5
42C
330
429
100
AcDbEntity
  8
OHNE VERRIEGELUNG
100
AcDbVertex
100
AcDb2dVertex
 10
60.57377922217585
 20
17.14347877335206
 30
0.0
  0
VERTEX
  5
42D
330
429
100
AcDbEntity
  8
OHNE VERRIEGELUNG
100
AcDbVertex
100
AcDb2dVertex
 10
60.57376772938418
 20
38.38993718811537
 30
0.0
 42
0.2703268388689404
  0
VERTEX
  5
42E
330
429
100
AcDbEntity
  8
OHNE VERRIEGELUNG
100
AcDbVertex
100
AcDb2dVertex
 10
60.31991766553677
 20
38.8251497494158
 30
0.0
 42
0.0355318743452853
  0
VERTEX
  5
42F
330
429
100
AcDbEntity
  8
OHNE VERRIEGELUNG
100
AcDbVertex
100
AcDb2dVertex
 10
55.14527659679437
 20
41.32483963625574
 30
0.0
 42
0.5280781591898975
  0
VERTEX
  5
430
330
429
100
AcDbEntity
  8
OHNE VERRIEGELUNG
100
AcDbVertex
100
AcDb2dVertex
 10
54.463242963462
 20
40.85915303752416
 30
0.0
  0
VERTEX
  5
431
330
429
100
AcDbEntity
  8
OHNE VERRIEGELUNG
100
AcDbVertex
100
AcDb2dVertex
 10
54.46325495821128
 20
18.68473512674233
 30
0.0
 42
0.3173916541120433
  0
VERTEX
  5
432
330
429
100
AcDbEntity
  8
OHNE VERRIEGELUNG
100
AcDbVertex
100
AcDb2dVertex
 10
54.7958255435564
 20
18.21360124316037
 30
0.0
  0
SEQEND
  5
433
330
429
100
AcDbEntity
  8
OHNE VERRIEGELUNG
  0
POLYLINE
  5
434
330
1F
100
AcDbEntity
  8
OHNE VERRIEGELUNG
100
AcDb2dPolyline
 66
     1
 10
0.0
 20
0.0
 30
0.0
  0
VERTEX
  5
435
330
434
100
AcDbEntity
  8
OHNE VERRIEGELUNG
100
AcDbVertex
100
AcDb2dVertex
 10
66.25499345782429
 20
79.32778410782097
 30
0.0
 42
-0.012821970395901
  0
VERTEX
  5
436
330
434
100
AcDbEntity
  8
OHNE VERRIEGELUNG
100
AcDbVertex
100
AcDb2dVertex
 10
72.35859833027181
 20
80.27502489688634
 30
0.0
 42
0.377212120369975
  0
VERTEX
  5
437
330
434
100
AcDbEntity
  8
OHNE VERRIEGELUNG
100
AcDbVertex
100
AcDb2dVertex
 10
72.79479166485261
 20
80.7709371650354
 30
0.0
  0
VERTEX
  5
438
330
434
100
AcDbEntity
  8
OHNE VERRIEGELUNG
100
AcDbVertex
100
AcDb2dVertex
 10
72.79478307255414
 20
96.65532370717437
 30
0.0
 42
0.5019730636155583
  0
VERTEX
  5
439
330
434
100
AcDbEntity
  8
OHNE VERRIEGELUNG
100
AcDbVertex
100
AcDb2dVertex
 10
72.15175738631263
 20
97.13443057825124
 30
0.0
  0
VERTEX
  5
43A
330
434
100
AcDbEntity
  8
OHNE VERRIEGELUNG
100
AcDbVertex
100
AcDb2dVertex
 10
66.0158077011971
 20
95.19588202421791
 30
0.0
 42
0.3275195574960713
  0
VERTEX
  5
43B
330
434
100
AcDbEntity
  8
OHNE VERRIEGELUNG
100
AcDbVertex
100
AcDb2dVertex
 10
65.66584011804241
 20
94.71892234888162
 30
0.0
  0
VERTEX
  5
43C
330
434
100
AcDbEntity
  8
OHNE VERRIEGELUNG
100
AcDbVertex
100
AcDb2dVertex
 10
65.66584817739905
 20
79.81977277928388
 30
0.0
 42
0.4677436418710072
  0
VERTEX
  5
43D
330
434
100
AcDbEntity
  8
OHNE VERRIEGELUNG
100
AcDbVertex
100
AcDb2dVertex
 10
66.25499345782429
 20
79.32778410782114
 30
0.0
  0
SEQEND
  5
43E
330
434
100
AcDbEntity
  8
OHNE VERRIEGELUNG
  0
POLYLINE
  5
43F
330
1F
100
AcDbEntity
  8
OHNE VERRIEGELUNG
100
AcDb2dPolyline
 66
     1
 10
0.0
 20
0.0
 30
0.0
  0
VERTEX
  5
440
330
43F
100
AcDbEntity
  8
OHNE VERRIEGELUNG
100
AcDbVertex
100
AcDb2dVertex
 10
95.77957641182834
 20
19.79312683253995
 30
0.0
 42
-0.0350990050542869
  0
VERTEX
  5
441
330
43F
100
AcDbEntity
  8
OHNE VERRIEGELUNG
100
AcDbVertex
100
AcDb2dVertex
 10
88.69768964556895
 20
17.16832894087133
 30
0.0
 42
-0.501236435425196
  0
VERTEX
  5
442
330
43F
100
AcDbEntity
  8
OHNE VERRIEGELUNG
100
AcDbVertex
100
AcDb2dVertex
 10
88.07113438493855
 20
17.64887969822745
 30
0.0
  0
VERTEX
  5
443
330
43F
100
AcDbEntity
  8
OHNE VERRIEGELUNG
100
AcDbVertex
100
AcDb2dVertex
 10
88.07113166622821
 20
22.67489476261503
 30
0.0
 42
-0.5108205374887214
  0
VERTEX
  5
444
330
43F
100
AcDbEntity
  8
OHNE VERRIEGELUNG
100
AcDbVertex
100
AcDb2dVertex
 10
88.71158775876301
 20
23.15115002309898
 30
0.0
 42
0.0245791366850917
  0
VERTEX
  5
445
330
43F
100
AcDbEntity
  8
OHNE VERRIEGELUNG
100
AcDbVertex
100
AcDb2dVertex
 10
95.683804236926
 20
21.26204667241507
 30
0.0
 42
-0.3518072105562291
  0
VERTEX
  5
446
330
43F
100
AcDbEntity
  8
OHNE VERRIEGELUNG
100
AcDbVertex
100
AcDb2dVertex
 10
96.07113269484779
 20
20.77331183950301
 30
0.0
  0
VERTEX
  5
447
330
43F
100
AcDbEntity
  8
OHNE VERRIEGELUNG
100
AcDbVertex
100
AcDb2dVertex
 10
96.07113297790471
 20
20.25003129318751
 30
0.0
 42
-0.294166250055256
  0
VERTEX
  5
448
330
43F
100
AcDbEntity
  8
OHNE VERRIEGELUNG
100
AcDbVertex
100
AcDb2dVertex
 10
95.77957641183019
 20
19.79312683254119
 30
0.0
  0
SEQEND
  5
449
330
43F
100
AcDbEntity
  8
OHNE VERRIEGELUNG
  0
POLYLINE
  5
44A
330
1F
100
AcDbEntity
  8
OHNE VERRIEGELUNG
100
AcDb2dPolyline
 66
     1
 10
0.0
 20
0.0
 30
0.0
  0
VERTEX
  5
44B
330
44A
100
AcDbEntity
  8
OHNE VERRIEGELUNG
100
AcDbVertex
100
AcDb2dVertex
 10
25.47030755118259
 20
69.27387762319334
 30
0.0
 42
-0.0418195132936368
  0
VERTEX
  5
44C
330
44A
100
AcDbEntity
  8
OHNE VERRIEGELUNG
100
AcDbVertex
100
AcDb2dVertex
 10
18.31712480435289
 20
69.6205875548617
 30
0.0
 42
-0.3746177974699095
  0
VERTEX
  5
44D
330
44A
100
AcDbEntity
  8
OHNE VERRIEGELUNG
100
AcDbVertex
100
AcDb2dVertex
 10
17.8819082840808
 20
70.1128007629843
 30
0.0
 42
-0.1290132682217164
  0
VERTEX
  5
44E
330
44A
100
AcDbEntity
  8
OHNE VERRIEGELUNG
100
AcDbVertex
100
AcDb2dVertex
 10
24.8370804254912
 20
97.41278826485894
 30
0.0
 42
-0.3795957542498387
  0
VERTEX
  5
44F
330
44A
100
AcDbEntity
  8
OHNE VERRIEGELUNG
100
AcDbVertex
100
AcDb2dVertex
 10
25.46285933176451
 20
97.63354284634022
 30
0.0
  0
VERTEX
  5
450
330
44A
100
AcDbEntity
  8
OHNE VERRIEGELUNG
100
AcDbVertex
100
AcDb2dVertex
 10
25.6390919156161
 20
97.56206660251308
 30
0.0
 42
-0.3056785956736994
  0
VERTEX
  5
451
330
44A
100
AcDbEntity
  8
OHNE VERRIEGELUNG
100
AcDbVertex
100
AcDb2dVertex
 10
25.95170029113002
 20
97.09851037175736
 30
0.0
  0
VERTEX
  5
452
330
44A
100
AcDbEntity
  8
OHNE VERRIEGELUNG
100
AcDbVertex
100
AcDb2dVertex
 10
25.95170029113002
 20
69.77353127310831
 30
0.0
 42
-0.4033527148066052
  0
VERTEX
  5
453
330
44A
100
AcDbEntity
  8
OHNE VERRIEGELUNG
100
AcDbVertex
100
AcDb2dVertex
 10
25.47030755118259
 20
69.27387762319333
 30
0.0
  0
SEQEND
  5
454
330
44A
100
AcDbEntity
  8
OHNE VERRIEGELUNG
  0
POLYLINE
  5
455
330
1F
100
AcDbEntity
  8
OHNE VERRIEGELUNG
100
AcDb2dPolyline
 66
     1
 10
0.0
 20
0.0
 30
0.0
  0
VERTEX
  5
456
330
455
100
AcDbEntity
  8
OHNE VERRIEGELUNG
100
AcDbVertex
100
AcDb2dVertex
 10
88.64525783777626
 20
107.5550900699344
 30
0.0
 42
0.0156964422636836
  0
VERTEX
  5
457
330
455
100
AcDbEntity
  8
OHNE VERRIEGELUNG
100
AcDbVertex
100
AcDb2dVertex
 10
95.6930492478065
 20
109.0214970795433
 30
0.0
 42
0.3462619230478354
  0
VERTEX
  5
458
330
455
100
AcDbEntity
  8
OHNE VERRIEGELUNG
100
AcDbVertex
100
AcDb2dVertex
 10
96.07108469577831
 20
109.5080924436622
 30
0.0
  0
VERTEX
  5
459
330
455
100
AcDbEntity
  8
OHNE VERRIEGELUNG
100
AcDbVertex
100
AcDb2dVertex
 10
96.07107860445793
 20
120.7689779391132
 30
0.0
 42
0.2941662500568821
  0
VERTEX
  5
45A
330
455
100
AcDbEntity
  8
OHNE VERRIEGELUNG
100
AcDbVertex
100
AcDb2dVertex
 10
95.77952154407782
 20
121.2258820843377
 30
0.0
 42
0.035099005054207
  0
VERTEX
  5
45B
330
455
100
AcDbEntity
  8
OHNE VERRIEGELUNG
100
AcDbVertex
100
AcDb2dVertex
 10
88.69763193817247
 20
123.8506723144328
 30
0.0
 42
0.5012364354257373
  0
VERTEX
  5
45C
330
455
100
AcDbEntity
  8
OHNE VERRIEGELUNG
100
AcDbVertex
100
AcDb2dVertex
 10
88.07107719742829
 20
123.3701208792348
 30
0.0
  0
VERTEX
  5
45D
330
455
100
AcDbEntity
  8
OHNE VERRIEGELUNG
100
AcDbVertex
100
AcDb2dVertex
 10
88.0710854856602
 20
108.0478550828155
 30
0.0
 42
0.4664182017271172
  0
VERTEX
  5
45E
330
455
100
AcDbEntity
  8
OHNE VERRIEGELUNG
100
AcDbVertex
100
AcDb2dVertex
 10
88.64525783777599
 20
107.5550900699343
 30
0.0
  0
SEQEND
  5
45F
330
455
100
AcDbEntity
  8
OHNE VERRIEGELUNG
  0
POLYLINE
  5
460
330
1F
100
AcDbEntity
  8
OHNE VERRIEGELUNG
100
AcDb2dPolyline
 66
     1
 10
0.0
 20
0.0
 30
0.0
  0
VERTEX
  5
461
330
460
100
AcDbEntity
  8
OHNE VERRIEGELUNG
100
AcDbVertex
100
AcDb2dVertex
 10
111.5316158507963
 20
78.33516323601895
 30
0.0
  0
VERTEX
  5
462
330
460
100
AcDbEntity
  8
OHNE VERRIEGELUNG
100
AcDbVertex
100
AcDb2dVertex
 10
111.5316016026415
 20
104.6754014074332
 30
0.0
 42
-0.3778056002730123
  0
VERTEX
  5
463
330
460
100
AcDbEntity
  8
OHNE VERRIEGELUNG
100
AcDbVertex
100
AcDb2dVertex
 10
111.9688254828548
 20
105.171445182828
 30
0.0
  0
VERTEX
  5
464
330
460
100
AcDbEntity
  8
OHNE VERRIEGELUNG
100
AcDbVertex
100
AcDb2dVertex
 10
116.0675528955418
 20
105.6624614595298
 30
0.0
 42
-0.4475731796628137
  0
VERTEX
  5
465
330
460
100
AcDbEntity
  8
OHNE VERRIEGELUNG
100
AcDbVertex
100
AcDb2dVertex
 10
116.6237041960117
 20
105.1656247029358
 30
0.0
  0
VERTEX
  5
466
330
460
100
AcDbEntity
  8
OHNE VERRIEGELUNG
100
AcDbVertex
100
AcDb2dVertex
 10
116.6237192816082
 20
77.27722730837115
 30
0.0
 42
-0.4951078050174388
  0
VERTEX
  5
467
330
460
100
AcDbEntity
  8
OHNE VERRIEGELUNG
100
AcDbVertex
100
AcDb2dVertex
 10
115.9912655625838
 20
76.79509011511834
 30
0.0
  0
VERTEX
  5
468
330
460
100
AcDbEntity
  8
OHNE VERRIEGELUNG
100
AcDbVertex
100
AcDb2dVertex
 10
111.9138129239749
 20
77.8492391600748
 30
0.0
 42
-0.3461473111986208
  0
VERTEX
  5
469
330
460
100
AcDbEntity
  8
OHNE VERRIEGELUNG
100
AcDbVertex
100
AcDb2dVertex
 10
111.5316158507962
 20
78.3351632360191
 30
0.0
  0
SEQEND
  5
46A
330
460
100
AcDbEntity
  8
OHNE VERRIEGELUNG
  0
POLYLINE
  5
46B
330
1F
100
AcDbEntity
  8
OHNE VERRIEGELUNG
100
AcDb2dPolyline
 66
     1
 10
0.0
 20
0.0
 30
0.0
  0
VERTEX
  5
46C
330
46B
100
AcDbEntity
  8
OHNE VERRIEGELUNG
100
AcDbVertex
100
AcDb2dVertex
 10
96.0711271094628
 20
31.09888566209149
 30
0.0
  0
VERTEX
  5
46D
330
46B
100
AcDbEntity
  8
OHNE VERRIEGELUNG
100
AcDbVertex
100
AcDb2dVertex
 10
96.07110707073374
 20
68.14402464567084
 30
0.0
 42
0.3475076373424418
  0
VERTEX
  5
46E
330
46B
100
AcDbEntity
  8
OHNE VERRIEGELUNG
100
AcDbVertex
100
AcDb2dVertex
 10
95.69098385344631
 20
68.63111708266427
 30
0.0
 42
0.015763947932962
  0
VERTEX
  5
46F
330
46B
100
AcDbEntity
  8
OHNE VERRIEGELUNG
100
AcDbVertex
100
AcDb2dVertex
 10
88.64304023309514
 20
70.06318365348173
 30
0.0
 42
0.464970076424606
  0
VERTEX
  5
470
330
46B
100
AcDbEntity
  8
OHNE VERRIEGELUNG
100
AcDbVertex
100
AcDb2dVertex
 10
88.07110629936699
 20
69.57003146848899
 30
0.0
  0
VERTEX
  5
471
330
46B
100
AcDbEntity
  8
OHNE VERRIEGELUNG
100
AcDbVertex
100
AcDb2dVertex
 10
88.0711263376213
 20
32.5257683920612
 30
0.0
 42
0.3358966132369176
  0
VERTEX
  5
472
330
46B
100
AcDbEntity
  8
OHNE VERRIEGELUNG
100
AcDbVertex
100
AcDb2dVertex
 10
88.4318083902732
 20
32.04369230153734
 30
0.0
 42
0.0350339865146542
  0
VERTEX
  5
473
330
46B
100
AcDbEntity
  8
OHNE VERRIEGELUNG
100
AcDbVertex
100
AcDb2dVertex
 10
95.51614241048582
 20
30.60315569491532
 30
0.0
 42
0.4540914180998771
  0
VERTEX
  5
474
330
46B
100
AcDbEntity
  8
OHNE VERRIEGELUNG
100
AcDbVertex
100
AcDb2dVertex
 10
96.07112710946267
 20
31.09888566209174
 30
0.0
  0
SEQEND
  5
475
330
46B
100
AcDbEntity
  8
OHNE VERRIEGELUNG
  0
POLYLINE
  5
476
330
1F
100
AcDbEntity
  8
OHNE VERRIEGELUNG
100
AcDb2dPolyline
 66
     1
 10
0.0
 20
0.0
 30
0.0
  0
VERTEX
  5
477
330
476
100
AcDbEntity
  8
OHNE VERRIEGELUNG
100
AcDbVertex
100
AcDb2dVertex
 10
42.80676439106117
 20
92.91702874001691
 30
0.0
 42
0.0275935889713732
  0
VERTEX
  5
478
330
476
100
AcDbEntity
  8
OHNE VERRIEGELUNG
100
AcDbVertex
100
AcDb2dVertex
 10
48.88071101201729
 20
92.45744740679535
 30
0.0
 42
-0.4086014738249892
  0
VERTEX
  5
479
330
476
100
AcDbEntity
  8
OHNE VERRIEGELUNG
100
AcDbVertex
100
AcDb2dVertex
 10
49.37111246440178
 20
91.95753981786527
 30
0.0
  0
VERTEX
  5
47A
330
476
100
AcDbEntity
  8
OHNE VERRIEGELUNG
100
AcDbVertex
100
AcDb2dVertex
 10
49.37112137360037
 20
75.48730835459318
 30
0.0
 42
-0.3269341334338161
  0
VERTEX
  5
47B
330
476
100
AcDbEntity
  8
OHNE VERRIEGELUNG
100
AcDbVertex
100
AcDb2dVertex
 10
49.02216232121475
 20
75.01066709539293
 30
0.0
  0
VERTEX
  5
47C
330
476
100
AcDbEntity
  8
OHNE VERRIEGELUNG
100
AcDbVertex
100
AcDb2dVertex
 10
42.89548549201652
 20
73.02426595099459
 30
0.0
 42
-0.5087302357473557
  0
VERTEX
  5
47D
330
476
100
AcDbEntity
  8
OHNE VERRIEGELUNG
100
AcDbVertex
100
AcDb2dVertex
 10
42.24217844652765
 20
73.50018263736604
 30
0.0
  0
VERTEX
  5
47E
330
476
100
AcDbEntity
  8
OHNE VERRIEGELUNG
100
AcDbVertex
100
AcDb2dVertex
 10
42.24216821162186
 20
92.42121869393182
 30
0.0
 42
-0.4526889822269348
  0
VERTEX
  5
47F
330
476
100
AcDbEntity
  8
OHNE VERRIEGELUNG
100
AcDbVertex
100
AcDb2dVertex
 10
42.80676439106117
 20
92.917028740017
 30
0.0
  0
SEQEND
  5
480
330
476
100
AcDbEntity
  8
OHNE VERRIEGELUNG
  0
POLYLINE
  5
481
330
1F
100
AcDbEntity
  8
OHNE VERRIEGELUNG
100
AcDb2dPolyline
 66
     1
 10
0.0
 20
0.0
 30
0.0
  0
VERTEX
  5
482
330
481
100
AcDbEntity
  8
OHNE VERRIEGELUNG
100
AcDbVertex
100
AcDb2dVertex
 10
101.3105678820317
 20
80.3839689958537
 30
0.0
  0
VERTEX
  5
483
330
481
100
AcDbEntity
  8
OHNE VERRIEGELUNG
100
AcDbVertex
100
AcDb2dVertex
 10
101.3105555401318
 20
103.2001575883338
 30
0.0
 42
-0.3677602112078889
  0
VERTEX
  5
484
330
481
100
AcDbEntity
  8
OHNE VERRIEGELUNG
100
AcDbVertex
100
AcDb2dVertex
 10
101.7303222866604
 20
103.6936785017675
 30
0.0
  0
VERTEX
  5
485
330
481
100
AcDbEntity
  8
OHNE VERRIEGELUNG
100
AcDbVertex
100
AcDb2dVertex
 10
105.86642071225
 20
104.3353888272257
 30
0.0
 42
-0.4578581843124641
  0
VERTEX
  5
486
330
481
100
AcDbEntity
  8
OHNE VERRIEGELUNG
100
AcDbVertex
100
AcDb2dVertex
 10
106.4394991955772
 20
103.8407583917336
 30
0.0
  0
VERTEX
  5
487
330
481
100
AcDbEntity
  8
OHNE VERRIEGELUNG
100
AcDbVertex
100
AcDb2dVertex
 10
106.4395122740268
 20
79.66292641241603
 30
0.0
 42
-0.4711278911869776
  0
VERTEX
  5
488
330
481
100
AcDbEntity
  8
OHNE VERRIEGELUNG
100
AcDbVertex
100
AcDb2dVertex
 10
105.8449157172516
 20
79.17195619231586
 30
0.0
  0
VERTEX
  5
489
330
481
100
AcDbEntity
  8
OHNE VERRIEGELUNG
100
AcDbVertex
100
AcDb2dVertex
 10
101.7333930653759
 20
79.88996112096422
 30
0.0
 42
-0.3695188667499677
  0
VERTEX
  5
48A
330
481
100
AcDbEntity
  8
OHNE VERRIEGELUNG
100
AcDbVertex
100
AcDb2dVertex
 10
101.3105678820315
 20
80.38396899585373
 30
0.0
  0
SEQEND
  5
48B
330
481
100
AcDbEntity
  8
OHNE VERRIEGELUNG
  0
POLYLINE
  5
48C
330
1F
100
AcDbEntity
  8
OHNE VERRIEGELUNG
100
AcDb2dPolyline
 66
     1
 10
0.0
 20
0.0
 30
0.0
  0
VERTEX
  5
48D
330
48C
100
AcDbEntity
  8
OHNE VERRIEGELUNG
100
AcDbVertex
100
AcDb2dVertex
 10
25.49412915374791
 20
51.19752486281033
 30
0.0
  0
VERTEX
  5
48E
330
48C
100
AcDbEntity
  8
OHNE VERRIEGELUNG
100
AcDbVertex
100
AcDb2dVertex
 10
21.9067481054316
 20
50.81060967164304
 30
0.0
 42
-0.3493735184162703
  0
VERTEX
  5
48F
330
48C
100
AcDbEntity
  8
OHNE VERRIEGELUNG
100
AcDbVertex
100
AcDb2dVertex
 10
21.3732328485443
 20
51.13179525886063
 30
0.0
 42
-0.0438809882134813
  0
VERTEX
  5
490
330
48C
100
AcDbEntity
  8
OHNE VERRIEGELUNG
100
AcDbVertex
100
AcDb2dVertex
 10
18.78962826801091
 20
60.50510565023331
 30
0.0
 42
-0.3746783496374672
  0
VERTEX
  5
491
330
48C
100
AcDbEntity
  8
OHNE VERRIEGELUNG
100
AcDbVertex
100
AcDb2dVertex
 10
19.1250605445256
 20
61.07015224438545
 30
0.0
  0
VERTEX
  5
492
330
48C
100
AcDbEntity
  8
OHNE VERRIEGELUNG
100
AcDbVertex
100
AcDb2dVertex
 10
25.3038996405426
 20
63.041579382949
 30
0.0
 42
-0.5051012842276002
  0
VERTEX
  5
493
330
48C
100
AcDbEntity
  8
OHNE VERRIEGELUNG
100
AcDbVertex
100
AcDb2dVertex
 10
25.95170029113002
 20
62.5639236830082
 30
0.0
  0
VERTEX
  5
494
330
48C
100
AcDbEntity
  8
OHNE VERRIEGELUNG
100
AcDbVertex
100
AcDb2dVertex
 10
25.95170029113002
 20
51.69572140195622
 30
0.0
 42
-0.3895427255733459
  0
VERTEX
  5
495
330
48C
100
AcDbEntity
  8
OHNE VERRIEGELUNG
100
AcDbVertex
100
AcDb2dVertex
 10
25.49412915374791
 20
51.19752486281033
 30
0.0
  0
SEQEND
  5
496
330
48C
100
AcDbEntity
  8
OHNE VERRIEGELUNG
  0
POLYLINE
  5
498
330
1F
100
AcDbEntity
  8
OHNE VERRIEGELUNG
100
AcDb2dPolyline
 66
     1
 10
0.0
 20
0.0
 30
0.0
  0
VERTEX
  5
499
330
498
100
AcDbEntity
  8
OHNE VERRIEGELUNG
100
AcDbVertex
100
AcDb2dVertex
 10
128.8076715127476
 20
73.35160648204038
 30
0.0
 42
0.1070997389144585
  0
VERTEX
  5
49A
330
498
100
AcDbEntity
  8
OHNE VERRIEGELUNG
100
AcDbVertex
100
AcDb2dVertex
 10
122.6597695839013
 20
96.03991850214178
 30
0.0
 42
0.7855980044812318
  0
VERTEX
  5
49B
330
498
100
AcDbEntity
  8
OHNE VERRIEGELUNG
100
AcDbVertex
100
AcDb2dVertex
 10
121.7158121153171
 20
95.80991439238767
 30
0.0
  0
VERTEX
  5
49C
330
498
100
AcDbEntity
  8
OHNE VERRIEGELUNG
100
AcDbVertex
100
AcDb2dVertex
 10
121.71582312616
 20
75.45442167163887
 30
0.0
 42
0.3251618536561931
  0
VERTEX
  5
49D
330
498
100
AcDbEntity
  8
OHNE VERRIEGELUNG
100
AcDbVertex
100
AcDb2dVertex
 10
122.0617315422301
 20
74.97875842262454
 30
0.0
  0
VERTEX
  5
49E
330
498
100
AcDbEntity
  8
OHNE VERRIEGELUNG
100
AcDbVertex
100
AcDb2dVertex
 10
128.1327001636846
 20
72.85786188753582
 30
0.0
 42
0.5401310593022783
  0
VERTEX
  5
49F
330
498
100
AcDbEntity
  8
OHNE VERRIEGELUNG
100
AcDbVertex
100
AcDb2dVertex
 10
128.807671512748
 20
73.35160648203305
 30
0.0
  0
SEQEND
  5
4A0
330
498
100
AcDbEntity
  8
OHNE VERRIEGELUNG
  0
POLYLINE
  5
4A1
330
1F
100
AcDbEntity
  8
OHNE VERRIEGELUNG
100
AcDb2dPolyline
 66
     1
 10
0.0
 20
0.0
 30
0.0
  0
VERTEX
  5
4A2
330
4A1
100
AcDbEntity
  8
OHNE VERRIEGELUNG
100
AcDbVertex
100
AcDb2dVertex
 10
122.6597972040933
 20
44.97911949526818
 30
0.0
 42
0.0555452528404993
  0
VERTEX
  5
4A3
330
4A1
100
AcDbEntity
  8
OHNE VERRIEGELUNG
100
AcDbVertex
100
AcDb2dVertex
 10
127.0710767008938
 20
56.45349856856464
 30
0.0
 42
0.348982194065842
  0
VERTEX
  5
4A4
330
4A1
100
AcDbEntity
  8
OHNE VERRIEGELUNG
100
AcDbVertex
100
AcDb2dVertex
 10
126.8199398473258
 20
57.02275184933284
 30
0.0
  0
VERTEX
  5
4A5
330
4A1
100
AcDbEntity
  8
OHNE VERRIEGELUNG
100
AcDbVertex
100
AcDb2dVertex
 10
122.4322396579011
 20
59.227990292111
 30
0.0
 42
0.5522936857248805
  0
VERTEX
  5
4A6
330
4A1
100
AcDbEntity
  8
OHNE VERRIEGELUNG
100
AcDbVertex
100
AcDb2dVertex
 10
121.7158321472982
 20
58.77724864418688
 30
0.0
  0
VERTEX
  5
4A7
330
4A1
100
AcDbEntity
  8
OHNE VERRIEGELUNG
100
AcDbVertex
100
AcDb2dVertex
 10
121.7158394866679
 20
45.20912258377676
 30
0.0
 42
0.7855980044977164
  0
VERTEX
  5
4A8
330
4A1
100
AcDbEntity
  8
OHNE VERRIEGELUNG
100
AcDbVertex
100
AcDb2dVertex
 10
122.6597972040918
 20
44.9791194952654
 30
0.0
  0
SEQEND
  5
4A9
330
4A1
100
AcDbEntity
  8
OHNE VERRIEGELUNG
  0
POLYLINE
  5
4AA
330
1F
100
AcDbEntity
  8
OHNE VERRIEGELUNG
100
AcDb2dPolyline
 66
     1
 10
0.0
 20
0.0
 30
0.0
  0
VERTEX
  5
4AB
330
4AA
100
AcDbEntity
  8
OHNE VERRIEGELUNG
100
AcDbVertex
100
AcDb2dVertex
 10
32.18688906527781
 20
33.31625108738095
 30
0.0
 42
0.0262821676390833
  0
VERTEX
  5
4AC
330
4AA
100
AcDbEntity
  8
OHNE VERRIEGELUNG
100
AcDbVertex
100
AcDb2dVertex
 10
36.3161941650576
 20
29.19983327825744
 30
0.0
 42
0.6487840233913336
  0
VERTEX
  5
4AD
330
4AA
100
AcDbEntity
  8
OHNE VERRIEGELUNG
100
AcDbVertex
100
AcDb2dVertex
 10
37.15010674528538
 20
29.57199255285299
 30
0.0
  0
VERTEX
  5
4AE
330
4AA
100
AcDbEntity
  8
OHNE VERRIEGELUNG
100
AcDbVertex
100
AcDb2dVertex
 10
37.15010214087153
 20
42.08850900866504
 30
0.0
 42
0.4671836721291632
  0
VERTEX
  5
4AF
330
4AA
100
AcDbEntity
  8
OHNE VERRIEGELUNG
100
AcDbVertex
100
AcDb2dVertex
 10
36.56186146628429
 20
42.58066081685196
 30
0.0
 42
0.0189666874525193
  0
VERTEX
  5
4B0
330
4AA
100
AcDbEntity
  8
OHNE VERRIEGELUNG
100
AcDbVertex
100
AcDb2dVertex
 10
32.43267632869259
 20
41.6730488473496
 30
0.0
 42
0.3418122013802028
  0
VERTEX
  5
4B1
330
4AA
100
AcDbEntity
  8
OHNE VERRIEGELUNG
100
AcDbVertex
100
AcDb2dVertex
 10
32.0579998527022
 20
41.18900939621005
 30
0.0
  0
VERTEX
  5
4B2
330
4AA
100
AcDbEntity
  8
OHNE VERRIEGELUNG
100
AcDbVertex
100
AcDb2dVertex
 10
32.05800259235751
 20
33.65132515118207
 30
0.0
 42
0.185693379468394
  0
VERTEX
  5
4B3
330
4AA
100
AcDbEntity
  8
OHNE VERRIEGELUNG
100
AcDbVertex
100
AcDb2dVertex
 10
32.1868890652792
 20
33.3162510873794
 30
0.0
  0
SEQEND
  5
4B4
330
4AA
100
AcDbEntity
  8
OHNE VERRIEGELUNG
  0
POLYLINE
  5
4B5
330
1F
100
AcDbEntity
  8
OHNE VERRIEGELUNG
100
AcDb2dPolyline
 66
     1
 10
0.0
 20
0.0
 30
0.0
  0
VERTEX
  5
4B6
330
4B5
100
AcDbEntity
  8
OHNE VERRIEGELUNG
100
AcDbVertex
100
AcDb2dVertex
 10
106.4395388376468
 20
30.55536846832966
 30
0.0
  0
VERTEX
  5
4B7
330
4B5
100
AcDbEntity
  8
OHNE VERRIEGELUNG
100
AcDbVertex
100
AcDb2dVertex
 10
106.4395200415313
 20
65.30332037420248
 30
0.0
 42
0.3250508140714236
  0
VERTEX
  5
4B8
330
4B5
100
AcDbEntity
  8
OHNE VERRIEGELUNG
100
AcDbVertex
100
AcDb2dVertex
 10
106.0938026874929
 20
65.7789216861114
 30
0.0
  0
VERTEX
  5
4B9
330
4B5
100
AcDbEntity
  8
OHNE VERRIEGELUNG
100
AcDbVertex
100
AcDb2dVertex
 10
101.9483979824441
 20
67.04550875711273
 30
0.0
 42
0.4985843405349599
  0
VERTEX
  5
4BA
330
4B5
100
AcDbEntity
  8
OHNE VERRIEGELUNG
100
AcDbVertex
100
AcDb2dVertex
 10
101.3105753571559
 20
66.56487877059077
 30
0.0
  0
VERTEX
  5
4BB
330
4B5
100
AcDbEntity
  8
OHNE VERRIEGELUNG
100
AcDbVertex
100
AcDb2dVertex
 10
101.3105948154402
 20
30.59279123587566
 30
0.0
 42
0.4031765947055074
  0
VERTEX
  5
4BC
330
4B5
100
AcDbEntity
  8
OHNE VERRIEGELUNG
100
AcDbVertex
100
AcDb2dVertex
 10
101.7916850685309
 20
30.09314921282145
 30
0.0
  0
VERTEX
  5
4BD
330
4B5
100
AcDbEntity
  8
OHNE VERRIEGELUNG
100
AcDbVertex
100
AcDb2dVertex
 10
105.9491723233551
 20
30.05546101052999
 30
0.0
 42
0.4085814002186103
  0
VERTEX
  5
4BE
330
4B5
100
AcDbEntity
  8
OHNE VERRIEGELUNG
100
AcDbVertex
100
AcDb2dVertex
 10
106.439538837647
 20
30.55536846832979
 30
0.0
  0
SEQEND
  5
4BF
330
4B5
100
AcDbEntity
  8
OHNE VERRIEGELUNG
  0
POLYLINE
  5
4C0
330
1F
100
AcDbEntity
  8
OHNE VERRIEGELUNG
100
AcDb2dPolyline
 66
     1
 10
0.0
 20
0.0
 30
0.0
  0
VERTEX
  5
4C1
330
4C0
100
AcDbEntity
  8
OHNE VERRIEGELUNG
100
AcDbVertex
100
AcDb2dVertex
 10
32.55836552989531
 20
51.50104923051538
 30
0.0
  0
VERTEX
  5
4C2
330
4C0
100
AcDbEntity
  8
OHNE VERRIEGELUNG
100
AcDbVertex
100
AcDb2dVertex
 10
36.62369005882274
 20
51.39705768327328
 30
0.0
 42
0.4297766635660324
  0
VERTEX
  5
4C3
330
4C0
100
AcDbEntity
  8
OHNE VERRIEGELUNG
100
AcDbVertex
100
AcDb2dVertex
 10
37.15009853288382
 20
51.89635997264794
 30
0.0
  0
VERTEX
  5
4C4
330
4C0
100
AcDbEntity
  8
OHNE VERRIEGELUNG
100
AcDbVertex
100
AcDb2dVertex
 10
37.15009341665209
 20
65.8041725515701
 30
0.0
 42
0.4925218108173649
  0
VERTEX
  5
4C5
330
4C0
100
AcDbEntity
  8
OHNE VERRIEGELUNG
100
AcDbVertex
100
AcDb2dVertex
 10
36.52165327927188
 20
66.28739398460891
 30
0.0
  0
VERTEX
  5
4C6
330
4C0
100
AcDbEntity
  8
OHNE VERRIEGELUNG
100
AcDbVertex
100
AcDb2dVertex
 10
32.42132847404209
 20
65.15900183479551
 30
0.0
 42
0.3352638411276576
  0
VERTEX
  5
4C7
330
4C0
100
AcDbEntity
  8
OHNE VERRIEGELUNG
100
AcDbVertex
100
AcDb2dVertex
 10
32.05799131535318
 20
64.67804087732145
 30
0.0
  0
VERTEX
  5
4C8
330
4C0
100
AcDbEntity
  8
OHNE VERRIEGELUNG
100
AcDbVertex
100
AcDb2dVertex
 10
32.0579959229464
 20
52.00104891217541
 30
0.0
 42
0.4144299832363406
  0
VERTEX
  5
4C9
330
4C0
100
AcDbEntity
  8
OHNE VERRIEGELUNG
100
AcDbVertex
100
AcDb2dVertex
 10
32.55836552989541
 20
51.5010492305154
 30
0.0
  0
SEQEND
  5
4CA
330
4C0
100
AcDbEntity
  8
OHNE VERRIEGELUNG
  0
POLYLINE
  5
4CB
330
1F
100
AcDbEntity
  8
OHNE VERRIEGELUNG
100
AcDb2dPolyline
 66
     1
 10
0.0
 20
0.0
 30
0.0
  0
VERTEX
  5
4CC
330
4CB
100
AcDbEntity
  8
OHNE VERRIEGELUNG
100
AcDbVertex
100
AcDb2dVertex
 10
72.79481385271594
 20
39.75274282896351
 30
0.0
  0
VERTEX
  5
4CD
330
4CB
100
AcDbEntity
  8
OHNE VERRIEGELUNG
100
AcDbVertex
100
AcDb2dVertex
 10
72.79479693225773
 20
71.03320655102288
 30
0.0
 42
0.4116072530313441
  0
VERTEX
  5
4CE
330
4CB
100
AcDbEntity
  8
OHNE VERRIEGELUNG
100
AcDbVertex
100
AcDb2dVertex
 10
72.29924994754416
 20
71.53318645082061
 30
0.0
 42
0.0159044026486572
  0
VERTEX
  5
4CF
330
4CB
100
AcDbEntity
  8
OHNE VERRIEGELUNG
100
AcDbVertex
100
AcDb2dVertex
 10
66.13868967836936
 20
71.39057631912248
 30
0.0
 42
0.3983821055989471
  0
VERTEX
  5
4D0
330
4CB
100
AcDbEntity
  8
OHNE VERRIEGELUNG
100
AcDbVertex
100
AcDb2dVertex
 10
65.66585300704616
 20
70.89131444030579
 30
0.0
  0
VERTEX
  5
4D1
330
4CB
100
AcDbEntity
  8
OHNE VERRIEGELUNG
100
AcDbVertex
100
AcDb2dVertex
 10
65.66586803721219
 20
43.10539121609965
 30
0.0
 42
0.2776915023362462
  0
VERTEX
  5
4D2
330
4CB
100
AcDbEntity
  8
OHNE VERRIEGELUNG
100
AcDbVertex
100
AcDb2dVertex
 10
65.93173438708856
 20
42.66359805759464
 30
0.0
  0
VERTEX
  5
4D3
330
4CB
100
AcDbEntity
  8
OHNE VERRIEGELUNG
100
AcDbVertex
100
AcDb2dVertex
 10
72.05358374510868
 20
39.31478361615042
 30
0.0
 42
0.5706573458540128
  0
VERTEX
  5
4D4
330
4CB
100
AcDbEntity
  8
OHNE VERRIEGELUNG
100
AcDbVertex
100
AcDb2dVertex
 10
72.79481385271587
 20
39.75274282896354
 30
0.0
  0
SEQEND
  5
4D5
330
4CB
100
AcDbEntity
  8
OHNE VERRIEGELUNG
  0
POLYLINE
  5
4D6
330
1F
100
AcDbEntity
  8
OHNE VERRIEGELUNG
100
AcDb2dPolyline
 66
     1
 10
0.0
 20
0.0
 30
0.0
  0
VERTEX
  5
4D7
330
4D6
100
AcDbEntity
  8
OHNE VERRIEGELUNG
100
AcDbVertex
100
AcDb2dVertex
 10
54.79168493926419
 20
47.70916596093673
 30
0.0
 42
-0.017642134395064
  0
VERTEX
  5
4D8
330
4D6
100
AcDbEntity
  8
OHNE VERRIEGELUNG
100
AcDbVertex
100
AcDb2dVertex
 10
59.86951411525613
 20
45.64177500540936
 30
0.0
 42
0.5435807310153299
  0
VERTEX
  5
4D9
330
4D6
100
AcDbEntity
  8
OHNE VERRIEGELUNG
100
AcDbVertex
100
AcDb2dVertex
 10
60.57376355979876
 20
46.0981546842653
 30
0.0
  0
VERTEX
  5
4DA
330
4D6
100
AcDbEntity
  8
OHNE VERRIEGELUNG
100
AcDbVertex
100
AcDb2dVertex
 10
60.57375042227641
 20
70.38519261563772
 30
0.0
 42
0.4468455317768142
  0
VERTEX
  5
4DB
330
4D6
100
AcDbEntity
  8
OHNE VERRIEGELUNG
100
AcDbVertex
100
AcDb2dVertex
 10
60.01880436429713
 20
70.88216410565213
 30
0.0
  0
VERTEX
  5
4DC
330
4D6
100
AcDbEntity
  8
OHNE VERRIEGELUNG
100
AcDbVertex
100
AcDb2dVertex
 10
54.88794582021287
 20
70.20577528385292
 30
0.0
 42
0.370608185076911
  0
VERTEX
  5
4DD
330
4D6
100
AcDbEntity
  8
OHNE VERRIEGELUNG
100
AcDbVertex
100
AcDb2dVertex
 10
54.46322735645197
 20
69.71147481077821
 30
0.0
  0
VERTEX
  5
4DE
330
4D6
100
AcDbEntity
  8
OHNE VERRIEGELUNG
100
AcDbVertex
100
AcDb2dVertex
 10
54.46323900405783
 20
48.17881364676873
 30
0.0
 42
0.3149803739678362
  0
VERTEX
  5
4DF
330
4D6
100
AcDbEntity
  8
OHNE VERRIEGELUNG
100
AcDbVertex
100
AcDb2dVertex
 10
54.79168493926419
 20
47.70916596093657
 30
0.0
  0
SEQEND
  5
4E0
330
4D6
100
AcDbEntity
  8
OHNE VERRIEGELUNG
  0
POLYLINE
  5
4E1
330
1F
100
AcDbEntity
  8
OHNE VERRIEGELUNG
100
AcDb2dPolyline
 66
     1
 10
0.0
 20
0.0
 30
0.0
  0
VERTEX
  5
4E2
330
4E1
100
AcDbEntity
  8
OHNE VERRIEGELUNG
100
AcDbVertex
100
AcDb2dVertex
 10
42.46367490075878
 20
24.41827290886539
 30
0.0
 42
0.0322535611883149
  0
VERTEX
  5
4E3
330
4E1
100
AcDbEntity
  8
OHNE VERRIEGELUNG
100
AcDbVertex
100
AcDb2dVertex
 10
48.64833851929097
 20
20.82477985512471
 30
0.0
 42
0.5569548110601978
  0
VERTEX
  5
4E4
330
4E1
100
AcDbEntity
  8
OHNE VERRIEGELUNG
100
AcDbVertex
100
AcDb2dVertex
 10
49.37115069993127
 20
21.27239014799365
 30
0.0
  0
VERTEX
  5
4E5
330
4E1
100
AcDbEntity
  8
OHNE VERRIEGELUNG
100
AcDbVertex
100
AcDb2dVertex
 10
49.37113922912298
 20
42.4782136725711
 30
0.0
 42
0.3726212736788905
  0
VERTEX
  5
4E6
330
4E1
100
AcDbEntity
  8
OHNE VERRIEGELUNG
100
AcDbVertex
100
AcDb2dVertex
 10
48.94292106493334
 20
42.97303394336212
 30
0.0
 42
0.0458871553572044
  0
VERTEX
  5
4E7
330
4E1
100
AcDbEntity
  8
OHNE VERRIEGELUNG
100
AcDbVertex
100
AcDb2dVertex
 10
42.7224138202363
 20
43.27092157967702
 30
0.0
 42
0.4026700358305426
  0
VERTEX
  5
4E8
330
4E1
100
AcDbEntity
  8
OHNE VERRIEGELUNG
100
AcDbVertex
100
AcDb2dVertex
 10
42.24219506861291
 20
42.77131276023454
 30
0.0
  0
VERTEX
  5
4E9
330
4E1
100
AcDbEntity
  8
OHNE VERRIEGELUNG
100
AcDbVertex
100
AcDb2dVertex
 10
42.24220477166178
 20
24.83350884950926
 30
0.0
 42
0.2500106301898298
  0
VERTEX
  5
4EA
330
4E1
100
AcDbEntity
  8
OHNE VERRIEGELUNG
100
AcDbVertex
100
AcDb2dVertex
 10
42.46367490076213
 20
24.41827290886314
 30
0.0
  0
SEQEND
  5
4EB
330
4E1
100
AcDbEntity
  8
OHNE VERRIEGELUNG
  0
POLYLINE
  5
4EC
330
1F
100
AcDbEntity
  8
OHNE VERRIEGELUNG
100
AcDb2dPolyline
 66
     1
 10
0.0
 20
0.0
 30
0.0
  0
VERTEX
  5
4ED
330
4EC
100
AcDbEntity
  8
OHNE VERRIEGELUNG
100
AcDbVertex
100
AcDb2dVertex
 10
101.9505505863604
 20
110.6342170763472
 30
0.0
  0
VERTEX
  5
4EE
330
4EC
100
AcDbEntity
  8
OHNE VERRIEGELUNG
100
AcDbVertex
100
AcDb2dVertex
 10
106.0973272070788
 20
111.9277307450642
 30
0.0
 42
0.3229423474897322
  0
VERTEX
  5
4EF
330
4EC
100
AcDbEntity
  8
OHNE VERRIEGELUNG
100
AcDbVertex
100
AcDb2dVertex
 10
106.4394577491517
 20
112.4021126843125
 30
0.0
  0
VERTEX
  5
4F0
330
4EC
100
AcDbEntity
  8
OHNE VERRIEGELUNG
100
AcDbVertex
100
AcDb2dVertex
 10
106.4394932475111
 20
114.8368131347704
 30
0.0
 42
0.2387048719184681
  0
VERTEX
  5
4F1
330
4EC
100
AcDbEntity
  8
OHNE VERRIEGELUNG
100
AcDbVertex
100
AcDb2dVertex
 10
106.2354841809447
 20
115.2397885054132
 30
0.0
 42
0.0225733728494916
  0
VERTEX
  5
4F2
330
4EC
100
AcDbEntity
  8
OHNE VERRIEGELUNG
100
AcDbVertex
100
AcDb2dVertex
 10
102.0690028206846
 20
118.0196940347085
 30
0.0
 42
0.5839153561676782
  0
VERTEX
  5
4F3
330
4EC
100
AcDbEntity
  8
OHNE VERRIEGELUNG
100
AcDbVertex
100
AcDb2dVertex
 10
101.3105477553668
 20
117.5916739291768
 30
0.0
  0
VERTEX
  5
4F4
330
4EC
100
AcDbEntity
  8
OHNE VERRIEGELUNG
100
AcDbVertex
100
AcDb2dVertex
 10
101.3105512592
 20
111.1142170021279
 30
0.0
 42
0.4999993929140186
  0
VERTEX
  5
4F5
330
4EC
100
AcDbEntity
  8
OHNE VERRIEGELUNG
100
AcDbVertex
100
AcDb2dVertex
 10
101.9505505863605
 20
110.634217076347
 30
0.0
  0
SEQEND
  5
4F6
330
4EC
100
AcDbEntity
  8
OHNE VERRIEGELUNG
  0
POLYLINE
  5
4F7
330
1F
100
AcDbEntity
  8
OHNE VERRIEGELUNG
100
AcDb2dPolyline
 66
     1
 10
0.0
 20
0.0
 30
0.0
  0
VERTEX
  5
4F8
330
4F7
100
AcDbEntity
  8
OHNE VERRIEGELUNG
100
AcDbVertex
100
AcDb2dVertex
 10
48.64828476766875
 20
120.194178072606
 30
0.0
 42
0.0322535611884523
  0
VERTEX
  5
4F9
330
4F7
100
AcDbEntity
  8
OHNE VERRIEGELUNG
100
AcDbVertex
100
AcDb2dVertex
 10
42.46362503678337
 20
116.6006783279629
 30
0.0
 42
0.2500106301912743
  0
VERTEX
  5
4FA
330
4F7
100
AcDbEntity
  8
OHNE VERRIEGELUNG
100
AcDbVertex
100
AcDb2dVertex
 10
42.24215535690623
 20
116.1854421477167
 30
0.0
  0
VERTEX
  5
4FB
330
4F7
100
AcDbEntity
  8
OHNE VERRIEGELUNG
100
AcDbVertex
100
AcDb2dVertex
 10
42.24215810760504
 20
111.1002835590385
 30
0.0
 42
0.3237044727973748
  0
VERTEX
  5
4FC
330
4F7
100
AcDbEntity
  8
OHNE VERRIEGELUNG
100
AcDbVertex
100
AcDb2dVertex
 10
42.58555985790589
 20
110.6254396569664
 30
0.0
 42
0.0165763085543124
  0
VERTEX
  5
4FD
330
4F7
100
AcDbEntity
  8
OHNE VERRIEGELUNG
100
AcDbVertex
100
AcDb2dVertex
 10
48.74630705037965
 20
108.8154382512756
 30
0.0
 42
0.4901839266931411
  0
VERTEX
  5
4FE
330
4F7
100
AcDbEntity
  8
OHNE VERRIEGELUNG
100
AcDbVertex
100
AcDb2dVertex
 10
49.37110308360058
 20
109.2996140581848
 30
0.0
  0
VERTEX
  5
4FF
330
4F7
100
AcDbEntity
  8
OHNE VERRIEGELUNG
100
AcDbVertex
100
AcDb2dVertex
 10
49.3710974325564
 20
119.7465685617138
 30
0.0
 42
0.5569548110590834
  0
VERTEX
  5
500
330
4F7
100
AcDbEntity
  8
OHNE VERRIEGELUNG
100
AcDbVertex
100
AcDb2dVertex
 10
48.64828476766929
 20
120.1941780726063
 30
0.0
  0
SEQEND
  5
501
330
4F7
100
AcDbEntity
  8
OHNE VERRIEGELUNG
  0
POLYLINE
  5
502
330
1F
100
AcDbEntity
  8
OHNE VERRIEGELUNG
100
AcDb2dPolyline
 66
     1
 10
0.0
 20
0.0
 30
0.0
  0
VERTEX
  5
503
330
502
100
AcDbEntity
  8
OHNE VERRIEGELUNG
100
AcDbVertex
100
AcDb2dVertex
 10
95.53183653743749
 20
80.66495606232431
 30
0.0
 42
0.0177861451864138
  0
VERTEX
  5
504
330
502
100
AcDbEntity
  8
OHNE VERRIEGELUNG
100
AcDbVertex
100
AcDb2dVertex
 10
88.54797764424381
 20
81.12057183037084
 30
0.0
 42
-0.4055773266191764
  0
VERTEX
  5
505
330
502
100
AcDbEntity
  8
OHNE VERRIEGELUNG
100
AcDbVertex
100
AcDb2dVertex
 10
88.07109978101056
 20
81.62036595047892
 30
0.0
  0
VERTEX
  5
506
330
502
100
AcDbEntity
  8
OHNE VERRIEGELUNG
100
AcDbVertex
100
AcDb2dVertex
 10
88.07108945689099
 20
100.7063322973335
 30
0.0
 42
-0.3515942588049687
  0
VERTEX
  5
507
330
502
100
AcDbEntity
  8
OHNE VERRIEGELUNG
100
AcDbVertex
100
AcDb2dVertex
 10
88.45806049796507
 20
101.1949889219075
 30
0.0
  0
VERTEX
  5
508
330
502
100
AcDbEntity
  8
OHNE VERRIEGELUNG
100
AcDbVertex
100
AcDb2dVertex
 10
95.49055523848361
 20
102.6327567108432
 30
0.0
 42
-0.4705503105364877
  0
VERTEX
  5
509
330
502
100
AcDbEntity
  8
OHNE VERRIEGELUNG
100
AcDbVertex
100
AcDb2dVertex
 10
96.07108868075981
 20
102.1411498164629
 30
0.0
  0
VERTEX
  5
50A
330
502
100
AcDbEntity
  8
OHNE VERRIEGELUNG
100
AcDbVertex
100
AcDb2dVertex
 10
96.07110002866793
 20
81.1625300922496
 30
0.0
 42
-0.4441307943236664
  0
VERTEX
  5
50B
330
502
100
AcDbEntity
  8
OHNE VERRIEGELUNG
100
AcDbVertex
100
AcDb2dVertex
 10
95.53183653743749
 20
80.66495606232411
 30
0.0
  0
SEQEND
  5
50C
330
502
100
AcDbEntity
  8
OHNE VERRIEGELUNG
  0
POLYLINE
  5
50D
330
1F
100
AcDbEntity
  8
OHNE VERRIEGELUNG
100
AcDb2dPolyline
 66
     1
 10
0.0
 20
0.0
 30
0.0
  0
VERTEX
  5
50E
330
50D
100
AcDbEntity
  8
OHNE VERRIEGELUNG
100
AcDbVertex
100
AcDb2dVertex
 10
66.13958600834815
 20
106.1214660000158
 30
0.0
 42
0.0166286977910264
  0
VERTEX
  5
50F
330
50D
100
AcDbEntity
  8
OHNE VERRIEGELUNG
100
AcDbVertex
100
AcDb2dVertex
 10
72.30177554129238
 20
106.0052173094913
 30
0.0
 42
0.4101202881269047
  0
VERTEX
  5
510
330
50D
100
AcDbEntity
  8
OHNE VERRIEGELUNG
100
AcDbVertex
100
AcDb2dVertex
 10
72.79477774450348
 20
106.5051686083969
 30
0.0
  0
VERTEX
  5
511
330
50D
100
AcDbEntity
  8
OHNE VERRIEGELUNG
100
AcDbVertex
100
AcDb2dVertex
 10
72.79476747034215
 20
125.4987752534415
 30
0.0
 42
0.420007506067065
  0
VERTEX
  5
512
330
50D
100
AcDbEntity
  8
OHNE VERRIEGELUNG
100
AcDbVertex
100
AcDb2dVertex
 10
72.28489726034263
 20
125.9986775524394
 30
0.0
 42
0.0279605814807734
  0
VERTEX
  5
513
330
50D
100
AcDbEntity
  8
OHNE VERRIEGELUNG
100
AcDbVertex
100
AcDb2dVertex
 10
66.10023583919602
 20
125.5299239203523
 30
0.0
 42
0.3761865108067161
  0
VERTEX
  5
514
330
50D
100
AcDbEntity
  8
OHNE VERRIEGELUNG
100
AcDbVertex
100
AcDb2dVertex
 10
65.66582371965697
 20
125.0342440861215
 30
0.0
  0
VERTEX
  5
515
330
50D
100
AcDbEntity
  8
OHNE VERRIEGELUNG
100
AcDbVertex
100
AcDb2dVertex
 10
65.6658336800044
 20
106.6207763139913
 30
0.0
 42
0.3989131372512854
  0
VERTEX
  5
516
330
50D
100
AcDbEntity
  8
OHNE VERRIEGELUNG
100
AcDbVertex
100
AcDb2dVertex
 10
66.13958600834806
 20
106.1214660000157
 30
0.0
  0
SEQEND
  5
517
330
50D
100
AcDbEntity
  8
OHNE VERRIEGELUNG
  0
POLYLINE
  5
518
330
1F
100
AcDbEntity
  8
OHNE VERRIEGELUNG
100
AcDb2dPolyline
 66
     1
 10
0.0
 20
0.0
 30
0.0
  0
VERTEX
  5
519
330
518
100
AcDbEntity
  8
OHNE VERRIEGELUNG
100
AcDbVertex
100
AcDb2dVertex
 10
60.57374599783441
 20
78.56455820594044
 30
0.0
  0
VERTEX
  5
51A
330
518
100
AcDbEntity
  8
OHNE VERRIEGELUNG
100
AcDbVertex
100
AcDb2dVertex
 10
60.57373817065496
 20
93.03448509476481
 30
0.0
 42
0.4795380468422902
  0
VERTEX
  5
51B
330
518
100
AcDbEntity
  8
OHNE VERRIEGELUNG
100
AcDbVertex
100
AcDb2dVertex
 10
59.96570587451958
 20
93.52267436023097
 30
0.0
 42
-0.0285484100488504
  0
VERTEX
  5
51C
330
518
100
AcDbEntity
  8
OHNE VERRIEGELUNG
100
AcDbVertex
100
AcDb2dVertex
 10
54.91140326435823
 20
92.70597711003885
 30
0.0
 42
0.3841251085082863
  0
VERTEX
  5
51D
330
518
100
AcDbEntity
  8
OHNE VERRIEGELUNG
100
AcDbVertex
100
AcDb2dVertex
 10
54.46321518710615
 20
92.2086685602736
 30
0.0
  0
VERTEX
  5
51E
330
518
100
AcDbEntity
  8
OHNE VERRIEGELUNG
100
AcDbVertex
100
AcDb2dVertex
 10
54.46322326076161
 20
77.28308527319132
 30
0.0
 42
0.4940174367371081
  0
VERTEX
  5
51F
330
518
100
AcDbEntity
  8
OHNE VERRIEGELUNG
100
AcDbVertex
100
AcDb2dVertex
 10
55.09398712078915
 20
76.80048756095027
 30
0.0
  0
VERTEX
  5
520
330
518
100
AcDbEntity
  8
OHNE VERRIEGELUNG
100
AcDbVertex
100
AcDb2dVertex
 10
60.18604723135457
 20
78.07733269705903
 30
0.0
 42
0.3493161305368051
  0
VERTEX
  5
521
330
518
100
AcDbEntity
  8
OHNE VERRIEGELUNG
100
AcDbVertex
100
AcDb2dVertex
 10
60.57374599783432
 20
78.56455820594064
 30
0.0
  0
SEQEND
  5
522
330
518
100
AcDbEntity
  8
OHNE VERRIEGELUNG
  0
POLYLINE
  5
523
330
1F
100
AcDbEntity
  8
OHNE VERRIEGELUNG
100
AcDb2dPolyline
 66
     1
 10
0.0
 20
0.0
 30
0.0
  0
VERTEX
  5
524
330
523
100
AcDbEntity
  8
OHNE VERRIEGELUNG
100
AcDbVertex
100
AcDb2dVertex
 10
77.88689418991691
 20
81.3874358392726
 30
0.0
  0
VERTEX
  5
525
330
523
100
AcDbEntity
  8
OHNE VERRIEGELUNG
100
AcDbVertex
100
AcDb2dVertex
 10
77.88688503513682
 20
98.31166888162909
 30
0.0
 42
-0.3438438127574248
  0
VERTEX
  5
526
330
523
100
AcDbEntity
  8
OHNE VERRIEGELUNG
100
AcDbVertex
100
AcDb2dVertex
 10
78.26508453640156
 20
98.79660691975722
 30
0.0
  0
VERTEX
  5
527
330
523
100
AcDbEntity
  8
OHNE VERRIEGELUNG
100
AcDbVertex
100
AcDb2dVertex
 10
82.36294071091164
 20
99.79513433998148
 30
0.0
 42
-0.4846053840636938
  0
VERTEX
  5
528
330
523
100
AcDbEntity
  8
OHNE VERRIEGELUNG
100
AcDbVertex
100
AcDb2dVertex
 10
82.97898735431443
 20
99.30878784469577
 30
0.0
  0
VERTEX
  5
529
330
523
100
AcDbEntity
  8
OHNE VERRIEGELUNG
100
AcDbVertex
100
AcDb2dVertex
 10
82.9789969302763
 20
81.60592461775911
 30
0.0
 42
-0.4044819567810042
  0
VERTEX
  5
52A
330
523
100
AcDbEntity
  8
OHNE VERRIEGELUNG
100
AcDbVertex
100
AcDb2dVertex
 10
82.49566397278218
 20
81.10620221481156
 30
0.0
  0
VERTEX
  5
52B
330
523
100
AcDbEntity
  8
OHNE VERRIEGELUNG
100
AcDbVertex
100
AcDb2dVertex
 10
78.42333964633223
 20
80.88876615003659
 30
0.0
 42
-0.4357466733317489
  0
VERTEX
  5
52C
330
523
100
AcDbEntity
  8
OHNE VERRIEGELUNG
100
AcDbVertex
100
AcDb2dVertex
 10
77.886894189917
 20
81.38743583927245
 30
0.0
  0
SEQEND
  5
52D
330
523
100
AcDbEntity
  8
OHNE VERRIEGELUNG
  0
POLYLINE
  5
52E
330
1F
100
AcDbEntity
  8
OHNE VERRIEGELUNG
100
AcDb2dPolyline
 66
     1
 10
0.0
 20
0.0
 30
0.0
  0
VERTEX
  5
52F
330
52E
100
AcDbEntity
  8
OHNE VERRIEGELUNG
100
AcDbVertex
100
AcDb2dVertex
 10
112.2096163705643
 20
63.62283372826446
 30
0.0
  0
VERTEX
  5
530
330
52E
100
AcDbEntity
  8
OHNE VERRIEGELUNG
100
AcDbVertex
100
AcDb2dVertex
 10
116.3173144043319
 20
61.97831415009987
 30
0.0
 42
-0.3020189646639614
  0
VERTEX
  5
531
330
52E
100
AcDbEntity
  8
OHNE VERRIEGELUNG
100
AcDbVertex
100
AcDb2dVertex
 10
116.6237278065778
 20
61.5173109182234
 30
0.0
  0
VERTEX
  5
532
330
52E
100
AcDbEntity
  8
OHNE VERRIEGELUNG
100
AcDbVertex
100
AcDb2dVertex
 10
116.6237416652243
 20
35.89714675390711
 30
0.0
 42
-0.1718299062109172
  0
VERTEX
  5
533
330
52E
100
AcDbEntity
  8
OHNE VERRIEGELUNG
100
AcDbVertex
100
AcDb2dVertex
 10
116.5123166751789
 20
35.58248879382058
 30
0.0
 42
-0.0277249341123997
  0
VERTEX
  5
534
330
52E
100
AcDbEntity
  8
OHNE VERRIEGELUNG
100
AcDbVertex
100
AcDb2dVertex
 10
112.3830153470164
 20
31.02464637502942
 30
0.0
 42
-0.6659585442904899
  0
VERTEX
  5
535
330
52E
100
AcDbEntity
  8
OHNE VERRIEGELUNG
100
AcDbVertex
100
AcDb2dVertex
 10
111.5316412499299
 20
31.38036543760323
 30
0.0
  0
VERTEX
  5
536
330
52E
100
AcDbEntity
  8
OHNE VERRIEGELUNG
100
AcDbVertex
100
AcDb2dVertex
 10
111.5316240618437
 20
63.1555875503436
 30
0.0
 42
-0.5253114062617584
  0
VERTEX
  5
537
330
52E
100
AcDbEntity
  8
OHNE VERRIEGELUNG
100
AcDbVertex
100
AcDb2dVertex
 10
112.2096163705644
 20
63.62283372826454
 30
0.0
  0
SEQEND
  5
538
330
52E
100
AcDbEntity
  8
OHNE VERRIEGELUNG
  0
POLYLINE
  5
539
330
1F
100
AcDbEntity
  8
OHNE VERRIEGELUNG
100
AcDb2dPolyline
 66
     1
 10
0.0
 20
0.0
 30
0.0
  0
VERTEX
  5
53A
330
539
100
AcDbEntity
  8
OHNE VERRIEGELUNG
100
AcDbVertex
100
AcDb2dVertex
 10
37.15009126166103
 20
71.66223809864334
 30
0.0
  0
VERTEX
  5
53B
330
539
100
AcDbEntity
  8
OHNE VERRIEGELUNG
100
AcDbVertex
100
AcDb2dVertex
 10
37.15008321821063
 20
93.52732012833859
 30
0.0
 42
0.3490190783804317
  0
VERTEX
  5
53C
330
539
100
AcDbEntity
  8
OHNE VERRIEGELUNG
100
AcDbVertex
100
AcDb2dVertex
 10
36.76289995981564
 20
94.01442607535992
 30
0.0
  0
VERTEX
  5
53D
330
539
100
AcDbEntity
  8
OHNE VERRIEGELUNG
100
AcDbVertex
100
AcDb2dVertex
 10
32.69995394582089
 20
95.08730078655489
 30
0.0
 42
0.5012863870005404
  0
VERTEX
  5
53E
330
539
100
AcDbEntity
  8
OHNE VERRIEGELUNG
100
AcDbVertex
100
AcDb2dVertex
 10
32.0579804370201
 20
94.60788061900931
 30
0.0
  0
VERTEX
  5
53F
330
539
100
AcDbEntity
  8
OHNE VERRIEGELUNG
100
AcDbVertex
100
AcDb2dVertex
 10
32.0579891366239
 20
70.6724327144451
 30
0.0
 42
0.4753394379676302
  0
VERTEX
  5
540
330
539
100
AcDbEntity
  8
OHNE VERRIEGELUNG
100
AcDbVertex
100
AcDb2dVertex
 10
32.6593345657961
 20
70.1828115077684
 30
0.0
  0
VERTEX
  5
541
330
539
100
AcDbEntity
  8
OHNE VERRIEGELUNG
100
AcDbVertex
100
AcDb2dVertex
 10
36.78148663596608
 20
71.17981148963425
 30
0.0
 42
0.3383077231730722
  0
VERTEX
  5
542
330
539
100
AcDbEntity
  8
OHNE VERRIEGELUNG
100
AcDbVertex
100
AcDb2dVertex
 10
37.15009126166098
 20
71.66223809864334
 30
0.0
  0
SEQEND
  5
543
330
539
100
AcDbEntity
  8
OHNE VERRIEGELUNG
  0
POLYLINE
  5
544
330
1F
100
AcDbEntity
  8
OHNE VERRIEGELUNG
100
AcDb2dPolyline
 66
     1
 10
0.0
 20
0.0
 30
0.0
  0
VERTEX
  5
545
330
544
100
AcDbEntity
  8
OHNE VERRIEGELUNG
100
AcDbVertex
100
AcDb2dVertex
 10
54.87197450561565
 20
107.4572068689111
 30
0.0
 42
0.014961239458217
  0
VERTEX
  5
546
330
544
100
AcDbEntity
  8
OHNE VERRIEGELUNG
100
AcDbVertex
100
AcDb2dVertex
 10
60.01205938550094
 20
106.6604801465013
 30
0.0
 42
0.4509137185564082
  0
VERTEX
  5
547
330
544
100
AcDbEntity
  8
OHNE VERRIEGELUNG
100
AcDbVertex
100
AcDb2dVertex
 10
60.57373053158233
 20
107.1566625102945
 30
0.0
  0
VERTEX
  5
548
330
544
100
AcDbEntity
  8
OHNE VERRIEGELUNG
100
AcDbVertex
100
AcDb2dVertex
 10
60.57372148790985
 20
123.8754920559685
 30
0.0
 42
0.4877385961062692
  0
VERTEX
  5
549
330
544
100
AcDbEntity
  8
OHNE VERRIEGELUNG
100
AcDbVertex
100
AcDb2dVertex
 10
59.95275085989073
 20
124.3606372349905
 30
0.0
 42
0.0242773777989419
  0
VERTEX
  5
54A
330
544
100
AcDbEntity
  8
OHNE VERRIEGELUNG
100
AcDbVertex
100
AcDb2dVertex
 10
54.79576896701304
 20
122.8053633352546
 30
0.0
 42
0.3173916541116983
  0
VERTEX
  5
54B
330
544
100
AcDbEntity
  8
OHNE VERRIEGELUNG
100
AcDbVertex
100
AcDb2dVertex
 10
54.46319889136783
 20
122.3342290918794
 30
0.0
  0
VERTEX
  5
54C
330
544
100
AcDbEntity
  8
OHNE VERRIEGELUNG
100
AcDbVertex
100
AcDb2dVertex
 10
54.4632066728311
 20
107.9488128348452
 30
0.0
 42
0.3614355829134039
  0
VERTEX
  5
54D
330
544
100
AcDbEntity
  8
OHNE VERRIEGELUNG
100
AcDbVertex
100
AcDb2dVertex
 10
54.87197450561566
 20
107.4572068689111
 30
0.0
  0
SEQEND
  5
54E
330
544
100
AcDbEntity
  8
OHNE VERRIEGELUNG
  0
POLYLINE
  5
54F
330
1F
100
AcDbEntity
  8
OHNE VERRIEGELUNG
100
AcDb2dPolyline
 66
     1
 10
0.0
 20
0.0
 30
0.0
  0
VERTEX
  5
550
330
54F
100
AcDbEntity
  8
OHNE VERRIEGELUNG
100
AcDbVertex
100
AcDb2dVertex
 10
82.5617462892127
 20
15.7741788469043
 30
0.0
 42
-0.0187621175070135
  0
VERTEX
  5
551
330
54F
100
AcDbEntity
  8
OHNE VERRIEGELUNG
100
AcDbVertex
100
AcDb2dVertex
 10
78.43244278459621
 20
15.23990053234418
 30
0.0
 42
-0.4411704205693691
  0
VERTEX
  5
552
330
54F
100
AcDbEntity
  8
OHNE VERRIEGELUNG
100
AcDbVertex
100
AcDb2dVertex
 10
77.88692970158547
 20
15.73782451241948
 30
0.0
  0
VERTEX
  5
553
330
54F
100
AcDbEntity
  8
OHNE VERRIEGELUNG
100
AcDbVertex
100
AcDb2dVertex
 10
77.8869236834434
 20
26.86342849198707
 30
0.0
 42
-0.5612056364102449
  0
VERTEX
  5
554
330
54F
100
AcDbEntity
  8
OHNE VERRIEGELUNG
100
AcDbVertex
100
AcDb2dVertex
 10
78.61551543576081
 20
27.30811495604382
 30
0.0
 42
0.0176625761602096
  0
VERTEX
  5
555
330
54F
100
AcDbEntity
  8
OHNE VERRIEGELUNG
100
AcDbVertex
100
AcDb2dVertex
 10
82.67566869268245
 20
25.40052656964413
 30
0.0
 42
-0.3002097930062512
  0
VERTEX
  5
556
330
54F
100
AcDbEntity
  8
OHNE VERRIEGELUNG
100
AcDbVertex
100
AcDb2dVertex
 10
82.97902758198176
 20
24.94081793919065
 30
0.0
  0
VERTEX
  5
557
330
54F
100
AcDbEntity
  8
OHNE VERRIEGELUNG
100
AcDbVertex
100
AcDb2dVertex
 10
82.97903227373039
 20
16.26729004975811
 30
0.0
 42
-0.3663336538227541
  0
VERTEX
  5
558
330
54F
100
AcDbEntity
  8
OHNE VERRIEGELUNG
100
AcDbVertex
100
AcDb2dVertex
 10
82.56174628921474
 20
15.77417884690446
 30
0.0
  0
SEQEND
  5
559
330
54F
100
AcDbEntity
  8
OHNE VERRIEGELUNG
  0
POLYLINE
  5
55A
330
1F
100
AcDbEntity
  8
OHNE VERRIEGELUNG
100
AcDb2dPolyline
 66
     1
 10
0.0
 20
0.0
 30
0.0
  0
VERTEX
  5
55B
330
55A
100
AcDbEntity
  8
OHNE VERRIEGELUNG
100
AcDbVertex
100
AcDb2dVertex
 10
82.97900298246933
 20
70.41737560363515
 30
0.0
  0
VERTEX
  5
55C
330
55A
100
AcDbEntity
  8
OHNE VERRIEGELUNG
100
AcDbVertex
100
AcDb2dVertex
 10
82.97902232719279
 20
34.65522767708308
 30
0.0
 42
-0.536156480984525
  0
VERTEX
  5
55D
330
55A
100
AcDbEntity
  8
OHNE VERRIEGELUNG
100
AcDbVertex
100
AcDb2dVertex
 10
82.28532036850458
 20
34.19427236412583
 30
0.0
  0
VERTEX
  5
55E
330
55A
100
AcDbEntity
  8
OHNE VERRIEGELUNG
100
AcDbVertex
100
AcDb2dVertex
 10
78.1654946182309
 20
36.08568894734137
 30
0.0
 42
-0.2853965484349096
  0
VERTEX
  5
55F
330
55A
100
AcDbEntity
  8
OHNE VERRIEGELUNG
100
AcDbVertex
100
AcDb2dVertex
 10
77.88691845237313
 20
36.53398711059561
 30
0.0
  0
VERTEX
  5
560
330
55A
100
AcDbEntity
  8
OHNE VERRIEGELUNG
100
AcDbVertex
100
AcDb2dVertex
 10
77.88689992304282
 20
70.78873776383466
 30
0.0
 42
-0.4350634739360631
  0
VERTEX
  5
561
330
55A
100
AcDbEntity
  8
OHNE VERRIEGELUNG
100
AcDbVertex
100
AcDb2dVertex
 10
78.42219915819203
 20
71.28749044180938
 30
0.0
  0
VERTEX
  5
562
330
55A
100
AcDbEntity
  8
OHNE VERRIEGELUNG
100
AcDbVertex
100
AcDb2dVertex
 10
82.53391706735389
 20
70.91435062760898
 30
0.0
 42
-0.3823356951881293
  0
VERTEX
  5
563
330
55A
100
AcDbEntity
  8
OHNE VERRIEGELUNG
100
AcDbVertex
100
AcDb2dVertex
 10
82.97900298246924
 20
70.41737560363502
 30
0.0
  0
SEQEND
  5
564
330
55A
100
AcDbEntity
  8
OHNE VERRIEGELUNG
  0
POLYLINE
  5
565
330
1F
100
AcDbEntity
  8
OHNE VERRIEGELUNG
100
AcDb2dPolyline
 66
     1
 10
0.0
 20
0.0
 30
0.0
  0
VERTEX
  5
566
330
565
100
AcDbEntity
  8
OHNE VERRIEGELUNG
100
AcDbVertex
100
AcDb2dVertex
 10
78.43238299093724
 20
125.7790896174552
 30
0.0
 42
-0.0187621175067797
  0
VERTEX
  5
567
330
565
100
AcDbEntity
  8
OHNE VERRIEGELUNG
100
AcDbVertex
100
AcDb2dVertex
 10
82.56168707355383
 20
125.2448157702001
 30
0.0
 42
-0.3663336538223405
  0
VERTEX
  5
568
330
565
100
AcDbEntity
  8
OHNE VERRIEGELUNG
100
AcDbVertex
100
AcDb2dVertex
 10
82.97897359154346
 20
124.7517050187901
 30
0.0
  0
VERTEX
  5
569
330
565
100
AcDbEntity
  8
OHNE VERRIEGELUNG
100
AcDbVertex
100
AcDb2dVertex
 10
82.97898310103851
 20
107.1717208353342
 30
0.0
 42
-0.3809848405491016
  0
VERTEX
  5
56A
330
565
100
AcDbEntity
  8
OHNE VERRIEGELUNG
100
AcDbVertex
100
AcDb2dVertex
 10
82.5362410406616
 20
106.6750098559563
 30
0.0
  0
VERTEX
  5
56B
330
565
100
AcDbEntity
  8
OHNE VERRIEGELUNG
100
AcDbVertex
100
AcDb2dVertex
 10
78.42463973329532
 20
106.2818737310911
 30
0.0
 42
-0.4365307021672461
  0
VERTEX
  5
56C
330
565
100
AcDbEntity
  8
OHNE VERRIEGELUNG
100
AcDbVertex
100
AcDb2dVertex
 10
77.88688045414406
 20
106.7804456588475
 30
0.0
  0
VERTEX
  5
56D
330
565
100
AcDbEntity
  8
OHNE VERRIEGELUNG
100
AcDbVertex
100
AcDb2dVertex
 10
77.88687044659988
 20
125.2811650472156
 30
0.0
 42
-0.4411704205688356
  0
VERTEX
  5
56E
330
565
100
AcDbEntity
  8
OHNE VERRIEGELUNG
100
AcDbVertex
100
AcDb2dVertex
 10
78.43238299092869
 20
125.7790896174563
 30
0.0
  0
SEQEND
  5
56F
330
565
100
AcDbEntity
  8
OHNE VERRIEGELUNG
  0
POLYLINE
  5
570
330
1F
100
AcDbEntity
  8
OHNE VERRIEGELUNG
100
AcDb2dPolyline
 66
     1
 10
0.0
 20
0.0
 30
0.0
  0
VERTEX
  5
571
330
570
100
AcDbEntity
  8
OHNE VERRIEGELUNG
100
AcDbVertex
100
AcDb2dVertex
 10
42.67033940850217
 20
50.80660096141752
 30
0.0
 42
-0.0269540388544917
  0
VERTEX
  5
572
330
570
100
AcDbEntity
  8
OHNE VERRIEGELUNG
100
AcDbVertex
100
AcDb2dVertex
 10
48.74687777656931
 20
49.59427394103117
 30
0.0
 42
0.4898390402630576
  0
VERTEX
  5
573
330
570
100
AcDbEntity
  8
OHNE VERRIEGELUNG
100
AcDbVertex
100
AcDb2dVertex
 10
49.37113511787232
 20
50.0785882760564
 30
0.0
  0
VERTEX
  5
574
330
570
100
AcDbEntity
  8
OHNE VERRIEGELUNG
100
AcDbVertex
100
AcDb2dVertex
 10
49.37112507344073
 20
68.64749678512123
 30
0.0
 42
0.4720767993877877
  0
VERTEX
  5
575
330
570
100
AcDbEntity
  8
OHNE VERRIEGELUNG
100
AcDbVertex
100
AcDb2dVertex
 10
48.77500396111134
 20
69.13817026753656
 30
0.0
  0
VERTEX
  5
576
330
570
100
AcDbEntity
  8
OHNE VERRIEGELUNG
100
AcDbVertex
100
AcDb2dVertex
 10
42.62841334018805
 20
67.81529679745753
 30
0.0
 42
0.3484713547109907
  0
VERTEX
  5
577
330
570
100
AcDbEntity
  8
OHNE VERRIEGELUNG
100
AcDbVertex
100
AcDb2dVertex
 10
42.24218178500666
 20
67.32841179632157
 30
0.0
  0
VERTEX
  5
578
330
570
100
AcDbEntity
  8
OHNE VERRIEGELUNG
100
AcDbVertex
100
AcDb2dVertex
 10
42.24219045444962
 20
51.30141118720087
 30
0.0
 42
0.372581451411806
  0
VERTEX
  5
579
330
570
100
AcDbEntity
  8
OHNE VERRIEGELUNG
100
AcDbVertex
100
AcDb2dVertex
 10
42.67033940850215
 20
50.8066009614173
 30
0.0
  0
SEQEND
  5
57A
330
570
100
AcDbEntity
  8
OHNE VERRIEGELUNG
  0
INSERT
  5
57B
102
{ACAD_REACTORS
330
A84
102
}
330
1F
100
AcDbEntity
  8
0
100
AcDbBlockReference
  2
1
 10
1158.338250723172
 20
670.1215953746652
 30
0.0
 50
180.0
  0
LINE
  5
93D
330
1F
100
AcDbEntity
  8
0
100
AcDbLine
 10
10.16132149556114
 20
186.2649682625782
 30
0.0
 11
137.359918661478
 21
186.2649682625764
 31
0.0
  0
LINE
  5
93E
330
1F
100
AcDbEntity
  8
0
100
AcDbLine
 10
10.16132149556114
 20
181.2649682625782
 30
0.0
 11
137.359918661478
 21
181.2649682625764
 31
0.0
  0
POINT
  5
93F
330
1F
100
AcDbEntity
  8
0
  6
ByBlock
 62
     0
100
AcDbPoint
 10
20.54087655693217
 20
186.2649682625781
 30
0.0
  0
POINT
  5
940
330
1F
100
AcDbEntity
  8
0
  6
ByBlock
 62
     0
100
AcDbPoint
 10
17.64087655693208
 20
181.2649682625781
 30
0.0
  0
POINT
  5
941
330
1F
100
AcDbEntity
  8
0
  6
ByBlock
 62
     0
100
AcDbPoint
 10
11.04087655693217
 20
181.2649682625782
 30
0.0
  0
LINE
  5
988
330
1F
100
AcDbEntity
  8
AM_7
100
AcDbLine
 10
73.38429278600904
 20
193.3795491798383
 30
0.0
 11
73.38429278600904
 21
172.9791107984593
 31
0.0
  0
LINE
  5
989
102
{ACAD_REACTORS
330
990
102
}
330
1F
100
AcDbEntity
  8
0
100
AcDbLine
 10
10.16132149556114
 20
186.2649682625782
 30
0.0
 11
10.16132149556114
 21
181.2649682625782
 31
0.0
  0
LINE
  5
98A
102
{ACAD_REACTORS
330
98D
330
990
102
}
330
1F
100
AcDbEntity
  8
0
100
AcDbLine
 10
137.359918661478
 20
186.2649682625764
 30
0.0
 11
137.359918661478
 21
181.2649682625764
 31
0.0
  0
DIMENSION
  5
98B
102
{ACAD_XDICTIONARY
360
98C
102
}
102
{ACAD_REACTORS
330
98D
102
}
330
1F
100
AcDbEntity
  8
5
100
AcDbDimension
  2
*D12
 10
150.9761708512234
 20
181.2649682625764
 30
0.0
 11
150.9761708512234
 21
193.0316349292431
 31
0.0
 70
   160
 71
     5
 42
5.0
  3
GEN-ISO$0
100
AcDbAlignedDimension
 13
137.359918661478
 23
186.2649682625764
 33
0.0
 14
137.359918661478
 24
181.2649682625764
 34
0.0
 50
90.0
100
AcDbRotatedDimension
  0
DIMENSION
  5
98E
102
{ACAD_XDICTIONARY
360
98F
102
}
102
{ACAD_REACTORS
330
990
102
}
330
1F
100
AcDbEntity
  8
5
100
AcDbDimension
  2
*D13
 10
10.16132149556114
 20
198.1339534279279
 30
0.0
 11
73.76062007851956
 21
201.6331200945946
 31
0.0
 70
    32
  1
%%c<>{}{\H0.71x;\C3;\S+0.1^ -0.2;}
 71
     5
 42
127.1985971659168
  3
GEN-ISO$0
100
AcDbAlignedDimension
 13
137.359918661478
 23
186.2649682625764
 33
0.0
 14
10.16132149556114
 24
186.2649682625782
 34
0.0
100
AcDbRotatedDimension
1001
ACAD_DSTYLE_DIMINSPECT
1070
   396
1000
100%
1070
   395
1000

1070
   394
1070
    33
1070
   393
1070
     0
1001
GENIUS_GENDTOL_13
1000
TolSmNrm
1000

1000
{\H0.71x;$2\S$+$P^ $-$M;}
1040
127.2
1001
ACAD
1000
DSTYLE
1002
{
1070
   286
1070
     0
1070
   284
1070
     0
1070
   274
1070
     4
1070
    47
1040
0.1
1070
    48
1040
0.2
1070
   272
1070
     1
1002
}
  0
LINE
  5
A51
330
1F
100
AcDbEntity
  8
AM_7
100
AcDbLine
 10
73.38429278600904
 20
70.50877182589272
 30
0.0
 11
75.92790310734277
 21
70.50877182589272
 31
0.0
1001
GENIUS_GENOREF_13
1005
A55
  0
LINE
  5
A52
330
1F
100
AcDbEntity
  8
AM_7
100
AcDbLine
 10
73.38429278600904
 20
70.50877182589272
 30
0.0
 11
73.38429278600904
 21
73.05238214722646
 31
0.0
1001
GENIUS_GENOREF_13
1005
A55
  0
LINE
  5
A53
330
1F
100
AcDbEntity
  8
AM_7
100
AcDbLine
 10
73.38429278600904
 20
70.50877182589272
 30
0.0
 11
70.84068246467531
 21
70.50877182589272
 31
0.0
1001
GENIUS_GENOREF_13
1005
A55
  0
LINE
  5
A54
102
{ACAD_REACTORS
330
A84
330
AB0
102
}
330
1F
100
AcDbEntity
  8
AM_7
100
AcDbLine
 10
73.38429278600904
 20
70.50877182589272
 30
0.0
 11
73.38429278600904
 21
67.96516150455899
 31
0.0
1001
GENIUS_GENOREF_13
1005
A55
  0
POINT
  5
A55
330
1F
100
AcDbEntity
  8
0
 60
     1
100
AcDbPoint
 10
0.0
 20
0.0
 30
0.0
1001
GENIUS_GENOENT_13
1002
{
1000
MYREF
1005
A55
1002
}
1002
{
1000
GRP
1005
0
1002
}
1001
GENIUS_GENOBJ-N-CRS_13
1002
{
1000
OWNER
1000
GEN
1002
}
1001
GENIUS_GENOLIS_13
1002
{
1000
ENT
1005
A54
1005
A53
1005
A52
1005
A51
1002
}
1001
GENIUS_GENODEF_13
1002
{
1000
HIER
1070
    10
1002
}
1002
{
1000
MANEDIT
1070
     0
1002
}
1002
{
1000
NOSEL
1070
     0
1002
}
1002
{
1000
BEHIND
1070
     0
1002
}
1002
{
1000
OTHER
1070
     0
1002
}
1002
{
1000
REACTOR
1002
}
  0
DIMENSION
  5
A75
102
{ACAD_XDICTIONARY
360
A83
102
}
102
{ACAD_REACTORS
330
A84
102
}
330
1F
100
AcDbEntity
  8
5
100
AcDbDimension
  2
*D19
 10
153.46569089976
 20
70.50877182589271
 30
0.0
 11
151.11569089976
 21
47.14755766897019
 31
0.0
 70
    32
 71
     5
 42
46.72242831384505
  3
GEN-ISO$0
100
AcDbAlignedDimension
 13
69.22673143167912
 23
23.78634351204766
 33
0.0
 14
73.38429278600904
 24
70.50877182589272
 34
0.0
 50
90.0
100
AcDbRotatedDimension
1001
ACAD
1000
DSTYLE
1002
{
1070
   271
1070
     0
1002
}
  0
DIMENSION
  5
AA1
102
{ACAD_XDICTIONARY
360
AAF
102
}
102
{ACAD_REACTORS
330
AB0
102
}
330
1F
100
AcDbEntity
  8
5
100
AcDbDimension
  2
*D20
 10
69.22673143167912
 20
-10.92785401346936
 30
0.0
 11
83.5274638563966
 21
-10.92785401346936
 31
0.0
 70
   160
 71
     5
 42
4.157561354329914
  3
GEN-ISO$0
100
AcDbAlignedDimension
 13
73.38429278600904
 23
70.50877182589272
 33
0.0
 14
69.22673143167912
 24
23.78634351204766
 34
0.0
 50
0.0000000000001132
100
AcDbRotatedDimension
1001
ACAD
1000
DSTYLE
1002
{
1070
   271
1070
     0
1002
}
  0
CIRCLE
  5
B08
330
1F
100
AcDbEntity
  8
0
100
AcDbCircle
 10
69.17042723435861
 20
23.72255917274265
 30
0.0
 40
10.00846781941914
  0
MTEXT
  5
B09
330
1F
100
AcDbEntity
  8
0
100
AcDbMText
 10
61.82360458928542
 20
13.92987612187886
 30
0.0
 40
3.5
 41
4.807699030615481
 71
     1
 72
     5
  1
Z
 73
     1
 44
1.0
1001
ACAD
1000
MTEXTBEGIN
1070
    73
1070
     1
1070
    44
1040
1.0
1070
    74
1070
     0
1000
MTEXTEND
  0
CIRCLE
  5
C81
330
1F
100
AcDbEntity
  8
0
100
AcDbCircle
 10
73.38429278600904
 20
70.50877182589272
 30
0.0
 40
63.6
  0
INSERT
  5
D19
330
1F
100
AcDbEntity
  8
AM_5
100
AcDbBlockReference
  2
*S21
 10
0.0
 20
0.0
 30
0.0
  0
ENDSEC
  0
SECTION
  2
OBJECTS
  0
DICTIONARY
  5
C
330
0
100
AcDbDictionary
281
     1
  3
ACAD_2007HEADERVARS_RT
350
D7B
  3
ACAD_COLOR
350
199
  3
ACAD_GROUP
350
D
  3
ACAD_LAYOUT
350
1A
  3
ACAD_MATERIAL
350
198
  3
ACAD_MLEADERSTYLE
350
B8E
  3
ACAD_MLINESTYLE
350
17
  3
ACAD_PLOTSETTINGS
350
19
  3
ACAD_PLOTSTYLENAME
350
E
  3
ACAD_SCALELIST
350
B6C
  3
ACAD_TABLESTYLE
350
19A
  3
ACAD_VISUALSTYLE
350
B5B
  3
ACDB_RECOMPOSE_DATA
350
C20
  3
AcDbVariableDictionary
350
257
  3
AcmDictionary
350
1FC
  3
AMG
350
1A0
  3
AMGSNAPSETTINGS
350
250
  3
ASE_INDEX_DICTIONARY
350
B0B
  3
DWGPROPS
350
D7A
  0
DICTIONARY
  5
2A9
330
2
100
AcDbDictionary
280
     1
281
     1
  3
ACAD_LAYERSTATES
360
2AA
  0
DICTIONARY
  5
BDC
330
10
100
AcDbDictionary
280
     1
281
     1
  3
ADSK_XREC_LAYER_RECONCILED
360
BDD
  0
DICTIONARY
  5
BDE
330
2A
100
AcDbDictionary
280
     1
281
     1
  3
ADSK_XREC_LAYER_RECONCILED
360
BDF
  0
DICTIONARY
  5
BE0
330
282
100
AcDbDictionary
280
     1
281
     1
  3
ADSK_XREC_LAYER_RECONCILED
360
BE1
  0
DICTIONARY
  5
BE2
330
2A3
100
AcDbDictionary
280
     1
281
     1
  3
ADSK_XREC_LAYER_RECONCILED
360
BE3
  0
DICTIONARY
  5
BE4
330
8C0
100
AcDbDictionary
280
     1
281
     1
  3
ADSK_XREC_LAYER_RECONCILED
360
BE5
  0
DICTIONARY
  5
BE6
330
8C1
100
AcDbDictionary
280
     1
281
     1
  3
ADSK_XREC_LAYER_RECONCILED
360
BE7
  0
DICTIONARY
  5
BE8
330
8C2
100
AcDbDictionary
280
     1
281
     1
  3
ADSK_XREC_LAYER_RECONCILED
360
BE9
  0
DICTIONARY
  5
BEA
330
8C3
100
AcDbDictionary
280
     1
281
     1
  3
ADSK_XREC_LAYER_RECONCILED
360
BEB
  0
DICTIONARY
  5
BEC
330
8C4
100
AcDbDictionary
280
     1
281
     1
  3
ADSK_XREC_LAYER_RECONCILED
360
BED
  0
DICTIONARY
  5
BEE
330
8C5
100
AcDbDictionary
280
     1
281
     1
  3
ADSK_XREC_LAYER_RECONCILED
360
BEF
  0
DICTIONARY
  5
BF0
330
8C6
100
AcDbDictionary
280
     1
281
     1
  3
ADSK_XREC_LAYER_RECONCILED
360
BF1
  0
DICTIONARY
  5
BF2
330
8C7
100
AcDbDictionary
280
     1
281
     1
  3
ADSK_XREC_LAYER_RECONCILED
360
BF3
  0
DICTIONARY
  5
BF4
330
8C8
100
AcDbDictionary
280
     1
281
     1
  3
ADSK_XREC_LAYER_RECONCILED
360
BF5
  0
DICTIONARY
  5
BF6
330
8C9
100
AcDbDictionary
280
     1
281
     1
  3
ADSK_XREC_LAYER_RECONCILED
360
BF7
  0
DICTIONARY
  5
BF8
330
8CA
100
AcDbDictionary
280
     1
281
     1
  3
ADSK_XREC_LAYER_RECONCILED
360
BF9
  0
DICTIONARY
  5
BFA
330
8CB
100
AcDbDictionary
280
     1
281
     1
  3
ADSK_XREC_LAYER_RECONCILED
360
BFB
  0
DICTIONARY
  5
BFC
330
8CC
100
AcDbDictionary
280
     1
281
     1
  3
ADSK_XREC_LAYER_RECONCILED
360
BFD
  0
DICTIONARY
  5
BFE
330
A3F
100
AcDbDictionary
280
     1
281
     1
  3
ADSK_XREC_LAYER_RECONCILED
360
BFF
  0
DICTIONARY
  5
C00
330
A57
100
AcDbDictionary
280
     1
281
     1
  3
ADSK_XREC_LAYER_RECONCILED
360
C01
  0
DICTIONARY
  5
D86
330
5D8
100
AcDbDictionary
280
     1
281
     1
  3
ACAD_MTEXT_RT
360
D87
  0
DICTIONARY
  5
98C
330
98B
100
AcDbDictionary
280
     1
281
     1
  3
ACAD_DIMASSOC
360
98D
  0
DICTIONARY
  5
98F
330
98E
100
AcDbDictionary
280
     1
281
     1
  3
ACAD_DIMASSOC
360
990
  0
DICTIONARY
  5
A83
330
A75
100
AcDbDictionary
280
     1
281
     1
  3
ACAD_DIMASSOC
360
A84
  0
DICTIONARY
  5
AAF
330
AA1
100
AcDbDictionary
280
     1
281
     1
  3
ACAD_DIMASSOC
360
AB0
  0
DICTIONARY
  5
D7B
102
{ACAD_REACTORS
330
C
102
}
330
C
100
AcDbDictionary
281
     1
  3
DIMARCSYM
350
D7C
  0
DICTIONARY
  5
199
102
{ACAD_REACTORS
330
C
102
}
330
C
100
AcDbDictionary
281
     1
  0
DICTIONARY
  5
D
102
{ACAD_REACTORS
330
C
102
}
330
C
100
AcDbDictionary
281
     1
  0
DICTIONARY
  5
1A
102
{ACAD_REACTORS
330
C
102
}
330
C
100
AcDbDictionary
281
     1
  3
Layout1
350
1E
  3
Layout2
350
26
  3
Model
350
22
  0
DICTIONARY
  5
198
102
{ACAD_REACTORS
330
C
102
}
330
C
100
AcDbDictionary
281
     1
  3
ByBlock
350
B53
  3
ByLayer
350
B4B
  3
Global
350
2A6
  0
DICTIONARY
  5
B8E
102
{ACAD_REACTORS
330
C
102
}
330
C
100
AcDbDictionary
281
     1
  3
Standard
350
B8F
  0
DICTIONARY
  5
17
102
{ACAD_REACTORS
330
C
102
}
330
C
100
AcDbDictionary
281
     1
  3
Standard
350
18
  0
DICTIONARY
  5
19
102
{ACAD_REACTORS
330
C
102
}
330
C
100
AcDbDictionary
281
     1
  0
ACDBDICTIONARYWDFLT
  5
E
102
{ACAD_REACTORS
330
C
102
}
330
C
100
AcDbDictionary
281
     1
  3
Normal
350
F
100
AcDbDictionaryWithDefault
340
F
  0
DICTIONARY
  5
B6C
102
{ACAD_REACTORS
330
C
102
}
330
C
100
AcDbDictionary
281
     1
  3
A0
350
B6D
  3
A1
350
B6E
  3
A2
350
B6F
  3
A3
350
B70
  3
A4
350
B71
  3
A5
350
B72
  3
A6
350
B73
  3
A7
350
B74
  3
A8
350
B75
  3
A9
350
B76
  3
B0
350
B77
  3
B1
350
B78
  3
B2
350
B79
  3
B3
350
B7A
  3
B4
350
B7B
  3
B5
350
B7C
  3
B6
350
B7D
  3
B7
350
B7E
  3
B8
350
B7F
  3
B9
350
B80
  3
C0
350
B81
  3
C1
350
B82
  3
C2
350
B83
  3
C3
350
B84
  3
C4
350
B85
  3
C5
350
B86
  3
C6
350
B87
  3
C7
350
B88
  3
C8
350
B89
  3
C9
350
B8A
  3
D0
350
B8B
  3
D1
350
B8C
  3
D2
350
B8D
  0
DICTIONARY
  5
19A
102
{ACAD_REACTORS
330
C
102
}
330
C
100
AcDbDictionary
281
     1
  3
Standard
350
19B
  0
DICTIONARY
  5
B5B
102
{ACAD_REACTORS
330
C
102
}
330
C
100
AcDbDictionary
281
     1
  3
2dWireframe
350
B61
  3
3D Hidden
350
B63
  3
3dWireframe
350
B62
  3
Basic
350
B60
  3
Brighten
350
B67
  3
ColorChange
350
B6B
  3
Conceptual
350
B64
  3
Dim
350
B66
  3
Facepattern
350
B6A
  3
Flat
350
B5C
  3
FlatWithEdges
350
B5D
  3
Gouraud
350
B5E
  3
GouraudWithEdges
350
B5F
  3
Linepattern
350
B69
  3
Realistic
350
B65
  3
Thicken
350
B68
  0
XRECORD
  5
C20
102
{ACAD_REACTORS
330
C
102
}
330
C
100
AcDbXrecord
280
     1
 90
        1
330
19B
  0
DICTIONARY
  5
257
102
{ACAD_REACTORS
330
C
102
}
330
C
100
AcDbDictionary
281
     1
  3
CANNOSCALE
350
C23
  3
CMLEADERSTYLE
350
C21
  3
CTABLESTYLE
350
258
  3
DIMASSOC
350
D78
  3
HIDETEXT
350
D77
  3
INDEXCTL
350
D76
  3
LAYEREVAL
350
C25
  3
LAYERNOTIFY
350
C26
  3
LIGHTINGUNITS
350
C24
  3
MSLTSCALE
350
C22
  3
SORTENTS
350
D75
  0
DICTIONARY
  5
1FC
102
{ACAD_REACTORS
330
C
102
}
330
C
100
AcDbDictionary
281
     1
  3
AcmStdDictionary
350
207
  3
AMDTSECTSYM_ARROWCOLOR
350
226
  0
DICTIONARY
  5
1A0
102
{ACAD_REACTORS
330
C
102
}
330
C
100
AcDbDictionary
281
     1
  0
DICTIONARY
  5
250
102
{ACAD_REACTORS
330
C
102
}
330
C
100
AcDbDictionary
281
     1
  0
DICTIONARY
  5
B0B
102
{ACAD_REACTORS
330
C
102
}
330
C
100
AcDbDictionary
281
     1
  3
ASEBlockHierarchyIndexRecord
350
B0C
1001
DCO15
1040
1643088250.273
  0
XRECORD
  5
D7A
102
{ACAD_REACTORS
330
C
102
}
330
C
100
AcDbXrecord
280
     1
  1
DWGPROPS COOKIE
  2

  3

  4

  6

  7

  8
jamoeller
  9

300
=
301
=
302
=
303
=
304
=
305
=
306
=
307
=
308
=
309
=
 40
0.0356237731481482
 41
2454769.75120316
 42
2455146.45017632
  1

 90
        0
  0
DICTIONARY
  5
2AA
102
{ACAD_REACTORS
330
2A9
102
}
330
2A9
100
AcDbDictionary
281
     1
  0
XRECORD
  5
BDD
102
{ACAD_REACTORS
330
BDC
102
}
330
BDC
100
AcDbXrecord
280
     1
290
     1
  0
XRECORD
  5
BDF
102
{ACAD_REACTORS
330
BDE
102
}
330
BDE
100
AcDbXrecord
280
     1
290
     1
  0
XRECORD
  5
BE1
102
{ACAD_REACTORS
330
BE0
102
}
330
BE0
100
AcDbXrecord
280
     1
290
     1
  0
XRECORD
  5
BE3
102
{ACAD_REACTORS
330
BE2
102
}
330
BE2
100
AcDbXrecord
280
     1
290
     1
  0
XRECORD
  5
BE5
102
{ACAD_REACTORS
330
BE4
102
}
330
BE4
100
AcDbXrecord
280
     1
290
     1
  0
XRECORD
  5
BE7
102
{ACAD_REACTORS
330
BE6
102
}
330
BE6
100
AcDbXrecord
280
     1
290
     1
  0
XRECORD
  5
BE9
102
{ACAD_REACTORS
330
BE8
102
}
330
BE8
100
AcDbXrecord
280
     1
290
     1
  0
XRECORD
  5
BEB
102
{ACAD_REACTORS
330
BEA
102
}
330
BEA
100
AcDbXrecord
280
     1
290
     1
  0
XRECORD
  5
BED
102
{ACAD_REACTORS
330
BEC
102
}
330
BEC
100
AcDbXrecord
280
     1
290
     1
  0
XRECORD
  5
BEF
102
{ACAD_REACTORS
330
BEE
102
}
330
BEE
100
AcDbXrecord
280
     1
290
     1
  0
XRECORD
  5
BF1
102
{ACAD_REACTORS
330
BF0
102
}
330
BF0
100
AcDbXrecord
280
     1
290
     1
  0
XRECORD
  5
BF3
102
{ACAD_REACTORS
330
BF2
102
}
330
BF2
100
AcDbXrecord
280
     1
290
     1
  0
XRECORD
  5
BF5
102
{ACAD_REACTORS
330
BF4
102
}
330
BF4
100
AcDbXrecord
280
     1
290
     1
  0
XRECORD
  5
BF7
102
{ACAD_REACTORS
330
BF6
102
}
330
BF6
100
AcDbXrecord
280
     1
290
     1
  0
XRECORD
  5
BF9
102
{ACAD_REACTORS
330
BF8
102
}
330
BF8
100
AcDbXrecord
280
     1
290
     1
  0
XRECORD
  5
BFB
102
{ACAD_REACTORS
330
BFA
102
}
330
BFA
100
AcDbXrecord
280
     1
290
     1
  0
XRECORD
  5
BFD
102
{ACAD_REACTORS
330
BFC
102
}
330
BFC
100
AcDbXrecord
280
     1
290
     1
  0
XRECORD
  5
BFF
102
{ACAD_REACTORS
330
BFE
102
}
330
BFE
100
AcDbXrecord
280
     1
290
     1
  0
XRECORD
  5
C01
102
{ACAD_REACTORS
330
C00
102
}
330
C00
100
AcDbXrecord
280
     1
290
     1
  0
XRECORD
  5
D87
102
{ACAD_REACTORS
330
D86
102
}
330
D86
100
AcDbXrecord
280
     1
 40
30543.0
  1
\fArial|b0|i0|c0|p32;©
  0
DIMASSOC
  5
98D
102
{ACAD_REACTORS
330
98C
102
}
330
98C
100
AcDbDimAssoc
330
98B
 90
        3
 70
     0
 71
     0
  1
AcDbOsnapPointRef
 72
    13
331
98A
 73
     0
 91
        0
 40
0.0
 10
0.0
 20
0.0
 30
2.000000000000000E+50
 75
     0
  1
AcDbOsnapPointRef
 72
     1
331
98A
 73
     0
 91
        0
 40
0.0
 10
0.0
 20
0.0
 30
2.000000000000000E+50
 75
     0
  0
DIMASSOC
  5
990
102
{ACAD_REACTORS
330
98F
102
}
330
98F
100
AcDbDimAssoc
330
98E
 90
        3
 70
     0
 71
     0
  1
AcDbOsnapPointRef
 72
    13
331
98A
 73
     0
 91
        0
 40
0.0
 10
0.0
 20
0.0
 30
2.000000000000000E+50
 75
     0
  1
AcDbOsnapPointRef
 72
    13
331
989
 73
     0
 91
        0
 40
0.0
 10
0.0
 20
0.0
 30
2.000000000000000E+50
 75
     0
  0
DIMASSOC
  5
A84
102
{ACAD_REACTORS
330
A83
102
}
330
A83
100
AcDbDimAssoc
330
A75
 90
        3
 70
     0
 71
     0
  1
AcDbOsnapPointRef
 72
     3
331
57B
331
29C
 73
     0
 91
        0
 40
2.107152604013895
 10
0.0
 20
0.0
 30
0.0
 75
     0
  1
AcDbOsnapPointRef
 72
    13
331
A54
 73
     0
 91
        0
 40
0.0
 10
0.0
 20
0.0
 30
2.000000000000000E+50
 75
     0
  0
DIMASSOC
  5
AB0
102
{ACAD_REACTORS
330
AAF
102
}
330
AAF
100
AcDbDimAssoc
330
AA1
 90
        1
 70
     0
 71
     0
  1
AcDbOsnapPointRef
 72
    13
331
A54
 73
     0
 91
        0
 40
0.0
 10
0.0
 20
0.0
 30
2.000000000000000E+50
 75
     0
  0
XRECORD
  5
D7C
102
{ACAD_REACTORS
330
D7B
102
}
330
D7B
100
AcDbXrecord
280
     1
 70
     1
  0
LAYOUT
  5
1E
102
{ACAD_XDICTIONARY
360
D7D
102
}
102
{ACAD_REACTORS
330
1A
102
}
330
1A
100
AcDbPlotSettings
  1

  2
none_device
  4

  6

 40
0.0
 41
0.0
 42
0.0
 43
0.0
 44
0.0
 45
0.0
 46
0.0
 47
0.0
 48
0.0
 49
0.0
140
0.0
141
0.0
142
1.0
143
1.0
 70
   688
 72
     0
 73
     0
 74
     5
  7

 75
    16
147
1.0
148
0.0
149
0.0
100
AcDbLayout
  1
Layout1
 70
     1
 71
     1
 10
0.0
 20
0.0
 11
12.0
 21
9.0
 12
0.0
 22
0.0
 32
0.0
 14
1.000000000000000E+20
 24
1.000000000000000E+20
 34
1.000000000000000E+20
 15
-1.000000000000000E+20
 25
-1.000000000000000E+20
 35
-1.000000000000000E+20
146
0.0
 13
0.0
 23
0.0
 33
0.0
 16
1.0
 26
0.0
 36
0.0
 17
0.0
 27
1.0
 37
0.0
 76
     0
330
1B
  0
LAYOUT
  5
26
102
{ACAD_XDICTIONARY
360
D81
102
}
102
{ACAD_REACTORS
330
1A
102
}
330
1A
100
AcDbPlotSettings
  1

  2
none_device
  4

  6

 40
0.0
 41
0.0
 42
0.0
 43
0.0
 44
0.0
 45
0.0
 46
0.0
 47
0.0
 48
0.0
 49
0.0
140
0.0
141
0.0
142
1.0
143
1.0
 70
   688
 72
     0
 73
     0
 74
     5
  7

 75
    16
147
1.0
148
0.0
149
0.0
100
AcDbLayout
  1
Layout2
 70
     1
 71
     2
 10
0.0
 20
0.0
 11
0.0
 21
0.0
 12
0.0
 22
0.0
 32
0.0
 14
0.0
 24
0.0
 34
0.0
 15
0.0
 25
0.0
 35
0.0
146
0.0
 13
0.0
 23
0.0
 33
0.0
 16
1.0
 26
0.0
 36
0.0
 17
0.0
 27
1.0
 37
0.0
 76
     0
330
23
  0
LAYOUT
  5
22
102
{ACAD_XDICTIONARY
360
D7F
102
}
102
{ACAD_REACTORS
330
1A
102
}
330
1A
100
AcDbPlotSettings
  1

  2
none_device
  4

  6

 40
0.0
 41
0.0
 42
0.0
 43
0.0
 44
0.0
 45
0.0
 46
0.0
 47
0.0
 48
0.0
 49
0.0
140
0.0
141
0.0
142
1.0
143
1.0
 70
  1712
 72
     0
 73
     0
 74
     0
  7

 75
     0
147
1.0
148
0.0
149
0.0
100
AcDbLayout
  1
Model
 70
     1
 71
     0
 10
0.0
 20
0.0
 11
12.0
 21
9.0
 12
0.0
 22
0.0
 32
0.0
 14
-0.0027960567110767
 24
0.0061288944130524
 34
0.0
 15
125.9972039432889
 25
126.006128894413
 35
0.0
146
0.0
 13
0.0
 23
0.0
 33
0.0
 16
1.0
 26
0.0
 36
0.0
 17
0.0
 27
1.0
 37
0.0
 76
     0
330
1F
331
B49
  0
MATERIAL
  5
B53
102
{ACAD_XDICTIONARY
360
B54
102
}
102
{ACAD_REACTORS
330
198
102
}
330
198
100
AcDbMaterial
  1
ByBlock
 72
     0
 43
0.0008202099737533
 43
0.0
 43
0.0
 43
0.0
 43
0.0
 43
0.0008202099737533
 43
0.0
 43
0.0
 43
0.0
 43
0.0
 43
1.0
 43
0.0
 43
0.0
 43
0.0
 43
0.0
 43
1.0
 77
     0
 47
0.0008202099737533
 47
0.0
 47
0.0
 47
0.0
 47
0.0
 47
0.0008202099737533
 47
0.0
 47
0.0
 47
0.0
 47
0.0
 47
1.0
 47
0.0
 47
0.0
 47
0.0
 47
0.0
 47
1.0
171
     0
 49
0.0008202099737533
 49
0.0
 49
0.0
 49
0.0
 49
0.0
 49
0.0008202099737533
 49
0.0
 49
0.0
 49
0.0
 49
0.0
 49
1.0
 49
0.0
 49
0.0
 49
0.0
 49
0.0
 49
1.0
175
     0
142
0.0008202099737533
142
0.0
142
0.0
142
0.0
142
0.0
142
0.0008202099737533
142
0.0
142
0.0
142
0.0
142
0.0
142
1.0
142
0.0
142
0.0
142
0.0
142
0.0
142
1.0
179
     0
144
0.0008202099737533
144
0.0
144
0.0
144
0.0
144
0.0
144
0.0008202099737533
144
0.0
144
0.0
144
0.0
144
0.0
144
1.0
144
0.0
144
0.0
144
0.0
144
0.0
144
1.0
147
0.0008202099737533
147
0.0
147
0.0
147
0.0
147
0.0
147
0.0008202099737533
147
0.0
147
0.0
147
0.0
147
0.0
147
1.0
147
0.0
147
0.0
147
0.0
147
0.0
147
1.0
  0
MATERIAL
  5
B4B
102
{ACAD_XDICTIONARY
360
B4C
102
}
102
{ACAD_REACTORS
330
198
102
}
330
198
100
AcDbMaterial
  1
ByLayer
 72
     0
 43
0.0008202099737533
 43
0.0
 43
0.0
 43
0.0
 43
0.0
 43
0.0008202099737533
 43
0.0
 43
0.0
 43
0.0
 43
0.0
 43
1.0
 43
0.0
 43
0.0
 43
0.0
 43
0.0
 43
1.0
 77
     0
 47
0.0008202099737533
 47
0.0
 47
0.0
 47
0.0
 47
0.0
 47
0.0008202099737533
 47
0.0
 47
0.0
 47
0.0
 47
0.0
 47
1.0
 47
0.0
 47
0.0
 47
0.0
 47
0.0
 47
1.0
171
     0
 49
0.0008202099737533
 49
0.0
 49
0.0
 49
0.0
 49
0.0
 49
0.0008202099737533
 49
0.0
 49
0.0
 49
0.0
 49
0.0
 49
1.0
 49
0.0
 49
0.0
 49
0.0
 49
0.0
 49
1.0
175
     0
142
0.0008202099737533
142
0.0
142
0.0
142
0.0
142
0.0
142
0.0008202099737533
142
0.0
142
0.0
142
0.0
142
0.0
142
1.0
142
0.0
142
0.0
142
0.0
142
0.0
142
1.0
179
     0
144
0.0008202099737533
144
0.0
144
0.0
144
0.0
144
0.0
144
0.0008202099737533
144
0.0
144
0.0
144
0.0
144
0.0
144
1.0
144
0.0
144
0.0
144
0.0
144
0.0
144
1.0
147
0.0008202099737533
147
0.0
147
0.0
147
0.0
147
0.0
147
0.0008202099737533
147
0.0
147
0.0
147
0.0
147
0.0
147
1.0
147
0.0
147
0.0
147
0.0
147
0.0
147
1.0
  0
MATERIAL
  5
2A6
102
{ACAD_XDICTIONARY
360
D84
102
}
102
{ACAD_REACTORS
330
198
102
}
330
198
100
AcDbMaterial
  1
Global
 73
     1
 78
     1
172
     1
176
     1
270
     1
274
     1
  0
MLEADERSTYLE
  5
B8F
102
{ACAD_REACTORS
330
B8E
102
}
330
B8E
100
AcDbMLeaderStyle
170
     2
171
     1
172
     0
 90
        2
 40
0.0
 41
0.0
173
     1
 91
-1056964608
340
14
 92
       -2
290
     1
 42
0.09
291
     1
 43
0.36
  3
Standard
 44
0.18
300

342
11
174
     1
178
     6
175
     1
176
     0
 93
-1056964608
 45
0.18
292
     0
297
     0
 46
0.18
 94
-1056964608
 47
1.0
 49
1.0
140
1.0
293
     1
141
0.0
294
     1
177
     0
142
1.0
295
     0
296
     0
143
0.125
1001
ACAD_MLEADERVER
1070
     2
  0
MLINESTYLE
  5
18
102
{ACAD_REACTORS
330
17
102
}
330
17
100
AcDbMlineStyle
  2
STANDARD
 70
     0
  3

 62
   256
 51
90.0
 52
90.0
 71
     2
 49
0.5
 62
   256
  6
BYLAYER
 49
-0.5
 62
   256
  6
BYLAYER
  0
ACDBPLACEHOLDER
  5
F
102
{ACAD_REACTORS
330
E
102
}
330
E
  0
SCALE
  5
B6D
102
{ACAD_REACTORS
330
B6C
102
}
330
B6C
100
AcDbScale
 70
     0
300
1:1
140
1.0
141
1.0
290
     1
  0
SCALE
  5
B6E
102
{ACAD_REACTORS
330
B6C
102
}
330
B6C
100
AcDbScale
 70
     0
300
1:2
140
1.0
141
2.0
290
     0
  0
SCALE
  5
B6F
102
{ACAD_REACTORS
330
B6C
102
}
330
B6C
100
AcDbScale
 70
     0
300
1:4
140
1.0
141
4.0
290
     0
  0
SCALE
  5
B70
102
{ACAD_REACTORS
330
B6C
102
}
330
B6C
100
AcDbScale
 70
     0
300
1:5
140
1.0
141
5.0
290
     0
  0
SCALE
  5
B71
102
{ACAD_REACTORS
330
B6C
102
}
330
B6C
100
AcDbScale
 70
     0
300
1:8
140
1.0
141
8.0
290
     0
  0
SCALE
  5
B72
102
{ACAD_REACTORS
330
B6C
102
}
330
B6C
100
AcDbScale
 70
     0
300
1:10
140
1.0
141
10.0
290
     0
  0
SCALE
  5
B73
102
{ACAD_REACTORS
330
B6C
102
}
330
B6C
100
AcDbScale
 70
     0
300
1:16
140
1.0
141
16.0
290
     0
  0
SCALE
  5
B74
102
{ACAD_REACTORS
330
B6C
102
}
330
B6C
100
AcDbScale
 70
     0
300
1:20
140
1.0
141
20.0
290
     0
  0
SCALE
  5
B75
102
{ACAD_REACTORS
330
B6C
102
}
330
B6C
100
AcDbScale
 70
     0
300
1:30
140
1.0
141
30.0
290
     0
  0
SCALE
  5
B76
102
{ACAD_REACTORS
330
B6C
102
}
330
B6C
100
AcDbScale
 70
     0
300
1:40
140
1.0
141
40.0
290
     0
  0
SCALE
  5
B77
102
{ACAD_REACTORS
330
B6C
102
}
330
B6C
100
AcDbScale
 70
     0
300
1:50
140
1.0
141
50.0
290
     0
  0
SCALE
  5
B78
102
{ACAD_REACTORS
330
B6C
102
}
330
B6C
100
AcDbScale
 70
     0
300
1:100
140
1.0
141
100.0
290
     0
  0
SCALE
  5
B79
102
{ACAD_REACTORS
330
B6C
102
}
330
B6C
100
AcDbScale
 70
     0
300
2:1
140
2.0
141
1.0
290
     0
  0
SCALE
  5
B7A
102
{ACAD_REACTORS
330
B6C
102
}
330
B6C
100
AcDbScale
 70
     0
300
4:1
140
4.0
141
1.0
290
     0
  0
SCALE
  5
B7B
102
{ACAD_REACTORS
330
B6C
102
}
330
B6C
100
AcDbScale
 70
     0
300
8:1
140
8.0
141
1.0
290
     0
  0
SCALE
  5
B7C
102
{ACAD_REACTORS
330
B6C
102
}
330
B6C
100
AcDbScale
 70
     0
300
10:1
140
10.0
141
1.0
290
     0
  0
SCALE
  5
B7D
102
{ACAD_REACTORS
330
B6C
102
}
330
B6C
100
AcDbScale
 70
     0
300
100:1
140
100.0
141
1.0
290
     0
  0
SCALE
  5
B7E
102
{ACAD_REACTORS
330
B6C
102
}
330
B6C
100
AcDbScale
 70
     0
300
1/128" = 1'-0"
140
0.0078125
141
12.0
290
     0
  0
SCALE
  5
B7F
102
{ACAD_REACTORS
330
B6C
102
}
330
B6C
100
AcDbScale
 70
     0
300
1/64" = 1'-0"
140
0.015625
141
12.0
290
     0
  0
SCALE
  5
B80
102
{ACAD_REACTORS
330
B6C
102
}
330
B6C
100
AcDbScale
 70
     0
300
1/32" = 1'-0"
140
0.03125
141
12.0
290
     0
  0
SCALE
  5
B81
102
{ACAD_REACTORS
330
B6C
102
}
330
B6C
100
AcDbScale
 70
     0
300
1/16" = 1'-0"
140
0.0625
141
12.0
290
     0
  0
SCALE
  5
B82
102
{ACAD_REACTORS
330
B6C
102
}
330
B6C
100
AcDbScale
 70
     0
300
3/32" = 1'-0"
140
0.09375
141
12.0
290
     0
  0
SCALE
  5
B83
102
{ACAD_REACTORS
330
B6C
102
}
330
B6C
100
AcDbScale
 70
     0
300
1/8" = 1'-0"
140
0.125
141
12.0
290
     0
  0
SCALE
  5
B84
102
{ACAD_REACTORS
330
B6C
102
}
330
B6C
100
AcDbScale
 70
     0
300
3/16" = 1'-0"
140
0.1875
141
12.0
290
     0
  0
SCALE
  5
B85
102
{ACAD_REACTORS
330
B6C
102
}
330
B6C
100
AcDbScale
 70
     0
300
1/4" = 1'-0"
140
0.25
141
12.0
290
     0
  0
SCALE
  5
B86
102
{ACAD_REACTORS
330
B6C
102
}
330
B6C
100
AcDbScale
 70
     0
300
3/8" = 1'-0"
140
0.375
141
12.0
290
     0
  0
SCALE
  5
B87
102
{ACAD_REACTORS
330
B6C
102
}
330
B6C
100
AcDbScale
 70
     0
300
1/2" = 1'-0"
140
0.5
141
12.0
290
     0
  0
SCALE
  5
B88
102
{ACAD_REACTORS
330
B6C
102
}
330
B6C
100
AcDbScale
 70
     0
300
3/4" = 1'-0"
140
0.75
141
12.0
290
     0
  0
SCALE
  5
B89
102
{ACAD_REACTORS
330
B6C
102
}
330
B6C
100
AcDbScale
 70
     0
300
1" = 1'-0"
140
1.0
141
12.0
290
     0
  0
SCALE
  5
B8A
102
{ACAD_REACTORS
330
B6C
102
}
330
B6C
100
AcDbScale
 70
     0
300
1-1/2" = 1'-0"
140
1.5
141
12.0
290
     0
  0
SCALE
  5
B8B
102
{ACAD_REACTORS
330
B6C
102
}
330
B6C
100
AcDbScale
 70
     0
300
3" = 1'-0"
140
3.0
141
12.0
290
     0
  0
SCALE
  5
B8C
102
{ACAD_REACTORS
330
B6C
102
}
330
B6C
100
AcDbScale
 70
     0
300
6" = 1'-0"
140
6.0
141
12.0
290
     0
  0
SCALE
  5
B8D
102
{ACAD_REACTORS
330
B6C
102
}
330
B6C
100
AcDbScale
 70
     0
300
1'-0" = 1'-0"
140
12.0
141
12.0
290
     0
  0
TABLESTYLE
  5
19B
102
{ACAD_XDICTIONARY
360
C1E
102
}
102
{ACAD_REACTORS
330
19A
102
}
330
19A
100
AcDbTableStyle
  3
Standard
 70
     0
 71
     0
 40
0.06
 41
0.06
280
     0
281
     0
  7
Standard
140
0.18
170
     2
 62
     0
 63
     7
283
     0
274
    -2
284
     1
 64
     0
275
    -2
285
     1
 65
     0
276
    -2
286
     1
 66
     0
277
    -2
287
     1
 67
     0
278
    -2
288
     1
 68
     0
279
    -2
289
     1
 69
     0
  7
Standard
140
0.25
170
     5
 62
     0
 63
     7
283
     0
274
    -2
284
     1
 64
     0
275
    -2
285
     1
 65
     0
276
    -2
286
     1
 66
     0
277
    -2
287
     1
 67
     0
278
    -2
288
     1
 68
     0
279
    -2
289
     1
 69
     0
  7
Standard
140
0.18
170
     5
 62
     0
 63
     7
283
     0
274
    -2
284
     1
 64
     0
275
    -2
285
     1
 65
     0
276
    -2
286
     1
 66
     0
277
    -2
287
     1
 67
     0
278
    -2
288
     1
 68
     0
279
    -2
289
     1
 69
     0
  0
VISUALSTYLE
  5
B61
102
{ACAD_REACTORS
330
B5B
102
}
330
B5B
100
AcDbVisualStyle
  2
2dWireframe
 70
     4
 71
     0
 72
     2
 73
     0
 90
        0
 40
-0.6
 41
-30.0
 62
     5
 63
     7
 74
     1
 91
        4
 64
     7
 65
   257
 75
     1
175
     1
 42
1.0
 92
        0
 66
   257
 43
1.0
 76
     1
 77
     6
 78
     2
 67
     7
 79
     5
170
     0
171
     0
290
     0
174
     0
 93
        1
 44
0.0
173
     0
291
     0
 45
0.0
1001
ACAD
1000
AcDbSavedByObjectVersion
1070
     0
  0
VISUALSTYLE
  5
B63
102
{ACAD_REACTORS
330
B5B
102
}
330
B5B
100
AcDbVisualStyle
  2
3D Hidden
 70
     6
 71
     1
 72
     2
 73
     2
 90
        0
 40
-0.6
 41
-30.0
 62
     5
 63
     7
 74
     2
 91
        2
 64
     7
 65
   257
 75
     2
175
     1
 42
40.0
 92
        0
 66
   257
 43
1.0
 76
     1
 77
     6
 78
     2
 67
     7
 79
     3
170
     0
171
     0
290
     0
174
     0
 93
        1
 44
0.0
173
     0
291
     0
 45
0.0
1001
ACAD
1000
AcDbSavedByObjectVersion
1070
     0
  0
VISUALSTYLE
  5
B62
102
{ACAD_REACTORS
330
B5B
102
}
330
B5B
100
AcDbVisualStyle
  2
3dWireframe
 70
     5
 71
     0
 72
     2
 73
     0
 90
        0
 40
-0.6
 41
-30.0
 62
     5
 63
     7
 74
     1
 91
        4
 64
     7
 65
   257
 75
     1
175
     1
 42
1.0
 92
        0
 66
   257
 43
1.0
 76
     1
 77
     6
 78
     2
 67
     7
 79
     5
170
     0
171
     0
290
     0
174
     0
 93
        1
 44
0.0
173
     0
291
     0
 45
0.0
1001
ACAD
1000
AcDbSavedByObjectVersion
1070
     0
  0
VISUALSTYLE
  5
B60
102
{ACAD_REACTORS
330
B5B
102
}
330
B5B
100
AcDbVisualStyle
  2
Basic
 70
     7
 71
     1
 72
     0
 73
     1
 90
        0
 40
-0.6
 41
-30.0
 62
     5
 63
     7
 74
     0
 91
        4
 64
     7
 65
   257
 75
     1
175
     1
 42
1.0
 92
        8
 66
     7
 43
1.0
 76
     1
 77
     6
 78
     2
 67
     7
 79
     5
170
     0
171
     0
290
     0
174
     0
 93
        1
 44
0.0
173
     0
291
     1
 45
0.0
1001
ACAD
1000
AcDbSavedByObjectVersion
1070
     0
  0
VISUALSTYLE
  5
B67
102
{ACAD_REACTORS
330
B5B
102
}
330
B5B
100
AcDbVisualStyle
  2
Brighten
 70
    12
 71
     2
 72
     2
 73
     0
 90
        0
 40
-0.6
 41
-30.0
 62
     5
 63
     7
 74
     1
 91
        4
 64
     7
 65
   257
 75
     1
175
     1
 42
1.0
 92
        8
 66
     7
 43
1.0
 76
     1
 77
     6
 78
     2
 67
     7
 79
     5
170
     0
171
     0
290
     0
174
     0
 93
        1
 44
50.0
173
     0
291
     1
 45
0.0
1001
ACAD
1000
AcDbSavedByObjectVersion
1070
     0
  0
VISUALSTYLE
  5
B6B
102
{ACAD_REACTORS
330
B5B
102
}
330
B5B
100
AcDbVisualStyle
  2
ColorChange
 70
    16
 71
     2
 72
     2
 73
     3
 90
        0
 40
-0.6
 41
-30.0
 62
     5
 63
     8
 74
     1
 91
        4
 64
     7
 65
   257
 75
     1
175
     1
 42
1.0
 92
        8
 66
     8
 43
1.0
 76
     1
 77
     6
 78
     2
 67
     7
 79
     5
170
     0
171
     0
290
     0
174
     0
 93
        1
 44
0.0
173
     0
291
     1
 45
0.0
1001
ACAD
1000
AcDbSavedByObjectVersion
1070
     0
  0
VISUALSTYLE
  5
B64
102
{ACAD_REACTORS
330
B5B
102
}
330
B5B
100
AcDbVisualStyle
  2
Conceptual
 70
     9
 71
     3
 72
     2
 73
     0
 90
        0
 40
-0.6
 41
-30.0
 62
     5
 63
     7
 74
     2
 91
        2
 64
     7
 65
   257
 75
     1
175
     1
 42
40.0
 92
        8
 66
     7
 43
1.0
 76
     1
 77
     6
 78
     2
 67
     7
 79
     3
170
     0
171
     0
290
     0
174
     0
 93
        1
 44
0.0
173
     0
291
     0
 45
0.0
1001
ACAD
1000
AcDbSavedByObjectVersion
1070
     0
  0
VISUALSTYLE
  5
B66
102
{ACAD_REACTORS
330
B5B
102
}
330
B5B
100
AcDbVisualStyle
  2
Dim
 70
    11
 71
     2
 72
     2
 73
     0
 90
        0
 40
-0.6
 41
-30.0
 62
     5
 63
     7
 74
     1
 91
        4
 64
     7
 65
   257
 75
     1
175
     1
 42
1.0
 92
        8
 66
     7
 43
1.0
 76
     1
 77
     6
 78
     2
 67
     7
 79
     5
170
     0
171
     0
290
     0
174
     0
 93
        1
 44
-50.0
173
     0
291
     1
 45
0.0
1001
ACAD
1000
AcDbSavedByObjectVersion
1070
     0
  0
VISUALSTYLE
  5
B6A
102
{ACAD_REACTORS
330
B5B
102
}
330
B5B
100
AcDbVisualStyle
  2
Facepattern
 70
    15
 71
     2
 72
     2
 73
     0
 90
        0
 40
-0.6
 41
-30.0
 62
     5
 63
     7
 74
     1
 91
        4
 64
     7
 65
   257
 75
     1
175
     1
 42
1.0
 92
        8
 66
     7
 43
1.0
 76
     1
 77
     6
 78
     2
 67
     7
 79
     5
170
     0
171
     0
290
     0
174
     0
 93
        1
 44
0.0
173
     0
291
     1
 45
0.0
1001
ACAD
1000
AcDbSavedByObjectVersion
1070
     0
  0
VISUALSTYLE
  5
B5C
102
{ACAD_REACTORS
330
B5B
102
}
330
B5B
100
AcDbVisualStyle
  2
Flat
 70
     0
 71
     2
 72
     1
 73
     1
 90
        2
 40
-0.6
 41
30.0
 62
     5
 63
     7
 74
     0
 91
        4
 64
     7
 65
   257
 75
     1
175
     1
 42
1.0
 92
        8
 66
     7
 43
1.0
 76
     1
 77
     6
 78
     2
 67
     7
 79
     5
170
     0
171
     0
290
     0
174
     0
 93
       13
 44
0.0
173
     0
291
     1
 45
0.0
1001
ACAD
1000
AcDbSavedByObjectVersion
1070
     0
  0
VISUALSTYLE
  5
B5D
102
{ACAD_REACTORS
330
B5B
102
}
330
B5B
100
AcDbVisualStyle
  2
FlatWithEdges
 70
     1
 71
     2
 72
     1
 73
     1
 90
        2
 40
-0.6
 41
30.0
 62
     5
 63
     7
 74
     1
 91
        4
 64
     7
 65
   257
 75
     1
175
     1
 42
1.0
 92
        0
 66
   257
 43
1.0
 76
     1
 77
     6
 78
     2
 67
     7
 79
     5
170
     0
171
     0
290
     0
174
     0
 93
       13
 44
0.0
173
     0
291
     1
 45
0.0
1001
ACAD
1000
AcDbSavedByObjectVersion
1070
     0
  0
VISUALSTYLE
  5
B5E
102
{ACAD_REACTORS
330
B5B
102
}
330
B5B
100
AcDbVisualStyle
  2
Gouraud
 70
     2
 71
     2
 72
     2
 73
     1
 90
        2
 40
-0.6
 41
30.0
 62
     5
 63
     7
 74
     0
 91
        4
 64
     7
 65
   257
 75
     1
175
     1
 42
1.0
 92
        0
 66
     7
 43
1.0
 76
     1
 77
     6
 78
     2
 67
     7
 79
     5
170
     0
171
     0
290
     0
174
     0
 93
       13
 44
0.0
173
     0
291
     1
 45
0.0
1001
ACAD
1000
AcDbSavedByObjectVersion
1070
     0
  0
VISUALSTYLE
  5
B5F
102
{ACAD_REACTORS
330
B5B
102
}
330
B5B
100
AcDbVisualStyle
  2
GouraudWithEdges
 70
     3
 71
     2
 72
     2
 73
     1
 90
        2
 40
-0.6
 41
30.0
 62
     5
 63
     7
 74
     1
 91
        4
 64
     7
 65
   257
 75
     1
175
     1
 42
1.0
 92
        0
 66
   257
 43
1.0
 76
     1
 77
     6
 78
     2
 67
     7
 79
     5
170
     0
171
     0
290
     0
174
     0
 93
       13
 44
0.0
173
     0
291
     1
 45
0.0
1001
ACAD
1000
AcDbSavedByObjectVersion
1070
     0
  0
VISUALSTYLE
  5
B69
102
{ACAD_REACTORS
330
B5B
102
}
330
B5B
100
AcDbVisualStyle
  2
Linepattern
 70
    14
 71
     2
 72
     2
 73
     0
 90
        0
 40
-0.6
 41
-30.0
 62
     5
 63
     7
 74
     1
 91
        4
 64
     7
 65
   257
 75
     7
175
     7
 42
1.0
 92
        8
 66
     7
 43
1.0
 76
     1
 77
     6
 78
     2
 67
     7
 79
     5
170
     0
171
     0
290
     0
174
     0
 93
        1
 44
0.0
173
     0
291
     1
 45
0.0
1001
ACAD
1000
AcDbSavedByObjectVersion
1070
     0
  0
VISUALSTYLE
  5
B65
102
{ACAD_REACTORS
330
B5B
102
}
330
B5B
100
AcDbVisualStyle
  2
Realistic
 70
     8
 71
     2
 72
     2
 73
     0
 90
        0
 40
-0.6
 41
-30.0
 62
     5
 63
     7
 74
     1
 91
        0
 64
     7
 65
   257
 75
     1
175
     1
 42
1.0
 92
        8
 66
     8
 43
1.0
 76
     1
 77
     6
 78
     2
 67
     7
 79
     5
170
     0
171
     0
290
     0
174
     0
 93
       13
 44
0.0
173
     0
291
     0
 45
0.0
1001
ACAD
1000
AcDbSavedByObjectVersion
1070
     0
  0
VISUALSTYLE
  5
B68
102
{ACAD_REACTORS
330
B5B
102
}
330
B5B
100
AcDbVisualStyle
  2
Thicken
 70
    13
 71
     2
 72
     2
 73
     0
 90
        0
 40
-0.6
 41
-30.0
 62
     5
 63
     7
 74
     1
 91
        4
 64
     7
 65
   257
 75
     1
175
     1
 42
1.0
 92
       12
 66
     7
 43
1.0
 76
     1
 77
     6
 78
     2
 67
     7
 79
     5
170
     0
171
     0
290
     0
174
     0
 93
        1
 44
0.0
173
     0
291
     1
 45
0.0
1001
ACAD
1000
AcDbSavedByObjectVersion
1070
     0
  0
DICTIONARYVAR
  5
C23
102
{ACAD_REACTORS
330
257
102
}
330
257
100
DictionaryVariables
280
     0
  1
1:1
  0
DICTIONARYVAR
  5
C21
102
{ACAD_REACTORS
330
257
102
}
330
257
100
DictionaryVariables
280
     0
  1
STANDARD
  0
DICTIONARYVAR
  5
258
102
{ACAD_REACTORS
330
257
102
}
330
257
100
DictionaryVariables
280
     0
  1
STANDARD
  0
DICTIONARYVAR
  5
D78
102
{ACAD_REACTORS
330
257
102
}
330
257
100
DictionaryVariables
280
     0
  1
2
  0
DICTIONARYVAR
  5
D77
102
{ACAD_REACTORS
330
257
102
}
330
257
100
DictionaryVariables
280
     0
  1
1
  0
DICTIONARYVAR
  5
D76
102
{ACAD_REACTORS
330
257
102
}
330
257
100
DictionaryVariables
280
     0
  1
0
  0
DICTIONARYVAR
  5
C25
102
{ACAD_REACTORS
330
257
102
}
330
257
100
DictionaryVariables
280
     0
  1
1
  0
DICTIONARYVAR
  5
C26
102
{ACAD_REACTORS
330
257
102
}
330
257
100
DictionaryVariables
280
     0
  1
15
  0
DICTIONARYVAR
  5
C24
102
{ACAD_REACTORS
330
257
102
}
330
257
100
DictionaryVariables
280
     0
  1
0
  0
DICTIONARYVAR
  5
C22
102
{ACAD_REACTORS
330
257
102
}
330
257
100
DictionaryVariables
280
     0
  1
0
  0
DICTIONARYVAR
  5
D75
102
{ACAD_REACTORS
330
257
102
}
330
257
100
DictionaryVariables
280
     0
  1
127
  0
DICTIONARY
  5
207
102
{ACAD_REACTORS
330
1FC
102
}
330
1FC
100
AcDbDictionary
281
     1
  0
XRECORD
  5
226
102
{ACAD_REACTORS
330
1FC
102
}
330
1FC
100
AcDbXrecord
280
     1
 90
-1023410169
  0
XRECORD
  5
B0C
102
{ACAD_REACTORS
330
B0B
102
}
330
B0B
100
AcDbXrecord
280
     1
330
942
330
943
330
967
330
57B
330
0
330
0
330
0
  0
DICTIONARY
  5
D7D
330
1E
100
AcDbDictionary
280
     1
281
     1
  3
ACAD_XREC_ROUNDTRIP
360
D7E
  0
DICTIONARY
  5
D81
330
26
100
AcDbDictionary
280
     1
281
     1
  3
ACAD_XREC_ROUNDTRIP
360
D82
  0
DICTIONARY
  5
D7F
330
22
100
AcDbDictionary
280
     1
281
     1
  3
ACAD_XREC_ROUNDTRIP
360
D80
  0
DICTIONARY
  5
B54
330
B53
100
AcDbDictionary
280
     1
281
     1
  3
ACAD_XREC_ROUNDTRIP
360
D89
  3
BUMPTILE
360
B56
  3
DIFFUSETILE
360
B55
  3
OPACITYTILE
360
B59
  3
REFLECTIONTILE
360
B58
  3
REFRACTIONTILE
360
B5A
  3
SPECULARTILE
360
B57
  0
DICTIONARY
  5
B4C
330
B4B
100
AcDbDictionary
280
     1
281
     1
  3
ACAD_XREC_ROUNDTRIP
360
D88
  3
BUMPTILE
360
B4E
  3
DIFFUSETILE
360
B4D
  3
OPACITYTILE
360
B51
  3
REFLECTIONTILE
360
B50
  3
REFRACTIONTILE
360
B52
  3
SPECULARTILE
360
B4F
  0
DICTIONARY
  5
D84
330
2A6
100
AcDbDictionary
280
     1
281
     1
  3
ACAD_XREC_ROUNDTRIP
360
D85
  0
DICTIONARY
  5
C1E
330
19B
100
AcDbDictionary
280
     1
281
     1
  3
ACAD_ROUNDTRIP_2008_TABLESTYLE_CELLSTYLEMAP
360
D79
  3
ACAD_XREC_ROUNDTRIP
360
D83
  0
XRECORD
  5
D7E
102
{ACAD_REACTORS
330
D7D
102
}
330
D7D
100
AcDbXrecord
280
     1
102
SHADEPLOT
 70
     0
102
SHADEPLOTRESLEVEL
 70
     2
102
SHADEPLOTCUSTOMDPI
 70
   300
  0
XRECORD
  5
D82
102
{ACAD_REACTORS
330
D81
102
}
330
D81
100
AcDbXrecord
280
     1
102
SHADEPLOT
 70
     0
102
SHADEPLOTRESLEVEL
 70
     2
102
SHADEPLOTCUSTOMDPI
 70
   300
  0
XRECORD
  5
D80
102
{ACAD_REACTORS
330
D7F
102
}
330
D7F
100
AcDbXrecord
280
     1
102
SHADEPLOT
 70
     0
102
SHADEPLOTRESLEVEL
 70
     2
102
SHADEPLOTCUSTOMDPI
 70
   300
  0
XRECORD
  5
D89
102
{ACAD_REACTORS
330
B54
102
}
330
B54
100
AcDbXrecord
280
     1
102
MATERIAL
148
0.0
149
0.0
149
0.0
 93
        0
 94
      127
282
     0
 72
     0
 77
     0
171
     0
175
     0
179
     0
273
     0
  0
XRECORD
  5
B56
102
{ACAD_REACTORS
330
B54
102
}
330
B54
100
AcDbXrecord
280
     1
270
     1
271
     1
  0
XRECORD
  5
B55
102
{ACAD_REACTORS
330
B54
102
}
330
B54
100
AcDbXrecord
280
     1
270
     1
271
     1
  0
XRECORD
  5
B59
102
{ACAD_REACTORS
330
B54
102
}
330
B54
100
AcDbXrecord
280
     1
270
     1
271
     1
  0
XRECORD
  5
B58
102
{ACAD_REACTORS
330
B54
102
}
330
B54
100
AcDbXrecord
280
     1
270
     1
271
     1
  0
XRECORD
  5
B5A
102
{ACAD_REACTORS
330
B54
102
}
330
B54
100
AcDbXrecord
280
     1
270
     1
271
     1
  0
XRECORD
  5
B57
102
{ACAD_REACTORS
330
B54
102
}
330
B54
100
AcDbXrecord
280
     1
270
     1
271
     1
  0
XRECORD
  5
D88
102
{ACAD_REACTORS
330
B4C
102
}
330
B4C
100
AcDbXrecord
280
     1
102
MATERIAL
148
0.0
149
0.0
149
0.0
 93
        0
 94
      127
282
     0
 72
     0
 77
     0
171
     0
175
     0
179
     0
273
     0
  0
XRECORD
  5
B4E
102
{ACAD_REACTORS
330
B4C
102
}
330
B4C
100
AcDbXrecord
280
     1
270
     1
271
     1
  0
XRECORD
  5
B4D
102
{ACAD_REACTORS
330
B4C
102
}
330
B4C
100
AcDbXrecord
280
     1
270
     1
271
     1
  0
XRECORD
  5
B51
102
{ACAD_REACTORS
330
B4C
102
}
330
B4C
100
AcDbXrecord
280
     1
270
     1
271
     1
  0
XRECORD
  5
B50
102
{ACAD_REACTORS
330
B4C
102
}
330
B4C
100
AcDbXrecord
280
     1
270
     1
271
     1
  0
XRECORD
  5
B52
102
{ACAD_REACTORS
330
B4C
102
}
330
B4C
100
AcDbXrecord
280
     1
270
     1
271
     1
  0
XRECORD
  5
B4F
102
{ACAD_REACTORS
330
B4C
102
}
330
B4C
100
AcDbXrecord
280
     1
270
     1
271
     1
  0
XRECORD
  5
D85
102
{ACAD_REACTORS
330
D84
102
}
330
D84
100
AcDbXrecord
280
     1
102
MATERIAL
148
0.0
149
0.0
149
0.0
 93
        0
 94
       63
282
     0
 72
     1
 77
     1
171
     1
175
     1
179
     1
273
     0
  0
CELLSTYLEMAP
  5
D79
102
{ACAD_REACTORS
330
C1E
102
}
330
C1E
100
AcDbCellStyleMap
 90
        3
300
CELLSTYLE
  1
TABLEFORMAT_BEGIN
 90
        5
170
     1
 91
        0
 92
    32768
 62
   257
 93
        1
300
CONTENTFORMAT
  1
CONTENTFORMAT_BEGIN
 90
        0
 91
        0
 92
        4
 93
        0
300

 40
0.0
140
1.0
 94
        5
 62
     0
340
11
144
0.25
309
CONTENTFORMAT_END
171
     0
 94
        6
 95
        1
302
GRIDFORMAT
  1
GRIDFORMAT_BEGIN
 90
        0
 91
        1
 62
     0
 92
       -2
340
0
 93
        0
 40
0.045
309
GRIDFORMAT_END
 95
        2
302
GRIDFORMAT
  1
GRIDFORMAT_BEGIN
 90
        0
 91
        1
 62
     0
 92
       -2
340
0
 93
        0
 40
0.045
309
GRIDFORMAT_END
 95
        4
302
GRIDFORMAT
  1
GRIDFORMAT_BEGIN
 90
        0
 91
        1
 62
     0
 92
       -2
340
0
 93
        0
 40
0.045
309
GRIDFORMAT_END
 95
        8
302
GRIDFORMAT
  1
GRIDFORMAT_BEGIN
 90
        0
 91
        1
 62
     0
 92
       -2
340
0
 93
        0
 40
0.045
309
GRIDFORMAT_END
 95
       16
302
GRIDFORMAT
  1
GRIDFORMAT_BEGIN
 90
        0
 91
        1
 62
     0
 92
       -2
340
0
 93
        0
 40
0.045
309
GRIDFORMAT_END
 95
       32
302
GRIDFORMAT
  1
GRIDFORMAT_BEGIN
 90
        0
 91
        1
 62
     0
 92
       -2
340
0
 93
        0
 40
0.045
309
GRIDFORMAT_END
309
TABLEFORMAT_END
  1
CELLSTYLE_BEGIN
 90
        1
 91
        1
300
_TITLE
309
CELLSTYLE_END
300
CELLSTYLE
  1
TABLEFORMAT_BEGIN
 90
        5
170
     1
 91
        0
 92
        0
 62
   257
 93
        1
300
CONTENTFORMAT
  1
CONTENTFORMAT_BEGIN
 90
        0
 91
        0
 92
        4
 93
        0
300

 40
0.0
140
1.0
 94
        5
 62
     0
340
11
144
0.18
309
CONTENTFORMAT_END
171
     0
 94
        6
 95
        1
302
GRIDFORMAT
  1
GRIDFORMAT_BEGIN
 90
        0
 91
        1
 62
     0
 92
       -2
340
0
 93
        0
 40
0.045
309
GRIDFORMAT_END
 95
        2
302
GRIDFORMAT
  1
GRIDFORMAT_BEGIN
 90
        0
 91
        1
 62
     0
 92
       -2
340
0
 93
        0
 40
0.045
309
GRIDFORMAT_END
 95
        4
302
GRIDFORMAT
  1
GRIDFORMAT_BEGIN
 90
        0
 91
        1
 62
     0
 92
       -2
340
0
 93
        0
 40
0.045
309
GRIDFORMAT_END
 95
        8
302
GRIDFORMAT
  1
GRIDFORMAT_BEGIN
 90
        0
 91
        1
 62
     0
 92
       -2
340
0
 93
        0
 40
0.045
309
GRIDFORMAT_END
 95
       16
302
GRIDFORMAT
  1
GRIDFORMAT_BEGIN
 90
        0
 91
        1
 62
     0
 92
       -2
340
0
 93
        0
 40
0.045
309
GRIDFORMAT_END
 95
       32
302
GRIDFORMAT
  1
GRIDFORMAT_BEGIN
 90
        0
 91
        1
 62
     0
 92
       -2
340
0
 93
        0
 40
0.045
309
GRIDFORMAT_END
309
TABLEFORMAT_END
  1
CELLSTYLE_BEGIN
 90
        2
 91
        1
300
_HEADER
309
CELLSTYLE_END
300
CELLSTYLE
  1
TABLEFORMAT_BEGIN
 90
        5
170
     1
 91
        0
 92
        0
 62
   257
 93
        1
300
CONTENTFORMAT
  1
CONTENTFORMAT_BEGIN
 90
        0
 91
        0
 92
        4
 93
        0
300

 40
0.0
140
1.0
 94
        2
 62
     0
340
11
144
0.18
309
CONTENTFORMAT_END
171
     0
 94
        6
 95
        1
302
GRIDFORMAT
  1
GRIDFORMAT_BEGIN
 90
        0
 91
        1
 62
     0
 92
       -2
340
0
 93
        0
 40
0.045
309
GRIDFORMAT_END
 95
        2
302
GRIDFORMAT
  1
GRIDFORMAT_BEGIN
 90
        0
 91
        1
 62
     0
 92
       -2
340
0
 93
        0
 40
0.045
309
GRIDFORMAT_END
 95
        4
302
GRIDFORMAT
  1
GRIDFORMAT_BEGIN
 90
        0
 91
        1
 62
     0
 92
       -2
340
0
 93
        0
 40
0.045
309
GRIDFORMAT_END
 95
        8
302
GRIDFORMAT
  1
GRIDFORMAT_BEGIN
 90
        0
 91
        1
 62
     0
 92
       -2
340
0
 93
        0
 40
0.045
309
GRIDFORMAT_END
 95
       16
302
GRIDFORMAT
  1
GRIDFORMAT_BEGIN
 90
        0
 91
        1
 62
     0
 92
       -2
340
0
 93
        0
 40
0.045
309
GRIDFORMAT_END
 95
       32
302
GRIDFORMAT
  1
GRIDFORMAT_BEGIN
 90
        0
 91
        1
 62
     0
 92
       -2
340
0
 93
        0
 40
0.045
309
GRIDFORMAT_END
309
TABLEFORMAT_END
  1
CELLSTYLE_BEGIN
 90
        3
 91
        2
300
_DATA
309
CELLSTYLE_END
  0
XRECORD
  5
D83
102
{ACAD_REACTORS
330
C1E
102
}
330
C1E
100
AcDbXrecord
280
     1
102
ACAD_ROUNDTRIP_PRE2007_TABLESTYLE
 90
        4
 91
        0
  1

 92
        4
 93
        0
  2

 94
        4
 95
        0
  3

  0
ENDSEC
  0
EOF
